  0
SECTION
  2
HEADER
  9
$ACADVER
  1
AC1015
  9
$ACADMAINTVER
 70
     6
  9
$DWGCODEPAGE
  3
ANSI_1252
  9
$INSBASE
 10
0.0
 20
0.0
 30
0.0
  9
$EXTMIN
 10
0.0
 20
0.0
 30
0.0
  9
$EXTMAX
 10
297.0
 20
210.0
 30
0.0
  9
$LIMMIN
 10
0.0
 20
0.0
  9
$LIMMAX
 10
297.0
 20
210.0
  9
$ORTHOMODE
 70
     0
  9
$REGENMODE
 70
     1
  9
$FILLMODE
 70
     1
  9
$QTEXTMODE
 70
     0
  9
$MIRRTEXT
 70
     1
  9
$LTSCALE
 40
1.0
  9
$ATTMODE
 70
     1
  9
$TEXTSIZE
 40
2.0
  9
$TRACEWID
 40
1.0
  9
$TEXTSTYLE
  7
Standard
  9
$CLAYER
  8
0
  9
$CELTYPE
  6
ByLayer
  9
$CECOLOR
 62
   256
  9
$CELTSCALE
 40
1.0
  9
$DISPSILH
 70
     0
  9
$DIMSCALE
 40
1.0
  9
$DIMASZ
 40
3.0
  9
$DIMEXO
 40
0.0
  9
$DIMDLI
 40
3.75
  9
$DIMRND
 40
0.0
  9
$DIMDLE
 40
0.0
  9
$DIMEXE
 40
1.0
  9
$DIMTP
 40
0.0
  9
$DIMTM
 40
0.0
  9
$DIMTXT
 40
2.0
  9
$DIMCEN
 40
2.5
  9
$DIMTSZ
 40
0.0
  9
$DIMTOL
 70
     0
  9
$DIMLIM
 70
     0
  9
$DIMTIH
 70
     1
  9
$DIMTOH
 70
     1
  9
$DIMSE1
 70
     0
  9
$DIMSE2
 70
     0
  9
$DIMTAD
 70
     1
  9
$DIMZIN
 70
     0
  9
$DIMBLK
  1

  9
$DIMASO
 70
     1
  9
$DIMSHO
 70
     1
  9
$DIMPOST
  1

  9
$DIMAPOST
  1

  9
$DIMALT
 70
     0
  9
$DIMALTD
 70
     3
  9
$DIMALTF
 40
0.0393700787
  9
$DIMLFAC
 40
2.0
  9
$DIMTOFL
 70
     1
  9
$DIMTVP
 40
0.0
  9
$DIMTIX
 70
     0
  9
$DIMSOXD
 70
     0
  9
$DIMSAH
 70
     0
  9
$DIMBLK1
  1

  9
$DIMBLK2
  1

  9
$DIMSTYLE
  2
ISO-25
  9
$DIMCLRD
 70
     0
  9
$DIMCLRE
 70
     0
  9
$DIMCLRT
 70
     0
  9
$DIMTFAC
 40
1.0
  9
$DIMGAP
 40
1.524
  9
$DIMJUST
 70
     0
  9
$DIMSD1
 70
     0
  9
$DIMSD2
 70
     0
  9
$DIMTOLJ
 70
     0
  9
$DIMTZIN
 70
     0
  9
$DIMALTZ
 70
     0
  9
$DIMALTTZ
 70
     0
  9
$DIMUPT
 70
     0
  9
$DIMDEC
 70
     2
  9
$DIMTDEC
 70
     3
  9
$DIMALTU
 70
     2
  9
$DIMALTTD
 70
     3
  9
$DIMTXSTY
  7
Standard
  9
$DIMAUNIT
 70
     0
  9
$DIMADEC
 70
     2
  9
$DIMALTRND
 40
0.0
  9
$DIMAZIN
 70
     0
  9
$DIMDSEP
 70
    44
  9
$DIMATFIT
 70
     3
  9
$DIMFRAC
 70
     0
  9
$DIMLDRBLK
  1

  9
$DIMLUNIT
 70
     2
  9
$DIMLWD
 70
    -2
  9
$DIMLWE
 70
    -2
  9
$DIMTMOVE
 70
     0
  9
$LUNITS
 70
     2
  9
$LUPREC
 70
     2
  9
$SKETCHINC
 40
1.0
  9
$FILLETRAD
 40
10.0
  9
$AUNITS
 70
     0
  9
$AUPREC
 70
     2
  9
$MENU
  1
.
  9
$ELEVATION
 40
0.0
  9
$PELEVATION
 40
0.0
  9
$THICKNESS
 40
0.0
  9
$LIMCHECK
 70
     0
  9
$CHAMFERA
 40
0.0
  9
$CHAMFERB
 40
0.0
  9
$CHAMFERC
 40
0.0
  9
$CHAMFERD
 40
0.0
  9
$SKPOLY
 70
     0
  9
$TDCREATE
 40
2457675.399869746
  9
$TDUCREATE
 40
2457675.316536412
  9
$TDUPDATE
 40
2457675.39987125
  9
$TDUUPDATE
 40
2457675.316537917
  9
$TDINDWG
 40
0.0000000116
  9
$TDUSRTIMER
 40
0.0000000116
  9
$USRTIMER
 70
     1
  9
$ANGBASE
 50
0.0
  9
$ANGDIR
 70
     0
  9
$PDMODE
 70
     0
  9
$PDSIZE
 40
-1.0
  9
$PLINEWID
 40
0.0
  9
$SPLFRAME
 70
     0
  9
$SPLINETYPE
 70
     6
  9
$SPLINESEGS
 70
     8
  9
$HANDSEED
  5
250
  9
$SURFTAB1
 70
     6
  9
$SURFTAB2
 70
     6
  9
$SURFTYPE
 70
     6
  9
$SURFU
 70
     6
  9
$SURFV
 70
     6
  9
$UCSBASE
  2

  9
$UCSNAME
  2

  9
$UCSORG
 10
0.0
 20
0.0
 30
0.0
  9
$UCSXDIR
 10
1.0
 20
0.0
 30
0.0
  9
$UCSYDIR
 10
0.0
 20
1.0
 30
0.0
  9
$UCSORTHOREF
  2

  9
$UCSORTHOVIEW
 70
     0
  9
$UCSORGTOP
 10
0.0
 20
0.0
 30
0.0
  9
$UCSORGBOTTOM
 10
0.0
 20
0.0
 30
0.0
  9
$UCSORGLEFT
 10
0.0
 20
0.0
 30
0.0
  9
$UCSORGRIGHT
 10
0.0
 20
0.0
 30
0.0
  9
$UCSORGFRONT
 10
0.0
 20
0.0
 30
0.0
  9
$UCSORGBACK
 10
0.0
 20
0.0
 30
0.0
  9
$PUCSBASE
  2

  9
$PUCSNAME
  2

  9
$PUCSORG
 10
0.0
 20
0.0
 30
0.0
  9
$PUCSXDIR
 10
1.0
 20
0.0
 30
0.0
  9
$PUCSYDIR
 10
0.0
 20
1.0
 30
0.0
  9
$PUCSORTHOREF
  2

  9
$PUCSORTHOVIEW
 70
     0
  9
$PUCSORGTOP
 10
0.0
 20
0.0
 30
0.0
  9
$PUCSORGBOTTOM
 10
0.0
 20
0.0
 30
0.0
  9
$PUCSORGLEFT
 10
0.0
 20
0.0
 30
0.0
  9
$PUCSORGRIGHT
 10
0.0
 20
0.0
 30
0.0
  9
$PUCSORGFRONT
 10
0.0
 20
0.0
 30
0.0
  9
$PUCSORGBACK
 10
0.0
 20
0.0
 30
0.0
  9
$USERI1
 70
     0
  9
$USERI2
 70
     0
  9
$USERI3
 70
     0
  9
$USERI4
 70
     0
  9
$USERI5
 70
     0
  9
$USERR1
 40
0.0
  9
$USERR2
 40
0.0
  9
$USERR3
 40
0.0
  9
$USERR4
 40
0.0
  9
$USERR5
 40
0.0
  9
$WORLDVIEW
 70
     1
  9
$SHADEDGE
 70
     3
  9
$SHADEDIF
 70
    70
  9
$TILEMODE
 70
     1
  9
$MAXACTVP
 70
    64
  9
$PINSBASE
 10
0.0
 20
0.0
 30
0.0
  9
$PLIMCHECK
 70
     0
  9
$PEXTMIN
 10
1.0000000000E+20
 20
1.0000000000E+20
 30
1.0000000000E+20
  9
$PEXTMAX
 10
-1.0000000000E+20
 20
-1.0000000000E+20
 30
-1.0000000000E+20
  9
$PLIMMIN
 10
0.0
 20
0.0
  9
$PLIMMAX
 10
420.0
 20
297.0
  9
$UNITMODE
 70
     0
  9
$VISRETAIN
 70
     1
  9
$PLINEGEN
 70
     0
  9
$PSLTSCALE
 70
     1
  9
$TREEDEPTH
 70
  3020
  9
$CMLSTYLE
  2
Standard
  9
$CMLJUST
 70
     0
  9
$CMLSCALE
 40
20.0
  9
$PROXYGRAPHICS
 70
     1
  9
$MEASUREMENT
 70
     1
  9
$CELWEIGHT
370
    -1
  9
$ENDCAPS
280
     0
  9
$JOINSTYLE
280
     0
  9
$LWDISPLAY
290
     1
  9
$INSUNITS
 70
     4
  9
$HYPERLINKBASE
  1

  9
$STYLESHEET
  1

  9
$XEDIT
290
     1
  9
$CEPSNTYPE
380
     0
  9
$PSTYLEMODE
290
     1
  9
$FINGERPRINTGUID
  2
{ED05E2FA-E9C6-4519-A001-5A08BE47C694}
  9
$VERSIONGUID
  2
{FAEB1C32-E019-11D5-929B-00C0DF256EC4}
  9
$EXTNAMES
290
     1
  9
$PSVPSCALE
 40
0.0
  9
$OLESTARTUP
290
     0
  0
ENDSEC
  0
SECTION
  2
CLASSES
  0
CLASS
  1
ACDBDICTIONARYWDFLT
  2
AcDbDictionaryWithDefault
  3
ObjectDBX Classes
 90
        0
280
     0
281
     0
  0
CLASS
  1
VISUALSTYLE
  2
AcDbVisualStyle
  3
ObjectDBX Classes
 90
     4095
280
     0
281
     0
  0
CLASS
  1
MATERIAL
  2
AcDbMaterial
  3
ObjectDBX Classes
 90
     1153
280
     0
281
     0
  0
CLASS
  1
SCALE
  2
AcDbScale
  3
ObjectDBX Classes
 90
     1153
280
     0
281
     0
  0
CLASS
  1
TABLESTYLE
  2
AcDbTableStyle
  3
ObjectDBX Classes
 90
     4095
280
     0
281
     0
  0
CLASS
  1
MLEADERSTYLE
  2
AcDbMLeaderStyle
  3
ACDB_MLEADERSTYLE_CLASS
 90
     4095
280
     0
281
     0
  0
CLASS
  1
SUN
  2
AcDbSun
  3
SCENEOE
 90
     1153
280
     0
281
     0
  0
CLASS
  1
ACDBPLACEHOLDER
  2
AcDbPlaceHolder
  3
ObjectDBX Classes
 90
        0
280
     0
281
     0
  0
CLASS
  1
LAYOUT
  2
AcDbLayout
  3
ObjectDBX Classes
 90
        0
280
     0
281
     0
  0
ENDSEC
  0
SECTION
  2
TABLES
  0
TABLE
  2
VPORT
  5
8
330
0
100
AcDbSymbolTable
 70
     1
  0
VPORT
  5
29
330
8
100
AcDbSymbolTableRecord
100
AcDbViewportTableRecord
  2
*Active
 70
     0
 10
0.0
 20
0.0
 11
1.0
 21
1.0
 12
148.5
 22
105.0
 13
0.0
 23
0.0
 14
10.0
 24
10.0
 15
10.0
 25
10.0
 16
0.0
 26
0.0
 36
1.0
 17
0.0
 27
0.0
 37
0.0
 40
210.0
 41
1.4142857143
 42
50.0
 43
0.0
 44
0.0
 50
0.0
 51
0.0
 71
     0
 72
  2000
 73
     1
 74
     3
 75
     0
 76
     0
 77
     0
 78
     0
281
     0
 65
     1
110
0.0
120
0.0
130
0.0
111
1.0
121
0.0
131
0.0
112
0.0
122
1.0
132
0.0
 79
     0
146
0.0
  0
ENDTAB
  0
TABLE
  2
LTYPE
  5
5
330
0
100
AcDbSymbolTable
 70
     6
  0
LTYPE
  5
14
330
5
100
AcDbSymbolTableRecord
100
AcDbLinetypeTableRecord
  2
ByBlock
 70
     0
  3

 72
    65
 73
     0
 40
0.0
  0
LTYPE
  5
15
330
5
100
AcDbSymbolTableRecord
100
AcDbLinetypeTableRecord
  2
ByLayer
 70
     0
  3

 72
    65
 73
     0
 40
0.0
  0
LTYPE
  5
16
330
5
100
AcDbSymbolTableRecord
100
AcDbLinetypeTableRecord
  2
Continuous
 70
     0
  3
Solid line
 72
    65
 73
     0
 40
0.0
  0
LTYPE
  5
6E
330
5
100
AcDbSymbolTableRecord
100
AcDbLinetypeTableRecord
  2
HIDDEN
 70
     0
  3
Hidden __ __ __ __ __ __ __ __ __ __ __ __ __ __
 72
    65
 73
     2
 40
1.905
 49
1.27
 74
     0
 49
-0.635
 74
     0
  0
LTYPE
  5
6F
330
5
100
AcDbSymbolTableRecord
100
AcDbLinetypeTableRecord
  2
PHANTOM
 70
     0
  3
Phantom ______  __  __  ______  __  __  ______
 72
    65
 73
     6
 40
12.7
 49
6.35
 74
     0
 49
-1.27
 74
     0
 49
1.27
 74
     0
 49
-1.27
 74
     0
 49
1.27
 74
     0
 49
-1.27
 74
     0
  0
LTYPE
  5
70
330
5
100
AcDbSymbolTableRecord
100
AcDbLinetypeTableRecord
  2
CENTER
 70
     0
  3
Center ____ _ ____ _ ____ _ ____ _ ____ _ ____
 72
    65
 73
     4
 40
10.16
 49
6.35
 74
     0
 49
-1.27
 74
     0
 49
1.27
 74
     0
 49
-1.27
 74
     0
  0
LTYPE
  5
71
330
5
100
AcDbSymbolTableRecord
100
AcDbLinetypeTableRecord
  2
CENTERX2
 70
     0
  3
Center (2x) ________  __  ________  __  _____
 72
    65
 73
     4
 40
20.32
 49
12.7
 74
     0
 49
-2.54
 74
     0
 49
2.54
 74
     0
 49
-2.54
 74
     0
  0
LTYPE
  5
72
330
5
100
AcDbSymbolTableRecord
100
AcDbLinetypeTableRecord
  2
DOT2
 70
     0
  3
Dot (.5x) ........................................
 72
    65
 73
     2
 40
0.635
 49
0.0
 74
     0
 49
-0.635
 74
     0
  0
ENDTAB
  0
TABLE
  2
LAYER
  5
2
330
0
100
AcDbSymbolTable
 70
     5
  0
LAYER
  5
10
330
2
100
AcDbSymbolTableRecord
100
AcDbLayerTableRecord
  2
0
 70
     0
 62
     7
  6
Continuous
370
    -3
390
F
  0
LAYER
  5
73
330
2
100
AcDbSymbolTableRecord
100
AcDbLayerTableRecord
  2
FORMAT
 70
     0
 62
     7
  6
Continuous
370
    -3
390
F
  0
LAYER
  5
74
330
2
100
AcDbSymbolTableRecord
100
AcDbLayerTableRecord
  2
VERMASSUNG
 70
     0
 62
     7
  6
Continuous
370
    -3
390
F
  0
LAYER
  5
75
330
2
100
AcDbSymbolTableRecord
100
AcDbLayerTableRecord
  2
KOPF_DÜNN
 70
     0
 62
     7
  6
Continuous
370
    -3
390
F
  0
LAYER
  5
76
330
2
100
AcDbSymbolTableRecord
100
AcDbLayerTableRecord
  2
KOPF_DICK
 70
     0
 62
     7
  6
Continuous
370
    15
390
F
  0
ENDTAB
  0
TABLE
  2
STYLE
  5
3
330
0
100
AcDbSymbolTable
 70
     2
  0
STYLE
  5
11
330
3
100
AcDbSymbolTableRecord
100
AcDbTextStyleTableRecord
  2
Standard
 70
     0
 40
0.0
 41
1.0
 50
0.0
 71
     0
 42
2.0
  3
txt
  4

  0
STYLE
  5
77
330
3
100
AcDbSymbolTableRecord
100
AcDbTextStyleTableRecord
  2
SLDTEXTSTYLE0
 70
     0
 40
0.0
 41
0.7
 50
0.0
 71
     0
 42
2.0
  3
TXT
  4

  0
ENDTAB
  0
TABLE
  2
VIEW
  5
6
330
0
100
AcDbSymbolTable
 70
     0
  0
ENDTAB
  0
TABLE
  2
UCS
  5
7
330
0
100
AcDbSymbolTable
 70
     0
  0
ENDTAB
  0
TABLE
  2
APPID
  5
9
330
0
100
AcDbSymbolTable
 70
     1
  0
APPID
  5
12
330
9
100
AcDbSymbolTableRecord
100
AcDbRegAppTableRecord
  2
ACAD
 70
     0
  0
ENDTAB
  0
TABLE
  2
DIMSTYLE
  5
A
330
0
100
AcDbSymbolTable
 70
     2
100
AcDbDimStyleTable
  0
DIMSTYLE
105
27
330
A
100
AcDbSymbolTableRecord
100
AcDbDimStyleTableRecord
  2
ISO-25
 70
     0
 41
2.5
 42
0.625
 43
3.75
 44
1.25
 73
     0
 74
     0
 77
     1
 78
     8
140
2.5
141
2.5
143
0.0393700787
147
0.625
171
     3
172
     1
178
     0
271
     2
272
     2
274
     3
278
    44
283
     0
284
     8
340
11
  0
DIMSTYLE
105
165
102
{ACAD_REACTORS
330
164
330
171
330
17C
330
187
330
193
330
19D
102
}
330
A
100
AcDbSymbolTableRecord
100
AcDbDimStyleTableRecord
  2
SLDDIMSTYLE0
 70
     0
 41
3.0
 44
0.0
 45
0.000000001
 73
     0
 74
     0
 77
     1
 78
    12
 79
     3
140
2.0
147
0.5
173
     1
178
     0
271
     2
272
     3
276
     2
284
    12
340
77
  0
ENDTAB
  0
TABLE
  2
BLOCK_RECORD
  5
1
330
0
100
AcDbSymbolTable
 70
     7
  0
BLOCK_RECORD
  5
1F
330
1
100
AcDbSymbolTableRecord
100
AcDbBlockTableRecord
  2
*Model_Space
340
22
  0
BLOCK_RECORD
  5
1B
330
1
100
AcDbSymbolTableRecord
100
AcDbBlockTableRecord
  2
*Paper_Space
340
1E
  0
BLOCK_RECORD
  5
23
330
1
100
AcDbSymbolTableRecord
100
AcDbBlockTableRecord
  2
*Paper_Space0
340
26
  0
BLOCK_RECORD
  5
166
330
1
100
AcDbSymbolTableRecord
100
AcDbBlockTableRecord
  2
_D
340
0
  0
BLOCK_RECORD
  5
172
330
1
100
AcDbSymbolTableRecord
100
AcDbBlockTableRecord
  2
_D_1
340
0
  0
BLOCK_RECORD
  5
17D
330
1
100
AcDbSymbolTableRecord
100
AcDbBlockTableRecord
  2
_D_2
340
0
  0
BLOCK_RECORD
  5
188
330
1
100
AcDbSymbolTableRecord
100
AcDbBlockTableRecord
  2
_D_3
340
0
  0
BLOCK_RECORD
  5
194
330
1
100
AcDbSymbolTableRecord
100
AcDbBlockTableRecord
  2
_D_4
340
0
  0
BLOCK_RECORD
  5
19E
330
1
100
AcDbSymbolTableRecord
100
AcDbBlockTableRecord
  2
_D_5
340
0
  0
ENDTAB
  0
ENDSEC
  0
SECTION
  2
BLOCKS
  0
BLOCK
  5
20
330
1F
100
AcDbEntity
  8
0
100
AcDbBlockBegin
  2
*Model_Space
 70
     0
 10
0.0
 20
0.0
 30
0.0
  3
*Model_Space
  1

  0
ENDBLK
  5
21
330
1F
100
AcDbEntity
  8
0
100
AcDbBlockEnd
  0
BLOCK
  5
1C
330
1B
100
AcDbEntity
 67
     1
  8
0
100
AcDbBlockBegin
  2
*Paper_Space
 70
     0
 10
0.0
 20
0.0
 30
0.0
  3
*Paper_Space
  1

  0
ENDBLK
  5
1D
330
1B
100
AcDbEntity
 67
     1
  8
0
100
AcDbBlockEnd
  0
BLOCK
  5
24
330
23
100
AcDbEntity
  8
0
100
AcDbBlockBegin
  2
*Paper_Space0
 70
     0
 10
0.0
 20
0.0
 30
0.0
  3
*Paper_Space0
  1

  0
ENDBLK
  5
25
330
23
100
AcDbEntity
  8
0
100
AcDbBlockEnd
  0
BLOCK
  5
167
330
166
100
AcDbEntity
  8
0
100
AcDbBlockBegin
  2
_D
 70
     0
 10
0.0
 20
0.0
 30
0.0
  3
_D
  1

  0
SOLID
  5
169
330
166
100
AcDbEntity
  8
VERMASSUNG
100
AcDbTrace
 10
83.1218178624
 20
146.1429594506
 30
0.0
 11
82.6718178624
 21
143.1429594506
 31
0.0
 12
83.5718178624
 22
143.1429594506
 32
0.0
 13
83.5718178624
 23
143.1429594506
 33
0.0
  0
SOLID
  5
16A
330
166
100
AcDbEntity
  8
VERMASSUNG
100
AcDbTrace
 10
83.1218178624
 20
83.1429594506
 30
0.0
 11
83.5718178624
 21
86.1429594506
 31
0.0
 12
82.6718178624
 22
86.1429594506
 32
0.0
 13
82.6718178624
 23
86.1429594506
 33
0.0
  0
LINE
  5
16B
330
166
100
AcDbEntity
  8
VERMASSUNG
100
AcDbLine
 10
121.3752522845
 20
146.1429594506
 30
0.0
 11
82.1218178624
 21
146.1429594506
 31
0.0
  0
LINE
  5
16C
330
166
100
AcDbEntity
  8
VERMASSUNG
100
AcDbLine
 10
121.3752522845
 20
83.1429594506
 30
0.0
 11
82.1218178624
 21
83.1429594506
 31
0.0
  0
LINE
  5
16D
330
166
100
AcDbEntity
  8
VERMASSUNG
100
AcDbLine
 10
83.1218178624
 20
146.1429594506
 30
0.0
 11
83.1218178624
 21
83.1429594506
 31
0.0
  0
MTEXT
  5
16E
330
166
100
AcDbEntity
  8
VERMASSUNG
100
AcDbMText
 10
80.3436826061
 20
106.9379601528
 30
0.0
 40
2.0
 41
0.0
 71
     1
 72
     1
  1
HSK A
  7
SLDTEXTSTYLE0
 11
-7.044195017643634E-15
 21
1.0
 31
0.0
 73
     1
 44
1.0
  0
MTEXT
  5
16F
330
166
100
AcDbEntity
  8
VERMASSUNG
100
AcDbMText
 10
80.5436825574
 20
115.9379597653
 30
0.0
 40
2.0
 41
0.0
 71
     1
 72
     1
  1
%%c
  7
SLDTEXTSTYLE0
 11
-7.044195017643634E-15
 21
1.0
 31
0.0
 73
     1
 44
1.0
  0
MTEXT
  5
170
330
166
100
AcDbEntity
  8
VERMASSUNG
100
AcDbMText
 10
80.3436826061
 20
119.5479597796
 30
0.0
 40
2.0
 41
0.0
 71
     1
 72
     1
  1
63
  7
SLDTEXTSTYLE0
 11
-7.044195017643634E-15
 21
1.0
 31
0.0
 73
     1
 44
1.0
  0
ENDBLK
  5
168
330
166
100
AcDbEntity
  8
0
100
AcDbBlockEnd
  0
BLOCK
  5
173
330
172
100
AcDbEntity
  8
0
100
AcDbBlockBegin
  2
_D_1
 70
     0
 10
0.0
 20
0.0
 30
0.0
  3
_D_1
  1

  0
SOLID
  5
175
330
172
100
AcDbEntity
  8
VERMASSUNG
100
AcDbTrace
 10
213.9379718773
 20
120.1429594506
 30
0.0
 11
213.4879718773
 21
117.1429594506
 31
0.0
 12
214.3879718773
 22
117.1429594506
 32
0.0
 13
214.3879718773
 23
117.1429594506
 33
0.0
  0
SOLID
  5
176
330
172
100
AcDbEntity
  8
VERMASSUNG
100
AcDbTrace
 10
213.9379718773
 20
109.1429594506
 30
0.0
 11
214.3879718773
 21
112.1429594506
 31
0.0
 12
213.4879718773
 22
112.1429594506
 32
0.0
 13
213.4879718773
 23
112.1429594506
 33
0.0
  0
LINE
  5
177
330
172
100
AcDbEntity
  8
VERMASSUNG
100
AcDbLine
 10
206.0752522845
 20
120.1429594506
 30
0.0
 11
214.9379718773
 21
120.1429594506
 31
0.0
  0
LINE
  5
178
330
172
100
AcDbEntity
  8
VERMASSUNG
100
AcDbLine
 10
206.0752522845
 20
109.1429594506
 30
0.0
 11
214.9379718773
 21
109.1429594506
 31
0.0
  0
LINE
  5
179
330
172
100
AcDbEntity
  8
VERMASSUNG
100
AcDbLine
 10
213.9379718773
 20
120.1429594506
 30
0.0
 11
213.9379718773
 21
109.1429594506
 31
0.0
  0
MTEXT
  5
17A
330
172
100
AcDbEntity
  8
VERMASSUNG
100
AcDbMText
 10
211.3598365724
 20
111.8379592795
 30
0.0
 40
2.0
 41
0.0
 71
     1
 72
     1
  1
%%c
  7
SLDTEXTSTYLE0
 11
-7.044195017643634E-15
 21
1.0
 31
0.0
 73
     1
 44
1.0
  0
MTEXT
  5
17B
330
172
100
AcDbEntity
  8
VERMASSUNG
100
AcDbMText
 10
211.1598366211
 20
115.4479592939
 30
0.0
 40
2.0
 41
0.0
 71
     1
 72
     1
  1
11
  7
SLDTEXTSTYLE0
 11
-7.044195017643634E-15
 21
1.0
 31
0.0
 73
     1
 44
1.0
  0
ENDBLK
  5
174
330
172
100
AcDbEntity
  8
0
100
AcDbBlockEnd
  0
BLOCK
  5
17E
330
17D
100
AcDbEntity
  8
0
100
AcDbBlockBegin
  2
_D_2
 70
     0
 10
0.0
 20
0.0
 30
0.0
  3
_D_2
  1

  0
SOLID
  5
180
330
17D
100
AcDbEntity
  8
VERMASSUNG
100
AcDbTrace
 10
220.2379718773
 20
124.6429594506
 30
0.0
 11
219.7879718773
 21
121.6429594506
 31
0.0
 12
220.6879718773
 22
121.6429594506
 32
0.0
 13
220.6879718773
 23
121.6429594506
 33
0.0
  0
SOLID
  5
181
330
17D
100
AcDbEntity
  8
VERMASSUNG
100
AcDbTrace
 10
220.2379718773
 20
104.6429594506
 30
0.0
 11
220.6879718773
 21
107.6429594506
 31
0.0
 12
219.7879718773
 22
107.6429594506
 32
0.0
 13
219.7879718773
 23
107.6429594506
 33
0.0
  0
LINE
  5
182
330
17D
100
AcDbEntity
  8
VERMASSUNG
100
AcDbLine
 10
206.8752522845
 20
124.6429594506
 30
0.0
 11
221.2379718773
 21
124.6429594506
 31
0.0
  0
LINE
  5
183
330
17D
100
AcDbEntity
  8
VERMASSUNG
100
AcDbLine
 10
206.8752522845
 20
104.6429594506
 30
0.0
 11
221.2379718773
 21
104.6429594506
 31
0.0
  0
LINE
  5
184
330
17D
100
AcDbEntity
  8
VERMASSUNG
100
AcDbLine
 10
220.2379718773
 20
124.6429594506
 30
0.0
 11
220.2379718773
 21
104.6429594506
 31
0.0
  0
MTEXT
  5
185
330
17D
100
AcDbEntity
  8
VERMASSUNG
100
AcDbMText
 10
217.6598365724
 20
111.4379594934
 30
0.0
 40
2.0
 41
0.0
 71
     1
 72
     1
  1
%%c
  7
SLDTEXTSTYLE0
 11
-7.044195017643634E-15
 21
1.0
 31
0.0
 73
     1
 44
1.0
  0
MTEXT
  5
186
330
17D
100
AcDbEntity
  8
VERMASSUNG
100
AcDbMText
 10
217.4598366211
 20
115.0479595077
 30
0.0
 40
2.0
 41
0.0
 71
     1
 72
     1
  1
20
  7
SLDTEXTSTYLE0
 11
-7.044195017643634E-15
 21
1.0
 31
0.0
 73
     1
 44
1.0
  0
ENDBLK
  5
17F
330
17D
100
AcDbEntity
  8
0
100
AcDbBlockEnd
  0
BLOCK
  5
189
330
188
100
AcDbEntity
  8
0
100
AcDbBlockBegin
  2
_D_3
 70
     0
 10
0.0
 20
0.0
 30
0.0
  3
_D_3
  1

  0
ARC
  5
18B
330
188
100
AcDbEntity
  8
VERMASSUNG
100
AcDbCircle
 10
177.7502525215
 20
151.6305993598
 30
0.0
 40
4.248529228887633
100
AcDbArc
 50
153.4349488229
 51
206.5650511771
  0
ARC
  5
18C
330
188
100
AcDbEntity
  8
VERMASSUNG
100
AcDbCircle
 10
176.3502521058
 20
151.6305993598
 30
0.0
 40
4.248529228887608
100
AcDbArc
 50
333.4349488229
 51
26.5650511771
  0
SOLID
  5
18D
330
188
100
AcDbEntity
  8
VERMASSUNG
100
AcDbTrace
 10
207.0752522845
 20
149.7305990949
 30
0.0
 11
204.0752522845
 21
150.1805990949
 31
0.0
 12
204.0752522845
 22
149.2805990949
 32
0.0
 13
204.0752522845
 23
149.2805990949
 33
0.0
  0
SOLID
  5
18E
330
188
100
AcDbEntity
  8
VERMASSUNG
100
AcDbTrace
 10
147.0252522845
 20
149.7305990949
 30
0.0
 11
150.0252522845
 21
149.2805990949
 31
0.0
 12
150.0252522845
 22
150.1805990949
 32
0.0
 13
150.0252522845
 23
150.1805990949
 33
0.0
  0
LINE
  5
18F
330
188
100
AcDbEntity
  8
VERMASSUNG
100
AcDbLine
 10
207.0752522845
 20
124.4429594506
 30
0.0
 11
207.0752522845
 21
150.7305990949
 31
0.0
  0
LINE
  5
190
330
188
100
AcDbEntity
  8
VERMASSUNG
100
AcDbLine
 10
147.0252522845
 20
144.4893997744
 30
0.0
 11
147.0252522845
 21
150.7305990949
 31
0.0
  0
LINE
  5
191
330
188
100
AcDbEntity
  8
VERMASSUNG
100
AcDbLine
 10
207.0752522845
 20
149.7305990949
 30
0.0
 11
147.0252522845
 21
149.7305990949
 31
0.0
  0
MTEXT
  5
192
330
188
100
AcDbEntity
  8
VERMASSUNG
100
AcDbMText
 10
173.9502524574
 20
152.3087349237
 30
0.0
 40
2.0
 41
0.0
 71
     1
 72
     1
  1
60.05
  7
SLDTEXTSTYLE0
 73
     1
 44
1.0
  0
ENDBLK
  5
18A
330
188
100
AcDbEntity
  8
0
100
AcDbBlockEnd
  0
BLOCK
  5
195
330
194
100
AcDbEntity
  8
0
100
AcDbBlockBegin
  2
_D_4
 70
     0
 10
0.0
 20
0.0
 30
0.0
  3
_D_4
  1

  0
SOLID
  5
197
330
194
100
AcDbEntity
  8
VERMASSUNG
100
AcDbTrace
 10
207.0752522845
 20
155.7305990949
 30
0.0
 11
204.0752522845
 21
156.1805990949
 31
0.0
 12
204.0752522845
 22
155.2805990949
 32
0.0
 13
204.0752522845
 23
155.2805990949
 33
0.0
  0
SOLID
  5
198
330
194
100
AcDbEntity
  8
VERMASSUNG
100
AcDbTrace
 10
121.0752522845
 20
155.7305990949
 30
0.0
 11
124.0752522845
 21
155.2805990949
 31
0.0
 12
124.0752522845
 22
156.1805990949
 32
0.0
 13
124.0752522845
 23
156.1805990949
 33
0.0
  0
LINE
  5
199
330
194
100
AcDbEntity
  8
VERMASSUNG
100
AcDbLine
 10
207.0752522845
 20
124.4429594506
 30
0.0
 11
207.0752522845
 21
156.7305990949
 31
0.0
  0
LINE
  5
19A
330
194
100
AcDbEntity
  8
VERMASSUNG
100
AcDbLine
 10
121.0752522845
 20
145.8429594506
 30
0.0
 11
121.0752522845
 21
156.7305990949
 31
0.0
  0
LINE
  5
19B
330
194
100
AcDbEntity
  8
VERMASSUNG
100
AcDbLine
 10
207.0752522845
 20
155.7305990949
 30
0.0
 11
121.0752522845
 21
155.7305990949
 31
0.0
  0
MTEXT
  5
19C
330
194
100
AcDbEntity
  8
VERMASSUNG
100
AcDbMText
 10
162.6752523344
 20
158.3087346909
 30
0.0
 40
2.0
 41
0.0
 71
     1
 72
     1
  1
86
  7
SLDTEXTSTYLE0
 73
     1
 44
1.0
  0
ENDBLK
  5
196
330
194
100
AcDbEntity
  8
0
100
AcDbBlockEnd
  0
BLOCK
  5
19F
330
19E
100
AcDbEntity
  8
0
100
AcDbBlockBegin
  2
_D_5
 70
     0
 10
0.0
 20
0.0
 30
0.0
  3
_D_5
  1

  0
ARC
  5
1A1
330
19E
100
AcDbEntity
  8
VERMASSUNG
100
AcDbCircle
 10
149.2252523077
 20
163.6305993598
 30
0.0
 40
4.248529228887608
100
AcDbArc
 50
153.4349488229
 51
206.5650511771
  0
ARC
  5
1A2
330
19E
100
AcDbEntity
  8
VERMASSUNG
100
AcDbCircle
 10
147.0252523196
 20
163.6305993598
 30
0.0
 40
4.248529228887633
100
AcDbArc
 50
333.4349488229
 51
26.5650511771
  0
SOLID
  5
1A3
330
19E
100
AcDbEntity
  8
VERMASSUNG
100
AcDbTrace
 10
207.0752522845
 20
161.7305990949
 30
0.0
 11
204.0752522845
 21
162.1805990949
 31
0.0
 12
204.0752522845
 22
161.2805990949
 32
0.0
 13
204.0752522845
 23
161.2805990949
 33
0.0
  0
SOLID
  5
1A4
330
19E
100
AcDbEntity
  8
VERMASSUNG
100
AcDbTrace
 10
89.1752522845
 20
161.7305990949
 30
0.0
 11
92.1752522845
 21
161.2805990949
 31
0.0
 12
92.1752522845
 22
162.1805990949
 32
0.0
 13
92.1752522845
 23
162.1805990949
 33
0.0
  0
LINE
  5
1A5
330
19E
100
AcDbEntity
  8
VERMASSUNG
100
AcDbLine
 10
207.0752522845
 20
124.4429594506
 30
0.0
 11
207.0752522845
 21
162.7305990949
 31
0.0
  0
LINE
  5
1A6
330
19E
100
AcDbEntity
  8
VERMASSUNG
100
AcDbLine
 10
89.1752522845
 20
134.3336371971
 30
0.0
 11
89.1752522845
 21
162.7305990949
 31
0.0
  0
LINE
  5
1A7
330
19E
100
AcDbEntity
  8
VERMASSUNG
100
AcDbLine
 10
207.0752522845
 20
161.7305990949
 30
0.0
 11
89.1752522845
 21
161.7305990949
 31
0.0
  0
MTEXT
  5
1A8
330
19E
100
AcDbEntity
  8
VERMASSUNG
100
AcDbMText
 10
145.4252522436
 20
164.3087349237
 30
0.0
 40
2.0
 41
0.0
 71
     1
 72
     1
  1
117.9
  7
SLDTEXTSTYLE0
 73
     1
 44
1.0
  0
ENDBLK
  5
1A0
330
19E
100
AcDbEntity
  8
0
100
AcDbBlockEnd
  0
ENDSEC
  0
SECTION
  2
ENTITIES
  0
MTEXT
  5
78
330
1F
100
AcDbEntity
  8
KOPF_DÜNN
100
AcDbMText
 10
13.8892156294
 20
23.8442973028
 30
0.0
 40
3.0
 41
0.0
 71
     1
 72
     1
  1
A44.806.020.086
  7
SLDTEXTSTYLE0
 73
     1
 44
1.0
  0
MTEXT
  5
79
330
1F
100
AcDbEntity
  8
VERMASSUNG
100
AcDbMText
 10
13.9329988022
 20
28.8834360957
 30
0.0
 40
3.0
 41
0.0
 71
     1
 72
     1
  1
Aufnahme Master shank WH20
  7
SLDTEXTSTYLE0
 73
     1
 44
1.0
  0
MTEXT
  5
7A
330
1F
100
AcDbEntity
  8
VERMASSUNG
100
AcDbMText
 10
98.8601118557
 20
13.8365368761
 30
0.0
 40
2.0
 41
0.0
 71
     1
 72
     1
  1
Datum: 25.11.2011
  7
SLDTEXTSTYLE0
 73
     1
 44
1.0
  0
MTEXT
  5
7B
330
1F
100
AcDbEntity
  8
VERMASSUNG
100
AcDbMText
 10
13.933048693
 20
18.0482802738
 30
0.0
 40
2.0
 41
0.0
 71
     1
 72
     1
  1
DIN 69893
  7
SLDTEXTSTYLE0
 73
     1
 44
1.0
  0
MTEXT
  5
7C
330
1F
100
AcDbEntity
  8
VERMASSUNG
100
AcDbMText
 10
13.9808475933
 20
13.9090974274
 30
0.0
 40
2.0
 41
0.0
 71
     1
 72
     1
  1
Gewicht: 756g
  7
SLDTEXTSTYLE0
 73
     1
 44
1.0
  0
ARC
  5
7D
330
1F
100
AcDbEntity
  8
0
  6
Continuous
 62
     7
370
    15
100
AcDbCircle
 10
121.3752522845
 20
83.4429594506
 30
0.0
 40
0.3000000000000114
100
AcDbArc
 50
180.0
 51
270.0
  0
ARC
  5
7E
330
1F
100
AcDbEntity
  8
0
  6
Continuous
 62
     7
370
    15
100
AcDbCircle
 10
121.3752522845
 20
145.8429594506
 30
0.0
 40
0.3000000000000114
100
AcDbArc
 50
90.0
 51
180.0
  0
LINE
  5
7F
330
1F
100
AcDbEntity
  8
0
  6
Continuous
 62
     7
370
    15
100
AcDbLine
 10
121.3752522845
 20
83.1429594506
 30
0.0
 11
126.0252522845
 21
83.1429594506
 31
0.0
  0
LINE
  5
80
330
1F
100
AcDbEntity
  8
0
  6
Continuous
 62
     7
370
    15
100
AcDbLine
 10
126.0532406436
 20
146.1429594506
 30
0.0
 11
121.3752522845
 21
146.1429594506
 31
0.0
  0
ARC
  5
81
330
1F
100
AcDbEntity
  8
0
  6
Continuous
 62
     7
370
    15
100
AcDbCircle
 10
120.5752455319
 20
90.0725218362
 30
0.0
 40
0.6000067526677124
100
AcDbArc
 50
33.5571153394
 51
90.0
  0
ARC
  5
82
330
1F
100
AcDbEntity
  8
0
  6
Continuous
 62
     7
370
    15
100
AcDbCircle
 10
120.5752455319
 20
139.213397065
 30
0.0
 40
0.6000067526677045
100
AcDbArc
 50
270.0
 51
326.4428846606
  0
LINE
  5
83
330
1F
100
AcDbEntity
  8
0
  6
Continuous
 62
     7
370
    15
100
AcDbLine
 10
119.0752522845
 20
90.4225285889
 30
0.0
 11
119.9319650579
 21
90.6520840847
 31
0.0
  0
LINE
  5
84
330
1F
100
AcDbEntity
  8
0
  6
Continuous
 62
     7
370
    15
100
AcDbLine
 10
119.9319650579
 20
138.6338348166
 30
0.0
 11
119.0752522845
 21
138.8633903123
 31
0.0
  0
LINE
  5
85
330
1F
100
AcDbEntity
  8
0
  6
Continuous
 62
     7
370
    15
100
AcDbLine
 10
107.8437434857
 20
138.3006894707
 30
0.0
 11
95.2752522845
 21
137.6710055428
 31
0.0
  0
LINE
  5
86
330
1F
100
AcDbEntity
  8
0
  6
Continuous
 62
     7
370
    15
100
AcDbLine
 10
119.0752522845
 20
138.8633903123
 30
0.0
 11
116.2582506272
 21
138.7222579648
 31
0.0
  0
LINE
  5
87
330
1F
100
AcDbEntity
  8
0
  6
Continuous
 62
     7
370
    15
100
AcDbLine
 10
116.2583067172
 20
90.5636581263
 30
0.0
 11
119.0752522845
 21
90.4225285889
 31
0.0
  0
LINE
  5
88
330
1F
100
AcDbEntity
  8
0
  6
Continuous
 62
     7
370
    15
100
AcDbLine
 10
99.2752522845
 20
91.4145125568
 30
0.0
 11
107.8441460044
 21
90.9852092642
 31
0.0
  0
ARC
  5
89
330
1F
100
AcDbEntity
  8
0
  6
Continuous
 62
     7
370
    15
100
AcDbCircle
 10
120.087256485
 20
90.0725285889
 30
0.0
 40
0.5999999999999971
100
AcDbArc
 50
90.0
 51
105.0
  0
ARC
  5
8A
330
1F
100
AcDbEntity
  8
0
  6
Continuous
 62
     7
370
    15
100
AcDbCircle
 10
120.087256485
 20
139.2133903123
 30
0.0
 40
0.5999999999999971
100
AcDbArc
 50
255.0
 51
270.0
  0
LINE
  5
8B
330
1F
100
AcDbEntity
  8
0
  6
Continuous
 62
     7
370
    15
100
AcDbLine
 10
120.087256485
 20
90.6725285889
 30
0.0
 11
120.5752455319
 21
90.6725285889
 31
0.0
  0
LINE
  5
8C
330
1F
100
AcDbEntity
  8
0
  6
Continuous
 62
     7
370
    15
100
AcDbLine
 10
120.5752455319
 20
138.6133903123
 30
0.0
 11
120.087256485
 21
138.6133903123
 31
0.0
  0
ARC
  5
8D
330
1F
100
AcDbEntity
  8
0
  6
Continuous
 62
     7
370
    15
100
AcDbCircle
 10
150.0252522845
 20
101.6429594506
 30
0.0
 40
3.0
100
AcDbArc
 50
90.0
 51
180.0
  0
ARC
  5
8E
330
1F
100
AcDbEntity
  8
0
  6
Continuous
 62
     7
370
    15
100
AcDbCircle
 10
150.0252522845
 20
127.6429594506
 30
0.0
 40
3.0
100
AcDbArc
 50
180.0
 51
270.0
  0
LINE
  5
8F
330
1F
100
AcDbEntity
  8
0
  6
Continuous
 62
     7
370
    15
100
AcDbLine
 10
90.4585889245
 20
93.7729594506
 30
0.0
 11
97.8752522845
 21
93.7729594506
 31
0.0
  0
ARC
  5
90
330
1F
100
AcDbEntity
  8
0
  6
Continuous
 62
     7
370
    15
100
AcDbCircle
 10
97.8752522845
 20
92.3729594506
 30
0.0
 40
1.400000000000006
100
AcDbArc
 50
42.2465410162
 51
90.0
  0
LINE
  5
91
330
1F
100
AcDbEntity
  8
0
  6
Continuous
 62
     7
370
    15
100
AcDbLine
 10
89.1864127196
 20
94.9117990155
 30
0.0
 11
90.3164157427
 21
93.7817959924
 31
0.0
  0
LINE
  5
92
330
1F
100
AcDbEntity
  8
0
  6
Continuous
 62
     7
370
    15
100
AcDbLine
 10
90.3164157427
 20
135.5041229088
 30
0.0
 11
89.1851530579
 21
134.372860224
 31
0.0
  0
LINE
  5
93
330
1F
100
AcDbEntity
  8
0
  6
Continuous
 62
     7
370
    15
100
AcDbLine
 10
206.8752522845
 20
104.6429594506
 30
0.0
 11
207.0752522845
 21
104.8429594506
 31
0.0
  0
LINE
  5
94
330
1F
100
AcDbEntity
  8
0
  6
Continuous
 62
     7
370
    15
100
AcDbLine
 10
207.0752522845
 20
124.4429594506
 30
0.0
 11
206.8752522845
 21
124.6429594506
 31
0.0
  0
LINE
  5
95
330
1F
100
AcDbEntity
  8
0
  6
Continuous
 62
     7
370
    15
100
AcDbLine
 10
150.0252522845
 20
104.6429594506
 30
0.0
 11
206.8752522845
 21
104.6429594506
 31
0.0
  0
LINE
  5
96
330
1F
100
AcDbEntity
  8
0
  6
Continuous
 62
     7
370
    15
100
AcDbLine
 10
206.8752522845
 20
124.6429594506
 30
0.0
 11
150.0252522845
 21
124.6429594506
 31
0.0
  0
ARC
  5
97
330
1F
100
AcDbEntity
  8
0
  6
Continuous
 62
     7
370
    15
100
AcDbCircle
 10
93.8752522845
 20
136.9129594506
 30
0.0
 40
1.400000000000017
100
AcDbArc
 50
270.0
 51
303.0982988698
  0
LINE
  5
98
330
1F
100
AcDbEntity
  8
0
  6
Continuous
 62
     7
370
    15
100
AcDbLine
 10
93.8752522845
 20
135.5129594506
 30
0.0
 11
90.4495180184
 21
135.5129594506
 31
0.0
  0
LINE
  5
99
330
1F
100
AcDbEntity
  8
0
  6
Continuous
 62
     7
370
    15
100
AcDbLine
 10
121.0752522845
 20
83.4429594506
 30
0.0
 11
121.0752522845
 21
145.8429594439
 31
0.0
  0
LINE
  5
9A
330
1F
100
AcDbEntity
  8
0
  6
Continuous
 62
     7
370
    15
100
AcDbLine
 10
147.0252522845
 20
85.08268205
 30
0.0
 11
147.0252522845
 21
134.4929594506
 31
0.0
  0
SPLINE
  5
9B
330
1F
100
AcDbEntity
  8
0
  6
Continuous
 62
     7
370
    15
100
AcDbSpline
210
0.0
220
0.0
230
1.0
 70
     8
 71
     3
 72
    10
 73
     6
 74
     0
 42
0.000000001
 43
0.00000001
 40
0.0
 40
0.0
 40
0.0
 40
0.0
 40
0.5
 40
0.5
 40
1.0
 40
1.0
 40
1.0
 40
1.0
 10
147.0252522845193
 20
85.08268205002123
 30
0.0
 10
147.0252522845193
 20
84.92279478182758
 30
0.0
 10
146.9639426332835
 20
84.76166752631298
 30
0.0
 10
146.7448429957484
 20
84.52756852795815
 30
0.0
 10
146.5867947894349
 20
84.45604175436691
 30
0.0
 10
146.4252522845193
 20
84.45604175436691
 30
0.0
  0
SPLINE
  5
9C
330
1F
100
AcDbEntity
  8
0
  6
Continuous
 62
     7
370
    15
100
AcDbSpline
210
0.0
220
0.0
230
1.0
 70
    24
 71
     3
 72
    12
 73
     8
 74
     0
 42
0.000000001
 43
0.00000001
 40
0.0
 40
0.0
 40
0.0
 40
0.0
 40
0.2500000000000033
 40
0.2500000000000033
 40
0.5000000000000067
 40
0.5000000000000067
 40
1.0
 40
1.0
 40
1.0
 40
1.0
 10
146.4252522845193
 20
134.4929594506141
 30
0.0
 10
146.5154913522063
 20
134.4929594506141
 30
0.0
 10
146.6063894663129
 20
134.4929594506141
 30
0.0
 10
146.7609865028014
 20
134.4929594506141
 30
0.0
 10
146.8259649189095
 20
134.4929594506141
 30
0.0
 10
146.9777999468457
 20
134.4929594506141
 30
0.0
 10
147.0252522845193
 20
134.4929594506141
 30
0.0
 10
147.0252522845193
 20
134.4929594506141
 30
0.0
  0
LINE
  5
9D
330
1F
100
AcDbEntity
  8
0
  6
Continuous
 62
     7
370
    15
100
AcDbLine
 10
137.1652522845
 20
87.1451222916
 30
0.0
 11
137.1652522845
 21
134.4929594506
 31
0.0
  0
SPLINE
  5
9E
330
1F
100
AcDbEntity
  8
0
  6
Continuous
 62
     7
370
    15
100
AcDbSpline
210
0.0
220
0.0
230
1.0
 70
     8
 71
     3
 72
     8
 73
     4
 74
     0
 42
0.000000001
 43
0.00000001
 40
0.0
 40
0.0
 40
0.0
 40
0.0
 40
1.0
 40
1.0
 40
1.0
 40
1.0
 10
137.1652522845193
 20
87.14512229155922
 30
0.0
 10
136.6729131617381
 20
86.24785225735252
 30
0.0
 10
136.178799113696
 20
85.35156784230027
 30
0.0
 10
135.6833194530302
 20
84.45604175436691
 30
0.0
  0
LINE
  5
9F
330
1F
100
AcDbEntity
  8
0
  6
Continuous
 62
     7
370
    15
100
AcDbLine
 10
135.683319453
 20
84.4560417544
 30
0.0
 11
135.683319453
 21
134.4929594506
 31
0.0
  0
SPLINE
  5
A0
330
1F
100
AcDbEntity
  8
0
  6
Continuous
 62
     7
370
    15
100
AcDbSpline
210
0.0
220
0.0
230
1.0
 70
    24
 71
     3
 72
     8
 73
     4
 74
     0
 42
0.000000001
 43
0.00000001
 40
0.0
 40
0.0
 40
0.0
 40
0.0
 40
1.0
 40
1.0
 40
1.0
 40
1.0
 10
135.6833194530302
 20
134.4929594506141
 30
0.0
 10
136.1899995611808
 20
134.4929594506141
 30
0.0
 10
136.6853002901544
 20
134.4929594506141
 30
0.0
 10
137.1652522845193
 20
134.4929594506141
 30
0.0
  0
LINE
  5
A1
330
1F
100
AcDbEntity
  8
0
  6
Continuous
 62
     7
370
    15
100
AcDbLine
 10
142.467185116
 20
84.4560417544
 30
0.0
 11
142.467185116
 21
134.4929594506
 31
0.0
  0
SPLINE
  5
A2
330
1F
100
AcDbEntity
  8
0
  6
Continuous
 62
     7
370
    15
100
AcDbSpline
210
0.0
220
0.0
230
1.0
 70
     8
 71
     3
 72
     8
 73
     4
 74
     0
 42
0.000000001
 43
0.00000001
 40
0.0
 40
0.0
 40
0.0
 40
0.0
 40
1.0
 40
1.0
 40
1.0
 40
1.0
 10
142.4671851160084
 20
84.45604175436691
 30
0.0
 10
141.9717054553426
 20
85.35156784230027
 30
0.0
 10
141.4775914073005
 20
86.24785225735252
 30
0.0
 10
140.9852522845193
 20
87.14512229155922
 30
0.0
  0
LINE
  5
A3
330
1F
100
AcDbEntity
  8
0
  6
Continuous
 62
     7
370
    15
100
AcDbLine
 10
140.9852522845
 20
87.1451222916
 30
0.0
 11
140.9852522845
 21
134.4929594506
 31
0.0
  0
SPLINE
  5
A4
330
1F
100
AcDbEntity
  8
0
  6
Continuous
 62
     7
370
    15
100
AcDbSpline
210
0.0
220
0.0
230
1.0
 70
    24
 71
     3
 72
     8
 73
     4
 74
     0
 42
0.000000001
 43
0.00000001
 40
0.0
 40
0.0
 40
0.0
 40
0.0
 40
1.0
 40
1.0
 40
1.0
 40
1.0
 10
140.9852522845193
 20
134.4929594506141
 30
0.0
 10
141.4652042788842
 20
134.4929594506141
 30
0.0
 10
141.9605050078578
 20
134.4929594506141
 30
0.0
 10
142.4671851160084
 20
134.4929594506141
 30
0.0
  0
LINE
  5
A5
330
1F
100
AcDbEntity
  8
0
  6
Continuous
 62
     7
370
    15
100
AcDbLine
 10
146.4252522845
 20
84.4560417544
 30
0.0
 11
142.467185116
 21
84.4560417544
 31
0.0
  0
LINE
  5
A6
330
1F
100
AcDbEntity
  8
0
  6
Continuous
 62
     7
370
    15
100
AcDbLine
 10
142.467185116
 20
134.4929594506
 30
0.0
 11
146.4252522845
 21
134.4929594506
 31
0.0
  0
LINE
  5
A7
330
1F
100
AcDbEntity
  8
0
  6
Continuous
 62
     7
370
    15
100
AcDbLine
 10
126.0252522845
 20
134.4929594506
 30
0.0
 11
135.683319453
 21
134.4929594506
 31
0.0
  0
LINE
  5
A8
330
1F
100
AcDbEntity
  8
0
  6
Continuous
 62
     7
370
    15
100
AcDbLine
 10
135.683319453
 20
84.4560417544
 30
0.0
 11
134.0252522845
 21
84.4560417544
 31
0.0
  0
SPLINE
  5
A9
330
1F
100
AcDbEntity
  8
0
  6
Continuous
 62
     7
370
    15
100
AcDbSpline
210
0.0
220
0.0
230
1.0
 70
     8
 71
     3
 72
    28
 73
    24
 74
     0
 42
0.000000001
 43
0.00000001
 40
0.0
 40
0.0
 40
0.0
 40
0.0
 40
0.1249999999999999
 40
0.1249999999999999
 40
0.1874999999999998
 40
0.1874999999999998
 40
0.2499999999999997
 40
0.2499999999999997
 40
0.3749999999999993
 40
0.3749999999999993
 40
0.4374999999999993
 40
0.4374999999999993
 40
0.4999999999999992
 40
0.4999999999999992
 40
0.6249999999999992
 40
0.6249999999999992
 40
0.7499999999999992
 40
0.7499999999999992
 40
0.8124999999999993
 40
0.8124999999999993
 40
0.8749999999999996
 40
0.8749999999999996
 40
1.0
 40
1.0
 40
1.0
 40
1.0
 10
134.0252522845193
 20
84.45604175436691
 30
0.0
 10
133.4935445270264
 20
84.45604175436691
 30
0.0
 10
132.971305961716
 20
84.44025704041668
 30
0.0
 10
132.201435475441
 20
84.3952616263405
 30
0.0
 10
131.9470759032497
 20
84.37670663126475
 30
0.0
 10
131.4429543225512
 20
84.33285390881827
 30
0.0
 10
131.1932315051233
 20
84.30750930186606
 30
0.0
 10
130.4676415536769
 20
84.22410722411595
 30
0.0
 10
130.0092812920953
 20
84.15824166496488
 30
0.0
 10
129.3587833487014
 20
84.0492713244731
 30
0.0
 10
129.147101297909
 20
84.01103168870644
 30
0.0
 10
128.743029808771
 20
83.93327295128708
 30
0.0
 10
128.5505232949501
 20
83.89377198911174
 30
0.0
 10
128.0006883239288
 20
83.77486424674572
 30
0.0
 10
127.67075954562
 20
83.6950465653211
 30
0.0
 10
127.0862882770514
 20
83.54170340352506
 30
0.0
 10
126.8400111390379
 20
83.47036965025579
 30
0.0
 10
126.5401683463398
 20
83.37642614318118
 30
0.0
 10
126.4517114892677
 20
83.34723234982125
 30
0.0
 10
126.2983501359625
 20
83.29376577555784
 30
0.0
 10
126.2332619217363
 20
83.26940644128267
 30
0.0
 10
126.0776679057955
 20
83.20581629583792
 30
0.0
 10
126.0252522845193
 20
83.17571336074866
 30
0.0
 10
126.0252522845193
 20
83.15883646775174
 30
0.0
  0
LINE
  5
AA
330
1F
100
AcDbEntity
  8
0
  6
Continuous
 62
     7
370
    15
100
AcDbLine
 10
126.0252522845
 20
83.1588364678
 30
0.0
 11
126.0252522845
 21
83.1429594506
 31
0.0
  0
SPLINE
  5
AB
330
1F
100
AcDbEntity
  8
0
  6
Continuous
 62
     7
370
    15
100
AcDbSpline
210
0.0
220
0.0
230
1.0
 70
     8
 71
     3
 72
    17
 73
    13
 74
     0
 42
0.000000001
 43
0.00000001
 40
0.0
 40
0.0
 40
0.0
 40
0.0
 40
0.1034796923964057
 40
0.210023918880785
 40
0.3134862136955584
 40
0.4198361274354883
 40
0.5254127712915682
 40
0.6339610695419793
 40
0.7409508756305033
 40
0.8511696089308177
 40
0.955899653455194
 40
1.0
 40
1.0
 40
1.0
 40
1.0
 10
134.0252522845193
 20
145.1101549237783
 30
0.0
 10
133.5900039354093
 20
145.1156031203116
 30
0.0
 10
132.7066174288443
 20
145.1266608608235
 30
0.0
 10
131.4257898436156
 20
145.213019253725
 30
0.0
 10
130.2083733077416
 20
145.3408894302628
 30
0.0
 10
129.100567455495
 20
145.499834728856
 30
0.0
 10
128.1123286515468
 20
145.6743284165715
 30
0.0
 10
127.2876050940153
 20
145.8434942672114
 30
0.0
 10
126.638651593356
 20
145.9913780497398
 30
0.0
 10
126.2216167778943
 20
146.0931686339705
 30
0.0
 10
126.0230200649297
 20
146.1435201565737
 30
0.0
 10
126.046332786363
 20
146.1376144723514
 30
0.0
 10
126.0532406436005
 20
146.1358645426568
 30
0.0
  0
LINE
  5
AC
330
1F
100
AcDbEntity
  8
0
  6
Continuous
 62
     7
370
    15
100
AcDbLine
 10
135.683319453
 20
145.1101549238
 30
0.0
 11
134.0252522845
 21
145.1101549238
 31
0.0
  0
LINE
  5
AD
330
1F
100
AcDbEntity
  8
0
  6
Continuous
 62
     7
370
    15
100
AcDbLine
 10
135.683319453
 20
139.101649113
 30
0.0
 11
135.683319453
 21
145.1101549238
 31
0.0
  0
LINE
  5
AE
330
1F
100
AcDbEntity
  8
0
  6
Continuous
 62
     7
370
    15
100
AcDbLine
 10
133.2708726302
 20
139.101649113
 30
0.0
 11
135.683319453
 21
139.101649113
 31
0.0
  0
SPLINE
  5
AF
330
1F
100
AcDbEntity
  8
0
  6
Continuous
 62
     7
370
    15
100
AcDbSpline
210
0.0
220
0.0
230
1.0
 70
     8
 71
     3
 72
    20
 73
    16
 74
     0
 42
0.000000001
 43
0.00000001
 40
0.0
 40
0.0
 40
0.0
 40
0.0
 40
0.2499999999999995
 40
0.2499999999999995
 40
0.3749999999999996
 40
0.3749999999999996
 40
0.4999999999999997
 40
0.4999999999999997
 40
0.6249999999999998
 40
0.6249999999999998
 40
0.7499999999999998
 40
0.7499999999999998
 40
0.8749999999999999
 40
0.8749999999999999
 40
1.0
 40
1.0
 40
1.0
 40
1.0
 10
126.0252522845193
 20
134.4929594506141
 30
0.0
 10
126.2736260188074
 20
135.1468218789115
 30
0.0
 10
126.5931961111526
 20
135.7506076609086
 30
0.0
 10
127.2155023443573
 20
136.5774463970772
 30
0.0
 10
127.4469266047881
 20
136.8398750350301
 30
0.0
 10
127.9681409444378
 20
137.3365376891351
 30
0.0
 10
128.2547614270729
 20
137.5671245681567
 30
0.0
 10
128.8742461683805
 20
137.9836787927393
 30
0.0
 10
129.2085465478674
 20
138.1711765947068
 30
0.0
 10
129.9338070204922
 20
138.5025735723432
 30
0.0
 10
130.3157220778827
 20
138.6420775598385
 30
0.0
 10
131.1105102540544
 20
138.8675310673094
 30
0.0
 10
131.5246684482607
 20
138.9541571788531
 30
0.0
 10
132.3902147888421
 20
139.0721379677072
 30
0.0
 10
132.828102403854
 20
139.1016491129815
 30
0.0
 10
133.2708726302086
 20
139.1016491129815
 30
0.0
  0
SPLINE
  5
B0
330
1F
100
AcDbEntity
  8
0
  6
Continuous
 62
     7
370
    15
100
AcDbSpline
210
0.0
220
0.0
230
1.0
 70
    24
 71
     3
 72
    14
 73
    10
 74
     0
 42
0.000000001
 43
0.00000001
 40
0.0
 40
0.0
 40
0.0
 40
0.0
 40
0.4999999999999982
 40
0.4999999999999982
 40
0.7499999999999973
 40
0.7499999999999973
 40
0.8749999999999987
 40
0.8749999999999987
 40
1.0
 40
1.0
 40
1.0
 40
1.0
 10
140.887577482187
 20
88.24295945061408
 30
0.0
 10
140.8403673229572
 20
88.24295945061407
 30
0.0
 10
140.7771328494135
 20
88.24295945061408
 30
0.0
 10
140.6333209186856
 20
88.24295945061407
 30
0.0
 10
140.5779958442092
 20
88.24295945061407
 30
0.0
 10
140.4660846709742
 20
88.24295945061408
 30
0.0
 10
140.4232975845332
 20
88.24295945061408
 30
0.0
 10
140.3189322514995
 20
88.24295945061407
 30
0.0
 10
140.2547084571978
 20
88.24295945061408
 30
0.0
 10
140.1852522845748
 20
88.24295945061408
 30
0.0
  0
SPLINE
  5
B1
330
1F
100
AcDbEntity
  8
0
  6
Continuous
 62
     7
370
    15
100
AcDbSpline
210
0.0
220
0.0
230
1.0
 70
    24
 71
     3
 72
    12
 73
     8
 74
     0
 42
0.000000001
 43
0.00000001
 40
0.0
 40
0.0
 40
0.0
 40
0.0
 40
0.4999999999999983
 40
0.4999999999999983
 40
0.7499999999999991
 40
0.7499999999999991
 40
1.0
 40
1.0
 40
1.0
 40
1.0
 10
140.5909547528286
 20
141.0429594506141
 30
0.0
 10
140.5475165650256
 20
141.0429594506141
 30
0.0
 10
140.4983223167276
 20
141.0429594506141
 30
0.0
 10
140.4016035593465
 20
141.0429594506141
 30
0.0
 10
140.3654160778449
 20
141.0429594506141
 30
0.0
 10
140.2825382193201
 20
141.0429594506141
 30
0.0
 10
140.2345847720134
 20
141.0429594506141
 30
0.0
 10
140.1852522845193
 20
141.0429594506141
 30
0.0
  0
SPLINE
  5
B2
330
1F
100
AcDbEntity
  8
0
  6
Continuous
 62
     7
370
    15
100
AcDbSpline
210
0.0
220
0.0
230
1.0
 70
     8
 71
     3
 72
    10
 73
     6
 74
     0
 42
0.000000001
 43
0.00000001
 40
0.0
 40
0.0
 40
0.0
 40
0.0
 40
0.5
 40
0.5
 40
1.0
 40
1.0
 40
1.0
 40
1.0
 10
140.9852522845193
 20
141.7626133016498
 30
0.0
 10
140.9852522845193
 20
141.6188432438321
 30
0.0
 10
140.9492032258005
 20
141.4764238813371
 30
0.0
 10
140.8136943650269
 20
141.2265295879802
 30
0.0
 10
140.7138183719311
 20
141.118499251732
 30
0.0
 10
140.5909547528294
 20
141.0429594506147
 30
0.0
  0
SPLINE
  5
B3
330
1F
100
AcDbEntity
  8
0
  6
Continuous
 62
     7
370
    15
100
AcDbSpline
210
0.0
220
0.0
230
1.0
 70
     8
 71
     3
 72
     9
 73
     5
 74
     0
 42
0.000000001
 43
0.00000001
 40
0.0
 40
0.0
 40
0.0
 40
0.0
 40
0.5
 40
1.0
 40
1.0
 40
1.0
 40
1.0
 10
140.9591046613592
 20
134.4929594506141
 30
0.0
 10
140.9678432312415
 20
134.5401022509494
 30
0.0
 10
140.9808625175779
 20
134.63489833262
 30
0.0
 10
140.9852522845193
 20
134.7306826041804
 30
0.0
 10
140.9852522845193
 20
134.7788260820755
 30
0.0
  0
SPLINE
  5
B4
330
1F
100
AcDbEntity
  8
0
  6
Continuous
 62
     7
370
    15
100
AcDbSpline
210
0.0
220
0.0
230
1.0
 70
     8
 71
     3
 72
    10
 73
     6
 74
     0
 42
0.000000001
 43
0.00000001
 40
0.0
 40
0.0
 40
0.0
 40
0.0
 40
0.5
 40
0.5
 40
1.0
 40
1.0
 40
1.0
 40
1.0
 10
137.5595498162103
 20
141.0429594506141
 30
0.0
 10
137.4380095525417
 20
141.1176856178258
 30
0.0
 10
137.3366751921928
 20
141.2266306337426
 30
0.0
 10
137.2010362493044
 20
141.4770611145042
 30
0.0
 10
137.1652522845193
 20
141.6194804766032
 30
0.0
 10
137.1652522845193
 20
141.7626133016498
 30
0.0
  0
SPLINE
  5
B5
330
1F
100
AcDbEntity
  8
0
  6
Continuous
 62
     7
370
    15
100
AcDbSpline
210
0.0
220
0.0
230
1.0
 70
    24
 71
     3
 72
    12
 73
     8
 74
     0
 42
0.000000001
 43
0.00000001
 40
0.0
 40
0.0
 40
0.0
 40
0.0
 40
0.2500000000000021
 40
0.2500000000000021
 40
0.5000000000000041
 40
0.5000000000000041
 40
1.0
 40
1.0
 40
1.0
 40
1.0
 10
137.9652522845193
 20
141.0429594506141
 30
0.0
 10
137.9153756022019
 20
141.0429594506141
 30
0.0
 10
137.8673724087982
 20
141.0429594506141
 30
0.0
 10
137.7843243060863
 20
141.0429594506141
 30
0.0
 10
137.7481947266184
 20
141.0429594506141
 30
0.0
 10
137.6522826956742
 20
141.0429594506141
 30
0.0
 10
137.6025240277054
 20
141.0429594506141
 30
0.0
 10
137.5595498162103
 20
141.0429594506141
 30
0.0
  0
SPLINE
  5
B6
330
1F
100
AcDbEntity
  8
0
  6
Continuous
 62
     7
370
    15
100
AcDbSpline
210
0.0
220
0.0
230
1.0
 70
    24
 71
     3
 72
    14
 73
    10
 74
     0
 42
0.000000001
 43
0.00000001
 40
0.0
 40
0.0
 40
0.0
 40
0.0
 40
0.1249999999999983
 40
0.1249999999999983
 40
0.2499999999999967
 40
0.2499999999999967
 40
0.4999999999999968
 40
0.4999999999999968
 40
1.0
 40
1.0
 40
1.0
 40
1.0
 10
137.9652522845193
 20
88.24295945061408
 30
0.0
 10
137.8968144366328
 20
88.24295945061408
 30
0.0
 10
137.8312643978678
 20
88.24295945061408
 30
0.0
 10
137.7268377584599
 20
88.24295945061407
 30
0.0
 10
137.6842931486984
 20
88.24295945061408
 30
0.0
 10
137.5716836881582
 20
88.24295945061408
 30
0.0
 10
137.5161446411387
 20
88.24295945061408
 30
0.0
 10
137.3735329456749
 20
88.24295945061407
 30
0.0
 10
137.3101275906791
 20
88.24295945061408
 30
0.0
 10
137.2629270868516
 20
88.24295945061408
 30
0.0
  0
SPLINE
  5
B7
330
1F
100
AcDbEntity
  8
0
  6
Continuous
 62
     7
370
    15
100
AcDbSpline
210
0.0
220
0.0
230
1.0
 70
     8
 71
     3
 72
    10
 73
     6
 74
     0
 42
0.000000001
 43
0.00000001
 40
0.0
 40
0.0
 40
0.0
 40
0.0
 40
0.5
 40
0.5
 40
1.0
 40
1.0
 40
1.0
 40
1.0
 10
137.1652522845193
 20
134.7788260820755
 30
0.0
 10
137.1652522845193
 20
134.7310545740822
 30
0.0
 10
137.1674135281165
 20
134.6833448520205
 30
0.0
 10
137.1760849019766
 20
134.5880497344722
 30
0.0
 10
137.1826140849326
 20
134.5403571705056
 30
0.0
 10
137.1913999076794
 20
134.4929594506141
 30
0.0
  0
LINE
  5
B8
330
1F
100
AcDbEntity
  8
0
  6
Continuous
 62
     7
370
    15
100
AcDbLine
 10
140.1852522845
 20
141.0429594506
 30
0.0
 11
137.9652522845
 21
141.0429594506
 31
0.0
  0
LINE
  5
B9
330
1F
100
AcDbEntity
  8
0
  6
Continuous
 62
     7
370
    15
100
AcDbLine
 10
140.1852522845
 20
88.2429594506
 30
0.0
 11
137.9652522845
 21
88.2429594506
 31
0.0
  0
LINE
  5
BA
330
1F
100
AcDbEntity
  8
0
  6
Continuous
 62
     7
370
    15
100
AcDbLine
 10
119.0752522845
 20
90.4225285889
 30
0.0
 11
119.0752522845
 21
138.8633903123
 31
0.0
  0
LINE
  5
BB
330
1F
100
AcDbEntity
  8
0
  6
Continuous
 62
     7
370
    15
100
AcDbLine
 10
99.2752522845
 20
91.4145125568
 30
0.0
 11
99.2752522845
 21
92.6792219194
 31
0.0
  0
SPLINE
  5
BC
330
1F
100
AcDbEntity
  8
0
  6
Continuous
 62
     7
370
    15
100
AcDbSpline
210
0.0
220
0.0
230
1.0
 70
     8
 71
     3
 72
    14
 73
    10
 74
     0
 42
0.000000001
 43
0.00000001
 40
0.0
 40
0.0
 40
0.0
 40
0.0
 40
0.25
 40
0.25
 40
0.5
 40
0.5
 40
0.75
 40
0.75
 40
1.0
 40
1.0
 40
1.0
 40
1.0
 10
98.49696516660359
 20
93.80980812705413
 30
0.0
 10
98.55359184180567
 20
93.70211067321726
 30
0.0
 10
98.6481145020954
 20
93.59932109149794
 30
0.0
 10
98.83115947765764
 20
93.4009637792778
 30
0.0
 10
98.92278605461236
 20
93.30490427059955
 30
0.0
 10
99.08163937230555
 20
93.1173752278903
 30
0.0
 10
99.14952997992724
 20
93.02596625510675
 30
0.0
 10
99.24644700563482
 20
92.8475900341966
 30
0.0
 10
99.2752522845199
 20
92.76036812795043
 30
0.0
 10
99.27525228451988
 20
92.67922191941618
 30
0.0
  0
SPLINE
  5
BD
330
1F
100
AcDbEntity
  8
0
  6
Continuous
 62
     7
370
    15
100
AcDbSpline
210
0.0
220
0.0
230
1.0
 70
     8
 71
     3
 72
    14
 73
    10
 74
     0
 42
0.000000001
 43
0.00000001
 40
0.0
 40
0.0
 40
0.0
 40
0.0
 40
0.1249999999999979
 40
0.1249999999999979
 40
0.2499999999999958
 40
0.2499999999999958
 40
0.4999999999999948
 40
0.4999999999999948
 40
1.0
 40
1.0
 40
1.0
 40
1.0
 10
97.8752522845193
 20
94.25648998933345
 30
0.0
 10
97.92379669317647
 20
94.26223830261374
 30
0.0
 10
97.97671204796137
 20
94.25913741395749
 30
0.0
 10
98.07200739294441
 20
94.23694256979516
 30
0.0
 10
98.11225839022939
 20
94.2197103426993
 30
0.0
 10
98.21652840374234
 20
94.16338242624725
 30
0.0
 10
98.26685037889567
 20
94.11919608030145
 30
0.0
 10
98.39453332642104
 20
93.98818818145082
 30
0.0
 10
98.45061877348331
 20
93.89795366122053
 30
0.0
 10
98.49696516660504
 20
93.80980812705467
 30
0.0
  0
SPLINE
  5
BE
330
1F
100
AcDbEntity
  8
0
  6
Continuous
 62
     7
370
    15
100
AcDbSpline
210
0.0
220
0.0
230
1.0
 70
     8
 71
     3
 72
     8
 73
     4
 74
     0
 42
0.000000001
 43
0.00000001
 40
0.0
 40
0.0
 40
0.0
 40
0.0
 40
1.0
 40
1.0
 40
1.0
 40
1.0
 10
95.60672719157313
 20
93.94664470275066
 30
0.0
 10
96.34130421805608
 20
94.0652697138196
 30
0.0
 10
97.1047792874517
 20
94.1652555859559
 30
0.0
 10
97.8752522845193
 20
94.25648998933345
 30
0.0
  0
SPLINE
  5
BF
330
1F
100
AcDbEntity
  8
0
  6
Continuous
 62
     7
370
    15
100
AcDbSpline
210
0.0
220
0.0
230
1.0
 70
     8
 71
     3
 72
    14
 73
    10
 74
     0
 42
0.000000001
 43
0.00000001
 40
0.0
 40
0.0
 40
0.0
 40
0.0
 40
0.5000000000000019
 40
0.5000000000000019
 40
0.7500000000000018
 40
0.7500000000000018
 40
0.875000000000001
 40
0.875000000000001
 40
1.0
 40
1.0
 40
1.0
 40
1.0
 10
90.32525228451931
 20
93.773021685219
 30
0.0
 10
91.21739841507288
 20
93.77229945901836
 30
0.0
 10
92.10737485086648
 20
93.77688566547582
 30
0.0
 10
93.43397001794213
 20
93.80461066986737
 30
0.0
 10
93.87481694644087
 20
93.81721720749154
 30
0.0
 10
94.53125718386329
 20
93.84823335549896
 30
0.0
 10
94.74927084045517
 20
93.86057652812575
 30
0.0
 10
95.18197969413794
 20
93.89360058328903
 30
0.0
 10
95.39725615930276
 20
93.91281774842747
 30
0.0
 10
95.60672719157314
 20
93.94664470275065
 30
0.0
  0
SPLINE
  5
C0
330
1F
100
AcDbEntity
  8
0
  6
Continuous
 62
     7
370
    15
100
AcDbSpline
210
0.0
220
0.0
230
1.0
 70
     8
 71
     3
 72
     8
 73
     4
 74
     0
 42
0.000000001
 43
0.00000001
 40
0.0000005163856998
 40
0.0000005163856998
 40
0.0000005163856998
 40
0.0000005163856998
 40
0.000026289209185
 40
0.000026289209185
 40
0.000026289209185
 40
0.000026289209185
 10
90.31520735411169
 20
93.78300555831578
 30
0.0
 10
90.31853509231952
 20
93.77967131144668
 30
0.0
 10
90.32188354529514
 20
93.77634335417136
 30
0.0
 10
90.3252522845193
 20
93.77302168521899
 30
0.0
  0
SPLINE
  5
C1
330
1F
100
AcDbEntity
  8
0
  6
Continuous
 62
     7
370
    15
100
AcDbSpline
210
0.0
220
0.0
230
1.0
 70
     8
 71
     3
 72
     8
 73
     4
 74
     0
 42
0.000000001
 43
0.00000001
 40
0.0000005099763573
 40
0.0000005099763573
 40
0.0000005099763573
 40
0.0000005099763573
 40
0.0000262827998699
 40
0.0000262827998699
 40
0.0000262827998699
 40
0.0000262827998699
 10
90.3252522845193
 20
135.5128972160092
 30
0.0
 10
90.32188354529154
 20
135.5095755470533
 30
0.0
 10
90.31853509231239
 20
135.5062475897744
 30
0.0
 10
90.31520735410106
 20
135.5029133429017
 30
0.0
  0
SPLINE
  5
C2
330
1F
100
AcDbEntity
  8
0
  6
Continuous
 62
     7
370
    15
100
AcDbSpline
210
0.0
220
0.0
230
1.0
 70
     8
 71
     3
 72
    10
 73
     6
 74
     0
 42
0.000000001
 43
0.00000001
 40
0.0
 40
0.0
 40
0.0
 40
0.0
 40
0.5
 40
0.5
 40
1.0
 40
1.0
 40
1.0
 40
1.0
 10
93.8752522845193
 20
135.4660468424418
 30
0.0
 10
93.28766673742872
 20
135.4871123626782
 30
0.0
 10
92.69692034396833
 20
135.4978708485504
 30
0.0
 10
91.51290117866948
 20
135.5112356290861
 30
0.0
 10
90.91948719046401
 20
135.5133782717507
 30
0.0
 10
90.32525228451931
 20
135.5128972160092
 30
0.0
  0
SPLINE
  5
C3
330
1F
100
AcDbEntity
  8
0
  6
Continuous
 62
     7
370
    15
100
AcDbSpline
210
0.0
220
0.0
230
1.0
 70
     8
 71
     3
 72
    18
 73
    14
 74
     0
 42
0.000000001
 43
0.00000001
 40
0.0
 40
0.0
 40
0.0
 40
0.0
 40
0.2499999999999996
 40
0.2499999999999996
 40
0.5
 40
0.5
 40
0.7500000000000003
 40
0.7500000000000003
 40
0.8750000000000002
 40
0.8750000000000002
 40
0.9375000000000001
 40
0.9375000000000001
 40
1.0
 40
1.0
 40
1.0
 40
1.0
 10
95.27525228451931
 20
136.4870671229771
 30
0.0
 10
95.27525228451931
 20
136.4038602141199
 30
0.0
 10
95.23940318458105
 20
136.3151235588063
 30
0.0
 10
95.11453144854714
 20
136.1329983682461
 30
0.0
 10
95.02413103089926
 20
136.0378683196194
 30
0.0
 10
94.80188837615708
 20
135.8486868104951
 30
0.0
 10
94.67212358971132
 20
135.7537416424004
 30
0.0
 10
94.4314861323998
 20
135.6154629348205
 30
0.0
 10
94.34371883426235
 20
135.5697525015181
 30
0.0
 10
94.18919474705554
 20
135.5119291962966
 30
0.0
 10
94.1325838610008
 20
135.4942144322588
 30
0.0
 10
94.0085398300942
 20
135.4696751290258
 30
0.0
 10
93.9408251550759
 20
135.4636959904876
 30
0.0
 10
93.8752522845193
 20
135.4660468424418
 30
0.0
  0
LINE
  5
C4
330
1F
100
AcDbEntity
  8
0
  6
Continuous
 62
     7
370
    15
100
AcDbLine
 10
95.2752522845
 20
136.487067123
 30
0.0
 11
95.2752522845
 21
137.6710055428
 31
0.0
  0
SPLINE
  5
C5
330
1F
100
AcDbEntity
  8
0
  6
Continuous
 62
     7
370
    15
100
AcDbSpline
210
0.0
220
0.0
230
1.0
 70
     8
 71
     3
 72
    24
 73
    20
 74
     0
 42
0.000000001
 43
0.00000001
 40
0.0
 40
0.0
 40
0.0
 40
0.0
 40
0.0010489762969683
 40
0.0637843125635315
 40
0.1272220590447826
 40
0.1903788924482514
 40
0.2526748653693586
 40
0.3146354154423437
 40
0.3770891997149696
 40
0.4393540298504715
 40
0.5008133242537849
 40
0.5621845104596535
 40
0.6248438451115941
 40
0.6874304766625864
 40
0.7496743174679406
 40
0.8119848426972686
 40
0.8750960525413011
 40
0.9384412526960678
 40
0.9999999999999999
 40
0.9999999999999999
 40
0.9999999999999999
 40
0.9999999999999999
 10
107.844158116495
 20
90.98545102203393
 30
0.0
 10
107.8437116563908
 20
90.98539273621503
 30
0.0
 10
107.8165640926971
 20
90.98184859427269
 30
0.0
 10
107.9121758703111
 20
90.9946823389551
 30
0.0
 10
108.1457361282035
 20
91.02392902415528
 30
0.0
 10
108.5412904355208
 20
91.07054334721819
 30
0.0
 10
109.068330739358
 20
91.12072648887742
 30
0.0
 10
109.7118611513484
 20
91.1651029513274
 30
0.0
 10
110.4505350065884
 20
91.1920477322654
 30
0.0
 10
111.2480495120224
 20
91.19551958297227
 30
0.0
 10
112.0746283944692
 20
91.16789233894166
 30
0.0
 10
112.9001514120806
 20
91.10941344996898
 30
0.0
 10
113.6922779600845
 20
91.02396842060763
 30
0.0
 10
114.4248502340835
 20
90.92223418077133
 30
0.0
 10
115.0604904708127
 20
90.81439105879919
 30
0.0
 10
115.5824015778174
 20
90.71276090206041
 30
0.0
 10
115.9640303549342
 20
90.63027574538232
 30
0.0
 10
116.2148448251708
 20
90.57412653903238
 30
0.0
 10
116.2439663811542
 20
90.56727708041865
 30
0.0
 10
116.25831890197
 20
90.56390133369045
 30
0.0
  0
SPLINE
  5
C6
330
1F
100
AcDbEntity
  8
0
  6
Continuous
 62
     7
370
    15
100
AcDbSpline
210
0.0
220
0.0
230
1.0
 70
     8
 71
     3
 72
    24
 73
    20
 74
     0
 42
0.000000001
 43
0.00000001
 40
0.0
 40
0.0
 40
0.0
 40
0.0
 40
0.0614384276249444
 40
0.1250736755369608
 40
0.1884253490728071
 40
0.2508623904037412
 40
0.3129665632509547
 40
0.3753451453465095
 40
0.4377328972323699
 40
0.4990927322917189
 40
0.5605807588447941
 40
0.6229469893028794
 40
0.6854686282026514
 40
0.7475477813740068
 40
0.809822506080335
 40
0.8730684085990212
 40
0.9364041844534696
 40
0.9991757196257863
 40
0.9999999999999999
 40
0.9999999999999999
 40
0.9999999999999999
 40
0.9999999999999999
 10
116.2582641311671
 20
138.7219884250715
 30
0.0
 10
116.2436634068636
 20
138.7186203682189
 30
0.0
 10
116.2139398881354
 20
138.7117638247451
 30
0.0
 10
115.9612020724873
 20
138.6554252042192
 30
0.0
 10
115.5782061560378
 20
138.5725681220892
 30
0.0
 10
115.0558505716011
 20
138.470661092138
 30
0.0
 10
114.4210660936008
 20
138.3628219530942
 30
0.0
 10
113.6908424894288
 20
138.2613550011191
 30
0.0
 10
112.9003739041943
 20
138.1762952874282
 30
0.0
 10
112.0758903893658
 20
138.1180909935419
 30
0.0
 10
111.2488539304818
 20
138.0905075547152
 30
0.0
 10
110.4505296628299
 20
138.094000532208
 30
0.0
 10
109.7107056985411
 20
138.1209564520613
 30
0.0
 10
109.0664514655662
 20
138.1653103940604
 30
0.0
 10
108.539044210351
 20
138.2155158438183
 30
0.0
 10
108.1443796082004
 20
138.2621256990166
 30
0.0
 10
107.911850329011
 20
138.2913212915639
 30
0.0
 10
107.8164702964628
 20
138.3040993605054
 30
0.0
 10
107.8434039333639
 20
138.3005451019975
 30
0.0
 10
107.8437530265882
 20
138.3004990344142
 30
0.0
  0
SPLINE
  5
C7
330
1F
100
AcDbEntity
  8
0
  6
Continuous
 62
     7
370
    15
100
AcDbSpline
210
0.0
220
0.0
230
1.0
 70
     8
 71
     3
 72
    10
 73
     6
 74
     0
 42
0.000000001
 43
0.00000001
 40
0.0
 40
0.0
 40
0.0
 40
0.0
 40
0.0840381716606343
 40
0.7011125076932975
 40
1.0
 40
1.0
 40
1.0
 40
1.0
 10
89.18879924705497
 20
94.91418554293074
 30
0.0
 10
89.18947380438989
 20
94.91197991609485
 30
0.0
 10
89.19510149208612
 20
94.89357884273264
 30
0.0
 10
89.22142297221293
 20
94.90781340545578
 30
0.0
 10
89.23385798905764
 20
94.95349918100678
 30
0.0
 10
89.2379156592427
 20
94.96840690583335
 30
0.0
  0
LINE
  5
C8
330
1F
100
AcDbEntity
  8
0
  6
Continuous
 62
     7
370
    15
100
AcDbLine
 10
89.1752522845
 20
94.9522817041
 30
0.0
 11
89.1752522845
 21
134.3336371971
 31
0.0
  0
SPLINE
  5
C9
330
1F
100
AcDbEntity
  8
0
  6
Continuous
 62
     7
370
    15
100
AcDbSpline
210
0.0
220
0.0
230
1.0
 70
     8
 71
     3
 72
    10
 73
     6
 74
     0
 42
0.000000001
 43
0.00000001
 40
0.0
 40
0.0
 40
0.0
 40
0.0
 40
0.398155263880937
 40
0.8068145697130235
 40
0.9999999999999999
 40
0.9999999999999999
 40
0.9999999999999999
 40
0.9999999999999999
 10
89.2379156592427
 20
134.3175119953948
 30
0.0
 10
89.23225215451822
 20
134.3363537799457
 30
0.0
 10
89.22077573177096
 20
134.374534428738
 30
0.0
 10
89.19726150379674
 20
134.3881177126057
 30
0.0
 10
89.19224554797896
 20
134.3724174184855
 30
0.0
 10
89.19063548225134
 20
134.3673777996383
 30
0.0
  0
SPLINE
  5
CA
330
1F
100
AcDbEntity
  8
0
  6
Continuous
 62
     7
370
    15
100
AcDbSpline
210
0.0
220
0.0
230
1.0
 70
     8
 71
     3
 72
    26
 73
    22
 74
     0
 42
0.000000001
 43
0.00000001
 40
0.0
 40
0.0
 40
0.0
 40
0.0
 40
0.249999999999996
 40
0.249999999999996
 40
0.3749999999999944
 40
0.3749999999999944
 40
0.4374999999999944
 40
0.4374999999999944
 40
0.4687499999999969
 40
0.4687499999999969
 40
0.4999999999999993
 40
0.4999999999999993
 40
0.5312500000000017
 40
0.5312500000000017
 40
0.5625000000000041
 40
0.5625000000000041
 40
0.625000000000004
 40
0.625000000000004
 40
0.7500000000000023
 40
0.7500000000000023
 40
1.0
 40
1.0
 40
1.0
 40
1.0
 10
89.99940593062381
 20
135.0330787842119
 30
0.0
 10
89.96080540775536
 20
134.9153040878565
 30
0.0
 10
89.91450840520108
 20
134.7909144016946
 30
0.0
 10
89.82056905676717
 20
134.5856950693411
 30
0.0
 10
89.78525758985371
 20
134.5141222028946
 30
0.0
 10
89.71907761410804
 20
134.3981689702942
 30
0.0
 10
89.69453924743983
 20
134.3575844354839
 30
0.0
 10
89.65116650188601
 20
134.2934427536122
 30
0.0
 10
89.63565810046083
 20
134.2715763283271
 30
0.0
 10
89.60061545587378
 20
134.2259820599839
 30
0.0
 10
89.58106516515403
 20
134.2023117690165
 30
0.0
 10
89.53913788478344
 20
134.1576952096766
 30
0.0
 10
89.51648577455181
 20
134.1368151971587
 30
0.0
 10
89.47551206046518
 20
134.1059417834079
 30
0.0
 10
89.45791276056976
 20
134.0961029135754
 30
0.0
 10
89.41328577471359
 20
134.0771132978793
 30
0.0
 10
89.39272655206027
 20
134.0767889732258
 30
0.0
 10
89.3416011125636
 20
134.086012414102
 30
0.0
 10
89.32068969957504
 20
134.107259310319
 30
0.0
 10
89.26923979201409
 20
134.1812281891498
 30
0.0
 10
89.25157449270954
 20
134.2473462824645
 30
0.0
 10
89.23791565924272
 20
134.3175119953948
 30
0.0
  0
SPLINE
  5
CB
330
1F
100
AcDbEntity
  8
0
  6
Continuous
 62
     7
370
    15
100
AcDbSpline
210
0.0
220
0.0
230
1.0
 70
     8
 71
     3
 72
    10
 73
     6
 74
     0
 42
0.000000001
 43
0.00000001
 40
0.0
 40
0.0
 40
0.0
 40
0.0
 40
0.5
 40
0.5
 40
1.0
 40
1.0
 40
1.0
 40
1.0
 10
90.31520735410109
 20
135.5029133429017
 30
0.0
 10
90.24764809918284
 20
135.4352219500919
 30
0.0
 10
90.18401144384636
 20
135.3605147853383
 30
0.0
 10
90.0737906892745
 20
135.2015486529117
 30
0.0
 10
90.02697439605188
 20
135.1171933869037
 30
0.0
 10
89.99940593062381
 20
135.0330787842119
 30
0.0
  0
SPLINE
  5
CC
330
1F
100
AcDbEntity
  8
0
  6
Continuous
 62
     7
370
    15
100
AcDbSpline
210
0.0
220
0.0
230
1.0
 70
     8
 71
     3
 72
    10
 73
     6
 74
     0
 42
0.000000001
 43
0.00000001
 40
0.0
 40
0.0
 40
0.0
 40
0.0
 40
0.5
 40
0.5
 40
1.0
 40
1.0
 40
1.0
 40
1.0
 10
89.99940593062385
 20
94.25284011701612
 30
0.0
 10
90.02688334537781
 20
94.16900332054823
 30
0.0
 10
90.07359197566724
 20
94.08469283295909
 30
0.0
 10
90.18387043841321
 20
93.92557160247236
 30
0.0
 10
90.2477579770271
 20
93.85058685838274
 30
0.0
 10
90.3152073541117
 20
93.78300555831578
 30
0.0
  0
SPLINE
  5
CD
330
1F
100
AcDbEntity
  8
0
  6
Continuous
 62
     7
370
    15
100
AcDbSpline
210
0.0
220
0.0
230
1.0
 70
     8
 71
     3
 72
    24
 73
    20
 74
     0
 42
0.000000001
 43
0.00000001
 40
0.0
 40
0.0
 40
0.0
 40
0.0
 40
0.2500000000000114
 40
0.2500000000000114
 40
0.3750000000000163
 40
0.3750000000000163
 40
0.4375000000000177
 40
0.4375000000000177
 40
0.4687500000000166
 40
0.4687500000000166
 40
0.5000000000000155
 40
0.5000000000000155
 40
0.5625000000000157
 40
0.5625000000000157
 40
0.6250000000000157
 40
0.6250000000000157
 40
0.7500000000000099
 40
0.7500000000000099
 40
1.0
 40
1.0
 40
1.0
 40
1.0
 10
89.23791565924272
 20
94.96840690583335
 30
0.0
 10
89.25166877791293
 20
95.03905696382361
 30
0.0
 10
89.26944134531881
 20
95.10565507658855
 30
0.0
 10
89.32169243687417
 20
95.17975309682176
 30
0.0
 10
89.34272751245572
 20
95.2010109039833
 30
0.0
 10
89.39562792008418
 20
95.20915683012954
 30
0.0
 10
89.41673359296209
 20
95.20821702673376
 30
0.0
 10
89.46278576164005
 20
95.1872010351564
 30
0.0
 10
89.48115623362344
 20
95.1762922290488
 30
0.0
 10
89.52270786868914
 20
95.14365731810143
 30
0.0
 10
89.54527454144606
 20
95.12216533773008
 30
0.0
 10
89.6080555579061
 20
95.05369939414373
 30
0.0
 10
89.64118531887397
 20
95.00762493593865
 30
0.0
 10
89.69810300535899
 20
94.92261704760399
 30
0.0
 10
89.72228903086274
 20
94.8823367464226
 30
0.0
 10
89.7874969812425
 20
94.76740051995667
 30
0.0
 10
89.82221304143376
 20
94.69681753480965
 30
0.0
 10
89.91542831176461
 20
94.49261177573105
 30
0.0
 10
89.96110084712531
 20
94.36971339340369
 30
0.0
 10
89.99940593062385
 20
94.25284011701612
 30
0.0
  0
LINE
  5
CE
330
1F
100
AcDbEntity
  8
0
  6
Continuous
 62
     7
370
    15
100
AcDbLine
 10
146.4252522845
 20
145.1101549238
 30
0.0
 11
142.467185116
 21
145.1101549238
 31
0.0
  0
LINE
  5
CF
330
1F
100
AcDbEntity
  8
0
  6
Continuous
 62
     7
370
    15
100
AcDbLine
 10
142.467185116
 20
139.101649113
 30
0.0
 11
146.4252522845
 21
139.101649113
 31
0.0
  0
LINE
  5
D0
330
1F
100
AcDbEntity
  8
0
  6
Continuous
 62
     7
370
    15
100
AcDbLine
 10
142.467185116
 20
139.101649113
 30
0.0
 11
142.467185116
 21
145.1101549238
 31
0.0
  0
SPLINE
  5
D1
330
1F
100
AcDbEntity
  8
0
  6
Continuous
 62
     7
370
    15
100
AcDbSpline
210
0.0
220
0.0
230
1.0
 70
     8
 71
     3
 72
     8
 73
     4
 74
     0
 42
0.000000001
 43
0.00000001
 40
0.0
 40
0.0
 40
0.0
 40
0.0
 40
1.0
 40
1.0
 40
1.0
 40
1.0
 10
137.1652522845193
 20
142.4481936417857
 30
0.0
 10
136.6725421876735
 20
143.3362126399121
 30
0.0
 10
136.1784594823946
 20
144.223475275598
 30
0.0
 10
135.6833194530302
 20
145.1101549237783
 30
0.0
  0
LINE
  5
D2
330
1F
100
AcDbEntity
  8
0
  6
Continuous
 62
     7
370
    15
100
AcDbLine
 10
137.1652522845
 20
135.6931031182
 30
0.0
 11
137.1652522845
 21
142.4481936418
 31
0.0
  0
SPLINE
  5
D3
330
1F
100
AcDbEntity
  8
0
  6
Continuous
 62
     7
370
    15
100
AcDbSpline
210
0.0
220
0.0
230
1.0
 70
     8
 71
     3
 72
     8
 73
     4
 74
     0
 42
0.000000001
 43
0.00000001
 40
0.0
 40
0.0
 40
0.0
 40
0.0
 40
1.0
 40
1.0
 40
1.0
 40
1.0
 10
135.6833194530302
 20
139.1016491129815
 30
0.0
 10
136.1904062947895
 20
137.9704987588178
 30
0.0
 10
136.6859741339295
 20
136.83411434805
 30
0.0
 10
137.1652522845193
 20
135.6931031181974
 30
0.0
  0
SPLINE
  5
D4
330
1F
100
AcDbEntity
  8
0
  6
Continuous
 62
     7
370
    15
100
AcDbSpline
210
0.0
220
0.0
230
1.0
 70
     8
 71
     3
 72
     8
 73
     4
 74
     0
 42
0.000000001
 43
0.00000001
 40
0.0
 40
0.0
 40
0.0
 40
0.0
 40
1.0
 40
1.0
 40
1.0
 40
1.0
 10
140.9852522845193
 20
135.6931031181974
 30
0.0
 10
141.4645304351091
 20
136.83411434805
 30
0.0
 10
141.9600982742491
 20
137.9704987588178
 30
0.0
 10
142.4671851160084
 20
139.1016491129815
 30
0.0
  0
SPLINE
  5
D5
330
1F
100
AcDbEntity
  8
0
  6
Continuous
 62
     7
370
    15
100
AcDbSpline
210
0.0
220
0.0
230
1.0
 70
     8
 71
     3
 72
    12
 73
     8
 74
     0
 42
0.000000001
 43
0.00000001
 40
0.0
 40
0.0
 40
0.0
 40
0.0
 40
0.249999999999998
 40
0.249999999999998
 40
0.499999999999996
 40
0.499999999999996
 40
1.0
 40
1.0
 40
1.0
 40
1.0
 10
146.4252522845193
 20
139.1016491129815
 30
0.0
 10
146.516452006345
 20
139.1016491129815
 30
0.0
 10
146.607047015481
 20
139.0734294143936
 30
0.0
 10
146.7604597419276
 20
138.9789864071455
 30
0.0
 10
146.8256686092513
 20
138.9126994304402
 30
0.0
 10
146.9784531385912
 20
138.6870746071519
 30
0.0
 10
147.0252522845193
 20
138.5046483441193
 30
0.0
 10
147.0252522845193
 20
138.3239117118725
 30
0.0
  0
LINE
  5
D6
330
1F
100
AcDbEntity
  8
0
  6
Continuous
 62
     7
370
    15
100
AcDbLine
 10
140.9852522845
 20
134.7788260821
 30
0.0
 11
140.9852522845
 21
135.6931031182
 31
0.0
  0
LINE
  5
D7
330
1F
100
AcDbEntity
  8
0
  6
Continuous
 62
     7
370
    15
100
AcDbLine
 10
147.0252522845
 20
138.3239117119
 30
0.0
 11
147.0252522845
 21
134.4929594506
 31
0.0
  0
LINE
  5
D8
330
1F
100
AcDbEntity
  8
0
  6
Continuous
 62
     7
370
    15
100
AcDbLine
 10
137.1652522845
 20
135.6931031182
 30
0.0
 11
137.1652522845
 21
134.7788260821
 31
0.0
  0
SPLINE
  5
D9
330
1F
100
AcDbEntity
  8
0
  6
Continuous
 62
     7
370
    15
100
AcDbSpline
210
0.0
220
0.0
230
1.0
 70
     8
 71
     3
 72
    10
 73
     6
 74
     0
 42
0.000000001
 43
0.00000001
 40
0.0
 40
0.0
 40
0.0
 40
0.0
 40
0.5
 40
0.5
 40
1.0
 40
1.0
 40
1.0
 40
1.0
 10
147.0252522845193
 20
144.489399774378
 30
0.0
 10
147.0252522845193
 20
144.6498050407288
 30
0.0
 10
146.9630144534125
 20
144.8088668537174
 30
0.0
 10
146.7438795296699
 20
145.0397793193477
 30
0.0
 10
146.586290834678
 20
145.1101549237783
 30
0.0
 10
146.4252522845193
 20
145.1101549237783
 30
0.0
  0
LINE
  5
DA
330
1F
100
AcDbEntity
  8
0
  6
Continuous
 62
     7
370
    15
100
AcDbLine
 10
147.0252522845
 20
138.3239117119
 30
0.0
 11
147.0252522845
 21
144.4893997744
 31
0.0
  0
SPLINE
  5
DB
330
1F
100
AcDbEntity
  8
0
  6
Continuous
 62
     7
370
    15
100
AcDbSpline
210
0.0
220
0.0
230
1.0
 70
     8
 71
     3
 72
     8
 73
     4
 74
     0
 42
0.000000001
 43
0.00000001
 40
0.0
 40
0.0
 40
0.0
 40
0.0
 40
1.0
 40
1.0
 40
1.0
 40
1.0
 10
142.4671851160084
 20
145.1101549237783
 30
0.0
 10
141.972045086644
 20
144.223475275598
 30
0.0
 10
141.4779623813651
 20
143.3362126399121
 30
0.0
 10
140.9852522845193
 20
142.4481936417857
 30
0.0
  0
LINE
  5
DC
330
1F
100
AcDbEntity
  8
0
  6
Continuous
 62
     7
370
    15
100
AcDbLine
 10
140.9852522845
 20
135.6931031182
 30
0.0
 11
140.9852522845
 21
142.4481936418
 31
0.0
  0
LINE
  5
DD
330
1F
100
AcDbEntity
  8
0
  6
Continuous
 62
     7
370
    15
100
AcDbLine
 10
207.0752522845
 20
104.8429594506
 30
0.0
 11
207.0752522845
 21
124.4429594506
 31
0.0
  0
LINE
  5
DE
330
1F
100
AcDbEntity
  8
0
  6
Continuous
 62
     7
370
    15
100
AcDbLine
 10
206.8752522845
 20
104.6429594506
 30
0.0
 11
206.8752522845
 21
124.6429594506
 31
0.0
  0
SPLINE
  5
DF
330
1F
100
AcDbEntity
  8
0
  6
Continuous
 62
     7
370
    15
100
AcDbSpline
210
0.0
220
0.0
230
1.0
 70
    11
 71
     3
 72
    62
 73
    58
 74
     0
 42
0.000000001
 43
0.00000001
 40
0.0
 40
0.0
 40
0.0
 40
0.0
 40
0.0312500000000007
 40
0.0312500000000007
 40
0.0625000000000014
 40
0.0625000000000014
 40
0.0937500000000021
 40
0.0937500000000021
 40
0.1250000000000027
 40
0.1250000000000027
 40
0.1562500000000034
 40
0.1562500000000034
 40
0.1875000000000041
 40
0.1875000000000041
 40
0.2187500000000048
 40
0.2187500000000048
 40
0.2500000000000055
 40
0.2500000000000055
 40
0.3125000000000069
 40
0.3125000000000069
 40
0.3437500000000066
 40
0.3437500000000066
 40
0.3750000000000062
 40
0.3750000000000062
 40
0.4062500000000059
 40
0.4062500000000059
 40
0.4375000000000056
 40
0.4375000000000056
 40
0.4687500000000053
 40
0.4687500000000053
 40
0.500000000000005
 40
0.500000000000005
 40
0.5312500000000047
 40
0.5312500000000047
 40
0.5625000000000043
 40
0.5625000000000043
 40
0.5937500000000041
 40
0.5937500000000041
 40
0.6250000000000038
 40
0.6250000000000038
 40
0.6562500000000034
 40
0.6562500000000034
 40
0.6875000000000031
 40
0.6875000000000031
 40
0.7187500000000028
 40
0.7187500000000028
 40
0.7500000000000024
 40
0.7500000000000024
 40
0.7812500000000022
 40
0.7812500000000022
 40
0.8125000000000019
 40
0.8125000000000019
 40
0.8750000000000012
 40
0.8750000000000012
 40
0.9375000000000007
 40
0.9375000000000007
 40
1.0
 40
1.0
 40
1.0
 40
1.0
 10
198.8716755253908
 20
116.7637521714676
 30
0.0
 10
198.7136310329056
 20
116.6411759257178
 30
0.0
 10
198.5692179378206
 20
116.5055777914165
 30
0.0
 10
198.308847032553
 20
116.2066410719019
 30
0.0
 10
198.1922397599776
 20
116.0414492958205
 30
0.0
 10
198.0010267273564
 20
115.6952062432861
 30
0.0
 10
197.9248712138162
 20
115.5129772893666
 30
0.0
 10
197.8155001887429
 20
115.1281957900935
 30
0.0
 10
197.7837342289837
 20
114.9277692060831
 30
0.0
 10
197.7697865477215
 20
114.5301566530127
 30
0.0
 10
197.7875027666686
 20
114.3273447181438
 30
0.0
 10
197.8705254507758
 20
113.9355528400318
 30
0.0
 10
197.9348285139252
 20
113.7470050632336
 30
0.0
 10
198.1069169412529
 20
113.3838027437173
 30
0.0
 10
198.2122587549269
 20
113.2145375162162
 30
0.0
 10
198.4556771084747
 20
112.9006258278938
 30
0.0
 10
198.5951121032305
 20
112.7550120792084
 30
0.0
 10
199.0453127521055
 20
112.3668355751787
 30
0.0
 10
199.3970236395121
 20
112.1644470681325
 30
0.0
 10
199.9557714412524
 20
111.9582335174174
 30
0.0
 10
200.1497201166358
 20
111.9046737418906
 30
0.0
 10
200.543996798021
 20
111.8303922958216
 30
0.0
 10
200.7421292689295
 20
111.8098235000688
 30
0.0
 10
201.1403270839518
 20
111.8007262004587
 30
0.0
 10
201.3421231630739
 20
111.8124859593255
 30
0.0
 10
201.739060426494
 20
111.8687738090766
 30
0.0
 10
201.9328377221318
 20
111.9127727764082
 30
0.0
 10
202.3111589717367
 20
112.0323344329898
 30
0.0
 10
202.4973934692484
 20
112.1088072412915
 30
0.0
 10
202.851125432767
 20
112.2919537660859
 30
0.0
 10
203.0176841713147
 20
112.3976999861213
 30
0.0
 10
203.3297613633121
 20
112.6387291355202
 30
0.0
 10
203.4768698387099
 20
112.7758839714263
 30
0.0
 10
203.7383410844221
 20
113.074874198229
 30
0.0
 10
203.8523860563144
 20
113.2354966341337
 30
0.0
 10
204.044904615118
 20
113.5808481957615
 30
0.0
 10
204.1239928251272
 20
113.7686965210645
 30
0.0
 10
204.2337742168498
 20
114.1519082740287
 30
0.0
 10
204.2657653948283
 20
114.3480945189248
 30
0.0
 10
204.2811513729463
 20
114.7502297438217
 30
0.0
 10
204.2637465471489
 20
114.9524282733756
 30
0.0
 10
204.1819971423738
 20
115.343387307557
 30
0.0
 10
204.116483372081
 20
115.5365053402456
 30
0.0
 10
203.9461689748597
 20
115.8973588305991
 30
0.0
 10
203.8407803499956
 20
116.0677984519939
 30
0.0
 10
203.5956513600266
 20
116.3845407013697
 30
0.0
 10
203.4584777642866
 20
116.5279463165194
 30
0.0
 10
203.1575210067847
 20
116.7880355123519
 30
0.0
 10
202.9929586850082
 20
116.9047107534282
 30
0.0
 10
202.6497453961918
 20
117.104668227857
 30
0.0
 10
202.4697704373281
 20
117.1892413848029
 30
0.0
 10
201.9048555896601
 20
117.3978248343091
 30
0.0
 10
201.5110724073409
 20
117.4717086246722
 30
0.0
 10
200.7030271624661
 20
117.4896798673561
 30
0.0
 10
200.3081303858974
 20
117.4338730246006
 30
0.0
 10
199.5402496984572
 20
117.1901234266539
 30
0.0
 10
199.1877645103611
 20
117.0089046629672
 30
0.0
 10
198.8716755253908
 20
116.7637521714676
 30
0.0
  0
SPLINE
  5
E0
330
1F
100
AcDbEntity
  8
0
  6
Continuous
 62
     7
370
    15
100
AcDbSpline
210
0.0
220
0.0
230
1.0
 70
    24
 71
     3
 72
    10
 73
     6
 74
     0
 42
0.000000001
 43
0.00000001
 40
0.0
 40
0.0
 40
0.0
 40
0.0
 40
0.439111987927693
 40
0.751363323073474
 40
0.9999999999999999
 40
0.9999999999999999
 40
0.9999999999999999
 40
0.9999999999999999
 10
200.9725498530456
 20
113.2005462688073
 30
0.0
 10
201.1551479854388
 20
113.2972575100897
 30
0.0
 10
201.4675911509952
 20
113.4627398508737
 30
0.0
 10
201.9217854678652
 20
113.7032992453881
 30
0.0
 10
202.1478535520128
 20
113.8230339039288
 30
0.0
 10
202.2480675269807
 20
113.8761112152133
 30
0.0
  0
SPLINE
  5
E1
330
1F
100
AcDbEntity
  8
0
  6
Continuous
 62
     7
370
    15
100
AcDbSpline
210
0.0
220
0.0
230
1.0
 70
    24
 71
     3
 72
    10
 73
     6
 74
     0
 42
0.000000001
 43
0.00000001
 40
0.0
 40
0.0
 40
0.0
 40
0.0
 40
0.4391119879276775
 40
0.7513633230734544
 40
1.0
 40
1.0
 40
1.0
 40
1.0
 10
202.2480675269807
 20
113.8761112152133
 30
0.0
 10
202.2556122013951
 20
114.0826014571906
 30
0.0
 10
202.2685218731767
 20
114.4359263461933
 30
0.0
 10
202.2872884848433
 20
114.9495498601144
 30
0.0
 10
202.2966292709074
 20
115.2051978932415
 30
0.0
 10
202.3007699584544
 20
115.3185243970201
 30
0.0
  0
SPLINE
  5
E2
330
1F
100
AcDbEntity
  8
0
  6
Continuous
 62
     7
370
    15
100
AcDbSpline
210
0.0
220
0.0
230
1.0
 70
    24
 71
     3
 72
    11
 73
     7
 74
     0
 42
0.000000001
 43
0.00000001
 40
0.0
 40
0.0
 40
0.0
 40
0.0
 40
0.1855070912791213
 40
0.5226425778602865
 40
0.8775754485095717
 40
1.0
 40
1.0
 40
1.0
 40
1.0
 10
202.3007699584544
 20
115.3185243970201
 30
0.0
 10
202.2293781578479
 20
115.3632954093662
 30
0.0
 10
202.0282408619645
 20
115.489432028428
 30
0.0
 10
201.6518639835457
 20
115.7254643700597
 30
0.0
 10
201.3075859641325
 20
115.9413669712925
 30
0.0
 10
201.1248259188594
 20
116.0559789039482
 30
0.0
 10
201.0779547159929
 20
116.0853726324209
 30
0.0
  0
SPLINE
  5
E3
330
1F
100
AcDbEntity
  8
0
  6
Continuous
 62
     7
370
    15
100
AcDbSpline
210
0.0
220
0.0
230
1.0
 70
    24
 71
     3
 72
    10
 73
     6
 74
     0
 42
0.000000001
 43
0.00000001
 40
0.0
 40
0.0
 40
0.0
 40
0.0
 40
0.439111987927675
 40
0.7513633230734592
 40
1.0
 40
1.0
 40
1.0
 40
1.0
 10
201.0779547159929
 20
116.0853726324209
 30
0.0
 10
200.8953565835998
 20
115.9886613911384
 30
0.0
 10
200.5829134180433
 20
115.8231790503544
 30
0.0
 10
200.1287191011733
 20
115.5826196558402
 30
0.0
 10
199.9026510170258
 20
115.4628849972994
 30
0.0
 10
199.8024370420578
 20
115.4098076860149
 30
0.0
  0
SPLINE
  5
E4
330
1F
100
AcDbEntity
  8
0
  6
Continuous
 62
     7
370
    15
100
AcDbSpline
210
0.0
220
0.0
230
1.0
 70
    24
 71
     3
 72
    10
 73
     6
 74
     0
 42
0.000000001
 43
0.00000001
 40
0.0
 40
0.0
 40
0.0
 40
0.0
 40
0.4391119879276859
 40
0.7513633230734834
 40
1.0
 40
1.0
 40
1.0
 40
1.0
 10
199.8024370420578
 20
115.4098076860149
 30
0.0
 10
199.7948923676435
 20
115.2033174440376
 30
0.0
 10
199.7819826958618
 20
114.8499925550349
 30
0.0
 10
199.7632160841952
 20
114.3363690411138
 30
0.0
 10
199.7538752981312
 20
114.0807210079867
 30
0.0
 10
199.7497346105842
 20
113.9673945042081
 30
0.0
  0
SPLINE
  5
E5
330
1F
100
AcDbEntity
  8
0
  6
Continuous
 62
     7
370
    15
100
AcDbSpline
210
0.0
220
0.0
230
1.0
 70
    24
 71
     3
 72
    11
 73
     7
 74
     0
 42
0.000000001
 43
0.00000001
 40
0.0
 40
0.0
 40
0.0
 40
0.0
 40
0.1224245514903746
 40
0.4773574221397128
 40
0.8144929087208529
 40
0.9999999999999999
 40
0.9999999999999999
 40
0.9999999999999999
 40
0.9999999999999999
 10
199.7497346105842
 20
113.9673945042081
 30
0.0
 10
199.7966058134507
 20
113.9380007757353
 30
0.0
 10
199.9793658587237
 20
113.8233888430796
 30
0.0
 10
200.323643878137
 20
113.6074862418469
 30
0.0
 10
200.7000207565558
 20
113.3714539002152
 30
0.0
 10
200.9011580524391
 20
113.2453172811533
 30
0.0
 10
200.9725498530456
 20
113.2005462688073
 30
0.0
  0
CIRCLE
  5
E6
330
1F
100
AcDbEntity
  8
0
  6
Continuous
 62
     7
370
    15
100
AcDbCircle
 10
201.0252522845
 20
114.6429594506
 30
0.0
 40
1.55
  0
CIRCLE
  5
E7
330
1F
100
AcDbEntity
  8
0
  6
Continuous
 62
     7
370
    15
100
AcDbCircle
 10
201.0252522845
 20
114.6429594506
 30
0.0
 40
2.200000000000001
  0
CIRCLE
  5
E8
330
1F
100
AcDbEntity
  8
0
  6
Continuous
 62
     7
370
    15
100
AcDbCircle
 10
201.0252522845
 20
114.6429594506
 30
0.0
 40
2.500000000000004
  0
ARC
  5
E9
330
1F
100
AcDbEntity
  8
0
  6
Continuous
 62
     7
370
    15
100
AcDbCircle
 10
201.0252522845
 20
114.6429594506
 30
0.0
 40
1.250000000000006
100
AcDbArc
 50
297.9074759779
 51
357.9074759779
  0
ARC
  5
EA
330
1F
100
AcDbEntity
  8
0
  6
Continuous
 62
     7
370
    15
100
AcDbCircle
 10
201.0252522845
 20
114.6429594506
 30
0.0
 40
1.250000000000021
100
AcDbArc
 50
57.9074759779
 51
117.9074759779
  0
ARC
  5
EB
330
1F
100
AcDbEntity
  8
0
  6
Continuous
 62
     7
370
    15
100
AcDbCircle
 10
201.0252522845
 20
114.6429594506
 30
0.0
 40
1.250000000000003
100
AcDbArc
 50
237.9074759779
 51
297.9074759779
  0
ARC
  5
EC
330
1F
100
AcDbEntity
  8
0
  6
Continuous
 62
     7
370
    15
100
AcDbCircle
 10
201.0252522845
 20
114.6429594506
 30
0.0
 40
1.250000000000021
100
AcDbArc
 50
117.9074759779
 51
177.9074759779
  0
ARC
  5
ED
330
1F
100
AcDbEntity
  8
0
  6
Continuous
 62
     7
370
    15
100
AcDbCircle
 10
201.0252522845
 20
114.6429594506
 30
0.0
 40
1.250000000000006
100
AcDbArc
 50
357.9074759779
 51
57.9074759779
  0
ARC
  5
EE
330
1F
100
AcDbEntity
  8
0
  6
Continuous
 62
     7
370
    15
100
AcDbCircle
 10
201.0252522845
 20
114.6429594506
 30
0.0
 40
1.250000000000003
100
AcDbArc
 50
177.9074759779
 51
237.9074759779
  0
LINE
  5
EF
330
1F
100
AcDbEntity
  8
0
  6
HIDDEN
 62
     7
370
     0
100
AcDbLine
 10
135.683319453
 20
139.101649113
 30
0.0
 11
135.683319453
 21
134.4929594506
 31
0.0
  0
SPLINE
  5
F0
330
1F
100
AcDbEntity
  8
0
  6
HIDDEN
 62
     7
370
     0
100
AcDbSpline
210
0.0
220
0.0
230
1.0
 70
     8
 71
     3
 72
    12
 73
     8
 74
     0
 42
0.000000001
 43
0.00000001
 40
0.0
 40
0.0
 40
0.0
 40
0.0
 40
0.2392542793963751
 40
0.4933213988951138
 40
0.7490969280230744
 40
0.8804124112069797
 40
1.0
 40
1.0
 40
1.0
 40
1.0
 10
94.60415074775236
 20
135.7348526502668
 30
0.0
 10
94.56939281854252
 20
135.7059433162357
 30
0.0
 10
94.49772500844631
 20
135.6463347978789
 30
0.0
 10
94.32491632214608
 20
135.5628591966582
 30
0.0
 10
94.16032791999665
 20
135.4987717793311
 30
0.0
 10
93.99838357449133
 20
135.466742117064
 30
0.0
 10
93.91499680612783
 20
135.4662712643353
 30
0.0
 10
93.8752522845193
 20
135.4660468424418
 30
0.0
  0
LINE
  5
F1
330
1F
100
AcDbEntity
  8
0
  6
HIDDEN
 62
     7
370
     0
100
AcDbLine
 10
109.0704024891
 20
91.1183598278
 30
0.0
 11
108.818744895
 21
91.0948382063
 31
0.0
  0
LINE
  5
F2
330
1F
100
AcDbEntity
  8
0
  6
HIDDEN
 62
     7
370
     0
100
AcDbLine
 10
108.6960532762
 20
138.2023904832
 30
0.0
 11
109.0703097688
 21
138.1675424806
 31
0.0
  0
SPLINE
  5
F3
330
1F
100
AcDbEntity
  8
0
  6
HIDDEN
 62
     7
370
     0
100
AcDbSpline
210
0.0
220
0.0
230
1.0
 70
     8
 71
     3
 72
    22
 73
    18
 74
     0
 42
0.000000001
 43
0.00000001
 40
0.0
 40
0.0
 40
0.0
 40
0.0
 40
0.069470503305567
 40
0.1409377255045835
 40
0.210413548914841
 40
0.2819466223559928
 40
0.3506518733998512
 40
0.4213897814436843
 40
0.4894670043894698
 40
0.5594810940348491
 40
0.6282706827033763
 40
0.6989997382187424
 40
0.7687375408512298
 40
0.8405098102584774
 40
0.9099666189318139
 40
0.9814998892127899
 40
1.0
 40
1.0
 40
1.0
 40
1.0
 10
114.8302542861209
 20
94.80543097479762
 30
0.0
 10
114.6820804316615
 20
94.82515731460693
 30
0.0
 10
114.3814739147504
 20
94.86517696802771
 30
0.0
 10
113.8465790520697
 20
94.92055063155757
 30
0.0
 10
113.2609404994009
 20
94.96500701668539
 30
0.0
 10
112.6467078398276
 20
94.99269199213754
 30
0.0
 10
112.0127911944593
 20
95.00094524560741
 30
0.0
 10
111.3906424938875
 20
94.98896519072694
 30
0.0
 10
110.7846450240268
 20
94.95821443696597
 30
0.0
 10
110.2201561029004
 20
94.91274846621577
 30
0.0
 10
109.7007798653187
 20
94.85666731441619
 30
0.0
 10
109.2479143676373
 20
94.79667715209777
 30
0.0
 10
108.8691992239716
 20
94.73869723773885
 30
0.0
 10
108.5811141028965
 20
94.68977842959237
 30
0.0
 10
108.3986562063438
 20
94.65674306706659
 30
0.0
 10
108.3179982550098
 20
94.64160327081096
 30
0.0
 10
108.3322881337086
 20
94.64427522418396
 30
0.0
 10
108.3352244261807
 20
94.64482425869575
 30
0.0
  0
SPLINE
  5
F4
330
1F
100
AcDbEntity
  8
0
  6
HIDDEN
 62
     7
370
     0
100
AcDbSpline
210
0.0
220
0.0
230
1.0
 70
     8
 71
     3
 72
    22
 73
    18
 74
     0
 42
0.000000001
 43
0.00000001
 40
0.0
 40
0.0
 40
0.0
 40
0.0
 40
0.0499040281125879
 40
0.1203075863893539
 40
0.1885125365560125
 40
0.2586444168297183
 40
0.327783940729315
 40
0.3988873214655093
 40
0.468696948893033
 40
0.5405663748364747
 40
0.6097087891223003
 40
0.6809159691092489
 40
0.7490773369981701
 40
0.8192056085539684
 40
0.8876078379088241
 40
0.9579332867310414
 40
1.0
 40
1.0
 40
1.0
 40
1.0
 10
108.3352244261807
 20
134.6410946425324
 30
0.0
 10
108.3364753602062
 20
134.6408556121367
 30
0.0
 10
108.3394910857705
 20
134.640279362662
 30
0.0
 10
108.464384412824
 20
134.6170813278385
 30
0.0
 10
108.6888662407016
 20
134.5774012915209
 30
0.0
 10
109.0078944028791
 20
134.5251898701216
 30
0.0
 10
109.4154296338757
 20
134.4658600584494
 30
0.0
 10
109.8972161877087
 20
134.4063852819334
 30
0.0
 10
110.447635869504
 20
134.3527789255715
 30
0.0
 10
111.0405307554522
 20
134.3123050070971
 30
0.0
 10
111.6674833257694
 20
134.2891057587308
 30
0.0
 10
112.2956942995974
 20
134.2861276555159
 30
0.0
 10
112.9199543920744
 20
134.3032619812152
 30
0.0
 10
113.5125726819027
 20
134.3379478369052
 30
0.0
 10
114.0693987654309
 20
134.386904200569
 30
0.0
 10
114.5072056100637
 20
134.4368043651922
 30
0.0
 10
114.7422723168367
 20
134.4685907541839
 30
0.0
 10
114.8302542861209
 20
134.4804879264305
 30
0.0
  0
SPLINE
  5
F5
330
1F
100
AcDbEntity
  8
0
  6
HIDDEN
 62
     7
370
     0
100
AcDbSpline
210
0.0
220
0.0
230
1.0
 70
     8
 71
     3
 72
    12
 73
     8
 74
     0
 42
0.000000001
 43
0.00000001
 40
0.0
 40
0.0
 40
0.0
 40
0.0
 40
0.2208197601234004
 40
0.448091978748005
 40
0.6689461164968088
 40
0.8961409404178601
 40
0.9999999999999999
 40
0.9999999999999999
 40
0.9999999999999999
 40
0.9999999999999999
 10
114.8302542861209
 20
134.4804879264305
 30
0.0
 10
114.9622974990649
 20
134.4975450141224
 30
0.0
 10
115.2302422904879
 20
134.5321576057277
 30
0.0
 10
115.5253983086023
 20
134.5591295454193
 30
0.0
 10
115.7264908830428
 20
134.5746392945701
 30
0.0
 10
115.8238224959217
 20
134.5807485299382
 30
0.0
 10
115.8151641253376
 20
134.58020329148
 30
0.0
 10
115.8124477994728
 20
134.5800322378953
 30
0.0
  0
SPLINE
  5
F6
330
1F
100
AcDbEntity
  8
0
  6
HIDDEN
 62
     7
370
     0
100
AcDbSpline
210
0.0
220
0.0
230
1.0
 70
     8
 71
     3
 72
    12
 73
     8
 74
     0
 42
0.000000001
 43
0.00000001
 40
0.0
 40
0.0
 40
0.0
 40
0.0
 40
0.1181021748981441
 40
0.3464939360971626
 40
0.5687560210663097
 40
0.7975161889972244
 40
1.0
 40
1.0
 40
1.0
 40
1.0
 10
115.8124476793448
 20
94.70588667098893
 30
0.0
 10
115.8145704153298
 20
94.7057526426062
 30
0.0
 10
115.8207982019675
 20
94.70535942358275
 30
0.0
 10
115.7161333339465
 20
94.7119826861195
 30
0.0
 10
115.50615963796
 20
94.72838707042987
 30
0.0
 10
115.2107011864316
 20
94.75598878085533
 30
0.0
 10
114.9518117426226
 20
94.78963358668753
 30
0.0
 10
114.8302542861209
 20
94.80543097479762
 30
0.0
  0
LINE
  5
F7
330
1F
100
AcDbEntity
  8
0
  6
HIDDEN
 62
     7
370
     0
100
AcDbLine
 10
102.0792268807
 20
97.6429594506
 30
0.0
 11
102.0792268807
 21
131.6429594506
 31
0.0
  0
SPLINE
  5
F8
330
1F
100
AcDbEntity
  8
0
  6
HIDDEN
 62
     7
370
     0
100
AcDbSpline
210
0.0
220
0.0
230
1.0
 70
     8
 71
     3
 72
     8
 73
     4
 74
     0
 42
0.000000001
 43
0.00000001
 40
0.0
 40
0.0
 40
0.0
 40
0.0
 40
0.0011559732291307
 40
0.0011559732291307
 40
0.0011559732291307
 40
0.0011559732291307
 10
89.17525228451929
 20
116.6428000692468
 30
0.0
 10
89.50858685958661
 20
116.6388327894472
 30
0.0
 10
89.84191805061336
 20
116.6346529068703
 30
0.0
 10
90.17525228451929
 20
116.6300877534622
 30
0.0
  0
SPLINE
  5
F9
330
1F
100
AcDbEntity
  8
0
  6
HIDDEN
 62
     7
370
     0
100
AcDbSpline
210
0.0
220
0.0
230
1.0
 70
     8
 71
     3
 72
     8
 73
     4
 74
     0
 42
0.000000001
 43
0.00000001
 40
0.0
 40
0.0
 40
0.0
 40
0.0
 40
0.0011564765856723
 40
0.0011564765856723
 40
0.0011564765856723
 40
0.0011564765856723
 10
90.1752522845193
 20
112.6462591483969
 30
0.0
 10
89.84194435395044
 20
112.6453839928139
 30
0.0
 10
89.50860912155825
 20
112.6443291415627
 30
0.0
 10
89.17525228451929
 20
112.6431580545254
 30
0.0
  0
LINE
  5
FA
330
1F
100
AcDbEntity
  8
0
  6
HIDDEN
 62
     7
370
     0
100
AcDbLine
 10
128.7350782531
 20
97.6429594506
 30
0.0
 11
128.7350782531
 21
131.6429594506
 31
0.0
  0
LINE
  5
FB
330
1F
100
AcDbEntity
  8
0
  6
HIDDEN
 62
     7
370
     0
100
AcDbLine
 10
131.0252522845
 20
98.9179594506
 30
0.0
 11
131.0252522845
 21
130.367959424
 31
0.0
  0
SPLINE
  5
FC
330
1F
100
AcDbEntity
  8
0
  6
HIDDEN
 62
     7
370
     0
100
AcDbSpline
210
0.0
220
0.0
230
1.0
 70
     8
 71
     3
 72
    16
 73
    12
 74
     0
 42
0.000000001
 43
0.00000001
 40
0.0
 40
0.0
 40
0.0
 40
0.0
 40
0.124999999999998
 40
0.124999999999998
 40
0.249999999999996
 40
0.249999999999996
 40
0.4999999999999973
 40
0.4999999999999973
 40
0.7499999999999987
 40
0.7499999999999987
 40
1.0
 40
1.0
 40
1.0
 40
1.0
 10
97.8752522845193
 20
98.84146901458242
 30
0.0
 10
97.97037403918513
 20
98.84146901458242
 30
0.0
 10
98.06370410791321
 20
98.83765318118962
 30
0.0
 10
98.24696586865122
 20
98.82288262845981
 30
0.0
 10
98.33784358420822
 20
98.81172458048424
 30
0.0
 10
98.59464528172795
 20
98.7692533103425
 30
0.0
 10
98.74971264659996
 20
98.7282071131397
 30
0.0
 10
99.00345910815457
 20
98.63306099655782
 30
0.0
 10
99.10432955982243
 20
98.57829826247624
 30
0.0
 10
99.23957597451727
 20
98.46703713857235
 30
0.0
 10
99.27525228451931
 20
98.40986740124367
 30
0.0
 10
99.27525228451931
 20
98.35544582820995
 30
0.0
  0
SPLINE
  5
FD
330
1F
100
AcDbEntity
  8
0
  6
HIDDEN
 62
     7
370
     0
100
AcDbSpline
210
0.0
220
0.0
230
1.0
 70
     8
 71
     3
 72
     8
 73
     4
 74
     0
 42
0.000000001
 43
0.00000001
 40
0.0
 40
0.0
 40
0.0
 40
0.0
 40
1.0
 40
1.0
 40
1.0
 40
1.0
 10
90.47525228461194
 20
100.9862719606647
 30
0.0
 10
90.47525228461386
 20
100.1023748183477
 30
0.0
 10
90.4617716587033
 20
99.38779157328578
 30
0.0
 10
90.4604202905122
 20
98.8414690145824
 30
0.0
  0
SPLINE
  5
FE
330
1F
100
AcDbEntity
  8
0
  6
HIDDEN
 62
     7
370
     0
100
AcDbSpline
210
0.0
220
0.0
230
1.0
 70
     8
 71
     3
 72
    10
 73
     6
 74
     0
 42
0.000000001
 43
0.00000001
 40
0.0
 40
0.0
 40
0.0
 40
0.0
 40
0.5
 40
0.5
 40
1.0
 40
1.0
 40
1.0
 40
1.0
 10
90.1752522845193
 20
102.0111822200945
 30
0.0
 10
90.26664339918678
 20
101.8365434335263
 30
0.0
 10
90.33929523224687
 20
101.6629416073569
 30
0.0
 10
90.44679412410026
 20
101.3193281904701
 30
0.0
 10
90.47525228460627
 20
101.1510023649632
 30
0.0
 10
90.4752522846119
 20
100.9862719607241
 30
0.0
  0
LINE
  5
FF
330
1F
100
AcDbEntity
  8
0
  6
HIDDEN
 62
     7
370
     0
100
AcDbLine
 10
90.1752522845
 20
105.0421326656
 30
0.0
 11
90.1752522845
 21
102.0111822201
 31
0.0
  0
SPLINE
  5
100
330
1F
100
AcDbEntity
  8
0
  6
HIDDEN
 62
     7
370
     0
100
AcDbSpline
210
0.0
220
0.0
230
1.0
 70
     8
 71
     3
 72
    10
 73
     6
 74
     0
 42
0.000000001
 43
0.00000001
 40
0.0
 40
0.0
 40
0.0
 40
0.0
 40
0.5
 40
0.5
 40
1.0
 40
1.0
 40
1.0
 40
1.0
 10
90.47525228460586
 20
106.4099730749713
 30
0.0
 10
90.47525228460586
 20
106.1679891087569
 30
0.0
 10
90.4471022558474
 20
105.9336466810983
 30
0.0
 10
90.34351234283218
 20
105.4782716612899
 30
0.0
 10
90.26688363403859
 20
105.2566670993723
 30
0.0
 10
90.1752522845193
 20
105.0421326656329
 30
0.0
  0
LINE
  5
101
330
1F
100
AcDbEntity
  8
0
  6
HIDDEN
 62
     7
370
     0
100
AcDbLine
 10
90.4752522846
 20
118.2475930722
 30
0.0
 11
90.4752522846
 21
106.4099730749
 31
0.0
  0
SPLINE
  5
102
330
1F
100
AcDbEntity
  8
0
  6
HIDDEN
 62
     7
370
     0
100
AcDbSpline
210
0.0
220
0.0
230
1.0
 70
     8
 71
     3
 72
     8
 73
     4
 74
     0
 42
0.000000001
 43
0.00000001
 40
0.0
 40
0.0
 40
0.0
 40
0.0
 40
1.0
 40
1.0
 40
1.0
 40
1.0
 10
90.1752522845193
 20
124.2498987641196
 30
0.0
 10
90.35628374925813
 20
123.8177912806451
 30
0.0
 10
90.47525228461149
 20
123.3636458769963
 30
0.0
 10
90.4752522846058
 20
122.875945826226
 30
0.0
  0
LINE
  5
103
330
1F
100
AcDbEntity
  8
0
  6
HIDDEN
 62
     7
370
     0
100
AcDbLine
 10
90.1752522845
 20
127.2831017641
 30
0.0
 11
90.1752522845
 21
124.2498987641
 31
0.0
  0
SPLINE
  5
104
330
1F
100
AcDbEntity
  8
0
  6
HIDDEN
 62
     7
370
     0
100
AcDbSpline
210
0.0
220
0.0
230
1.0
 70
     8
 71
     3
 72
    10
 73
     6
 74
     0
 42
0.000000001
 43
0.00000001
 40
0.0
 40
0.0
 40
0.0
 40
0.0
 40
0.5
 40
0.5
 40
1.0
 40
1.0
 40
1.0
 40
1.0
 10
90.47525228462486
 20
128.2996469405339
 30
0.0
 10
90.47525228462307
 20
128.1350105949406
 30
0.0
 10
90.44809361419803
 20
127.9678553721541
 30
0.0
 10
90.3423286201384
 20
127.6292323664917
 30
0.0
 10
90.26591383261758
 20
127.456960590335
 30
0.0
 10
90.17525228451933
 20
127.2831017640844
 30
0.0
  0
SPLINE
  5
105
330
1F
100
AcDbEntity
  8
0
  6
HIDDEN
 62
     7
370
     0
100
AcDbSpline
210
0.0
220
0.0
230
1.0
 70
     8
 71
     3
 72
    18
 73
    14
 74
     0
 42
0.000000001
 43
0.00000001
 40
0.0
 40
0.0
 40
0.0
 40
0.0
 40
0.2500000000000033
 40
0.2500000000000033
 40
0.3750000000000029
 40
0.3750000000000029
 40
0.5000000000000026
 40
0.5000000000000026
 40
0.6250000000000022
 40
0.6250000000000022
 40
0.7500000000000018
 40
0.7500000000000018
 40
1.0
 40
1.0
 40
1.0
 40
1.0
 10
95.2752522845193
 20
130.9304730730182
 30
0.0
 10
95.2752522845193
 20
130.875998552466
 30
0.0
 10
95.24034159312714
 20
130.8196174931135
 30
0.0
 10
95.13833229179409
 20
130.73554065226
 30
0.0
 10
95.09669593711598
 20
130.7082069482691
 30
0.0
 10
94.99829014162722
 20
130.6552530326701
 30
0.0
 10
94.94074692992294
 20
130.629365678953
 30
0.0
 10
94.81344875634998
 20
130.5815881341197
 30
0.0
 10
94.74386145159252
 20
130.5596402159418
 30
0.0
 10
94.59242720643756
 20
130.5202076510291
 30
0.0
 10
94.50974330334363
 20
130.5026514018033
 30
0.0
 10
94.25363184130558
 20
130.4602126363827
 30
0.0
 10
94.06571683741758
 20
130.4444498866457
 30
0.0
 10
93.8752522845193
 20
130.4444498866457
 30
0.0
  0
LINE
  5
106
330
1F
100
AcDbEntity
  8
0
  6
HIDDEN
 62
     7
370
     0
100
AcDbLine
 10
93.8752522845
 20
130.4444498866
 30
0.0
 11
90.4752522846
 21
130.4444498866
 31
0.0
  0
LINE
  5
107
330
1F
100
AcDbEntity
  8
0
  6
HIDDEN
 62
     7
370
     0
100
AcDbLine
 10
90.4062832979
 20
98.8414690146
 30
0.0
 11
97.8752522845
 21
98.8414690146
 31
0.0
  0
SPLINE
  5
108
330
1F
100
AcDbEntity
  8
0
  6
HIDDEN
 62
     7
370
     0
100
AcDbSpline
210
0.0
220
0.0
230
1.0
 70
     8
 71
     3
 72
    22
 73
    18
 74
     0
 42
0.000000001
 43
0.00000001
 40
0.0
 40
0.0
 40
0.0
 40
0.0
 40
0.1249999999999998
 40
0.1249999999999998
 40
0.2499999999999997
 40
0.2499999999999997
 40
0.4999999999999991
 40
0.4999999999999991
 40
0.562499999999999
 40
0.562499999999999
 40
0.624999999999999
 40
0.624999999999999
 40
0.7499999999999993
 40
0.7499999999999993
 40
0.8749999999999997
 40
0.8749999999999997
 40
1.0
 40
1.0
 40
1.0
 40
1.0
 10
90.40628329787721
 20
98.84146901458242
 30
0.0
 10
90.39320090514886
 20
99.09657472473009
 30
0.0
 10
90.37998134170904
 20
99.38973298383401
 30
0.0
 10
90.35753416391492
 20
100.0520334494588
 30
0.0
 10
90.34805569689041
 20
100.4223073700702
 30
0.0
 10
90.32885773595389
 20
101.644864173184
 30
0.0
 10
90.32997150895075
 20
102.5820030993158
 30
0.0
 10
90.34888230190386
 20
103.9018743288308
 30
0.0
 10
90.35351182976285
 20
104.1733762378071
 30
0.0
 10
90.36399304950882
 20
104.7317610726094
 30
0.0
 10
90.36978831079324
 20
105.018883928549
 30
0.0
 10
90.38809753169818
 20
105.8914731829207
 30
0.0
 10
90.40213246597853
 20
106.4919288592766
 30
0.0
 10
90.43158963811534
 20
107.7294033517727
 30
0.0
 10
90.44714532909693
 20
108.3664195084161
 30
0.0
 10
90.4709398790938
 20
109.6779081061007
 30
0.0
 10
90.47895893123918
 20
110.3540307177612
 30
0.0
 10
90.4752522845193
 20
111.038325829046
 30
0.0
  0
LINE
  5
109
330
1F
100
AcDbEntity
  8
0
  6
HIDDEN
 62
     7
370
     0
100
AcDbLine
 10
90.4752522846
 20
118.2475930722
 30
0.0
 11
90.4752522846
 21
130.4444498866
 31
0.0
  0
SPLINE
  5
10A
330
1F
100
AcDbEntity
  8
0
  6
HIDDEN
 62
     7
370
     0
100
AcDbSpline
210
0.0
220
0.0
230
1.0
 70
     8
 71
     3
 72
    10
 73
     6
 74
     0
 42
0.000000001
 43
0.00000001
 40
0.0
 40
0.0
 40
0.0
 40
0.0
 40
0.5
 40
0.5
 40
1.0
 40
1.0
 40
1.0
 40
1.0
 10
90.4752522845193
 20
111.0383258290309
 30
0.0
 10
90.47525228451912
 20
111.3122409771051
 30
0.0
 10
90.44949305465127
 20
111.5831825558351
 30
0.0
 10
90.34628712191814
 20
112.1188736374376
 30
0.0
 10
90.268948958043
 20
112.3846204409595
 30
0.0
 10
90.17525228451929
 20
112.6462591483969
 30
0.0
  0
SPLINE
  5
10B
330
1F
100
AcDbEntity
  8
0
  6
HIDDEN
 62
     7
370
     0
100
AcDbSpline
210
0.0
220
0.0
230
1.0
 70
     8
 71
     3
 72
    10
 73
     6
 74
     0
 42
0.000000001
 43
0.00000001
 40
0.0
 40
0.0
 40
0.0
 40
0.0
 40
0.5
 40
0.5
 40
1.0
 40
1.0
 40
1.0
 40
1.0
 10
90.1752522845193
 20
116.6300877534622
 30
0.0
 10
90.26848286487055
 20
116.8939815600606
 30
0.0
 10
90.34351247639937
 20
117.1601618691592
 30
0.0
 10
90.44857957437904
 20
117.6984844409781
 30
0.0
 10
90.47525228462365
 20
117.9712325555939
 30
0.0
 10
90.47525228462483
 20
118.2475930721812
 30
0.0
  0
LINE
  5
10C
330
1F
100
AcDbEntity
  8
0
  6
HIDDEN
 62
     7
370
     0
100
AcDbLine
 10
90.1752522845
 20
112.6462591484
 30
0.0
 11
90.1752522845
 21
116.6300877535
 31
0.0
  0
LINE
  5
10D
330
1F
100
AcDbEntity
  8
0
  6
HIDDEN
 62
     7
370
     0
100
AcDbLine
 10
90.3252522845
 20
96.6529594506
 30
0.0
 11
90.3252522845
 21
93.7730216852
 31
0.0
  0
LINE
  5
10E
330
1F
100
AcDbEntity
  8
0
  6
HIDDEN
 62
     7
370
     0
100
AcDbLine
 10
99.2752522845
 20
96.6529594506
 30
0.0
 11
99.2752522845
 21
92.6792219194
 31
0.0
  0
LINE
  5
10F
330
1F
100
AcDbEntity
  8
0
  6
HIDDEN
 62
     7
370
     0
100
AcDbLine
 10
90.3252522845
 20
132.6329594506
 30
0.0
 11
90.3252522845
 21
135.512897216
 31
0.0
  0
CIRCLE
  5
110
330
1F
100
AcDbEntity
  8
0
  6
HIDDEN
 62
     7
370
     0
100
AcDbCircle
 10
201.0252522845
 20
114.6429594506
 30
0.0
 40
2.25
  0
LINE
  5
111
330
1F
100
AcDbEntity
  8
0
  6
HIDDEN
 62
     7
370
     0
100
AcDbLine
 10
95.2752522845
 20
132.6329594506
 30
0.0
 11
95.2752522845
 21
136.487067123
 31
0.0
  0
LINE
  5
112
330
1F
100
AcDbEntity
  8
0
  6
HIDDEN
 62
     7
370
     0
100
AcDbLine
 10
139.8752522845
 20
105.1429594506
 30
0.0
 11
139.8752522845
 21
124.1429594506
 31
0.0
  0
LINE
  5
113
330
1F
100
AcDbEntity
  8
0
  6
HIDDEN
 62
     7
370
     0
100
AcDbLine
 10
142.8752522845
 20
105.1429594506
 30
0.0
 11
142.8752522845
 21
124.1429594506
 31
0.0
  0
LINE
  5
114
330
1F
100
AcDbEntity
  8
0
  6
HIDDEN
 62
     7
370
     0
100
AcDbLine
 10
131.5252522845
 20
106.1429594506
 30
0.0
 11
131.5252522845
 21
123.1429594506
 31
0.0
  0
LINE
  5
115
330
1F
100
AcDbEntity
  8
0
  6
HIDDEN
 62
     7
370
     0
100
AcDbLine
 10
147.0252522845
 20
88.2429594506
 30
0.0
 11
140.8875774822
 21
88.2429594506
 31
0.0
  0
LINE
  5
116
330
1F
100
AcDbEntity
  8
0
  6
HIDDEN
 62
     7
370
     0
100
AcDbLine
 10
126.0252522845
 20
83.1588364678
 30
0.0
 11
126.0252522845
 21
88.2429594506
 31
0.0
  0
LINE
  5
117
330
1F
100
AcDbEntity
  8
0
  6
HIDDEN
 62
     7
370
     0
100
AcDbLine
 10
134.0252522845
 20
88.2429594506
 30
0.0
 11
126.0252522845
 21
88.2429594506
 31
0.0
  0
LINE
  5
118
330
1F
100
AcDbEntity
  8
0
  6
HIDDEN
 62
     7
370
     0
100
AcDbLine
 10
137.2629270869
 20
88.2429594506
 30
0.0
 11
134.0252522845
 21
88.2429594506
 31
0.0
  0
LINE
  5
119
330
1F
100
AcDbEntity
  8
0
  6
HIDDEN
 62
     7
370
     0
100
AcDbLine
 10
137.5595498162
 20
141.0429594506
 30
0.0
 11
134.0252522845
 21
141.0429594506
 31
0.0
  0
LINE
  5
11A
330
1F
100
AcDbEntity
  8
0
  6
HIDDEN
 62
     7
370
     0
100
AcDbLine
 10
147.0252522845
 20
141.0429594506
 30
0.0
 11
140.5909547528
 21
141.0429594506
 31
0.0
  0
LINE
  5
11B
330
1F
100
AcDbEntity
  8
0
  6
HIDDEN
 62
     7
370
     0
100
AcDbLine
 10
134.0252522845
 20
141.0429594506
 30
0.0
 11
126.0252522845
 21
141.0429594506
 31
0.0
  0
SPLINE
  5
11C
330
1F
100
AcDbEntity
  8
0
  6
HIDDEN
 62
     7
370
     0
100
AcDbSpline
210
0.0
220
0.0
230
1.0
 70
     8
 71
     3
 72
    11
 73
     7
 74
     0
 42
0.000000001
 43
0.00000001
 40
0.0
 40
0.0
 40
0.0
 40
0.0
 40
0.0008203708524183
 40
0.0008203708524183
 40
0.0008203708524183
 40
0.0016409967870154
 40
0.0016409967870154
 40
0.0016409967870154
 40
0.0016409967870154
 10
90.32525228451931
 20
98.79092669997135
 30
0.0
 10
90.13409398422064
 20
98.74974767135221
 30
0.0
 10
89.94266691414848
 20
98.71099369912221
 30
0.0
 10
89.75102129062785
 20
98.67462593984368
 30
0.0
 10
89.55931588554739
 20
98.63824683607766
 30
0.0
 10
89.36737693348843
 20
98.60425258531008
 30
0.0
 10
89.17525228641759
 20
98.57260445991886
 30
0.0
  0
ELLIPSE
  5
11D
330
1F
100
AcDbEntity
  8
0
  6
HIDDEN
 62
     7
370
     0
100
AcDbEllipse
 10
84.9328204218
 20
114.6429594506
 30
0.0
 11
20.19992452771987
 21
-1.421085471520200E-14
 31
0.0
210
0.0
220
0.0
230
1.0
 40
0.816496581
 41
1.300566354937427
 42
1.359198697443034
  0
LINE
  5
11E
330
1F
100
AcDbEntity
  8
0
  6
HIDDEN
 62
     7
370
     0
100
AcDbLine
 10
99.2752522845
 20
96.6529594506
 30
0.0
 11
99.2752522845
 21
98.3554458282
 31
0.0
  0
LINE
  5
11F
330
1F
100
AcDbEntity
  8
0
  6
HIDDEN
 62
     7
370
     0
100
AcDbLine
 10
90.3252522845
 20
96.6529594506
 30
0.0
 11
90.3252522845
 21
98.7909267
 31
0.0
  0
LINE
  5
120
330
1F
100
AcDbEntity
  8
0
  6
HIDDEN
 62
     7
370
     0
100
AcDbLine
 10
90.4062832979
 20
98.8414690146
 30
0.0
 11
90.3252522845
 21
98.7909267
 31
0.0
  0
LINE
  5
121
330
1F
100
AcDbEntity
  8
0
  6
HIDDEN
 62
     7
370
     0
100
AcDbLine
 10
90.3252522845
 20
132.6329594506
 30
0.0
 11
90.3252522845
 21
130.5375838996
 31
0.0
  0
SPLINE
  5
122
330
1F
100
AcDbEntity
  8
0
  6
HIDDEN
 62
     7
370
     0
100
AcDbSpline
210
0.0
220
0.0
230
1.0
 70
     8
 71
     3
 72
     8
 73
     4
 74
     0
 42
0.000000001
 43
0.00000001
 40
0.0
 40
0.0
 40
0.0
 40
0.0
 40
1.0
 40
1.0
 40
1.0
 40
1.0
 10
90.32525228451931
 20
130.5375838996129
 30
0.0
 10
90.37525778236689
 20
130.50654812608
 30
0.0
 10
90.4252578519354
 20
130.475503481739
 30
0.0
 10
90.47525228462484
 20
130.4444498866457
 30
0.0
  0
LINE
  5
123
330
1F
100
AcDbEntity
  8
0
  6
HIDDEN
 62
     7
370
     0
100
AcDbLine
 10
95.2752522845
 20
132.6329594506
 30
0.0
 11
95.2752522845
 21
130.930473073
 31
0.0
  0
LINE
  5
124
330
1F
100
AcDbEntity
  8
0
  6
HIDDEN
 62
     7
370
     0
100
AcDbLine
 10
193.5752522845
 20
109.4429594506
 30
0.0
 11
193.5752522845
 21
119.8429592643
 31
0.0
  0
LINE
  5
125
330
1F
100
AcDbEntity
  8
0
  6
HIDDEN
 62
     7
370
     0
100
AcDbLine
 10
196.9412776883
 20
109.1429594506
 30
0.0
 11
196.9412776883
 21
120.1429594506
 31
0.0
  0
LWPOLYLINE
  5
126
330
1F
100
AcDbEntity
  8
0
  6
HIDDEN
 62
     7
370
     0
100
AcDbPolyline
 90
       17
 70
   128
 43
0.0
 10
115.8238989724
 20
91.0430174246
 10
115.5952260475
 20
91.1040745753
 10
115.2581145125
 20
91.1817582249
 10
114.7394233904
 20
91.2907594494
 10
113.9976469818
 20
91.4208644835
 10
113.267437667
 20
91.5214432945
 10
112.0960175158
 20
91.6340222467
 10
110.774437532
 20
91.6601054232
 10
110.0858946242
 20
91.6389407768
 10
109.4357682706
 20
91.5949719741
 10
108.8551222597
 20
91.5379963223
 10
108.5191449645
 20
91.4972332137
 10
108.3252720953
 20
91.464344626
 10
108.5142713662
 20
91.4963940757
 10
108.8462589811
 20
91.5368100798
 10
109.41910951
 20
91.5934869366
 10
109.41910951
 20
91.5934869366
  0
SPLINE
  5
127
330
1F
100
AcDbEntity
  8
0
  6
HIDDEN
 62
     7
370
     0
100
AcDbSpline
210
0.0
220
0.0
230
1.0
 70
     8
 71
     3
 72
    27
 73
    23
 74
     0
 42
0.000000001
 43
0.00000001
 40
0.0
 40
0.0
 40
0.0
 40
0.0
 40
0.0008027251992218
 40
0.0456851763128262
 40
0.1022667659059879
 40
0.1705447643709828
 40
0.2091363846690449
 40
0.2506635679240529
 40
0.3211092506234206
 40
0.3862028975822337
 40
0.4266819930090447
 40
0.4648131946764382
 40
0.5006174633387733
 40
0.5452091677585204
 40
0.6017033480355198
 40
0.6701092309501754
 40
0.7088465090312789
 40
0.7505751985258001
 40
0.82223968769915
 40
0.8877790244159092
 40
0.9472526996322453
 40
1.0
 40
1.0
 40
1.0
 40
1.0
 10
108.3259159979473
 20
137.821374619361
 30
0.0
 10
108.3256952886022
 20
137.8214221964298
 30
0.0
 10
108.3131341464372
 20
137.8241299310065
 30
0.0
 10
108.3622125415818
 20
137.8122975200818
 30
0.0
 10
108.507314745641
 20
137.7888538481161
 30
0.0
 10
108.7803676191656
 20
137.7549495367145
 30
0.0
 10
109.108893985894
 20
137.7213807657449
 30
0.0
 10
109.5016217809459
 20
137.6831974203678
 30
0.0
 10
110.0513497432777
 20
137.6442287507706
 30
0.0
 10
110.6773723919439
 20
137.6247676455833
 30
0.0
 10
111.2205639018166
 20
137.6225819678722
 30
0.0
 10
111.6656327987776
 20
137.6310968490275
 30
0.0
 10
112.1320805951753
 20
137.6508802459525
 30
0.0
 10
112.6693212444725
 20
137.6950426315036
 30
0.0
 10
113.3175346744608
 20
137.7674582513174
 30
0.0
 10
113.9030733076095
 20
137.8483603452926
 30
0.0
 10
114.3840429145201
 20
137.9265263318508
 30
0.0
 10
114.8294578439596
 20
138.0112984790898
 30
0.0
 10
115.2679573572308
 20
138.1050814692739
 30
0.0
 10
115.6069833640694
 20
138.1829854250909
 30
0.0
 10
115.794329596311
 20
138.2331785104066
 30
0.0
 10
115.8148196600117
 20
138.239845114471
 30
0.0
 10
115.824450618386
 20
138.2429786228476
 30
0.0
  0
SPLINE
  5
128
330
1F
100
AcDbEntity
  8
0
  6
HIDDEN
 62
     7
370
     0
100
AcDbSpline
210
0.0
220
0.0
230
1.0
 70
     8
 71
     3
 72
     8
 73
     4
 74
     0
 42
0.000000001
 43
0.00000001
 40
0.0
 40
0.0
 40
0.0
 40
0.0
 40
0.0001590976915385
 40
0.0001590976915385
 40
0.0001590976915385
 40
0.0001590976915385
 10
90.46042029051222
 20
98.84146901458242
 30
0.0
 10
90.41536882108268
 20
98.81349013093175
 30
0.0
 10
90.37031278374293
 20
98.78551860122944
 30
0.0
 10
90.32525228451932
 20
98.75755426254935
 30
0.0
  0
SPLINE
  5
129
330
1F
100
AcDbEntity
  8
0
  6
HIDDEN
 62
     7
370
     0
100
AcDbSpline
210
0.0
220
0.0
230
1.0
 70
     8
 71
     3
 72
    11
 73
     7
 74
     0
 42
0.000000001
 43
0.00000001
 40
0.0
 40
0.0
 40
0.0
 40
0.0
 40
0.000821290931132
 40
0.000821290931132
 40
0.000821290931132
 40
0.0016428257242788
 40
0.0016428257242788
 40
0.0016428257242788
 40
0.0016428257242788
 10
90.32525228451931
 20
98.75755426254935
 30
0.0
 10
90.13410726303688
 20
98.71426807372771
 30
0.0
 10
89.94268892736028
 20
98.67333156412195
 30
0.0
 10
89.75104285269916
 20
98.63472979276749
 30
0.0
 10
89.55933977115754
 20
98.59611653896252
 30
0.0
 10
89.3673946478722
 20
98.55983632970927
 30
0.0
 10
89.1752522845193
 20
98.52586942339116
 30
0.0
  0
LINE
  5
12A
330
1F
100
AcDbEntity
  8
0
  6
HIDDEN
 62
     7
370
     0
100
AcDbLine
 10
137.1652522845
 20
134.7788260821
 30
0.0
 11
137.1652522845
 21
134.4929594506
 31
0.0
  0
LINE
  5
12B
330
1F
100
AcDbEntity
  8
0
  6
HIDDEN
 62
     7
370
     0
100
AcDbLine
 10
140.9852522845
 20
134.7788260821
 30
0.0
 11
140.9852522845
 21
134.4929594506
 31
0.0
  0
LINE
  5
12C
330
1F
100
AcDbEntity
  8
0
  6
HIDDEN
 62
     7
370
     0
100
AcDbLine
 10
142.467185116
 20
139.101649113
 30
0.0
 11
142.467185116
 21
134.4929594506
 31
0.0
  0
SPLINE
  5
12D
330
1F
100
AcDbEntity
  8
0
  6
HIDDEN
 62
     7
370
     0
100
AcDbSpline
210
0.0
220
0.0
230
1.0
 70
     8
 71
     3
 72
     8
 73
     4
 74
     0
 42
0.000000001
 43
0.00000001
 40
0.0
 40
0.0
 40
0.0
 40
0.0
 40
0.0011563724678166
 40
0.0011563724678166
 40
0.0011563724678166
 40
0.0011563724678166
 10
90.1752522845193
 20
127.2831017640844
 30
0.0
 10
89.84193116932215
 20
127.4121607897113
 30
0.0
 10
89.50859848851417
 20
127.541121125885
 30
0.0
 10
89.17525228451929
 20
127.6700326556581
 30
0.0
  0
SPLINE
  5
12E
330
1F
100
AcDbEntity
  8
0
  6
HIDDEN
 62
     7
370
     0
100
AcDbSpline
210
0.0
220
0.0
230
1.0
 70
     8
 71
     3
 72
     8
 73
     4
 74
     0
 42
0.000000001
 43
0.00000001
 40
0.0000000000000001
 40
0.0000000000000001
 40
0.0000000000000001
 40
0.0000000000000001
 40
0.0011557494192775
 40
0.0011557494192775
 40
0.0011557494192775
 40
0.0011557494192775
 10
89.17525228451927
 20
101.6157375881632
 30
0.0
 10
89.50858609453344
 20
101.7473618643581
 30
0.0
 10
89.8419197061961
 20
101.8791787779316
 30
0.0
 10
90.1752522845193
 20
102.0111822200945
 30
0.0
  0
SPLINE
  5
12F
330
1F
100
AcDbEntity
  8
0
  6
HIDDEN
 62
     7
370
     0
100
AcDbSpline
210
0.0
220
0.0
230
1.0
 70
     8
 71
     3
 72
     8
 73
     4
 74
     0
 42
0.000000001
 43
0.00000001
 40
0.0000000000000006
 40
0.0000000000000006
 40
0.0000000000000006
 40
0.0000000000000006
 40
0.0011560973009451
 40
0.0011560973009451
 40
0.0011560973009451
 40
0.0011560973009451
 10
89.17525228451927
 20
124.6237739439011
 30
0.0
 10
89.50859202210603
 20
124.4990302116279
 30
0.0
 10
89.84192265531465
 20
124.3743489874509
 30
0.0
 10
90.1752522845193
 20
124.2498987641196
 30
0.0
  0
SPLINE
  5
130
330
1F
100
AcDbEntity
  8
0
  6
HIDDEN
 62
     7
370
     0
100
AcDbSpline
210
0.0
220
0.0
230
1.0
 70
     8
 71
     3
 72
     8
 73
     4
 74
     0
 42
0.000000001
 43
0.00000001
 40
0.0
 40
0.0
 40
0.0
 40
0.0
 40
0.0011564805411644
 40
0.0011564805411644
 40
0.0011564805411644
 40
0.0011564805411644
 10
90.1752522845193
 20
105.0421326656329
 30
0.0
 10
89.84195031911784
 20
104.9152817251987
 30
0.0
 10
89.50861350221119
 20
104.7887166563365
 30
0.0
 10
89.17525228451933
 20
104.6623166826757
 30
0.0
  0
CIRCLE
  5
131
330
1F
100
AcDbEntity
  8
0
  6
HIDDEN
 62
     7
370
     0
100
AcDbCircle
 10
128.0752522845
 20
114.6429594506
 30
0.0
 40
5.0
  0
LINE
  5
132
330
1F
100
AcDbEntity
  8
0
  6
HIDDEN
 62
     7
370
     0
100
AcDbLine
 10
121.0752522845
 20
89.3190283046
 30
0.0
 11
121.16941306
 21
89.9890170359
 31
0.0
  0
LINE
  5
133
330
1F
100
AcDbEntity
  8
0
  6
HIDDEN
 62
     7
370
     0
100
AcDbLine
 10
121.16941306
 20
139.2969018654
 30
0.0
 11
121.0752522845
 21
139.9668905966
 31
0.0
  0
ARC
  5
134
330
1F
100
AcDbEntity
  8
0
  6
HIDDEN
 62
     7
370
     0
100
AcDbCircle
 10
120.5752455319
 20
90.0725218362
 30
0.0
 40
0.6000067526677101
100
AcDbArc
 50
352.0
 51
0.0
  0
ARC
  5
135
330
1F
100
AcDbEntity
  8
0
  6
HIDDEN
 62
     7
370
     0
100
AcDbCircle
 10
120.5752455319
 20
90.0725218362
 30
0.0
 40
0.6000067526677124
100
AcDbArc
 50
0.0
 51
33.5571153394
  0
ARC
  5
136
330
1F
100
AcDbEntity
  8
0
  6
HIDDEN
 62
     7
370
     0
100
AcDbCircle
 10
120.5752455319
 20
139.213397065
 30
0.0
 40
0.6000067526677113
100
AcDbArc
 50
348.75
 51
8.0
  0
LWPOLYLINE
  5
137
330
1F
100
AcDbEntity
  8
0
  6
HIDDEN
 62
     7
370
     0
100
AcDbPolyline
 90
        3
 70
   128
 43
0.0
 10
121.163723323
 20
139.0963415544
 10
121.12957949
 20
138.9837844215
 10
121.0752522845
 20
138.88173255
  0
LINE
  5
138
330
1F
100
AcDbEntity
  8
0
  6
HIDDEN
 62
     7
370
     0
100
AcDbLine
 10
121.1752522845
 20
90.0725218362
 30
0.0
 11
121.1752522845
 21
139.213397065
 31
0.0
  0
LINE
  5
139
330
1F
100
AcDbEntity
  8
0
  6
HIDDEN
 62
     7
370
     0
100
AcDbLine
 10
104.1576878498
 20
94.6429594506
 30
0.0
 11
108.3352244262
 21
94.6429594506
 31
0.0
  0
LINE
  5
13A
330
1F
100
AcDbEntity
  8
0
  6
HIDDEN
 62
     7
370
     0
100
AcDbLine
 10
108.3352244262
 20
134.6429594506
 30
0.0
 11
104.1576878498
 21
134.6429594506
 31
0.0
  0
ARC
  5
13B
330
1F
100
AcDbEntity
  8
0
  6
HIDDEN
 62
     7
370
     0
100
AcDbCircle
 10
114.8302542861
 20
102.6429594506
 30
0.0
 40
8.000000000000025
100
AcDbArc
 50
277.0463850404
 51
321.3178125465
  0
ARC
  5
13C
330
1F
100
AcDbEntity
  8
0
  6
HIDDEN
 62
     7
370
     0
100
AcDbCircle
 10
114.8302542861
 20
126.6429594506
 30
0.0
 40
8.000000000000025
100
AcDbArc
 50
38.6821874535
 51
82.9389235318
  0
ARC
  5
13D
330
1F
100
AcDbEntity
  8
0
  6
HIDDEN
 62
     7
370
     0
100
AcDbCircle
 10
104.1576878498
 20
95.2429594506
 30
0.0
 40
0.6000000000000085
100
AcDbArc
 50
210.0
 51
270.0
  0
ARC
  5
13E
330
1F
100
AcDbEntity
  8
0
  6
HIDDEN
 62
     7
370
     0
100
AcDbCircle
 10
104.1576878498
 20
134.0429594506
 30
0.0
 40
0.5999999999999943
100
AcDbArc
 50
90.0
 51
150.0
  0
LINE
  5
13F
330
1F
100
AcDbEntity
  8
0
  6
HIDDEN
 62
     7
370
     0
100
AcDbLine
 10
103.6380726075
 20
134.3429594506
 30
0.0
 11
102.0792268807
 21
131.6429594506
 31
0.0
  0
LINE
  5
140
330
1F
100
AcDbEntity
  8
0
  6
HIDDEN
 62
     7
370
     0
100
AcDbLine
 10
102.0792268807
 20
97.6429594506
 30
0.0
 11
103.6380726075
 21
94.9429594506
 31
0.0
  0
ARC
  5
141
330
1F
100
AcDbEntity
  8
0
  6
HIDDEN
 62
     7
370
     0
100
AcDbCircle
 10
129.5252522845
 20
98.9179594506
 30
0.0
 40
1.500000000000001
100
AcDbArc
 50
238.2116693829
 51
0.0
  0
ARC
  5
142
330
1F
100
AcDbEntity
  8
0
  6
HIDDEN
 62
     7
370
     0
100
AcDbCircle
 10
129.5252522845
 20
130.3679594506
 30
0.0
 40
1.500000000000001
100
AcDbArc
 50
0.0
 51
121.7883306171
  0
LINE
  5
143
330
1F
100
AcDbEntity
  8
0
  6
HIDDEN
 62
     7
370
     0
100
AcDbLine
 10
99.2752522845
 20
97.6429594506
 30
0.0
 11
102.0792268807
 21
97.6429594506
 31
0.0
  0
LINE
  5
144
330
1F
100
AcDbEntity
  8
0
  6
HIDDEN
 62
     7
370
     0
100
AcDbLine
 10
102.0792268807
 20
131.6429594506
 30
0.0
 11
95.2752522845
 21
131.6429594506
 31
0.0
  0
LINE
  5
145
330
1F
100
AcDbEntity
  8
0
  6
HIDDEN
 62
     7
370
     0
100
AcDbLine
 10
121.0752522845
 20
97.6429594506
 30
0.0
 11
128.7350782531
 21
97.6429594506
 31
0.0
  0
LINE
  5
146
330
1F
100
AcDbEntity
  8
0
  6
HIDDEN
 62
     7
370
     0
100
AcDbLine
 10
128.7350782531
 20
131.6429594506
 30
0.0
 11
121.0752522845
 21
131.6429594506
 31
0.0
  0
LINE
  5
147
330
1F
100
AcDbEntity
  8
0
  6
HIDDEN
 62
     7
370
     0
100
AcDbLine
 10
139.8752522845
 20
105.1429594506
 30
0.0
 11
142.8752522845
 21
105.1429594506
 31
0.0
  0
LINE
  5
148
330
1F
100
AcDbEntity
  8
0
  6
HIDDEN
 62
     7
370
     0
100
AcDbLine
 10
142.8752522845
 20
124.1429594506
 30
0.0
 11
139.8752522845
 21
124.1429594506
 31
0.0
  0
LINE
  5
149
330
1F
100
AcDbEntity
  8
0
  6
HIDDEN
 62
     7
370
     0
100
AcDbLine
 10
131.0252522845
 20
105.6429594506
 30
0.0
 11
131.5252522845
 21
106.1429594506
 31
0.0
  0
LINE
  5
14A
330
1F
100
AcDbEntity
  8
0
  6
HIDDEN
 62
     7
370
     0
100
AcDbLine
 10
131.5252522845
 20
123.1429594506
 30
0.0
 11
131.0252522845
 21
123.6429594506
 31
0.0
  0
LINE
  5
14B
330
1F
100
AcDbEntity
  8
0
  6
HIDDEN
 62
     7
370
     0
100
AcDbLine
 10
131.5252522845
 20
106.1429594506
 30
0.0
 11
139.8752522845
 21
106.1429594506
 31
0.0
  0
LINE
  5
14C
330
1F
100
AcDbEntity
  8
0
  6
HIDDEN
 62
     7
370
     0
100
AcDbLine
 10
139.8752522845
 20
123.1429594506
 30
0.0
 11
131.5252522845
 21
123.1429594506
 31
0.0
  0
LINE
  5
14D
330
1F
100
AcDbEntity
  8
0
  6
HIDDEN
 62
     7
370
     0
100
AcDbLine
 10
126.0252522845
 20
146.1429594506
 30
0.0
 11
126.0252522845
 21
141.0429594506
 31
0.0
  0
ARC
  5
14E
330
1F
100
AcDbEntity
  8
0
  6
HIDDEN
 62
     7
370
     0
100
AcDbCircle
 10
206.0752522845
 20
108.1429594506
 30
0.0
 40
1.0
100
AcDbArc
 50
0.0
 51
90.0
  0
ARC
  5
14F
330
1F
100
AcDbEntity
  8
0
  6
HIDDEN
 62
     7
370
     0
100
AcDbCircle
 10
206.0752522845
 20
121.1429594506
 30
0.0
 40
1.0
100
AcDbArc
 50
270.0
 51
0.0
  0
LINE
  5
150
330
1F
100
AcDbEntity
  8
0
  6
HIDDEN
 62
     7
370
     0
100
AcDbLine
 10
194.3752522845
 20
108.6429594506
 30
0.0
 11
194.9699302864
 21
108.6429594506
 31
0.0
  0
LINE
  5
151
330
1F
100
AcDbEntity
  8
0
  6
HIDDEN
 62
     7
370
     0
100
AcDbLine
 10
194.9699302864
 20
120.6429594506
 30
0.0
 11
194.3752522845
 21
120.6429594506
 31
0.0
  0
ARC
  5
152
330
1F
100
AcDbEntity
  8
0
  6
HIDDEN
 62
     7
370
     0
100
AcDbCircle
 10
194.9699302864
 20
109.4429594506
 30
0.0
 40
0.7999999999999982
100
AcDbArc
 50
270.0
 51
285.0
  0
ARC
  5
153
330
1F
100
AcDbEntity
  8
0
  6
HIDDEN
 62
     7
370
     0
100
AcDbCircle
 10
194.9699302864
 20
119.8429594506
 30
0.0
 40
0.7999999999999982
100
AcDbArc
 50
75.0
 51
90.0
  0
ARC
  5
154
330
1F
100
AcDbEntity
  8
0
  6
HIDDEN
 62
     7
370
     0
100
AcDbCircle
 10
194.3752522845
 20
109.4429594506
 30
0.0
 40
0.7999999999999972
100
AcDbArc
 50
180.0
 51
270.0
  0
ARC
  5
155
330
1F
100
AcDbEntity
  8
0
  6
HIDDEN
 62
     7
370
     0
100
AcDbCircle
 10
194.3752522845
 20
119.8429594506
 30
0.0
 40
0.7999999999999972
100
AcDbArc
 50
90.0
 51
180.0
  0
LINE
  5
156
330
1F
100
AcDbEntity
  8
0
  6
HIDDEN
 62
     7
370
     0
100
AcDbLine
 10
195.1769855225
 20
108.6702187896
 30
0.0
 11
196.9412776883
 21
109.1429594506
 31
0.0
  0
LINE
  5
157
330
1F
100
AcDbEntity
  8
0
  6
HIDDEN
 62
     7
370
     0
100
AcDbLine
 10
196.9412776883
 20
120.1429594506
 30
0.0
 11
195.1769855225
 21
120.6157001116
 31
0.0
  0
LINE
  5
158
330
1F
100
AcDbEntity
  8
0
  6
HIDDEN
 62
     7
370
     0
100
AcDbLine
 10
196.9412776883
 20
109.1429594506
 30
0.0
 11
206.0752522845
 21
109.1429594506
 31
0.0
  0
LINE
  5
159
330
1F
100
AcDbEntity
  8
0
  6
HIDDEN
 62
     7
370
     0
100
AcDbLine
 10
206.0752522845
 20
120.1429594506
 30
0.0
 11
196.9412776883
 21
120.1429594506
 31
0.0
  0
LINE
  5
15A
330
1F
100
AcDbEntity
  8
0
  6
HIDDEN
 62
     7
370
     0
100
AcDbLine
 10
116.259690115
 20
90.5635881171
 30
0.0
 11
115.8252579655
 21
91.0426541362
 31
0.0
  0
LINE
  5
15B
330
1F
100
AcDbEntity
  8
0
  6
HIDDEN
 62
     7
370
     0
100
AcDbLine
 10
108.3252546404
 20
91.4643420953
 30
0.0
 11
107.8428208971
 21
90.9852761199
 31
0.0
  0
LINE
  5
15C
330
1F
100
AcDbEntity
  8
0
  6
HIDDEN
 62
     7
370
     0
100
AcDbLine
 10
107.8426989688
 20
138.3006374909
 30
0.0
 11
108.3252497198
 21
137.821517233
 31
0.0
  0
LINE
  5
15D
330
1F
100
AcDbEntity
  8
0
  6
HIDDEN
 62
     7
370
     0
100
AcDbLine
 10
115.8252521665
 20
138.2432150107
 30
0.0
 11
116.2597945569
 21
138.7223352613
 31
0.0
  0
LINE
  5
15E
330
1F
100
AcDbEntity
  8
0
  6
HIDDEN
 62
     7
370
     0
100
AcDbLine
 10
142.8752522845
 20
110.4429594506
 30
0.0
 11
193.5752522845
 21
110.4429594506
 31
0.0
  0
LINE
  5
15F
330
1F
100
AcDbEntity
  8
0
  6
HIDDEN
 62
     7
370
     0
100
AcDbLine
 10
193.5752522845
 20
118.8429594506
 30
0.0
 11
142.8752522845
 21
118.8429594506
 31
0.0
  0
LINE
  5
160
330
1F
100
AcDbEntity
  8
0
  6
HIDDEN
 62
     7
370
     0
100
AcDbLine
 10
115.8252522845
 20
91.0431380379
 30
0.0
 11
115.8252522845
 21
94.7058866246
 31
0.0
  0
LINE
  5
161
330
1F
100
AcDbEntity
  8
0
  6
HIDDEN
 62
     7
370
     0
100
AcDbLine
 10
108.3252522845
 20
94.6448216962
 30
0.0
 11
108.3252522845
 21
91.4646653331
 31
0.0
  0
LINE
  5
162
330
1F
100
AcDbEntity
  8
0
  6
HIDDEN
 62
     7
370
     0
100
AcDbLine
 10
115.8252522845
 20
134.5800322766
 30
0.0
 11
115.8252522845
 21
138.2429237046
 31
0.0
  0
LINE
  5
163
330
1F
100
AcDbEntity
  8
0
  6
HIDDEN
 62
     7
370
     0
100
AcDbLine
 10
108.3252522845
 20
137.8213734538
 30
0.0
 11
108.3252522845
 21
134.641097205
 31
0.0
  0
DIMENSION
  5
164
330
1F
100
AcDbEntity
  8
VERMASSUNG
100
AcDbDimension
  2
_D
 10
83.1218178624
 20
83.1429594506
 30
0.0
 11
83.1218178624
 21
114.6429594506
 31
0.0
 70
   160
  1
HSK A %%c<>
 71
     2
 42
-1.0
  3
SLDDIMSTYLE0
100
AcDbAlignedDimension
 13
121.3752522845
 23
146.1429594506
 33
0.0
 14
121.3752522845
 24
83.1429594506
 34
0.0
 50
90.0
100
AcDbRotatedDimension
  0
DIMENSION
  5
171
330
1F
100
AcDbEntity
  8
VERMASSUNG
100
AcDbDimension
  2
_D_1
 10
213.9379718773
 20
109.1429594506
 30
0.0
 11
213.9379718773
 21
114.6429594506
 31
0.0
 70
   160
  1
%%c<>
 71
     2
 42
-1.0
  3
SLDDIMSTYLE0
100
AcDbAlignedDimension
 13
206.0752522845
 23
120.1429594506
 33
0.0
 14
206.0752522845
 24
109.1429594506
 34
0.0
 50
90.0
100
AcDbRotatedDimension
  0
DIMENSION
  5
17C
330
1F
100
AcDbEntity
  8
VERMASSUNG
100
AcDbDimension
  2
_D_2
 10
220.2379718773
 20
104.6429594506
 30
0.0
 11
220.2379718773
 21
114.6429594506
 31
0.0
 70
   160
  1
%%c<>
 71
     2
 42
-1.0
  3
SLDDIMSTYLE0
100
AcDbAlignedDimension
 13
206.8752522845
 23
124.6429594506
 33
0.0
 14
206.8752522845
 24
104.6429594506
 34
0.0
 50
90.0
100
AcDbRotatedDimension
  0
DIMENSION
  5
187
330
1F
100
AcDbEntity
  8
VERMASSUNG
100
AcDbDimension
  2
_D_3
 10
147.0252522845
 20
149.7305990949
 30
0.0
 11
177.0502522845
 21
149.7305990949
 31
0.0
 70
   160
  1
(<>)
 71
     2
 42
-1.0
  3
SLDDIMSTYLE0
100
AcDbAlignedDimension
 13
207.0752522845
 23
124.4429594506
 33
0.0
 14
147.0252522845
 24
144.4893997744
 34
0.0
100
AcDbRotatedDimension
  0
DIMENSION
  5
193
330
1F
100
AcDbEntity
  8
VERMASSUNG
100
AcDbDimension
  2
_D_4
 10
121.0752522845
 20
155.7305990949
 30
0.0
 11
164.0752522845
 21
155.7305990949
 31
0.0
 70
   160
  1
<>
 71
     2
 42
-1.0
  3
SLDDIMSTYLE0
100
AcDbAlignedDimension
 13
207.0752522845
 23
124.4429594506
 33
0.0
 14
121.0752522845
 24
145.8429594506
 34
0.0
100
AcDbRotatedDimension
  0
DIMENSION
  5
19D
330
1F
100
AcDbEntity
  8
VERMASSUNG
100
AcDbDimension
  2
_D_5
 10
89.1752522845
 20
161.7305990949
 30
0.0
 11
148.1252522845
 21
161.7305990949
 31
0.0
 70
   160
  1
(<>)
 71
     2
 42
-1.0
  3
SLDDIMSTYLE0
100
AcDbAlignedDimension
 13
207.0752522845
 23
124.4429594506
 33
0.0
 14
89.1752522845
 24
134.3336371971
 34
0.0
100
AcDbRotatedDimension
  0
LINE
  5
1A9
330
1F
100
AcDbEntity
  8
VERMASSUNG
  6
CENTERX2
370
     0
100
AcDbLine
 10
87.2680330765
 20
114.6429594506
 30
0.0
 11
208.4404929755
 21
114.6429594506
 31
0.0
  0
LINE
  5
1AA
330
1F
100
AcDbEntity
  8
0
  6
Continuous
 62
     7
370
    15
100
AcDbLine
 10
260.5643653151
 20
36.7754799333
 30
0.0
 11
260.6350645008
 21
36.8163069733
 31
0.0
  0
LINE
  5
1AB
330
1F
100
AcDbEntity
  8
0
  6
Continuous
 62
     7
370
    15
100
AcDbLine
 10
264.0993245974
 20
42.8172316839
 30
0.0
 11
264.0993245974
 21
42.8988724951
 31
0.0
  0
LINE
  5
1AC
330
1F
100
AcDbEntity
  8
0
  6
Continuous
 62
     7
370
    15
100
AcDbLine
 10
237.9644836046
 20
48.1308081929
 30
0.0
 11
258.0639938599
 21
36.5276079037
 31
0.0
  0
LINE
  5
1AD
330
1F
100
AcDbEntity
  8
0
  6
Continuous
 62
     7
370
    15
100
AcDbLine
 10
263.063587523
 20
45.1880965275
 30
0.0
 11
242.9640772678
 21
56.7912968167
 31
0.0
  0
SPLINE
  5
1AE
330
1F
100
AcDbEntity
  8
0
  6
Continuous
 62
     7
370
    15
100
AcDbSpline
210
0.0
220
0.0
230
1.0
 70
     8
 71
     3
 72
    12
 73
     8
 74
     0
 42
0.000000001
 43
0.00000001
 40
0.0
 40
0.0
 40
0.0
 40
0.0
 40
0.0802665371112898
 40
0.3316185370501902
 40
0.5610680751648062
 40
0.8064673367059784
 40
1.0
 40
1.0
 40
1.0
 40
1.0
 10
258.8990094316503
 20
38.65275059918496
 30
0.0
 10
258.8798061225325
 20
38.6617888538493
 30
0.0
 10
258.8004682875472
 20
38.69913010335555
 30
0.0
 10
258.6950741759854
 20
38.82451591510812
 30
0.0
 10
258.5724143886522
 20
39.05650117169506
 30
0.0
 10
258.4963083082906
 20
39.35000254404218
 30
0.0
 10
258.4869688628505
 20
39.58906423122545
 30
0.0
 10
258.4828509401217
 20
39.69447065621837
 30
0.0
  0
SPLINE
  5
1AF
330
1F
100
AcDbEntity
  8
0
  6
Continuous
 62
     7
370
    15
100
AcDbSpline
210
0.0
220
0.0
230
1.0
 70
     8
 71
     3
 72
    21
 73
    17
 74
     0
 42
0.000000001
 43
0.00000001
 40
0.0
 40
0.0
 40
0.0
 40
0.0
 40
0.0394182560547708
 40
0.1154295825700207
 40
0.1920161055196505
 40
0.2691259240817951
 40
0.3465790284326303
 40
0.424137885669059
 40
0.5014967221269714
 40
0.5783736664351805
 40
0.6545416513941974
 40
0.7298872950645436
 40
0.8046548444973304
 40
0.879657457074468
 40
0.9571899587100801
 40
1.0
 40
1.0
 40
1.0
 40
1.0
 10
258.4828509401217
 20
39.69447065621837
 30
0.0
 10
258.4845394914396
 20
39.76506046333203
 30
0.0
 10
258.4894841235285
 20
39.97177057139735
 30
0.0
 10
258.5465402482063
 20
40.35066129319716
 30
0.0
 10
258.6767830310041
 20
40.82537012188199
 30
0.0
 10
258.87069252874
 20
41.30944693012763
 30
0.0
 10
259.1210173754313
 20
41.78248520283552
 30
0.0
 10
259.4185911623014
 20
42.22564010664558
 30
0.0
 10
259.7509685664432
 20
42.62106681227222
 30
0.0
 10
260.1033539232982
 20
42.95343569734762
 30
0.0
 10
260.4591479612786
 20
43.2110570897492
 30
0.0
 10
260.8004612077398
 20
43.38665208901138
 30
0.0
 10
261.1099660743442
 20
43.48028517820877
 30
0.0
 10
261.3706257094431
 20
43.494810065681
 30
0.0
 10
261.5481659782383
 20
43.46472675234342
 30
0.0
 10
261.6299220779089
 20
43.4094328380253
 30
0.0
 10
261.6590055750456
 20
43.38976286348848
 30
0.0
  0
LINE
  5
1B0
330
1F
100
AcDbEntity
  8
0
  6
Continuous
 62
     7
370
    15
100
AcDbLine
 10
222.4606157762
 20
44.6683060233
 30
0.0
 11
227.5192814365
 21
41.7480004981
 31
0.0
  0
LINE
  5
1B1
330
1F
100
AcDbEntity
  8
0
  6
Continuous
 62
     7
370
    15
100
AcDbLine
 10
240.3925123826
 20
70.6885241826
 30
0.0
 11
238.2093358152
 21
71.9488451883
 31
0.0
  0
SPLINE
  5
1B2
330
1F
100
AcDbEntity
  8
0
  6
Continuous
 62
     7
370
    15
100
AcDbSpline
210
0.0
220
0.0
230
1.0
 70
     8
 71
     3
 72
    20
 73
    16
 74
     0
 42
0.000000001
 43
0.00000001
 40
0.0
 40
0.0
 40
0.0
 40
0.0
 40
0.0424590045009054
 40
0.1268871491585575
 40
0.2116333881785788
 40
0.2966329783417764
 40
0.3818070478701643
 40
0.4670837741412989
 40
0.5524079198617142
 40
0.6377375923624213
 40
0.7230495686786848
 40
0.8083348008705304
 40
0.893590529949189
 40
0.9788179153289599
 40
0.9999999999999999
 40
0.9999999999999999
 40
0.9999999999999999
 40
0.9999999999999999
 10
234.0013041691374
 20
38.81029468851561
 30
0.0
 10
234.1358837669028
 20
38.80202313986698
 30
0.0
 10
234.5380698684397
 20
38.77730392566286
 30
0.0
 10
235.2410744922227
 20
38.83875882911722
 30
0.0
 10
236.1025524226522
 20
38.98822622526007
 30
0.0
 10
236.9862242804436
 20
39.2362526851292
 30
0.0
 10
237.8839785094758
 20
39.57496566358588
 30
0.0
 10
238.7902362669784
 20
40.00371862360878
 30
0.0
 10
239.6986886856245
 20
40.51906032219738
 30
0.0
 10
240.603391342257
 20
41.11737901968608
 30
0.0
 10
241.498166322894
 20
41.79490915376314
 30
0.0
 10
242.3781767482504
 20
42.54553304160157
 30
0.0
 10
243.2343547882243
 20
43.36994187075161
 30
0.0
 10
243.8638342481925
 20
44.02320057841751
 30
0.0
 10
244.1952488152293
 20
44.41732411385798
 30
0.0
 10
244.2612208703184
 20
44.49577914323237
 30
0.0
  0
SPLINE
  5
1B3
330
1F
100
AcDbEntity
  8
0
  6
Continuous
 62
     7
370
    15
100
AcDbSpline
210
0.0
220
0.0
230
1.0
 70
     8
 71
     3
 72
    10
 73
     6
 74
     0
 42
0.000000001
 43
0.00000001
 40
0.0
 40
0.0
 40
0.0
 40
0.0
 40
0.3051345946319628
 40
0.7110382776108692
 40
1.0
 40
1.0
 40
1.0
 40
1.0
 10
249.2608213859666
 20
53.15626381119365
 30
0.0
 10
249.3596136475602
 20
53.44786694465243
 30
0.0
 10
249.5898237933796
 20
54.1273736063292
 30
0.0
 10
249.8492083055778
 20
55.0804583358865
 30
0.0
 10
249.9848279915913
 20
55.7326015644057
 30
0.0
 10
250.0412258173537
 20
56.00379715005657
 30
0.0
  0
LINE
  5
1B4
330
1F
100
AcDbEntity
  8
0
  6
Continuous
 62
     7
370
    15
100
AcDbLine
 10
229.917740143
 20
40.3633997589
 30
0.0
 11
231.3171282106
 21
39.555550223
 31
0.0
  0
LINE
  5
1B5
330
1F
100
AcDbEntity
  8
0
  6
Continuous
 62
     7
370
    15
100
AcDbLine
 10
231.024449041
 20
71.5424489753
 30
0.0
 11
224.8426595685
 21
74.6223869889
 31
0.0
  0
LINE
  5
1B6
330
1F
100
AcDbEntity
  8
0
  6
Continuous
 62
     7
370
    15
100
AcDbLine
 10
213.4609617554
 20
54.9065718505
 30
0.0
 11
219.2195188911
 21
51.0934944892
 31
0.0
  0
LINE
  5
1B7
330
1F
100
AcDbEntity
  8
0
  6
Continuous
 62
     7
370
    15
100
AcDbLine
 10
248.0425421274
 20
66.1003138021
 30
0.0
 11
247.861305355
 21
66.2652874893
 31
0.0
  0
SPLINE
  5
1B8
330
1F
100
AcDbEntity
  8
0
  6
Continuous
 62
     7
370
    15
100
AcDbSpline
210
0.0
220
0.0
230
1.0
 70
     8
 71
     3
 72
    13
 73
     9
 74
     0
 42
0.000000001
 43
0.00000001
 40
0.0
 40
0.0
 40
0.0
 40
0.0
 40
0.1065205311166517
 40
0.307962495796608
 40
0.5091141308319063
 40
0.7096449665845409
 40
0.9093818501443262
 40
1.0
 40
1.0
 40
1.0
 40
1.0
 10
250.0558455128134
 20
62.54675463880068
 30
0.0
 10
250.0132933698091
 20
62.70180432693628
 30
0.0
 10
249.8902704743754
 20
63.15006991883831
 30
0.0
 10
249.6313155907027
 20
63.84325125932221
 30
0.0
 10
249.2586014537953
 20
64.6004085310491
 30
0.0
 10
248.8140751019345
 20
65.27646835431165
 30
0.0
 10
248.4083094775438
 20
65.77940567099533
 30
0.0
 10
248.1295434230574
 20
66.02398270480576
 30
0.0
 10
248.0425421274264
 20
66.1003138020848
 30
0.0
  0
SPLINE
  5
1B9
330
1F
100
AcDbEntity
  8
0
  6
Continuous
 62
     7
370
    15
100
AcDbSpline
210
0.0
220
0.0
230
1.0
 70
     8
 71
     3
 72
    26
 73
    22
 74
     0
 42
0.000000001
 43
0.00000001
 40
0.0
 40
0.0
 40
0.0
 40
0.0
 40
0.0336729170779934
 40
0.0854455899316276
 40
0.1375679887808285
 40
0.1902477264408298
 40
0.2435353960191257
 40
0.2973468459431683
 40
0.3515272619024117
 40
0.4059173408725859
 40
0.4603925123307113
 40
0.5148578617547775
 40
0.5692774818590135
 40
0.6236402680738866
 40
0.6779480562733942
 40
0.7322097759042494
 40
0.7864380084878511
 40
0.8406471219380655
 40
0.894852342729345
 40
0.9490673318339432
 40
0.9999999999999999
 40
0.9999999999999999
 40
0.9999999999999999
 40
0.9999999999999999
 10
224.6315651937943
 20
74.70774614126414
 30
0.0
 10
224.500476456477
 20
74.76491243290653
 30
0.0
 10
224.1678365943729
 20
74.90997285348942
 30
0.0
 10
223.5850110391637
 20
75.03745916720733
 30
0.0
 10
222.8968361803374
 20
75.1016358942504
 30
0.0
 10
222.175607497243
 20
75.06759545738045
 30
0.0
 10
221.4287539113365
 20
74.93960968117823
 30
0.0
 10
220.6619990771407
 20
74.71667296002474
 30
0.0
 10
219.8828831429712
 20
74.40076589261807
 30
0.0
 10
219.0991693143027
 20
73.99486301233655
 30
0.0
 10
218.3186666430037
 20
73.50331339427004
 30
0.0
 10
217.5487695411649
 20
72.93132320908896
 30
0.0
 10
216.7964199980293
 20
72.28472723075294
 30
0.0
 10
216.0680931666805
 20
71.56976191075312
 30
0.0
 10
215.3699823192622
 20
70.7930916717953
 30
0.0
 10
214.7079693047557
 20
69.9617963493826
 30
0.0
 10
214.0878210540566
 20
69.08332031573987
 30
0.0
 10
213.5143748126776
 20
68.1655056689014
 30
0.0
 10
212.9944313831448
 20
67.21626946653123
 30
0.0
 10
212.5353224210902
 20
66.26433813775326
 30
0.0
 10
212.2831510949523
 20
65.6262142294149
 30
0.0
 10
212.1610013599171
 20
65.3171122093046
 30
0.0
  0
LINE
  5
1BA
330
1F
100
AcDbEntity
  8
0
  6
Continuous
 62
     7
370
    15
100
AcDbLine
 10
212.2767760335
 20
63.4627119434
 30
0.0
 11
214.8303359322
 21
61.9885731919
 31
0.0
  0
LINE
  5
1BB
330
1F
100
AcDbEntity
  8
0
  6
Continuous
 62
     7
370
    15
100
AcDbLine
 10
211.9784837561
 20
64.5868873942
 30
0.0
 11
211.9784837561
 21
64.125615577
 31
0.0
  0
SPLINE
  5
1BC
330
1F
100
AcDbEntity
  8
0
  6
Continuous
 62
     7
370
    15
100
AcDbSpline
210
0.0
220
0.0
230
1.0
 70
     8
 71
     3
 72
    10
 73
     6
 74
     0
 42
0.000000001
 43
0.00000001
 40
0.0
 40
0.0
 40
0.0
 40
0.0
 40
0.2033112034445973
 40
0.9710960634183977
 40
1.0
 40
1.0
 40
1.0
 40
1.0
 10
214.8590185579445
 20
54.75163728574696
 30
0.0
 10
214.8567892536701
 20
54.76920033490621
 30
0.0
 10
214.8461412000044
 20
54.8530885201671
 30
0.0
 10
214.8499739052844
 20
54.97930272000526
 30
0.0
 10
214.8765351594948
 20
55.08852156225333
 30
0.0
 10
214.8774988040327
 20
55.09248403104102
 30
0.0
  0
LINE
  5
1BD
330
1F
100
AcDbEntity
  8
0
  6
Continuous
 62
     7
370
    15
100
AcDbLine
 10
211.9784837561
 20
57.1153774019
 30
0.0
 11
211.9784837561
 21
56.6542671482
 31
0.0
  0
SPLINE
  5
1BE
330
1F
100
AcDbEntity
  8
0
  6
Continuous
 62
     7
370
    15
100
AcDbSpline
210
0.0
220
0.0
230
1.0
 70
     8
 71
     3
 72
    11
 73
     7
 74
     0
 42
0.000000001
 43
0.00000001
 40
0.0
 40
0.0
 40
0.0
 40
0.0
 40
0.2530910525887924
 40
0.6057538379215466
 40
0.9540310138124423
 40
0.9999999999999999
 40
0.9999999999999999
 40
0.9999999999999999
 40
0.9999999999999999
 10
212.0947049360172
 20
56.36747265547781
 30
0.0
 10
212.183623744856
 20
56.22157117863689
 30
0.0
 10
212.3964440289654
 20
55.87236729074439
 30
0.0
 10
212.8182241279286
 20
55.41642592061233
 30
0.0
 10
213.1730924801601
 20
55.08739658354351
 30
0.0
 10
213.3895800612715
 20
54.95968814712099
 30
0.0
 10
213.4148224493607
 20
54.94479738111077
 30
0.0
  0
LINE
  5
1BF
330
1F
100
AcDbEntity
  8
0
  6
Continuous
 62
     7
370
    15
100
AcDbLine
 10
259.3795304539
 20
46.4040433335
 30
0.0
 11
259.2734472022
 21
46.4653037977
 31
0.0
  0
LINE
  5
1C0
330
1F
100
AcDbEntity
  8
0
  6
Continuous
 62
     7
370
    15
100
AcDbLine
 10
257.7175595108
 20
46.4653037977
 30
0.0
 11
257.6114762591
 21
46.4040433335
 31
0.0
  0
LINE
  5
1C1
330
1F
100
AcDbEntity
  8
0
  6
Continuous
 62
     7
370
    15
100
AcDbLine
 10
257.2455033565
 20
45.8938711876
 30
0.0
 11
257.2455033565
 21
45.8283503341
 31
0.0
  0
LINE
  5
1C2
330
1F
100
AcDbEntity
  8
0
  6
Continuous
 62
     7
370
    15
100
AcDbLine
 10
259.7455033565
 20
45.8283503341
 30
0.0
 11
259.7455033565
 21
45.8938711876
 31
0.0
  0
LWPOLYLINE
  5
1C3
330
1F
100
AcDbEntity
  8
0
  6
Continuous
 62
     7
370
    15
100
AcDbPolyline
 90
       42
 70
   128
 43
0.0
 10
257.1696781418
 20
38.816831936
 10
257.2102844017
 20
39.4510308462
 10
257.3311514051
 20
40.1172476612
 10
257.5294461318
 20
40.7998668235
 10
257.8005207217
 20
41.4828883186
 10
258.1380214159
 20
42.1503027015
 10
258.5340374844
 20
42.7864663447
 10
258.979286646
 20
43.3764681116
 10
259.4633326379
 20
43.9064788609
 10
259.9748298322
 20
44.3640755898
 10
260.5017891682
 20
44.7385326188
 10
261.0318591657
 20
45.0210729926
 10
261.5526154333
 20
45.2050742043
 10
262.0518518854
 20
45.2862234213
 10
262.5178668427
 20
45.2626185749
 10
262.9397373096
 20
45.1348129427
 10
263.3075749998
 20
44.9058021802
 10
263.6127581098
 20
44.5809541058
 10
263.848133406
 20
44.1678828829
 10
264.008183891
 20
43.6762705509
 10
264.0891581172
 20
43.1176400862
 10
264.0891581172
 20
42.5050853134
 10
264.008183891
 20
41.8529639973
 10
263.848133406
 20
41.1765613086
 10
263.6127581098
 20
40.4917315533
 10
263.3075749998
 20
39.8145265602
 10
262.9397373096
 20
39.1608194405
 10
262.5178668427
 20
38.545932535
 10
262.0518518854
 20
37.9842782716
 10
261.5526154333
 20
37.4890213503
 10
261.0318591657
 20
37.0717701734
 10
260.5017891682
 20
36.7423047549
 10
259.9748298322
 20
36.5083474851
 10
259.4633326379
 20
36.3753821239
 10
258.979286646
 20
36.3465252668
 10
258.5340374844
 20
36.4224532941
 10
258.1380214159
 20
36.6013865171
 10
257.8005207217
 20
36.8791308927
 10
257.5294461318
 20
37.2491763282
 10
257.3311514051
 20
37.7028492723
 10
257.2102844017
 20
38.2295160156
 10
257.1696781418
 20
38.816831936
  0
LWPOLYLINE
  5
1C4
330
1F
100
AcDbEntity
  8
0
  6
Continuous
 62
     7
370
    15
100
AcDbPolyline
 90
       22
 70
   128
 43
0.0
 10
257.0282567855
 20
38.816831936
 10
257.0696917446
 20
39.4639736811
 10
257.1930254215
 20
40.1437867576
 10
257.3953669795
 20
40.8403369233
 10
257.6719737038
 20
41.5372976325
 10
258.0163621673
 20
42.2183327171
 10
258.4204601963
 20
42.8674792918
 10
258.8747960756
 20
43.4695219111
 10
259.3687205571
 20
44.0103492063
 10
259.8906564696
 20
44.4772846439
 10
260.4283700778
 20
44.8593836532
 10
260.9692578304
 20
45.147690157
 10
261.5006417769
 20
45.3354464955
 10
262.010066728
 20
45.418251819
 10
262.4855921946
 20
45.394165241
 10
262.9160722629
 20
45.2637513306
 10
263.2914168448
 20
45.0300668791
 10
263.6028281815
 20
44.6985892521
 10
263.8430070552
 20
44.2770880043
 10
264.0063238766
 20
43.7754427676
 10
264.088950638
 20
43.2054116811
 10
264.0993245974
 20
42.8988724951
  0
LWPOLYLINE
  5
1C5
330
1F
100
AcDbEntity
  8
0
  6
Continuous
 62
     7
370
    15
100
AcDbPolyline
 90
       12
 70
   128
 43
0.0
 10
260.5643653151
 20
36.7754799333
 10
260.4283700778
 20
36.6999674655
 10
259.8906564696
 20
36.4612355575
 10
259.3687205571
 20
36.3255566175
 10
258.8747960756
 20
36.296110845
 10
258.4204601963
 20
36.3735884238
 10
258.0163621673
 20
36.5561733452
 10
257.6719737038
 20
36.8395859735
 10
257.3953669795
 20
37.2171833567
 10
257.1930254215
 20
37.6801149322
 10
257.0696917446
 20
38.2175299764
 10
257.0282567855
 20
38.816831936
  0
SPLINE
  5
1C6
330
1F
100
AcDbEntity
  8
0
  6
Continuous
 62
     7
370
    15
100
AcDbSpline
210
0.0
220
0.0
230
1.0
 70
    11
 71
     3
 72
    62
 73
    58
 74
     0
 42
0.000000001
 43
0.00000001
 40
0.0
 40
0.0
 40
0.0
 40
0.0
 40
0.0312500000000007
 40
0.0312500000000007
 40
0.0625000000000014
 40
0.0625000000000014
 40
0.0937500000000021
 40
0.0937500000000021
 40
0.1250000000000027
 40
0.1250000000000027
 40
0.1562500000000034
 40
0.1562500000000034
 40
0.1875000000000041
 40
0.1875000000000041
 40
0.2187500000000048
 40
0.2187500000000048
 40
0.2500000000000055
 40
0.2500000000000055
 40
0.3125000000000069
 40
0.3125000000000069
 40
0.3437500000000066
 40
0.3437500000000066
 40
0.3750000000000062
 40
0.3750000000000062
 40
0.4062500000000059
 40
0.4062500000000059
 40
0.4375000000000056
 40
0.4375000000000056
 40
0.4687500000000053
 40
0.4687500000000053
 40
0.500000000000005
 40
0.500000000000005
 40
0.5312500000000047
 40
0.5312500000000047
 40
0.5625000000000043
 40
0.5625000000000043
 40
0.5937500000000041
 40
0.5937500000000041
 40
0.6250000000000038
 40
0.6250000000000038
 40
0.6562500000000034
 40
0.6562500000000034
 40
0.6875000000000031
 40
0.6875000000000031
 40
0.7187500000000028
 40
0.7187500000000028
 40
0.7500000000000024
 40
0.7500000000000024
 40
0.7812500000000022
 40
0.7812500000000022
 40
0.8125000000000019
 40
0.8125000000000019
 40
0.8750000000000012
 40
0.8750000000000012
 40
0.9375000000000007
 40
0.9375000000000007
 40
1.0
 40
1.0
 40
1.0
 40
1.0
 10
258.4839124485925
 20
46.91408929199261
 30
0.0
 10
258.3846980351188
 20
46.93218882885007
 30
0.0
 10
258.285699115565
 20
46.94503035275722
 30
0.0
 10
258.0879540084386
 20
46.95838121903785
 30
0.0
 10
257.98832299932
 20
46.95871724238847
 30
0.0
 10
257.7983035781183
 20
46.94452873414562
 30
0.0
 10
257.7069508735713
 20
46.93020052341362
 30
0.0
 10
257.5322415731183
 20
46.88465838768478
 30
0.0
 10
257.4501491119981
 20
46.85343471475371
 30
0.0
 10
257.3046405957165
 20
46.77652411204342
 30
0.0
 10
257.239199377768
 20
46.72971856667033
 30
0.0
 10
257.1300329823169
 20
46.62461525404385
 30
0.0
 10
257.086105842543
 20
46.56671295852273
 30
0.0
 10
257.0185368779703
 20
46.44138694411485
 30
0.0
 10
256.9959365382734
 20
46.37580198980494
 30
0.0
 10
256.9710133807497
 20
46.24147120195387
 30
0.0
 10
256.9688288613482
 20
46.1721575518696
 30
0.0
 10
256.9907577080569
 20
45.96840097024246
 30
0.0
 10
257.0435511419248
 20
45.83404785424632
 30
0.0
 10
257.168190821675
 20
45.65509882623827
 30
0.0
 10
257.217825793221
 20
45.59834607677843
 30
0.0
 10
257.3309611936407
 20
45.49395120136773
 30
0.0
 10
257.3937394330382
 20
45.446811492728
 30
0.0
 10
257.5313072395438
 20
45.36258259021756
 30
0.0
 10
257.6068106301457
 20
45.32523370771696
 30
0.0
 10
257.7670499056094
 20
45.26241521661638
 30
0.0
 10
257.8511165095848
 20
45.23705103954507
 30
0.0
 10
258.0271446991856
 20
45.1977640706832
 30
0.0
 10
258.1200257578894
 20
45.18377945239731
 30
0.0
 10
258.3098409677691
 20
45.16779707873021
 30
0.0
 10
258.4061153091515
 20
45.1657112143404
 30
0.0
 10
258.6016679315108
 20
45.17260730050161
 30
0.0
 10
258.7021701890436
 20
45.18178545356061
 30
0.0
 10
258.9003232429482
 20
45.21072573858309
 30
0.0
 10
258.9974328362603
 20
45.23024717705628
 30
0.0
 10
259.1875986410376
 20
45.27898507083731
 30
0.0
 10
259.2819749581704
 20
45.30877813311069
 30
0.0
 10
259.4562743560136
 20
45.37529124208643
 30
0.0
 10
259.5369472575278
 20
45.41202569410336
 30
0.0
 10
259.6845632944983
 20
45.49250203098555
 30
0.0
 10
259.7498977350218
 20
45.53555995585614
 30
0.0
 10
259.8592198479025
 20
45.62397057789686
 30
0.0
 10
259.9043347675266
 20
45.67034475567598
 30
0.0
 10
259.9717005099441
 20
45.76284276474861
 30
0.0
 10
259.994699510329
 20
45.80958588157915
 30
0.0
 10
260.0200186210037
 20
45.90352990724932
 30
0.0
 10
260.0222219725962
 20
45.94983408130704
 30
0.0
 10
260.0077731076027
 20
46.0424996511547
 30
0.0
 10
259.9908424678555
 20
46.08899362326495
 30
0.0
 10
259.9401938889566
 20
46.18001418722356
 30
0.0
 10
259.9064642584199
 20
46.22496500806387
 30
0.0
 10
259.7804820844249
 20
46.35975815884296
 30
0.0
 10
259.6673805697502
 20
46.44600090975049
 30
0.0
 10
259.388047227456
 20
46.6124212070704
 30
0.0
 10
259.2286994346912
 20
46.68866218994376
 30
0.0
 10
258.8710341172659
 20
46.82319937184691
 30
0.0
 10
258.68234127554
 20
46.87789021827768
 30
0.0
 10
258.4839124485925
 20
46.9140892919926
 30
0.0
  0
SPLINE
  5
1C7
330
1F
100
AcDbEntity
  8
0
  6
Continuous
 62
     7
370
    15
100
AcDbSpline
210
0.0
220
0.0
230
1.0
 70
     8
 71
     3
 72
    10
 73
     6
 74
     0
 42
0.000000001
 43
0.00000001
 40
0.0
 40
0.0
 40
0.0
 40
0.0
 40
0.5
 40
0.5
 40
1.0
 40
1.0
 40
1.0
 40
1.0
 10
228.9524839625878
 20
50.71447967780554
 30
0.0
 10
228.8959552768053
 20
50.68184636212293
 30
0.0
 10
228.8173119542306
 20
50.66147338666396
 30
0.0
 10
228.6570820398994
 20
50.6584119867026
 30
0.0
 10
228.5759150273588
 20
50.67607118658285
 30
0.0
 10
228.5188011270209
 20
50.70904233943716
 30
0.0
  0
SPLINE
  5
1C8
330
1F
100
AcDbEntity
  8
0
  6
Continuous
 62
     7
370
    15
100
AcDbSpline
210
0.0
220
0.0
230
1.0
 70
     8
 71
     3
 72
    12
 73
     8
 74
     0
 42
0.000000001
 43
0.00000001
 40
0.0
 40
0.0
 40
0.0
 40
0.0
 40
0.2500000000000033
 40
0.2500000000000033
 40
0.5000000000000067
 40
0.5000000000000067
 40
1.0
 40
1.0
 40
1.0
 40
1.0
 10
246.2095230333657
 20
67.23300421769227
 30
0.0
 10
246.2414273617105
 20
67.2145862409765
 30
0.0
 10
246.2735646981513
 20
67.18467170034444
 30
0.0
 10
246.3282230045776
 20
67.11427428040153
 30
0.0
 10
246.3511963439079
 20
67.0738935837257
 30
0.0
 10
246.4048781328456
 20
66.95136975369033
 30
0.0
 10
246.4216550677217
 20
66.86656843208465
 30
0.0
 10
246.4216550677217
 20
66.79301583645103
 30
0.0
  0
LINE
  5
1C9
330
1F
100
AcDbEntity
  8
0
  6
Continuous
 62
     7
370
    15
100
AcDbLine
 10
228.518801127
 20
50.7090423394
 30
0.0
 11
227.1194130594
 21
51.5168918753
 31
0.0
  0
LWPOLYLINE
  5
1CA
330
1F
100
AcDbEntity
  8
0
  6
Continuous
 62
     7
370
    15
100
AcDbPolyline
 90
       24
 70
   128
 43
0.0
 10
227.1194130594
 20
51.5168918753
 10
227.4294711927
 20
52.7329934645
 10
227.8149523221
 20
53.9583434965
 10
228.2730507753
 20
55.1840234265
 10
228.8004323445
 20
56.4011123086
 10
229.3932585542
 20
57.6007517258
 10
230.0472145988
 20
58.7742102644
 10
230.7575407475
 20
59.9129470648
 10
231.5190669874
 20
61.0086739849
 10
232.3262506524
 20
62.0534159244
 10
233.1732167653
 20
63.03956887
 10
234.0538007975
 20
63.9599552405
 10
234.961593537
 20
64.8078761281
 10
235.8899877369
 20
65.577160055
 10
236.8322262054
 20
66.2622078921
 10
237.7814509869
 20
66.858033611
 10
238.7307532769
 20
67.3603005747
 10
239.673223707
 20
67.765353101
 10
240.6020026333
 20
68.0702430697
 10
241.5103300637
 20
68.2727513803
 10
242.3915948597
 20
68.3714041034
 10
243.2393828545
 20
68.3654832084
 10
244.0475235374
 20
68.2550317899
 10
244.8101349657
 20
68.0408537536
  0
LINE
  5
1CB
330
1F
100
AcDbEntity
  8
0
  6
Continuous
 62
     7
370
    15
100
AcDbLine
 10
244.8101349657
 20
68.0408537536
 30
0.0
 11
246.2095230334
 21
67.2330042177
 31
0.0
  0
LINE
  5
1CC
330
1F
100
AcDbEntity
  8
0
  6
Continuous
 62
     7
370
    15
100
AcDbLine
 10
248.7374297761
 20
61.7278153743
 30
0.0
 11
249.9559304381
 21
62.4312408336
 31
0.0
  0
LINE
  5
1CD
330
1F
100
AcDbEntity
  8
0
  6
Continuous
 62
     7
370
    15
100
AcDbLine
 10
248.7374297761
 20
55.1954888792
 30
0.0
 11
248.7374297761
 21
61.7278153743
 31
0.0
  0
LINE
  5
1CE
330
1F
100
AcDbEntity
  8
0
  6
Continuous
 62
     7
370
    15
100
AcDbLine
 10
249.9559304381
 20
55.8989143385
 30
0.0
 11
248.7374297761
 21
55.1954888792
 31
0.0
  0
LINE
  5
1CF
330
1F
100
AcDbEntity
  8
0
  6
Continuous
 62
     7
370
    15
100
AcDbLine
 10
228.9524839626
 20
43.3656123708
 30
0.0
 11
230.0698107528
 21
44.0106313972
 31
0.0
  0
LINE
  5
1D0
330
1F
100
AcDbEntity
  8
0
  6
Continuous
 62
     7
370
    15
100
AcDbLine
 10
230.0698107528
 20
44.0106313972
 30
0.0
 11
230.0698107528
 21
51.3594987042
 31
0.0
  0
LINE
  5
1D1
330
1F
100
AcDbEntity
  8
0
  6
Continuous
 62
     7
370
    15
100
AcDbLine
 10
230.0698107528
 20
51.3594987042
 30
0.0
 11
228.9524839626
 21
50.7144796778
 31
0.0
  0
LINE
  5
1D2
330
1F
100
AcDbEntity
  8
0
  6
Continuous
 62
     7
370
    15
100
AcDbLine
 10
246.4216550677
 20
66.7930158365
 30
0.0
 11
246.4216550677
 21
65.2289514016
 31
0.0
  0
LINE
  5
1D3
330
1F
100
AcDbEntity
  8
0
  6
Continuous
 62
     7
370
    15
100
AcDbLine
 10
247.7761012289
 20
66.0108565271
 30
0.0
 11
246.4216550677
 21
65.2289514016
 31
0.0
  0
LWPOLYLINE
  5
1D4
330
1F
100
AcDbEntity
  8
0
  6
Continuous
 62
     7
370
    15
100
AcDbPolyline
 90
       21
 70
   128
 43
0.0
 10
226.1956302716
 20
53.1478739093
 10
226.5265926268
 20
54.3481528333
 10
226.9359328881
 20
55.5545882533
 10
227.4202346715
 20
56.7571111702
 10
227.9754559585
 20
57.9456852389
 10
228.5969628313
 20
59.1103905324
 10
229.2795681476
 20
60.2415063344
 10
230.017574833
 20
61.3295922689
 10
230.8048234293
 20
62.3655670902
 10
231.6347435015
 20
63.340784476
 10
232.5004084754
 20
64.2471051901
 10
233.3945934471
 20
65.0769650127
 10
234.309835483
 20
65.8234378725
 10
235.2384959053
 20
66.4802936519
 10
236.1728240456
 20
67.0420501841
 10
237.1050219323
 20
67.5040190075
 10
238.0273093729
 20
67.8623444963
 10
238.9319888883
 20
68.1140360394
 10
239.8115099566
 20
68.2569930006
 10
240.6585320298
 20
68.2900222506
 10
241.3106963194
 20
68.2367054155
  0
SPLINE
  5
1D5
330
1F
100
AcDbEntity
  8
0
  6
Continuous
 62
     7
370
    15
100
AcDbSpline
210
0.0
220
0.0
230
1.0
 70
     8
 71
     3
 72
     8
 73
     4
 74
     0
 42
0.000000001
 43
0.00000001
 40
0.0
 40
0.0
 40
0.0
 40
0.0
 40
1.0
 40
1.0
 40
1.0
 40
1.0
 10
226.1956302716299
 20
53.14787390928382
 30
0.0
 10
225.7043292425774
 20
53.06522668907994
 30
0.0
 10
225.2127491516747
 20
52.9831429015895
 30
0.0
 10
224.7209543529228
 20
52.90149261450775
 30
0.0
  0
LWPOLYLINE
  5
1D6
330
1F
100
AcDbEntity
  8
0
  6
Continuous
 62
     7
370
    15
100
AcDbPolyline
 90
       24
 70
   128
 43
0.0
 10
224.7209543529
 20
52.9014926145
 10
225.0310124862
 20
54.1175942037
 10
225.4164936156
 20
55.3429442356
 10
225.8745920688
 20
56.5686241657
 10
226.401973638
 20
57.7857130478
 10
226.9947998477
 20
58.985352465
 10
227.6487558923
 20
60.1588110035
 10
228.359082041
 20
61.297547804
 10
229.1206082809
 20
62.3932747241
 10
229.9277919459
 20
63.4380166636
 10
230.7747580588
 20
64.4241696091
 10
231.655342091
 20
65.3445559797
 10
232.5631348306
 20
66.1924768673
 10
233.4915290305
 20
66.9617607942
 10
234.4337674989
 20
67.6468086313
 10
235.3829922804
 20
68.2426343502
 10
236.3322945704
 20
68.7449013139
 10
237.2747650005
 20
69.1499538402
 10
238.2035439268
 20
69.4548438089
 10
239.1118713572
 20
69.6573521195
 10
239.9931361532
 20
69.7560048426
 10
240.840924148
 20
69.7500839476
 10
241.6490648309
 20
69.6396325291
 10
242.4116762593
 20
69.4254544928
  0
LINE
  5
1D7
330
1F
100
AcDbEntity
  8
0
  6
Continuous
 62
     7
370
    15
100
AcDbLine
 10
242.4116762593
 20
69.4254544928
 30
0.0
 11
242.7466431954
 21
68.3432207129
 31
0.0
  0
LINE
  5
1D8
330
1F
100
AcDbEntity
  8
0
  6
Continuous
 62
     7
370
    15
100
AcDbLine
 10
238.9970338653
 20
71.396685588
 30
0.0
 11
242.4116762593
 21
69.4254544928
 31
0.0
  0
LINE
  5
1D9
330
1F
100
AcDbEntity
  8
0
  6
Continuous
 62
     7
370
    15
100
AcDbLine
 10
224.7209543529
 20
52.9014926145
 30
0.0
 11
224.1347390837
 21
53.2399074861
 31
0.0
  0
SPLINE
  5
1DA
330
1F
100
AcDbEntity
  8
0
  6
Continuous
 62
     7
370
    15
100
AcDbSpline
210
0.0
220
0.0
230
1.0
 70
     8
 71
     3
 72
    28
 73
    24
 74
     0
 42
0.000000001
 43
0.00000001
 40
0.0
 40
0.0
 40
0.0
 40
0.0
 40
0.1249999999999999
 40
0.1249999999999999
 40
0.1874999999999998
 40
0.1874999999999998
 40
0.2499999999999997
 40
0.2499999999999997
 40
0.3749999999999993
 40
0.3749999999999993
 40
0.4374999999999993
 40
0.4374999999999993
 40
0.4999999999999992
 40
0.4999999999999992
 40
0.6249999999999992
 40
0.6249999999999992
 40
0.7499999999999992
 40
0.7499999999999992
 40
0.8124999999999993
 40
0.8124999999999993
 40
0.8749999999999996
 40
0.8749999999999996
 40
1.0
 40
1.0
 40
1.0
 40
1.0
 10
224.1347390836643
 20
53.23990748608756
 30
0.0
 10
223.946752003198
 20
53.34843011767164
 30
0.0
 10
223.7565320485973
 20
53.43037383821954
 30
0.0
 10
223.4684334466493
 20
53.51553156825801
 30
0.0
 10
223.3719435760497
 20
53.53758149866181
 30
0.0
 10
223.1782054032148
 20
53.56885532212078
 30
0.0
 10
223.0809543826834
 20
53.5779825734442
 30
0.0
 10
222.7949325077981
 20
53.5857654155526
 30
0.0
 10
222.6095906914415
 20
53.56545887191554
 30
0.0
 10
222.3410781046257
 20
53.4982382187824
 30
0.0
 10
222.25271744496
 20
53.46945186117681
 30
0.0
 10
222.0823647346703
 20
53.40043997108165
 30
0.0
 10
222.0003377048888
 20
53.36030008117153
 30
0.0
 10
221.7639014511362
 20
53.22368031340831
 30
0.0
 10
221.6190342010138
 20
53.11116582371924
 30
0.0
 10
221.3581774075298
 20
52.84290885871977
 30
0.0
 10
221.2458850000274
 20
52.69075547234249
 30
0.0
 10
221.1066605185736
 20
52.43883908464418
 30
0.0
 10
221.0650647322078
 20
52.35079679896781
 30
0.0
 10
220.9919400171466
 20
52.16645574391598
 30
0.0
 10
220.9603155330936
 20
52.06966698123421
 30
0.0
 10
220.8828222296715
 20
51.7716519023374
 30
0.0
 10
220.8536475142816
 20
51.56217902520087
 30
0.0
 10
220.8476806315398
 20
51.341798232517
 30
0.0
  0
ARC
  5
1DB
330
1F
100
AcDbEntity
  8
0
  6
Continuous
 62
     7
370
    15
100
AcDbCircle
 10
235.6910470939
 20
50.9335278266
 30
0.0
 40
14.84898018918641
100
AcDbArc
 50
178.4244628824
 51
181.5755371176
  0
SPLINE
  5
1DC
330
1F
100
AcDbEntity
  8
0
  6
Continuous
 62
     7
370
    15
100
AcDbSpline
210
0.0
220
0.0
230
1.0
 70
     8
 71
     3
 72
    30
 73
    26
 74
     0
 42
0.000000001
 43
0.00000001
 40
0.0
 40
0.0
 40
0.0
 40
0.0
 40
0.1250000000000001
 40
0.1250000000000001
 40
0.1875000000000002
 40
0.1875000000000002
 40
0.2500000000000003
 40
0.2500000000000003
 40
0.3750000000000004
 40
0.3750000000000004
 40
0.4375000000000004
 40
0.4375000000000004
 40
0.5000000000000004
 40
0.5000000000000004
 40
0.6250000000000007
 40
0.6250000000000007
 40
0.6875000000000006
 40
0.6875000000000006
 40
0.7500000000000004
 40
0.7500000000000004
 40
0.8125000000000004
 40
0.8125000000000004
 40
0.8750000000000003
 40
0.8750000000000003
 40
1.0
 40
1.0
 40
1.0
 40
1.0
 10
220.8476806315398
 20
50.52525742063126
 30
0.0
 10
220.8536482302313
 20
50.31174022785654
 30
0.0
 10
220.8827934502308
 20
50.09419032983741
 30
0.0
 10
220.9592281114896
 20
49.76189130030181
 30
0.0
 10
220.990194095067
 20
49.65011699900225
 30
0.0
 10
221.0631640358826
 20
49.42441512546726
 30
0.0
 10
221.1053002344412
 20
49.31032735289474
 30
0.0
 10
221.2451920238056
 20
48.97216462553355
 30
0.0
 10
221.3570359483479
 20
48.74965440626078
 30
0.0
 10
221.5508225454925
 20
48.41904415031121
 30
0.0
 10
221.6201631830957
 20
48.30881751060506
 30
0.0
 10
221.7656555675424
 20
48.09208751015152
 30
0.0
 10
221.8415428582615
 20
47.9858905745208
 30
0.0
 10
222.0779308067329
 20
47.67325240127119
 30
0.0
 10
222.2470763089838
 20
47.47270985343602
 30
0.0
 10
222.5169423063178
 20
47.18260501401369
 30
0.0
 10
222.6091338123687
 20
47.08826159764124
 30
0.0
 10
222.7947324074034
 20
46.90695656958084
 30
0.0
 10
222.8885612876902
 20
46.81953723608669
 30
0.0
 10
223.0780113381556
 20
46.65092968576204
 30
0.0
 10
223.1736327533613
 20
46.56974149999269
 30
0.0
 10
223.3664944427877
 20
46.41357882044456
 30
0.0
 10
223.464229351686
 20
46.33825184074785
 30
0.0
 10
223.7554853068064
 20
46.12496160730401
 30
0.0
 10
223.9467426977796
 20
45.99956818260358
 30
0.0
 10
224.1347390836643
 20
45.89104017911581
 30
0.0
  0
LINE
  5
1DD
330
1F
100
AcDbEntity
  8
0
  6
Continuous
 62
     7
370
    15
100
AcDbLine
 10
224.1347390837
 20
45.8910401791
 30
0.0
 11
224.7209543529
 21
45.5526253075
 31
0.0
  0
ARC
  5
1DE
330
1F
100
AcDbEntity
  8
0
  6
Continuous
 62
     7
370
    15
100
AcDbCircle
 10
230.5240926418
 20
46.9268488719
 30
0.0
 40
5.963631813322266
100
AcDbArc
 50
193.3226247866
 51
253.29954657
  0
LINE
  5
1DF
330
1F
100
AcDbEntity
  8
0
  6
Continuous
 62
     7
370
    15
100
AcDbLine
 10
244.0410941156
 20
68.4845057998
 30
0.0
 11
244.3754065193
 21
68.1771776896
 31
0.0
  0
LINE
  5
1E0
330
1F
100
AcDbEntity
  8
0
  6
Continuous
 62
     7
370
    15
100
AcDbLine
 10
243.1881653618
 20
68.9768910886
 30
0.0
 11
244.0410941156
 21
68.4845057998
 31
0.0
  0
SPLINE
  5
1E1
330
1F
100
AcDbEntity
  8
0
  6
Continuous
 62
     7
370
    15
100
AcDbSpline
210
0.0
220
0.0
230
1.0
 70
     8
 71
     3
 72
    20
 73
    16
 74
     0
 42
0.000000001
 43
0.00000001
 40
0.0
 40
0.0
 40
0.0
 40
0.0
 40
0.2499999999999995
 40
0.2499999999999995
 40
0.3749999999999996
 40
0.3749999999999996
 40
0.4999999999999997
 40
0.4999999999999997
 40
0.6249999999999998
 40
0.6249999999999998
 40
0.7499999999999998
 40
0.7499999999999998
 40
0.8749999999999999
 40
0.8749999999999999
 40
1.0
 40
1.0
 40
1.0
 40
1.0
 10
238.9970338652629
 20
71.396685587988
 30
0.0
 10
239.3160225196609
 20
71.26279519872821
 30
0.0
 10
239.6424781197589
 20
71.10289885166623
 30
0.0
 10
240.154828237142
 20
70.8249799241967
 30
0.0
 10
240.3294316038199
 20
70.7259809113864
 30
0.0
 10
240.6893054661687
 20
70.5150402064877
 30
0.0
 10
240.8721658825222
 20
70.40448438927766
 30
0.0
 10
241.2384609716995
 20
70.17906652026683
 30
0.0
 10
241.4229444879581
 20
70.06358591888737
 30
0.0
 10
241.7965293121936
 20
69.82875357459159
 30
0.0
 10
241.9808787834328
 20
69.71242364931634
 30
0.0
 10
242.3415886899093
 20
69.48672896251695
 30
0.0
 10
242.5186426791631
 20
69.37691898842027
 30
0.0
 10
242.8663720305155
 20
69.16552422488436
 30
0.0
 10
243.0316224469737
 20
69.06726138974135
 30
0.0
 10
243.1881653617552
 20
68.97689108862399
 30
0.0
  0
LWPOLYLINE
  5
1E2
330
1F
100
AcDbEntity
  8
0
  6
Continuous
 62
     7
370
    15
100
AcDbPolyline
 90
       29
 70
   128
 43
0.0
 10
219.198043992
 20
51.8793617252
 10
219.2392709653
 20
53.0087133735
 10
219.3626466552
 20
54.1773033475
 10
219.5672576311
 20
55.376479816
 10
219.851589025
 20
56.5973644958
 10
220.2135357467
 20
57.830918384
 10
220.6504180694
 20
59.0680086791
 10
221.1590014691
 20
60.2994763974
 10
221.7355205724
 20
61.5162041829
 10
222.3757070335
 20
62.7091838086
 10
223.0748211357
 20
63.8695828708
 10
223.827686883
 20
64.9888101808
 10
224.6287303207
 20
66.0585793713
 10
225.4720208034
 20
67.0709702454
 10
226.3513149035
 20
68.0184874152
 10
227.2601026351
 20
68.8941157952
 10
228.1916556518
 20
69.6913725392
 10
229.1390770609
 20
70.4043550372
 10
230.0953524859
 20
71.0277846163
 10
231.053401998
 20
71.5570456219
 10
232.0061325339
 20
71.9882195907
 10
232.9464904099
 20
72.3181142615
 10
233.8675135455
 20
72.5442872096
 10
234.7623830074
 20
72.6650639297
 10
235.6244734954
 20
72.6795502331
 10
236.4474023931
 20
72.5876388683
 10
237.2250770228
 20
72.3900103149
 10
237.9517397536
 20
72.0881277456
 10
238.2093358152
 20
71.9488451883
  0
LWPOLYLINE
  5
1E3
330
1F
100
AcDbEntity
  8
0
  6
Continuous
 62
     7
370
    15
100
AcDbPolyline
 90
       11
 70
   128
 43
0.0
 10
222.4606157762
 20
44.6683060233
 10
222.3757070335
 20
44.7183912957
 10
221.7355205724
 20
45.1722273666
 10
221.1590014691
 20
45.7233203638
 10
220.6504180694
 20
46.3675901876
 10
220.2135357467
 20
47.1002668898
 10
219.851589025
 20
47.9159259882
 10
219.5672576311
 20
48.8085286283
 10
219.3626466552
 20
49.7714662924
 10
219.2392709653
 20
50.797609727
 10
219.198043992
 20
51.8793617252
  0
LINE
  5
1E4
330
1F
100
AcDbEntity
  8
0
  6
Continuous
 62
     7
370
    15
100
AcDbLine
 10
227.3302448265
 20
52.3736151409
 30
0.0
 11
226.866617034
 21
52.6412617685
 31
0.0
  0
LINE
  5
1E5
330
1F
100
AcDbEntity
  8
0
  6
Continuous
 62
     7
370
    15
100
AcDbLine
 10
226.440798876
 20
53.289406732
 30
0.0
 11
226.1956302716
 21
53.1478739093
 31
0.0
  0
SPLINE
  5
1E6
330
1F
100
AcDbEntity
  8
0
  6
Continuous
 62
     7
370
    15
100
AcDbSpline
210
0.0
220
0.0
230
1.0
 70
     8
 71
     3
 72
    14
 73
    10
 74
     0
 42
0.000000001
 43
0.00000001
 40
0.0
 40
0.0
 40
0.0
 40
0.0
 40
0.1249999999999983
 40
0.1249999999999983
 40
0.2499999999999967
 40
0.2499999999999967
 40
0.4999999999999968
 40
0.4999999999999968
 40
1.0
 40
1.0
 40
1.0
 40
1.0
 10
226.8666170340077
 20
52.64126176846184
 30
0.0
 10
226.8424206008425
 20
52.65523007200439
 30
0.0
 10
226.8192451623836
 20
52.68259524800193
 30
0.0
 10
226.7823247699527
 20
52.74039701712746
 30
0.0
 10
226.7672829789201
 20
52.77136749624383
 30
0.0
 10
226.7274695223332
 20
52.86439396917303
 30
0.0
 10
226.7078335039491
 20
52.9270050234578
 30
0.0
 10
226.6574126554796
 20
53.11133577437278
 30
0.0
 10
226.6349954772391
 20
53.23288000927347
 30
0.0
 10
226.6183075790732
 20
53.35200907457583
 30
0.0
  0
SPLINE
  5
1E7
330
1F
100
AcDbEntity
  8
0
  6
Continuous
 62
     7
370
    15
100
AcDbSpline
210
0.0
220
0.0
230
1.0
 70
     8
 71
     3
 72
    10
 73
     6
 74
     0
 42
0.000000001
 43
0.00000001
 40
0.0
 40
0.0
 40
0.0
 40
0.0
 40
0.5
 40
0.5
 40
1.0
 40
1.0
 40
1.0
 40
1.0
 10
226.6183075790732
 20
53.35200907457583
 30
0.0
 10
226.5849175608854
 20
53.3458593053756
 30
0.0
 10
226.5526782094573
 20
53.33731269752753
 30
0.0
 10
226.492690315195
 20
53.31607672375863
 30
0.0
 10
226.465428441946
 20
53.30362507775045
 30
0.0
 10
226.4407988759961
 20
53.2894067319736
 30
0.0
  0
ARC
  5
1E8
330
1F
100
AcDbEntity
  8
0
  6
Continuous
 62
     7
370
    15
100
AcDbCircle
 10
243.5385629826
 20
50.6181079549
 30
0.0
 40
24.45011999697528
100
AcDbArc
 50
123.840012323
 51
171.8618550273
  0
LINE
  5
1E9
330
1F
100
AcDbEntity
  8
0
  6
Continuous
 62
     7
370
    15
100
AcDbLine
 10
227.8998150161
 20
45.2633432713
 30
0.0
 11
230.0698107528
 21
44.0106313972
 31
0.0
  0
SPLINE
  5
1EA
330
1F
100
AcDbEntity
  8
0
  6
Continuous
 62
     7
370
    15
100
AcDbSpline
210
0.0
220
0.0
230
1.0
 70
     8
 71
     3
 72
    14
 73
    10
 74
     0
 42
0.000000001
 43
0.00000001
 40
0.0
 40
0.0
 40
0.0
 40
0.0
 40
0.1249999999999993
 40
0.1249999999999993
 40
0.2499999999999987
 40
0.2499999999999987
 40
0.4999999999999973
 40
0.4999999999999973
 40
1.0
 40
1.0
 40
1.0
 40
1.0
 10
227.6515055611248
 20
45.97409057739991
 30
0.0
 10
227.6757341390775
 20
45.96010371706652
 30
0.0
 10
227.6988199804433
 20
45.93280494724979
 30
0.0
 10
227.7355623545065
 20
45.87536573894236
 30
0.0
 10
227.7507206541902
 20
45.84421526393997
 30
0.0
 10
227.7902835810779
 20
45.75191572373421
 30
0.0
 10
227.8098934543208
 20
45.68967794297867
 30
0.0
 10
227.8607163032757
 20
45.50422217678211
 30
0.0
 10
227.8831479873998
 20
45.3823233564844
 30
0.0
 10
227.8998150160593
 20
45.26334327128581
 30
0.0
  0
LINE
  5
1EB
330
1F
100
AcDbEntity
  8
0
  6
Continuous
 62
     7
370
    15
100
AcDbLine
 10
226.866617034
 20
46.4271970795
 30
0.0
 11
227.6515055611
 21
45.9740905774
 31
0.0
  0
SPLINE
  5
1EC
330
1F
100
AcDbEntity
  8
0
  6
Continuous
 62
     7
370
    15
100
AcDbSpline
210
0.0
220
0.0
230
1.0
 70
     8
 71
     3
 72
    14
 73
    10
 74
     0
 42
0.000000001
 43
0.00000001
 40
0.0
 40
0.0
 40
0.0
 40
0.0
 40
0.5
 40
0.5
 40
0.75
 40
0.75
 40
0.875
 40
0.875
 40
1.0
 40
1.0
 40
1.0
 40
1.0
 10
226.6183075790731
 20
46.00314176760384
 30
0.0
 10
226.6349316605269
 20
46.10262151183395
 30
0.0
 10
226.6573490621312
 20
46.19845664522995
 30
0.0
 10
226.7077801199799
 20
46.32467259480359
 30
0.0
 10
226.7273148139111
 20
46.36450614349785
 30
0.0
 10
226.7672579712466
 20
46.4117664749697
 30
0.0
 10
226.7822749384122
 20
46.42536908857495
 30
0.0
 10
226.8193363059339
 20
46.44058949015066
 30
0.0
 10
226.8423199682823
 20
46.44122347694454
 30
0.0
 10
226.8666170340077
 20
46.4271970794615
 30
0.0
  0
LINE
  5
1ED
330
1F
100
AcDbEntity
  8
0
  6
Continuous
 62
     7
370
    15
100
AcDbLine
 10
225.4736166751
 20
46.6639577606
 30
0.0
 11
226.6183075791
 21
46.0031417676
 31
0.0
  0
ARC
  5
1EE
330
1F
100
AcDbEntity
  8
0
  6
Continuous
 62
     7
370
    15
100
AcDbCircle
 10
228.7600814649
 20
51.8273854162
 30
0.0
 40
6.120607483709609
100
AcDbArc
 50
182.476303705
 51
237.5236964406
  0
LINE
  5
1EF
330
1F
100
AcDbEntity
  8
0
  6
Continuous
 62
     7
370
    15
100
AcDbLine
 10
222.6451895503
 20
52.3794780437
 30
0.0
 11
222.6451895503
 21
51.5629372318
 31
0.0
  0
ARC
  5
1F0
330
1F
100
AcDbEntity
  8
0
  6
Continuous
 62
     7
370
    15
100
AcDbCircle
 10
225.2398516206
 20
52.4633121114
 30
0.0
 40
2.59601606500764
100
AcDbArc
 50
154.5697459878
 51
181.8505946794
  0
SPLINE
  5
1F1
330
1F
100
AcDbEntity
  8
0
  6
Continuous
 62
     7
370
    15
100
AcDbSpline
210
0.0
220
0.0
230
1.0
 70
     8
 71
     3
 72
    12
 73
     8
 74
     0
 42
0.000000001
 43
0.00000001
 40
0.0
 40
0.0
 40
0.0
 40
0.0
 40
0.2499999999999999
 40
0.2499999999999999
 40
0.4999999999999998
 40
0.4999999999999998
 40
1.0
 40
1.0
 40
1.0
 40
1.0
 10
249.9632684914945
 20
56.14807294013828
 30
0.0
 10
249.9913734931588
 20
56.13184826802935
 30
0.0
 10
250.0140294600862
 20
56.11182866522112
 30
0.0
 10
250.0431516019669
 20
56.06886703785811
 30
0.0
 10
250.0500070001723
 20
56.04565916253784
 30
0.0
 10
250.046849005172
 20
55.97677229792813
 30
0.0
 10
250.0122168872836
 20
55.93140781400673
 30
0.0
 10
249.9559304380515
 20
55.89891433850821
 30
0.0
  0
ARC
  5
1F2
330
1F
100
AcDbEntity
  8
0
  6
Continuous
 62
     7
370
    15
100
AcDbCircle
 10
234.0776821592
 20
44.335052352
 30
0.0
 40
5.513126321255658
100
AcDbArc
 50
212.6148435193
 51
268.2609816983
  0
SPLINE
  5
1F3
330
1F
100
AcDbEntity
  8
0
  6
Continuous
 62
     7
370
    15
100
AcDbSpline
210
0.0
220
0.0
230
1.0
 70
     8
 71
     3
 72
    12
 73
     8
 74
     0
 42
0.000000001
 43
0.00000001
 40
0.0
 40
0.0
 40
0.0
 40
0.0
 40
0.2500000000000001
 40
0.2500000000000001
 40
0.5000000000000002
 40
0.5000000000000002
 40
1.0
 40
1.0
 40
1.0
 40
1.0
 10
228.5188011270209
 20
43.36017503246541
 30
0.0
 10
228.5470433270933
 20
43.34387115740138
 30
0.0
 10
228.5815894589987
 20
43.33091536399138
 30
0.0
 10
228.6563135186964
 20
43.31420362579885
 30
0.0
 10
228.6966039099981
 20
43.31031671701139
 30
0.0
 10
228.8177169274344
 20
43.31258011490069
 30
0.0
 10
228.8958344898523
 20
43.33290932632743
 30
0.0
 10
228.9524839625878
 20
43.36561237083378
 30
0.0
  0
LINE
  5
1F4
330
1F
100
AcDbEntity
  8
0
  6
Continuous
 62
     7
370
    15
100
AcDbLine
 10
248.7374297761
 20
56.8557345675
 30
0.0
 11
249.9632684915
 21
56.1480729401
 31
0.0
  0
ARC
  5
1F5
330
1F
100
AcDbEntity
  8
0
  6
Continuous
 62
     7
370
    15
100
AcDbCircle
 10
233.2757071852
 20
45.7646136375
 30
0.0
 40
6.359957076860591
100
AcDbArc
 50
194.5389270881
 51
238.1305356203
  0
LINE
  5
1F6
330
1F
100
AcDbEntity
  8
0
  6
Continuous
 62
     7
370
    15
100
AcDbLine
 10
227.1194130594
 20
44.1680245683
 30
0.0
 11
228.518801127
 21
43.3601750325
 31
0.0
  0
SPLINE
  5
1F7
330
1F
100
AcDbEntity
  8
0
  6
Continuous
 62
     7
370
    15
100
AcDbSpline
210
0.0
220
0.0
230
1.0
 70
     8
 71
     3
 72
     8
 73
     4
 74
     0
 42
0.000000001
 43
0.00000001
 40
0.0
 40
0.0
 40
0.0
 40
0.0
 40
1.0
 40
1.0
 40
1.0
 40
1.0
 10
227.5462042236962
 20
45.01933685552138
 30
0.0
 10
227.4030395270057
 20
44.73571480851437
 30
0.0
 10
227.2608508301531
 20
44.45193166253036
 30
0.0
 10
227.1194130593979
 20
44.16802456834328
 30
0.0
  0
LINE
  5
1F8
330
1F
100
AcDbEntity
  8
0
  6
Continuous
 62
     7
370
    15
100
AcDbLine
 10
227.7913728281
 20
45.1608696782
 30
0.0
 11
227.5462042237
 21
45.0193368555
 31
0.0
  0
SPLINE
  5
1F9
330
1F
100
AcDbEntity
  8
0
  6
Continuous
 62
     7
370
    15
100
AcDbSpline
210
0.0
220
0.0
230
1.0
 70
     8
 71
     3
 72
    10
 73
     6
 74
     0
 42
0.000000001
 43
0.00000001
 40
0.0
 40
0.0
 40
0.0
 40
0.0
 40
0.5
 40
0.5
 40
1.0
 40
1.0
 40
1.0
 40
1.0
 10
227.8998150160594
 20
45.2633432712859
 30
0.0
 10
227.8891621490894
 20
45.24406762407975
 30
0.0
 10
227.8743573859372
 20
45.22545624265468
 30
0.0
 10
227.8375716146063
 20
45.1908259684231
 30
0.0
 10
227.8160023940123
 20
45.17508802398798
 30
0.0
 10
227.7913728280624
 20
45.16086967821111
 30
0.0
  0
SPLINE
  5
1FA
330
1F
100
AcDbEntity
  8
0
  6
Continuous
 62
     7
370
    15
100
AcDbSpline
210
0.0
220
0.0
230
1.0
 70
     8
 71
     3
 72
    14
 73
    10
 74
     0
 42
0.000000001
 43
0.00000001
 40
0.0
 40
0.0
 40
0.0
 40
0.0
 40
0.5000000000000019
 40
0.5000000000000019
 40
0.7500000000000018
 40
0.7500000000000018
 40
0.875000000000001
 40
0.875000000000001
 40
1.0
 40
1.0
 40
1.0
 40
1.0
 10
211.9785057593805
 20
56.65840261842258
 30
0.0
 10
212.2936717032204
 20
56.43131462752672
 30
0.0
 10
212.6099473584864
 20
56.20146825247858
 30
0.0
 10
213.0887718470574
 20
55.84615965048946
 30
0.0
 10
213.2490918574815
 20
55.72602133629391
 30
0.0
 10
213.4921443934352
 20
55.5397525020501
 30
0.0
 10
213.5735878314518
 20
55.47665926082309
 30
0.0
 10
213.7382492804851
 20
55.34631401841095
 30
0.0
 10
213.8211552985514
 20
55.2797895764337
 30
0.0
 10
213.9071741266361
 20
55.20599610511015
 30
0.0
  0
SPLINE
  5
1FB
330
1F
100
AcDbEntity
  8
0
  6
Continuous
 62
     7
370
    15
100
AcDbSpline
210
0.0
220
0.0
230
1.0
 70
     8
 71
     3
 72
     8
 73
     4
 74
     0
 42
0.000000001
 43
0.00000001
 40
0.0
 40
0.0
 40
0.0
 40
0.0
 40
1.0
 40
1.0
 40
1.0
 40
1.0
 10
213.9071741266361
 20
55.20599610511015
 30
0.0
 10
214.2088265998736
 20
54.94721574702832
 30
0.0
 10
214.514106143397
 20
54.69964073162367
 30
0.0
 10
214.8187657165236
 20
54.45866787505715
 30
0.0
  0
SPLINE
  5
1FC
330
1F
100
AcDbEntity
  8
0
  6
Continuous
 62
     7
370
    15
100
AcDbSpline
210
0.0
220
0.0
230
1.0
 70
     8
 71
     3
 72
    14
 73
    10
 74
     0
 42
0.000000001
 43
0.00000001
 40
0.0
 40
0.0
 40
0.0
 40
0.0
 40
0.1250000000000027
 40
0.1250000000000027
 40
0.2500000000000053
 40
0.2500000000000053
 40
0.5000000000000048
 40
0.5000000000000048
 40
1.0
 40
1.0
 40
1.0
 40
1.0
 10
214.8187657165237
 20
54.45866787505709
 30
0.0
 10
214.8379610924492
 20
54.44348514332089
 30
0.0
 10
214.8555731658496
 20
54.43211732482411
 30
0.0
 10
214.8814180957689
 20
54.42084885561167
 30
0.0
 10
214.8895564600166
 20
54.42046538537461
 30
0.0
 10
214.9065065509846
 20
54.42624117806901
 30
0.0
 10
214.9086758234943
 20
54.43890660368703
 30
0.0
 10
214.9075002756798
 20
54.4833434307308
 30
0.0
 10
214.8954267550756
 20
54.52382670150424
 30
0.0
 10
214.8806485270355
 20
54.56783037138674
 30
0.0
  0
SPLINE
  5
1FD
330
1F
100
AcDbEntity
  8
0
  6
Continuous
 62
     7
370
    15
100
AcDbSpline
210
0.0
220
0.0
230
1.0
 70
     8
 71
     3
 72
    14
 73
    10
 74
     0
 42
0.000000001
 43
0.00000001
 40
0.0
 40
0.0
 40
0.0
 40
0.0
 40
0.25
 40
0.25
 40
0.5
 40
0.5
 40
0.75
 40
0.75
 40
1.0
 40
1.0
 40
1.0
 40
1.0
 10
214.8806485270349
 20
54.56783037138744
 30
0.0
 10
214.8625922800883
 20
54.62159467437422
 30
0.0
 10
214.8596694819871
 20
54.66614528347126
 30
0.0
 10
214.8542557534438
 20
54.75840663331598
 30
0.0
 10
214.8526884754027
 20
54.80570103623623
 30
0.0
 10
214.8425500755955
 20
54.91046209106401
 30
0.0
 10
214.8342350778513
 20
54.96772329809902
 30
0.0
 10
214.8054349031925
 20
55.09734465547344
 30
0.0
 10
214.7847815065219
 20
55.17013885508648
 30
0.0
 10
214.7560919893608
 20
55.24982555404625
 30
0.0
  0
ARC
  5
1FE
330
1F
100
AcDbEntity
  8
0
  6
Continuous
 62
     7
370
    15
100
AcDbCircle
 10
225.1110592667
 20
58.336387052
 30
0.0
 40
10.80519362138014
100
AcDbArc
 50
163.4019732888
 51
196.5980267112
  0
SPLINE
  5
1FF
330
1F
100
AcDbEntity
  8
0
  6
Continuous
 62
     7
370
    15
100
AcDbSpline
210
0.0
220
0.0
230
1.0
 70
     8
 71
     3
 72
    14
 73
    10
 74
     0
 42
0.000000001
 43
0.00000001
 40
0.0
 40
0.0
 40
0.0
 40
0.0
 40
0.25
 40
0.25
 40
0.5
 40
0.5
 40
0.75
 40
0.75
 40
1.0
 40
1.0
 40
1.0
 40
1.0
 10
214.8806485270349
 20
62.88415356631042
 30
0.0
 10
214.8625922800883
 20
62.76331148736588
 30
0.0
 10
214.8596694819871
 20
62.63821722079976
 30
0.0
 10
214.8542557534438
 20
62.3902659101484
 30
0.0
 10
214.8526884754027
 20
62.26635728583464
 30
0.0
 10
214.8425500755955
 20
62.02020154659444
 30
0.0
 10
214.8342350778513
 20
61.89791360473303
 30
0.0
 10
214.8054349031925
 20
61.65591642752425
 30
0.0
 10
214.7847815065219
 20
61.53575946034466
 30
0.0
 10
214.7560919893608
 20
61.42294854993938
 30
0.0
  0
SPLINE
  5
200
330
1F
100
AcDbEntity
  8
0
  6
Continuous
 62
     7
370
    15
100
AcDbSpline
210
0.0
220
0.0
230
1.0
 70
     8
 71
     3
 72
    14
 73
    10
 74
     0
 42
0.000000001
 43
0.00000001
 40
0.0
 40
0.0
 40
0.0
 40
0.0
 40
0.1249999999999979
 40
0.1249999999999979
 40
0.2499999999999958
 40
0.2499999999999958
 40
0.4999999999999948
 40
0.4999999999999948
 40
1.0
 40
1.0
 40
1.0
 40
1.0
 10
214.8187657165238
 20
63.42943913060445
 30
0.0
 10
214.8379610924493
 20
63.42715232263062
 30
0.0
 10
214.8555731658497
 20
63.41565408335779
 30
0.0
 10
214.8814180957689
 20
63.37896258083127
 30
0.0
 10
214.8895564600166
 20
63.35588116572921
 30
0.0
 10
214.9065065509846
 20
63.28454864665212
 30
0.0
 10
214.9086758234944
 20
63.23330454104403
 30
0.0
 10
214.9075002756798
 20
63.08326906128245
 30
0.0
 10
214.8954267550756
 20
62.98305738639938
 30
0.0
 10
214.8806485270355
 20
62.88415356631076
 30
0.0
  0
SPLINE
  5
201
330
1F
100
AcDbEntity
  8
0
  6
Continuous
 62
     7
370
    15
100
AcDbSpline
210
0.0
220
0.0
230
1.0
 70
     8
 71
     3
 72
     8
 73
     4
 74
     0
 42
0.000000001
 43
0.00000001
 40
0.0
 40
0.0
 40
0.0
 40
0.0
 40
1.0
 40
1.0
 40
1.0
 40
1.0
 10
213.9071741266361
 20
63.48165194174052
 30
0.0
 10
214.2088265998736
 20
63.48899818888362
 30
0.0
 10
214.5141061433971
 20
63.4657342229137
 30
0.0
 10
214.8187657165238
 20
63.42943913060445
 30
0.0
  0
SPLINE
  5
202
330
1F
100
AcDbEntity
  8
0
  6
Continuous
 62
     7
370
    15
100
AcDbSpline
210
0.0
220
0.0
230
1.0
 70
     8
 71
     3
 72
    14
 73
    10
 74
     0
 42
0.000000001
 43
0.00000001
 40
0.0
 40
0.0
 40
0.0
 40
0.0
 40
0.5000000000000019
 40
0.5000000000000019
 40
0.7500000000000018
 40
0.7500000000000018
 40
0.875000000000001
 40
0.875000000000001
 40
1.0
 40
1.0
 40
1.0
 40
1.0
 10
211.9785057593805
 20
64.11429128672552
 30
0.0
 10
212.2936717032204
 20
63.97690679299939
 30
0.0
 10
212.6099473584864
 20
63.84533328536825
 30
0.0
 10
213.0887718470574
 20
63.67043781884747
 30
0.0
 10
213.2490918574815
 20
63.61576666858296
 30
0.0
 10
213.4921443934352
 20
63.54673485286291
 30
0.0
 10
213.5735878314518
 20
63.52587256835411
 30
0.0
 10
213.7382492804851
 20
63.49306485492448
 30
0.0
 10
213.8211552985514
 20
63.47955709543182
 30
0.0
 10
213.9071741266361
 20
63.48165194174052
 30
0.0
  0
SPLINE
  5
203
330
1F
100
AcDbEntity
  8
0
  6
Continuous
 62
     7
370
    15
100
AcDbSpline
210
0.0
220
0.0
230
1.0
 70
     8
 71
     3
 72
     8
 73
     4
 74
     0
 42
0.000000001
 43
0.00000001
 40
0.0000005163856998
 40
0.0000005163856998
 40
0.0000005163856998
 40
0.0000005163856998
 40
0.000026289209185
 40
0.000026289209185
 40
0.000026289209185
 40
0.000026289209185
 10
211.9784841723613
 20
64.12717039791671
 30
0.0
 10
211.978481871202
 20
64.12287756289017
 30
0.0
 10
211.9784891175264
 20
64.11858449521465
 30
0.0
 10
211.9785057593805
 20
64.11429128672552
 30
0.0
  0
LINE
  5
204
330
1F
100
AcDbEntity
  8
0
  6
Continuous
 62
     7
370
    15
100
AcDbLine
 10
224.6560736675
 20
74.7091595669
 30
0.0
 11
224.8426595685
 21
74.6223869889
 31
0.0
  0
LINE
  5
205
330
1F
100
AcDbEntity
  8
0
  6
Continuous
 62
     7
370
    15
100
AcDbLine
 10
213.4609617554
 20
54.9065718505
 30
0.0
 11
213.4163688344
 21
54.9365534667
 31
0.0
  0
SPLINE
  5
206
330
1F
100
AcDbEntity
  8
0
  6
Continuous
 62
     7
370
    15
100
AcDbSpline
210
0.0
220
0.0
230
1.0
 70
     8
 71
     3
 72
     8
 73
     4
 74
     0
 42
0.000000001
 43
0.00000001
 40
0.0000005163857002
 40
0.0000005163857002
 40
0.0000005163857002
 40
0.0000005163857002
 40
0.0000262892091854
 40
0.0000262892091854
 40
0.0000262892091854
 40
0.0000262892091854
 10
211.9784841723613
 20
56.65369934605694
 30
0.0
 10
211.978481871202
 20
56.65527273175464
 30
0.0
 10
211.9784891175264
 20
56.65684046168681
 30
0.0
 10
211.9785057593805
 20
56.65840261842258
 30
0.0
  0
SPLINE
  5
207
330
1F
100
AcDbEntity
  8
0
  6
Continuous
 62
     7
370
    15
100
AcDbSpline
210
0.0
220
0.0
230
1.0
 70
     8
 71
     3
 72
    18
 73
    14
 74
     0
 42
0.000000001
 43
0.00000001
 40
0.0
 40
0.0
 40
0.0
 40
0.0
 40
0.1233798288410782
 40
0.2474334478769294
 40
0.3714644171819293
 40
0.4947896636346845
 40
0.6170628228128502
 40
0.6785674189156149
 40
0.7392763146246458
 40
0.7998981779096679
 40
0.8617924617525499
 40
0.984499366791779
 40
1.0
 40
1.0
 40
1.0
 40
1.0
 10
217.6673524708152
 20
54.78072823080068
 30
0.0
 10
217.5343056698138
 20
55.02566300116104
 30
0.0
 10
217.2674854852669
 20
55.51687015637014
 30
0.0
 10
217.1427908054977
 20
56.26889124507365
 30
0.0
 10
217.2786168018398
 20
56.89357840734804
 30
0.0
 10
217.6456922371465
 20
57.3104433506703
 30
0.0
 10
218.0883333808538
 20
57.40442696017542
 30
0.0
 10
218.4645558599141
 20
57.32248244692304
 30
0.0
 10
218.7467879748243
 20
57.18021037954674
 30
0.0
 10
219.0191334517523
 20
56.96350990097395
 30
0.0
 10
219.3455674805725
 20
56.58578059411896
 30
0.0
 10
219.6009741795874
 20
56.20200429650479
 30
0.0
 10
219.6929354544899
 20
55.90590952219661
 30
0.0
 10
219.7032493491565
 20
55.8727010840056
 30
0.0
  0
SPLINE
  5
208
330
1F
100
AcDbEntity
  8
0
  6
Continuous
 62
     7
370
    15
100
AcDbSpline
210
0.0
220
0.0
230
1.0
 70
     8
 71
     3
 72
    13
 73
     9
 74
     0
 42
0.000000001
 43
0.00000001
 40
0.0
 40
0.0
 40
0.0
 40
0.0
 40
0.0422744062032369
 40
0.2032231365396913
 40
0.361518867067933
 40
0.51993262845947
 40
0.6806331836061204
 40
1.0
 40
1.0
 40
1.0
 40
1.0
 10
219.309450958639
 20
53.45193525804586
 30
0.0
 10
219.291816102866
 20
53.44854670691506
 30
0.0
 10
219.2070411521451
 20
53.43225713478447
 30
0.0
 10
219.0062940343399
 20
53.51810016466122
 30
0.0
 10
218.7390714619145
 20
53.65430535322393
 30
0.0
 10
218.45600194656
 20
53.86546710662037
 30
0.0
 10
218.0763539655217
 20
54.21343110801981
 30
0.0
 10
217.830744914166
 20
54.55409809815642
 30
0.0
 10
217.6673524708152
 20
54.78072823080068
 30
0.0
  0
ARC
  5
209
330
1F
100
AcDbEntity
  8
0
  6
Continuous
 62
     7
370
    15
100
AcDbCircle
 10
232.4519339511
 20
47.8375066871
 30
0.0
 40
6.580031787583119
100
AcDbArc
 50
198.0472350988
 51
217.4217961249
  0
SPLINE
  5
20A
330
1F
100
AcDbEntity
  8
0
  6
Continuous
 62
     7
370
    15
100
AcDbSpline
210
0.0
220
0.0
230
1.0
 70
     8
 71
     3
 72
     8
 73
     4
 74
     0
 42
0.000000001
 43
0.00000001
 40
0.0
 40
0.0
 40
0.0
 40
0.0
 40
1.0
 40
1.0
 40
1.0
 40
1.0
 10
224.7209543529228
 20
45.552625307536
 30
0.0
 10
225.2127491516747
 20
45.63427559461775
 30
0.0
 10
225.7043292425774
 20
45.71635938210818
 30
0.0
 10
226.1956302716299
 20
45.79900660231207
 30
0.0
  0
LINE
  5
20B
330
1F
100
AcDbEntity
  8
0
  6
Continuous
 62
     7
370
    15
100
AcDbLine
 10
226.1956302716
 20
45.7990066023
 30
0.0
 11
226.440798876
 21
45.940539425
 31
0.0
  0
SPLINE
  5
20C
330
1F
100
AcDbEntity
  8
0
  6
Continuous
 62
     7
370
    15
100
AcDbSpline
210
0.0
220
0.0
230
1.0
 70
     8
 71
     3
 72
    10
 73
     6
 74
     0
 42
0.000000001
 43
0.00000001
 40
0.0
 40
0.0
 40
0.0
 40
0.0
 40
0.5
 40
0.5
 40
1.0
 40
1.0
 40
1.0
 40
1.0
 10
226.4407988759961
 20
45.94053942500184
 30
0.0
 10
226.4656311793481
 20
45.95487480858969
 30
0.0
 10
226.4933061768415
 20
45.96747024872578
 30
0.0
 10
226.553431186296
 20
45.98866814686605
 30
0.0
 10
226.5851255864907
 20
45.99703031253271
 30
0.0
 10
226.6183075790724
 20
46.00314176760395
 30
0.0
  0
SPLINE
  5
20D
330
1F
100
AcDbEntity
  8
0
  6
Continuous
 62
     7
370
    15
100
AcDbSpline
210
0.0
220
0.0
230
1.0
 70
     8
 71
     3
 72
    16
 73
    12
 74
     0
 42
0.000000001
 43
0.00000001
 40
0.0
 40
0.0
 40
0.0
 40
0.0
 40
0.0921843872491286
 40
0.2160560742404526
 40
0.3435480006346667
 40
0.4670585262274951
 40
0.5940584781701778
 40
0.7192613984158631
 40
0.8480206146413056
 40
0.9744370074976101
 40
1.0
 40
1.0
 40
1.0
 40
1.0
 10
218.6764968473724
 20
57.13276878525777
 30
0.0
 10
218.6662276966596
 20
57.07523382635511
 30
0.0
 10
218.6421594953621
 20
56.94038694259265
 30
0.0
 10
218.6553839066424
 20
56.70137797802849
 30
0.0
 10
218.7072004758779
 20
56.43185912047359
 30
0.0
 10
218.8020833405166
 20
56.15471997992551
 30
0.0
 10
218.9329755596519
 20
55.88199462339072
 30
0.0
 10
219.0979732986983
 20
55.61383682135525
 30
0.0
 10
219.2899664243545
 20
55.36393289935083
 30
0.0
 10
219.4437789252856
 20
55.18811482284062
 30
0.0
 10
219.5327088142013
 20
55.10792163647319
 30
0.0
 10
219.5476668565583
 20
55.09443311092733
 30
0.0
  0
LINE
  5
20E
330
1F
100
AcDbEntity
  8
0
  6
Continuous
 62
     7
370
    15
100
AcDbLine
 10
246.3445445067
 20
67.0788565392
 30
0.0
 11
246.4395528221
 21
67.0999050606
 31
0.0
  0
LINE
  5
20F
330
1F
100
AcDbEntity
  8
0
  6
Continuous
 62
     7
370
    15
100
AcDbLine
 10
246.4395528221
 20
67.0999050606
 30
0.0
 11
247.8389408897
 21
66.2920555247
 31
0.0
  0
SPLINE
  5
210
330
1F
100
AcDbEntity
  8
0
  6
Continuous
 62
     7
370
    15
100
AcDbSpline
210
0.0
220
0.0
230
1.0
 70
     8
 71
     3
 72
    12
 73
     8
 74
     0
 42
0.000000001
 43
0.00000001
 40
0.0
 40
0.0
 40
0.0
 40
0.0
 40
0.249999999999998
 40
0.249999999999998
 40
0.499999999999996
 40
0.499999999999996
 40
1.0
 40
1.0
 40
1.0
 40
1.0
 10
247.8389408896879
 20
66.29205552468026
 30
0.0
 10
247.8711848605605
 20
66.27344147650665
 30
0.0
 10
247.8932378630941
 20
66.24919115370923
 30
0.0
 10
247.9140868072591
 20
66.1986032958217
 30
0.0
 10
247.9137056380318
 20
66.17176472738763
 30
0.0
 10
247.8879527051345
 20
66.09453061111881
 30
0.0
 10
247.8400012780259
 20
66.047745240291
 30
0.0
 10
247.7761012288906
 20
66.01085652712352
 30
0.0
  0
SPLINE
  5
211
330
1F
100
AcDbEntity
  8
0
  6
Continuous
 62
     7
370
    15
100
AcDbSpline
210
0.0
220
0.0
230
1.0
 70
     8
 71
     3
 72
    12
 73
     8
 74
     0
 42
0.000000001
 43
0.00000001
 40
0.0
 40
0.0
 40
0.0
 40
0.0
 40
0.1937040132102127
 40
0.37237137800613
 40
0.6838098188736983
 40
0.9624655050745234
 40
1.0
 40
1.0
 40
1.0
 40
1.0
 10
217.9586218206643
 20
54.96365131598906
 30
0.0
 10
218.0381762879603
 20
54.8492495864692
 30
0.0
 10
218.1911096532664
 20
54.62932678279775
 30
0.0
 10
218.5159568949153
 20
54.27541343513691
 30
0.0
 10
218.9005440696085
 20
53.97173296749321
 30
0.0
 10
219.1944501016562
 20
53.80592512512306
 30
0.0
 10
219.3184919440123
 20
53.789368863296
 30
0.0
 10
219.3332167779267
 20
53.78740349257096
 30
0.0
  0
SPLINE
  5
212
330
1F
100
AcDbEntity
  8
0
  6
Continuous
 62
     7
370
    15
100
AcDbSpline
210
0.0
220
0.0
230
1.0
 70
     8
 71
     3
 72
    16
 73
    12
 74
     0
 42
0.000000001
 43
0.00000001
 40
0.0
 40
0.0
 40
0.0
 40
0.0
 40
0.1460145430680038
 40
0.2335492809465956
 40
0.3282846594090491
 40
0.4359414638218692
 40
0.5278790608120891
 40
0.6640995322706775
 40
0.8013223014627425
 40
0.8930413578038069
 40
1.0
 40
1.0
 40
1.0
 40
1.0
 10
218.8982292926109
 20
57.04562023344661
 30
0.0
 10
218.7513686866827
 20
57.11909113338409
 30
0.0
 10
218.5164661338736
 20
57.23660734437485
 30
0.0
 10
218.1996150442337
 20
57.22663741083349
 30
0.0
 10
217.9464858851507
 20
57.13890206855056
 30
0.0
 10
217.7377626096043
 20
56.95710985363959
 30
0.0
 10
217.5747316931915
 20
56.66524447900419
 30
0.0
 10
217.4977038867108
 20
56.25536110523073
 30
0.0
 10
217.5731032267442
 20
55.79079194303798
 30
0.0
 10
217.7318457638263
 20
55.34884727653589
 30
0.0
 10
217.8792606456686
 20
55.09845216074685
 30
0.0
 10
217.9586218206643
 20
54.96365131598906
 30
0.0
  0
SPLINE
  5
213
330
1F
100
AcDbEntity
  8
0
  6
Continuous
 62
     7
370
    15
100
AcDbSpline
210
0.0
220
0.0
230
1.0
 70
     8
 71
     3
 72
    13
 73
     9
 74
     0
 42
0.000000001
 43
0.00000001
 40
0.0
 40
0.0
 40
0.0
 40
0.0
 40
0.1648744773960969
 40
0.3336205742029937
 40
0.5158711360954663
 40
0.7036151032772874
 40
0.8821284203786084
 40
1.0
 40
1.0
 40
1.0
 40
1.0
 10
249.9559304380518
 20
62.43124083359433
 30
0.0
 10
249.9667979511674
 20
62.43808338215837
 30
0.0
 10
249.9887881707761
 20
62.45192915754459
 30
0.0
 10
250.0151802600718
 20
62.47678494289184
 30
0.0
 10
250.0357357546598
 20
62.50479072215307
 30
0.0
 10
250.0473763031623
 20
62.53498499464902
 30
0.0
 10
250.0508179049947
 20
62.56236038008452
 30
0.0
 10
250.0464029457423
 20
62.57885437076541
 30
0.0
 10
250.0446471267826
 20
62.58541399224854
 30
0.0
  0
LINE
  5
214
330
1F
100
AcDbEntity
  8
0
  6
Continuous
 62
     7
370
    15
100
AcDbLine
 10
244.0410941156
 20
68.4845057998
 30
0.0
 11
243.8993843957
 21
68.2713366803
 31
0.0
  0
LINE
  5
215
330
1F
100
AcDbEntity
  8
0
  6
Continuous
 62
     7
370
    15
100
AcDbLine
 10
213.8182616045
 20
58.8333838217
 30
0.0
 11
214.3186444399
 21
58.5445189595
 31
0.0
  0
SPLINE
  5
216
330
1F
100
AcDbEntity
  8
0
  6
Continuous
 62
     7
370
    15
100
AcDbSpline
210
0.0
220
0.0
230
1.0
 70
     8
 71
     3
 72
    10
 73
     6
 74
     0
 42
0.000000001
 43
0.00000001
 40
0.0
 40
0.0
 40
0.0
 40
0.0
 40
0.0840381716605753
 40
0.7011125076932783
 40
1.0
 40
1.0
 40
1.0
 40
1.0
 10
211.9801712858515
 20
64.58696276620823
 30
0.0
 10
211.9796299710382
 20
64.59340873967207
 30
0.0
 10
211.9751138972266
 20
64.64718611881365
 30
0.0
 10
211.9894526236853
 20
64.72998612105471
 30
0.0
 10
212.0100014269007
 20
64.81161470544319
 30
0.0
 10
212.016706706611
 20
64.83825092775463
 30
0.0
  0
SPLINE
  5
217
330
1F
100
AcDbEntity
  8
0
  6
Continuous
 62
     7
370
    15
100
AcDbSpline
210
0.0
220
0.0
230
1.0
 70
     8
 71
     3
 72
    10
 73
     6
 74
     0
 42
0.000000001
 43
0.00000001
 40
0.0
 40
0.0
 40
0.0
 40
0.0
 40
0.5
 40
0.5
 40
1.0
 40
1.0
 40
1.0
 40
1.0
 10
212.0329431095794
 20
64.64311257703837
 30
0.0
 10
212.0130170590827
 20
64.55915210302035
 30
0.0
 10
211.9997227949418
 20
64.47370624050659
 30
0.0
 10
211.9824542688011
 20
64.3012927695693
 30
0.0
 10
211.978530814179
 20
64.214181163303
 30
0.0
 10
211.9784841723613
 20
64.12717039791671
 30
0.0
  0
SPLINE
  5
218
330
1F
100
AcDbEntity
  8
0
  6
Continuous
 62
     7
370
    15
100
AcDbSpline
210
0.0
220
0.0
230
1.0
 70
     8
 71
     3
 72
    24
 73
    20
 74
     0
 42
0.000000001
 43
0.00000001
 40
0.0
 40
0.0
 40
0.0
 40
0.0
 40
0.2500000000000114
 40
0.2500000000000114
 40
0.3750000000000163
 40
0.3750000000000163
 40
0.4375000000000177
 40
0.4375000000000177
 40
0.4687500000000166
 40
0.4687500000000166
 40
0.5000000000000155
 40
0.5000000000000155
 40
0.5625000000000157
 40
0.5625000000000157
 40
0.6250000000000157
 40
0.6250000000000157
 40
0.7500000000000099
 40
0.7500000000000099
 40
1.0
 40
1.0
 40
1.0
 40
1.0
 10
212.016706706611
 20
64.83825092775461
 30
0.0
 10
212.0465477358962
 20
64.94552998431085
 30
0.0
 10
212.0763772759373
 20
65.05141455768154
 30
0.0
 10
212.1210484328085
 20
65.20136260093183
 30
0.0
 10
212.1360012249003
 20
65.25036286369476
 30
0.0
 10
212.1575843631897
 20
65.31351314559751
 30
0.0
 10
212.1647140747193
 20
65.33315332982602
 30
0.0
 10
212.1735657000208
 20
65.35086325931401
 30
0.0
 10
212.1762037972906
 20
65.35457962579969
 30
0.0
 10
212.1793563353356
 20
65.3524312774175
 30
0.0
 10
212.1797362964724
 20
65.3462688683509
 30
0.0
 10
212.1777263712116
 20
65.31762378499815
 30
0.0
 10
212.1731497296132
 20
65.28932278000997
 30
0.0
 10
212.1632183435068
 20
65.23294376986068
 30
0.0
 10
212.1575281577718
 20
65.20347402190464
 30
0.0
 10
212.1399465571532
 20
65.1156196013383
 30
0.0
 10
212.127265684225
 20
65.05639460828898
 30
0.0
 10
212.0880246206046
 20
64.8779013011592
 30
0.0
 10
212.0607211605681
 20
64.76015826698548
 30
0.0
 10
212.0329431095794
 20
64.64311257703838
 30
0.0
  0
ARC
  5
219
330
1F
100
AcDbEntity
  8
0
  6
Continuous
 62
     7
370
    15
100
AcDbCircle
 10
212.6956211466
 20
64.0485031432
 30
0.0
 40
0.7201267655271361
100
AcDbArc
 50
174.7583590299
 51
234.4349468916
  0
ARC
  5
21A
330
1F
100
AcDbEntity
  8
0
  6
Continuous
 62
     7
370
    15
100
AcDbCircle
 10
214.1909550917
 20
56.5486067658
 30
0.0
 40
2.215172042338677
100
AcDbArc
 50
122.6235698331
 51
177.1589486026
  0
LINE
  5
21B
330
1F
100
AcDbEntity
  8
0
  6
Continuous
 62
     7
370
    15
100
AcDbLine
 10
212.996717521
 20
58.4142926456
 30
0.0
 11
213.7408041526
 21
58.8438447148
 31
0.0
  0
SPLINE
  5
21C
330
1F
100
AcDbEntity
  8
0
  6
Continuous
 62
     7
370
    15
100
AcDbSpline
210
0.0
220
0.0
230
1.0
 70
     8
 71
     3
 72
     8
 73
     4
 74
     0
 42
0.000000001
 43
0.00000001
 40
0.0
 40
0.0
 40
0.0
 40
0.0
 40
0.0001590976915385
 40
0.0001590976915385
 40
0.0001590976915385
 40
0.0001590976915385
 10
213.8182616045389
 20
58.83338382168396
 30
0.0
 10
213.7924414755912
 20
58.83686837106386
 30
0.0
 10
213.7666223316567
 20
58.8403553537193
 30
0.0
 10
213.7408041526183
 20
58.84384471475649
 30
0.0
  0
SPLINE
  5
21D
330
1F
100
AcDbEntity
  8
0
  6
Continuous
 62
     7
370
    15
100
AcDbSpline
210
0.0
220
0.0
230
1.0
 70
     8
 71
     3
 72
    10
 73
     6
 74
     0
 42
0.000000001
 43
0.00000001
 40
0.0
 40
0.0
 40
0.0
 40
0.0
 40
0.5
 40
0.5
 40
1.0
 40
1.0
 40
1.0
 40
1.0
 10
212.0329431095794
 20
56.45845696133439
 30
0.0
 10
212.0130170590827
 20
56.49697852285107
 30
0.0
 10
211.9997227949418
 20
56.52894185004488
 30
0.0
 10
211.9824542688011
 20
56.59138527354332
 30
0.0
 10
211.978530814179
 20
56.62180865075637
 30
0.0
 10
211.9784841723613
 20
56.65369934605693
 30
0.0
  0
SPLINE
  5
21E
330
1F
100
AcDbEntity
  8
0
  6
Continuous
 62
     7
370
    15
100
AcDbSpline
210
0.0
220
0.0
230
1.0
 70
     8
 71
     3
 72
     9
 73
     5
 74
     0
 42
0.000000001
 43
0.00000001
 40
0.0
 40
0.0
 40
0.0
 40
0.0
 40
0.5797035953942314
 40
1.0
 40
1.0
 40
1.0
 40
1.0
 10
211.9888507382774
 20
57.25556952252644
 30
0.0
 10
211.9853285580617
 20
57.22832379051283
 30
0.0
 10
211.9792527285451
 20
57.18132437179249
 30
0.0
 10
211.9792092872463
 20
57.13488572746351
 30
0.0
 10
211.9791910290246
 20
57.11536773221727
 30
0.0
  0
ARC
  5
21F
330
1F
100
AcDbEntity
  8
0
  6
Continuous
 62
     7
370
    15
100
AcDbCircle
 10
213.325576337
 20
57.0432643807
 30
0.0
 40
1.353480254557552
100
AcDbArc
 50
122.9135798094
 51
170.9753897871
  0
LINE
  5
220
330
1F
100
AcDbEntity
  8
0
  6
Continuous
 62
     7
370
    15
100
AcDbLine
 10
212.996717521
 20
58.4142926456
 30
0.0
 11
212.5901311219
 21
58.1794990109
 31
0.0
  0
LINE
  5
221
330
1F
100
AcDbEntity
  8
0
  6
Continuous
 62
     7
370
    15
100
AcDbLine
 10
212.0881659046
 20
56.3626231431
 30
0.0
 11
212.0329431096
 21
56.4584569613
 31
0.0
  0
ARC
  5
222
330
1F
100
AcDbEntity
  8
0
  6
Continuous
 62
     7
370
    15
100
AcDbCircle
 10
258.4518198685
 20
46.6340582064
 30
0.0
 40
1.480701525841265
100
AcDbArc
 50
217.4992321048
 51
283.2366623154
  0
LWPOLYLINE
  5
223
330
1F
100
AcDbEntity
  8
0
  6
Continuous
 62
     7
370
    15
100
AcDbPolyline
 90
        8
 70
   128
 43
0.0
 10
258.831165259
 20
45.1987652197
 10
259.1375698669
 20
45.2747316381
 10
259.4375648071
 20
45.4195738296
 10
259.6453442087
 20
45.6108435512
 10
259.7405691764
 20
45.8298179898
 10
259.7139184266
 20
46.0550624017
 10
259.5680007207
 20
46.2645282945
 10
259.3795304539
 20
46.4040433335
  0
ARC
  5
224
330
1F
100
AcDbEntity
  8
0
  6
Continuous
 62
     7
370
    15
100
AcDbCircle
 10
257.8445495042
 20
45.8689993468
 30
0.0
 40
0.5836053506180192
100
AcDbArc
 50
113.5386689934
 51
193.50801776
  0
LWPOLYLINE
  5
225
330
1F
100
AcDbEntity
  8
0
  6
Continuous
 62
     7
370
    15
100
AcDbPolyline
 90
       20
 70
   128
 43
0.0
 10
257.4232980947
 20
45.8745040411
 10
257.5611766736
 20
45.6812102415
 10
257.8003040461
 20
45.5242342853
 10
258.114767051
 20
45.420586953
 10
258.4704887424
 20
45.3815000413
 10
258.8289211553
 20
45.4112092237
 10
259.1512225762
 20
45.5064950491
 10
259.4024666451
 20
45.6570318199
 10
259.5554271688
 20
45.8465065412
 10
259.5935285009
 20
46.0543866869
 10
259.512641771
 20
46.2581452177
 10
259.3215323114
 20
46.435701735
 10
259.0409097974
 20
46.5678152352
 10
258.7011840326
 20
46.6401691706
 10
258.3391695751
 20
46.6449228695
 10
257.9940963086
 20
46.581561195
 10
257.7033582759
 20
46.4569503676
 10
257.498461454
 20
46.284593904
 10
257.401609593
 20
46.0831693015
 10
257.4232980947
 20
45.8745040411
  0
LWPOLYLINE
  5
226
330
1F
100
AcDbEntity
  8
0
  6
Continuous
 62
     7
370
    15
100
AcDbPolyline
 90
       17
 70
   128
 43
0.0
 10
257.740086013
 20
45.9164137567
 10
257.8638378984
 20
45.7571355026
 10
258.0837551238
 20
45.6373206576
 10
258.3663572851
 20
45.5752099456
 10
258.668620765
 20
45.5802591595
 10
258.9445286888
 20
45.6516996023
 10
259.1520765762
 20
45.7786551142
 10
259.2596671428
 20
45.9417978693
 10
259.2509207
 20
46.1162908621
 10
259.1271688145
 20
46.2755691162
 10
258.9072515892
 20
46.3953839613
 10
258.6246494279
 20
46.4574946733
 10
258.3223859479
 20
46.4524454593
 10
258.0464780241
 20
46.3810050165
 10
257.8389301367
 20
46.2540495046
 10
257.7313395702
 20
46.0909067495
 10
257.740086013
 20
45.9164137567
  0
SPLINE
  5
227
330
1F
100
AcDbEntity
  8
0
  6
Continuous
 62
     7
370
    15
100
AcDbSpline
210
0.0
220
0.0
230
1.0
 70
     8
 71
     3
 72
     9
 73
     5
 74
     0
 42
0.000000001
 43
0.00000001
 40
0.0
 40
0.0
 40
0.0
 40
0.0
 40
0.470750399353619
 40
1.0
 40
1.0
 40
1.0
 40
1.0
 10
258.9375744030311
 20
45.64599320886469
 30
0.0
 10
258.9784659599687
 20
45.670160714617
 30
0.0
 10
259.0653305850305
 20
45.72149897324727
 30
0.0
 10
259.1437904042451
 20
45.80576919994584
 30
0.0
 10
259.1853152322312
 20
45.85036918377241
 30
0.0
  0
SPLINE
  5
228
330
1F
100
AcDbEntity
  8
0
  6
Continuous
 62
     7
370
    15
100
AcDbSpline
210
0.0
220
0.0
230
1.0
 70
     8
 71
     3
 72
    11
 73
     7
 74
     0
 42
0.000000001
 43
0.00000001
 40
0.0
 40
0.0
 40
0.0
 40
0.0
 40
0.1855070912791229
 40
0.5226425778602876
 40
0.8775754485095701
 40
0.9999999999999999
 40
0.9999999999999999
 40
0.9999999999999999
 40
0.9999999999999999
 10
259.1853152322312
 20
45.85036918377241
 30
0.0
 10
259.1759033622814
 20
45.85810797581515
 30
0.0
 10
259.1493866186943
 20
45.87991103571359
 30
0.0
 10
259.0997673318621
 20
45.97192656219465
 30
0.0
 10
259.0543797674955
 20
46.12763250842339
 30
0.0
 10
259.0302857712171
 20
46.23016717806816
 30
0.0
 10
259.0241065508862
 20
46.25646353455345
 30
0.0
  0
SPLINE
  5
229
330
1F
100
AcDbEntity
  8
0
  6
Continuous
 62
     7
370
    15
100
AcDbSpline
210
0.0
220
0.0
230
1.0
 70
     8
 71
     3
 72
    10
 73
     6
 74
     0
 42
0.000000001
 43
0.00000001
 40
0.0
 40
0.0
 40
0.0
 40
0.0
 40
0.4391119879276751
 40
0.7513633230734552
 40
1.0
 40
1.0
 40
1.0
 40
1.0
 10
259.0241065508862
 20
46.25646353455345
 30
0.0
 10
258.9253557747987
 20
46.23904062302255
 30
0.0
 10
258.756383591581
 20
46.2092283266941
 30
0.0
 10
258.5107510612938
 20
46.27941454137084
 30
0.0
 10
258.3884913291399
 20
46.34835459091551
 30
0.0
 10
258.334294675137
 20
46.37891510291968
 30
0.0
  0
SPLINE
  5
22A
330
1F
100
AcDbEntity
  8
0
  6
Continuous
 62
     7
370
    15
100
AcDbSpline
210
0.0
220
0.0
230
1.0
 70
     8
 71
     3
 72
    10
 73
     6
 74
     0
 42
0.000000001
 43
0.00000001
 40
0.0
 40
0.0
 40
0.0
 40
0.0
 40
0.4391119879276898
 40
0.7513633230734835
 40
1.0
 40
1.0
 40
1.0
 40
1.0
 10
258.334294675137
 20
46.37891510291968
 30
0.0
 10
258.2586219047413
 20
46.30335730894591
 30
0.0
 10
258.1291384340236
 20
46.17407057406956
 30
0.0
 10
257.9409101000037
 20
46.09965217055333
 30
0.0
 10
257.8472224045094
 20
46.09661754366641
 30
0.0
 10
257.8056914807327
 20
46.09527232050487
 30
0.0
  0
SPLINE
  5
22B
330
1F
100
AcDbEntity
  8
0
  6
Continuous
 62
     7
370
    15
100
AcDbSpline
210
0.0
220
0.0
230
1.0
 70
     8
 71
     3
 72
    11
 73
     7
 74
     0
 42
0.000000001
 43
0.00000001
 40
0.0
 40
0.0
 40
0.0
 40
0.0
 40
0.1224245514903822
 40
0.4773574221397126
 40
0.8144929087208529
 40
1.0
 40
1.0
 40
1.0
 40
1.0
 10
257.8056914807327
 20
46.09527232050487
 30
0.0
 10
257.8118707010636
 20
46.0689759640196
 30
0.0
 10
257.835964697342
 20
45.9664412943748
 30
0.0
 10
257.8813522617086
 20
45.81073534814609
 30
0.0
 10
257.9309715485409
 20
45.71871982166503
 30
0.0
 10
257.9574882921279
 20
45.69691676176659
 30
0.0
 10
257.9669001620777
 20
45.68917796972384
 30
0.0
  0
LINE
  5
22C
330
1F
100
AcDbEntity
  8
0
  6
Continuous
 62
     7
370
    15
100
AcDbLine
 10
259.0241065509
 20
45.7031505822
 30
0.0
 11
259.0241065509
 21
46.2564635346
 31
0.0
  0
LINE
  5
22D
330
1F
100
AcDbEntity
  8
0
  6
Continuous
 62
     7
370
    15
100
AcDbLine
 10
258.3342946751
 20
45.5787405174
 30
0.0
 11
258.3342946751
 21
46.3789151029
 31
0.0
  0
ARC
  5
22E
330
1F
100
AcDbEntity
  8
0
  6
Continuous
 62
     7
370
     0
100
AcDbCircle
 10
239.3776374371
 20
50.1490924366
 30
0.0
 40
2.463833403968184
100
AcDbArc
 50
173.6866002849
 51
235.0012193218
  0
LWPOLYLINE
  5
22F
330
1F
100
AcDbEntity
  8
0
  6
Continuous
 62
     7
370
     0
100
AcDbPolyline
 90
       17
 70
   128
 43
0.0
 10
242.9640772678
 20
56.7912968167
 10
242.8165620076
 20
56.8669516198
 10
242.3860819394
 20
56.9973655303
 10
241.9105564728
 20
57.0214521083
 10
241.4011315217
 20
56.9386467847
 10
240.8697475752
 20
56.7508904463
 10
240.3288598226
 20
56.4625839424
 10
239.7911462144
 20
56.0804849332
 10
239.2692103018
 20
55.6135494956
 10
238.7752858203
 20
55.0727222004
 10
238.3209499411
 20
54.4706795811
 10
237.9168519121
 20
53.8215330064
 10
237.5724634486
 20
53.1404979218
 10
237.2958567243
 20
52.4435372126
 10
237.0935151663
 20
51.7469870469
 10
236.9701814894
 20
51.0671739704
 10
236.9287465303
 20
50.4200322253
  0
LWPOLYLINE
  5
230
330
1F
100
AcDbEntity
  8
0
  6
Continuous
 62
     7
370
     0
100
AcDbPolyline
 90
       34
 70
   128
 43
0.0
 10
258.3364043307
 20
39.4903686283
 10
258.377933938
 20
40.0165700956
 10
258.5010217717
 20
40.5717023349
 10
258.7012191168
 20
41.1357014206
 10
258.9712903197
 20
41.6881829562
 10
259.3014743033
 20
42.2091788197
 10
259.6798373583
 20
42.6798588631
 10
260.092704458
 20
43.0832114832
 10
260.5251535097
 20
43.4046584655
 10
260.961554678
 20
43.6325818784
 10
261.3861352876
 20
43.758743976
 10
261.783549889
 20
43.7785849314
 10
262.1394348831
 20
43.6913876407
 10
262.440927659
 20
43.5003036412
 10
262.6771314822
 20
43.2122392066
 10
262.839509331
 20
42.8376057359
 10
262.9221924471
 20
42.3899434591
 10
262.9221924471
 20
41.8854320571
 10
262.839509331
 20
41.3423058864
 10
262.6771314822
 20
40.780194942
 10
262.440927659
 20
40.2194153781
 10
262.1394348831
 20
39.680235229
 10
261.783549889
 20
39.1821418703
 10
261.3861352876
 20
38.7431376937
 10
260.961554678
 20
38.3790894539
 10
260.5251535097
 20
38.1031548028
 10
260.092704458
 20
37.9253067377
 10
259.6798373583
 20
37.8519731511
 10
259.3014743033
 20
37.8858045098
 10
258.9712903197
 20
38.0255780603
 10
258.7012191168
 20
38.2662420224
 10
258.5010217717
 20
38.5990981735
 10
258.377933938
 20
39.0121162249
 10
258.3364043307
 20
39.4903686283
  0
LWPOLYLINE
  5
231
330
1F
100
AcDbEntity
  8
0
  6
Continuous
 62
     7
370
     0
100
AcDbPolyline
 90
       17
 70
   128
 43
0.0
 10
261.6678925186
 20
43.3956851393
 10
261.8541168367
 20
43.2491691681
 10
262.057376996
 20
42.95996642
 10
262.182998683
 20
42.5860273844
 10
262.2254916272
 20
42.1436949917
 10
262.182998683
 20
41.6523012899
 10
262.057376996
 20
41.1333225418
 10
261.8541168367
 20
40.609440609
 10
261.5821016494
 20
40.1035516458
 10
261.2532198031
 20
39.6377654274
 10
260.8818450126
 20
39.2324390468
 10
260.4842081383
 20
38.9052872116
 10
260.0776878197
 20
38.6706080269
 10
259.6800509454
 20
38.5386580993
 10
259.3086761548
 20
38.5152042737
 10
258.9797943085
 20
38.6012715948
 10
258.8881926898
 20
38.6500854692
  0
LWPOLYLINE
  5
232
330
1F
100
AcDbEntity
  8
0
  6
Continuous
 62
     7
370
     0
100
AcDbPolyline
 90
       23
 70
   128
 43
0.0
 10
228.9524839626
 20
50.7144796778
 10
229.2794432217
 20
51.9692758845
 10
229.6877641813
 20
53.2329449157
 10
230.1741654203
 20
54.4953314511
 10
230.7347380353
 20
55.746290477
 10
231.3649770533
 20
56.9757688152
 10
232.0598176364
 20
58.1738859149
 10
232.8136757838
 20
59.3310132555
 10
233.6204932075
 20
60.4378517261
 10
234.4737860188
 20
61.4855063555
 10
235.3666968351
 20
62.4655577967
 10
236.2920498887
 20
63.3701299869
 10
237.2424086941
 20
64.1919534434
 10
238.2101358098
 20
64.9244236833
 10
239.1874542161
 20
65.5616542998
 10
240.1665098142
 20
66.0985242676
 10
241.1394345445
 20
66.5307190974
 10
242.0984096174
 20
66.8547655088
 10
243.0357283479
 20
67.0680593428
 10
243.9438580897
 20
67.1688864896
 10
244.8155007699
 20
67.1564366645
 10
245.6436515398
 20
67.0308099188
 10
246.4216550677
 20
66.7930158365
  0
LWPOLYLINE
  5
233
330
1F
100
AcDbEntity
  8
0
  6
Continuous
 62
     7
370
     0
100
AcDbPolyline
 90
       24
 70
   128
 43
0.0
 10
228.518801127
 20
50.7090423394
 10
228.8288592603
 20
51.9251439286
 10
229.2143403897
 20
53.1504939606
 10
229.6724388429
 20
54.3761738906
 10
230.1998204121
 20
55.5932627728
 10
230.7926466218
 20
56.7929021899
 10
231.4466026664
 20
57.9663607285
 10
232.1569288151
 20
59.1050975289
 10
232.918455055
 20
60.2008244491
 10
233.72563872
 20
61.2455663885
 10
234.5726048329
 20
62.2317193341
 10
235.4531888651
 20
63.1521057046
 10
236.3609816047
 20
64.0000265922
 10
237.2893758046
 20
64.7693105192
 10
238.231614273
 20
65.4543583562
 10
239.1808390545
 20
66.0501840751
 10
240.1301413445
 20
66.5524510389
 10
241.0726117746
 20
66.9575035651
 10
242.0013907009
 20
67.2623935338
 10
242.9097181313
 20
67.4649018444
 10
243.7909829273
 20
67.5635545675
 10
244.6387709221
 20
67.5576336726
 10
245.446911605
 20
67.447182254
 10
246.2095230334
 20
67.2330042177
  0
ARC
  5
234
330
1F
100
AcDbEntity
  8
0
  6
Continuous
 62
     7
370
     0
100
AcDbCircle
 10
227.9493889265
 20
60.4587395606
 30
0.0
 40
22.47398218736411
100
AcDbArc
 50
341.1125978537
 51
348.2937849131
  0
LWPOLYLINE
  5
235
330
1F
100
AcDbEntity
  8
0
  6
Continuous
 62
     7
370
     0
100
AcDbPolyline
 90
       22
 70
   128
 43
0.0
 10
244.2137008714
 20
44.5232118547
 10
244.1311749765
 20
44.429333805
 10
243.2663203896
 20
43.5025636085
 10
242.3728227017
 20
42.6467637797
 10
241.4573074708
 20
41.8682803357
 10
240.5265635221
 20
41.1728859689
 10
239.5874926063
 20
40.565737241
 10
238.6470582208
 20
40.0513363452
 10
237.712233974
 20
39.6334977212
 10
236.789951873
 20
39.3153197701
 10
235.8870509214
 20
39.0991618785
 10
235.0102264054
 20
38.9866269233
 10
234.1659802466
 20
38.9785493853
 10
233.3605727882
 20
39.0749891622
 10
232.5999763723
 20
39.2752311235
 10
231.8898310536
 20
39.5777904138
 10
231.2354027767
 20
39.9804234637
 10
230.641544327
 20
40.4801446261
 10
230.1126593464
 20
41.073248316
 10
229.6526696783
 20
41.7553364883
 10
229.2649862868
 20
42.5213512511
 10
228.9524839626
 20
43.3656123708
  0
ARC
  5
236
330
1F
100
AcDbEntity
  8
0
  6
Continuous
 62
     7
370
     0
100
AcDbCircle
 10
243.4294785799
 20
60.9104355541
 30
0.0
 40
6.701300064527743
100
AcDbArc
 50
13.1170908933
 51
49.5620782406
  0
LWPOLYLINE
  5
237
330
1F
100
AcDbEntity
  8
0
  6
Continuous
 62
     7
370
     0
100
AcDbPolyline
 90
       24
 70
   128
 43
0.0
 10
234.8074261867
 20
50.4200322253
 10
234.8484357828
 20
51.1511291131
 10
234.9707327539
 20
51.9165282314
 10
235.1721347077
 20
52.7025710149
 10
235.4490476214
 20
53.4952305114
 10
235.7965299776
 20
54.2803616935
 10
236.2083809455
 20
55.0439538765
 10
236.6772510347
 20
55.77238074
 10
237.1947732474
 20
56.4526434892
 10
237.7517123874
 20
57.0726028194
 10
238.3381298627
 20
57.6211955415
 10
238.9435610394
 20
58.0886320054
 10
239.5572019839
 20
58.4665707964
 10
240.1681022589
 20
58.7482675877
 10
240.7653603347
 20
58.9286954936
 10
241.3383181266
 20
59.0046347737
 10
241.8767511894
 20
58.9747302897
 10
242.3710511722
 20
58.8395156879
 10
242.8123972801
 20
58.6014038761
 10
243.1929136815
 20
58.2646439651
 10
243.5058100521
 20
57.8352454437
 10
243.7455027487
 20
57.3208709385
 10
243.9077144495
 20
56.7306994748
 10
243.9802418124
 20
56.2046775117
  0
LWPOLYLINE
  5
238
330
1F
100
AcDbEntity
  8
0
  6
Continuous
 62
     7
370
     0
100
AcDbPolyline
 90
       13
 70
   128
 43
0.0
 10
238.9806481492
 20
47.5441888879
 10
238.9435610394
 20
47.5269120971
 10
238.3381298627
 20
47.2953326034
 10
237.7517123874
 20
47.1668621203
 10
237.1947732474
 20
47.1437932065
 10
236.6772510347
 20
47.2265375275
 10
236.2083809455
 20
47.4136185089
 10
235.7965299776
 20
47.701697686
 10
235.4490476214
 20
48.0856342792
 10
235.1721347077
 20
48.5585769309
 10
234.9707327539
 20
49.1120859682
 10
234.8484357828
 20
49.7362840093
 10
234.8074261867
 20
50.4200322253
  0
LWPOLYLINE
  5
239
330
1F
100
AcDbEntity
  8
0
  6
Continuous
 62
     7
370
     0
100
AcDbPolyline
 90
       18
 70
   128
 43
0.0
 10
226.866617034
 20
52.6412617685
 10
227.1538185716
 20
53.7857249334
 10
227.5177907588
 20
54.9398351089
 10
227.9554448819
 20
56.0937983713
 10
228.4630669533
 20
57.2378220438
 10
229.0363492283
 20
58.362197798
 10
229.6704267618
 20
59.4573840402
 10
230.3599186921
 20
60.5140868827
 10
231.0989739044
 20
61.5233390127
 10
231.8813206835
 20
62.47657579
 10
232.7003199365
 20
63.3657079278
 10
233.5490215331
 20
64.1831901393
 10
234.420223285
 20
64.9220851681
 10
235.306532065
 20
65.5761226581
 10
236.2004265457
 20
66.1397523653
 10
237.0943210263
 20
66.6081912573
 10
237.9806298063
 20
66.9774641029
 10
238.012680188
 20
66.9890025279
  0
LWPOLYLINE
  5
23A
330
1F
100
AcDbEntity
  8
0
  6
Continuous
 62
     7
370
     0
100
AcDbPolyline
 90
       20
 70
   128
 43
0.0
 10
226.440798876
 20
53.289406732
 10
226.7734090662
 20
54.4717876733
 10
227.1834455594
 20
55.6593676687
 10
227.667436461
 20
56.842091144
 10
228.2212836839
 20
58.0099436463
 10
228.8402976476
 20
59.1530366397
 10
229.5192369866
 20
60.2616912339
 10
230.2523529302
 20
61.3265201382
 10
231.0334379793
 20
62.3385071463
 10
231.8558784669
 20
63.2890834794
 10
232.7127105577
 20
64.1702003398
 10
233.596679213
 20
64.9743970629
 10
234.5002996214
 20
65.6948642888
 10
235.4159205744
 20
66.3255016183
 10
236.3357892514
 20
66.8609692677
 10
237.2521168654
 20
67.2967332816
 10
238.1571446124
 20
67.6291039233
 10
239.0432093675
 20
67.8552669171
 10
239.9028085711
 20
67.9733072771
 10
240.3320763438
 20
67.9915482991
  0
LINE
  5
23B
330
1F
100
AcDbEntity
  8
0
  6
Continuous
 62
     7
370
     0
100
AcDbLine
 10
220.8476806315
 20
51.3417982325
 30
0.0
 11
222.6451895503
 21
52.3794780437
 31
0.0
  0
ARC
  5
23C
330
1F
100
AcDbEntity
  8
0
  6
Continuous
 62
     7
370
     0
100
AcDbCircle
 10
235.8070279842
 20
45.4925098825
 30
0.0
 40
7.593754185799554
100
AcDbArc
 50
196.3080251958
 51
212.9380997996
  0
LWPOLYLINE
  5
23D
330
1F
100
AcDbEntity
  8
0
  6
Continuous
 62
     7
370
     0
100
AcDbPolyline
 90
       20
 70
   128
 43
0.0
 10
211.9784841724
 20
64.1271703979
 10
212.3409045673
 20
65.1731138363
 10
212.7742881524
 20
66.2137434491
 10
213.2742494071
 20
67.2385288367
 10
213.8357290947
 20
68.2370999313
 10
214.4530454571
 20
69.1993519342
 10
215.1199517108
 20
70.115547569
 10
215.8296992592
 20
70.9764156157
 10
216.5751059837
 20
71.7732447283
 10
217.3486289214
 20
72.4979715873
 10
218.1424405938
 20
73.1432624946
 10
218.9485082159
 20
73.7025875849
 10
219.7586749813
 20
74.1702869033
 10
220.5647426034
 20
74.5416276797
 10
221.3585542758
 20
74.8128522208
 10
222.1320772135
 20
74.9812159356
 10
222.877483938
 20
75.0450151083
 10
223.5872314864
 20
75.0036041383
 10
224.2541377401
 20
74.8574020742
 10
224.6560736675
 20
74.7091595669
  0
ARC
  5
23E
330
1F
100
AcDbEntity
  8
0
  6
Continuous
 62
     7
370
     0
100
AcDbCircle
 10
215.8725096917
 20
58.453842519
 30
0.0
 40
4.289982539387343
100
AcDbArc
 50
204.81031485
 51
235.0732069068
  0
LINE
  5
23F
330
1F
100
AcDbEntity
  8
0
  6
Continuous
 62
     7
370
     0
100
AcDbLine
 10
220.8476806315
 20
50.5252574206
 30
0.0
 11
222.6451895503
 21
51.5629372318
 31
0.0
  0
LINE
  5
240
330
1F
100
AcDbEntity
  8
0
  6
Continuous
 62
     7
370
     0
100
AcDbLine
 10
224.1347390837
 20
45.8910401791
 30
0.0
 11
225.4736166751
 21
46.6639577606
 31
0.0
  0
LINE
  5
241
330
1F
100
AcDbEntity
  8
0
  6
Continuous
 62
     7
370
     0
100
AcDbLine
 10
227.8524061292
 20
45.3759986459
 30
0.0
 11
227.6515055611
 21
45.9740905774
 31
0.0
  0
LWPOLYLINE
  5
242
330
1F
100
AcDbEntity
  8
0
  6
Continuous
 62
     7
370
     0
100
AcDbPolyline
 90
        3
 70
   128
 43
0.0
 10
227.4904931145
 20
44.9280297094
 10
227.1538185716
 20
45.6143297516
 10
226.866617034
 20
46.4271970795
  0
ARC
  5
243
330
1F
100
AcDbEntity
  8
0
  6
Continuous
 62
     7
370
     0
100
AcDbCircle
 10
232.6058803159
 20
48.029965248
 30
0.0
 40
6.509526052643035
100
AcDbArc
 50
198.7221842928
 51
214.1813238848
  0
LINE
  5
244
330
1F
100
AcDbEntity
  8
0
  6
Continuous
 62
     7
370
     0
100
AcDbLine
 10
243.1881653618
 20
68.9768910886
 30
0.0
 11
242.6471763839
 21
68.6645847993
 31
0.0
  0
ARC
  5
245
330
1F
100
AcDbEntity
  8
0
  6
Continuous
 62
     7
370
     0
100
AcDbCircle
 10
215.7409219014
 20
62.6310797865
 30
0.0
 40
1.102095792745949
100
AcDbArc
 50
159.4111972489
 51
213.1915491986
  0
ARC
  5
246
330
1F
100
AcDbEntity
  8
0
  6
Continuous
 62
     7
370
     0
100
AcDbCircle
 10
214.4091110925
 20
62.4595949638
 30
0.0
 40
0.6345057597337318
100
AcDbArc
 50
41.9989524423
 51
61.7721687695
  0
LINE
  5
247
330
1F
100
AcDbEntity
  8
0
  6
Continuous
 62
     7
370
     0
100
AcDbLine
 10
214.7092188649
 20
63.0186413698
 30
0.0
 11
214.8187657165
 21
63.4294391306
 31
0.0
  0
LINE
  5
248
330
1F
100
AcDbEntity
  8
0
  6
Continuous
 62
     7
370
     0
100
AcDbLine
 10
214.7092188649
 20
63.0186413698
 30
0.0
 11
213.9071741266
 21
63.4816519417
 31
0.0
  0
LINE
  5
249
330
1F
100
AcDbEntity
  8
0
  6
Continuous
 62
     7
370
     0
100
AcDbLine
 10
212.0329431096
 20
64.643112577
 30
0.0
 11
212.0167067066
 21
64.8382509278
 31
0.0
  0
ARC
  5
24A
330
1F
100
AcDbEntity
  8
0
  6
Continuous
 62
     7
370
     0
100
AcDbCircle
 10
214.4992588834
 20
54.3660220575
 30
0.0
 40
0.4314912001447413
100
AcDbArc
 50
27.8850837496
 51
60.8831993912
  0
ARC
  5
24B
330
1F
100
AcDbEntity
  8
0
  6
Continuous
 62
     7
370
     0
100
AcDbCircle
 10
215.9489575602
 20
55.1380802532
 30
0.0
 40
1.301173266867204
100
AcDbArc
 50
165.9701785416
 51
197.6766607319
  0
LINE
  5
24C
330
1F
100
AcDbEntity
  8
0
  6
Continuous
 62
     7
370
     0
100
AcDbLine
 10
214.3174476991
 20
57.6518513428
 30
0.0
 11
212.996717521
 21
58.4142926456
 31
0.0
  0
LINE
  5
24D
330
1F
100
AcDbEntity
  8
0
  6
Continuous
 62
     7
370
     0
100
AcDbLine
 10
214.7092188649
 20
54.7429855332
 30
0.0
 11
213.9071741266
 21
55.2059961051
 31
0.0
  0
LINE
  5
24E
330
1F
100
AcDbEntity
  8
0
  6
Continuous
 62
     7
370
     0
100
AcDbLine
 10
214.7092188649
 20
54.7429855332
 30
0.0
 11
214.8187657165
 21
54.4586678751
 31
0.0
  0
OLE2FRAME
  5
24F
330
1F
100
AcDbEntity
  8
0
100
AcDbOle2Frame
 70
     2
  3
Paintbrush-Bild
 10
13.8511154363
 20
38.264191557
 30
0.0
 11
51.6290888628
 21
31.9806341108
 31
0.0
 71
     2
 72
     0
 73
     1
 90
    12928
310
80552BED0767C5B32B40DDAF6807D121434000000000000000006FFBDDFB85D0
310
4940DDAF6807D121434000000000000000006FFBDDFB85D04940416F4BD60AFB
310
3F4000000000000000002BED0767C5B32B40416F4BD60AFB3F40000000000000
310
0000000000000100000000010000010000000100000000000100000000320000
310
D0CF11E0A1B11AE1000000000000000000000000000000003E000300FEFF0900
310
0600000000000000000000000100000001000000000000000010000002000000
310
01000000FEFFFFFF0000000000000000FFFFFFFFFFFFFFFFFFFFFFFFFFFFFFFF
310
FFFFFFFFFFFFFFFFFFFFFFFFFFFFFFFFFFFFFFFFFFFFFFFFFFFFFFFFFFFFFFFF
310
FFFFFFFFFFFFFFFFFFFFFFFFFFFFFFFFFFFFFFFFFFFFFFFFFFFFFFFFFFFFFFFF
310
FFFFFFFFFFFFFFFFFFFFFFFFFFFFFFFFFFFFFFFFFFFFFFFFFFFFFFFFFFFFFFFF
310
FFFFFFFFFFFFFFFFFFFFFFFFFFFFFFFFFFFFFFFFFFFFFFFFFFFFFFFFFFFFFFFF
310
FFFFFFFFFFFFFFFFFFFFFFFFFFFFFFFFFFFFFFFFFFFFFFFFFFFFFFFFFFFFFFFF
310
FFFFFFFFFFFFFFFFFFFFFFFFFFFFFFFFFFFFFFFFFFFFFFFFFFFFFFFFFFFFFFFF
310
FFFFFFFFFFFFFFFFFFFFFFFFFFFFFFFFFFFFFFFFFFFFFFFFFFFFFFFFFFFFFFFF
310
FFFFFFFFFFFFFFFFFFFFFFFFFFFFFFFFFFFFFFFFFFFFFFFFFFFFFFFFFFFFFFFF
310
FFFFFFFFFFFFFFFFFFFFFFFFFFFFFFFFFFFFFFFFFFFFFFFFFFFFFFFFFFFFFFFF
310
FFFFFFFFFFFFFFFFFFFFFFFFFFFFFFFFFFFFFFFFFFFFFFFFFFFFFFFFFFFFFFFF
310
FFFFFFFFFFFFFFFFFFFFFFFFFFFFFFFFFFFFFFFFFFFFFFFFFFFFFFFFFFFFFFFF
310
FFFFFFFFFFFFFFFFFFFFFFFFFFFFFFFFFFFFFFFFFFFFFFFFFFFFFFFFFFFFFFFF
310
FFFFFFFFFFFFFFFFFFFFFFFFFFFFFFFFFFFFFFFFFFFFFFFFFFFFFFFFFFFFFFFF
310
FDFFFFFFFEFFFFFFFEFFFFFFFEFFFFFF05000000060000000700000008000000
310
090000000A0000000B0000000C0000000D0000000E0000000F00000010000000
310
11000000120000001300000014000000150000001600000017000000FEFFFFFF
310
FFFFFFFFFFFFFFFFFFFFFFFFFFFFFFFFFFFFFFFFFFFFFFFFFFFFFFFFFFFFFFFF
310
FFFFFFFFFFFFFFFFFFFFFFFFFFFFFFFFFFFFFFFFFFFFFFFFFFFFFFFFFFFFFFFF
310
FFFFFFFFFFFFFFFFFFFFFFFFFFFFFFFFFFFFFFFFFFFFFFFFFFFFFFFFFFFFFFFF
310
FFFFFFFFFFFFFFFFFFFFFFFFFFFFFFFFFFFFFFFFFFFFFFFFFFFFFFFFFFFFFFFF
310
FFFFFFFFFFFFFFFFFFFFFFFFFFFFFFFFFFFFFFFFFFFFFFFFFFFFFFFFFFFFFFFF
310
FFFFFFFFFFFFFFFFFFFFFFFFFFFFFFFFFFFFFFFFFFFFFFFFFFFFFFFFFFFFFFFF
310
FFFFFFFFFFFFFFFFFFFFFFFFFFFFFFFFFFFFFFFFFFFFFFFFFFFFFFFFFFFFFFFF
310
FFFFFFFFFFFFFFFFFFFFFFFFFFFFFFFFFFFFFFFFFFFFFFFFFFFFFFFFFFFFFFFF
310
FFFFFFFFFFFFFFFFFFFFFFFFFFFFFFFFFFFFFFFFFFFFFFFFFFFFFFFFFFFFFFFF
310
FFFFFFFFFFFFFFFFFFFFFFFFFFFFFFFFFFFFFFFFFFFFFFFFFFFFFFFFFFFFFFFF
310
FFFFFFFFFFFFFFFFFFFFFFFFFFFFFFFFFFFFFFFFFFFFFFFFFFFFFFFFFFFFFFFF
310
FFFFFFFFFFFFFFFFFFFFFFFFFFFFFFFFFFFFFFFFFFFFFFFFFFFFFFFFFFFFFFFF
310
FFFFFFFFFFFFFFFFFFFFFFFFFFFFFFFFFFFFFFFFFFFFFFFFFFFFFFFFFFFFFFFF
310
52006F006F007400200045006E00740072007900000000000000000000000000
310
0000000000000000000000000000000000000000000000000000000000000000
310
16000500FFFFFFFFFFFFFFFF020000000A00030000000000C000000000000046
310
000000000000000000000000B0E5D76A2425D20103000000C000000000000000
310
01004F006C006500000000000000000000000000000000000000000000000000
310
0000000000000000000000000000000000000000000000000000000000000000
310
0A000200FFFFFFFFFFFFFFFFFFFFFFFF00000000000000000000000000000000
310
0000000000000000000000000000000000000000000000001400000000000000
310
010043006F006D0070004F0062006A0000000000000000000000000000000000
310
0000000000000000000000000000000000000000000000000000000000000000
310
120002010100000003000000FFFFFFFF00000000000000000000000000000000
310
0000000000000000000000000000000000000000010000004D00000000000000
310
01004F006C006500310030004E00610074006900760065000000000000000000
310
0000000000000000000000000000000000000000000000000000000000000000
310
1A000200FFFFFFFFFFFFFFFFFFFFFFFF00000000000000000000000000000000
310
0000000000000000000000000000000000000000040000002426000000000000
310
FEFFFFFF02000000FEFFFFFFFFFFFFFFFFFFFFFFFFFFFFFFFFFFFFFFFFFFFFFF
310
FFFFFFFFFFFFFFFFFFFFFFFFFFFFFFFFFFFFFFFFFFFFFFFFFFFFFFFFFFFFFFFF
310
FFFFFFFFFFFFFFFFFFFFFFFFFFFFFFFFFFFFFFFFFFFFFFFFFFFFFFFFFFFFFFFF
310
FFFFFFFFFFFFFFFFFFFFFFFFFFFFFFFFFFFFFFFFFFFFFFFFFFFFFFFFFFFFFFFF
310
FFFFFFFFFFFFFFFFFFFFFFFFFFFFFFFFFFFFFFFFFFFFFFFFFFFFFFFFFFFFFFFF
310
FFFFFFFFFFFFFFFFFFFFFFFFFFFFFFFFFFFFFFFFFFFFFFFFFFFFFFFFFFFFFFFF
310
FFFFFFFFFFFFFFFFFFFFFFFFFFFFFFFFFFFFFFFFFFFFFFFFFFFFFFFFFFFFFFFF
310
FFFFFFFFFFFFFFFFFFFFFFFFFFFFFFFFFFFFFFFFFFFFFFFFFFFFFFFFFFFFFFFF
310
FFFFFFFFFFFFFFFFFFFFFFFFFFFFFFFFFFFFFFFFFFFFFFFFFFFFFFFFFFFFFFFF
310
FFFFFFFFFFFFFFFFFFFFFFFFFFFFFFFFFFFFFFFFFFFFFFFFFFFFFFFFFFFFFFFF
310
FFFFFFFFFFFFFFFFFFFFFFFFFFFFFFFFFFFFFFFFFFFFFFFFFFFFFFFFFFFFFFFF
310
FFFFFFFFFFFFFFFFFFFFFFFFFFFFFFFFFFFFFFFFFFFFFFFFFFFFFFFFFFFFFFFF
310
FFFFFFFFFFFFFFFFFFFFFFFFFFFFFFFFFFFFFFFFFFFFFFFFFFFFFFFFFFFFFFFF
310
FFFFFFFFFFFFFFFFFFFFFFFFFFFFFFFFFFFFFFFFFFFFFFFFFFFFFFFFFFFFFFFF
310
FFFFFFFFFFFFFFFFFFFFFFFFFFFFFFFFFFFFFFFFFFFFFFFFFFFFFFFFFFFFFFFF
310
FFFFFFFFFFFFFFFFFFFFFFFFFFFFFFFFFFFFFFFFFFFFFFFFFFFFFFFFFFFFFFFF
310
0100000200000000000000000000000000000000000000000000000000000000
310
0000000000000000000000000000000000000000000000000000000000000000
310
0100FEFF030A0000FFFFFFFF0A00030000000000C00000000000004607000000
310
5042727573680007000000504272757368000700000050427275736800F439B2
310
7100000000000000000000000000000000000000000000000000000000000000
310
0000000000000000000000000000000000000000000000000000000000000000
310
0000000000000000000000000000000000000000000000000000000000000000
310
0000000000000000000000000000000000000000000000000000000000000000
310
0000000000000000000000000000000000000000000000000000000000000000
310
0000000000000000000000000000000000000000000000000000000000000000
310
0000000000000000000000000000000000000000000000000000000000000000
310
0000000000000000000000000000000000000000000000000000000000000000
310
0000000000000000000000000000000000000000000000000000000000000000
310
0000000000000000000000000000000000000000000000000000000000000000
310
0000000000000000000000000000000000000000000000000000000000000000
310
0000000000000000000000000000000000000000000000000000000000000000
310
20260000424D0E260000000000003E00000028000000B40200006E0000000100
310
01000000000000000000130B0000130B00000200000002000000000000FFFFFF
310
FFFFFFFFFFFFFFFFFFFFFFFFFFFFFFFFFFFFFFFFFFFFFFFFFFFFFFFFFFFFFFFF
310
FFFFFFFFFFFFFFFFFFFFFFFFFFFFFFFFFFFFFFFFFFFFFFFFFFFFFFFFFFFFFFFF
310
FFFFFFFFFFFFFFFFFFFFFFFFFFFFFFFFFFFFFFFFFFFFFFFFF000FFFFFFFFFFFF
310
FFFFFFFFFFFFFFFFFFFFFFFFFFFFFFFFFFFFFFFFFFFFFFFFFFFFFFFFFFFFFFFF
310
FFFFFFFFFFFFFFFFFFFFFFFFFFFFFFFFFFFFFFFFFFFFFFFFFFFFFFFFFFFFFFFF
310
FFFFFFFFFFFFFFFFFFFFFFFFFFFFFFFFF000FFFFFFFFFFFFFFFFFFFFFFFFFFFF
310
FFFFFFFFFFFFFFFFFFFFFFFFFFFFFFFFFFFFFFFFFFFFFFFFFFFFFFFFFFFFFFFF
310
FFFFFFFFFFFFFFFFFFFFFFFFFFFFFFFFFFFFFFFFFFFFFFFFFFFFFFFFFFFFFFFF
310
FFFFFFFFFFFFFFFFF000FFFFFFFFFFFFFFFFFFFFFFFFFFFFFFFFFFFFFFFFFFFF
310
FFFFFFFFFFFFFFFFFFFFFFFFFFFFFFFFFFFFFFFFFFFFFFFFFFFFFFFFFFFFFFFF
310
FFFFFFFFFFFFFFFFFFFFFFFFFFFFFFFFFFFFFFFFFFFFFFFFFFFFFFFFFFFFFFFF
310
F000FFFFFFFFFFFFFFFFFFFFFFFFFFFFFFFFFFFFFFFFFFFFFFFFFFFFFFFFFFFF
310
FFFFFFFFFFFFFFFFFFFFFFFFFFFFFFFFFFFFFFFFFFFFFFFFFFFFFFFFFFFFFFFF
310
FFFFFFFFFFFFFFFFFFFFFFFFFFFFFFFFFFFFFFFFFFFFFFFFF000FFFFFFFFFFFF
310
FFFFFFFFFFFFFFFFFFFFFFFFFFFFFFFFFFFFFFFFFFFFFFFFFFFFFFFFFFFFFFFF
310
FFFFFFFFFFFFFFFFFFFFFFFFFFFFFFFFFFFFFFFFFFFFFFFFFFFFFFFFFFFFFFFF
310
FFFFFFFFFFFFFFFFFFFFFFFFFFFFFFFFF000FFFFFFFFFFFFFFFFFFFFFFFFFFFF
310
FFFFFFFFFFFFFFFFFFFFFFFFFFFFFFFFFFFFFFFFFFFFFFFFFFFFFFFFFFFFFFFF
310
FFFFFFFFFFFFFFFFFFFFFFFFFFFFFFFFFFFFFFFFFFFFFFFFFFFFFFFFFFFFFFFF
310
FFFFFFFFFFFFFFFFF000FFFFFFFFFFFFFFFFFFFFFFFFFFFFFFFFFFFFFFFFFFFF
310
FFFFFFFFFFFFFFFFFFFFFFFFFFFFFFFFFFFFFFFFFFFFFFFFFFFFFFFFFFFFFFFF
310
FFFFFFFFFFFFFFFFFFFFFFFFFFFFFFFFFFFFFFFFFFFFFFFFFFFFFFFFFFFFFFFF
310
F000FFFFFFFFFFFFFFFFFFFFFFFFFFFFFFFFFFFFFFFFFFFFFFFFFFFFFFFFFFFF
310
FFFFFFFFFFFFFFFFFFFFFFFFFFFFFFFFFFFFFFFFFFFFFFFFFFFFFFFFFFFFFFFF
310
FFFFFFFFFFFFFFFFFFFFFFFFFFFFFFFFFFFFFFFFFFFFFFFFF000FFFFFFFFFFFF
310
FFFFFFFFFFFFFFFFFFFFFFFFFFFFFFFFFFFFFFFFFFFFFFFFFFFFFFFFFFFFFFFF
310
FFFFFFFFFFFFFFFFFFFFFFFFFFFFFFFFFFFFFFFFFFFFFFFFFFFFFFFFFFFFFFFF
310
FFFFFFFFFFFFFFFFFFFFFFFFFFFFFFFFF000FFFFFFFFFFFFFFFFFFFFFFFFFFFF
310
FFFFFFFFFFFFFFFFFFFFFFFFFFFFFFFFFFFFFFFFFFFFFFFFFFFFFFFFFFFFFFFF
310
FFFFFFFFFFFFFFFFFFFFFFFFFFFFFFFFFFFFFFFFFFFFFFFFFFFFFFFFFFFFFFFF
310
FFFFFFFFFFFFFFFFF000FFFFFFFFFFFFFFFFFFFFFFFFFFFFFFFFFFFFFFFFFFFF
310
FFFFFFFFFFFFFFFFFFFFFFFFFFFFFFFFFFFFFFFFFFFFFFFFFFFFFFFFFFFFFFFF
310
FFFFFFFFFFFFFFFFFFFFFFFFFFFFFFFFFFFFFFFFFFFFFFFFFFFFFFFFFFFFFFFF
310
F000FFFFFFFFFFFFFFFFFFFFFFFFFFFFFFFFFFFFFFFFFFFFFFFFFFFFFFFFFFFF
310
FFFFFFFFFFFFFFFFFFFFFFFFFFFFFFFFFFFFFFFFFFFFFFFFFFFFFFFFFFFFFFFF
310
FFFFFFFFFFFFFFFFFFFFFFFFFFFFFFFFFFFFFFFFFFFFFFFFF000FFFFFFFFFFFF
310
FFFFFFFFFFFFFFFFFFFFFFFFFFFFFFFFFFFFFFFFFFFFFFFFFFFFFFFFFFFFFFFF
310
FFFFFFFFFFFFFFFFFFFFFFFFFFFFFFFFFFFFFFFFFFFFFFFFFFFFFFFFFFFFFFFF
310
FFFFFFFFFFFFFFFFFFFFFFFFFFFFFFFFF000FFFFFFFFFFFFFFFFFFFFFFFFFFFF
310
FFFFFFFFFFFFFFFFFFFFFFFFFFFFFFFFFFFFFFFFFFFFFFFFFFFFFFFFFFFFFFFF
310
FFFFFFFFFFFFFFFFFFFFFFFFFFFFFFFFFFFFFFFFFFFFFFFFFFFFFFFFFFFFFFFF
310
FFFFFFFFFFFFFFFFF000FFFFFFFFFFFFFFFFFFFFFFFFFFFFFFFFFFFFFFFFFFFF
310
FFFFFFFFFFFFFFFFFFFFFFFFFFFFFFFFFFFFFFFFFFFFFFFFFFFFFFFFFFFFFFFF
310
FFFFFFFFFFFFFFFFFFFFFFFFFFFFFFFFFFFFFFFFFFFFFFFFFFFFFFFFFFFFFFFF
310
F000FFFFFFFFFFFFFFFFFFFFFFFFFFFFFFFFFFFFFFFFFFFFFFFFFFFFFFFFFFFF
310
FFFFFFFFFFFFFFFFFFFFFFFFFFFFFFFFFFFFFFFFFFFFFFFFFFFFFFFFFFFFFFFF
310
FFFFFFFFFFFFFFFFFFFFFFFFFFFFFFFFFFFFFFFFFFFFFFFFF000FFFFFFFFFFFF
310
FFFFFFFFFFFFFFFFFFFFFFFFFFFFFFFFFFFFFFFFFFFFFFFFFFFFFFFFFFFFFFFF
310
FFFFFFFFFFFFFFFFFFFFFFFFFFFFFFFFFFFFFFFFFFFFFFFFFFFFFFFFFFFFFFFF
310
FFFFFFFFFFFFFFFFFFFFFFFFFFFFFFFFF000FFFFFFFFFFFFFFFFFFFFFFFFFFFF
310
FFFFFFFFFFFFFFFFFFFFFFFFFFFFFFFFFFFFFFFFFFFFFFFFFFFFFFFFFFFFFFFF
310
FFFFFFFFFFFFFFFFFFFFFFFFFFFFFFFFFFFFFFFFFFFFFFFFFFFFFFFFFFFFFFFF
310
FFFFFFFFFFFFFFFFF000FFFFF80003FFFFFFFFFFFFFFFFFFFFFFFFFFFFFFFFFF
310
FFFFF00007FFFFFFFFFF00007FFFFFF800000000000000007FFFFFFFFFFFFFFF
310
FFFFFFFC001FFFFFFFFFFFFFFC001FFFFFFFFFFFFFFFFFFFFFFFFFFE0007FFFF
310
F000FFFF8000007FFFFFFFF8000FFFFFC0007FFFFF80007FFFFF0000007FFFFF
310
FFF8000007FFFFF800000000000000007FFFFFF0001FFFFFFFFFFFC00001FFFF
310
FFFFFFFFC00001FFFFFFFF000000000003FFFFE000007FFFF000FFFE0000000F
310
FFFFFFF0000FFFFF80007FFFFF80007FFFFC0000001FFFFFFFC0000001FFFFF8
310
00000000000000007FFFFFF0001FFFFFFFFFFE0000003FFFFFFFFFFE0000003F
310
FFFFFF000000000003FFFF0000000FFFF000FFF800000003FFFFFFF00007FFFF
310
80007FFFFF80007FFFF000000007FFFFFF000000003FFFF80000000000000000
310
7FFFFFF0001FFFFFFFFFF80000000FFFFFFFFFF80000000FFFFFFF0000000000
310
03FFFC00000003FFF000FFE000000000FFFFFFF00007FFFF80003FFFFF80007F
310
FFC000000001FFFFFC000000001FFFF800000000000000007FFFFFF0001FFFFF
310
FFFFE000000003FFFFFFFFE000000003FFFFFF000000000003FFF000000000FF
310
F000FF80000000007FFFFFF00007FFFF80003FFFFF80007FFF8000000000FFFF
310
F80000000007FFF800000000000000007FFFFFF0001FFFFFFFFFC000000001FF
310
FFFFFFC000000001FFFFFF000000000003FFC0000000007FF000FF0000000000
310
3FFFFFE00007FFFF00003FFFFF80007FFE00000000003FFFF00000000003FFF8
310
00000000000000007FFFFFF0001FFFFFFFFF8000000000FFFFFFFF8000000000
310
FFFFFF000000000003FF80000000003FF000FE00000000001FFFFFE00003FFFF
310
00003FFFFF80007FFC00000000001FFFE00000000001FFF8000001FFFE000000
310
7FFFFFF0001FFFFFFFFE00000000003FFFFFFE00000000003FFFFF0000000000
310
03FF00000000001FF000FC00000000000FFFFFE00003FFFF00001FFFFF80007F
310
F800000000001FFFC00000000000FFF8000001FFFE0000007FFFFFF0001FFFFF
310
FFFC00000000001FFFFFFC00000000001FFFFF000000000003FE00000000000F
310
F000F8000000000007FFFFE00003FFFF00001FFFFF80007FF800000000000FFF
310
800000000000FFF8000001FFFE0000007FFFFFF0001FFFFFFFF800000000000F
310
FFFFF800000000000FFFFF000000000003FC000000000007F000F80000000000
310
03FFFFC00003FFFE00001FFFFF80007FF0000000000007FF0000000000007FF8
310
000001FFFE0000007FFFFFF0001FFFFFFFF0000000000007FFFFF00000000000
310
07FFFF000000000003F8000000000003F000F0000000000003FFFFC00001FFFE
310
00001FFFFF80007FE0000000000007FE0000000000003FF8000001FFFE000000
310
7FFFFFF0001FFFFFFFF0000000000007FFFFF0000000000007FFFF0000000000
310
03F800001F800003F000E00001FFF00001FFFFC00001FFFE00000FFFFF80007F
310
E00001FFE00003FE00001FFF00003FF8000001FFFE0000007FFFFFF0001FFFFF
310
FFE000003E000003FFFFE000003E000003FFFF000000000003F00001FFF80001
310
F000E00007FFFC0001FFFFC00001FFFE00000FFFFF80007FC0000FFFFC0003FC
310
0000FFFFC0001FF8000001FFFE0000007FFFFFF0001FFFFFFFC00003FFE00001
310
FFFFC00003FFE00001FFFF0001FFFFFFFFF00007FFFE0001F000E0000FFFFF00
310
00FFFF800001FFFC00000FFFFF80007FC0001FFFFE0001FC0001FFFFE0001FF8
310
000001FFFE0000007FFFFFF0001FFFFFFF80000FFFF80000FFFF80000FFFF800
310
00FFFF0003FFFFFFFFE0000FFFFF8000F000C0003FFFFF8000FFFF800000FFFC
310
000007FFFF80007F80003FFFFF0001FC0003FFFFF0001FF8000001FFFE000000
310
7FFFFFF0001FFFFFFF80003FFFFE0000FFFF80003FFFFE0000FFFF0003FFFFFF
310
FFE0003FFFFF8000F000C0003FFFFF8000FFFF800000FFFC000007FFFF80007F
310
80007FFFFF8001F80007FFFFF8000FF8000001FFFE0000007FFFFFF0001FFFFF
310
FF00007FFFFF00007FFF00007FFFFF00007FFF0003FFFFFFFFE0003FFFFFC000
310
F000C0007FFFFFC000FFFF000000FFFC000007FFFF80007F8000FFFFFF8000F8
310
000FFFFFF8000FF8000001FFFE0000007FFFFFF0001FFFFFFF0000FFFFFF8000
310
7FFF0000FFFFFF80007FFF0003FFFFFFFFC0007FFFFFC00070008000FFFFFFC0
310
00FFFF000000FFF8000007FFFF80007F8000FFFFFF8000F8000FFFFFF8000FF8
310
000001FFFE0000007FFFFFF0001FFFFFFE0001FFFFFFC0003FFE0001FFFFFFC0
310
003FFF0003FFFFFFFFC0007FFFFFE00070008000FFFFFFC0007FFF0000007FF8
310
000003FFFF80007F0001FFFFFF8000F8000FFFFFF8000FF8000001FFFE000000
310
7FFFFFF0001FFFFFFE0001FFFFFFC0003FFE0001FFFFFFC0003FFF0003FFFFFF
310
FFC000FFFFFFE00070008000FFFFFFC0007FFF0000007FF8000003FFFF80007F
310
0001FFFFFF8000F8001FFFFFF8000FF8000001FFFE0000007FFFFFF0001FFFFF
310
FE0003FFFFFFE0003FFE0003FFFFFFE0003FFF0003FFFFFFFFC000FFFFFFE000
310
70008000FFFFFFC0007FFE0000007FF8000003FFFF80007F0001FFFFFF8000F0
310
001FFFFFF8000FF8000001FFFE0000007FFFFFF0001FFFFFFC0003FFFFFFE000
310
1FFC0003FFFFFFE0001FFF0003FFFFFFFFC000FFFFFFC00070008000FFFFFF80
310
007FFE0000007FF0000003FFFF80007F0001FFFFFF0000F0001FFFFFF8000FF8
310
000001FFFE0000007FFFFFF0001FFFFFFC0007FFFFFFF0001FFC0007FFFFFFF0
310
001FFF0003FFFFFFFFC000FFFFFFC00070008001FFFFFF0000FFFE0000003FF0
310
000001FFFF80007F0001FFFFFF0000F8001FFFFFF0000FF8000001FFFE000000
310
7FFFFFF0001FFFFFFC0007FFFFFFF0001FFC0007FFFFFFF0001FFF0003FFFFFF
310
FFC001FFFFFF80007000FFFFFFFFFE0000FFFE0008003FF0008001FFFF80007F
310
FFFFFFFFFC0000FFFFFFFFFFE0000FF8000001FFFE0000007FFFFFF0001FFFFF
310
F8000FFFFFFFF8000FF8000FFFFFFFF8000FFF0003FFFFFFFFFFFFFFFFFF0000
310
7000FFFFFFFFFC0000FFFC0008003FF0008001FFFF80007FFFFFFFFFF80001FF
310
FFFFFFFF80000FF8000001FFFE0000007FFFFFF0001FFFFFF8000FFFFFFFF800
310
0FF8000FFFFFFFF8000FFF0003FFFFFFFFFFFFFFFFFE0000F000FFFFFFFFE000
310
00FFFC000C003FE000C001FFFF80007FFFFFFFFFC00001FFFFFFFFFE00001FF8
310
000001FFFE0000007FFFFFF0001FFFFFF8000FFFFFFFF8000FF8000FFFFFFFF8
310
000FFF0003FFFFFFFFFFFFFFFFF00000F000FFFFFFFE000001FFFC000C001FE0
310
00C000FFFF80007FFFFFFFFE000001FFFFFFFFE000001FF80FFFFFFFFFFFFFC0
310
7FFFFFF0001FFFFFF8000FFFFFFFF8000FF8000FFFFFFFF8000FFF0003FFFFFF
310
FFFFFFFFFF800000F000FFFFFFC0000001FFFC001C001FE001C000FFFF80007F
310
FFFFFF80000003FFFFFFF80000001FF80FFFFFFFFFFFFFC07FFFFFF0001FFFFF
310
F8001FFFFFFFFC000FF8001FFFFFFFFC000FFF0003FFFFFFFFFFFFFFF0000001
310
F000FFFFF800000001FFF8001C001FE001C000FFFF80007FFFFFF800000003FF
310
FFFF800000003FF80FFFFFFFFFFFFFC07FFFFFF0001FFFFFF8001FFFFFFFFC00
310
0FF8001FFFFFFFFC000FFF0003FFFFFFFFFFFFFE00000001F000FFFFC0000000
310
03FFF8001E001FC001E000FFFF80007FFFFF8000000007FFFFFC000000003FF8
310
0FFFFFFFFFFFFFC07FFFFFF0001FFFFFF8001FFFFFFFFC000FF8001FFFFFFFFC
310
000FFF0003FFFFFFFFFFFFE000000003F000FFFE0000000007FFF8001E000FC0
310
01E0007FFF80007FFFFE0000000007FFFFE0000000007FF80FFFFFFFFFFFFFC0
310
7FFFFFF0001FFFFFF0001FFFFFFFFC0007F0001FFFFFFFFC0007FF0003FFFFFF
310
FFFFFF0000000003F000FFF80000000007FFF8001E000FC003E0007FFF80007F
310
FFF0000000000FFFFF8000000000FFF80FFFFFFFFFFFFFC07FFFFFF0001FFFFF
310
F0001FFFFFFFFC0007F0001FFFFFFFFC0007FF0003FFFFFFFFFFFC0000000007
310
F000FFE0000000000FFFF0003E000FC003E0007FFF80007FFFC0000000001FFF
310
FE0000000001FFF80FFFFFFFFFFFFFC07FFFFFF0001FFFFFF0001FFFFFFFFC00
310
07F0001FFFFFFFFC0007FF0003FFFFFFFFFFF0000000000FF000FFC000000000
310
1FFFF0003F000F8003F0003FFF80007FFF80000000003FFFF80000000003FFF8
310
0FFFFFFFFFFFFFC07FFFFFF0001FFFFFF0001FFFFFFFFC0007F0001FFFFFFFFC
310
0007FF0003FFFFFFFFFFE0000000001FF000FF00000000007FFFF0003F000780
310
03F0003FFF80007FFF00000000007FFFF00000000007FFF80FFFFFFFFFFFFFC0
310
7FFFFFF0001FFFFFF0001FFFFFFFFC0007F0001FFFFFFFFC0007FF0003FFFFFF
310
FFFF80000000007FF000FE0000000000FFFFE0003F00078007F0003FFF80007F
310
FE0000000001FFFFE0000000001FFFF80FFFFFFFFFFFFFC07FFFFFF0001FFFFF
310
F0001FFFFFFFFC0007F0001FFFFFFFFC0007FF0003FFFFFFFFFF0000000000FF
310
F000FC0000000003FFFFE0007F00078007F0003FFF80007FFC0000000007FFFF
310
C0000000007FFFF80FFFFFFFFFFFFFC07FFFFFF0001FFFFFF8001FFFFFFFFC00
310
0FF8001FFFFFFFFC000FFF0003FFFFFFFFFE0000000003FFF000FC000000000F
310
FFFFE0007F80070007F8001FFF80007FF8000000001FFFFF8000000001FFFFF8
310
0FFFFFFFFFFFFFC07FFFFFF0001FFFFFF8001FFFFFFFFC000FF8001FFFFFFFFC
310
000FFF0003FFFFFFFFFC000000000FFFF000F8000000007FFFFFE0007F800700
310
07F8001FFF80007FF000000000FFFFFF800000000FFFFFF80FFFFFFFFFFFFFC0
310
7FFFFFF0001FFFFFF8000FFFFFFFF8000FF8000FFFFFFFF8000FFF0003FFFFFF
310
FFFC000000007FFFF000F800000007FFFFFFC0007F8003000FF8001FFF80007F
310
F000000007FFFFFF000000007FFFFFF80FFFFFFFFFFFFFC07FFFFFF0001FFFFF
310
F8000FFFFFFFF8000FF8000FFFFFFFF8000FFF0003FFFFFFFFF80000000FFFFF
310
F000F0000000FFFFFFFFC000FF8003000FF8001FFF80007FE0000000FFFFFFFF
310
0000000FFFFFFFF8000001FFFE0000007FFFFFF0001FFFFFF8000FFFFFFFF800
310
0FF8000FFFFFFFF8000FFF0003FFFFFFFFF8000000FFFFFFF000F000000FFFFF
310
FFFFC000FFC002000FF8000FFF80007FE000001FFFFFFFFE000001FFFFFFFFF8
310
000001FFFE0000007FFFFFF0001FFFFFF8000FFFFFFFF8000FF8000FFFFFFFF8
310
000FFF0003FFFFFFFFF000001FFFFFFFF000E00000FFFFFFFFFFC000FFC00200
310
0FFC000FFF80007FE00001FFFFFFFFFE00001FFFFFFFFFF8000001FFFE000000
310
7FFFFFF0001FFFFFFC000FFFFFFFF8001FFC000FFFFFFFF8001FFF0003FFFFFF
310
FFF00001FFFFFFFFF000E00007FFFFFFFFFF8000FFC000001FFC000FFF80007F
310
C0000FFFFFFFFFFE0000FFFFFFFFFFF8000001FFFE0000007FFFFFF0001FFFFF
310
FC0007FFFFFFF0001FFC0007FFFFFFF0001FFF0003FFFFFFFFF00007FFFFFFFF
310
F000E0001FFFFFFFFFFF8000FFC000001FFC000FFF80007FC0003FFFFFFFFFFE
310
0001FFFFFFFFFFF8000001FFFE0000007FFFFFF0001FFFFFFC0007FFFFFFF000
310
1FFC0007FFFFFFF0001FFF0003FFFFFFFFF0001FFFFFFFFFF000E0003FFFFF00
310
03FF8001FFE000001FFC0007FF80007FC0007FFFFF0007FC0003FFFFF0003FF8
310
000001FFFE0000007FFFFFF0001FFFFFFC0003FFFFFFE0001FFC0003FFFFFFE0
310
001FFF0003FFFFFFFFF0003FFFFFFFFFF000E0003FFFFF0001FF8001FFE00000
310
1FFE0007FF80007FC0007FFFFE0003FC0007FFFFE0003FF8000001FFFE000000
310
7FFFFFF0001FFFFFFE0003FFFFFFE0003FFE0003FFFFFFE0003FFF0003FFFFFF
310
FFF0003FFFFF8001F000E0003FFFFF0001FF0001FFE000001FFE0007FF80007F
310
C0007FFFFE0003FC0007FFFFE0003FF8000001FFFE0000007FFFFFF0001FFFFF
310
FE0001FFFFFFC0003FFE0001FFFFFFC0003FFF0003FFFFFFFFF0003FFFFF0001
310
F000E0003FFFFF0003FF0001FFE000003FFE0007FF80007FC0007FFFFE0003FC
310
0007FFFFE0003FF8000001FFFE0000007FFFFFF0001FFFFFFF0001FFFFFFC000
310
7FFF0001FFFFFFC0007FFF0003FFFFFFFFF0003FFFFF0001F000E0003FFFFE00
310
03FF0003FFF000003FFE0003FF80007FC0007FFFFC0003FE0007FFFFE0003FF8
310
000001FFFE0000007FFFFFF0001FFFFFFF0000FFFFFF80007FFF0000FFFFFF80
310
007FFF0003FFFFFFFFF0003FFFFF0001F000E0003FFFFE0003FF0003FFF00000
310
3FFF0003FF80007FC0007FFFFC0007FE0007FFFFC0003FF8000001FFFE000000
310
7FFFFFF0001FFFFFFF80007FFFFF0000FFFF80007FFFFF0000FFFF0003FFFFFF
310
FFF0003FFFFF0003F000E0003FFFFC0003FE0003FFF000003FFF0003FF80007F
310
E0003FFFF80007FE0003FFFFC0007FF8000001FFFE0000007FFFFFF0001FFFFF
310
FF80003FFFFE0000FFFF80003FFFFE0000FFFF0003FFFFFFFFF0001FFFFE0003
310
F000F0001FFFF80003FE0003FFF000007FFF0001FF80007FE0003FFFF00007FE
310
0001FFFF80007FF8000001FFFE0000007FFFFFF0001FFFFFFFC0000FFFF80001
310
FFFFC0000FFFF80001FFFF0003FFFFFFFFF0001FFFFC0003F000F0000FFFF000
310
07FE0007FFF800007FFF0001FF80007FE0001FFFE00007FF0000FFFE00007FF8
310
000001FFFE0000007FFFFFF0001FFFFFFFC00003FFE00001FFFFC00003FFE000
310
01FFFF0003FFFFFFFFF8000FFFF80003F000F00003FFC00007FC0007FFF80000
310
7FFF8001FF80007FF00007FF80000FFF00007FF80000FFF8000001FFFE000000
310
7F80000000000001FFE000003E000003FFFFE000003E000003FFFF0003FFFFFF
310
FFF80003FFE00007F000F800000000000FFC0007FFF800007FFF8001FF80007F
310
F000000000000FFF000000000000FFF8000001FFFE0000007F80000000000001
310
FFF0000000000007FFFFF0000000000007FFFF0003FFFFFFFFFC00007E000007
310
F000F800000000000FFC0007FFF80000FFFF8000FF80007FF800000000001FFF
310
800000000001FFF8000001FFFE0000007F80000000000001FFF800000000000F
310
FFFFF800000000000FFFFF0003FFFFFFFFFC00000000000FF000FC0000000000
310
1FFC0007FFFC0000FFFF8000FF80007FF800000000003FFFC00000000001FFF8
310
000001FFFE0000007F80000000000001FFF800000000000FFFFFF80000000000
310
0FFFFF0003FFFFFFFFFE00000000001FF000FE00000000003FF8000FFFFC0000
310
FFFF8000FF80007FFC00000000003FFFC00000000003FFF8000001FFFE000000
310
7F80000000000001FFFC00000000001FFFFFFC00000000001FFFFF0003FFFFFF
310
FFFF00000000001FF000FF00000000003FF8000FFFFC0000FFFFC000FF80007F
310
FE00000000007FFFE00000000007FFF8000001FFFE0000007F80000000000001
310
FFFE00000000003FFFFFFE00000000003FFFFF0003FFFFFFFFFF80000000003F
310
F000FF80000000007FF8000FFFFC0001FFFFC0007F80007FFF0000000000FFFF
310
F0000000000FFFF800000000000000007F80000000000001FFFF8000000000FF
310
FFFFFF8000000000FFFFFF0003FFFFFFFFFFC0000000007FF000FFC000000000
310
FFF8000FFFFE0001FFFFC0007F80007FFF8000000001FFFFF8000000001FFFF8
310
00000000000000007F80000000000001FFFFC000000001FFFFFFFFC000000001
310
FFFFFF0003FFFFFFFFFFE000000000FFF000FFE000000003FFF0001FFFFE0001
310
FFFFC0007F80007FFFC000000007FFFFFE000000003FFFF80000000000000000
310
7F80000000000001FFFFE000000003FFFFFFFFE000000003FFFFFF0003FFFFFF
310
FFFFF000000003FFF000FFF80000000FFFF0001FFFFE0001FFFFE0007F80007F
310
FFF00000000FFFFFFF00000000FFFFF800000000000000007F80000000000001
310
FFFFF80000000FFFFFFFFFF80000000FFFFFFF0003FFFFFFFFFFFC0000000FFF
310
F000FFFE0000003FFFF0001FFFFE0003FFFFE0003F80007FFFFC0000003FFFFF
310
FFC0000003FFFFF800000000000000007F80000000000001FFFFFE0000003FFF
310
FFFFFFFE0000003FFFFFFF0003FFFFFFFFFFFF0000003FFFF000FFFF800000FF
310
FFF0001FFFFF0003FFFFE0003F80007FFFFF000001FFFFFFFFF800001FFFFFF8
310
00000000000000007F80000000000001FFFFFFC00001FFFFFFFFFFFFC00001FF
310
FFFFFF0003FFFFFFFFFFFFC00000FFFFF000FFFFF8000FFFFFFFFFFFFFFFFFFF
310
FFFFFFFFFFFFFFFFFFFFF0001FFFFFFFFFFF0000FFFFFFF80000000000000000
310
7FFFFFFFFFFFFFFFFFFFFFFC001FFFFFFFFFFFFFFC001FFFFFFFFFFFFFFFFFFF
310
FFFFFFFC001FFFFFF000FFFFFFFFFFFFFFFFFFFFFFFFFFFFFFFFFFFFFFFFFFFF
310
FFFFFFFFFFFFFFFFFFFFFFFFFFFFFFFFFFFFFFFFFFFFFFFFFFFFFFFFFFFFFFFF
310
FFFFFFFFFFFFFFFFFFFFFFFFFFFFFFFFFFFFFFFFFFFFFFFFFFFFFFFFFFFFFFFF
310
F000FFFFFFFFFFFFFFFFFFFFFFFFFFFFFFFFFFFFFFFFFFFFFFFFFFFFFFFFFFFF
310
FFFFFFFFFFFFFFFFFFFFFFFFFFFFFFFFFFFFFFFFFFFFFFFFFFFFFFFFFFFFFFFF
310
FFFFFFFFFFFFFFFFFFFFFFFFFFFFFFFFFFFFFFFFFFFFFFFFF000FFFFFFFFFFFF
310
FFFFFFFFFFFFFFFFFFFFFFFFFFFFFFFFFFFFFFFFFFFFFFFFFFFFFFFFFFFFFFFF
310
FFFFFFFFFFFFFFFFFFFFFFFFFFFFFFFFFFFFFFFFFFFFFFFFFFFFFFFFFFFFFFFF
310
FFFFFFFFFFFFFFFFFFFFFFFFFFFFFFFFF000FFFFFFFFFFFFFFFFFFFFFFFFFFFF
310
FFFFFFFFFFFFFFFFFFFFFFFFFFFFFFFFFFFFFFFFFFFFFFFFFFFFFFFFFFFFFFFF
310
FFFFFFFFFFFFFFFFFFFFFFFFFFFFFFFFFFFFFFFFFFFFFFFFFFFFFFFFFFFFFFFF
310
FFFFFFFFFFFFFFFFF000FFFFFFFFFFFFFFFFFFFFFFFFFFFFFFFFFFFFFFFFFFFF
310
FFFFFFFFFFFFFFFFFFFFFFFFFFFFFFFFFFFFFFFFFFFFFFFFFFFFFFFFFFFFFFFF
310
FFFFFFFFFFFFFFFFFFFFFFFFFFFFFFFFFFFFFFFFFFFFFFFFFFFFFFFFFFFFFFFF
310
F000FFFFFFFFFFFFFFFFFFFFFFFFFFFFFFFFFFFFFFFFFFFFFFFFFFFFFFFFFFFF
310
FFFFFFFFFFFFFFFFFFFFFFFFFFFFFFFFFFFFFFFFFFFFFFFFFFFFFFFFFFFFFFFF
310
FFFFFFFFFFFFFFFFFFFFFFFFFFFFFFFFFFFFFFFFFFFFFFFFF000FFFFFFFFFFFF
310
FFFFFFFFFFFFFFFFFFFFFFFFFFFFFFFFFFFFFFFFFFFFFFFFFFFFFFFFFFFFFFFF
310
FFFFFFFFFFFFFFFFFFFFFFFFFFFFFFFFFFFFFFFFFFFFFFFFFFFFFFFFFFFFFFFF
310
FFFFFFFFFFFFFFFFFFFFFFFFFFFFFFFFF000FFFFFFFFFFFFFFFFFFFFFFFFFFFF
310
FFFFFFFFFFFFFFFFFFFFFFFFFFFFFFFFFFFFFFFFFFFFFFFFFFFFFFFFFFFFFFFF
310
FFFFFFFFFFFFFFFFFFFFFFFFFFFFFFFFFFFFFFFFFFFFFFFFFFFFFFFFFFFFFFFF
310
FFFFFFFFFFFFFFFFF000FFFFFFFFFFFFFFFFFFFFFFFFFFFFFFFFFFFFFFFFFFFF
310
FFFFFFFFFFFFFFFFFFFFFFFFFFFFFFFFFFFFFFFFFFFFFFFFFFFFFFFFFFFFFFFF
310
FFFFFFFFFFFFFFFFFFFFFFFFFFFFFFFFFFFFFFFFFFFFFFFFFFFFFFFFFFFFFFFF
310
F000FFFFFFFFFFFFFFFFFFFFFFFFFFFFFFFFFFFFFFFFFFFFFFFFFFFFFFFFFFFF
310
FFFFFFFFFFFFFFFFFFFFFFFFFFFFFFFFFFFFFFFFFFFFFFFFFFFFFFFFFFFFFFFF
310
FFFFFFFFFFFFFFFFFFFFFFFFFFFFFFFFFFFFFFFFFFFFFFFFF000FFFFFFFFFFFF
310
FFFFFFFFFFFFFFFFFFFFFFFFFFFFFFFFFFFFFFFFFFFFFFFFFFFFFFFFFFFFFFFF
310
FFFFFFFFFFFFFFFFFFFFFFFFFFFFFFFFFFFFFFFFFFFFFFFFFFFFFFFFFFFFFFFF
310
FFFFFFFFFFFFFFFFFFFFFFFFFFFFFFFFF000FFFFFFFFFFFFFFFFFFFFFFFFFFFF
310
FFFFFFFFFFFFFFFFFFFFFFFFFFFFFFFFFFFFFFFFFFFFFFFFFFFFFFFFFFFFFFFF
310
FFFFFFFFFFFFFFFFFFFFFFFFFFFFFFFFFFFFFFFFFFFFFFFFFFFFFFFFFFFFFFFF
310
FFFFFFFFFFFFFFFFF000FFFFFFFFFFFFFFFFFFFFFFFFFFFFFFFFFFFFFFFFFFFF
310
FFFFFFFFFFFFFFFFFFFFFFFFFFFFFFFFFFFFFFFFFFFFFFFFFFFFFFFFFFFFFFFF
310
FFFFFFFFFFFFFFFFFFFFFFFFFFFFFFFFFFFFFFFFFFFFFFFFFFFFFFFFFFFFFFFF
310
F000FFFFFFFFFFFFFFFFFFFFFFFFFFFFFFFFFFFFFFFFFFFFFFFFFFFFFFFFFFFF
310
FFFFFFFFFFFFFFFFFFFFFFFFFFFFFFFFFFFFFFFFFFFFFFFFFFFFFFFFFFFFFFFF
310
FFFFFFFFFFFFFFFFFFFFFFFFFFFFFFFFFFFFFFFFFFFFFFFFF000FFFFFFFFFFFF
310
FFFFFFFFFFFFFFFFFFFFFFFFFFFFFFFFFFFFFFFFFFFFFFFFFFFFFFFFFFFFFFFF
310
FFFFFFFFFFFFFFFFFFFFFFFFFFFFFFFFFFFFFFFFFFFFFFFFFFFFFFFFFFFFFFFF
310
FFFFFFFFFFFFFFFFFFFFFFFFFFFFFFFFF000FFFFFFFFFFFFFFFFFFFFFFFFFFFF
310
FFFFFFFFFFFFFFFFFFFFFFFFFFFFFFFFFFFFFFFFFFFFFFFFFFFFFFFFFFFFFFFF
310
FFFFFFFFFFFFFFFFFFFFFFFFFFFFFFFFFFFFFFFFFFFFFFFFFFFFFFFFFFFFFFFF
310
FFFFFFFFFFFFFFFFF000FFFFFFFFFFFFFFFFFFFFFFFFFFFFFFFFFFFFFFFFFFFF
310
FFFFFFFFFFFFFFFFFFFFFFFFFFFFFFFFFFFFFFFFFFFFFFFFFFFFFFFFFFFFFFFF
310
FFFFFFFFFFFFFFFFFFFFFFFFFFFFFFFFFFFFFFFFFFFFFFFFFFFFFFFFFFFFFFFF
310
F000FFFFFFFFFFFFFFFFFFFFFFFFFFFFFFFFFFFFFFFFFFFFFFFFFFFFFFFFFFFF
310
FFFFFFFFFFFFFFFFFFFFFFFFFFFFFFFFFFFFFFFFFFFFFFFFFFFFFFFFFFFFFFFF
310
FFFFFFFFFFFFFFFFFFFFFFFFFFFFFFFFFFFFFFFFFFFFFFFFF000FFFFFFFFFFFF
310
FFFFFFFFFFFFFFFFFFFFFFFFFFFFFFFFFFFFFFFFFFFFFFFFFFFFFFFFFFFFFFFF
310
FFFFFFFFFFFFFFFFFFFFFFFFFFFFFFFFFFFFFFFFFFFFFFFFFFFFFFFFFFFFFFFF
310
FFFFFFFFFFFFFFFFFFFFFFFFFFFFFFFFF000FFFFFFFFFFFFFFFFFFFFFFFFFFFF
310
FFFFFFFFFFFFFFFFFFFFFFFFFFFFFFFFFFFFFFFFFFFFFFFFFFFFFFFFFFFFFFFF
310
FFFFFFFFFFFFFFFFFFFFFFFFFFFFFFFFFFFFFFFFFFFFFFFFFFFFFFFFFFFFFFFF
310
FFFFFFFFFFFFFFFFF000FFFFFFFFFFFFFFFFFFFFFFFFFFFFFFFFFFFFFFFFFFFF
310
FFFFFFFFFFFFFFFFFFFFFFFFFFFFFFFFFFFFFFFFFFFFFFFFFFFFFFFFFFFFFFFF
310
FFFFFFFFFFFFFFFFFFFFFFFFFFFFFFFFFFFFFFFFFFFFFFFFFFFFFFFFFFFFFFFF
310
F000FFFFFFFFFFFFFFFFFFFFFFFFFFFFFFFFFFFFFFFFFFFFFFFFFFFFFFFFFFFF
310
FFFFFFFFFFFFFFFFFFFFFFFFFFFFFFFFFFFFFFFFFFFFFFFFFFFFFFFFFFFFFFFF
310
FFFFFFFFFFFFFFFFFFFFFFFFFFFFFFFFFFFFFFFFFFFFFFFFF000FFFFFFFFFFFF
310
FFFFFFFFFFFFFFFFFFFFFFFFFFFFFFFFFFFFFFFFFFFFFFFFFFFFFFFFFFFFFFFF
310
FFFFFFFFFFFFFFFFFFFFFFFFFFFFFFFFFFFFFFFFFFFFFFFFFFFFFFFFFFFFFFFF
310
FFFFFFFFFFFFFFFFFFFFFFFFFFFFFFFFF0000000000000000000000000000000
310
0000000000000000000000000000000000000000000000000000000000000000
310
0000000000000000000000000000000000000000000000000000000000000000
310
0000000000000000000000000000000000000000000000000000000000000000
310
0000000000000000000000000000000000000000000000000000000000000000
310
0000000000000000000000000000000000000000000000000000000000000000
310
0000000000000000000000000000000000000000000000000000000000000000
310
0000000000000000000000000000000000000000000000000000000000000000
310
0000000000000000000000000000000000000000000000000000000000000000
310
0000000000000000000000000000000000000000000000000000000000000000
310
0000000000000000000000000000000000000000000000000000000000000000
310
0000000000000000000000000000000000000000000000000000000000000000
310
0000000000000000000000000000000000000000000000000000000000000000
310
0000000000000000000000000000000000000000000000000000000000000000
310
0000000000000000000000000000000000000000000000000000000000000000
310
0000000000000000000000000000000000000000000000000000000000000000
  1
OLE
  0
ENDSEC
  0
SECTION
  2
OBJECTS
  0
DICTIONARY
  5
C
330
0
100
AcDbDictionary
281
     1
  3
ACAD_GROUP
350
D
  3
ACAD_LAYOUT
350
1A
  3
ACAD_MLINESTYLE
350
17
  3
ACAD_PLOTSETTINGS
350
19
  3
ACAD_PLOTSTYLENAME
350
E
  3
ACAD_SCALELIST
350
47
  0
DICTIONARY
  5
D
102
{ACAD_REACTORS
330
C
102
}
330
C
100
AcDbDictionary
281
     1
  0
DICTIONARY
  5
1A
102
{ACAD_REACTORS
330
C
102
}
330
C
100
AcDbDictionary
281
     1
  3
Layout1
350
1E
  3
Layout2
350
26
  3
Model
350
22
  0
DICTIONARY
  5
17
102
{ACAD_REACTORS
330
C
102
}
330
C
100
AcDbDictionary
281
     1
  3
Standard
350
18
  0
DICTIONARY
  5
19
102
{ACAD_REACTORS
330
C
102
}
330
C
100
AcDbDictionary
281
     1
  0
ACDBDICTIONARYWDFLT
  5
E
102
{ACAD_REACTORS
330
C
102
}
330
C
100
AcDbDictionary
281
     1
  3
Normal
350
F
100
AcDbDictionaryWithDefault
340
F
  0
DICTIONARY
  5
47
102
{ACAD_REACTORS
330
C
102
}
330
C
100
AcDbDictionary
281
     1
  3
A0
350
48
  3
A1
350
49
  3
A2
350
4A
  3
A3
350
4B
  3
A4
350
4C
  3
A5
350
4D
  3
A6
350
4E
  3
A7
350
4F
  3
A8
350
50
  3
A9
350
51
  3
B0
350
52
  3
B1
350
53
  3
B2
350
54
  3
B3
350
55
  3
B4
350
56
  3
B5
350
57
  3
B6
350
58
  3
B7
350
59
  3
B8
350
5A
  3
B9
350
5B
  3
C0
350
5C
  3
C1
350
5D
  3
C2
350
5E
  3
C3
350
5F
  3
C4
350
60
  3
C5
350
61
  3
C6
350
62
  3
C7
350
63
  3
C8
350
64
  3
C9
350
65
  3
D0
350
66
  3
D1
350
67
  3
D2
350
68
  0
LAYOUT
  5
1E
102
{ACAD_REACTORS
330
1A
102
}
330
1A
100
AcDbPlotSettings
  1

  2
none_device
  4

  6

 40
0.0
 41
0.0
 42
0.0
 43
0.0
 44
0.0
 45
0.0
 46
0.0
 47
0.0
 48
0.0
 49
0.0
140
0.0
141
0.0
142
1.0
143
1.0
 70
   688
 72
     1
 73
     0
 74
     5
  7

 75
    16
147
1.0
148
0.0
149
0.0
100
AcDbLayout
  1
Layout1
 70
     1
 71
     1
 10
0.0
 20
0.0
 11
420.0
 21
297.0
 12
0.0
 22
0.0
 32
0.0
 14
1.0000000000E+20
 24
1.0000000000E+20
 34
1.0000000000E+20
 15
-1.0000000000E+20
 25
-1.0000000000E+20
 35
-1.0000000000E+20
146
0.0
 13
0.0
 23
0.0
 33
0.0
 16
1.0
 26
0.0
 36
0.0
 17
0.0
 27
1.0
 37
0.0
 76
     0
330
1B
  0
LAYOUT
  5
26
102
{ACAD_REACTORS
330
1A
102
}
330
1A
100
AcDbPlotSettings
  1

  2
none_device
  4

  6

 40
0.0
 41
0.0
 42
0.0
 43
0.0
 44
0.0
 45
0.0
 46
0.0
 47
0.0
 48
0.0
 49
0.0
140
0.0
141
0.0
142
1.0
143
1.0
 70
   688
 72
     1
 73
     0
 74
     5
  7

 75
    16
147
1.0
148
0.0
149
0.0
100
AcDbLayout
  1
Layout2
 70
     1
 71
     2
 10
0.0
 20
0.0
 11
0.0
 21
0.0
 12
0.0
 22
0.0
 32
0.0
 14
0.0
 24
0.0
 34
0.0
 15
0.0
 25
0.0
 35
0.0
146
0.0
 13
0.0
 23
0.0
 33
0.0
 16
1.0
 26
0.0
 36
0.0
 17
0.0
 27
1.0
 37
0.0
 76
     0
330
23
  0
LAYOUT
  5
22
102
{ACAD_REACTORS
330
1A
102
}
330
1A
100
AcDbPlotSettings
  1

  2
none_device
  4
Letter_(8.50_x_11.00_Inches)
  6

 40
6.35
 41
6.35
 42
6.35000508
 43
6.35000508
 44
215.9
 45
279.4
 46
0.0
 47
0.0
 48
0.0
 49
0.0
140
0.0
141
0.0
142
1.0
143
1.0
 70
  1712
 72
     1
 73
     0
 74
     0
  7

 75
     0
147
1.0
148
0.0
149
0.0
100
AcDbLayout
  1
Model
 70
     1
 71
     0
 10
0.0
 20
0.0
 11
297.0
 21
210.0
 12
0.0
 22
0.0
 32
0.0
 14
0.0
 24
0.0
 34
0.0
 15
297.0
 25
210.0
 35
0.0
146
0.0
 13
0.0
 23
0.0
 33
0.0
 16
1.0
 26
0.0
 36
0.0
 17
0.0
 27
1.0
 37
0.0
 76
     0
330
1F
331
29
  0
MLINESTYLE
  5
18
102
{ACAD_REACTORS
330
17
102
}
330
17
100
AcDbMlineStyle
  2
Standard
 70
     0
  3

 62
   256
 51
90.0
 52
90.0
 71
     2
 49
0.5
 62
   256
  6
BYLAYER
 49
-0.5
 62
   256
  6
BYLAYER
  0
ACDBPLACEHOLDER
  5
F
102
{ACAD_REACTORS
330
E
102
}
330
E
  0
SCALE
  5
48
102
{ACAD_REACTORS
330
47
102
}
330
47
100
AcDbScale
 70
     0
300
1:1
140
1.0
141
1.0
290
     1
  0
SCALE
  5
49
102
{ACAD_REACTORS
330
47
102
}
330
47
100
AcDbScale
 70
     0
300
1:2
140
1.0
141
2.0
290
     0
  0
SCALE
  5
4A
102
{ACAD_REACTORS
330
47
102
}
330
47
100
AcDbScale
 70
     0
300
1:4
140
1.0
141
4.0
290
     0
  0
SCALE
  5
4B
102
{ACAD_REACTORS
330
47
102
}
330
47
100
AcDbScale
 70
     0
300
1:5
140
1.0
141
5.0
290
     0
  0
SCALE
  5
4C
102
{ACAD_REACTORS
330
47
102
}
330
47
100
AcDbScale
 70
     0
300
1:8
140
1.0
141
8.0
290
     0
  0
SCALE
  5
4D
102
{ACAD_REACTORS
330
47
102
}
330
47
100
AcDbScale
 70
     0
300
1:10
140
1.0
141
10.0
290
     0
  0
SCALE
  5
4E
102
{ACAD_REACTORS
330
47
102
}
330
47
100
AcDbScale
 70
     0
300
1:16
140
1.0
141
16.0
290
     0
  0
SCALE
  5
4F
102
{ACAD_REACTORS
330
47
102
}
330
47
100
AcDbScale
 70
     0
300
1:20
140
1.0
141
20.0
290
     0
  0
SCALE
  5
50
102
{ACAD_REACTORS
330
47
102
}
330
47
100
AcDbScale
 70
     0
300
1:30
140
1.0
141
30.0
290
     0
  0
SCALE
  5
51
102
{ACAD_REACTORS
330
47
102
}
330
47
100
AcDbScale
 70
     0
300
1:40
140
1.0
141
40.0
290
     0
  0
SCALE
  5
52
102
{ACAD_REACTORS
330
47
102
}
330
47
100
AcDbScale
 70
     0
300
1:50
140
1.0
141
50.0
290
     0
  0
SCALE
  5
53
102
{ACAD_REACTORS
330
47
102
}
330
47
100
AcDbScale
 70
     0
300
1:100
140
1.0
141
100.0
290
     0
  0
SCALE
  5
54
102
{ACAD_REACTORS
330
47
102
}
330
47
100
AcDbScale
 70
     0
300
2:1
140
2.0
141
1.0
290
     0
  0
SCALE
  5
55
102
{ACAD_REACTORS
330
47
102
}
330
47
100
AcDbScale
 70
     0
300
4:1
140
4.0
141
1.0
290
     0
  0
SCALE
  5
56
102
{ACAD_REACTORS
330
47
102
}
330
47
100
AcDbScale
 70
     0
300
8:1
140
8.0
141
1.0
290
     0
  0
SCALE
  5
57
102
{ACAD_REACTORS
330
47
102
}
330
47
100
AcDbScale
 70
     0
300
10:1
140
10.0
141
1.0
290
     0
  0
SCALE
  5
58
102
{ACAD_REACTORS
330
47
102
}
330
47
100
AcDbScale
 70
     0
300
100:1
140
100.0
141
1.0
290
     0
  0
SCALE
  5
59
102
{ACAD_REACTORS
330
47
102
}
330
47
100
AcDbScale
 70
     0
300
1/128" = 1'-0"
140
0.0078125
141
12.0
290
     0
  0
SCALE
  5
5A
102
{ACAD_REACTORS
330
47
102
}
330
47
100
AcDbScale
 70
     0
300
1/64" = 1'-0"
140
0.015625
141
12.0
290
     0
  0
SCALE
  5
5B
102
{ACAD_REACTORS
330
47
102
}
330
47
100
AcDbScale
 70
     0
300
1/32" = 1'-0"
140
0.03125
141
12.0
290
     0
  0
SCALE
  5
5C
102
{ACAD_REACTORS
330
47
102
}
330
47
100
AcDbScale
 70
     0
300
1/16" = 1'-0"
140
0.0625
141
12.0
290
     0
  0
SCALE
  5
5D
102
{ACAD_REACTORS
330
47
102
}
330
47
100
AcDbScale
 70
     0
300
3/32" = 1'-0"
140
0.09375
141
12.0
290
     0
  0
SCALE
  5
5E
102
{ACAD_REACTORS
330
47
102
}
330
47
100
AcDbScale
 70
     0
300
1/8" = 1'-0"
140
0.125
141
12.0
290
     0
  0
SCALE
  5
5F
102
{ACAD_REACTORS
330
47
102
}
330
47
100
AcDbScale
 70
     0
300
3/16" = 1'-0"
140
0.1875
141
12.0
290
     0
  0
SCALE
  5
60
102
{ACAD_REACTORS
330
47
102
}
330
47
100
AcDbScale
 70
     0
300
1/4" = 1'-0"
140
0.25
141
12.0
290
     0
  0
SCALE
  5
61
102
{ACAD_REACTORS
330
47
102
}
330
47
100
AcDbScale
 70
     0
300
3/8" = 1'-0"
140
0.375
141
12.0
290
     0
  0
SCALE
  5
62
102
{ACAD_REACTORS
330
47
102
}
330
47
100
AcDbScale
 70
     0
300
1/2" = 1'-0"
140
0.5
141
12.0
290
     0
  0
SCALE
  5
63
102
{ACAD_REACTORS
330
47
102
}
330
47
100
AcDbScale
 70
     0
300
3/4" = 1'-0"
140
0.75
141
12.0
290
     0
  0
SCALE
  5
64
102
{ACAD_REACTORS
330
47
102
}
330
47
100
AcDbScale
 70
     0
300
1" = 1'-0"
140
1.0
141
12.0
290
     0
  0
SCALE
  5
65
102
{ACAD_REACTORS
330
47
102
}
330
47
100
AcDbScale
 70
     0
300
1-1/2" = 1'-0"
140
1.5
141
12.0
290
     0
  0
SCALE
  5
66
102
{ACAD_REACTORS
330
47
102
}
330
47
100
AcDbScale
 70
     0
300
3" = 1'-0"
140
3.0
141
12.0
290
     0
  0
SCALE
  5
67
102
{ACAD_REACTORS
330
47
102
}
330
47
100
AcDbScale
 70
     0
300
6" = 1'-0"
140
6.0
141
12.0
290
     0
  0
SCALE
  5
68
102
{ACAD_REACTORS
330
47
102
}
330
47
100
AcDbScale
 70
     0
300
1'-0" = 1'-0"
140
12.0
141
12.0
290
     0
  0
ENDSEC
  0
EOF
