  0
SECTION
  2
HEADER
  9
$ACADVER
  1
AC1015
  9
$ACADMAINTVER
 70
     6
  9
$DWGCODEPAGE
  3
ANSI_1252
  9
$INSBASE
 10
0.0
 20
0.0
 30
0.0
  9
$EXTMIN
 10
0.0
 20
0.0
 30
0.0
  9
$EXTMAX
 10
297.0
 20
210.0
 30
0.0
  9
$LIMMIN
 10
0.0
 20
0.0
  9
$LIMMAX
 10
297.0
 20
210.0
  9
$ORTHOMODE
 70
     0
  9
$REGENMODE
 70
     1
  9
$FILLMODE
 70
     1
  9
$QTEXTMODE
 70
     0
  9
$MIRRTEXT
 70
     1
  9
$LTSCALE
 40
1.0
  9
$ATTMODE
 70
     1
  9
$TEXTSIZE
 40
2.0
  9
$TRACEWID
 40
1.0
  9
$TEXTSTYLE
  7
Standard
  9
$CLAYER
  8
0
  9
$CELTYPE
  6
ByLayer
  9
$CECOLOR
 62
   256
  9
$CELTSCALE
 40
1.0
  9
$DISPSILH
 70
     0
  9
$DIMSCALE
 40
1.0
  9
$DIMASZ
 40
3.0
  9
$DIMEXO
 40
0.0
  9
$DIMDLI
 40
3.75
  9
$DIMRND
 40
0.0
  9
$DIMDLE
 40
0.0
  9
$DIMEXE
 40
1.0
  9
$DIMTP
 40
0.0
  9
$DIMTM
 40
0.0
  9
$DIMTXT
 40
2.0
  9
$DIMCEN
 40
2.5
  9
$DIMTSZ
 40
0.0
  9
$DIMTOL
 70
     0
  9
$DIMLIM
 70
     0
  9
$DIMTIH
 70
     1
  9
$DIMTOH
 70
     1
  9
$DIMSE1
 70
     0
  9
$DIMSE2
 70
     0
  9
$DIMTAD
 70
     1
  9
$DIMZIN
 70
     0
  9
$DIMBLK
  1

  9
$DIMASO
 70
     1
  9
$DIMSHO
 70
     1
  9
$DIMPOST
  1

  9
$DIMAPOST
  1

  9
$DIMALT
 70
     0
  9
$DIMALTD
 70
     3
  9
$DIMALTF
 40
0.0393700787
  9
$DIMLFAC
 40
1.0
  9
$DIMTOFL
 70
     1
  9
$DIMTVP
 40
0.0
  9
$DIMTIX
 70
     0
  9
$DIMSOXD
 70
     0
  9
$DIMSAH
 70
     0
  9
$DIMBLK1
  1

  9
$DIMBLK2
  1

  9
$DIMSTYLE
  2
ISO-25
  9
$DIMCLRD
 70
     0
  9
$DIMCLRE
 70
     0
  9
$DIMCLRT
 70
     0
  9
$DIMTFAC
 40
1.0
  9
$DIMGAP
 40
1.524
  9
$DIMJUST
 70
     0
  9
$DIMSD1
 70
     0
  9
$DIMSD2
 70
     0
  9
$DIMTOLJ
 70
     0
  9
$DIMTZIN
 70
     0
  9
$DIMALTZ
 70
     0
  9
$DIMALTTZ
 70
     0
  9
$DIMUPT
 70
     0
  9
$DIMDEC
 70
     2
  9
$DIMTDEC
 70
     3
  9
$DIMALTU
 70
     2
  9
$DIMALTTD
 70
     3
  9
$DIMTXSTY
  7
Standard
  9
$DIMAUNIT
 70
     0
  9
$DIMADEC
 70
     2
  9
$DIMALTRND
 40
0.0
  9
$DIMAZIN
 70
     0
  9
$DIMDSEP
 70
    44
  9
$DIMATFIT
 70
     3
  9
$DIMFRAC
 70
     0
  9
$DIMLDRBLK
  1

  9
$DIMLUNIT
 70
     2
  9
$DIMLWD
 70
    -2
  9
$DIMLWE
 70
    -2
  9
$DIMTMOVE
 70
     0
  9
$LUNITS
 70
     2
  9
$LUPREC
 70
     2
  9
$SKETCHINC
 40
1.0
  9
$FILLETRAD
 40
10.0
  9
$AUNITS
 70
     0
  9
$AUPREC
 70
     2
  9
$MENU
  1
.
  9
$ELEVATION
 40
0.0
  9
$PELEVATION
 40
0.0
  9
$THICKNESS
 40
0.0
  9
$LIMCHECK
 70
     0
  9
$CHAMFERA
 40
10.0
  9
$CHAMFERB
 40
10.0
  9
$CHAMFERC
 40
20.0
  9
$CHAMFERD
 40
0.0
  9
$SKPOLY
 70
     0
  9
$TDCREATE
 40
2455989.459213507
  9
$TDUCREATE
 40
2455989.41754684
  9
$TDUPDATE
 40
2455989.459213519
  9
$TDUUPDATE
 40
2455989.417546852
  9
$TDINDWG
 40
0.0000000116
  9
$TDUSRTIMER
 40
0.0000000116
  9
$USRTIMER
 70
     1
  9
$ANGBASE
 50
0.0
  9
$ANGDIR
 70
     0
  9
$PDMODE
 70
     0
  9
$PDSIZE
 40
-1.0
  9
$PLINEWID
 40
0.0
  9
$SPLFRAME
 70
     0
  9
$SPLINETYPE
 70
     6
  9
$SPLINESEGS
 70
     8
  9
$HANDSEED
  5
27D
  9
$SURFTAB1
 70
     6
  9
$SURFTAB2
 70
     6
  9
$SURFTYPE
 70
     6
  9
$SURFU
 70
     6
  9
$SURFV
 70
     6
  9
$UCSBASE
  2

  9
$UCSNAME
  2

  9
$UCSORG
 10
0.0
 20
0.0
 30
0.0
  9
$UCSXDIR
 10
1.0
 20
0.0
 30
0.0
  9
$UCSYDIR
 10
0.0
 20
1.0
 30
0.0
  9
$UCSORTHOREF
  2

  9
$UCSORTHOVIEW
 70
     0
  9
$UCSORGTOP
 10
0.0
 20
0.0
 30
0.0
  9
$UCSORGBOTTOM
 10
0.0
 20
0.0
 30
0.0
  9
$UCSORGLEFT
 10
0.0
 20
0.0
 30
0.0
  9
$UCSORGRIGHT
 10
0.0
 20
0.0
 30
0.0
  9
$UCSORGFRONT
 10
0.0
 20
0.0
 30
0.0
  9
$UCSORGBACK
 10
0.0
 20
0.0
 30
0.0
  9
$PUCSBASE
  2

  9
$PUCSNAME
  2

  9
$PUCSORG
 10
0.0
 20
0.0
 30
0.0
  9
$PUCSXDIR
 10
1.0
 20
0.0
 30
0.0
  9
$PUCSYDIR
 10
0.0
 20
1.0
 30
0.0
  9
$PUCSORTHOREF
  2

  9
$PUCSORTHOVIEW
 70
     0
  9
$PUCSORGTOP
 10
0.0
 20
0.0
 30
0.0
  9
$PUCSORGBOTTOM
 10
0.0
 20
0.0
 30
0.0
  9
$PUCSORGLEFT
 10
0.0
 20
0.0
 30
0.0
  9
$PUCSORGRIGHT
 10
0.0
 20
0.0
 30
0.0
  9
$PUCSORGFRONT
 10
0.0
 20
0.0
 30
0.0
  9
$PUCSORGBACK
 10
0.0
 20
0.0
 30
0.0
  9
$USERI1
 70
     0
  9
$USERI2
 70
     0
  9
$USERI3
 70
     0
  9
$USERI4
 70
     0
  9
$USERI5
 70
     0
  9
$USERR1
 40
0.0
  9
$USERR2
 40
0.0
  9
$USERR3
 40
0.0
  9
$USERR4
 40
0.0
  9
$USERR5
 40
0.0
  9
$WORLDVIEW
 70
     1
  9
$SHADEDGE
 70
     3
  9
$SHADEDIF
 70
    70
  9
$TILEMODE
 70
     1
  9
$MAXACTVP
 70
    64
  9
$PINSBASE
 10
0.0
 20
0.0
 30
0.0
  9
$PLIMCHECK
 70
     0
  9
$PEXTMIN
 10
1.0000000000E+20
 20
1.0000000000E+20
 30
1.0000000000E+20
  9
$PEXTMAX
 10
-1.0000000000E+20
 20
-1.0000000000E+20
 30
-1.0000000000E+20
  9
$PLIMMIN
 10
0.0
 20
0.0
  9
$PLIMMAX
 10
420.0
 20
297.0
  9
$UNITMODE
 70
     0
  9
$VISRETAIN
 70
     1
  9
$PLINEGEN
 70
     0
  9
$PSLTSCALE
 70
     1
  9
$TREEDEPTH
 70
  3020
  9
$CMLSTYLE
  2
Standard
  9
$CMLJUST
 70
     0
  9
$CMLSCALE
 40
20.0
  9
$PROXYGRAPHICS
 70
     1
  9
$MEASUREMENT
 70
     1
  9
$CELWEIGHT
370
    -1
  9
$ENDCAPS
280
     0
  9
$JOINSTYLE
280
     0
  9
$LWDISPLAY
290
     1
  9
$INSUNITS
 70
     4
  9
$HYPERLINKBASE
  1

  9
$STYLESHEET
  1

  9
$XEDIT
290
     1
  9
$CEPSNTYPE
380
     0
  9
$PSTYLEMODE
290
     1
  9
$FINGERPRINTGUID
  2
{2E20B177-BE8F-4ADC-B72E-733F3CD69D3B}
  9
$VERSIONGUID
  2
{FAEB1C32-E019-11D5-929B-00C0DF256EC4}
  9
$EXTNAMES
290
     1
  9
$PSVPSCALE
 40
0.0
  9
$OLESTARTUP
290
     0
  0
ENDSEC
  0
SECTION
  2
CLASSES
  0
CLASS
  1
ACDBDICTIONARYWDFLT
  2
AcDbDictionaryWithDefault
  3
ObjectDBX Classes
 90
        0
280
     0
281
     0
  0
CLASS
  1
VISUALSTYLE
  2
AcDbVisualStyle
  3
ObjectDBX Classes
 90
     4095
280
     0
281
     0
  0
CLASS
  1
MATERIAL
  2
AcDbMaterial
  3
ObjectDBX Classes
 90
     1153
280
     0
281
     0
  0
CLASS
  1
ACDBPLACEHOLDER
  2
AcDbPlaceHolder
  3
ObjectDBX Classes
 90
        0
280
     0
281
     0
  0
CLASS
  1
LAYOUT
  2
AcDbLayout
  3
ObjectDBX Classes
 90
        0
280
     0
281
     0
  0
ENDSEC
  0
SECTION
  2
TABLES
  0
TABLE
  2
VPORT
  5
8
330
0
100
AcDbSymbolTable
 70
     1
  0
VPORT
  5
29
330
8
100
AcDbSymbolTableRecord
100
AcDbViewportTableRecord
  2
*Active
 70
     0
 10
0.0
 20
0.0
 11
1.0
 21
1.0
 12
148.5
 22
105.0
 13
0.0
 23
0.0
 14
10.0
 24
10.0
 15
10.0
 25
10.0
 16
0.0
 26
0.0
 36
1.0
 17
0.0
 27
0.0
 37
0.0
 40
210.0
 41
1.4142857143
 42
50.0
 43
0.0
 44
0.0
 50
0.0
 51
0.0
 71
     0
 72
  2000
 73
     1
 74
     3
 75
     0
 76
     0
 77
     0
 78
     0
281
     0
 65
     1
110
0.0
120
0.0
130
0.0
111
1.0
121
0.0
131
0.0
112
0.0
122
1.0
132
0.0
 79
     0
146
0.0
  0
ENDTAB
  0
TABLE
  2
LTYPE
  5
5
330
0
100
AcDbSymbolTable
 70
     6
  0
LTYPE
  5
14
330
5
100
AcDbSymbolTableRecord
100
AcDbLinetypeTableRecord
  2
ByBlock
 70
     0
  3

 72
    65
 73
     0
 40
0.0
  0
LTYPE
  5
15
330
5
100
AcDbSymbolTableRecord
100
AcDbLinetypeTableRecord
  2
ByLayer
 70
     0
  3

 72
    65
 73
     0
 40
0.0
  0
LTYPE
  5
16
330
5
100
AcDbSymbolTableRecord
100
AcDbLinetypeTableRecord
  2
Continuous
 70
     0
  3
Solid line
 72
    65
 73
     0
 40
0.0
  0
LTYPE
  5
3F
330
5
100
AcDbSymbolTableRecord
100
AcDbLinetypeTableRecord
  2
HIDDEN
 70
     0
  3
Hidden __ __ __ __ __ __ __ __ __ __ __ __ __ __
 72
    65
 73
     2
 40
1.905
 49
1.27
 74
     0
 49
-0.635
 74
     0
  0
LTYPE
  5
40
330
5
100
AcDbSymbolTableRecord
100
AcDbLinetypeTableRecord
  2
PHANTOM
 70
     0
  3
Phantom ______  __  __  ______  __  __  ______
 72
    65
 73
     6
 40
12.7
 49
6.35
 74
     0
 49
-1.27
 74
     0
 49
1.27
 74
     0
 49
-1.27
 74
     0
 49
1.27
 74
     0
 49
-1.27
 74
     0
  0
LTYPE
  5
41
330
5
100
AcDbSymbolTableRecord
100
AcDbLinetypeTableRecord
  2
CENTER
 70
     0
  3
Center ____ _ ____ _ ____ _ ____ _ ____ _ ____
 72
    65
 73
     4
 40
10.16
 49
6.35
 74
     0
 49
-1.27
 74
     0
 49
1.27
 74
     0
 49
-1.27
 74
     0
  0
LTYPE
  5
42
330
5
100
AcDbSymbolTableRecord
100
AcDbLinetypeTableRecord
  2
CENTERX2
 70
     0
  3
Center (2x) ________  __  ________  __  _____
 72
    65
 73
     4
 40
20.32
 49
12.7
 74
     0
 49
-2.54
 74
     0
 49
2.54
 74
     0
 49
-2.54
 74
     0
  0
LTYPE
  5
43
330
5
100
AcDbSymbolTableRecord
100
AcDbLinetypeTableRecord
  2
DOT2
 70
     0
  3
Dot (.5x) ........................................
 72
    65
 73
     2
 40
0.635
 49
0.0
 74
     0
 49
-0.635
 74
     0
  0
ENDTAB
  0
TABLE
  2
LAYER
  5
2
330
0
100
AcDbSymbolTable
 70
     5
  0
LAYER
  5
10
330
2
100
AcDbSymbolTableRecord
100
AcDbLayerTableRecord
  2
0
 70
     0
 62
     7
  6
Continuous
370
    -3
390
F
  0
LAYER
  5
44
330
2
100
AcDbSymbolTableRecord
100
AcDbLayerTableRecord
  2
FORMAT
 70
     0
 62
     7
  6
Continuous
370
    -3
390
F
  0
LAYER
  5
45
330
2
100
AcDbSymbolTableRecord
100
AcDbLayerTableRecord
  2
VERMASSUNG
 70
     0
 62
     7
  6
Continuous
370
    -3
390
F
  0
LAYER
  5
46
330
2
100
AcDbSymbolTableRecord
100
AcDbLayerTableRecord
  2
KOPF_DÜNN
 70
     0
 62
     7
  6
Continuous
370
    -3
390
F
  0
LAYER
  5
47
330
2
100
AcDbSymbolTableRecord
100
AcDbLayerTableRecord
  2
KOPF_DICK
 70
     0
 62
     7
  6
Continuous
370
    15
390
F
  0
ENDTAB
  0
TABLE
  2
STYLE
  5
3
330
0
100
AcDbSymbolTable
 70
     2
  0
STYLE
  5
11
330
3
100
AcDbSymbolTableRecord
100
AcDbTextStyleTableRecord
  2
Standard
 70
     0
 40
0.0
 41
1.0
 50
0.0
 71
     0
 42
2.5
  3
txt
  4

  0
STYLE
  5
48
330
3
100
AcDbSymbolTableRecord
100
AcDbTextStyleTableRecord
  2
SLDTEXTSTYLE0
 70
     0
 40
0.0
 41
0.7
 50
0.0
 71
     0
 42
0.2
  3
TXT
  4

  0
ENDTAB
  0
TABLE
  2
VIEW
  5
6
330
0
100
AcDbSymbolTable
 70
     0
  0
ENDTAB
  0
TABLE
  2
UCS
  5
7
330
0
100
AcDbSymbolTable
 70
     0
  0
ENDTAB
  0
TABLE
  2
APPID
  5
9
330
0
100
AcDbSymbolTable
 70
     1
  0
APPID
  5
12
330
9
100
AcDbSymbolTableRecord
100
AcDbRegAppTableRecord
  2
ACAD
 70
     0
  0
ENDTAB
  0
TABLE
  2
DIMSTYLE
  5
A
330
0
100
AcDbSymbolTable
 70
     2
100
AcDbDimStyleTable
  0
DIMSTYLE
105
27
330
A
100
AcDbSymbolTableRecord
100
AcDbDimStyleTableRecord
  2
ISO-25
 70
     0
 41
2.5
 42
0.625
 43
3.75
 44
1.25
 73
     0
 74
     0
 77
     1
 78
     8
140
2.5
141
2.5
143
0.0393700787
147
0.625
171
     3
172
     1
178
     0
271
     2
272
     2
274
     3
278
    44
283
     0
284
     8
340
11
  0
DIMSTYLE
105
25C
102
{ACAD_REACTORS
330
25B
330
267
330
271
102
}
330
A
100
AcDbSymbolTableRecord
100
AcDbDimStyleTableRecord
  2
SLDDIMSTYLE0
 70
     0
 41
3.0
 44
0.0
 45
0.000000001
 73
     0
 74
     0
 77
     1
 78
    12
 79
     3
140
2.0
147
0.5
173
     1
178
     0
271
     2
272
     3
276
     2
284
    12
340
48
  0
ENDTAB
  0
TABLE
  2
BLOCK_RECORD
  5
1
330
0
100
AcDbSymbolTable
 70
     4
  0
BLOCK_RECORD
  5
1F
330
1
100
AcDbSymbolTableRecord
100
AcDbBlockTableRecord
  2
*Model_Space
340
22
  0
BLOCK_RECORD
  5
1B
330
1
100
AcDbSymbolTableRecord
100
AcDbBlockTableRecord
  2
*Paper_Space
340
1E
  0
BLOCK_RECORD
  5
23
330
1
100
AcDbSymbolTableRecord
100
AcDbBlockTableRecord
  2
*Paper_Space0
340
26
  0
BLOCK_RECORD
  5
25D
330
1
100
AcDbSymbolTableRecord
100
AcDbBlockTableRecord
  2
*D1
340
0
  0
BLOCK_RECORD
  5
268
330
1
100
AcDbSymbolTableRecord
100
AcDbBlockTableRecord
  2
*D2
340
0
  0
BLOCK_RECORD
  5
272
330
1
100
AcDbSymbolTableRecord
100
AcDbBlockTableRecord
  2
*D3
340
0
  0
ENDTAB
  0
ENDSEC
  0
SECTION
  2
BLOCKS
  0
BLOCK
  5
20
330
1F
100
AcDbEntity
  8
0
100
AcDbBlockBegin
  2
*Model_Space
 70
     0
 10
0.0
 20
0.0
 30
0.0
  3
*Model_Space
  1

  0
ENDBLK
  5
21
330
1F
100
AcDbEntity
  8
0
100
AcDbBlockEnd
  0
BLOCK
  5
1C
330
1B
100
AcDbEntity
 67
     1
  8
0
100
AcDbBlockBegin
  2
*Paper_Space
 70
     0
 10
0.0
 20
0.0
 30
0.0
  3
*Paper_Space
  1

  0
ENDBLK
  5
1D
330
1B
100
AcDbEntity
 67
     1
  8
0
100
AcDbBlockEnd
  0
BLOCK
  5
24
330
23
100
AcDbEntity
  8
0
100
AcDbBlockBegin
  2
*Paper_Space0
 70
     0
 10
0.0
 20
0.0
 30
0.0
  3
*Paper_Space0
  1

  0
ENDBLK
  5
25
330
23
100
AcDbEntity
  8
0
100
AcDbBlockEnd
  0
BLOCK
  5
25E
330
25D
100
AcDbEntity
  8
0
100
AcDbBlockBegin
  2
*D1
 70
     1
 10
0.0
 20
0.0
 30
0.0
  3
*D1
  1

  0
SOLID
  5
260
330
25D
100
AcDbEntity
  8
VERMASSUNG
100
AcDbTrace
 10
70.9327016129
 20
119.4120080645
 30
0.0
 11
70.4827016129
 21
116.4120080645
 31
0.0
 12
71.3827016129
 22
116.4120080645
 32
0.0
 13
71.3827016129
 23
116.4120080645
 33
0.0
  0
SOLID
  5
261
330
25D
100
AcDbEntity
  8
VERMASSUNG
100
AcDbTrace
 10
70.9327016129
 20
87.4120080645
 30
0.0
 11
71.3827016129
 21
90.4120080645
 31
0.0
 12
70.4827016129
 22
90.4120080645
 32
0.0
 13
70.4827016129
 23
90.4120080645
 33
0.0
  0
LINE
  5
262
330
25D
100
AcDbEntity
  8
VERMASSUNG
100
AcDbLine
 10
96.5186854839
 20
119.4120080645
 30
0.0
 11
69.9327016129
 21
119.4120080645
 31
0.0
  0
LINE
  5
263
330
25D
100
AcDbEntity
  8
VERMASSUNG
100
AcDbLine
 10
96.5186854839
 20
87.4120080645
 30
0.0
 11
69.9327016129
 21
87.4120080645
 31
0.0
  0
LINE
  5
264
330
25D
100
AcDbEntity
  8
VERMASSUNG
100
AcDbLine
 10
70.9327016129
 20
119.4120080645
 30
0.0
 11
70.9327016129
 21
87.4120080645
 31
0.0
  0
MTEXT
  5
265
330
25D
100
AcDbEntity
  8
VERMASSUNG
100
AcDbMText
 10
68.3545661334
 20
100.2074083657
 30
0.0
 40
2.0
 41
0.0
 71
     1
 72
     1
  1
%%c
  7
SLDTEXTSTYLE0
 11
-7.044195017643634E-15
 21
1.0
 31
0.0
 73
     1
 44
1.0
  0
MTEXT
  5
266
330
25D
100
AcDbEntity
  8
VERMASSUNG
100
AcDbMText
 10
68.3545662498
 20
103.8168394314
 30
0.0
 40
2.0
 41
0.0
 71
     1
 72
     1
  1
32
  7
SLDTEXTSTYLE0
 11
-7.044195017643634E-15
 21
1.0
 31
0.0
 73
     1
 44
1.0
  0
ENDBLK
  5
25F
330
25D
100
AcDbEntity
  8
0
100
AcDbBlockEnd
  0
BLOCK
  5
269
330
268
100
AcDbEntity
  8
0
100
AcDbBlockBegin
  2
*D2
 70
     1
 10
0.0
 20
0.0
 30
0.0
  3
*D2
  1

  0
SOLID
  5
26B
330
268
100
AcDbEntity
  8
VERMASSUNG
100
AcDbTrace
 10
96.5186854839
 20
129.4120080645
 30
0.0
 11
99.5186854839
 21
128.9620080645
 31
0.0
 12
99.5186854839
 22
129.8620080645
 32
0.0
 13
99.5186854839
 23
129.8620080645
 33
0.0
  0
SOLID
  5
26C
330
268
100
AcDbEntity
  8
VERMASSUNG
100
AcDbTrace
 10
220.5186854839
 20
129.4120080645
 30
0.0
 11
217.5186854839
 21
129.8620080645
 31
0.0
 12
217.5186854839
 22
128.9620080645
 32
0.0
 13
217.5186854839
 23
128.9620080645
 33
0.0
  0
LINE
  5
26D
330
268
100
AcDbEntity
  8
VERMASSUNG
100
AcDbLine
 10
96.5186854839
 20
119.4120080645
 30
0.0
 11
96.5186854839
 21
130.4120080645
 31
0.0
  0
LINE
  5
26E
330
268
100
AcDbEntity
  8
VERMASSUNG
100
AcDbLine
 10
220.5186854839
 20
112.0286098001
 30
0.0
 11
220.5186854839
 21
130.4120080645
 31
0.0
  0
LINE
  5
26F
330
268
100
AcDbEntity
  8
VERMASSUNG
100
AcDbLine
 10
96.5186854839
 20
129.4120080645
 30
0.0
 11
220.5186854839
 21
129.4120080645
 31
0.0
  0
MTEXT
  5
270
330
268
100
AcDbEntity
  8
VERMASSUNG
100
AcDbMText
 10
155.6186852879
 20
131.9901434276
 30
0.1
 40
2.0
 41
0.0
 71
     1
 72
     1
  1
124
  7
SLDTEXTSTYLE0
 73
     1
 44
1.0
  0
ENDBLK
  5
26A
330
268
100
AcDbEntity
  8
0
100
AcDbBlockEnd
  0
BLOCK
  5
273
330
272
100
AcDbEntity
  8
0
100
AcDbBlockBegin
  2
*D3
 70
     1
 10
0.0
 20
0.0
 30
0.0
  3
*D3
  1

  0
SOLID
  5
275
330
272
100
AcDbEntity
  8
VERMASSUNG
100
AcDbTrace
 10
220.5186854839
 20
135.4120080645
 30
0.0
 11
217.5186854839
 21
135.8620080645
 31
0.0
 12
217.5186854839
 22
134.9620080645
 32
0.0
 13
217.5186854839
 23
134.9620080645
 33
0.0
  0
SOLID
  5
276
330
272
100
AcDbEntity
  8
VERMASSUNG
100
AcDbTrace
 10
77.5186854839
 20
135.4120080645
 30
0.0
 11
80.5186854839
 21
134.9620080645
 31
0.0
 12
80.5186854839
 22
135.8620080645
 32
0.0
 13
80.5186854839
 23
135.8620080645
 33
0.0
  0
LINE
  5
277
330
272
100
AcDbEntity
  8
VERMASSUNG
100
AcDbLine
 10
220.5186854839
 20
112.0286098001
 30
0.0
 11
220.5186854839
 21
136.4120080645
 31
0.0
  0
LINE
  5
278
330
272
100
AcDbEntity
  8
VERMASSUNG
100
AcDbLine
 10
77.5186854839
 20
110.9120080645
 30
0.0
 11
77.5186854839
 21
136.4120080645
 31
0.0
  0
LINE
  5
279
330
272
100
AcDbEntity
  8
VERMASSUNG
100
AcDbLine
 10
220.5186854839
 20
135.4120080645
 30
0.0
 11
77.5186854839
 21
135.4120080645
 31
0.0
  0
MTEXT
  5
27A
330
272
100
AcDbEntity
  8
VERMASSUNG
100
AcDbMText
 10
146.1186852879
 20
137.9901434276
 30
0.1
 40
2.0
 41
0.0
 71
     1
 72
     1
  1
143
  7
SLDTEXTSTYLE0
 73
     1
 44
1.0
  0
ENDBLK
  5
274
330
272
100
AcDbEntity
  8
0
100
AcDbBlockEnd
  0
ENDSEC
  0
SECTION
  2
ENTITIES
  0
MTEXT
  5
49
330
1F
100
AcDbEntity
  8
KOPF_DÜNN
100
AcDbMText
 10
13.8892156294
 20
23.8442973028
 30
0.0
 40
3.0
 41
0.0
 71
     1
 72
     1
  1
C00.032.040.128
  7
SLDTEXTSTYLE0
 73
     1
 44
1.0
  0
MTEXT
  5
4A
330
1F
100
AcDbEntity
  8
VERMASSUNG
100
AcDbMText
 10
13.9329988022
 20
28.8834360957
 30
0.0
 40
3.0
 41
0.0
 71
     1
 72
     1
  1
Feinbohrkopf_Fine boring head
  7
SLDTEXTSTYLE0
 73
     1
 44
1.0
  0
MTEXT
  5
4B
330
1F
100
AcDbEntity
  8
VERMASSUNG
100
AcDbMText
 10
98.8601118557
 20
13.8365368179
 30
0.0
 40
2.0
 41
0.0
 71
     1
 72
     1
  1
Datum: 11.06.2010
  7
SLDTEXTSTYLE0
 73
     1
 44
1.0
  0
MTEXT
  5
4C
330
1F
100
AcDbEntity
  8
VERMASSUNG
100
AcDbMText
 10
13.933048693
 20
18.0482802738
 30
0.0
 40
2.0
 41
0.0
 71
     1
 72
     1
  1
für HS-Schäfte_for HS-shanks
  7
SLDTEXTSTYLE0
 73
     1
 44
1.0
  0
MTEXT
  5
4D
330
1F
100
AcDbEntity
  8
VERMASSUNG
100
AcDbMText
 10
13.9808475933
 20
13.9090973692
 30
0.0
 40
2.0
 41
0.0
 71
     1
 72
     1
  1
Gewicht: 773g
  7
SLDTEXTSTYLE0
 73
     1
 44
1.0
  0
LINE
  5
4E
330
1F
100
AcDbEntity
  8
0
  6
Continuous
 62
     7
370
    15
100
AcDbLine
 10
199.2436846732
 20
90.162008221
 30
0.0
 11
199.2546221256
 21
90.1576067905
 31
0.0
  0
LINE
  5
4F
330
1F
100
AcDbEntity
  8
0
  6
Continuous
 62
     7
370
    15
100
AcDbLine
 10
200.6638249397
 20
89.5905905987
 30
0.0
 11
202.1269252538
 21
89.0018885608
 31
0.0
  0
LINE
  5
50
330
1F
100
AcDbEntity
  8
0
  6
Continuous
 62
     7
370
    15
100
AcDbLine
 10
202.3469781517
 20
88.913345861
 30
0.0
 11
203.4686854123
 21
88.4620083149
 31
0.0
  0
LINE
  5
51
330
1F
100
AcDbEntity
  8
0
  6
Continuous
 62
     7
370
    15
100
AcDbLine
 10
211.8686860442
 20
88.4620083149
 30
0.0
 11
212.8885662197
 21
88.8723741869
 31
0.0
  0
LINE
  5
52
330
1F
100
AcDbEntity
  8
0
  6
Continuous
 62
     7
370
    15
100
AcDbLine
 10
213.0822515129
 20
88.9503063287
 30
0.0
 11
214.6735465168
 21
89.5905905987
 31
0.0
  0
LINE
  5
53
330
1F
100
AcDbEntity
  8
0
  6
Continuous
 62
     7
370
    15
100
AcDbLine
 10
216.0827493309
 20
90.1576067905
 30
0.0
 11
216.0936867833
 21
90.162008221
 31
0.0
  0
LINE
  5
54
330
1F
100
AcDbEntity
  8
0
  6
Continuous
 62
     7
370
    15
100
AcDbLine
 10
216.1686843275
 20
112.7175820644
 30
0.0
 11
216.1686843275
 21
115.1120077471
 31
0.0
  0
LINE
  5
55
330
1F
100
AcDbEntity
  8
0
  6
Continuous
 62
     7
370
    15
100
AcDbLine
 10
216.1686843275
 20
115.1120077471
 30
0.0
 11
215.768685007
 21
115.512007999
 31
0.0
  0
LINE
  5
56
330
1F
100
AcDbEntity
  8
0
  6
Continuous
 62
     7
370
    15
100
AcDbLine
 10
200.3686850905
 20
116.3120085026
 30
0.0
 11
199.4260376334
 21
115.3693573202
 31
0.0
  0
LINE
  5
57
330
1F
100
AcDbEntity
  8
0
  6
Continuous
 62
     7
370
    15
100
AcDbLine
 10
96.5186854839
 20
87.4120073046
 30
0.0
 11
192.0700868606
 21
87.4120073046
 31
0.0
  0
LINE
  5
58
330
1F
100
AcDbEntity
  8
0
  6
Continuous
 62
     7
370
    15
100
AcDbLine
 10
192.4288472175
 20
119.4120088245
 30
0.0
 11
96.5186854839
 21
119.4120088245
 31
0.0
  0
LINE
  5
59
330
1F
100
AcDbEntity
  8
0
  6
Continuous
 62
     7
370
    15
100
AcDbLine
 10
219.796997869
 20
90.162008221
 30
0.0
 11
220.5186834573
 21
91.4120079602
 31
0.0
  0
ARC
  5
5A
330
1F
100
AcDbEntity
  8
0
  6
Continuous
 62
     7
370
    15
100
AcDbCircle
 10
96.0186854839
 20
94.0620080645
 30
0.0
 40
0.6000000000000019
100
AcDbArc
 50
33.5573097619
 51
90.0
  0
ARC
  5
5B
330
1F
100
AcDbEntity
  8
0
  6
Continuous
 62
     7
370
    15
100
AcDbCircle
 10
96.0186854839
 20
112.7620080645
 30
0.0
 40
0.6000000000000085
100
AcDbArc
 50
270.0
 51
326.4426902381
  0
LINE
  5
5C
330
1F
100
AcDbEntity
  8
0
  6
Continuous
 62
     7
370
    15
100
AcDbLine
 10
94.5186853889
 20
94.4120084519
 30
0.0
 11
95.3753983151
 21
94.6415636341
 31
0.0
  0
LINE
  5
5D
330
1F
100
AcDbEntity
  8
0
  6
Continuous
 62
     7
370
    15
100
AcDbLine
 10
95.3753983151
 20
112.1824524949
 30
0.0
 11
94.5186853889
 21
112.4120076771
 31
0.0
  0
LINE
  5
5E
330
1F
100
AcDbEntity
  8
0
  6
Continuous
 62
     7
370
    15
100
AcDbLine
 10
91.5186855956
 20
94.4120084519
 30
0.0
 11
94.5186853889
 21
94.4120084519
 31
0.0
  0
LINE
  5
5F
330
1F
100
AcDbEntity
  8
0
  6
Continuous
 62
     7
370
    15
100
AcDbLine
 10
94.5186853889
 20
112.4120076771
 30
0.0
 11
91.5186855956
 21
112.4120076771
 31
0.0
  0
ARC
  5
60
330
1F
100
AcDbEntity
  8
0
  6
Continuous
 62
     7
370
    15
100
AcDbCircle
 10
95.5306896843
 20
94.0620080645
 30
0.0
 40
0.5999999999999943
100
AcDbArc
 50
90.0
 51
105.0
  0
ARC
  5
61
330
1F
100
AcDbEntity
  8
0
  6
Continuous
 62
     7
370
    15
100
AcDbCircle
 10
95.5306896843
 20
112.7620080645
 30
0.0
 40
0.6000000000000085
100
AcDbArc
 50
255.0
 51
270.0
  0
LINE
  5
62
330
1F
100
AcDbEntity
  8
0
  6
Continuous
 62
     7
370
    15
100
AcDbLine
 10
95.5306897187
 20
94.6620080273
 30
0.0
 11
96.0186854601
 21
94.6620080273
 31
0.0
  0
LINE
  5
63
330
1F
100
AcDbEntity
  8
0
  6
Continuous
 62
     7
370
    15
100
AcDbLine
 10
96.0186854601
 20
112.1620081018
 30
0.0
 11
95.5306897187
 21
112.1620081018
 31
0.0
  0
LINE
  5
64
330
1F
100
AcDbEntity
  8
0
  6
Continuous
 62
     7
370
    15
100
AcDbLine
 10
78.0186852455
 20
95.4120076845
 30
0.0
 11
87.231055276
 21
95.4120076845
 31
0.0
  0
LINE
  5
65
330
1F
100
AcDbEntity
  8
0
  6
Continuous
 62
     7
370
    15
100
AcDbLine
 10
87.231055276
 20
111.4120084445
 30
0.0
 11
78.0186852455
 21
111.4120084445
 31
0.0
  0
LINE
  5
66
330
1F
100
AcDbEntity
  8
0
  6
Continuous
 62
     7
370
    15
100
AcDbLine
 10
87.231055276
 20
95.4120076845
 30
0.0
 11
88.7398681618
 21
96.6780527147
 31
0.0
  0
LINE
  5
67
330
1F
100
AcDbEntity
  8
0
  6
Continuous
 62
     7
370
    15
100
AcDbLine
 10
88.7398681618
 20
110.1459634143
 30
0.0
 11
87.231055276
 21
111.4120084445
 31
0.0
  0
LINE
  5
68
330
1F
100
AcDbEntity
  8
0
  6
Continuous
 62
     7
370
    15
100
AcDbLine
 10
78.0186852455
 20
111.4120084445
 30
0.0
 11
77.5186860948
 21
110.9120078969
 31
0.0
  0
LINE
  5
69
330
1F
100
AcDbEntity
  8
0
  6
Continuous
 62
     7
370
    15
100
AcDbLine
 10
77.5186860948
 20
95.9120082322
 30
0.0
 11
78.0186852455
 21
95.4120076845
 31
0.0
  0
ARC
  5
6A
330
1F
100
AcDbEntity
  8
0
  6
Continuous
 62
     7
370
    15
100
AcDbCircle
 10
90.5186854839
 20
95.9120080645
 30
0.0
 40
1.0
100
AcDbArc
 50
0.0
 51
90.0
  0
ARC
  5
6B
330
1F
100
AcDbEntity
  8
0
  6
Continuous
 62
     7
370
    15
100
AcDbCircle
 10
90.5186854839
 20
110.9120080645
 30
0.0
 40
1.0
100
AcDbArc
 50
270.0
 51
0.0
  0
ARC
  5
6C
330
1F
100
AcDbEntity
  8
0
  6
Continuous
 62
     7
370
    15
100
AcDbCircle
 10
89.3826557181
 20
95.9120080645
 30
0.0
 40
1.000000000000013
100
AcDbArc
 50
90.0
 51
130.0
  0
ARC
  5
6D
330
1F
100
AcDbEntity
  8
0
  6
Continuous
 62
     7
370
    15
100
AcDbCircle
 10
89.3826557181
 20
110.9120080645
 30
0.0
 40
1.000000000000002
100
AcDbArc
 50
230.0
 51
270.0
  0
LINE
  5
6E
330
1F
100
AcDbEntity
  8
0
  6
Continuous
 62
     7
370
    15
100
AcDbLine
 10
89.3826558269
 20
96.9120079304
 30
0.0
 11
90.5186854317
 21
96.9120079304
 31
0.0
  0
LINE
  5
6F
330
1F
100
AcDbEntity
  8
0
  6
Continuous
 62
     7
370
    15
100
AcDbLine
 10
90.5186854317
 20
109.9120081986
 30
0.0
 11
89.3826558269
 21
109.9120081986
 31
0.0
  0
LINE
  5
70
330
1F
100
AcDbEntity
  8
0
  6
Continuous
 62
     7
370
    15
100
AcDbLine
 10
211.8148034453
 20
90.1512290935
 30
0.0
 11
211.8148034453
 21
90.162008221
 31
0.0
  0
LINE
  5
71
330
1F
100
AcDbEntity
  8
0
  6
Continuous
 62
     7
370
    15
100
AcDbLine
 10
211.8148034453
 20
90.1512290935
 30
0.0
 11
211.6395434379
 21
90.1512290935
 31
0.0
  0
LINE
  5
72
330
1F
100
AcDbEntity
  8
0
  6
Continuous
 62
     7
370
    15
100
AcDbLine
 10
211.6395434379
 20
90.1512290935
 30
0.0
 11
211.6395434379
 21
90.162008221
 31
0.0
  0
LINE
  5
73
330
1F
100
AcDbEntity
  8
0
  6
Continuous
 62
     7
370
    15
100
AcDbLine
 10
210.8628949165
 20
90.1512290935
 30
0.0
 11
210.8628949165
 21
90.162008221
 31
0.0
  0
LINE
  5
74
330
1F
100
AcDbEntity
  8
0
  6
Continuous
 62
     7
370
    15
100
AcDbLine
 10
210.8628949165
 20
90.1512290935
 30
0.0
 11
210.6769358754
 21
90.1512290935
 31
0.0
  0
LINE
  5
75
330
1F
100
AcDbEntity
  8
0
  6
Continuous
 62
     7
370
    15
100
AcDbLine
 10
210.6769358754
 20
90.1512290935
 30
0.0
 11
210.6769358754
 21
90.162008221
 31
0.0
  0
LINE
  5
76
330
1F
100
AcDbEntity
  8
0
  6
Continuous
 62
     7
370
    15
100
AcDbLine
 10
209.8606055617
 20
90.1512290935
 30
0.0
 11
209.8606055617
 21
90.162008221
 31
0.0
  0
LINE
  5
77
330
1F
100
AcDbEntity
  8
0
  6
Continuous
 62
     7
370
    15
100
AcDbLine
 10
209.8606055617
 20
90.1512290935
 30
0.0
 11
209.6668904662
 21
90.1512290935
 31
0.0
  0
LINE
  5
78
330
1F
100
AcDbEntity
  8
0
  6
Continuous
 62
     7
370
    15
100
AcDbLine
 10
209.6668904662
 20
90.1512290935
 30
0.0
 11
209.6668904662
 21
90.162008221
 31
0.0
  0
LINE
  5
79
330
1F
100
AcDbEntity
  8
0
  6
Continuous
 62
     7
370
    15
100
AcDbLine
 10
208.8237529635
 20
90.1512290935
 30
0.0
 11
208.8237529635
 21
90.162008221
 31
0.0
  0
LINE
  5
7A
330
1F
100
AcDbEntity
  8
0
  6
Continuous
 62
     7
370
    15
100
AcDbLine
 10
208.8237529635
 20
90.1512290935
 30
0.0
 11
208.625329101
 21
90.1512290935
 31
0.0
  0
LINE
  5
7B
330
1F
100
AcDbEntity
  8
0
  6
Continuous
 62
     7
370
    15
100
AcDbLine
 10
208.625329101
 20
90.1512290935
 30
0.0
 11
208.625329101
 21
90.162008221
 31
0.0
  0
LINE
  5
7C
330
1F
100
AcDbEntity
  8
0
  6
Continuous
 62
     7
370
    15
100
AcDbLine
 10
207.7686836957
 20
90.1512290935
 30
0.0
 11
207.7686836957
 21
90.162008221
 31
0.0
  0
LINE
  5
7D
330
1F
100
AcDbEntity
  8
0
  6
Continuous
 62
     7
370
    15
100
AcDbLine
 10
207.7686836957
 20
90.1512290935
 30
0.0
 11
207.5686877608
 21
90.1512290935
 31
0.0
  0
LINE
  5
7E
330
1F
100
AcDbEntity
  8
0
  6
Continuous
 62
     7
370
    15
100
AcDbLine
 10
207.5686877608
 20
90.1512290935
 30
0.0
 11
207.5686877608
 21
90.162008221
 31
0.0
  0
LINE
  5
7F
330
1F
100
AcDbEntity
  8
0
  6
Continuous
 62
     7
370
    15
100
AcDbLine
 10
206.7120423555
 20
90.1512290935
 30
0.0
 11
206.7120423555
 21
90.162008221
 31
0.0
  0
LINE
  5
80
330
1F
100
AcDbEntity
  8
0
  6
Continuous
 62
     7
370
    15
100
AcDbLine
 10
206.7120423555
 20
90.1512290935
 30
0.0
 11
206.513618493
 21
90.1512290935
 31
0.0
  0
LINE
  5
81
330
1F
100
AcDbEntity
  8
0
  6
Continuous
 62
     7
370
    15
100
AcDbLine
 10
206.513618493
 20
90.1512290935
 30
0.0
 11
206.513618493
 21
90.162008221
 31
0.0
  0
LINE
  5
82
330
1F
100
AcDbEntity
  8
0
  6
Continuous
 62
     7
370
    15
100
AcDbLine
 10
205.6704809903
 20
90.1512290935
 30
0.0
 11
205.6704809903
 21
90.162008221
 31
0.0
  0
LINE
  5
83
330
1F
100
AcDbEntity
  8
0
  6
Continuous
 62
     7
370
    15
100
AcDbLine
 10
205.6704809903
 20
90.1512290935
 30
0.0
 11
205.4767658948
 21
90.1512290935
 31
0.0
  0
LINE
  5
84
330
1F
100
AcDbEntity
  8
0
  6
Continuous
 62
     7
370
    15
100
AcDbLine
 10
205.4767658948
 20
90.1512290935
 30
0.0
 11
205.4767658948
 21
90.162008221
 31
0.0
  0
LINE
  5
85
330
1F
100
AcDbEntity
  8
0
  6
Continuous
 62
     7
370
    15
100
AcDbLine
 10
204.6604355811
 20
90.1512290935
 30
0.0
 11
204.6604355811
 21
90.162008221
 31
0.0
  0
LINE
  5
86
330
1F
100
AcDbEntity
  8
0
  6
Continuous
 62
     7
370
    15
100
AcDbLine
 10
204.6604355811
 20
90.1512290935
 30
0.0
 11
204.47447654
 21
90.1512290935
 31
0.0
  0
LINE
  5
87
330
1F
100
AcDbEntity
  8
0
  6
Continuous
 62
     7
370
    15
100
AcDbLine
 10
204.47447654
 20
90.1512290935
 30
0.0
 11
204.47447654
 21
90.162008221
 31
0.0
  0
LINE
  5
88
330
1F
100
AcDbEntity
  8
0
  6
Continuous
 62
     7
370
    15
100
AcDbLine
 10
203.6978280186
 20
90.1512290935
 30
0.0
 11
203.6978280186
 21
90.162008221
 31
0.0
  0
LINE
  5
89
330
1F
100
AcDbEntity
  8
0
  6
Continuous
 62
     7
370
    15
100
AcDbLine
 10
203.6978280186
 20
90.1512290935
 30
0.0
 11
203.5225680112
 21
90.1512290935
 31
0.0
  0
LINE
  5
8A
330
1F
100
AcDbEntity
  8
0
  6
Continuous
 62
     7
370
    15
100
AcDbLine
 10
203.5225680112
 20
90.1512290935
 30
0.0
 11
203.5225680112
 21
90.162008221
 31
0.0
  0
LINE
  5
8B
330
1F
100
AcDbEntity
  8
0
  6
Continuous
 62
     7
370
    15
100
AcDbLine
 10
202.797842586
 20
90.1512290935
 30
0.0
 11
202.797842586
 21
90.162008221
 31
0.0
  0
LINE
  5
8C
330
1F
100
AcDbEntity
  8
0
  6
Continuous
 62
     7
370
    15
100
AcDbLine
 10
202.797842586
 20
90.1512290935
 30
0.0
 11
202.6360383272
 21
90.1512290935
 31
0.0
  0
LINE
  5
8D
330
1F
100
AcDbEntity
  8
0
  6
Continuous
 62
     7
370
    15
100
AcDbLine
 10
202.6360383272
 20
90.1512290935
 30
0.0
 11
202.6360383272
 21
90.162008221
 31
0.0
  0
LINE
  5
8E
330
1F
100
AcDbEntity
  8
0
  6
Continuous
 62
     7
370
    15
100
AcDbLine
 10
201.9746800899
 20
90.1512290935
 30
0.0
 11
201.9746800899
 21
90.162008221
 31
0.0
  0
LINE
  5
8F
330
1F
100
AcDbEntity
  8
0
  6
Continuous
 62
     7
370
    15
100
AcDbLine
 10
201.9746800899
 20
90.1512290935
 30
0.0
 11
201.8288871288
 21
90.1512290935
 31
0.0
  0
LINE
  5
90
330
1F
100
AcDbEntity
  8
0
  6
Continuous
 62
     7
370
    15
100
AcDbLine
 10
201.8288871288
 20
90.1512290935
 30
0.0
 11
201.8288871288
 21
90.162008221
 31
0.0
  0
LINE
  5
91
330
1F
100
AcDbEntity
  8
0
  6
Continuous
 62
     7
370
    15
100
AcDbLine
 10
201.2413119912
 20
90.1512290935
 30
0.0
 11
201.2413119912
 21
90.162008221
 31
0.0
  0
LINE
  5
92
330
1F
100
AcDbEntity
  8
0
  6
Continuous
 62
     7
370
    15
100
AcDbLine
 10
201.2413119912
 20
90.1512290935
 30
0.0
 11
201.1138251066
 21
90.1512290935
 31
0.0
  0
LINE
  5
93
330
1F
100
AcDbEntity
  8
0
  6
Continuous
 62
     7
370
    15
100
AcDbLine
 10
201.1138251066
 20
90.1512290935
 30
0.0
 11
201.1138251066
 21
90.162008221
 31
0.0
  0
LINE
  5
94
330
1F
100
AcDbEntity
  8
0
  6
Continuous
 62
     7
370
    15
100
AcDbLine
 10
200.6093090414
 20
90.1512290935
 30
0.0
 11
200.6093090414
 21
90.162008221
 31
0.0
  0
LINE
  5
95
330
1F
100
AcDbEntity
  8
0
  6
Continuous
 62
     7
370
    15
100
AcDbLine
 10
200.6093090414
 20
90.1512290935
 30
0.0
 11
200.5021398901
 21
90.1512290935
 31
0.0
  0
LINE
  5
96
330
1F
100
AcDbEntity
  8
0
  6
Continuous
 62
     7
370
    15
100
AcDbLine
 10
200.5021398901
 20
90.1512290935
 30
0.0
 11
200.5021398901
 21
90.162008221
 31
0.0
  0
LINE
  5
97
330
1F
100
AcDbEntity
  8
0
  6
Continuous
 62
     7
370
    15
100
AcDbLine
 10
200.088632667
 20
90.1512290935
 30
0.0
 11
200.088632667
 21
90.162008221
 31
0.0
  0
LINE
  5
98
330
1F
100
AcDbEntity
  8
0
  6
Continuous
 62
     7
370
    15
100
AcDbLine
 10
200.088632667
 20
90.1512290935
 30
0.0
 11
200.0034799814
 21
90.1512290935
 31
0.0
  0
LINE
  5
99
330
1F
100
AcDbEntity
  8
0
  6
Continuous
 62
     7
370
    15
100
AcDbLine
 10
200.0034799814
 20
90.1512290935
 30
0.0
 11
200.0034799814
 21
90.162008221
 31
0.0
  0
LINE
  5
9A
330
1F
100
AcDbEntity
  8
0
  6
Continuous
 62
     7
370
    15
100
AcDbLine
 10
199.6875008582
 20
90.1512290935
 30
0.0
 11
199.6875008582
 21
90.162008221
 31
0.0
  0
LINE
  5
9B
330
1F
100
AcDbEntity
  8
0
  6
Continuous
 62
     7
370
    15
100
AcDbLine
 10
199.6875008582
 20
90.1512290935
 30
0.0
 11
199.6256982922
 21
90.1512290935
 31
0.0
  0
LINE
  5
9C
330
1F
100
AcDbEntity
  8
0
  6
Continuous
 62
     7
370
    15
100
AcDbLine
 10
199.6256982922
 20
90.1512290935
 30
0.0
 11
199.6256982922
 21
90.162008221
 31
0.0
  0
LINE
  5
9D
330
1F
100
AcDbEntity
  8
0
  6
Continuous
 62
     7
370
    15
100
AcDbLine
 10
199.4122391581
 20
90.1512290935
 30
0.0
 11
199.4122391581
 21
90.162008221
 31
0.0
  0
LINE
  5
9E
330
1F
100
AcDbEntity
  8
0
  6
Continuous
 62
     7
370
    15
100
AcDbLine
 10
199.4122391581
 20
90.1512290935
 30
0.0
 11
199.3747627377
 21
90.1512290935
 31
0.0
  0
LINE
  5
9F
330
1F
100
AcDbEntity
  8
0
  6
Continuous
 62
     7
370
    15
100
AcDbLine
 10
199.3747627377
 20
90.1512290935
 30
0.0
 11
199.3747627377
 21
90.162008221
 31
0.0
  0
LINE
  5
A0
330
1F
100
AcDbEntity
  8
0
  6
Continuous
 62
     7
370
    15
100
AcDbLine
 10
199.2671838045
 20
90.1512290935
 30
0.0
 11
199.2671838045
 21
90.162008221
 31
0.0
  0
LINE
  5
A1
330
1F
100
AcDbEntity
  8
0
  6
Continuous
 62
     7
370
    15
100
AcDbLine
 10
199.2671838045
 20
90.1512290935
 30
0.0
 11
199.2546221256
 21
90.1512290935
 31
0.0
  0
LINE
  5
A2
330
1F
100
AcDbEntity
  8
0
  6
Continuous
 62
     7
370
    15
100
AcDbLine
 10
199.2546221256
 20
90.1512290935
 30
0.0
 11
199.2546221256
 21
90.162008221
 31
0.0
  0
LINE
  5
A3
330
1F
100
AcDbEntity
  8
0
  6
Continuous
 62
     7
370
    15
100
AcDbLine
 10
216.0827493309
 20
90.1512290935
 30
0.0
 11
216.0827493309
 21
90.162008221
 31
0.0
  0
LINE
  5
A4
330
1F
100
AcDbEntity
  8
0
  6
Continuous
 62
     7
370
    15
100
AcDbLine
 10
216.0827493309
 20
90.1512290935
 30
0.0
 11
216.070187652
 21
90.1512290935
 31
0.0
  0
LINE
  5
A5
330
1F
100
AcDbEntity
  8
0
  6
Continuous
 62
     7
370
    15
100
AcDbLine
 10
216.070187652
 20
90.1512290935
 30
0.0
 11
216.070187652
 21
90.162008221
 31
0.0
  0
LINE
  5
A6
330
1F
100
AcDbEntity
  8
0
  6
Continuous
 62
     7
370
    15
100
AcDbLine
 10
215.9626087188
 20
90.1512290935
 30
0.0
 11
215.9626087188
 21
90.162008221
 31
0.0
  0
LINE
  5
A7
330
1F
100
AcDbEntity
  8
0
  6
Continuous
 62
     7
370
    15
100
AcDbLine
 10
215.9626087188
 20
90.1512290935
 30
0.0
 11
215.9251322984
 21
90.1512290935
 31
0.0
  0
LINE
  5
A8
330
1F
100
AcDbEntity
  8
0
  6
Continuous
 62
     7
370
    15
100
AcDbLine
 10
215.9251322984
 20
90.1512290935
 30
0.0
 11
215.9251322984
 21
90.162008221
 31
0.0
  0
LINE
  5
A9
330
1F
100
AcDbEntity
  8
0
  6
Continuous
 62
     7
370
    15
100
AcDbLine
 10
215.7116731643
 20
90.1512290935
 30
0.0
 11
215.7116731643
 21
90.162008221
 31
0.0
  0
LINE
  5
AA
330
1F
100
AcDbEntity
  8
0
  6
Continuous
 62
     7
370
    15
100
AcDbLine
 10
215.7116731643
 20
90.1512290935
 30
0.0
 11
215.6498705983
 21
90.1512290935
 31
0.0
  0
LINE
  5
AB
330
1F
100
AcDbEntity
  8
0
  6
Continuous
 62
     7
370
    15
100
AcDbLine
 10
215.6498705983
 20
90.1512290935
 30
0.0
 11
215.6498705983
 21
90.162008221
 31
0.0
  0
LINE
  5
AC
330
1F
100
AcDbEntity
  8
0
  6
Continuous
 62
     7
370
    15
100
AcDbLine
 10
215.3338914751
 20
90.1512290935
 30
0.0
 11
215.3338914751
 21
90.162008221
 31
0.0
  0
LINE
  5
AD
330
1F
100
AcDbEntity
  8
0
  6
Continuous
 62
     7
370
    15
100
AcDbLine
 10
215.3338914751
 20
90.1512290935
 30
0.0
 11
215.2487387895
 21
90.1512290935
 31
0.0
  0
LINE
  5
AE
330
1F
100
AcDbEntity
  8
0
  6
Continuous
 62
     7
370
    15
100
AcDbLine
 10
215.2487387895
 20
90.1512290935
 30
0.0
 11
215.2487387895
 21
90.162008221
 31
0.0
  0
LINE
  5
AF
330
1F
100
AcDbEntity
  8
0
  6
Continuous
 62
     7
370
    15
100
AcDbLine
 10
214.8352315664
 20
90.1512290935
 30
0.0
 11
214.8352315664
 21
90.162008221
 31
0.0
  0
LINE
  5
B0
330
1F
100
AcDbEntity
  8
0
  6
Continuous
 62
     7
370
    15
100
AcDbLine
 10
214.8352315664
 20
90.1512290935
 30
0.0
 11
214.7280624151
 21
90.1512290935
 31
0.0
  0
LINE
  5
B1
330
1F
100
AcDbEntity
  8
0
  6
Continuous
 62
     7
370
    15
100
AcDbLine
 10
214.7280624151
 20
90.1512290935
 30
0.0
 11
214.7280624151
 21
90.162008221
 31
0.0
  0
LINE
  5
B2
330
1F
100
AcDbEntity
  8
0
  6
Continuous
 62
     7
370
    15
100
AcDbLine
 10
214.2235463499
 20
90.1512290935
 30
0.0
 11
214.2235463499
 21
90.162008221
 31
0.0
  0
LINE
  5
B3
330
1F
100
AcDbEntity
  8
0
  6
Continuous
 62
     7
370
    15
100
AcDbLine
 10
214.2235463499
 20
90.1512290935
 30
0.0
 11
214.0960594653
 21
90.1512290935
 31
0.0
  0
LINE
  5
B4
330
1F
100
AcDbEntity
  8
0
  6
Continuous
 62
     7
370
    15
100
AcDbLine
 10
214.0960594653
 20
90.1512290935
 30
0.0
 11
214.0960594653
 21
90.162008221
 31
0.0
  0
LINE
  5
B5
330
1F
100
AcDbEntity
  8
0
  6
Continuous
 62
     7
370
    15
100
AcDbLine
 10
213.5084843277
 20
90.1512290935
 30
0.0
 11
213.5084843277
 21
90.162008221
 31
0.0
  0
LINE
  5
B6
330
1F
100
AcDbEntity
  8
0
  6
Continuous
 62
     7
370
    15
100
AcDbLine
 10
213.5084843277
 20
90.1512290935
 30
0.0
 11
213.3626913666
 21
90.1512290935
 31
0.0
  0
LINE
  5
B7
330
1F
100
AcDbEntity
  8
0
  6
Continuous
 62
     7
370
    15
100
AcDbLine
 10
213.3626913666
 20
90.1512290935
 30
0.0
 11
213.3626913666
 21
90.162008221
 31
0.0
  0
LINE
  5
B8
330
1F
100
AcDbEntity
  8
0
  6
Continuous
 62
     7
370
    15
100
AcDbLine
 10
212.7013256788
 20
90.1512290935
 30
0.0
 11
212.7013256788
 21
90.162008221
 31
0.0
  0
LINE
  5
B9
330
1F
100
AcDbEntity
  8
0
  6
Continuous
 62
     7
370
    15
100
AcDbLine
 10
212.7013256788
 20
90.1512290935
 30
0.0
 11
212.5395288705
 21
90.1512290935
 31
0.0
  0
LINE
  5
BA
330
1F
100
AcDbEntity
  8
0
  6
Continuous
 62
     7
370
    15
100
AcDbLine
 10
212.5395288705
 20
90.1512290935
 30
0.0
 11
212.5395288705
 21
90.162008221
 31
0.0
  0
SPLINE
  5
BB
330
1F
100
AcDbEntity
  8
0
  6
Continuous
 62
     7
370
    15
100
AcDbSpline
210
0.0
220
0.0
230
1.0
 70
     8
 71
     3
 72
     9
 73
     5
 74
     0
 42
0.00000001
 43
0.00000001
 40
0.0
 40
0.0
 40
0.0
 40
0.0
 40
0.499981373364455
 40
1.0
 40
1.0
 40
1.0
 40
1.0
 10
207.5686877607683
 20
89.26634505642234
 30
0.0
 10
207.6020191748255
 20
89.26618347596853
 30
0.0
 10
207.668684486441
 20
89.26586030302165
 30
0.0
 10
207.7353497981343
 20
89.26618346794245
 30
0.0
 10
207.7686836957315
 20
89.26634505642234
 30
0.0
  0
LINE
  5
BC
330
1F
100
AcDbEntity
  8
0
  6
Continuous
 62
     7
370
    15
100
AcDbLine
 10
207.5686877608
 20
90.1512290935
 30
0.0
 11
207.5686877608
 21
89.2663450564
 31
0.0
  0
LINE
  5
BD
330
1F
100
AcDbEntity
  8
0
  6
Continuous
 62
     7
370
    15
100
AcDbLine
 10
207.7686836957
 20
89.2663450564
 30
0.0
 11
207.7686836957
 21
90.1512290935
 31
0.0
  0
LINE
  5
BE
330
1F
100
AcDbEntity
  8
0
  6
Continuous
 62
     7
370
    15
100
AcDbLine
 10
212.3154750108
 20
88.9713206912
 30
0.0
 11
212.1076559662
 21
88.8859919856
 31
0.0
  0
LINE
  5
BF
330
1F
100
AcDbEntity
  8
0
  6
Continuous
 62
     7
370
    15
100
AcDbLine
 10
212.298808062
 20
88.838435861
 30
0.0
 11
212.0696356534
 21
88.7423792507
 31
0.0
  0
LINE
  5
C0
330
1F
100
AcDbEntity
  8
0
  6
Continuous
 62
     7
370
    15
100
AcDbLine
 10
213.3316149949
 20
89.2241058524
 30
0.0
 11
213.2415151238
 21
89.2342973153
 31
0.0
  0
LINE
  5
C1
330
1F
100
AcDbEntity
  8
0
  6
Continuous
 62
     7
370
    15
100
AcDbLine
 10
213.2415151238
 20
89.2342973153
 30
0.0
 11
212.506619656
 21
88.9256402503
 31
0.0
  0
LINE
  5
C2
330
1F
100
AcDbEntity
  8
0
  6
Continuous
 62
     7
370
    15
100
AcDbLine
 10
212.506619656
 20
88.9256402503
 30
0.0
 11
212.3154750108
 21
88.9713206912
 31
0.0
  0
LINE
  5
C3
330
1F
100
AcDbEntity
  8
0
  6
Continuous
 62
     7
370
    15
100
AcDbLine
 10
207.668682003
 20
88.4620083149
 30
0.0
 11
211.8686860442
 21
88.4620083149
 31
0.0
  0
LINE
  5
C4
330
1F
100
AcDbEntity
  8
0
  6
Continuous
 62
     7
370
    15
100
AcDbLine
 10
203.4686854123
 20
88.4620083149
 30
0.0
 11
207.668682003
 21
88.4620083149
 31
0.0
  0
LWPOLYLINE
  5
C5
330
1F
100
AcDbEntity
  8
0
  6
Continuous
 62
     7
370
    15
100
AcDbPolyline
 90
        4
 70
   128
 43
0.0
 10
211.2467488288
 20
89.2771241839
 10
211.8425941109
 20
89.6849633778
 10
212.3548662304
 20
90.0356091212
 10
212.5395288705
 20
90.162008221
  0
LINE
  5
C6
330
1F
100
AcDbEntity
  8
0
  6
Continuous
 62
     7
370
    15
100
AcDbLine
 10
212.4047329664
 20
89.5989808838
 30
0.0
 11
213.3626913666
 21
90.162008221
 31
0.0
  0
LINE
  5
C7
330
1F
100
AcDbEntity
  8
0
  6
Continuous
 62
     7
370
    15
100
AcDbLine
 10
213.0177965402
 20
89.5989808838
 30
0.0
 11
214.0960594653
 21
90.162008221
 31
0.0
  0
LINE
  5
C8
330
1F
100
AcDbEntity
  8
0
  6
Continuous
 62
     7
370
    15
100
AcDbLine
 10
213.5465046405
 20
89.5989808838
 30
0.0
 11
214.7280624151
 21
90.162008221
 31
0.0
  0
LINE
  5
C9
330
1F
100
AcDbEntity
  8
0
  6
Continuous
 62
     7
370
    15
100
AcDbLine
 10
213.9825200676
 20
89.5989808838
 30
0.0
 11
215.2487387895
 21
90.162008221
 31
0.0
  0
LWPOLYLINE
  5
CA
330
1F
100
AcDbEntity
  8
0
  6
Continuous
 62
     7
370
    15
100
AcDbPolyline
 90
        4
 70
   128
 43
0.0
 10
213.5581126451
 20
89.2771241839
 10
214.5222103237
 20
89.6849633778
 10
215.3510874152
 20
90.0356091212
 10
215.6498705983
 20
90.162008221
  0
LINE
  5
CB
330
1F
100
AcDbEntity
  8
0
  6
Continuous
 62
     7
370
    15
100
AcDbLine
 10
214.5505150794
 20
89.5989808838
 30
0.0
 11
215.9251322984
 21
90.162008221
 31
0.0
  0
LINE
  5
CC
330
1F
100
AcDbEntity
  8
0
  6
Continuous
 62
     7
370
    15
100
AcDbLine
 10
214.6735465168
 20
89.5989808838
 30
0.0
 11
216.070187652
 21
90.162008221
 31
0.0
  0
LINE
  5
CD
330
1F
100
AcDbEntity
  8
0
  6
Continuous
 62
     7
370
    15
100
AcDbLine
 10
199.2671838045
 20
90.162008221
 30
0.0
 11
200.6638249397
 21
89.5989808838
 31
0.0
  0
LINE
  5
CE
330
1F
100
AcDbEntity
  8
0
  6
Continuous
 62
     7
370
    15
100
AcDbLine
 10
199.4122391581
 20
90.162008221
 30
0.0
 11
200.7868563771
 21
89.5989808838
 31
0.0
  0
LWPOLYLINE
  5
CF
330
1F
100
AcDbEntity
  8
0
  6
Continuous
 62
     7
370
    15
100
AcDbPolyline
 90
        3
 70
   128
 43
0.0
 10
199.6875008582
 20
90.162008221
 10
199.9862840413
 20
90.0356091212
 10
201.7792588114
 20
89.2771241839
  0
LINE
  5
D0
330
1F
100
AcDbEntity
  8
0
  6
Continuous
 62
     7
370
    15
100
AcDbLine
 10
200.088632667
 20
90.162008221
 30
0.0
 11
201.3548513889
 21
89.5989808838
 31
0.0
  0
LINE
  5
D1
330
1F
100
AcDbEntity
  8
0
  6
Continuous
 62
     7
370
    15
100
AcDbLine
 10
200.6093090414
 20
90.162008221
 30
0.0
 11
201.790866816
 21
89.5989808838
 31
0.0
  0
LINE
  5
D2
330
1F
100
AcDbEntity
  8
0
  6
Continuous
 62
     7
370
    15
100
AcDbLine
 10
201.2413119912
 20
90.162008221
 30
0.0
 11
202.3195749163
 21
89.5989808838
 31
0.0
  0
LINE
  5
D3
330
1F
100
AcDbEntity
  8
0
  6
Continuous
 62
     7
370
    15
100
AcDbLine
 10
201.9746800899
 20
90.162008221
 30
0.0
 11
202.9326384901
 21
89.5989808838
 31
0.0
  0
LWPOLYLINE
  5
D4
330
1F
100
AcDbEntity
  8
0
  6
Continuous
 62
     7
370
    15
100
AcDbPolyline
 90
        3
 70
   128
 43
0.0
 10
202.797842586
 20
90.162008221
 10
202.9825052261
 20
90.0356091212
 10
204.0906226277
 20
89.2771241839
  0
LINE
  5
D5
330
1F
100
AcDbEntity
  8
0
  6
Continuous
 62
     7
370
    15
100
AcDbLine
 10
203.6978280186
 20
90.162008221
 30
0.0
 11
204.3719938039
 21
89.5989808838
 31
0.0
  0
LINE
  5
D6
330
1F
100
AcDbEntity
  8
0
  6
Continuous
 62
     7
370
    15
100
AcDbLine
 10
204.6604355811
 20
90.162008221
 30
0.0
 11
205.1755910754
 21
89.5989808838
 31
0.0
  0
LINE
  5
D7
330
1F
100
AcDbEntity
  8
0
  6
Continuous
 62
     7
370
    15
100
AcDbLine
 10
205.6704809903
 20
90.162008221
 30
0.0
 11
206.01849761
 21
89.5989808838
 31
0.0
  0
LINE
  5
D8
330
1F
100
AcDbEntity
  8
0
  6
Continuous
 62
     7
370
    15
100
AcDbLine
 10
206.7120423555
 20
90.162008221
 30
0.0
 11
206.8874290227
 21
89.5989808838
 31
0.0
  0
LINE
  5
D9
330
1F
100
AcDbEntity
  8
0
  6
Continuous
 62
     7
370
    15
100
AcDbLine
 10
208.4499424338
 20
89.5989808838
 30
0.0
 11
208.625329101
 21
90.162008221
 31
0.0
  0
LINE
  5
DA
330
1F
100
AcDbEntity
  8
0
  6
Continuous
 62
     7
370
    15
100
AcDbLine
 10
209.3188738465
 20
89.5989808838
 30
0.0
 11
209.6668904662
 21
90.162008221
 31
0.0
  0
LINE
  5
DB
330
1F
100
AcDbEntity
  8
0
  6
Continuous
 62
     7
370
    15
100
AcDbLine
 10
210.1617803811
 20
89.5989808838
 30
0.0
 11
210.6769358754
 21
90.162008221
 31
0.0
  0
LINE
  5
DC
330
1F
100
AcDbEntity
  8
0
  6
Continuous
 62
     7
370
    15
100
AcDbLine
 10
210.9653776526
 20
89.5989808838
 30
0.0
 11
211.6395434379
 21
90.162008221
 31
0.0
  0
SPLINE
  5
DD
330
1F
100
AcDbEntity
  8
0
  6
Continuous
 62
     7
370
    15
100
AcDbSpline
210
0.0
220
0.0
230
1.0
 70
     8
 71
     3
 72
    10
 73
     6
 74
     0
 42
0.00000001
 43
0.00000001
 40
0.0
 40
0.0
 40
0.0
 40
0.0
 40
0.2510400054530722
 40
0.502178993142509
 40
1.0
 40
1.0
 40
1.0
 40
1.0
 10
207.6509794234613
 20
89.19163249684154
 30
0.0
 10
207.5599913297476
 20
89.1916398604755
 30
0.0
 10
207.3779792667435
 20
89.19165459064685
 30
0.0
 10
207.0143856122355
 20
89.19129267925226
 30
0.0
 10
206.7569724122439
 20
89.17164775272416
 30
0.0
 10
206.5858742236474
 20
89.15859010321675
 30
0.0
  0
SPLINE
  5
DE
330
1F
100
AcDbEntity
  8
0
  6
Continuous
 62
     7
370
    15
100
AcDbSpline
210
0.0
220
0.0
230
1.0
 70
     8
 71
     3
 72
    10
 73
     6
 74
     0
 42
0.00000001
 43
0.00000001
 40
0.0
 40
0.0
 40
0.0
 40
0.0
 40
0.4154601190919117
 40
0.7070435929137232
 40
1.0
 40
1.0
 40
1.0
 40
1.0
 10
206.5858742236474
 20
89.15859010321675
 30
0.0
 10
206.52661002734
 20
89.14608470075751
 30
0.0
 10
206.4257522834488
 20
89.12480259862713
 30
0.0
 10
206.3464306175664
 20
89.07101444829388
 30
0.0
 10
206.3390482863028
 20
89.03390027720265
 30
0.0
 10
206.3353484510759
 20
89.01529960585414
 30
0.0
  0
SPLINE
  5
DF
330
1F
100
AcDbEntity
  8
0
  6
Continuous
 62
     7
370
    15
100
AcDbSpline
210
0.0
220
0.0
230
1.0
 70
     8
 71
     3
 72
    12
 73
     8
 74
     0
 42
0.00000001
 43
0.00000001
 40
0.0
 40
0.0
 40
0.0
 40
0.0
 40
0.131147233182921
 40
0.2266412191540196
 40
0.3435102562782726
 40
0.5484464655756199
 40
1.0
 40
1.0
 40
1.0
 40
1.0
 10
208.9686891078332
 20
89.01212938381015
 30
0.0
 10
208.9617701266107
 20
89.03770334249022
 30
0.0
 10
208.9498131352087
 20
89.08189880916666
 30
0.0
 10
208.8404629403106
 20
89.13104565801206
 30
0.0
 10
208.6557065520125
 20
89.1678908966714
 30
0.0
 10
208.251470202121
 20
89.19342073110798
 30
0.0
 10
207.8956934511902
 20
89.19236124410197
 30
0.0
 10
207.6509794234613
 20
89.19163249684154
 30
0.0
  0
LINE
  5
E0
330
1F
100
AcDbEntity
  8
0
  6
Continuous
 62
     7
370
    15
100
AcDbLine
 10
203.1368216514
 20
88.9229347582
 30
0.0
 11
203.0029645204
 21
88.9779731284
 31
0.0
  0
SPLINE
  5
E1
330
1F
100
AcDbEntity
  8
0
  6
Continuous
 62
     7
370
    15
100
AcDbSpline
210
0.0
220
0.0
230
1.0
 70
     8
 71
     3
 72
    10
 73
     6
 74
     0
 42
0.00000001
 43
0.00000001
 40
0.0
 40
0.0
 40
0.0
 40
0.0
 40
0.2469363590473193
 40
0.7449995088663979
 40
1.0
 40
1.0
 40
1.0
 40
1.0
 10
203.0029645203927
 20
88.97797312838613
 30
0.0
 10
202.956416837951
 20
88.9830767900791
 30
0.0
 10
202.8159838912122
 20
88.99847438267888
 30
0.0
 10
202.5737376102778
 20
89.05671368868298
 30
0.0
 10
202.3784635927553
 20
89.11683209890106
 30
0.0
 10
202.3123404025415
 20
89.13718924177466
 30
0.0
  0
LINE
  5
E2
330
1F
100
AcDbEntity
  8
0
  6
Continuous
 62
     7
370
    15
100
AcDbLine
 10
202.3123404025
 20
89.1371892418
 30
0.0
 11
202.2175466656
 21
89.1267314206
 31
0.0
  0
LINE
  5
E3
330
1F
100
AcDbEntity
  8
0
  6
Continuous
 62
     7
370
    15
100
AcDbLine
 10
202.7519246578
 20
88.9661332245
 30
0.0
 11
202.1269252538
 21
89.0087458889
 31
0.0
  0
LINE
  5
E4
330
1F
100
AcDbEntity
  8
0
  6
Continuous
 62
     7
370
    15
100
AcDbLine
 10
206.6890051603
 20
89.5882017563
 30
0.0
 11
206.8874290227
 21
89.5882017563
 31
0.0
  0
LINE
  5
E5
330
1F
100
AcDbEntity
  8
0
  6
Continuous
 62
     7
370
    15
100
AcDbLine
 10
206.513618493
 20
90.1512290935
 30
0.0
 11
206.6890051603
 21
89.5882017563
 31
0.0
  0
LINE
  5
E6
330
1F
100
AcDbEntity
  8
0
  6
Continuous
 62
     7
370
    15
100
AcDbLine
 10
206.8874290227
 20
89.5882017563
 30
0.0
 11
206.7120423555
 21
90.1512290935
 31
0.0
  0
LINE
  5
E7
330
1F
100
AcDbEntity
  8
0
  6
Continuous
 62
     7
370
    15
100
AcDbLine
 10
206.8874290227
 20
89.5882017563
 30
0.0
 11
206.8874290227
 21
89.5989808838
 31
0.0
  0
LINE
  5
E8
330
1F
100
AcDbEntity
  8
0
  6
Continuous
 62
     7
370
    15
100
AcDbLine
 10
208.4499424338
 20
89.5882017563
 30
0.0
 11
208.6483662962
 21
89.5882017563
 31
0.0
  0
LINE
  5
E9
330
1F
100
AcDbEntity
  8
0
  6
Continuous
 62
     7
370
    15
100
AcDbLine
 10
208.625329101
 20
90.1512290935
 30
0.0
 11
208.4499424338
 21
89.5882017563
 31
0.0
  0
LINE
  5
EA
330
1F
100
AcDbEntity
  8
0
  6
Continuous
 62
     7
370
    15
100
AcDbLine
 10
208.6483662962
 20
89.5882017563
 30
0.0
 11
208.8237529635
 21
90.1512290935
 31
0.0
  0
LINE
  5
EB
330
1F
100
AcDbEntity
  8
0
  6
Continuous
 62
     7
370
    15
100
AcDbLine
 10
208.4499424338
 20
89.5882017563
 30
0.0
 11
208.4499424338
 21
89.5989808838
 31
0.0
  0
LINE
  5
EC
330
1F
100
AcDbEntity
  8
0
  6
Continuous
 62
     7
370
    15
100
AcDbLine
 10
209.3188738465
 20
89.5882017563
 30
0.0
 11
209.512588942
 21
89.5882017563
 31
0.0
  0
LINE
  5
ED
330
1F
100
AcDbEntity
  8
0
  6
Continuous
 62
     7
370
    15
100
AcDbLine
 10
209.6668904662
 20
90.1512290935
 30
0.0
 11
209.3188738465
 21
89.5882017563
 31
0.0
  0
LINE
  5
EE
330
1F
100
AcDbEntity
  8
0
  6
Continuous
 62
     7
370
    15
100
AcDbLine
 10
209.512588942
 20
89.5882017563
 30
0.0
 11
209.8606055617
 21
90.1512290935
 31
0.0
  0
LINE
  5
EF
330
1F
100
AcDbEntity
  8
0
  6
Continuous
 62
     7
370
    15
100
AcDbLine
 10
209.3188738465
 20
89.5882017563
 30
0.0
 11
209.3188738465
 21
89.5989808838
 31
0.0
  0
LINE
  5
F0
330
1F
100
AcDbEntity
  8
0
  6
Continuous
 62
     7
370
    15
100
AcDbLine
 10
205.8247825145
 20
89.5882017563
 30
0.0
 11
206.01849761
 21
89.5882017563
 31
0.0
  0
LINE
  5
F1
330
1F
100
AcDbEntity
  8
0
  6
Continuous
 62
     7
370
    15
100
AcDbLine
 10
205.4767658948
 20
90.1512290935
 30
0.0
 11
205.8247825145
 21
89.5882017563
 31
0.0
  0
LINE
  5
F2
330
1F
100
AcDbEntity
  8
0
  6
Continuous
 62
     7
370
    15
100
AcDbLine
 10
206.01849761
 20
89.5882017563
 30
0.0
 11
205.6704809903
 21
90.1512290935
 31
0.0
  0
LINE
  5
F3
330
1F
100
AcDbEntity
  8
0
  6
Continuous
 62
     7
370
    15
100
AcDbLine
 10
206.01849761
 20
89.5882017563
 30
0.0
 11
206.01849761
 21
89.5989808838
 31
0.0
  0
LINE
  5
F4
330
1F
100
AcDbEntity
  8
0
  6
Continuous
 62
     7
370
    15
100
AcDbLine
 10
210.6769358754
 20
90.1512290935
 30
0.0
 11
210.1617803811
 21
89.5882017563
 31
0.0
  0
LINE
  5
F5
330
1F
100
AcDbEntity
  8
0
  6
Continuous
 62
     7
370
    15
100
AcDbLine
 10
210.1617803811
 20
89.5882017563
 30
0.0
 11
210.1617803811
 21
89.5989808838
 31
0.0
  0
LINE
  5
F6
330
1F
100
AcDbEntity
  8
0
  6
Continuous
 62
     7
370
    15
100
AcDbLine
 10
210.1617803811
 20
89.5882017563
 30
0.0
 11
210.3477394223
 21
89.5882017563
 31
0.0
  0
LINE
  5
F7
330
1F
100
AcDbEntity
  8
0
  6
Continuous
 62
     7
370
    15
100
AcDbLine
 10
210.3477394223
 20
89.5882017563
 30
0.0
 11
210.8628949165
 21
90.1512290935
 31
0.0
  0
LINE
  5
F8
330
1F
100
AcDbEntity
  8
0
  6
Continuous
 62
     7
370
    15
100
AcDbLine
 10
204.9896320342
 20
89.5882017563
 30
0.0
 11
205.1755910754
 21
89.5882017563
 31
0.0
  0
LINE
  5
F9
330
1F
100
AcDbEntity
  8
0
  6
Continuous
 62
     7
370
    15
100
AcDbLine
 10
204.47447654
 20
90.1512290935
 30
0.0
 11
204.9896320342
 21
89.5882017563
 31
0.0
  0
LINE
  5
FA
330
1F
100
AcDbEntity
  8
0
  6
Continuous
 62
     7
370
    15
100
AcDbLine
 10
205.1755910754
 20
89.5882017563
 30
0.0
 11
204.6604355811
 21
90.1512290935
 31
0.0
  0
LINE
  5
FB
330
1F
100
AcDbEntity
  8
0
  6
Continuous
 62
     7
370
    15
100
AcDbLine
 10
205.1755910754
 20
89.5882017563
 30
0.0
 11
205.1755910754
 21
89.5989808838
 31
0.0
  0
LINE
  5
FC
330
1F
100
AcDbEntity
  8
0
  6
Continuous
 62
     7
370
    15
100
AcDbLine
 10
210.9653776526
 20
89.5882017563
 30
0.0
 11
211.14063766
 21
89.5882017563
 31
0.0
  0
LINE
  5
FD
330
1F
100
AcDbEntity
  8
0
  6
Continuous
 62
     7
370
    15
100
AcDbLine
 10
211.6395434379
 20
90.1512290935
 30
0.0
 11
210.9653776526
 21
89.5882017563
 31
0.0
  0
LINE
  5
FE
330
1F
100
AcDbEntity
  8
0
  6
Continuous
 62
     7
370
    15
100
AcDbLine
 10
211.14063766
 20
89.5882017563
 30
0.0
 11
211.8148034453
 21
90.1512290935
 31
0.0
  0
LINE
  5
FF
330
1F
100
AcDbEntity
  8
0
  6
Continuous
 62
     7
370
    15
100
AcDbLine
 10
210.9653776526
 20
89.5882017563
 30
0.0
 11
210.9653776526
 21
89.5989808838
 31
0.0
  0
LINE
  5
100
330
1F
100
AcDbEntity
  8
0
  6
Continuous
 62
     7
370
    15
100
AcDbLine
 10
204.1967337965
 20
89.5882017563
 30
0.0
 11
204.3719938039
 21
89.5882017563
 31
0.0
  0
LINE
  5
101
330
1F
100
AcDbEntity
  8
0
  6
Continuous
 62
     7
370
    15
100
AcDbLine
 10
203.5225680112
 20
90.1512290935
 30
0.0
 11
204.1967337965
 21
89.5882017563
 31
0.0
  0
LINE
  5
102
330
1F
100
AcDbEntity
  8
0
  6
Continuous
 62
     7
370
    15
100
AcDbLine
 10
204.3719938039
 20
89.5882017563
 30
0.0
 11
203.6978280186
 21
90.1512290935
 31
0.0
  0
LINE
  5
103
330
1F
100
AcDbEntity
  8
0
  6
Continuous
 62
     7
370
    15
100
AcDbLine
 10
204.3719938039
 20
89.5882017563
 30
0.0
 11
204.3719938039
 21
89.5989808838
 31
0.0
  0
SPLINE
  5
104
330
1F
100
AcDbEntity
  8
0
  6
Continuous
 62
     7
370
    15
100
AcDbSpline
210
0.0
220
0.0
230
1.0
 70
     8
 71
     3
 72
     9
 73
     5
 74
     0
 42
0.00000001
 43
0.00000001
 40
0.0
 40
0.0
 40
0.0
 40
0.0
 40
0.4999842467720571
 40
1.0
 40
1.0
 40
1.0
 40
1.0
 10
211.2467488288263
 20
89.26634505642234
 30
0.0
 10
211.2737147674872
 20
89.2661834753495
 30
0.0
 10
211.3276483440651
 20
89.26586030302182
 30
0.0
 10
211.3815842733448
 20
89.26618346856156
 30
0.0
 10
211.4085530876496
 20
89.26634505642234
 30
0.0
  0
LWPOLYLINE
  5
105
330
1F
100
AcDbEntity
  8
0
  6
Continuous
 62
     7
370
    15
100
AcDbPolyline
 90
        3
 70
   128
 43
0.0
 10
212.5395288705
 20
90.1512290935
 10
212.3094400405
 20
89.9937368582
 10
211.2467488288
 20
89.2663450564
  0
LWPOLYLINE
  5
106
330
1F
100
AcDbEntity
  8
0
  6
Continuous
 62
     7
370
    15
100
AcDbPolyline
 90
        3
 70
   128
 43
0.0
 10
211.4085530876
 20
89.2663450564
 10
212.4712442994
 20
89.9937368582
 10
212.7013256788
 20
90.1512290935
  0
LINE
  5
107
330
1F
100
AcDbEntity
  8
0
  6
Continuous
 62
     7
370
    15
100
AcDbLine
 10
211.2467488288
 20
89.2663450564
 30
0.0
 11
211.2467488288
 21
89.2771241839
 31
0.0
  0
SPLINE
  5
108
330
1F
100
AcDbEntity
  8
0
  6
Continuous
 62
     7
370
    15
100
AcDbSpline
210
0.0
220
0.0
230
1.0
 70
     8
 71
     3
 72
     9
 73
     5
 74
     0
 42
0.00000001
 43
0.00000001
 40
0.0
 40
0.0
 40
0.0
 40
0.0
 40
0.5000157532279429
 40
1.0
 40
1.0
 40
1.0
 40
1.0
 10
203.92881836885
 20
89.26634505642234
 30
0.0
 10
203.9557871831549
 20
89.26618346856156
 30
0.0
 10
204.0097231124346
 20
89.26586030302182
 30
0.0
 10
204.0636566890124
 20
89.26618347534951
 30
0.0
 10
204.0906226276735
 20
89.26634505642234
 30
0.0
  0
LWPOLYLINE
  5
109
330
1F
100
AcDbEntity
  8
0
  6
Continuous
 62
     7
370
    15
100
AcDbPolyline
 90
        3
 70
   128
 43
0.0
 10
202.6360383272
 20
90.1512290935
 10
202.8661271571
 20
89.9937368582
 10
203.9288183689
 20
89.2663450564
  0
LWPOLYLINE
  5
10A
330
1F
100
AcDbEntity
  8
0
  6
Continuous
 62
     7
370
    15
100
AcDbPolyline
 90
        3
 70
   128
 43
0.0
 10
204.0906226277
 20
89.2663450564
 10
203.027931416
 20
89.9937368582
 10
202.797842586
 20
90.1512290935
  0
LINE
  5
10B
330
1F
100
AcDbEntity
  8
0
  6
Continuous
 62
     7
370
    15
100
AcDbLine
 10
204.0906226277
 20
89.2663450564
 30
0.0
 11
204.0906226277
 21
89.2771241839
 31
0.0
  0
LINE
  5
10C
330
1F
100
AcDbEntity
  8
0
  6
Continuous
 62
     7
370
    15
100
AcDbLine
 10
212.4047329664
 20
89.5882017563
 30
0.0
 11
212.5505259275
 21
89.5882017563
 31
0.0
  0
LINE
  5
10D
330
1F
100
AcDbEntity
  8
0
  6
Continuous
 62
     7
370
    15
100
AcDbLine
 10
213.3626913666
 20
90.1512290935
 30
0.0
 11
212.4047329664
 21
89.5882017563
 31
0.0
  0
LINE
  5
10E
330
1F
100
AcDbEntity
  8
0
  6
Continuous
 62
     7
370
    15
100
AcDbLine
 10
212.5505259275
 20
89.5882017563
 30
0.0
 11
213.5084843277
 21
90.1512290935
 31
0.0
  0
LINE
  5
10F
330
1F
100
AcDbEntity
  8
0
  6
Continuous
 62
     7
370
    15
100
AcDbLine
 10
212.4047329664
 20
89.5882017563
 30
0.0
 11
212.4047329664
 21
89.5989808838
 31
0.0
  0
LINE
  5
110
330
1F
100
AcDbEntity
  8
0
  6
Continuous
 62
     7
370
    15
100
AcDbLine
 10
202.786845529
 20
89.5882017563
 30
0.0
 11
202.9326384901
 21
89.5882017563
 31
0.0
  0
LINE
  5
111
330
1F
100
AcDbEntity
  8
0
  6
Continuous
 62
     7
370
    15
100
AcDbLine
 10
201.8288871288
 20
90.1512290935
 30
0.0
 11
202.786845529
 21
89.5882017563
 31
0.0
  0
LINE
  5
112
330
1F
100
AcDbEntity
  8
0
  6
Continuous
 62
     7
370
    15
100
AcDbLine
 10
202.9326384901
 20
89.5882017563
 30
0.0
 11
201.9746800899
 21
90.1512290935
 31
0.0
  0
LINE
  5
113
330
1F
100
AcDbEntity
  8
0
  6
Continuous
 62
     7
370
    15
100
AcDbLine
 10
202.9326384901
 20
89.5882017563
 30
0.0
 11
202.9326384901
 21
89.5989808838
 31
0.0
  0
SPLINE
  5
114
330
1F
100
AcDbEntity
  8
0
  6
Continuous
 62
     7
370
    15
100
AcDbSpline
210
0.0
220
0.0
230
1.0
 70
     8
 71
     3
 72
    11
 73
     7
 74
     0
 42
0.00000001
 43
0.00000001
 40
0.0
 40
0.0
 40
0.0
 40
0.0
 40
0.2502042368472577
 40
0.4998597372988601
 40
0.7492880832795338
 40
1.0
 40
1.0
 40
1.0
 40
1.0
 10
206.5858742236474
 20
89.1485904927331
 30
0.0
 10
206.6694031864347
 20
89.15708350499135
 30
0.0
 10
206.8362779201395
 20
89.17405090302496
 30
0.0
 10
207.1066954750624
 20
89.17980533828255
 30
0.0
 10
207.3779024581968
 20
89.18204903969732
 30
0.0
 10
207.5597981613566
 20
89.1817718412737
 30
0.0
 10
207.6509794234613
 20
89.18163288635789
 30
0.0
  0
LINE
  5
115
330
1F
100
AcDbEntity
  8
0
  6
Continuous
 62
     7
370
    15
100
AcDbLine
 10
206.5858742236
 20
89.1485904927
 30
0.0
 11
206.5858742236
 21
89.1585901032
 31
0.0
  0
LINE
  5
116
330
1F
100
AcDbEntity
  8
0
  6
Continuous
 62
     7
370
    15
100
AcDbLine
 10
207.6509794235
 20
89.1816328864
 30
0.0
 11
207.6509794235
 21
89.1916324968
 31
0.0
  0
SPLINE
  5
117
330
1F
100
AcDbEntity
  8
0
  6
Continuous
 62
     7
370
    15
100
AcDbSpline
210
0.0
220
0.0
230
1.0
 70
     8
 71
     3
 72
    14
 73
    10
 74
     0
 42
0.00000001
 43
0.00000001
 40
0.0
 40
0.0
 40
0.0
 40
0.0
 40
0.2479503116364391
 40
0.5300628367271678
 40
0.6758357908002737
 40
0.7893680417350183
 40
0.8835376462160809
 40
0.9774806773013646
 40
1.0
 40
1.0
 40
1.0
 40
1.0
 10
207.6509794234613
 20
89.18163288635789
 30
0.0
 10
207.7848594184558
 20
89.18154182027011
 30
0.0
 10
208.0710651887146
 20
89.18134714114873
 30
0.0
 10
208.435363859585
 20
89.17497399787548
 30
0.0
 10
208.7084213414579
 20
89.14919343306522
 30
0.0
 10
208.8603120729658
 20
89.11491974077623
 30
0.0
 10
208.9450749480612
 20
89.06905610368543
 30
0.0
 10
208.9673077967874
 20
89.02936302921846
 30
0.0
 10
208.9684652927953
 20
89.00654240161741
 30
0.0
 10
208.9686891078332
 20
89.0021297733265
 30
0.0
  0
LINE
  5
118
330
1F
100
AcDbEntity
  8
0
  6
Continuous
 62
     7
370
    15
100
AcDbLine
 10
208.9686891078
 20
89.0021297733
 30
0.0
 11
208.9686891078
 21
89.0121293838
 31
0.0
  0
SPLINE
  5
119
330
1F
100
AcDbEntity
  8
0
  6
Continuous
 62
     7
370
    15
100
AcDbSpline
210
0.0
220
0.0
230
1.0
 70
     8
 71
     3
 72
    14
 73
    10
 74
     0
 42
0.00000001
 43
0.00000001
 40
0.0
 40
0.0
 40
0.0
 40
0.0
 40
0.249276610941517
 40
0.498767690009098
 40
0.6899713493776184
 40
0.8048359725625998
 40
0.8916918460706592
 40
0.9623825908682171
 40
1.0
 40
1.0
 40
1.0
 40
1.0
 10
207.6520225047448
 20
89.0877462576109
 30
0.0
 10
207.5531545690584
 20
89.08796173510552
 30
0.0
 10
207.3553336354697
 20
89.08839287548341
 30
0.0
 10
207.0834308344818
 20
89.088039731004
 30
0.0
 10
206.8650255118382
 20
89.07910631114204
 30
0.0
 10
206.734868041115
 20
89.05308020169427
 30
0.0
 10
206.6644489871372
 20
89.02645035122192
 30
0.0
 10
206.6381625150037
 20
89.0006142881594
 30
0.0
 10
206.6360776435139
 20
88.9849654339336
 30
0.0
 10
206.6353535293916
 20
88.97953029973088
 30
0.0
  0
SPLINE
  5
11A
330
1F
100
AcDbEntity
  8
0
  6
Continuous
 62
     7
370
    15
100
AcDbSpline
210
0.0
220
0.0
230
1.0
 70
     8
 71
     3
 72
    13
 73
     9
 74
     0
 42
0.00000001
 43
0.00000001
 40
0.0
 40
0.0
 40
0.0
 40
0.0
 40
0.0822261609002319
 40
0.164783507391645
 40
0.2864613089176528
 40
0.4173590498873653
 40
0.6615664625418223
 40
1.0
 40
1.0
 40
1.0
 40
1.0
 10
206.6353535293916
 20
88.97953029973088
 30
0.0
 10
206.6388087849062
 20
88.96712185868407
 30
0.0
 10
206.6457332128061
 20
88.942254998617
 30
0.0
 10
206.7106065022336
 20
88.90194819525435
 30
0.0
 10
206.8141714655009
 20
88.86340459035965
 30
0.0
 10
206.9998857605128
 20
88.82545288578291
 30
0.0
 10
207.2840465144292
 20
88.79914723909934
 30
0.0
 10
207.5168158327734
 20
88.79505509064019
 30
0.0
 10
207.6520225047448
 20
88.7926781202632
 30
0.0
  0
SPLINE
  5
11B
330
1F
100
AcDbEntity
  8
0
  6
Continuous
 62
     7
370
    15
100
AcDbSpline
210
0.0
220
0.0
230
1.0
 70
     8
 71
     3
 72
    14
 73
    10
 74
     0
 42
0.00000001
 43
0.00000001
 40
0.0
 40
0.0
 40
0.0
 40
0.0
 40
0.24706993229674
 40
0.4944826343604648
 40
0.6903737971311618
 40
0.8037546097140578
 40
0.8905818985457439
 40
0.9781964537901413
 40
1.0
 40
1.0
 40
1.0
 40
1.0
 10
207.6520225047448
 20
88.7926781202632
 30
0.0
 10
207.751156648574
 20
88.79367120970713
 30
0.0
 10
207.9495624689022
 20
88.79565876634678
 30
0.0
 10
208.2245392412335
 20
88.8150379318135
 30
0.0
 10
208.4432280058704
 20
88.84761069607745
 30
0.0
 10
208.5734946670174
 20
88.88997213739485
 30
0.0
 10
208.6455753943957
 20
88.92847335464087
 30
0.0
 10
208.6668461543231
 20
88.95863236490867
 30
0.0
 10
208.6683786515753
 20
88.97485269199663
 30
0.0
 10
208.6686840295175
 20
88.97808488709508
 30
0.0
  0
SPLINE
  5
11C
330
1F
100
AcDbEntity
  8
0
  6
Continuous
 62
     7
370
    15
100
AcDbSpline
210
0.0
220
0.0
230
1.0
 70
     8
 71
     3
 72
    10
 73
     6
 74
     0
 42
0.00000001
 43
0.00000001
 40
0.0
 40
0.0
 40
0.0
 40
0.0
 40
0.3320099704487011
 40
0.6305928270767688
 40
1.0
 40
1.0
 40
1.0
 40
1.0
 10
208.6686840295175
 20
88.97808488709508
 30
0.0
 10
208.664478804362
 20
88.99177769201181
 30
0.0
 10
208.6564917405528
 20
89.01778469581166
 30
0.0
 10
208.588086350855
 20
89.0488794774178
 30
0.0
 10
208.5252901273763
 20
89.06131393142486
 30
0.0
 10
208.4905629991868
 20
89.06819034618913
 30
0.0
  0
SPLINE
  5
11D
330
1F
100
AcDbEntity
  8
0
  6
Continuous
 62
     7
370
    15
100
AcDbSpline
210
0.0
220
0.0
230
1.0
 70
     8
 71
     3
 72
    10
 73
     6
 74
     0
 42
0.00000001
 43
0.00000001
 40
0.0
 40
0.0
 40
0.0
 40
0.0
 40
0.4453980853553156
 40
0.7222071576591408
 40
1.0
 40
1.0
 40
1.0
 40
1.0
 10
208.4905629991868
 20
89.06819034618913
 30
0.0
 10
208.3688769049437
 20
89.0758594866981
 30
0.0
 10
208.1715644980441
 20
89.08829489751552
 30
0.0
 10
207.8875695717749
 20
89.08739112934715
 30
0.0
 10
207.7306309879269
 20
89.0876277416196
 30
0.0
 10
207.6520225047448
 20
89.0877462576109
 30
0.0
  0
SPLINE
  5
11E
330
1F
100
AcDbEntity
  8
0
  6
Continuous
 62
     7
370
    15
100
AcDbSpline
210
0.0
220
0.0
230
1.0
 70
     8
 71
     3
 72
    12
 73
     8
 74
     0
 42
0.00000001
 43
0.00000001
 40
0.0
 40
0.0
 40
0.0
 40
0.0
 40
0.13810136083618
 40
0.2587200438009822
 40
0.3689190222898576
 40
0.6910976799567055
 40
1.0
 40
1.0
 40
1.0
 40
1.0
 10
208.9686891078332
 20
89.0021297733265
 30
0.0
 10
208.9596097785332
 20
88.97370323323587
 30
0.0
 10
208.942600500276
 20
88.92044875657591
 30
0.0
 10
208.821021030063
 20
88.84831108656316
 30
0.0
 10
208.5669771639894
 20
88.76828059219287
 30
0.0
 10
208.1639851564289
 20
88.70845060072229
 30
0.0
 10
207.819566100999
 20
88.70196822051798
 30
0.0
 10
207.6509794234613
 20
88.69879521680652
 30
0.0
  0
SPLINE
  5
11F
330
1F
100
AcDbEntity
  8
0
  6
Continuous
 62
     7
370
    15
100
AcDbSpline
210
0.0
220
0.0
230
1.0
 70
     8
 71
     3
 72
    13
 73
     9
 74
     0
 42
0.00000001
 43
0.00000001
 40
0.0
 40
0.0
 40
0.0
 40
0.0
 40
0.2451596261728995
 40
0.5544363801573934
 40
0.6871951353750694
 40
0.821495133507881
 40
0.9363548430860884
 40
0.9999999999999999
 40
0.9999999999999999
 40
0.9999999999999999
 40
0.9999999999999999
 10
207.6509794234613
 20
88.69879521680652
 30
0.0
 10
207.5172154422226
 20
88.7013150921025
 30
0.0
 10
207.2147038961284
 20
88.70701387113625
 30
0.0
 10
206.8404882678533
 20
88.75239847808736
 30
0.0
 10
206.5578721601353
 20
88.82451734949314
 30
0.0
 10
206.4053838493437
 20
88.89140849213103
 30
0.0
 10
206.3413003329647
 20
88.95663847917737
 30
0.0
 10
206.3369128054848
 20
88.9925094284491
 30
0.0
 10
206.3353484510758
 20
89.00529906404792
 30
0.0
  0
SPLINE
  5
120
330
1F
100
AcDbEntity
  8
0
  6
Continuous
 62
     7
370
    15
100
AcDbSpline
210
0.0
220
0.0
230
1.0
 70
     8
 71
     3
 72
    10
 73
     6
 74
     0
 42
0.00000001
 43
0.00000001
 40
0.0
 40
0.0
 40
0.0
 40
0.0
 40
0.3971294309605855
 40
0.7076094928571248
 40
1.0
 40
1.0
 40
1.0
 40
1.0
 10
206.3353484510758
 20
89.00529906404792
 30
0.0
 10
206.3423589991206
 20
89.03051688402552
 30
0.0
 10
206.3548504690542
 20
89.07545026698365
 30
0.0
 10
206.4573516256629
 20
89.12303308996341
 30
0.0
 10
206.5438989958577
 20
89.14024349524166
 30
0.0
 10
206.5858742236474
 20
89.1485904927331
 30
0.0
  0
SPLINE
  5
121
330
1F
100
AcDbEntity
  8
0
  6
Continuous
 62
     7
370
    15
100
AcDbSpline
210
0.0
220
0.0
230
1.0
 70
     8
 71
     3
 72
    13
 73
     9
 74
     0
 42
0.00000001
 43
0.00000001
 40
0.0
 40
0.0
 40
0.0
 40
0.0
 40
0.0847440854040672
 40
0.1702001389347863
 40
0.2851021595777384
 40
0.4402161174870395
 40
0.7171738162169201
 40
1.0
 40
1.0
 40
1.0
 40
1.0
 10
208.6686840295175
 20
88.9880854289013
 30
0.0
 10
208.6654557264104
 20
88.97527103070783
 30
0.0
 10
208.6589719979622
 20
88.94953457556178
 30
0.0
 10
208.5950447716232
 20
88.9091360513448
 30
0.0
 10
208.4836949674886
 20
88.86875853996902
 30
0.0
 10
208.2755338444072
 20
88.82958908830057
 30
0.0
 10
207.9896978937481
 20
88.80672307776899
 30
0.0
 10
207.7653648981594
 20
88.80403618995058
 30
0.0
 10
207.6520225047448
 20
88.80267866206943
 30
0.0
  0
SPLINE
  5
122
330
1F
100
AcDbEntity
  8
0
  6
Continuous
 62
     7
370
    15
100
AcDbSpline
210
0.0
220
0.0
230
1.0
 70
     8
 71
     3
 72
    14
 73
    10
 74
     0
 42
0.00000001
 43
0.00000001
 40
0.0
 40
0.0
 40
0.0
 40
0.0
 40
0.247366596357572
 40
0.4949927322014339
 40
0.6882890976817623
 40
0.8086150613716043
 40
0.8994855023242962
 40
0.9814093670203309
 40
1.0
 40
1.0
 40
1.0
 40
1.0
 10
207.6520225047448
 20
88.80267866206943
 30
0.0
 10
207.5530782615249
 20
88.80398871285803
 30
0.0
 10
207.3550859618038
 20
88.80661018895348
 30
0.0
 10
207.0818600749762
 20
88.82639787500882
 30
0.0
 10
206.8618482921927
 20
88.85935134801387
 30
0.0
 10
206.7300148657779
 20
88.90321738030944
 30
0.0
 10
206.6578725352738
 20
88.94267276781206
 30
0.0
 10
206.6373283140661
 20
88.97192306822394
 30
0.0
 10
206.6356617654591
 20
88.98678173021946
 30
0.0
 10
206.6353535293916
 20
88.98952991021453
 30
0.0
  0
LINE
  5
123
330
1F
100
AcDbEntity
  8
0
  6
Continuous
 62
     7
370
    15
100
AcDbLine
 10
206.3353484511
 20
89.005299064
 30
0.0
 11
206.3353484511
 21
89.0152996059
 31
0.0
  0
LINE
  5
124
330
1F
100
AcDbEntity
  8
0
  6
Continuous
 62
     7
370
    15
100
AcDbLine
 10
207.6520225047
 20
88.7926781203
 30
0.0
 11
207.6520225047
 21
88.8026786621
 31
0.0
  0
LINE
  5
125
330
1F
100
AcDbEntity
  8
0
  6
Continuous
 62
     7
370
    15
100
AcDbLine
 10
214.0960594653
 20
90.1512290935
 30
0.0
 11
213.0177965402
 21
89.5882017563
 31
0.0
  0
LINE
  5
126
330
1F
100
AcDbEntity
  8
0
  6
Continuous
 62
     7
370
    15
100
AcDbLine
 10
213.0177965402
 20
89.5882017563
 30
0.0
 11
213.0177965402
 21
89.5989808838
 31
0.0
  0
LINE
  5
127
330
1F
100
AcDbEntity
  8
0
  6
Continuous
 62
     7
370
    15
100
AcDbLine
 10
213.0177965402
 20
89.5882017563
 30
0.0
 11
213.1452834248
 21
89.5882017563
 31
0.0
  0
LINE
  5
128
330
1F
100
AcDbEntity
  8
0
  6
Continuous
 62
     7
370
    15
100
AcDbLine
 10
213.1452834248
 20
89.5882017563
 30
0.0
 11
214.2235463499
 21
90.1512290935
 31
0.0
  0
LINE
  5
129
330
1F
100
AcDbEntity
  8
0
  6
Continuous
 62
     7
370
    15
100
AcDbLine
 10
202.1920880317
 20
89.5882017563
 30
0.0
 11
202.3195749163
 21
89.5882017563
 31
0.0
  0
LINE
  5
12A
330
1F
100
AcDbEntity
  8
0
  6
Continuous
 62
     7
370
    15
100
AcDbLine
 10
201.1138251066
 20
90.1512290935
 30
0.0
 11
202.1920880317
 21
89.5882017563
 31
0.0
  0
LINE
  5
12B
330
1F
100
AcDbEntity
  8
0
  6
Continuous
 62
     7
370
    15
100
AcDbLine
 10
202.3195749163
 20
89.5882017563
 30
0.0
 11
201.2413119912
 21
90.1512290935
 31
0.0
  0
LINE
  5
12C
330
1F
100
AcDbEntity
  8
0
  6
Continuous
 62
     7
370
    15
100
AcDbLine
 10
202.3195749163
 20
89.5882017563
 30
0.0
 11
202.3195749163
 21
89.5989808838
 31
0.0
  0
LINE
  5
12D
330
1F
100
AcDbEntity
  8
0
  6
Continuous
 62
     7
370
    15
100
AcDbLine
 10
214.7280624151
 20
90.1512290935
 30
0.0
 11
213.5465046405
 21
89.5882017563
 31
0.0
  0
LINE
  5
12E
330
1F
100
AcDbEntity
  8
0
  6
Continuous
 62
     7
370
    15
100
AcDbLine
 10
213.5465046405
 20
89.5882017563
 30
0.0
 11
213.5465046405
 21
89.5989808838
 31
0.0
  0
LINE
  5
12F
330
1F
100
AcDbEntity
  8
0
  6
Continuous
 62
     7
370
    15
100
AcDbLine
 10
213.5465046405
 20
89.5882017563
 30
0.0
 11
213.6536737918
 21
89.5882017563
 31
0.0
  0
LINE
  5
130
330
1F
100
AcDbEntity
  8
0
  6
Continuous
 62
     7
370
    15
100
AcDbLine
 10
213.6536737918
 20
89.5882017563
 30
0.0
 11
214.8352315664
 21
90.1512290935
 31
0.0
  0
LINE
  5
131
330
1F
100
AcDbEntity
  8
0
  6
Continuous
 62
     7
370
    15
100
AcDbLine
 10
201.6836976647
 20
89.5882017563
 30
0.0
 11
201.790866816
 21
89.5882017563
 31
0.0
  0
LINE
  5
132
330
1F
100
AcDbEntity
  8
0
  6
Continuous
 62
     7
370
    15
100
AcDbLine
 10
200.5021398901
 20
90.1512290935
 30
0.0
 11
201.6836976647
 21
89.5882017563
 31
0.0
  0
LINE
  5
133
330
1F
100
AcDbEntity
  8
0
  6
Continuous
 62
     7
370
    15
100
AcDbLine
 10
201.790866816
 20
89.5882017563
 30
0.0
 11
200.6093090414
 21
90.1512290935
 31
0.0
  0
LINE
  5
134
330
1F
100
AcDbEntity
  8
0
  6
Continuous
 62
     7
370
    15
100
AcDbLine
 10
201.790866816
 20
89.5882017563
 30
0.0
 11
201.790866816
 21
89.5989808838
 31
0.0
  0
LINE
  5
135
330
1F
100
AcDbEntity
  8
0
  6
Continuous
 62
     7
370
    15
100
AcDbLine
 10
215.2487387895
 20
90.1512290935
 30
0.0
 11
213.9825200676
 21
89.5882017563
 31
0.0
  0
LINE
  5
136
330
1F
100
AcDbEntity
  8
0
  6
Continuous
 62
     7
370
    15
100
AcDbLine
 10
213.9825200676
 20
89.5882017563
 30
0.0
 11
213.9825200676
 21
89.5989808838
 31
0.0
  0
LINE
  5
137
330
1F
100
AcDbEntity
  8
0
  6
Continuous
 62
     7
370
    15
100
AcDbLine
 10
213.9825200676
 20
89.5882017563
 30
0.0
 11
214.0676727533
 21
89.5882017563
 31
0.0
  0
LINE
  5
138
330
1F
100
AcDbEntity
  8
0
  6
Continuous
 62
     7
370
    15
100
AcDbLine
 10
214.0676727533
 20
89.5882017563
 30
0.0
 11
215.3338914751
 21
90.1512290935
 31
0.0
  0
LINE
  5
139
330
1F
100
AcDbEntity
  8
0
  6
Continuous
 62
     7
370
    15
100
AcDbLine
 10
201.2696987032
 20
89.5882017563
 30
0.0
 11
201.3548513889
 21
89.5882017563
 31
0.0
  0
LINE
  5
13A
330
1F
100
AcDbEntity
  8
0
  6
Continuous
 62
     7
370
    15
100
AcDbLine
 10
200.0034799814
 20
90.1512290935
 30
0.0
 11
201.2696987032
 21
89.5882017563
 31
0.0
  0
LINE
  5
13B
330
1F
100
AcDbEntity
  8
0
  6
Continuous
 62
     7
370
    15
100
AcDbLine
 10
201.3548513889
 20
89.5882017563
 30
0.0
 11
200.088632667
 21
90.1512290935
 31
0.0
  0
LINE
  5
13C
330
1F
100
AcDbEntity
  8
0
  6
Continuous
 62
     7
370
    15
100
AcDbLine
 10
201.3548513889
 20
89.5882017563
 30
0.0
 11
201.3548513889
 21
89.5989808838
 31
0.0
  0
LINE
  5
13D
330
1F
100
AcDbEntity
  8
0
  6
Continuous
 62
     7
370
    15
100
AcDbLine
 10
202.3347368478
 20
88.9133523802
 30
0.0
 11
202.1269252538
 21
88.9987453471
 31
0.0
  0
LINE
  5
13E
330
1F
100
AcDbEntity
  8
0
  6
Continuous
 62
     7
370
    15
100
AcDbLine
 10
202.1269252538
 20
88.9987453471
 30
0.0
 11
202.7519246578
 21
88.956133614
 31
0.0
  0
SPLINE
  5
13F
330
1F
100
AcDbEntity
  8
0
  6
Continuous
 62
     7
370
    15
100
AcDbSpline
210
0.0
220
0.0
230
1.0
 70
     8
 71
     3
 72
    10
 73
     6
 74
     0
 42
0.00000001
 43
0.00000001
 40
0.0
 40
0.0
 40
0.0
 40
0.0
 40
0.3742751362849938
 40
0.6851824880069802
 40
1.0
 40
1.0
 40
1.0
 40
1.0
 10
202.75192465776
 20
88.95613361401139
 30
0.0
 10
202.6891285066779
 20
88.97234348939475
 30
0.0
 10
202.5741680969036
 20
89.00201877815608
 30
0.0
 10
202.3929060171685
 20
89.057761989359
 30
0.0
 10
202.2762427926386
 20
89.09699286427562
 30
0.0
 10
202.2175466656068
 20
89.11673087877809
 30
0.0
  0
LINE
  5
140
330
1F
100
AcDbEntity
  8
0
  6
Continuous
 62
     7
370
    15
100
AcDbLine
 10
202.2175466656
 20
89.1167308788
 30
0.0
 11
202.3123404025
 21
89.1271887
 31
0.0
  0
SPLINE
  5
141
330
1F
100
AcDbEntity
  8
0
  6
Continuous
 62
     7
370
    15
100
AcDbSpline
210
0.0
220
0.0
230
1.0
 70
     8
 71
     3
 72
    10
 73
     6
 74
     0
 42
0.00000001
 43
0.00000001
 40
0.0
 40
0.0
 40
0.0
 40
0.0
 40
0.4964029641256753
 40
0.7443802048731751
 40
0.9999999999999999
 40
0.9999999999999999
 40
0.9999999999999999
 40
0.9999999999999999
 10
202.3123404025415
 20
89.12718869996844
 30
0.0
 10
202.440336101354
 20
89.08900744887147
 30
0.0
 10
202.6322718297653
 20
89.0317528199352
 30
0.0
 10
202.8599166951198
 20
88.98359638315094
 30
0.0
 10
202.9548019213874
 20
88.9732335614777
 30
0.0
 10
203.0029645203927
 20
88.96797351790248
 30
0.0
  0
LINE
  5
142
330
1F
100
AcDbEntity
  8
0
  6
Continuous
 62
     7
370
    15
100
AcDbLine
 10
203.0029645204
 20
88.9679735179
 30
0.0
 11
203.1368216514
 21
88.9129351477
 31
0.0
  0
LINE
  5
143
330
1F
100
AcDbEntity
  8
0
  6
Continuous
 62
     7
370
    15
100
AcDbLine
 10
203.1368216514
 20
88.9129351477
 30
0.0
 11
202.3347368478
 21
88.9133523802
 31
0.0
  0
LINE
  5
144
330
1F
100
AcDbEntity
  8
0
  6
Continuous
 62
     7
370
    15
100
AcDbLine
 10
202.3123404025
 20
89.1271887
 30
0.0
 11
202.3123404025
 21
89.1371892418
 31
0.0
  0
LINE
  5
145
330
1F
100
AcDbEntity
  8
0
  6
Continuous
 62
     7
370
    15
100
AcDbLine
 10
203.0029645204
 20
88.9679735179
 30
0.0
 11
203.0029645204
 21
88.9779731284
 31
0.0
  0
LINE
  5
146
330
1F
100
AcDbEntity
  8
0
  6
Continuous
 62
     7
370
    15
100
AcDbLine
 10
203.1368216514
 20
88.9129351477
 30
0.0
 11
203.1368216514
 21
88.9229347582
 31
0.0
  0
LINE
  5
147
330
1F
100
AcDbEntity
  8
0
  6
Continuous
 62
     7
370
    15
100
AcDbLine
 10
212.5967195272
 20
88.9039618547
 30
0.0
 11
212.9566198229
 21
88.9206893395
 31
0.0
  0
LINE
  5
148
330
1F
100
AcDbEntity
  8
0
  6
Continuous
 62
     7
370
    15
100
AcDbLine
 10
212.9566198229
 20
88.9206893395
 30
0.0
 11
213.1274541854
 21
89.1279412086
 31
0.0
  0
LINE
  5
149
330
1F
100
AcDbEntity
  8
0
  6
Continuous
 62
     7
370
    15
100
AcDbLine
 10
213.1274541854
 20
89.1279412086
 30
0.0
 11
212.5967195272
 21
88.9039618547
 31
0.0
  0
LINE
  5
14A
330
1F
100
AcDbEntity
  8
0
  6
Continuous
 62
     7
370
    15
100
AcDbLine
 10
212.3154750108
 20
88.9613210808
 30
0.0
 11
212.506619656
 21
88.9156406398
 31
0.0
  0
LINE
  5
14B
330
1F
100
AcDbEntity
  8
0
  6
Continuous
 62
     7
370
    15
100
AcDbLine
 10
212.506619656
 20
88.9156406398
 30
0.0
 11
213.2415151238
 21
89.2242977048
 31
0.0
  0
LINE
  5
14C
330
1F
100
AcDbEntity
  8
0
  6
Continuous
 62
     7
370
    15
100
AcDbLine
 10
213.2415151238
 20
89.2242977048
 30
0.0
 11
213.3316149949
 21
89.2141062419
 31
0.0
  0
LINE
  5
14D
330
1F
100
AcDbEntity
  8
0
  6
Continuous
 62
     7
370
    15
100
AcDbLine
 10
213.3316149949
 20
89.2141062419
 30
0.0
 11
213.0764102578
 21
88.9441279347
 31
0.0
  0
LINE
  5
14E
330
1F
100
AcDbEntity
  8
0
  6
Continuous
 62
     7
370
    15
100
AcDbLine
 10
213.0764102578
 20
88.9441279347
 30
0.0
 11
212.9066189765
 21
88.8744007449
 31
0.0
  0
LINE
  5
14F
330
1F
100
AcDbEntity
  8
0
  6
Continuous
 62
     7
370
    15
100
AcDbLine
 10
212.9066189765
 20
88.8744007449
 30
0.0
 11
212.3889079332
 21
88.8162610705
 31
0.0
  0
LINE
  5
150
330
1F
100
AcDbEntity
  8
0
  6
Continuous
 62
     7
370
    15
100
AcDbLine
 10
212.3889079332
 20
88.8162610705
 30
0.0
 11
212.1597429752
 21
88.7196037571
 31
0.0
  0
LINE
  5
151
330
1F
100
AcDbEntity
  8
0
  6
Continuous
 62
     7
370
    15
100
AcDbLine
 10
212.1597429752
 20
88.7196037571
 30
0.0
 11
212.0696356534
 21
88.7323796402
 31
0.0
  0
LINE
  5
152
330
1F
100
AcDbEntity
  8
0
  6
Continuous
 62
     7
370
    15
100
AcDbLine
 10
212.0696356534
 20
88.7323796402
 30
0.0
 11
212.298808062
 21
88.8284353192
 31
0.0
  0
LINE
  5
153
330
1F
100
AcDbEntity
  8
0
  6
Continuous
 62
     7
370
    15
100
AcDbLine
 10
212.298808062
 20
88.8284353192
 30
0.0
 11
212.1076559662
 21
88.8759923751
 31
0.0
  0
LINE
  5
154
330
1F
100
AcDbEntity
  8
0
  6
Continuous
 62
     7
370
    15
100
AcDbLine
 10
212.1076559662
 20
88.8759923751
 30
0.0
 11
212.3154750108
 21
88.9613210808
 31
0.0
  0
LINE
  5
155
330
1F
100
AcDbEntity
  8
0
  6
Continuous
 62
     7
370
    15
100
AcDbLine
 10
212.1076559662
 20
88.8759923751
 30
0.0
 11
212.1076559662
 21
88.8859919856
 31
0.0
  0
LINE
  5
156
330
1F
100
AcDbEntity
  8
0
  6
Continuous
 62
     7
370
    15
100
AcDbLine
 10
212.3154750108
 20
88.9613210808
 30
0.0
 11
212.3154750108
 21
88.9713206912
 31
0.0
  0
LINE
  5
157
330
1F
100
AcDbEntity
  8
0
  6
Continuous
 62
     7
370
    15
100
AcDbLine
 10
212.506619656
 20
88.9156406398
 30
0.0
 11
212.506619656
 21
88.9256402503
 31
0.0
  0
SPLINE
  5
158
330
1F
100
AcDbEntity
  8
0
  6
Continuous
 62
     7
370
    15
100
AcDbSpline
210
0.0
220
0.0
230
1.0
 70
     8
 71
     3
 72
     9
 73
     5
 74
     0
 42
0.00000001
 43
0.00000001
 40
0.0
 40
0.0
 40
0.0
 40
0.0
 40
0.4999939674433707
 40
1.0
 40
1.0
 40
1.0
 40
1.0
 10
213.5581126450875
 20
89.26634505642234
 30
0.0
 10
213.5684112722691
 20
89.26618347325531
 30
0.0
 10
213.5890087751432
 20
89.26586030302218
 30
0.0
 10
213.609612982943
 20
89.26618347065593
 30
0.0
 10
213.619915211139
 20
89.26634505642234
 30
0.0
  0
LWPOLYLINE
  5
159
330
1F
100
AcDbEntity
  8
0
  6
Continuous
 62
     7
370
    15
100
AcDbPolyline
 90
        3
 70
   128
 43
0.0
 10
215.6498705983
 20
90.1512290935
 10
215.2775874376
 20
89.9937368582
 10
213.5581126451
 20
89.2663450564
  0
LWPOLYLINE
  5
15A
330
1F
100
AcDbEntity
  8
0
  6
Continuous
 62
     7
370
    15
100
AcDbPolyline
 90
        3
 70
   128
 43
0.0
 10
213.6199152111
 20
89.2663450564
 10
215.3393900036
 20
89.9937368582
 10
215.7116731643
 20
90.1512290935
  0
LINE
  5
15B
330
1F
100
AcDbEntity
  8
0
  6
Continuous
 62
     7
370
    15
100
AcDbLine
 10
213.5581126451
 20
89.2663450564
 30
0.0
 11
213.5581126451
 21
89.2771241839
 31
0.0
  0
SPLINE
  5
15C
330
1F
100
AcDbEntity
  8
0
  6
Continuous
 62
     7
370
    15
100
AcDbSpline
210
0.0
220
0.0
230
1.0
 70
     8
 71
     3
 72
     9
 73
     5
 74
     0
 42
0.00000001
 43
0.00000001
 40
0.0
 40
0.0
 40
0.0
 40
0.0
 40
0.5000060325566295
 40
1.0
 40
1.0
 40
1.0
 40
1.0
 10
201.7174562453607
 20
89.26634505642234
 30
0.0
 10
201.7277584735566
 20
89.26618347065593
 30
0.0
 10
201.7483626813564
 20
89.2658603030222
 30
0.0
 10
201.7689601842307
 20
89.26618347325531
 30
0.0
 10
201.7792588114121
 20
89.26634505642234
 30
0.0
  0
LWPOLYLINE
  5
15D
330
1F
100
AcDbEntity
  8
0
  6
Continuous
 62
     7
370
    15
100
AcDbPolyline
 90
        3
 70
   128
 43
0.0
 10
199.6256982922
 20
90.1512290935
 10
199.9979814529
 20
89.9937368582
 10
201.7174562454
 20
89.2663450564
  0
LWPOLYLINE
  5
15E
330
1F
100
AcDbEntity
  8
0
  6
Continuous
 62
     7
370
    15
100
AcDbPolyline
 90
        3
 70
   128
 43
0.0
 10
201.7792588114
 20
89.2663450564
 10
200.0597840189
 20
89.9937368582
 10
199.6875008582
 20
90.1512290935
  0
LINE
  5
15F
330
1F
100
AcDbEntity
  8
0
  6
Continuous
 62
     7
370
    15
100
AcDbLine
 10
201.7792588114
 20
89.2663450564
 30
0.0
 11
201.7792588114
 21
89.2771241839
 31
0.0
  0
LINE
  5
160
330
1F
100
AcDbEntity
  8
0
  6
Continuous
 62
     7
370
    15
100
AcDbLine
 10
213.2415151238
 20
89.2242977048
 30
0.0
 11
213.2415151238
 21
89.2342973153
 31
0.0
  0
LINE
  5
161
330
1F
100
AcDbEntity
  8
0
  6
Continuous
 62
     7
370
    15
100
AcDbLine
 10
213.3316149949
 20
89.2141062419
 30
0.0
 11
213.3316149949
 21
89.2241058524
 31
0.0
  0
LINE
  5
162
330
1F
100
AcDbEntity
  8
0
  6
Continuous
 62
     7
370
    15
100
AcDbLine
 10
202.2175466656
 20
89.1167308788
 30
0.0
 11
202.2175466656
 21
89.1267314206
 31
0.0
  0
LINE
  5
163
330
1F
100
AcDbEntity
  8
0
  6
Continuous
 62
     7
370
    15
100
AcDbLine
 10
202.1269252538
 20
88.9987453471
 30
0.0
 11
202.1269252538
 21
89.0087458889
 31
0.0
  0
LINE
  5
164
330
1F
100
AcDbEntity
  8
0
  6
Continuous
 62
     7
370
    15
100
AcDbLine
 10
212.0696356534
 20
88.7323796402
 30
0.0
 11
212.0696356534
 21
88.7423792507
 31
0.0
  0
LINE
  5
165
330
1F
100
AcDbEntity
  8
0
  6
Continuous
 62
     7
370
    15
100
AcDbLine
 10
212.9566198229
 20
88.9306898813
 30
0.0
 11
212.5967195272
 21
88.9139614652
 31
0.0
  0
LINE
  5
166
330
1F
100
AcDbEntity
  8
0
  6
Continuous
 62
     7
370
    15
100
AcDbLine
 10
213.1274541854
 20
89.1379417504
 30
0.0
 11
212.9566198229
 21
88.9306898813
 31
0.0
  0
LINE
  5
167
330
1F
100
AcDbEntity
  8
0
  6
Continuous
 62
     7
370
    15
100
AcDbLine
 10
212.9566198229
 20
88.9206893395
 30
0.0
 11
212.9566198229
 21
88.9306898813
 31
0.0
  0
LINE
  5
168
330
1F
100
AcDbEntity
  8
0
  6
Continuous
 62
     7
370
    15
100
AcDbLine
 10
214.5505150794
 20
89.5882017563
 30
0.0
 11
214.5879914998
 21
89.5882017563
 31
0.0
  0
LINE
  5
169
330
1F
100
AcDbEntity
  8
0
  6
Continuous
 62
     7
370
    15
100
AcDbLine
 10
215.9251322984
 20
90.1512290935
 30
0.0
 11
214.5505150794
 21
89.5882017563
 31
0.0
  0
LINE
  5
16A
330
1F
100
AcDbEntity
  8
0
  6
Continuous
 62
     7
370
    15
100
AcDbLine
 10
214.5879914998
 20
89.5882017563
 30
0.0
 11
215.9626087188
 21
90.1512290935
 31
0.0
  0
LINE
  5
16B
330
1F
100
AcDbEntity
  8
0
  6
Continuous
 62
     7
370
    15
100
AcDbLine
 10
214.5505150794
 20
89.5882017563
 30
0.0
 11
214.5505150794
 21
89.5989808838
 31
0.0
  0
LINE
  5
16C
330
1F
100
AcDbEntity
  8
0
  6
Continuous
 62
     7
370
    15
100
AcDbLine
 10
200.7493799567
 20
89.5882017563
 30
0.0
 11
200.7868563771
 21
89.5882017563
 31
0.0
  0
LINE
  5
16D
330
1F
100
AcDbEntity
  8
0
  6
Continuous
 62
     7
370
    15
100
AcDbLine
 10
199.3747627377
 20
90.1512290935
 30
0.0
 11
200.7493799567
 21
89.5882017563
 31
0.0
  0
LINE
  5
16E
330
1F
100
AcDbEntity
  8
0
  6
Continuous
 62
     7
370
    15
100
AcDbLine
 10
200.7868563771
 20
89.5882017563
 30
0.0
 11
199.4122391581
 21
90.1512290935
 31
0.0
  0
LINE
  5
16F
330
1F
100
AcDbEntity
  8
0
  6
Continuous
 62
     7
370
    15
100
AcDbLine
 10
200.7868563771
 20
89.5882017563
 30
0.0
 11
200.7868563771
 21
89.5989808838
 31
0.0
  0
LINE
  5
170
330
1F
100
AcDbEntity
  8
0
  6
Continuous
 62
     7
370
    15
100
AcDbLine
 10
216.070187652
 20
90.1512290935
 30
0.0
 11
214.6735465168
 21
89.5882017563
 31
0.0
  0
LINE
  5
171
330
1F
100
AcDbEntity
  8
0
  6
Continuous
 62
     7
370
    15
100
AcDbLine
 10
214.6735465168
 20
89.5882017563
 30
0.0
 11
214.6735465168
 21
89.5989808838
 31
0.0
  0
LINE
  5
172
330
1F
100
AcDbEntity
  8
0
  6
Continuous
 62
     7
370
    15
100
AcDbLine
 10
214.6735465168
 20
89.5882017563
 30
0.0
 11
214.6861007451
 21
89.5882017563
 31
0.0
  0
LINE
  5
173
330
1F
100
AcDbEntity
  8
0
  6
Continuous
 62
     7
370
    15
100
AcDbLine
 10
214.6861007451
 20
89.5882017563
 30
0.0
 11
216.0827493309
 21
90.1512290935
 31
0.0
  0
LINE
  5
174
330
1F
100
AcDbEntity
  8
0
  6
Continuous
 62
     7
370
    15
100
AcDbLine
 10
200.6512707114
 20
89.5882017563
 30
0.0
 11
200.6638249397
 21
89.5882017563
 31
0.0
  0
LINE
  5
175
330
1F
100
AcDbEntity
  8
0
  6
Continuous
 62
     7
370
    15
100
AcDbLine
 10
199.2546221256
 20
90.1512290935
 30
0.0
 11
200.6512707114
 21
89.5882017563
 31
0.0
  0
LINE
  5
176
330
1F
100
AcDbEntity
  8
0
  6
Continuous
 62
     7
370
    15
100
AcDbLine
 10
200.6638249397
 20
89.5882017563
 30
0.0
 11
199.2671838045
 21
90.1512290935
 31
0.0
  0
LINE
  5
177
330
1F
100
AcDbEntity
  8
0
  6
Continuous
 62
     7
370
    15
100
AcDbLine
 10
200.6638249397
 20
89.5882017563
 30
0.0
 11
200.6638249397
 21
89.5989808838
 31
0.0
  0
LINE
  5
178
330
1F
100
AcDbEntity
  8
0
  6
Continuous
 62
     7
370
    15
100
AcDbLine
 10
207.668682003
 20
115.1120077471
 30
0.0
 11
216.1686843275
 21
115.1120077471
 31
0.0
  0
LINE
  5
179
330
1F
100
AcDbEntity
  8
0
  6
Continuous
 62
     7
370
    15
100
AcDbLine
 10
201.0508751511
 20
115.1120077471
 30
0.0
 11
207.668682003
 21
115.1120077471
 31
0.0
  0
SPLINE
  5
17A
330
1F
100
AcDbEntity
  8
0
  6
Continuous
 62
     7
370
    15
100
AcDbSpline
210
0.0
220
0.0
230
1.0
 70
     8
 71
     3
 72
     9
 73
     5
 74
     0
 42
0.00000001
 43
0.00000001
 40
0.0
 40
0.0
 40
0.0
 40
0.0
 40
0.193485581560371
 40
1.0
 40
1.0
 40
1.0
 40
1.0
 10
200.1447206377366
 20
115.5120079989511
 30
0.0
 10
200.2005501870778
 20
115.5638315845508
 30
0.0
 10
200.4890964905848
 20
115.831673690313
 30
0.0
 10
200.7794447444331
 20
116.0975640742448
 30
0.0
 10
201.0136147975305
 20
116.3120085026103
 30
0.0
  0
LINE
  5
17B
330
1F
100
AcDbEntity
  8
0
  6
Continuous
 62
     7
370
    15
100
AcDbLine
 10
215.768685007
 20
115.512007999
 30
0.0
 11
200.1447206377
 21
115.512007999
 31
0.0
  0
LINE
  5
17C
330
1F
100
AcDbEntity
  8
0
  6
Continuous
 62
     7
370
    15
100
AcDbLine
 10
200.3686850905
 20
116.3120085026
 30
0.0
 11
201.0136147975
 21
116.3120085026
 31
0.0
  0
LINE
  5
17D
330
1F
100
AcDbEntity
  8
0
  6
Continuous
 62
     7
370
    15
100
AcDbLine
 10
202.6686867713
 20
116.3120085026
 30
0.0
 11
201.0136147975
 21
116.3120085026
 31
0.0
  0
LINE
  5
17E
330
1F
100
AcDbEntity
  8
0
  6
Continuous
 62
     7
370
    15
100
AcDbLine
 10
202.6686867713
 20
116.3120085026
 30
0.0
 11
202.6686867713
 21
115.512007999
 31
0.0
  0
LINE
  5
17F
330
1F
100
AcDbEntity
  8
0
  6
Continuous
 62
     7
370
    15
100
AcDbLine
 10
203.1686877846
 20
116.3120085026
 30
0.0
 11
203.1686877846
 21
115.512007999
 31
0.0
  0
LINE
  5
180
330
1F
100
AcDbEntity
  8
0
  6
Continuous
 62
     7
370
    15
100
AcDbLine
 10
203.1686877846
 20
116.3120085026
 30
0.0
 11
202.6686867713
 21
116.3120085026
 31
0.0
  0
LINE
  5
181
330
1F
100
AcDbEntity
  8
0
  6
Continuous
 62
     7
370
    15
100
AcDbLine
 10
209.3277102351
 20
103.9096459632
 30
0.0
 11
208.9291637778
 21
102.224071196
 31
0.0
  0
CIRCLE
  5
182
330
1F
100
AcDbEntity
  8
0
  6
Continuous
 62
     7
370
    15
100
AcDbCircle
 10
207.6686854839
 20
103.4120080645
 30
0.0
 40
2.445499999999982
  0
LINE
  5
183
330
1F
100
AcDbEntity
  8
0
  6
Continuous
 62
     7
370
    15
100
AcDbLine
 10
208.0672284603
 20
105.0975828317
 30
0.0
 11
206.4082076787
 21
104.599944933
 31
0.0
  0
LINE
  5
184
330
1F
100
AcDbEntity
  8
0
  6
Continuous
 62
     7
370
    15
100
AcDbLine
 10
209.3277102351
 20
103.9096459632
 30
0.0
 11
208.0672284603
 21
105.0975828317
 31
0.0
  0
LINE
  5
185
330
1F
100
AcDbEntity
  8
0
  6
Continuous
 62
     7
370
    15
100
AcDbLine
 10
207.2701429962
 20
101.7264332973
 30
0.0
 11
208.9291637778
 21
102.224071196
 31
0.0
  0
LINE
  5
186
330
1F
100
AcDbEntity
  8
0
  6
Continuous
 62
     7
370
    15
100
AcDbLine
 10
207.2701429962
 20
101.7264332973
 30
0.0
 11
206.0096612214
 21
102.9143701659
 31
0.0
  0
LINE
  5
187
330
1F
100
AcDbEntity
  8
0
  6
Continuous
 62
     7
370
    15
100
AcDbLine
 10
206.0096612214
 20
102.9143701659
 30
0.0
 11
206.4082076787
 21
104.599944933
 31
0.0
  0
CIRCLE
  5
188
330
1F
100
AcDbEntity
  8
0
  6
Continuous
 62
     7
370
    15
100
AcDbCircle
 10
207.6686854839
 20
103.4120080645
 30
0.0
 40
2.999999999999988
  0
SPLINE
  5
189
330
1F
100
AcDbEntity
  8
0
  6
Continuous
 62
     7
370
    15
100
AcDbSpline
210
0.0
220
0.0
230
1.0
 70
     8
 71
     3
 72
    68
 73
    64
 74
     0
 42
0.00000001
 43
0.00000001
 40
-0.03125
 40
-0.03125
 40
0.0
 40
0.0
 40
0.03125
 40
0.03125
 40
0.0625
 40
0.0625
 40
0.09375
 40
0.09375
 40
0.125
 40
0.125
 40
0.15625
 40
0.15625
 40
0.1875
 40
0.1875
 40
0.21875
 40
0.21875
 40
0.25
 40
0.25
 40
0.28125
 40
0.28125
 40
0.3125
 40
0.3125
 40
0.34375
 40
0.34375
 40
0.375
 40
0.375
 40
0.4375
 40
0.4375
 40
0.46875
 40
0.46875
 40
0.5
 40
0.5
 40
0.53125
 40
0.53125
 40
0.5625
 40
0.5625
 40
0.59375
 40
0.59375
 40
0.625
 40
0.625
 40
0.65625
 40
0.65625
 40
0.6875
 40
0.6875
 40
0.71875
 40
0.71875
 40
0.75
 40
0.75
 40
0.78125
 40
0.78125
 40
0.8125
 40
0.8125
 40
0.84375
 40
0.84375
 40
0.875
 40
0.875
 40
0.90625
 40
0.90625
 40
0.9375
 40
0.9375
 40
0.96875
 40
0.96875
 40
1.0
 40
1.0
 40
1.03125
 40
1.03125
 10
205.4812933595266
 20
105.9004849915026
 30
0.0
 10
205.1425637138935
 20
105.6195462492365
 30
0.0
 10
204.9890292781864
 20
105.4649242295857
 30
0.0
 10
204.7143825935154
 20
105.1263944657152
 30
0.0
 10
204.5926260293284
 20
104.9404637651809
 30
0.0
 10
204.3946158719596
 20
104.5531274811337
 30
0.0
 10
204.3167917238336
 20
104.3504389945587
 30
0.0
 10
204.2065347696459
 20
103.9256198498777
 30
0.0
 10
204.1754699633979
 20
103.7059639991832
 30
0.0
 10
204.1639188732977
 20
103.2702899896602
 30
0.0
 10
204.1833413317141
 20
103.0489342466672
 30
0.0
 10
204.2713896222349
 20
102.6187454312
 30
0.0
 10
204.338958256175
 20
102.4113551011986
 30
0.0
 10
204.5193370937194
 20
102.0113042307155
 30
0.0
 10
204.6316163615363
 20
101.821050378645
 30
0.0
 10
204.8900519719243
 20
101.4705537879447
 30
0.0
 10
205.0388104822422
 20
101.3069069029258
 30
0.0
 10
205.3628186106816
 20
101.0136456596921
 30
0.0
 10
205.5373908824425
 20
100.8839205028524
 30
0.0
 10
205.9105868161595
 20
100.6564816479112
 30
0.0
 10
206.1094893824249
 20
100.5592002997989
 30
0.0
 10
206.5162800415494
 20
100.4030747941108
 30
0.0
 10
206.7259499671568
 20
100.3430328038696
 30
0.0
 10
207.1579855052438
 20
100.2591767619631
 30
0.0
 10
207.3770214311406
 20
100.2362546221058
 30
0.0
 10
208.0306532248287
 20
100.2236456390033
 30
0.0
 10
208.4734968305212
 20
100.2914054231428
 30
0.0
 10
209.0910539773674
 20
100.5005687560156
 30
0.0
 10
209.2913629920999
 20
100.5884304637423
 30
0.0
 10
209.6761235938449
 20
100.8013322515279
 30
0.0
 10
209.8557360438808
 20
100.9235520669318
 30
0.0
 10
210.1894962985704
 20
101.1997657898714
 30
0.0
 10
210.3448877460402
 20
101.3552655858761
 30
0.0
 10
210.6214346038398
 20
101.6952832051254
 30
0.0
 10
210.7405161608705
 20
101.8766247549773
 30
0.0
 10
210.9392699681259
 20
102.2627780801302
 30
0.0
 10
211.0195546487582
 20
102.4707413809425
 30
0.0
 10
211.1299939390833
 20
102.8940577440238
 30
0.0
 10
211.1611609037757
 20
103.1096255687233
 30
0.0
 10
211.1738241805588
 20
103.5488535018299
 30
0.0
 10
211.1545174234458
 20
103.7704975856515
 30
0.0
 10
211.0678072896866
 20
104.1984928234697
 30
0.0
 10
210.9993413598411
 20
104.4100760449821
 30
0.0
 10
210.8195327577321
 20
104.8099059730585
 30
0.0
 10
210.7090947222828
 20
104.9979277584667
 30
0.0
 10
210.4491256739963
 20
105.3515101770244
 30
0.0
 10
210.3009483836109
 20
105.5145753917154
 30
0.0
 10
209.9784576779154
 20
105.8072010872742
 30
0.0
 10
209.8013265131294
 20
105.9391934626995
 30
0.0
 10
209.4273658048221
 20
106.1672611839256
 30
0.0
 10
209.2317620273566
 20
106.2630959200582
 30
0.0
 10
208.8239593609515
 20
106.4200672534182
 30
0.0
 10
208.6101734224098
 20
106.4812149654108
 30
0.0
 10
208.1809840833532
 20
106.5645395825158
 30
0.0
 10
207.9640673456231
 20
106.5875543153968
 30
0.0
 10
207.5255768275945
 20
106.5962825840729
 30
0.0
 10
207.3037380802376
 20
106.5814981571017
 30
0.0
 10
206.8723989335825
 20
106.5151363800437
 30
0.0
 10
206.6607016165234
 20
106.4637365826632
 30
0.0
 10
206.2454829089292
 20
106.3232252721364
 30
0.0
 10
206.0428839265693
 20
106.2339540398003
 30
0.0
 10
205.6619117817554
 20
106.0229538672824
 30
0.0
 10
205.4812933595266
 20
105.9004849915026
 30
0.0
 10
205.1425637138935
 20
105.6195462492365
 30
0.0
  0
LINE
  5
18A
330
1F
100
AcDbEntity
  8
0
  6
Continuous
 62
     7
370
    15
100
AcDbLine
 10
96.5186854839
 20
87.4120073046
 30
0.0
 11
96.5186854839
 21
119.4120088245
 31
0.0
  0
SPLINE
  5
18B
330
1F
100
AcDbEntity
  8
0
  6
Continuous
 62
     7
370
    15
100
AcDbSpline
210
0.0
220
0.0
230
1.0
 70
     8
 71
     3
 72
    13
 73
     9
 74
     0
 42
0.00000001
 43
0.00000001
 40
0.0
 40
0.0
 40
0.0
 40
0.0
 40
0.1913526451981138
 40
0.3856344300171963
 40
0.5511108488696789
 40
0.7206558355768918
 40
0.8592740051025872
 40
1.0
 40
1.0
 40
1.0
 40
1.0
 10
196.4145353078225
 20
90.16200822097836
 30
0.0
 10
195.9684216871206
 20
89.88358558744919
 30
0.0
 10
195.0693655404748
 20
89.32247835282617
 30
0.0
 10
193.963560138348
 20
88.62260358732279
 30
0.0
 10
193.076362012782
 20
88.05777535663756
 30
0.0
 10
192.488616861618
 20
87.6815768782008
 30
0.0
 10
192.1323249681509
 20
87.45290909727727
 30
0.0
 10
192.0909369957737
 20
87.42630915333608
 30
0.0
 10
192.070086860595
 20
87.41290882480918
 30
0.0
  0
SPLINE
  5
18C
330
1F
100
AcDbEntity
  8
0
  6
Continuous
 62
     7
370
    15
100
AcDbSpline
210
0.0
220
0.0
230
1.0
 70
     8
 71
     3
 72
    14
 73
    10
 74
     0
 42
0.00000001
 43
0.00000001
 40
0.0
 40
0.0
 40
0.0
 40
0.0
 40
0.0257737250227796
 40
0.1918865549961894
 40
0.3422429942871573
 40
0.4961938178571804
 40
0.7075308971232206
 40
0.9249010576199259
 40
1.0
 40
1.0
 40
1.0
 40
1.0
 10
192.4288472174981
 20
119.3968822832185
 30
0.0
 10
192.4233959202178
 20
119.4016931790187
 30
0.0
 10
192.3828107640381
 20
119.437510517053
 30
0.0
 10
192.5571626310952
 20
119.2836461407144
 30
0.0
 10
192.9418237536908
 20
118.944118906035
 30
0.0
 10
193.6028974189821
 20
118.3604430743406
 30
0.0
 10
194.5892267059145
 20
117.489129060809
 30
0.0
 10
195.6244768375891
 20
116.5738721473352
 30
0.0
 10
196.2841686569247
 20
115.9900598938535
 30
0.0
 10
196.4535614489892
 20
115.8401511262137
 30
0.0
  0
LWPOLYLINE
  5
18D
330
1F
100
AcDbEntity
  8
0
  6
Continuous
 62
     7
370
    15
100
AcDbPolyline
 90
        8
 70
   128
 43
0.0
 10
196.453561449
 20
115.8401511262
 10
199.0894427537
 20
115.422668087
 10
201.8492793679
 20
114.9855527679
 10
204.7285636901
 20
114.5295194934
 10
207.7225869536
 20
114.0553123902
 10
210.8264541268
 20
113.5637081812
 10
214.0350913643
 20
113.0555096666
 10
217.3432609081
 20
112.5315475862
  0
LINE
  5
18E
330
1F
100
AcDbEntity
  8
0
  6
Continuous
 62
     7
370
    15
100
AcDbLine
 10
217.3432609081
 20
112.5315475862
 30
0.0
 11
217.3432609081
 21
90.162008221
 31
0.0
  0
LINE
  5
18F
330
1F
100
AcDbEntity
  8
0
  6
Continuous
 62
     7
370
    15
100
AcDbLine
 10
217.3432609081
 20
90.162008221
 30
0.0
 11
196.4145353078
 21
90.162008221
 31
0.0
  0
SPLINE
  5
190
330
1F
100
AcDbEntity
  8
0
  6
Continuous
 62
     7
370
    15
100
AcDbSpline
210
0.0
220
0.0
230
1.0
 70
    24
 71
     3
 72
    14
 73
    10
 74
     0
 42
0.00000001
 43
0.00000001
 40
0.0
 40
0.0
 40
0.0
 40
0.0
 40
0.25
 40
0.25
 40
0.5
 40
0.5
 40
0.75
 40
0.75
 40
1.0
 40
1.0
 40
1.0
 40
1.0
 10
218.6422971090045
 20
112.3258005226507
 30
0.0
 10
218.5818540845452
 20
112.3353737572512
 30
0.0
 10
218.5083184641213
 20
112.347020655336
 30
0.0
 10
218.3310640920489
 20
112.3750949898517
 30
0.0
 10
218.2280362237736
 20
112.3914130011063
 30
0.0
 10
218.0011938367624
 20
112.427341305615
 30
0.0
 10
217.8741524783884
 20
112.4474626800591
 30
0.0
 10
217.6143092813744
 20
112.4886177993903
 30
0.0
 10
217.4778306416877
 20
112.5102338923533
 30
0.0
 10
217.3432590033279
 20
112.5315479459785
 30
0.0
  0
LINE
  5
191
330
1F
100
AcDbEntity
  8
0
  6
Continuous
 62
     7
370
    15
100
AcDbLine
 10
218.6422994375
 20
112.3258007343
 30
0.0
 11
218.6422994375
 21
90.162008221
 31
0.0
  0
SPLINE
  5
192
330
1F
100
AcDbEntity
  8
0
  6
Continuous
 62
     7
370
    15
100
AcDbSpline
210
0.0
220
0.0
230
1.0
 70
    24
 71
     3
 72
    12
 73
     8
 74
     0
 42
0.00000001
 43
0.00000001
 40
0.0
 40
0.0
 40
0.0
 40
0.0
 40
0.2500000000000026
 40
0.2500000000000026
 40
0.5000000000000052
 40
0.5000000000000052
 40
1.0
 40
1.0
 40
1.0
 40
1.0
 10
217.3432590033279
 20
90.16200806451617
 30
0.0
 10
217.5145428382735
 20
90.16200806451617
 30
0.0
 10
217.6855425154106
 20
90.16200806451617
 30
0.0
 10
217.9785963559556
 20
90.16200806451617
 30
0.0
 10
218.1023512131071
 20
90.16200806451617
 30
0.0
 10
218.4146554887759
 20
90.16200806451617
 30
0.0
 10
218.5488731368043
 20
90.16200806451617
 30
0.0
 10
218.6422971090045
 20
90.16200806451617
 30
0.0
  0
LINE
  5
193
330
1F
100
AcDbEntity
  8
0
  6
Continuous
 62
     7
370
    15
100
AcDbLine
 10
220.5186834573
 20
112.0286101128
 30
0.0
 11
220.5186834573
 21
91.4120079602
 31
0.0
  0
SPLINE
  5
194
330
1F
100
AcDbEntity
  8
0
  6
Continuous
 62
     7
370
    15
100
AcDbSpline
210
0.0
220
0.0
230
1.0
 70
    24
 71
     3
 72
    11
 73
     7
 74
     0
 42
0.00000001
 43
0.00000001
 40
0.0
 40
0.0
 40
0.0
 40
0.0
 40
0.3572837848277672
 40
0.7174174850089098
 40
0.969653642003797
 40
1.0
 40
1.0
 40
1.0
 40
1.0
 10
218.6422994374612
 20
90.16200822097836
 30
0.0
 10
218.8769231415607
 20
90.16200822097836
 30
0.0
 10
219.3480420528197
 20
90.16200822097836
 30
0.0
 10
219.6915305842436
 20
90.16200822097836
 30
0.0
 10
219.8160728620547
 20
90.16200822097836
 30
0.0
 10
219.7905587030912
 20
90.16200822097836
 30
0.0
 10
219.7878187536576
 20
90.16200822097836
 30
0.0
  0
SPLINE
  5
195
330
1F
100
AcDbEntity
  8
0
  6
Continuous
 62
     7
370
    15
100
AcDbSpline
210
0.0
220
0.0
230
1.0
 70
    24
 71
     3
 72
     8
 73
     4
 74
     0
 42
0.00000001
 43
0.00000001
 40
0.0
 40
0.0
 40
0.0
 40
0.0
 40
1.0
 40
1.0
 40
1.0
 40
1.0
 10
220.5186854838708
 20
112.028609800066
 30
0.0
 10
219.9337975650054
 20
112.1212469457481
 30
0.0
 10
219.2984855409103
 20
112.2218704851159
 30
0.0
 10
218.6422971090045
 20
112.3258005226507
 30
0.0
  0
LINE
  5
196
330
1F
100
AcDbEntity
  8
0
  6
Continuous
 62
     7
370
    15
100
AcDbLine
 10
94.5186853889
 20
94.4120084519
 30
0.0
 11
94.5186853889
 21
112.4120076771
 31
0.0
  0
LINE
  5
197
330
1F
100
AcDbEntity
  8
0
  6
Continuous
 62
     7
370
    15
100
AcDbLine
 10
91.5186855956
 20
94.4120084519
 30
0.0
 11
91.5186855956
 21
112.4120076771
 31
0.0
  0
LINE
  5
198
330
1F
100
AcDbEntity
  8
0
  6
Continuous
 62
     7
370
    15
100
AcDbLine
 10
216.0934483647
 20
90.1520076792
 30
0.0
 11
216.0934483647
 21
90.1619132261
 31
0.0
  0
LINE
  5
199
330
1F
100
AcDbEntity
  8
0
  6
Continuous
 62
     7
370
    15
100
AcDbLine
 10
216.1673655748
 20
90.1520076792
 30
0.0
 11
216.1673655748
 21
90.162008221
 31
0.0
  0
LINE
  5
19A
330
1F
100
AcDbEntity
  8
0
  6
Continuous
 62
     7
370
    15
100
AcDbLine
 10
87.231055276
 20
95.4120076845
 30
0.0
 11
87.231055276
 21
111.4120084445
 31
0.0
  0
LINE
  5
19B
330
1F
100
AcDbEntity
  8
0
  6
Continuous
 62
     7
370
    15
100
AcDbLine
 10
78.0186852455
 20
95.4120076845
 30
0.0
 11
78.0186852455
 21
111.4120084445
 31
0.0
  0
LINE
  5
19C
330
1F
100
AcDbEntity
  8
0
  6
Continuous
 62
     7
370
    15
100
AcDbLine
 10
77.5186860948
 20
95.9120082322
 30
0.0
 11
77.5186860948
 21
110.9120078969
 31
0.0
  0
LINE
  5
19D
330
1F
100
AcDbEntity
  8
0
  6
Continuous
 62
     7
370
    15
100
AcDbLine
 10
217.2689264654
 20
90.1520076792
 30
0.0
 11
216.1673655748
 21
90.1520076792
 31
0.0
  0
LINE
  5
19E
330
1F
100
AcDbEntity
  8
0
  6
Continuous
 62
     7
370
    15
100
AcDbLine
 10
216.1673655748
 20
90.1520076792
 30
0.0
 11
216.0934483647
 21
90.1520076792
 31
0.0
  0
LINE
  5
19F
330
1F
100
AcDbEntity
  8
0
  6
Continuous
 62
     8
370
    15
100
AcDbLine
 10
96.0186854601
 20
94.6620080273
 30
0.0
 11
96.0186854601
 21
112.1620081018
 31
0.0
  0
LINE
  5
1A0
330
1F
100
AcDbEntity
  8
0
  6
Continuous
 62
     8
370
    15
100
AcDbLine
 10
95.3753983151
 20
94.6415636341
 30
0.0
 11
95.3753983151
 21
112.1824524949
 31
0.0
  0
LINE
  5
1A1
330
1F
100
AcDbEntity
  8
0
  6
Continuous
 62
     8
370
    15
100
AcDbLine
 10
95.5306897187
 20
94.6620080273
 30
0.0
 11
95.5306897187
 21
112.1620081018
 31
0.0
  0
LINE
  5
1A2
330
1F
100
AcDbEntity
  8
0
  6
Continuous
 62
     8
370
    15
100
AcDbLine
 10
88.7398681618
 20
96.6780527147
 30
0.0
 11
88.7398681618
 21
110.1459634143
 31
0.0
  0
LINE
  5
1A3
330
1F
100
AcDbEntity
  8
0
  6
Continuous
 62
     8
370
    15
100
AcDbLine
 10
90.5186854317
 20
96.9120079304
 30
0.0
 11
90.5186854317
 21
109.9120081986
 31
0.0
  0
LINE
  5
1A4
330
1F
100
AcDbEntity
  8
0
  6
Continuous
 62
     8
370
    15
100
AcDbLine
 10
89.3826558269
 20
96.9120079304
 30
0.0
 11
89.3826558269
 21
109.9120081986
 31
0.0
  0
LINE
  5
1A5
330
1F
100
AcDbEntity
  8
0
  6
HIDDEN
 62
     7
370
     0
100
AcDbLine
 10
96.5186854839
 20
119.4120088245
 30
0.0
 11
96.5186854839
 21
87.4120073046
 31
0.0
  0
SPLINE
  5
1A6
330
1F
100
AcDbEntity
  8
0
  6
HIDDEN
 62
     7
370
     0
100
AcDbSpline
210
0.0
220
0.0
230
1.0
 70
     8
 71
     3
 72
    14
 73
    10
 74
     0
 42
0.00000001
 43
0.00000001
 40
0.0
 40
0.0
 40
0.0
 40
0.0
 40
0.0017987858428603
 40
0.1404869054477035
 40
0.2832402341889904
 40
0.4535384023506805
 40
0.6287463041493518
 40
0.8129065996366209
 40
1.0
 40
1.0
 40
1.0
 40
1.0
 10
192.0700868605951
 20
87.41290882480918
 30
0.0
 10
192.0696194466381
 20
87.41260914904444
 30
0.0
 10
192.0331139667717
 20
87.38920418341657
 30
0.0
 10
192.1616167113588
 20
87.47170515856651
 30
0.0
 10
192.4871055223456
 20
87.68061331394478
 30
0.0
 10
193.1106403803819
 20
88.07969115878092
 30
0.0
 10
194.0070717122413
 20
88.65022794044137
 30
0.0
 10
195.1122319935189
 20
89.3493091594714
 30
0.0
 10
195.9781537863107
 20
89.88968544555699
 30
0.0
 10
196.4145353078225
 20
90.16200822097836
 30
0.0
  0
LINE
  5
1A7
330
1F
100
AcDbEntity
  8
0
  6
HIDDEN
 62
     7
370
     0
100
AcDbLine
 10
196.4145353078
 20
90.162008221
 30
0.0
 11
217.3432609081
 21
90.162008221
 31
0.0
  0
LINE
  5
1A8
330
1F
100
AcDbEntity
  8
0
  6
HIDDEN
 62
     7
370
     0
100
AcDbLine
 10
217.3432609081
 20
90.162008221
 30
0.0
 11
217.3432609081
 21
112.5315475862
 31
0.0
  0
LWPOLYLINE
  5
1A9
330
1F
100
AcDbEntity
  8
0
  6
HIDDEN
 62
     7
370
     0
100
AcDbPolyline
 90
        8
 70
   128
 43
0.0
 10
217.3432609081
 20
112.5315475862
 10
214.0350913643
 20
113.0555096666
 10
210.8264541268
 20
113.5637081812
 10
207.7225869536
 20
114.0553123902
 10
204.7285636901
 20
114.5295194934
 10
201.8492793679
 20
114.9855527679
 10
199.0894427537
 20
115.422668087
 10
196.453561449
 20
115.8401511262
  0
SPLINE
  5
1AA
330
1F
100
AcDbEntity
  8
0
  6
HIDDEN
 62
     7
370
     0
100
AcDbSpline
210
0.0
220
0.0
230
1.0
 70
     8
 71
     3
 72
    13
 73
     9
 74
     0
 42
0.00000001
 43
0.00000001
 40
0.0
 40
0.0
 40
0.0
 40
0.0
 40
0.1317124363804744
 40
0.3331616401079358
 40
0.539591185719245
 40
0.7001448703541665
 40
0.8650572917272136
 40
1.0
 40
1.0
 40
1.0
 40
1.0
 10
196.4535614489892
 20
115.8401511262137
 30
0.0
 10
196.1587162647231
 20
116.1010551025937
 30
0.0
 10
195.4129164916153
 20
116.7610018704933
 30
0.0
 10
194.3476418025151
 20
117.7025856309598
 30
0.0
 10
193.4259200179502
 20
118.5167269418866
 30
0.0
 10
192.8085003870906
 20
119.0618097628667
 30
0.0
 10
192.4629298667799
 20
119.3668076359104
 30
0.0
 10
192.4394250184854
 20
119.3875483951349
 30
0.0
 10
192.4288472174981
 20
119.3968822832185
 30
0.0
  0
CIRCLE
  5
1AB
330
1F
100
AcDbEntity
  8
0
  6
HIDDEN
 62
     7
370
     0
100
AcDbCircle
 10
207.6686854839
 20
103.4120080645
 30
0.0
 40
2.5
  0
LINE
  5
1AC
330
1F
100
AcDbEntity
  8
0
  6
HIDDEN
 62
     7
370
     0
100
AcDbLine
 10
220.5186834573
 20
91.4120079602
 30
0.0
 11
220.5186834573
 21
112.0286101128
 31
0.0
  0
SPLINE
  5
1AD
330
1F
100
AcDbEntity
  8
0
  6
HIDDEN
 62
     7
370
     0
100
AcDbSpline
210
0.0
220
0.0
230
1.0
 70
    24
 71
     3
 72
     8
 73
     4
 74
     0
 42
0.00000001
 43
0.00000001
 40
0.0
 40
0.0
 40
0.0
 40
0.0
 40
1.0
 40
1.0
 40
1.0
 40
1.0
 10
218.6422971090045
 20
112.3258005226507
 30
0.0
 10
219.2984855409103
 20
112.2218704851159
 30
0.0
 10
219.9337975650054
 20
112.1212469457481
 30
0.0
 10
220.5186854838708
 20
112.028609800066
 30
0.0
  0
LINE
  5
1AE
330
1F
100
AcDbEntity
  8
0
  6
HIDDEN
 62
     7
370
     0
100
AcDbLine
 10
218.6422994375
 20
90.162008221
 30
0.0
 11
218.6422994375
 21
112.3258007343
 31
0.0
  0
SPLINE
  5
1AF
330
1F
100
AcDbEntity
  8
0
  6
HIDDEN
 62
     7
370
     0
100
AcDbSpline
210
0.0
220
0.0
230
1.0
 70
    24
 71
     3
 72
    11
 73
     7
 74
     0
 42
0.00000001
 43
0.00000001
 40
0.0
 40
0.0
 40
0.0
 40
0.0
 40
0.2218185849220356
 40
0.4806929340567473
 40
0.7396359742518273
 40
1.0
 40
1.0
 40
1.0
 40
1.0
 10
219.7878187536576
 20
90.16200822097836
 30
0.0
 10
219.7794502098321
 20
90.16200822097836
 30
0.0
 10
219.7613151203549
 20
90.16200822097836
 30
0.0
 10
219.5291871292792
 20
90.16200822097836
 30
0.0
 10
219.1625284746399
 20
90.16200822097836
 30
0.0
 10
218.8160251634428
 20
90.16200822097836
 30
0.0
 10
218.6422994374612
 20
90.16200822097836
 30
0.0
  0
ARC
  5
1B0
330
1F
100
AcDbEntity
  8
0
  6
HIDDEN
 62
     7
370
     0
100
AcDbCircle
 10
213.1231469415
 20
106.4368838353
 30
0.0
 40
2.371395636890854
100
AcDbArc
 50
39.3253829751
 51
78.7094141811
  0
ELLIPSE
  5
1B1
330
1F
100
AcDbEntity
  8
0
  6
HIDDEN
 62
     7
370
     0
100
AcDbEllipse
 10
187.5186854839
 20
108.5332002445
 30
0.0
 11
1.060060120195516
 21
1.06006012019553
 31
0.0
210
0.0
220
0.0
230
1.0
 40
0.6248693519
 41
0.2992410181277266
 42
1.01229096615671
  0
ELLIPSE
  5
1B2
330
1F
100
AcDbEntity
  8
0
  6
HIDDEN
 62
     7
370
     0
100
AcDbEllipse
 10
187.5186854839
 20
108.5332002445
 30
0.0
 11
1.060060120195516
 21
-1.06006012019553
 31
0.0
210
0.0
220
0.0
230
1.0
 40
0.6248693519
 41
5.270894341022888
 42
8.412486994612669
  0
ELLIPSE
  5
1B3
330
1F
100
AcDbEntity
  8
0
  6
HIDDEN
 62
     7
370
     0
100
AcDbEllipse
 10
187.5186854839
 20
108.5332002445
 30
0.0
 11
1.060060120195516
 21
1.06006012019553
 31
0.0
210
0.0
220
0.0
230
1.0
 40
0.6248693519
 41
4.153883619746516
 42
4.866933567775495
  0
LWPOLYLINE
  5
1B4
330
1F
100
AcDbEntity
  8
0
  6
HIDDEN
 62
     7
370
     0
100
AcDbPolyline
 90
       14
 70
   128
 43
0.0
 10
188.3363625049
 20
108.0418710249
 10
187.9610022544
 20
107.8408441159
 10
187.5315954923
 20
107.7682149249
 10
187.1006092071
 20
107.8328570935
 10
186.720711553
 20
108.0268725405
 10
186.4383121967
 20
108.3265549156
 10
186.2879222273
 20
108.6952855463
 10
186.2879222273
 20
109.0880093749
 10
186.4383121967
 20
109.4567400056
 10
186.720711553
 20
109.756421915
 10
187.1006092071
 20
109.9504378277
 10
187.5315954923
 20
110.0150799963
 10
187.9610022544
 20
109.9424503396
 10
188.3363625049
 20
109.7414238962
  0
SPLINE
  5
1B5
330
1F
100
AcDbEntity
  8
0
  6
HIDDEN
 62
     7
370
     0
100
AcDbSpline
210
0.0
220
0.0
230
1.0
 70
     8
 71
     3
 72
    42
 73
    38
 74
     0
 42
0.00000001
 43
0.00000001
 40
-0.0624999999999986
 40
-0.0624999999999986
 40
0.0
 40
0.0
 40
0.0625000000000007
 40
0.0625000000000007
 40
0.1250000000000014
 40
0.1250000000000014
 40
0.1875000000000021
 40
0.1875000000000021
 40
0.2500000000000027
 40
0.2500000000000027
 40
0.281250000000003
 40
0.281250000000003
 40
0.3125000000000033
 40
0.3125000000000033
 40
0.3750000000000038
 40
0.3750000000000038
 40
0.4375000000000044
 40
0.4375000000000044
 40
0.500000000000005
 40
0.500000000000005
 40
0.5625000000000056
 40
0.5625000000000056
 40
0.6250000000000061
 40
0.6250000000000061
 40
0.6875000000000067
 40
0.6875000000000067
 40
0.718750000000006
 40
0.718750000000006
 40
0.7500000000000053
 40
0.7500000000000053
 40
0.8125000000000041
 40
0.8125000000000041
 40
0.8750000000000028
 40
0.8750000000000028
 40
0.9375000000000014
 40
0.9375000000000014
 40
1.0
 40
1.0
 40
1.062500000000001
 40
1.062500000000001
 10
187.3519271763846
 20
103.6745934987537
 30
0.0
 10
187.685443791357
 20
103.6745934987537
 30
0.0
 10
187.8488727121269
 20
103.7105714312126
 30
0.0
 10
188.1507994405733
 20
103.8436592033824
 30
0.0
 10
188.2883936370283
 20
103.9406917112947
 30
0.0
 10
188.5168154494179
 20
104.1729715803812
 30
0.0
 10
188.6096956705493
 20
104.3105453567709
 30
0.0
 10
188.7349907399247
 20
104.5993485503176
 30
0.0
 10
188.7685754051039
 20
104.7536215952085
 30
0.0
 10
188.768740106863
 20
104.9757709595295
 30
0.0
 10
188.7604425809305
 20
105.0495806393394
 30
0.0
 10
188.7281721092027
 20
105.1891714866236
 30
0.0
 10
188.7043020925133
 20
105.2558363466384
 30
0.0
 10
188.60908423045
 20
105.4469593194332
 30
0.0
 10
188.5168834125636
 20
105.5565066573847
 30
0.0
 10
188.2872789672233
 20
105.7355623180825
 30
0.0
 10
188.1495466811508
 20
105.8047856231227
 30
0.0
 10
187.8490794945779
 20
105.8974765693884
 30
0.0
 10
187.6833309232924
 20
105.9215354968376
 30
0.0
 10
187.3549437143212
 20
105.9216216136757
 30
0.0
 10
187.1892730053823
 20
105.8977501223121
 30
0.0
 10
186.8873389937309
 20
105.8046651067688
 30
0.0
 10
186.7504575952283
 20
105.7359460858793
 30
0.0
 10
186.5192257577736
 20
105.5554236082226
 30
0.0
 10
186.4278413864451
 20
105.4461260038206
 30
0.0
 10
186.3331765832106
 20
105.2560221845481
 30
0.0
 10
186.309332104792
 20
105.1895805711773
 30
0.0
 10
186.2770139820202
 20
105.0501170566644
 30
0.0
 10
186.2686667870336
 20
104.9762618182911
 30
0.0
 10
186.2687229744565
 20
104.7541199752062
 30
0.0
 10
186.3022119260949
 20
104.5997419458407
 30
0.0
 10
186.4278299223255
 20
104.3101834861668
 30
0.0
 10
186.5205853585673
 20
104.1728184979289
 30
0.0
 10
186.7499424323545
 20
103.939833580972
 30
0.0
 10
186.8866517716152
 20
103.8435169132551
 30
0.0
 10
187.1897670625815
 20
103.7101195432779
 30
0.0
 10
187.3519271763846
 20
103.6745934987537
 30
0.0
 10
187.685443791357
 20
103.6745934987537
 30
0.0
  0
LINE
  5
1B6
330
1F
100
AcDbEntity
  8
0
  6
HIDDEN
 62
     7
370
     0
100
AcDbLine
 10
216.5186828017
 20
107.2832002888
 30
0.0
 11
216.5186828017
 21
109.783200233
 31
0.0
  0
SPLINE
  5
1B7
330
1F
100
AcDbEntity
  8
0
  6
HIDDEN
 62
     7
370
     0
100
AcDbSpline
210
0.0
220
0.0
230
1.0
 70
     8
 71
     3
 72
    28
 73
    24
 74
     0
 42
0.00000001
 43
0.00000001
 40
-0.1249999999999846
 40
-0.1249999999999846
 40
0.0
 40
0.0
 40
0.1250000000000117
 40
0.1250000000000117
 40
0.2500000000000234
 40
0.2500000000000234
 40
0.3125000000000301
 40
0.3125000000000301
 40
0.3750000000000369
 40
0.3750000000000369
 40
0.4375000000000436
 40
0.4375000000000436
 40
0.5000000000000503
 40
0.5000000000000503
 40
0.6250000000000391
 40
0.6250000000000391
 40
0.7500000000000279
 40
0.7500000000000279
 40
0.8125000000000216
 40
0.8125000000000216
 40
0.8750000000000154
 40
0.8750000000000154
 40
1.0
 40
1.0
 40
1.125000000000012
 40
1.125000000000012
 10
214.1461965478206
 20
107.413090104219
 30
0.0
 10
214.0603636944731
 20
107.3769097967245
 30
0.0
 10
213.9950447944387
 20
107.3732641758199
 30
0.0
 10
213.8748958893059
 20
107.3766711706353
 30
0.0
 10
213.8161634323806
 20
107.3830983870625
 30
0.0
 10
213.7349056520203
 20
107.3993315580183
 30
0.0
 10
213.7085733736369
 20
107.4059986129313
 30
0.0
 10
213.6623423272605
 20
107.4236804702157
 30
0.0
 10
213.6419242868956
 20
107.4347925119679
 30
0.0
 10
213.6260404193834
 20
107.4643130195914
 30
0.0
 10
213.6349566638361
 20
107.4812589910715
 30
0.0
 10
213.6698872730765
 20
107.508735210216
 30
0.0
 10
213.6938719159442
 20
107.520111891775
 30
0.0
 10
213.7703116277078
 20
107.5493373620705
 30
0.0
 10
213.8272814111687
 20
107.5628208978403
 30
0.0
 10
213.9459960125945
 20
107.5774828079304
 30
0.0
 10
214.0105503966655
 20
107.5783410846836
 30
0.0
 10
214.0905493899068
 20
107.5519024251068
 30
0.0
 10
214.1129696335627
 20
107.5383352746938
 30
0.0
 10
214.1436112918279
 20
107.5073464648807
 30
0.0
 10
214.1521162979774
 20
107.4905731595184
 30
0.0
 10
214.1611516382166
 20
107.4426602767855
 30
0.0
 10
214.1461965478206
 20
107.413090104219
 30
0.0
 10
214.0603636944731
 20
107.3769097967245
 30
0.0
  0
ELLIPSE
  5
1B8
330
1F
100
AcDbEntity
  8
0
  6
HIDDEN
 62
     7
370
     0
100
AcDbEllipse
 10
187.5186854839
 20
108.5332002445
 30
0.0
 11
1.060060120195516
 21
1.06006012019553
 31
0.0
210
0.0
220
0.0
230
1.0
 40
0.6248693519
 41
4.866933567775495
 42
6.582426325307313
  0
SPLINE
  5
1B9
330
1F
100
AcDbEntity
  8
0
  6
HIDDEN
 62
     7
370
     0
100
AcDbSpline
210
0.0
220
0.0
230
1.0
 70
     8
 71
     3
 72
    18
 73
    14
 74
     0
 42
0.00000001
 43
0.00000001
 40
0.0
 40
0.0
 40
0.0
 40
0.0
 40
0.2499999999999989
 40
0.2499999999999989
 40
0.4999999999999978
 40
0.4999999999999978
 40
0.6249999999999983
 40
0.6249999999999983
 40
0.7499999999999989
 40
0.7499999999999989
 40
0.8749999999999994
 40
0.8749999999999994
 40
1.0
 40
1.0
 40
1.0
 40
1.0
 10
213.587432438972
 20
107.5558212800834
 30
0.0
 10
213.6874398118744
 20
107.4887541727673
 30
0.0
 10
213.7838491544113
 20
107.4321734456258
 30
0.0
 10
213.9715141269803
 20
107.3432960097456
 30
0.0
 10
214.0613096700834
 20
107.3111405096726
 30
0.0
 10
214.2047541560965
 20
107.2877394283969
 30
0.0
 10
214.2549513283061
 20
107.2842303743149
 30
0.0
 10
214.376780183424
 20
107.2826450137328
 30
0.0
 10
214.4493296855661
 20
107.2837312326564
 30
0.0
 10
214.595953562372
 20
107.2841114430979
 30
0.0
 10
214.6684796437288
 20
107.2839113111267
 30
0.0
 10
214.8132418502691
 20
107.2834979886676
 30
0.0
 10
214.8854337228208
 20
107.2832877037425
 30
0.0
 10
214.9575605474469
 20
107.2832231292193
 30
0.0
  0
ELLIPSE
  5
1BA
330
1F
100
AcDbEntity
  8
0
  6
HIDDEN
 62
     7
370
     0
100
AcDbEllipse
 10
214.2724964932
 20
108.5332002445
 30
0.0
 11
-0.7350583619720226
 21
1.236667154251819
 31
0.0
210
0.0
220
0.0
230
1.0
 40
0.2477127917
 41
1.965661580915355
 42
3.001456932889098
  0
ELLIPSE
  5
1BB
330
1F
100
AcDbEntity
  8
0
  6
HIDDEN
 62
     7
370
     0
100
AcDbEllipse
 10
214.2724964932
 20
108.5332002445
 30
0.0
 11
1.941178595724012
 21
1.153810509127041
 31
0.0
210
0.0
220
0.0
230
1.0
 40
0.2477127917
 41
4.56620216638693
 42
7.707794819976718
  0
ELLIPSE
  5
1BC
330
1F
100
AcDbEntity
  8
0
  6
HIDDEN
 62
     7
370
     0
100
AcDbEllipse
 10
214.2724964932
 20
108.5332002445
 30
0.0
 11
-0.7350583619720226
 21
1.236667154251819
 31
0.0
210
0.0
220
0.0
230
1.0
 40
0.2477127917
 41
5.107254234505149
 42
8.248846888094931
  0
ELLIPSE
  5
1BD
330
1F
100
AcDbEntity
  8
0
  6
HIDDEN
 62
     7
370
     0
100
AcDbEllipse
 10
214.2724964932
 20
108.5332002445
 30
0.0
 11
1.941178595724012
 21
1.153810509127041
 31
0.0
210
0.0
220
0.0
230
1.0
 40
0.2477127917
 41
4.209541344909983
 42
4.56620216638692
  0
ELLIPSE
  5
1BE
330
1F
100
AcDbEntity
  8
0
  6
HIDDEN
 62
     7
370
     0
100
AcDbEllipse
 10
214.2724964932
 20
108.5332002445
 30
0.0
 11
1.941178595724012
 21
1.153810509127041
 31
0.0
210
0.0
220
0.0
230
1.0
 40
0.2477127917
 41
1.424609512797122
 42
1.781270334274039
  0
ELLIPSE
  5
1BF
330
1F
100
AcDbEntity
  8
0
  6
HIDDEN
 62
     7
370
     0
100
AcDbEllipse
 10
214.2724964932
 20
108.5332002445
 30
0.0
 11
-0.7350583619720226
 21
1.236667154251819
 31
0.0
210
0.0
220
0.0
230
1.0
 40
0.2477127917
 41
4.071458882531445
 42
5.107254234505159
  0
SPLINE
  5
1C0
330
1F
100
AcDbEntity
  8
0
  6
HIDDEN
 62
     7
370
     0
100
AcDbSpline
210
0.0
220
0.0
230
1.0
 70
     8
 71
     3
 72
    18
 73
    14
 74
     0
 42
0.00000001
 43
0.00000001
 40
0.0
 40
0.0
 40
0.0
 40
0.0
 40
0.1250000000000003
 40
0.1250000000000003
 40
0.2500000000000006
 40
0.2500000000000006
 40
0.3750000000000008
 40
0.3750000000000008
 40
0.5000000000000011
 40
0.5000000000000011
 40
0.7500000000000006
 40
0.7500000000000006
 40
1.0
 40
1.0
 40
1.0
 40
1.0
 10
214.9575605474469
 20
107.9396930776504
 30
0.0
 10
214.8850791649392
 20
107.9302549235888
 30
0.0
 10
214.8125093706606
 20
107.9214753066701
 30
0.0
 10
214.6666359047861
 20
107.9087934101031
 30
0.0
 10
214.5932872515567
 20
107.9043114178052
 30
0.0
 10
214.4471343732901
 20
107.9144500141368
 30
0.0
 10
214.3744844424515
 20
107.932635962575
 30
0.0
 10
214.2533602319816
 20
108.0056604738925
 30
0.0
 10
214.2032967758132
 20
108.0560389230089
 30
0.0
 10
214.0609672056239
 20
108.2120396753535
 30
0.0
 10
213.9722636918307
 20
108.3257024990335
 30
0.0
 10
213.7834606958263
 20
108.5484141759249
 30
0.0
 10
213.6869772041696
 20
108.6571155622068
 30
0.0
 10
213.5874324389726
 20
108.7623854116295
 30
0.0
  0
ARC
  5
1C1
330
1F
100
AcDbEntity
  8
0
  6
HIDDEN
 62
     7
370
     0
100
AcDbCircle
 10
187.7101067197
 20
108.8916474606
 30
0.0
 40
1.055611812671491
100
AcDbArc
 50
306.3889280103
 51
53.6110719897
  0
LWPOLYLINE
  5
1C2
330
1F
100
AcDbEntity
  8
0
  6
HIDDEN
 62
     7
370
     0
100
AcDbPolyline
 90
       37
 70
   128
 43
0.0
 10
217.3118120074
 20
112.5365292306
 10
217.4808358788
 20
112.5097583632
 10
217.6206236719
 20
112.4876180316
 10
217.7269285559
 20
112.4707806508
 10
217.7965244293
 20
112.4597575168
 10
217.8272953271
 20
112.4548839058
 10
217.8183024763
 20
112.456307898
 10
217.7698215484
 20
112.4639866526
 10
217.6833277583
 20
112.4776864077
 10
217.5614437103
 20
112.496990862
 10
217.4078797936
 20
112.5213132824
 10
217.2272926211
 20
112.5499141986
 10
217.0251807212
 20
112.5819265495
 10
216.8076759219
 20
112.6163761715
 10
216.5813943385
 20
112.6522162582
 10
216.353197956
 20
112.6883580933
 10
216.130038166
 20
112.7237036477
 10
215.9186875462
 20
112.757178175
 10
215.7255610465
 20
112.7877656023
 10
215.5565371751
 20
112.8145364697
 10
215.416749382
 20
112.8366777326
 10
215.3104370474
 20
112.8535151134
 10
215.2408411741
 20
112.8645382474
 10
215.2100777268
 20
112.8694109271
 10
215.219063127
 20
112.8679869349
 10
215.2675440549
 20
112.8603081803
 10
215.3540452957
 20
112.8466093565
 10
215.4759218931
 20
112.8273049022
 10
215.6294932603
 20
112.8029824818
 10
215.8100729822
 20
112.7743806343
 10
216.0121923327
 20
112.7423682834
 10
216.229697132
 20
112.7079195927
 10
216.4559787154
 20
112.672079506
 10
216.6841676473
 20
112.6359376709
 10
216.9073348879
 20
112.6005921165
 10
217.1186855077
 20
112.5671166579
 10
217.3118120074
 20
112.5365292306
  0
SPLINE
  5
1C3
330
1F
100
AcDbEntity
  8
0
  6
HIDDEN
 62
     7
370
     0
100
AcDbSpline
210
0.0
220
0.0
230
1.0
 70
     8
 71
     3
 72
   102
 73
    98
 74
     0
 42
0.00000001
 43
0.00000001
 40
-0.0312499999999997
 40
-0.0312499999999997
 40
0.0
 40
0.0
 40
0.0312499999999994
 40
0.0312499999999994
 40
0.0624999999999988
 40
0.0624999999999988
 40
0.0937499999999982
 40
0.0937499999999982
 40
0.1249999999999976
 40
0.1249999999999976
 40
0.1562499999999971
 40
0.1562499999999971
 40
0.1874999999999964
 40
0.1874999999999964
 40
0.2031249999999967
 40
0.2031249999999967
 40
0.2187499999999969
 40
0.2187499999999969
 40
0.2343749999999971
 40
0.2343749999999971
 40
0.2499999999999973
 40
0.2499999999999973
 40
0.2656249999999975
 40
0.2656249999999975
 40
0.2812499999999977
 40
0.2812499999999977
 40
0.2968749999999979
 40
0.2968749999999979
 40
0.3124999999999981
 40
0.3124999999999981
 40
0.3281249999999983
 40
0.3281249999999983
 40
0.3437499999999985
 40
0.3437499999999985
 40
0.3593749999999987
 40
0.3593749999999987
 40
0.3749999999999989
 40
0.3749999999999989
 40
0.3906249999999991
 40
0.3906249999999991
 40
0.4062499999999993
 40
0.4062499999999993
 40
0.4218749999999996
 40
0.4218749999999996
 40
0.4374999999999997
 40
0.4374999999999997
 40
0.4531249999999999
 40
0.4531249999999999
 40
0.4687500000000002
 40
0.4687500000000002
 40
0.5000000000000006
 40
0.5000000000000006
 40
0.531250000000001
 40
0.531250000000001
 40
0.5625000000000013
 40
0.5625000000000013
 40
0.5937500000000018
 40
0.5937500000000018
 40
0.6250000000000022
 40
0.6250000000000022
 40
0.6562500000000026
 40
0.6562500000000026
 40
0.687500000000003
 40
0.687500000000003
 40
0.7187500000000034
 40
0.7187500000000034
 40
0.7343750000000032
 40
0.7343750000000032
 40
0.750000000000003
 40
0.750000000000003
 40
0.7656250000000029
 40
0.7656250000000029
 40
0.7812500000000027
 40
0.7812500000000027
 40
0.7968750000000026
 40
0.7968750000000026
 40
0.8125000000000023
 40
0.8125000000000023
 40
0.8281250000000021
 40
0.8281250000000021
 40
0.843750000000002
 40
0.843750000000002
 40
0.8593750000000018
 40
0.8593750000000018
 40
0.8750000000000016
 40
0.8750000000000016
 40
0.8906250000000014
 40
0.8906250000000014
 40
0.9062500000000012
 40
0.9062500000000012
 40
0.9375000000000008
 40
0.9375000000000008
 40
0.9531250000000006
 40
0.9531250000000006
 40
0.9687500000000003
 40
0.9687500000000003
 40
1.0
 40
1.0
 40
1.031249999999999
 40
1.031249999999999
 10
204.4210186382854
 20
106.4120080645162
 30
0.0
 10
205.1717896829182
 20
106.4120080645162
 30
0.0
 10
205.5520545552618
 20
106.4033466168442
 30
0.0
 10
206.3221805719522
 20
106.386060080511
 30
0.0
 10
206.7120425967853
 20
106.3773818651621
 30
0.0
 10
207.5016701782864
 20
106.3688779496373
 30
0.0
 10
207.9025794069444
 20
106.3691855997721
 30
0.0
 10
208.6894690392267
 20
106.3785605848711
 30
0.0
 10
209.0785441778506
 20
106.387526511137
 30
0.0
 10
209.8481445737834
 20
106.4047057625551
 30
0.0
 10
210.2309757014526
 20
106.4129670450862
 30
0.0
 10
210.9768068627699
 20
106.4108747012638
 30
0.0
 10
211.3369455882898
 20
106.4006199030059
 30
0.0
 10
211.8574158534062
 20
106.3526787500062
 30
0.0
 10
212.0276041720581
 20
106.3312073928851
 30
0.0
 10
212.3611157020319
 20
106.2727749970526
 30
0.0
 10
212.5241612116353
 20
106.2357303151686
 30
0.0
 10
212.835833166654
 20
106.1428100331989
 30
0.0
 10
212.985357193113
 20
106.0868296561626
 30
0.0
 10
213.2712756150957
 20
105.9502999044605
 30
0.0
 10
213.4086572552768
 20
105.8688930575892
 30
0.0
 10
213.6619935229436
 20
105.6797471454903
 30
0.0
 10
213.7785791059517
 20
105.5720212868594
 30
0.0
 10
213.9915267581712
 20
105.3250214206699
 30
0.0
 10
214.0879598402479
 20
105.1847783188918
 30
0.0
 10
214.2524059760316
 20
104.8806186287836
 30
0.0
 10
214.3221219647944
 20
104.7143454637443
 30
0.0
 10
214.4343412280971
 20
104.3572091415071
 30
0.0
 10
214.4755543115628
 20
104.1713771340417
 30
0.0
 10
214.5304646563212
 20
103.7849977008699
 30
0.0
 10
214.5437968833523
 20
103.5827107172487
 30
0.0
 10
214.5411128123652
 20
103.1855627315457
 30
0.0
 10
214.5253685329273
 20
102.9861059683949
 30
0.0
 10
214.4646847735382
 20
102.598645137893
 30
0.0
 10
214.42056696134
 20
102.4140105515644
 30
0.0
 10
214.3034103694449
 20
102.0620412487254
 30
0.0
 10
214.2306400256627
 20
101.896943196951
 30
0.0
 10
214.0609342637617
 20
101.5975642821648
 30
0.0
 10
213.9622087291597
 20
101.4603585632864
 30
0.0
 10
213.744432806587
 20
101.2186186729512
 30
0.0
 10
213.625344988098
 20
101.1132964917502
 30
0.0
 10
213.3667161707587
 20
100.9287273840462
 30
0.0
 10
213.2284481738548
 20
100.8506240514824
 30
0.0
 10
212.9403220466717
 20
100.7192829994781
 30
0.0
 10
212.7896340997606
 20
100.6654869602509
 30
0.0
 10
212.4754664482137
 20
100.5764122268351
 30
0.0
 10
212.3110677864553
 20
100.5410525199752
 30
0.0
 10
211.9761197699185
 20
100.4857203273463
 30
0.0
 10
211.8052396535245
 20
100.4655439942936
 30
0.0
 10
211.2827549972842
 20
100.4209139629021
 30
0.0
 10
210.9213545017223
 20
100.412109806625
 30
0.0
 10
210.1730857423596
 20
100.4119080067887
 30
0.0
 10
209.7894176302819
 20
100.4205785579927
 30
0.0
 10
209.0158665786642
 20
100.4379397741316
 30
0.0
 10
208.6240696060912
 20
100.4466719948925
 30
0.0
 10
207.8300664826818
 20
100.4551744727603
 30
0.0
 10
207.4322267855848
 20
100.4548110694973
 30
0.0
 10
206.6471708386744
 20
100.4454356903712
 30
0.0
 10
206.2580170431137
 20
100.436469575026
 30
0.0
 10
205.4863954785429
 20
100.4192491506689
 30
0.0
 10
205.1014386090112
 20
100.4110034494397
 30
0.0
 10
204.3585655488788
 20
100.4132071340263
 30
0.0
 10
203.9989624360524
 20
100.4234477062519
 30
0.0
 10
203.3042201588841
 20
100.4876082595901
 30
0.0
 10
202.9663663714962
 20
100.5424038738524
 30
0.0
 10
202.4994940183408
 20
100.6819269269394
 30
0.0
 10
202.3498813886424
 20
100.7380251337166
 30
0.0
 10
202.0632370579883
 20
100.87526383096
 30
0.0
 10
201.9261327250356
 20
100.9568145362566
 30
0.0
 10
201.6736102147358
 20
101.1458280736205
 30
0.0
 10
201.5570218474237
 20
101.2536945374957
 30
0.0
 10
201.3435136955758
 20
101.5020580992007
 30
0.0
 10
201.2478014484311
 20
101.641787520285
 30
0.0
 10
201.0837147497465
 20
101.9461450126588
 30
0.0
 10
201.0135571032683
 20
102.1142713949204
 30
0.0
 10
200.9023083513829
 20
102.4699036716785
 30
0.0
 10
200.8612041559612
 20
102.6556118737025
 30
0.0
 10
200.8064750065445
 20
103.0434159972806
 30
0.0
 10
200.7934217044983
 20
103.2451403761863
 30
0.0
 10
200.7964644672454
 20
103.6420967364776
 30
0.0
 10
200.8125599315251
 20
103.842900398292
 30
0.0
 10
200.873473845547
 20
104.2289373563282
 30
0.0
 10
200.9177261348572
 20
104.4136017973576
 30
0.0
 10
201.0358129060887
 20
104.7666941272744
 30
0.0
 10
201.1083031912548
 20
104.9303696199357
 30
0.0
 10
201.2785844456088
 20
105.229706049999
 30
0.0
 10
201.3776746902996
 20
105.366861192584
 30
0.0
 10
201.5955125975736
 20
105.6078306689729
 30
0.0
 10
201.714868887575
 20
105.7131087472463
 30
0.0
 10
202.1046548786377
 20
105.9901820517973
 30
0.0
 10
202.3936352565532
 20
106.1152175196009
 30
0.0
 10
202.8664760772243
 20
106.2487062853034
 30
0.0
 10
203.0310136317777
 20
106.2838815714012
 30
0.0
 10
203.3653510789693
 20
106.3388295381225
 30
0.0
 10
203.536096548611
 20
106.3588959409756
 30
0.0
 10
204.0586859095179
 20
106.403276647461
 30
0.0
 10
204.4210186382854
 20
106.4120080645162
 30
0.0
 10
205.1717896829182
 20
106.4120080645162
 30
0.0
  0
SPLINE
  5
1C4
330
1F
100
AcDbEntity
  8
0
  6
HIDDEN
 62
     7
370
     0
100
AcDbSpline
210
0.0
220
0.0
230
1.0
 70
     8
 71
     3
 72
   102
 73
    98
 74
     0
 42
0.00000001
 43
0.00000001
 40
-0.0312499999999997
 40
-0.0312499999999997
 40
0.0
 40
0.0
 40
0.0312499999999994
 40
0.0312499999999994
 40
0.0624999999999988
 40
0.0624999999999988
 40
0.0937499999999982
 40
0.0937499999999982
 40
0.1249999999999976
 40
0.1249999999999976
 40
0.1562499999999971
 40
0.1562499999999971
 40
0.1874999999999964
 40
0.1874999999999964
 40
0.2031249999999967
 40
0.2031249999999967
 40
0.2187499999999969
 40
0.2187499999999969
 40
0.2343749999999971
 40
0.2343749999999971
 40
0.2499999999999973
 40
0.2499999999999973
 40
0.2656249999999975
 40
0.2656249999999975
 40
0.2812499999999977
 40
0.2812499999999977
 40
0.2968749999999979
 40
0.2968749999999979
 40
0.3124999999999981
 40
0.3124999999999981
 40
0.3281249999999983
 40
0.3281249999999983
 40
0.3437499999999985
 40
0.3437499999999985
 40
0.3593749999999987
 40
0.3593749999999987
 40
0.3749999999999989
 40
0.3749999999999989
 40
0.3906249999999991
 40
0.3906249999999991
 40
0.4062499999999993
 40
0.4062499999999993
 40
0.4218749999999996
 40
0.4218749999999996
 40
0.4374999999999997
 40
0.4374999999999997
 40
0.4531249999999999
 40
0.4531249999999999
 40
0.4687500000000002
 40
0.4687500000000002
 40
0.5000000000000006
 40
0.5000000000000006
 40
0.531250000000001
 40
0.531250000000001
 40
0.5625000000000013
 40
0.5625000000000013
 40
0.5937500000000018
 40
0.5937500000000018
 40
0.6250000000000022
 40
0.6250000000000022
 40
0.6562500000000026
 40
0.6562500000000026
 40
0.687500000000003
 40
0.687500000000003
 40
0.7187500000000034
 40
0.7187500000000034
 40
0.7343750000000032
 40
0.7343750000000032
 40
0.750000000000003
 40
0.750000000000003
 40
0.7656250000000029
 40
0.7656250000000029
 40
0.7812500000000027
 40
0.7812500000000027
 40
0.7968750000000026
 40
0.7968750000000026
 40
0.8125000000000023
 40
0.8125000000000023
 40
0.8281250000000021
 40
0.8281250000000021
 40
0.843750000000002
 40
0.843750000000002
 40
0.8593750000000018
 40
0.8593750000000018
 40
0.8750000000000016
 40
0.8750000000000016
 40
0.8906250000000014
 40
0.8906250000000014
 40
0.9062500000000012
 40
0.9062500000000012
 40
0.9375000000000008
 40
0.9375000000000008
 40
0.9531250000000006
 40
0.9531250000000006
 40
0.9687500000000003
 40
0.9687500000000003
 40
1.0
 40
1.0
 40
1.031249999999999
 40
1.031249999999999
 10
204.4210186382854
 20
106.4120080645162
 30
0.0
 10
205.1717896829182
 20
106.4120080645162
 30
0.0
 10
205.5520545552618
 20
106.4033466168442
 30
0.0
 10
206.3221805719522
 20
106.386060080511
 30
0.0
 10
206.7120425967853
 20
106.3773818651621
 30
0.0
 10
207.5016701782864
 20
106.3688779496373
 30
0.0
 10
207.9025794069444
 20
106.3691855997721
 30
0.0
 10
208.6894690392267
 20
106.3785605848711
 30
0.0
 10
209.0785441778506
 20
106.387526511137
 30
0.0
 10
209.8481445737834
 20
106.4047057625551
 30
0.0
 10
210.2309757014526
 20
106.4129670450862
 30
0.0
 10
210.9768068627699
 20
106.4108747012638
 30
0.0
 10
211.3369455882898
 20
106.4006199030059
 30
0.0
 10
211.8574158534062
 20
106.3526787500062
 30
0.0
 10
212.0276041720581
 20
106.3312073928851
 30
0.0
 10
212.3611157020319
 20
106.2727749970526
 30
0.0
 10
212.5241612116353
 20
106.2357303151686
 30
0.0
 10
212.835833166654
 20
106.1428100331989
 30
0.0
 10
212.985357193113
 20
106.0868296561626
 30
0.0
 10
213.2712756150957
 20
105.9502999044605
 30
0.0
 10
213.4086572552768
 20
105.8688930575892
 30
0.0
 10
213.6619935229436
 20
105.6797471454903
 30
0.0
 10
213.7785791059517
 20
105.5720212868594
 30
0.0
 10
213.9915267581712
 20
105.3250214206699
 30
0.0
 10
214.0879598402479
 20
105.1847783188918
 30
0.0
 10
214.2524059760316
 20
104.8806186287836
 30
0.0
 10
214.3221219647944
 20
104.7143454637443
 30
0.0
 10
214.4343412280971
 20
104.3572091415071
 30
0.0
 10
214.4755543115628
 20
104.1713771340417
 30
0.0
 10
214.5304646563212
 20
103.7849977008699
 30
0.0
 10
214.5437968833523
 20
103.5827107172487
 30
0.0
 10
214.5411128123652
 20
103.1855627315457
 30
0.0
 10
214.5253685329273
 20
102.9861059683949
 30
0.0
 10
214.4646847735382
 20
102.598645137893
 30
0.0
 10
214.42056696134
 20
102.4140105515644
 30
0.0
 10
214.3034103694449
 20
102.0620412487254
 30
0.0
 10
214.2306400256627
 20
101.896943196951
 30
0.0
 10
214.0609342637617
 20
101.5975642821648
 30
0.0
 10
213.9622087291597
 20
101.4603585632864
 30
0.0
 10
213.744432806587
 20
101.2186186729512
 30
0.0
 10
213.625344988098
 20
101.1132964917502
 30
0.0
 10
213.3667161707587
 20
100.9287273840462
 30
0.0
 10
213.2284481738548
 20
100.8506240514824
 30
0.0
 10
212.9403220466717
 20
100.7192829994781
 30
0.0
 10
212.7896340997606
 20
100.6654869602509
 30
0.0
 10
212.4754664482137
 20
100.5764122268351
 30
0.0
 10
212.3110677864553
 20
100.5410525199752
 30
0.0
 10
211.9761197699185
 20
100.4857203273463
 30
0.0
 10
211.8052396535245
 20
100.4655439942936
 30
0.0
 10
211.2827549972842
 20
100.4209139629021
 30
0.0
 10
210.9213545017223
 20
100.412109806625
 30
0.0
 10
210.1730857423596
 20
100.4119080067887
 30
0.0
 10
209.7894176302819
 20
100.4205785579927
 30
0.0
 10
209.0158665786642
 20
100.4379397741316
 30
0.0
 10
208.6240696060912
 20
100.4466719948925
 30
0.0
 10
207.8300664826818
 20
100.4551744727603
 30
0.0
 10
207.4322267855848
 20
100.4548110694973
 30
0.0
 10
206.6471708386744
 20
100.4454356903712
 30
0.0
 10
206.2580170431137
 20
100.436469575026
 30
0.0
 10
205.4863954785429
 20
100.4192491506689
 30
0.0
 10
205.1014386090112
 20
100.4110034494397
 30
0.0
 10
204.3585655488788
 20
100.4132071340263
 30
0.0
 10
203.9989624360524
 20
100.4234477062519
 30
0.0
 10
203.3042201588841
 20
100.4876082595901
 30
0.0
 10
202.9663663714962
 20
100.5424038738524
 30
0.0
 10
202.4994940183408
 20
100.6819269269394
 30
0.0
 10
202.3498813886424
 20
100.7380251337166
 30
0.0
 10
202.0632370579883
 20
100.87526383096
 30
0.0
 10
201.9261327250356
 20
100.9568145362566
 30
0.0
 10
201.6736102147358
 20
101.1458280736205
 30
0.0
 10
201.5570218474237
 20
101.2536945374957
 30
0.0
 10
201.3435136955758
 20
101.5020580992007
 30
0.0
 10
201.2478014484311
 20
101.641787520285
 30
0.0
 10
201.0837147497465
 20
101.9461450126588
 30
0.0
 10
201.0135571032683
 20
102.1142713949204
 30
0.0
 10
200.9023083513829
 20
102.4699036716785
 30
0.0
 10
200.8612041559612
 20
102.6556118737025
 30
0.0
 10
200.8064750065445
 20
103.0434159972806
 30
0.0
 10
200.7934217044983
 20
103.2451403761863
 30
0.0
 10
200.7964644672454
 20
103.6420967364776
 30
0.0
 10
200.8125599315251
 20
103.842900398292
 30
0.0
 10
200.873473845547
 20
104.2289373563282
 30
0.0
 10
200.9177261348572
 20
104.4136017973576
 30
0.0
 10
201.0358129060887
 20
104.7666941272744
 30
0.0
 10
201.1083031912548
 20
104.9303696199357
 30
0.0
 10
201.2785844456088
 20
105.229706049999
 30
0.0
 10
201.3776746902996
 20
105.366861192584
 30
0.0
 10
201.5955125975736
 20
105.6078306689729
 30
0.0
 10
201.714868887575
 20
105.7131087472463
 30
0.0
 10
202.1046548786377
 20
105.9901820517973
 30
0.0
 10
202.3936352565532
 20
106.1152175196009
 30
0.0
 10
202.8664760772243
 20
106.2487062853034
 30
0.0
 10
203.0310136317777
 20
106.2838815714012
 30
0.0
 10
203.3653510789693
 20
106.3388295381225
 30
0.0
 10
203.536096548611
 20
106.3588959409756
 30
0.0
 10
204.0586859095179
 20
106.403276647461
 30
0.0
 10
204.4210186382854
 20
106.4120080645162
 30
0.0
 10
205.1717896829182
 20
106.4120080645162
 30
0.0
  0
LINE
  5
1C5
330
1F
100
AcDbEntity
  8
0
  6
HIDDEN
 62
     7
370
     0
100
AcDbLine
 10
191.5186842918
 20
100.4120080384
 30
0.0
 11
191.5186842918
 21
106.4120080906
 31
0.0
  0
LINE
  5
1C6
330
1F
100
AcDbEntity
  8
0
  6
HIDDEN
 62
     7
370
     0
100
AcDbLine
 10
220.5186834573
 20
106.4120080906
 30
0.0
 11
220.5186834573
 21
100.4120080384
 31
0.0
  0
SPLINE
  5
1C7
330
1F
100
AcDbEntity
  8
0
  6
HIDDEN
 62
     7
370
     0
100
AcDbSpline
210
0.0
220
0.0
230
1.0
 70
     8
 71
     3
 72
    68
 73
    64
 74
     0
 42
0.00000001
 43
0.00000001
 40
-0.0312500000000003
 40
-0.0312500000000003
 40
0.0
 40
0.0
 40
0.0312499999999999
 40
0.0312499999999999
 40
0.0624999999999997
 40
0.0624999999999997
 40
0.0937499999999996
 40
0.0937499999999996
 40
0.1249999999999995
 40
0.1249999999999995
 40
0.1562499999999993
 40
0.1562499999999993
 40
0.1874999999999992
 40
0.1874999999999992
 40
0.2187499999999991
 40
0.2187499999999991
 40
0.2499999999999989
 40
0.2499999999999989
 40
0.2812499999999988
 40
0.2812499999999988
 40
0.3124999999999987
 40
0.3124999999999987
 40
0.3437499999999986
 40
0.3437499999999986
 40
0.3749999999999984
 40
0.3749999999999984
 40
0.4062499999999983
 40
0.4062499999999983
 40
0.4374999999999982
 40
0.4374999999999982
 40
0.468749999999998
 40
0.468749999999998
 40
0.4843749999999979
 40
0.4843749999999979
 40
0.4999999999999979
 40
0.4999999999999979
 40
0.5312499999999978
 40
0.5312499999999978
 40
0.5624999999999977
 40
0.5624999999999977
 40
0.6249999999999972
 40
0.6249999999999972
 40
0.6874999999999969
 40
0.6874999999999969
 40
0.7187499999999972
 40
0.7187499999999972
 40
0.7499999999999974
 40
0.7499999999999974
 40
0.7812499999999978
 40
0.7812499999999978
 40
0.8124999999999981
 40
0.8124999999999981
 40
0.8437499999999984
 40
0.8437499999999984
 40
0.8749999999999988
 40
0.8749999999999988
 40
0.9062499999999991
 40
0.9062499999999991
 40
0.9374999999999993
 40
0.9374999999999993
 40
0.9687499999999997
 40
0.9687499999999997
 40
1.0
 40
1.0
 40
1.03125
 40
1.03125
 10
207.8458751749441
 20
100.9120080645162
 30
0.0
 10
207.4914957927975
 20
100.9120080645162
 30
0.0
 10
207.3206439204963
 20
100.9305485222444
 30
0.0
 10
206.9886328706266
 20
101.0003068324006
 30
0.0
 10
206.8351550254741
 20
101.0497608569972
 30
0.0
 10
206.5442691028832
 20
101.1735548716455
 30
0.0
 10
206.4064975484657
 20
101.2485828433448
 30
0.0
 10
206.1514898463286
 20
101.4191095549814
 30
0.0
 10
206.0329469780465
 20
101.5151029406275
 30
0.0
 10
205.8117450850505
 20
101.7310375520739
 30
0.0
 10
205.7086136538984
 20
101.8520593910769
 30
0.0
 10
205.5266489420219
 20
102.1131620783423
 30
0.0
 10
205.4467926195128
 20
102.2539200445991
 30
0.0
 10
205.3123244026909
 20
102.5602227525619
 30
0.0
 10
205.259717918419
 20
102.7217732094511
 30
0.0
 10
205.1879157897633
 20
103.0579874276269
 30
0.0
 10
205.1689299773719
 20
103.2347205337167
 30
0.0
 10
205.1684458397834
 20
103.5823318238178
 30
0.0
 10
205.1867620527035
 20
103.7582047280174
 30
0.0
 10
205.2578944989941
 20
104.0960277098729
 30
0.0
 10
205.3099689960942
 20
104.2573373665342
 30
0.0
 10
205.4440073697601
 20
104.5648013621877
 30
0.0
 10
205.5238640911147
 20
104.706360433693
 30
0.0
 10
205.7063906564466
 20
104.9692511003593
 30
0.0
 10
205.8092020523926
 20
105.0901441251524
 30
0.0
 10
206.0297308969742
 20
105.3061165967921
 30
0.0
 10
206.1482743879772
 20
105.4025101520843
 30
0.0
 10
206.4042537333439
 20
105.5741738327656
 30
0.0
 10
206.541810758918
 20
105.6492111797177
 30
0.0
 10
206.8321987001859
 20
105.7731972321022
 30
0.0
 10
206.9880884886401
 20
105.8234659469578
 30
0.0
 10
207.2351773357464
 20
105.8755737796304
 30
0.0
 10
207.3192024351385
 20
105.8889706030827
 30
0.0
 10
207.491234092334
 20
105.9072020093739
 30
0.0
 10
207.5800922813279
 20
105.9119679208162
 30
0.0
 10
207.8424514502545
 20
105.912087571956
 30
0.0
 10
208.0170351921044
 20
105.8933238794815
 30
0.0
 10
208.3461882235003
 20
105.8243234938533
 30
0.0
 10
208.5000348816664
 20
105.7751193976035
 30
0.0
 10
208.9403627709206
 20
105.5879181850693
 30
0.0
 10
209.1917505718313
 20
105.4188626117954
 30
0.0
 10
209.637962676974
 20
104.9833577305113
 30
0.0
 10
209.8209185015629
 20
104.7274075502584
 30
0.0
 10
210.0238017499097
 20
104.2672992814842
 30
0.0
 10
210.0763899568099
 20
104.1067616430732
 30
0.0
 10
210.148966974088
 20
103.7696770360728
 30
0.0
 10
210.1681532844772
 20
103.5934183031632
 30
0.0
 10
210.1691952507551
 20
103.2455752952961
 30
0.0
 10
210.1510118033227
 20
103.0687842001459
 30
0.0
 10
210.0803618363567
 20
102.7311529050463
 30
0.0
 10
210.0280640583849
 20
102.5685794268511
 30
0.0
 10
209.894508712018
 20
102.2614646790891
 30
0.0
 10
209.8147499205151
 20
102.1196579623312
 30
0.0
 10
209.6318710411308
 20
101.8558384655931
 30
0.0
 10
209.5293912494852
 20
101.7352229303078
 30
0.0
 10
209.3089456804776
 20
101.519026073075
 30
0.0
 10
209.1902464133409
 20
101.4223405767409
 30
0.0
 10
208.9333793595341
 20
101.2499549257475
 30
0.0
 10
208.7962651623668
 20
101.1751585148995
 30
0.0
 10
208.5058719257684
 20
101.0510653078022
 30
0.0
 10
208.3494521966129
 20
101.0006036176223
 30
0.0
 10
208.0201625408525
 20
100.9311254388982
 30
0.0
 10
207.8458751749441
 20
100.9120080645162
 30
0.0
 10
207.4914957927975
 20
100.9120080645162
 30
0.0
  0
ARC
  5
1C8
330
1F
100
AcDbEntity
  8
0
  6
HIDDEN
 62
     7
370
     0
100
AcDbCircle
 10
214.5508897379
 20
108.818780727
 30
0.0
 40
1.588496164144143
100
AcDbArc
 50
232.6615025602
 51
284.8335155649
  0
LINE
  5
1C9
330
1F
100
AcDbEntity
  8
0
  6
HIDDEN
 62
     7
370
     0
100
AcDbLine
 10
96.5186854839
 20
93.3085150669
 30
0.0
 11
96.5186854839
 21
113.4963381688
 31
0.0
  0
LWPOLYLINE
  5
1CA
330
1F
100
AcDbEntity
  8
0
  6
HIDDEN
 62
     7
370
     0
100
AcDbPolyline
 90
       11
 70
   128
 43
0.0
 10
196.453561449
 20
115.8401511262
 10
195.8111500382
 20
115.9418990488
 10
195.3263705611
 20
116.0186800758
 10
195.0017711162
 20
116.0700918759
 10
194.8390429854
 20
116.0958652968
 10
194.8186879992
 20
116.0990895356
 10
194.8390429854
 20
116.0958652968
 10
195.0017711162
 20
116.0700918759
 10
195.3263705611
 20
116.0186800758
 10
195.8111500382
 20
115.9418990488
 10
196.453561449
 20
115.8401511262
  0
LINE
  5
1CB
330
1F
100
AcDbEntity
  8
0
  6
HIDDEN
 62
     7
370
     0
100
AcDbLine
 10
94.5186853889
 20
112.4120076771
 30
0.0
 11
94.5186853889
 21
94.4120084519
 31
0.0
  0
LINE
  5
1CC
330
1F
100
AcDbEntity
  8
0
  6
HIDDEN
 62
     7
370
     0
100
AcDbLine
 10
91.5186855956
 20
112.4120076771
 30
0.0
 11
91.5186855956
 21
94.4120084519
 31
0.0
  0
SPLINE
  5
1CD
330
1F
100
AcDbEntity
  8
0
  6
HIDDEN
 62
     7
370
     0
100
AcDbSpline
210
0.0
220
0.0
230
1.0
 70
     8
 71
     3
 72
    38
 73
    34
 74
     0
 42
0.00000001
 43
0.00000001
 40
-0.1249999999999969
 40
-0.1249999999999969
 40
0.0
 40
0.0
 40
0.0312500000000001
 40
0.0312500000000001
 40
0.0625000000000002
 40
0.0625000000000002
 40
0.1250000000000006
 40
0.1250000000000006
 40
0.187500000000001
 40
0.187500000000001
 40
0.2500000000000013
 40
0.2500000000000013
 40
0.3125000000000017
 40
0.3125000000000017
 40
0.3750000000000021
 40
0.3750000000000021
 40
0.4375000000000024
 40
0.4375000000000024
 40
0.5000000000000028
 40
0.5000000000000028
 40
0.5625000000000029
 40
0.5625000000000029
 40
0.625000000000003
 40
0.625000000000003
 40
0.6875000000000031
 40
0.6875000000000031
 40
0.7500000000000032
 40
0.7500000000000032
 40
0.8125000000000031
 40
0.8125000000000031
 40
0.8750000000000031
 40
0.8750000000000031
 40
1.0
 40
1.0
 40
1.03125
 40
1.03125
 10
193.995820590309
 20
89.31716902839965
 30
0.0
 10
194.2148933788125
 20
89.54585284252371
 30
0.0
 10
194.2538218536173
 20
89.58669242046723
 30
0.0
 10
194.3218999656573
 20
89.65833263443993
 30
0.0
 10
194.3512800309983
 20
89.68937881543044
 30
0.0
 10
194.4202625884254
 20
89.76241423019334
 30
0.0
 10
194.4420382437235
 20
89.78564210239313
 30
0.0
 10
194.4316314067396
 20
89.77457441585283
 30
0.0
 10
194.3995003731478
 20
89.74034102019975
 30
0.0
 10
194.2886802480389
 20
89.62326073667948
 30
0.0
 10
194.2105731909608
 20
89.54108964990844
 30
0.0
 10
194.023678968171
 20
89.34670949034016
 30
0.0
 10
193.9155370386854
 20
89.23520829101778
 30
0.0
 10
193.6860900640977
 20
89.0014652349169
 30
0.0
 10
193.563404758296
 20
88.87783176154743
 30
0.0
 10
193.3208886392941
 20
88.63616324890926
 30
0.0
 10
193.1982594866973
 20
88.51533688915342
 30
0.0
 10
192.9709726803379
 20
88.29346331894713
 30
0.0
 10
192.8630732535015
 20
88.18923964202874
 30
0.0
 10
192.6820925809406
 20
88.01554104301849
 30
0.0
 10
192.6063751827994
 20
87.94350364770047
 30
0.0
 10
192.5071054923755
 20
87.8492915288276
 30
0.0
 10
192.4825012057382
 20
87.82607296005612
 30
0.0
 10
192.4931604901196
 20
87.83615383734977
 30
0.0
 10
192.5281495826297
 20
87.8691973920852
 30
0.0
 10
192.6470416722439
 20
87.98221059456132
 30
0.0
 10
192.7301278030646
 20
88.06144948376954
 30
0.0
 10
192.9239040403634
 20
88.24796794110112
 30
0.0
 10
193.0358503158335
 20
88.35648635318393
 30
0.0
 10
193.2693586064812
 20
88.58530534596368
 30
0.0
 10
193.3929406803644
 20
88.70759574023654
 30
0.0
 10
193.7567444091478
 20
89.07169553577091
 30
0.0
 10
193.995820590309
 20
89.31716902839965
 30
0.0
 10
194.2148933788125
 20
89.54585284252371
 30
0.0
  0
LINE
  5
1CE
330
1F
100
AcDbEntity
  8
0
  6
HIDDEN
 62
     7
370
     0
100
AcDbLine
 10
196.4145353078
 20
90.162008221
 30
0.0
 11
194.8186879992
 21
90.162008221
 31
0.0
  0
SPLINE
  5
1CF
330
1F
100
AcDbEntity
  8
0
  6
HIDDEN
 62
     7
370
     0
100
AcDbSpline
210
0.0
220
0.0
230
1.0
 70
    11
 71
     3
 72
    36
 73
    32
 74
     0
 42
0.00000001
 43
0.00000001
 40
-0.1249999999999996
 40
-0.1249999999999996
 40
0.0
 40
0.0
 40
0.0625000000000001
 40
0.0625000000000001
 40
0.1250000000000001
 40
0.1250000000000001
 40
0.1875000000000002
 40
0.1875000000000002
 40
0.2500000000000002
 40
0.2500000000000002
 40
0.3125000000000003
 40
0.3125000000000003
 40
0.3750000000000004
 40
0.3750000000000004
 40
0.4375000000000005
 40
0.4375000000000005
 40
0.5000000000000004
 40
0.5000000000000004
 40
0.5625000000000006
 40
0.5625000000000006
 40
0.6250000000000004
 40
0.6250000000000004
 40
0.6875000000000006
 40
0.6875000000000006
 40
0.7500000000000004
 40
0.7500000000000004
 40
0.8125000000000004
 40
0.8125000000000004
 40
0.8750000000000004
 40
0.8750000000000004
 40
1.0
 40
1.0
 40
1.0625
 40
1.0625
 10
216.1686854838708
 20
104.4120080645162
 30
0.0
 10
216.1686854838708
 20
104.4120080645162
 30
0.0
 10
216.1655104615423
 20
104.3859311784518
 30
0.0
 10
216.1545858431411
 20
104.2855047377437
 30
0.0
 10
216.1469100580494
 20
104.2112132277384
 30
0.0
 10
216.1315225315242
 20
104.0268640296426
 30
0.0
 10
216.1237993789926
 20
103.9153901291662
 30
0.0
 10
216.112891254823
 20
103.674788630221
 30
0.0
 10
216.10966556035
 20
103.5431168443975
 30
0.0
 10
216.1096484597303
 20
103.2820049088739
 30
0.0
 10
216.1128279882942
 20
103.1508811501993
 30
0.0
 10
216.1237887914979
 20
102.9086030853813
 30
0.0
 10
216.1314089148162
 20
102.7985407125366
 30
0.0
 10
216.1469887873632
 20
102.6118323155198
 30
0.0
 10
216.1545871594049
 20
102.5384989258702
 30
0.0
 10
216.1655106256391
 20
102.438083807577
 30
0.0
 10
216.1686797490948
 20
102.4120568101159
 30
0.0
 10
216.1686912022975
 20
102.4119594578856
 30
0.0
 10
216.1655048529017
 20
102.4381549262975
 30
0.0
 10
216.1546664213745
 20
102.5377523716227
 30
0.0
 10
216.1469744052918
 20
102.6121295120922
 30
0.0
 10
216.1315835965305
 20
102.7963237876369
 30
0.0
 10
216.1238816084696
 20
102.9070727945831
 30
0.0
 10
216.1128837796267
 20
103.1491336088553
 30
0.0
 10
216.109671467679
 20
103.2788530740898
 30
0.0
 10
216.1096426166509
 20
103.5433213923286
 30
0.0
 10
216.1128284676314
 20
103.6731436212591
 30
0.0
 10
216.1237877533809
 20
103.9153920498363
 30
0.0
 10
216.1314826850758
 20
104.0263245054477
 30
0.0
 10
216.1545637387729
 20
104.3030314315084
 30
0.0
 10
216.1686854838708
 20
104.4120080645162
 30
0.0
 10
216.1686854838708
 20
104.4120080645162
 30
0.0
  0
SPLINE
  5
1D0
330
1F
100
AcDbEntity
  8
0
  6
HIDDEN
 62
     7
370
     0
100
AcDbSpline
210
0.0
220
0.0
230
1.0
 70
    11
 71
     3
 72
    36
 73
    32
 74
     0
 42
0.00000001
 43
0.00000001
 40
-0.1249999999999996
 40
-0.1249999999999996
 40
0.0
 40
0.0
 40
0.0625000000000001
 40
0.0625000000000001
 40
0.1250000000000001
 40
0.1250000000000001
 40
0.1875000000000002
 40
0.1875000000000002
 40
0.2500000000000002
 40
0.2500000000000002
 40
0.3125000000000003
 40
0.3125000000000003
 40
0.3750000000000004
 40
0.3750000000000004
 40
0.4375000000000005
 40
0.4375000000000005
 40
0.5000000000000004
 40
0.5000000000000004
 40
0.5625000000000006
 40
0.5625000000000006
 40
0.6250000000000004
 40
0.6250000000000004
 40
0.6875000000000006
 40
0.6875000000000006
 40
0.7500000000000004
 40
0.7500000000000004
 40
0.8125000000000004
 40
0.8125000000000004
 40
0.8750000000000004
 40
0.8750000000000004
 40
1.0
 40
1.0
 40
1.0625
 40
1.0625
 10
216.1686854838708
 20
104.4120080645162
 30
0.0
 10
216.1686854838708
 20
104.4120080645162
 30
0.0
 10
216.1655104615423
 20
104.3859311784518
 30
0.0
 10
216.1545858431411
 20
104.2855047377437
 30
0.0
 10
216.1469100580494
 20
104.2112132277384
 30
0.0
 10
216.1315225315242
 20
104.0268640296426
 30
0.0
 10
216.1237993789926
 20
103.9153901291662
 30
0.0
 10
216.112891254823
 20
103.674788630221
 30
0.0
 10
216.10966556035
 20
103.5431168443975
 30
0.0
 10
216.1096484597303
 20
103.2820049088739
 30
0.0
 10
216.1128279882942
 20
103.1508811501993
 30
0.0
 10
216.1237887914979
 20
102.9086030853813
 30
0.0
 10
216.1314089148162
 20
102.7985407125366
 30
0.0
 10
216.1469887873632
 20
102.6118323155198
 30
0.0
 10
216.1545871594049
 20
102.5384989258702
 30
0.0
 10
216.1655106256391
 20
102.438083807577
 30
0.0
 10
216.1686797490948
 20
102.4120568101159
 30
0.0
 10
216.1686912022975
 20
102.4119594578856
 30
0.0
 10
216.1655048529017
 20
102.4381549262975
 30
0.0
 10
216.1546664213745
 20
102.5377523716227
 30
0.0
 10
216.1469744052918
 20
102.6121295120922
 30
0.0
 10
216.1315835965305
 20
102.7963237876369
 30
0.0
 10
216.1238816084696
 20
102.9070727945831
 30
0.0
 10
216.1128837796267
 20
103.1491336088553
 30
0.0
 10
216.109671467679
 20
103.2788530740898
 30
0.0
 10
216.1096426166509
 20
103.5433213923286
 30
0.0
 10
216.1128284676314
 20
103.6731436212591
 30
0.0
 10
216.1237877533809
 20
103.9153920498363
 30
0.0
 10
216.1314826850758
 20
104.0263245054477
 30
0.0
 10
216.1545637387729
 20
104.3030314315084
 30
0.0
 10
216.1686854838708
 20
104.4120080645162
 30
0.0
 10
216.1686854838708
 20
104.4120080645162
 30
0.0
  0
LINE
  5
1D1
330
1F
100
AcDbEntity
  8
0
  6
HIDDEN
 62
     7
370
     0
100
AcDbLine
 10
216.0934483647
 20
90.1619132261
 30
0.0
 11
216.0934483647
 21
90.162008221
 31
0.0
  0
LINE
  5
1D2
330
1F
100
AcDbEntity
  8
0
  6
HIDDEN
 62
     7
370
     0
100
AcDbLine
 10
216.0934483647
 20
90.1520076792
 30
0.0
 11
216.0483798026
 21
90.1520076792
 31
0.0
  0
LINE
  5
1D3
330
1F
100
AcDbEntity
  8
0
  6
HIDDEN
 62
     7
370
     0
100
AcDbLine
 10
216.0483798026
 20
90.1520076792
 30
0.0
 11
216.0483798026
 21
90.162008221
 31
0.0
  0
LINE
  5
1D4
330
1F
100
AcDbEntity
  8
0
  6
HIDDEN
 62
     7
370
     0
100
AcDbLine
 10
215.8283269047
 20
90.1520076792
 30
0.0
 11
215.8283269047
 21
90.162008221
 31
0.0
  0
LINE
  5
1D5
330
1F
100
AcDbEntity
  8
0
  6
HIDDEN
 62
     7
370
     0
100
AcDbLine
 10
215.8283269047
 20
90.1520076792
 30
0.0
 11
215.7392105102
 21
90.1520076792
 31
0.0
  0
LINE
  5
1D6
330
1F
100
AcDbEntity
  8
0
  6
HIDDEN
 62
     7
370
     0
100
AcDbLine
 10
215.7392105102
 20
90.1520076792
 30
0.0
 11
215.7392105102
 21
90.162008221
 31
0.0
  0
LINE
  5
1D7
330
1F
100
AcDbEntity
  8
0
  6
HIDDEN
 62
     7
370
     0
100
AcDbLine
 10
215.3780063629
 20
90.1520076792
 30
0.0
 11
215.3780063629
 21
90.162008221
 31
0.0
  0
LINE
  5
1D8
330
1F
100
AcDbEntity
  8
0
  6
HIDDEN
 62
     7
370
     0
100
AcDbLine
 10
215.3780063629
 20
90.1520076792
 30
0.0
 11
215.2468686938
 21
90.1520076792
 31
0.0
  0
LINE
  5
1D9
330
1F
100
AcDbEntity
  8
0
  6
HIDDEN
 62
     7
370
     0
100
AcDbLine
 10
215.2468686938
 20
90.1520076792
 30
0.0
 11
215.2468686938
 21
90.162008221
 31
0.0
  0
LINE
  5
1DA
330
1F
100
AcDbEntity
  8
0
  6
HIDDEN
 62
     7
370
     0
100
AcDbLine
 10
214.7527163863
 20
90.1520076792
 30
0.0
 11
214.7527163863
 21
90.162008221
 31
0.0
  0
LINE
  5
1DB
330
1F
100
AcDbEntity
  8
0
  6
HIDDEN
 62
     7
370
     0
100
AcDbLine
 10
214.7527163863
 20
90.1520076792
 30
0.0
 11
214.5825302243
 21
90.1520076792
 31
0.0
  0
LINE
  5
1DC
330
1F
100
AcDbEntity
  8
0
  6
HIDDEN
 62
     7
370
     0
100
AcDbLine
 10
214.5825302243
 20
90.1520076792
 30
0.0
 11
214.5825302243
 21
90.162008221
 31
0.0
  0
LINE
  5
1DD
330
1F
100
AcDbEntity
  8
0
  6
HIDDEN
 62
     7
370
     0
100
AcDbLine
 10
213.9666354298
 20
90.1520076792
 30
0.0
 11
213.9666354298
 21
90.162008221
 31
0.0
  0
LINE
  5
1DE
330
1F
100
AcDbEntity
  8
0
  6
HIDDEN
 62
     7
370
     0
100
AcDbLine
 10
213.9666354298
 20
90.1520076792
 30
0.0
 11
213.7612750768
 21
90.1520076792
 31
0.0
  0
LINE
  5
1DF
330
1F
100
AcDbEntity
  8
0
  6
HIDDEN
 62
     7
370
     0
100
AcDbLine
 10
213.7612750768
 20
90.1520076792
 30
0.0
 11
213.7612750768
 21
90.162008221
 31
0.0
  0
LINE
  5
1E0
330
1F
100
AcDbEntity
  8
0
  6
HIDDEN
 62
     7
370
     0
100
AcDbLine
 10
216.1673655748
 20
90.1520076792
 30
0.0
 11
216.1686843275
 21
90.1520076792
 31
0.0
  0
LINE
  5
1E1
330
1F
100
AcDbEntity
  8
0
  6
HIDDEN
 62
     7
370
     0
100
AcDbLine
 10
216.1673655748
 20
90.1520076792
 30
0.0
 11
216.1673655748
 21
90.162008221
 31
0.0
  0
LINE
  5
1E2
330
1F
100
AcDbEntity
  8
0
  6
HIDDEN
 62
     7
370
     0
100
AcDbLine
 10
214.5825302243
 20
90.162008221
 30
0.0
 11
213.9666354298
 21
90.162008221
 31
0.0
  0
LINE
  5
1E3
330
1F
100
AcDbEntity
  8
0
  6
HIDDEN
 62
     7
370
     0
100
AcDbLine
 10
215.2468686938
 20
90.162008221
 30
0.0
 11
214.7527163863
 21
90.162008221
 31
0.0
  0
LINE
  5
1E4
330
1F
100
AcDbEntity
  8
0
  6
HIDDEN
 62
     7
370
     0
100
AcDbLine
 10
215.7392105102
 20
90.162008221
 30
0.0
 11
215.3780063629
 21
90.162008221
 31
0.0
  0
LINE
  5
1E5
330
1F
100
AcDbEntity
  8
0
  6
HIDDEN
 62
     7
370
     0
100
AcDbLine
 10
216.0483798026
 20
90.162008221
 30
0.0
 11
215.8283269047
 21
90.162008221
 31
0.0
  0
LINE
  5
1E6
330
1F
100
AcDbEntity
  8
0
  6
HIDDEN
 62
     7
370
     0
100
AcDbLine
 10
216.1673655748
 20
90.162008221
 30
0.0
 11
216.0934483647
 21
90.162008221
 31
0.0
  0
LINE
  5
1E7
330
1F
100
AcDbEntity
  8
0
  6
HIDDEN
 62
     7
370
     0
100
AcDbLine
 10
216.1673655748
 20
90.162008221
 30
0.0
 11
199.176182413
 21
90.162008221
 31
0.0
  0
LWPOLYLINE
  5
1E8
330
1F
100
AcDbEntity
  8
0
  6
HIDDEN
 62
     7
370
     0
100
AcDbPolyline
 90
       48
 70
   128
 43
0.0
 10
216.1686843275
 20
112.7175820644
 10
216.0928448676
 20
112.729594263
 10
215.866675043
 20
112.7654157232
 10
215.4942130684
 20
112.824408489
 10
214.9820974111
 20
112.9055192347
 10
214.339477384
 20
113.0072997536
 10
213.5778194308
 20
113.127934898
 10
212.7107134103
 20
113.2652714501
 10
211.753626728
 20
113.416858169
 10
210.7236510157
 20
113.5799904938
 10
209.6391594052
 20
113.7517580415
 10
208.5195010542
 20
113.9290939669
 10
207.38465842
 20
114.1088354985
 10
206.2548896312
 20
114.2877732987
 10
205.1503410577
 20
114.4627157251
 10
204.090741837
 20
114.6305409844
 10
203.0949866413
 20
114.7882530118
 10
202.1808451056
 20
114.9330373506
 10
201.3646414518
 20
115.0623123745
 10
200.6609341144
 20
115.173769335
 10
200.0822773218
 20
115.2654189269
 10
199.6389975786
 20
115.3356276105
 10
199.3390074014
 20
115.3831408943
 10
199.1876637577
 20
115.4071112747
 10
199.1876637577
 20
115.4071112747
 10
199.3390074014
 20
115.3831408943
 10
199.6389975786
 20
115.3356276105
 10
200.0822773218
 20
115.2654189269
 10
200.6609341144
 20
115.173769335
 10
201.3646414518
 20
115.0623123745
 10
202.1808451056
 20
114.9330373506
 10
203.0949866413
 20
114.7882530118
 10
204.090741837
 20
114.6305409844
 10
205.1503410577
 20
114.4627157251
 10
206.2548896312
 20
114.2877732987
 10
207.38465842
 20
114.1088354985
 10
208.5195010542
 20
113.9290939669
 10
209.6391594052
 20
113.7517580415
 10
210.7236510157
 20
113.5799904938
 10
211.753626728
 20
113.416858169
 10
212.7107134103
 20
113.2652714501
 10
213.5778194308
 20
113.127934898
 10
214.339477384
 20
113.0072997536
 10
214.9820974111
 20
112.9055192347
 10
215.4942130684
 20
112.824408489
 10
215.866675043
 20
112.7654157232
 10
216.0928448676
 20
112.729594263
 10
216.1686843275
 20
112.7175820644
  0
LINE
  5
1E9
330
1F
100
AcDbEntity
  8
0
  6
HIDDEN
 62
     7
370
     0
100
AcDbLine
 10
87.231055276
 20
111.4120084445
 30
0.0
 11
87.231055276
 21
95.4120076845
 31
0.0
  0
LINE
  5
1EA
330
1F
100
AcDbEntity
  8
0
  6
HIDDEN
 62
     7
370
     0
100
AcDbLine
 10
78.0186852455
 20
111.4120084445
 30
0.0
 11
78.0186852455
 21
95.4120076845
 31
0.0
  0
LINE
  5
1EB
330
1F
100
AcDbEntity
  8
0
  6
HIDDEN
 62
     7
370
     0
100
AcDbLine
 10
77.5186860948
 20
110.9120078969
 30
0.0
 11
77.5186860948
 21
95.9120082322
 31
0.0
  0
LINE
  5
1EC
330
1F
100
AcDbEntity
  8
0
  6
HIDDEN
 62
     7
370
     0
100
AcDbLine
 10
91.5186855956
 20
95.9120082322
 30
0.0
 11
91.5186855956
 21
110.9120078969
 31
0.0
  0
LINE
  5
1ED
330
1F
100
AcDbEntity
  8
0
  6
HIDDEN
 62
     7
370
     0
100
AcDbLine
 10
78.3847117811
 20
106.8120081096
 30
0.0
 11
78.3847117811
 21
100.0120080194
 31
0.0
  0
LINE
  5
1EE
330
1F
100
AcDbEntity
  8
0
  6
HIDDEN
 62
     7
370
     0
100
AcDbLine
 10
77.5186860948
 20
99.5120081703
 30
0.0
 11
77.5186860948
 21
107.2919984932
 31
0.0
  0
LINE
  5
1EF
330
1F
100
AcDbEntity
  8
0
  6
HIDDEN
 62
     7
370
     0
100
AcDbLine
 10
189.5186876892
 20
106.8120081096
 30
0.0
 11
189.5186876892
 21
100.0120080194
 31
0.0
  0
SPLINE
  5
1F0
330
1F
100
AcDbEntity
  8
0
  6
HIDDEN
 62
     7
370
     0
100
AcDbSpline
210
0.0
220
0.0
230
1.0
 70
    11
 71
     3
 72
    58
 73
    54
 74
     0
 42
0.00000001
 43
0.00000001
 40
-0.0156249999999974
 40
-0.0156249999999974
 40
0.0
 40
0.0
 40
0.0156250000000022
 40
0.0156250000000022
 40
0.0312500000000044
 40
0.0312500000000044
 40
0.0625000000000069
 40
0.0625000000000069
 40
0.1250000000000094
 40
0.1250000000000094
 40
0.1875000000000119
 40
0.1875000000000119
 40
0.2500000000000145
 40
0.2500000000000145
 40
0.312500000000017
 40
0.312500000000017
 40
0.3750000000000195
 40
0.3750000000000195
 40
0.406250000000022
 40
0.406250000000022
 40
0.4375000000000245
 40
0.4375000000000245
 40
0.468750000000027
 40
0.468750000000027
 40
0.4843750000000275
 40
0.4843750000000275
 40
0.5000000000000279
 40
0.5000000000000279
 40
0.5156250000000284
 40
0.5156250000000284
 40
0.5312500000000289
 40
0.5312500000000289
 40
0.5625000000000282
 40
0.5625000000000282
 40
0.5937500000000275
 40
0.5937500000000275
 40
0.6250000000000269
 40
0.6250000000000269
 40
0.6875000000000231
 40
0.6875000000000231
 40
0.7500000000000193
 40
0.7500000000000193
 40
0.8125000000000157
 40
0.8125000000000157
 40
0.8750000000000119
 40
0.8750000000000119
 40
0.9375000000000081
 40
0.9375000000000081
 40
0.9687500000000051
 40
0.9687500000000051
 40
0.9843750000000026
 40
0.9843750000000026
 40
1.0
 40
1.0
 40
1.015625000000002
 40
1.015625000000002
 10
166.3279551764555
 20
100.0120080645162
 30
0.0
 10
166.3279551764555
 20
100.0120080645162
 30
0.0
 10
166.2900634895808
 20
100.0155576289257
 30
0.0
 10
166.1849160519376
 20
100.0252669281864
 30
0.0
 10
166.119234421864
 20
100.0312754054396
 30
0.0
 10
165.9103291660132
 20
100.0500663529469
 30
0.0
 10
165.7554991263925
 20
100.0635941038833
 30
0.0
 10
165.2846161925853
 20
100.1030467776937
 30
0.0
 10
164.9522437007075
 20
100.1287054660789
 30
0.0
 10
164.2893311448317
 20
100.1737695271824
 30
0.0
 10
163.9555058638732
 20
100.1934979072782
 30
0.0
 10
163.2843525399487
 20
100.2252542355379
 30
0.0
 10
162.94699161089
 20
100.237301969223
 30
0.0
 10
162.2685199215204
 20
100.2508498003466
 30
0.0
 10
161.9261322790377
 20
100.2523554854138
 30
0.0
 10
161.2420748825501
 20
100.2405763527747
 30
0.0
 10
160.9030727202858
 20
100.2273403668646
 30
0.0
 10
160.4023501865339
 20
100.1931915534903
 30
0.0
 10
160.2367563979295
 20
100.1794157425031
 30
0.0
 10
159.9096256119251
 20
100.146581307263
 30
0.0
 10
159.7516427862816
 20
100.127827937477
 30
0.0
 10
159.4547447259982
 20
100.0872359818298
 30
0.0
 10
159.3141650250139
 20
100.064943867779
 30
0.0
 10
159.1493553838739
 20
100.0364140043888
 30
0.0
 10
159.1039323163969
 20
100.0281035956084
 30
0.0
 10
159.0384136132683
 20
100.0158793420094
 30
0.0
 10
159.019467475691
 20
100.0122046492394
 30
0.0
 10
159.0175038460773
 20
100.0118274191608
 30
0.0
 10
159.0342703455934
 20
100.0150874125077
 30
0.0
 10
159.097467518156
 20
100.0269133839771
 30
0.0
 10
159.1421332097872
 20
100.035118328708
 30
0.0
 10
159.304861826823
 20
100.0634150595538
 30
0.0
 10
159.4435183856322
 20
100.0855559754144
 30
0.0
 10
159.7405905965014
 20
100.126451535318
 30
0.0
 10
159.8980820054158
 20
100.1452751549416
 30
0.0
 10
160.2236933229781
 20
100.178241364502
 30
0.0
 10
160.3909177123692
 20
100.1922961462789
 30
0.0
 10
160.8921226860535
 20
100.2268137088209
 30
0.0
 10
161.2301672639109
 20
100.2401700273624
 30
0.0
 10
161.9107147415424
 20
100.2522833678923
 30
0.0
 10
162.2542253937502
 20
100.2510072916689
 30
0.0
 10
162.9376237472245
 20
100.2376126201377
 30
0.0
 10
163.2783936544452
 20
100.2255181275897
 30
0.0
 10
163.9569403200246
 20
100.1934479733791
 30
0.0
 10
164.2940775670538
 20
100.1734849298114
 30
0.0
 10
164.9602260163174
 20
100.1281240435135
 30
0.0
 10
165.2901933302468
 20
100.1026077010338
 30
0.0
 10
165.7621614201147
 20
100.0630213788529
 30
0.0
 10
165.9155083969683
 20
100.0496073324561
 30
0.0
 10
166.1224626524107
 20
100.0309814561796
 30
0.0
 10
166.1876728748765
 20
100.0250132776094
 30
0.0
 10
166.2902099795263
 20
100.0155431617546
 30
0.0
 10
166.3279551764555
 20
100.0120080645162
 30
0.0
 10
166.3279551764555
 20
100.0120080645162
 30
0.0
  0
LINE
  5
1F1
330
1F
100
AcDbEntity
  8
0
  6
HIDDEN
 62
     7
370
     0
100
AcDbLine
 10
218.8186844825
 20
104.7620080995
 30
0.0
 11
218.8186844825
 21
102.0620080295
 31
0.0
  0
LINE
  5
1F2
330
1F
100
AcDbEntity
  8
0
  6
HIDDEN
 62
     7
370
     0
100
AcDbLine
 10
220.5186834573
 20
101.0805125467
 30
0.0
 11
220.5186834573
 21
105.7435035824
 31
0.0
  0
LINE
  5
1F3
330
1F
100
AcDbEntity
  8
0
  6
HIDDEN
 62
     7
370
     0
100
AcDbLine
 10
218.0186858415
 20
104.7620080995
 30
0.0
 11
218.0186858415
 21
102.0620080295
 31
0.0
  0
LINE
  5
1F4
330
1F
100
AcDbEntity
  8
0
  6
HIDDEN
 62
     7
370
     0
100
AcDbLine
 10
217.8083857536
 20
104.412008112
 30
0.0
 11
217.8083857536
 21
102.412008017
 31
0.0
  0
LINE
  5
1F5
330
1F
100
AcDbEntity
  8
0
  6
HIDDEN
 62
     7
370
     0
100
AcDbLine
 10
219.1686829566
 20
90.1520076792
 30
0.0
 11
219.1686829566
 21
90.162008221
 31
0.0
  0
LINE
  5
1F6
330
1F
100
AcDbEntity
  8
0
  6
HIDDEN
 62
     7
370
     0
100
AcDbLine
 10
219.1686829566
 20
90.1520076792
 30
0.0
 11
217.2689264654
 21
90.1520076792
 31
0.0
  0
LINE
  5
1F7
330
1F
100
AcDbEntity
  8
0
  6
HIDDEN
 62
     7
370
     0
100
AcDbLine
 10
219.1686829566
 20
90.162008221
 30
0.0
 11
216.1673655748
 21
90.162008221
 31
0.0
  0
LINE
  5
1F8
330
1F
100
AcDbEntity
  8
0
  6
HIDDEN
 62
     7
370
     0
100
AcDbLine
 10
216.1673655748
 20
90.1520076792
 30
0.0
 11
219.1686829566
 21
90.1520076792
 31
0.0
  0
LINE
  5
1F9
330
1F
100
AcDbEntity
  8
0
  6
HIDDEN
 62
     7
370
     0
100
AcDbLine
 10
218.0720618009
 20
90.1520076792
 30
0.0
 11
218.0720618009
 21
90.162008221
 31
0.0
  0
LINE
  5
1FA
330
1F
100
AcDbEntity
  8
0
  6
HIDDEN
 62
     7
370
     0
100
AcDbLine
 10
218.0720618009
 20
90.1520076792
 30
0.0
 11
216.1673655748
 21
90.1520076792
 31
0.0
  0
LINE
  5
1FB
330
1F
100
AcDbEntity
  8
0
  6
HIDDEN
 62
     7
370
     0
100
AcDbLine
 10
218.0720618009
 20
90.162008221
 30
0.0
 11
216.0934483647
 21
90.162008221
 31
0.0
  0
LINE
  5
1FC
330
1F
100
AcDbEntity
  8
0
  6
HIDDEN
 62
     7
370
     0
100
AcDbLine
 10
216.0483798026
 20
90.1520076792
 30
0.0
 11
218.0269932389
 21
90.1520076792
 31
0.0
  0
LINE
  5
1FD
330
1F
100
AcDbEntity
  8
0
  6
HIDDEN
 62
     7
370
     0
100
AcDbLine
 10
216.0483798026
 20
90.162008221
 30
0.0
 11
218.0269932389
 21
90.162008221
 31
0.0
  0
LINE
  5
1FE
330
1F
100
AcDbEntity
  8
0
  6
HIDDEN
 62
     7
370
     0
100
AcDbLine
 10
218.0269932389
 20
90.1520076792
 30
0.0
 11
218.0269932389
 21
90.162008221
 31
0.0
  0
LINE
  5
1FF
330
1F
100
AcDbEntity
  8
0
  6
HIDDEN
 62
     7
370
     0
100
AcDbLine
 10
218.0269932389
 20
90.1520076792
 30
0.0
 11
218.0720618009
 21
90.1520076792
 31
0.0
  0
LINE
  5
200
330
1F
100
AcDbEntity
  8
0
  6
HIDDEN
 62
     7
370
     0
100
AcDbLine
 10
218.0269932389
 20
90.162008221
 30
0.0
 11
218.0720618009
 21
90.162008221
 31
0.0
  0
LINE
  5
201
330
1F
100
AcDbEntity
  8
0
  6
HIDDEN
 62
     7
370
     0
100
AcDbLine
 10
217.7393188714
 20
90.1520076792
 30
0.0
 11
217.7393188714
 21
90.162008221
 31
0.0
  0
LINE
  5
202
330
1F
100
AcDbEntity
  8
0
  6
HIDDEN
 62
     7
370
     0
100
AcDbLine
 10
217.7393188714
 20
90.1520076792
 30
0.0
 11
215.8283269047
 21
90.1520076792
 31
0.0
  0
LINE
  5
203
330
1F
100
AcDbEntity
  8
0
  6
HIDDEN
 62
     7
370
     0
100
AcDbLine
 10
217.7393188714
 20
90.162008221
 30
0.0
 11
215.8283269047
 21
90.162008221
 31
0.0
  0
LINE
  5
204
330
1F
100
AcDbEntity
  8
0
  6
HIDDEN
 62
     7
370
     0
100
AcDbLine
 10
215.7392105102
 20
90.1520076792
 30
0.0
 11
217.6502099275
 21
90.1520076792
 31
0.0
  0
LINE
  5
205
330
1F
100
AcDbEntity
  8
0
  6
HIDDEN
 62
     7
370
     0
100
AcDbLine
 10
215.7392105102
 20
90.162008221
 30
0.0
 11
217.6502099275
 21
90.162008221
 31
0.0
  0
LINE
  5
206
330
1F
100
AcDbEntity
  8
0
  6
HIDDEN
 62
     7
370
     0
100
AcDbLine
 10
217.6502099275
 20
90.1520076792
 30
0.0
 11
217.6502099275
 21
90.162008221
 31
0.0
  0
LINE
  5
207
330
1F
100
AcDbEntity
  8
0
  6
HIDDEN
 62
     7
370
     0
100
AcDbLine
 10
217.6502099275
 20
90.1520076792
 30
0.0
 11
217.7393188714
 21
90.1520076792
 31
0.0
  0
LINE
  5
208
330
1F
100
AcDbEntity
  8
0
  6
HIDDEN
 62
     7
370
     0
100
AcDbLine
 10
217.6502099275
 20
90.162008221
 30
0.0
 11
217.7393188714
 21
90.162008221
 31
0.0
  0
LINE
  5
209
330
1F
100
AcDbEntity
  8
0
  6
HIDDEN
 62
     7
370
     0
100
AcDbLine
 10
217.1780070304
 20
90.1520076792
 30
0.0
 11
217.1780070304
 21
90.162008221
 31
0.0
  0
LINE
  5
20A
330
1F
100
AcDbEntity
  8
0
  6
HIDDEN
 62
     7
370
     0
100
AcDbLine
 10
217.1780070304
 20
90.1520076792
 30
0.0
 11
215.3780063629
 21
90.1520076792
 31
0.0
  0
LINE
  5
20B
330
1F
100
AcDbEntity
  8
0
  6
HIDDEN
 62
     7
370
     0
100
AcDbLine
 10
217.1780070304
 20
90.162008221
 30
0.0
 11
215.3780063629
 21
90.162008221
 31
0.0
  0
LINE
  5
20C
330
1F
100
AcDbEntity
  8
0
  6
HIDDEN
 62
     7
370
     0
100
AcDbLine
 10
215.2468686938
 20
90.1520076792
 30
0.0
 11
217.0468768119
 21
90.1520076792
 31
0.0
  0
LINE
  5
20D
330
1F
100
AcDbEntity
  8
0
  6
HIDDEN
 62
     7
370
     0
100
AcDbLine
 10
215.2468686938
 20
90.162008221
 30
0.0
 11
217.0468768119
 21
90.162008221
 31
0.0
  0
LINE
  5
20E
330
1F
100
AcDbEntity
  8
0
  6
HIDDEN
 62
     7
370
     0
100
AcDbLine
 10
217.0468768119
 20
90.1520076792
 30
0.0
 11
217.0468768119
 21
90.162008221
 31
0.0
  0
LINE
  5
20F
330
1F
100
AcDbEntity
  8
0
  6
HIDDEN
 62
     7
370
     0
100
AcDbLine
 10
217.0468768119
 20
90.1520076792
 30
0.0
 11
217.1780070304
 21
90.1520076792
 31
0.0
  0
LINE
  5
210
330
1F
100
AcDbEntity
  8
0
  6
HIDDEN
 62
     7
370
     0
100
AcDbLine
 10
217.0468768119
 20
90.162008221
 30
0.0
 11
217.1780070304
 21
90.162008221
 31
0.0
  0
LINE
  5
211
330
1F
100
AcDbEntity
  8
0
  6
HIDDEN
 62
     7
370
     0
100
AcDbLine
 10
216.4008667707
 20
90.1520076792
 30
0.0
 11
216.4008667707
 21
90.162008221
 31
0.0
  0
LINE
  5
212
330
1F
100
AcDbEntity
  8
0
  6
HIDDEN
 62
     7
370
     0
100
AcDbLine
 10
216.4008667707
 20
90.1520076792
 30
0.0
 11
214.7527163863
 21
90.1520076792
 31
0.0
  0
LINE
  5
213
330
1F
100
AcDbEntity
  8
0
  6
HIDDEN
 62
     7
370
     0
100
AcDbLine
 10
216.4008667707
 20
90.162008221
 30
0.0
 11
214.7527163863
 21
90.162008221
 31
0.0
  0
LINE
  5
214
330
1F
100
AcDbEntity
  8
0
  6
HIDDEN
 62
     7
370
     0
100
AcDbLine
 10
214.5825302243
 20
90.1520076792
 30
0.0
 11
216.2306880593
 21
90.1520076792
 31
0.0
  0
LINE
  5
215
330
1F
100
AcDbEntity
  8
0
  6
HIDDEN
 62
     7
370
     0
100
AcDbLine
 10
214.5825302243
 20
90.162008221
 30
0.0
 11
216.2306880593
 21
90.162008221
 31
0.0
  0
LINE
  5
216
330
1F
100
AcDbEntity
  8
0
  6
HIDDEN
 62
     7
370
     0
100
AcDbLine
 10
216.1545058727
 20
90.1520076792
 30
0.0
 11
216.1545058727
 21
90.162008221
 31
0.0
  0
LINE
  5
217
330
1F
100
AcDbEntity
  8
0
  6
HIDDEN
 62
     7
370
     0
100
AcDbLine
 10
216.1545058727
 20
90.1520076792
 30
0.0
 11
213.9666354298
 21
90.1520076792
 31
0.0
  0
LINE
  5
218
330
1F
100
AcDbEntity
  8
0
  6
HIDDEN
 62
     7
370
     0
100
AcDbLine
 10
216.1545058727
 20
90.162008221
 30
0.0
 11
213.9666354298
 21
90.162008221
 31
0.0
  0
LINE
  5
219
330
1F
100
AcDbEntity
  8
0
  6
HIDDEN
 62
     7
370
     0
100
AcDbLine
 10
216.2306880593
 20
90.1520076792
 30
0.0
 11
216.2306880593
 21
90.162008221
 31
0.0
  0
LINE
  5
21A
330
1F
100
AcDbEntity
  8
0
  6
HIDDEN
 62
     7
370
     0
100
AcDbLine
 10
216.2306880593
 20
90.1520076792
 30
0.0
 11
216.4008667707
 21
90.1520076792
 31
0.0
  0
LINE
  5
21B
330
1F
100
AcDbEntity
  8
0
  6
HIDDEN
 62
     7
370
     0
100
AcDbLine
 10
216.2306880593
 20
90.162008221
 30
0.0
 11
216.4008667707
 21
90.162008221
 31
0.0
  0
LINE
  5
21C
330
1F
100
AcDbEntity
  8
0
  6
HIDDEN
 62
     7
370
     0
100
AcDbLine
 10
213.7612750768
 20
90.1520076792
 30
0.0
 11
215.9491455197
 21
90.1520076792
 31
0.0
  0
LINE
  5
21D
330
1F
100
AcDbEntity
  8
0
  6
HIDDEN
 62
     7
370
     0
100
AcDbLine
 10
213.7612750768
 20
90.162008221
 30
0.0
 11
215.9491455197
 21
90.162008221
 31
0.0
  0
SPLINE
  5
21E
330
1F
100
AcDbEntity
  8
0
  6
HIDDEN
 62
     7
370
     0
100
AcDbSpline
210
0.0
220
0.0
230
1.0
 70
    24
 71
     3
 72
    14
 73
    10
 74
     0
 42
0.00000001
 43
0.00000001
 40
0.0
 40
0.0
 40
0.0
 40
0.0
 40
0.25
 40
0.25
 40
0.5
 40
0.5
 40
0.75
 40
0.75
 40
1.0
 40
1.0
 40
1.0
 40
1.0
 10
218.6422971090062
 20
90.16200806451617
 30
0.0
 10
218.5954517498054
 20
90.16200806451617
 30
0.0
 10
218.5376319296579
 20
90.16200806451617
 30
0.0
 10
218.3954110331814
 20
90.16200806451617
 30
0.0
 10
218.3098534864383
 20
90.16200806451617
 30
0.0
 10
218.1010658582024
 20
90.16200806451617
 30
0.0
 10
217.9765227126688
 20
90.16200806451617
 30
0.0
 10
217.6857536039556
 20
90.16200806451617
 30
0.0
 10
217.5160855871893
 20
90.16200806451617
 30
0.0
 10
217.3432590033279
 20
90.16200806451617
 30
0.0
  0
SPLINE
  5
21F
330
1F
100
AcDbEntity
  8
0
  6
HIDDEN
 62
     7
370
     0
100
AcDbSpline
210
0.0
220
0.0
230
1.0
 70
    24
 71
     3
 72
    14
 73
    10
 74
     0
 42
0.00000001
 43
0.00000001
 40
0.0
 40
0.0
 40
0.0
 40
0.0
 40
0.25
 40
0.25
 40
0.5
 40
0.5
 40
0.75
 40
0.75
 40
1.0
 40
1.0
 40
1.0
 40
1.0
 10
217.3432590033278
 20
112.5315479459785
 30
0.0
 10
217.4765578305552
 20
112.5104354858322
 30
0.0
 10
217.611772780323
 20
112.4890195416897
 30
0.0
 10
217.8726756802909
 20
112.4476965818993
 30
0.0
 10
217.9987891208811
 20
112.427722175194
 30
0.0
 10
218.2271123704406
 20
112.3915593250994
 30
0.0
 10
218.330577842368
 20
112.3751720042353
 30
0.0
 10
218.5076137017454
 20
112.3471322787304
 30
0.0
 10
218.5824504776504
 20
112.335279297863
 30
0.0
 10
218.6422971090045
 20
112.3258005226507
 30
0.0
  0
LINE
  5
220
330
1F
100
AcDbEntity
  8
0
  6
HIDDEN
 62
     7
370
     0
100
AcDbLine
 10
215.9491455197
 20
90.1520076792
 30
0.0
 11
215.9491455197
 21
90.162008221
 31
0.0
  0
LINE
  5
221
330
1F
100
AcDbEntity
  8
0
  6
HIDDEN
 62
     7
370
     0
100
AcDbLine
 10
215.9491455197
 20
90.1520076792
 30
0.0
 11
216.1545058727
 21
90.1520076792
 31
0.0
  0
LINE
  5
222
330
1F
100
AcDbEntity
  8
0
  6
HIDDEN
 62
     7
370
     0
100
AcDbLine
 10
215.9491455197
 20
90.162008221
 30
0.0
 11
216.1545058727
 21
90.162008221
 31
0.0
  0
LINE
  5
223
330
1F
100
AcDbEntity
  8
0
  6
HIDDEN
 62
     7
370
     0
100
AcDbLine
 10
186.2686848282
 20
108.8916474606
 30
0.0
 11
186.2686848282
 21
104.9003221911
 31
0.0
  0
LINE
  5
224
330
1F
100
AcDbEntity
  8
0
  6
HIDDEN
 62
     7
370
     0
100
AcDbLine
 10
188.768682444
 20
104.9003831928
 30
0.0
 11
188.768682444
 21
107.9852363679
 31
0.0
  0
LINE
  5
225
330
1F
100
AcDbEntity
  8
0
  6
HIDDEN
 62
     7
370
     0
100
AcDbLine
 10
213.5899042725
 20
109.783200233
 30
0.0
 11
188.0666514873
 21
109.783200233
 31
0.0
  0
LINE
  5
226
330
1F
100
AcDbEntity
  8
0
  6
HIDDEN
 62
     7
370
     0
100
AcDbLine
 10
216.5186828017
 20
109.783200233
 30
0.0
 11
215.9543534755
 21
109.783200233
 31
0.0
  0
LINE
  5
227
330
1F
100
AcDbEntity
  8
0
  6
HIDDEN
 62
     7
370
     0
100
AcDbLine
 10
214.9550890564
 20
107.2832002888
 30
0.0
 11
216.5186828017
 21
107.2832002888
 31
0.0
  0
LINE
  5
228
330
1F
100
AcDbEntity
  8
0
  6
HIDDEN
 62
     7
370
     0
100
AcDbLine
 10
188.0666514873
 20
107.2832002888
 30
0.0
 11
214.360316658
 21
107.2832002888
 31
0.0
  0
LINE
  5
229
330
1F
100
AcDbEntity
  8
0
  6
HIDDEN
 62
     7
370
     0
100
AcDbLine
 10
188.768682444
 20
108.8916474606
 30
0.0
 11
188.768682444
 21
109.0811641539
 31
0.0
  0
LINE
  5
22A
330
1F
100
AcDbEntity
  8
0
  6
HIDDEN
 62
     7
370
     0
100
AcDbLine
 10
215.2085727095
 20
112.8696493457
 30
0.0
 11
213.5006537675
 21
109.7301534961
 31
0.0
  0
LINE
  5
22B
330
1F
100
AcDbEntity
  8
0
  6
HIDDEN
 62
     7
370
     0
100
AcDbLine
 10
216.1742424607
 20
109.41324631
 30
0.0
 11
217.8288003444
 21
112.4546464185
 31
0.0
  0
LINE
  5
22C
330
1F
100
AcDbEntity
  8
0
  6
HIDDEN
 62
     7
370
     0
100
AcDbLine
 10
213.6429673075
 20
107.4384387235
 30
0.0
 11
213.6655574679
 21
107.4175244781
 31
0.0
  0
LINE
  5
22D
330
1F
100
AcDbEntity
  8
0
  6
HIDDEN
 62
     7
370
     0
100
AcDbLine
 10
213.6655574679
 20
107.4175244781
 30
0.0
 11
213.7284180164
 21
107.4015024702
 31
0.0
  0
LINE
  5
22E
330
1F
100
AcDbEntity
  8
0
  6
HIDDEN
 62
     7
370
     0
100
AcDbLine
 10
204.7964012265
 20
106.4120080906
 30
0.0
 11
191.5186842918
 21
106.4120080906
 31
0.0
  0
LINE
  5
22F
330
1F
100
AcDbEntity
  8
0
  6
HIDDEN
 62
     7
370
     0
100
AcDbLine
 10
220.5186834573
 20
106.4120080906
 30
0.0
 11
210.5177691221
 21
106.4120080906
 31
0.0
  0
LINE
  5
230
330
1F
100
AcDbEntity
  8
0
  6
HIDDEN
 62
     7
370
     0
100
AcDbLine
 10
210.5130231022
 20
100.4120080384
 30
0.0
 11
220.5186834573
 21
100.4120080384
 31
0.0
  0
LINE
  5
231
330
1F
100
AcDbEntity
  8
0
  6
HIDDEN
 62
     7
370
     0
100
AcDbLine
 10
191.5186842918
 20
100.4120080384
 30
0.0
 11
204.8497548341
 21
100.4120080384
 31
0.0
  0
LINE
  5
232
330
1F
100
AcDbEntity
  8
0
  6
HIDDEN
 62
     7
370
     0
100
AcDbLine
 10
191.5186842918
 20
106.4120080906
 30
0.0
 11
189.7161057233
 21
103.4120080645
 31
0.0
  0
LINE
  5
233
330
1F
100
AcDbEntity
  8
0
  6
HIDDEN
 62
     7
370
     0
100
AcDbLine
 10
189.7161057233
 20
103.4120080645
 30
0.0
 11
191.5186842918
 21
100.4120080384
 31
0.0
  0
LINE
  5
234
330
1F
100
AcDbEntity
  8
0
  6
HIDDEN
 62
     7
370
     0
100
AcDbLine
 10
214.0861278414
 20
107.3103341392
 30
0.0
 11
214.2627662062
 21
107.2653151701
 31
0.0
  0
LINE
  5
235
330
1F
100
AcDbEntity
  8
0
  6
HIDDEN
 62
     7
370
     0
100
AcDbLine
 10
96.5186854839
 20
93.3085150669
 30
0.0
 11
96.6128463216
 21
93.9785038705
 31
0.0
  0
LINE
  5
236
330
1F
100
AcDbEntity
  8
0
  6
HIDDEN
 62
     7
370
     0
100
AcDbLine
 10
96.6128463216
 20
112.8455122585
 30
0.0
 11
96.5186854839
 21
113.5155010621
 31
0.0
  0
LINE
  5
237
330
1F
100
AcDbEntity
  8
0
  6
HIDDEN
 62
     7
370
     0
100
AcDbLine
 10
192.4117108821
 20
119.4120088245
 30
0.0
 11
194.8186879992
 21
116.0990895356
 31
0.0
  0
ARC
  5
238
330
1F
100
AcDbEntity
  8
0
  6
HIDDEN
 62
     7
370
     0
100
AcDbCircle
 10
96.0186854839
 20
94.0620080645
 30
0.0
 40
0.6000000000000085
100
AcDbArc
 50
352.0
 51
0.0
  0
ARC
  5
239
330
1F
100
AcDbEntity
  8
0
  6
HIDDEN
 62
     7
370
     0
100
AcDbCircle
 10
96.0186854839
 20
94.0620080645
 30
0.0
 40
0.6000000000000085
100
AcDbArc
 50
0.0
 51
33.5573097619
  0
ARC
  5
23A
330
1F
100
AcDbEntity
  8
0
  6
HIDDEN
 62
     7
370
     0
100
AcDbCircle
 10
96.0186854839
 20
112.7620080645
 30
0.0
 40
0.6000000000000012
100
AcDbArc
 50
348.75
 51
8.0
  0
LWPOLYLINE
  5
23B
330
1F
100
AcDbEntity
  8
0
  6
HIDDEN
 62
     7
370
     0
100
AcDbPolyline
 90
        3
 70
   128
 43
0.0
 10
96.6071566537
 20
112.6449538047
 10
96.573013204
 20
112.5323978837
 10
96.5186854839
 20
112.4303454186
  0
LINE
  5
23C
330
1F
100
AcDbEntity
  8
0
  6
HIDDEN
 62
     7
370
     0
100
AcDbLine
 10
96.6186854813
 20
94.0620081152
 30
0.0
 11
96.6186854813
 21
112.7620080139
 31
0.0
  0
LINE
  5
23D
330
1F
100
AcDbEntity
  8
0
  6
HIDDEN
 62
     7
370
     0
100
AcDbLine
 10
96.6186854813
 20
94.0620081152
 30
0.0
 11
96.6186854813
 21
112.7620080139
 31
0.0
  0
LINE
  5
23E
330
1F
100
AcDbEntity
  8
0
  6
HIDDEN
 62
     7
370
     0
100
AcDbLine
 10
192.4984952449
 20
87.8418173294
 30
0.0
 11
192.0686861514
 21
87.4120073046
 31
0.0
  0
LINE
  5
23F
330
1F
100
AcDbEntity
  8
0
  6
HIDDEN
 62
     7
370
     0
100
AcDbLine
 10
194.8186879992
 20
90.162008221
 30
0.0
 11
194.4261690616
 21
89.7694902147
 31
0.0
  0
LINE
  5
240
330
1F
100
AcDbEntity
  8
0
  6
HIDDEN
 62
     7
370
     0
100
AcDbLine
 10
216.1686843275
 20
104.412008112
 30
0.0
 11
216.1686843275
 21
112.7175820644
 31
0.0
  0
LINE
  5
241
330
1F
100
AcDbEntity
  8
0
  6
HIDDEN
 62
     7
370
     0
100
AcDbLine
 10
216.1686843275
 20
90.1520076792
 30
0.0
 11
216.1686843275
 21
102.4245460636
 31
0.0
  0
LINE
  5
242
330
1F
100
AcDbEntity
  8
0
  6
HIDDEN
 62
     7
370
     0
100
AcDbLine
 10
199.168687129
 20
115.410117584
 30
0.0
 11
199.168687129
 21
90.162008221
 31
0.0
  0
LINE
  5
243
330
1F
100
AcDbEntity
  8
0
  6
HIDDEN
 62
     7
370
     0
100
AcDbLine
 10
77.5186860948
 20
99.5120081703
 30
0.0
 11
78.3847117811
 21
100.0120080194
 31
0.0
  0
LINE
  5
244
330
1F
100
AcDbEntity
  8
0
  6
HIDDEN
 62
     7
370
     0
100
AcDbLine
 10
78.3847117811
 20
106.8120081096
 30
0.0
 11
77.5186860948
 21
107.3120079587
 31
0.0
  0
LINE
  5
245
330
1F
100
AcDbEntity
  8
0
  6
HIDDEN
 62
     7
370
     0
100
AcDbLine
 10
189.5186876892
 20
100.0120080194
 30
0.0
 11
191.5616145372
 21
103.4120080645
 31
0.0
  0
LINE
  5
246
330
1F
100
AcDbEntity
  8
0
  6
HIDDEN
 62
     7
370
     0
100
AcDbLine
 10
191.5616145372
 20
103.4120080645
 30
0.0
 11
189.5186876892
 21
106.8120081096
 31
0.0
  0
LINE
  5
247
330
1F
100
AcDbEntity
  8
0
  6
HIDDEN
 62
     7
370
     0
100
AcDbLine
 10
166.3279583692
 20
100.0120080194
 30
0.0
 11
189.5186876892
 21
100.0120080194
 31
0.0
  0
LINE
  5
248
330
1F
100
AcDbEntity
  8
0
  6
HIDDEN
 62
     7
370
     0
100
AcDbLine
 10
78.3847117811
 20
100.0120080194
 30
0.0
 11
159.021241033
 21
100.0120080194
 31
0.0
  0
LINE
  5
249
330
1F
100
AcDbEntity
  8
0
  6
HIDDEN
 62
     7
370
     0
100
AcDbLine
 10
189.5186876892
 20
106.8120081096
 30
0.0
 11
78.3847117811
 21
106.8120081096
 31
0.0
  0
LINE
  5
24A
330
1F
100
AcDbEntity
  8
0
  6
HIDDEN
 62
     7
370
     0
100
AcDbLine
 10
220.5186834573
 20
105.7435035824
 30
0.0
 11
218.8186844825
 21
104.7620080995
 31
0.0
  0
LINE
  5
24B
330
1F
100
AcDbEntity
  8
0
  6
HIDDEN
 62
     7
370
     0
100
AcDbLine
 10
218.8186844825
 20
102.0620080295
 30
0.0
 11
220.5186834573
 21
101.0805125467
 31
0.0
  0
LINE
  5
24C
330
1F
100
AcDbEntity
  8
0
  6
HIDDEN
 62
     7
370
     0
100
AcDbLine
 10
159.020726943
 20
100.0111758827
 30
0.0
 11
192.4938609838
 21
87.8279527302
 31
0.0
  0
LINE
  5
24D
330
1F
100
AcDbEntity
  8
0
  6
HIDDEN
 62
     7
370
     0
100
AcDbLine
 10
194.431615436
 20
89.7831136013
 30
0.0
 11
166.3279583692
 21
100.0120080194
 31
0.0
  0
LINE
  5
24E
330
1F
100
AcDbEntity
  8
0
  6
HIDDEN
 62
     7
370
     0
100
AcDbLine
 10
218.0186858415
 20
102.0620080295
 30
0.0
 11
218.8186844825
 21
102.0620080295
 31
0.0
  0
LINE
  5
24F
330
1F
100
AcDbEntity
  8
0
  6
HIDDEN
 62
     7
370
     0
100
AcDbLine
 10
218.8186844825
 20
104.7620080995
 30
0.0
 11
218.0186858415
 21
104.7620080995
 31
0.0
  0
LINE
  5
250
330
1F
100
AcDbEntity
  8
0
  6
HIDDEN
 62
     7
370
     0
100
AcDbLine
 10
218.0186858415
 20
104.7620080995
 30
0.0
 11
217.8083857536
 21
104.412008112
 31
0.0
  0
LINE
  5
251
330
1F
100
AcDbEntity
  8
0
  6
HIDDEN
 62
     7
370
     0
100
AcDbLine
 10
217.8083857536
 20
102.412008017
 30
0.0
 11
218.0186858415
 21
102.0620080295
 31
0.0
  0
LINE
  5
252
330
1F
100
AcDbEntity
  8
0
  6
HIDDEN
 62
     7
370
     0
100
AcDbLine
 10
216.1672314643
 20
102.412008017
 30
0.0
 11
217.8083857536
 21
102.412008017
 31
0.0
  0
LINE
  5
253
330
1F
100
AcDbEntity
  8
0
  6
HIDDEN
 62
     7
370
     0
100
AcDbLine
 10
217.8083857536
 20
104.412008112
 30
0.0
 11
216.1686843275
 21
104.412008112
 31
0.0
  0
LINE
  5
254
330
1F
100
AcDbEntity
  8
0
  6
HIDDEN
 62
     7
370
     0
100
AcDbLine
 10
96.6128463216
 20
112.8455122585
 30
0.0
 11
96.6128463216
 21
93.9785038705
 31
0.0
  0
LINE
  5
255
330
1F
100
AcDbEntity
  8
0
  6
HIDDEN
 62
     7
370
     0
100
AcDbLine
 10
96.0186854601
 20
112.1620081018
 30
0.0
 11
96.0186854601
 21
94.6620080273
 31
0.0
  0
LINE
  5
256
330
1F
100
AcDbEntity
  8
0
  6
HIDDEN
 62
     7
370
     0
100
AcDbLine
 10
95.3753983151
 20
112.1824524949
 30
0.0
 11
95.3753983151
 21
94.6415636341
 31
0.0
  0
LINE
  5
257
330
1F
100
AcDbEntity
  8
0
  6
HIDDEN
 62
     7
370
     0
100
AcDbLine
 10
95.5306897187
 20
112.1620081018
 30
0.0
 11
95.5306897187
 21
94.6620080273
 31
0.0
  0
LINE
  5
258
330
1F
100
AcDbEntity
  8
0
  6
HIDDEN
 62
     7
370
     0
100
AcDbLine
 10
88.7398681618
 20
110.1459634143
 30
0.0
 11
88.7398681618
 21
96.6780527147
 31
0.0
  0
LINE
  5
259
330
1F
100
AcDbEntity
  8
0
  6
HIDDEN
 62
     7
370
     0
100
AcDbLine
 10
90.5186854317
 20
109.9120081986
 30
0.0
 11
90.5186854317
 21
96.9120079304
 31
0.0
  0
LINE
  5
25A
330
1F
100
AcDbEntity
  8
0
  6
HIDDEN
 62
     7
370
     0
100
AcDbLine
 10
89.3826558269
 20
109.9120081986
 30
0.0
 11
89.3826558269
 21
96.9120079304
 31
0.0
  0
DIMENSION
  5
25B
330
1F
100
AcDbEntity
  8
VERMASSUNG
100
AcDbDimension
  2
*D1
 10
70.9327016129
 20
87.4120080645
 30
0.0
 11
70.9327016129
 21
103.4120080645
 31
0.0
 70
   160
  1
%%c<>
 71
     2
 42
-1.0
  3
SLDDIMSTYLE0
100
AcDbAlignedDimension
 13
96.5186854839
 23
119.4120080645
 33
0.0
 14
96.5186854839
 24
87.4120080645
 34
0.0
 50
90.0
100
AcDbRotatedDimension
  0
DIMENSION
  5
267
330
1F
100
AcDbEntity
  8
VERMASSUNG
100
AcDbDimension
  2
*D2
 10
220.5186854839
 20
129.4120080645
 30
0.0
 11
158.5186854839
 21
129.4120080645
 31
0.0
 70
   160
 71
     2
 42
-1.0
  3
SLDDIMSTYLE0
100
AcDbAlignedDimension
 13
96.5186854839
 23
119.4120080645
 33
0.0
 14
220.5186854839
 24
112.0286098001
 34
0.0
100
AcDbRotatedDimension
  0
DIMENSION
  5
271
330
1F
100
AcDbEntity
  8
VERMASSUNG
100
AcDbDimension
  2
*D3
 10
77.5186854839
 20
135.4120080645
 30
0.0
 11
149.0186854839
 21
135.4120080645
 31
0.0
 70
   160
 71
     2
 42
-1.0
  3
SLDDIMSTYLE0
100
AcDbAlignedDimension
 13
220.5186854839
 23
112.0286098001
 33
0.0
 14
77.5186854839
 24
110.9120080645
 34
0.0
100
AcDbRotatedDimension
  0
LINE
  5
27B
330
1F
100
AcDbEntity
  8
VERMASSUNG
  6
CENTERX2
370
     0
100
AcDbLine
 10
73.4924480964
 20
103.4120080645
 30
0.0
 11
222.529729815
 21
103.4120080645
 31
0.0
  0
OLE2FRAME
  5
27C
330
1F
100
AcDbEntity
  8
0
100
AcDbOle2Frame
 70
     2
  3
Paintbrush-Bild
 10
13.8511154363
 20
38.264191557
 30
0.0
 11
51.6290888628
 21
31.9806341108
 31
0.0
 71
     2
 72
     0
 73
     1
 90
    12928
310
80552BED0767C5B32B40DDAF6807D121434000000000000000006FFBDDFB85D0
310
4940DDAF6807D121434000000000000000006FFBDDFB85D04940416F4BD60AFB
310
3F4000000000000000002BED0767C5B32B40416F4BD60AFB3F40000000000000
310
0000000000000100000000010000010000000100000000000100000000320000
310
D0CF11E0A1B11AE1000000000000000000000000000000003E000300FEFF0900
310
0600000000000000000000000100000001000000000000000010000002000000
310
01000000FEFFFFFF0000000000000000FFFFFFFFFFFFFFFFFFFFFFFFFFFFFFFF
310
FFFFFFFFFFFFFFFFFFFFFFFFFFFFFFFFFFFFFFFFFFFFFFFFFFFFFFFFFFFFFFFF
310
FFFFFFFFFFFFFFFFFFFFFFFFFFFFFFFFFFFFFFFFFFFFFFFFFFFFFFFFFFFFFFFF
310
FFFFFFFFFFFFFFFFFFFFFFFFFFFFFFFFFFFFFFFFFFFFFFFFFFFFFFFFFFFFFFFF
310
FFFFFFFFFFFFFFFFFFFFFFFFFFFFFFFFFFFFFFFFFFFFFFFFFFFFFFFFFFFFFFFF
310
FFFFFFFFFFFFFFFFFFFFFFFFFFFFFFFFFFFFFFFFFFFFFFFFFFFFFFFFFFFFFFFF
310
FFFFFFFFFFFFFFFFFFFFFFFFFFFFFFFFFFFFFFFFFFFFFFFFFFFFFFFFFFFFFFFF
310
FFFFFFFFFFFFFFFFFFFFFFFFFFFFFFFFFFFFFFFFFFFFFFFFFFFFFFFFFFFFFFFF
310
FFFFFFFFFFFFFFFFFFFFFFFFFFFFFFFFFFFFFFFFFFFFFFFFFFFFFFFFFFFFFFFF
310
FFFFFFFFFFFFFFFFFFFFFFFFFFFFFFFFFFFFFFFFFFFFFFFFFFFFFFFFFFFFFFFF
310
FFFFFFFFFFFFFFFFFFFFFFFFFFFFFFFFFFFFFFFFFFFFFFFFFFFFFFFFFFFFFFFF
310
FFFFFFFFFFFFFFFFFFFFFFFFFFFFFFFFFFFFFFFFFFFFFFFFFFFFFFFFFFFFFFFF
310
FFFFFFFFFFFFFFFFFFFFFFFFFFFFFFFFFFFFFFFFFFFFFFFFFFFFFFFFFFFFFFFF
310
FFFFFFFFFFFFFFFFFFFFFFFFFFFFFFFFFFFFFFFFFFFFFFFFFFFFFFFFFFFFFFFF
310
FDFFFFFFFEFFFFFFFEFFFFFFFEFFFFFF05000000060000000700000008000000
310
090000000A0000000B0000000C0000000D0000000E0000000F00000010000000
310
11000000120000001300000014000000150000001600000017000000FEFFFFFF
310
FFFFFFFFFFFFFFFFFFFFFFFFFFFFFFFFFFFFFFFFFFFFFFFFFFFFFFFFFFFFFFFF
310
FFFFFFFFFFFFFFFFFFFFFFFFFFFFFFFFFFFFFFFFFFFFFFFFFFFFFFFFFFFFFFFF
310
FFFFFFFFFFFFFFFFFFFFFFFFFFFFFFFFFFFFFFFFFFFFFFFFFFFFFFFFFFFFFFFF
310
FFFFFFFFFFFFFFFFFFFFFFFFFFFFFFFFFFFFFFFFFFFFFFFFFFFFFFFFFFFFFFFF
310
FFFFFFFFFFFFFFFFFFFFFFFFFFFFFFFFFFFFFFFFFFFFFFFFFFFFFFFFFFFFFFFF
310
FFFFFFFFFFFFFFFFFFFFFFFFFFFFFFFFFFFFFFFFFFFFFFFFFFFFFFFFFFFFFFFF
310
FFFFFFFFFFFFFFFFFFFFFFFFFFFFFFFFFFFFFFFFFFFFFFFFFFFFFFFFFFFFFFFF
310
FFFFFFFFFFFFFFFFFFFFFFFFFFFFFFFFFFFFFFFFFFFFFFFFFFFFFFFFFFFFFFFF
310
FFFFFFFFFFFFFFFFFFFFFFFFFFFFFFFFFFFFFFFFFFFFFFFFFFFFFFFFFFFFFFFF
310
FFFFFFFFFFFFFFFFFFFFFFFFFFFFFFFFFFFFFFFFFFFFFFFFFFFFFFFFFFFFFFFF
310
FFFFFFFFFFFFFFFFFFFFFFFFFFFFFFFFFFFFFFFFFFFFFFFFFFFFFFFFFFFFFFFF
310
FFFFFFFFFFFFFFFFFFFFFFFFFFFFFFFFFFFFFFFFFFFFFFFFFFFFFFFFFFFFFFFF
310
FFFFFFFFFFFFFFFFFFFFFFFFFFFFFFFFFFFFFFFFFFFFFFFFFFFFFFFFFFFFFFFF
310
52006F006F007400200045006E00740072007900000000000000000000000000
310
0000000000000000000000000000000000000000000000000000000000000000
310
16000500FFFFFFFFFFFFFFFF020000000A00030000000000C000000000000046
310
000000000000000000000000C0CB3E685BF8CC0103000000C000000000000000
310
01004F006C006500000000000000000000000000000000000000000000000000
310
0000000000000000000000000000000000000000000000000000000000000000
310
0A000200FFFFFFFFFFFFFFFFFFFFFFFF00000000000000000000000000000000
310
0000000000000000000000000000000000000000000000001400000000000000
310
010043006F006D0070004F0062006A0000000000000000000000000000000000
310
0000000000000000000000000000000000000000000000000000000000000000
310
120002010100000003000000FFFFFFFF00000000000000000000000000000000
310
0000000000000000000000000000000000000000010000004D00000000000000
310
01004F006C006500310030004E00610074006900760065000000000000000000
310
0000000000000000000000000000000000000000000000000000000000000000
310
1A000200FFFFFFFFFFFFFFFFFFFFFFFF00000000000000000000000000000000
310
0000000000000000000000000000000000000000040000002426000000000000
310
FEFFFFFF02000000FEFFFFFFFFFFFFFFFFFFFFFFFFFFFFFFFFFFFFFFFFFFFFFF
310
FFFFFFFFFFFFFFFFFFFFFFFFFFFFFFFFFFFFFFFFFFFFFFFFFFFFFFFFFFFFFFFF
310
FFFFFFFFFFFFFFFFFFFFFFFFFFFFFFFFFFFFFFFFFFFFFFFFFFFFFFFFFFFFFFFF
310
FFFFFFFFFFFFFFFFFFFFFFFFFFFFFFFFFFFFFFFFFFFFFFFFFFFFFFFFFFFFFFFF
310
FFFFFFFFFFFFFFFFFFFFFFFFFFFFFFFFFFFFFFFFFFFFFFFFFFFFFFFFFFFFFFFF
310
FFFFFFFFFFFFFFFFFFFFFFFFFFFFFFFFFFFFFFFFFFFFFFFFFFFFFFFFFFFFFFFF
310
FFFFFFFFFFFFFFFFFFFFFFFFFFFFFFFFFFFFFFFFFFFFFFFFFFFFFFFFFFFFFFFF
310
FFFFFFFFFFFFFFFFFFFFFFFFFFFFFFFFFFFFFFFFFFFFFFFFFFFFFFFFFFFFFFFF
310
FFFFFFFFFFFFFFFFFFFFFFFFFFFFFFFFFFFFFFFFFFFFFFFFFFFFFFFFFFFFFFFF
310
FFFFFFFFFFFFFFFFFFFFFFFFFFFFFFFFFFFFFFFFFFFFFFFFFFFFFFFFFFFFFFFF
310
FFFFFFFFFFFFFFFFFFFFFFFFFFFFFFFFFFFFFFFFFFFFFFFFFFFFFFFFFFFFFFFF
310
FFFFFFFFFFFFFFFFFFFFFFFFFFFFFFFFFFFFFFFFFFFFFFFFFFFFFFFFFFFFFFFF
310
FFFFFFFFFFFFFFFFFFFFFFFFFFFFFFFFFFFFFFFFFFFFFFFFFFFFFFFFFFFFFFFF
310
FFFFFFFFFFFFFFFFFFFFFFFFFFFFFFFFFFFFFFFFFFFFFFFFFFFFFFFFFFFFFFFF
310
FFFFFFFFFFFFFFFFFFFFFFFFFFFFFFFFFFFFFFFFFFFFFFFFFFFFFFFFFFFFFFFF
310
FFFFFFFFFFFFFFFFFFFFFFFFFFFFFFFFFFFFFFFFFFFFFFFFFFFFFFFFFFFFFFFF
310
0100000200000000000000000000000000000000000000000000000000000000
310
0000000000000000000000000000000000000000000000000000000000000000
310
0100FEFF030A0000FFFFFFFF0A00030000000000C00000000000004607000000
310
5042727573680007000000504272757368000700000050427275736800F439B2
310
7100000000000000000000000000000000000000000000000000000000000000
310
0000000000000000000000000000000000000000000000000000000000000000
310
0000000000000000000000000000000000000000000000000000000000000000
310
0000000000000000000000000000000000000000000000000000000000000000
310
0000000000000000000000000000000000000000000000000000000000000000
310
0000000000000000000000000000000000000000000000000000000000000000
310
0000000000000000000000000000000000000000000000000000000000000000
310
0000000000000000000000000000000000000000000000000000000000000000
310
0000000000000000000000000000000000000000000000000000000000000000
310
0000000000000000000000000000000000000000000000000000000000000000
310
0000000000000000000000000000000000000000000000000000000000000000
310
0000000000000000000000000000000000000000000000000000000000000000
310
20260000424D0E260000000000003E00000028000000B40200006E0000000100
310
01000000000000000000130B0000130B00000200000002000000000000FFFFFF
310
FFFFFFFFFFFFFFFFFFFFFFFFFFFFFFFFFFFFFFFFFFFFFFFFFFFFFFFFFFFFFFFF
310
FFFFFFFFFFFFFFFFFFFFFFFFFFFFFFFFFFFFFFFFFFFFFFFFFFFFFFFFFFFFFFFF
310
FFFFFFFFFFFFFFFFFFFFFFFFFFFFFFFFFFFFFFFFFFFFFFFFF000FFFFFFFFFFFF
310
FFFFFFFFFFFFFFFFFFFFFFFFFFFFFFFFFFFFFFFFFFFFFFFFFFFFFFFFFFFFFFFF
310
FFFFFFFFFFFFFFFFFFFFFFFFFFFFFFFFFFFFFFFFFFFFFFFFFFFFFFFFFFFFFFFF
310
FFFFFFFFFFFFFFFFFFFFFFFFFFFFFFFFF000FFFFFFFFFFFFFFFFFFFFFFFFFFFF
310
FFFFFFFFFFFFFFFFFFFFFFFFFFFFFFFFFFFFFFFFFFFFFFFFFFFFFFFFFFFFFFFF
310
FFFFFFFFFFFFFFFFFFFFFFFFFFFFFFFFFFFFFFFFFFFFFFFFFFFFFFFFFFFFFFFF
310
FFFFFFFFFFFFFFFFF000FFFFFFFFFFFFFFFFFFFFFFFFFFFFFFFFFFFFFFFFFFFF
310
FFFFFFFFFFFFFFFFFFFFFFFFFFFFFFFFFFFFFFFFFFFFFFFFFFFFFFFFFFFFFFFF
310
FFFFFFFFFFFFFFFFFFFFFFFFFFFFFFFFFFFFFFFFFFFFFFFFFFFFFFFFFFFFFFFF
310
F000FFFFFFFFFFFFFFFFFFFFFFFFFFFFFFFFFFFFFFFFFFFFFFFFFFFFFFFFFFFF
310
FFFFFFFFFFFFFFFFFFFFFFFFFFFFFFFFFFFFFFFFFFFFFFFFFFFFFFFFFFFFFFFF
310
FFFFFFFFFFFFFFFFFFFFFFFFFFFFFFFFFFFFFFFFFFFFFFFFF000FFFFFFFFFFFF
310
FFFFFFFFFFFFFFFFFFFFFFFFFFFFFFFFFFFFFFFFFFFFFFFFFFFFFFFFFFFFFFFF
310
FFFFFFFFFFFFFFFFFFFFFFFFFFFFFFFFFFFFFFFFFFFFFFFFFFFFFFFFFFFFFFFF
310
FFFFFFFFFFFFFFFFFFFFFFFFFFFFFFFFF000FFFFFFFFFFFFFFFFFFFFFFFFFFFF
310
FFFFFFFFFFFFFFFFFFFFFFFFFFFFFFFFFFFFFFFFFFFFFFFFFFFFFFFFFFFFFFFF
310
FFFFFFFFFFFFFFFFFFFFFFFFFFFFFFFFFFFFFFFFFFFFFFFFFFFFFFFFFFFFFFFF
310
FFFFFFFFFFFFFFFFF000FFFFFFFFFFFFFFFFFFFFFFFFFFFFFFFFFFFFFFFFFFFF
310
FFFFFFFFFFFFFFFFFFFFFFFFFFFFFFFFFFFFFFFFFFFFFFFFFFFFFFFFFFFFFFFF
310
FFFFFFFFFFFFFFFFFFFFFFFFFFFFFFFFFFFFFFFFFFFFFFFFFFFFFFFFFFFFFFFF
310
F000FFFFFFFFFFFFFFFFFFFFFFFFFFFFFFFFFFFFFFFFFFFFFFFFFFFFFFFFFFFF
310
FFFFFFFFFFFFFFFFFFFFFFFFFFFFFFFFFFFFFFFFFFFFFFFFFFFFFFFFFFFFFFFF
310
FFFFFFFFFFFFFFFFFFFFFFFFFFFFFFFFFFFFFFFFFFFFFFFFF000FFFFFFFFFFFF
310
FFFFFFFFFFFFFFFFFFFFFFFFFFFFFFFFFFFFFFFFFFFFFFFFFFFFFFFFFFFFFFFF
310
FFFFFFFFFFFFFFFFFFFFFFFFFFFFFFFFFFFFFFFFFFFFFFFFFFFFFFFFFFFFFFFF
310
FFFFFFFFFFFFFFFFFFFFFFFFFFFFFFFFF000FFFFFFFFFFFFFFFFFFFFFFFFFFFF
310
FFFFFFFFFFFFFFFFFFFFFFFFFFFFFFFFFFFFFFFFFFFFFFFFFFFFFFFFFFFFFFFF
310
FFFFFFFFFFFFFFFFFFFFFFFFFFFFFFFFFFFFFFFFFFFFFFFFFFFFFFFFFFFFFFFF
310
FFFFFFFFFFFFFFFFF000FFFFFFFFFFFFFFFFFFFFFFFFFFFFFFFFFFFFFFFFFFFF
310
FFFFFFFFFFFFFFFFFFFFFFFFFFFFFFFFFFFFFFFFFFFFFFFFFFFFFFFFFFFFFFFF
310
FFFFFFFFFFFFFFFFFFFFFFFFFFFFFFFFFFFFFFFFFFFFFFFFFFFFFFFFFFFFFFFF
310
F000FFFFFFFFFFFFFFFFFFFFFFFFFFFFFFFFFFFFFFFFFFFFFFFFFFFFFFFFFFFF
310
FFFFFFFFFFFFFFFFFFFFFFFFFFFFFFFFFFFFFFFFFFFFFFFFFFFFFFFFFFFFFFFF
310
FFFFFFFFFFFFFFFFFFFFFFFFFFFFFFFFFFFFFFFFFFFFFFFFF000FFFFFFFFFFFF
310
FFFFFFFFFFFFFFFFFFFFFFFFFFFFFFFFFFFFFFFFFFFFFFFFFFFFFFFFFFFFFFFF
310
FFFFFFFFFFFFFFFFFFFFFFFFFFFFFFFFFFFFFFFFFFFFFFFFFFFFFFFFFFFFFFFF
310
FFFFFFFFFFFFFFFFFFFFFFFFFFFFFFFFF000FFFFFFFFFFFFFFFFFFFFFFFFFFFF
310
FFFFFFFFFFFFFFFFFFFFFFFFFFFFFFFFFFFFFFFFFFFFFFFFFFFFFFFFFFFFFFFF
310
FFFFFFFFFFFFFFFFFFFFFFFFFFFFFFFFFFFFFFFFFFFFFFFFFFFFFFFFFFFFFFFF
310
FFFFFFFFFFFFFFFFF000FFFFFFFFFFFFFFFFFFFFFFFFFFFFFFFFFFFFFFFFFFFF
310
FFFFFFFFFFFFFFFFFFFFFFFFFFFFFFFFFFFFFFFFFFFFFFFFFFFFFFFFFFFFFFFF
310
FFFFFFFFFFFFFFFFFFFFFFFFFFFFFFFFFFFFFFFFFFFFFFFFFFFFFFFFFFFFFFFF
310
F000FFFFFFFFFFFFFFFFFFFFFFFFFFFFFFFFFFFFFFFFFFFFFFFFFFFFFFFFFFFF
310
FFFFFFFFFFFFFFFFFFFFFFFFFFFFFFFFFFFFFFFFFFFFFFFFFFFFFFFFFFFFFFFF
310
FFFFFFFFFFFFFFFFFFFFFFFFFFFFFFFFFFFFFFFFFFFFFFFFF000FFFFFFFFFFFF
310
FFFFFFFFFFFFFFFFFFFFFFFFFFFFFFFFFFFFFFFFFFFFFFFFFFFFFFFFFFFFFFFF
310
FFFFFFFFFFFFFFFFFFFFFFFFFFFFFFFFFFFFFFFFFFFFFFFFFFFFFFFFFFFFFFFF
310
FFFFFFFFFFFFFFFFFFFFFFFFFFFFFFFFF000FFFFFFFFFFFFFFFFFFFFFFFFFFFF
310
FFFFFFFFFFFFFFFFFFFFFFFFFFFFFFFFFFFFFFFFFFFFFFFFFFFFFFFFFFFFFFFF
310
FFFFFFFFFFFFFFFFFFFFFFFFFFFFFFFFFFFFFFFFFFFFFFFFFFFFFFFFFFFFFFFF
310
FFFFFFFFFFFFFFFFF000FFFFF80003FFFFFFFFFFFFFFFFFFFFFFFFFFFFFFFFFF
310
FFFFF00007FFFFFFFFFF00007FFFFFF800000000000000007FFFFFFFFFFFFFFF
310
FFFFFFFC001FFFFFFFFFFFFFFC001FFFFFFFFFFFFFFFFFFFFFFFFFFE0007FFFF
310
F000FFFF8000007FFFFFFFF8000FFFFFC0007FFFFF80007FFFFF0000007FFFFF
310
FFF8000007FFFFF800000000000000007FFFFFF0001FFFFFFFFFFFC00001FFFF
310
FFFFFFFFC00001FFFFFFFF000000000003FFFFE000007FFFF000FFFE0000000F
310
FFFFFFF0000FFFFF80007FFFFF80007FFFFC0000001FFFFFFFC0000001FFFFF8
310
00000000000000007FFFFFF0001FFFFFFFFFFE0000003FFFFFFFFFFE0000003F
310
FFFFFF000000000003FFFF0000000FFFF000FFF800000003FFFFFFF00007FFFF
310
80007FFFFF80007FFFF000000007FFFFFF000000003FFFF80000000000000000
310
7FFFFFF0001FFFFFFFFFF80000000FFFFFFFFFF80000000FFFFFFF0000000000
310
03FFFC00000003FFF000FFE000000000FFFFFFF00007FFFF80003FFFFF80007F
310
FFC000000001FFFFFC000000001FFFF800000000000000007FFFFFF0001FFFFF
310
FFFFE000000003FFFFFFFFE000000003FFFFFF000000000003FFF000000000FF
310
F000FF80000000007FFFFFF00007FFFF80003FFFFF80007FFF8000000000FFFF
310
F80000000007FFF800000000000000007FFFFFF0001FFFFFFFFFC000000001FF
310
FFFFFFC000000001FFFFFF000000000003FFC0000000007FF000FF0000000000
310
3FFFFFE00007FFFF00003FFFFF80007FFE00000000003FFFF00000000003FFF8
310
00000000000000007FFFFFF0001FFFFFFFFF8000000000FFFFFFFF8000000000
310
FFFFFF000000000003FF80000000003FF000FE00000000001FFFFFE00003FFFF
310
00003FFFFF80007FFC00000000001FFFE00000000001FFF8000001FFFE000000
310
7FFFFFF0001FFFFFFFFE00000000003FFFFFFE00000000003FFFFF0000000000
310
03FF00000000001FF000FC00000000000FFFFFE00003FFFF00001FFFFF80007F
310
F800000000001FFFC00000000000FFF8000001FFFE0000007FFFFFF0001FFFFF
310
FFFC00000000001FFFFFFC00000000001FFFFF000000000003FE00000000000F
310
F000F8000000000007FFFFE00003FFFF00001FFFFF80007FF800000000000FFF
310
800000000000FFF8000001FFFE0000007FFFFFF0001FFFFFFFF800000000000F
310
FFFFF800000000000FFFFF000000000003FC000000000007F000F80000000000
310
03FFFFC00003FFFE00001FFFFF80007FF0000000000007FF0000000000007FF8
310
000001FFFE0000007FFFFFF0001FFFFFFFF0000000000007FFFFF00000000000
310
07FFFF000000000003F8000000000003F000F0000000000003FFFFC00001FFFE
310
00001FFFFF80007FE0000000000007FE0000000000003FF8000001FFFE000000
310
7FFFFFF0001FFFFFFFF0000000000007FFFFF0000000000007FFFF0000000000
310
03F800001F800003F000E00001FFF00001FFFFC00001FFFE00000FFFFF80007F
310
E00001FFE00003FE00001FFF00003FF8000001FFFE0000007FFFFFF0001FFFFF
310
FFE000003E000003FFFFE000003E000003FFFF000000000003F00001FFF80001
310
F000E00007FFFC0001FFFFC00001FFFE00000FFFFF80007FC0000FFFFC0003FC
310
0000FFFFC0001FF8000001FFFE0000007FFFFFF0001FFFFFFFC00003FFE00001
310
FFFFC00003FFE00001FFFF0001FFFFFFFFF00007FFFE0001F000E0000FFFFF00
310
00FFFF800001FFFC00000FFFFF80007FC0001FFFFE0001FC0001FFFFE0001FF8
310
000001FFFE0000007FFFFFF0001FFFFFFF80000FFFF80000FFFF80000FFFF800
310
00FFFF0003FFFFFFFFE0000FFFFF8000F000C0003FFFFF8000FFFF800000FFFC
310
000007FFFF80007F80003FFFFF0001FC0003FFFFF0001FF8000001FFFE000000
310
7FFFFFF0001FFFFFFF80003FFFFE0000FFFF80003FFFFE0000FFFF0003FFFFFF
310
FFE0003FFFFF8000F000C0003FFFFF8000FFFF800000FFFC000007FFFF80007F
310
80007FFFFF8001F80007FFFFF8000FF8000001FFFE0000007FFFFFF0001FFFFF
310
FF00007FFFFF00007FFF00007FFFFF00007FFF0003FFFFFFFFE0003FFFFFC000
310
F000C0007FFFFFC000FFFF000000FFFC000007FFFF80007F8000FFFFFF8000F8
310
000FFFFFF8000FF8000001FFFE0000007FFFFFF0001FFFFFFF0000FFFFFF8000
310
7FFF0000FFFFFF80007FFF0003FFFFFFFFC0007FFFFFC00070008000FFFFFFC0
310
00FFFF000000FFF8000007FFFF80007F8000FFFFFF8000F8000FFFFFF8000FF8
310
000001FFFE0000007FFFFFF0001FFFFFFE0001FFFFFFC0003FFE0001FFFFFFC0
310
003FFF0003FFFFFFFFC0007FFFFFE00070008000FFFFFFC0007FFF0000007FF8
310
000003FFFF80007F0001FFFFFF8000F8000FFFFFF8000FF8000001FFFE000000
310
7FFFFFF0001FFFFFFE0001FFFFFFC0003FFE0001FFFFFFC0003FFF0003FFFFFF
310
FFC000FFFFFFE00070008000FFFFFFC0007FFF0000007FF8000003FFFF80007F
310
0001FFFFFF8000F8001FFFFFF8000FF8000001FFFE0000007FFFFFF0001FFFFF
310
FE0003FFFFFFE0003FFE0003FFFFFFE0003FFF0003FFFFFFFFC000FFFFFFE000
310
70008000FFFFFFC0007FFE0000007FF8000003FFFF80007F0001FFFFFF8000F0
310
001FFFFFF8000FF8000001FFFE0000007FFFFFF0001FFFFFFC0003FFFFFFE000
310
1FFC0003FFFFFFE0001FFF0003FFFFFFFFC000FFFFFFC00070008000FFFFFF80
310
007FFE0000007FF0000003FFFF80007F0001FFFFFF0000F0001FFFFFF8000FF8
310
000001FFFE0000007FFFFFF0001FFFFFFC0007FFFFFFF0001FFC0007FFFFFFF0
310
001FFF0003FFFFFFFFC000FFFFFFC00070008001FFFFFF0000FFFE0000003FF0
310
000001FFFF80007F0001FFFFFF0000F8001FFFFFF0000FF8000001FFFE000000
310
7FFFFFF0001FFFFFFC0007FFFFFFF0001FFC0007FFFFFFF0001FFF0003FFFFFF
310
FFC001FFFFFF80007000FFFFFFFFFE0000FFFE0008003FF0008001FFFF80007F
310
FFFFFFFFFC0000FFFFFFFFFFE0000FF8000001FFFE0000007FFFFFF0001FFFFF
310
F8000FFFFFFFF8000FF8000FFFFFFFF8000FFF0003FFFFFFFFFFFFFFFFFF0000
310
7000FFFFFFFFFC0000FFFC0008003FF0008001FFFF80007FFFFFFFFFF80001FF
310
FFFFFFFF80000FF8000001FFFE0000007FFFFFF0001FFFFFF8000FFFFFFFF800
310
0FF8000FFFFFFFF8000FFF0003FFFFFFFFFFFFFFFFFE0000F000FFFFFFFFE000
310
00FFFC000C003FE000C001FFFF80007FFFFFFFFFC00001FFFFFFFFFE00001FF8
310
000001FFFE0000007FFFFFF0001FFFFFF8000FFFFFFFF8000FF8000FFFFFFFF8
310
000FFF0003FFFFFFFFFFFFFFFFF00000F000FFFFFFFE000001FFFC000C001FE0
310
00C000FFFF80007FFFFFFFFE000001FFFFFFFFE000001FF80FFFFFFFFFFFFFC0
310
7FFFFFF0001FFFFFF8000FFFFFFFF8000FF8000FFFFFFFF8000FFF0003FFFFFF
310
FFFFFFFFFF800000F000FFFFFFC0000001FFFC001C001FE001C000FFFF80007F
310
FFFFFF80000003FFFFFFF80000001FF80FFFFFFFFFFFFFC07FFFFFF0001FFFFF
310
F8001FFFFFFFFC000FF8001FFFFFFFFC000FFF0003FFFFFFFFFFFFFFF0000001
310
F000FFFFF800000001FFF8001C001FE001C000FFFF80007FFFFFF800000003FF
310
FFFF800000003FF80FFFFFFFFFFFFFC07FFFFFF0001FFFFFF8001FFFFFFFFC00
310
0FF8001FFFFFFFFC000FFF0003FFFFFFFFFFFFFE00000001F000FFFFC0000000
310
03FFF8001E001FC001E000FFFF80007FFFFF8000000007FFFFFC000000003FF8
310
0FFFFFFFFFFFFFC07FFFFFF0001FFFFFF8001FFFFFFFFC000FF8001FFFFFFFFC
310
000FFF0003FFFFFFFFFFFFE000000003F000FFFE0000000007FFF8001E000FC0
310
01E0007FFF80007FFFFE0000000007FFFFE0000000007FF80FFFFFFFFFFFFFC0
310
7FFFFFF0001FFFFFF0001FFFFFFFFC0007F0001FFFFFFFFC0007FF0003FFFFFF
310
FFFFFF0000000003F000FFF80000000007FFF8001E000FC003E0007FFF80007F
310
FFF0000000000FFFFF8000000000FFF80FFFFFFFFFFFFFC07FFFFFF0001FFFFF
310
F0001FFFFFFFFC0007F0001FFFFFFFFC0007FF0003FFFFFFFFFFFC0000000007
310
F000FFE0000000000FFFF0003E000FC003E0007FFF80007FFFC0000000001FFF
310
FE0000000001FFF80FFFFFFFFFFFFFC07FFFFFF0001FFFFFF0001FFFFFFFFC00
310
07F0001FFFFFFFFC0007FF0003FFFFFFFFFFF0000000000FF000FFC000000000
310
1FFFF0003F000F8003F0003FFF80007FFF80000000003FFFF80000000003FFF8
310
0FFFFFFFFFFFFFC07FFFFFF0001FFFFFF0001FFFFFFFFC0007F0001FFFFFFFFC
310
0007FF0003FFFFFFFFFFE0000000001FF000FF00000000007FFFF0003F000780
310
03F0003FFF80007FFF00000000007FFFF00000000007FFF80FFFFFFFFFFFFFC0
310
7FFFFFF0001FFFFFF0001FFFFFFFFC0007F0001FFFFFFFFC0007FF0003FFFFFF
310
FFFF80000000007FF000FE0000000000FFFFE0003F00078007F0003FFF80007F
310
FE0000000001FFFFE0000000001FFFF80FFFFFFFFFFFFFC07FFFFFF0001FFFFF
310
F0001FFFFFFFFC0007F0001FFFFFFFFC0007FF0003FFFFFFFFFF0000000000FF
310
F000FC0000000003FFFFE0007F00078007F0003FFF80007FFC0000000007FFFF
310
C0000000007FFFF80FFFFFFFFFFFFFC07FFFFFF0001FFFFFF8001FFFFFFFFC00
310
0FF8001FFFFFFFFC000FFF0003FFFFFFFFFE0000000003FFF000FC000000000F
310
FFFFE0007F80070007F8001FFF80007FF8000000001FFFFF8000000001FFFFF8
310
0FFFFFFFFFFFFFC07FFFFFF0001FFFFFF8001FFFFFFFFC000FF8001FFFFFFFFC
310
000FFF0003FFFFFFFFFC000000000FFFF000F8000000007FFFFFE0007F800700
310
07F8001FFF80007FF000000000FFFFFF800000000FFFFFF80FFFFFFFFFFFFFC0
310
7FFFFFF0001FFFFFF8000FFFFFFFF8000FF8000FFFFFFFF8000FFF0003FFFFFF
310
FFFC000000007FFFF000F800000007FFFFFFC0007F8003000FF8001FFF80007F
310
F000000007FFFFFF000000007FFFFFF80FFFFFFFFFFFFFC07FFFFFF0001FFFFF
310
F8000FFFFFFFF8000FF8000FFFFFFFF8000FFF0003FFFFFFFFF80000000FFFFF
310
F000F0000000FFFFFFFFC000FF8003000FF8001FFF80007FE0000000FFFFFFFF
310
0000000FFFFFFFF8000001FFFE0000007FFFFFF0001FFFFFF8000FFFFFFFF800
310
0FF8000FFFFFFFF8000FFF0003FFFFFFFFF8000000FFFFFFF000F000000FFFFF
310
FFFFC000FFC002000FF8000FFF80007FE000001FFFFFFFFE000001FFFFFFFFF8
310
000001FFFE0000007FFFFFF0001FFFFFF8000FFFFFFFF8000FF8000FFFFFFFF8
310
000FFF0003FFFFFFFFF000001FFFFFFFF000E00000FFFFFFFFFFC000FFC00200
310
0FFC000FFF80007FE00001FFFFFFFFFE00001FFFFFFFFFF8000001FFFE000000
310
7FFFFFF0001FFFFFFC000FFFFFFFF8001FFC000FFFFFFFF8001FFF0003FFFFFF
310
FFF00001FFFFFFFFF000E00007FFFFFFFFFF8000FFC000001FFC000FFF80007F
310
C0000FFFFFFFFFFE0000FFFFFFFFFFF8000001FFFE0000007FFFFFF0001FFFFF
310
FC0007FFFFFFF0001FFC0007FFFFFFF0001FFF0003FFFFFFFFF00007FFFFFFFF
310
F000E0001FFFFFFFFFFF8000FFC000001FFC000FFF80007FC0003FFFFFFFFFFE
310
0001FFFFFFFFFFF8000001FFFE0000007FFFFFF0001FFFFFFC0007FFFFFFF000
310
1FFC0007FFFFFFF0001FFF0003FFFFFFFFF0001FFFFFFFFFF000E0003FFFFF00
310
03FF8001FFE000001FFC0007FF80007FC0007FFFFF0007FC0003FFFFF0003FF8
310
000001FFFE0000007FFFFFF0001FFFFFFC0003FFFFFFE0001FFC0003FFFFFFE0
310
001FFF0003FFFFFFFFF0003FFFFFFFFFF000E0003FFFFF0001FF8001FFE00000
310
1FFE0007FF80007FC0007FFFFE0003FC0007FFFFE0003FF8000001FFFE000000
310
7FFFFFF0001FFFFFFE0003FFFFFFE0003FFE0003FFFFFFE0003FFF0003FFFFFF
310
FFF0003FFFFF8001F000E0003FFFFF0001FF0001FFE000001FFE0007FF80007F
310
C0007FFFFE0003FC0007FFFFE0003FF8000001FFFE0000007FFFFFF0001FFFFF
310
FE0001FFFFFFC0003FFE0001FFFFFFC0003FFF0003FFFFFFFFF0003FFFFF0001
310
F000E0003FFFFF0003FF0001FFE000003FFE0007FF80007FC0007FFFFE0003FC
310
0007FFFFE0003FF8000001FFFE0000007FFFFFF0001FFFFFFF0001FFFFFFC000
310
7FFF0001FFFFFFC0007FFF0003FFFFFFFFF0003FFFFF0001F000E0003FFFFE00
310
03FF0003FFF000003FFE0003FF80007FC0007FFFFC0003FE0007FFFFE0003FF8
310
000001FFFE0000007FFFFFF0001FFFFFFF0000FFFFFF80007FFF0000FFFFFF80
310
007FFF0003FFFFFFFFF0003FFFFF0001F000E0003FFFFE0003FF0003FFF00000
310
3FFF0003FF80007FC0007FFFFC0007FE0007FFFFC0003FF8000001FFFE000000
310
7FFFFFF0001FFFFFFF80007FFFFF0000FFFF80007FFFFF0000FFFF0003FFFFFF
310
FFF0003FFFFF0003F000E0003FFFFC0003FE0003FFF000003FFF0003FF80007F
310
E0003FFFF80007FE0003FFFFC0007FF8000001FFFE0000007FFFFFF0001FFFFF
310
FF80003FFFFE0000FFFF80003FFFFE0000FFFF0003FFFFFFFFF0001FFFFE0003
310
F000F0001FFFF80003FE0003FFF000007FFF0001FF80007FE0003FFFF00007FE
310
0001FFFF80007FF8000001FFFE0000007FFFFFF0001FFFFFFFC0000FFFF80001
310
FFFFC0000FFFF80001FFFF0003FFFFFFFFF0001FFFFC0003F000F0000FFFF000
310
07FE0007FFF800007FFF0001FF80007FE0001FFFE00007FF0000FFFE00007FF8
310
000001FFFE0000007FFFFFF0001FFFFFFFC00003FFE00001FFFFC00003FFE000
310
01FFFF0003FFFFFFFFF8000FFFF80003F000F00003FFC00007FC0007FFF80000
310
7FFF8001FF80007FF00007FF80000FFF00007FF80000FFF8000001FFFE000000
310
7F80000000000001FFE000003E000003FFFFE000003E000003FFFF0003FFFFFF
310
FFF80003FFE00007F000F800000000000FFC0007FFF800007FFF8001FF80007F
310
F000000000000FFF000000000000FFF8000001FFFE0000007F80000000000001
310
FFF0000000000007FFFFF0000000000007FFFF0003FFFFFFFFFC00007E000007
310
F000F800000000000FFC0007FFF80000FFFF8000FF80007FF800000000001FFF
310
800000000001FFF8000001FFFE0000007F80000000000001FFF800000000000F
310
FFFFF800000000000FFFFF0003FFFFFFFFFC00000000000FF000FC0000000000
310
1FFC0007FFFC0000FFFF8000FF80007FF800000000003FFFC00000000001FFF8
310
000001FFFE0000007F80000000000001FFF800000000000FFFFFF80000000000
310
0FFFFF0003FFFFFFFFFE00000000001FF000FE00000000003FF8000FFFFC0000
310
FFFF8000FF80007FFC00000000003FFFC00000000003FFF8000001FFFE000000
310
7F80000000000001FFFC00000000001FFFFFFC00000000001FFFFF0003FFFFFF
310
FFFF00000000001FF000FF00000000003FF8000FFFFC0000FFFFC000FF80007F
310
FE00000000007FFFE00000000007FFF8000001FFFE0000007F80000000000001
310
FFFE00000000003FFFFFFE00000000003FFFFF0003FFFFFFFFFF80000000003F
310
F000FF80000000007FF8000FFFFC0001FFFFC0007F80007FFF0000000000FFFF
310
F0000000000FFFF800000000000000007F80000000000001FFFF8000000000FF
310
FFFFFF8000000000FFFFFF0003FFFFFFFFFFC0000000007FF000FFC000000000
310
FFF8000FFFFE0001FFFFC0007F80007FFF8000000001FFFFF8000000001FFFF8
310
00000000000000007F80000000000001FFFFC000000001FFFFFFFFC000000001
310
FFFFFF0003FFFFFFFFFFE000000000FFF000FFE000000003FFF0001FFFFE0001
310
FFFFC0007F80007FFFC000000007FFFFFE000000003FFFF80000000000000000
310
7F80000000000001FFFFE000000003FFFFFFFFE000000003FFFFFF0003FFFFFF
310
FFFFF000000003FFF000FFF80000000FFFF0001FFFFE0001FFFFE0007F80007F
310
FFF00000000FFFFFFF00000000FFFFF800000000000000007F80000000000001
310
FFFFF80000000FFFFFFFFFF80000000FFFFFFF0003FFFFFFFFFFFC0000000FFF
310
F000FFFE0000003FFFF0001FFFFE0003FFFFE0003F80007FFFFC0000003FFFFF
310
FFC0000003FFFFF800000000000000007F80000000000001FFFFFE0000003FFF
310
FFFFFFFE0000003FFFFFFF0003FFFFFFFFFFFF0000003FFFF000FFFF800000FF
310
FFF0001FFFFF0003FFFFE0003F80007FFFFF000001FFFFFFFFF800001FFFFFF8
310
00000000000000007F80000000000001FFFFFFC00001FFFFFFFFFFFFC00001FF
310
FFFFFF0003FFFFFFFFFFFFC00000FFFFF000FFFFF8000FFFFFFFFFFFFFFFFFFF
310
FFFFFFFFFFFFFFFFFFFFF0001FFFFFFFFFFF0000FFFFFFF80000000000000000
310
7FFFFFFFFFFFFFFFFFFFFFFC001FFFFFFFFFFFFFFC001FFFFFFFFFFFFFFFFFFF
310
FFFFFFFC001FFFFFF000FFFFFFFFFFFFFFFFFFFFFFFFFFFFFFFFFFFFFFFFFFFF
310
FFFFFFFFFFFFFFFFFFFFFFFFFFFFFFFFFFFFFFFFFFFFFFFFFFFFFFFFFFFFFFFF
310
FFFFFFFFFFFFFFFFFFFFFFFFFFFFFFFFFFFFFFFFFFFFFFFFFFFFFFFFFFFFFFFF
310
F000FFFFFFFFFFFFFFFFFFFFFFFFFFFFFFFFFFFFFFFFFFFFFFFFFFFFFFFFFFFF
310
FFFFFFFFFFFFFFFFFFFFFFFFFFFFFFFFFFFFFFFFFFFFFFFFFFFFFFFFFFFFFFFF
310
FFFFFFFFFFFFFFFFFFFFFFFFFFFFFFFFFFFFFFFFFFFFFFFFF000FFFFFFFFFFFF
310
FFFFFFFFFFFFFFFFFFFFFFFFFFFFFFFFFFFFFFFFFFFFFFFFFFFFFFFFFFFFFFFF
310
FFFFFFFFFFFFFFFFFFFFFFFFFFFFFFFFFFFFFFFFFFFFFFFFFFFFFFFFFFFFFFFF
310
FFFFFFFFFFFFFFFFFFFFFFFFFFFFFFFFF000FFFFFFFFFFFFFFFFFFFFFFFFFFFF
310
FFFFFFFFFFFFFFFFFFFFFFFFFFFFFFFFFFFFFFFFFFFFFFFFFFFFFFFFFFFFFFFF
310
FFFFFFFFFFFFFFFFFFFFFFFFFFFFFFFFFFFFFFFFFFFFFFFFFFFFFFFFFFFFFFFF
310
FFFFFFFFFFFFFFFFF000FFFFFFFFFFFFFFFFFFFFFFFFFFFFFFFFFFFFFFFFFFFF
310
FFFFFFFFFFFFFFFFFFFFFFFFFFFFFFFFFFFFFFFFFFFFFFFFFFFFFFFFFFFFFFFF
310
FFFFFFFFFFFFFFFFFFFFFFFFFFFFFFFFFFFFFFFFFFFFFFFFFFFFFFFFFFFFFFFF
310
F000FFFFFFFFFFFFFFFFFFFFFFFFFFFFFFFFFFFFFFFFFFFFFFFFFFFFFFFFFFFF
310
FFFFFFFFFFFFFFFFFFFFFFFFFFFFFFFFFFFFFFFFFFFFFFFFFFFFFFFFFFFFFFFF
310
FFFFFFFFFFFFFFFFFFFFFFFFFFFFFFFFFFFFFFFFFFFFFFFFF000FFFFFFFFFFFF
310
FFFFFFFFFFFFFFFFFFFFFFFFFFFFFFFFFFFFFFFFFFFFFFFFFFFFFFFFFFFFFFFF
310
FFFFFFFFFFFFFFFFFFFFFFFFFFFFFFFFFFFFFFFFFFFFFFFFFFFFFFFFFFFFFFFF
310
FFFFFFFFFFFFFFFFFFFFFFFFFFFFFFFFF000FFFFFFFFFFFFFFFFFFFFFFFFFFFF
310
FFFFFFFFFFFFFFFFFFFFFFFFFFFFFFFFFFFFFFFFFFFFFFFFFFFFFFFFFFFFFFFF
310
FFFFFFFFFFFFFFFFFFFFFFFFFFFFFFFFFFFFFFFFFFFFFFFFFFFFFFFFFFFFFFFF
310
FFFFFFFFFFFFFFFFF000FFFFFFFFFFFFFFFFFFFFFFFFFFFFFFFFFFFFFFFFFFFF
310
FFFFFFFFFFFFFFFFFFFFFFFFFFFFFFFFFFFFFFFFFFFFFFFFFFFFFFFFFFFFFFFF
310
FFFFFFFFFFFFFFFFFFFFFFFFFFFFFFFFFFFFFFFFFFFFFFFFFFFFFFFFFFFFFFFF
310
F000FFFFFFFFFFFFFFFFFFFFFFFFFFFFFFFFFFFFFFFFFFFFFFFFFFFFFFFFFFFF
310
FFFFFFFFFFFFFFFFFFFFFFFFFFFFFFFFFFFFFFFFFFFFFFFFFFFFFFFFFFFFFFFF
310
FFFFFFFFFFFFFFFFFFFFFFFFFFFFFFFFFFFFFFFFFFFFFFFFF000FFFFFFFFFFFF
310
FFFFFFFFFFFFFFFFFFFFFFFFFFFFFFFFFFFFFFFFFFFFFFFFFFFFFFFFFFFFFFFF
310
FFFFFFFFFFFFFFFFFFFFFFFFFFFFFFFFFFFFFFFFFFFFFFFFFFFFFFFFFFFFFFFF
310
FFFFFFFFFFFFFFFFFFFFFFFFFFFFFFFFF000FFFFFFFFFFFFFFFFFFFFFFFFFFFF
310
FFFFFFFFFFFFFFFFFFFFFFFFFFFFFFFFFFFFFFFFFFFFFFFFFFFFFFFFFFFFFFFF
310
FFFFFFFFFFFFFFFFFFFFFFFFFFFFFFFFFFFFFFFFFFFFFFFFFFFFFFFFFFFFFFFF
310
FFFFFFFFFFFFFFFFF000FFFFFFFFFFFFFFFFFFFFFFFFFFFFFFFFFFFFFFFFFFFF
310
FFFFFFFFFFFFFFFFFFFFFFFFFFFFFFFFFFFFFFFFFFFFFFFFFFFFFFFFFFFFFFFF
310
FFFFFFFFFFFFFFFFFFFFFFFFFFFFFFFFFFFFFFFFFFFFFFFFFFFFFFFFFFFFFFFF
310
F000FFFFFFFFFFFFFFFFFFFFFFFFFFFFFFFFFFFFFFFFFFFFFFFFFFFFFFFFFFFF
310
FFFFFFFFFFFFFFFFFFFFFFFFFFFFFFFFFFFFFFFFFFFFFFFFFFFFFFFFFFFFFFFF
310
FFFFFFFFFFFFFFFFFFFFFFFFFFFFFFFFFFFFFFFFFFFFFFFFF000FFFFFFFFFFFF
310
FFFFFFFFFFFFFFFFFFFFFFFFFFFFFFFFFFFFFFFFFFFFFFFFFFFFFFFFFFFFFFFF
310
FFFFFFFFFFFFFFFFFFFFFFFFFFFFFFFFFFFFFFFFFFFFFFFFFFFFFFFFFFFFFFFF
310
FFFFFFFFFFFFFFFFFFFFFFFFFFFFFFFFF000FFFFFFFFFFFFFFFFFFFFFFFFFFFF
310
FFFFFFFFFFFFFFFFFFFFFFFFFFFFFFFFFFFFFFFFFFFFFFFFFFFFFFFFFFFFFFFF
310
FFFFFFFFFFFFFFFFFFFFFFFFFFFFFFFFFFFFFFFFFFFFFFFFFFFFFFFFFFFFFFFF
310
FFFFFFFFFFFFFFFFF000FFFFFFFFFFFFFFFFFFFFFFFFFFFFFFFFFFFFFFFFFFFF
310
FFFFFFFFFFFFFFFFFFFFFFFFFFFFFFFFFFFFFFFFFFFFFFFFFFFFFFFFFFFFFFFF
310
FFFFFFFFFFFFFFFFFFFFFFFFFFFFFFFFFFFFFFFFFFFFFFFFFFFFFFFFFFFFFFFF
310
F000FFFFFFFFFFFFFFFFFFFFFFFFFFFFFFFFFFFFFFFFFFFFFFFFFFFFFFFFFFFF
310
FFFFFFFFFFFFFFFFFFFFFFFFFFFFFFFFFFFFFFFFFFFFFFFFFFFFFFFFFFFFFFFF
310
FFFFFFFFFFFFFFFFFFFFFFFFFFFFFFFFFFFFFFFFFFFFFFFFF000FFFFFFFFFFFF
310
FFFFFFFFFFFFFFFFFFFFFFFFFFFFFFFFFFFFFFFFFFFFFFFFFFFFFFFFFFFFFFFF
310
FFFFFFFFFFFFFFFFFFFFFFFFFFFFFFFFFFFFFFFFFFFFFFFFFFFFFFFFFFFFFFFF
310
FFFFFFFFFFFFFFFFFFFFFFFFFFFFFFFFF000FFFFFFFFFFFFFFFFFFFFFFFFFFFF
310
FFFFFFFFFFFFFFFFFFFFFFFFFFFFFFFFFFFFFFFFFFFFFFFFFFFFFFFFFFFFFFFF
310
FFFFFFFFFFFFFFFFFFFFFFFFFFFFFFFFFFFFFFFFFFFFFFFFFFFFFFFFFFFFFFFF
310
FFFFFFFFFFFFFFFFF000FFFFFFFFFFFFFFFFFFFFFFFFFFFFFFFFFFFFFFFFFFFF
310
FFFFFFFFFFFFFFFFFFFFFFFFFFFFFFFFFFFFFFFFFFFFFFFFFFFFFFFFFFFFFFFF
310
FFFFFFFFFFFFFFFFFFFFFFFFFFFFFFFFFFFFFFFFFFFFFFFFFFFFFFFFFFFFFFFF
310
F000FFFFFFFFFFFFFFFFFFFFFFFFFFFFFFFFFFFFFFFFFFFFFFFFFFFFFFFFFFFF
310
FFFFFFFFFFFFFFFFFFFFFFFFFFFFFFFFFFFFFFFFFFFFFFFFFFFFFFFFFFFFFFFF
310
FFFFFFFFFFFFFFFFFFFFFFFFFFFFFFFFFFFFFFFFFFFFFFFFF000FFFFFFFFFFFF
310
FFFFFFFFFFFFFFFFFFFFFFFFFFFFFFFFFFFFFFFFFFFFFFFFFFFFFFFFFFFFFFFF
310
FFFFFFFFFFFFFFFFFFFFFFFFFFFFFFFFFFFFFFFFFFFFFFFFFFFFFFFFFFFFFFFF
310
FFFFFFFFFFFFFFFFFFFFFFFFFFFFFFFFF0000000000000000000000000000000
310
0000000000000000000000000000000000000000000000000000000000000000
310
0000000000000000000000000000000000000000000000000000000000000000
310
0000000000000000000000000000000000000000000000000000000000000000
310
0000000000000000000000000000000000000000000000000000000000000000
310
0000000000000000000000000000000000000000000000000000000000000000
310
0000000000000000000000000000000000000000000000000000000000000000
310
0000000000000000000000000000000000000000000000000000000000000000
310
0000000000000000000000000000000000000000000000000000000000000000
310
0000000000000000000000000000000000000000000000000000000000000000
310
0000000000000000000000000000000000000000000000000000000000000000
310
0000000000000000000000000000000000000000000000000000000000000000
310
0000000000000000000000000000000000000000000000000000000000000000
310
0000000000000000000000000000000000000000000000000000000000000000
310
0000000000000000000000000000000000000000000000000000000000000000
310
0000000000000000000000000000000000000000000000000000000000000000
  1
OLE
  0
ENDSEC
  0
SECTION
  2
OBJECTS
  0
DICTIONARY
  5
C
330
0
100
AcDbDictionary
281
     1
  3
ACAD_GROUP
350
D
  3
ACAD_LAYOUT
350
1A
  3
ACAD_MLINESTYLE
350
17
  3
ACAD_PLOTSETTINGS
350
19
  3
ACAD_PLOTSTYLENAME
350
E
  0
DICTIONARY
  5
D
102
{ACAD_REACTORS
330
C
102
}
330
C
100
AcDbDictionary
281
     1
  0
DICTIONARY
  5
1A
102
{ACAD_REACTORS
330
C
102
}
330
C
100
AcDbDictionary
281
     1
  3
Layout1
350
1E
  3
Layout2
350
26
  3
Model
350
22
  0
DICTIONARY
  5
17
102
{ACAD_REACTORS
330
C
102
}
330
C
100
AcDbDictionary
281
     1
  3
Standard
350
18
  0
DICTIONARY
  5
19
102
{ACAD_REACTORS
330
C
102
}
330
C
100
AcDbDictionary
281
     1
  0
ACDBDICTIONARYWDFLT
  5
E
102
{ACAD_REACTORS
330
C
102
}
330
C
100
AcDbDictionary
281
     1
  3
Normal
350
F
100
AcDbDictionaryWithDefault
340
F
  0
LAYOUT
  5
1E
102
{ACAD_REACTORS
330
1A
102
}
330
1A
100
AcDbPlotSettings
  1

  2
none_device
  4

  6

 40
0.0
 41
0.0
 42
0.0
 43
0.0
 44
0.0
 45
0.0
 46
0.0
 47
0.0
 48
0.0
 49
0.0
140
0.0
141
0.0
142
1.0
143
1.0
 70
   688
 72
     0
 73
     0
 74
     5
  7

 75
    16
147
1.0
148
0.0
149
0.0
100
AcDbLayout
  1
Layout1
 70
     1
 71
     1
 10
0.0
 20
0.0
 11
420.0
 21
297.0
 12
0.0
 22
0.0
 32
0.0
 14
1.0000000000E+20
 24
1.0000000000E+20
 34
1.0000000000E+20
 15
-1.0000000000E+20
 25
-1.0000000000E+20
 35
-1.0000000000E+20
146
0.0
 13
0.0
 23
0.0
 33
0.0
 16
1.0
 26
0.0
 36
0.0
 17
0.0
 27
1.0
 37
0.0
 76
     0
330
1B
  0
LAYOUT
  5
26
102
{ACAD_REACTORS
330
1A
102
}
330
1A
100
AcDbPlotSettings
  1

  2
none_device
  4

  6

 40
0.0
 41
0.0
 42
0.0
 43
0.0
 44
0.0
 45
0.0
 46
0.0
 47
0.0
 48
0.0
 49
0.0
140
0.0
141
0.0
142
1.0
143
1.0
 70
   688
 72
     0
 73
     0
 74
     5
  7

 75
    16
147
1.0
148
0.0
149
0.0
100
AcDbLayout
  1
Layout2
 70
     1
 71
     2
 10
0.0
 20
0.0
 11
0.0
 21
0.0
 12
0.0
 22
0.0
 32
0.0
 14
0.0
 24
0.0
 34
0.0
 15
0.0
 25
0.0
 35
0.0
146
0.0
 13
0.0
 23
0.0
 33
0.0
 16
1.0
 26
0.0
 36
0.0
 17
0.0
 27
1.0
 37
0.0
 76
     0
330
23
  0
LAYOUT
  5
22
102
{ACAD_REACTORS
330
1A
102
}
330
1A
100
AcDbPlotSettings
  1

  2
none_device
  4

  6

 40
0.0
 41
0.0
 42
0.0
 43
0.0
 44
0.0
 45
0.0
 46
0.0
 47
0.0
 48
0.0
 49
0.0
140
0.0
141
0.0
142
1.0
143
1.0
 70
  1712
 72
     0
 73
     0
 74
     0
  7

 75
     0
147
1.0
148
0.0
149
0.0
100
AcDbLayout
  1
Model
 70
     1
 71
     0
 10
0.0
 20
0.0
 11
297.0
 21
210.0
 12
0.0
 22
0.0
 32
0.0
 14
0.0
 24
0.0
 34
0.0
 15
297.0
 25
210.0
 35
0.0
146
0.0
 13
0.0
 23
0.0
 33
0.0
 16
1.0
 26
0.0
 36
0.0
 17
0.0
 27
1.0
 37
0.0
 76
     0
330
1F
331
29
  0
MLINESTYLE
  5
18
102
{ACAD_REACTORS
330
17
102
}
330
17
100
AcDbMlineStyle
  2
Standard
 70
     0
  3

 62
   256
 51
90.0
 52
90.0
 71
     2
 49
0.5
 62
   256
  6
BYLAYER
 49
-0.5
 62
   256
  6
BYLAYER
  0
ACDBPLACEHOLDER
  5
F
102
{ACAD_REACTORS
330
E
102
}
330
E
  0
ENDSEC
  0
EOF
