  0
SECTION
  2
HEADER
  9
$ACADVER
  1
AC1015
  9
$ACADMAINTVER
 70
     6
  9
$DWGCODEPAGE
  3
ANSI_1252
  9
$INSBASE
 10
0.0
 20
0.0
 30
0.0
  9
$EXTMIN
 10
0.0
 20
0.0
 30
0.0
  9
$EXTMAX
 10
297.0
 20
210.0
 30
0.0
  9
$LIMMIN
 10
0.0
 20
0.0
  9
$LIMMAX
 10
297.0
 20
210.0
  9
$ORTHOMODE
 70
     0
  9
$REGENMODE
 70
     1
  9
$FILLMODE
 70
     1
  9
$QTEXTMODE
 70
     0
  9
$MIRRTEXT
 70
     1
  9
$LTSCALE
 40
1.0
  9
$ATTMODE
 70
     1
  9
$TEXTSIZE
 40
2.0
  9
$TRACEWID
 40
1.0
  9
$TEXTSTYLE
  7
Standard
  9
$CLAYER
  8
0
  9
$CELTYPE
  6
ByLayer
  9
$CECOLOR
 62
   256
  9
$CELTSCALE
 40
1.0
  9
$DISPSILH
 70
     0
  9
$DIMSCALE
 40
1.0
  9
$DIMASZ
 40
3.0
  9
$DIMEXO
 40
0.0
  9
$DIMDLI
 40
3.75
  9
$DIMRND
 40
0.0
  9
$DIMDLE
 40
0.0
  9
$DIMEXE
 40
1.0
  9
$DIMTP
 40
0.0
  9
$DIMTM
 40
0.0
  9
$DIMTXT
 40
2.0
  9
$DIMCEN
 40
2.5
  9
$DIMTSZ
 40
0.0
  9
$DIMTOL
 70
     0
  9
$DIMLIM
 70
     0
  9
$DIMTIH
 70
     1
  9
$DIMTOH
 70
     1
  9
$DIMSE1
 70
     0
  9
$DIMSE2
 70
     0
  9
$DIMTAD
 70
     1
  9
$DIMZIN
 70
     0
  9
$DIMBLK
  1

  9
$DIMASO
 70
     1
  9
$DIMSHO
 70
     1
  9
$DIMPOST
  1

  9
$DIMAPOST
  1

  9
$DIMALT
 70
     0
  9
$DIMALTD
 70
     3
  9
$DIMALTF
 40
0.0393700787
  9
$DIMLFAC
 40
1.0
  9
$DIMTOFL
 70
     1
  9
$DIMTVP
 40
0.0
  9
$DIMTIX
 70
     0
  9
$DIMSOXD
 70
     0
  9
$DIMSAH
 70
     0
  9
$DIMBLK1
  1

  9
$DIMBLK2
  1

  9
$DIMSTYLE
  2
ISO-25
  9
$DIMCLRD
 70
     0
  9
$DIMCLRE
 70
     0
  9
$DIMCLRT
 70
     0
  9
$DIMTFAC
 40
1.0
  9
$DIMGAP
 40
1.524
  9
$DIMJUST
 70
     0
  9
$DIMSD1
 70
     0
  9
$DIMSD2
 70
     0
  9
$DIMTOLJ
 70
     0
  9
$DIMTZIN
 70
     0
  9
$DIMALTZ
 70
     0
  9
$DIMALTTZ
 70
     0
  9
$DIMUPT
 70
     0
  9
$DIMDEC
 70
     2
  9
$DIMTDEC
 70
     3
  9
$DIMALTU
 70
     2
  9
$DIMALTTD
 70
     3
  9
$DIMTXSTY
  7
Standard
  9
$DIMAUNIT
 70
     0
  9
$DIMADEC
 70
     2
  9
$DIMALTRND
 40
0.0
  9
$DIMAZIN
 70
     0
  9
$DIMDSEP
 70
    44
  9
$DIMATFIT
 70
     3
  9
$DIMFRAC
 70
     0
  9
$DIMLDRBLK
  1

  9
$DIMLUNIT
 70
     2
  9
$DIMLWD
 70
    -2
  9
$DIMLWE
 70
    -2
  9
$DIMTMOVE
 70
     0
  9
$LUNITS
 70
     2
  9
$LUPREC
 70
     2
  9
$SKETCHINC
 40
1.0
  9
$FILLETRAD
 40
10.0
  9
$AUNITS
 70
     0
  9
$AUPREC
 70
     2
  9
$MENU
  1
.
  9
$ELEVATION
 40
0.0
  9
$PELEVATION
 40
0.0
  9
$THICKNESS
 40
0.0
  9
$LIMCHECK
 70
     0
  9
$CHAMFERA
 40
10.0
  9
$CHAMFERB
 40
10.0
  9
$CHAMFERC
 40
20.0
  9
$CHAMFERD
 40
0.0
  9
$SKPOLY
 70
     0
  9
$TDCREATE
 40
2455972.558153935
  9
$TDUCREATE
 40
2455972.516487269
  9
$TDUPDATE
 40
2455972.558153947
  9
$TDUUPDATE
 40
2455972.51648728
  9
$TDINDWG
 40
0.0000000116
  9
$TDUSRTIMER
 40
0.0000000116
  9
$USRTIMER
 70
     1
  9
$ANGBASE
 50
0.0
  9
$ANGDIR
 70
     0
  9
$PDMODE
 70
     0
  9
$PDSIZE
 40
-1.0
  9
$PLINEWID
 40
0.0
  9
$SPLFRAME
 70
     0
  9
$SPLINETYPE
 70
     6
  9
$SPLINESEGS
 70
     8
  9
$HANDSEED
  5
275
  9
$SURFTAB1
 70
     6
  9
$SURFTAB2
 70
     6
  9
$SURFTYPE
 70
     6
  9
$SURFU
 70
     6
  9
$SURFV
 70
     6
  9
$UCSBASE
  2

  9
$UCSNAME
  2

  9
$UCSORG
 10
0.0
 20
0.0
 30
0.0
  9
$UCSXDIR
 10
1.0
 20
0.0
 30
0.0
  9
$UCSYDIR
 10
0.0
 20
1.0
 30
0.0
  9
$UCSORTHOREF
  2

  9
$UCSORTHOVIEW
 70
     0
  9
$UCSORGTOP
 10
0.0
 20
0.0
 30
0.0
  9
$UCSORGBOTTOM
 10
0.0
 20
0.0
 30
0.0
  9
$UCSORGLEFT
 10
0.0
 20
0.0
 30
0.0
  9
$UCSORGRIGHT
 10
0.0
 20
0.0
 30
0.0
  9
$UCSORGFRONT
 10
0.0
 20
0.0
 30
0.0
  9
$UCSORGBACK
 10
0.0
 20
0.0
 30
0.0
  9
$PUCSBASE
  2

  9
$PUCSNAME
  2

  9
$PUCSORG
 10
0.0
 20
0.0
 30
0.0
  9
$PUCSXDIR
 10
1.0
 20
0.0
 30
0.0
  9
$PUCSYDIR
 10
0.0
 20
1.0
 30
0.0
  9
$PUCSORTHOREF
  2

  9
$PUCSORTHOVIEW
 70
     0
  9
$PUCSORGTOP
 10
0.0
 20
0.0
 30
0.0
  9
$PUCSORGBOTTOM
 10
0.0
 20
0.0
 30
0.0
  9
$PUCSORGLEFT
 10
0.0
 20
0.0
 30
0.0
  9
$PUCSORGRIGHT
 10
0.0
 20
0.0
 30
0.0
  9
$PUCSORGFRONT
 10
0.0
 20
0.0
 30
0.0
  9
$PUCSORGBACK
 10
0.0
 20
0.0
 30
0.0
  9
$USERI1
 70
     0
  9
$USERI2
 70
     0
  9
$USERI3
 70
     0
  9
$USERI4
 70
     0
  9
$USERI5
 70
     0
  9
$USERR1
 40
0.0
  9
$USERR2
 40
0.0
  9
$USERR3
 40
0.0
  9
$USERR4
 40
0.0
  9
$USERR5
 40
0.0
  9
$WORLDVIEW
 70
     1
  9
$SHADEDGE
 70
     3
  9
$SHADEDIF
 70
    70
  9
$TILEMODE
 70
     1
  9
$MAXACTVP
 70
    64
  9
$PINSBASE
 10
0.0
 20
0.0
 30
0.0
  9
$PLIMCHECK
 70
     0
  9
$PEXTMIN
 10
1.0000000000E+20
 20
1.0000000000E+20
 30
1.0000000000E+20
  9
$PEXTMAX
 10
-1.0000000000E+20
 20
-1.0000000000E+20
 30
-1.0000000000E+20
  9
$PLIMMIN
 10
0.0
 20
0.0
  9
$PLIMMAX
 10
420.0
 20
297.0
  9
$UNITMODE
 70
     0
  9
$VISRETAIN
 70
     1
  9
$PLINEGEN
 70
     0
  9
$PSLTSCALE
 70
     1
  9
$TREEDEPTH
 70
  3020
  9
$CMLSTYLE
  2
Standard
  9
$CMLJUST
 70
     0
  9
$CMLSCALE
 40
20.0
  9
$PROXYGRAPHICS
 70
     1
  9
$MEASUREMENT
 70
     1
  9
$CELWEIGHT
370
    -1
  9
$ENDCAPS
280
     0
  9
$JOINSTYLE
280
     0
  9
$LWDISPLAY
290
     1
  9
$INSUNITS
 70
     4
  9
$HYPERLINKBASE
  1

  9
$STYLESHEET
  1

  9
$XEDIT
290
     1
  9
$CEPSNTYPE
380
     0
  9
$PSTYLEMODE
290
     1
  9
$FINGERPRINTGUID
  2
{F44A9EEB-1B5D-40C5-86C3-925FE1E0BA4B}
  9
$VERSIONGUID
  2
{FAEB1C32-E019-11D5-929B-00C0DF256EC4}
  9
$EXTNAMES
290
     1
  9
$PSVPSCALE
 40
0.0
  9
$OLESTARTUP
290
     0
  0
ENDSEC
  0
SECTION
  2
CLASSES
  0
CLASS
  1
ACDBDICTIONARYWDFLT
  2
AcDbDictionaryWithDefault
  3
ObjectDBX Classes
 90
        0
280
     0
281
     0
  0
CLASS
  1
VISUALSTYLE
  2
AcDbVisualStyle
  3
ObjectDBX Classes
 90
     4095
280
     0
281
     0
  0
CLASS
  1
MATERIAL
  2
AcDbMaterial
  3
ObjectDBX Classes
 90
     1153
280
     0
281
     0
  0
CLASS
  1
ACDBPLACEHOLDER
  2
AcDbPlaceHolder
  3
ObjectDBX Classes
 90
        0
280
     0
281
     0
  0
CLASS
  1
LAYOUT
  2
AcDbLayout
  3
ObjectDBX Classes
 90
        0
280
     0
281
     0
  0
ENDSEC
  0
SECTION
  2
TABLES
  0
TABLE
  2
VPORT
  5
8
330
0
100
AcDbSymbolTable
 70
     1
  0
VPORT
  5
29
330
8
100
AcDbSymbolTableRecord
100
AcDbViewportTableRecord
  2
*Active
 70
     0
 10
0.0
 20
0.0
 11
1.0
 21
1.0
 12
148.5
 22
105.0
 13
0.0
 23
0.0
 14
10.0
 24
10.0
 15
10.0
 25
10.0
 16
0.0
 26
0.0
 36
1.0
 17
0.0
 27
0.0
 37
0.0
 40
210.0
 41
1.4142857143
 42
50.0
 43
0.0
 44
0.0
 50
0.0
 51
0.0
 71
     0
 72
  2000
 73
     1
 74
     3
 75
     0
 76
     0
 77
     0
 78
     0
281
     0
 65
     1
110
0.0
120
0.0
130
0.0
111
1.0
121
0.0
131
0.0
112
0.0
122
1.0
132
0.0
 79
     0
146
0.0
  0
ENDTAB
  0
TABLE
  2
LTYPE
  5
5
330
0
100
AcDbSymbolTable
 70
     6
  0
LTYPE
  5
14
330
5
100
AcDbSymbolTableRecord
100
AcDbLinetypeTableRecord
  2
ByBlock
 70
     0
  3

 72
    65
 73
     0
 40
0.0
  0
LTYPE
  5
15
330
5
100
AcDbSymbolTableRecord
100
AcDbLinetypeTableRecord
  2
ByLayer
 70
     0
  3

 72
    65
 73
     0
 40
0.0
  0
LTYPE
  5
16
330
5
100
AcDbSymbolTableRecord
100
AcDbLinetypeTableRecord
  2
Continuous
 70
     0
  3
Solid line
 72
    65
 73
     0
 40
0.0
  0
LTYPE
  5
3F
330
5
100
AcDbSymbolTableRecord
100
AcDbLinetypeTableRecord
  2
HIDDEN
 70
     0
  3
Hidden __ __ __ __ __ __ __ __ __ __ __ __ __ __
 72
    65
 73
     2
 40
1.905
 49
1.27
 74
     0
 49
-0.635
 74
     0
  0
LTYPE
  5
40
330
5
100
AcDbSymbolTableRecord
100
AcDbLinetypeTableRecord
  2
PHANTOM
 70
     0
  3
Phantom ______  __  __  ______  __  __  ______
 72
    65
 73
     6
 40
12.7
 49
6.35
 74
     0
 49
-1.27
 74
     0
 49
1.27
 74
     0
 49
-1.27
 74
     0
 49
1.27
 74
     0
 49
-1.27
 74
     0
  0
LTYPE
  5
41
330
5
100
AcDbSymbolTableRecord
100
AcDbLinetypeTableRecord
  2
CENTER
 70
     0
  3
Center ____ _ ____ _ ____ _ ____ _ ____ _ ____
 72
    65
 73
     4
 40
10.16
 49
6.35
 74
     0
 49
-1.27
 74
     0
 49
1.27
 74
     0
 49
-1.27
 74
     0
  0
LTYPE
  5
42
330
5
100
AcDbSymbolTableRecord
100
AcDbLinetypeTableRecord
  2
CENTERX2
 70
     0
  3
Center (2x) ________  __  ________  __  _____
 72
    65
 73
     4
 40
20.32
 49
12.7
 74
     0
 49
-2.54
 74
     0
 49
2.54
 74
     0
 49
-2.54
 74
     0
  0
LTYPE
  5
43
330
5
100
AcDbSymbolTableRecord
100
AcDbLinetypeTableRecord
  2
DOT2
 70
     0
  3
Dot (.5x) ........................................
 72
    65
 73
     2
 40
0.635
 49
0.0
 74
     0
 49
-0.635
 74
     0
  0
ENDTAB
  0
TABLE
  2
LAYER
  5
2
330
0
100
AcDbSymbolTable
 70
     5
  0
LAYER
  5
10
330
2
100
AcDbSymbolTableRecord
100
AcDbLayerTableRecord
  2
0
 70
     0
 62
     7
  6
Continuous
370
    -3
390
F
  0
LAYER
  5
44
330
2
100
AcDbSymbolTableRecord
100
AcDbLayerTableRecord
  2
FORMAT
 70
     0
 62
     7
  6
Continuous
370
    -3
390
F
  0
LAYER
  5
45
330
2
100
AcDbSymbolTableRecord
100
AcDbLayerTableRecord
  2
VERMASSUNG
 70
     0
 62
     7
  6
Continuous
370
    -3
390
F
  0
LAYER
  5
46
330
2
100
AcDbSymbolTableRecord
100
AcDbLayerTableRecord
  2
KOPF_DÜNN
 70
     0
 62
     7
  6
Continuous
370
    -3
390
F
  0
LAYER
  5
47
330
2
100
AcDbSymbolTableRecord
100
AcDbLayerTableRecord
  2
KOPF_DICK
 70
     0
 62
     7
  6
Continuous
370
    15
390
F
  0
ENDTAB
  0
TABLE
  2
STYLE
  5
3
330
0
100
AcDbSymbolTable
 70
     2
  0
STYLE
  5
11
330
3
100
AcDbSymbolTableRecord
100
AcDbTextStyleTableRecord
  2
Standard
 70
     0
 40
0.0
 41
1.0
 50
0.0
 71
     0
 42
2.5
  3
txt
  4

  0
STYLE
  5
48
330
3
100
AcDbSymbolTableRecord
100
AcDbTextStyleTableRecord
  2
SLDTEXTSTYLE0
 70
     0
 40
0.0
 41
0.7
 50
0.0
 71
     0
 42
0.2
  3
TXT
  4

  0
ENDTAB
  0
TABLE
  2
VIEW
  5
6
330
0
100
AcDbSymbolTable
 70
     0
  0
ENDTAB
  0
TABLE
  2
UCS
  5
7
330
0
100
AcDbSymbolTable
 70
     0
  0
ENDTAB
  0
TABLE
  2
APPID
  5
9
330
0
100
AcDbSymbolTable
 70
     1
  0
APPID
  5
12
330
9
100
AcDbSymbolTableRecord
100
AcDbRegAppTableRecord
  2
ACAD
 70
     0
  0
ENDTAB
  0
TABLE
  2
DIMSTYLE
  5
A
330
0
100
AcDbSymbolTable
 70
     3
100
AcDbDimStyleTable
  0
DIMSTYLE
105
27
330
A
100
AcDbSymbolTableRecord
100
AcDbDimStyleTableRecord
  2
ISO-25
 70
     0
 41
2.5
 42
0.625
 43
3.75
 44
1.25
 73
     0
 74
     0
 77
     1
 78
     8
140
2.5
141
2.5
143
0.0393700787
147
0.625
171
     3
172
     1
178
     0
271
     2
272
     2
274
     3
278
    44
283
     0
284
     8
340
11
  0
DIMSTYLE
105
253
102
{ACAD_REACTORS
330
252
102
}
330
A
100
AcDbSymbolTableRecord
100
AcDbDimStyleTableRecord
  2
SLDDIMSTYLE0
 70
     0
 41
3.0
 44
0.0
 45
0.000000001
 73
     0
 74
     0
 77
     1
 78
    12
 79
     3
140
2.0
147
0.5
173
     1
178
     0
271
     2
272
     3
276
     2
284
    12
340
48
  0
DIMSTYLE
105
25D
102
{ACAD_REACTORS
330
25C
330
267
102
}
330
A
100
AcDbSymbolTableRecord
100
AcDbDimStyleTableRecord
  2
SLDDIMSTYLE1
 70
     0
 41
3.0
 44
0.0
 45
0.000000001
 73
     0
 74
     0
 77
     1
 78
    12
 79
     3
140
2.0
147
0.5
173
     1
178
     0
271
     2
272
     3
276
     2
284
    12
340
48
  0
ENDTAB
  0
TABLE
  2
BLOCK_RECORD
  5
1
330
0
100
AcDbSymbolTable
 70
     4
  0
BLOCK_RECORD
  5
1F
330
1
100
AcDbSymbolTableRecord
100
AcDbBlockTableRecord
  2
*Model_Space
340
22
  0
BLOCK_RECORD
  5
1B
330
1
100
AcDbSymbolTableRecord
100
AcDbBlockTableRecord
  2
*Paper_Space
340
1E
  0
BLOCK_RECORD
  5
23
330
1
100
AcDbSymbolTableRecord
100
AcDbBlockTableRecord
  2
*Paper_Space0
340
26
  0
BLOCK_RECORD
  5
254
330
1
100
AcDbSymbolTableRecord
100
AcDbBlockTableRecord
  2
*D1
340
0
  0
BLOCK_RECORD
  5
25E
330
1
100
AcDbSymbolTableRecord
100
AcDbBlockTableRecord
  2
*D2
340
0
  0
BLOCK_RECORD
  5
268
330
1
100
AcDbSymbolTableRecord
100
AcDbBlockTableRecord
  2
*D3
340
0
  0
ENDTAB
  0
ENDSEC
  0
SECTION
  2
BLOCKS
  0
BLOCK
  5
20
330
1F
100
AcDbEntity
  8
0
100
AcDbBlockBegin
  2
*Model_Space
 70
     0
 10
0.0
 20
0.0
 30
0.0
  3
*Model_Space
  1

  0
ENDBLK
  5
21
330
1F
100
AcDbEntity
  8
0
100
AcDbBlockEnd
  0
BLOCK
  5
1C
330
1B
100
AcDbEntity
 67
     1
  8
0
100
AcDbBlockBegin
  2
*Paper_Space
 70
     0
 10
0.0
 20
0.0
 30
0.0
  3
*Paper_Space
  1

  0
ENDBLK
  5
1D
330
1B
100
AcDbEntity
 67
     1
  8
0
100
AcDbBlockEnd
  0
BLOCK
  5
24
330
23
100
AcDbEntity
  8
0
100
AcDbBlockBegin
  2
*Paper_Space0
 70
     0
 10
0.0
 20
0.0
 30
0.0
  3
*Paper_Space0
  1

  0
ENDBLK
  5
25
330
23
100
AcDbEntity
  8
0
100
AcDbBlockEnd
  0
BLOCK
  5
255
330
254
100
AcDbEntity
  8
0
100
AcDbBlockBegin
  2
*D1
 70
     1
 10
0.0
 20
0.0
 30
0.0
  3
*D1
  1

  0
SOLID
  5
257
330
254
100
AcDbEntity
  8
VERMASSUNG
100
AcDbTrace
 10
199.8556078756
 20
141.8038986892
 30
0.0
 11
199.4056078756
 21
138.8038986892
 31
0.0
 12
200.3056078756
 22
138.8038986892
 32
0.0
 13
200.3056078756
 23
138.8038986892
 33
0.0
  0
LINE
  5
258
330
254
100
AcDbEntity
  8
VERMASSUNG
100
AcDbLine
 10
187.3930009929
 20
141.8038986892
 30
0.0
 11
200.8556078756
 21
141.8038986892
 31
0.0
  0
LINE
  5
259
330
254
100
AcDbEntity
  8
VERMASSUNG
100
AcDbLine
 10
199.8556078756
 20
141.8038986892
 30
0.0
 11
199.8556078756
 21
125.8288979195
 31
0.0
  0
MTEXT
  5
25A
330
254
100
AcDbEntity
  8
VERMASSUNG
100
AcDbMText
 10
193.4774724484
 20
126.1288983413
 30
0.1
 40
2.0
 41
0.0
 71
     1
 72
     1
  1
Ø39.9-51.1
  7
SLDTEXTSTYLE0
 11
-7.044195017643634E-15
 21
1.0
 31
0.0
 73
     1
 44
1.0
  0
MTEXT
  5
25B
330
254
100
AcDbEntity
  8
VERMASSUNG
100
AcDbMText
 10
197.2774725125
 20
125.8288979195
 30
0.1
 40
2.0
 41
0.0
 71
     1
 72
     1
  1
Ø47.9-59.1
  7
SLDTEXTSTYLE0
 11
-7.044195017643634E-15
 21
1.0
 31
0.0
 73
     1
 44
1.0
  0
ENDBLK
  5
256
330
254
100
AcDbEntity
  8
0
100
AcDbBlockEnd
  0
BLOCK
  5
25F
330
25E
100
AcDbEntity
  8
0
100
AcDbBlockBegin
  2
*D2
 70
     1
 10
0.0
 20
0.0
 30
0.0
  3
*D2
  1

  0
SOLID
  5
261
330
25E
100
AcDbEntity
  8
VERMASSUNG
100
AcDbTrace
 10
120.8334941154
 20
146.401583832
 30
0.0
 11
123.8334941154
 21
145.951583832
 31
0.0
 12
123.8334941154
 22
146.851583832
 32
0.0
 13
123.8334941154
 23
146.851583832
 33
0.0
  0
SOLID
  5
262
330
25E
100
AcDbEntity
  8
VERMASSUNG
100
AcDbTrace
 10
186.8334941154
 20
146.401583832
 30
0.0
 11
183.8334941154
 21
146.851583832
 31
0.0
 12
183.8334941154
 22
145.951583832
 32
0.0
 13
183.8334941154
 23
145.951583832
 33
0.0
  0
LINE
  5
263
330
25E
100
AcDbEntity
  8
VERMASSUNG
100
AcDbLine
 10
120.8334941154
 20
138.1538986892
 30
0.0
 11
120.8334941154
 21
147.401583832
 31
0.0
  0
LINE
  5
264
330
25E
100
AcDbEntity
  8
VERMASSUNG
100
AcDbLine
 10
186.8334941154
 20
143.1807188396
 30
0.0
 11
186.8334941154
 21
147.401583832
 31
0.0
  0
LINE
  5
265
330
25E
100
AcDbEntity
  8
VERMASSUNG
100
AcDbLine
 10
120.8334941154
 20
146.401583832
 30
0.0
 11
186.8334941154
 21
146.401583832
 31
0.0
  0
MTEXT
  5
266
330
25E
100
AcDbEntity
  8
VERMASSUNG
100
AcDbMText
 10
151.5334940643
 20
148.9797191951
 30
0.1
 40
2.0
 41
0.0
 71
     1
 72
     1
  1
66
  7
SLDTEXTSTYLE0
 73
     1
 44
1.0
  0
ENDBLK
  5
260
330
25E
100
AcDbEntity
  8
0
100
AcDbBlockEnd
  0
BLOCK
  5
269
330
268
100
AcDbEntity
  8
0
100
AcDbBlockBegin
  2
*D3
 70
     1
 10
0.0
 20
0.0
 30
0.0
  3
*D3
  1

  0
SOLID
  5
26B
330
268
100
AcDbEntity
  8
VERMASSUNG
100
AcDbTrace
 10
92.1170714342
 20
138.6538986892
 30
0.0
 11
91.6670714342
 21
135.6538986892
 31
0.0
 12
92.5670714342
 22
135.6538986892
 32
0.0
 13
92.5670714342
 23
135.6538986892
 33
0.0
  0
SOLID
  5
26C
330
268
100
AcDbEntity
  8
VERMASSUNG
100
AcDbTrace
 10
92.1170714342
 20
106.6538986892
 30
0.0
 11
92.5670714342
 21
109.6538986892
 31
0.0
 12
91.6670714342
 22
109.6538986892
 32
0.0
 13
91.6670714342
 23
109.6538986892
 33
0.0
  0
LINE
  5
26D
330
268
100
AcDbEntity
  8
VERMASSUNG
100
AcDbLine
 10
121.3334941154
 20
138.6538986892
 30
0.0
 11
91.1170714342
 21
138.6538986892
 31
0.0
  0
LINE
  5
26E
330
268
100
AcDbEntity
  8
VERMASSUNG
100
AcDbLine
 10
121.3334941154
 20
106.6538986892
 30
0.0
 11
91.1170714342
 21
106.6538986892
 31
0.0
  0
LINE
  5
26F
330
268
100
AcDbEntity
  8
VERMASSUNG
100
AcDbLine
 10
92.1170714342
 20
138.6538986892
 30
0.0
 11
92.1170714342
 21
106.6538986892
 31
0.0
  0
MTEXT
  5
270
330
268
100
AcDbEntity
  8
VERMASSUNG
100
AcDbMText
 10
89.3389359452
 20
116.6488983661
 30
0.1
 40
2.0
 41
0.0
 71
     1
 72
     1
  1
WH
  7
SLDTEXTSTYLE0
 11
-7.044195017643634E-15
 21
1.0
 31
0.0
 73
     1
 44
1.0
  0
MTEXT
  5
271
330
268
100
AcDbEntity
  8
VERMASSUNG
100
AcDbMText
 10
89.5389359547
 20
120.4488984302
 30
0.1
 40
2.0
 41
0.0
 71
     1
 72
     1
  1
%%c
  7
SLDTEXTSTYLE0
 11
-7.044195017643634E-15
 21
1.0
 31
0.0
 73
     1
 44
1.0
  0
MTEXT
  5
272
330
268
100
AcDbEntity
  8
VERMASSUNG
100
AcDbMText
 10
89.3389359452
 20
124.0588984445
 30
0.1
 40
2.0
 41
0.0
 71
     1
 72
     1
  1
32
  7
SLDTEXTSTYLE0
 11
-7.044195017643634E-15
 21
1.0
 31
0.0
 73
     1
 44
1.0
  0
ENDBLK
  5
26A
330
268
100
AcDbEntity
  8
0
100
AcDbBlockEnd
  0
ENDSEC
  0
SECTION
  2
ENTITIES
  0
MTEXT
  5
49
330
1F
100
AcDbEntity
  8
KOPF_DÜNN
100
AcDbMText
 10
13.8892156294
 20
23.8442973028
 30
0.0
 40
3.0
 41
0.0
 71
     1
 72
     1
  1
C04.032.040.066
  7
SLDTEXTSTYLE0
 73
     1
 44
1.0
  0
MTEXT
  5
4A
330
1F
100
AcDbEntity
  8
VERMASSUNG
100
AcDbMText
 10
13.9329988022
 20
28.8834360957
 30
0.0
 40
3.0
 41
0.0
 71
     1
 72
     1
  1
Feinbohrkopf_Fine boring head ø32
  7
SLDTEXTSTYLE0
 73
     1
 44
1.0
  0
MTEXT
  5
4B
330
1F
100
AcDbEntity
  8
VERMASSUNG
100
AcDbMText
 10
98.8601118557
 20
13.8365368179
 30
0.0
 40
2.0
 41
0.0
 71
     1
 72
     1
  1
Datum: 04.08.2006
  7
SLDTEXTSTYLE0
 73
     1
 44
1.0
  0
MTEXT
  5
4C
330
1F
100
AcDbEntity
  8
VERMASSUNG
100
AcDbMText
 10
13.933048693
 20
18.0482802738
 30
0.0
 40
2.0
 41
0.0
 71
     1
 72
     1
  1
Wohlhaupter ø32
  7
SLDTEXTSTYLE0
 73
     1
 44
1.0
  0
MTEXT
  5
4D
330
1F
100
AcDbEntity
  8
VERMASSUNG
100
AcDbMText
 10
13.9808475933
 20
13.9090973692
 30
0.0
 40
2.0
 41
0.0
 71
     1
 72
     1
  1
Gewicht: 400g
  7
SLDTEXTSTYLE0
 73
     1
 44
1.0
  0
LINE
  5
4E
330
1F
100
AcDbEntity
  8
0
  6
Continuous
 62
     7
370
    15
100
AcDbLine
 10
161.558494318
 20
109.4038988457
 30
0.0
 11
161.5694317704
 21
109.3994974152
 31
0.0
  0
LINE
  5
4F
330
1F
100
AcDbEntity
  8
0
  6
Continuous
 62
     7
370
    15
100
AcDbLine
 10
162.9786345845
 20
108.8324812234
 30
0.0
 11
164.4417348986
 21
108.2437791855
 31
0.0
  0
LINE
  5
50
330
1F
100
AcDbEntity
  8
0
  6
Continuous
 62
     7
370
    15
100
AcDbLine
 10
164.6698493247
 20
108.1519926891
 30
0.0
 11
165.7834950571
 21
107.7038989395
 31
0.0
  0
LINE
  5
51
330
1F
100
AcDbEntity
  8
0
  6
Continuous
 62
     7
370
    15
100
AcDbLine
 10
174.1834956889
 20
107.7038989395
 30
0.0
 11
175.2033721392
 21
108.1142648116
 31
0.0
  0
LINE
  5
52
330
1F
100
AcDbEntity
  8
0
  6
Continuous
 62
     7
370
    15
100
AcDbLine
 10
175.3970574324
 20
108.1921969533
 30
0.0
 11
176.9883524363
 21
108.8324812234
 31
0.0
  0
LINE
  5
53
330
1F
100
AcDbEntity
  8
0
  6
Continuous
 62
     7
370
    15
100
AcDbLine
 10
178.3975552504
 20
109.3994974152
 30
0.0
 11
178.4084927028
 21
109.4038988457
 31
0.0
  0
LINE
  5
54
330
1F
100
AcDbEntity
  8
0
  6
Continuous
 62
     7
370
    15
100
AcDbLine
 10
178.4834939723
 20
131.9594726891
 30
0.0
 11
178.4834939723
 21
134.3538983718
 31
0.0
  0
LINE
  5
55
330
1F
100
AcDbEntity
  8
0
  6
Continuous
 62
     7
370
    15
100
AcDbLine
 10
178.4834939723
 20
134.3538983718
 30
0.0
 11
178.0834946518
 21
134.7538986236
 31
0.0
  0
LINE
  5
56
330
1F
100
AcDbEntity
  8
0
  6
Continuous
 62
     7
370
    15
100
AcDbLine
 10
162.6834947353
 20
135.5538991273
 30
0.0
 11
161.7408435529
 21
134.6112479449
 31
0.0
  0
LINE
  5
57
330
1F
100
AcDbEntity
  8
0
  6
Continuous
 62
     7
370
    15
100
AcDbLine
 10
121.3334941391
 20
106.6538979292
 30
0.0
 11
154.3848965054
 21
106.6538979292
 31
0.0
  0
LINE
  5
58
330
1F
100
AcDbEntity
  8
0
  6
Continuous
 62
     7
370
    15
100
AcDbLine
 10
154.7436568623
 20
138.6538994492
 30
0.0
 11
121.3334941391
 21
138.6538994492
 31
0.0
  0
ARC
  5
59
330
1F
100
AcDbEntity
  8
0
  6
Continuous
 62
     7
370
    15
100
AcDbCircle
 10
121.3334941154
 20
107.1538986892
 30
0.0
 40
0.5
100
AcDbArc
 50
180.0
 51
270.0
  0
ARC
  5
5A
330
1F
100
AcDbEntity
  8
0
  6
Continuous
 62
     7
370
    15
100
AcDbCircle
 10
121.3334941154
 20
138.1538986892
 30
0.0
 40
0.5
100
AcDbArc
 50
90.0
 51
180.0
  0
LINE
  5
5B
330
1F
100
AcDbEntity
  8
0
  6
Continuous
 62
     7
370
    15
100
AcDbLine
 10
182.1118075137
 20
109.4038988457
 30
0.0
 11
182.8334931021
 21
110.6538985849
 31
0.0
  0
ARC
  5
5C
330
1F
100
AcDbEntity
  8
0
  6
Continuous
 62
     7
370
    15
100
AcDbCircle
 10
120.4334941154
 20
113.4038986892
 30
0.0
 40
0.6000000000000054
100
AcDbArc
 50
48.1896851042
 51
90.0
  0
ARC
  5
5D
330
1F
100
AcDbEntity
  8
0
  6
Continuous
 62
     7
370
    15
100
AcDbCircle
 10
120.4334941154
 20
131.9038986892
 30
0.0
 40
0.6000000000000227
100
AcDbArc
 50
270.0
 51
311.8103148958
  0
LINE
  5
5E
330
1F
100
AcDbEntity
  8
0
  6
Continuous
 62
     7
370
    15
100
AcDbLine
 10
104.3334942048
 20
113.6538990766
 30
0.0
 11
118.3334941713
 21
113.6538990766
 31
0.0
  0
LINE
  5
5F
330
1F
100
AcDbEntity
  8
0
  6
Continuous
 62
     7
370
    15
100
AcDbLine
 10
118.3334941713
 20
131.6538983018
 30
0.0
 11
113.8202677218
 21
131.6538983018
 31
0.0
  0
LINE
  5
60
330
1F
100
AcDbEntity
  8
0
  6
Continuous
 62
     7
370
    15
100
AcDbLine
 10
118.3334941713
 20
113.6538990766
 30
0.0
 11
119.5634119182
 21
113.9834540889
 31
0.0
  0
LINE
  5
61
330
1F
100
AcDbEntity
  8
0
  6
Continuous
 62
     7
370
    15
100
AcDbLine
 10
119.5634119182
 20
131.3243432895
 30
0.0
 11
118.3334941713
 21
131.6538983018
 31
0.0
  0
LINE
  5
62
330
1F
100
AcDbEntity
  8
0
  6
Continuous
 62
     7
370
    15
100
AcDbLine
 10
104.3334942048
 20
131.6538983018
 30
0.0
 11
101.3493858015
 21
131.2607525841
 31
0.0
  0
LINE
  5
63
330
1F
100
AcDbEntity
  8
0
  6
Continuous
 62
     7
370
    15
100
AcDbLine
 10
101.3493858015
 20
114.0470447943
 30
0.0
 11
104.3334942048
 21
113.6538990766
 31
0.0
  0
ARC
  5
64
330
1F
100
AcDbEntity
  8
0
  6
Continuous
 62
     7
370
    15
100
AcDbCircle
 10
100.0334941154
 20
114.8638986892
 30
0.0
 40
1.200000000000003
100
AcDbArc
 50
180.0
 51
300.0
  0
ARC
  5
65
330
1F
100
AcDbEntity
  8
0
  6
Continuous
 62
     7
370
    15
100
AcDbCircle
 10
100.0334941154
 20
130.4438986892
 30
0.0
 40
1.200000000000003
100
AcDbArc
 50
60.0
 51
180.0
  0
LINE
  5
66
330
1F
100
AcDbEntity
  8
0
  6
Continuous
 62
     7
370
    15
100
AcDbLine
 10
100.6334949022
 20
113.8246682466
 30
0.0
 11
100.8448920881
 21
113.9467190013
 31
0.0
  0
LINE
  5
67
330
1F
100
AcDbEntity
  8
0
  6
Continuous
 62
     7
370
    15
100
AcDbLine
 10
100.8448920881
 20
131.3610783771
 30
0.0
 11
100.6334949022
 21
131.4831291318
 31
0.0
  0
ARC
  5
68
330
1F
100
AcDbEntity
  8
0
  6
Continuous
 62
     7
370
    15
100
AcDbCircle
 10
101.2448923152
 20
113.2538986892
 30
0.0
 40
0.800000000000001
100
AcDbArc
 50
82.4946962461
 51
120.0
  0
ARC
  5
69
330
1F
100
AcDbEntity
  8
0
  6
Continuous
 62
     7
370
    15
100
AcDbCircle
 10
101.2448923152
 20
132.0538986892
 30
0.0
 40
0.7999999999999869
100
AcDbArc
 50
240.0
 51
277.5053037539
  0
ARC
  5
6A
330
1F
100
AcDbEntity
  8
0
  6
Continuous
 62
     7
370
    15
100
AcDbCircle
 10
119.7187033966
 20
113.4038986892
 30
0.0
 40
0.6000000000000034
100
AcDbArc
 50
90.0
 51
105.0
  0
ARC
  5
6B
330
1F
100
AcDbEntity
  8
0
  6
Continuous
 62
     7
370
    15
100
AcDbCircle
 10
119.7187033966
 20
131.9038986892
 30
0.0
 40
0.6000000000000227
100
AcDbArc
 50
255.0
 51
270.0
  0
LINE
  5
6C
330
1F
100
AcDbEntity
  8
0
  6
Continuous
 62
     7
370
    15
100
AcDbLine
 10
119.7187034383
 20
114.0038984821
 30
0.0
 11
120.4334941255
 21
114.0038984821
 31
0.0
  0
LINE
  5
6D
330
1F
100
AcDbEntity
  8
0
  6
Continuous
 62
     7
370
    15
100
AcDbLine
 10
120.4334941255
 20
131.3038988963
 30
0.0
 11
119.7187034383
 21
131.3038988963
 31
0.0
  0
LINE
  5
6E
330
1F
100
AcDbEntity
  8
0
  6
Continuous
 62
     7
370
    15
100
AcDbLine
 10
171.4429449027
 20
124.6836768922
 30
0.0
 11
168.5240421181
 21
124.6836768922
 31
0.0
  0
LINE
  5
6F
330
1F
100
AcDbEntity
  8
0
  6
Continuous
 62
     7
370
    15
100
AcDbLine
 10
168.5240421181
 20
120.6241204862
 30
0.0
 11
171.4429449027
 21
120.6241204862
 31
0.0
  0
LINE
  5
70
330
1F
100
AcDbEntity
  8
0
  6
Continuous
 62
     7
370
    15
100
AcDbLine
 10
174.1296130901
 20
109.3931197182
 30
0.0
 11
174.1296130901
 21
109.4038988457
 31
0.0
  0
LINE
  5
71
330
1F
100
AcDbEntity
  8
0
  6
Continuous
 62
     7
370
    15
100
AcDbLine
 10
174.1296130901
 20
109.3931197182
 30
0.0
 11
173.9543530827
 21
109.3931197182
 31
0.0
  0
LINE
  5
72
330
1F
100
AcDbEntity
  8
0
  6
Continuous
 62
     7
370
    15
100
AcDbLine
 10
173.9543530827
 20
109.3931197182
 30
0.0
 11
173.9543530827
 21
109.4038988457
 31
0.0
  0
LINE
  5
73
330
1F
100
AcDbEntity
  8
0
  6
Continuous
 62
     7
370
    15
100
AcDbLine
 10
173.177700836
 20
109.3931197182
 30
0.0
 11
173.177700836
 21
109.4038988457
 31
0.0
  0
LINE
  5
74
330
1F
100
AcDbEntity
  8
0
  6
Continuous
 62
     7
370
    15
100
AcDbLine
 10
173.177700836
 20
109.3931197182
 30
0.0
 11
172.9917455201
 21
109.3931197182
 31
0.0
  0
LINE
  5
75
330
1F
100
AcDbEntity
  8
0
  6
Continuous
 62
     7
370
    15
100
AcDbLine
 10
172.9917455201
 20
109.3931197182
 30
0.0
 11
172.9917455201
 21
109.4038988457
 31
0.0
  0
LINE
  5
76
330
1F
100
AcDbEntity
  8
0
  6
Continuous
 62
     7
370
    15
100
AcDbLine
 10
172.1754189318
 20
109.3931197182
 30
0.0
 11
172.1754189318
 21
109.4038988457
 31
0.0
  0
LINE
  5
77
330
1F
100
AcDbEntity
  8
0
  6
Continuous
 62
     7
370
    15
100
AcDbLine
 10
172.1754189318
 20
109.3931197182
 30
0.0
 11
171.9817001109
 21
109.3931197182
 31
0.0
  0
LINE
  5
78
330
1F
100
AcDbEntity
  8
0
  6
Continuous
 62
     7
370
    15
100
AcDbLine
 10
171.9817001109
 20
109.3931197182
 30
0.0
 11
171.9817001109
 21
109.4038988457
 31
0.0
  0
LINE
  5
79
330
1F
100
AcDbEntity
  8
0
  6
Continuous
 62
     7
370
    15
100
AcDbLine
 10
171.1385626083
 20
109.3931197182
 30
0.0
 11
171.1385626083
 21
109.4038988457
 31
0.0
  0
LINE
  5
7A
330
1F
100
AcDbEntity
  8
0
  6
Continuous
 62
     7
370
    15
100
AcDbLine
 10
171.1385626083
 20
109.3931197182
 30
0.0
 11
170.9401424711
 21
109.3931197182
 31
0.0
  0
LINE
  5
7B
330
1F
100
AcDbEntity
  8
0
  6
Continuous
 62
     7
370
    15
100
AcDbLine
 10
170.9401424711
 20
109.3931197182
 30
0.0
 11
170.9401424711
 21
109.4038988457
 31
0.0
  0
LINE
  5
7C
330
1F
100
AcDbEntity
  8
0
  6
Continuous
 62
     7
370
    15
100
AcDbLine
 10
170.0834933405
 20
109.3931197182
 30
0.0
 11
170.0834933405
 21
109.4038988457
 31
0.0
  0
LINE
  5
7D
330
1F
100
AcDbEntity
  8
0
  6
Continuous
 62
     7
370
    15
100
AcDbLine
 10
170.0834933405
 20
109.3931197182
 30
0.0
 11
169.8834936803
 21
109.3931197182
 31
0.0
  0
LINE
  5
7E
330
1F
100
AcDbEntity
  8
0
  6
Continuous
 62
     7
370
    15
100
AcDbLine
 10
169.8834936803
 20
109.3931197182
 30
0.0
 11
169.8834936803
 21
109.4038988457
 31
0.0
  0
LINE
  5
7F
330
1F
100
AcDbEntity
  8
0
  6
Continuous
 62
     7
370
    15
100
AcDbLine
 10
169.026848275
 20
109.3931197182
 30
0.0
 11
169.026848275
 21
109.4038988457
 31
0.0
  0
LINE
  5
80
330
1F
100
AcDbEntity
  8
0
  6
Continuous
 62
     7
370
    15
100
AcDbLine
 10
169.026848275
 20
109.3931197182
 30
0.0
 11
168.8284244125
 21
109.3931197182
 31
0.0
  0
LINE
  5
81
330
1F
100
AcDbEntity
  8
0
  6
Continuous
 62
     7
370
    15
100
AcDbLine
 10
168.8284244125
 20
109.3931197182
 30
0.0
 11
168.8284244125
 21
109.4038988457
 31
0.0
  0
LINE
  5
82
330
1F
100
AcDbEntity
  8
0
  6
Continuous
 62
     7
370
    15
100
AcDbLine
 10
167.9852869099
 20
109.3931197182
 30
0.0
 11
167.9852869099
 21
109.4038988457
 31
0.0
  0
LINE
  5
83
330
1F
100
AcDbEntity
  8
0
  6
Continuous
 62
     7
370
    15
100
AcDbLine
 10
167.9852869099
 20
109.3931197182
 30
0.0
 11
167.7915718143
 21
109.3931197182
 31
0.0
  0
LINE
  5
84
330
1F
100
AcDbEntity
  8
0
  6
Continuous
 62
     7
370
    15
100
AcDbLine
 10
167.7915718143
 20
109.3931197182
 30
0.0
 11
167.7915718143
 21
109.4038988457
 31
0.0
  0
LINE
  5
85
330
1F
100
AcDbEntity
  8
0
  6
Continuous
 62
     7
370
    15
100
AcDbLine
 10
166.9752415006
 20
109.3931197182
 30
0.0
 11
166.9752415006
 21
109.4038988457
 31
0.0
  0
LINE
  5
86
330
1F
100
AcDbEntity
  8
0
  6
Continuous
 62
     7
370
    15
100
AcDbLine
 10
166.9752415006
 20
109.3931197182
 30
0.0
 11
166.7892861848
 21
109.3931197182
 31
0.0
  0
LINE
  5
87
330
1F
100
AcDbEntity
  8
0
  6
Continuous
 62
     7
370
    15
100
AcDbLine
 10
166.7892861848
 20
109.3931197182
 30
0.0
 11
166.7892861848
 21
109.4038988457
 31
0.0
  0
LINE
  5
88
330
1F
100
AcDbEntity
  8
0
  6
Continuous
 62
     7
370
    15
100
AcDbLine
 10
166.0126376634
 20
109.3931197182
 30
0.0
 11
166.0126376634
 21
109.4038988457
 31
0.0
  0
LINE
  5
89
330
1F
100
AcDbEntity
  8
0
  6
Continuous
 62
     7
370
    15
100
AcDbLine
 10
166.0126376634
 20
109.3931197182
 30
0.0
 11
165.8373739307
 21
109.3931197182
 31
0.0
  0
LINE
  5
8A
330
1F
100
AcDbEntity
  8
0
  6
Continuous
 62
     7
370
    15
100
AcDbLine
 10
165.8373739307
 20
109.3931197182
 30
0.0
 11
165.8373739307
 21
109.4038988457
 31
0.0
  0
LINE
  5
8B
330
1F
100
AcDbEntity
  8
0
  6
Continuous
 62
     7
370
    15
100
AcDbLine
 10
165.1126522308
 20
109.3931197182
 30
0.0
 11
165.1126522308
 21
109.4038988457
 31
0.0
  0
LINE
  5
8C
330
1F
100
AcDbEntity
  8
0
  6
Continuous
 62
     7
370
    15
100
AcDbLine
 10
165.1126522308
 20
109.3931197182
 30
0.0
 11
164.9508516972
 21
109.3931197182
 31
0.0
  0
LINE
  5
8D
330
1F
100
AcDbEntity
  8
0
  6
Continuous
 62
     7
370
    15
100
AcDbLine
 10
164.9508516972
 20
109.3931197182
 30
0.0
 11
164.9508516972
 21
109.4038988457
 31
0.0
  0
LINE
  5
8E
330
1F
100
AcDbEntity
  8
0
  6
Continuous
 62
     7
370
    15
100
AcDbLine
 10
164.2894897347
 20
109.3931197182
 30
0.0
 11
164.2894897347
 21
109.4038988457
 31
0.0
  0
LINE
  5
8F
330
1F
100
AcDbEntity
  8
0
  6
Continuous
 62
     7
370
    15
100
AcDbLine
 10
164.2894897347
 20
109.3931197182
 30
0.0
 11
164.1436930483
 21
109.3931197182
 31
0.0
  0
LINE
  5
90
330
1F
100
AcDbEntity
  8
0
  6
Continuous
 62
     7
370
    15
100
AcDbLine
 10
164.1436930483
 20
109.3931197182
 30
0.0
 11
164.1436930483
 21
109.4038988457
 31
0.0
  0
LINE
  5
91
330
1F
100
AcDbEntity
  8
0
  6
Continuous
 62
     7
370
    15
100
AcDbLine
 10
163.5561179107
 20
109.3931197182
 30
0.0
 11
163.5561179107
 21
109.4038988457
 31
0.0
  0
LINE
  5
92
330
1F
100
AcDbEntity
  8
0
  6
Continuous
 62
     7
370
    15
100
AcDbLine
 10
163.5561179107
 20
109.3931197182
 30
0.0
 11
163.4286347514
 21
109.3931197182
 31
0.0
  0
LINE
  5
93
330
1F
100
AcDbEntity
  8
0
  6
Continuous
 62
     7
370
    15
100
AcDbLine
 10
163.4286347514
 20
109.3931197182
 30
0.0
 11
163.4286347514
 21
109.4038988457
 31
0.0
  0
LINE
  5
94
330
1F
100
AcDbEntity
  8
0
  6
Continuous
 62
     7
370
    15
100
AcDbLine
 10
162.9241149609
 20
109.3931197182
 30
0.0
 11
162.9241149609
 21
109.4038988457
 31
0.0
  0
LINE
  5
95
330
1F
100
AcDbEntity
  8
0
  6
Continuous
 62
     7
370
    15
100
AcDbLine
 10
162.9241149609
 20
109.3931197182
 30
0.0
 11
162.8169495349
 21
109.3931197182
 31
0.0
  0
LINE
  5
96
330
1F
100
AcDbEntity
  8
0
  6
Continuous
 62
     7
370
    15
100
AcDbLine
 10
162.8169495349
 20
109.3931197182
 30
0.0
 11
162.8169495349
 21
109.4038988457
 31
0.0
  0
LINE
  5
97
330
1F
100
AcDbEntity
  8
0
  6
Continuous
 62
     7
370
    15
100
AcDbLine
 10
162.4034423118
 20
109.3931197182
 30
0.0
 11
162.4034423118
 21
109.4038988457
 31
0.0
  0
LINE
  5
98
330
1F
100
AcDbEntity
  8
0
  6
Continuous
 62
     7
370
    15
100
AcDbLine
 10
162.4034423118
 20
109.3931197182
 30
0.0
 11
162.3182859009
 21
109.3931197182
 31
0.0
  0
LINE
  5
99
330
1F
100
AcDbEntity
  8
0
  6
Continuous
 62
     7
370
    15
100
AcDbLine
 10
162.3182859009
 20
109.3931197182
 30
0.0
 11
162.3182859009
 21
109.4038988457
 31
0.0
  0
LINE
  5
9A
330
1F
100
AcDbEntity
  8
0
  6
Continuous
 62
     7
370
    15
100
AcDbLine
 10
162.002310503
 20
109.3931197182
 30
0.0
 11
162.002310503
 21
109.4038988457
 31
0.0
  0
LINE
  5
9B
330
1F
100
AcDbEntity
  8
0
  6
Continuous
 62
     7
370
    15
100
AcDbLine
 10
162.002310503
 20
109.3931197182
 30
0.0
 11
161.9405042117
 21
109.3931197182
 31
0.0
  0
LINE
  5
9C
330
1F
100
AcDbEntity
  8
0
  6
Continuous
 62
     7
370
    15
100
AcDbLine
 10
161.9405042117
 20
109.3931197182
 30
0.0
 11
161.9405042117
 21
109.4038988457
 31
0.0
  0
LINE
  5
9D
330
1F
100
AcDbEntity
  8
0
  6
Continuous
 62
     7
370
    15
100
AcDbLine
 10
161.7270450776
 20
109.3931197182
 30
0.0
 11
161.7270450776
 21
109.4038988457
 31
0.0
  0
LINE
  5
9E
330
1F
100
AcDbEntity
  8
0
  6
Continuous
 62
     7
370
    15
100
AcDbLine
 10
161.7270450776
 20
109.3931197182
 30
0.0
 11
161.6895686572
 21
109.3931197182
 31
0.0
  0
LINE
  5
9F
330
1F
100
AcDbEntity
  8
0
  6
Continuous
 62
     7
370
    15
100
AcDbLine
 10
161.6895686572
 20
109.3931197182
 30
0.0
 11
161.6895686572
 21
109.4038988457
 31
0.0
  0
LINE
  5
A0
330
1F
100
AcDbEntity
  8
0
  6
Continuous
 62
     7
370
    15
100
AcDbLine
 10
161.581989724
 20
109.3931197182
 30
0.0
 11
161.581989724
 21
109.4038988457
 31
0.0
  0
LINE
  5
A1
330
1F
100
AcDbEntity
  8
0
  6
Continuous
 62
     7
370
    15
100
AcDbLine
 10
161.581989724
 20
109.3931197182
 30
0.0
 11
161.5694317704
 21
109.3931197182
 31
0.0
  0
LINE
  5
A2
330
1F
100
AcDbEntity
  8
0
  6
Continuous
 62
     7
370
    15
100
AcDbLine
 10
161.5694317704
 20
109.3931197182
 30
0.0
 11
161.5694317704
 21
109.4038988457
 31
0.0
  0
LINE
  5
A3
330
1F
100
AcDbEntity
  8
0
  6
Continuous
 62
     7
370
    15
100
AcDbLine
 10
178.3975552504
 20
109.3931197182
 30
0.0
 11
178.3975552504
 21
109.4038988457
 31
0.0
  0
LINE
  5
A4
330
1F
100
AcDbEntity
  8
0
  6
Continuous
 62
     7
370
    15
100
AcDbLine
 10
178.3975552504
 20
109.3931197182
 30
0.0
 11
178.3849972968
 21
109.3931197182
 31
0.0
  0
LINE
  5
A5
330
1F
100
AcDbEntity
  8
0
  6
Continuous
 62
     7
370
    15
100
AcDbLine
 10
178.3849972968
 20
109.3931197182
 30
0.0
 11
178.3849972968
 21
109.4038988457
 31
0.0
  0
LINE
  5
A6
330
1F
100
AcDbEntity
  8
0
  6
Continuous
 62
     7
370
    15
100
AcDbLine
 10
178.2774183636
 20
109.3931197182
 30
0.0
 11
178.2774183636
 21
109.4038988457
 31
0.0
  0
LINE
  5
A7
330
1F
100
AcDbEntity
  8
0
  6
Continuous
 62
     7
370
    15
100
AcDbLine
 10
178.2774183636
 20
109.3931197182
 30
0.0
 11
178.2399419432
 21
109.3931197182
 31
0.0
  0
LINE
  5
A8
330
1F
100
AcDbEntity
  8
0
  6
Continuous
 62
     7
370
    15
100
AcDbLine
 10
178.2399419432
 20
109.3931197182
 30
0.0
 11
178.2399419432
 21
109.4038988457
 31
0.0
  0
LINE
  5
A9
330
1F
100
AcDbEntity
  8
0
  6
Continuous
 62
     7
370
    15
100
AcDbLine
 10
178.0264828091
 20
109.3931197182
 30
0.0
 11
178.0264828091
 21
109.4038988457
 31
0.0
  0
LINE
  5
AA
330
1F
100
AcDbEntity
  8
0
  6
Continuous
 62
     7
370
    15
100
AcDbLine
 10
178.0264828091
 20
109.3931197182
 30
0.0
 11
177.964680243
 21
109.3931197182
 31
0.0
  0
LINE
  5
AB
330
1F
100
AcDbEntity
  8
0
  6
Continuous
 62
     7
370
    15
100
AcDbLine
 10
177.964680243
 20
109.3931197182
 30
0.0
 11
177.964680243
 21
109.4038988457
 31
0.0
  0
LINE
  5
AC
330
1F
100
AcDbEntity
  8
0
  6
Continuous
 62
     7
370
    15
100
AcDbLine
 10
177.6487011199
 20
109.3931197182
 30
0.0
 11
177.6487011199
 21
109.4038988457
 31
0.0
  0
LINE
  5
AD
330
1F
100
AcDbEntity
  8
0
  6
Continuous
 62
     7
370
    15
100
AcDbLine
 10
177.6487011199
 20
109.3931197182
 30
0.0
 11
177.5635484343
 21
109.3931197182
 31
0.0
  0
LINE
  5
AE
330
1F
100
AcDbEntity
  8
0
  6
Continuous
 62
     7
370
    15
100
AcDbLine
 10
177.5635484343
 20
109.3931197182
 30
0.0
 11
177.5635484343
 21
109.4038988457
 31
0.0
  0
LINE
  5
AF
330
1F
100
AcDbEntity
  8
0
  6
Continuous
 62
     7
370
    15
100
AcDbLine
 10
177.1500374859
 20
109.3931197182
 30
0.0
 11
177.1500374859
 21
109.4038988457
 31
0.0
  0
LINE
  5
B0
330
1F
100
AcDbEntity
  8
0
  6
Continuous
 62
     7
370
    15
100
AcDbLine
 10
177.1500374859
 20
109.3931197182
 30
0.0
 11
177.0428720599
 21
109.3931197182
 31
0.0
  0
LINE
  5
B1
330
1F
100
AcDbEntity
  8
0
  6
Continuous
 62
     7
370
    15
100
AcDbLine
 10
177.0428720599
 20
109.3931197182
 30
0.0
 11
177.0428720599
 21
109.4038988457
 31
0.0
  0
LINE
  5
B2
330
1F
100
AcDbEntity
  8
0
  6
Continuous
 62
     7
370
    15
100
AcDbLine
 10
176.5383522694
 20
109.3931197182
 30
0.0
 11
176.5383522694
 21
109.4038988457
 31
0.0
  0
LINE
  5
B3
330
1F
100
AcDbEntity
  8
0
  6
Continuous
 62
     7
370
    15
100
AcDbLine
 10
176.5383522694
 20
109.3931197182
 30
0.0
 11
176.4108691101
 21
109.3931197182
 31
0.0
  0
LINE
  5
B4
330
1F
100
AcDbEntity
  8
0
  6
Continuous
 62
     7
370
    15
100
AcDbLine
 10
176.4108691101
 20
109.3931197182
 30
0.0
 11
176.4108691101
 21
109.4038988457
 31
0.0
  0
LINE
  5
B5
330
1F
100
AcDbEntity
  8
0
  6
Continuous
 62
     7
370
    15
100
AcDbLine
 10
175.8232939725
 20
109.3931197182
 30
0.0
 11
175.8232939725
 21
109.4038988457
 31
0.0
  0
LINE
  5
B6
330
1F
100
AcDbEntity
  8
0
  6
Continuous
 62
     7
370
    15
100
AcDbLine
 10
175.8232939725
 20
109.3931197182
 30
0.0
 11
175.6775010114
 21
109.3931197182
 31
0.0
  0
LINE
  5
B7
330
1F
100
AcDbEntity
  8
0
  6
Continuous
 62
     7
370
    15
100
AcDbLine
 10
175.6775010114
 20
109.3931197182
 30
0.0
 11
175.6775010114
 21
109.4038988457
 31
0.0
  0
LINE
  5
B8
330
1F
100
AcDbEntity
  8
0
  6
Continuous
 62
     7
370
    15
100
AcDbLine
 10
175.0161390488
 20
109.3931197182
 30
0.0
 11
175.0161390488
 21
109.4038988457
 31
0.0
  0
LINE
  5
B9
330
1F
100
AcDbEntity
  8
0
  6
Continuous
 62
     7
370
    15
100
AcDbLine
 10
175.0161390488
 20
109.3931197182
 30
0.0
 11
174.85433479
 21
109.3931197182
 31
0.0
  0
LINE
  5
BA
330
1F
100
AcDbEntity
  8
0
  6
Continuous
 62
     7
370
    15
100
AcDbLine
 10
174.85433479
 20
109.3931197182
 30
0.0
 11
174.85433479
 21
109.4038988457
 31
0.0
  0
SPLINE
  5
BB
330
1F
100
AcDbEntity
  8
0
  6
Continuous
 62
     7
370
    15
100
AcDbSpline
210
0.0
220
0.0
230
1.0
 70
     8
 71
     3
 72
     9
 73
     5
 74
     0
 42
0.00000001
 43
0.00000001
 40
0.0
 40
0.0
 40
0.0
 40
0.0
 40
0.5000093131443019
 40
1.0
 40
1.0
 40
1.0
 40
1.0
 10
169.8834936802723
 20
108.5082356811004
 30
0.0
 10
169.9168275778662
 20
108.5080740946272
 30
0.0
 10
169.9834941313035
 20
108.5077509277002
 30
0.0
 10
170.0501606847019
 20
108.5080740986402
 30
0.0
 10
170.0834933405258
 20
108.5082356811004
 30
0.0
  0
LINE
  5
BC
330
1F
100
AcDbEntity
  8
0
  6
Continuous
 62
     7
370
    15
100
AcDbLine
 10
169.8834936803
 20
109.3931197182
 30
0.0
 11
169.8834936803
 21
108.5082356811
 31
0.0
  0
LINE
  5
BD
330
1F
100
AcDbEntity
  8
0
  6
Continuous
 62
     7
370
    15
100
AcDbLine
 10
170.0834933405
 20
108.5082356811
 30
0.0
 11
170.0834933405
 21
109.3931197182
 31
0.0
  0
LINE
  5
BE
330
1F
100
AcDbEntity
  8
0
  6
Continuous
 62
     7
370
    15
100
AcDbLine
 10
174.6302809303
 20
108.2132113159
 30
0.0
 11
174.4224693363
 21
108.1278826103
 31
0.0
  0
LINE
  5
BF
330
1F
100
AcDbEntity
  8
0
  6
Continuous
 62
     7
370
    15
100
AcDbLine
 10
174.5986420398
 20
108.0740512342
 30
0.0
 11
174.3844452982
 21
107.9842698753
 31
0.0
  0
LINE
  5
C0
330
1F
100
AcDbEntity
  8
0
  6
Continuous
 62
     7
370
    15
100
AcDbLine
 10
175.6464246397
 20
108.4659964771
 30
0.0
 11
175.5563210433
 21
108.47618794
 31
0.0
  0
LINE
  5
C1
330
1F
100
AcDbEntity
  8
0
  6
Continuous
 62
     7
370
    15
100
AcDbLine
 10
175.5563210433
 20
108.47618794
 30
0.0
 11
174.8214255755
 21
108.167530875
 31
0.0
  0
LINE
  5
C2
330
1F
100
AcDbEntity
  8
0
  6
Continuous
 62
     7
370
    15
100
AcDbLine
 10
174.8214255755
 20
108.167530875
 30
0.0
 11
174.6302809303
 21
108.2132113159
 31
0.0
  0
LINE
  5
C3
330
1F
100
AcDbEntity
  8
0
  6
Continuous
 62
     7
370
    15
100
AcDbLine
 10
169.983495373
 20
107.7038989395
 30
0.0
 11
174.1834956889
 21
107.7038989395
 31
0.0
  0
LINE
  5
C4
330
1F
100
AcDbEntity
  8
0
  6
Continuous
 62
     7
370
    15
100
AcDbLine
 10
165.7834950571
 20
107.7038989395
 30
0.0
 11
169.983495373
 21
107.7038989395
 31
0.0
  0
LWPOLYLINE
  5
C5
330
1F
100
AcDbEntity
  8
0
  6
Continuous
 62
     7
370
    15
100
AcDbPolyline
 90
        4
 70
   128
 43
0.0
 10
173.5615547483
 20
108.5190148086
 10
174.1574000304
 20
108.9268540025
 10
174.6696758752
 20
109.2774997458
 10
174.85433479
 20
109.4038988457
  0
LINE
  5
C6
330
1F
100
AcDbEntity
  8
0
  6
Continuous
 62
     7
370
    15
100
AcDbLine
 10
174.7195388859
 20
108.8408715085
 30
0.0
 11
175.6775010114
 21
109.4038988457
 31
0.0
  0
LINE
  5
C7
330
1F
100
AcDbEntity
  8
0
  6
Continuous
 62
     7
370
    15
100
AcDbLine
 10
175.332606185
 20
108.8408715085
 30
0.0
 11
176.4108691101
 21
109.4038988457
 31
0.0
  0
LINE
  5
C8
330
1F
100
AcDbEntity
  8
0
  6
Continuous
 62
     7
370
    15
100
AcDbLine
 10
175.8613142853
 20
108.8408715085
 30
0.0
 11
177.0428720599
 21
109.4038988457
 31
0.0
  0
LINE
  5
C9
330
1F
100
AcDbEntity
  8
0
  6
Continuous
 62
     7
370
    15
100
AcDbLine
 10
176.2973259871
 20
108.8408715085
 30
0.0
 11
177.5635484343
 21
109.4038988457
 31
0.0
  0
LWPOLYLINE
  5
CA
330
1F
100
AcDbEntity
  8
0
  6
Continuous
 62
     7
370
    15
100
AcDbPolyline
 90
        4
 70
   128
 43
0.0
 10
175.8729185646
 20
108.5190148086
 10
176.8370162433
 20
108.9268540025
 10
177.6658933347
 20
109.2774997458
 10
177.964680243
 20
109.4038988457
  0
LINE
  5
CB
330
1F
100
AcDbEntity
  8
0
  6
Continuous
 62
     7
370
    15
100
AcDbLine
 10
176.8653247242
 20
108.8408715085
 30
0.0
 11
178.2399419432
 21
109.4038988457
 31
0.0
  0
LINE
  5
CC
330
1F
100
AcDbEntity
  8
0
  6
Continuous
 62
     7
370
    15
100
AcDbLine
 10
176.9883524363
 20
108.8408715085
 30
0.0
 11
178.3849972968
 21
109.4038988457
 31
0.0
  0
LINE
  5
CD
330
1F
100
AcDbEntity
  8
0
  6
Continuous
 62
     7
370
    15
100
AcDbLine
 10
161.581989724
 20
109.4038988457
 30
0.0
 11
162.9786345845
 21
108.8408715085
 31
0.0
  0
LINE
  5
CE
330
1F
100
AcDbEntity
  8
0
  6
Continuous
 62
     7
370
    15
100
AcDbLine
 10
161.7270450776
 20
109.4038988457
 30
0.0
 11
163.1016660219
 21
108.8408715085
 31
0.0
  0
LWPOLYLINE
  5
CF
330
1F
100
AcDbEntity
  8
0
  6
Continuous
 62
     7
370
    15
100
AcDbPolyline
 90
        3
 70
   128
 43
0.0
 10
162.002310503
 20
109.4038988457
 10
162.3010936861
 20
109.2774997458
 10
164.0940684562
 20
108.5190148086
  0
LINE
  5
D0
330
1F
100
AcDbEntity
  8
0
  6
Continuous
 62
     7
370
    15
100
AcDbLine
 10
162.4034423118
 20
109.4038988457
 30
0.0
 11
163.6696610337
 21
108.8408715085
 31
0.0
  0
LINE
  5
D1
330
1F
100
AcDbEntity
  8
0
  6
Continuous
 62
     7
370
    15
100
AcDbLine
 10
162.9241149609
 20
109.4038988457
 30
0.0
 11
164.1056727355
 21
108.8408715085
 31
0.0
  0
LINE
  5
D2
330
1F
100
AcDbEntity
  8
0
  6
Continuous
 62
     7
370
    15
100
AcDbLine
 10
163.5561179107
 20
109.4038988457
 30
0.0
 11
164.6343808358
 21
108.8408715085
 31
0.0
  0
LINE
  5
D3
330
1F
100
AcDbEntity
  8
0
  6
Continuous
 62
     7
370
    15
100
AcDbLine
 10
164.2894897347
 20
109.4038988457
 30
0.0
 11
165.2474481349
 21
108.8408715085
 31
0.0
  0
LWPOLYLINE
  5
D4
330
1F
100
AcDbEntity
  8
0
  6
Continuous
 62
     7
370
    15
100
AcDbPolyline
 90
        3
 70
   128
 43
0.0
 10
165.1126522308
 20
109.4038988457
 10
165.2973111456
 20
109.2774997458
 10
166.4054322725
 20
108.5190148086
  0
LINE
  5
D5
330
1F
100
AcDbEntity
  8
0
  6
Continuous
 62
     7
370
    15
100
AcDbLine
 10
166.0126376634
 20
109.4038988457
 30
0.0
 11
166.6868034487
 21
108.8408715085
 31
0.0
  0
LINE
  5
D6
330
1F
100
AcDbEntity
  8
0
  6
Continuous
 62
     7
370
    15
100
AcDbLine
 10
166.9752415006
 20
109.4038988457
 30
0.0
 11
167.4903969949
 21
108.8408715085
 31
0.0
  0
LINE
  5
D7
330
1F
100
AcDbEntity
  8
0
  6
Continuous
 62
     7
370
    15
100
AcDbLine
 10
167.9852869099
 20
109.4038988457
 30
0.0
 11
168.3333072548
 21
108.8408715085
 31
0.0
  0
LINE
  5
D8
330
1F
100
AcDbEntity
  8
0
  6
Continuous
 62
     7
370
    15
100
AcDbLine
 10
169.026848275
 20
109.4038988457
 30
0.0
 11
169.2022386675
 21
108.8408715085
 31
0.0
  0
LINE
  5
D9
330
1F
100
AcDbEntity
  8
0
  6
Continuous
 62
     7
370
    15
100
AcDbLine
 10
170.7647483533
 20
108.8408715085
 30
0.0
 11
170.9401424711
 21
109.4038988457
 31
0.0
  0
LINE
  5
DA
330
1F
100
AcDbEntity
  8
0
  6
Continuous
 62
     7
370
    15
100
AcDbLine
 10
171.6336834913
 20
108.8408715085
 30
0.0
 11
171.9817001109
 21
109.4038988457
 31
0.0
  0
LINE
  5
DB
330
1F
100
AcDbEntity
  8
0
  6
Continuous
 62
     7
370
    15
100
AcDbLine
 10
172.4765900259
 20
108.8408715085
 30
0.0
 11
172.9917455201
 21
109.4038988457
 31
0.0
  0
LINE
  5
DC
330
1F
100
AcDbEntity
  8
0
  6
Continuous
 62
     7
370
    15
100
AcDbLine
 10
173.2801835721
 20
108.8408715085
 30
0.0
 11
173.9543530827
 21
109.4038988457
 31
0.0
  0
SPLINE
  5
DD
330
1F
100
AcDbEntity
  8
0
  6
Continuous
 62
     7
370
    15
100
AcDbSpline
210
0.0
220
0.0
230
1.0
 70
     8
 71
     3
 72
    10
 73
     6
 74
     0
 42
0.00000001
 43
0.00000001
 40
0.0
 40
0.0
 40
0.0
 40
0.0
 40
0.2510366179090868
 40
0.5021756400390444
 40
1.0
 40
1.0
 40
1.0
 40
1.0
 10
169.9657853429653
 20
108.4335231215196
 30
0.0
 10
169.874798487457
 20
108.4335304871074
 30
0.0
 10
169.6927876605878
 20
108.4335452212876
 30
0.0
 10
169.3291941092629
 20
108.4331832634174
 30
0.0
 10
169.0717795883246
 20
108.4135383785811
 30
0.0
 10
168.9006801431515
 20
108.4004807278948
 30
0.0
  0
SPLINE
  5
DE
330
1F
100
AcDbEntity
  8
0
  6
Continuous
 62
     7
370
    15
100
AcDbSpline
210
0.0
220
0.0
230
1.0
 70
     8
 71
     3
 72
    10
 73
     6
 74
     0
 42
0.00000001
 43
0.00000001
 40
0.0
 40
0.0
 40
0.0
 40
0.0
 40
0.4154583645805743
 40
0.707041181944793
 40
1.0
 40
1.0
 40
1.0
 40
1.0
 10
168.9006801431515
 20
108.4004807278948
 30
0.0
 10
168.8414168700124
 20
108.3879753332777
 30
0.0
 10
168.74056061519
 20
108.3666932271881
 30
0.0
 10
168.6612448030315
 20
108.3129047529477
 30
0.0
 10
168.6538619414928
 20
108.2757908598204
 30
0.0
 10
168.6501618211605
 20
108.2571902305322
 30
0.0
  0
SPLINE
  5
DF
330
1F
100
AcDbEntity
  8
0
  6
Continuous
 62
     7
370
    15
100
AcDbSpline
210
0.0
220
0.0
230
1.0
 70
     8
 71
     3
 72
    12
 73
     8
 74
     0
 42
0.00000001
 43
0.00000001
 40
0.0
 40
0.0
 40
0.0
 40
0.0
 40
0.1311471605155119
 40
0.2266398155615243
 40
0.3435106200328685
 40
0.548446715777051
 40
0.9999999999999999
 40
0.9999999999999999
 40
0.9999999999999999
 40
0.9999999999999999
 10
171.2834950273373
 20
108.2540200084882
 30
0.0
 10
171.2765756051599
 20
108.2795938694185
 30
0.0
 10
171.2646179191535
 20
108.3237889179553
 30
0.0
 10
171.1552728952073
 20
108.3729370180119
 30
0.0
 10
170.9705118313873
 20
108.4097809448761
 30
0.0
 10
170.5662773085086
 20
108.4353117390837
 30
0.0
 10
170.210499854377
 20
108.4342520249828
 30
0.0
 10
169.9657853429653
 20
108.4335231215196
 30
0.0
  0
LINE
  5
E0
330
1F
100
AcDbEntity
  8
0
  6
Continuous
 62
     7
370
    15
100
AcDbLine
 10
165.4516275709
 20
108.1648253829
 30
0.0
 11
165.3177741652
 21
108.2198637531
 31
0.0
  0
SPLINE
  5
E1
330
1F
100
AcDbEntity
  8
0
  6
Continuous
 62
     7
370
    15
100
AcDbSpline
210
0.0
220
0.0
230
1.0
 70
     8
 71
     3
 72
    10
 73
     6
 74
     0
 42
0.00000001
 43
0.00000001
 40
0.0
 40
0.0
 40
0.0
 40
0.0
 40
0.2469364468800898
 40
0.7450033389275478
 40
1.0
 40
1.0
 40
1.0
 40
1.0
 10
165.3177741651871
 20
108.2198637530642
 30
0.0
 10
165.2712265388056
 20
108.2249674630775
 30
0.0
 10
165.130793089181
 20
108.2403652751416
 30
0.0
 10
164.8885448094717
 20
108.298603164818
 30
0.0
 10
164.6932718827461
 20
108.3587226596886
 30
0.0
 10
164.6271500473358
 20
108.3790798664527
 30
0.0
  0
LINE
  5
E2
330
1F
100
AcDbEntity
  8
0
  6
Continuous
 62
     7
370
    15
100
AcDbLine
 10
164.6271500473
 20
108.3790798665
 30
0.0
 11
164.5323600357
 21
108.3686220453
 31
0.0
  0
LINE
  5
E3
330
1F
100
AcDbEntity
  8
0
  6
Continuous
 62
     7
370
    15
100
AcDbLine
 10
165.0667343026
 20
108.2080238492
 30
0.0
 11
164.4417348986
 21
108.2506365136
 31
0.0
  0
LINE
  5
E4
330
1F
100
AcDbEntity
  8
0
  6
Continuous
 62
     7
370
    15
100
AcDbLine
 10
169.0038185304
 20
108.830092381
 30
0.0
 11
169.2022386675
 21
108.830092381
 31
0.0
  0
LINE
  5
E5
330
1F
100
AcDbEntity
  8
0
  6
Continuous
 62
     7
370
    15
100
AcDbLine
 10
168.8284244125
 20
109.3931197182
 30
0.0
 11
169.0038185304
 21
108.830092381
 31
0.0
  0
LINE
  5
E6
330
1F
100
AcDbEntity
  8
0
  6
Continuous
 62
     7
370
    15
100
AcDbLine
 10
169.2022386675
 20
108.830092381
 30
0.0
 11
169.026848275
 21
109.3931197182
 31
0.0
  0
LINE
  5
E7
330
1F
100
AcDbEntity
  8
0
  6
Continuous
 62
     7
370
    15
100
AcDbLine
 10
169.2022386675
 20
108.830092381
 30
0.0
 11
169.2022386675
 21
108.8408715085
 31
0.0
  0
LINE
  5
E8
330
1F
100
AcDbEntity
  8
0
  6
Continuous
 62
     7
370
    15
100
AcDbLine
 10
170.9401424711
 20
109.3931197182
 30
0.0
 11
170.7647483533
 21
108.830092381
 31
0.0
  0
LINE
  5
E9
330
1F
100
AcDbEntity
  8
0
  6
Continuous
 62
     7
370
    15
100
AcDbLine
 10
170.7647483533
 20
108.830092381
 30
0.0
 11
170.7647483533
 21
108.8408715085
 31
0.0
  0
LINE
  5
EA
330
1F
100
AcDbEntity
  8
0
  6
Continuous
 62
     7
370
    15
100
AcDbLine
 10
170.7647483533
 20
108.830092381
 30
0.0
 11
170.9631722157
 21
108.830092381
 31
0.0
  0
LINE
  5
EB
330
1F
100
AcDbEntity
  8
0
  6
Continuous
 62
     7
370
    15
100
AcDbLine
 10
170.9631722157
 20
108.830092381
 30
0.0
 11
171.1385626083
 21
109.3931197182
 31
0.0
  0
LINE
  5
EC
330
1F
100
AcDbEntity
  8
0
  6
Continuous
 62
     7
370
    15
100
AcDbLine
 10
168.139588434
 20
108.830092381
 30
0.0
 11
168.3333072548
 21
108.830092381
 31
0.0
  0
LINE
  5
ED
330
1F
100
AcDbEntity
  8
0
  6
Continuous
 62
     7
370
    15
100
AcDbLine
 10
167.7915718143
 20
109.3931197182
 30
0.0
 11
168.139588434
 21
108.830092381
 31
0.0
  0
LINE
  5
EE
330
1F
100
AcDbEntity
  8
0
  6
Continuous
 62
     7
370
    15
100
AcDbLine
 10
168.3333072548
 20
108.830092381
 30
0.0
 11
167.9852869099
 21
109.3931197182
 31
0.0
  0
LINE
  5
EF
330
1F
100
AcDbEntity
  8
0
  6
Continuous
 62
     7
370
    15
100
AcDbLine
 10
171.6336834913
 20
108.830092381
 30
0.0
 11
171.8273985868
 21
108.830092381
 31
0.0
  0
LINE
  5
F0
330
1F
100
AcDbEntity
  8
0
  6
Continuous
 62
     7
370
    15
100
AcDbLine
 10
171.9817001109
 20
109.3931197182
 30
0.0
 11
171.6336834913
 21
108.830092381
 31
0.0
  0
LINE
  5
F1
330
1F
100
AcDbEntity
  8
0
  6
Continuous
 62
     7
370
    15
100
AcDbLine
 10
171.8273985868
 20
108.830092381
 30
0.0
 11
172.1754189318
 21
109.3931197182
 31
0.0
  0
LINE
  5
F2
330
1F
100
AcDbEntity
  8
0
  6
Continuous
 62
     7
370
    15
100
AcDbLine
 10
168.3333072548
 20
108.830092381
 30
0.0
 11
168.3333072548
 21
108.8408715085
 31
0.0
  0
LINE
  5
F3
330
1F
100
AcDbEntity
  8
0
  6
Continuous
 62
     7
370
    15
100
AcDbLine
 10
171.6336834913
 20
108.830092381
 30
0.0
 11
171.6336834913
 21
108.8408715085
 31
0.0
  0
LINE
  5
F4
330
1F
100
AcDbEntity
  8
0
  6
Continuous
 62
     7
370
    15
100
AcDbLine
 10
167.304441679
 20
108.830092381
 30
0.0
 11
167.4903969949
 21
108.830092381
 31
0.0
  0
LINE
  5
F5
330
1F
100
AcDbEntity
  8
0
  6
Continuous
 62
     7
370
    15
100
AcDbLine
 10
166.7892861848
 20
109.3931197182
 30
0.0
 11
167.304441679
 21
108.830092381
 31
0.0
  0
LINE
  5
F6
330
1F
100
AcDbEntity
  8
0
  6
Continuous
 62
     7
370
    15
100
AcDbLine
 10
167.4903969949
 20
108.830092381
 30
0.0
 11
166.9752415006
 21
109.3931197182
 31
0.0
  0
LINE
  5
F7
330
1F
100
AcDbEntity
  8
0
  6
Continuous
 62
     7
370
    15
100
AcDbLine
 10
167.4903969949
 20
108.830092381
 30
0.0
 11
167.4903969949
 21
108.8408715085
 31
0.0
  0
LINE
  5
F8
330
1F
100
AcDbEntity
  8
0
  6
Continuous
 62
     7
370
    15
100
AcDbLine
 10
172.9917455201
 20
109.3931197182
 30
0.0
 11
172.4765900259
 21
108.830092381
 31
0.0
  0
LINE
  5
F9
330
1F
100
AcDbEntity
  8
0
  6
Continuous
 62
     7
370
    15
100
AcDbLine
 10
172.4765900259
 20
108.830092381
 30
0.0
 11
172.4765900259
 21
108.8408715085
 31
0.0
  0
LINE
  5
FA
330
1F
100
AcDbEntity
  8
0
  6
Continuous
 62
     7
370
    15
100
AcDbLine
 10
172.4765900259
 20
108.830092381
 30
0.0
 11
172.6625453418
 21
108.830092381
 31
0.0
  0
LINE
  5
FB
330
1F
100
AcDbEntity
  8
0
  6
Continuous
 62
     7
370
    15
100
AcDbLine
 10
172.6625453418
 20
108.830092381
 30
0.0
 11
173.177700836
 21
109.3931197182
 31
0.0
  0
LINE
  5
FC
330
1F
100
AcDbEntity
  8
0
  6
Continuous
 62
     7
370
    15
100
AcDbLine
 10
166.5115434413
 20
108.830092381
 30
0.0
 11
166.6868034487
 21
108.830092381
 31
0.0
  0
LINE
  5
FD
330
1F
100
AcDbEntity
  8
0
  6
Continuous
 62
     7
370
    15
100
AcDbLine
 10
165.8373739307
 20
109.3931197182
 30
0.0
 11
166.5115434413
 21
108.830092381
 31
0.0
  0
LINE
  5
FE
330
1F
100
AcDbEntity
  8
0
  6
Continuous
 62
     7
370
    15
100
AcDbLine
 10
166.6868034487
 20
108.830092381
 30
0.0
 11
166.0126376634
 21
109.3931197182
 31
0.0
  0
LINE
  5
FF
330
1F
100
AcDbEntity
  8
0
  6
Continuous
 62
     7
370
    15
100
AcDbLine
 10
173.2801835721
 20
108.830092381
 30
0.0
 11
173.4554435795
 21
108.830092381
 31
0.0
  0
LINE
  5
100
330
1F
100
AcDbEntity
  8
0
  6
Continuous
 62
     7
370
    15
100
AcDbLine
 10
173.9543530827
 20
109.3931197182
 30
0.0
 11
173.2801835721
 21
108.830092381
 31
0.0
  0
LINE
  5
101
330
1F
100
AcDbEntity
  8
0
  6
Continuous
 62
     7
370
    15
100
AcDbLine
 10
173.4554435795
 20
108.830092381
 30
0.0
 11
174.1296130901
 21
109.3931197182
 31
0.0
  0
LINE
  5
102
330
1F
100
AcDbEntity
  8
0
  6
Continuous
 62
     7
370
    15
100
AcDbLine
 10
173.2801835721
 20
108.830092381
 30
0.0
 11
173.2801835721
 21
108.8408715085
 31
0.0
  0
LINE
  5
103
330
1F
100
AcDbEntity
  8
0
  6
Continuous
 62
     7
370
    15
100
AcDbLine
 10
166.6868034487
 20
108.830092381
 30
0.0
 11
166.6868034487
 21
108.8408715085
 31
0.0
  0
SPLINE
  5
104
330
1F
100
AcDbEntity
  8
0
  6
Continuous
 62
     7
370
    15
100
AcDbSpline
210
0.0
220
0.0
230
1.0
 70
     8
 71
     3
 72
     9
 73
     5
 74
     0
 42
0.00000001
 43
0.00000001
 40
0.0
 40
0.0
 40
0.0
 40
0.0
 40
0.4999993157405203
 40
1.0
 40
1.0
 40
1.0
 40
1.0
 10
173.5615547483303
 20
108.5082356811004
 30
0.0
 10
173.5885221432536
 20
108.5080740967811
 30
0.0
 10
173.6424570069108
 20
108.5077509277003
 30
0.0
 10
173.6963916491359
 20
108.5080740964863
 30
0.0
 10
173.7233590071537
 20
108.5082356811004
 30
0.0
  0
LWPOLYLINE
  5
105
330
1F
100
AcDbEntity
  8
0
  6
Continuous
 62
     7
370
    15
100
AcDbPolyline
 90
        3
 70
   128
 43
0.0
 10
174.85433479
 20
109.3931197182
 10
174.6242496853
 20
109.2356274829
 10
173.5615547483
 20
108.5082356811
  0
LWPOLYLINE
  5
106
330
1F
100
AcDbEntity
  8
0
  6
Continuous
 62
     7
370
    15
100
AcDbPolyline
 90
        3
 70
   128
 43
0.0
 10
173.7233590072
 20
108.5082356811
 10
174.7860539441
 20
109.2356274829
 10
175.0161390488
 20
109.3931197182
  0
LINE
  5
107
330
1F
100
AcDbEntity
  8
0
  6
Continuous
 62
     7
370
    15
100
AcDbLine
 10
173.5615547483
 20
108.5082356811
 30
0.0
 11
173.5615547483
 21
108.5190148086
 31
0.0
  0
SPLINE
  5
108
330
1F
100
AcDbEntity
  8
0
  6
Continuous
 62
     7
370
    15
100
AcDbSpline
210
0.0
220
0.0
230
1.0
 70
     8
 71
     3
 72
     9
 73
     5
 74
     0
 42
0.00000001
 43
0.00000001
 40
0.0
 40
0.0
 40
0.0
 40
0.0
 40
0.5000006842594797
 40
1.0
 40
1.0
 40
1.0
 40
1.0
 10
166.2436280136444
 20
108.5082356811004
 30
0.0
 10
166.2705953716623
 20
108.5080740964863
 30
0.0
 10
166.3245300138874
 20
108.5077509277003
 30
0.0
 10
166.3784648775446
 20
108.5080740967811
 30
0.0
 10
166.4054322724678
 20
108.5082356811004
 30
0.0
  0
LWPOLYLINE
  5
109
330
1F
100
AcDbEntity
  8
0
  6
Continuous
 62
     7
370
    15
100
AcDbPolyline
 90
        3
 70
   128
 43
0.0
 10
164.9508516972
 20
109.3931197182
 10
165.1809368019
 20
109.2356274829
 10
166.2436280136
 20
108.5082356811
  0
LWPOLYLINE
  5
10A
330
1F
100
AcDbEntity
  8
0
  6
Continuous
 62
     7
370
    15
100
AcDbPolyline
 90
        3
 70
   128
 43
0.0
 10
166.4054322725
 20
108.5082356811
 10
165.3427373355
 20
109.2356274829
 10
165.1126522308
 20
109.3931197182
  0
LINE
  5
10B
330
1F
100
AcDbEntity
  8
0
  6
Continuous
 62
     7
370
    15
100
AcDbLine
 10
166.4054322725
 20
108.5082356811
 30
0.0
 11
166.4054322725
 21
108.5190148086
 31
0.0
  0
LINE
  5
10C
330
1F
100
AcDbEntity
  8
0
  6
Continuous
 62
     7
370
    15
100
AcDbLine
 10
175.6775010114
 20
109.3931197182
 30
0.0
 11
174.7195388859
 21
108.830092381
 31
0.0
  0
LINE
  5
10D
330
1F
100
AcDbEntity
  8
0
  6
Continuous
 62
     7
370
    15
100
AcDbLine
 10
174.7195388859
 20
108.830092381
 30
0.0
 11
174.7195388859
 21
108.8408715085
 31
0.0
  0
LINE
  5
10E
330
1F
100
AcDbEntity
  8
0
  6
Continuous
 62
     7
370
    15
100
AcDbLine
 10
174.7195388859
 20
108.830092381
 30
0.0
 11
174.8653355723
 21
108.830092381
 31
0.0
  0
LINE
  5
10F
330
1F
100
AcDbEntity
  8
0
  6
Continuous
 62
     7
370
    15
100
AcDbLine
 10
174.8653355723
 20
108.830092381
 30
0.0
 11
175.8232939725
 21
109.3931197182
 31
0.0
  0
LINE
  5
110
330
1F
100
AcDbEntity
  8
0
  6
Continuous
 62
     7
370
    15
100
AcDbLine
 10
165.1016551738
 20
108.830092381
 30
0.0
 11
165.2474481349
 21
108.830092381
 31
0.0
  0
LINE
  5
111
330
1F
100
AcDbEntity
  8
0
  6
Continuous
 62
     7
370
    15
100
AcDbLine
 10
164.1436930483
 20
109.3931197182
 30
0.0
 11
165.1016551738
 21
108.830092381
 31
0.0
  0
LINE
  5
112
330
1F
100
AcDbEntity
  8
0
  6
Continuous
 62
     7
370
    15
100
AcDbLine
 10
165.2474481349
 20
108.830092381
 30
0.0
 11
164.2894897347
 21
109.3931197182
 31
0.0
  0
LINE
  5
113
330
1F
100
AcDbEntity
  8
0
  6
Continuous
 62
     7
370
    15
100
AcDbLine
 10
165.2474481349
 20
108.830092381
 30
0.0
 11
165.2474481349
 21
108.8408715085
 31
0.0
  0
SPLINE
  5
114
330
1F
100
AcDbEntity
  8
0
  6
Continuous
 62
     7
370
    15
100
AcDbSpline
210
0.0
220
0.0
230
1.0
 70
     8
 71
     3
 72
    11
 73
     7
 74
     0
 42
0.00000001
 43
0.00000001
 40
0.0
 40
0.0
 40
0.0
 40
0.0
 40
0.2502074597693801
 40
0.4998596518772749
 40
0.7492880404591272
 40
1.0
 40
1.0
 40
1.0
 40
1.0
 10
168.9006801431515
 20
108.3904811174112
 30
0.0
 10
168.9842103800504
 20
108.3989741191562
 30
0.0
 10
169.1510854811205
 20
108.41594127473
 30
0.0
 10
169.4215025076983
 20
108.4216960495981
 30
0.0
 10
169.6927084025764
 20
108.4239396451151
 30
0.0
 10
169.8746040891668
 20
108.4236624595207
 30
0.0
 10
169.9657853429653
 20
108.423523511036
 30
0.0
  0
LINE
  5
115
330
1F
100
AcDbEntity
  8
0
  6
Continuous
 62
     7
370
    15
100
AcDbLine
 10
168.9006801432
 20
108.3904811174
 30
0.0
 11
168.9006801432
 21
108.4004807279
 31
0.0
  0
LINE
  5
116
330
1F
100
AcDbEntity
  8
0
  6
Continuous
 62
     7
370
    15
100
AcDbLine
 10
169.965785343
 20
108.423523511
 30
0.0
 11
169.965785343
 21
108.4335231215
 31
0.0
  0
SPLINE
  5
117
330
1F
100
AcDbEntity
  8
0
  6
Continuous
 62
     7
370
    15
100
AcDbSpline
210
0.0
220
0.0
230
1.0
 70
     8
 71
     3
 72
    14
 73
    10
 74
     0
 42
0.00000001
 43
0.00000001
 40
0.0
 40
0.0
 40
0.0
 40
0.0
 40
0.2479498753946672
 40
0.5300664279252416
 40
0.6758370222580266
 40
0.7893673139471005
 40
0.8835379195154528
 40
0.9774807853181279
 40
1.0
 40
1.0
 40
1.0
 40
1.0
 10
169.9657853429653
 20
108.423523511036
 30
0.0
 10
170.0996653229172
 20
108.4234324117065
 30
0.0
 10
170.3858735036265
 20
108.4232376598598
 30
0.0
 10
170.7501736959356
 20
108.4168649319779
 30
0.0
 10
171.0232319417029
 20
108.3910842567607
 30
0.0
 10
171.1751179435473
 20
108.3568096220777
 30
0.0
 10
171.2598836429094
 20
108.3109471349178
 30
0.0
 10
171.2821221519295
 20
108.2712537085218
 30
0.0
 10
171.2832725795899
 20
108.2484330260874
 30
0.0
 10
171.2834950273373
 20
108.2440203980046
 30
0.0
  0
LINE
  5
118
330
1F
100
AcDbEntity
  8
0
  6
Continuous
 62
     7
370
    15
100
AcDbLine
 10
171.2834950273
 20
108.244020398
 30
0.0
 11
171.2834950273
 21
108.2540200085
 31
0.0
  0
SPLINE
  5
119
330
1F
100
AcDbEntity
  8
0
  6
Continuous
 62
     7
370
    15
100
AcDbSpline
210
0.0
220
0.0
230
1.0
 70
     8
 71
     3
 72
    14
 73
    10
 74
     0
 42
0.00000001
 43
0.00000001
 40
0.0
 40
0.0
 40
0.0
 40
0.0
 40
0.2492767471928061
 40
0.498764845120297
 40
0.6899686089982013
 40
0.8048358658885311
 40
0.8916917868708589
 40
0.9623825703070402
 40
1.0
 40
1.0
 40
1.0
 40
1.0
 10
169.9668284242489
 20
108.329636882289
 30
0.0
 10
169.867960517715
 20
108.3298523495237
 30
0.0
 10
169.6701408789195
 20
108.3302834666783
 30
0.0
 10
169.3982388918576
 20
108.3299304717928
 30
0.0
 10
169.1798350090766
 20
108.3209965127623
 30
0.0
 10
169.049674364251
 20
108.2949711833011
 30
0.0
 10
168.9792549563235
 20
108.2683409557944
 30
0.0
 10
168.9529684291161
 20
108.2425049150194
 30
0.0
 10
168.9508835616281
 20
108.2268560591742
 30
0.0
 10
168.9501594488957
 20
108.2214209244089
 30
0.0
  0
SPLINE
  5
11A
330
1F
100
AcDbEntity
  8
0
  6
Continuous
 62
     7
370
    15
100
AcDbSpline
210
0.0
220
0.0
230
1.0
 70
     8
 71
     3
 72
    13
 73
     9
 74
     0
 42
0.00000001
 43
0.00000001
 40
0.0
 40
0.0
 40
0.0
 40
0.0
 40
0.0822269130262972
 40
0.1647844473556147
 40
0.2864625257280112
 40
0.417357724238471
 40
0.6615656925237783
 40
0.9999999999999999
 40
0.9999999999999999
 40
0.9999999999999999
 40
0.9999999999999999
 10
168.9501594488957
 20
108.2214209244089
 30
0.0
 10
168.9536162392229
 20
108.2090125062425
 30
0.0
 10
168.9605437190798
 20
108.1841457776391
 30
0.0
 10
169.0254157178917
 20
108.1438387621758
 30
0.0
 10
169.1289805078993
 20
108.1052957269819
 30
0.0
 10
169.3146922542186
 20
108.0673428703481
 30
0.0
 10
169.5988526840819
 20
108.0410381042632
 30
0.0
 10
169.8316218441905
 20
108.0369458036808
 30
0.0
 10
169.9668284242489
 20
108.0345687449413
 30
0.0
  0
SPLINE
  5
11B
330
1F
100
AcDbEntity
  8
0
  6
Continuous
 62
     7
370
    15
100
AcDbSpline
210
0.0
220
0.0
230
1.0
 70
     8
 71
     3
 72
    14
 73
    10
 74
     0
 42
0.00000001
 43
0.00000001
 40
0.0
 40
0.0
 40
0.0
 40
0.0
 40
0.2470687966354215
 40
0.4944803614622805
 40
0.6903735602221462
 40
0.8037563380637051
 40
0.8905832277922208
 40
0.9781965540105275
 40
1.0
 40
1.0
 40
1.0
 40
1.0
 10
169.9668284242489
 20
108.0345687449413
 30
0.0
 10
170.0659625606272
 20
108.035561826313
 30
0.0
 10
170.264368366043
 20
108.0375493667969
 30
0.0
 10
170.5393464121406
 20
108.0569287275641
 30
0.0
 10
170.758037009754
 20
108.0895016210601
 30
0.0
 10
170.8883071805021
 20
108.1318623159853
 30
0.0
 10
170.9603899432657
 20
108.1703637550333
 30
0.0
 10
170.981655577766
 20
108.2005231361478
 30
0.0
 10
170.9831882576671
 20
108.2167433206738
 30
0.0
 10
170.9834936743119
 20
108.2199755117731
 30
0.0
  0
SPLINE
  5
11C
330
1F
100
AcDbEntity
  8
0
  6
Continuous
 62
     7
370
    15
100
AcDbSpline
210
0.0
220
0.0
230
1.0
 70
     8
 71
     3
 72
    10
 73
     6
 74
     0
 42
0.00000001
 43
0.00000001
 40
0.0
 40
0.0
 40
0.0
 40
0.0
 40
0.3320105911599388
 40
0.6305859071547271
 40
1.0
 40
1.0
 40
1.0
 40
1.0
 10
170.9834936743119
 20
108.2199755117731
 30
0.0
 10
170.9792865962897
 20
108.2336682262677
 30
0.0
 10
170.9712961159206
 20
108.2596747243157
 30
0.0
 10
170.9028964768386
 20
108.2907708575692
 30
0.0
 10
170.8400979844421
 20
108.3032047380656
 30
0.0
 10
170.8053689186909
 20
108.3100809708672
 30
0.0
  0
SPLINE
  5
11D
330
1F
100
AcDbEntity
  8
0
  6
Continuous
 62
     7
370
    15
100
AcDbSpline
210
0.0
220
0.0
230
1.0
 70
     8
 71
     3
 72
    10
 73
     6
 74
     0
 42
0.00000001
 43
0.00000001
 40
0.0
 40
0.0
 40
0.0
 40
0.0
 40
0.4453980853553156
 40
0.7222071576591408
 40
1.0
 40
1.0
 40
1.0
 40
1.0
 10
170.8053689186909
 20
108.3100809708672
 30
0.0
 10
170.6836828244479
 20
108.3177501113762
 30
0.0
 10
170.4863704175482
 20
108.3301855221936
 30
0.0
 10
170.202375491279
 20
108.3292817540252
 30
0.0
 10
170.045436907431
 20
108.3295183662977
 30
0.0
 10
169.9668284242489
 20
108.329636882289
 30
0.0
  0
SPLINE
  5
11E
330
1F
100
AcDbEntity
  8
0
  6
Continuous
 62
     7
370
    15
100
AcDbSpline
210
0.0
220
0.0
230
1.0
 70
     8
 71
     3
 72
    12
 73
     8
 74
     0
 42
0.00000001
 43
0.00000001
 40
0.0
 40
0.0
 40
0.0
 40
0.0
 40
0.1381012834954882
 40
0.2587186053734428
 40
0.3689193757131632
 40
0.6910978529507948
 40
1.0
 40
1.0
 40
1.0
 40
1.0
 10
171.2834950273373
 20
108.2440203980046
 30
0.0
 10
171.2744153466896
 20
108.2155939826278
 30
0.0
 10
171.2574054952605
 20
108.1623400058661
 30
0.0
 10
171.1358306635075
 20
108.0902006680993
 30
0.0
 10
170.8817818608416
 20
108.0101725668432
 30
0.0
 10
170.4787918084524
 20
107.9503408311573
 30
0.0
 10
170.1343722612276
 20
107.9438587156378
 30
0.0
 10
169.9657853429653
 20
107.9406858414846
 30
0.0
  0
SPLINE
  5
11F
330
1F
100
AcDbEntity
  8
0
  6
Continuous
 62
     7
370
    15
100
AcDbSpline
210
0.0
220
0.0
230
1.0
 70
     8
 71
     3
 72
    13
 73
     9
 74
     0
 42
0.00000001
 43
0.00000001
 40
0.0
 40
0.0
 40
0.0
 40
0.0
 40
0.2451575663588811
 40
0.5544368009345138
 40
0.6871936693584891
 40
0.8214953629809376
 40
0.9363551712389978
 40
1.0
 40
1.0
 40
1.0
 40
1.0
 10
169.9657853429653
 20
107.9406858414846
 30
0.0
 10
169.8320227052163
 20
107.9432058793948
 30
0.0
 10
169.5295114262066
 20
107.9489050783955
 30
0.0
 10
169.1552952900874
 20
107.99428768415
 30
0.0
 10
168.8726807961996
 20
108.066409057293
 30
0.0
 10
168.7201910139858
 20
108.133298541291
 30
0.0
 10
168.6561025707058
 20
108.1985289400064
 30
0.0
 10
168.6517232451608
 20
108.2344000465533
 30
0.0
 10
168.6501618211605
 20
108.247189688726
 30
0.0
  0
SPLINE
  5
120
330
1F
100
AcDbEntity
  8
0
  6
Continuous
 62
     7
370
    15
100
AcDbSpline
210
0.0
220
0.0
230
1.0
 70
     8
 71
     3
 72
    10
 73
     6
 74
     0
 42
0.00000001
 43
0.00000001
 40
0.0
 40
0.0
 40
0.0
 40
0.0
 40
0.3971284520197386
 40
0.7076136946817426
 40
1.0
 40
1.0
 40
1.0
 40
1.0
 10
168.6501618211605
 20
108.247189688726
 30
0.0
 10
168.6571688111976
 20
108.2724076378382
 30
0.0
 10
168.6696540463487
 20
108.3173416284723
 30
0.0
 10
168.7721616721406
 20
108.3649230219669
 30
0.0
 10
168.858706715311
 20
108.382133983599
 30
0.0
 10
168.9006801431515
 20
108.3904811174112
 30
0.0
  0
SPLINE
  5
121
330
1F
100
AcDbEntity
  8
0
  6
Continuous
 62
     7
370
    15
100
AcDbSpline
210
0.0
220
0.0
230
1.0
 70
     8
 71
     3
 72
    13
 73
     9
 74
     0
 42
0.00000001
 43
0.00000001
 40
0.0
 40
0.0
 40
0.0
 40
0.0
 40
0.0847444658198663
 40
0.1701987755245793
 40
0.2851005890554889
 40
0.4402171265030917
 40
0.7171743260139478
 40
1.0
 40
1.0
 40
1.0
 40
1.0
 10
170.9834936743119
 20
108.2299760535794
 30
0.0
 10
170.9802635682857
 20
108.2171617428205
 30
0.0
 10
170.9737762999412
 20
108.1914257849706
 30
0.0
 10
170.9098556851786
 20
108.1510261525894
 30
0.0
 10
170.7985030759005
 20
108.1106488619967
 30
0.0
 10
170.5903408915829
 20
108.0714802247866
 30
0.0
 10
170.3045038181093
 20
108.0486135706471
 30
0.0
 10
170.0801708192939
 20
108.0459267703893
 30
0.0
 10
169.9668284242489
 20
108.0445692867475
 30
0.0
  0
SPLINE
  5
122
330
1F
100
AcDbEntity
  8
0
  6
Continuous
 62
     7
370
    15
100
AcDbSpline
210
0.0
220
0.0
230
1.0
 70
     8
 71
     3
 72
    14
 73
    10
 74
     0
 42
0.00000001
 43
0.00000001
 40
0.0
 40
0.0
 40
0.0
 40
0.0
 40
0.2473640029504023
 40
0.4949875688215882
 40
0.6882872808113619
 40
0.8086134932922295
 40
0.8994859349300665
 40
0.9814091559674097
 40
1.0
 40
1.0
 40
1.0
 40
1.0
 10
169.9668284242489
 20
108.0445692867475
 30
0.0
 10
169.867885346049
 20
108.0458792839965
 30
0.0
 10
169.6698953671282
 20
108.0485006530951
 30
0.0
 10
169.3966718606546
 20
108.0682892405625
 30
0.0
 10
169.1766574787388
 20
108.101241322757
 30
0.0
 10
169.0448266744724
 20
108.1451086799103
 30
0.0
 10
168.9726742448937
 20
108.1845625567823
 30
0.0
 10
168.9521432111663
 20
108.21381397566
 30
0.0
 10
168.9504690903307
 20
108.2286723627215
 30
0.0
 10
168.9501594488957
 20
108.2314205348926
 30
0.0
  0
LINE
  5
123
330
1F
100
AcDbEntity
  8
0
  6
Continuous
 62
     7
370
    15
100
AcDbLine
 10
168.6501618212
 20
108.2471896887
 30
0.0
 11
168.6501618212
 21
108.2571902305
 31
0.0
  0
LINE
  5
124
330
1F
100
AcDbEntity
  8
0
  6
Continuous
 62
     7
370
    15
100
AcDbLine
 10
169.9668284242
 20
108.0345687449
 30
0.0
 11
169.9668284242
 21
108.0445692867
 31
0.0
  0
LINE
  5
125
330
1F
100
AcDbEntity
  8
0
  6
Continuous
 62
     7
370
    15
100
AcDbLine
 10
176.4108691101
 20
109.3931197182
 30
0.0
 11
175.332606185
 21
108.830092381
 31
0.0
  0
LINE
  5
126
330
1F
100
AcDbEntity
  8
0
  6
Continuous
 62
     7
370
    15
100
AcDbLine
 10
175.332606185
 20
108.830092381
 30
0.0
 11
175.332606185
 21
108.8408715085
 31
0.0
  0
LINE
  5
127
330
1F
100
AcDbEntity
  8
0
  6
Continuous
 62
     7
370
    15
100
AcDbLine
 10
175.332606185
 20
108.830092381
 30
0.0
 11
175.4600930696
 21
108.830092381
 31
0.0
  0
LINE
  5
128
330
1F
100
AcDbEntity
  8
0
  6
Continuous
 62
     7
370
    15
100
AcDbLine
 10
175.4600930696
 20
108.830092381
 30
0.0
 11
176.5383522694
 21
109.3931197182
 31
0.0
  0
LINE
  5
129
330
1F
100
AcDbEntity
  8
0
  6
Continuous
 62
     7
370
    15
100
AcDbLine
 10
164.5068976765
 20
108.830092381
 30
0.0
 11
164.6343808358
 21
108.830092381
 31
0.0
  0
LINE
  5
12A
330
1F
100
AcDbEntity
  8
0
  6
Continuous
 62
     7
370
    15
100
AcDbLine
 10
163.4286347514
 20
109.3931197182
 30
0.0
 11
164.5068976765
 21
108.830092381
 31
0.0
  0
LINE
  5
12B
330
1F
100
AcDbEntity
  8
0
  6
Continuous
 62
     7
370
    15
100
AcDbLine
 10
164.6343808358
 20
108.830092381
 30
0.0
 11
163.5561179107
 21
109.3931197182
 31
0.0
  0
LINE
  5
12C
330
1F
100
AcDbEntity
  8
0
  6
Continuous
 62
     7
370
    15
100
AcDbLine
 10
164.6343808358
 20
108.830092381
 30
0.0
 11
164.6343808358
 21
108.8408715085
 31
0.0
  0
LINE
  5
12D
330
1F
100
AcDbEntity
  8
0
  6
Continuous
 62
     7
370
    15
100
AcDbLine
 10
175.8613142853
 20
108.830092381
 30
0.0
 11
175.9684797113
 21
108.830092381
 31
0.0
  0
LINE
  5
12E
330
1F
100
AcDbEntity
  8
0
  6
Continuous
 62
     7
370
    15
100
AcDbLine
 10
177.0428720599
 20
109.3931197182
 30
0.0
 11
175.8613142853
 21
108.830092381
 31
0.0
  0
LINE
  5
12F
330
1F
100
AcDbEntity
  8
0
  6
Continuous
 62
     7
370
    15
100
AcDbLine
 10
175.9684797113
 20
108.830092381
 30
0.0
 11
177.1500374859
 21
109.3931197182
 31
0.0
  0
LINE
  5
130
330
1F
100
AcDbEntity
  8
0
  6
Continuous
 62
     7
370
    15
100
AcDbLine
 10
175.8613142853
 20
108.830092381
 30
0.0
 11
175.8613142853
 21
108.8408715085
 31
0.0
  0
LINE
  5
131
330
1F
100
AcDbEntity
  8
0
  6
Continuous
 62
     7
370
    15
100
AcDbLine
 10
163.9985073095
 20
108.830092381
 30
0.0
 11
164.1056727355
 21
108.830092381
 31
0.0
  0
LINE
  5
132
330
1F
100
AcDbEntity
  8
0
  6
Continuous
 62
     7
370
    15
100
AcDbLine
 10
162.8169495349
 20
109.3931197182
 30
0.0
 11
163.9985073095
 21
108.830092381
 31
0.0
  0
LINE
  5
133
330
1F
100
AcDbEntity
  8
0
  6
Continuous
 62
     7
370
    15
100
AcDbLine
 10
164.1056727355
 20
108.830092381
 30
0.0
 11
162.9241149609
 21
109.3931197182
 31
0.0
  0
LINE
  5
134
330
1F
100
AcDbEntity
  8
0
  6
Continuous
 62
     7
370
    15
100
AcDbLine
 10
164.1056727355
 20
108.830092381
 30
0.0
 11
164.1056727355
 21
108.8408715085
 31
0.0
  0
LINE
  5
135
330
1F
100
AcDbEntity
  8
0
  6
Continuous
 62
     7
370
    15
100
AcDbLine
 10
176.2973259871
 20
108.830092381
 30
0.0
 11
176.3824823981
 21
108.830092381
 31
0.0
  0
LINE
  5
136
330
1F
100
AcDbEntity
  8
0
  6
Continuous
 62
     7
370
    15
100
AcDbLine
 10
177.5635484343
 20
109.3931197182
 30
0.0
 11
176.2973259871
 21
108.830092381
 31
0.0
  0
LINE
  5
137
330
1F
100
AcDbEntity
  8
0
  6
Continuous
 62
     7
370
    15
100
AcDbLine
 10
176.3824823981
 20
108.830092381
 30
0.0
 11
177.6487011199
 21
109.3931197182
 31
0.0
  0
LINE
  5
138
330
1F
100
AcDbEntity
  8
0
  6
Continuous
 62
     7
370
    15
100
AcDbLine
 10
176.2973259871
 20
108.830092381
 30
0.0
 11
176.2973259871
 21
108.8408715085
 31
0.0
  0
LINE
  5
139
330
1F
100
AcDbEntity
  8
0
  6
Continuous
 62
     7
370
    15
100
AcDbLine
 10
163.5845046227
 20
108.830092381
 30
0.0
 11
163.6696610337
 21
108.830092381
 31
0.0
  0
LINE
  5
13A
330
1F
100
AcDbEntity
  8
0
  6
Continuous
 62
     7
370
    15
100
AcDbLine
 10
162.3182859009
 20
109.3931197182
 30
0.0
 11
163.5845046227
 21
108.830092381
 31
0.0
  0
LINE
  5
13B
330
1F
100
AcDbEntity
  8
0
  6
Continuous
 62
     7
370
    15
100
AcDbLine
 10
163.6696610337
 20
108.830092381
 30
0.0
 11
162.4034423118
 21
109.3931197182
 31
0.0
  0
LINE
  5
13C
330
1F
100
AcDbEntity
  8
0
  6
Continuous
 62
     7
370
    15
100
AcDbLine
 10
163.6696610337
 20
108.830092381
 30
0.0
 11
163.6696610337
 21
108.8408715085
 31
0.0
  0
LINE
  5
13D
330
1F
100
AcDbEntity
  8
0
  6
Continuous
 62
     7
370
    15
100
AcDbLine
 10
164.6495464926
 20
108.1552430049
 30
0.0
 11
164.4417348986
 21
108.2406359718
 31
0.0
  0
LINE
  5
13E
330
1F
100
AcDbEntity
  8
0
  6
Continuous
 62
     7
370
    15
100
AcDbLine
 10
164.4417348986
 20
108.2406359718
 30
0.0
 11
165.0667343026
 21
108.1980242387
 31
0.0
  0
SPLINE
  5
13F
330
1F
100
AcDbEntity
  8
0
  6
Continuous
 62
     7
370
    15
100
AcDbSpline
210
0.0
220
0.0
230
1.0
 70
     8
 71
     3
 72
    10
 73
     6
 74
     0
 42
0.00000001
 43
0.00000001
 40
0.0
 40
0.0
 40
0.0
 40
0.0
 40
0.3742772448212685
 40
0.6851863480874149
 40
1.0
 40
1.0
 40
1.0
 40
1.0
 10
165.0667343025544
 20
108.1980242386895
 30
0.0
 10
165.0039381674167
 20
108.2142341448301
 30
0.0
 10
164.8889777868316
 20
108.2439094898986
 30
0.0
 10
164.7077165368942
 20
108.2996520179163
 30
0.0
 10
164.5910548614463
 20
108.3388834061808
 30
0.0
 10
164.5323600356915
 20
108.3586215034561
 30
0.0
  0
LINE
  5
140
330
1F
100
AcDbEntity
  8
0
  6
Continuous
 62
     7
370
    15
100
AcDbLine
 10
164.5323600357
 20
108.3586215035
 30
0.0
 11
164.6271500473
 21
108.3690793246
 31
0.0
  0
SPLINE
  5
141
330
1F
100
AcDbEntity
  8
0
  6
Continuous
 62
     7
370
    15
100
AcDbSpline
210
0.0
220
0.0
230
1.0
 70
     8
 71
     3
 72
    10
 73
     6
 74
     0
 42
0.00000001
 43
0.00000001
 40
0.0
 40
0.0
 40
0.0
 40
0.0
 40
0.4963995616786515
 40
0.7443770143222842
 40
1.0
 40
1.0
 40
1.0
 40
1.0
 10
164.6271500473358
 20
108.3690793246465
 30
0.0
 10
164.7551444898606
 20
108.3308980194963
 30
0.0
 10
164.9470788273007
 20
108.2736431624724
 30
0.0
 10
165.17472277626
 20
108.2254868504384
 30
0.0
 10
165.2696101834302
 20
108.2151241531397
 30
0.0
 10
165.3177741651871
 20
108.2098641425805
 30
0.0
  0
LINE
  5
142
330
1F
100
AcDbEntity
  8
0
  6
Continuous
 62
     7
370
    15
100
AcDbLine
 10
165.3177741652
 20
108.2098641426
 30
0.0
 11
165.4516275709
 21
108.1548257724
 31
0.0
  0
SPLINE
  5
143
330
1F
100
AcDbEntity
  8
0
  6
Continuous
 62
     7
370
    15
100
AcDbSpline
210
0.0
220
0.0
230
1.0
 70
     8
 71
     3
 72
     9
 73
     5
 74
     0
 42
0.00000001
 43
0.00000001
 40
0.0
 40
0.0
 40
0.0
 40
0.0
 40
0.4975856895841323
 40
1.0
 40
1.0
 40
1.0
 40
1.0
 10
165.4516275709011
 20
108.1548257723885
 30
0.0
 10
165.3185941484659
 20
108.1228464308475
 30
0.0
 10
165.0512363340832
 20
108.0585774170668
 30
0.0
 10
164.7838734377848
 20
108.1229175841998
 30
0.0
 10
164.6495464926102
 20
108.1552430049019
 30
0.0
  0
LINE
  5
144
330
1F
100
AcDbEntity
  8
0
  6
Continuous
 62
     7
370
    15
100
AcDbLine
 10
164.6271500473
 20
108.3690793246
 30
0.0
 11
164.6271500473
 21
108.3790798665
 31
0.0
  0
LINE
  5
145
330
1F
100
AcDbEntity
  8
0
  6
Continuous
 62
     7
370
    15
100
AcDbLine
 10
165.3177741652
 20
108.2098641426
 30
0.0
 11
165.3177741652
 21
108.2198637531
 31
0.0
  0
LINE
  5
146
330
1F
100
AcDbEntity
  8
0
  6
Continuous
 62
     7
370
    15
100
AcDbLine
 10
165.4516275709
 20
108.1548257724
 30
0.0
 11
165.4516275709
 21
108.1648253829
 31
0.0
  0
LINE
  5
147
330
1F
100
AcDbEntity
  8
0
  6
Continuous
 62
     7
370
    15
100
AcDbLine
 10
174.911529172
 20
108.1458524794
 30
0.0
 11
175.2714257424
 21
108.1625799641
 31
0.0
  0
LINE
  5
148
330
1F
100
AcDbEntity
  8
0
  6
Continuous
 62
     7
370
    15
100
AcDbLine
 10
175.2714257424
 20
108.1625799641
 30
0.0
 11
175.4422601049
 21
108.3698318333
 31
0.0
  0
LINE
  5
149
330
1F
100
AcDbEntity
  8
0
  6
Continuous
 62
     7
370
    15
100
AcDbLine
 10
175.4422601049
 20
108.3698318333
 30
0.0
 11
174.911529172
 21
108.1458524794
 31
0.0
  0
LINE
  5
14A
330
1F
100
AcDbEntity
  8
0
  6
Continuous
 62
     7
370
    15
100
AcDbLine
 10
174.6302809303
 20
108.2032117054
 30
0.0
 11
174.8214255755
 21
108.1575312645
 31
0.0
  0
LINE
  5
14B
330
1F
100
AcDbEntity
  8
0
  6
Continuous
 62
     7
370
    15
100
AcDbLine
 10
174.8214255755
 20
108.1575312645
 30
0.0
 11
175.5563210433
 21
108.4661883295
 31
0.0
  0
LINE
  5
14C
330
1F
100
AcDbEntity
  8
0
  6
Continuous
 62
     7
370
    15
100
AcDbLine
 10
175.5563210433
 20
108.4661883295
 30
0.0
 11
175.6464246397
 21
108.4559968666
 31
0.0
  0
LINE
  5
14D
330
1F
100
AcDbEntity
  8
0
  6
Continuous
 62
     7
370
    15
100
AcDbLine
 10
175.6464246397
 20
108.4559968666
 30
0.0
 11
175.3912161773
 21
108.1860185594
 31
0.0
  0
LINE
  5
14E
330
1F
100
AcDbEntity
  8
0
  6
Continuous
 62
     7
370
    15
100
AcDbLine
 10
175.3912161773
 20
108.1860185594
 30
0.0
 11
175.221424896
 21
108.1162913695
 31
0.0
  0
LINE
  5
14F
330
1F
100
AcDbEntity
  8
0
  6
Continuous
 62
     7
370
    15
100
AcDbLine
 10
175.221424896
 20
108.1162913695
 30
0.0
 11
174.703717578
 21
108.0581516952
 31
0.0
  0
LINE
  5
150
330
1F
100
AcDbEntity
  8
0
  6
Continuous
 62
     7
370
    15
100
AcDbLine
 10
174.703717578
 20
108.0581516952
 30
0.0
 11
174.47455262
 21
107.9614943818
 31
0.0
  0
LINE
  5
151
330
1F
100
AcDbEntity
  8
0
  6
Continuous
 62
     7
370
    15
100
AcDbLine
 10
174.47455262
 20
107.9614943818
 30
0.0
 11
174.3844452982
 21
107.9742702648
 31
0.0
  0
LINE
  5
152
330
1F
100
AcDbEntity
  8
0
  6
Continuous
 62
     7
370
    15
100
AcDbLine
 10
174.3844452982
 20
107.9742702648
 30
0.0
 11
174.6136139815
 21
108.0703259439
 31
0.0
  0
LINE
  5
153
330
1F
100
AcDbEntity
  8
0
  6
Continuous
 62
     7
370
    15
100
AcDbLine
 10
174.6136139815
 20
108.0703259439
 30
0.0
 11
174.4224693363
 21
108.1178829998
 31
0.0
  0
LINE
  5
154
330
1F
100
AcDbEntity
  8
0
  6
Continuous
 62
     7
370
    15
100
AcDbLine
 10
174.4224693363
 20
108.1178829998
 30
0.0
 11
174.6302809303
 21
108.2032117054
 31
0.0
  0
LINE
  5
155
330
1F
100
AcDbEntity
  8
0
  6
Continuous
 62
     7
370
    15
100
AcDbLine
 10
174.4224693363
 20
108.1178829998
 30
0.0
 11
174.4224693363
 21
108.1278826103
 31
0.0
  0
LINE
  5
156
330
1F
100
AcDbEntity
  8
0
  6
Continuous
 62
     7
370
    15
100
AcDbLine
 10
174.6302809303
 20
108.2032117054
 30
0.0
 11
174.6302809303
 21
108.2132113159
 31
0.0
  0
LINE
  5
157
330
1F
100
AcDbEntity
  8
0
  6
Continuous
 62
     7
370
    15
100
AcDbLine
 10
174.8214255755
 20
108.1575312645
 30
0.0
 11
174.8214255755
 21
108.167530875
 31
0.0
  0
LWPOLYLINE
  5
158
330
1F
100
AcDbEntity
  8
0
  6
Continuous
 62
     7
370
    15
100
AcDbPolyline
 90
        3
 70
   128
 43
0.0
 10
177.964680243
 20
109.3931197182
 10
177.5923933571
 20
109.2356274829
 10
175.8729185646
 20
108.5082356811
  0
LINE
  5
159
330
1F
100
AcDbEntity
  8
0
  6
Continuous
 62
     7
370
    15
100
AcDbLine
 10
175.8729185646
 20
108.5082356811
 30
0.0
 11
175.8729185646
 21
108.5190148086
 31
0.0
  0
SPLINE
  5
15A
330
1F
100
AcDbEntity
  8
0
  6
Continuous
 62
     7
370
    15
100
AcDbSpline
210
0.0
220
0.0
230
1.0
 70
     8
 71
     3
 72
     9
 73
     5
 74
     0
 42
0.00000001
 43
0.00000001
 40
0.0
 40
0.0
 40
0.0
 40
0.0
 40
0.4999997232083499
 40
1.0
 40
1.0
 40
1.0
 40
1.0
 10
175.8729185645916
 20
108.5082356811004
 30
0.0
 10
175.883218995118
 20
108.5080740966933
 30
0.0
 10
175.9038198675749
 20
108.5077509277003
 30
0.0
 10
175.924420705819
 20
108.5080740965741
 30
0.0
 10
175.9347211306431
 20
108.5082356811004
 30
0.0
  0
LWPOLYLINE
  5
15B
330
1F
100
AcDbEntity
  8
0
  6
Continuous
 62
     7
370
    15
100
AcDbPolyline
 90
        3
 70
   128
 43
0.0
 10
175.9347211306
 20
108.5082356811
 10
177.6541959231
 20
109.2356274829
 10
178.0264828091
 20
109.3931197182
  0
SPLINE
  5
15C
330
1F
100
AcDbEntity
  8
0
  6
Continuous
 62
     7
370
    15
100
AcDbSpline
210
0.0
220
0.0
230
1.0
 70
     8
 71
     3
 72
     9
 73
     5
 74
     0
 42
0.00000001
 43
0.00000001
 40
0.0
 40
0.0
 40
0.0
 40
0.0
 40
0.5000002767916502
 40
1.0
 40
1.0
 40
1.0
 40
1.0
 10
164.0322658901551
 20
108.5082356811004
 30
0.0
 10
164.0425663149792
 20
108.5080740965741
 30
0.0
 10
164.0631671532233
 20
108.5077509277003
 30
0.0
 10
164.0837680256803
 20
108.5080740966933
 30
0.0
 10
164.0940684562065
 20
108.5082356811004
 30
0.0
  0
LWPOLYLINE
  5
15D
330
1F
100
AcDbEntity
  8
0
  6
Continuous
 62
     7
370
    15
100
AcDbPolyline
 90
        3
 70
   128
 43
0.0
 10
161.9405042117
 20
109.3931197182
 10
162.3127910977
 20
109.2356274829
 10
164.0322658902
 20
108.5082356811
  0
LWPOLYLINE
  5
15E
330
1F
100
AcDbEntity
  8
0
  6
Continuous
 62
     7
370
    15
100
AcDbPolyline
 90
        3
 70
   128
 43
0.0
 10
164.0940684562
 20
108.5082356811
 10
162.3745936637
 20
109.2356274829
 10
162.002310503
 20
109.3931197182
  0
LINE
  5
15F
330
1F
100
AcDbEntity
  8
0
  6
Continuous
 62
     7
370
    15
100
AcDbLine
 10
164.0940684562
 20
108.5082356811
 30
0.0
 11
164.0940684562
 21
108.5190148086
 31
0.0
  0
LINE
  5
160
330
1F
100
AcDbEntity
  8
0
  6
Continuous
 62
     7
370
    15
100
AcDbLine
 10
175.5563210433
 20
108.4661883295
 30
0.0
 11
175.5563210433
 21
108.47618794
 31
0.0
  0
LINE
  5
161
330
1F
100
AcDbEntity
  8
0
  6
Continuous
 62
     7
370
    15
100
AcDbLine
 10
175.6464246397
 20
108.4559968666
 30
0.0
 11
175.6464246397
 21
108.4659964771
 31
0.0
  0
LINE
  5
162
330
1F
100
AcDbEntity
  8
0
  6
Continuous
 62
     7
370
    15
100
AcDbLine
 10
164.5323600357
 20
108.3586215035
 30
0.0
 11
164.5323600357
 21
108.3686220453
 31
0.0
  0
LINE
  5
163
330
1F
100
AcDbEntity
  8
0
  6
Continuous
 62
     7
370
    15
100
AcDbLine
 10
164.4417348986
 20
108.2406359718
 30
0.0
 11
164.4417348986
 21
108.2506365136
 31
0.0
  0
LINE
  5
164
330
1F
100
AcDbEntity
  8
0
  6
Continuous
 62
     7
370
    15
100
AcDbLine
 10
174.3844452982
 20
107.9742702648
 30
0.0
 11
174.3844452982
 21
107.9842698753
 31
0.0
  0
LINE
  5
165
330
1F
100
AcDbEntity
  8
0
  6
Continuous
 62
     7
370
    15
100
AcDbLine
 10
175.2714257424
 20
108.172580506
 30
0.0
 11
174.911529172
 21
108.1558520899
 31
0.0
  0
LINE
  5
166
330
1F
100
AcDbEntity
  8
0
  6
Continuous
 62
     7
370
    15
100
AcDbLine
 10
175.4422601049
 20
108.3798323751
 30
0.0
 11
175.2714257424
 21
108.172580506
 31
0.0
  0
LINE
  5
167
330
1F
100
AcDbEntity
  8
0
  6
Continuous
 62
     7
370
    15
100
AcDbLine
 10
175.2714257424
 20
108.1625799641
 30
0.0
 11
175.2714257424
 21
108.172580506
 31
0.0
  0
LINE
  5
168
330
1F
100
AcDbEntity
  8
0
  6
Continuous
 62
     7
370
    15
100
AcDbLine
 10
176.8653247242
 20
108.830092381
 30
0.0
 11
176.9028011446
 21
108.830092381
 31
0.0
  0
LINE
  5
169
330
1F
100
AcDbEntity
  8
0
  6
Continuous
 62
     7
370
    15
100
AcDbLine
 10
178.2399419432
 20
109.3931197182
 30
0.0
 11
176.8653247242
 21
108.830092381
 31
0.0
  0
LINE
  5
16A
330
1F
100
AcDbEntity
  8
0
  6
Continuous
 62
     7
370
    15
100
AcDbLine
 10
176.9028011446
 20
108.830092381
 30
0.0
 11
178.2774183636
 21
109.3931197182
 31
0.0
  0
LINE
  5
16B
330
1F
100
AcDbEntity
  8
0
  6
Continuous
 62
     7
370
    15
100
AcDbLine
 10
176.8653247242
 20
108.830092381
 30
0.0
 11
176.8653247242
 21
108.8408715085
 31
0.0
  0
LINE
  5
16C
330
1F
100
AcDbEntity
  8
0
  6
Continuous
 62
     7
370
    15
100
AcDbLine
 10
163.0641896015
 20
108.830092381
 30
0.0
 11
163.1016660219
 21
108.830092381
 31
0.0
  0
LINE
  5
16D
330
1F
100
AcDbEntity
  8
0
  6
Continuous
 62
     7
370
    15
100
AcDbLine
 10
161.6895686572
 20
109.3931197182
 30
0.0
 11
163.0641896015
 21
108.830092381
 31
0.0
  0
LINE
  5
16E
330
1F
100
AcDbEntity
  8
0
  6
Continuous
 62
     7
370
    15
100
AcDbLine
 10
163.1016660219
 20
108.830092381
 30
0.0
 11
161.7270450776
 21
109.3931197182
 31
0.0
  0
LINE
  5
16F
330
1F
100
AcDbEntity
  8
0
  6
Continuous
 62
     7
370
    15
100
AcDbLine
 10
163.1016660219
 20
108.830092381
 30
0.0
 11
163.1016660219
 21
108.8408715085
 31
0.0
  0
LINE
  5
170
330
1F
100
AcDbEntity
  8
0
  6
Continuous
 62
     7
370
    15
100
AcDbLine
 10
176.9883524363
 20
108.830092381
 30
0.0
 11
177.0009103899
 21
108.830092381
 31
0.0
  0
LINE
  5
171
330
1F
100
AcDbEntity
  8
0
  6
Continuous
 62
     7
370
    15
100
AcDbLine
 10
178.3849972968
 20
109.3931197182
 30
0.0
 11
176.9883524363
 21
108.830092381
 31
0.0
  0
LINE
  5
172
330
1F
100
AcDbEntity
  8
0
  6
Continuous
 62
     7
370
    15
100
AcDbLine
 10
177.0009103899
 20
108.830092381
 30
0.0
 11
178.3975552504
 21
109.3931197182
 31
0.0
  0
LINE
  5
173
330
1F
100
AcDbEntity
  8
0
  6
Continuous
 62
     7
370
    15
100
AcDbLine
 10
176.9883524363
 20
108.830092381
 30
0.0
 11
176.9883524363
 21
108.8408715085
 31
0.0
  0
LINE
  5
174
330
1F
100
AcDbEntity
  8
0
  6
Continuous
 62
     7
370
    15
100
AcDbLine
 10
162.9660766309
 20
108.830092381
 30
0.0
 11
162.9786345845
 21
108.830092381
 31
0.0
  0
LINE
  5
175
330
1F
100
AcDbEntity
  8
0
  6
Continuous
 62
     7
370
    15
100
AcDbLine
 10
161.5694317704
 20
109.3931197182
 30
0.0
 11
162.9660766309
 21
108.830092381
 31
0.0
  0
LINE
  5
176
330
1F
100
AcDbEntity
  8
0
  6
Continuous
 62
     7
370
    15
100
AcDbLine
 10
162.9786345845
 20
108.830092381
 30
0.0
 11
161.581989724
 21
109.3931197182
 31
0.0
  0
LINE
  5
177
330
1F
100
AcDbEntity
  8
0
  6
Continuous
 62
     7
370
    15
100
AcDbLine
 10
162.9786345845
 20
108.830092381
 30
0.0
 11
162.9786345845
 21
108.8408715085
 31
0.0
  0
LINE
  5
178
330
1F
100
AcDbEntity
  8
0
  6
Continuous
 62
     7
370
    15
100
AcDbLine
 10
169.983495373
 20
134.3538983718
 30
0.0
 11
178.4834939723
 21
134.3538983718
 31
0.0
  0
LINE
  5
179
330
1F
100
AcDbEntity
  8
0
  6
Continuous
 62
     7
370
    15
100
AcDbLine
 10
163.3656847959
 20
134.3538983718
 30
0.0
 11
169.983495373
 21
134.3538983718
 31
0.0
  0
SPLINE
  5
17A
330
1F
100
AcDbEntity
  8
0
  6
Continuous
 62
     7
370
    15
100
AcDbSpline
210
0.0
220
0.0
230
1.0
 70
     8
 71
     3
 72
     9
 73
     5
 74
     0
 42
0.00000001
 43
0.00000001
 40
0.0
 40
0.0
 40
0.0
 40
0.0
 40
0.1934841657261271
 40
1.0
 40
1.0
 40
1.0
 40
1.0
 10
162.4595340078213
 20
134.7538986236291
 30
0.0
 10
162.51536227348
 20
134.805722254296
 30
0.0
 10
162.8039040538841
 20
135.0735665529359
 30
0.0
 10
163.0942511702499
 20
135.3394554896612
 30
0.0
 10
163.3284207170346
 20
135.5538991272884
 30
0.0
  0
LINE
  5
17B
330
1F
100
AcDbEntity
  8
0
  6
Continuous
 62
     7
370
    15
100
AcDbLine
 10
178.0834946518
 20
134.7538986236
 30
0.0
 11
162.4595340078
 21
134.7538986236
 31
0.0
  0
LINE
  5
17C
330
1F
100
AcDbEntity
  8
0
  6
Continuous
 62
     7
370
    15
100
AcDbLine
 10
162.6834947353
 20
135.5538991273
 30
0.0
 11
163.328420717
 21
135.5538991273
 31
0.0
  0
LINE
  5
17D
330
1F
100
AcDbEntity
  8
0
  6
Continuous
 62
     7
370
    15
100
AcDbLine
 10
164.9834926908
 20
135.5538991273
 30
0.0
 11
163.328420717
 21
135.5538991273
 31
0.0
  0
LINE
  5
17E
330
1F
100
AcDbEntity
  8
0
  6
Continuous
 62
     7
370
    15
100
AcDbLine
 10
165.4834937041
 20
135.5538991273
 30
0.0
 11
165.4834937041
 21
134.7538986236
 31
0.0
  0
LINE
  5
17F
330
1F
100
AcDbEntity
  8
0
  6
Continuous
 62
     7
370
    15
100
AcDbLine
 10
165.4834937041
 20
135.5538991273
 30
0.0
 11
164.9834926908
 21
135.5538991273
 31
0.0
  0
SPLINE
  5
180
330
1F
100
AcDbEntity
  8
0
  6
Continuous
 62
     7
370
    15
100
AcDbSpline
210
0.0
220
0.0
230
1.0
 70
     8
 71
     3
 72
    68
 73
    64
 74
     0
 42
0.00000001
 43
0.00000001
 40
-0.0312500000000003
 40
-0.0312500000000003
 40
0.0
 40
0.0
 40
0.0312499999999997
 40
0.0312499999999997
 40
0.0624999999999995
 40
0.0624999999999995
 40
0.0937499999999992
 40
0.0937499999999992
 40
0.124999999999999
 40
0.124999999999999
 40
0.1562499999999987
 40
0.1562499999999987
 40
0.1874999999999984
 40
0.1874999999999984
 40
0.2187499999999982
 40
0.2187499999999982
 40
0.2499999999999979
 40
0.2499999999999979
 40
0.2812499999999977
 40
0.2812499999999977
 40
0.3124999999999974
 40
0.3124999999999974
 40
0.3437499999999972
 40
0.3437499999999972
 40
0.3749999999999969
 40
0.3749999999999969
 40
0.4374999999999964
 40
0.4374999999999964
 40
0.4687499999999967
 40
0.4687499999999967
 40
0.4999999999999969
 40
0.4999999999999969
 40
0.5312499999999971
 40
0.5312499999999971
 40
0.5624999999999972
 40
0.5624999999999972
 40
0.5937499999999974
 40
0.5937499999999974
 40
0.6249999999999977
 40
0.6249999999999977
 40
0.6562499999999978
 40
0.6562499999999978
 40
0.687499999999998
 40
0.687499999999998
 40
0.7187499999999982
 40
0.7187499999999982
 40
0.7499999999999983
 40
0.7499999999999983
 40
0.7812499999999986
 40
0.7812499999999986
 40
0.8124999999999988
 40
0.8124999999999988
 40
0.843749999999999
 40
0.843749999999999
 40
0.8749999999999991
 40
0.8749999999999991
 40
0.9062499999999993
 40
0.9062499999999993
 40
0.9374999999999996
 40
0.9374999999999996
 40
0.9687499999999997
 40
0.9687499999999997
 40
1.0
 40
1.0
 40
1.03125
 40
1.03125
 10
167.7961019910421
 20
125.1423756161807
 30
0.0
 10
167.4573723454089
 20
124.8614368739146
 30
0.0
 10
167.3038379097017
 20
124.7068148542638
 30
0.0
 10
167.0291912250309
 20
124.3682850903933
 30
0.0
 10
166.9074346608438
 20
124.182354389859
 30
0.0
 10
166.709424503475
 20
123.7950181058118
 30
0.0
 10
166.6316003553491
 20
123.5923296192368
 30
0.0
 10
166.5213434011614
 20
123.1675104745558
 30
0.0
 10
166.4902785949133
 20
122.9478546238613
 30
0.0
 10
166.4787275048131
 20
122.5121806143383
 30
0.0
 10
166.4981499632295
 20
122.2908248713453
 30
0.0
 10
166.5861982537503
 20
121.8606360558781
 30
0.0
 10
166.6537668876905
 20
121.6532457258767
 30
0.0
 10
166.8341457252348
 20
121.2531948553936
 30
0.0
 10
166.9464249930517
 20
121.0629410033231
 30
0.0
 10
167.2048606034398
 20
120.7124444126228
 30
0.0
 10
167.3536191137577
 20
120.5487975276039
 30
0.0
 10
167.677627242197
 20
120.2555362843702
 30
0.0
 10
167.852199513958
 20
120.1258111275304
 30
0.0
 10
168.2253954476749
 20
119.8983722725892
 30
0.0
 10
168.4242980139403
 20
119.801090924477
 30
0.0
 10
168.8310886730648
 20
119.6449654187889
 30
0.0
 10
169.0407585986723
 20
119.5849234285477
 30
0.0
 10
169.4727941367593
 20
119.5010673866411
 30
0.0
 10
169.6918300626561
 20
119.4781452467838
 30
0.0
 10
170.3454618563442
 20
119.4655362636814
 30
0.0
 10
170.7883054620367
 20
119.5332960478209
 30
0.0
 10
171.4058626088829
 20
119.7424593806936
 30
0.0
 10
171.6061716236154
 20
119.8303210884203
 30
0.0
 10
171.9909322253604
 20
120.0432228762059
 30
0.0
 10
172.1705446753963
 20
120.1654426916099
 30
0.0
 10
172.5043049300859
 20
120.4416564145495
 30
0.0
 10
172.6596963775557
 20
120.5971562105541
 30
0.0
 10
172.9362432353553
 20
120.9371738298035
 30
0.0
 10
173.055324792386
 20
121.1185153796554
 30
0.0
 10
173.2540785996414
 20
121.5046687048083
 30
0.0
 10
173.3343632802737
 20
121.7126320056206
 30
0.0
 10
173.4448025705987
 20
122.1359483687019
 30
0.0
 10
173.4759695352912
 20
122.3515161934013
 30
0.0
 10
173.4886328120743
 20
122.790744126508
 30
0.0
 10
173.4693260549613
 20
123.0123882103296
 30
0.0
 10
173.3826159212021
 20
123.4403834481477
 30
0.0
 10
173.3141499913565
 20
123.6519666696602
 30
0.0
 10
173.1343413892476
 20
124.0517965977366
 30
0.0
 10
173.0239033537983
 20
124.2398183831448
 30
0.0
 10
172.7639343055117
 20
124.5934008017024
 30
0.0
 10
172.6157570151264
 20
124.7564660163935
 30
0.0
 10
172.2932663094309
 20
125.0490917119522
 30
0.0
 10
172.1161351446449
 20
125.1810840873776
 30
0.0
 10
171.7421744363375
 20
125.4091518086037
 30
0.0
 10
171.5465706588721
 20
125.5049865447363
 30
0.0
 10
171.138767992467
 20
125.6619578780963
 30
0.0
 10
170.9249820539253
 20
125.7231055900889
 30
0.0
 10
170.4957927148686
 20
125.8064302071939
 30
0.0
 10
170.2788759771385
 20
125.8294449400749
 30
0.0
 10
169.84038545911
 20
125.838173208751
 30
0.0
 10
169.6185467117531
 20
125.8233887817798
 30
0.0
 10
169.1872075650979
 20
125.7570270047218
 30
0.0
 10
168.9755102480388
 20
125.7056272073413
 30
0.0
 10
168.5602915404448
 20
125.5651158968145
 30
0.0
 10
168.3576925580848
 20
125.4758446644784
 30
0.0
 10
167.9767204132708
 20
125.2648444919605
 30
0.0
 10
167.7961019910421
 20
125.1423756161807
 30
0.0
 10
167.4573723454089
 20
124.8614368739146
 30
0.0
  0
SPLINE
  5
181
330
1F
100
AcDbEntity
  8
0
  6
Continuous
 62
     7
370
    15
100
AcDbSpline
210
0.0
220
0.0
230
1.0
 70
     8
 71
     3
 72
    13
 73
     9
 74
     0
 42
0.00000001
 43
0.00000001
 40
0.0
 40
0.0
 40
0.0
 40
0.0
 40
0.1913526218870991
 40
0.3856345784832276
 40
0.5511109771769964
 40
0.7206559432298533
 40
0.8592740222461482
 40
1.0
 40
1.0
 40
1.0
 40
1.0
 10
158.7293449526169
 20
109.4038988456564
 30
0.0
 10
158.2832316388836
 20
109.1254761315274
 30
0.0
 10
157.38417565522
 20
108.5643684500938
 30
0.0
 10
156.2783654905968
 20
107.8644946594169
 30
0.0
 10
155.3911685757643
 20
107.2996659096285
 30
0.0
 10
154.8034212321238
 20
106.9234676133745
 30
0.0
 10
154.4471357961147
 20
106.6947996674452
 30
0.0
 10
154.4057470405911
 20
106.6681997621015
 30
0.0
 10
154.3848965053894
 20
106.6547994494872
 30
0.0
  0
SPLINE
  5
182
330
1F
100
AcDbEntity
  8
0
  6
Continuous
 62
     7
370
    15
100
AcDbSpline
210
0.0
220
0.0
230
1.0
 70
     8
 71
     3
 72
    16
 73
    12
 74
     0
 42
0.00000001
 43
0.00000001
 40
0.0
 40
0.0
 40
0.0
 40
0.0
 40
0.0257645683308862
 40
0.1918183830085924
 40
0.3421214048138242
 40
0.4960175339127563
 40
0.6017376293093976
 40
0.7074801816574899
 40
0.8161948869001575
 40
0.9249275587978123
 40
1.0
 40
1.0
 40
1.0
 40
1.0
 10
154.7436568622925
 20
138.6387729078966
 30
0.0
 10
154.7382053860525
 20
138.6435839628203
 30
0.0
 10
154.69761889751
 20
138.6794024855367
 30
0.0
 10
154.8720214645647
 20
138.5254930288496
 30
0.0
 10
155.2564742971303
 20
138.1861509970818
 30
0.0
 10
155.7828794015935
 20
137.7213725771663
 30
0.0
 10
156.3563605554876
 20
137.2148388618779
 30
0.0
 10
156.9271337622018
 20
136.71050589079
 30
0.0
 10
157.5634469652134
 20
136.1480165309587
 30
0.0
 10
158.1838610748902
 20
135.5993181625907
 30
0.0
 10
158.598867815897
 20
135.2320478149835
 30
0.0
 10
158.7683710937836
 20
135.0820417508917
 30
0.0
  0
LWPOLYLINE
  5
183
330
1F
100
AcDbEntity
  8
0
  6
Continuous
 62
     7
370
    15
100
AcDbPolyline
 90
       10
 70
   128
 43
0.0
 10
158.7683710938
 20
135.0820417509
 10
160.8076322561
 20
134.7590544254
 10
162.9224758332
 20
134.4240958795
 10
165.1108082121
 20
134.0774985955
 10
167.370464999
 20
133.7196034372
 10
169.6992110198
 20
133.3507661701
 10
172.0947440451
 20
132.9713509411
 10
174.5546985154
 20
132.5817330733
 10
177.0766380911
 20
132.182297203
 10
179.6580668276
 20
131.7734382108
  0
LINE
  5
184
330
1F
100
AcDbEntity
  8
0
  6
Continuous
 62
     7
370
    15
100
AcDbLine
 10
179.6580668276
 20
109.4038988457
 30
0.0
 11
158.7293449526
 21
109.4038988457
 31
0.0
  0
SPLINE
  5
185
330
1F
100
AcDbEntity
  8
0
  6
Continuous
 62
     7
370
    15
100
AcDbSpline
210
0.0
220
0.0
230
1.0
 70
    24
 71
     3
 72
    14
 73
    10
 74
     0
 42
0.00000001
 43
0.00000001
 40
0.0
 40
0.0
 40
0.0
 40
0.0
 40
0.25
 40
0.25
 40
0.5
 40
0.5
 40
0.75
 40
0.75
 40
1.0
 40
1.0
 40
1.0
 40
1.0
 10
180.9571057405199
 20
131.5676911473288
 30
0.0
 10
180.8966627160606
 20
131.5772643819293
 30
0.0
 10
180.8231270956367
 20
131.588911280014
 30
0.0
 10
180.6458727235644
 20
131.6169856145298
 30
0.0
 10
180.542844855289
 20
131.6333036257844
 30
0.0
 10
180.3160024682778
 20
131.6692319302931
 30
0.0
 10
180.1889611099038
 20
131.6893533047372
 30
0.0
 10
179.9291179128898
 20
131.7305084240684
 30
0.0
 10
179.7926392732031
 20
131.7521245170314
 30
0.0
 10
179.6580676348433
 20
131.7734385706566
 30
0.0
  0
SPLINE
  5
186
330
1F
100
AcDbEntity
  8
0
  6
Continuous
 62
     7
370
    15
100
AcDbSpline
210
0.0
220
0.0
230
1.0
 70
    24
 71
     3
 72
    12
 73
     8
 74
     0
 42
0.00000001
 43
0.00000001
 40
0.0
 40
0.0
 40
0.0
 40
0.0
 40
0.2499999999999989
 40
0.2499999999999989
 40
0.4999999999999979
 40
0.4999999999999979
 40
1.0
 40
1.0
 40
1.0
 40
1.0
 10
179.6580676348433
 20
109.4038986891942
 30
0.0
 10
179.8293514697889
 20
109.4038986891942
 30
0.0
 10
180.0003511469262
 20
109.4038986891942
 30
0.0
 10
180.2934049874709
 20
109.4038986891942
 30
0.0
 10
180.4171598446226
 20
109.4038986891942
 30
0.0
 10
180.7294641202913
 20
109.4038986891942
 30
0.0
 10
180.8636817683197
 20
109.4038986891942
 30
0.0
 10
180.9571057405199
 20
109.4038986891942
 30
0.0
  0
LINE
  5
187
330
1F
100
AcDbEntity
  8
0
  6
Continuous
 62
     7
370
    15
100
AcDbLine
 10
120.8334941154
 20
107.1538989425
 30
0.0
 11
120.8334941154
 21
138.1538984359
 31
0.0
  0
CIRCLE
  5
188
330
1F
100
AcDbEntity
  8
0
  6
Continuous
 62
     7
370
    15
100
AcDbCircle
 10
169.9834941154
 20
122.6538986892
 30
0.0
 40
2.5
  0
LINE
  5
189
330
1F
100
AcDbEntity
  8
0
  6
Continuous
 62
     7
370
    15
100
AcDbLine
 10
182.8334931021
 20
131.2705007375
 30
0.0
 11
182.8334931021
 21
110.6538985849
 31
0.0
  0
SPLINE
  5
18A
330
1F
100
AcDbEntity
  8
0
  6
Continuous
 62
     7
370
    15
100
AcDbSpline
210
0.0
220
0.0
230
1.0
 70
    24
 71
     3
 72
    11
 73
     7
 74
     0
 42
0.00000001
 43
0.00000001
 40
0.0
 40
0.0
 40
0.0
 40
0.0
 40
0.3572746271413186
 40
0.7173989801439443
 40
0.9696286154217735
 40
1.0
 40
1.0
 40
1.0
 40
1.0
 10
180.9571053569653
 20
109.4038988456564
 30
0.0
 10
181.1917313729926
 20
109.4038988456564
 30
0.0
 10
181.662854850078
 20
109.4038988456564
 30
0.0
 10
182.0063321465082
 20
109.4038988456564
 30
0.0
 10
182.1309003131342
 20
109.4038988456564
 30
0.0
 10
182.1053652264911
 20
109.4038988456564
 30
0.0
 10
182.1026209478714
 20
109.4038988456564
 30
0.0
  0
SPLINE
  5
18B
330
1F
100
AcDbEntity
  8
0
  6
Continuous
 62
     7
370
    15
100
AcDbSpline
210
0.0
220
0.0
230
1.0
 70
    24
 71
     3
 72
     8
 73
     4
 74
     0
 42
0.00000001
 43
0.00000001
 40
0.0
 40
0.0
 40
0.0
 40
0.0
 40
1.0
 40
1.0
 40
1.0
 40
1.0
 10
182.8334941153862
 20
131.2705004247441
 30
0.0
 10
182.2486061965208
 20
131.3631375704262
 30
0.0
 10
181.6132941724258
 20
131.4637611097939
 30
0.0
 10
180.9571057405199
 20
131.5676911473288
 30
0.0
  0
LINE
  5
18C
330
1F
100
AcDbEntity
  8
0
  6
Continuous
 62
     7
370
    15
100
AcDbLine
 10
104.3334942048
 20
113.6538990766
 30
0.0
 11
104.3334942048
 21
122.6538986892
 31
0.0
  0
SPLINE
  5
18D
330
1F
100
AcDbEntity
  8
0
  6
Continuous
 62
     7
370
    15
100
AcDbSpline
210
0.0
220
0.0
230
1.0
 70
     8
 71
     3
 72
    74
 73
    70
 74
     0
 42
0.00000001
 43
0.00000001
 40
-0.0312499999999999
 40
-0.0312499999999999
 40
0.0
 40
0.0
 40
0.0156250000000001
 40
0.0156250000000001
 40
0.0312500000000002
 40
0.0312500000000002
 40
0.0468750000000003
 40
0.0468750000000003
 40
0.0625000000000004
 40
0.0625000000000004
 40
0.0937500000000006
 40
0.0937500000000006
 40
0.1250000000000009
 40
0.1250000000000009
 40
0.1562500000000011
 40
0.1562500000000011
 40
0.1875000000000013
 40
0.1875000000000013
 40
0.2500000000000016
 40
0.2500000000000016
 40
0.3125000000000018
 40
0.3125000000000018
 40
0.3750000000000021
 40
0.3750000000000021
 40
0.4062500000000022
 40
0.4062500000000022
 40
0.4218750000000021
 40
0.4218750000000021
 40
0.437500000000002
 40
0.437500000000002
 40
0.4687500000000019
 40
0.4687500000000019
 40
0.5000000000000018
 40
0.5000000000000018
 40
0.5156250000000018
 40
0.5156250000000018
 40
0.5312500000000018
 40
0.5312500000000018
 40
0.5625000000000017
 40
0.5625000000000017
 40
0.5937500000000016
 40
0.5937500000000016
 40
0.6250000000000013
 40
0.6250000000000013
 40
0.6562500000000012
 40
0.6562500000000012
 40
0.6875000000000011
 40
0.6875000000000011
 40
0.718750000000001
 40
0.718750000000001
 40
0.7500000000000009
 40
0.7500000000000009
 40
0.7812500000000008
 40
0.7812500000000008
 40
0.8125000000000007
 40
0.8125000000000007
 40
0.8437500000000006
 40
0.8437500000000006
 40
0.8750000000000003
 40
0.8750000000000003
 40
0.9062500000000002
 40
0.9062500000000002
 40
0.9375000000000001
 40
0.9375000000000001
 40
0.9531250000000001
 40
0.9531250000000001
 40
0.9687500000000001
 40
0.9687500000000001
 40
1.0
 40
1.0
 40
1.015625
 40
1.015625
 10
104.3334941153862
 20
122.9407324366289
 30
0.0
 10
104.3334941153862
 20
122.5104818154769
 30
0.0
 10
104.3435997208009
 20
122.3659031173245
 30
0.0
 10
104.3828036574914
 20
122.0835660457181
 30
0.0
 10
104.4118660802255
 20
121.9445300060532
 30
0.0
 10
104.4882204771476
 20
121.670548352806
 30
0.0
 10
104.5359417168655
 20
121.5347127289134
 30
0.0
 10
104.6470269336234
 20
121.2726706496439
 30
0.0
 10
104.7102758488006
 20
121.1462794718861
 30
0.0
 10
104.9212834239579
 20
120.7797360035728
 30
0.0
 10
105.0920862529674
 20
120.5505613222721
 30
0.0
 10
105.4700038502268
 20
120.1388310584505
 30
0.0
 10
105.6780752053027
 20
119.9538480027981
 30
0.0
 10
106.1292997389885
 20
119.6205808949877
 30
0.0
 10
106.3713252166004
 20
119.4737544242582
 30
0.0
 10
106.8729312272201
 20
119.2234478405515
 30
0.0
 10
107.1347839540504
 20
119.1184643559197
 30
0.0
 10
107.9506038116211
 20
118.8638814849234
 30
0.0
 10
108.5101992545212
 20
118.7800235940212
 30
0.0
 10
109.6603224306451
 20
118.7803787792726
 30
0.0
 10
110.2194472590508
 20
118.8645273195514
 30
0.0
 10
111.3064932375187
 20
119.204369833955
 30
0.0
 10
111.8078245011766
 20
119.4512893925409
 30
0.0
 10
112.4872010716843
 20
119.952344467103
 30
0.0
 10
112.6971712056417
 20
120.1390494696944
 30
0.0
 10
112.9801793164497
 20
120.4473562999218
 30
0.0
 10
113.0694432197239
 20
120.5550840169617
 30
0.0
 10
113.23692347921
 20
120.7815380851765
 30
0.0
 10
113.3153600453951
 20
120.900815896501
 30
0.0
 10
113.5268710222249
 20
121.2679915646018
 30
0.0
 10
113.6385135149256
 20
121.5273358516718
 30
0.0
 10
113.7933820867764
 20
122.0806021613189
 30
0.0
 10
113.8329235848437
 20
122.3627814290139
 30
0.0
 10
113.833770232117
 20
122.7902198477467
 30
0.0
 10
113.8240782565989
 20
122.9348660178516
 30
0.0
 10
113.7851552045245
 20
123.2192164638705
 30
0.0
 10
113.7561801863642
 20
123.3586571207286
 30
0.0
 10
113.6424098133927
 20
123.7692978662317
 30
0.0
 10
113.5290414761908
 20
124.0351940273759
 30
0.0
 10
113.2479953061329
 20
124.5247524982646
 30
0.0
 10
113.0780236503718
 20
124.7534772182918
 30
0.0
 10
112.6986079508345
 20
125.1675509078153
 30
0.0
 10
112.4904725134544
 20
125.3525585542273
 30
0.0
 10
112.0412176691504
 20
125.6848462081086
 30
0.0
 10
111.7981766235436
 20
125.8326495928252
 30
0.0
 10
111.2955629738327
 20
126.0837359799549
 30
0.0
 10
111.0345674083316
 20
126.1883871023077
 30
0.0
 10
110.4932033957282
 20
126.3577381160481
 30
0.0
 10
110.2132534794198
 20
126.421787553933
 30
0.0
 10
109.6527769155051
 20
126.5062943228263
 30
0.0
 10
109.3699212202615
 20
126.5275515710088
 30
0.0
 10
108.7988631498635
 20
126.5276412171003
 30
0.0
 10
108.5106408291259
 20
126.5059422250448
 30
0.0
 10
107.9499974480311
 20
126.4210353643892
 30
0.0
 10
107.6748288800118
 20
126.35796627782
 30
0.0
 10
107.1348159689981
 20
126.1892341731198
 30
0.0
 10
106.8695114519897
 20
126.0829187777043
 30
0.0
 10
106.3666841070594
 20
125.8314467945786
 30
0.0
 10
106.1260766066186
 20
125.6852069248622
 30
0.0
 10
105.6733503445842
 20
125.3500821081288
 30
0.0
 10
105.464894017656
 20
125.1641640331632
 30
0.0
 10
105.0868344028714
 20
124.7507283658009
 30
0.0
 10
104.9168652197418
 20
124.5214631105917
 30
0.0
 10
104.7072784507128
 20
124.1557524991653
 30
0.0
 10
104.6444865687271
 20
124.0297035269144
 30
0.0
 10
104.5342513612392
 20
123.7685056516385
 30
0.0
 10
104.4866165141876
 20
123.6323313295408
 30
0.0
 10
104.3727056376709
 20
123.2210258467968
 30
0.0
 10
104.3334941153862
 20
122.9407324366289
 30
0.0
 10
104.3334941153862
 20
122.5104818154769
 30
0.0
  0
LINE
  5
18E
330
1F
100
AcDbEntity
  8
0
  6
Continuous
 62
     7
370
    15
100
AcDbLine
 10
104.3334942048
 20
122.6538986892
 30
0.0
 11
104.3334942048
 21
131.6538983018
 31
0.0
  0
SPLINE
  5
18F
330
1F
100
AcDbEntity
  8
0
  6
Continuous
 62
     7
370
    15
100
AcDbSpline
210
0.0
220
0.0
230
1.0
 70
     8
 71
     3
 72
    26
 73
    22
 74
     0
 42
0.00000001
 43
0.00000001
 40
0.0
 40
0.0
 40
0.0
 40
0.0
 40
0.0087194092365916
 40
0.0828366834721272
 40
0.1575109253315986
 40
0.2103197933406044
 40
0.2646516545591615
 40
0.3184027082807893
 40
0.3733082510825594
 40
0.4355661581562312
 40
0.499574932494408
 40
0.5626663554212182
 40
0.6275932176769216
 40
0.690674195264944
 40
0.7556305794066671
 40
0.8058896434387538
 40
0.8574551624111932
 40
0.8978403486714339
 40
0.9393062113108147
 40
0.9797420713332079
 40
1.0
 40
1.0
 40
1.0
 40
1.0
 10
104.3334942047932
 20
131.6538983017641
 30
0.0
 10
104.3339805513592
 20
131.6537315683956
 30
0.0
 10
104.3386009717854
 20
131.6521475574958
 30
0.0
 10
104.4898542470663
 20
131.5994420727393
 30
0.0
 10
104.9391220937874
 20
131.452334104449
 30
0.0
 10
105.4860738741408
 20
131.2916698956661
 30
0.0
 10
106.0517213390018
 20
131.1449281926596
 30
0.0
 10
106.6885224654438
 20
131.0066300139898
 30
0.0
 10
107.4074376184235
 20
130.8859720122042
 30
0.0
 10
108.2112727643726
 20
130.7991721243658
 30
0.0
 10
109.0759707764309
 20
130.7669424928636
 30
0.0
 10
109.952865310551
 20
130.7986598911934
 30
0.0
 10
110.801127028918
 20
130.8902833917341
 30
0.0
 10
111.6086964039469
 20
131.0304090164628
 30
0.0
 10
112.2891059536491
 20
131.187297083516
 30
0.0
 10
112.8480473964746
 20
131.3393159316106
 30
0.0
 10
113.2500541471036
 20
131.4608706739552
 30
0.0
 10
113.5472823737968
 20
131.55681834867
 30
0.0
 10
113.7347215015426
 20
131.6198437937655
 30
0.0
 10
113.8311083264879
 20
131.6530705131797
 30
0.0
 10
113.822980551153
 20
131.6502696670685
 30
0.0
 10
113.820267721776
 20
131.6493348211484
 30
0.0
  0
LINE
  5
190
330
1F
100
AcDbEntity
  8
0
  6
Continuous
 62
     7
370
    15
100
AcDbLine
 10
118.3334941713
 20
113.6538990766
 30
0.0
 11
118.3334941713
 21
131.6538983018
 31
0.0
  0
CIRCLE
  5
191
330
1F
100
AcDbEntity
  8
0
  6
Continuous
 62
     7
370
    15
100
AcDbCircle
 10
109.0834941154
 20
122.6538986892
 30
0.0
 40
3.760164906006409
  0
LINE
  5
192
330
1F
100
AcDbEntity
  8
0
  6
Continuous
 62
     7
370
    15
100
AcDbLine
 10
98.8334942346
 20
114.8638985113
 30
0.0
 11
98.8334942346
 21
130.4438988671
 31
0.0
  0
LINE
  5
193
330
1F
100
AcDbEntity
  8
0
  6
Continuous
 62
     7
370
    15
100
AcDbLine
 10
178.4082580095
 20
109.3938983039
 30
0.0
 11
178.4082580095
 21
109.4038038508
 31
0.0
  0
LINE
  5
194
330
1F
100
AcDbEntity
  8
0
  6
Continuous
 62
     7
370
    15
100
AcDbLine
 10
178.4821714943
 20
109.3938983039
 30
0.0
 11
178.4821714943
 21
109.4038988457
 31
0.0
  0
SPLINE
  5
195
330
1F
100
AcDbEntity
  8
0
  6
Continuous
 62
     7
370
    15
100
AcDbSpline
210
0.0
220
0.0
230
1.0
 70
     8
 71
     3
 72
    60
 73
    56
 74
     0
 42
0.00000001
 43
0.00000001
 40
-0.0624999999999999
 40
-0.0624999999999999
 40
0.0
 40
0.0
 40
0.0625
 40
0.0625
 40
0.0937500000000001
 40
0.0937500000000001
 40
0.1250000000000001
 40
0.1250000000000001
 40
0.1562500000000001
 40
0.1562500000000001
 40
0.1875000000000001
 40
0.1875000000000001
 40
0.2187500000000002
 40
0.2187500000000002
 40
0.2500000000000002
 40
0.2500000000000002
 40
0.2812500000000002
 40
0.2812500000000002
 40
0.3125000000000002
 40
0.3125000000000002
 40
0.3437500000000002
 40
0.3437500000000002
 40
0.3750000000000002
 40
0.3750000000000002
 40
0.4062500000000002
 40
0.4062500000000002
 40
0.4375000000000003
 40
0.4375000000000003
 40
0.5000000000000002
 40
0.5000000000000002
 40
0.5625000000000002
 40
0.5625000000000002
 40
0.5937500000000002
 40
0.5937500000000002
 40
0.6250000000000002
 40
0.6250000000000002
 40
0.6562500000000003
 40
0.6562500000000003
 40
0.6875000000000003
 40
0.6875000000000003
 40
0.75
 40
0.75
 40
0.78125
 40
0.78125
 40
0.8125
 40
0.8125
 40
0.84375
 40
0.84375
 40
0.875
 40
0.875
 40
0.9062500000000001
 40
0.9062500000000001
 40
0.9375000000000001
 40
0.9375000000000001
 40
1.0
 40
1.0
 40
1.0625
 40
1.0625
 10
107.1240840580096
 20
124.1338154806636
 30
0.0
 10
107.5945437253578
 20
124.5306135094121
 30
0.0
 10
107.8584408490018
 20
124.6798662804503
 30
0.0
 10
108.3067197991078
 20
124.837615197707
 30
0.0
 10
108.460397250937
 20
124.8770072373535
 30
0.0
 10
108.7767325517519
 20
124.9296749683174
 30
0.0
 10
108.9415774399033
 20
124.9427618525658
 30
0.0
 10
109.2658206341393
 20
124.940459331164
 30
0.0
 10
109.4262768918199
 20
124.925604459158
 30
0.0
 10
109.7439956228932
 20
124.8683502520776
 30
0.0
 10
109.8982801261655
 20
124.8262929731742
 30
0.0
 10
110.1921782603297
 20
124.7181994509523
 30
0.0
 10
110.33408966309
 20
124.6511922789312
 30
0.0
 10
110.5989969856075
 20
124.4954855713247
 30
0.0
 10
110.7225984334038
 20
124.4068438083686
 30
0.0
 10
110.9530031301223
 20
124.2059094880152
 30
0.0
 10
111.0595730929001
 20
124.0932620012417
 30
0.0
 10
111.2463994866665
 20
123.8508027460599
 30
0.0
 10
111.3279794392751
 20
123.7200290453481
 30
0.0
 10
111.4647436885532
 20
123.4356722626657
 30
0.0
 10
111.5189179204413
 20
123.2827697038721
 30
0.0
 10
111.5908291170416
 20
122.969072694464
 30
0.0
 10
111.609287695493
 20
122.8039217147517
 30
0.0
 10
111.6073775984053
 20
122.4791087024666
 30
0.0
 10
111.587435233566
 20
122.3164152706004
 30
0.0
 10
111.5114485830653
 20
122.0011338487477
 30
0.0
 10
111.4565961188254
 20
121.8516113728396
 30
0.0
 10
111.2456459042998
 20
121.4245673775684
 30
0.0
 10
111.0481320284218
 20
121.1800916451681
 30
0.0
 10
110.5825903926679
 20
120.7840958744778
 30
0.0
 10
110.3102409985086
 20
120.629358330196
 30
0.0
 10
109.868869754348
 20
120.4728065493798
 30
0.0
 10
109.7154996417847
 20
120.4326694510354
 30
0.0
 10
109.3943439852849
 20
120.378422716105
 30
0.0
 10
109.2333004760463
 20
120.36547481072
 30
0.0
 10
108.9102813883383
 20
120.3668034214059
 30
0.0
 10
108.7462609364083
 20
120.3815168168586
 30
0.0
 10
108.4281265687451
 20
120.4382087099636
 30
0.0
 10
108.2748410047738
 20
120.4795780344498
 30
0.0
 10
107.8301321248535
 20
120.642166715057
 30
0.0
 10
107.5614745588278
 20
120.7989819535023
 30
0.0
 10
107.2139546839007
 20
121.1018460944859
 30
0.0
 10
107.1091018882966
 20
121.2125719431012
 30
0.0
 10
106.9213800771204
 20
121.4557450235574
 30
0.0
 10
106.8376272677898
 20
121.5900735040393
 30
0.0
 10
106.700660369827
 20
121.8759985414
 30
0.0
 10
106.6474845249431
 20
122.0263832938899
 30
0.0
 10
106.5751711196397
 20
122.3442606362875
 30
0.0
 10
106.5574716609128
 20
122.5068708373403
 30
0.0
 10
106.5598823515845
 20
122.8321402316831
 30
0.0
 10
106.580594543292
 20
122.9973669822912
 30
0.0
 10
106.6569595945967
 20
123.3108370291825
 30
0.0
 10
106.7132735883547
 20
123.4631548337842
 30
0.0
 10
106.9250648835133
 20
123.8884163400642
 30
0.0
 10
107.1240840580096
 20
124.1338154806636
 30
0.0
 10
107.5945437253578
 20
124.5306135094121
 30
0.0
  0
LINE
  5
196
330
1F
100
AcDbEntity
  8
0
  6
Continuous
 62
     7
370
    15
100
AcDbLine
 10
179.6090196555
 20
109.3938983039
 30
0.0
 11
178.4821714943
 21
109.3938983039
 31
0.0
  0
LINE
  5
197
330
1F
100
AcDbEntity
  8
0
  6
Continuous
 62
     7
370
    15
100
AcDbLine
 10
178.4821714943
 20
109.3938983039
 30
0.0
 11
178.4082580095
 21
109.3938983039
 31
0.0
  0
SPLINE
  5
198
330
1F
100
AcDbEntity
  8
0
  6
HIDDEN
 62
     7
370
     0
100
AcDbSpline
210
0.0
220
0.0
230
1.0
 70
     8
 71
     3
 72
    14
 73
    10
 74
     0
 42
0.00000001
 43
0.00000001
 40
0.0
 40
0.0
 40
0.0
 40
0.0
 40
0.0017987856797357
 40
0.1404868670557745
 40
0.2832402570595932
 40
0.4535382882739883
 40
0.6287463378168462
 40
0.8129066166033637
 40
1.0
 40
1.0
 40
1.0
 40
1.0
 10
154.3848965053894
 20
106.6547994494872
 30
0.0
 10
154.3844290916243
 20
106.6544997737191
 30
0.0
 10
154.3479236334043
 20
106.6310948120969
 30
0.0
 10
154.4764193168886
 20
106.713595903669
 30
0.0
 10
154.8019183764909
 20
106.9225036363497
 30
0.0
 10
155.4254437750522
 20
107.321582360003
 30
0.0
 10
156.3218827162493
 20
107.8921181326626
 30
0.0
 10
157.4270411990337
 20
108.5911998421406
 30
0.0
 10
158.2929632839094
 20
109.131576089667
 30
0.0
 10
158.7293449526169
 20
109.4038988456564
 30
0.0
  0
LINE
  5
199
330
1F
100
AcDbEntity
  8
0
  6
HIDDEN
 62
     7
370
     0
100
AcDbLine
 10
158.7293449526
 20
109.4038988457
 30
0.0
 11
179.6580668276
 21
109.4038988457
 31
0.0
  0
LWPOLYLINE
  5
19A
330
1F
100
AcDbEntity
  8
0
  6
HIDDEN
 62
     7
370
     0
100
AcDbPolyline
 90
       10
 70
   128
 43
0.0
 10
179.6580668276
 20
131.7734382108
 10
177.0766380911
 20
132.182297203
 10
174.5546985154
 20
132.5817330733
 10
172.0947440451
 20
132.9713509411
 10
169.6992110198
 20
133.3507661701
 10
167.370464999
 20
133.7196034372
 10
165.1108082121
 20
134.0774985955
 10
162.9224758332
 20
134.4240958795
 10
160.8076322561
 20
134.7590544254
 10
158.7683710938
 20
135.0820417509
  0
SPLINE
  5
19B
330
1F
100
AcDbEntity
  8
0
  6
HIDDEN
 62
     7
370
     0
100
AcDbSpline
210
0.0
220
0.0
230
1.0
 70
     8
 71
     3
 72
    14
 73
    10
 74
     0
 42
0.00000001
 43
0.00000001
 40
0.0
 40
0.0
 40
0.0
 40
0.0
 40
0.1316864611639129
 40
0.3330953508095432
 40
0.4363996368028139
 40
0.5396826012085753
 40
0.7002044074493622
 40
0.8650840849886058
 40
1.0
 40
1.0
 40
1.0
 40
1.0
 10
158.7683710937836
 20
135.0820417508917
 30
0.0
 10
158.4735505607168
 20
135.3429224709888
 30
0.0
 10
157.7278144537565
 20
136.0028092521518
 30
0.0
 10
156.86552356294
 20
136.7649824605919
 30
0.0
 10
156.1687771354214
 20
137.3805427047546
 30
0.0
 10
155.6210644273251
 20
137.8642574767816
 30
0.0
 10
155.1232961751628
 20
138.3037143657907
 30
0.0
 10
154.7777422828976
 20
138.6086954649606
 30
0.0
 10
154.7542355233803
 20
138.6294381521693
 30
0.0
 10
154.7436568622925
 20
138.6387729078966
 30
0.0
  0
LINE
  5
19C
330
1F
100
AcDbEntity
  8
0
  6
HIDDEN
 62
     7
370
     0
100
AcDbLine
 10
120.8334941154
 20
138.1538984359
 30
0.0
 11
120.8334941154
 21
107.1538989425
 31
0.0
  0
LINE
  5
19D
330
1F
100
AcDbEntity
  8
0
  6
HIDDEN
 62
     7
370
     0
100
AcDbLine
 10
182.8334931021
 20
110.6538985849
 30
0.0
 11
182.8334931021
 21
131.2705007375
 31
0.0
  0
SPLINE
  5
19E
330
1F
100
AcDbEntity
  8
0
  6
HIDDEN
 62
     7
370
     0
100
AcDbSpline
210
0.0
220
0.0
230
1.0
 70
    24
 71
     3
 72
     8
 73
     4
 74
     0
 42
0.00000001
 43
0.00000001
 40
0.0
 40
0.0
 40
0.0
 40
0.0
 40
1.0
 40
1.0
 40
1.0
 40
1.0
 10
180.9571057405199
 20
131.5676911473288
 30
0.0
 10
181.6132941724258
 20
131.4637611097939
 30
0.0
 10
182.2486061965208
 20
131.3631375704262
 30
0.0
 10
182.8334941153862
 20
131.2705004247441
 30
0.0
  0
SPLINE
  5
19F
330
1F
100
AcDbEntity
  8
0
  6
HIDDEN
 62
     7
370
     0
100
AcDbSpline
210
0.0
220
0.0
230
1.0
 70
    24
 71
     3
 72
    11
 73
     7
 74
     0
 42
0.00000001
 43
0.00000001
 40
0.0
 40
0.0
 40
0.0
 40
0.0
 40
0.2217985108993555
 40
0.4806794608863253
 40
0.7396291590030781
 40
1.0
 40
1.0
 40
1.0
 40
1.0
 10
182.1026209478714
 20
109.4038988456564
 30
0.0
 10
182.0942514822099
 20
109.4038988456564
 30
0.0
 10
182.0761132619586
 20
109.4038988456564
 30
0.0
 10
181.8439974756139
 20
109.4038988456564
 30
0.0
 10
181.4773387418405
 20
109.4038988456564
 30
0.0
 10
181.1308325615875
 20
109.4038988456564
 30
0.0
 10
180.9571053569653
 20
109.4038988456564
 30
0.0
  0
ARC
  5
1A0
330
1F
100
AcDbEntity
  8
0
  6
HIDDEN
 62
     7
370
     0
100
AcDbCircle
 10
175.4379538034
 20
125.6787781318
 30
0.0
 40
2.371392581014645
100
AcDbArc
 50
39.3253287777
 51
78.7093308743
  0
ELLIPSE
  5
1A1
330
1F
100
AcDbEntity
  8
0
  6
HIDDEN
 62
     7
370
     0
100
AcDbEllipse
 10
149.8334941154
 20
127.7750908691
 30
0.0
 11
1.060060120195544
 21
1.060060120195516
 31
0.0
210
0.0
220
0.0
230
1.0
 40
0.6248693519
 41
0.2992410181277103
 42
1.012290966156731
  0
ELLIPSE
  5
1A2
330
1F
100
AcDbEntity
  8
0
  6
HIDDEN
 62
     7
370
     0
100
AcDbEllipse
 10
149.8334941154
 20
127.7750908691
 30
0.0
 11
-1.060060120195516
 21
1.060060120195516
 31
0.0
210
0.0
220
0.0
230
0.9999999999999998
 40
0.6248693519
 41
2.12930168743309
 42
5.270894341022895
  0
ELLIPSE
  5
1A3
330
1F
100
AcDbEntity
  8
0
  6
HIDDEN
 62
     7
370
     0
100
AcDbEllipse
 10
149.8334941154
 20
127.7750908691
 30
0.0
 11
1.060060120195544
 21
1.060060120195516
 31
0.0
210
0.0
220
0.0
230
1.0
 40
0.6248693519
 41
4.153883619746537
 42
4.866933567775525
  0
LWPOLYLINE
  5
1A4
330
1F
100
AcDbEntity
  8
0
  6
HIDDEN
 62
     7
370
     0
100
AcDbPolyline
 90
       17
 70
   128
 43
0.0
 10
150.6511740123
 20
127.2837616496
 10
150.3518189972
 20
127.1111861796
 10
150.0105079
 20
127.0213675678
 10
149.6548674738
 20
127.0215761841
 10
149.3136867618
 20
127.1117947989
 10
149.0145832037
 20
127.2847209119
 10
148.7817674612
 20
127.5263562791
 10
148.6340857779
 20
127.817141264
 10
148.583494473
 20
128.1335380853
 10
148.6340857779
 20
128.4499344409
 10
148.7817674612
 20
128.7407198914
 10
149.0145832037
 20
128.9823552587
 10
149.3136867618
 20
129.1552813717
 10
149.6548674738
 20
129.2454999865
 10
150.0105079
 20
129.2457086027
 10
150.3518189972
 20
129.1558895253
 10
150.6511740123
 20
128.9833145209
  0
SPLINE
  5
1A5
330
1F
100
AcDbEntity
  8
0
  6
HIDDEN
 62
     7
370
     0
100
AcDbSpline
210
0.0
220
0.0
230
1.0
 70
     8
 71
     3
 72
    42
 73
    38
 74
     0
 42
0.00000001
 43
0.00000001
 40
-0.0625000000000004
 40
-0.0625000000000004
 40
0.0
 40
0.0
 40
0.0624999999999995
 40
0.0624999999999995
 40
0.1249999999999991
 40
0.1249999999999991
 40
0.1874999999999986
 40
0.1874999999999986
 40
0.2499999999999981
 40
0.2499999999999981
 40
0.2812499999999979
 40
0.2812499999999979
 40
0.3124999999999977
 40
0.3124999999999977
 40
0.3749999999999977
 40
0.3749999999999977
 40
0.4374999999999977
 40
0.4374999999999977
 40
0.4999999999999978
 40
0.4999999999999978
 40
0.5624999999999978
 40
0.5624999999999978
 40
0.6249999999999977
 40
0.6249999999999977
 40
0.6874999999999977
 40
0.6874999999999977
 40
0.718749999999998
 40
0.718749999999998
 40
0.7499999999999983
 40
0.7499999999999983
 40
0.8124999999999988
 40
0.8124999999999988
 40
0.8749999999999991
 40
0.8749999999999991
 40
0.9374999999999996
 40
0.9374999999999996
 40
1.0
 40
1.0
 40
1.0625
 40
1.0625
 10
149.6667358079
 20
122.9164841234318
 30
0.0
 10
150.0002524228725
 20
122.9164841234318
 30
0.0
 10
150.1636813436423
 20
122.9524620558907
 30
0.0
 10
150.4656080720887
 20
123.0855498280605
 30
0.0
 10
150.6032022685437
 20
123.1825823359728
 30
0.0
 10
150.8316240809334
 20
123.4148622050593
 30
0.0
 10
150.9245043020647
 20
123.552435981449
 30
0.0
 10
151.0497993714402
 20
123.8412391749957
 30
0.0
 10
151.0833840366193
 20
123.9955122198865
 30
0.0
 10
151.0835487383784
 20
124.2176615842075
 30
0.0
 10
151.0752512124459
 20
124.2914712640175
 30
0.0
 10
151.0429807407181
 20
124.4310621113016
 30
0.0
 10
151.0191107240288
 20
124.4977269713165
 30
0.0
 10
150.9238928619655
 20
124.6888499441113
 30
0.0
 10
150.831692044079
 20
124.7983972820628
 30
0.0
 10
150.6020875987388
 20
124.9774529427606
 30
0.0
 10
150.4643553126662
 20
125.0466762478007
 30
0.0
 10
150.1638881260933
 20
125.1393671940665
 30
0.0
 10
149.9981395548078
 20
125.1634261215157
 30
0.0
 10
149.6697523458366
 20
125.1635122383538
 30
0.0
 10
149.5040816368977
 20
125.1396407469902
 30
0.0
 10
149.2021476252463
 20
125.0465557314468
 30
0.0
 10
149.0652662267438
 20
124.9778367105573
 30
0.0
 10
148.8340343892891
 20
124.7973142329006
 30
0.0
 10
148.7426500179606
 20
124.6880166284987
 30
0.0
 10
148.6479852147261
 20
124.4979128092261
 30
0.0
 10
148.6241407363075
 20
124.4314711958554
 30
0.0
 10
148.5918226135356
 20
124.2920076813425
 30
0.0
 10
148.5834754185491
 20
124.2181524429692
 30
0.0
 10
148.5835316059719
 20
123.9960105998843
 30
0.0
 10
148.6170205576104
 20
123.8416325705188
 30
0.0
 10
148.7426385538409
 20
123.5520741108449
 30
0.0
 10
148.8353939900828
 20
123.414709122607
 30
0.0
 10
149.06475106387
 20
123.1817242056501
 30
0.0
 10
149.2014604031307
 20
123.0854075379332
 30
0.0
 10
149.504575694097
 20
122.952010167956
 30
0.0
 10
149.6667358079
 20
122.9164841234318
 30
0.0
 10
150.0002524228725
 20
122.9164841234318
 30
0.0
  0
LINE
  5
1A6
330
1F
100
AcDbEntity
  8
0
  6
HIDDEN
 62
     7
370
     0
100
AcDbLine
 10
178.8334924465
 20
126.5250909135
 30
0.0
 11
178.8334924465
 21
129.0250908576
 31
0.0
  0
SPLINE
  5
1A7
330
1F
100
AcDbEntity
  8
0
  6
HIDDEN
 62
     7
370
     0
100
AcDbSpline
210
0.0
220
0.0
230
1.0
 70
     8
 71
     3
 72
    28
 73
    24
 74
     0
 42
0.00000001
 43
0.00000001
 40
-0.1250000000000111
 40
-0.1250000000000111
 40
0.0
 40
0.0
 40
0.1249999999999948
 40
0.1249999999999948
 40
0.1874999999999938
 40
0.1874999999999938
 40
0.2499999999999927
 40
0.2499999999999927
 40
0.3749999999999887
 40
0.3749999999999887
 40
0.4999999999999847
 40
0.4999999999999847
 40
0.562499999999983
 40
0.562499999999983
 40
0.6249999999999812
 40
0.6249999999999812
 40
0.6874999999999796
 40
0.6874999999999796
 40
0.7499999999999779
 40
0.7499999999999779
 40
0.8749999999999889
 40
0.8749999999999889
 40
1.0
 40
1.0
 40
1.124999999999995
 40
1.124999999999995
 10
176.375238637404
 20
126.6188283730237
 30
0.0
 10
176.4609388679204
 20
126.6549527772756
 30
0.0
 10
176.475949835257
 20
126.6844612461341
 30
0.0
 10
176.4669470055615
 20
126.7324190093572
 30
0.0
 10
176.4584560552237
 20
126.7491785777037
 30
0.0
 10
176.4278622686212
 20
126.7801628286772
 30
0.0
 10
176.4055161664982
 20
126.7937289005544
 30
0.0
 10
176.3252937965635
 20
126.8202769804497
 30
0.0
 10
176.2608812544787
 20
126.8193649556154
 30
0.0
 10
176.1424398684286
 20
126.804772602267
 30
0.0
 10
176.0857704775092
 20
126.7914069357799
 30
0.0
 10
176.0091694921144
 20
126.7622237291617
 30
0.0
 10
175.9853144423368
 20
126.7510116665872
 30
0.0
 10
175.9497911442673
 20
126.7232688380961
 30
0.0
 10
175.940926851312
 20
126.7062699317151
 30
0.0
 10
175.9564790154747
 20
126.676946497604
 30
0.0
 10
175.9771950343118
 20
126.665567968407
 30
0.0
 10
176.0230733053666
 20
126.6479936531092
 30
0.0
 10
176.0493888884092
 20
126.6413014958438
 30
0.0
 10
176.1304862918835
 20
126.6250577392624
 30
0.0
 10
176.1896650085182
 20
126.6185883521337
 30
0.0
 10
176.3090605762814
 20
126.6151520232662
 30
0.0
 10
176.375238637404
 20
126.6188283730237
 30
0.0
 10
176.4609388679204
 20
126.6549527772756
 30
0.0
  0
ELLIPSE
  5
1A8
330
1F
100
AcDbEntity
  8
0
  6
HIDDEN
 62
     7
370
     0
100
AcDbEllipse
 10
176.5873051247
 20
127.7750908691
 30
0.0
 11
-0.7350583619719941
 21
1.236667154251819
 31
0.0
210
0.0
220
0.0
230
1.0
 40
0.2477127917
 41
5.107254234505151
 42
8.248846888094933
  0
ELLIPSE
  5
1A9
330
1F
100
AcDbEntity
  8
0
  6
HIDDEN
 62
     7
370
     0
100
AcDbEllipse
 10
176.5873051247
 20
127.7750908691
 30
0.0
 11
1.941178595723983
 21
1.153810509127055
 31
0.0
210
0.0
220
0.0
230
1.0
 40
0.2477127917
 41
4.209541344909963
 42
4.566202166386922
  0
SPLINE
  5
1AA
330
1F
100
AcDbEntity
  8
0
  6
HIDDEN
 62
     7
370
     0
100
AcDbSpline
210
0.0
220
0.0
230
1.0
 70
     8
 71
     3
 72
    18
 73
    14
 74
     0
 42
0.00000001
 43
0.00000001
 40
0.0
 40
0.0
 40
0.0
 40
0.0
 40
0.1250000000000006
 40
0.1250000000000006
 40
0.2500000000000012
 40
0.2500000000000012
 40
0.3750000000000018
 40
0.3750000000000018
 40
0.5000000000000023
 40
0.5000000000000023
 40
0.7500000000000011
 40
0.7500000000000011
 40
1.0
 40
1.0
 40
1.0
 40
1.0
 10
177.2723691789624
 20
126.5251137538973
 30
0.0
 10
177.1998999450126
 20
126.5251786349767
 30
0.0
 10
177.127342316868
 20
126.52539089607
 30
0.0
 10
176.9814935708156
 20
126.5258067947659
 30
0.0
 10
176.9081572086512
 20
126.5260032196621
 30
0.0
 10
176.7620286588515
 20
126.5256082207331
 30
0.0
 10
176.6893853418436
 20
126.5245154798651
 30
0.0
 10
176.5682593262557
 20
126.5261908685423
 30
0.0
 10
176.5181964535141
 20
126.5297931223049
 30
0.0
 10
176.3758800247569
 20
126.5531915594681
 30
0.0
 10
176.2872052567831
 20
126.5847945917904
 30
0.0
 10
176.0984188081162
 20
126.6741514321678
 30
0.0
 10
176.0018901509475
 20
126.7308850761067
 30
0.0
 10
175.9022410704875
 20
126.7977119047615
 30
0.0
  0
ELLIPSE
  5
1AB
330
1F
100
AcDbEntity
  8
0
  6
HIDDEN
 62
     7
370
     0
100
AcDbEllipse
 10
176.5873051247
 20
127.7750908691
 30
0.0
 11
-0.7350583619719941
 21
1.236667154251819
 31
0.0
210
0.0
220
0.0
230
1.0
 40
0.2477127917
 41
1.965661580915386
 42
3.001456932889122
  0
ELLIPSE
  5
1AC
330
1F
100
AcDbEntity
  8
0
  6
HIDDEN
 62
     7
370
     0
100
AcDbEllipse
 10
176.5873051247
 20
127.7750908691
 30
0.0
 11
1.941178595723983
 21
1.153810509127055
 31
0.0
210
0.0
220
0.0
230
1.0
 40
0.2477127917
 41
4.566202166386919
 42
7.707794819976707
  0
ELLIPSE
  5
1AD
330
1F
100
AcDbEntity
  8
0
  6
HIDDEN
 62
     7
370
     0
100
AcDbEllipse
 10
149.8334941154
 20
127.7750908691
 30
0.0
 11
1.060060120195544
 21
1.060060120195516
 31
0.0
210
0.0
220
0.0
230
1.0
 40
0.6248693519
 41
4.866933567775525
 42
6.582426325307296
  0
ELLIPSE
  5
1AE
330
1F
100
AcDbEntity
  8
0
  6
HIDDEN
 62
     7
370
     0
100
AcDbEllipse
 10
176.5873051247
 20
127.7750908691
 30
0.0
 11
1.941178595723983
 21
1.153810509127055
 31
0.0
210
0.0
220
0.0
230
1.0
 40
0.2477127917
 41
1.424609512797124
 42
1.781270334274101
  0
ELLIPSE
  5
1AF
330
1F
100
AcDbEntity
  8
0
  6
HIDDEN
 62
     7
370
     0
100
AcDbEllipse
 10
176.5873051247
 20
127.7750908691
 30
0.0
 11
-0.7350583619719941
 21
1.236667154251819
 31
0.0
210
0.0
220
0.0
230
1.0
 40
0.2477127917
 41
4.071458882531395
 42
5.107254234505191
  0
SPLINE
  5
1B0
330
1F
100
AcDbEntity
  8
0
  6
HIDDEN
 62
     7
370
     0
100
AcDbSpline
210
0.0
220
0.0
230
1.0
 70
     8
 71
     3
 72
    20
 73
    16
 74
     0
 42
0.00000001
 43
0.00000001
 40
0.0
 40
0.0
 40
0.0
 40
0.0
 40
0.2499999999999829
 40
0.2499999999999829
 40
0.4999999999999658
 40
0.4999999999999658
 40
0.6249999999999611
 40
0.6249999999999611
 40
0.6874999999999637
 40
0.6874999999999637
 40
0.7499999999999664
 40
0.7499999999999664
 40
0.8749999999999831
 40
0.8749999999999831
 40
1.0
 40
1.0
 40
1.0
 40
1.0
 10
175.9022410704886
 20
128.0042760363087
 30
0.0
 10
176.0020650637771
 20
127.8987108996444
 30
0.0
 10
176.0983963429719
 20
127.7901408693315
 30
0.0
 10
176.2860870838209
 20
127.5687693500307
 30
0.0
 10
176.3759398048508
 20
127.4536057238874
 30
0.0
 10
176.5193005429654
 20
127.2966930158284
 30
0.0
 10
176.5695478125671
 20
127.2463548206623
 30
0.0
 10
176.6607229522452
 20
127.1919409788982
 30
0.0
 10
176.6945843312768
 20
127.1775379970894
 30
0.0
 10
176.7641559309553
 20
127.1586443410903
 30
0.0
 10
176.8002914276749
 20
127.1535844355397
 30
0.0
 10
176.9105674645682
 20
127.1462307491062
 30
0.0
 10
176.9831645078581
 20
127.1508041391913
 30
0.0
 10
177.1280241963592
 20
127.1634572496652
 30
0.0
 10
177.2002248393273
 20
127.1721894362619
 30
0.0
 10
177.2723691789624
 20
127.1815837023284
 30
0.0
  0
ARC
  5
1B1
330
1F
100
AcDbEntity
  8
0
  6
HIDDEN
 62
     7
370
     0
100
AcDbCircle
 10
150.0249145343
 20
128.1335380853
 30
0.0
 40
1.055614003483015
100
AcDbArc
 50
306.3890893624
 51
53.6109106376
  0
LWPOLYLINE
  5
1B2
330
1F
100
AcDbEntity
  8
0
  6
HIDDEN
 62
     7
370
     0
100
AcDbPolyline
 90
       37
 70
   128
 43
0.0
 10
178.0403706913
 20
132.029656227
 10
178.2334934657
 20
131.9990687997
 10
178.4448478108
 20
131.9655942724
 10
178.6680113261
 20
131.930248718
 10
178.8962002581
 20
131.8941068829
 10
179.1224855666
 20
131.8582667962
 10
179.339990366
 20
131.8238171742
 10
179.5421059912
 20
131.7918048233
 10
179.7226894384
 20
131.7632039071
 10
179.8762570804
 20
131.7388814867
 10
179.998137403
 20
131.7195770324
 10
180.0846349185
 20
131.7058772773
 10
180.1331121211
 20
131.6981985227
 10
180.1421049719
 20
131.6967745305
 10
180.1113377993
 20
131.7016481415
 10
180.0417382007
 20
131.7126712755
 10
179.9354333167
 20
131.7295086563
 10
179.7956417983
 20
131.7516489879
 10
179.6266179269
 20
131.7784198553
 10
179.4334951525
 20
131.8090072826
 10
179.2221408074
 20
131.8424827412
 10
178.9989772921
 20
131.8778282956
 10
178.7707883602
 20
131.9139701307
 10
178.5445030516
 20
131.9498102174
 10
178.3269982522
 20
131.9842589081
 10
178.124882627
 20
132.0162712589
 10
177.9442991798
 20
132.0448731065
 10
177.7907315379
 20
132.0691955269
 10
177.6688512152
 20
132.0884999812
 10
177.5823536997
 20
132.102198805
 10
177.5338764971
 20
132.1098775596
 10
177.5248836463
 20
132.1113015518
 10
177.5556508189
 20
132.1064288721
 10
177.6252466922
 20
132.0954057381
 10
177.7315553015
 20
132.0785683573
 10
177.8713468199
 20
132.0564270944
 10
178.0403706913
 20
132.029656227
  0
SPLINE
  5
1B3
330
1F
100
AcDbEntity
  8
0
  6
HIDDEN
 62
     7
370
     0
100
AcDbSpline
210
0.0
220
0.0
230
1.0
 70
     8
 71
     3
 72
   102
 73
    98
 74
     0
 42
0.00000001
 43
0.00000001
 40
-0.0312499999999997
 40
-0.0312499999999997
 40
0.0
 40
0.0
 40
0.0312500000000005
 40
0.0312500000000005
 40
0.0625000000000011
 40
0.0625000000000011
 40
0.0937500000000016
 40
0.0937500000000016
 40
0.1250000000000022
 40
0.1250000000000022
 40
0.1562500000000027
 40
0.1562500000000027
 40
0.1875000000000032
 40
0.1875000000000032
 40
0.2031250000000033
 40
0.2031250000000033
 40
0.2187500000000033
 40
0.2187500000000033
 40
0.2343750000000033
 40
0.2343750000000033
 40
0.2500000000000033
 40
0.2500000000000033
 40
0.2656250000000034
 40
0.2656250000000034
 40
0.2812500000000034
 40
0.2812500000000034
 40
0.2968750000000035
 40
0.2968750000000035
 40
0.3125000000000035
 40
0.3125000000000035
 40
0.3281250000000036
 40
0.3281250000000036
 40
0.3437500000000036
 40
0.3437500000000036
 40
0.3593750000000037
 40
0.3593750000000037
 40
0.3750000000000037
 40
0.3750000000000037
 40
0.3906250000000038
 40
0.3906250000000038
 40
0.4062500000000038
 40
0.4062500000000038
 40
0.4218750000000038
 40
0.4218750000000038
 40
0.4375000000000037
 40
0.4375000000000037
 40
0.4531250000000037
 40
0.4531250000000037
 40
0.4687500000000037
 40
0.4687500000000037
 40
0.5000000000000037
 40
0.5000000000000037
 40
0.5312500000000038
 40
0.5312500000000038
 40
0.5625000000000038
 40
0.5625000000000038
 40
0.5937500000000038
 40
0.5937500000000038
 40
0.6250000000000037
 40
0.6250000000000037
 40
0.6562500000000037
 40
0.6562500000000037
 40
0.6875000000000037
 40
0.6875000000000037
 40
0.7187500000000037
 40
0.7187500000000037
 40
0.7343750000000036
 40
0.7343750000000036
 40
0.7500000000000033
 40
0.7500000000000033
 40
0.7656250000000031
 40
0.7656250000000031
 40
0.781250000000003
 40
0.781250000000003
 40
0.7968750000000028
 40
0.7968750000000028
 40
0.8125000000000027
 40
0.8125000000000027
 40
0.8281250000000024
 40
0.8281250000000024
 40
0.8437500000000023
 40
0.8437500000000023
 40
0.8593750000000021
 40
0.8593750000000021
 40
0.8750000000000019
 40
0.8750000000000019
 40
0.8906250000000018
 40
0.8906250000000018
 40
0.9062500000000016
 40
0.9062500000000016
 40
0.9375000000000011
 40
0.9375000000000011
 40
0.9531250000000008
 40
0.9531250000000008
 40
0.9687500000000003
 40
0.9687500000000003
 40
1.0
 40
1.0
 40
1.03125
 40
1.03125
 10
166.7358272698008
 20
125.6538986891942
 30
0.0
 10
167.4865983144336
 20
125.6538986891942
 30
0.0
 10
167.8668631867771
 20
125.6452372415223
 30
0.0
 10
168.6369892034676
 20
125.6279507051891
 30
0.0
 10
169.0268512283008
 20
125.6192724898402
 30
0.0
 10
169.8164788098018
 20
125.6107685743154
 30
0.0
 10
170.2173880384598
 20
125.6110762244501
 30
0.0
 10
171.0042776707421
 20
125.6204512095492
 30
0.0
 10
171.393352809366
 20
125.6294171358151
 30
0.0
 10
172.1629532052987
 20
125.6465963872331
 30
0.0
 10
172.5457843329679
 20
125.6548576697643
 30
0.0
 10
173.2916154942853
 20
125.6527653259419
 30
0.0
 10
173.6517542198052
 20
125.642510527684
 30
0.0
 10
174.1722244849216
 20
125.5945693746842
 30
0.0
 10
174.3424128035736
 20
125.5730980175632
 30
0.0
 10
174.6759243335472
 20
125.5146656217307
 30
0.0
 10
174.8389698431507
 20
125.4776209398467
 30
0.0
 10
175.1506417981694
 20
125.384700657877
 30
0.0
 10
175.3001658246284
 20
125.3287202808407
 30
0.0
 10
175.5860842466111
 20
125.1921905291386
 30
0.0
 10
175.7234658867922
 20
125.1107836822673
 30
0.0
 10
175.976802154459
 20
124.9216377701684
 30
0.0
 10
176.0933877374672
 20
124.8139119115375
 30
0.0
 10
176.3063353896866
 20
124.566912045348
 30
0.0
 10
176.4027684717634
 20
124.4266689435699
 30
0.0
 10
176.567214607547
 20
124.1225092534617
 30
0.0
 10
176.6369305963099
 20
123.9562360884224
 30
0.0
 10
176.7491498596126
 20
123.5990997661852
 30
0.0
 10
176.7903629430783
 20
123.4132677587198
 30
0.0
 10
176.8452732878367
 20
123.026888325548
 30
0.0
 10
176.8586055148677
 20
122.8246013419268
 30
0.0
 10
176.8559214438806
 20
122.4274533562238
 30
0.0
 10
176.8401771644428
 20
122.2279965930731
 30
0.0
 10
176.7794934050537
 20
121.8405357625711
 30
0.0
 10
176.7353755928555
 20
121.6559011762425
 30
0.0
 10
176.6182190009604
 20
121.3039318734035
 30
0.0
 10
176.545448657178
 20
121.1388338216291
 30
0.0
 10
176.3757428952771
 20
120.8394549068428
 30
0.0
 10
176.2770173606752
 20
120.7022491879645
 30
0.0
 10
176.0592414381025
 20
120.4605092976293
 30
0.0
 10
175.9401536196135
 20
120.3551871164283
 30
0.0
 10
175.6815248022742
 20
120.1706180087242
 30
0.0
 10
175.5432568053702
 20
120.0925146761605
 30
0.0
 10
175.2551306781872
 20
119.9611736241561
 30
0.0
 10
175.104442731276
 20
119.907377584929
 30
0.0
 10
174.7902750797291
 20
119.8183028515132
 30
0.0
 10
174.6258764179708
 20
119.7829431446532
 30
0.0
 10
174.2909284014339
 20
119.7276109520244
 30
0.0
 10
174.1200482850399
 20
119.7074346189716
 30
0.0
 10
173.5975636287996
 20
119.6628045875802
 30
0.0
 10
173.2361631332378
 20
119.6540004313031
 30
0.0
 10
172.4878943738751
 20
119.6537986314668
 30
0.0
 10
172.1042262617974
 20
119.6624691826708
 30
0.0
 10
171.3306752101797
 20
119.6798303988097
 30
0.0
 10
170.9388782376066
 20
119.6885626195705
 30
0.0
 10
170.1448751141973
 20
119.6970650974384
 30
0.0
 10
169.7470354171003
 20
119.6967016941753
 30
0.0
 10
168.9619794701899
 20
119.6873263150493
 30
0.0
 10
168.5728256746292
 20
119.6783601997041
 30
0.0
 10
167.8012041100584
 20
119.6611397753469
 30
0.0
 10
167.4162472405267
 20
119.6528940741178
 30
0.0
 10
166.6733741803942
 20
119.6550977587044
 30
0.0
 10
166.313771067568
 20
119.66533833093
 30
0.0
 10
165.6190287903996
 20
119.7294988842682
 30
0.0
 10
165.2811750030116
 20
119.7842944985305
 30
0.0
 10
164.8143026498562
 20
119.9238175516174
 30
0.0
 10
164.6646900201578
 20
119.9799157583946
 30
0.0
 10
164.3780456895037
 20
120.1171544556381
 30
0.0
 10
164.240941356551
 20
120.1987051609347
 30
0.0
 10
163.9884188462513
 20
120.3877186982986
 30
0.0
 10
163.8718304789391
 20
120.4955851621738
 30
0.0
 10
163.6583223270912
 20
120.7439487238787
 30
0.0
 10
163.5626100799465
 20
120.883678144963
 30
0.0
 10
163.398523381262
 20
121.1880356373368
 30
0.0
 10
163.3283657347838
 20
121.3561620195984
 30
0.0
 10
163.2171169828984
 20
121.7117942963565
 30
0.0
 10
163.1760127874766
 20
121.8975024983805
 30
0.0
 10
163.12128363806
 20
122.2853066219586
 30
0.0
 10
163.1082303360137
 20
122.4870310008643
 30
0.0
 10
163.1112730987608
 20
122.8839873611556
 30
0.0
 10
163.1273685630405
 20
123.08479102297
 30
0.0
 10
163.1882824770625
 20
123.4708279810062
 30
0.0
 10
163.2325347663727
 20
123.6554924220356
 30
0.0
 10
163.350621537604
 20
124.0085847519524
 30
0.0
 10
163.4231118227702
 20
124.1722602446137
 30
0.0
 10
163.5933930771242
 20
124.4715966746771
 30
0.0
 10
163.692483321815
 20
124.6087518172621
 30
0.0
 10
163.910321229089
 20
124.849721293651
 30
0.0
 10
164.0296775190904
 20
124.9549993719244
 30
0.0
 10
164.4194635101531
 20
125.2320726764754
 30
0.0
 10
164.7084438880686
 20
125.357108144279
 30
0.0
 10
165.1812847087398
 20
125.4905969099815
 30
0.0
 10
165.3458222632931
 20
125.5257721960792
 30
0.0
 10
165.6801597104846
 20
125.5807201628005
 30
0.0
 10
165.8509051801263
 20
125.6007865656537
 30
0.0
 10
166.3734945410332
 20
125.6451672721391
 30
0.0
 10
166.7358272698008
 20
125.6538986891942
 30
0.0
 10
167.4865983144336
 20
125.6538986891942
 30
0.0
  0
LINE
  5
1B4
330
1F
100
AcDbEntity
  8
0
  6
HIDDEN
 62
     7
370
     0
100
AcDbLine
 10
153.8334939366
 20
119.6538986631
 30
0.0
 11
153.8334939366
 21
125.6538987153
 31
0.0
  0
LINE
  5
1B5
330
1F
100
AcDbEntity
  8
0
  6
HIDDEN
 62
     7
370
     0
100
AcDbLine
 10
182.8334931021
 20
125.6538987153
 30
0.0
 11
182.8334931021
 21
119.6538986631
 31
0.0
  0
SPLINE
  5
1B6
330
1F
100
AcDbEntity
  8
0
  6
HIDDEN
 62
     7
370
     0
100
AcDbSpline
210
0.0
220
0.0
230
1.0
 70
     8
 71
     3
 72
    68
 73
    64
 74
     0
 42
0.00000001
 43
0.00000001
 40
-0.0312499999999996
 40
-0.0312499999999996
 40
0.0
 40
0.0
 40
0.0312500000000003
 40
0.0312500000000003
 40
0.0625000000000006
 40
0.0625000000000006
 40
0.0937500000000008
 40
0.0937500000000008
 40
0.1250000000000011
 40
0.1250000000000011
 40
0.1562500000000014
 40
0.1562500000000014
 40
0.1875000000000017
 40
0.1875000000000017
 40
0.2187500000000019
 40
0.2187500000000019
 40
0.2500000000000022
 40
0.2500000000000022
 40
0.2812500000000025
 40
0.2812500000000025
 40
0.3125000000000028
 40
0.3125000000000028
 40
0.3437500000000031
 40
0.3437500000000031
 40
0.3750000000000034
 40
0.3750000000000034
 40
0.4062500000000038
 40
0.4062500000000038
 40
0.4375000000000041
 40
0.4375000000000041
 40
0.4687500000000044
 40
0.4687500000000044
 40
0.484375000000004
 40
0.484375000000004
 40
0.5000000000000036
 40
0.5000000000000036
 40
0.531250000000004
 40
0.531250000000004
 40
0.5625000000000044
 40
0.5625000000000044
 40
0.6250000000000042
 40
0.6250000000000042
 40
0.687500000000004
 40
0.687500000000004
 40
0.7187500000000036
 40
0.7187500000000036
 40
0.7500000000000032
 40
0.7500000000000032
 40
0.7812500000000028
 40
0.7812500000000028
 40
0.8125000000000024
 40
0.8125000000000024
 40
0.843750000000002
 40
0.843750000000002
 40
0.8750000000000017
 40
0.8750000000000017
 40
0.9062500000000012
 40
0.9062500000000012
 40
0.9375000000000009
 40
0.9375000000000009
 40
0.9687500000000004
 40
0.9687500000000004
 40
1.0
 40
1.0
 40
1.03125
 40
1.03125
 10
170.1606838064595
 20
120.1538986891942
 30
0.0
 10
169.806304424313
 20
120.1538986891942
 30
0.0
 10
169.6354525520117
 20
120.1724391469225
 30
0.0
 10
169.303441502142
 20
120.2421974570787
 30
0.0
 10
169.1499636569896
 20
120.2916514816753
 30
0.0
 10
168.8590777343987
 20
120.4154454963236
 30
0.0
 10
168.7213061799811
 20
120.4904734680229
 30
0.0
 10
168.466298477844
 20
120.6610001796595
 30
0.0
 10
168.347755609562
 20
120.7569935653055
 30
0.0
 10
168.1265537165659
 20
120.972928176752
 30
0.0
 10
168.0234222854138
 20
121.093950015755
 30
0.0
 10
167.8414575735372
 20
121.3550527030204
 30
0.0
 10
167.7616012510282
 20
121.4958106692772
 30
0.0
 10
167.6271330342063
 20
121.8021133772399
 30
0.0
 10
167.5745265499344
 20
121.9636638341292
 30
0.0
 10
167.5027244212787
 20
122.299878052305
 30
0.0
 10
167.4837386088873
 20
122.4766111583947
 30
0.0
 10
167.4832544712989
 20
122.8242224484958
 30
0.0
 10
167.5015706842189
 20
123.0000953526955
 30
0.0
 10
167.5727031305095
 20
123.337918334551
 30
0.0
 10
167.6247776276096
 20
123.4992279912123
 30
0.0
 10
167.7588160012755
 20
123.8066919868657
 30
0.0
 10
167.8386727226301
 20
123.9482510583711
 30
0.0
 10
168.0211992879619
 20
124.2111417250374
 30
0.0
 10
168.124010683908
 20
124.3320347498305
 30
0.0
 10
168.3445395284897
 20
124.5480072214701
 30
0.0
 10
168.4630830194926
 20
124.6444007767624
 30
0.0
 10
168.7190623648594
 20
124.8160644574436
 30
0.0
 10
168.8566193904335
 20
124.8911018043958
 30
0.0
 10
169.1470073317014
 20
125.0150878567803
 30
0.0
 10
169.3028971201555
 20
125.0653565716358
 30
0.0
 10
169.5499859672619
 20
125.1174644043085
 30
0.0
 10
169.6340110666539
 20
125.1308612277608
 30
0.0
 10
169.8060427238495
 20
125.149092634052
 30
0.0
 10
169.8949009128434
 20
125.1538585454943
 30
0.0
 10
170.15726008177
 20
125.1539781966341
 30
0.0
 10
170.3318438236198
 20
125.1352145041596
 30
0.0
 10
170.6609968550157
 20
125.0662141185314
 30
0.0
 10
170.8148435131818
 20
125.0170100222816
 30
0.0
 10
171.2551714024361
 20
124.8298088097474
 30
0.0
 10
171.5065592033467
 20
124.6607532364735
 30
0.0
 10
171.9527713084895
 20
124.2252483551894
 30
0.0
 10
172.1357271330784
 20
123.9692981749365
 30
0.0
 10
172.3386103814252
 20
123.5091899061622
 30
0.0
 10
172.3911985883253
 20
123.3486522677512
 30
0.0
 10
172.4637756056034
 20
123.0115676607509
 30
0.0
 10
172.4829619159926
 20
122.8353089278413
 30
0.0
 10
172.4840038822705
 20
122.4874659199742
 30
0.0
 10
172.4658204348381
 20
122.3106748248239
 30
0.0
 10
172.3951704678721
 20
121.9730435297244
 30
0.0
 10
172.3428726899003
 20
121.8104700515292
 30
0.0
 10
172.2093173435334
 20
121.5033553037672
 30
0.0
 10
172.1295585520305
 20
121.3615485870093
 30
0.0
 10
171.9466796726462
 20
121.0977290902711
 30
0.0
 10
171.8441998810007
 20
120.9771135549859
 30
0.0
 10
171.6237543119931
 20
120.7609166977531
 30
0.0
 10
171.5050550448563
 20
120.6642312014189
 30
0.0
 10
171.2481879910496
 20
120.4918455504256
 30
0.0
 10
171.1110737938822
 20
120.4170491395776
 30
0.0
 10
170.8206805572838
 20
120.2929559324802
 30
0.0
 10
170.6642608281284
 20
120.2424942423003
 30
0.0
 10
170.3349711723679
 20
120.1730160635763
 30
0.0
 10
170.1606838064595
 20
120.1538986891942
 30
0.0
 10
169.806304424313
 20
120.1538986891942
 30
0.0
  0
LINE
  5
1B7
330
1F
100
AcDbEntity
  8
0
  6
HIDDEN
 62
     7
370
     0
100
AcDbLine
 10
120.8334941154
 20
111.9388685555
 30
0.0
 11
120.8334941154
 21
133.3689288229
 31
0.0
  0
ARC
  5
1B8
330
1F
100
AcDbEntity
  8
0
  6
HIDDEN
 62
     7
370
     0
100
AcDbCircle
 10
176.8656960368
 20
128.0606600922
 30
0.0
 40
1.588485182772855
100
AcDbArc
 50
232.6613521891
 51
284.8336063078
  0
LWPOLYLINE
  5
1B9
330
1F
100
AcDbEntity
  8
0
  6
HIDDEN
 62
     7
370
     0
100
AcDbPolyline
 90
       13
 70
   128
 43
0.0
 10
158.7683710938
 20
135.0820417509
 10
158.2311209028
 20
135.1671329692
 10
157.7990468328
 20
135.2355674833
 10
157.4736576264
 20
135.2871040807
 10
157.2560969477
 20
135.3215620846
 10
157.1471247559
 20
135.3388213546
 10
157.1334939187
 20
135.3409801603
 10
157.1471247559
 20
135.3388213546
 10
157.2560969477
 20
135.3215620846
 10
157.4736576264
 20
135.2871040807
 10
157.7990468328
 20
135.2355674833
 10
158.2311209028
 20
135.1671329692
 10
158.7683710938
 20
135.0820417509
  0
LINE
  5
1BA
330
1F
100
AcDbEntity
  8
0
  6
HIDDEN
 62
     7
370
     0
100
AcDbLine
 10
104.3334942048
 20
131.6538983018
 30
0.0
 11
104.3334942048
 21
113.6538990766
 31
0.0
  0
ARC
  5
1BB
330
1F
100
AcDbEntity
  8
0
  6
HIDDEN
 62
     7
370
     0
100
AcDbCircle
 10
109.0831320005
 20
144.6465604305
 30
0.0
 40
13.83359419610471
100
AcDbArc
 50
249.9194529128
 51
290.0254244138
  0
LINE
  5
1BC
330
1F
100
AcDbEntity
  8
0
  6
HIDDEN
 62
     7
370
     0
100
AcDbLine
 10
118.3334941713
 20
131.6538983018
 30
0.0
 11
118.3334941713
 21
113.6538990766
 31
0.0
  0
LINE
  5
1BD
330
1F
100
AcDbEntity
  8
0
  6
HIDDEN
 62
     7
370
     0
100
AcDbLine
 10
98.8334942346
 20
130.4438988671
 30
0.0
 11
98.8334942346
 21
114.8638985113
 31
0.0
  0
SPLINE
  5
1BE
330
1F
100
AcDbEntity
  8
0
  6
HIDDEN
 62
     7
370
     0
100
AcDbSpline
210
0.0
220
0.0
230
1.0
 70
     8
 71
     3
 72
    38
 73
    34
 74
     0
 42
0.00000001
 43
0.00000001
 40
-0.1249999999999988
 40
-0.1249999999999988
 40
0.0
 40
0.0
 40
0.0312499999999997
 40
0.0312499999999997
 40
0.0624999999999995
 40
0.0624999999999995
 40
0.1249999999999996
 40
0.1249999999999996
 40
0.1874999999999998
 40
0.1874999999999998
 40
0.2499999999999999
 40
0.2499999999999999
 40
0.3125000000000001
 40
0.3125000000000001
 40
0.3750000000000002
 40
0.3750000000000002
 40
0.4375000000000003
 40
0.4375000000000003
 40
0.5000000000000004
 40
0.5000000000000004
 40
0.5625000000000006
 40
0.5625000000000006
 40
0.6250000000000007
 40
0.6250000000000007
 40
0.6875000000000008
 40
0.6875000000000008
 40
0.7500000000000009
 40
0.7500000000000009
 40
0.8125000000000011
 40
0.8125000000000011
 40
0.8750000000000012
 40
0.8750000000000012
 40
1.0
 40
1.0
 40
1.03125
 40
1.03125
 10
156.3106292218244
 20
108.5590596530777
 30
0.0
 10
156.529702010328
 20
108.7877434672018
 30
0.0
 10
156.5686304851328
 20
108.8285830451453
 30
0.0
 10
156.6367085971727
 20
108.900223259118
 30
0.0
 10
156.6660886625137
 20
108.9312694401085
 30
0.0
 10
156.7350712199409
 20
109.0043048548714
 30
0.0
 10
156.7568468752389
 20
109.0275327270712
 30
0.0
 10
156.7464400382551
 20
109.0164650405309
 30
0.0
 10
156.7143090046632
 20
108.9822316448778
 30
0.0
 10
156.6034888795543
 20
108.8651513613575
 30
0.0
 10
156.5253818224763
 20
108.7829802745865
 30
0.0
 10
156.3384875996864
 20
108.5886001150182
 30
0.0
 10
156.2303456702008
 20
108.4770989156958
 30
0.0
 10
156.0008986956132
 20
108.2433558595949
 30
0.0
 10
155.8782133898114
 20
108.1197223862254
 30
0.0
 10
155.6356972708096
 20
107.8780538735873
 30
0.0
 10
155.5130681182128
 20
107.7572275138315
 30
0.0
 10
155.2857813118533
 20
107.5353539436252
 30
0.0
 10
155.1778818850169
 20
107.4311302667068
 30
0.0
 10
154.9969012124561
 20
107.2574316676965
 30
0.0
 10
154.9211838143149
 20
107.1853942723785
 30
0.0
 10
154.8219141238909
 20
107.0911821535057
 30
0.0
 10
154.7973098372537
 20
107.0679635847342
 30
0.0
 10
154.807969121635
 20
107.0780444620278
 30
0.0
 10
154.8429582141451
 20
107.1110880167633
 30
0.0
 10
154.9618503037594
 20
107.2241012192394
 30
0.0
 10
155.0449364345801
 20
107.3033401084476
 30
0.0
 10
155.2387126718789
 20
107.4898585657792
 30
0.0
 10
155.3506589473489
 20
107.598376977862
 30
0.0
 10
155.5841672379967
 20
107.8271959706418
 30
0.0
 10
155.7077493118799
 20
107.9494863649146
 30
0.0
 10
156.0715530406632
 20
108.313586160449
 30
0.0
 10
156.3106292218244
 20
108.5590596530777
 30
0.0
 10
156.529702010328
 20
108.7877434672018
 30
0.0
  0
LINE
  5
1BF
330
1F
100
AcDbEntity
  8
0
  6
HIDDEN
 62
     7
370
     0
100
AcDbLine
 10
158.7293449526
 20
109.4038988457
 30
0.0
 11
157.1334939187
 21
109.4038988457
 31
0.0
  0
SPLINE
  5
1C0
330
1F
100
AcDbEntity
  8
0
  6
HIDDEN
 62
     7
370
     0
100
AcDbSpline
210
0.0
220
0.0
230
1.0
 70
    11
 71
     3
 72
    38
 73
    34
 74
     0
 42
0.00000001
 43
0.00000001
 40
-0.0625
 40
-0.0625
 40
0.0
 40
0.0
 40
0.0625
 40
0.0625
 40
0.125
 40
0.125
 40
0.1875
 40
0.1875
 40
0.25
 40
0.25
 40
0.3125
 40
0.3125
 40
0.375
 40
0.375
 40
0.4375
 40
0.4375
 40
0.5
 40
0.5
 40
0.5625
 40
0.5625
 40
0.625
 40
0.625
 40
0.6875
 40
0.6875
 40
0.75
 40
0.75
 40
0.8125
 40
0.8125
 40
0.875
 40
0.875
 40
0.9375
 40
0.9375
 40
1.0
 40
1.0
 40
1.0625
 40
1.0625
 10
178.4834941153862
 20
123.6788986891942
 30
0.0
 10
178.4834941153862
 20
123.6788986891942
 30
0.0
 10
178.4801580100502
 20
123.6521664489167
 30
0.0
 10
178.4686795607354
 20
123.5492272451906
 30
0.0
 10
178.4606145323982
 20
123.4730785145201
 30
0.0
 10
178.4444459880686
 20
123.2841300860234
 30
0.0
 10
178.4363299693427
 20
123.1698741570181
 30
0.0
 10
178.4248659893194
 20
122.9232605712327
 30
0.0
 10
178.4214753485765
 20
122.7882928729288
 30
0.0
 10
178.4214573384189
 20
122.5206400752038
 30
0.0
 10
178.4247992921297
 20
122.3862358669326
 30
0.0
 10
178.4363191461921
 20
122.1378935526671
 30
0.0
 10
178.4443274967731
 20
122.0250794950775
 30
0.0
 10
178.4606971659001
 20
121.8337257617327
 30
0.0
 10
178.4686812940689
 20
121.7585541621311
 30
0.0
 10
178.4801580486828
 20
121.6556310095395
 30
0.0
 10
178.4834880746213
 20
121.6289487833461
 30
0.0
 10
178.4835001388857
 20
121.6288487382199
 30
0.0
 10
178.4801522505884
 20
121.6557014784561
 30
0.0
 10
178.4687642174694
 20
121.757792160742
 30
0.0
 10
178.4606824891498
 20
121.8340245981714
 30
0.0
 10
178.4445097742768
 20
122.022822797681
 30
0.0
 10
178.436416621839
 20
122.1363253200488
 30
0.0
 10
178.4248576487272
 20
122.3844518588721
 30
0.0
 10
178.4214814424058
 20
122.5174015121218
 30
0.0
 10
178.421451310608
 20
122.788520295187
 30
0.0
 10
178.4248004477669
 20
122.9215848721612
 30
0.0
 10
178.4363175350512
 20
123.1698706453106
 30
0.0
 10
178.4444044787156
 20
123.2835814919254
 30
0.0
 10
178.460572349347
 20
123.4726487367981
 30
0.0
 10
178.468667735774
 20
123.5491027121514
 30
0.0
 10
178.480092984763
 20
123.6516016618712
 30
0.0
 10
178.4834941153862
 20
123.6788986891942
 30
0.0
 10
178.4834941153862
 20
123.6788986891942
 30
0.0
  0
SPLINE
  5
1C1
330
1F
100
AcDbEntity
  8
0
  6
HIDDEN
 62
     7
370
     0
100
AcDbSpline
210
0.0
220
0.0
230
1.0
 70
    11
 71
     3
 72
    38
 73
    34
 74
     0
 42
0.00000001
 43
0.00000001
 40
-0.0625
 40
-0.0625
 40
0.0
 40
0.0
 40
0.0625
 40
0.0625
 40
0.125
 40
0.125
 40
0.1875
 40
0.1875
 40
0.25
 40
0.25
 40
0.3125
 40
0.3125
 40
0.375
 40
0.375
 40
0.4375
 40
0.4375
 40
0.5
 40
0.5
 40
0.5625
 40
0.5625
 40
0.625
 40
0.625
 40
0.6875
 40
0.6875
 40
0.75
 40
0.75
 40
0.8125
 40
0.8125
 40
0.875
 40
0.875
 40
0.9375
 40
0.9375
 40
1.0
 40
1.0
 40
1.0625
 40
1.0625
 10
178.4834941153862
 20
123.6788986891942
 30
0.0
 10
178.4834941153862
 20
123.6788986891942
 30
0.0
 10
178.4801580100502
 20
123.6521664489167
 30
0.0
 10
178.4686795607354
 20
123.5492272451906
 30
0.0
 10
178.4606145323982
 20
123.4730785145201
 30
0.0
 10
178.4444459880686
 20
123.2841300860234
 30
0.0
 10
178.4363299693427
 20
123.1698741570181
 30
0.0
 10
178.4248659893194
 20
122.9232605712327
 30
0.0
 10
178.4214753485765
 20
122.7882928729288
 30
0.0
 10
178.4214573384189
 20
122.5206400752038
 30
0.0
 10
178.4247992921297
 20
122.3862358669326
 30
0.0
 10
178.4363191461921
 20
122.1378935526671
 30
0.0
 10
178.4443274967731
 20
122.0250794950775
 30
0.0
 10
178.4606971659001
 20
121.8337257617327
 30
0.0
 10
178.4686812940689
 20
121.7585541621311
 30
0.0
 10
178.4801580486828
 20
121.6556310095395
 30
0.0
 10
178.4834880746213
 20
121.6289487833461
 30
0.0
 10
178.4835001388857
 20
121.6288487382199
 30
0.0
 10
178.4801522505884
 20
121.6557014784561
 30
0.0
 10
178.4687642174694
 20
121.757792160742
 30
0.0
 10
178.4606824891498
 20
121.8340245981714
 30
0.0
 10
178.4445097742768
 20
122.022822797681
 30
0.0
 10
178.436416621839
 20
122.1363253200488
 30
0.0
 10
178.4248576487272
 20
122.3844518588721
 30
0.0
 10
178.4214814424058
 20
122.5174015121218
 30
0.0
 10
178.421451310608
 20
122.788520295187
 30
0.0
 10
178.4248004477669
 20
122.9215848721612
 30
0.0
 10
178.4363175350512
 20
123.1698706453106
 30
0.0
 10
178.4444044787156
 20
123.2835814919254
 30
0.0
 10
178.460572349347
 20
123.4726487367981
 30
0.0
 10
178.468667735774
 20
123.5491027121514
 30
0.0
 10
178.480092984763
 20
123.6516016618712
 30
0.0
 10
178.4834941153862
 20
123.6788986891942
 30
0.0
 10
178.4834941153862
 20
123.6788986891942
 30
0.0
  0
LINE
  5
1C2
330
1F
100
AcDbEntity
  8
0
  6
HIDDEN
 62
     7
370
     0
100
AcDbLine
 10
178.4082580095
 20
109.4038038508
 30
0.0
 11
178.4082580095
 21
109.4038988457
 31
0.0
  0
LINE
  5
1C3
330
1F
100
AcDbEntity
  8
0
  6
HIDDEN
 62
     7
370
     0
100
AcDbLine
 10
178.4082580095
 20
109.3938983039
 30
0.0
 11
178.3631931727
 21
109.3938983039
 31
0.0
  0
LINE
  5
1C4
330
1F
100
AcDbEntity
  8
0
  6
HIDDEN
 62
     7
370
     0
100
AcDbLine
 10
178.3631931727
 20
109.3938983039
 30
0.0
 11
178.3631931727
 21
109.4038988457
 31
0.0
  0
LINE
  5
1C5
330
1F
100
AcDbEntity
  8
0
  6
HIDDEN
 62
     7
370
     0
100
AcDbLine
 10
178.1431365495
 20
109.3938983039
 30
0.0
 11
178.1431365495
 21
109.4038988457
 31
0.0
  0
LINE
  5
1C6
330
1F
100
AcDbEntity
  8
0
  6
HIDDEN
 62
     7
370
     0
100
AcDbLine
 10
178.1431365495
 20
109.3938983039
 30
0.0
 11
178.0540238803
 21
109.3938983039
 31
0.0
  0
LINE
  5
1C7
330
1F
100
AcDbEntity
  8
0
  6
HIDDEN
 62
     7
370
     0
100
AcDbLine
 10
178.0540238803
 20
109.3938983039
 30
0.0
 11
178.0540238803
 21
109.4038988457
 31
0.0
  0
LINE
  5
1C8
330
1F
100
AcDbEntity
  8
0
  6
HIDDEN
 62
     7
370
     0
100
AcDbLine
 10
177.6928160076
 20
109.3938983039
 30
0.0
 11
177.6928160076
 21
109.4038988457
 31
0.0
  0
LINE
  5
1C9
330
1F
100
AcDbEntity
  8
0
  6
HIDDEN
 62
     7
370
     0
100
AcDbLine
 10
177.6928160076
 20
109.3938983039
 30
0.0
 11
177.5616820639
 21
109.3938983039
 31
0.0
  0
LINE
  5
1CA
330
1F
100
AcDbEntity
  8
0
  6
HIDDEN
 62
     7
370
     0
100
AcDbLine
 10
177.5616820639
 20
109.3938983039
 30
0.0
 11
177.5616820639
 21
109.4038988457
 31
0.0
  0
LINE
  5
1CB
330
1F
100
AcDbEntity
  8
0
  6
HIDDEN
 62
     7
370
     0
100
AcDbLine
 10
177.0675223058
 20
109.3938983039
 30
0.0
 11
177.0675223058
 21
109.4038988457
 31
0.0
  0
LINE
  5
1CC
330
1F
100
AcDbEntity
  8
0
  6
HIDDEN
 62
     7
370
     0
100
AcDbLine
 10
177.0675223058
 20
109.3938983039
 30
0.0
 11
176.8973398691
 21
109.3938983039
 31
0.0
  0
LINE
  5
1CD
330
1F
100
AcDbEntity
  8
0
  6
HIDDEN
 62
     7
370
     0
100
AcDbLine
 10
176.8973398691
 20
109.3938983039
 30
0.0
 11
176.8973398691
 21
109.4038988457
 31
0.0
  0
LINE
  5
1CE
330
1F
100
AcDbEntity
  8
0
  6
HIDDEN
 62
     7
370
     0
100
AcDbLine
 10
176.2814450746
 20
109.3938983039
 30
0.0
 11
176.2814450746
 21
109.4038988457
 31
0.0
  0
LINE
  5
1CF
330
1F
100
AcDbEntity
  8
0
  6
HIDDEN
 62
     7
370
     0
100
AcDbLine
 10
176.2814450746
 20
109.3938983039
 30
0.0
 11
176.0760809963
 21
109.3938983039
 31
0.0
  0
LINE
  5
1D0
330
1F
100
AcDbEntity
  8
0
  6
HIDDEN
 62
     7
370
     0
100
AcDbLine
 10
176.0760809963
 20
109.3938983039
 30
0.0
 11
176.0760809963
 21
109.4038988457
 31
0.0
  0
LINE
  5
1D1
330
1F
100
AcDbEntity
  8
0
  6
HIDDEN
 62
     7
370
     0
100
AcDbLine
 10
178.4821714943
 20
109.3938983039
 30
0.0
 11
178.4834939723
 21
109.3938983039
 31
0.0
  0
LINE
  5
1D2
330
1F
100
AcDbEntity
  8
0
  6
HIDDEN
 62
     7
370
     0
100
AcDbLine
 10
178.4821714943
 20
109.3938983039
 30
0.0
 11
178.4821714943
 21
109.4038988457
 31
0.0
  0
LINE
  5
1D3
330
1F
100
AcDbEntity
  8
0
  6
HIDDEN
 62
     7
370
     0
100
AcDbLine
 10
176.8973398691
 20
109.4038988457
 30
0.0
 11
176.2814450746
 21
109.4038988457
 31
0.0
  0
LINE
  5
1D4
330
1F
100
AcDbEntity
  8
0
  6
HIDDEN
 62
     7
370
     0
100
AcDbLine
 10
177.5616820639
 20
109.4038988457
 30
0.0
 11
177.0675223058
 21
109.4038988457
 31
0.0
  0
LINE
  5
1D5
330
1F
100
AcDbEntity
  8
0
  6
HIDDEN
 62
     7
370
     0
100
AcDbLine
 10
178.0540238803
 20
109.4038988457
 30
0.0
 11
177.6928160076
 21
109.4038988457
 31
0.0
  0
LINE
  5
1D6
330
1F
100
AcDbEntity
  8
0
  6
HIDDEN
 62
     7
370
     0
100
AcDbLine
 10
178.3631931727
 20
109.4038988457
 30
0.0
 11
178.1431365495
 21
109.4038988457
 31
0.0
  0
LINE
  5
1D7
330
1F
100
AcDbEntity
  8
0
  6
HIDDEN
 62
     7
370
     0
100
AcDbLine
 10
178.4821714943
 20
109.4038988457
 30
0.0
 11
178.4082580095
 21
109.4038988457
 31
0.0
  0
LINE
  5
1D8
330
1F
100
AcDbEntity
  8
0
  6
HIDDEN
 62
     7
370
     0
100
AcDbLine
 10
178.4821714943
 20
109.4038988457
 30
0.0
 11
161.493022341
 21
109.4038988457
 31
0.0
  0
LWPOLYLINE
  5
1D9
330
1F
100
AcDbEntity
  8
0
  6
HIDDEN
 62
     7
370
     0
100
AcDbPolyline
 90
       59
 70
   128
 43
0.0
 10
178.4834939723
 20
131.9594726891
 10
178.4336682146
 20
131.9673647166
 10
178.2847683614
 20
131.9909476668
 10
178.0385452991
 20
132.0299458683
 10
177.6978861277
 20
132.0839011103
 10
177.2667806332
 20
132.1521810249
 10
176.7502840345
 20
132.2339856059
 10
176.1544573789
 20
132.3283565224
 10
175.4862781351
 20
132.4341855005
 10
174.7535843139
 20
132.5502320186
 10
173.9649664348
 20
132.675137277
 10
173.1296669429
 20
132.807435374
 10
172.2574833517
 20
132.9455756575
 10
171.3586415832
 20
133.0879385576
 10
170.443673033
 20
133.2328551442
 10
169.5233139878
 20
133.3786257536
 10
168.6083454376
 20
133.5235423401
 10
167.7095036691
 20
133.6659052402
 10
166.8373200779
 20
133.8040455237
 10
166.002020586
 20
133.9363436208
 10
165.2134027069
 20
134.0612488792
 10
164.4807088857
 20
134.1772953973
 10
163.8125333672
 20
134.2831243754
 10
163.2167029863
 20
134.3774952919
 10
162.7002063876
 20
134.4592998729
 10
162.2691046183
 20
134.5275797874
 10
161.9284417217
 20
134.5815350295
 10
161.6822186594
 20
134.6205332309
 10
161.5333225315
 20
134.6441161812
 10
161.4834930485
 20
134.6520082087
 10
161.5333225315
 20
134.6441161812
 10
161.6822186594
 20
134.6205332309
 10
161.9284417217
 20
134.5815350295
 10
162.2691046183
 20
134.5275797874
 10
162.7002063876
 20
134.4592998729
 10
163.2167029863
 20
134.3774952919
 10
163.8125333672
 20
134.2831243754
 10
164.4807088857
 20
134.1772953973
 10
165.2134027069
 20
134.0612488792
 10
166.002020586
 20
133.9363436208
 10
166.8373200779
 20
133.8040455237
 10
167.7095036691
 20
133.6659052402
 10
168.6083454376
 20
133.5235423401
 10
169.5233139878
 20
133.3786257536
 10
170.443673033
 20
133.2328551442
 10
171.3586415832
 20
133.0879385576
 10
172.2574833517
 20
132.9455756575
 10
173.1296669429
 20
132.807435374
 10
173.9649664348
 20
132.675137277
 10
174.7535843139
 20
132.5502320186
 10
175.4862781351
 20
132.4341855005
 10
176.1544573789
 20
132.3283565224
 10
176.7502840345
 20
132.2339856059
 10
177.2667806332
 20
132.1521810249
 10
177.6978861277
 20
132.0839011103
 10
178.0385452991
 20
132.0299458683
 10
178.2847683614
 20
131.9909476668
 10
178.4336682146
 20
131.9673647166
 10
178.4834939723
 20
131.9594726891
  0
LINE
  5
1DA
330
1F
100
AcDbEntity
  8
0
  6
HIDDEN
 62
     7
370
     0
100
AcDbLine
 10
112.8436591213
 20
130.6640635238
 30
0.0
 11
105.3233289828
 21
130.6640635238
 31
0.0
  0
LINE
  5
1DB
330
1F
100
AcDbEntity
  8
0
  6
HIDDEN
 62
     7
370
     0
100
AcDbLine
 10
99.8727254306
 20
126.0538987343
 30
0.0
 11
99.8727254306
 21
119.2538986441
 31
0.0
  0
LINE
  5
1DC
330
1F
100
AcDbEntity
  8
0
  6
HIDDEN
 62
     7
370
     0
100
AcDbLine
 10
98.8334942346
 20
118.6538984992
 30
0.0
 11
98.8334942346
 21
126.640927884
 31
0.0
  0
SPLINE
  5
1DD
330
1F
100
AcDbEntity
  8
0
  6
HIDDEN
 62
     7
370
     0
100
AcDbSpline
210
0.0
220
0.0
230
1.0
 70
     8
 71
     3
 72
    60
 73
    56
 74
     0
 42
0.00000001
 43
0.00000001
 40
-0.0624999999999996
 40
-0.0624999999999996
 40
0.0
 40
0.0
 40
0.0625000000000002
 40
0.0625000000000002
 40
0.0937500000000003
 40
0.0937500000000003
 40
0.1250000000000004
 40
0.1250000000000004
 40
0.1562500000000005
 40
0.1562500000000005
 40
0.1875000000000006
 40
0.1875000000000006
 40
0.2187500000000007
 40
0.2187500000000007
 40
0.2500000000000008
 40
0.2500000000000008
 40
0.2812500000000009
 40
0.2812500000000009
 40
0.312500000000001
 40
0.312500000000001
 40
0.3437500000000011
 40
0.3437500000000011
 40
0.3750000000000012
 40
0.3750000000000012
 40
0.4062500000000013
 40
0.4062500000000013
 40
0.4375000000000014
 40
0.4375000000000014
 40
0.5000000000000014
 40
0.5000000000000014
 40
0.5625000000000014
 40
0.5625000000000014
 40
0.5937500000000014
 40
0.5937500000000014
 40
0.6250000000000014
 40
0.6250000000000014
 40
0.6562500000000014
 40
0.6562500000000014
 40
0.6875000000000014
 40
0.6875000000000014
 40
0.7500000000000011
 40
0.7500000000000011
 40
0.781250000000001
 40
0.781250000000001
 40
0.8125000000000009
 40
0.8125000000000009
 40
0.8437500000000008
 40
0.8437500000000008
 40
0.8750000000000007
 40
0.8750000000000007
 40
0.9062500000000006
 40
0.9062500000000006
 40
0.9375000000000004
 40
0.9375000000000004
 40
1.0
 40
1.0
 40
1.0625
 40
1.0625
 10
107.1240840580097
 20
125.7234083324726
 30
0.0
 10
107.5945437253578
 20
125.4981885203166
 30
0.0
 10
107.8584408490018
 20
125.3877005050205
 30
0.0
 10
108.3067197991078
 20
125.2608003890494
 30
0.0
 10
108.460397250937
 20
125.2266446338115
 30
0.0
 10
108.7767325517519
 20
125.1801757206822
 30
0.0
 10
108.9415774399033
 20
125.1680800353242
 30
0.0
 10
109.2658206341393
 20
125.1701742807108
 30
0.0
 10
109.4262768918199
 20
125.1838797126925
 30
0.0
 10
109.7439956228932
 20
125.2341419645836
 30
0.0
 10
109.8982801261655
 20
125.2702850262034
 30
0.0
 10
110.1921782603297
 20
125.3563858315433
 30
0.0
 10
110.33408966309
 20
125.4070268819262
 30
0.0
 10
110.5989969856075
 20
125.5135235395522
 30
0.0
 10
110.7225984334038
 20
125.5694430241583
 30
0.0
 10
110.9530031301223
 20
125.6811875489368
 30
0.0
 10
111.0595730929001
 20
125.7370025667082
 30
0.0
 10
111.2463994866665
 20
125.8389759162436
 30
0.0
 10
111.3279794392751
 20
125.8858010104217
 30
0.0
 10
111.4647436885532
 20
125.9660968460214
 30
0.0
 10
111.5189179204413
 20
125.9989855614032
 30
0.0
 10
111.5908291170416
 20
126.0429620232335
 30
0.0
 10
111.609287695493
 20
126.05446765849
 30
0.0
 10
111.6073775984053
 20
126.0532846166338
 30
0.0
 10
111.587435233566
 20
126.0408580851095
 30
0.0
 10
111.5114485830653
 20
125.9944506002534
 30
0.0
 10
111.4565961188254
 20
125.9612077137094
 30
0.0
 10
111.2456459042998
 20
125.8376977112352
 30
0.0
 10
111.0481320284218
 20
125.726291362087
 30
0.0
 10
110.5825903926679
 20
125.502677615953
 30
0.0
 10
110.3102409985086
 20
125.3887028388899
 30
0.0
 10
109.868869754348
 20
125.2629821352038
 30
0.0
 10
109.7154996417847
 20
125.2282817331908
 30
0.0
 10
109.3943439852849
 20
125.1804608755578
 30
0.0
 10
109.2333004760463
 20
125.168479560599
 30
0.0
 10
108.9102813883383
 20
125.1696880369867
 30
0.0
 10
108.7462609364083
 20
125.1832670459629
 30
0.0
 10
108.4281265687451
 20
125.2330732807796
 30
0.0
 10
108.2748410047738
 20
125.2686903904884
 30
0.0
 10
107.8301321248535
 20
125.3983764660135
 30
0.0
 10
107.5614745588278
 20
125.5126869337342
 30
0.0
 10
107.2139546839007
 20
125.6811877940084
 30
0.0
 10
107.1091018882966
 20
125.7361029293475
 30
0.0
 10
106.9213800771204
 20
125.838523244859
 30
0.0
 10
106.8376272677898
 20
125.8865960458319
 30
0.0
 10
106.700660369827
 20
125.96704335616
 30
0.0
 10
106.6474845249431
 20
125.9993396200981
 30
0.0
 10
106.5751711196397
 20
126.0435704829971
 30
0.0
 10
106.5574716609128
 20
126.0546094109151
 30
0.0
 10
106.5598823515845
 20
126.0531163277957
 30
0.0
 10
106.580594543292
 20
126.0402151042374
 30
0.0
 10
106.6569595945967
 20
125.9935904936288
 30
0.0
 10
106.7132735883547
 20
125.959485503267
 30
0.0
 10
106.9250648835133
 20
125.8355908398277
 30
0.0
 10
107.1240840580097
 20
125.7234083324726
 30
0.0
 10
107.5945437253578
 20
125.4981885203166
 30
0.0
  0
LINE
  5
1DE
330
1F
100
AcDbEntity
  8
0
  6
HIDDEN
 62
     7
370
     0
100
AcDbLine
 10
151.8334936087
 20
126.0538987343
 30
0.0
 11
151.8334936087
 21
119.2538986441
 31
0.0
  0
SPLINE
  5
1DF
330
1F
100
AcDbEntity
  8
0
  6
HIDDEN
 62
     7
370
     0
100
AcDbSpline
210
0.0
220
0.0
230
1.0
 70
    11
 71
     3
 72
    44
 73
    40
 74
     0
 42
0.00000001
 43
0.00000001
 40
-0.0625000000000029
 40
-0.0625000000000029
 40
0.0
 40
0.0
 40
0.0624999999999969
 40
0.0624999999999969
 40
0.1249999999999938
 40
0.1249999999999938
 40
0.1874999999999907
 40
0.1874999999999907
 40
0.2499999999999876
 40
0.2499999999999876
 40
0.2812499999999867
 40
0.2812499999999867
 40
0.3124999999999858
 40
0.3124999999999858
 40
0.3749999999999852
 40
0.3749999999999852
 40
0.4062499999999854
 40
0.4062499999999854
 40
0.4374999999999856
 40
0.4374999999999856
 40
0.4999999999999859
 40
0.4999999999999859
 40
0.5624999999999862
 40
0.5624999999999862
 40
0.6249999999999866
 40
0.6249999999999866
 40
0.6874999999999869
 40
0.6874999999999869
 40
0.7187499999999877
 40
0.7187499999999877
 40
0.7499999999999885
 40
0.7499999999999885
 40
0.8124999999999913
 40
0.8124999999999913
 40
0.8749999999999942
 40
0.8749999999999942
 40
0.9374999999999971
 40
0.9374999999999971
 40
1.0
 40
1.0
 40
1.062499999999997
 40
1.062499999999997
 10
146.0834941153862
 20
119.2538986891942
 30
0.0
 10
146.0834941153862
 20
119.2538986891942
 30
0.0
 10
146.0501474524935
 20
119.2665342093231
 30
0.0
 10
145.9240666974356
 20
119.309748373566
 30
0.0
 10
145.8312596529773
 20
119.3401512475277
 30
0.0
 10
145.6027011257914
 20
119.4016586205641
 30
0.0
 10
145.4646048570258
 20
119.4330615612933
 30
0.0
 10
145.1644822330661
 20
119.4782028331183
 30
0.0
 10
144.9990952677906
 20
119.4919693884982
 30
0.0
 10
144.7520418467301
 20
119.4920396217626
 30
0.0
 10
144.6684048267792
 20
119.4887264535363
 30
0.0
 10
144.5074323496762
 20
119.4762616609569
 30
0.0
 10
144.4291324976156
 20
119.4671538236364
 30
0.0
 10
144.2007319040225
 20
119.4328389106332
 30
0.0
 10
144.0641859675546
 20
119.4016481434566
 30
0.0
 10
143.8921421269192
 20
119.3553242679217
 30
0.0
 10
143.8408428272222
 20
119.3401388941618
 30
0.0
 10
143.7502395185583
 20
119.3118801493252
 30
0.0
 10
143.7109991069565
 20
119.29880869882
 30
0.0
 10
143.6170101303001
 20
119.2665887706586
 30
0.0
 10
143.583550748808
 20
119.2539195103041
 30
0.0
 10
143.5834376302242
 20
119.2538779225916
 30
0.0
 10
143.6166498223873
 20
119.2664634527717
 30
0.0
 10
143.7424707143641
 20
119.3095991348584
 30
0.0
 10
143.8342937437912
 20
119.3397621092694
 30
0.0
 10
144.0655377221496
 20
119.4019981818426
 30
0.0
 10
144.2017401647191
 20
119.432998220976
 30
0.0
 10
144.4288822654814
 20
119.4671123075741
 30
0.0
 10
144.5069045996335
 20
119.476204820039
 30
0.0
 10
144.6676693551855
 20
119.488685352725
 30
0.0
 10
144.7513533323639
 20
119.4920227113543
 30
0.0
 10
144.9985105319608
 20
119.4920035641524
 30
0.0
 10
145.1640031211131
 20
119.4782727498025
 30
0.0
 10
145.4649906479249
 20
119.43300568031
 30
0.0
 10
145.6028476936788
 20
119.4016349744578
 30
0.0
 10
145.832090781502
 20
119.3399117182879
 30
0.0
 10
145.9241903765503
 20
119.309710524535
 30
0.0
 10
146.0505732339805
 20
119.2663837110063
 30
0.0
 10
146.0834941153862
 20
119.2538986891942
 30
0.0
 10
146.0834941153862
 20
119.2538986891942
 30
0.0
  0
LINE
  5
1E0
330
1F
100
AcDbEntity
  8
0
  6
HIDDEN
 62
     7
370
     0
100
AcDbLine
 10
181.1334941273
 20
124.0038987242
 30
0.0
 11
181.1334941273
 21
121.3038986542
 31
0.0
  0
LINE
  5
1E1
330
1F
100
AcDbEntity
  8
0
  6
HIDDEN
 62
     7
370
     0
100
AcDbLine
 10
182.8334931021
 20
120.3224031713
 30
0.0
 11
182.8334931021
 21
124.9853942071
 31
0.0
  0
LINE
  5
1E2
330
1F
100
AcDbEntity
  8
0
  6
HIDDEN
 62
     7
370
     0
100
AcDbLine
 10
180.3334954863
 20
124.0038987242
 30
0.0
 11
180.3334954863
 21
121.3038986542
 31
0.0
  0
LINE
  5
1E3
330
1F
100
AcDbEntity
  8
0
  6
HIDDEN
 62
     7
370
     0
100
AcDbLine
 10
180.1382157688
 20
123.6788986942
 30
0.0
 11
180.1382157688
 21
121.6288986842
 31
0.0
  0
LWPOLYLINE
  5
1E4
330
1F
100
AcDbEntity
  8
0
  6
HIDDEN
 62
     7
370
     0
100
AcDbPolyline
 90
       17
 70
   128
 43
0.0
 10
144.9611507093
 20
112.1201188297
 10
145.1859794294
 20
112.2775449411
 10
145.398963589
 20
112.4266785562
 10
145.5929487681
 20
112.5625082285
 10
145.7614138459
 20
112.6804695458
 10
145.8987019693
 20
112.7765997306
 10
146.0001993661
 20
112.8476680249
 10
146.0624936705
 20
112.891287449
 10
146.0834949946
 20
112.9059921012
 10
146.0624936705
 20
112.891287449
 10
146.0001993661
 20
112.8476680249
 10
145.8987019693
 20
112.7765997306
 10
145.7614138459
 20
112.6804695458
 10
145.5929487681
 20
112.5625082285
 10
145.398963589
 20
112.4266785562
 10
145.1859794294
 20
112.2775449411
 10
144.9611507093
 20
112.1201188297
  0
SPLINE
  5
1E5
330
1F
100
AcDbEntity
  8
0
  6
HIDDEN
 62
     7
370
     0
100
AcDbSpline
210
0.0
220
0.0
230
1.0
 70
    24
 71
     3
 72
     8
 73
     4
 74
     0
 42
0.00000001
 43
0.00000001
 40
0.0
 40
0.0
 40
0.0
 40
0.0
 40
1.0
 40
1.0
 40
1.0
 40
1.0
 10
144.8960832875391
 20
111.9413459692145
 30
0.0
 10
144.9177738236326
 20
112.0009402273474
 30
0.0
 10
144.9395471858228
 20
112.0607620483107
 30
0.0
 10
144.961151412082
 20
112.1201191721224
 30
0.0
  0
LWPOLYLINE
  5
1E6
330
1F
100
AcDbEntity
  8
0
  6
HIDDEN
 62
     7
370
     0
100
AcDbPolyline
 90
       19
 70
   128
 43
0.0
 10
144.8960829263
 20
111.9413458735
 10
145.1172478234
 20
111.6254915476
 10
145.3293528145
 20
111.322572361
 10
145.5256290471
 20
111.0422600985
 10
145.6998124456
 20
110.7935019762
 10
145.8463392889
 20
110.5842384503
 10
145.9605362003
 20
110.4211508289
 10
146.0387523954
 20
110.3094442741
 10
146.078495655
 20
110.2526848197
 10
146.0834949946
 20
110.2455471635
 10
146.078495655
 20
110.2526848197
 10
146.0387523954
 20
110.3094442741
 10
145.9605362003
 20
110.4211508289
 10
145.8463392889
 20
110.5842384503
 10
145.6998124456
 20
110.7935019762
 10
145.5256290471
 20
111.0422600985
 10
145.3293528145
 20
111.322572361
 10
145.1172478234
 20
111.6254915476
 10
144.8960829263
 20
111.9413458735
  0
SPLINE
  5
1E7
330
1F
100
AcDbEntity
  8
0
  6
HIDDEN
 62
     7
370
     0
100
AcDbSpline
210
0.0
220
0.0
230
1.0
 70
    24
 71
     3
 72
     8
 73
     4
 74
     0
 42
0.00000001
 43
0.00000001
 40
0.0
 40
0.0
 40
0.0
 40
0.0
 40
1.0
 40
1.0
 40
1.0
 40
1.0
 10
144.961151412082
 20
112.1201191721224
 30
0.0
 10
144.9395471858228
 20
112.0607620483107
 30
0.0
 10
144.9177738236326
 20
112.0009402273474
 30
0.0
 10
144.8960832875391
 20
111.9413459692145
 30
0.0
  0
LINE
  5
1E8
330
1F
100
AcDbEntity
  8
0
  6
HIDDEN
 62
     7
370
     0
100
AcDbLine
 10
143.5834936535
 20
109.153898339
 30
0.0
 11
146.0834949946
 21
109.153898339
 31
0.0
  0
LINE
  5
1E9
330
1F
100
AcDbEntity
  8
0
  6
HIDDEN
 62
     7
370
     0
100
AcDbLine
 10
181.4834926014
 20
109.3938983039
 30
0.0
 11
181.4834926014
 21
109.4038988457
 31
0.0
  0
LINE
  5
1EA
330
1F
100
AcDbEntity
  8
0
  6
HIDDEN
 62
     7
370
     0
100
AcDbLine
 10
181.4834926014
 20
109.3938983039
 30
0.0
 11
179.6090196555
 21
109.3938983039
 31
0.0
  0
LINE
  5
1EB
330
1F
100
AcDbEntity
  8
0
  6
HIDDEN
 62
     7
370
     0
100
AcDbLine
 10
181.4834926014
 20
109.4038988457
 30
0.0
 11
178.4821714943
 21
109.4038988457
 31
0.0
  0
LINE
  5
1EC
330
1F
100
AcDbEntity
  8
0
  6
HIDDEN
 62
     7
370
     0
100
AcDbLine
 10
178.4821714943
 20
109.3938983039
 30
0.0
 11
181.4834926014
 21
109.3938983039
 31
0.0
  0
LINE
  5
1ED
330
1F
100
AcDbEntity
  8
0
  6
HIDDEN
 62
     7
370
     0
100
AcDbLine
 10
180.3868714457
 20
109.3938983039
 30
0.0
 11
180.3868714457
 21
109.4038988457
 31
0.0
  0
LINE
  5
1EE
330
1F
100
AcDbEntity
  8
0
  6
HIDDEN
 62
     7
370
     0
100
AcDbLine
 10
180.3868714457
 20
109.3938983039
 30
0.0
 11
178.4821714943
 21
109.3938983039
 31
0.0
  0
LINE
  5
1EF
330
1F
100
AcDbEntity
  8
0
  6
HIDDEN
 62
     7
370
     0
100
AcDbLine
 10
180.3868714457
 20
109.4038988457
 30
0.0
 11
178.4082580095
 21
109.4038988457
 31
0.0
  0
LINE
  5
1F0
330
1F
100
AcDbEntity
  8
0
  6
HIDDEN
 62
     7
370
     0
100
AcDbLine
 10
178.3631931727
 20
109.3938983039
 30
0.0
 11
180.3418028837
 21
109.3938983039
 31
0.0
  0
LINE
  5
1F1
330
1F
100
AcDbEntity
  8
0
  6
HIDDEN
 62
     7
370
     0
100
AcDbLine
 10
178.3631931727
 20
109.4038988457
 30
0.0
 11
180.3418028837
 21
109.4038988457
 31
0.0
  0
LINE
  5
1F2
330
1F
100
AcDbEntity
  8
0
  6
HIDDEN
 62
     7
370
     0
100
AcDbLine
 10
180.3418028837
 20
109.3938983039
 30
0.0
 11
180.3418028837
 21
109.4038988457
 31
0.0
  0
LINE
  5
1F3
330
1F
100
AcDbEntity
  8
0
  6
HIDDEN
 62
     7
370
     0
100
AcDbLine
 10
180.3418028837
 20
109.3938983039
 30
0.0
 11
180.3868714457
 21
109.3938983039
 31
0.0
  0
LINE
  5
1F4
330
1F
100
AcDbEntity
  8
0
  6
HIDDEN
 62
     7
370
     0
100
AcDbLine
 10
180.3418028837
 20
109.4038988457
 30
0.0
 11
180.3868714457
 21
109.4038988457
 31
0.0
  0
LINE
  5
1F5
330
1F
100
AcDbEntity
  8
0
  6
HIDDEN
 62
     7
370
     0
100
AcDbLine
 10
180.0541285162
 20
109.3938983039
 30
0.0
 11
180.0541285162
 21
109.4038988457
 31
0.0
  0
LINE
  5
1F6
330
1F
100
AcDbEntity
  8
0
  6
HIDDEN
 62
     7
370
     0
100
AcDbLine
 10
180.0541285162
 20
109.3938983039
 30
0.0
 11
178.1431365495
 21
109.3938983039
 31
0.0
  0
LINE
  5
1F7
330
1F
100
AcDbEntity
  8
0
  6
HIDDEN
 62
     7
370
     0
100
AcDbLine
 10
180.0541285162
 20
109.4038988457
 30
0.0
 11
178.1431365495
 21
109.4038988457
 31
0.0
  0
LINE
  5
1F8
330
1F
100
AcDbEntity
  8
0
  6
HIDDEN
 62
     7
370
     0
100
AcDbLine
 10
178.0540238803
 20
109.3938983039
 30
0.0
 11
179.965015847
 21
109.3938983039
 31
0.0
  0
LINE
  5
1F9
330
1F
100
AcDbEntity
  8
0
  6
HIDDEN
 62
     7
370
     0
100
AcDbLine
 10
178.0540238803
 20
109.4038988457
 30
0.0
 11
179.965015847
 21
109.4038988457
 31
0.0
  0
LINE
  5
1FA
330
1F
100
AcDbEntity
  8
0
  6
HIDDEN
 62
     7
370
     0
100
AcDbLine
 10
179.965015847
 20
109.3938983039
 30
0.0
 11
179.965015847
 21
109.4038988457
 31
0.0
  0
LINE
  5
1FB
330
1F
100
AcDbEntity
  8
0
  6
HIDDEN
 62
     7
370
     0
100
AcDbLine
 10
179.965015847
 20
109.3938983039
 30
0.0
 11
180.0541285162
 21
109.3938983039
 31
0.0
  0
LINE
  5
1FC
330
1F
100
AcDbEntity
  8
0
  6
HIDDEN
 62
     7
370
     0
100
AcDbLine
 10
179.965015847
 20
109.4038988457
 30
0.0
 11
180.0541285162
 21
109.4038988457
 31
0.0
  0
LINE
  5
1FD
330
1F
100
AcDbEntity
  8
0
  6
HIDDEN
 62
     7
370
     0
100
AcDbLine
 10
179.4928166752
 20
109.3938983039
 30
0.0
 11
179.4928166752
 21
109.4038988457
 31
0.0
  0
LINE
  5
1FE
330
1F
100
AcDbEntity
  8
0
  6
HIDDEN
 62
     7
370
     0
100
AcDbLine
 10
179.4928166752
 20
109.3938983039
 30
0.0
 11
177.6928160076
 21
109.3938983039
 31
0.0
  0
LINE
  5
1FF
330
1F
100
AcDbEntity
  8
0
  6
HIDDEN
 62
     7
370
     0
100
AcDbLine
 10
179.4928166752
 20
109.4038988457
 30
0.0
 11
177.6928160076
 21
109.4038988457
 31
0.0
  0
LINE
  5
200
330
1F
100
AcDbEntity
  8
0
  6
HIDDEN
 62
     7
370
     0
100
AcDbLine
 10
177.5616820639
 20
109.3938983039
 30
0.0
 11
179.3616827314
 21
109.3938983039
 31
0.0
  0
LINE
  5
201
330
1F
100
AcDbEntity
  8
0
  6
HIDDEN
 62
     7
370
     0
100
AcDbLine
 10
177.5616820639
 20
109.4038988457
 30
0.0
 11
179.3616827314
 21
109.4038988457
 31
0.0
  0
LINE
  5
202
330
1F
100
AcDbEntity
  8
0
  6
HIDDEN
 62
     7
370
     0
100
AcDbLine
 10
179.3616827314
 20
109.3938983039
 30
0.0
 11
179.3616827314
 21
109.4038988457
 31
0.0
  0
LINE
  5
203
330
1F
100
AcDbEntity
  8
0
  6
HIDDEN
 62
     7
370
     0
100
AcDbLine
 10
179.3616827314
 20
109.3938983039
 30
0.0
 11
179.4928166752
 21
109.3938983039
 31
0.0
  0
LINE
  5
204
330
1F
100
AcDbEntity
  8
0
  6
HIDDEN
 62
     7
370
     0
100
AcDbLine
 10
179.3616827314
 20
109.4038988457
 30
0.0
 11
179.4928166752
 21
109.4038988457
 31
0.0
  0
LINE
  5
205
330
1F
100
AcDbEntity
  8
0
  6
HIDDEN
 62
     7
370
     0
100
AcDbLine
 10
178.7156764155
 20
109.3938983039
 30
0.0
 11
178.7156764155
 21
109.4038988457
 31
0.0
  0
LINE
  5
206
330
1F
100
AcDbEntity
  8
0
  6
HIDDEN
 62
     7
370
     0
100
AcDbLine
 10
178.7156764155
 20
109.3938983039
 30
0.0
 11
177.0675223058
 21
109.3938983039
 31
0.0
  0
LINE
  5
207
330
1F
100
AcDbEntity
  8
0
  6
HIDDEN
 62
     7
370
     0
100
AcDbLine
 10
178.7156764155
 20
109.4038988457
 30
0.0
 11
177.0675223058
 21
109.4038988457
 31
0.0
  0
LINE
  5
208
330
1F
100
AcDbEntity
  8
0
  6
HIDDEN
 62
     7
370
     0
100
AcDbLine
 10
176.8973398691
 20
109.3938983039
 30
0.0
 11
178.5454977041
 21
109.3938983039
 31
0.0
  0
LINE
  5
209
330
1F
100
AcDbEntity
  8
0
  6
HIDDEN
 62
     7
370
     0
100
AcDbLine
 10
176.8973398691
 20
109.4038988457
 30
0.0
 11
178.5454977041
 21
109.4038988457
 31
0.0
  0
LINE
  5
20A
330
1F
100
AcDbEntity
  8
0
  6
HIDDEN
 62
     7
370
     0
100
AcDbLine
 10
178.4693155175
 20
109.3938983039
 30
0.0
 11
178.4693155175
 21
109.4038988457
 31
0.0
  0
LINE
  5
20B
330
1F
100
AcDbEntity
  8
0
  6
HIDDEN
 62
     7
370
     0
100
AcDbLine
 10
178.4693155175
 20
109.3938983039
 30
0.0
 11
176.2814450746
 21
109.3938983039
 31
0.0
  0
LINE
  5
20C
330
1F
100
AcDbEntity
  8
0
  6
HIDDEN
 62
     7
370
     0
100
AcDbLine
 10
178.4693155175
 20
109.4038988457
 30
0.0
 11
176.2814450746
 21
109.4038988457
 31
0.0
  0
LINE
  5
20D
330
1F
100
AcDbEntity
  8
0
  6
HIDDEN
 62
     7
370
     0
100
AcDbLine
 10
178.5454977041
 20
109.3938983039
 30
0.0
 11
178.5454977041
 21
109.4038988457
 31
0.0
  0
LINE
  5
20E
330
1F
100
AcDbEntity
  8
0
  6
HIDDEN
 62
     7
370
     0
100
AcDbLine
 10
178.5454977041
 20
109.3938983039
 30
0.0
 11
178.7156764155
 21
109.3938983039
 31
0.0
  0
LINE
  5
20F
330
1F
100
AcDbEntity
  8
0
  6
HIDDEN
 62
     7
370
     0
100
AcDbLine
 10
178.5454977041
 20
109.4038988457
 30
0.0
 11
178.7156764155
 21
109.4038988457
 31
0.0
  0
LINE
  5
210
330
1F
100
AcDbEntity
  8
0
  6
HIDDEN
 62
     7
370
     0
100
AcDbLine
 10
176.0760809963
 20
109.3938983039
 30
0.0
 11
178.2639514392
 21
109.3938983039
 31
0.0
  0
LINE
  5
211
330
1F
100
AcDbEntity
  8
0
  6
HIDDEN
 62
     7
370
     0
100
AcDbLine
 10
176.0760809963
 20
109.4038988457
 30
0.0
 11
178.2639514392
 21
109.4038988457
 31
0.0
  0
SPLINE
  5
212
330
1F
100
AcDbEntity
  8
0
  6
HIDDEN
 62
     7
370
     0
100
AcDbSpline
210
0.0
220
0.0
230
1.0
 70
    24
 71
     3
 72
    14
 73
    10
 74
     0
 42
0.00000001
 43
0.00000001
 40
0.0
 40
0.0
 40
0.0
 40
0.0
 40
0.25
 40
0.25
 40
0.5
 40
0.5
 40
0.75
 40
0.75
 40
1.0
 40
1.0
 40
1.0
 40
1.0
 10
180.9571057405217
 20
109.4038986891942
 30
0.0
 10
180.9102603813208
 20
109.4038986891942
 30
0.0
 10
180.8524405611734
 20
109.4038986891942
 30
0.0
 10
180.7102196646969
 20
109.4038986891942
 30
0.0
 10
180.6246621179538
 20
109.4038986891942
 30
0.0
 10
180.4158744897178
 20
109.4038986891942
 30
0.0
 10
180.2913313441843
 20
109.4038986891942
 30
0.0
 10
180.0005622354711
 20
109.4038986891942
 30
0.0
 10
179.8308942187047
 20
109.4038986891942
 30
0.0
 10
179.6580676348433
 20
109.4038986891942
 30
0.0
  0
SPLINE
  5
213
330
1F
100
AcDbEntity
  8
0
  6
HIDDEN
 62
     7
370
     0
100
AcDbSpline
210
0.0
220
0.0
230
1.0
 70
    24
 71
     3
 72
    14
 73
    10
 74
     0
 42
0.00000001
 43
0.00000001
 40
0.0
 40
0.0
 40
0.0
 40
0.0
 40
0.25
 40
0.25
 40
0.5
 40
0.5
 40
0.75
 40
0.75
 40
1.0
 40
1.0
 40
1.0
 40
1.0
 10
179.6580676348433
 20
131.7734385706566
 30
0.0
 10
179.7913664620707
 20
131.7523261105103
 30
0.0
 10
179.9265814118384
 20
131.7309101663678
 30
0.0
 10
180.1874843118064
 20
131.6895872065773
 30
0.0
 10
180.3135977523966
 20
131.6696127998721
 30
0.0
 10
180.5419210019561
 20
131.6334499497775
 30
0.0
 10
180.6453864738834
 20
131.6170626289134
 30
0.0
 10
180.8224223332608
 20
131.5890229034085
 30
0.0
 10
180.8972591091658
 20
131.5771699225411
 30
0.0
 10
180.9571057405199
 20
131.5676911473288
 30
0.0
  0
LINE
  5
214
330
1F
100
AcDbEntity
  8
0
  6
HIDDEN
 62
     7
370
     0
100
AcDbLine
 10
178.2639514392
 20
109.3938983039
 30
0.0
 11
178.2639514392
 21
109.4038988457
 31
0.0
  0
LINE
  5
215
330
1F
100
AcDbEntity
  8
0
  6
HIDDEN
 62
     7
370
     0
100
AcDbLine
 10
178.2639514392
 20
109.3938983039
 30
0.0
 11
178.4693155175
 21
109.3938983039
 31
0.0
  0
LINE
  5
216
330
1F
100
AcDbEntity
  8
0
  6
HIDDEN
 62
     7
370
     0
100
AcDbLine
 10
178.2639514392
 20
109.4038988457
 30
0.0
 11
178.4693155175
 21
109.4038988457
 31
0.0
  0
LINE
  5
217
330
1F
100
AcDbEntity
  8
0
  6
HIDDEN
 62
     7
370
     0
100
AcDbLine
 10
148.583494473
 20
128.1335380853
 30
0.0
 11
148.583494473
 21
124.1422128158
 31
0.0
  0
LINE
  5
218
330
1F
100
AcDbEntity
  8
0
  6
HIDDEN
 62
     7
370
     0
100
AcDbLine
 10
151.0834939515
 20
124.1422738174
 30
0.0
 11
151.0834939515
 21
127.2271269925
 31
0.0
  0
LINE
  5
219
330
1F
100
AcDbEntity
  8
0
  6
HIDDEN
 62
     7
370
     0
100
AcDbLine
 10
175.904710192
 20
129.0250908576
 30
0.0
 11
150.3814574068
 21
129.0250908576
 31
0.0
  0
LINE
  5
21A
330
1F
100
AcDbEntity
  8
0
  6
HIDDEN
 62
     7
370
     0
100
AcDbLine
 10
178.8334924465
 20
129.0250908576
 30
0.0
 11
178.269159395
 21
129.0250908576
 31
0.0
  0
LINE
  5
21B
330
1F
100
AcDbEntity
  8
0
  6
HIDDEN
 62
     7
370
     0
100
AcDbLine
 10
177.2698987012
 20
126.5250909135
 30
0.0
 11
178.8334924465
 21
126.5250909135
 31
0.0
  0
LINE
  5
21C
330
1F
100
AcDbEntity
  8
0
  6
HIDDEN
 62
     7
370
     0
100
AcDbLine
 10
150.3814574068
 20
126.5250909135
 30
0.0
 11
176.6737851982
 21
126.5250909135
 31
0.0
  0
LINE
  5
21D
330
1F
100
AcDbEntity
  8
0
  6
HIDDEN
 62
     7
370
     0
100
AcDbLine
 10
151.0834939515
 20
128.1335380853
 30
0.0
 11
151.0834939515
 21
128.3230547786
 31
0.0
  0
LINE
  5
21E
330
1F
100
AcDbEntity
  8
0
  6
HIDDEN
 62
     7
370
     0
100
AcDbLine
 10
178.4890558308
 20
128.6551369347
 30
0.0
 11
180.1436062639
 21
131.6965370432
 31
0.0
  0
LINE
  5
21F
330
1F
100
AcDbEntity
  8
0
  6
HIDDEN
 62
     7
370
     0
100
AcDbLine
 10
177.5233823543
 20
132.1115399704
 30
0.0
 11
175.8154634123
 21
128.9720441208
 31
0.0
  0
LINE
  5
220
330
1F
100
AcDbEntity
  8
0
  6
HIDDEN
 62
     7
370
     0
100
AcDbLine
 10
175.9578663593
 20
126.6802464605
 30
0.0
 11
175.9803671127
 21
126.6594151028
 31
0.0
  0
LINE
  5
221
330
1F
100
AcDbEntity
  8
0
  6
HIDDEN
 62
     7
370
     0
100
AcDbLine
 10
175.9803671127
 20
126.6594151028
 30
0.0
 11
176.0419834142
 21
126.6437102102
 31
0.0
  0
LINE
  5
222
330
1F
100
AcDbEntity
  8
0
  6
HIDDEN
 62
     7
370
     0
100
AcDbLine
 10
167.1112145965
 20
125.6538987153
 30
0.0
 11
153.8334939366
 21
125.6538987153
 31
0.0
  0
LINE
  5
223
330
1F
100
AcDbEntity
  8
0
  6
HIDDEN
 62
     7
370
     0
100
AcDbLine
 10
182.8334931021
 20
125.6538987153
 30
0.0
 11
172.8325750416
 21
125.6538987153
 31
0.0
  0
LINE
  5
224
330
1F
100
AcDbEntity
  8
0
  6
HIDDEN
 62
     7
370
     0
100
AcDbLine
 10
172.827832747
 20
119.6538986631
 30
0.0
 11
182.8334931021
 21
119.6538986631
 31
0.0
  0
LINE
  5
225
330
1F
100
AcDbEntity
  8
0
  6
HIDDEN
 62
     7
370
     0
100
AcDbLine
 10
153.8334939366
 20
119.6538986631
 30
0.0
 11
167.1645607536
 21
119.6538986631
 31
0.0
  0
LINE
  5
226
330
1F
100
AcDbEntity
  8
0
  6
HIDDEN
 62
     7
370
     0
100
AcDbLine
 10
153.8334939366
 20
125.6538987153
 30
0.0
 11
152.0309116428
 21
122.6538986892
 31
0.0
  0
LINE
  5
227
330
1F
100
AcDbEntity
  8
0
  6
HIDDEN
 62
     7
370
     0
100
AcDbLine
 10
152.0309116428
 20
122.6538986892
 30
0.0
 11
153.8334939366
 21
119.6538986631
 31
0.0
  0
LINE
  5
228
330
1F
100
AcDbEntity
  8
0
  6
HIDDEN
 62
     7
370
     0
100
AcDbLine
 10
120.8334941154
 20
111.9388685555
 30
0.0
 11
121.0276549506
 21
113.3203952566
 31
0.0
  0
LINE
  5
229
330
1F
100
AcDbEntity
  8
0
  6
HIDDEN
 62
     7
370
     0
100
AcDbLine
 10
121.0276549506
 20
131.9874021218
 30
0.0
 11
120.8334941154
 21
133.3689288229
 31
0.0
  0
LINE
  5
22A
330
1F
100
AcDbEntity
  8
0
  6
HIDDEN
 62
     7
370
     0
100
AcDbLine
 10
176.4003488903
 20
126.5523751725
 30
0.0
 11
176.577575851
 21
126.5072057948
 31
0.0
  0
LINE
  5
22B
330
1F
100
AcDbEntity
  8
0
  6
HIDDEN
 62
     7
370
     0
100
AcDbLine
 10
154.7265168016
 20
138.6538994492
 30
0.0
 11
157.1334939187
 21
135.3409801603
 31
0.0
  0
ARC
  5
22C
330
1F
100
AcDbEntity
  8
0
  6
HIDDEN
 62
     7
370
     0
100
AcDbCircle
 10
120.4334941154
 20
113.4038986892
 30
0.0
 40
0.6000000000000085
100
AcDbArc
 50
352.0
 51
0.0
  0
ARC
  5
22D
330
1F
100
AcDbEntity
  8
0
  6
HIDDEN
 62
     7
370
     0
100
AcDbCircle
 10
120.4334941154
 20
113.4038986892
 30
0.0
 40
0.6000000000000085
100
AcDbArc
 50
0.0
 51
48.1896851042
  0
ARC
  5
22E
330
1F
100
AcDbEntity
  8
0
  6
HIDDEN
 62
     7
370
     0
100
AcDbCircle
 10
120.4334941154
 20
131.9038986892
 30
0.0
 40
0.6000000000000119
100
AcDbArc
 50
348.75
 51
8.0
  0
ARC
  5
22F
330
1F
100
AcDbEntity
  8
0
  6
HIDDEN
 62
     7
370
     0
100
AcDbCircle
 10
120.4334941154
 20
131.9038986892
 30
0.0
 40
0.6000000000000119
100
AcDbArc
 50
311.8103148958
 51
348.75
  0
LINE
  5
230
330
1F
100
AcDbEntity
  8
0
  6
HIDDEN
 62
     7
370
     0
100
AcDbLine
 10
121.0334941103
 20
113.40389857
 30
0.0
 11
121.0334941103
 21
131.9038988084
 31
0.0
  0
LINE
  5
231
330
1F
100
AcDbEntity
  8
0
  6
HIDDEN
 62
     7
370
     0
100
AcDbLine
 10
121.0334941103
 20
113.40389857
 30
0.0
 11
121.0334941103
 21
131.9038988084
 31
0.0
  0
LINE
  5
232
330
1F
100
AcDbEntity
  8
0
  6
HIDDEN
 62
     7
370
     0
100
AcDbLine
 10
154.8133048897
 20
107.083707954
 30
0.0
 11
154.3834957962
 21
106.6538979292
 31
0.0
  0
LINE
  5
233
330
1F
100
AcDbEntity
  8
0
  6
HIDDEN
 62
     7
370
     0
100
AcDbLine
 10
157.1334939187
 20
109.4038988457
 30
0.0
 11
156.7409749811
 21
109.0113808394
 31
0.0
  0
LINE
  5
234
330
1F
100
AcDbEntity
  8
0
  6
HIDDEN
 62
     7
370
     0
100
AcDbLine
 10
178.4834939723
 20
123.6788986942
 30
0.0
 11
178.4834939723
 21
131.9594726891
 31
0.0
  0
LINE
  5
235
330
1F
100
AcDbEntity
  8
0
  6
HIDDEN
 62
     7
370
     0
100
AcDbLine
 10
178.4834939723
 20
109.3938983039
 30
0.0
 11
178.4834939723
 21
121.6417659533
 31
0.0
  0
LINE
  5
236
330
1F
100
AcDbEntity
  8
0
  6
HIDDEN
 62
     7
370
     0
100
AcDbLine
 10
161.4834930485
 20
134.6520082087
 30
0.0
 11
161.4834930485
 21
109.4038988457
 31
0.0
  0
LINE
  5
237
330
1F
100
AcDbEntity
  8
0
  6
HIDDEN
 62
     7
370
     0
100
AcDbLine
 10
104.3334942048
 20
131.6538983018
 30
0.0
 11
105.3233289828
 21
130.6640635238
 31
0.0
  0
LINE
  5
238
330
1F
100
AcDbEntity
  8
0
  6
HIDDEN
 62
     7
370
     0
100
AcDbLine
 10
112.8436591213
 20
130.6640635238
 30
0.0
 11
113.8334938993
 21
131.6538983018
 31
0.0
  0
LINE
  5
239
330
1F
100
AcDbEntity
  8
0
  6
HIDDEN
 62
     7
370
     0
100
AcDbLine
 10
98.8334942346
 20
118.6538984992
 30
0.0
 11
99.8727254306
 21
119.2538986441
 31
0.0
  0
LINE
  5
23A
330
1F
100
AcDbEntity
  8
0
  6
HIDDEN
 62
     7
370
     0
100
AcDbLine
 10
99.8727254306
 20
126.0538987343
 30
0.0
 11
98.8334942346
 21
126.6538988792
 31
0.0
  0
LINE
  5
23B
330
1F
100
AcDbEntity
  8
0
  6
HIDDEN
 62
     7
370
     0
100
AcDbLine
 10
105.3233289828
 20
130.6640635238
 30
0.0
 11
106.5639428531
 21
126.034030597
 31
0.0
  0
LINE
  5
23C
330
1F
100
AcDbEntity
  8
0
  6
HIDDEN
 62
     7
370
     0
100
AcDbLine
 10
111.6037120779
 20
126.0365169954
 30
0.0
 11
112.8436591213
 21
130.6640635238
 31
0.0
  0
LINE
  5
23D
330
1F
100
AcDbEntity
  8
0
  6
HIDDEN
 62
     7
370
     0
100
AcDbLine
 10
146.0834949946
 20
119.2538986441
 30
0.0
 11
151.8334936087
 21
119.2538986441
 31
0.0
  0
LINE
  5
23E
330
1F
100
AcDbEntity
  8
0
  6
HIDDEN
 62
     7
370
     0
100
AcDbLine
 10
99.8727254306
 20
119.2538986441
 30
0.0
 11
143.6003748064
 21
119.2538986441
 31
0.0
  0
LINE
  5
23F
330
1F
100
AcDbEntity
  8
0
  6
HIDDEN
 62
     7
370
     0
100
AcDbLine
 10
106.5826959645
 20
126.0538987343
 30
0.0
 11
99.8727254306
 21
126.0538987343
 31
0.0
  0
LINE
  5
240
330
1F
100
AcDbEntity
  8
0
  6
HIDDEN
 62
     7
370
     0
100
AcDbLine
 10
151.8334936087
 20
126.0538987343
 30
0.0
 11
111.5873021742
 21
126.0538987343
 31
0.0
  0
LINE
  5
241
330
1F
100
AcDbEntity
  8
0
  6
HIDDEN
 62
     7
370
     0
100
AcDbLine
 10
151.8334936087
 20
119.2538986441
 30
0.0
 11
153.8764204567
 21
122.6538986892
 31
0.0
  0
LINE
  5
242
330
1F
100
AcDbEntity
  8
0
  6
HIDDEN
 62
     7
370
     0
100
AcDbLine
 10
153.8764204567
 20
122.6538986892
 30
0.0
 11
151.8334936087
 21
126.0538987343
 31
0.0
  0
LINE
  5
243
330
1F
100
AcDbEntity
  8
0
  6
HIDDEN
 62
     7
370
     0
100
AcDbLine
 10
182.8334931021
 20
124.9853942071
 30
0.0
 11
181.1334941273
 21
124.0038987242
 31
0.0
  0
LINE
  5
244
330
1F
100
AcDbEntity
  8
0
  6
HIDDEN
 62
     7
370
     0
100
AcDbLine
 10
181.1334941273
 20
121.3038986542
 30
0.0
 11
182.8334931021
 21
120.3224031713
 31
0.0
  0
LINE
  5
245
330
1F
100
AcDbEntity
  8
0
  6
HIDDEN
 62
     7
370
     0
100
AcDbLine
 10
180.3334954863
 20
124.0038987242
 30
0.0
 11
180.1382157688
 21
123.6788986942
 31
0.0
  0
LINE
  5
246
330
1F
100
AcDbEntity
  8
0
  6
HIDDEN
 62
     7
370
     0
100
AcDbLine
 10
180.1382157688
 20
121.6288986842
 30
0.0
 11
180.3334954863
 21
121.3038986542
 31
0.0
  0
LINE
  5
247
330
1F
100
AcDbEntity
  8
0
  6
HIDDEN
 62
     7
370
     0
100
AcDbLine
 10
180.3334954863
 20
121.3038986542
 30
0.0
 11
181.1334941273
 21
121.3038986542
 31
0.0
  0
LINE
  5
248
330
1F
100
AcDbEntity
  8
0
  6
HIDDEN
 62
     7
370
     0
100
AcDbLine
 10
181.1334941273
 20
124.0038987242
 30
0.0
 11
180.3334954863
 21
124.0038987242
 31
0.0
  0
LINE
  5
249
330
1F
100
AcDbEntity
  8
0
  6
HIDDEN
 62
     7
370
     0
100
AcDbLine
 10
146.0834949946
 20
110.2455471635
 30
0.0
 11
154.8086706286
 21
107.0698433549
 31
0.0
  0
LINE
  5
24A
330
1F
100
AcDbEntity
  8
0
  6
HIDDEN
 62
     7
370
     0
100
AcDbLine
 10
156.7464213555
 20
109.025004226
 30
0.0
 11
146.0834949946
 21
112.9059921012
 31
0.0
  0
LINE
  5
24B
330
1F
100
AcDbEntity
  8
0
  6
HIDDEN
 62
     7
370
     0
100
AcDbLine
 10
146.0834949946
 20
112.9059921012
 30
0.0
 11
146.0834949946
 21
119.2538986441
 31
0.0
  0
LINE
  5
24C
330
1F
100
AcDbEntity
  8
0
  6
HIDDEN
 62
     7
370
     0
100
AcDbLine
 10
146.0834949946
 20
109.153898339
 30
0.0
 11
146.0834949946
 21
110.2455471635
 31
0.0
  0
LINE
  5
24D
330
1F
100
AcDbEntity
  8
0
  6
HIDDEN
 62
     7
370
     0
100
AcDbLine
 10
143.5834936535
 20
119.2600681905
 30
0.0
 11
143.5834936535
 21
109.153898339
 31
0.0
  0
LINE
  5
24E
330
1F
100
AcDbEntity
  8
0
  6
HIDDEN
 62
     7
370
     0
100
AcDbLine
 10
178.481962878
 20
121.6288986842
 30
0.0
 11
180.1382157688
 21
121.6288986842
 31
0.0
  0
LINE
  5
24F
330
1F
100
AcDbEntity
  8
0
  6
HIDDEN
 62
     7
370
     0
100
AcDbLine
 10
180.1382157688
 20
123.6788986942
 30
0.0
 11
178.4834939723
 21
123.6788986942
 31
0.0
  0
LINE
  5
250
330
1F
100
AcDbEntity
  8
VERMASSUNG
100
AcDbLine
 10
186.0232868724
 20
141.8038986892
 30
0.0
 11
187.3930009929
 21
141.8038986892
 31
0.0
  0
LINE
  5
251
330
1F
100
AcDbEntity
  8
VERMASSUNG
100
AcDbLine
 10
186.8334941154
 20
139.5122922241
 30
0.0
 11
186.8334941154
 21
143.1807188396
 31
0.0
  0
DIMENSION
  5
252
330
1F
100
AcDbEntity
  8
VERMASSUNG
100
AcDbDimension
  2
*D1
 10
199.8556078756
 20
122.6538986892
 30
0.0
 11
199.8556078756
 21
132.2288986892
 31
0.0
 70
   160
  1
Ø39.9-51.1\PØ47.9-59.1
 71
     2
 42
-1.0
  3
SLDDIMSTYLE0
100
AcDbAlignedDimension
 13
187.3930009929
 23
141.8038986892
 33
0.0
 14
186.6649252287
 24
122.6538986892
 34
0.0
 50
90.0
100
AcDbRotatedDimension
  0
DIMENSION
  5
25C
330
1F
100
AcDbEntity
  8
VERMASSUNG
100
AcDbDimension
  2
*D2
 10
186.8334941154
 20
146.401583832
 30
0.0
 11
153.8334941154
 21
146.401583832
 31
0.0
 70
   160
 71
     2
 42
-1.0
  3
SLDDIMSTYLE1
100
AcDbAlignedDimension
 13
120.8334941154
 23
138.1538986892
 33
0.0
 14
186.8334941154
 24
143.1807188396
 34
0.0
100
AcDbRotatedDimension
  0
DIMENSION
  5
267
330
1F
100
AcDbEntity
  8
VERMASSUNG
100
AcDbDimension
  2
*D3
 10
92.1170714342
 20
106.6538986892
 30
0.0
 11
92.1170714342
 21
122.6538986892
 31
0.0
 70
   160
  1
WH%%c<>
 71
     2
 42
-1.0
  3
SLDDIMSTYLE1
100
AcDbAlignedDimension
 13
121.3334941154
 23
138.6538986892
 33
0.0
 14
121.3334941154
 24
106.6538986892
 34
0.0
 50
90.0
100
AcDbRotatedDimension
  0
LINE
  5
273
330
1F
100
AcDbEntity
  8
VERMASSUNG
  6
CENTERX2
370
     0
100
AcDbLine
 10
96.7060314927
 20
122.6538986892
 30
0.0
 11
186.6649252287
 21
122.6538986892
 31
0.0
  0
OLE2FRAME
  5
274
330
1F
100
AcDbEntity
  8
0
100
AcDbOle2Frame
 70
     2
  3
Paintbrush-Bild
 10
13.8511154363
 20
38.264191557
 30
0.0
 11
51.6290888628
 21
31.9806341108
 31
0.0
 71
     2
 72
     0
 73
     1
 90
    12928
310
80552BED0767C5B32B40DDAF6807D121434000000000000000006FFBDDFB85D0
310
4940DDAF6807D121434000000000000000006FFBDDFB85D04940416F4BD60AFB
310
3F4000000000000000002BED0767C5B32B40416F4BD60AFB3F40000000000000
310
0000000000000100000000010000010000000100000000000100000000320000
310
D0CF11E0A1B11AE1000000000000000000000000000000003E000300FEFF0900
310
0600000000000000000000000100000001000000000000000010000002000000
310
01000000FEFFFFFF0000000000000000FFFFFFFFFFFFFFFFFFFFFFFFFFFFFFFF
310
FFFFFFFFFFFFFFFFFFFFFFFFFFFFFFFFFFFFFFFFFFFFFFFFFFFFFFFFFFFFFFFF
310
FFFFFFFFFFFFFFFFFFFFFFFFFFFFFFFFFFFFFFFFFFFFFFFFFFFFFFFFFFFFFFFF
310
FFFFFFFFFFFFFFFFFFFFFFFFFFFFFFFFFFFFFFFFFFFFFFFFFFFFFFFFFFFFFFFF
310
FFFFFFFFFFFFFFFFFFFFFFFFFFFFFFFFFFFFFFFFFFFFFFFFFFFFFFFFFFFFFFFF
310
FFFFFFFFFFFFFFFFFFFFFFFFFFFFFFFFFFFFFFFFFFFFFFFFFFFFFFFFFFFFFFFF
310
FFFFFFFFFFFFFFFFFFFFFFFFFFFFFFFFFFFFFFFFFFFFFFFFFFFFFFFFFFFFFFFF
310
FFFFFFFFFFFFFFFFFFFFFFFFFFFFFFFFFFFFFFFFFFFFFFFFFFFFFFFFFFFFFFFF
310
FFFFFFFFFFFFFFFFFFFFFFFFFFFFFFFFFFFFFFFFFFFFFFFFFFFFFFFFFFFFFFFF
310
FFFFFFFFFFFFFFFFFFFFFFFFFFFFFFFFFFFFFFFFFFFFFFFFFFFFFFFFFFFFFFFF
310
FFFFFFFFFFFFFFFFFFFFFFFFFFFFFFFFFFFFFFFFFFFFFFFFFFFFFFFFFFFFFFFF
310
FFFFFFFFFFFFFFFFFFFFFFFFFFFFFFFFFFFFFFFFFFFFFFFFFFFFFFFFFFFFFFFF
310
FFFFFFFFFFFFFFFFFFFFFFFFFFFFFFFFFFFFFFFFFFFFFFFFFFFFFFFFFFFFFFFF
310
FFFFFFFFFFFFFFFFFFFFFFFFFFFFFFFFFFFFFFFFFFFFFFFFFFFFFFFFFFFFFFFF
310
FDFFFFFFFEFFFFFFFEFFFFFFFEFFFFFF05000000060000000700000008000000
310
090000000A0000000B0000000C0000000D0000000E0000000F00000010000000
310
11000000120000001300000014000000150000001600000017000000FEFFFFFF
310
FFFFFFFFFFFFFFFFFFFFFFFFFFFFFFFFFFFFFFFFFFFFFFFFFFFFFFFFFFFFFFFF
310
FFFFFFFFFFFFFFFFFFFFFFFFFFFFFFFFFFFFFFFFFFFFFFFFFFFFFFFFFFFFFFFF
310
FFFFFFFFFFFFFFFFFFFFFFFFFFFFFFFFFFFFFFFFFFFFFFFFFFFFFFFFFFFFFFFF
310
FFFFFFFFFFFFFFFFFFFFFFFFFFFFFFFFFFFFFFFFFFFFFFFFFFFFFFFFFFFFFFFF
310
FFFFFFFFFFFFFFFFFFFFFFFFFFFFFFFFFFFFFFFFFFFFFFFFFFFFFFFFFFFFFFFF
310
FFFFFFFFFFFFFFFFFFFFFFFFFFFFFFFFFFFFFFFFFFFFFFFFFFFFFFFFFFFFFFFF
310
FFFFFFFFFFFFFFFFFFFFFFFFFFFFFFFFFFFFFFFFFFFFFFFFFFFFFFFFFFFFFFFF
310
FFFFFFFFFFFFFFFFFFFFFFFFFFFFFFFFFFFFFFFFFFFFFFFFFFFFFFFFFFFFFFFF
310
FFFFFFFFFFFFFFFFFFFFFFFFFFFFFFFFFFFFFFFFFFFFFFFFFFFFFFFFFFFFFFFF
310
FFFFFFFFFFFFFFFFFFFFFFFFFFFFFFFFFFFFFFFFFFFFFFFFFFFFFFFFFFFFFFFF
310
FFFFFFFFFFFFFFFFFFFFFFFFFFFFFFFFFFFFFFFFFFFFFFFFFFFFFFFFFFFFFFFF
310
FFFFFFFFFFFFFFFFFFFFFFFFFFFFFFFFFFFFFFFFFFFFFFFFFFFFFFFFFFFFFFFF
310
FFFFFFFFFFFFFFFFFFFFFFFFFFFFFFFFFFFFFFFFFFFFFFFFFFFFFFFFFFFFFFFF
310
52006F006F007400200045006E00740072007900000000000000000000000000
310
0000000000000000000000000000000000000000000000000000000000000000
310
16000500FFFFFFFFFFFFFFFF020000000A00030000000000C000000000000046
310
00000000000000000000000010757F7E13EBCC0103000000C000000000000000
310
01004F006C006500000000000000000000000000000000000000000000000000
310
0000000000000000000000000000000000000000000000000000000000000000
310
0A000200FFFFFFFFFFFFFFFFFFFFFFFF00000000000000000000000000000000
310
0000000000000000000000000000000000000000000000001400000000000000
310
010043006F006D0070004F0062006A0000000000000000000000000000000000
310
0000000000000000000000000000000000000000000000000000000000000000
310
120002010100000003000000FFFFFFFF00000000000000000000000000000000
310
0000000000000000000000000000000000000000010000004D00000000000000
310
01004F006C006500310030004E00610074006900760065000000000000000000
310
0000000000000000000000000000000000000000000000000000000000000000
310
1A000200FFFFFFFFFFFFFFFFFFFFFFFF00000000000000000000000000000000
310
0000000000000000000000000000000000000000040000002426000000000000
310
FEFFFFFF02000000FEFFFFFFFFFFFFFFFFFFFFFFFFFFFFFFFFFFFFFFFFFFFFFF
310
FFFFFFFFFFFFFFFFFFFFFFFFFFFFFFFFFFFFFFFFFFFFFFFFFFFFFFFFFFFFFFFF
310
FFFFFFFFFFFFFFFFFFFFFFFFFFFFFFFFFFFFFFFFFFFFFFFFFFFFFFFFFFFFFFFF
310
FFFFFFFFFFFFFFFFFFFFFFFFFFFFFFFFFFFFFFFFFFFFFFFFFFFFFFFFFFFFFFFF
310
FFFFFFFFFFFFFFFFFFFFFFFFFFFFFFFFFFFFFFFFFFFFFFFFFFFFFFFFFFFFFFFF
310
FFFFFFFFFFFFFFFFFFFFFFFFFFFFFFFFFFFFFFFFFFFFFFFFFFFFFFFFFFFFFFFF
310
FFFFFFFFFFFFFFFFFFFFFFFFFFFFFFFFFFFFFFFFFFFFFFFFFFFFFFFFFFFFFFFF
310
FFFFFFFFFFFFFFFFFFFFFFFFFFFFFFFFFFFFFFFFFFFFFFFFFFFFFFFFFFFFFFFF
310
FFFFFFFFFFFFFFFFFFFFFFFFFFFFFFFFFFFFFFFFFFFFFFFFFFFFFFFFFFFFFFFF
310
FFFFFFFFFFFFFFFFFFFFFFFFFFFFFFFFFFFFFFFFFFFFFFFFFFFFFFFFFFFFFFFF
310
FFFFFFFFFFFFFFFFFFFFFFFFFFFFFFFFFFFFFFFFFFFFFFFFFFFFFFFFFFFFFFFF
310
FFFFFFFFFFFFFFFFFFFFFFFFFFFFFFFFFFFFFFFFFFFFFFFFFFFFFFFFFFFFFFFF
310
FFFFFFFFFFFFFFFFFFFFFFFFFFFFFFFFFFFFFFFFFFFFFFFFFFFFFFFFFFFFFFFF
310
FFFFFFFFFFFFFFFFFFFFFFFFFFFFFFFFFFFFFFFFFFFFFFFFFFFFFFFFFFFFFFFF
310
FFFFFFFFFFFFFFFFFFFFFFFFFFFFFFFFFFFFFFFFFFFFFFFFFFFFFFFFFFFFFFFF
310
FFFFFFFFFFFFFFFFFFFFFFFFFFFFFFFFFFFFFFFFFFFFFFFFFFFFFFFFFFFFFFFF
310
0100000200000000000000000000000000000000000000000000000000000000
310
0000000000000000000000000000000000000000000000000000000000000000
310
0100FEFF030A0000FFFFFFFF0A00030000000000C00000000000004607000000
310
5042727573680007000000504272757368000700000050427275736800F439B2
310
7100000000000000000000000000000000000000000000000000000000000000
310
0000000000000000000000000000000000000000000000000000000000000000
310
0000000000000000000000000000000000000000000000000000000000000000
310
0000000000000000000000000000000000000000000000000000000000000000
310
0000000000000000000000000000000000000000000000000000000000000000
310
0000000000000000000000000000000000000000000000000000000000000000
310
0000000000000000000000000000000000000000000000000000000000000000
310
0000000000000000000000000000000000000000000000000000000000000000
310
0000000000000000000000000000000000000000000000000000000000000000
310
0000000000000000000000000000000000000000000000000000000000000000
310
0000000000000000000000000000000000000000000000000000000000000000
310
0000000000000000000000000000000000000000000000000000000000000000
310
20260000424D0E260000000000003E00000028000000B40200006E0000000100
310
01000000000000000000130B0000130B00000200000002000000000000FFFFFF
310
FFFFFFFFFFFFFFFFFFFFFFFFFFFFFFFFFFFFFFFFFFFFFFFFFFFFFFFFFFFFFFFF
310
FFFFFFFFFFFFFFFFFFFFFFFFFFFFFFFFFFFFFFFFFFFFFFFFFFFFFFFFFFFFFFFF
310
FFFFFFFFFFFFFFFFFFFFFFFFFFFFFFFFFFFFFFFFFFFFFFFFF000FFFFFFFFFFFF
310
FFFFFFFFFFFFFFFFFFFFFFFFFFFFFFFFFFFFFFFFFFFFFFFFFFFFFFFFFFFFFFFF
310
FFFFFFFFFFFFFFFFFFFFFFFFFFFFFFFFFFFFFFFFFFFFFFFFFFFFFFFFFFFFFFFF
310
FFFFFFFFFFFFFFFFFFFFFFFFFFFFFFFFF000FFFFFFFFFFFFFFFFFFFFFFFFFFFF
310
FFFFFFFFFFFFFFFFFFFFFFFFFFFFFFFFFFFFFFFFFFFFFFFFFFFFFFFFFFFFFFFF
310
FFFFFFFFFFFFFFFFFFFFFFFFFFFFFFFFFFFFFFFFFFFFFFFFFFFFFFFFFFFFFFFF
310
FFFFFFFFFFFFFFFFF000FFFFFFFFFFFFFFFFFFFFFFFFFFFFFFFFFFFFFFFFFFFF
310
FFFFFFFFFFFFFFFFFFFFFFFFFFFFFFFFFFFFFFFFFFFFFFFFFFFFFFFFFFFFFFFF
310
FFFFFFFFFFFFFFFFFFFFFFFFFFFFFFFFFFFFFFFFFFFFFFFFFFFFFFFFFFFFFFFF
310
F000FFFFFFFFFFFFFFFFFFFFFFFFFFFFFFFFFFFFFFFFFFFFFFFFFFFFFFFFFFFF
310
FFFFFFFFFFFFFFFFFFFFFFFFFFFFFFFFFFFFFFFFFFFFFFFFFFFFFFFFFFFFFFFF
310
FFFFFFFFFFFFFFFFFFFFFFFFFFFFFFFFFFFFFFFFFFFFFFFFF000FFFFFFFFFFFF
310
FFFFFFFFFFFFFFFFFFFFFFFFFFFFFFFFFFFFFFFFFFFFFFFFFFFFFFFFFFFFFFFF
310
FFFFFFFFFFFFFFFFFFFFFFFFFFFFFFFFFFFFFFFFFFFFFFFFFFFFFFFFFFFFFFFF
310
FFFFFFFFFFFFFFFFFFFFFFFFFFFFFFFFF000FFFFFFFFFFFFFFFFFFFFFFFFFFFF
310
FFFFFFFFFFFFFFFFFFFFFFFFFFFFFFFFFFFFFFFFFFFFFFFFFFFFFFFFFFFFFFFF
310
FFFFFFFFFFFFFFFFFFFFFFFFFFFFFFFFFFFFFFFFFFFFFFFFFFFFFFFFFFFFFFFF
310
FFFFFFFFFFFFFFFFF000FFFFFFFFFFFFFFFFFFFFFFFFFFFFFFFFFFFFFFFFFFFF
310
FFFFFFFFFFFFFFFFFFFFFFFFFFFFFFFFFFFFFFFFFFFFFFFFFFFFFFFFFFFFFFFF
310
FFFFFFFFFFFFFFFFFFFFFFFFFFFFFFFFFFFFFFFFFFFFFFFFFFFFFFFFFFFFFFFF
310
F000FFFFFFFFFFFFFFFFFFFFFFFFFFFFFFFFFFFFFFFFFFFFFFFFFFFFFFFFFFFF
310
FFFFFFFFFFFFFFFFFFFFFFFFFFFFFFFFFFFFFFFFFFFFFFFFFFFFFFFFFFFFFFFF
310
FFFFFFFFFFFFFFFFFFFFFFFFFFFFFFFFFFFFFFFFFFFFFFFFF000FFFFFFFFFFFF
310
FFFFFFFFFFFFFFFFFFFFFFFFFFFFFFFFFFFFFFFFFFFFFFFFFFFFFFFFFFFFFFFF
310
FFFFFFFFFFFFFFFFFFFFFFFFFFFFFFFFFFFFFFFFFFFFFFFFFFFFFFFFFFFFFFFF
310
FFFFFFFFFFFFFFFFFFFFFFFFFFFFFFFFF000FFFFFFFFFFFFFFFFFFFFFFFFFFFF
310
FFFFFFFFFFFFFFFFFFFFFFFFFFFFFFFFFFFFFFFFFFFFFFFFFFFFFFFFFFFFFFFF
310
FFFFFFFFFFFFFFFFFFFFFFFFFFFFFFFFFFFFFFFFFFFFFFFFFFFFFFFFFFFFFFFF
310
FFFFFFFFFFFFFFFFF000FFFFFFFFFFFFFFFFFFFFFFFFFFFFFFFFFFFFFFFFFFFF
310
FFFFFFFFFFFFFFFFFFFFFFFFFFFFFFFFFFFFFFFFFFFFFFFFFFFFFFFFFFFFFFFF
310
FFFFFFFFFFFFFFFFFFFFFFFFFFFFFFFFFFFFFFFFFFFFFFFFFFFFFFFFFFFFFFFF
310
F000FFFFFFFFFFFFFFFFFFFFFFFFFFFFFFFFFFFFFFFFFFFFFFFFFFFFFFFFFFFF
310
FFFFFFFFFFFFFFFFFFFFFFFFFFFFFFFFFFFFFFFFFFFFFFFFFFFFFFFFFFFFFFFF
310
FFFFFFFFFFFFFFFFFFFFFFFFFFFFFFFFFFFFFFFFFFFFFFFFF000FFFFFFFFFFFF
310
FFFFFFFFFFFFFFFFFFFFFFFFFFFFFFFFFFFFFFFFFFFFFFFFFFFFFFFFFFFFFFFF
310
FFFFFFFFFFFFFFFFFFFFFFFFFFFFFFFFFFFFFFFFFFFFFFFFFFFFFFFFFFFFFFFF
310
FFFFFFFFFFFFFFFFFFFFFFFFFFFFFFFFF000FFFFFFFFFFFFFFFFFFFFFFFFFFFF
310
FFFFFFFFFFFFFFFFFFFFFFFFFFFFFFFFFFFFFFFFFFFFFFFFFFFFFFFFFFFFFFFF
310
FFFFFFFFFFFFFFFFFFFFFFFFFFFFFFFFFFFFFFFFFFFFFFFFFFFFFFFFFFFFFFFF
310
FFFFFFFFFFFFFFFFF000FFFFFFFFFFFFFFFFFFFFFFFFFFFFFFFFFFFFFFFFFFFF
310
FFFFFFFFFFFFFFFFFFFFFFFFFFFFFFFFFFFFFFFFFFFFFFFFFFFFFFFFFFFFFFFF
310
FFFFFFFFFFFFFFFFFFFFFFFFFFFFFFFFFFFFFFFFFFFFFFFFFFFFFFFFFFFFFFFF
310
F000FFFFFFFFFFFFFFFFFFFFFFFFFFFFFFFFFFFFFFFFFFFFFFFFFFFFFFFFFFFF
310
FFFFFFFFFFFFFFFFFFFFFFFFFFFFFFFFFFFFFFFFFFFFFFFFFFFFFFFFFFFFFFFF
310
FFFFFFFFFFFFFFFFFFFFFFFFFFFFFFFFFFFFFFFFFFFFFFFFF000FFFFFFFFFFFF
310
FFFFFFFFFFFFFFFFFFFFFFFFFFFFFFFFFFFFFFFFFFFFFFFFFFFFFFFFFFFFFFFF
310
FFFFFFFFFFFFFFFFFFFFFFFFFFFFFFFFFFFFFFFFFFFFFFFFFFFFFFFFFFFFFFFF
310
FFFFFFFFFFFFFFFFFFFFFFFFFFFFFFFFF000FFFFFFFFFFFFFFFFFFFFFFFFFFFF
310
FFFFFFFFFFFFFFFFFFFFFFFFFFFFFFFFFFFFFFFFFFFFFFFFFFFFFFFFFFFFFFFF
310
FFFFFFFFFFFFFFFFFFFFFFFFFFFFFFFFFFFFFFFFFFFFFFFFFFFFFFFFFFFFFFFF
310
FFFFFFFFFFFFFFFFF000FFFFF80003FFFFFFFFFFFFFFFFFFFFFFFFFFFFFFFFFF
310
FFFFF00007FFFFFFFFFF00007FFFFFF800000000000000007FFFFFFFFFFFFFFF
310
FFFFFFFC001FFFFFFFFFFFFFFC001FFFFFFFFFFFFFFFFFFFFFFFFFFE0007FFFF
310
F000FFFF8000007FFFFFFFF8000FFFFFC0007FFFFF80007FFFFF0000007FFFFF
310
FFF8000007FFFFF800000000000000007FFFFFF0001FFFFFFFFFFFC00001FFFF
310
FFFFFFFFC00001FFFFFFFF000000000003FFFFE000007FFFF000FFFE0000000F
310
FFFFFFF0000FFFFF80007FFFFF80007FFFFC0000001FFFFFFFC0000001FFFFF8
310
00000000000000007FFFFFF0001FFFFFFFFFFE0000003FFFFFFFFFFE0000003F
310
FFFFFF000000000003FFFF0000000FFFF000FFF800000003FFFFFFF00007FFFF
310
80007FFFFF80007FFFF000000007FFFFFF000000003FFFF80000000000000000
310
7FFFFFF0001FFFFFFFFFF80000000FFFFFFFFFF80000000FFFFFFF0000000000
310
03FFFC00000003FFF000FFE000000000FFFFFFF00007FFFF80003FFFFF80007F
310
FFC000000001FFFFFC000000001FFFF800000000000000007FFFFFF0001FFFFF
310
FFFFE000000003FFFFFFFFE000000003FFFFFF000000000003FFF000000000FF
310
F000FF80000000007FFFFFF00007FFFF80003FFFFF80007FFF8000000000FFFF
310
F80000000007FFF800000000000000007FFFFFF0001FFFFFFFFFC000000001FF
310
FFFFFFC000000001FFFFFF000000000003FFC0000000007FF000FF0000000000
310
3FFFFFE00007FFFF00003FFFFF80007FFE00000000003FFFF00000000003FFF8
310
00000000000000007FFFFFF0001FFFFFFFFF8000000000FFFFFFFF8000000000
310
FFFFFF000000000003FF80000000003FF000FE00000000001FFFFFE00003FFFF
310
00003FFFFF80007FFC00000000001FFFE00000000001FFF8000001FFFE000000
310
7FFFFFF0001FFFFFFFFE00000000003FFFFFFE00000000003FFFFF0000000000
310
03FF00000000001FF000FC00000000000FFFFFE00003FFFF00001FFFFF80007F
310
F800000000001FFFC00000000000FFF8000001FFFE0000007FFFFFF0001FFFFF
310
FFFC00000000001FFFFFFC00000000001FFFFF000000000003FE00000000000F
310
F000F8000000000007FFFFE00003FFFF00001FFFFF80007FF800000000000FFF
310
800000000000FFF8000001FFFE0000007FFFFFF0001FFFFFFFF800000000000F
310
FFFFF800000000000FFFFF000000000003FC000000000007F000F80000000000
310
03FFFFC00003FFFE00001FFFFF80007FF0000000000007FF0000000000007FF8
310
000001FFFE0000007FFFFFF0001FFFFFFFF0000000000007FFFFF00000000000
310
07FFFF000000000003F8000000000003F000F0000000000003FFFFC00001FFFE
310
00001FFFFF80007FE0000000000007FE0000000000003FF8000001FFFE000000
310
7FFFFFF0001FFFFFFFF0000000000007FFFFF0000000000007FFFF0000000000
310
03F800001F800003F000E00001FFF00001FFFFC00001FFFE00000FFFFF80007F
310
E00001FFE00003FE00001FFF00003FF8000001FFFE0000007FFFFFF0001FFFFF
310
FFE000003E000003FFFFE000003E000003FFFF000000000003F00001FFF80001
310
F000E00007FFFC0001FFFFC00001FFFE00000FFFFF80007FC0000FFFFC0003FC
310
0000FFFFC0001FF8000001FFFE0000007FFFFFF0001FFFFFFFC00003FFE00001
310
FFFFC00003FFE00001FFFF0001FFFFFFFFF00007FFFE0001F000E0000FFFFF00
310
00FFFF800001FFFC00000FFFFF80007FC0001FFFFE0001FC0001FFFFE0001FF8
310
000001FFFE0000007FFFFFF0001FFFFFFF80000FFFF80000FFFF80000FFFF800
310
00FFFF0003FFFFFFFFE0000FFFFF8000F000C0003FFFFF8000FFFF800000FFFC
310
000007FFFF80007F80003FFFFF0001FC0003FFFFF0001FF8000001FFFE000000
310
7FFFFFF0001FFFFFFF80003FFFFE0000FFFF80003FFFFE0000FFFF0003FFFFFF
310
FFE0003FFFFF8000F000C0003FFFFF8000FFFF800000FFFC000007FFFF80007F
310
80007FFFFF8001F80007FFFFF8000FF8000001FFFE0000007FFFFFF0001FFFFF
310
FF00007FFFFF00007FFF00007FFFFF00007FFF0003FFFFFFFFE0003FFFFFC000
310
F000C0007FFFFFC000FFFF000000FFFC000007FFFF80007F8000FFFFFF8000F8
310
000FFFFFF8000FF8000001FFFE0000007FFFFFF0001FFFFFFF0000FFFFFF8000
310
7FFF0000FFFFFF80007FFF0003FFFFFFFFC0007FFFFFC00070008000FFFFFFC0
310
00FFFF000000FFF8000007FFFF80007F8000FFFFFF8000F8000FFFFFF8000FF8
310
000001FFFE0000007FFFFFF0001FFFFFFE0001FFFFFFC0003FFE0001FFFFFFC0
310
003FFF0003FFFFFFFFC0007FFFFFE00070008000FFFFFFC0007FFF0000007FF8
310
000003FFFF80007F0001FFFFFF8000F8000FFFFFF8000FF8000001FFFE000000
310
7FFFFFF0001FFFFFFE0001FFFFFFC0003FFE0001FFFFFFC0003FFF0003FFFFFF
310
FFC000FFFFFFE00070008000FFFFFFC0007FFF0000007FF8000003FFFF80007F
310
0001FFFFFF8000F8001FFFFFF8000FF8000001FFFE0000007FFFFFF0001FFFFF
310
FE0003FFFFFFE0003FFE0003FFFFFFE0003FFF0003FFFFFFFFC000FFFFFFE000
310
70008000FFFFFFC0007FFE0000007FF8000003FFFF80007F0001FFFFFF8000F0
310
001FFFFFF8000FF8000001FFFE0000007FFFFFF0001FFFFFFC0003FFFFFFE000
310
1FFC0003FFFFFFE0001FFF0003FFFFFFFFC000FFFFFFC00070008000FFFFFF80
310
007FFE0000007FF0000003FFFF80007F0001FFFFFF0000F0001FFFFFF8000FF8
310
000001FFFE0000007FFFFFF0001FFFFFFC0007FFFFFFF0001FFC0007FFFFFFF0
310
001FFF0003FFFFFFFFC000FFFFFFC00070008001FFFFFF0000FFFE0000003FF0
310
000001FFFF80007F0001FFFFFF0000F8001FFFFFF0000FF8000001FFFE000000
310
7FFFFFF0001FFFFFFC0007FFFFFFF0001FFC0007FFFFFFF0001FFF0003FFFFFF
310
FFC001FFFFFF80007000FFFFFFFFFE0000FFFE0008003FF0008001FFFF80007F
310
FFFFFFFFFC0000FFFFFFFFFFE0000FF8000001FFFE0000007FFFFFF0001FFFFF
310
F8000FFFFFFFF8000FF8000FFFFFFFF8000FFF0003FFFFFFFFFFFFFFFFFF0000
310
7000FFFFFFFFFC0000FFFC0008003FF0008001FFFF80007FFFFFFFFFF80001FF
310
FFFFFFFF80000FF8000001FFFE0000007FFFFFF0001FFFFFF8000FFFFFFFF800
310
0FF8000FFFFFFFF8000FFF0003FFFFFFFFFFFFFFFFFE0000F000FFFFFFFFE000
310
00FFFC000C003FE000C001FFFF80007FFFFFFFFFC00001FFFFFFFFFE00001FF8
310
000001FFFE0000007FFFFFF0001FFFFFF8000FFFFFFFF8000FF8000FFFFFFFF8
310
000FFF0003FFFFFFFFFFFFFFFFF00000F000FFFFFFFE000001FFFC000C001FE0
310
00C000FFFF80007FFFFFFFFE000001FFFFFFFFE000001FF80FFFFFFFFFFFFFC0
310
7FFFFFF0001FFFFFF8000FFFFFFFF8000FF8000FFFFFFFF8000FFF0003FFFFFF
310
FFFFFFFFFF800000F000FFFFFFC0000001FFFC001C001FE001C000FFFF80007F
310
FFFFFF80000003FFFFFFF80000001FF80FFFFFFFFFFFFFC07FFFFFF0001FFFFF
310
F8001FFFFFFFFC000FF8001FFFFFFFFC000FFF0003FFFFFFFFFFFFFFF0000001
310
F000FFFFF800000001FFF8001C001FE001C000FFFF80007FFFFFF800000003FF
310
FFFF800000003FF80FFFFFFFFFFFFFC07FFFFFF0001FFFFFF8001FFFFFFFFC00
310
0FF8001FFFFFFFFC000FFF0003FFFFFFFFFFFFFE00000001F000FFFFC0000000
310
03FFF8001E001FC001E000FFFF80007FFFFF8000000007FFFFFC000000003FF8
310
0FFFFFFFFFFFFFC07FFFFFF0001FFFFFF8001FFFFFFFFC000FF8001FFFFFFFFC
310
000FFF0003FFFFFFFFFFFFE000000003F000FFFE0000000007FFF8001E000FC0
310
01E0007FFF80007FFFFE0000000007FFFFE0000000007FF80FFFFFFFFFFFFFC0
310
7FFFFFF0001FFFFFF0001FFFFFFFFC0007F0001FFFFFFFFC0007FF0003FFFFFF
310
FFFFFF0000000003F000FFF80000000007FFF8001E000FC003E0007FFF80007F
310
FFF0000000000FFFFF8000000000FFF80FFFFFFFFFFFFFC07FFFFFF0001FFFFF
310
F0001FFFFFFFFC0007F0001FFFFFFFFC0007FF0003FFFFFFFFFFFC0000000007
310
F000FFE0000000000FFFF0003E000FC003E0007FFF80007FFFC0000000001FFF
310
FE0000000001FFF80FFFFFFFFFFFFFC07FFFFFF0001FFFFFF0001FFFFFFFFC00
310
07F0001FFFFFFFFC0007FF0003FFFFFFFFFFF0000000000FF000FFC000000000
310
1FFFF0003F000F8003F0003FFF80007FFF80000000003FFFF80000000003FFF8
310
0FFFFFFFFFFFFFC07FFFFFF0001FFFFFF0001FFFFFFFFC0007F0001FFFFFFFFC
310
0007FF0003FFFFFFFFFFE0000000001FF000FF00000000007FFFF0003F000780
310
03F0003FFF80007FFF00000000007FFFF00000000007FFF80FFFFFFFFFFFFFC0
310
7FFFFFF0001FFFFFF0001FFFFFFFFC0007F0001FFFFFFFFC0007FF0003FFFFFF
310
FFFF80000000007FF000FE0000000000FFFFE0003F00078007F0003FFF80007F
310
FE0000000001FFFFE0000000001FFFF80FFFFFFFFFFFFFC07FFFFFF0001FFFFF
310
F0001FFFFFFFFC0007F0001FFFFFFFFC0007FF0003FFFFFFFFFF0000000000FF
310
F000FC0000000003FFFFE0007F00078007F0003FFF80007FFC0000000007FFFF
310
C0000000007FFFF80FFFFFFFFFFFFFC07FFFFFF0001FFFFFF8001FFFFFFFFC00
310
0FF8001FFFFFFFFC000FFF0003FFFFFFFFFE0000000003FFF000FC000000000F
310
FFFFE0007F80070007F8001FFF80007FF8000000001FFFFF8000000001FFFFF8
310
0FFFFFFFFFFFFFC07FFFFFF0001FFFFFF8001FFFFFFFFC000FF8001FFFFFFFFC
310
000FFF0003FFFFFFFFFC000000000FFFF000F8000000007FFFFFE0007F800700
310
07F8001FFF80007FF000000000FFFFFF800000000FFFFFF80FFFFFFFFFFFFFC0
310
7FFFFFF0001FFFFFF8000FFFFFFFF8000FF8000FFFFFFFF8000FFF0003FFFFFF
310
FFFC000000007FFFF000F800000007FFFFFFC0007F8003000FF8001FFF80007F
310
F000000007FFFFFF000000007FFFFFF80FFFFFFFFFFFFFC07FFFFFF0001FFFFF
310
F8000FFFFFFFF8000FF8000FFFFFFFF8000FFF0003FFFFFFFFF80000000FFFFF
310
F000F0000000FFFFFFFFC000FF8003000FF8001FFF80007FE0000000FFFFFFFF
310
0000000FFFFFFFF8000001FFFE0000007FFFFFF0001FFFFFF8000FFFFFFFF800
310
0FF8000FFFFFFFF8000FFF0003FFFFFFFFF8000000FFFFFFF000F000000FFFFF
310
FFFFC000FFC002000FF8000FFF80007FE000001FFFFFFFFE000001FFFFFFFFF8
310
000001FFFE0000007FFFFFF0001FFFFFF8000FFFFFFFF8000FF8000FFFFFFFF8
310
000FFF0003FFFFFFFFF000001FFFFFFFF000E00000FFFFFFFFFFC000FFC00200
310
0FFC000FFF80007FE00001FFFFFFFFFE00001FFFFFFFFFF8000001FFFE000000
310
7FFFFFF0001FFFFFFC000FFFFFFFF8001FFC000FFFFFFFF8001FFF0003FFFFFF
310
FFF00001FFFFFFFFF000E00007FFFFFFFFFF8000FFC000001FFC000FFF80007F
310
C0000FFFFFFFFFFE0000FFFFFFFFFFF8000001FFFE0000007FFFFFF0001FFFFF
310
FC0007FFFFFFF0001FFC0007FFFFFFF0001FFF0003FFFFFFFFF00007FFFFFFFF
310
F000E0001FFFFFFFFFFF8000FFC000001FFC000FFF80007FC0003FFFFFFFFFFE
310
0001FFFFFFFFFFF8000001FFFE0000007FFFFFF0001FFFFFFC0007FFFFFFF000
310
1FFC0007FFFFFFF0001FFF0003FFFFFFFFF0001FFFFFFFFFF000E0003FFFFF00
310
03FF8001FFE000001FFC0007FF80007FC0007FFFFF0007FC0003FFFFF0003FF8
310
000001FFFE0000007FFFFFF0001FFFFFFC0003FFFFFFE0001FFC0003FFFFFFE0
310
001FFF0003FFFFFFFFF0003FFFFFFFFFF000E0003FFFFF0001FF8001FFE00000
310
1FFE0007FF80007FC0007FFFFE0003FC0007FFFFE0003FF8000001FFFE000000
310
7FFFFFF0001FFFFFFE0003FFFFFFE0003FFE0003FFFFFFE0003FFF0003FFFFFF
310
FFF0003FFFFF8001F000E0003FFFFF0001FF0001FFE000001FFE0007FF80007F
310
C0007FFFFE0003FC0007FFFFE0003FF8000001FFFE0000007FFFFFF0001FFFFF
310
FE0001FFFFFFC0003FFE0001FFFFFFC0003FFF0003FFFFFFFFF0003FFFFF0001
310
F000E0003FFFFF0003FF0001FFE000003FFE0007FF80007FC0007FFFFE0003FC
310
0007FFFFE0003FF8000001FFFE0000007FFFFFF0001FFFFFFF0001FFFFFFC000
310
7FFF0001FFFFFFC0007FFF0003FFFFFFFFF0003FFFFF0001F000E0003FFFFE00
310
03FF0003FFF000003FFE0003FF80007FC0007FFFFC0003FE0007FFFFE0003FF8
310
000001FFFE0000007FFFFFF0001FFFFFFF0000FFFFFF80007FFF0000FFFFFF80
310
007FFF0003FFFFFFFFF0003FFFFF0001F000E0003FFFFE0003FF0003FFF00000
310
3FFF0003FF80007FC0007FFFFC0007FE0007FFFFC0003FF8000001FFFE000000
310
7FFFFFF0001FFFFFFF80007FFFFF0000FFFF80007FFFFF0000FFFF0003FFFFFF
310
FFF0003FFFFF0003F000E0003FFFFC0003FE0003FFF000003FFF0003FF80007F
310
E0003FFFF80007FE0003FFFFC0007FF8000001FFFE0000007FFFFFF0001FFFFF
310
FF80003FFFFE0000FFFF80003FFFFE0000FFFF0003FFFFFFFFF0001FFFFE0003
310
F000F0001FFFF80003FE0003FFF000007FFF0001FF80007FE0003FFFF00007FE
310
0001FFFF80007FF8000001FFFE0000007FFFFFF0001FFFFFFFC0000FFFF80001
310
FFFFC0000FFFF80001FFFF0003FFFFFFFFF0001FFFFC0003F000F0000FFFF000
310
07FE0007FFF800007FFF0001FF80007FE0001FFFE00007FF0000FFFE00007FF8
310
000001FFFE0000007FFFFFF0001FFFFFFFC00003FFE00001FFFFC00003FFE000
310
01FFFF0003FFFFFFFFF8000FFFF80003F000F00003FFC00007FC0007FFF80000
310
7FFF8001FF80007FF00007FF80000FFF00007FF80000FFF8000001FFFE000000
310
7F80000000000001FFE000003E000003FFFFE000003E000003FFFF0003FFFFFF
310
FFF80003FFE00007F000F800000000000FFC0007FFF800007FFF8001FF80007F
310
F000000000000FFF000000000000FFF8000001FFFE0000007F80000000000001
310
FFF0000000000007FFFFF0000000000007FFFF0003FFFFFFFFFC00007E000007
310
F000F800000000000FFC0007FFF80000FFFF8000FF80007FF800000000001FFF
310
800000000001FFF8000001FFFE0000007F80000000000001FFF800000000000F
310
FFFFF800000000000FFFFF0003FFFFFFFFFC00000000000FF000FC0000000000
310
1FFC0007FFFC0000FFFF8000FF80007FF800000000003FFFC00000000001FFF8
310
000001FFFE0000007F80000000000001FFF800000000000FFFFFF80000000000
310
0FFFFF0003FFFFFFFFFE00000000001FF000FE00000000003FF8000FFFFC0000
310
FFFF8000FF80007FFC00000000003FFFC00000000003FFF8000001FFFE000000
310
7F80000000000001FFFC00000000001FFFFFFC00000000001FFFFF0003FFFFFF
310
FFFF00000000001FF000FF00000000003FF8000FFFFC0000FFFFC000FF80007F
310
FE00000000007FFFE00000000007FFF8000001FFFE0000007F80000000000001
310
FFFE00000000003FFFFFFE00000000003FFFFF0003FFFFFFFFFF80000000003F
310
F000FF80000000007FF8000FFFFC0001FFFFC0007F80007FFF0000000000FFFF
310
F0000000000FFFF800000000000000007F80000000000001FFFF8000000000FF
310
FFFFFF8000000000FFFFFF0003FFFFFFFFFFC0000000007FF000FFC000000000
310
FFF8000FFFFE0001FFFFC0007F80007FFF8000000001FFFFF8000000001FFFF8
310
00000000000000007F80000000000001FFFFC000000001FFFFFFFFC000000001
310
FFFFFF0003FFFFFFFFFFE000000000FFF000FFE000000003FFF0001FFFFE0001
310
FFFFC0007F80007FFFC000000007FFFFFE000000003FFFF80000000000000000
310
7F80000000000001FFFFE000000003FFFFFFFFE000000003FFFFFF0003FFFFFF
310
FFFFF000000003FFF000FFF80000000FFFF0001FFFFE0001FFFFE0007F80007F
310
FFF00000000FFFFFFF00000000FFFFF800000000000000007F80000000000001
310
FFFFF80000000FFFFFFFFFF80000000FFFFFFF0003FFFFFFFFFFFC0000000FFF
310
F000FFFE0000003FFFF0001FFFFE0003FFFFE0003F80007FFFFC0000003FFFFF
310
FFC0000003FFFFF800000000000000007F80000000000001FFFFFE0000003FFF
310
FFFFFFFE0000003FFFFFFF0003FFFFFFFFFFFF0000003FFFF000FFFF800000FF
310
FFF0001FFFFF0003FFFFE0003F80007FFFFF000001FFFFFFFFF800001FFFFFF8
310
00000000000000007F80000000000001FFFFFFC00001FFFFFFFFFFFFC00001FF
310
FFFFFF0003FFFFFFFFFFFFC00000FFFFF000FFFFF8000FFFFFFFFFFFFFFFFFFF
310
FFFFFFFFFFFFFFFFFFFFF0001FFFFFFFFFFF0000FFFFFFF80000000000000000
310
7FFFFFFFFFFFFFFFFFFFFFFC001FFFFFFFFFFFFFFC001FFFFFFFFFFFFFFFFFFF
310
FFFFFFFC001FFFFFF000FFFFFFFFFFFFFFFFFFFFFFFFFFFFFFFFFFFFFFFFFFFF
310
FFFFFFFFFFFFFFFFFFFFFFFFFFFFFFFFFFFFFFFFFFFFFFFFFFFFFFFFFFFFFFFF
310
FFFFFFFFFFFFFFFFFFFFFFFFFFFFFFFFFFFFFFFFFFFFFFFFFFFFFFFFFFFFFFFF
310
F000FFFFFFFFFFFFFFFFFFFFFFFFFFFFFFFFFFFFFFFFFFFFFFFFFFFFFFFFFFFF
310
FFFFFFFFFFFFFFFFFFFFFFFFFFFFFFFFFFFFFFFFFFFFFFFFFFFFFFFFFFFFFFFF
310
FFFFFFFFFFFFFFFFFFFFFFFFFFFFFFFFFFFFFFFFFFFFFFFFF000FFFFFFFFFFFF
310
FFFFFFFFFFFFFFFFFFFFFFFFFFFFFFFFFFFFFFFFFFFFFFFFFFFFFFFFFFFFFFFF
310
FFFFFFFFFFFFFFFFFFFFFFFFFFFFFFFFFFFFFFFFFFFFFFFFFFFFFFFFFFFFFFFF
310
FFFFFFFFFFFFFFFFFFFFFFFFFFFFFFFFF000FFFFFFFFFFFFFFFFFFFFFFFFFFFF
310
FFFFFFFFFFFFFFFFFFFFFFFFFFFFFFFFFFFFFFFFFFFFFFFFFFFFFFFFFFFFFFFF
310
FFFFFFFFFFFFFFFFFFFFFFFFFFFFFFFFFFFFFFFFFFFFFFFFFFFFFFFFFFFFFFFF
310
FFFFFFFFFFFFFFFFF000FFFFFFFFFFFFFFFFFFFFFFFFFFFFFFFFFFFFFFFFFFFF
310
FFFFFFFFFFFFFFFFFFFFFFFFFFFFFFFFFFFFFFFFFFFFFFFFFFFFFFFFFFFFFFFF
310
FFFFFFFFFFFFFFFFFFFFFFFFFFFFFFFFFFFFFFFFFFFFFFFFFFFFFFFFFFFFFFFF
310
F000FFFFFFFFFFFFFFFFFFFFFFFFFFFFFFFFFFFFFFFFFFFFFFFFFFFFFFFFFFFF
310
FFFFFFFFFFFFFFFFFFFFFFFFFFFFFFFFFFFFFFFFFFFFFFFFFFFFFFFFFFFFFFFF
310
FFFFFFFFFFFFFFFFFFFFFFFFFFFFFFFFFFFFFFFFFFFFFFFFF000FFFFFFFFFFFF
310
FFFFFFFFFFFFFFFFFFFFFFFFFFFFFFFFFFFFFFFFFFFFFFFFFFFFFFFFFFFFFFFF
310
FFFFFFFFFFFFFFFFFFFFFFFFFFFFFFFFFFFFFFFFFFFFFFFFFFFFFFFFFFFFFFFF
310
FFFFFFFFFFFFFFFFFFFFFFFFFFFFFFFFF000FFFFFFFFFFFFFFFFFFFFFFFFFFFF
310
FFFFFFFFFFFFFFFFFFFFFFFFFFFFFFFFFFFFFFFFFFFFFFFFFFFFFFFFFFFFFFFF
310
FFFFFFFFFFFFFFFFFFFFFFFFFFFFFFFFFFFFFFFFFFFFFFFFFFFFFFFFFFFFFFFF
310
FFFFFFFFFFFFFFFFF000FFFFFFFFFFFFFFFFFFFFFFFFFFFFFFFFFFFFFFFFFFFF
310
FFFFFFFFFFFFFFFFFFFFFFFFFFFFFFFFFFFFFFFFFFFFFFFFFFFFFFFFFFFFFFFF
310
FFFFFFFFFFFFFFFFFFFFFFFFFFFFFFFFFFFFFFFFFFFFFFFFFFFFFFFFFFFFFFFF
310
F000FFFFFFFFFFFFFFFFFFFFFFFFFFFFFFFFFFFFFFFFFFFFFFFFFFFFFFFFFFFF
310
FFFFFFFFFFFFFFFFFFFFFFFFFFFFFFFFFFFFFFFFFFFFFFFFFFFFFFFFFFFFFFFF
310
FFFFFFFFFFFFFFFFFFFFFFFFFFFFFFFFFFFFFFFFFFFFFFFFF000FFFFFFFFFFFF
310
FFFFFFFFFFFFFFFFFFFFFFFFFFFFFFFFFFFFFFFFFFFFFFFFFFFFFFFFFFFFFFFF
310
FFFFFFFFFFFFFFFFFFFFFFFFFFFFFFFFFFFFFFFFFFFFFFFFFFFFFFFFFFFFFFFF
310
FFFFFFFFFFFFFFFFFFFFFFFFFFFFFFFFF000FFFFFFFFFFFFFFFFFFFFFFFFFFFF
310
FFFFFFFFFFFFFFFFFFFFFFFFFFFFFFFFFFFFFFFFFFFFFFFFFFFFFFFFFFFFFFFF
310
FFFFFFFFFFFFFFFFFFFFFFFFFFFFFFFFFFFFFFFFFFFFFFFFFFFFFFFFFFFFFFFF
310
FFFFFFFFFFFFFFFFF000FFFFFFFFFFFFFFFFFFFFFFFFFFFFFFFFFFFFFFFFFFFF
310
FFFFFFFFFFFFFFFFFFFFFFFFFFFFFFFFFFFFFFFFFFFFFFFFFFFFFFFFFFFFFFFF
310
FFFFFFFFFFFFFFFFFFFFFFFFFFFFFFFFFFFFFFFFFFFFFFFFFFFFFFFFFFFFFFFF
310
F000FFFFFFFFFFFFFFFFFFFFFFFFFFFFFFFFFFFFFFFFFFFFFFFFFFFFFFFFFFFF
310
FFFFFFFFFFFFFFFFFFFFFFFFFFFFFFFFFFFFFFFFFFFFFFFFFFFFFFFFFFFFFFFF
310
FFFFFFFFFFFFFFFFFFFFFFFFFFFFFFFFFFFFFFFFFFFFFFFFF000FFFFFFFFFFFF
310
FFFFFFFFFFFFFFFFFFFFFFFFFFFFFFFFFFFFFFFFFFFFFFFFFFFFFFFFFFFFFFFF
310
FFFFFFFFFFFFFFFFFFFFFFFFFFFFFFFFFFFFFFFFFFFFFFFFFFFFFFFFFFFFFFFF
310
FFFFFFFFFFFFFFFFFFFFFFFFFFFFFFFFF000FFFFFFFFFFFFFFFFFFFFFFFFFFFF
310
FFFFFFFFFFFFFFFFFFFFFFFFFFFFFFFFFFFFFFFFFFFFFFFFFFFFFFFFFFFFFFFF
310
FFFFFFFFFFFFFFFFFFFFFFFFFFFFFFFFFFFFFFFFFFFFFFFFFFFFFFFFFFFFFFFF
310
FFFFFFFFFFFFFFFFF000FFFFFFFFFFFFFFFFFFFFFFFFFFFFFFFFFFFFFFFFFFFF
310
FFFFFFFFFFFFFFFFFFFFFFFFFFFFFFFFFFFFFFFFFFFFFFFFFFFFFFFFFFFFFFFF
310
FFFFFFFFFFFFFFFFFFFFFFFFFFFFFFFFFFFFFFFFFFFFFFFFFFFFFFFFFFFFFFFF
310
F000FFFFFFFFFFFFFFFFFFFFFFFFFFFFFFFFFFFFFFFFFFFFFFFFFFFFFFFFFFFF
310
FFFFFFFFFFFFFFFFFFFFFFFFFFFFFFFFFFFFFFFFFFFFFFFFFFFFFFFFFFFFFFFF
310
FFFFFFFFFFFFFFFFFFFFFFFFFFFFFFFFFFFFFFFFFFFFFFFFF000FFFFFFFFFFFF
310
FFFFFFFFFFFFFFFFFFFFFFFFFFFFFFFFFFFFFFFFFFFFFFFFFFFFFFFFFFFFFFFF
310
FFFFFFFFFFFFFFFFFFFFFFFFFFFFFFFFFFFFFFFFFFFFFFFFFFFFFFFFFFFFFFFF
310
FFFFFFFFFFFFFFFFFFFFFFFFFFFFFFFFF000FFFFFFFFFFFFFFFFFFFFFFFFFFFF
310
FFFFFFFFFFFFFFFFFFFFFFFFFFFFFFFFFFFFFFFFFFFFFFFFFFFFFFFFFFFFFFFF
310
FFFFFFFFFFFFFFFFFFFFFFFFFFFFFFFFFFFFFFFFFFFFFFFFFFFFFFFFFFFFFFFF
310
FFFFFFFFFFFFFFFFF000FFFFFFFFFFFFFFFFFFFFFFFFFFFFFFFFFFFFFFFFFFFF
310
FFFFFFFFFFFFFFFFFFFFFFFFFFFFFFFFFFFFFFFFFFFFFFFFFFFFFFFFFFFFFFFF
310
FFFFFFFFFFFFFFFFFFFFFFFFFFFFFFFFFFFFFFFFFFFFFFFFFFFFFFFFFFFFFFFF
310
F000FFFFFFFFFFFFFFFFFFFFFFFFFFFFFFFFFFFFFFFFFFFFFFFFFFFFFFFFFFFF
310
FFFFFFFFFFFFFFFFFFFFFFFFFFFFFFFFFFFFFFFFFFFFFFFFFFFFFFFFFFFFFFFF
310
FFFFFFFFFFFFFFFFFFFFFFFFFFFFFFFFFFFFFFFFFFFFFFFFF000FFFFFFFFFFFF
310
FFFFFFFFFFFFFFFFFFFFFFFFFFFFFFFFFFFFFFFFFFFFFFFFFFFFFFFFFFFFFFFF
310
FFFFFFFFFFFFFFFFFFFFFFFFFFFFFFFFFFFFFFFFFFFFFFFFFFFFFFFFFFFFFFFF
310
FFFFFFFFFFFFFFFFFFFFFFFFFFFFFFFFF0000000000000000000000000000000
310
0000000000000000000000000000000000000000000000000000000000000000
310
0000000000000000000000000000000000000000000000000000000000000000
310
0000000000000000000000000000000000000000000000000000000000000000
310
0000000000000000000000000000000000000000000000000000000000000000
310
0000000000000000000000000000000000000000000000000000000000000000
310
0000000000000000000000000000000000000000000000000000000000000000
310
0000000000000000000000000000000000000000000000000000000000000000
310
0000000000000000000000000000000000000000000000000000000000000000
310
0000000000000000000000000000000000000000000000000000000000000000
310
0000000000000000000000000000000000000000000000000000000000000000
310
0000000000000000000000000000000000000000000000000000000000000000
310
0000000000000000000000000000000000000000000000000000000000000000
310
0000000000000000000000000000000000000000000000000000000000000000
310
0000000000000000000000000000000000000000000000000000000000000000
310
0000000000000000000000000000000000000000000000000000000000000000
  1
OLE
  0
ENDSEC
  0
SECTION
  2
OBJECTS
  0
DICTIONARY
  5
C
330
0
100
AcDbDictionary
281
     1
  3
ACAD_GROUP
350
D
  3
ACAD_LAYOUT
350
1A
  3
ACAD_MLINESTYLE
350
17
  3
ACAD_PLOTSETTINGS
350
19
  3
ACAD_PLOTSTYLENAME
350
E
  0
DICTIONARY
  5
D
102
{ACAD_REACTORS
330
C
102
}
330
C
100
AcDbDictionary
281
     1
  0
DICTIONARY
  5
1A
102
{ACAD_REACTORS
330
C
102
}
330
C
100
AcDbDictionary
281
     1
  3
Layout1
350
1E
  3
Layout2
350
26
  3
Model
350
22
  0
DICTIONARY
  5
17
102
{ACAD_REACTORS
330
C
102
}
330
C
100
AcDbDictionary
281
     1
  3
Standard
350
18
  0
DICTIONARY
  5
19
102
{ACAD_REACTORS
330
C
102
}
330
C
100
AcDbDictionary
281
     1
  0
ACDBDICTIONARYWDFLT
  5
E
102
{ACAD_REACTORS
330
C
102
}
330
C
100
AcDbDictionary
281
     1
  3
Normal
350
F
100
AcDbDictionaryWithDefault
340
F
  0
LAYOUT
  5
1E
102
{ACAD_REACTORS
330
1A
102
}
330
1A
100
AcDbPlotSettings
  1

  2
none_device
  4

  6

 40
0.0
 41
0.0
 42
0.0
 43
0.0
 44
0.0
 45
0.0
 46
0.0
 47
0.0
 48
0.0
 49
0.0
140
0.0
141
0.0
142
1.0
143
1.0
 70
   688
 72
     0
 73
     0
 74
     5
  7

 75
    16
147
1.0
148
0.0
149
0.0
100
AcDbLayout
  1
Layout1
 70
     1
 71
     1
 10
0.0
 20
0.0
 11
420.0
 21
297.0
 12
0.0
 22
0.0
 32
0.0
 14
1.0000000000E+20
 24
1.0000000000E+20
 34
1.0000000000E+20
 15
-1.0000000000E+20
 25
-1.0000000000E+20
 35
-1.0000000000E+20
146
0.0
 13
0.0
 23
0.0
 33
0.0
 16
1.0
 26
0.0
 36
0.0
 17
0.0
 27
1.0
 37
0.0
 76
     0
330
1B
  0
LAYOUT
  5
26
102
{ACAD_REACTORS
330
1A
102
}
330
1A
100
AcDbPlotSettings
  1

  2
none_device
  4

  6

 40
0.0
 41
0.0
 42
0.0
 43
0.0
 44
0.0
 45
0.0
 46
0.0
 47
0.0
 48
0.0
 49
0.0
140
0.0
141
0.0
142
1.0
143
1.0
 70
   688
 72
     0
 73
     0
 74
     5
  7

 75
    16
147
1.0
148
0.0
149
0.0
100
AcDbLayout
  1
Layout2
 70
     1
 71
     2
 10
0.0
 20
0.0
 11
0.0
 21
0.0
 12
0.0
 22
0.0
 32
0.0
 14
0.0
 24
0.0
 34
0.0
 15
0.0
 25
0.0
 35
0.0
146
0.0
 13
0.0
 23
0.0
 33
0.0
 16
1.0
 26
0.0
 36
0.0
 17
0.0
 27
1.0
 37
0.0
 76
     0
330
23
  0
LAYOUT
  5
22
102
{ACAD_REACTORS
330
1A
102
}
330
1A
100
AcDbPlotSettings
  1

  2
none_device
  4

  6

 40
0.0
 41
0.0
 42
0.0
 43
0.0
 44
0.0
 45
0.0
 46
0.0
 47
0.0
 48
0.0
 49
0.0
140
0.0
141
0.0
142
1.0
143
1.0
 70
  1712
 72
     0
 73
     0
 74
     0
  7

 75
     0
147
1.0
148
0.0
149
0.0
100
AcDbLayout
  1
Model
 70
     1
 71
     0
 10
0.0
 20
0.0
 11
297.0
 21
210.0
 12
0.0
 22
0.0
 32
0.0
 14
0.0
 24
0.0
 34
0.0
 15
297.0
 25
210.0
 35
0.0
146
0.0
 13
0.0
 23
0.0
 33
0.0
 16
1.0
 26
0.0
 36
0.0
 17
0.0
 27
1.0
 37
0.0
 76
     0
330
1F
331
29
  0
MLINESTYLE
  5
18
102
{ACAD_REACTORS
330
17
102
}
330
17
100
AcDbMlineStyle
  2
Standard
 70
     0
  3

 62
   256
 51
90.0
 52
90.0
 71
     2
 49
0.5
 62
   256
  6
BYLAYER
 49
-0.5
 62
   256
  6
BYLAYER
  0
ACDBPLACEHOLDER
  5
F
102
{ACAD_REACTORS
330
E
102
}
330
E
  0
ENDSEC
  0
EOF
