  0
SECTION
  2
HEADER
  9
$ACADVER
  1
AC1015
  9
$ACADMAINTVER
 70
     6
  9
$DWGCODEPAGE
  3
ANSI_1252
  9
$INSBASE
 10
0.0
 20
0.0
 30
0.0
  9
$EXTMIN
 10
0.0
 20
0.0
 30
0.0
  9
$EXTMAX
 10
297.0
 20
210.0
 30
0.0
  9
$LIMMIN
 10
0.0
 20
0.0
  9
$LIMMAX
 10
297.0
 20
210.0
  9
$ORTHOMODE
 70
     0
  9
$REGENMODE
 70
     1
  9
$FILLMODE
 70
     1
  9
$QTEXTMODE
 70
     0
  9
$MIRRTEXT
 70
     1
  9
$LTSCALE
 40
1.0
  9
$ATTMODE
 70
     1
  9
$TEXTSIZE
 40
2.0
  9
$TRACEWID
 40
1.0
  9
$TEXTSTYLE
  7
Standard
  9
$CLAYER
  8
0
  9
$CELTYPE
  6
ByLayer
  9
$CECOLOR
 62
   256
  9
$CELTSCALE
 40
1.0
  9
$DISPSILH
 70
     0
  9
$DIMSCALE
 40
1.0
  9
$DIMASZ
 40
3.0
  9
$DIMEXO
 40
0.0
  9
$DIMDLI
 40
3.75
  9
$DIMRND
 40
0.0
  9
$DIMDLE
 40
0.0
  9
$DIMEXE
 40
1.0
  9
$DIMTP
 40
0.0
  9
$DIMTM
 40
0.0
  9
$DIMTXT
 40
2.0
  9
$DIMCEN
 40
2.5
  9
$DIMTSZ
 40
0.0
  9
$DIMTOL
 70
     0
  9
$DIMLIM
 70
     0
  9
$DIMTIH
 70
     1
  9
$DIMTOH
 70
     1
  9
$DIMSE1
 70
     0
  9
$DIMSE2
 70
     0
  9
$DIMTAD
 70
     1
  9
$DIMZIN
 70
     0
  9
$DIMBLK
  1

  9
$DIMASO
 70
     1
  9
$DIMSHO
 70
     1
  9
$DIMPOST
  1

  9
$DIMAPOST
  1

  9
$DIMALT
 70
     0
  9
$DIMALTD
 70
     3
  9
$DIMALTF
 40
0.0393700787
  9
$DIMLFAC
 40
0.5
  9
$DIMTOFL
 70
     1
  9
$DIMTVP
 40
0.0
  9
$DIMTIX
 70
     0
  9
$DIMSOXD
 70
     0
  9
$DIMSAH
 70
     0
  9
$DIMBLK1
  1

  9
$DIMBLK2
  1

  9
$DIMSTYLE
  2
ISO-25
  9
$DIMCLRD
 70
     0
  9
$DIMCLRE
 70
     0
  9
$DIMCLRT
 70
     0
  9
$DIMTFAC
 40
1.0
  9
$DIMGAP
 40
1.524
  9
$DIMJUST
 70
     0
  9
$DIMSD1
 70
     0
  9
$DIMSD2
 70
     0
  9
$DIMTOLJ
 70
     0
  9
$DIMTZIN
 70
     0
  9
$DIMALTZ
 70
     0
  9
$DIMALTTZ
 70
     0
  9
$DIMUPT
 70
     0
  9
$DIMDEC
 70
     2
  9
$DIMTDEC
 70
     3
  9
$DIMALTU
 70
     2
  9
$DIMALTTD
 70
     3
  9
$DIMTXSTY
  7
Standard
  9
$DIMAUNIT
 70
     0
  9
$DIMADEC
 70
     2
  9
$DIMALTRND
 40
0.0
  9
$DIMAZIN
 70
     0
  9
$DIMDSEP
 70
    44
  9
$DIMATFIT
 70
     3
  9
$DIMFRAC
 70
     0
  9
$DIMLDRBLK
  1

  9
$DIMLUNIT
 70
     2
  9
$DIMLWD
 70
    -2
  9
$DIMLWE
 70
    -2
  9
$DIMTMOVE
 70
     0
  9
$LUNITS
 70
     2
  9
$LUPREC
 70
     2
  9
$SKETCHINC
 40
1.0
  9
$FILLETRAD
 40
10.0
  9
$AUNITS
 70
     0
  9
$AUPREC
 70
     2
  9
$MENU
  1
.
  9
$ELEVATION
 40
0.0
  9
$PELEVATION
 40
0.0
  9
$THICKNESS
 40
0.0
  9
$LIMCHECK
 70
     0
  9
$CHAMFERA
 40
0.0
  9
$CHAMFERB
 40
0.0
  9
$CHAMFERC
 40
0.0
  9
$CHAMFERD
 40
0.0
  9
$SKPOLY
 70
     0
  9
$TDCREATE
 40
2458177.620051099
  9
$TDUCREATE
 40
2458177.578384433
  9
$TDUPDATE
 40
2458177.620053183
  9
$TDUUPDATE
 40
2458177.578386516
  9
$TDINDWG
 40
0.0000000116
  9
$TDUSRTIMER
 40
0.0000000116
  9
$USRTIMER
 70
     1
  9
$ANGBASE
 50
0.0
  9
$ANGDIR
 70
     0
  9
$PDMODE
 70
     0
  9
$PDSIZE
 40
-1.0
  9
$PLINEWID
 40
0.0
  9
$SPLFRAME
 70
     0
  9
$SPLINETYPE
 70
     6
  9
$SPLINESEGS
 70
     8
  9
$HANDSEED
  5
2E1
  9
$SURFTAB1
 70
     6
  9
$SURFTAB2
 70
     6
  9
$SURFTYPE
 70
     6
  9
$SURFU
 70
     6
  9
$SURFV
 70
     6
  9
$UCSBASE
  2

  9
$UCSNAME
  2

  9
$UCSORG
 10
0.0
 20
0.0
 30
0.0
  9
$UCSXDIR
 10
1.0
 20
0.0
 30
0.0
  9
$UCSYDIR
 10
0.0
 20
1.0
 30
0.0
  9
$UCSORTHOREF
  2

  9
$UCSORTHOVIEW
 70
     0
  9
$UCSORGTOP
 10
0.0
 20
0.0
 30
0.0
  9
$UCSORGBOTTOM
 10
0.0
 20
0.0
 30
0.0
  9
$UCSORGLEFT
 10
0.0
 20
0.0
 30
0.0
  9
$UCSORGRIGHT
 10
0.0
 20
0.0
 30
0.0
  9
$UCSORGFRONT
 10
0.0
 20
0.0
 30
0.0
  9
$UCSORGBACK
 10
0.0
 20
0.0
 30
0.0
  9
$PUCSBASE
  2

  9
$PUCSNAME
  2

  9
$PUCSORG
 10
0.0
 20
0.0
 30
0.0
  9
$PUCSXDIR
 10
1.0
 20
0.0
 30
0.0
  9
$PUCSYDIR
 10
0.0
 20
1.0
 30
0.0
  9
$PUCSORTHOREF
  2

  9
$PUCSORTHOVIEW
 70
     0
  9
$PUCSORGTOP
 10
0.0
 20
0.0
 30
0.0
  9
$PUCSORGBOTTOM
 10
0.0
 20
0.0
 30
0.0
  9
$PUCSORGLEFT
 10
0.0
 20
0.0
 30
0.0
  9
$PUCSORGRIGHT
 10
0.0
 20
0.0
 30
0.0
  9
$PUCSORGFRONT
 10
0.0
 20
0.0
 30
0.0
  9
$PUCSORGBACK
 10
0.0
 20
0.0
 30
0.0
  9
$USERI1
 70
     0
  9
$USERI2
 70
     0
  9
$USERI3
 70
     0
  9
$USERI4
 70
     0
  9
$USERI5
 70
     0
  9
$USERR1
 40
0.0
  9
$USERR2
 40
0.0
  9
$USERR3
 40
0.0
  9
$USERR4
 40
0.0
  9
$USERR5
 40
0.0
  9
$WORLDVIEW
 70
     1
  9
$SHADEDGE
 70
     3
  9
$SHADEDIF
 70
    70
  9
$TILEMODE
 70
     1
  9
$MAXACTVP
 70
    64
  9
$PINSBASE
 10
0.0
 20
0.0
 30
0.0
  9
$PLIMCHECK
 70
     0
  9
$PEXTMIN
 10
1.0000000000E+20
 20
1.0000000000E+20
 30
1.0000000000E+20
  9
$PEXTMAX
 10
-1.0000000000E+20
 20
-1.0000000000E+20
 30
-1.0000000000E+20
  9
$PLIMMIN
 10
0.0
 20
0.0
  9
$PLIMMAX
 10
420.0
 20
297.0
  9
$UNITMODE
 70
     0
  9
$VISRETAIN
 70
     1
  9
$PLINEGEN
 70
     0
  9
$PSLTSCALE
 70
     1
  9
$TREEDEPTH
 70
  3020
  9
$CMLSTYLE
  2
Standard
  9
$CMLJUST
 70
     0
  9
$CMLSCALE
 40
20.0
  9
$PROXYGRAPHICS
 70
     1
  9
$MEASUREMENT
 70
     1
  9
$CELWEIGHT
370
    -1
  9
$ENDCAPS
280
     0
  9
$JOINSTYLE
280
     0
  9
$LWDISPLAY
290
     1
  9
$INSUNITS
 70
     4
  9
$HYPERLINKBASE
  1

  9
$STYLESHEET
  1

  9
$XEDIT
290
     1
  9
$CEPSNTYPE
380
     0
  9
$PSTYLEMODE
290
     1
  9
$FINGERPRINTGUID
  2
{25C2BDBF-1C76-4DF6-8E74-0F2F87479D23}
  9
$VERSIONGUID
  2
{FAEB1C32-E019-11D5-929B-00C0DF256EC4}
  9
$EXTNAMES
290
     1
  9
$PSVPSCALE
 40
0.0
  9
$OLESTARTUP
290
     0
  0
ENDSEC
  0
SECTION
  2
CLASSES
  0
CLASS
  1
ACDBDICTIONARYWDFLT
  2
AcDbDictionaryWithDefault
  3
ObjectDBX Classes
 90
        0
280
     0
281
     0
  0
CLASS
  1
VISUALSTYLE
  2
AcDbVisualStyle
  3
ObjectDBX Classes
 90
     4095
280
     0
281
     0
  0
CLASS
  1
MATERIAL
  2
AcDbMaterial
  3
ObjectDBX Classes
 90
     1153
280
     0
281
     0
  0
CLASS
  1
SCALE
  2
AcDbScale
  3
ObjectDBX Classes
 90
     1153
280
     0
281
     0
  0
CLASS
  1
TABLESTYLE
  2
AcDbTableStyle
  3
ObjectDBX Classes
 90
     4095
280
     0
281
     0
  0
CLASS
  1
MLEADERSTYLE
  2
AcDbMLeaderStyle
  3
ACDB_MLEADERSTYLE_CLASS
 90
     4095
280
     0
281
     0
  0
CLASS
  1
SUN
  2
AcDbSun
  3
SCENEOE
 90
     1153
280
     0
281
     0
  0
CLASS
  1
ACDBPLACEHOLDER
  2
AcDbPlaceHolder
  3
ObjectDBX Classes
 90
        0
280
     0
281
     0
  0
CLASS
  1
LAYOUT
  2
AcDbLayout
  3
ObjectDBX Classes
 90
        0
280
     0
281
     0
  0
ENDSEC
  0
SECTION
  2
TABLES
  0
TABLE
  2
VPORT
  5
8
330
0
100
AcDbSymbolTable
 70
     1
  0
VPORT
  5
29
330
8
100
AcDbSymbolTableRecord
100
AcDbViewportTableRecord
  2
*Active
 70
     0
 10
0.0
 20
0.0
 11
1.0
 21
1.0
 12
148.5
 22
105.0
 13
0.0
 23
0.0
 14
10.0
 24
10.0
 15
10.0
 25
10.0
 16
0.0
 26
0.0
 36
1.0
 17
0.0
 27
0.0
 37
0.0
 40
210.0
 41
1.4142857143
 42
50.0
 43
0.0
 44
0.0
 50
0.0
 51
0.0
 71
     0
 72
  2000
 73
     1
 74
     3
 75
     0
 76
     0
 77
     0
 78
     0
281
     0
 65
     1
110
0.0
120
0.0
130
0.0
111
1.0
121
0.0
131
0.0
112
0.0
122
1.0
132
0.0
 79
     0
146
0.0
  0
ENDTAB
  0
TABLE
  2
LTYPE
  5
5
330
0
100
AcDbSymbolTable
 70
     6
  0
LTYPE
  5
14
330
5
100
AcDbSymbolTableRecord
100
AcDbLinetypeTableRecord
  2
ByBlock
 70
     0
  3

 72
    65
 73
     0
 40
0.0
  0
LTYPE
  5
15
330
5
100
AcDbSymbolTableRecord
100
AcDbLinetypeTableRecord
  2
ByLayer
 70
     0
  3

 72
    65
 73
     0
 40
0.0
  0
LTYPE
  5
16
330
5
100
AcDbSymbolTableRecord
100
AcDbLinetypeTableRecord
  2
Continuous
 70
     0
  3
Solid line
 72
    65
 73
     0
 40
0.0
  0
LTYPE
  5
6E
330
5
100
AcDbSymbolTableRecord
100
AcDbLinetypeTableRecord
  2
HIDDEN
 70
     0
  3
Hidden __ __ __ __ __ __ __ __ __ __ __ __ __ __
 72
    65
 73
     2
 40
1.905
 49
1.27
 74
     0
 49
-0.635
 74
     0
  0
LTYPE
  5
6F
330
5
100
AcDbSymbolTableRecord
100
AcDbLinetypeTableRecord
  2
PHANTOM
 70
     0
  3
Phantom ______  __  __  ______  __  __  ______
 72
    65
 73
     6
 40
12.7
 49
6.35
 74
     0
 49
-1.27
 74
     0
 49
1.27
 74
     0
 49
-1.27
 74
     0
 49
1.27
 74
     0
 49
-1.27
 74
     0
  0
LTYPE
  5
70
330
5
100
AcDbSymbolTableRecord
100
AcDbLinetypeTableRecord
  2
CENTER
 70
     0
  3
Center ____ _ ____ _ ____ _ ____ _ ____ _ ____
 72
    65
 73
     4
 40
10.16
 49
6.35
 74
     0
 49
-1.27
 74
     0
 49
1.27
 74
     0
 49
-1.27
 74
     0
  0
LTYPE
  5
71
330
5
100
AcDbSymbolTableRecord
100
AcDbLinetypeTableRecord
  2
CENTERX2
 70
     0
  3
Center (2x) ________  __  ________  __  _____
 72
    65
 73
     4
 40
20.32
 49
12.7
 74
     0
 49
-2.54
 74
     0
 49
2.54
 74
     0
 49
-2.54
 74
     0
  0
LTYPE
  5
72
330
5
100
AcDbSymbolTableRecord
100
AcDbLinetypeTableRecord
  2
DOT2
 70
     0
  3
Dot (.5x) ........................................
 72
    65
 73
     2
 40
0.635
 49
0.0
 74
     0
 49
-0.635
 74
     0
  0
ENDTAB
  0
TABLE
  2
LAYER
  5
2
330
0
100
AcDbSymbolTable
 70
     5
  0
LAYER
  5
10
330
2
100
AcDbSymbolTableRecord
100
AcDbLayerTableRecord
  2
0
 70
     0
 62
     7
  6
Continuous
370
    -3
390
F
  0
LAYER
  5
73
330
2
100
AcDbSymbolTableRecord
100
AcDbLayerTableRecord
  2
FORMAT
 70
     0
 62
     7
  6
Continuous
370
    -3
390
F
  0
LAYER
  5
74
330
2
100
AcDbSymbolTableRecord
100
AcDbLayerTableRecord
  2
VERMASSUNG
 70
     0
 62
     7
  6
Continuous
370
    -3
390
F
  0
LAYER
  5
75
330
2
100
AcDbSymbolTableRecord
100
AcDbLayerTableRecord
  2
KOPF_DÜNN
 70
     0
 62
     7
  6
Continuous
370
    -3
390
F
  0
LAYER
  5
76
330
2
100
AcDbSymbolTableRecord
100
AcDbLayerTableRecord
  2
KOPF_DICK
 70
     0
 62
     7
  6
Continuous
370
    25
390
F
  0
ENDTAB
  0
TABLE
  2
STYLE
  5
3
330
0
100
AcDbSymbolTable
 70
     3
  0
STYLE
  5
11
330
3
100
AcDbSymbolTableRecord
100
AcDbTextStyleTableRecord
  2
Standard
 70
     0
 40
0.0
 41
1.0
 50
0.0
 71
     0
 42
2.0
  3
txt
  4

  0
STYLE
  5
77
330
3
100
AcDbSymbolTableRecord
100
AcDbTextStyleTableRecord
  2
SLDTEXTSTYLE0
 70
     0
 40
0.0
 41
0.7
 50
0.0
 71
     0
 42
2.0
  3
TXT
  4

  0
STYLE
  5
297
330
3
100
AcDbSymbolTableRecord
100
AcDbTextStyleTableRecord
  2
SLDTEXTSTYLE1
 70
     0
 40
0.0
 41
0.65
 50
0.0
 71
     0
 42
2.0
  3
TXT
  4

  0
ENDTAB
  0
TABLE
  2
VIEW
  5
6
330
0
100
AcDbSymbolTable
 70
     0
  0
ENDTAB
  0
TABLE
  2
UCS
  5
7
330
0
100
AcDbSymbolTable
 70
     0
  0
ENDTAB
  0
TABLE
  2
APPID
  5
9
330
0
100
AcDbSymbolTable
 70
     1
  0
APPID
  5
12
330
9
100
AcDbSymbolTableRecord
100
AcDbRegAppTableRecord
  2
ACAD
 70
     0
  0
ENDTAB
  0
TABLE
  2
DIMSTYLE
  5
A
330
0
100
AcDbSymbolTable
 70
     3
100
AcDbDimStyleTable
  0
DIMSTYLE
105
27
330
A
100
AcDbSymbolTableRecord
100
AcDbDimStyleTableRecord
  2
ISO-25
 70
     0
 41
2.5
 42
0.625
 43
3.75
 44
1.25
 73
     0
 74
     0
 77
     1
 78
     8
140
2.5
141
2.5
143
0.0393700787
147
0.625
171
     3
172
     1
178
     0
271
     2
272
     2
274
     3
278
    44
283
     0
284
     8
340
11
  0
DIMSTYLE
105
28F
102
{ACAD_REACTORS
330
28E
102
}
330
A
100
AcDbSymbolTableRecord
100
AcDbDimStyleTableRecord
  2
SLDDIMSTYLE0
 70
     0
 41
3.0
 44
0.0
 45
0.000000001
 73
     0
 74
     0
 76
     1
 77
     1
 78
    12
 79
     3
140
2.0
147
0.5
173
     1
178
     0
271
     2
272
     3
276
     2
282
     1
284
    12
340
77
  0
DIMSTYLE
105
29C
102
{ACAD_REACTORS
330
29B
330
2A8
330
2B2
102
}
330
A
100
AcDbSymbolTableRecord
100
AcDbDimStyleTableRecord
  2
SLDDIMSTYLE1
 70
     0
 41
3.0
 44
0.0
 45
0.000000001
 73
     0
 74
     0
 77
     1
 78
    12
 79
     3
140
2.0
147
0.5
173
     1
178
     0
271
     2
272
     3
276
     2
284
    12
340
77
  0
ENDTAB
  0
TABLE
  2
BLOCK_RECORD
  5
1
330
0
100
AcDbSymbolTable
 70
     5
  0
BLOCK_RECORD
  5
1F
330
1
100
AcDbSymbolTableRecord
100
AcDbBlockTableRecord
  2
*Model_Space
340
22
  0
BLOCK_RECORD
  5
1B
330
1
100
AcDbSymbolTableRecord
100
AcDbBlockTableRecord
  2
*Paper_Space
340
1E
  0
BLOCK_RECORD
  5
23
330
1
100
AcDbSymbolTableRecord
100
AcDbBlockTableRecord
  2
*Paper_Space0
340
26
  0
BLOCK_RECORD
  5
290
330
1
100
AcDbSymbolTableRecord
100
AcDbBlockTableRecord
  2
_D
340
0
  0
BLOCK_RECORD
  5
29D
330
1
100
AcDbSymbolTableRecord
100
AcDbBlockTableRecord
  2
_D_1
340
0
  0
BLOCK_RECORD
  5
2A9
330
1
100
AcDbSymbolTableRecord
100
AcDbBlockTableRecord
  2
_D_2
340
0
  0
BLOCK_RECORD
  5
2B3
330
1
100
AcDbSymbolTableRecord
100
AcDbBlockTableRecord
  2
_D_3
340
0
  0
ENDTAB
  0
ENDSEC
  0
SECTION
  2
BLOCKS
  0
BLOCK
  5
20
330
1F
100
AcDbEntity
  8
0
100
AcDbBlockBegin
  2
*Model_Space
 70
     0
 10
0.0
 20
0.0
 30
0.0
  3
*Model_Space
  1

  0
ENDBLK
  5
21
330
1F
100
AcDbEntity
  8
0
100
AcDbBlockEnd
  0
BLOCK
  5
1C
330
1B
100
AcDbEntity
 67
     1
  8
0
100
AcDbBlockBegin
  2
*Paper_Space
 70
     0
 10
0.0
 20
0.0
 30
0.0
  3
*Paper_Space
  1

  0
ENDBLK
  5
1D
330
1B
100
AcDbEntity
 67
     1
  8
0
100
AcDbBlockEnd
  0
BLOCK
  5
24
330
23
100
AcDbEntity
  8
0
100
AcDbBlockBegin
  2
*Paper_Space0
 70
     0
 10
0.0
 20
0.0
 30
0.0
  3
*Paper_Space0
  1

  0
ENDBLK
  5
25
330
23
100
AcDbEntity
  8
0
100
AcDbBlockEnd
  0
BLOCK
  5
291
330
290
100
AcDbEntity
  8
0
100
AcDbBlockBegin
  2
_D
 70
     0
 10
0.0
 20
0.0
 30
0.0
  3
_D
  1

  0
SOLID
  5
293
330
290
100
AcDbEntity
  8
VERMASSUNG
100
AcDbTrace
 10
205.8960761917
 20
149.9726920862
 30
0.0
 11
205.4460761917
 21
146.9726920862
 31
0.0
 12
206.3460761917
 22
146.9726920862
 32
0.0
 13
206.3460761917
 23
146.9726920862
 33
0.0
  0
LINE
  5
294
330
290
100
AcDbEntity
  8
VERMASSUNG
100
AcDbLine
 10
157.7663080806
 20
149.9726920862
 30
0.0
 11
206.8960761917
 21
149.9726920862
 31
0.0
  0
LINE
  5
295
330
290
100
AcDbEntity
  8
VERMASSUNG
100
AcDbLine
 10
205.8960761917
 20
149.9726920862
 30
0.0
 11
205.8960761917
 21
103.8126922656
 31
0.0
  0
MTEXT
  5
296
330
290
100
AcDbEntity
  8
VERMASSUNG
100
AcDbMText
 10
203.3179408868
 20
103.8126922656
 30
0.0
 40
2.0
 41
0.0
 71
     1
 72
     1
  1
%%c
  7
SLDTEXTSTYLE0
 11
6.123233995736766E-17
 21
1.0
 31
0.0
 73
     1
 44
1.0
  0
MTEXT
  5
298
330
290
100
AcDbEntity
  8
VERMASSUNG
100
AcDbMText
 10
203.1179409355
 20
107.4226922799
 30
0.0
 40
2.0
 41
0.0
 71
     1
 72
     1
  1
75 -
  7
SLDTEXTSTYLE1
 11
6.123233995736766E-17
 21
1.0
 31
0.0
 73
     1
 44
1.0
  0
MTEXT
  5
299
330
290
100
AcDbEntity
  8
VERMASSUNG
100
AcDbMText
 10
203.3179408868
 20
114.0226922442
 30
0.0
 40
2.0
 41
0.0
 71
     1
 72
     1
  1
%%c
  7
SLDTEXTSTYLE0
 11
6.123233995736766E-17
 21
1.0
 31
0.0
 73
     1
 44
1.0
  0
MTEXT
  5
29A
330
290
100
AcDbEntity
  8
VERMASSUNG
100
AcDbMText
 10
203.1179409355
 20
117.6326922585
 30
0.0
 40
2.0
 41
0.0
 71
     1
 72
     1
  1
91
  7
SLDTEXTSTYLE0
 11
6.123233995736766E-17
 21
1.0
 31
0.0
 73
     1
 44
1.0
  0
ENDBLK
  5
292
330
290
100
AcDbEntity
  8
0
100
AcDbBlockEnd
  0
BLOCK
  5
29E
330
29D
100
AcDbEntity
  8
0
100
AcDbBlockBegin
  2
_D_1
 70
     0
 10
0.0
 20
0.0
 30
0.0
  3
_D_1
  1

  0
ARC
  5
2A0
330
29D
100
AcDbEntity
  8
VERMASSUNG
100
AcDbCircle
 10
133.5460763147
 20
158.7791060375
 30
0.0
 40
4.248529228887633
100
AcDbArc
 50
153.4349488229
 51
206.5650511771
  0
ARC
  5
2A1
330
29D
100
AcDbEntity
  8
VERMASSUNG
100
AcDbCircle
 10
136.946076127
 20
158.7791060375
 30
0.0
 40
4.248529228887608
100
AcDbArc
 50
333.4349488229
 51
26.5650511771
  0
SOLID
  5
2A2
330
29D
100
AcDbEntity
  8
VERMASSUNG
100
AcDbTrace
 10
152.3460761917
 20
156.8791057727
 30
0.0
 11
149.3460761917
 21
157.3291057727
 31
0.0
 12
149.3460761917
 22
156.4291057727
 32
0.0
 13
149.3460761917
 23
156.4291057727
 33
0.0
  0
SOLID
  5
2A3
330
29D
100
AcDbEntity
  8
VERMASSUNG
100
AcDbTrace
 10
118.1460761917
 20
156.8791057727
 30
0.0
 11
121.1460761917
 21
156.4291057727
 31
0.0
 12
121.1460761917
 22
157.3291057727
 32
0.0
 13
121.1460761917
 23
157.3291057727
 33
0.0
  0
LINE
  5
2A4
330
29D
100
AcDbEntity
  8
VERMASSUNG
100
AcDbLine
 10
152.3460761917
 20
149.5729357554
 30
0.0
 11
152.3460761917
 21
157.8791057727
 31
0.0
  0
LINE
  5
2A5
330
29D
100
AcDbEntity
  8
VERMASSUNG
100
AcDbLine
 10
118.1460761917
 20
131.4226920862
 30
0.0
 11
118.1460761917
 21
157.8791057727
 31
0.0
  0
LINE
  5
2A6
330
29D
100
AcDbEntity
  8
VERMASSUNG
100
AcDbLine
 10
152.3460761917
 20
156.8791057727
 30
0.0
 11
118.1460761917
 21
156.8791057727
 31
0.0
  0
MTEXT
  5
2A7
330
29D
100
AcDbEntity
  8
VERMASSUNG
100
AcDbMText
 10
129.7460762507
 20
159.4572416015
 30
0.0
 40
2.0
 41
0.0
 71
     1
 72
     1
  1
16.2 - 62
  7
SLDTEXTSTYLE0
 73
     1
 44
1.0
  0
ENDBLK
  5
29F
330
29D
100
AcDbEntity
  8
0
100
AcDbBlockEnd
  0
BLOCK
  5
2AA
330
2A9
100
AcDbEntity
  8
0
100
AcDbBlockBegin
  2
_D_2
 70
     0
 10
0.0
 20
0.0
 30
0.0
  3
_D_2
  1

  0
SOLID
  5
2AC
330
2A9
100
AcDbEntity
  8
VERMASSUNG
100
AcDbTrace
 10
196.2227170919
 20
140.9226920862
 30
0.0
 11
195.7727170919
 21
137.9226920862
 31
0.0
 12
196.6727170919
 22
137.9226920862
 32
0.0
 13
196.6727170919
 23
137.9226920862
 33
0.0
  0
SOLID
  5
2AD
330
2A9
100
AcDbEntity
  8
VERMASSUNG
100
AcDbTrace
 10
196.2227170919
 20
128.9226920862
 30
0.0
 11
196.6727170919
 21
131.9226920862
 31
0.0
 12
195.7727170919
 22
131.9226920862
 32
0.0
 13
195.7727170919
 23
131.9226920862
 33
0.0
  0
LINE
  5
2AE
330
2A9
100
AcDbEntity
  8
VERMASSUNG
100
AcDbLine
 10
182.5623891452
 20
140.9226920862
 30
0.0
 11
197.2227170919
 21
140.9226920862
 31
0.0
  0
LINE
  5
2AF
330
2A9
100
AcDbEntity
  8
VERMASSUNG
100
AcDbLine
 10
183.3460761917
 20
128.9226920862
 30
0.0
 11
197.2227170919
 21
128.9226920862
 31
0.0
  0
LINE
  5
2B0
330
2A9
100
AcDbEntity
  8
VERMASSUNG
100
AcDbLine
 10
196.2227170919
 20
140.9226920862
 30
0.0
 11
196.2227170919
 21
128.9226920862
 31
0.0
  0
MTEXT
  5
2B1
330
2A9
100
AcDbEntity
  8
VERMASSUNG
100
AcDbMText
 10
193.6445814959
 20
133.7226920292
 30
0.0
 40
2.0
 41
0.0
 71
     1
 72
     1
  1
12
  7
SLDTEXTSTYLE0
 11
-6.156016597943509E-15
 21
1.0
 31
0.0
 73
     1
 44
1.0
  0
ENDBLK
  5
2AB
330
2A9
100
AcDbEntity
  8
0
100
AcDbBlockEnd
  0
BLOCK
  5
2B4
330
2B3
100
AcDbEntity
  8
0
100
AcDbBlockBegin
  2
_D_3
 70
     0
 10
0.0
 20
0.0
 30
0.0
  3
_D_3
  1

  0
SOLID
  5
2B6
330
2B3
100
AcDbEntity
  8
VERMASSUNG
100
AcDbTrace
 10
80.1460761917
 20
90.9226920862
 30
0.0
 11
80.5960761917
 21
93.9226920862
 31
0.0
 12
79.6960761917
 22
93.9226920862
 32
0.0
 13
79.6960761917
 23
93.9226920862
 33
0.0
  0
SOLID
  5
2B7
330
2B3
100
AcDbEntity
  8
VERMASSUNG
100
AcDbTrace
 10
80.1460761917
 20
132.9226920862
 30
0.0
 11
79.6960761917
 21
129.9226920862
 31
0.0
 12
80.5960761917
 22
129.9226920862
 32
0.0
 13
80.5960761917
 23
129.9226920862
 33
0.0
  0
LINE
  5
2B8
330
2B3
100
AcDbEntity
  8
VERMASSUNG
100
AcDbLine
 10
124.0121015955
 20
90.9226920862
 30
0.0
 11
79.1460761917
 21
90.9226920862
 31
0.0
  0
LINE
  5
2B9
330
2B3
100
AcDbEntity
  8
VERMASSUNG
100
AcDbLine
 10
124.0121015955
 20
132.9226920862
 30
0.0
 11
79.1460761917
 21
132.9226920862
 31
0.0
  0
LINE
  5
2BA
330
2B3
100
AcDbEntity
  8
VERMASSUNG
100
AcDbLine
 10
80.1460761917
 20
90.9226920862
 30
0.0
 11
80.1460761917
 21
132.9226920862
 31
0.0
  0
MTEXT
  5
2BB
330
2B3
100
AcDbEntity
  8
VERMASSUNG
100
AcDbMText
 10
77.5679408868
 20
108.617692066
 30
0.0
 40
2.0
 41
0.0
 71
     1
 72
     1
  1
%%c
  7
SLDTEXTSTYLE0
 11
6.123233995736766E-17
 21
1.0
 31
0.0
 73
     1
 44
1.0
  0
MTEXT
  5
2BC
330
2B3
100
AcDbEntity
  8
VERMASSUNG
100
AcDbMText
 10
77.3679409355
 20
112.2276920803
 30
0.0
 40
2.0
 41
0.0
 71
     1
 72
     1
  1
42
  7
SLDTEXTSTYLE0
 11
6.123233995736766E-17
 21
1.0
 31
0.0
 73
     1
 44
1.0
  0
ENDBLK
  5
2B5
330
2B3
100
AcDbEntity
  8
0
100
AcDbBlockEnd
  0
ENDSEC
  0
SECTION
  2
ENTITIES
  0
MTEXT
  5
78
330
1F
100
AcDbEntity
  8
KOPF_DÜNN
100
AcDbMText
 10
13.8892156294
 20
23.8442973028
 30
0.0
 40
3.0
 41
0.0
 71
     1
 72
     1
  1
C24.022.120.016
  7
SLDTEXTSTYLE0
 73
     1
 44
1.0
  0
MTEXT
  5
79
330
1F
100
AcDbEntity
  8
VERMASSUNG
100
AcDbMText
 10
13.9329988022
 20
28.8834360957
 30
0.0
 40
3.0
 41
0.0
 71
     1
 72
     1
  1
Umkehradapter_Reversal adapter
  7
SLDTEXTSTYLE0
 73
     1
 44
1.0
  0
MTEXT
  5
7A
330
1F
100
AcDbEntity
  8
VERMASSUNG
100
AcDbMText
 10
98.8601118557
 20
13.8365368761
 30
0.0
 40
2.0
 41
0.0
 71
     1
 72
     1
  1
Datum: 27.02.2018
  7
SLDTEXTSTYLE0
 73
     1
 44
1.0
  0
MTEXT
  5
7B
330
1F
100
AcDbEntity
  8
VERMASSUNG
100
AcDbMText
 10
13.933048693
 20
18.0482802738
 30
0.0
 40
2.0
 41
0.0
 71
     1
 72
     1
  1
Achtung: Linkslauf / Caution: counterclockwise rotation
  7
SLDTEXTSTYLE0
 73
     1
 44
1.0
  0
MTEXT
  5
7C
330
1F
100
AcDbEntity
  8
VERMASSUNG
100
AcDbMText
 10
13.9808475933
 20
13.9090974274
 30
0.0
 40
2.0
 41
0.0
 71
     1
 72
     1
  1
Gewicht: 38g
  7
SLDTEXTSTYLE0
 73
     1
 44
1.0
  0
LINE
  5
7D
330
1F
100
AcDbEntity
  8
0
  6
Continuous
 62
     7
370
    25
100
AcDbLine
 10
160.2460761917
 20
136.8226920862
 30
0.0
 11
160.2460761917
 21
129.9226920862
 31
0.0
  0
LINE
  5
7E
330
1F
100
AcDbEntity
  8
0
  6
Continuous
 62
     7
370
    25
100
AcDbLine
 10
185.2460761917
 20
125.4226920862
 30
0.0
 11
185.2460761917
 21
136.8226920862
 31
0.0
  0
LINE
  5
7F
330
1F
100
AcDbEntity
  8
0
  6
Continuous
 62
     7
370
    25
100
AcDbLine
 10
183.7460761917
 20
140.5226920862
 30
0.0
 11
183.2173887213
 21
141.0513795566
 31
0.0
  0
LINE
  5
80
330
1F
100
AcDbEntity
  8
0
  6
Continuous
 62
     7
370
    25
100
AcDbLine
 10
161.7460761917
 20
137.6506577386
 30
0.0
 11
161.7460761917
 21
136.8226920862
 31
0.0
  0
LINE
  5
81
330
1F
100
AcDbEntity
  8
0
  6
Continuous
 62
     7
370
    25
100
AcDbLine
 10
183.7460761917
 20
136.8226920862
 30
0.0
 11
183.7460761917
 21
140.5226920862
 31
0.0
  0
LINE
  5
82
330
1F
100
AcDbEntity
  8
0
  6
PHANTOM
 62
     7
370
    25
100
AcDbLine
 10
162.231600099
 20
129.0082159934
 30
0.0
 11
161.7460761917
 21
128.5226920862
 31
0.0
  0
LINE
  5
83
330
1F
100
AcDbEntity
  8
0
  6
PHANTOM
 62
     7
370
    25
100
AcDbLine
 10
161.7460761917
 20
128.5226920862
 30
0.0
 11
161.7460761917
 21
127.7269662508
 31
0.0
  0
LINE
  5
84
330
1F
100
AcDbEntity
  8
0
  6
PHANTOM
 62
     7
370
    25
100
AcDbLine
 10
183.7460761917
 20
124.2425085637
 30
0.0
 11
183.7460761917
 21
125.6006577386
 31
0.0
  0
LINE
  5
85
330
1F
100
AcDbEntity
  8
0
  6
PHANTOM
 62
     7
370
    25
100
AcDbLine
 10
161.7960761917
 20
94.3726920862
 30
0.0
 11
161.7960761917
 21
94.349919809
 31
0.0
  0
LINE
  5
86
330
1F
100
AcDbEntity
  8
0
  6
PHANTOM
 62
     7
370
    25
100
AcDbLine
 10
183.6960761917
 20
94.349919809
 30
0.0
 11
183.6960761917
 21
94.3726920862
 31
0.0
  0
LINE
  5
87
330
1F
100
AcDbEntity
  8
0
  6
PHANTOM
 62
     7
370
    25
100
AcDbLine
 10
161.7960761917
 20
94.349919809
 30
0.0
 11
161.8086018255
 21
94.3442150649
 31
0.0
  0
LINE
  5
88
330
1F
100
AcDbEntity
  8
0
  6
PHANTOM
 62
     7
370
    25
100
AcDbLine
 10
163.3171000088
 20
93.6571762884
 30
0.0
 11
166.8460761917
 21
92.049919809
 31
0.0
  0
LINE
  5
89
330
1F
100
AcDbEntity
  8
0
  6
PHANTOM
 62
     7
370
    25
100
AcDbLine
 10
178.6460761917
 20
92.049919809
 30
0.0
 11
182.17247876
 21
93.656004147
 31
0.0
  0
LINE
  5
8A
330
1F
100
AcDbEntity
  8
0
  6
PHANTOM
 62
     7
370
    25
100
AcDbLine
 10
183.6766578438
 20
94.341075809
 30
0.0
 11
183.6960761917
 21
94.349919809
 31
0.0
  0
LINE
  5
8B
330
1F
100
AcDbEntity
  8
0
  6
PHANTOM
 62
     7
370
    25
100
AcDbLine
 10
170.2165732083
 20
92.5409524018
 30
0.0
 11
170.2165732083
 21
92.5492233334
 31
0.0
  0
LINE
  5
8C
330
1F
100
AcDbEntity
  8
0
  6
PHANTOM
 62
     7
370
    25
100
AcDbLine
 10
177.7318282128
 20
92.8741017531
 30
0.0
 11
177.7318282128
 21
92.8626493696
 31
0.0
  0
LINE
  5
8D
330
1F
100
AcDbEntity
  8
0
  6
PHANTOM
 62
     7
370
    25
100
AcDbLine
 10
153.8616395529
 20
132.9226920862
 30
0.0
 11
124.0121015955
 21
132.9226920862
 31
0.0
  0
LINE
  5
8E
330
1F
100
AcDbEntity
  8
0
  6
PHANTOM
 62
     7
370
    25
100
AcDbLine
 10
124.0121015955
 20
90.9226920862
 30
0.0
 11
153.6564087323
 21
90.9226920862
 31
0.0
  0
ARC
  5
8F
330
1F
100
AcDbEntity
  8
0
  6
PHANTOM
 62
     7
370
    25
100
AcDbCircle
 10
124.0121015955
 20
131.9226920862
 30
0.0
 40
1.0
100
AcDbArc
 50
90.0
 51
150.0
  0
ARC
  5
90
330
1F
100
AcDbEntity
  8
0
  6
PHANTOM
 62
     7
370
    25
100
AcDbCircle
 10
124.0121015955
 20
91.9226920862
 30
0.0
 40
1.0
100
AcDbArc
 50
210.0
 51
270.0
  0
ARC
  5
91
330
1F
100
AcDbEntity
  8
0
  6
PHANTOM
 62
     7
370
    25
100
AcDbCircle
 10
122.280050788
 20
132.9226920862
 30
0.0
 40
1.000000000000008
100
AcDbArc
 50
270.0
 51
330.0
  0
ARC
  5
92
330
1F
100
AcDbEntity
  8
0
  6
PHANTOM
 62
     7
370
    25
100
AcDbCircle
 10
122.280050788
 20
90.9226920862
 30
0.0
 40
1.000000000000008
100
AcDbArc
 50
30.0
 51
90.0
  0
LINE
  5
93
330
1F
100
AcDbEntity
  8
0
  6
PHANTOM
 62
     7
370
    25
100
AcDbLine
 10
189.0011832745
 20
94.3726920862
 30
0.0
 11
189.8960761917
 21
95.9226920862
 31
0.0
  0
ARC
  5
94
330
1F
100
AcDbEntity
  8
0
  6
PHANTOM
 62
     7
370
    25
100
AcDbCircle
 10
118.6460761917
 20
92.4226920862
 30
0.0
 40
0.5
100
AcDbArc
 50
180.0
 51
270.0
  0
ARC
  5
95
330
1F
100
AcDbEntity
  8
0
  6
PHANTOM
 62
     7
370
    25
100
AcDbCircle
 10
118.6460761917
 20
131.4226920862
 30
0.0
 40
0.5
100
AcDbArc
 50
90.0
 51
180.0
  0
LINE
  5
96
330
1F
100
AcDbEntity
  8
0
  6
PHANTOM
 62
     7
370
    25
100
AcDbLine
 10
118.6460761917
 20
91.9226920862
 30
0.0
 11
122.280050788
 21
91.9226920862
 31
0.0
  0
LINE
  5
97
330
1F
100
AcDbEntity
  8
0
  6
PHANTOM
 62
     7
370
    25
100
AcDbLine
 10
122.280050788
 20
131.9226920862
 30
0.0
 11
118.6460761917
 21
131.9226920862
 31
0.0
  0
ARC
  5
98
330
1F
100
AcDbEntity
  8
0
  6
PHANTOM
 62
     7
370
    25
100
AcDbCircle
 10
117.7460761917
 20
100.6726920862
 30
0.0
 40
0.6000000000000085
100
AcDbArc
 50
48.1896851042
 51
90.0
  0
ARC
  5
99
330
1F
100
AcDbEntity
  8
0
  6
PHANTOM
 62
     7
370
    25
100
AcDbCircle
 10
117.7460761917
 20
123.1726920862
 30
0.0
 40
0.5999999999999959
100
AcDbArc
 50
270.0
 51
311.8103148958
  0
LINE
  5
9A
330
1F
100
AcDbEntity
  8
0
  6
PHANTOM
 62
     7
370
    25
100
AcDbLine
 10
96.1460761917
 20
122.9226920862
 30
0.0
 11
92.6472083424
 21
122.5277406298
 31
0.0
  0
LINE
  5
9B
330
1F
100
AcDbEntity
  8
0
  6
PHANTOM
 62
     7
370
    25
100
AcDbLine
 10
92.6472083424
 20
101.3176435427
 30
0.0
 11
96.1460761917
 21
100.9226920862
 31
0.0
  0
LINE
  5
9C
330
1F
100
AcDbEntity
  8
0
  6
PHANTOM
 62
     7
370
    25
100
AcDbLine
 10
96.1460761917
 20
100.9226920862
 30
0.0
 11
115.6460761917
 21
100.9226920862
 31
0.0
  0
LINE
  5
9D
330
1F
100
AcDbEntity
  8
0
  6
PHANTOM
 62
     7
370
    25
100
AcDbLine
 10
100.4001893064
 20
122.9226920862
 30
0.0
 11
96.1460761917
 21
122.9226920862
 31
0.0
  0
LINE
  5
9E
330
1F
100
AcDbEntity
  8
0
  6
PHANTOM
 62
     7
370
    25
100
AcDbLine
 10
115.6460761917
 20
122.9226920862
 30
0.0
 11
112.3944943742
 21
122.9226920862
 31
0.0
  0
LINE
  5
9F
330
1F
100
AcDbEntity
  8
0
  6
PHANTOM
 62
     7
370
    25
100
AcDbLine
 10
115.6460761917
 20
100.9226920862
 30
0.0
 11
116.8759940459
 21
101.252247582
 31
0.0
  0
LINE
  5
A0
330
1F
100
AcDbEntity
  8
0
  6
PHANTOM
 62
     7
370
    25
100
AcDbLine
 10
116.8759940459
 20
122.5931365905
 30
0.0
 11
115.6460761917
 21
122.9226920862
 31
0.0
  0
ARC
  5
A1
330
1F
100
AcDbEntity
  8
0
  6
PHANTOM
 62
     7
370
    25
100
AcDbCircle
 10
91.3460761917
 20
102.1326920862
 30
0.0
 40
1.200000000000012
100
AcDbArc
 50
180.0
 51
300.0
  0
ARC
  5
A2
330
1F
100
AcDbEntity
  8
0
  6
PHANTOM
 62
     7
370
    25
100
AcDbCircle
 10
91.3460761917
 20
121.7126920862
 30
0.0
 40
1.200000000000012
100
AcDbArc
 50
60.0
 51
180.0
  0
LINE
  5
A3
330
1F
100
AcDbEntity
  8
0
  6
PHANTOM
 62
     7
370
    25
100
AcDbLine
 10
91.9460761917
 20
101.0934616017
 30
0.0
 11
92.1574743916
 21
101.2155124093
 31
0.0
  0
LINE
  5
A4
330
1F
100
AcDbEntity
  8
0
  6
PHANTOM
 62
     7
370
    25
100
AcDbLine
 10
92.1574743916
 20
122.6298717632
 30
0.0
 11
91.9460761917
 21
122.7519225708
 31
0.0
  0
ARC
  5
A5
330
1F
100
AcDbEntity
  8
0
  6
PHANTOM
 62
     7
370
    25
100
AcDbCircle
 10
92.5574743916
 20
100.5226920862
 30
0.0
 40
0.7999999999999996
100
AcDbArc
 50
83.5597259642
 51
120.0
  0
ARC
  5
A6
330
1F
100
AcDbEntity
  8
0
  6
PHANTOM
 62
     7
370
    25
100
AcDbCircle
 10
92.5574743916
 20
123.3226920862
 30
0.0
 40
0.8000000000000039
100
AcDbArc
 50
240.0
 51
276.4402740358
  0
ARC
  5
A7
330
1F
100
AcDbEntity
  8
0
  6
PHANTOM
 62
     7
370
    25
100
AcDbCircle
 10
117.031285473
 20
100.6726920862
 30
0.0
 40
0.6000000000000085
100
AcDbArc
 50
90.0
 51
105.0
  0
ARC
  5
A8
330
1F
100
AcDbEntity
  8
0
  6
PHANTOM
 62
     7
370
    25
100
AcDbCircle
 10
117.031285473
 20
123.1726920862
 30
0.0
 40
0.5999999999999943
100
AcDbArc
 50
255.0
 51
270.0
  0
LINE
  5
A9
330
1F
100
AcDbEntity
  8
0
  6
PHANTOM
 62
     7
370
    25
100
AcDbLine
 10
117.031285473
 20
101.2726920862
 30
0.0
 11
117.7460761917
 21
101.2726920862
 31
0.0
  0
LINE
  5
AA
330
1F
100
AcDbEntity
  8
0
  6
PHANTOM
 62
     7
370
    25
100
AcDbLine
 10
117.7460761917
 20
122.5726920862
 30
0.0
 11
117.031285473
 21
122.5726920862
 31
0.0
  0
LINE
  5
AB
330
1F
100
AcDbEntity
  8
0
  6
PHANTOM
 62
     7
370
    25
100
AcDbLine
 10
185.2460761917
 20
144.4226920862
 30
0.0
 11
181.7460761917
 21
147.9226920862
 31
0.0
  0
LINE
  5
AC
330
1F
100
AcDbEntity
  8
0
  6
PHANTOM
 62
     7
370
    25
100
AcDbLine
 10
185.2460761917
 20
141.9226920862
 30
0.0
 11
185.2460761917
 21
144.4226920862
 31
0.0
  0
LINE
  5
AD
330
1F
100
AcDbEntity
  8
0
  6
Continuous
 62
     7
370
    25
100
AcDbLine
 10
160.2460761917
 20
136.8226920862
 30
0.0
 11
185.2460761917
 21
136.8226920862
 31
0.0
  0
LINE
  5
AE
330
1F
100
AcDbEntity
  8
0
  6
Continuous
 62
     7
370
    25
100
AcDbLine
 10
184.869707099
 20
125.4226920862
 30
0.0
 11
185.2460761917
 21
125.4226920862
 31
0.0
  0
LINE
  5
AF
330
1F
100
AcDbEntity
  8
0
  6
Continuous
 62
     7
370
    25
100
AcDbLine
 10
160.9033569094
 20
129.2185890476
 30
0.0
 11
184.869707099
 21
125.4226920862
 31
0.0
  0
LINE
  5
B0
330
1F
100
AcDbEntity
  8
0
  6
Continuous
 62
     7
370
    25
100
AcDbLine
 10
160.9033569094
 20
129.9226920862
 30
0.0
 11
160.9033569094
 21
129.2185890476
 31
0.0
  0
LINE
  5
B1
330
1F
100
AcDbEntity
  8
0
  6
Continuous
 62
     7
370
    25
100
AcDbLine
 10
160.2460761917
 20
129.9226920862
 30
0.0
 11
160.9033569094
 21
129.9226920862
 31
0.0
  0
LINE
  5
B2
330
1F
100
AcDbEntity
  8
0
  6
Continuous
 62
     7
370
    25
100
AcDbLine
 10
179.8793874043
 20
140.5226920862
 30
0.0
 11
183.7460761917
 21
140.5226920862
 31
0.0
  0
LINE
  5
B3
330
1F
100
AcDbEntity
  8
0
  6
Continuous
 62
     7
370
    25
100
AcDbLine
 10
182.5623891452
 20
140.9226920862
 30
0.0
 11
182.4048880101
 21
140.9226920862
 31
0.0
  0
LINE
  5
B4
330
1F
100
AcDbEntity
  8
0
  6
PHANTOM
 62
     7
370
    25
100
AcDbLine
 10
161.7460761917
 20
128.5226920862
 30
0.0
 11
165.2970774035
 21
128.5226920862
 31
0.0
  0
LINE
  5
B5
330
1F
100
AcDbEntity
  8
0
  6
PHANTOM
 62
     7
370
    25
100
AcDbLine
 10
183.683550558
 20
94.3389314941
 30
0.0
 11
183.683550558
 21
94.3442150649
 31
0.0
  0
LINE
  5
B6
330
1F
100
AcDbEntity
  8
0
  6
PHANTOM
 62
     7
370
    25
100
AcDbLine
 10
183.6766578438
 20
94.349919809
 30
0.0
 11
183.6960761917
 21
94.349919809
 31
0.0
  0
LINE
  5
B7
330
1F
100
AcDbEntity
  8
0
  6
PHANTOM
 62
     7
370
    25
100
AcDbLine
 10
183.6766578438
 20
94.3389314941
 30
0.0
 11
183.6766578438
 21
94.349919809
 31
0.0
  0
LINE
  5
B8
330
1F
100
AcDbEntity
  8
0
  6
PHANTOM
 62
     7
370
    25
100
AcDbLine
 10
183.6766578438
 20
94.3389314941
 30
0.0
 11
183.6629294909
 21
94.3389314941
 31
0.0
  0
LINE
  5
B9
330
1F
100
AcDbEntity
  8
0
  6
PHANTOM
 62
     7
370
    25
100
AcDbLine
 10
183.6629294909
 20
94.3389314941
 30
0.0
 11
183.6629294909
 21
94.349919809
 31
0.0
  0
LINE
  5
BA
330
1F
100
AcDbEntity
  8
0
  6
PHANTOM
 62
     7
370
    25
100
AcDbLine
 10
183.5087707505
 20
94.349919809
 30
0.0
 11
183.6629294909
 21
94.349919809
 31
0.0
  0
LINE
  5
BB
330
1F
100
AcDbEntity
  8
0
  6
PHANTOM
 62
     7
370
    25
100
AcDbLine
 10
183.5087707505
 20
94.3389314941
 30
0.0
 11
183.5087707505
 21
94.349919809
 31
0.0
  0
LINE
  5
BC
330
1F
100
AcDbEntity
  8
0
  6
PHANTOM
 62
     7
370
    25
100
AcDbLine
 10
183.5087707505
 20
94.3389314941
 30
0.0
 11
183.4701431259
 21
94.3389314941
 31
0.0
  0
LINE
  5
BD
330
1F
100
AcDbEntity
  8
0
  6
PHANTOM
 62
     7
370
    25
100
AcDbLine
 10
183.4701431259
 20
94.3389314941
 30
0.0
 11
183.4701431259
 21
94.349919809
 31
0.0
  0
LINE
  5
BE
330
1F
100
AcDbEntity
  8
0
  6
PHANTOM
 62
     7
370
    25
100
AcDbLine
 10
183.1711495346
 20
94.349919809
 30
0.0
 11
183.4701431259
 21
94.349919809
 31
0.0
  0
LINE
  5
BF
330
1F
100
AcDbEntity
  8
0
  6
PHANTOM
 62
     7
370
    25
100
AcDbLine
 10
183.1711495346
 20
94.3389314941
 30
0.0
 11
183.1711495346
 21
94.349919809
 31
0.0
  0
LINE
  5
C0
330
1F
100
AcDbEntity
  8
0
  6
PHANTOM
 62
     7
370
    25
100
AcDbLine
 10
183.1711495346
 20
94.3389314941
 30
0.0
 11
183.1082318191
 21
94.3389314941
 31
0.0
  0
LINE
  5
C1
330
1F
100
AcDbEntity
  8
0
  6
PHANTOM
 62
     7
370
    25
100
AcDbLine
 10
183.1082318191
 20
94.3389314941
 30
0.0
 11
183.1082318191
 21
94.349919809
 31
0.0
  0
LINE
  5
C2
330
1F
100
AcDbEntity
  8
0
  6
PHANTOM
 62
     7
370
    25
100
AcDbLine
 10
182.6691186845
 20
94.349919809
 30
0.0
 11
183.1082318191
 21
94.349919809
 31
0.0
  0
LINE
  5
C3
330
1F
100
AcDbEntity
  8
0
  6
PHANTOM
 62
     7
370
    25
100
AcDbLine
 10
182.6691186845
 20
94.3389314941
 30
0.0
 11
182.6691186845
 21
94.349919809
 31
0.0
  0
LINE
  5
C4
330
1F
100
AcDbEntity
  8
0
  6
PHANTOM
 62
     7
370
    25
100
AcDbLine
 10
182.6691186845
 20
94.3389314941
 30
0.0
 11
182.582903128
 21
94.3389314941
 31
0.0
  0
LINE
  5
C5
330
1F
100
AcDbEntity
  8
0
  6
PHANTOM
 62
     7
370
    25
100
AcDbLine
 10
182.582903128
 20
94.3389314941
 30
0.0
 11
182.582903128
 21
94.349919809
 31
0.0
  0
LINE
  5
C6
330
1F
100
AcDbEntity
  8
0
  6
PHANTOM
 62
     7
370
    25
100
AcDbLine
 10
182.0105955266
 20
94.349919809
 30
0.0
 11
182.582903128
 21
94.349919809
 31
0.0
  0
LINE
  5
C7
330
1F
100
AcDbEntity
  8
0
  6
PHANTOM
 62
     7
370
    25
100
AcDbLine
 10
182.0105955266
 20
94.3389314941
 30
0.0
 11
182.0105955266
 21
94.349919809
 31
0.0
  0
LINE
  5
C8
330
1F
100
AcDbEntity
  8
0
  6
PHANTOM
 62
     7
370
    25
100
AcDbLine
 10
182.0105955266
 20
94.3389314941
 30
0.0
 11
181.9024417999
 21
94.3389314941
 31
0.0
  0
LINE
  5
C9
330
1F
100
AcDbEntity
  8
0
  6
PHANTOM
 62
     7
370
    25
100
AcDbLine
 10
181.9024417999
 20
94.3389314941
 30
0.0
 11
181.9024417999
 21
94.349919809
 31
0.0
  0
LINE
  5
CA
330
1F
100
AcDbEntity
  8
0
  6
PHANTOM
 62
     7
370
    25
100
AcDbLine
 10
181.2059653644
 20
94.349919809
 30
0.0
 11
181.9024417999
 21
94.349919809
 31
0.0
  0
LINE
  5
CB
330
1F
100
AcDbEntity
  8
0
  6
PHANTOM
 62
     7
370
    25
100
AcDbLine
 10
181.2059653644
 20
94.3389314941
 30
0.0
 11
181.2059653644
 21
94.349919809
 31
0.0
  0
LINE
  5
CC
330
1F
100
AcDbEntity
  8
0
  6
PHANTOM
 62
     7
370
    25
100
AcDbLine
 10
181.2059653644
 20
94.3389314941
 30
0.0
 11
181.0775791164
 21
94.3389314941
 31
0.0
  0
LINE
  5
CD
330
1F
100
AcDbEntity
  8
0
  6
PHANTOM
 62
     7
370
    25
100
AcDbLine
 10
181.0775791164
 20
94.3389314941
 30
0.0
 11
181.0775791164
 21
94.349919809
 31
0.0
  0
LINE
  5
CE
330
1F
100
AcDbEntity
  8
0
  6
PHANTOM
 62
     7
370
    25
100
AcDbLine
 10
180.2679176962
 20
94.349919809
 30
0.0
 11
181.0775791164
 21
94.349919809
 31
0.0
  0
LINE
  5
CF
330
1F
100
AcDbEntity
  8
0
  6
PHANTOM
 62
     7
370
    25
100
AcDbLine
 10
180.2679176962
 20
94.3389314941
 30
0.0
 11
180.2679176962
 21
94.349919809
 31
0.0
  0
LINE
  5
D0
330
1F
100
AcDbEntity
  8
0
  6
PHANTOM
 62
     7
370
    25
100
AcDbLine
 10
180.2679176962
 20
94.3389314941
 30
0.0
 11
180.1213236548
 21
94.3389314941
 31
0.0
  0
LINE
  5
D1
330
1F
100
AcDbEntity
  8
0
  6
PHANTOM
 62
     7
370
    25
100
AcDbLine
 10
180.1213236548
 20
94.3389314941
 30
0.0
 11
180.1213236548
 21
94.349919809
 31
0.0
  0
LINE
  5
D2
330
1F
100
AcDbEntity
  8
0
  6
PHANTOM
 62
     7
370
    25
100
AcDbLine
 10
179.2112460942
 20
94.349919809
 30
0.0
 11
180.1213236548
 21
94.349919809
 31
0.0
  0
LINE
  5
D3
330
1F
100
AcDbEntity
  8
0
  6
PHANTOM
 62
     7
370
    25
100
AcDbLine
 10
179.2112460942
 20
94.3389314941
 30
0.0
 11
179.2112460942
 21
94.349919809
 31
0.0
  0
LINE
  5
D4
330
1F
100
AcDbEntity
  8
0
  6
PHANTOM
 62
     7
370
    25
100
AcDbLine
 10
179.2112460942
 20
94.3389314941
 30
0.0
 11
179.0487561349
 21
94.3389314941
 31
0.0
  0
LINE
  5
D5
330
1F
100
AcDbEntity
  8
0
  6
PHANTOM
 62
     7
370
    25
100
AcDbLine
 10
179.0487561349
 20
94.3389314941
 30
0.0
 11
179.0487561349
 21
94.349919809
 31
0.0
  0
LINE
  5
D6
330
1F
100
AcDbEntity
  8
0
  6
PHANTOM
 62
     7
370
    25
100
AcDbLine
 10
178.0526149007
 20
94.349919809
 30
0.0
 11
179.0487561349
 21
94.349919809
 31
0.0
  0
LINE
  5
D7
330
1F
100
AcDbEntity
  8
0
  6
PHANTOM
 62
     7
370
    25
100
AcDbLine
 10
178.0526149007
 20
94.3389314941
 30
0.0
 11
178.0526149007
 21
94.349919809
 31
0.0
  0
LINE
  5
D8
330
1F
100
AcDbEntity
  8
0
  6
PHANTOM
 62
     7
370
    25
100
AcDbLine
 10
178.0526149007
 20
94.3389314941
 30
0.0
 11
177.8767915872
 21
94.3389314941
 31
0.0
  0
LINE
  5
D9
330
1F
100
AcDbEntity
  8
0
  6
PHANTOM
 62
     7
370
    25
100
AcDbLine
 10
177.8767915872
 20
94.3389314941
 30
0.0
 11
177.8767915872
 21
94.349919809
 31
0.0
  0
LINE
  5
DA
330
1F
100
AcDbEntity
  8
0
  6
PHANTOM
 62
     7
370
    25
100
AcDbLine
 10
176.8102964218
 20
94.349919809
 30
0.0
 11
177.8767915872
 21
94.349919809
 31
0.0
  0
LINE
  5
DB
330
1F
100
AcDbEntity
  8
0
  6
PHANTOM
 62
     7
370
    25
100
AcDbLine
 10
176.8102964218
 20
94.3389314941
 30
0.0
 11
176.8102964218
 21
94.349919809
 31
0.0
  0
LINE
  5
DC
330
1F
100
AcDbEntity
  8
0
  6
PHANTOM
 62
     7
370
    25
100
AcDbLine
 10
176.8102964218
 20
94.3389314941
 30
0.0
 11
176.6239125929
 21
94.3389314941
 31
0.0
  0
LINE
  5
DD
330
1F
100
AcDbEntity
  8
0
  6
PHANTOM
 62
     7
370
    25
100
AcDbLine
 10
176.6239125929
 20
94.3389314941
 30
0.0
 11
176.6239125929
 21
94.349919809
 31
0.0
  0
LINE
  5
DE
330
1F
100
AcDbEntity
  8
0
  6
PHANTOM
 62
     7
370
    25
100
AcDbLine
 10
175.503882762
 20
94.349919809
 30
0.0
 11
176.6239125929
 21
94.349919809
 31
0.0
  0
LINE
  5
DF
330
1F
100
AcDbEntity
  8
0
  6
PHANTOM
 62
     7
370
    25
100
AcDbLine
 10
175.503882762
 20
94.3389314941
 30
0.0
 11
175.503882762
 21
94.349919809
 31
0.0
  0
LINE
  5
E0
330
1F
100
AcDbEntity
  8
0
  6
PHANTOM
 62
     7
370
    25
100
AcDbLine
 10
175.503882762
 20
94.3389314941
 30
0.0
 11
175.309877802
 21
94.3389314941
 31
0.0
  0
LINE
  5
E1
330
1F
100
AcDbEntity
  8
0
  6
PHANTOM
 62
     7
370
    25
100
AcDbLine
 10
175.309877802
 20
94.3389314941
 30
0.0
 11
175.309877802
 21
94.349919809
 31
0.0
  0
LINE
  5
E2
330
1F
100
AcDbEntity
  8
0
  6
PHANTOM
 62
     7
370
    25
100
AcDbLine
 10
174.1539768452
 20
94.349919809
 30
0.0
 11
175.309877802
 21
94.349919809
 31
0.0
  0
LINE
  5
E3
330
1F
100
AcDbEntity
  8
0
  6
PHANTOM
 62
     7
370
    25
100
AcDbLine
 10
174.1539768452
 20
94.3389314941
 30
0.0
 11
174.1539768452
 21
94.349919809
 31
0.0
  0
LINE
  5
E4
330
1F
100
AcDbEntity
  8
0
  6
PHANTOM
 62
     7
370
    25
100
AcDbLine
 10
174.1539768452
 20
94.3389314941
 30
0.0
 11
173.9554103282
 21
94.3389314941
 31
0.0
  0
LINE
  5
E5
330
1F
100
AcDbEntity
  8
0
  6
PHANTOM
 62
     7
370
    25
100
AcDbLine
 10
173.9554103282
 20
94.3389314941
 30
0.0
 11
173.9554103282
 21
94.349919809
 31
0.0
  0
LINE
  5
E6
330
1F
100
AcDbEntity
  8
0
  6
PHANTOM
 62
     7
370
    25
100
AcDbLine
 10
172.781867494
 20
94.349919809
 30
0.0
 11
173.9554103282
 21
94.349919809
 31
0.0
  0
LINE
  5
E7
330
1F
100
AcDbEntity
  8
0
  6
PHANTOM
 62
     7
370
    25
100
AcDbLine
 10
172.781867494
 20
94.3389314941
 30
0.0
 11
172.781867494
 21
94.349919809
 31
0.0
  0
LINE
  5
E8
330
1F
100
AcDbEntity
  8
0
  6
PHANTOM
 62
     7
370
    25
100
AcDbLine
 10
172.781867494
 20
94.3389314941
 30
0.0
 11
172.5818709326
 21
94.3389314941
 31
0.0
  0
LINE
  5
E9
330
1F
100
AcDbEntity
  8
0
  6
PHANTOM
 62
     7
370
    25
100
AcDbLine
 10
172.5818709326
 20
94.3389314941
 30
0.0
 11
172.5818709326
 21
94.349919809
 31
0.0
  0
LINE
  5
EA
330
1F
100
AcDbEntity
  8
0
  6
PHANTOM
 62
     7
370
    25
100
AcDbLine
 10
171.4091936926
 20
94.349919809
 30
0.0
 11
172.5818709326
 21
94.349919809
 31
0.0
  0
LINE
  5
EB
330
1F
100
AcDbEntity
  8
0
  6
PHANTOM
 62
     7
370
    25
100
AcDbLine
 10
171.4091936926
 20
94.3389314941
 30
0.0
 11
171.4091936926
 21
94.349919809
 31
0.0
  0
LINE
  5
EC
330
1F
100
AcDbEntity
  8
0
  6
PHANTOM
 62
     7
370
    25
100
AcDbLine
 10
171.4091936926
 20
94.3389314941
 30
0.0
 11
171.210921152
 21
94.3389314941
 31
0.0
  0
LINE
  5
ED
330
1F
100
AcDbEntity
  8
0
  6
PHANTOM
 62
     7
370
    25
100
AcDbLine
 10
171.210921152
 20
94.3389314941
 30
0.0
 11
171.210921152
 21
94.349919809
 31
0.0
  0
LINE
  5
EE
330
1F
100
AcDbEntity
  8
0
  6
PHANTOM
 62
     7
370
    25
100
AcDbLine
 10
170.0576033269
 20
94.349919809
 30
0.0
 11
171.210921152
 21
94.349919809
 31
0.0
  0
LINE
  5
EF
330
1F
100
AcDbEntity
  8
0
  6
PHANTOM
 62
     7
370
    25
100
AcDbLine
 10
170.0576033269
 20
94.3389314941
 30
0.0
 11
170.0576033269
 21
94.349919809
 31
0.0
  0
LINE
  5
F0
330
1F
100
AcDbEntity
  8
0
  6
PHANTOM
 62
     7
370
    25
100
AcDbLine
 10
170.0576033269
 20
94.3389314941
 30
0.0
 11
169.8641816835
 21
94.3389314941
 31
0.0
  0
LINE
  5
F1
330
1F
100
AcDbEntity
  8
0
  6
PHANTOM
 62
     7
370
    25
100
AcDbLine
 10
169.8641816835
 20
94.3389314941
 30
0.0
 11
169.8641816835
 21
94.349919809
 31
0.0
  0
LINE
  5
F2
330
1F
100
AcDbEntity
  8
0
  6
PHANTOM
 62
     7
370
    25
100
AcDbLine
 10
168.7484117842
 20
94.349919809
 30
0.0
 11
169.8641816835
 21
94.349919809
 31
0.0
  0
LINE
  5
F3
330
1F
100
AcDbEntity
  8
0
  6
PHANTOM
 62
     7
370
    25
100
AcDbLine
 10
168.7484117842
 20
94.3389314941
 30
0.0
 11
168.7484117842
 21
94.349919809
 31
0.0
  0
LINE
  5
F4
330
1F
100
AcDbEntity
  8
0
  6
PHANTOM
 62
     7
370
    25
100
AcDbLine
 10
168.7484117842
 20
94.3389314941
 30
0.0
 11
168.5628914129
 21
94.3389314941
 31
0.0
  0
LINE
  5
F5
330
1F
100
AcDbEntity
  8
0
  6
PHANTOM
 62
     7
370
    25
100
AcDbLine
 10
168.5628914129
 20
94.3389314941
 30
0.0
 11
168.5628914129
 21
94.349919809
 31
0.0
  0
LINE
  5
F6
330
1F
100
AcDbEntity
  8
0
  6
PHANTOM
 62
     7
370
    25
100
AcDbLine
 10
167.5022657973
 20
94.349919809
 30
0.0
 11
168.5628914129
 21
94.349919809
 31
0.0
  0
LINE
  5
F7
330
1F
100
AcDbEntity
  8
0
  6
PHANTOM
 62
     7
370
    25
100
AcDbLine
 10
167.5022657973
 20
94.3389314941
 30
0.0
 11
167.5022657973
 21
94.349919809
 31
0.0
  0
LINE
  5
F8
330
1F
100
AcDbEntity
  8
0
  6
PHANTOM
 62
     7
370
    25
100
AcDbLine
 10
167.5022657973
 20
94.3389314941
 30
0.0
 11
167.3275724652
 21
94.3389314941
 31
0.0
  0
LINE
  5
F9
330
1F
100
AcDbEntity
  8
0
  6
PHANTOM
 62
     7
370
    25
100
AcDbLine
 10
167.3275724652
 20
94.3389314941
 30
0.0
 11
167.3275724652
 21
94.349919809
 31
0.0
  0
LINE
  5
FA
330
1F
100
AcDbEntity
  8
0
  6
PHANTOM
 62
     7
370
    25
100
AcDbLine
 10
166.3388178329
 20
94.349919809
 30
0.0
 11
167.3275724652
 21
94.349919809
 31
0.0
  0
LINE
  5
FB
330
1F
100
AcDbEntity
  8
0
  6
PHANTOM
 62
     7
370
    25
100
AcDbLine
 10
166.3388178329
 20
94.3389314941
 30
0.0
 11
166.3388178329
 21
94.349919809
 31
0.0
  0
LINE
  5
FC
330
1F
100
AcDbEntity
  8
0
  6
PHANTOM
 62
     7
370
    25
100
AcDbLine
 10
166.3388178329
 20
94.3389314941
 30
0.0
 11
166.1777065581
 21
94.3389314941
 31
0.0
  0
LINE
  5
FD
330
1F
100
AcDbEntity
  8
0
  6
PHANTOM
 62
     7
370
    25
100
AcDbLine
 10
166.1777065581
 20
94.3389314941
 30
0.0
 11
166.1777065581
 21
94.349919809
 31
0.0
  0
LINE
  5
FE
330
1F
100
AcDbEntity
  8
0
  6
PHANTOM
 62
     7
370
    25
100
AcDbLine
 10
165.2764161603
 20
94.349919809
 30
0.0
 11
166.1777065581
 21
94.349919809
 31
0.0
  0
LINE
  5
FF
330
1F
100
AcDbEntity
  8
0
  6
PHANTOM
 62
     7
370
    25
100
AcDbLine
 10
165.2764161603
 20
94.3389314941
 30
0.0
 11
165.2764161603
 21
94.349919809
 31
0.0
  0
LINE
  5
100
330
1F
100
AcDbEntity
  8
0
  6
PHANTOM
 62
     7
370
    25
100
AcDbLine
 10
165.2764161603
 20
94.3389314941
 30
0.0
 11
165.1314277639
 21
94.3389314941
 31
0.0
  0
LINE
  5
101
330
1F
100
AcDbEntity
  8
0
  6
PHANTOM
 62
     7
370
    25
100
AcDbLine
 10
165.1314277639
 20
94.3389314941
 30
0.0
 11
165.1314277639
 21
94.349919809
 31
0.0
  0
LINE
  5
102
330
1F
100
AcDbEntity
  8
0
  6
PHANTOM
 62
     7
370
    25
100
AcDbLine
 10
164.3318154885
 20
94.349919809
 30
0.0
 11
165.1314277639
 21
94.349919809
 31
0.0
  0
LINE
  5
103
330
1F
100
AcDbEntity
  8
0
  6
PHANTOM
 62
     7
370
    25
100
AcDbLine
 10
164.3318154885
 20
94.3389314941
 30
0.0
 11
164.3318154885
 21
94.349919809
 31
0.0
  0
LINE
  5
104
330
1F
100
AcDbEntity
  8
0
  6
PHANTOM
 62
     7
370
    25
100
AcDbLine
 10
164.3318154885
 20
94.3389314941
 30
0.0
 11
164.2052365242
 21
94.3389314941
 31
0.0
  0
LINE
  5
105
330
1F
100
AcDbEntity
  8
0
  6
PHANTOM
 62
     7
370
    25
100
AcDbLine
 10
164.2052365242
 20
94.3389314941
 30
0.0
 11
164.2052365242
 21
94.349919809
 31
0.0
  0
LINE
  5
106
330
1F
100
AcDbEntity
  8
0
  6
PHANTOM
 62
     7
370
    25
100
AcDbLine
 10
163.5199127345
 20
94.349919809
 30
0.0
 11
164.2052365242
 21
94.349919809
 31
0.0
  0
LINE
  5
107
330
1F
100
AcDbEntity
  8
0
  6
PHANTOM
 62
     7
370
    25
100
AcDbLine
 10
163.5199127345
 20
94.3389314941
 30
0.0
 11
163.5199127345
 21
94.349919809
 31
0.0
  0
LINE
  5
108
330
1F
100
AcDbEntity
  8
0
  6
PHANTOM
 62
     7
370
    25
100
AcDbLine
 10
163.5199127345
 20
94.3389314941
 30
0.0
 11
163.4137394281
 21
94.3389314941
 31
0.0
  0
LINE
  5
109
330
1F
100
AcDbEntity
  8
0
  6
PHANTOM
 62
     7
370
    25
100
AcDbLine
 10
163.4137394281
 20
94.3389314941
 30
0.0
 11
163.4137394281
 21
94.349919809
 31
0.0
  0
LINE
  5
10A
330
1F
100
AcDbEntity
  8
0
  6
PHANTOM
 62
     7
370
    25
100
AcDbLine
 10
162.8535120896
 20
94.349919809
 30
0.0
 11
163.4137394281
 21
94.349919809
 31
0.0
  0
LINE
  5
10B
330
1F
100
AcDbEntity
  8
0
  6
PHANTOM
 62
     7
370
    25
100
AcDbLine
 10
162.8535120896
 20
94.3389314941
 30
0.0
 11
162.8535120896
 21
94.349919809
 31
0.0
  0
LINE
  5
10C
330
1F
100
AcDbEntity
  8
0
  6
PHANTOM
 62
     7
370
    25
100
AcDbLine
 10
162.8535120896
 20
94.3389314941
 30
0.0
 11
162.7694188576
 21
94.3389314941
 31
0.0
  0
LINE
  5
10D
330
1F
100
AcDbEntity
  8
0
  6
PHANTOM
 62
     7
370
    25
100
AcDbLine
 10
162.7694188576
 20
94.3389314941
 30
0.0
 11
162.7694188576
 21
94.349919809
 31
0.0
  0
LINE
  5
10E
330
1F
100
AcDbEntity
  8
0
  6
PHANTOM
 62
     7
370
    25
100
AcDbLine
 10
162.3431230902
 20
94.349919809
 30
0.0
 11
162.7694188576
 21
94.349919809
 31
0.0
  0
LINE
  5
10F
330
1F
100
AcDbEntity
  8
0
  6
PHANTOM
 62
     7
370
    25
100
AcDbLine
 10
162.3431230902
 20
94.3389314941
 30
0.0
 11
162.3431230902
 21
94.349919809
 31
0.0
  0
LINE
  5
110
330
1F
100
AcDbEntity
  8
0
  6
PHANTOM
 62
     7
370
    25
100
AcDbLine
 10
162.3431230902
 20
94.3389314941
 30
0.0
 11
162.2824361331
 21
94.3389314941
 31
0.0
  0
LINE
  5
111
330
1F
100
AcDbEntity
  8
0
  6
PHANTOM
 62
     7
370
    25
100
AcDbLine
 10
162.2824361331
 20
94.3389314941
 30
0.0
 11
162.2824361331
 21
94.349919809
 31
0.0
  0
LINE
  5
112
330
1F
100
AcDbEntity
  8
0
  6
PHANTOM
 62
     7
370
    25
100
AcDbLine
 10
161.9967948755
 20
94.349919809
 30
0.0
 11
162.2824361331
 21
94.349919809
 31
0.0
  0
LINE
  5
113
330
1F
100
AcDbEntity
  8
0
  6
PHANTOM
 62
     7
370
    25
100
AcDbLine
 10
161.9967948755
 20
94.3389314941
 30
0.0
 11
161.9967948755
 21
94.349919809
 31
0.0
  0
LINE
  5
114
330
1F
100
AcDbEntity
  8
0
  6
PHANTOM
 62
     7
370
    25
100
AcDbLine
 10
161.9967948755
 20
94.3389314941
 30
0.0
 11
161.9604712629
 21
94.3389314941
 31
0.0
  0
LINE
  5
115
330
1F
100
AcDbEntity
  8
0
  6
PHANTOM
 62
     7
370
    25
100
AcDbLine
 10
161.9604712629
 20
94.3389314941
 30
0.0
 11
161.9604712629
 21
94.349919809
 31
0.0
  0
LINE
  5
116
330
1F
100
AcDbEntity
  8
0
  6
PHANTOM
 62
     7
370
    25
100
AcDbLine
 10
161.8199892486
 20
94.349919809
 30
0.0
 11
161.9604712629
 21
94.349919809
 31
0.0
  0
LINE
  5
117
330
1F
100
AcDbEntity
  8
0
  6
PHANTOM
 62
     7
370
    25
100
AcDbLine
 10
161.8199892486
 20
94.3389314941
 30
0.0
 11
161.8199892486
 21
94.349919809
 31
0.0
  0
LINE
  5
118
330
1F
100
AcDbEntity
  8
0
  6
PHANTOM
 62
     7
370
    25
100
AcDbLine
 10
161.8199892486
 20
94.3389314941
 30
0.0
 11
161.8086018255
 21
94.3389314941
 31
0.0
  0
LINE
  5
119
330
1F
100
AcDbEntity
  8
0
  6
PHANTOM
 62
     7
370
    25
100
AcDbLine
 10
161.8086018255
 20
94.3389314941
 30
0.0
 11
161.8086018255
 21
94.349919809
 31
0.0
  0
LINE
  5
11A
330
1F
100
AcDbEntity
  8
0
  6
PHANTOM
 62
     7
370
    25
100
AcDbLine
 10
161.7960761917
 20
94.349919809
 30
0.0
 11
161.8086018255
 21
94.349919809
 31
0.0
  0
LINE
  5
11B
330
1F
100
AcDbEntity
  8
0
  6
PHANTOM
 62
     7
370
    25
100
AcDbLine
 10
166.8460761917
 20
92.049919809
 30
0.0
 11
178.6460761917
 21
92.049919809
 31
0.0
  0
LINE
  5
11C
330
1F
100
AcDbEntity
  8
0
  6
PHANTOM
 62
     7
370
    25
100
AcDbLine
 10
161.8199892486
 20
94.349919809
 30
0.0
 11
163.3171000088
 21
93.6669924619
 31
0.0
  0
LINE
  5
11D
330
1F
100
AcDbEntity
  8
0
  6
PHANTOM
 62
     7
370
    25
100
AcDbLine
 10
161.9967948755
 20
94.349919809
 30
0.0
 11
163.4713995596
 21
93.6669924619
 31
0.0
  0
LWPOLYLINE
  5
11E
330
1F
100
AcDbEntity
  8
0
  6
PHANTOM
 62
     7
370
    25
100
AcDbPolyline
 90
        3
 70
   128
 43
0.0
 10
162.3431230902
 20
94.349919809
 10
162.6929629696
 20
94.182710101
 10
164.7248185097
 20
93.2115754326
  0
LINE
  5
11F
330
1F
100
AcDbEntity
  8
0
  6
PHANTOM
 62
     7
370
    25
100
AcDbLine
 10
162.8535120896
 20
94.349919809
 30
0.0
 11
164.2140601169
 21
93.6669924619
 31
0.0
  0
LINE
  5
120
330
1F
100
AcDbEntity
  8
0
  6
PHANTOM
 62
     7
370
    25
100
AcDbLine
 10
163.5199127345
 20
94.349919809
 30
0.0
 11
164.7907089227
 21
93.6669924619
 31
0.0
  0
LINE
  5
121
330
1F
100
AcDbEntity
  8
0
  6
PHANTOM
 62
     7
370
    25
100
AcDbLine
 10
164.3318154885
 20
94.349919809
 30
0.0
 11
165.4928186227
 21
93.6669924619
 31
0.0
  0
LINE
  5
122
330
1F
100
AcDbEntity
  8
0
  6
PHANTOM
 62
     7
370
    25
100
AcDbLine
 10
165.2764161603
 20
94.349919809
 30
0.0
 11
166.3093165274
 21
93.6669924619
 31
0.0
  0
LWPOLYLINE
  5
123
330
1F
100
AcDbEntity
  8
0
  6
PHANTOM
 62
     7
370
    25
100
AcDbPolyline
 90
        3
 70
   128
 43
0.0
 10
166.3388178329
 20
94.349919809
 10
166.5563613532
 20
94.182710101
 10
167.819845115
 20
93.2115754326
  0
LINE
  5
124
330
1F
100
AcDbEntity
  8
0
  6
PHANTOM
 62
     7
370
    25
100
AcDbLine
 10
167.5022657973
 20
94.349919809
 30
0.0
 11
168.2323694146
 21
93.6669924619
 31
0.0
  0
LINE
  5
125
330
1F
100
AcDbEntity
  8
0
  6
PHANTOM
 62
     7
370
    25
100
AcDbLine
 10
168.7484117842
 20
94.349919809
 30
0.0
 11
169.3085967043
 21
93.6669924619
 31
0.0
  0
LINE
  5
126
330
1F
100
AcDbEntity
  8
0
  6
PHANTOM
 62
     7
370
    25
100
AcDbLine
 10
170.0576033269
 20
94.349919809
 30
0.0
 11
170.4390350989
 21
93.6669924619
 31
0.0
  0
LINE
  5
127
330
1F
100
AcDbEntity
  8
0
  6
PHANTOM
 62
     7
370
    25
100
AcDbLine
 10
171.4091936926
 20
94.349919809
 30
0.0
 11
171.6058569097
 21
93.6669924619
 31
0.0
  0
LWPOLYLINE
  5
128
330
1F
100
AcDbEntity
  8
0
  6
PHANTOM
 62
     7
370
    25
100
AcDbPolyline
 90
        3
 70
   128
 43
0.0
 10
172.781867494
 20
94.349919809
 10
172.7840204244
 20
94.182710101
 10
172.7965245552
 20
93.2115754326
  0
LINE
  5
129
330
1F
100
AcDbEntity
  8
0
  6
PHANTOM
 62
     7
370
    25
100
AcDbLine
 10
173.776194769
 20
93.6669924619
 30
0.0
 11
173.9554103282
 21
94.349919809
 31
0.0
  0
LINE
  5
12A
330
1F
100
AcDbEntity
  8
0
  6
PHANTOM
 62
     7
370
    25
100
AcDbLine
 10
174.9454798544
 20
93.6669924619
 30
0.0
 11
175.309877802
 21
94.349919809
 31
0.0
  0
LINE
  5
12B
330
1F
100
AcDbEntity
  8
0
  6
PHANTOM
 62
     7
370
    25
100
AcDbLine
 10
176.0800790302
 20
93.6669924619
 30
0.0
 11
176.6239125929
 21
94.349919809
 31
0.0
  0
LINE
  5
12C
330
1F
100
AcDbEntity
  8
0
  6
PHANTOM
 62
     7
370
    25
100
AcDbLine
 10
177.1620989896
 20
93.6669924619
 30
0.0
 11
177.8767915872
 21
94.349919809
 31
0.0
  0
LWPOLYLINE
  5
12D
330
1F
100
AcDbEntity
  8
0
  6
PHANTOM
 62
     7
370
    25
100
AcDbPolyline
 90
        3
 70
   128
 43
0.0
 10
177.591444476
 20
93.2115754326
 10
178.8346961292
 20
94.182710101
 10
179.0487561349
 20
94.349919809
  0
LINE
  5
12E
330
1F
100
AcDbEntity
  8
0
  6
PHANTOM
 62
     7
370
    25
100
AcDbLine
 10
179.1012431714
 20
93.6669924619
 30
0.0
 11
180.1213236548
 21
94.349919809
 31
0.0
  0
LINE
  5
12F
330
1F
100
AcDbEntity
  8
0
  6
PHANTOM
 62
     7
370
    25
100
AcDbLine
 10
179.9277859317
 20
93.6669924619
 30
0.0
 11
181.0775791164
 21
94.349919809
 31
0.0
  0
LINE
  5
130
330
1F
100
AcDbEntity
  8
0
  6
PHANTOM
 62
     7
370
    25
100
AcDbLine
 10
180.6410688392
 20
93.6669924619
 30
0.0
 11
181.9024417999
 21
94.349919809
 31
0.0
  0
LINE
  5
131
330
1F
100
AcDbEntity
  8
0
  6
PHANTOM
 62
     7
370
    25
100
AcDbLine
 10
181.2298429965
 20
93.6669924619
 30
0.0
 11
182.582903128
 21
94.349919809
 31
0.0
  0
LWPOLYLINE
  5
132
330
1F
100
AcDbEntity
  8
0
  6
PHANTOM
 62
     7
370
    25
100
AcDbPolyline
 90
        3
 70
   128
 43
0.0
 10
180.7355949616
 20
93.2115754326
 10
182.7597225238
 20
94.182710101
 10
183.1082318191
 20
94.349919809
  0
LINE
  5
133
330
1F
100
AcDbEntity
  8
0
  6
PHANTOM
 62
     7
370
    25
100
AcDbLine
 10
181.9988337918
 20
93.6669924619
 30
0.0
 11
183.4701431259
 21
94.349919809
 31
0.0
  0
LINE
  5
134
330
1F
100
AcDbEntity
  8
0
  6
PHANTOM
 62
     7
370
    25
100
AcDbLine
 10
182.1669229857
 20
93.6669924619
 30
0.0
 11
183.6629294909
 21
94.349919809
 31
0.0
  0
SPLINE
  5
135
330
1F
100
AcDbEntity
  8
0
  6
PHANTOM
 62
     7
370
    25
100
AcDbSpline
210
0.0
220
0.0
230
1.0
 70
     8
 71
     3
 72
    10
 73
     6
 74
     0
 42
0.000000001
 43
0.00000001
 40
0.0
 40
0.0
 40
0.0
 40
0.0
 40
0.2461079990924498
 40
0.7427085220997501
 40
1.0
 40
1.0
 40
1.0
 40
1.0
 10
178.4759155736475
 20
92.69999070762944
 30
0.0
 10
178.4201382896553
 20
92.70718841622208
 30
0.0
 10
178.2518127402486
 20
92.72890977241958
 30
0.0
 10
178.1362925641176
 20
92.8264345808538
 30
0.0
 10
178.1295102620961
 20
92.92894485351718
 30
0.0
 10
178.1271955691314
 20
92.96392999664346
 30
0.0
  0
LINE
  5
136
330
1F
100
AcDbEntity
  8
0
  6
PHANTOM
 62
     7
370
    25
100
AcDbLine
 10
178.1271955691
 20
92.9639299966
 30
0.0
 11
177.7431210836
 21
92.9431411143
 31
0.0
  0
LINE
  5
137
330
1F
100
AcDbEntity
  8
0
  6
PHANTOM
 62
     7
370
    25
100
AcDbLine
 10
177.7431210836
 20
92.9431411143
 30
0.0
 11
177.7402596004
 21
92.8741017531
 31
0.0
  0
SPLINE
  5
138
330
1F
100
AcDbEntity
  8
0
  6
PHANTOM
 62
     7
370
    25
100
AcDbSpline
210
0.0
220
0.0
230
1.0
 70
     8
 71
     3
 72
     9
 73
     5
 74
     0
 42
0.000000001
 43
0.00000001
 40
0.0
 40
0.0
 40
0.0
 40
0.0
 40
0.4976414611734195
 40
1.0
 40
1.0
 40
1.0
 40
1.0
 10
177.829604161972
 20
92.66773254835728
 30
0.0
 10
177.4095736225894
 20
92.64434583836368
 30
0.0
 10
176.5655311298434
 20
92.59735073884272
 30
0.0
 10
175.7248415286738
 20
92.7012895860793
 30
0.0
 10
175.3025139290235
 20
92.7535041535044
 30
0.0
  0
LINE
  5
139
330
1F
100
AcDbEntity
  8
0
  6
PHANTOM
 62
     7
370
    25
100
AcDbLine
 10
175.302513929
 20
92.7535041535
 30
0.0
 11
175.1062468886
 21
92.606282547
 31
0.0
  0
LINE
  5
13A
330
1F
100
AcDbEntity
  8
0
  6
PHANTOM
 62
     7
370
    25
100
AcDbLine
 10
167.7499784288
 20
92.3364553032
 30
0.0
 11
166.9803556085
 21
92.9144595911
 31
0.0
  0
SPLINE
  5
13B
330
1F
100
AcDbEntity
  8
0
  6
PHANTOM
 62
     7
370
    25
100
AcDbSpline
210
0.0
220
0.0
230
1.0
 70
     8
 71
     3
 72
    10
 73
     6
 74
     0
 42
0.000000001
 43
0.00000001
 40
0.0
 40
0.0
 40
0.0
 40
0.0
 40
0.0557987721556849
 40
0.6215420605628696
 40
1.0
 40
1.0
 40
1.0
 40
1.0
 10
170.2122187844976
 20
92.54922333341689
 30
0.0
 10
170.2136217837031
 20
92.55274806491764
 30
0.0
 10
170.2292497802242
 20
92.59201001989015
 30
0.0
 10
170.1745659538743
 20
92.66852993685131
 30
0.0
 10
170.0950906263328
 20
92.73461018724986
 30
0.0
 10
170.0632350559199
 20
92.76109669739816
 30
0.0
  0
SPLINE
  5
13C
330
1F
100
AcDbEntity
  8
0
  6
PHANTOM
 62
     7
370
    25
100
AcDbSpline
210
0.0
220
0.0
230
1.0
 70
     8
 71
     3
 72
    12
 73
     8
 74
     0
 42
0.000000001
 43
0.00000001
 40
0.0
 40
0.0
 40
0.0
 40
0.0
 40
0.2094872063929238
 40
0.3668716160318082
 40
0.523990130635131
 40
0.7568734330960689
 40
1.0
 40
1.0
 40
1.0
 40
1.0
 10
170.0632350559199
 20
92.76109669739816
 30
0.0
 10
169.9920641220972
 20
92.80708860677342
 30
0.0
 10
169.8674235965223
 20
92.88763350690088
 30
0.0
 10
169.6020199149772
 20
92.9761436326704
 30
0.0
 10
169.3029210933057
 20
93.03668651123556
 30
0.0
 10
168.9608867988631
 20
93.06588327303822
 30
0.0
 10
168.7346316939628
 20
93.06409652906333
 30
0.0
 10
168.619069747795
 20
93.06318393258894
 30
0.0
  0
SPLINE
  5
13D
330
1F
100
AcDbEntity
  8
0
  6
PHANTOM
 62
     7
370
    25
100
AcDbSpline
210
0.0
220
0.0
230
1.0
 70
     8
 71
     3
 72
    11
 73
     7
 74
     0
 42
0.000000001
 43
0.00000001
 40
0.0
 40
0.0
 40
0.0
 40
0.0
 40
0.1491221568561114
 40
0.4632532148399278
 40
0.7825052520591382
 40
1.0
 40
1.0
 40
1.0
 40
1.0
 10
169.8128416227253
 20
92.6022717362791
 30
0.0
 10
169.814825857932
 20
92.58846366683541
 30
0.0
 10
169.8209899542535
 20
92.5455684144102
 30
0.0
 10
169.7447263797958
 20
92.49170514888068
 30
0.0
 10
169.6269270134088
 20
92.45146400336415
 30
0.0
 10
169.5283704868967
 20
92.44144906262855
 30
0.0
 10
169.4884344733343
 20
92.43739091627137
 30
0.0
  0
SPLINE
  5
13E
330
1F
100
AcDbEntity
  8
0
  6
PHANTOM
 62
     7
370
    25
100
AcDbSpline
210
0.0
220
0.0
230
1.0
 70
     8
 71
     3
 72
    10
 73
     6
 74
     0
 42
0.000000001
 43
0.00000001
 40
0.0
 40
0.0
 40
0.0
 40
0.0
 40
0.2401814935760034
 40
0.5791286744516242
 40
1.0
 40
1.0
 40
1.0
 40
1.0
 10
169.4884344733343
 20
92.43739091627137
 30
0.0
 10
169.3697133466812
 20
92.43833546608462
 30
0.0
 10
169.0834514549577
 20
92.44061297661705
 30
0.0
 10
168.5237899963712
 20
92.57266055332002
 30
0.0
 10
168.1204783576576
 20
92.6963601689077
 30
0.0
 10
167.8970798716252
 20
92.7648786647617
 30
0.0
  0
SPLINE
  5
13F
330
1F
100
AcDbEntity
  8
0
  6
PHANTOM
 62
     7
370
    25
100
AcDbSpline
210
0.0
220
0.0
230
1.0
 70
     8
 71
     3
 72
    10
 73
     6
 74
     0
 42
0.000000001
 43
0.00000001
 40
0.0
 40
0.0
 40
0.0
 40
0.0
 40
0.4904370109829188
 40
0.7421702457321473
 40
0.9999999999999999
 40
0.9999999999999999
 40
0.9999999999999999
 40
0.9999999999999999
 10
167.8970798716252
 20
92.7648786647617
 30
0.0
 10
167.684755845352
 20
92.8321780940568
 30
0.0
 10
167.3634493957464
 20
92.93402121123405
 30
0.0
 10
166.9264097236909
 20
93.05805193198121
 30
0.0
 10
166.7118091719705
 20
93.10715185846196
 30
0.0
 10
166.6032251328854
 20
93.13199554266187
 30
0.0
  0
SPLINE
  5
140
330
1F
100
AcDbEntity
  8
0
  6
PHANTOM
 62
     7
370
    25
100
AcDbSpline
210
0.0
220
0.0
230
1.0
 70
     8
 71
     3
 72
    10
 73
     6
 74
     0
 42
0.000000001
 43
0.00000001
 40
0.0
 40
0.0
 40
0.0
 40
0.0
 40
0.4955501630525714
 40
0.7470128390127492
 40
1.0
 40
1.0
 40
1.0
 40
1.0
 10
166.6032251328854
 20
93.13199554266187
 30
0.0
 10
166.5522544581837
 20
93.14232156958467
 30
0.0
 10
166.475419152186
 20
93.15788745022088
 30
0.0
 10
166.3779285491804
 20
93.1741285839891
 30
0.0
 10
166.3316788434676
 20
93.18022219113013
 30
0.0
 10
166.3084841055812
 20
93.18327820236826
 30
0.0
  0
SPLINE
  5
141
330
1F
100
AcDbEntity
  8
0
  6
PHANTOM
 62
     7
370
    25
100
AcDbSpline
210
0.0
220
0.0
230
1.0
 70
     8
 71
     3
 72
     9
 73
     5
 74
     0
 42
0.000000001
 43
0.00000001
 40
0.0
 40
0.0
 40
0.0
 40
0.0
 40
0.5000000000000174
 40
1.0
 40
1.0
 40
1.0
 40
1.0
 10
172.5965279937645
 20
93.20058711767948
 30
0.0
 10
172.629860754005
 20
93.2004523751945
 30
0.0
 10
172.6965262744861
 20
93.20018289022453
 30
0.0
 10
172.7631917949673
 20
93.2004523751945
 30
0.0
 10
172.7965245552078
 20
93.20058711767948
 30
0.0
  0
LWPOLYLINE
  5
142
330
1F
100
AcDbEntity
  8
0
  6
PHANTOM
 62
     7
370
    25
100
AcDbPolyline
 90
        3
 70
   128
 43
0.0
 10
172.5818709326
 20
94.3389314941
 10
172.595428145
 20
93.286005919
 10
172.5965279938
 20
93.2005871177
  0
LWPOLYLINE
  5
143
330
1F
100
AcDbEntity
  8
0
  6
PHANTOM
 62
     7
370
    25
100
AcDbPolyline
 90
        3
 70
   128
 43
0.0
 10
172.7965245552
 20
93.2005871177
 10
172.7954247064
 20
93.286005919
 10
172.781867494
 20
94.3389314941
  0
LINE
  5
144
330
1F
100
AcDbEntity
  8
0
  6
PHANTOM
 62
     7
370
    25
100
AcDbLine
 10
172.7965245552
 20
93.2005871177
 30
0.0
 11
172.7965245552
 21
93.2115754326
 31
0.0
  0
LINE
  5
145
330
1F
100
AcDbEntity
  8
0
  6
PHANTOM
 62
     7
370
    25
100
AcDbLine
 10
171.407584369
 20
93.656004147
 30
0.0
 11
171.6058569097
 21
93.656004147
 31
0.0
  0
LINE
  5
146
330
1F
100
AcDbEntity
  8
0
  6
PHANTOM
 62
     7
370
    25
100
AcDbLine
 10
171.210921152
 20
94.3389314941
 30
0.0
 11
171.407584369
 21
93.656004147
 31
0.0
  0
LINE
  5
147
330
1F
100
AcDbEntity
  8
0
  6
PHANTOM
 62
     7
370
    25
100
AcDbLine
 10
171.6058569097
 20
93.656004147
 30
0.0
 11
171.4091936926
 21
94.3389314941
 31
0.0
  0
LINE
  5
148
330
1F
100
AcDbEntity
  8
0
  6
PHANTOM
 62
     7
370
    25
100
AcDbLine
 10
173.776194769
 20
93.656004147
 30
0.0
 11
173.974761286
 21
93.656004147
 31
0.0
  0
LINE
  5
149
330
1F
100
AcDbEntity
  8
0
  6
PHANTOM
 62
     7
370
    25
100
AcDbLine
 10
173.9554103282
 20
94.3389314941
 30
0.0
 11
173.776194769
 21
93.656004147
 31
0.0
  0
LINE
  5
14A
330
1F
100
AcDbEntity
  8
0
  6
PHANTOM
 62
     7
370
    25
100
AcDbLine
 10
173.974761286
 20
93.656004147
 30
0.0
 11
174.1539768452
 21
94.3389314941
 31
0.0
  0
LINE
  5
14B
330
1F
100
AcDbEntity
  8
0
  6
PHANTOM
 62
     7
370
    25
100
AcDbLine
 10
173.776194769
 20
93.656004147
 30
0.0
 11
173.776194769
 21
93.6669924619
 31
0.0
  0
LINE
  5
14C
330
1F
100
AcDbEntity
  8
0
  6
PHANTOM
 62
     7
370
    25
100
AcDbLine
 10
171.6058569097
 20
93.656004147
 30
0.0
 11
171.6058569097
 21
93.6669924619
 31
0.0
  0
LINE
  5
14D
330
1F
100
AcDbEntity
  8
0
  6
PHANTOM
 62
     7
370
    25
100
AcDbLine
 10
170.2456134555
 20
93.656004147
 30
0.0
 11
170.4390350989
 21
93.656004147
 31
0.0
  0
LINE
  5
14E
330
1F
100
AcDbEntity
  8
0
  6
PHANTOM
 62
     7
370
    25
100
AcDbLine
 10
169.8641816835
 20
94.3389314941
 30
0.0
 11
170.2456134555
 21
93.656004147
 31
0.0
  0
LINE
  5
14F
330
1F
100
AcDbEntity
  8
0
  6
PHANTOM
 62
     7
370
    25
100
AcDbLine
 10
170.4390350989
 20
93.656004147
 30
0.0
 11
170.0576033269
 21
94.3389314941
 31
0.0
  0
LINE
  5
150
330
1F
100
AcDbEntity
  8
0
  6
PHANTOM
 62
     7
370
    25
100
AcDbLine
 10
174.9454798544
 20
93.656004147
 30
0.0
 11
175.1394848144
 21
93.656004147
 31
0.0
  0
LINE
  5
151
330
1F
100
AcDbEntity
  8
0
  6
PHANTOM
 62
     7
370
    25
100
AcDbLine
 10
175.309877802
 20
94.3389314941
 30
0.0
 11
174.9454798544
 21
93.656004147
 31
0.0
  0
LINE
  5
152
330
1F
100
AcDbEntity
  8
0
  6
PHANTOM
 62
     7
370
    25
100
AcDbLine
 10
175.1394848144
 20
93.656004147
 30
0.0
 11
175.503882762
 21
94.3389314941
 31
0.0
  0
LINE
  5
153
330
1F
100
AcDbEntity
  8
0
  6
PHANTOM
 62
     7
370
    25
100
AcDbLine
 10
174.9454798544
 20
93.656004147
 30
0.0
 11
174.9454798544
 21
93.6669924619
 31
0.0
  0
LINE
  5
154
330
1F
100
AcDbEntity
  8
0
  6
PHANTOM
 62
     7
370
    25
100
AcDbLine
 10
170.4390350989
 20
93.656004147
 30
0.0
 11
170.4390350989
 21
93.6669924619
 31
0.0
  0
LINE
  5
155
330
1F
100
AcDbEntity
  8
0
  6
PHANTOM
 62
     7
370
    25
100
AcDbLine
 10
176.0800790302
 20
93.656004147
 30
0.0
 11
176.2664628591
 21
93.656004147
 31
0.0
  0
LINE
  5
156
330
1F
100
AcDbEntity
  8
0
  6
PHANTOM
 62
     7
370
    25
100
AcDbLine
 10
176.6239125929
 20
94.3389314941
 30
0.0
 11
176.0800790302
 21
93.656004147
 31
0.0
  0
LINE
  5
157
330
1F
100
AcDbEntity
  8
0
  6
PHANTOM
 62
     7
370
    25
100
AcDbLine
 10
176.2664628591
 20
93.656004147
 30
0.0
 11
176.8102964218
 21
94.3389314941
 31
0.0
  0
LINE
  5
158
330
1F
100
AcDbEntity
  8
0
  6
PHANTOM
 62
     7
370
    25
100
AcDbLine
 10
176.0800790302
 20
93.656004147
 30
0.0
 11
176.0800790302
 21
93.6669924619
 31
0.0
  0
LINE
  5
159
330
1F
100
AcDbEntity
  8
0
  6
PHANTOM
 62
     7
370
    25
100
AcDbLine
 10
169.123076333
 20
93.656004147
 30
0.0
 11
169.3085967043
 21
93.656004147
 31
0.0
  0
LINE
  5
15A
330
1F
100
AcDbEntity
  8
0
  6
PHANTOM
 62
     7
370
    25
100
AcDbLine
 10
168.5628914129
 20
94.3389314941
 30
0.0
 11
169.123076333
 21
93.656004147
 31
0.0
  0
LINE
  5
15B
330
1F
100
AcDbEntity
  8
0
  6
PHANTOM
 62
     7
370
    25
100
AcDbLine
 10
169.3085967043
 20
93.656004147
 30
0.0
 11
168.7484117842
 21
94.3389314941
 31
0.0
  0
LINE
  5
15C
330
1F
100
AcDbEntity
  8
0
  6
PHANTOM
 62
     7
370
    25
100
AcDbLine
 10
169.3085967043
 20
93.656004147
 30
0.0
 11
169.3085967043
 21
93.6669924619
 31
0.0
  0
LINE
  5
15D
330
1F
100
AcDbEntity
  8
0
  6
PHANTOM
 62
     7
370
    25
100
AcDbLine
 10
177.8767915872
 20
94.3389314941
 30
0.0
 11
177.1620989896
 21
93.656004147
 31
0.0
  0
LINE
  5
15E
330
1F
100
AcDbEntity
  8
0
  6
PHANTOM
 62
     7
370
    25
100
AcDbLine
 10
177.1620989896
 20
93.656004147
 30
0.0
 11
177.1620989896
 21
93.6669924619
 31
0.0
  0
LINE
  5
15F
330
1F
100
AcDbEntity
  8
0
  6
PHANTOM
 62
     7
370
    25
100
AcDbLine
 10
177.1620989896
 20
93.656004147
 30
0.0
 11
177.337922303
 21
93.656004147
 31
0.0
  0
LINE
  5
160
330
1F
100
AcDbEntity
  8
0
  6
PHANTOM
 62
     7
370
    25
100
AcDbLine
 10
177.337922303
 20
93.656004147
 30
0.0
 11
178.0526149007
 21
94.3389314941
 31
0.0
  0
LINE
  5
161
330
1F
100
AcDbEntity
  8
0
  6
PHANTOM
 62
     7
370
    25
100
AcDbLine
 10
168.0576760825
 20
93.656004147
 30
0.0
 11
168.2323694146
 21
93.656004147
 31
0.0
  0
LINE
  5
162
330
1F
100
AcDbEntity
  8
0
  6
PHANTOM
 62
     7
370
    25
100
AcDbLine
 10
167.3275724652
 20
94.3389314941
 30
0.0
 11
168.0576760825
 21
93.656004147
 31
0.0
  0
LINE
  5
163
330
1F
100
AcDbEntity
  8
0
  6
PHANTOM
 62
     7
370
    25
100
AcDbLine
 10
168.2323694146
 20
93.656004147
 30
0.0
 11
167.5022657973
 21
94.3389314941
 31
0.0
  0
LINE
  5
164
330
1F
100
AcDbEntity
  8
0
  6
PHANTOM
 62
     7
370
    25
100
AcDbLine
 10
168.2323694146
 20
93.656004147
 30
0.0
 11
168.2323694146
 21
93.6669924619
 31
0.0
  0
SPLINE
  5
165
330
1F
100
AcDbEntity
  8
0
  6
PHANTOM
 62
     7
370
    25
100
AcDbSpline
210
0.0
220
0.0
230
1.0
 70
     8
 71
     3
 72
     9
 73
     5
 74
     0
 42
0.000000001
 43
0.00000001
 40
0.0
 40
0.0
 40
0.0
 40
0.0
 40
0.4999999999999483
 40
1.0
 40
1.0
 40
1.0
 40
1.0
 10
177.5914444759769
 20
93.20058711767948
 30
0.0
 10
177.6185261358581
 20
93.2004523751945
 30
0.0
 10
177.6726894556205
 20
93.20018289022453
 30
0.0
 10
177.726852775383
 20
93.2004523751945
 30
0.0
 10
177.7539344352643
 20
93.20058711767948
 30
0.0
  0
LWPOLYLINE
  5
166
330
1F
100
AcDbEntity
  8
0
  6
PHANTOM
 62
     7
370
    25
100
AcDbPolyline
 90
        3
 70
   128
 43
0.0
 10
179.0487561349
 20
94.3389314941
 10
177.7007994463
 20
93.286005919
 10
177.591444476
 20
93.2005871177
  0
LWPOLYLINE
  5
167
330
1F
100
AcDbEntity
  8
0
  6
PHANTOM
 62
     7
370
    25
100
AcDbPolyline
 90
        3
 70
   128
 43
0.0
 10
177.7539344353
 20
93.2005871177
 10
177.8632894055
 20
93.286005919
 10
179.2112460942
 20
94.3389314941
  0
LINE
  5
168
330
1F
100
AcDbEntity
  8
0
  6
PHANTOM
 62
     7
370
    25
100
AcDbLine
 10
177.591444476
 20
93.2005871177
 30
0.0
 11
177.591444476
 21
93.2115754326
 31
0.0
  0
SPLINE
  5
169
330
1F
100
AcDbEntity
  8
0
  6
PHANTOM
 62
     7
370
    25
100
AcDbSpline
210
0.0
220
0.0
230
1.0
 70
     8
 71
     3
 72
     9
 73
     5
 74
     0
 42
0.000000001
 43
0.00000001
 40
0.0
 40
0.0
 40
0.0
 40
0.0
 40
0.5000000000000254
 40
1.0
 40
1.0
 40
1.0
 40
1.0
 10
167.6587338402259
 20
93.20058711767948
 30
0.0
 10
167.6855857193527
 20
93.2004523751945
 30
0.0
 10
167.7392894776064
 20
93.20018289022453
 30
0.0
 10
167.7929932358601
 20
93.2004523751945
 30
0.0
 10
167.8198451149869
 20
93.20058711767948
 30
0.0
  0
LWPOLYLINE
  5
16A
330
1F
100
AcDbEntity
  8
0
  6
PHANTOM
 62
     7
370
    25
100
AcDbPolyline
 90
        3
 70
   128
 43
0.0
 10
166.1777065581
 20
94.3389314941
 10
167.5475992772
 20
93.286005919
 10
167.6587338402
 20
93.2005871177
  0
LWPOLYLINE
  5
16B
330
1F
100
AcDbEntity
  8
0
  6
PHANTOM
 62
     7
370
    25
100
AcDbPolyline
 90
        3
 70
   128
 43
0.0
 10
167.819845115
 20
93.2005871177
 10
167.708710552
 20
93.286005919
 10
166.3388178329
 20
94.3389314941
  0
LINE
  5
16C
330
1F
100
AcDbEntity
  8
0
  6
PHANTOM
 62
     7
370
    25
100
AcDbLine
 10
167.819845115
 20
93.2005871177
 30
0.0
 11
167.819845115
 21
93.2115754326
 31
0.0
  0
LINE
  5
16D
330
1F
100
AcDbEntity
  8
0
  6
PHANTOM
 62
     7
370
    25
100
AcDbLine
 10
180.1213236548
 20
94.3389314941
 30
0.0
 11
179.1012431714
 21
93.656004147
 31
0.0
  0
LINE
  5
16E
330
1F
100
AcDbEntity
  8
0
  6
PHANTOM
 62
     7
370
    25
100
AcDbLine
 10
179.1012431714
 20
93.656004147
 30
0.0
 11
179.1012431714
 21
93.6669924619
 31
0.0
  0
LINE
  5
16F
330
1F
100
AcDbEntity
  8
0
  6
PHANTOM
 62
     7
370
    25
100
AcDbLine
 10
179.1012431714
 20
93.656004147
 30
0.0
 11
179.2478372128
 21
93.656004147
 31
0.0
  0
LINE
  5
170
330
1F
100
AcDbEntity
  8
0
  6
PHANTOM
 62
     7
370
    25
100
AcDbLine
 10
179.2478372128
 20
93.656004147
 30
0.0
 11
180.2679176962
 21
94.3389314941
 31
0.0
  0
LINE
  5
171
330
1F
100
AcDbEntity
  8
0
  6
PHANTOM
 62
     7
370
    25
100
AcDbLine
 10
167.7499784288
 20
92.3264553032
 30
0.0
 11
167.3745859573
 21
92.3834650745
 31
0.0
  0
LINE
  5
172
330
1F
100
AcDbEntity
  8
0
  6
PHANTOM
 62
     7
370
    25
100
AcDbLine
 10
167.3745859573
 20
92.3834650745
 30
0.0
 11
166.3084841056
 21
93.1732782024
 31
0.0
  0
SPLINE
  5
173
330
1F
100
AcDbEntity
  8
0
  6
PHANTOM
 62
     7
370
    25
100
AcDbSpline
210
0.0
220
0.0
230
1.0
 70
     8
 71
     3
 72
    10
 73
     6
 74
     0
 42
0.000000001
 43
0.00000001
 40
0.0
 40
0.0
 40
0.0
 40
0.0
 40
0.4953557733429406
 40
0.7470766343987448
 40
1.0
 40
1.0
 40
1.0
 40
1.0
 10
166.3084841055812
 20
93.17327820236827
 30
0.0
 10
166.3547251905633
 20
93.16672845589633
 30
0.0
 10
166.4244642266225
 20
93.156850378737
 30
0.0
 10
166.5247596432462
 20
93.13841356473839
 30
0.0
 10
166.5770284529773
 20
93.12747690358933
 30
0.0
 10
166.6032251328854
 20
93.12199554266188
 30
0.0
  0
SPLINE
  5
174
330
1F
100
AcDbEntity
  8
0
  6
PHANTOM
 62
     7
370
    25
100
AcDbSpline
210
0.0
220
0.0
230
1.0
 70
     8
 71
     3
 72
    10
 73
     6
 74
     0
 42
0.000000001
 43
0.00000001
 40
0.0
 40
0.0
 40
0.0
 40
0.0
 40
0.4877600490219916
 40
0.7432189598006311
 40
1.0
 40
1.0
 40
1.0
 40
1.0
 10
166.6032251328854
 20
93.12199554266188
 30
0.0
 10
166.8117968116622
 20
93.07154190619121
 30
0.0
 10
167.1296055917277
 20
92.99466373773303
 30
0.0
 10
167.5650221020962
 20
92.85957706373303
 30
0.0
 10
167.786203653103
 20
92.78983813154285
 30
0.0
 10
167.8970798716252
 20
92.7548786647617
 30
0.0
  0
SPLINE
  5
175
330
1F
100
AcDbEntity
  8
0
  6
PHANTOM
 62
     7
370
    25
100
AcDbSpline
210
0.0
220
0.0
230
1.0
 70
     8
 71
     3
 72
    10
 73
     6
 74
     0
 42
0.000000001
 43
0.00000001
 40
0.0
 40
0.0
 40
0.0
 40
0.0
 40
0.4773094633148451
 40
0.7273959801567152
 40
1.0
 40
1.0
 40
1.0
 40
1.0
 10
167.8970798716252
 20
92.7548786647617
 30
0.0
 10
168.1510618916692
 20
92.67692605209349
 30
0.0
 10
168.5381179100625
 20
92.55813013151024
 30
0.0
 10
169.0920555671023
 20
92.43341135637063
 30
0.0
 10
169.352567224737
 20
92.42945454937285
 30
0.0
 10
169.4884344733343
 20
92.42739091627136
 30
0.0
  0
SPLINE
  5
176
330
1F
100
AcDbEntity
  8
0
  6
PHANTOM
 62
     7
370
    25
100
AcDbSpline
210
0.0
220
0.0
230
1.0
 70
     8
 71
     3
 72
    12
 73
     8
 74
     0
 42
0.000000001
 43
0.00000001
 40
0.0
 40
0.0
 40
0.0
 40
0.0
 40
0.3023163842895117
 40
0.5310116453936666
 40
0.710111687838185
 40
0.8904837193764669
 40
1.0
 40
1.0
 40
1.0
 40
1.0
 10
169.4884344733343
 20
92.42739091627136
 30
0.0
 10
169.5652699309238
 20
92.43742670762298
 30
0.0
 10
169.7002296118392
 20
92.45505433998227
 30
0.0
 10
169.8016252417178
 20
92.52149282212014
 30
0.0
 10
169.8339471077073
 20
92.59096166340875
 30
0.0
 10
169.8016949038729
 20
92.65657693378557
 30
0.0
 10
169.7537561238483
 20
92.69618838933701
 30
0.0
 10
169.7356454354705
 20
92.71115311575088
 30
0.0
  0
SPLINE
  5
177
330
1F
100
AcDbEntity
  8
0
  6
PHANTOM
 62
     7
370
    25
100
AcDbSpline
210
0.0
220
0.0
230
1.0
 70
     8
 71
     3
 72
    12
 73
     8
 74
     0
 42
0.000000001
 43
0.00000001
 40
0.0
 40
0.0
 40
0.0
 40
0.0
 40
0.2011301016099408
 40
0.3737616383127641
 40
0.5555757595121447
 40
0.8171674324888198
 40
1.0
 40
1.0
 40
1.0
 40
1.0
 10
169.7356454354705
 20
92.71115311575088
 30
0.0
 10
169.6893202514544
 20
92.7406674183464
 30
0.0
 10
169.6032338002749
 20
92.7955140773172
 30
0.0
 10
169.408470992557
 20
92.85488106953537
 30
0.0
 10
169.1854081486758
 20
92.89201418851977
 30
0.0
 10
168.9705420605764
 20
92.90253516784836
 30
0.0
 10
168.8370166225216
 20
92.8973025532342
 30
0.0
 10
168.7820853284031
 20
92.89514989755624
 30
0.0
  0
LINE
  5
178
330
1F
100
AcDbEntity
  8
0
  6
PHANTOM
 62
     7
370
    25
100
AcDbLine
 10
168.7820853284
 20
92.8951498976
 30
0.0
 11
168.6190697478
 21
93.0531839326
 31
0.0
  0
SPLINE
  5
179
330
1F
100
AcDbEntity
  8
0
  6
PHANTOM
 62
     7
370
    25
100
AcDbSpline
210
0.0
220
0.0
230
1.0
 70
     8
 71
     3
 72
    12
 73
     8
 74
     0
 42
0.000000001
 43
0.00000001
 40
0.0
 40
0.0
 40
0.0
 40
0.0
 40
0.3836839298354933
 40
0.5590704756901019
 40
0.7358199155485432
 40
0.8909993529812787
 40
1.0
 40
1.0
 40
1.0
 40
1.0
 10
168.619069747795
 20
93.05318393258895
 30
0.0
 10
168.8056501251303
 20
93.05388989234721
 30
0.0
 10
169.0775186403326
 20
93.05491855481438
 30
0.0
 10
169.4842175830272
 20
92.9950249436304
 30
0.0
 10
169.7530014938351
 20
92.92072187524106
 30
0.0
 10
169.9447539850441
 20
92.83306618460644
 30
0.0
 10
170.0286284637359
 20
92.77503878869074
 30
0.0
 10
170.0632350559199
 20
92.75109669739814
 30
0.0
  0
SPLINE
  5
17A
330
1F
100
AcDbEntity
  8
0
  6
PHANTOM
 62
     7
370
    25
100
AcDbSpline
210
0.0
220
0.0
230
1.0
 70
     8
 71
     3
 72
    12
 73
     8
 74
     0
 42
0.000000001
 43
0.00000001
 40
0.0
 40
0.0
 40
0.0
 40
0.0
 40
0.2138924126095235
 40
0.4192048130050715
 40
0.6414235807296833
 40
0.8622786761185037
 40
1.0
 40
1.0
 40
1.0
 40
1.0
 10
170.0632350559199
 20
92.75109669739814
 30
0.0
 10
170.1182323793229
 20
92.70288397336745
 30
0.0
 10
170.226020880989
 20
92.60839251518448
 30
0.0
 10
170.2199747564399
 20
92.46741041718558
 30
0.0
 10
170.0890749286827
 20
92.35827977521622
 30
0.0
 10
169.8940737504156
 20
92.29361066324621
 30
0.0
 10
169.7412499038305
 20
92.2779128339742
 30
0.0
 10
169.6825536222536
 20
92.27188364266875
 30
0.0
  0
SPLINE
  5
17B
330
1F
100
AcDbEntity
  8
0
  6
PHANTOM
 62
     7
370
    25
100
AcDbSpline
210
0.0
220
0.0
230
1.0
 70
     8
 71
     3
 72
    10
 73
     6
 74
     0
 42
0.000000001
 43
0.00000001
 40
0.0
 40
0.0
 40
0.0
 40
0.0
 40
0.2751322645252258
 40
0.6225555722763696
 40
1.0
 40
1.0
 40
1.0
 40
1.0
 10
169.6825536222536
 20
92.27188364266875
 30
0.0
 10
169.5302173078002
 20
92.27072585661686
 30
0.0
 10
169.1855182897237
 20
92.2681060760566
 30
0.0
 10
168.5487644730594
 20
92.42023536506684
 30
0.0
 10
168.1113999017452
 20
92.55825594011242
 30
0.0
 10
167.8836606711969
 20
92.63012435749759
 30
0.0
  0
SPLINE
  5
17C
330
1F
100
AcDbEntity
  8
0
  6
PHANTOM
 62
     7
370
    25
100
AcDbSpline
210
0.0
220
0.0
230
1.0
 70
     8
 71
     3
 72
    10
 73
     6
 74
     0
 42
0.000000001
 43
0.00000001
 40
0.0
 40
0.0
 40
0.0
 40
0.0
 40
0.4968591086854062
 40
0.7465255116424905
 40
0.9999999999999999
 40
0.9999999999999999
 40
0.9999999999999999
 40
0.9999999999999999
 10
167.8836606711969
 20
92.63012435749759
 30
0.0
 10
167.7309274338641
 20
92.68033781215198
 30
0.0
 10
167.5014473737191
 20
92.75578299222802
 30
0.0
 10
167.1921283426031
 20
92.85695644366034
 30
0.0
 10
167.0371338085351
 20
92.89918600372833
 30
0.0
 10
166.9590499936449
 20
92.92046059364257
 30
0.0
  0
LINE
  5
17D
330
1F
100
AcDbEntity
  8
0
  6
PHANTOM
 62
     7
370
    25
100
AcDbLine
 10
166.9590499936
 20
92.9204605936
 30
0.0
 11
167.7499784288
 21
92.3264553032
 31
0.0
  0
LINE
  5
17E
330
1F
100
AcDbEntity
  8
0
  6
PHANTOM
 62
     7
370
    25
100
AcDbLine
 10
166.1643281311
 20
93.656004147
 30
0.0
 11
166.3093165274
 21
93.656004147
 31
0.0
  0
LINE
  5
17F
330
1F
100
AcDbEntity
  8
0
  6
PHANTOM
 62
     7
370
    25
100
AcDbLine
 10
165.1314277639
 20
94.3389314941
 30
0.0
 11
166.1643281311
 21
93.656004147
 31
0.0
  0
LINE
  5
180
330
1F
100
AcDbEntity
  8
0
  6
PHANTOM
 62
     7
370
    25
100
AcDbLine
 10
166.3093165274
 20
93.656004147
 30
0.0
 11
165.2764161603
 21
94.3389314941
 31
0.0
  0
LINE
  5
181
330
1F
100
AcDbEntity
  8
0
  6
PHANTOM
 62
     7
370
    25
100
AcDbLine
 10
166.3093165274
 20
93.656004147
 30
0.0
 11
166.3093165274
 21
93.6669924619
 31
0.0
  0
LINE
  5
182
330
1F
100
AcDbEntity
  8
0
  6
PHANTOM
 62
     7
370
    25
100
AcDbLine
 10
168.6190697478
 20
93.0531839326
 30
0.0
 11
168.6190697478
 21
93.0631839326
 31
0.0
  0
LINE
  5
183
330
1F
100
AcDbEntity
  8
0
  6
PHANTOM
 62
     7
370
    25
100
AcDbLine
 10
170.0632350559
 20
92.7510966974
 30
0.0
 11
170.0632350559
 21
92.7610966974
 31
0.0
  0
LINE
  5
184
330
1F
100
AcDbEntity
  8
0
  6
PHANTOM
 62
     7
370
    25
100
AcDbLine
 10
179.9277859317
 20
93.656004147
 30
0.0
 11
180.0561721796
 21
93.656004147
 31
0.0
  0
LINE
  5
185
330
1F
100
AcDbEntity
  8
0
  6
PHANTOM
 62
     7
370
    25
100
AcDbLine
 10
181.0775791164
 20
94.3389314941
 30
0.0
 11
179.9277859317
 21
93.656004147
 31
0.0
  0
LINE
  5
186
330
1F
100
AcDbEntity
  8
0
  6
PHANTOM
 62
     7
370
    25
100
AcDbLine
 10
180.0561721796
 20
93.656004147
 30
0.0
 11
181.2059653644
 21
94.3389314941
 31
0.0
  0
LINE
  5
187
330
1F
100
AcDbEntity
  8
0
  6
PHANTOM
 62
     7
370
    25
100
AcDbLine
 10
179.9277859317
 20
93.656004147
 30
0.0
 11
179.9277859317
 21
93.6669924619
 31
0.0
  0
LINE
  5
188
330
1F
100
AcDbEntity
  8
0
  6
PHANTOM
 62
     7
370
    25
100
AcDbLine
 10
165.3662396584
 20
93.656004147
 30
0.0
 11
165.4928186227
 21
93.656004147
 31
0.0
  0
LINE
  5
189
330
1F
100
AcDbEntity
  8
0
  6
PHANTOM
 62
     7
370
    25
100
AcDbLine
 10
164.2052365242
 20
94.3389314941
 30
0.0
 11
165.3662396584
 21
93.656004147
 31
0.0
  0
LINE
  5
18A
330
1F
100
AcDbEntity
  8
0
  6
PHANTOM
 62
     7
370
    25
100
AcDbLine
 10
165.4928186227
 20
93.656004147
 30
0.0
 11
164.3318154885
 21
94.3389314941
 31
0.0
  0
LINE
  5
18B
330
1F
100
AcDbEntity
  8
0
  6
PHANTOM
 62
     7
370
    25
100
AcDbLine
 10
175.1062468886
 20
92.596282547
 30
0.0
 11
175.302513929
 21
92.7435041535
 31
0.0
  0
SPLINE
  5
18C
330
1F
100
AcDbEntity
  8
0
  6
PHANTOM
 62
     7
370
    25
100
AcDbSpline
210
0.0
220
0.0
230
1.0
 70
     8
 71
     3
 72
     9
 73
     5
 74
     0
 42
0.000000001
 43
0.00000001
 40
0.0
 40
0.0
 40
0.0
 40
0.0
 40
0.4977135882403715
 40
1.0
 40
1.0
 40
1.0
 40
1.0
 10
175.3025139290235
 20
92.74350415350439
 30
0.0
 10
175.7209203339168
 20
92.69166206929827
 30
0.0
 10
176.5615773197399
 20
92.5875015934121
 30
0.0
 10
177.4056419616792
 20
92.63425097115753
 30
0.0
 10
177.829604161972
 20
92.65773254835727
 30
0.0
  0
SPLINE
  5
18D
330
1F
100
AcDbEntity
  8
0
  6
PHANTOM
 62
     7
370
    25
100
AcDbSpline
210
0.0
220
0.0
230
1.0
 70
     8
 71
     3
 72
    10
 73
     6
 74
     0
 42
0.000000001
 43
0.00000001
 40
0.0
 40
0.0
 40
0.0
 40
0.0
 40
0.3661656372280201
 40
0.6810234334840014
 40
1.0
 40
1.0
 40
1.0
 40
1.0
 10
177.829604161972
 20
92.65773254835727
 30
0.0
 10
177.8016833972049
 20
92.68459075497013
 30
0.0
 10
177.7497541795123
 20
92.73454374406865
 30
0.0
 10
177.7266515325556
 20
92.83024525835918
 30
0.0
 10
177.7376075019652
 20
92.89869423103592
 30
0.0
 10
177.7431210836048
 20
92.93314111427284
 30
0.0
  0
LINE
  5
18E
330
1F
100
AcDbEntity
  8
0
  6
PHANTOM
 62
     7
370
    25
100
AcDbLine
 10
177.7431210836
 20
92.9331411143
 30
0.0
 11
178.1271955691
 21
92.9539299966
 31
0.0
  0
SPLINE
  5
18F
330
1F
100
AcDbEntity
  8
0
  6
PHANTOM
 62
     7
370
    25
100
AcDbSpline
210
0.0
220
0.0
230
1.0
 70
     8
 71
     3
 72
    10
 73
     6
 74
     0
 42
0.000000001
 43
0.00000001
 40
0.0
 40
0.0
 40
0.0
 40
0.0
 40
0.4946076242367036
 40
0.7431866596569145
 40
1.0
 40
1.0
 40
1.0
 40
1.0
 10
178.1271955691314
 20
92.95392999664345
 30
0.0
 10
178.1401960087552
 20
92.88914501628705
 30
0.0
 10
178.1597301866057
 20
92.79180051372035
 30
0.0
 10
178.3029234490645
 20
92.7122601551561
 30
0.0
 10
178.4176285726077
 20
92.69749405099995
 30
0.0
 10
178.4759155736475
 20
92.68999070762943
 30
0.0
  0
LINE
  5
190
330
1F
100
AcDbEntity
  8
0
  6
PHANTOM
 62
     7
370
    25
100
AcDbLine
 10
178.4759155736
 20
92.6899907076
 30
0.0
 11
178.3492951206
 21
92.5950992957
 31
0.0
  0
SPLINE
  5
191
330
1F
100
AcDbEntity
  8
0
  6
PHANTOM
 62
     7
370
    25
100
AcDbSpline
210
0.0
220
0.0
230
1.0
 70
     8
 71
     3
 72
     9
 73
     5
 74
     0
 42
0.000000001
 43
0.00000001
 40
0.0
 40
0.0
 40
0.0
 40
0.0
 40
0.4958585058546564
 40
1.0
 40
1.0
 40
1.0
 40
1.0
 10
178.3492951206315
 20
92.5950992956855
 30
0.0
 10
177.8132768752289
 20
92.53064373122778
 30
0.0
 10
176.7322865542527
 20
92.40065591475053
 30
0.0
 10
175.6512448623577
 20
92.53071457815408
 30
0.0
 10
175.1062468885724
 20
92.5962825470489
 30
0.0
  0
LINE
  5
192
330
1F
100
AcDbEntity
  8
0
  6
PHANTOM
 62
     7
370
    25
100
AcDbLine
 10
175.1062468886
 20
92.596282547
 30
0.0
 11
175.1062468886
 21
92.606282547
 31
0.0
  0
LINE
  5
193
330
1F
100
AcDbEntity
  8
0
  6
PHANTOM
 62
     7
370
    25
100
AcDbLine
 10
175.302513929
 20
92.7435041535
 30
0.0
 11
175.302513929
 21
92.7535041535
 31
0.0
  0
LINE
  5
194
330
1F
100
AcDbEntity
  8
0
  6
PHANTOM
 62
     7
370
    25
100
AcDbLine
 10
165.4928186227
 20
93.656004147
 30
0.0
 11
165.4928186227
 21
93.6669924619
 31
0.0
  0
LINE
  5
195
330
1F
100
AcDbEntity
  8
0
  6
PHANTOM
 62
     7
370
    25
100
AcDbLine
 10
169.4884344733
 20
92.4273909163
 30
0.0
 11
169.4884344733
 21
92.4373909163
 31
0.0
  0
LINE
  5
196
330
1F
100
AcDbEntity
  8
0
  6
PHANTOM
 62
     7
370
    25
100
AcDbLine
 10
181.9024417999
 20
94.3389314941
 30
0.0
 11
180.6410688392
 21
93.656004147
 31
0.0
  0
LINE
  5
197
330
1F
100
AcDbEntity
  8
0
  6
PHANTOM
 62
     7
370
    25
100
AcDbLine
 10
180.6410688392
 20
93.656004147
 30
0.0
 11
180.6410688392
 21
93.6669924619
 31
0.0
  0
LINE
  5
198
330
1F
100
AcDbEntity
  8
0
  6
PHANTOM
 62
     7
370
    25
100
AcDbLine
 10
180.6410688392
 20
93.656004147
 30
0.0
 11
180.7492225659
 21
93.656004147
 31
0.0
  0
LINE
  5
199
330
1F
100
AcDbEntity
  8
0
  6
PHANTOM
 62
     7
370
    25
100
AcDbLine
 10
180.7492225659
 20
93.656004147
 30
0.0
 11
182.0105955266
 21
94.3389314941
 31
0.0
  0
LINE
  5
19A
330
1F
100
AcDbEntity
  8
0
  6
PHANTOM
 62
     7
370
    25
100
AcDbLine
 10
166.6032251329
 20
93.1219955427
 30
0.0
 11
166.6032251329
 21
93.1319955427
 31
0.0
  0
LINE
  5
19B
330
1F
100
AcDbEntity
  8
0
  6
PHANTOM
 62
     7
370
    25
100
AcDbLine
 10
177.7431210836
 20
92.9331411143
 30
0.0
 11
177.7431210836
 21
92.9431411143
 31
0.0
  0
LINE
  5
19C
330
1F
100
AcDbEntity
  8
0
  6
PHANTOM
 62
     7
370
    25
100
AcDbLine
 10
178.1271955691
 20
92.9539299966
 30
0.0
 11
178.1271955691
 21
92.9639299966
 31
0.0
  0
LINE
  5
19D
330
1F
100
AcDbEntity
  8
0
  6
PHANTOM
 62
     7
370
    25
100
AcDbLine
 10
164.6845356163
 20
93.656004147
 30
0.0
 11
164.7907089227
 21
93.656004147
 31
0.0
  0
LINE
  5
19E
330
1F
100
AcDbEntity
  8
0
  6
PHANTOM
 62
     7
370
    25
100
AcDbLine
 10
163.4137394281
 20
94.3389314941
 30
0.0
 11
164.6845356163
 21
93.656004147
 31
0.0
  0
LINE
  5
19F
330
1F
100
AcDbEntity
  8
0
  6
PHANTOM
 62
     7
370
    25
100
AcDbLine
 10
164.7907089227
 20
93.656004147
 30
0.0
 11
163.5199127345
 21
94.3389314941
 31
0.0
  0
LINE
  5
1A0
330
1F
100
AcDbEntity
  8
0
  6
PHANTOM
 62
     7
370
    25
100
AcDbLine
 10
164.7907089227
 20
93.656004147
 30
0.0
 11
164.7907089227
 21
93.6669924619
 31
0.0
  0
LINE
  5
1A1
330
1F
100
AcDbEntity
  8
0
  6
PHANTOM
 62
     7
370
    25
100
AcDbLine
 10
178.4759155736
 20
92.6899907076
 30
0.0
 11
178.4759155736
 21
92.6999907076
 31
0.0
  0
LINE
  5
1A2
330
1F
100
AcDbEntity
  8
0
  6
PHANTOM
 62
     7
370
    25
100
AcDbLine
 10
166.3084841056
 20
93.1732782024
 30
0.0
 11
166.3084841056
 21
93.1832782024
 31
0.0
  0
LINE
  5
1A3
330
1F
100
AcDbEntity
  8
0
  6
PHANTOM
 62
     7
370
    25
100
AcDbLine
 10
167.7499784288
 20
92.3264553032
 30
0.0
 11
167.7499784288
 21
92.3364553032
 31
0.0
  0
LINE
  5
1A4
330
1F
100
AcDbEntity
  8
0
  6
PHANTOM
 62
     7
370
    25
100
AcDbLine
 10
182.582903128
 20
94.3389314941
 30
0.0
 11
181.2298429965
 21
93.656004147
 31
0.0
  0
LINE
  5
1A5
330
1F
100
AcDbEntity
  8
0
  6
PHANTOM
 62
     7
370
    25
100
AcDbLine
 10
181.2298429965
 20
93.656004147
 30
0.0
 11
181.2298429965
 21
93.6669924619
 31
0.0
  0
LINE
  5
1A6
330
1F
100
AcDbEntity
  8
0
  6
PHANTOM
 62
     7
370
    25
100
AcDbLine
 10
181.2298429965
 20
93.656004147
 30
0.0
 11
181.316058553
 21
93.656004147
 31
0.0
  0
LINE
  5
1A7
330
1F
100
AcDbEntity
  8
0
  6
PHANTOM
 62
     7
370
    25
100
AcDbLine
 10
181.316058553
 20
93.656004147
 30
0.0
 11
182.6691186845
 21
94.3389314941
 31
0.0
  0
LINE
  5
1A8
330
1F
100
AcDbEntity
  8
0
  6
PHANTOM
 62
     7
370
    25
100
AcDbLine
 10
164.1299668849
 20
93.656004147
 30
0.0
 11
164.2140601169
 21
93.656004147
 31
0.0
  0
LINE
  5
1A9
330
1F
100
AcDbEntity
  8
0
  6
PHANTOM
 62
     7
370
    25
100
AcDbLine
 10
162.7694188576
 20
94.3389314941
 30
0.0
 11
164.1299668849
 21
93.656004147
 31
0.0
  0
LINE
  5
1AA
330
1F
100
AcDbEntity
  8
0
  6
PHANTOM
 62
     7
370
    25
100
AcDbLine
 10
164.2140601169
 20
93.656004147
 30
0.0
 11
162.8535120896
 21
94.3389314941
 31
0.0
  0
LINE
  5
1AB
330
1F
100
AcDbEntity
  8
0
  6
PHANTOM
 62
     7
370
    25
100
AcDbLine
 10
164.2140601169
 20
93.656004147
 30
0.0
 11
164.2140601169
 21
93.6669924619
 31
0.0
  0
SPLINE
  5
1AC
330
1F
100
AcDbEntity
  8
0
  6
PHANTOM
 62
     7
370
    25
100
AcDbSpline
210
0.0
220
0.0
230
1.0
 70
     8
 71
     3
 72
     9
 73
     5
 74
     0
 42
0.000000001
 43
0.00000001
 40
0.0
 40
0.0
 40
0.0
 40
0.0
 40
0.5000000000000061
 40
1.0
 40
1.0
 40
1.0
 40
1.0
 10
180.7355949616249
 20
93.20058711767948
 30
0.0
 10
180.746081247544
 20
93.20045237519449
 30
0.0
 10
180.767053819382
 20
93.20018289022453
 30
0.0
 10
180.7880263912201
 20
93.2004523751945
 30
0.0
 10
180.7985126771391
 20
93.20058711767948
 30
0.0
  0
LWPOLYLINE
  5
1AD
330
1F
100
AcDbEntity
  8
0
  6
PHANTOM
 62
     7
370
    25
100
AcDbPolyline
 90
        3
 70
   128
 43
0.0
 10
183.1082318191
 20
94.3389314941
 10
180.9136348692
 20
93.286005919
 10
180.7355949616
 20
93.2005871177
  0
LWPOLYLINE
  5
1AE
330
1F
100
AcDbEntity
  8
0
  6
PHANTOM
 62
     7
370
    25
100
AcDbPolyline
 90
        3
 70
   128
 43
0.0
 10
180.7985126771
 20
93.2005871177
 10
180.9765525847
 20
93.286005919
 10
183.1711495346
 20
94.3389314941
  0
LINE
  5
1AF
330
1F
100
AcDbEntity
  8
0
  6
PHANTOM
 62
     7
370
    25
100
AcDbLine
 10
180.7355949616
 20
93.2005871177
 30
0.0
 11
180.7355949616
 21
93.2115754326
 31
0.0
  0
SPLINE
  5
1B0
330
1F
100
AcDbEntity
  8
0
  6
PHANTOM
 62
     7
370
    25
100
AcDbSpline
210
0.0
220
0.0
230
1.0
 70
     8
 71
     3
 72
     9
 73
     5
 74
     0
 42
0.000000001
 43
0.00000001
 40
0.0
 40
0.0
 40
0.0
 40
0.0
 40
0.4999999999999998
 40
0.9999999999999999
 40
0.9999999999999999
 40
0.9999999999999999
 40
0.9999999999999999
 10
164.6641315525623
 20
93.20058711767948
 30
0.0
 10
164.6742460454108
 20
93.2004523751945
 30
0.0
 10
164.6944750311077
 20
93.20018289022453
 30
0.0
 10
164.7147040168047
 20
93.2004523751945
 30
0.0
 10
164.7248185096531
 20
93.20058711767948
 30
0.0
  0
LWPOLYLINE
  5
1B1
330
1F
100
AcDbEntity
  8
0
  6
PHANTOM
 62
     7
370
    25
100
AcDbPolyline
 90
        3
 70
   128
 43
0.0
 10
162.2824361331
 20
94.3389314941
 10
164.4854119011
 20
93.286005919
 10
164.6641315526
 20
93.2005871177
  0
LWPOLYLINE
  5
1B2
330
1F
100
AcDbEntity
  8
0
  6
PHANTOM
 62
     7
370
    25
100
AcDbPolyline
 90
        3
 70
   128
 43
0.0
 10
164.7248185097
 20
93.2005871177
 10
164.5460988582
 20
93.286005919
 10
162.3431230902
 20
94.3389314941
  0
LINE
  5
1B3
330
1F
100
AcDbEntity
  8
0
  6
PHANTOM
 62
     7
370
    25
100
AcDbLine
 10
164.7248185097
 20
93.2005871177
 30
0.0
 11
164.7248185097
 21
93.2115754326
 31
0.0
  0
LINE
  5
1B4
330
1F
100
AcDbEntity
  8
0
  6
PHANTOM
 62
     7
370
    25
100
AcDbLine
 10
183.4701431259
 20
94.3389314941
 30
0.0
 11
181.9988337918
 21
93.656004147
 31
0.0
  0
LINE
  5
1B5
330
1F
100
AcDbEntity
  8
0
  6
PHANTOM
 62
     7
370
    25
100
AcDbLine
 10
181.9988337918
 20
93.656004147
 30
0.0
 11
181.9988337918
 21
93.6669924619
 31
0.0
  0
LINE
  5
1B6
330
1F
100
AcDbEntity
  8
0
  6
PHANTOM
 62
     7
370
    25
100
AcDbLine
 10
181.9988337918
 20
93.656004147
 30
0.0
 11
182.0374614163
 21
93.656004147
 31
0.0
  0
LINE
  5
1B7
330
1F
100
AcDbEntity
  8
0
  6
PHANTOM
 62
     7
370
    25
100
AcDbLine
 10
182.0374614163
 20
93.656004147
 30
0.0
 11
183.5087707505
 21
94.3389314941
 31
0.0
  0
LINE
  5
1B8
330
1F
100
AcDbEntity
  8
0
  6
PHANTOM
 62
     7
370
    25
100
AcDbLine
 10
163.4713995596
 20
93.656004147
 30
0.0
 11
163.4713995596
 21
93.6669924619
 31
0.0
  0
LINE
  5
1B9
330
1F
100
AcDbEntity
  8
0
  6
PHANTOM
 62
     7
370
    25
100
AcDbLine
 10
163.4713995596
 20
93.656004147
 30
0.0
 11
161.9967948755
 21
94.3389314941
 31
0.0
  0
LINE
  5
1BA
330
1F
100
AcDbEntity
  8
0
  6
PHANTOM
 62
     7
370
    25
100
AcDbLine
 10
163.4350759469
 20
93.656004147
 30
0.0
 11
163.4713995596
 21
93.656004147
 31
0.0
  0
LINE
  5
1BB
330
1F
100
AcDbEntity
  8
0
  6
PHANTOM
 62
     7
370
    25
100
AcDbLine
 10
161.9604712629
 20
94.3389314941
 30
0.0
 11
163.4350759469
 21
93.656004147
 31
0.0
  0
LINE
  5
1BC
330
1F
100
AcDbEntity
  8
0
  6
PHANTOM
 62
     7
370
    25
100
AcDbLine
 10
182.1669229857
 20
93.656004147
 30
0.0
 11
182.1806513385
 21
93.656004147
 31
0.0
  0
LINE
  5
1BD
330
1F
100
AcDbEntity
  8
0
  6
PHANTOM
 62
     7
370
    25
100
AcDbLine
 10
183.6629294909
 20
94.3389314941
 30
0.0
 11
182.1669229857
 21
93.656004147
 31
0.0
  0
LINE
  5
1BE
330
1F
100
AcDbEntity
  8
0
  6
PHANTOM
 62
     7
370
    25
100
AcDbLine
 10
182.1806513385
 20
93.656004147
 30
0.0
 11
183.6766578438
 21
94.3389314941
 31
0.0
  0
LINE
  5
1BF
330
1F
100
AcDbEntity
  8
0
  6
PHANTOM
 62
     7
370
    25
100
AcDbLine
 10
182.1669229857
 20
93.656004147
 30
0.0
 11
182.1669229857
 21
93.6669924619
 31
0.0
  0
LINE
  5
1C0
330
1F
100
AcDbEntity
  8
0
  6
PHANTOM
 62
     7
370
    25
100
AcDbLine
 10
163.3057125857
 20
93.656004147
 30
0.0
 11
163.3171000088
 21
93.656004147
 31
0.0
  0
LINE
  5
1C1
330
1F
100
AcDbEntity
  8
0
  6
PHANTOM
 62
     7
370
    25
100
AcDbLine
 10
161.8086018255
 20
94.3389314941
 30
0.0
 11
163.3057125857
 21
93.656004147
 31
0.0
  0
LINE
  5
1C2
330
1F
100
AcDbEntity
  8
0
  6
PHANTOM
 62
     7
370
    25
100
AcDbLine
 10
163.3171000088
 20
93.656004147
 30
0.0
 11
161.8199892486
 21
94.3389314941
 31
0.0
  0
LINE
  5
1C3
330
1F
100
AcDbEntity
  8
0
  6
PHANTOM
 62
     7
370
    25
100
AcDbLine
 10
163.3171000088
 20
93.656004147
 30
0.0
 11
163.3171000088
 21
93.6669924619
 31
0.0
  0
LINE
  5
1C4
330
1F
100
AcDbEntity
  8
0
  6
PHANTOM
 62
     7
370
    25
100
AcDbLine
 10
180.2142091268
 20
92.7556683208
 30
0.0
 11
180.2142091268
 21
92.7641189675
 31
0.0
  0
SPLINE
  5
1C5
330
1F
100
AcDbEntity
  8
0
  6
PHANTOM
 62
     7
370
    25
100
AcDbSpline
210
0.0
220
0.0
230
1.0
 70
     8
 71
     3
 72
    11
 73
     7
 74
     0
 42
0.000000001
 43
0.00000001
 40
0.0
 40
0.0
 40
0.0
 40
0.0
 40
0.2145930129826003
 40
0.5039315221145482
 40
0.7955423989640882
 40
1.0
 40
1.0
 40
1.0
 40
1.0
 10
179.3818146109321
 20
92.38500859397305
 30
0.0
 10
179.4273868480155
 20
92.40376148859524
 30
0.0
 10
179.5344047163068
 20
92.44779915133022
 30
0.0
 10
179.7561390692098
 20
92.54700460133722
 30
0.0
 10
180.0026928866239
 20
92.65869186189576
 30
0.0
 10
180.1524753750735
 20
92.72736448636725
 30
0.0
 10
180.2142091268252
 20
92.75566832078165
 30
0.0
  0
LINE
  5
1C6
330
1F
100
AcDbEntity
  8
0
  6
PHANTOM
 62
     7
370
    25
100
AcDbLine
 10
183.683550558
 20
94.3389314941
 30
0.0
 11
182.1864397978
 21
93.656004147
 31
0.0
  0
LINE
  5
1C7
330
1F
100
AcDbEntity
  8
0
  6
PHANTOM
 62
     7
370
    25
100
AcDbLine
 10
182.1864397978
 20
93.656004147
 30
0.0
 11
182.1864397978
 21
93.6586465801
 31
0.0
  0
LINE
  5
1C8
330
1F
100
AcDbEntity
  8
0
  6
PHANTOM
 62
     7
370
    25
100
AcDbLine
 10
164.9660656305
 20
92.9007974418
 30
0.0
 11
164.9660656305
 21
92.9061622428
 31
0.0
  0
LINE
  5
1C9
330
1F
100
AcDbEntity
  8
0
  6
PHANTOM
 62
     7
370
    25
100
AcDbLine
 10
182.1864397978
 20
93.656004147
 30
0.0
 11
182.1806513385
 21
93.656004147
 31
0.0
  0
LINE
  5
1CA
330
1F
100
AcDbEntity
  8
0
  6
PHANTOM
 62
     7
370
    25
100
AcDbLine
 10
163.3196736235
 20
93.656004147
 30
0.0
 11
163.3171000088
 21
93.656004147
 31
0.0
  0
CIRCLE
  5
1CB
330
1F
100
AcDbEntity
  8
0
  6
PHANTOM
 62
     7
370
    25
100
AcDbCircle
 10
172.7460761917
 20
111.9226920862
 30
0.0
 40
3.309500000000025
  0
LINE
  5
1CC
330
1F
100
AcDbEntity
  8
0
  6
PHANTOM
 62
     7
370
    25
100
AcDbLine
 10
170.6521392724
 20
110.9486481903
 30
0.0
 11
172.5426544903
 21
109.6222675722
 31
0.0
  0
LINE
  5
1CD
330
1F
100
AcDbEntity
  8
0
  6
PHANTOM
 62
     7
370
    25
100
AcDbLine
 10
174.6365914097
 20
110.5963114681
 30
0.0
 11
172.5426544903
 21
109.6222675722
 31
0.0
  0
LINE
  5
1CE
330
1F
100
AcDbEntity
  8
0
  6
PHANTOM
 62
     7
370
    25
100
AcDbLine
 10
174.8400131111
 20
112.8967359821
 30
0.0
 11
174.6365914097
 21
110.5963114681
 31
0.0
  0
LINE
  5
1CF
330
1F
100
AcDbEntity
  8
0
  6
PHANTOM
 62
     7
370
    25
100
AcDbLine
 10
174.8400131111
 20
112.8967359821
 30
0.0
 11
172.9494978932
 21
114.2231166003
 31
0.0
  0
LINE
  5
1D0
330
1F
100
AcDbEntity
  8
0
  6
PHANTOM
 62
     7
370
    25
100
AcDbLine
 10
170.8555609738
 20
113.2490727044
 30
0.0
 11
172.9494978932
 21
114.2231166003
 31
0.0
  0
LINE
  5
1D1
330
1F
100
AcDbEntity
  8
0
  6
PHANTOM
 62
     7
370
    25
100
AcDbLine
 10
170.8555609738
 20
113.2490727044
 30
0.0
 11
170.6521392724
 21
110.9486481903
 31
0.0
  0
SPLINE
  5
1D2
330
1F
100
AcDbEntity
  8
0
  6
PHANTOM
 62
     7
370
    25
100
AcDbSpline
210
0.0
220
0.0
230
1.0
 70
    11
 71
     3
 72
    76
 73
    72
 74
     0
 42
0.000000001
 43
0.00000001
 40
0.0
 40
0.0
 40
0.0
 40
0.0
 40
0.03125
 40
0.03125
 40
0.0625
 40
0.0625
 40
0.09375
 40
0.09375
 40
0.1250000000000001
 40
0.1250000000000001
 40
0.1562500000000001
 40
0.1562500000000001
 40
0.1875000000000001
 40
0.1875000000000001
 40
0.2187500000000001
 40
0.2187500000000001
 40
0.2500000000000001
 40
0.2500000000000001
 40
0.2812500000000001
 40
0.2812500000000001
 40
0.3125000000000001
 40
0.3125000000000001
 40
0.3281250000000002
 40
0.3281250000000002
 40
0.3437500000000002
 40
0.3437500000000002
 40
0.3750000000000002
 40
0.3750000000000002
 40
0.4062500000000002
 40
0.4062500000000002
 40
0.4375000000000002
 40
0.4375000000000002
 40
0.4687500000000002
 40
0.4687500000000002
 40
0.5000000000000002
 40
0.5000000000000002
 40
0.5312500000000002
 40
0.5312500000000002
 40
0.5625000000000002
 40
0.5625000000000002
 40
0.5937500000000002
 40
0.5937500000000002
 40
0.6250000000000002
 40
0.6250000000000002
 40
0.6562500000000003
 40
0.6562500000000003
 40
0.6875000000000003
 40
0.6875000000000003
 40
0.7187500000000003
 40
0.7187500000000003
 40
0.7500000000000003
 40
0.7500000000000003
 40
0.7812500000000003
 40
0.7812500000000003
 40
0.8125000000000003
 40
0.8125000000000003
 40
0.8281250000000003
 40
0.8281250000000003
 40
0.8437500000000003
 40
0.8437500000000003
 40
0.8593750000000003
 40
0.8593750000000003
 40
0.8750000000000004
 40
0.8750000000000004
 40
0.9062500000000003
 40
0.9062500000000003
 40
0.9375000000000002
 40
0.9375000000000002
 40
0.9687500000000001
 40
0.9687500000000001
 40
1.0
 40
1.0
 40
1.0
 40
1.0
 10
169.7064392682812
 20
114.9390210102382
 30
0.0
 10
169.9237117262176
 20
115.1205647433872
 30
0.0
 10
170.1554604241393
 20
115.2789501947861
 30
0.0
 10
170.6461015961935
 20
115.5527365357037
 30
0.0
 10
170.9069807392135
 20
115.6684285135063
 30
0.0
 10
171.4383439109277
 20
115.8499041422572
 30
0.0
 10
171.7104566532441
 20
115.9169420768052
 30
0.0
 10
172.2675030039969
 20
116.0040291720271
 30
0.0
 10
172.5523755347276
 20
116.0234426123764
 30
0.0
 10
173.1134153433704
 20
116.0135231410136
 30
0.0
 10
173.3923243489413
 20
115.9847545966222
 30
0.0
 10
173.9468383037325
 20
115.8782639615423
 30
0.0
 10
174.2203009436965
 20
115.8004307990669
 30
0.0
 10
174.7426284537938
 20
115.6006942230042
 30
0.0
 10
174.9940663123404
 20
115.4783896628365
 30
0.0
 10
175.4763586815083
 20
115.1858732631251
 30
0.0
 10
175.7033118745785
 20
115.0175113324399
 30
0.0
 10
176.1171608433384
 20
114.6443540588142
 30
0.0
 10
176.305987446036
 20
114.4384906084837
 30
0.0
 10
176.6436083220957
 20
113.9836870907196
 30
0.0
 10
176.7866352988185
 20
113.74221021993
 30
0.0
 10
176.9605512676071
 20
113.3612641630701
 30
0.0
 10
177.011806781027
 20
113.230997164645
 30
0.0
 10
177.1002227406558
 20
112.9635496305028
 30
0.0
 10
177.13751769123
 20
112.8254338991987
 30
0.0
 10
177.2246066302011
 20
112.4105231507304
 30
0.0
 10
177.2509147160029
 20
112.1313437232317
 30
0.0
 10
177.2397951032016
 20
111.5678138360448
 30
0.0
 10
177.2011981855308
 20
111.2831604296553
 30
0.0
 10
177.0637562798978
 20
110.7383868582636
 30
0.0
 10
176.9638076204443
 20
110.4719218781349
 30
0.0
 10
176.7092694489819
 20
109.9673681236406
 30
0.0
 10
176.5568226883627
 20
109.7320302814053
 30
0.0
 10
176.2047135730568
 20
109.2928572843423
 30
0.0
 10
176.0048997875642
 20
109.0899963353237
 30
0.0
 10
175.575488849341
 20
108.7302286408549
 30
0.0
 10
175.3430501652147
 20
108.5703726941057
 30
0.0
 10
174.8493159717053
 20
108.2940864794288
 30
0.0
 10
174.5929604896069
 20
108.1801558195144
 30
0.0
 10
174.0622488368113
 20
107.9978388663904
 30
0.0
 10
173.7851450764364
 20
107.9291761175859
 30
0.0
 10
173.2277407884947
 20
107.841645814083
 30
0.0
 10
172.947821568586
 20
107.8222313820729
 30
0.0
 10
172.3855842082576
 20
107.8313192076396
 30
0.0
 10
172.1007369039926
 20
107.8605649514303
 30
0.0
 10
171.5480610183829
 20
107.96648348694
 30
0.0
 10
171.2786866686163
 20
108.0427271771681
 30
0.0
 10
170.7540200235811
 20
108.2425913630527
 30
0.0
 10
170.4970088472092
 20
108.3676987079213
 30
0.0
 10
170.0180842777967
 20
108.6580709264973
 30
0.0
 10
169.7937563519501
 20
108.8238383486486
 30
0.0
 10
169.376838948143
 20
109.1989727583203
 30
0.0
 10
169.1840159626987
 20
109.4098101112549
 30
0.0
 10
168.8509199565722
 20
109.8584748684845
 30
0.0
 10
168.7079156243171
 20
110.0983086489972
 30
0.0
 10
168.5317850708077
 20
110.4835251221486
 30
0.0
 10
168.479525489401
 20
110.6165841400623
 30
0.0
 10
168.3912252991965
 20
110.8842536401339
 30
0.0
 10
168.3547395483879
 20
111.0197191059096
 30
0.0
 10
168.2970746350551
 20
111.293913381575
 30
0.0
 10
168.2758944679667
 20
111.4326419707467
 30
0.0
 10
168.2493044036923
 20
111.7134653128347
 30
0.0
 10
168.2439552255312
 20
111.8565678807115
 30
0.0
 10
168.252632467017
 20
112.2817791855583
 30
0.0
 10
168.2905156255415
 20
112.5603112881969
 30
0.0
 10
168.4285566485616
 20
113.1078074110656
 30
0.0
 10
168.5294764054457
 20
113.375852145403
 30
0.0
 10
168.7825865133419
 20
113.8772813151878
 30
0.0
 10
168.9371318033506
 20
114.116066084345
 30
0.0
 10
169.2910299618195
 20
114.5565343749832
 30
0.0
 10
169.4891668103448
 20
114.7574772770893
 30
0.0
 10
169.7064392682812
 20
114.9390210102382
 30
0.0
  0
SPLINE
  5
1D3
330
1F
100
AcDbEntity
  8
0
  6
PHANTOM
 62
     7
370
    25
100
AcDbSpline
210
0.0
220
0.0
230
1.0
 70
     8
 71
     3
 72
    21
 73
    17
 74
     0
 42
0.000000001
 43
0.00000001
 40
0.0
 40
0.0
 40
0.0
 40
0.0
 40
0.015871698390075
 40
0.1271532935823685
 40
0.1910379286822782
 40
0.2550909803750357
 40
0.3495629248075901
 40
0.4498731468356568
 40
0.5374461042601114
 40
0.6181012467868378
 40
0.6952980259975524
 40
0.7549064639831328
 40
0.8155075201338268
 40
0.9072806504820559
 40
0.9845379712703859
 40
1.0
 40
1.0
 40
1.0
 40
1.0
 10
160.1106596558449
 20
127.9859907835358
 30
0.0
 10
160.0555815220582
 20
128.028582539337
 30
0.0
 10
159.6143328325215
 20
128.3697988286389
 30
0.0
 10
158.972673658566
 20
128.8688127978182
 30
0.0
 10
158.2095201244796
 20
129.4657548711583
 30
0.0
 10
157.5306752680776
 20
129.9989119044563
 30
0.0
 10
156.7890389253881
 20
130.5840459529165
 30
0.0
 10
156.0551908828949
 20
131.1658093856313
 30
0.0
 10
155.4375914297808
 20
131.6572824490512
 30
0.0
 10
154.9477497552979
 20
132.0482025991139
 30
0.0
 10
154.5826120076762
 20
132.3402470781552
 30
0.0
 10
154.3109670361686
 20
132.5578379669213
 30
0.0
 10
154.0775119058668
 20
132.7450438213178
 30
0.0
 10
153.9170759396944
 20
132.8738371827037
 30
0.0
 10
153.8506902872394
 20
132.9271573537772
 30
0.0
 10
153.8600746083227
 20
132.9196203825412
 30
0.0
 10
153.8616395528887
 20
132.9183635050244
 30
0.0
  0
LINE
  5
1D4
330
1F
100
AcDbEntity
  8
0
  6
PHANTOM
 62
     7
370
    25
100
AcDbLine
 10
186.143299442
 20
123.8628257008
 30
0.0
 11
160.1106596558
 21
127.9859907835
 31
0.0
  0
LINE
  5
1D5
330
1F
100
AcDbEntity
  8
0
  6
PHANTOM
 62
     7
370
    25
100
AcDbLine
 10
159.1116659267
 20
94.3726920862
 30
0.0
 11
186.143299442
 21
94.3726920862
 31
0.0
  0
SPLINE
  5
1D6
330
1F
100
AcDbEntity
  8
0
  6
PHANTOM
 62
     7
370
    25
100
AcDbSpline
210
0.0
220
0.0
230
1.0
 70
     8
 71
     3
 72
    18
 73
    14
 74
     0
 42
0.000000001
 43
0.00000001
 40
0.0
 40
0.0
 40
0.0
 40
0.0
 40
0.0136425459664123
 40
0.0994370817044564
 40
0.1951749035262132
 40
0.3011879199376383
 40
0.3942061871996974
 40
0.4931939314953514
 40
0.6591924873687515
 40
0.7597438934242537
 40
0.8339522641641979
 40
0.9141569503755125
 40
1.0
 40
1.0
 40
1.0
 40
1.0
 10
153.6564087323008
 20
90.92931116942269
 30
0.0
 10
153.6529747369642
 20
90.92711135563047
 30
0.0
 10
153.6279452098001
 20
90.91107746691728
 30
0.0
 10
153.7103315602213
 20
90.96386276765831
 30
0.0
 10
153.8915690674034
 20
91.07992423587962
 30
0.0
 10
154.2221933472093
 20
91.2913899750309
 30
0.0
 10
154.6661827914747
 20
91.57478620282227
 30
0.0
 10
155.3191372815897
 20
91.99055185695492
 30
0.0
 10
156.130939303794
 20
92.5053790034027
 30
0.0
 10
156.9914865203661
 20
93.04799504017137
 30
0.0
 10
157.6798380326727
 20
93.48013293818755
 30
0.0
 10
158.3591274411952
 20
93.90501761822264
 30
0.0
 10
158.8552047845039
 20
94.21331109699486
 30
0.0
 10
159.1116659267464
 20
94.37269208622627
 30
0.0
  0
CIRCLE
  5
1D7
330
1F
100
AcDbEntity
  8
0
  6
PHANTOM
 62
     7
370
    25
100
AcDbCircle
 10
172.7460761917
 20
111.9226920862
 30
0.0
 40
3.399999999999977
  0
SPLINE
  5
1D8
330
1F
100
AcDbEntity
  8
0
  6
PHANTOM
 62
     7
370
    25
100
AcDbSpline
210
0.0
220
0.0
230
1.0
 70
    24
 71
     3
 72
    14
 73
    10
 74
     0
 42
0.000000001
 43
0.00000001
 40
0.0
 40
0.0
 40
0.0
 40
0.0
 40
0.25
 40
0.25
 40
0.5
 40
0.5
 40
0.75
 40
0.75
 40
1.0
 40
1.0
 40
1.0
 40
1.0
 10
187.442337547693
 20
123.6570782775051
 30
0.0
 10
187.3817424217762
 20
123.6666756026098
 30
0.0
 10
187.3080717479519
 20
123.6783438910518
 30
0.0
 10
187.1306717410272
 20
123.7064412918622
 30
0.0
 10
187.0276088893645
 20
123.722764843941
 30
0.0
 10
186.8008207865913
 20
123.758684550671
 30
0.0
 10
186.6738363884132
 20
123.7787969035064
 30
0.0
 10
186.4141521788187
 20
123.8199268417041
 30
0.0
 10
186.2777881421581
 20
123.841524783331
 30
0.0
 10
186.1432994420163
 20
123.8628257008329
 30
0.0
  0
SPLINE
  5
1D9
330
1F
100
AcDbEntity
  8
0
  6
PHANTOM
 62
     7
370
    25
100
AcDbSpline
210
0.0
220
0.0
230
1.0
 70
    24
 71
     3
 72
    14
 73
    10
 74
     0
 42
0.000000001
 43
0.00000001
 40
0.0
 40
0.0
 40
0.0
 40
0.0
 40
0.25
 40
0.25
 40
0.5
 40
0.5
 40
0.75
 40
0.75
 40
1.0
 40
1.0
 40
1.0
 40
1.0
 10
186.1432994420163
 20
94.37269208622628
 30
0.0
 10
186.3150527284778
 20
94.37269208622627
 30
0.0
 10
186.4867397757621
 20
94.37269208622628
 30
0.0
 10
186.7787941363121
 20
94.37269208622628
 30
0.0
 10
186.9021075496833
 20
94.37269208622628
 30
0.0
 10
187.1094304949425
 20
94.37269208622627
 30
0.0
 10
187.1940677153177
 20
94.37269208622628
 30
0.0
 10
187.337874566141
 20
94.37269208622628
 30
0.0
 10
187.3951343555314
 20
94.37269208622628
 30
0.0
 10
187.4423375476942
 20
94.37269208622628
 30
0.0
  0
LINE
  5
1DA
330
1F
100
AcDbEntity
  8
0
  6
PHANTOM
 62
     7
370
    25
100
AcDbLine
 10
189.8960761917
 20
123.2684442557
 30
0.0
 11
189.8960761917
 21
95.9226920862
 31
0.0
  0
SPLINE
  5
1DB
330
1F
100
AcDbEntity
  8
0
  6
PHANTOM
 62
     7
370
    25
100
AcDbSpline
210
0.0
220
0.0
230
1.0
 70
    24
 71
     3
 72
    13
 73
     9
 74
     0
 42
0.000000001
 43
0.00000001
 40
0.0
 40
0.0
 40
0.0
 40
0.0
 40
0.17973734877241
 40
0.3597621297023759
 40
0.5408959365199311
 40
0.7225270006873392
 40
0.8468508045059635
 40
1.0
 40
1.0
 40
1.0
 40
1.0
 10
187.4423375476943
 20
94.37269208622627
 30
0.0
 10
187.6064674113724
 20
94.37269208622628
 30
0.0
 10
187.9349896117272
 20
94.37269208622628
 30
0.0
 10
188.3384479698008
 20
94.37269208622627
 30
0.0
 10
188.6632527221352
 20
94.37269208622628
 30
0.0
 10
188.8604479449886
 20
94.37269208622628
 30
0.0
 10
188.9847833831619
 20
94.37269208622627
 30
0.0
 10
188.9789008844097
 20
94.37269208622628
 30
0.0
 10
188.9756540821852
 20
94.37269208622628
 30
0.0
  0
SPLINE
  5
1DC
330
1F
100
AcDbEntity
  8
0
  6
PHANTOM
 62
     7
370
    25
100
AcDbSpline
210
0.0
220
0.0
230
1.0
 70
    24
 71
     3
 72
     8
 73
     4
 74
     0
 42
0.000000001
 43
0.00000001
 40
0.0
 40
0.0
 40
0.0
 40
0.0
 40
1.0
 40
1.0
 40
1.0
 40
1.0
 10
189.896076191749
 20
123.2684442556636
 30
0.0
 10
189.1279105593877
 20
123.3901097394217
 30
0.0
 10
188.298136415911
 20
123.521533052732
 30
0.0
 10
187.442337547693
 20
123.6570782775051
 30
0.0
  0
LINE
  5
1DD
330
1F
100
AcDbEntity
  8
0
  6
PHANTOM
 62
     7
370
    25
100
AcDbLine
 10
118.1460761917
 20
92.4226920862
 30
0.0
 11
118.1460761917
 21
131.4226920862
 31
0.0
  0
LINE
  5
1DE
330
1F
100
AcDbEntity
  8
0
  6
PHANTOM
 62
     7
370
    25
100
AcDbLine
 10
96.1460761917
 20
100.9226920862
 30
0.0
 11
96.1460761917
 21
122.9226920862
 31
0.0
  0
SPLINE
  5
1DF
330
1F
100
AcDbEntity
  8
0
  6
PHANTOM
 62
     7
370
    25
100
AcDbSpline
210
0.0
220
0.0
230
1.0
 70
     8
 71
     3
 72
    39
 73
    35
 74
     0
 42
0.000000001
 43
0.00000001
 40
0.0
 40
0.0
 40
0.0
 40
0.0
 40
0.0075085978030944
 40
0.080858463066853
 40
0.1545493111409549
 40
0.1807136265499379
 40
0.2072695314733718
 40
0.2340093148613923
 40
0.2611118430769987
 40
0.287798197446305
 40
0.3418448786493759
 40
0.369238570301953
 40
0.4003500245157493
 40
0.4318901589933615
 40
0.4636493060961752
 40
0.4958599623861581
 40
0.5273790411386524
 40
0.5591200264471692
 40
0.5915552761453141
 40
0.6242277608656097
 40
0.6557118662620831
 40
0.6874119655649993
 40
0.7198101612808387
 40
0.7524625335695402
 40
0.7776970692859775
 40
0.8032381933479742
 40
0.8289445502285192
 40
0.8550098023484203
 40
0.875102009684855
 40
0.9158896559778776
 40
0.9366588319590883
 40
0.9567576644857525
 40
0.9978121776160206
 40
1.0
 40
1.0
 40
1.0
 40
1.0
 10
100.4001893063783
 20
122.9212409319281
 30
0.0
 10
100.3992067860402
 20
122.9215884573873
 30
0.0
 10
100.3886262373734
 20
122.9253308837687
 30
0.0
 10
100.5897066504207
 20
122.8537804738601
 30
0.0
 10
101.0661282930929
 20
122.6940825932692
 30
0.0
 10
101.5165807308748
 20
122.5555086309089
 30
0.0
 10
101.8282686045151
 20
122.4643051068944
 30
0.0
 10
102.169576593841
 20
122.3702485522874
 30
0.0
 10
102.5343750961341
 20
122.2767163501053
 30
0.0
 10
103.0495740003933
 20
122.1554593209404
 30
0.0
 10
103.6023623573789
 20
122.0439961575591
 30
0.0
 10
104.2045005173376
 20
121.9470129536186
 30
0.0
 10
104.6996906241483
 20
121.8822114617773
 30
0.0
 10
105.2303717642165
 20
121.8309118221415
 30
0.0
 10
105.7754193059944
 20
121.797803209132
 30
0.0
 10
106.3247995485556
 20
121.7848886479099
 30
0.0
 10
106.8745417156896
 20
121.7925616320098
 30
0.0
 10
107.4222036545754
 20
121.8204540321661
 30
0.0
 10
107.9690951775737
 20
121.8683975232286
 30
0.0
 10
108.5031733032875
 20
121.9344035883176
 30
0.0
 10
109.0183403449128
 20
122.0153727088691
 30
0.0
 10
109.5140303262047
 20
122.1086756797951
 30
0.0
 10
109.9936294840699
 20
122.2129537666919
 30
0.0
 10
110.4164406962779
 20
122.3163193276868
 30
0.0
 10
110.7830997758639
 20
122.413819007682
 30
0.0
 10
111.0974467274705
 20
122.5028326571118
 30
0.0
 10
111.3899404686266
 20
122.5902342520093
 30
0.0
 10
111.6348835312145
 20
122.6668462029433
 30
0.0
 10
111.8980692358844
 20
122.7519445033775
 30
0.0
 10
112.1002015987411
 20
122.8199614374702
 30
0.0
 10
112.2485439796813
 20
122.8710384146517
 30
0.0
 10
112.3555178026461
 20
122.9083290387056
 30
0.0
 10
112.4049472146928
 20
122.9258210282259
 30
0.0
 10
112.3949977613325
 20
122.9223117739832
 30
0.0
 10
112.3944943741654
 20
122.9221342251785
 30
0.0
  0
LINE
  5
1E0
330
1F
100
AcDbEntity
  8
0
  6
PHANTOM
 62
     7
370
    25
100
AcDbLine
 10
115.6460761917
 20
100.9226920862
 30
0.0
 11
115.6460761917
 21
122.9226920862
 31
0.0
  0
SPLINE
  5
1E1
330
1F
100
AcDbEntity
  8
0
  6
PHANTOM
 62
     7
370
    25
100
AcDbSpline
210
0.0
220
0.0
230
1.0
 70
    11
 71
     3
 72
    78
 73
    74
 74
     0
 42
0.000000001
 43
0.00000001
 40
0.0
 40
0.0
 40
0.0
 40
0.0
 40
0.03125
 40
0.03125
 40
0.0625
 40
0.0625
 40
0.078125
 40
0.078125
 40
0.0937500000000001
 40
0.0937500000000001
 40
0.1250000000000003
 40
0.1250000000000003
 40
0.1406250000000004
 40
0.1406250000000004
 40
0.1562500000000004
 40
0.1562500000000004
 40
0.1718750000000005
 40
0.1718750000000005
 40
0.1875000000000006
 40
0.1875000000000006
 40
0.2187500000000006
 40
0.2187500000000006
 40
0.2500000000000006
 40
0.2500000000000006
 40
0.2812500000000006
 40
0.2812500000000006
 40
0.3125000000000005
 40
0.3125000000000005
 40
0.3750000000000005
 40
0.3750000000000005
 40
0.4375000000000004
 40
0.4375000000000004
 40
0.4687500000000004
 40
0.4687500000000004
 40
0.5000000000000003
 40
0.5000000000000003
 40
0.5312500000000002
 40
0.5312500000000002
 40
0.5468750000000002
 40
0.5468750000000002
 40
0.5625000000000002
 40
0.5625000000000002
 40
0.5937500000000002
 40
0.5937500000000002
 40
0.6250000000000001
 40
0.6250000000000001
 40
0.6406250000000001
 40
0.6406250000000001
 40
0.6562500000000001
 40
0.6562500000000001
 40
0.6875000000000001
 40
0.6875000000000001
 40
0.7031250000000001
 40
0.7031250000000001
 40
0.7187500000000001
 40
0.7187500000000001
 40
0.7500000000000001
 40
0.7500000000000001
 40
0.7812500000000001
 40
0.7812500000000001
 40
0.8125000000000001
 40
0.8125000000000001
 40
0.8437500000000001
 40
0.8437500000000001
 40
0.875
 40
0.875
 40
0.90625
 40
0.90625
 40
0.9375
 40
0.9375
 40
0.96875
 40
0.96875
 40
1.0
 40
1.0
 40
1.0
 40
1.0
 10
102.4383854389343
 20
115.565820502617
 30
0.0
 10
102.1494319370888
 20
115.3590696961904
 30
0.0
 10
101.8828369932626
 20
115.1292710100118
 30
0.0
 10
101.3977829216642
 20
114.6177040341146
 30
0.0
 10
101.178172195259
 20
114.3330604982772
 30
0.0
 10
100.9050987471455
 20
113.8776368705413
 30
0.0
 10
100.8229023592428
 20
113.7205728176389
 30
0.0
 10
100.6776317610213
 20
113.394921713668
 30
0.0
 10
100.6141786822908
 20
113.2248607783073
 30
0.0
 10
100.4598734610974
 20
112.7086811143238
 30
0.0
 10
100.4035513955277
 20
112.356516305747
 30
0.0
 10
100.3933691842468
 20
111.8153370168879
 30
0.0
 10
100.402788078983
 20
111.6323957897434
 30
0.0
 10
100.4461218149784
 20
111.2752016740052
 30
0.0
 10
100.4799145456622
 20
111.0992821836269
 30
0.0
 10
100.5707823500196
 20
110.7525622367969
 30
0.0
 10
100.6283589744909
 20
110.5806379255945
 30
0.0
 10
100.7640354361912
 20
110.2479632918689
 30
0.0
 10
100.8417808111232
 20
110.0875358192129
 30
0.0
 10
101.1022165419053
 20
109.6222968694349
 30
0.0
 10
101.3144552046527
 20
109.3312167436659
 30
0.0
 10
101.7857603385791
 20
108.8078005589484
 30
0.0
 10
102.0458179033814
 20
108.5725729372469
 30
0.0
 10
102.6104285106274
 20
108.1482672941641
 30
0.0
 10
102.9138211301148
 20
107.9608828425916
 30
0.0
 10
103.5430428371459
 20
107.6405973418208
 30
0.0
 10
103.871697047088
 20
107.5057629218817
 30
0.0
 10
104.8967020434465
 20
107.1765437405622
 30
0.0
 10
105.6006625944126
 20
107.064593216931
 30
0.0
 10
107.0508116466275
 20
107.0505521299666
 30
0.0
 10
107.7571260834261
 20
107.1489280077225
 30
0.0
 10
108.7886469633778
 20
107.4572688527452
 30
0.0
 10
109.1204030654323
 20
107.5854435886692
 30
0.0
 10
109.7543312386083
 20
107.8908687118206
 30
0.0
 10
110.0575942008999
 20
108.0683576933155
 30
0.0
 10
110.6345178059277
 20
108.4797537963203
 30
0.0
 10
110.9031396986945
 20
108.7105421389021
 30
0.0
 10
111.2663947523501
 20
109.0922580871266
 30
0.0
 10
111.3812325850807
 20
109.2257573247645
 30
0.0
 10
111.5973187763315
 20
109.5066419403032
 30
0.0
 10
111.6989788315546
 20
109.6548686390811
 30
0.0
 10
111.9745517854631
 20
110.112165473794
 30
0.0
 10
112.1217174046911
 20
110.4358350098401
 30
0.0
 10
112.3306944421861
 20
111.1280094213789
 30
0.0
 10
112.3878162765309
 20
111.4834151644641
 30
0.0
 10
112.3989592008699
 20
112.0218219032142
 30
0.0
 10
112.3900708075644
 20
112.2041774881318
 30
0.0
 10
112.3471438716809
 20
112.5638699525613
 30
0.0
 10
112.3134663160565
 20
112.7403499466913
 30
0.0
 10
112.1780105386434
 20
113.2603434933341
 30
0.0
 10
112.0395852006066
 20
113.5976202186722
 30
0.0
 10
111.7793823320253
 20
114.0637209114237
 30
0.0
 10
111.6837678582779
 20
114.2133272020573
 30
0.0
 10
111.4758653659446
 20
114.501879824719
 30
0.0
 10
111.3631206667195
 20
114.641191015551
 30
0.0
 10
111.0083927102964
 20
115.0357966187241
 30
0.0
 10
110.7482462851794
 20
115.2710904620147
 30
0.0
 10
110.185761877342
 20
115.6943633736114
 30
0.0
 10
109.8811940865275
 20
115.8828836117057
 30
0.0
 10
109.250852457674
 20
116.2040589713843
 30
0.0
 10
108.9231312414811
 20
116.3385282244498
 30
0.0
 10
108.2425427090705
 20
116.5575893648742
 30
0.0
 10
107.8909176276101
 20
116.6411781235681
 30
0.0
 10
107.185746929863
 20
116.7539824340665
 30
0.0
 10
106.8294026032771
 20
116.7841581079963
 30
0.0
 10
106.1090026965045
 20
116.7914098425359
 30
0.0
 10
105.7455572377799
 20
116.7678452968911
 30
0.0
 10
105.0376005327877
 20
116.6686489737216
 30
0.0
 10
104.6896564747658
 20
116.5931956454292
 30
0.0
 10
104.005855477158
 20
116.3888407999659
 30
0.0
 10
103.6697945314196
 20
116.2592533325105
 30
0.0
 10
103.0321610145273
 20
115.9515308048648
 30
0.0
 10
102.7273389407799
 20
115.7725713090437
 30
0.0
 10
102.4383854389343
 20
115.565820502617
 30
0.0
  0
CIRCLE
  5
1E2
330
1F
100
AcDbEntity
  8
0
  6
PHANTOM
 62
     7
370
    25
100
AcDbCircle
 10
106.3960761917
 20
111.9226920862
 30
0.0
 40
4.66858565927437
  0
LINE
  5
1E3
330
1F
100
AcDbEntity
  8
0
  6
PHANTOM
 62
     7
370
    25
100
AcDbLine
 10
183.7450534169
 20
94.3626920862
 30
0.0
 11
183.7450534169
 21
94.3726920862
 31
0.0
  0
LINE
  5
1E4
330
1F
100
AcDbEntity
  8
0
  6
PHANTOM
 62
     7
370
    25
100
AcDbLine
 10
90.1460761917
 20
102.1326920862
 30
0.0
 11
90.1460761917
 21
121.7126920838
 31
0.0
  0
SPLINE
  5
1E5
330
1F
100
AcDbEntity
  8
0
  6
PHANTOM
 62
     7
370
    25
100
AcDbSpline
210
0.0
220
0.0
230
1.0
 70
     8
 71
     3
 72
    18
 73
    14
 74
     0
 42
0.000000001
 43
0.00000001
 40
0.0
 40
0.0
 40
0.0
 40
0.0
 40
0.2499999999999986
 40
0.2499999999999986
 40
0.3749999999999986
 40
0.3749999999999986
 40
0.4999999999999986
 40
0.4999999999999986
 40
0.6249999999999986
 40
0.6249999999999986
 40
0.7499999999999986
 40
0.7499999999999986
 40
1.0
 40
1.0
 40
1.0
 40
1.0
 10
105.1194512712935
 20
114.3268551422605
 30
0.0
 10
105.2831451514742
 20
114.451633032558
 30
0.0
 10
105.4766963029637
 20
114.5615341242566
 30
0.0
 10
105.8022111201744
 20
114.6779084843479
 30
0.0
 10
105.9177435066455
 20
114.7088739829266
 30
0.0
 10
106.1517705161983
 20
114.7501516148666
 30
0.0
 10
106.2718301928049
 20
114.7610668769724
 30
0.0
 10
106.5175015734401
 20
114.7612336189804
 30
0.0
 10
106.6377383151122
 20
114.7505097140056
 30
0.0
 10
106.8734243543439
 20
114.7091541502618
 30
0.0
 10
106.9892153953538
 20
114.6781193942359
 30
0.0
 10
107.3145549397778
 20
114.5619529529419
 30
0.0
 10
107.5082905804118
 20
114.4521793100126
 30
0.0
 10
107.6727011122043
 20
114.3268551422606
 30
0.0
  0
SPLINE
  5
1E6
330
1F
100
AcDbEntity
  8
0
  6
PHANTOM
 62
     7
370
    25
100
AcDbSpline
210
0.0
220
0.0
230
1.0
 70
     8
 71
     3
 72
    54
 73
    50
 74
     0
 42
0.000000001
 43
0.00000001
 40
0.0
 40
0.0
 40
0.0
 40
0.0
 40
0.0625000000000001
 40
0.0625000000000001
 40
0.1250000000000003
 40
0.1250000000000003
 40
0.1562500000000003
 40
0.1562500000000003
 40
0.1875000000000004
 40
0.1875000000000004
 40
0.2187500000000004
 40
0.2187500000000004
 40
0.2500000000000004
 40
0.2500000000000004
 40
0.2812500000000005
 40
0.2812500000000005
 40
0.3125000000000005
 40
0.3125000000000005
 40
0.3750000000000006
 40
0.3750000000000006
 40
0.4375000000000007
 40
0.4375000000000007
 40
0.4687500000000008
 40
0.4687500000000008
 40
0.5000000000000008
 40
0.5000000000000008
 40
0.5312500000000009
 40
0.5312500000000009
 40
0.5625000000000009
 40
0.5625000000000009
 40
0.625000000000001
 40
0.625000000000001
 40
0.656250000000001
 40
0.656250000000001
 40
0.687500000000001
 40
0.687500000000001
 40
0.7500000000000008
 40
0.7500000000000008
 40
0.7812500000000008
 40
0.7812500000000008
 40
0.8125000000000007
 40
0.8125000000000007
 40
0.8437500000000007
 40
0.8437500000000007
 40
0.8750000000000006
 40
0.8750000000000006
 40
0.9375000000000003
 40
0.9375000000000003
 40
1.0
 40
1.0
 40
1.0
 40
1.0
 10
107.6727011122043
 20
114.3268551422606
 30
0.0
 10
107.9610770787038
 20
114.2093690438441
 30
0.0
 10
108.2193955905778
 20
114.0561851123344
 30
0.0
 10
108.6874514310518
 20
113.6652892323718
 30
0.0
 10
108.8876494487248
 20
113.4353124862787
 30
0.0
 10
109.1273004081712
 20
113.024096406866
 30
0.0
 10
109.1944986426811
 20
112.8795832772097
 30
0.0
 10
109.3011343686222
 20
112.5748386916365
 30
0.0
 10
109.3406841052224
 20
112.4123025890445
 30
0.0
 10
109.3850675741894
 20
112.0861028099207
 30
0.0
 10
109.3907791035466
 20
111.9211252977707
 30
0.0
 10
109.3674665381987
 20
111.5872027543904
 30
0.0
 10
109.3387372294862
 20
111.424365076423
 30
0.0
 10
109.250721629365
 20
111.1101270514972
 30
0.0
 10
109.1907559934303
 20
110.9576467207347
 30
0.0
 10
109.0474403368569
 20
110.6744008069068
 30
0.0
 10
108.962942801455
 20
110.5408423409748
 30
0.0
 10
108.6804999350184
 20
110.1709443851065
 30
0.0
 10
108.4575995801332
 20
109.9670178519603
 30
0.0
 10
107.9491797436197
 20
109.629510602054
 30
0.0
 10
107.6730121293747
 20
109.5016480139261
 30
0.0
 10
107.212761892023
 20
109.3664088913971
 30
0.0
 10
107.0552018681778
 20
109.3322188318681
 30
0.0
 10
106.7321819995398
 20
109.2859022180964
 30
0.0
 10
106.5641798245794
 20
109.2737918310153
 30
0.0
 10
106.2321460535354
 20
109.2735956155121
 30
0.0
 10
106.0680439285872
 20
109.285103499558
 30
0.0
 10
105.7433928894198
 20
109.3309518679038
 30
0.0
 10
105.583619615482
 20
109.3654830198821
 30
0.0
 10
105.1285194992566
 20
109.498276694248
 30
0.0
 10
104.8456313206429
 20
109.6283990001836
 30
0.0
 10
104.4667921480613
 20
109.878914283521
 30
0.0
 10
104.3477120356058
 20
109.9717163359443
 30
0.0
 10
104.1236063797467
 20
110.1785702602804
 30
0.0
 10
104.019403615263
 20
110.2921565697363
 30
0.0
 10
103.7386842018645
 20
110.6586143011291
 30
0.0
 10
103.5884686044373
 20
110.9462309583652
 30
0.0
 10
103.4552010865997
 20
111.4160429447768
 30
0.0
 10
103.4255932987424
 20
111.5818259877916
 30
0.0
 10
103.4015489885808
 20
111.9113301513335
 30
0.0
 10
103.4063212656486
 20
112.0770625999165
 30
0.0
 10
103.4504739452576
 20
112.4082906356406
 30
0.0
 10
103.4888949787148
 20
112.567357751746
 30
0.0
 10
103.5951982481219
 20
112.8739202880824
 30
0.0
 10
103.6633581291249
 20
113.0209379491667
 30
0.0
 10
103.9002863588062
 20
113.4292409322046
 30
0.0
 10
104.1056929540076
 20
113.6662250957915
 30
0.0
 10
104.5729261275193
 20
114.0562188691344
 30
0.0
 10
104.8309894783233
 20
114.2093340776251
 30
0.0
 10
105.1194512712935
 20
114.3268551422605
 30
0.0
  0
SPLINE
  5
1E7
330
1F
100
AcDbEntity
  8
0
  6
PHANTOM
 62
     7
370
    25
100
AcDbSpline
210
0.0
220
0.0
230
1.0
 70
     8
 71
     3
 72
    19
 73
    15
 74
     0
 42
0.000000001
 43
0.00000001
 40
0.0
 40
0.0
 40
0.0
 40
0.0
 40
0.0337641556797751
 40
0.1122959399594802
 40
0.1912444399715761
 40
0.2716780889196027
 40
0.3527234831260684
 40
0.4312920620608218
 40
0.5105727350608482
 40
0.5921625451394252
 40
0.6745495101853082
 40
0.8129454063457957
 40
0.9542164524530522
 40
1.0
 40
1.0
 40
1.0
 40
1.0
 10
105.1149912287196
 20
114.3304167120201
 30
0.0
 10
105.1410000649204
 20
114.3192711790231
 30
0.0
 10
105.2275026487883
 20
114.2822023384422
 30
0.0
 10
105.3837928013809
 20
114.2272884936741
 30
0.0
 10
105.5823881072931
 20
114.1658880529428
 30
0.0
 10
105.7897451645597
 20
114.1155906401181
 30
0.0
 10
106.001684481568
 20
114.0787058873328
 30
0.0
 10
106.216175432219
 20
114.0571040385195
 30
0.0
 10
106.4328550785525
 20
114.0515038315465
 30
0.0
 10
106.6526324539464
 20
114.0628166365476
 30
0.0
 10
106.9228068918171
 20
114.097401422626
 30
0.0
 10
107.2369225726637
 20
114.1699283541913
 30
0.0
 10
107.5075324833442
 20
114.2586789197172
 30
0.0
 10
107.652317950801
 20
114.3198874204353
 30
0.0
 10
107.6877556922855
 20
114.3348688344073
 30
0.0
  0
LINE
  5
1E8
330
1F
100
AcDbEntity
  8
0
  6
PHANTOM
 62
     7
370
    25
100
AcDbLine
 10
186.0823209242
 20
94.3626920862
 30
0.0
 11
183.7450534169
 21
94.3626920862
 31
0.0
  0
LINE
  5
1E9
330
1F
100
AcDbEntity
  8
0
  6
PHANTOM
 62
     7
370
    25
100
AcDbLine
 10
183.7450534169
 20
94.3626920862
 30
0.0
 11
183.6960761917
 21
94.3626920862
 31
0.0
  0
CIRCLE
  5
1EA
330
1F
100
AcDbEntity
  8
0
  6
PHANTOM
 62
     7
370
    25
100
AcDbCircle
 10
155.6172637661
 20
145.9432932536
 30
0.0
 40
0.7748015129974573
  0
ARC
  5
1EB
330
1F
100
AcDbEntity
  8
0
  6
PHANTOM
 62
     7
370
    25
100
AcDbCircle
 10
152.7460559423
 20
149.4898344258
 30
0.0
 40
0.1077525032278184
100
AcDbArc
 50
79.9871684463
 51
179.978450116
  0
ARC
  5
1EC
330
1F
100
AcDbEntity
  8
0
  6
PHANTOM
 62
     7
370
    25
100
AcDbCircle
 10
152.7460010357
 20
149.5727853371
 30
0.0
 40
0.399924872203896
100
AcDbArc
 50
79.987168447
 51
179.9784501152
  0
LINE
  5
1ED
330
1F
100
AcDbEntity
  8
0
  6
PHANTOM
 62
     7
370
    25
100
AcDbLine
 10
152.7647907325
 20
149.5959457333
 30
0.0
 11
158.3147907325
 21
148.617927136
 31
0.0
  0
LINE
  5
1EE
330
1F
100
AcDbEntity
  8
0
  6
PHANTOM
 62
     7
370
    25
100
AcDbLine
 10
152.8155354628
 20
149.9666188893
 30
0.0
 11
158.3655354628
 21
148.988600292
 31
0.0
  0
LINE
  5
1EF
330
1F
100
AcDbEntity
  8
0
  6
PHANTOM
 62
     7
370
    25
100
AcDbLine
 10
158.4038489368
 20
148.511856356
 30
0.0
 11
158.4038489368
 21
148.4999904306
 31
0.0
  0
LINE
  5
1F0
330
1F
100
AcDbEntity
  8
0
  6
PHANTOM
 62
     7
370
    25
100
AcDbLine
 10
152.7390544292
 20
143.749559047
 30
0.0
 11
152.727361651
 21
143.7516195433
 31
0.0
  0
ARC
  5
1F1
330
1F
100
AcDbEntity
  8
0
  6
PHANTOM
 62
     7
370
    25
100
AcDbCircle
 10
152.7460292976
 20
143.8577156251
 30
0.0
 40
0.1077258539022582
100
AcDbArc
 50
180.0134571392
 51
260.0209279369
  0
LINE
  5
1F2
330
1F
100
AcDbEntity
  8
0
  6
PHANTOM
 62
     7
370
    25
100
AcDbLine
 10
152.6383034467
 20
143.8576903233
 30
0.0
 11
152.6383034467
 21
149.4898749533
 31
0.0
  0
ARC
  5
1F3
330
1F
100
AcDbEntity
  8
0
  6
PHANTOM
 62
     7
370
    25
100
AcDbCircle
 10
158.2961230859
 20
148.5118310543
 30
0.0
 40
0.1077258539020673
100
AcDbArc
 50
0.0134571391
 51
80.020927937
  0
LINE
  5
1F4
330
1F
100
AcDbEntity
  8
0
  6
PHANTOM
 62
     7
370
    25
100
AcDbLine
 10
152.3460761917
 20
143.9407511255
 30
0.0
 11
152.3460761917
 21
149.5729357554
 31
0.0
  0
ARC
  5
1F5
330
1F
100
AcDbEntity
  8
0
  6
PHANTOM
 62
     7
370
    25
100
AcDbCircle
 10
158.2961729025
 20
148.5946968457
 30
0.0
 40
0.3999638606397365
100
AcDbArc
 50
27.3017215013
 51
80.0131546543
  0
ARC
  5
1F6
330
1F
100
AcDbEntity
  8
0
  6
PHANTOM
 62
     7
370
    25
100
AcDbCircle
 10
152.74576637
 20
143.9407910533
 30
0.0
 40
0.3996901802815723
100
AcDbArc
 50
180.0057236648
 51
233.2264654966
  0
ELLIPSE
  5
1F7
330
1F
100
AcDbEntity
  8
0
  6
PHANTOM
 62
     7
370
    25
100
AcDbEllipse
 10
154.2076123926
 20
142.3928156632
 30
0.0
 11
37.46357312604792
 21
-6.986315017984595
 31
0.0
210
0.0
220
0.0
230
1.0
 40
0.1545180653
 41
1.433108762878103
 42
1.615888145996125
  0
SPLINE
  5
1F8
330
1F
100
AcDbEntity
  8
0
  6
PHANTOM
 62
     7
370
    25
100
AcDbSpline
210
0.0
220
0.0
230
1.0
 70
     8
 71
     3
 72
    12
 73
     8
 74
     0
 42
0.000000001
 43
0.00000001
 40
0.0
 40
0.0
 40
0.0
 40
0.0
 40
0.1797958588685812
 40
0.512728581361356
 40
0.677896911258856
 40
0.8495894086565028
 40
1.0
 40
1.0
 40
1.0
 40
1.0
 10
163.8807203441337
 20
147.9226932231851
 30
0.0
 10
163.7105850132366
 20
147.8122072113861
 30
0.0
 10
163.2254056136706
 20
147.497131344531
 30
0.0
 10
162.4452555865871
 20
147.2031426837648
 30
0.0
 10
161.6172971289459
 20
147.0763519614843
 30
0.0
 10
160.9984876931587
 20
147.0698228498087
 30
0.0
 10
160.6033896802988
 20
147.136705484666
 30
0.0
 10
160.4188930770991
 20
147.167937276633
 30
0.0
  0
LINE
  5
1F9
330
1F
100
AcDbEntity
  8
0
  6
PHANTOM
 62
     7
370
    25
100
AcDbLine
 10
163.8817866262
 20
147.9226920862
 30
0.0
 11
163.8807203441
 21
147.9226932232
 31
0.0
  0
LINE
  5
1FA
330
1F
100
AcDbEntity
  8
0
  6
PHANTOM
 62
     7
370
    25
100
AcDbLine
 10
170.7215167027
 20
147.9226920862
 30
0.0
 11
163.8817866262
 21
147.9226920862
 31
0.0
  0
SPLINE
  5
1FB
330
1F
100
AcDbEntity
  8
0
  6
PHANTOM
 62
     7
370
    25
100
AcDbSpline
210
0.0
220
0.0
230
1.0
 70
     8
 71
     3
 72
    12
 73
     8
 74
     0
 42
0.000000001
 43
0.00000001
 40
0.0
 40
0.0
 40
0.0
 40
0.0
 40
0.2455032411790274
 40
0.4924292635960703
 40
0.6185780489214088
 40
0.8722983661451861
 40
1.0
 40
1.0
 40
1.0
 40
1.0
 10
154.4006307108648
 20
147.4825604505234
 30
0.0
 10
155.629571496525
 20
147.0427837561272
 30
0.0
 10
158.0945752299971
 20
146.1606817002512
 30
0.0
 10
161.2848737906333
 20
145.3605301772989
 30
0.0
 10
164.5551198774083
 20
144.7636378898645
 30
0.0
 10
167.2361074462277
 20
144.4662921627466
 30
0.0
 10
169.2574381882924
 20
144.433628136279
 30
0.0
 10
169.9341880124508
 20
144.4226920862263
 30
0.0
  0
SPLINE
  5
1FC
330
1F
100
AcDbEntity
  8
0
  6
PHANTOM
 62
     7
370
    25
100
AcDbSpline
210
0.0
220
0.0
230
1.0
 70
     8
 71
     3
 72
     9
 73
     5
 74
     0
 42
0.000000001
 43
0.00000001
 40
0.0
 40
0.0
 40
0.0
 40
0.0
 40
0.4999985675502638
 40
1.0
 40
1.0
 40
1.0
 40
1.0
 10
154.4006307108648
 20
147.4825604505234
 30
0.0
 10
154.2665418960377
 20
147.6502181385496
 30
0.0
 10
153.9983634980794
 20
147.9855344752496
 30
0.0
 10
153.7309872423919
 20
148.3222773737574
 30
0.0
 10
153.5972987315451
 20
148.4906493053785
 30
0.0
  0
LINE
  5
1FD
330
1F
100
AcDbEntity
  8
0
  6
PHANTOM
 62
     7
370
    25
100
AcDbLine
 10
160.6224452845
 20
137.4726920862
 30
0.0
 11
169.9341880125
 21
138.9475272466
 31
0.0
  0
LINE
  5
1FE
330
1F
100
AcDbEntity
  8
0
  6
PHANTOM
 62
     7
370
    25
100
AcDbLine
 10
157.8485414121
 20
137.4726920862
 30
0.0
 11
160.6224452845
 21
137.4726920862
 31
0.0
  0
LINE
  5
1FF
330
1F
100
AcDbEntity
  8
0
  6
PHANTOM
 62
     7
370
    25
100
AcDbLine
 10
154.4006307108
 20
140.8135584229
 30
0.0
 11
157.8485414121
 21
137.4726920862
 31
0.0
  0
LINE
  5
200
330
1F
100
AcDbEntity
  8
0
  6
PHANTOM
 62
     7
370
    25
100
AcDbLine
 10
154.4006307109
 20
147.4825604505
 30
0.0
 11
154.4006307108
 21
140.8135584229
 31
0.0
  0
ELLIPSE
  5
201
330
1F
100
AcDbEntity
  8
0
  6
PHANTOM
 62
     7
370
    25
100
AcDbEllipse
 10
155.6174943332
 20
145.8384401455
 30
0.0
 11
-0.6984410129141737
 21
0.7562915866641619
 31
0.0
210
0.0
220
0.0
230
1.0
 40
0.9919499568
 41
0.0
 42
6.283185307179586
  0
LINE
  5
202
330
1F
100
AcDbEntity
  8
0
  6
PHANTOM
 62
     7
370
    25
100
AcDbLine
 10
170.7215167027
 20
147.9226920862
 30
0.0
 11
181.7460761917
 21
147.9226920862
 31
0.0
  0
LINE
  5
203
330
1F
100
AcDbEntity
  8
0
  6
PHANTOM
 62
     7
370
    25
100
AcDbLine
 10
169.9341880125
 20
144.4226920862
 30
0.0
 11
185.2460761917
 21
144.4226920862
 31
0.0
  0
LINE
  5
204
330
1F
100
AcDbEntity
  8
0
  6
PHANTOM
 62
     7
370
    25
100
AcDbLine
 10
185.2460761917
 20
141.9226920862
 30
0.0
 11
184.5887954741
 21
141.9226920862
 31
0.0
  0
LINE
  5
205
330
1F
100
AcDbEntity
  8
0
  6
PHANTOM
 62
     7
370
    25
100
AcDbLine
 10
184.5887954741
 20
141.2685890476
 30
0.0
 11
184.5887954741
 21
141.9226920862
 31
0.0
  0
LINE
  5
206
330
1F
100
AcDbEntity
  8
0
  6
PHANTOM
 62
     7
370
    25
100
AcDbLine
 10
169.9341880125
 20
138.9475272466
 30
0.0
 11
184.5887954741
 21
141.2685890476
 31
0.0
  0
LINE
  5
207
330
1F
100
AcDbEntity
  8
0
  6
PHANTOM
 62
     7
370
    25
100
AcDbLine
 10
156.9970580665
 20
137.4726920862
 30
0.0
 11
152.4591056304
 21
141.9740755204
 31
0.0
  0
LINE
  5
208
330
1F
100
AcDbEntity
  8
0
  6
PHANTOM
 62
     7
370
    25
100
AcDbLine
 10
153.4005463354
 20
141.7064864478
 30
0.0
 11
152.4591056304
 21
141.9740755204
 31
0.0
  0
LINE
  5
209
330
1F
100
AcDbEntity
  8
0
  6
PHANTOM
 62
     7
370
    25
100
AcDbLine
 10
154.4006307108
 20
140.8135584229
 30
0.0
 11
153.4005463354
 21
141.7064864478
 31
0.0
  0
LINE
  5
20A
330
1F
100
AcDbEntity
  8
0
  6
PHANTOM
 62
     7
370
    25
100
AcDbLine
 10
157.8485414121
 20
137.4726920862
 30
0.0
 11
156.9970580665
 21
137.4726920862
 31
0.0
  0
ELLIPSE
  5
20B
330
1F
100
AcDbEntity
  8
0
  6
PHANTOM
 62
     7
370
    25
100
AcDbEllipse
 10
161.4728615118
 20
153.4349808715
 30
0.0
 11
0.9489020500510038
 21
4.944349177780708
 31
0.0
210
0.0
220
0.0
230
1.0
 40
0.993111535
 41
3.156670330950648
 42
3.23740665060327
  0
LINE
  5
20C
330
1F
100
AcDbEntity
  8
0
  6
PHANTOM
 62
     7
370
    25
100
AcDbLine
 10
160.9980667536
 20
148.4231559711
 30
0.0
 11
163.7950138349
 21
147.9302791674
 31
0.0
  0
LINE
  5
20D
330
1F
100
AcDbEntity
  8
0
  6
PHANTOM
 62
     7
370
    25
100
AcDbLine
 10
163.7950138349
 20
147.9302791674
 30
0.0
 11
163.8807203441
 21
147.9226932232
 31
0.0
  0
LINE
  5
20E
330
1F
100
AcDbEntity
  8
0
  6
PHANTOM
 62
     7
370
    25
100
AcDbLine
 10
153.4005463354
 20
141.7064864478
 30
0.0
 11
153.367494819
 21
148.3691490497
 31
0.0
  0
LINE
  5
20F
330
1F
100
AcDbEntity
  8
0
  6
PHANTOM
 62
     7
370
    25
100
AcDbLine
 10
153.5972987315
 20
148.4906493054
 30
0.0
 11
153.367494819
 21
148.3691490497
 31
0.0
  0
LINE
  5
210
330
1F
100
AcDbEntity
  8
0
  6
PHANTOM
 62
     7
370
    25
100
AcDbLine
 10
152.9380825064
 20
149.4631654247
 30
0.0
 11
153.5972987315
 21
148.4906493054
 31
0.0
  0
LINE
  5
211
330
1F
100
AcDbEntity
  8
0
  6
PHANTOM
 62
     7
370
    25
100
AcDbLine
 10
158.5499625643
 20
148.4742423504
 30
0.0
 11
152.9380825064
 21
149.4631654247
 31
0.0
  0
LINE
  5
212
330
1F
100
AcDbEntity
  8
0
  6
PHANTOM
 62
     7
370
    25
100
AcDbLine
 10
158.5499625643
 20
148.4742423504
 30
0.0
 11
158.5499625643
 21
148.6640500356
 31
0.0
  0
LINE
  5
213
330
1F
100
AcDbEntity
  8
0
  6
PHANTOM
 62
     7
370
    25
100
AcDbLine
 10
158.5499625643
 20
148.6640500356
 30
0.0
 11
158.6837977357
 21
148.8143231192
 31
0.0
  0
LINE
  5
214
330
1F
100
AcDbEntity
  8
0
  6
PHANTOM
 62
     7
370
    25
100
AcDbLine
 10
158.6837977357
 20
148.8143231192
 30
0.0
 11
160.598100286
 21
148.4769855525
 31
0.0
  0
LINE
  5
215
330
1F
100
AcDbEntity
  8
0
  6
PHANTOM
 62
     7
370
    25
100
AcDbLine
 10
153.367494819
 20
148.3691490497
 30
0.0
 11
152.7390544292
 21
149.2962627731
 31
0.0
  0
LINE
  5
216
330
1F
100
AcDbEntity
  8
0
  6
PHANTOM
 62
     7
370
    25
100
AcDbLine
 10
152.7390544292
 20
149.2962627731
 30
0.0
 11
152.9380825064
 21
149.4631654247
 31
0.0
  0
LINE
  5
217
330
1F
100
AcDbEntity
  8
0
  6
PHANTOM
 62
     7
370
    25
100
AcDbLine
 10
152.4591056304
 20
141.9740755204
 30
0.0
 11
152.4591056304
 21
143.5943680633
 31
0.0
  0
LINE
  5
218
330
1F
100
AcDbEntity
  8
0
  6
PHANTOM
 62
     7
370
    25
100
AcDbLine
 10
152.4591056304
 20
143.5943680633
 30
0.0
 11
152.5929408018
 21
143.6685602441
 31
0.0
  0
LINE
  5
219
330
1F
100
AcDbEntity
  8
0
  6
PHANTOM
 62
     7
370
    25
100
AcDbLine
 10
152.5929408018
 20
143.6685602441
 30
0.0
 11
152.7390544292
 21
143.6012817628
 31
0.0
  0
LINE
  5
21A
330
1F
100
AcDbEntity
  8
0
  6
PHANTOM
 62
     7
370
    25
100
AcDbLine
 10
152.7390544292
 20
149.2962627731
 30
0.0
 11
152.7390544292
 21
143.6012817628
 31
0.0
  0
LINE
  5
21B
330
1F
100
AcDbEntity
  8
0
  6
PHANTOM
 62
     7
370
    25
100
AcDbLine
 10
152.7390544292
 20
143.6428121639
 30
0.0
 11
152.5929408018
 21
143.6685602441
 31
0.0
  0
LINE
  5
21C
330
1F
100
AcDbEntity
  8
0
  6
HIDDEN
 62
     7
370
    18
100
AcDbLine
 10
172.7460761917
 20
136.8226920862
 30
0.0
 11
160.2460761917
 21
136.8226920862
 31
0.0
  0
LINE
  5
21D
330
1F
100
AcDbEntity
  8
0
  6
HIDDEN
 62
     7
370
    18
100
AcDbLine
 10
185.2460761917
 20
136.8226920862
 30
0.0
 11
172.7460761917
 21
136.8226920862
 31
0.0
  0
LINE
  5
21E
330
1F
100
AcDbEntity
  8
0
  6
HIDDEN
 62
     7
370
    18
100
AcDbLine
 10
185.2460761917
 20
125.4226920862
 30
0.0
 11
184.869707099
 21
125.4226920862
 31
0.0
  0
LINE
  5
21F
330
1F
100
AcDbEntity
  8
0
  6
HIDDEN
 62
     7
370
    18
100
AcDbLine
 10
160.9033569094
 20
129.9226920862
 30
0.0
 11
160.2460761917
 21
129.9226920862
 31
0.0
  0
LINE
  5
220
330
1F
100
AcDbEntity
  8
0
  6
HIDDEN
 62
     7
370
    18
100
AcDbLine
 10
160.9033569094
 20
129.2185890476
 30
0.0
 11
160.9033569094
 21
129.9226920862
 31
0.0
  0
LINE
  5
221
330
1F
100
AcDbEntity
  8
0
  6
HIDDEN
 62
     7
370
    18
100
AcDbLine
 10
184.869707099
 20
125.4226920862
 30
0.0
 11
160.9033569094
 21
129.2185890476
 31
0.0
  0
LINE
  5
222
330
1F
100
AcDbEntity
  8
0
  6
HIDDEN
 62
     7
370
    18
100
AcDbLine
 10
179.8793874043
 20
140.5226920862
 30
0.0
 11
161.7460761917
 21
140.5226920862
 31
0.0
  0
LINE
  5
223
330
1F
100
AcDbEntity
  8
0
  6
HIDDEN
 62
     7
370
    18
100
AcDbLine
 10
183.7460761917
 20
140.5226920862
 30
0.0
 11
172.7460761917
 21
140.5226920862
 31
0.0
  0
SPLINE
  5
224
330
1F
100
AcDbEntity
  8
0
  6
HIDDEN
 62
     7
370
    18
100
AcDbSpline
210
0.0
220
0.0
230
1.0
 70
     8
 71
     3
 72
     9
 73
     5
 74
     0
 42
0.000000001
 43
0.00000001
 40
0.0
 40
0.0
 40
0.0
 40
0.0
 40
0.3454522794792273
 40
1.0
 40
1.0
 40
1.0
 40
1.0
 10
182.5623891451953
 20
140.9226920862263
 30
0.0
 10
182.4750332667742
 20
141.0035167895894
 30
0.0
 10
182.2221593284319
 20
141.2374845708557
 30
0.0
 10
181.968225366578
 20
141.4703019810718
 30
0.0
 10
181.8020134706837
 20
141.6226920862263
 30
0.0
  0
LINE
  5
225
330
1F
100
AcDbEntity
  8
0
  6
HIDDEN
 62
     7
370
    18
100
AcDbLine
 10
182.5623891452
 20
140.9226920862
 30
0.0
 11
162.1615345339
 21
140.9226920862
 31
0.0
  0
SPLINE
  5
226
330
1F
100
AcDbEntity
  8
0
  6
HIDDEN
 62
     7
370
    18
100
AcDbSpline
210
0.0
220
0.0
230
1.0
 70
     8
 71
     3
 72
     9
 73
     5
 74
     0
 42
0.000000001
 43
0.00000001
 40
0.0
 40
0.0
 40
0.0
 40
0.0
 40
0.6545477205207716
 40
1.0
 40
1.0
 40
1.0
 40
1.0
 10
181.8020134706838
 20
141.6226920862263
 30
0.0
 10
181.9682253665781
 20
141.4703019810718
 30
0.0
 10
182.222159328432
 20
141.2374845708558
 30
0.0
 10
182.4750332667742
 20
141.0035167895894
 30
0.0
 10
182.5623891451954
 20
140.9226920862263
 30
0.0
  0
LINE
  5
227
330
1F
100
AcDbEntity
  8
0
  6
HIDDEN
 62
     7
370
    18
100
AcDbLine
 10
181.8020134707
 20
141.6226920862
 30
0.0
 11
182.6460761917
 21
141.6226920862
 31
0.0
  0
LINE
  5
228
330
1F
100
AcDbEntity
  8
0
  6
HIDDEN
 62
     7
370
    18
100
AcDbLine
 10
183.7421779141
 20
136.8226920862
 30
0.0
 11
161.7499744694
 21
136.8226920862
 31
0.0
  0
LINE
  5
229
330
1F
100
AcDbEntity
  8
0
  6
HIDDEN
 62
     7
370
    18
100
AcDbLine
 10
162.7715767976
 20
128.9226920862
 30
0.0
 11
183.5460761917
 21
128.9226920862
 31
0.0
  0
SPLINE
  5
22A
330
1F
100
AcDbEntity
  8
0
  6
HIDDEN
 62
     7
370
    18
100
AcDbSpline
210
0.0
220
0.0
230
1.0
 70
    24
 71
     3
 72
    13
 73
     9
 74
     0
 42
0.000000001
 43
0.00000001
 40
0.0
 40
0.0
 40
0.0
 40
0.0
 40
0.0432231892254389
 40
0.1305786164588514
 40
0.2184754199398291
 40
0.4946821285829602
 40
0.7742632017281771
 40
1.0
 40
1.0
 40
1.0
 40
1.0
 10
162.7715767976191
 20
128.9226920862263
 30
0.0
 10
162.7763836377702
 20
128.9219307575392
 30
0.0
 10
162.7909052533131
 20
128.9196307595888
 30
0.0
 10
162.8534514392896
 20
128.9097244169286
 30
0.0
 10
162.9933299714515
 20
128.8875698338986
 30
0.0
 10
163.2489182105399
 20
128.8470886336971
 30
0.0
 10
163.6192218095064
 20
128.7884383054246
 30
0.0
 10
163.9061499022787
 20
128.7429933600375
 30
0.0
 10
164.034327100554
 20
128.7226920862263
 30
0.0
  0
SPLINE
  5
22B
330
1F
100
AcDbEntity
  8
0
  6
HIDDEN
 62
     7
370
    18
100
AcDbSpline
210
0.0
220
0.0
230
1.0
 70
    24
 71
     3
 72
    13
 73
     9
 74
     0
 42
0.000000001
 43
0.00000001
 40
0.0
 40
0.0
 40
0.0
 40
0.0
 40
0.1373264181995268
 40
0.413676407014315
 40
0.6930197130111745
 40
0.8310828215959757
 40
0.9701589772539262
 40
1.0
 40
1.0
 40
1.0
 40
1.0
 10
164.0343271005542
 20
128.7226920862263
 30
0.0
 10
163.9553738607927
 20
128.7351970509177
 30
0.0
 10
163.7175383956662
 20
128.7728664879511
 30
0.0
 10
163.3699194403711
 20
128.8279239216317
 30
0.0
 10
163.0739690417415
 20
128.8747978598825
 30
0.0
 10
162.8871875949846
 20
128.9043811347901
 30
0.0
 10
162.7900752130214
 20
128.9197622250559
 30
0.0
 10
162.7743541000478
 20
128.9222522047355
 30
0.0
 10
162.7715767976191
 20
128.9226920862263
 30
0.0
  0
LINE
  5
22C
330
1F
100
AcDbEntity
  8
0
  6
HIDDEN
 62
     7
370
    18
100
AcDbLine
 10
164.0343271006
 20
128.7226920862
 30
0.0
 11
183.730706626
 21
125.6030920387
 31
0.0
  0
LINE
  5
22D
330
1F
100
AcDbEntity
  8
0
  6
HIDDEN
 62
     7
370
    18
100
AcDbLine
 10
171.3099355301
 20
128.9226920862
 30
0.0
 11
171.3099355301
 21
129.9226920862
 31
0.0
  0
LINE
  5
22E
330
1F
100
AcDbEntity
  8
0
  6
HIDDEN
 62
     7
370
    18
100
AcDbLine
 10
171.3099355301
 20
129.9226920862
 30
0.0
 11
168.4960761917
 21
129.9226920862
 31
0.0
  0
LINE
  5
22F
330
1F
100
AcDbEntity
  8
0
  6
HIDDEN
 62
     7
370
    18
100
AcDbLine
 10
168.4960761917
 20
140.9226920862
 30
0.0
 11
176.9960761917
 21
140.9226920862
 31
0.0
  0
LINE
  5
230
330
1F
100
AcDbEntity
  8
0
  6
HIDDEN
 62
     7
370
    18
100
AcDbLine
 10
171.3099355301
 20
128.9226920862
 30
0.0
 11
176.9960761917
 21
128.9226920862
 31
0.0
  0
LINE
  5
231
330
1F
100
AcDbEntity
  8
0
  6
HIDDEN
 62
     7
370
    18
100
AcDbLine
 10
171.3099355301
 20
129.9226920862
 30
0.0
 11
160.9033569094
 21
129.9226920862
 31
0.0
  0
LINE
  5
232
330
1F
100
AcDbEntity
  8
0
  6
HIDDEN
 62
     7
370
    18
100
AcDbLine
 10
171.3099355301
 20
128.9226920862
 30
0.0
 11
162.7715767976
 21
128.9226920862
 31
0.0
  0
LINE
  5
233
330
1F
100
AcDbEntity
  8
0
  6
HIDDEN
 62
     7
370
    18
100
AcDbLine
 10
160.9033569094
 20
129.2185890476
 30
0.0
 11
162.7715767976
 21
128.9226920862
 31
0.0
  0
LINE
  5
234
330
1F
100
AcDbEntity
  8
0
  6
HIDDEN
 62
     7
370
    18
100
AcDbLine
 10
177.7460761917
 20
140.9226920862
 30
0.0
 11
177.7460761917
 21
141.6226920862
 31
0.0
  0
LINE
  5
235
330
1F
100
AcDbEntity
  8
0
  6
HIDDEN
 62
     7
370
    18
100
AcDbLine
 10
178.2460761917
 20
141.6226920862
 30
0.0
 11
177.7460761917
 21
141.6226920862
 31
0.0
  0
LINE
  5
236
330
1F
100
AcDbEntity
  8
0
  6
HIDDEN
 62
     7
370
    18
100
AcDbLine
 10
178.2460761917
 20
140.9226920862
 30
0.0
 11
177.7460761917
 21
140.9226920862
 31
0.0
  0
LINE
  5
237
330
1F
100
AcDbEntity
  8
0
  6
HIDDEN
 62
     7
370
    18
100
AcDbLine
 10
178.2460761917
 20
141.6226920862
 30
0.0
 11
181.8020134707
 21
141.6226920862
 31
0.0
  0
LINE
  5
238
330
1F
100
AcDbEntity
  8
0
  6
HIDDEN
 62
     7
370
    18
100
AcDbLine
 10
182.5623891452
 20
140.9226920862
 30
0.0
 11
178.2460761917
 21
140.9226920862
 31
0.0
  0
LINE
  5
239
330
1F
100
AcDbEntity
  8
0
  6
HIDDEN
 62
     7
370
    18
100
AcDbLine
 10
177.7460761917
 20
141.6226920862
 30
0.0
 11
178.2460761917
 21
141.6226920862
 31
0.0
  0
LINE
  5
23A
330
1F
100
AcDbEntity
  8
0
  6
HIDDEN
 62
     7
370
    18
100
AcDbLine
 10
177.7460761917
 20
140.9226920862
 30
0.0
 11
178.2460761917
 21
140.9226920862
 31
0.0
  0
SPLINE
  5
23B
330
1F
100
AcDbEntity
  8
0
  6
HIDDEN
 62
     7
370
    18
100
AcDbSpline
210
0.0
220
0.0
230
1.0
 70
     8
 71
     3
 72
     9
 73
     5
 74
     0
 42
0.000000001
 43
0.00000001
 40
0.0
 40
0.0
 40
0.0
 40
0.0
 40
0.330829853716706
 40
0.9999999999999999
 40
0.9999999999999999
 40
0.9999999999999999
 40
0.9999999999999999
 10
162.9297632383025
 20
128.9226920862263
 30
0.0
 10
163.025423948907
 20
129.0111940704779
 30
0.0
 10
163.314577752682
 20
129.2787091790974
 30
0.0
 10
163.60513575338
 20
129.5446993827429
 30
0.0
 10
163.799568493211
 20
129.7226920862263
 30
0.0
  0
LINE
  5
23C
330
1F
100
AcDbEntity
  8
0
  6
HIDDEN
 62
     7
370
    18
100
AcDbLine
 10
162.9297632383
 20
128.9226920862
 30
0.0
 11
183.3306178496
 21
128.9226920862
 31
0.0
  0
SPLINE
  5
23D
330
1F
100
AcDbEntity
  8
0
  6
HIDDEN
 62
     7
370
    18
100
AcDbSpline
210
0.0
220
0.0
230
1.0
 70
     8
 71
     3
 72
     9
 73
     5
 74
     0
 42
0.000000001
 43
0.00000001
 40
0.0
 40
0.0
 40
0.0
 40
0.0
 40
0.6691701462832916
 40
0.9999999999999999
 40
0.9999999999999999
 40
0.9999999999999999
 40
0.9999999999999999
 10
163.7995684932109
 20
129.7226920862263
 30
0.0
 10
163.60513575338
 20
129.5446993827429
 30
0.0
 10
163.3145777526819
 20
129.2787091790974
 30
0.0
 10
163.025423948907
 20
129.0111940704779
 30
0.0
 10
162.9297632383025
 20
128.9226920862263
 30
0.0
  0
LINE
  5
23E
330
1F
100
AcDbEntity
  8
0
  6
HIDDEN
 62
     7
370
    18
100
AcDbLine
 10
163.7995684932
 20
129.7226920862
 30
0.0
 11
162.9460761917
 21
129.7226920862
 31
0.0
  0
LINE
  5
23F
330
1F
100
AcDbEntity
  8
0
  6
HIDDEN
 62
     7
370
    18
100
AcDbLine
 10
161.7460761917
 20
128.5226920862
 30
0.0
 11
183.7460761917
 21
128.5226920862
 31
0.0
  0
LINE
  5
240
330
1F
100
AcDbEntity
  8
0
  6
HIDDEN
 62
     7
370
    18
100
AcDbLine
 10
165.2970774035
 20
128.5226920862
 30
0.0
 11
172.7460761917
 21
128.5226920862
 31
0.0
  0
LINE
  5
241
330
1F
100
AcDbEntity
  8
0
  6
HIDDEN
 62
     7
370
    18
100
AcDbLine
 10
161.7460761917
 20
101.2226920862
 30
0.0
 11
183.7460761917
 21
101.2226920862
 31
0.0
  0
LINE
  5
242
330
1F
100
AcDbEntity
  8
0
  6
HIDDEN
 62
     7
370
    18
100
AcDbLine
 10
181.2610043107
 20
101.2226920862
 30
0.0
 11
181.2610043107
 21
115.6226920862
 31
0.0
  0
SPLINE
  5
243
330
1F
100
AcDbEntity
  8
0
  6
HIDDEN
 62
     7
370
    18
100
AcDbSpline
210
0.0
220
0.0
230
1.0
 70
     8
 71
     3
 72
    17
 73
    13
 74
     0
 42
0.000000001
 43
0.00000001
 40
0.0
 40
0.0
 40
0.0
 40
0.0
 40
0.0697969680174068
 40
0.1419352017355097
 40
0.2116797701433289
 40
0.2832015482822305
 40
0.3768778080063976
 40
0.4732432299531307
 40
0.6013867194786257
 40
0.7331371255323096
 40
0.8654689595928574
 40
1.0
 40
1.0
 40
1.0
 40
1.0
 10
181.2610043106671
 20
115.6226920862263
 30
0.0
 10
181.2598084790542
 20
115.6584848944264
 30
0.0
 10
181.2573767029178
 20
115.7312711428389
 30
0.0
 10
181.2380515836735
 20
115.8362529831934
 30
0.0
 10
181.2082494726793
 20
115.9354048826184
 30
0.0
 10
181.1645305321299
 20
116.0351045089334
 30
0.0
 10
181.1043414277788
 20
116.132340170727
 30
0.0
 10
181.0187822826306
 20
116.2304672679377
 30
0.0
 10
180.9107049394769
 20
116.3149536760944
 30
0.0
 10
180.7811841257312
 20
116.3777979144545
 30
0.0
 10
180.6424725262937
 20
116.4159015733612
 30
0.0
 10
180.5459584501279
 20
116.4204161803722
 30
0.0
 10
180.4973037277112
 20
116.4226920862263
 30
0.0
  0
LINE
  5
244
330
1F
100
AcDbEntity
  8
0
  6
HIDDEN
 62
     7
370
    18
100
AcDbLine
 10
180.4973037277
 20
116.4226920862
 30
0.0
 11
165.8531583382
 21
116.4226920862
 31
0.0
  0
SPLINE
  5
245
330
1F
100
AcDbEntity
  8
0
  6
HIDDEN
 62
     7
370
    18
100
AcDbSpline
210
0.0
220
0.0
230
1.0
 70
     8
 71
     3
 72
    16
 73
    12
 74
     0
 42
0.000000001
 43
0.00000001
 40
0.0
 40
0.0
 40
0.0
 40
0.0
 40
0.1759678381215946
 40
0.3572010016017853
 40
0.4672163978433196
 40
0.5796783881905329
 40
0.6662265038677043
 40
0.7549770779636761
 40
0.8256596304053136
 40
0.8982660234864432
 40
0.9999999999999999
 40
0.9999999999999999
 40
0.9999999999999999
 40
0.9999999999999999
 10
165.8531583381708
 20
116.4226920862263
 30
0.0
 10
165.7832816680859
 20
116.4188072662149
 30
0.0
 10
165.6414374719566
 20
116.410921384261
 30
0.0
 10
165.4651861048669
 20
116.3502894659851
 30
0.0
 10
165.3242094159127
 20
116.2672673764936
 30
0.0
 10
165.2256783210919
 20
116.1821827011206
 30
0.0
 10
165.1452719080939
 20
116.0843509618952
 30
0.0
 10
165.0874301398441
 20
115.9863983245921
 30
0.0
 10
165.045438901621
 20
115.8827731578281
 30
0.0
 10
165.0133454105923
 20
115.7644619934286
 30
0.0
 10
165.0085301220525
 20
115.6749345948583
 30
0.0
 10
165.0057202252262
 20
115.6226920862263
 30
0.0
  0
LINE
  5
246
330
1F
100
AcDbEntity
  8
0
  6
HIDDEN
 62
     7
370
    18
100
AcDbLine
 10
165.0057202252
 20
115.6226920862
 30
0.0
 11
165.0057202252
 21
101.2226920862
 31
0.0
  0
LINE
  5
247
330
1F
100
AcDbEntity
  8
0
  6
HIDDEN
 62
     7
370
    18
100
AcDbLine
 10
183.5627300181
 20
104.4226920862
 30
0.0
 11
183.5627300181
 21
112.4226920862
 31
0.0
  0
SPLINE
  5
248
330
1F
100
AcDbEntity
  8
0
  6
HIDDEN
 62
     7
370
    18
100
AcDbSpline
210
0.0
220
0.0
230
1.0
 70
    11
 71
     3
 72
    40
 73
    36
 74
     0
 42
0.000000001
 43
0.00000001
 40
0.0
 40
0.0
 40
0.0
 40
0.0
 40
0.0260758100447014
 40
0.0523351572214404
 40
0.0791715389121639
 40
0.1062062257539693
 40
0.1322815376292776
 40
0.1853034897619651
 40
0.2123090847103516
 40
0.2386560266478139
 40
0.2922317926990535
 40
0.3195240159048675
 40
0.3460436284840435
 40
0.3727498423271514
 40
0.4000491020214338
 40
0.4275554018206404
 40
0.4537810999402375
 40
0.49998192418453
 40
0.5071437914226992
 40
0.534347505966734
 40
0.5602777093734808
 40
0.6130128920153048
 40
0.6398776097653663
 40
0.6659561060069468
 40
0.718976718923338
 40
0.7459778910393915
 40
0.772424066729081
 40
0.8262101723760195
 40
0.8536158326041954
 40
0.8800870942962028
 40
0.9067458077604216
 40
0.9340005586397085
 40
0.961463343516999
 40
0.9806950599388129
 40
1.0
 40
1.0
 40
1.0
 40
1.0
 10
183.5627300181409
 20
112.4226920862263
 30
0.0
 10
183.5629703955822
 20
112.4774041162814
 30
0.0
 10
183.5634528423849
 20
112.5872132723509
 30
0.0
 10
183.567359029692
 20
112.752171459165
 30
0.0
 10
183.5735837880816
 20
112.916750566192
 30
0.0
 10
183.5821450144049
 20
113.0773661087739
 30
0.0
 10
183.5961572609191
 20
113.2842828964362
 30
0.0
 10
183.6136140787981
 20
113.480153194842
 30
0.0
 10
183.6330747847385
 20
113.6605962118362
 30
0.0
 10
183.6534055200981
 20
113.8303798605903
 30
0.0
 10
183.6741510269736
 20
113.9817294584869
 30
0.0
 10
183.69348682496
 20
114.1104332254865
 30
0.0
 10
183.7068843063149
 20
114.1950552266521
 30
0.0
 10
183.7188059683662
 20
114.2672031023836
 30
0.0
 10
183.729072003594
 20
114.3271818829855
 30
0.0
 10
183.7369610548383
 20
114.3720659007704
 30
0.0
 10
183.7444951377193
 20
114.4140699845903
 30
0.0
 10
183.7442894509928
 20
114.412814181833
 30
0.0
 10
183.7466881456611
 20
114.4260769779531
 30
0.0
 10
183.7441510463609
 20
114.4121025898498
 30
0.0
 10
183.7386458856369
 20
114.3815502975935
 30
0.0
 10
183.7278558025943
 20
114.3206288983108
 30
0.0
 10
183.7134292052363
 20
114.2349983671596
 30
0.0
 10
183.6967822210984
 20
114.1323438626673
 30
0.0
 10
183.6775246289226
 20
114.0055395864901
 30
0.0
 10
183.6572022586267
 20
113.85696903362
 30
0.0
 10
183.636621142165
 20
113.6939367795737
 30
0.0
 10
183.6166100532026
 20
113.511275736819
 30
0.0
 10
183.5990273941803
 20
113.3138472813066
 30
0.0
 10
183.5874386776611
 20
113.1596847853199
 30
0.0
 10
183.5777509716431
 20
113.0005341246924
 30
0.0
 10
183.5701456844041
 20
112.835127709726
 30
0.0
 10
183.5655290770061
 20
112.6819678136797
 30
0.0
 10
183.5631247002305
 20
112.5440402537845
 30
0.0
 10
183.5628617453846
 20
112.4631926816664
 30
0.0
 10
183.5627300181409
 20
112.4226920862263
 30
0.0
  0
SPLINE
  5
249
330
1F
100
AcDbEntity
  8
0
  6
HIDDEN
 62
     7
370
    18
100
AcDbSpline
210
0.0
220
0.0
230
1.0
 70
    11
 71
     3
 72
    40
 73
    36
 74
     0
 42
0.000000001
 43
0.00000001
 40
0.0
 40
0.0
 40
0.0
 40
0.0
 40
0.0260758100447014
 40
0.0523351572214404
 40
0.0791715389121639
 40
0.1062062257539693
 40
0.1322815376292776
 40
0.1853034897619656
 40
0.2123090847103523
 40
0.2386560266478138
 40
0.2922317926990534
 40
0.3195240159048676
 40
0.346043628484044
 40
0.3727498423271515
 40
0.400049102021434
 40
0.4275554018206405
 40
0.4537810999402376
 40
0.4999819241844926
 40
0.5071437914226994
 40
0.5343475059667341
 40
0.560277709373481
 40
0.6130128920153051
 40
0.6398776097653666
 40
0.6659561060069469
 40
0.7189767189233377
 40
0.7459778910393914
 40
0.7724240667290807
 40
0.8262101723760191
 40
0.8536158326041954
 40
0.8800870942962026
 40
0.9067458077604216
 40
0.9340005586397085
 40
0.9614633435169997
 40
0.9806950599388129
 40
1.0
 40
1.0
 40
1.0
 40
1.0
 10
183.5627300181409
 20
104.4226920862263
 30
0.0
 10
183.5629703955822
 20
104.3679800561712
 30
0.0
 10
183.5634528423849
 20
104.2581709001017
 30
0.0
 10
183.5673590296921
 20
104.0932127132876
 30
0.0
 10
183.5735837880816
 20
103.9286336062606
 30
0.0
 10
183.582145014405
 20
103.7680180636787
 30
0.0
 10
183.5961572609191
 20
103.5611012760163
 30
0.0
 10
183.6136140787981
 20
103.3652309776106
 30
0.0
 10
183.6330747847386
 20
103.1847879606163
 30
0.0
 10
183.6534055200982
 20
103.0150043118622
 30
0.0
 10
183.6741510269736
 20
102.8636547139657
 30
0.0
 10
183.69348682496
 20
102.7349509469661
 30
0.0
 10
183.7068843063149
 20
102.6503289458005
 30
0.0
 10
183.7188059683663
 20
102.578181070069
 30
0.0
 10
183.729072003594
 20
102.5182022894671
 30
0.0
 10
183.7369610548383
 20
102.4733182716822
 30
0.0
 10
183.7444951377193
 20
102.4313141878623
 30
0.0
 10
183.7442894509927
 20
102.4325699906196
 30
0.0
 10
183.7466881456611
 20
102.4193071944994
 30
0.0
 10
183.7441510463609
 20
102.4332815826027
 30
0.0
 10
183.7386458856368
 20
102.4638338748591
 30
0.0
 10
183.7278558025943
 20
102.5247552741418
 30
0.0
 10
183.7134292052363
 20
102.6103858052929
 30
0.0
 10
183.6967822210984
 20
102.7130403097853
 30
0.0
 10
183.6775246289226
 20
102.8398445859625
 30
0.0
 10
183.6572022586267
 20
102.9884151388325
 30
0.0
 10
183.6366211421649
 20
103.1514473928789
 30
0.0
 10
183.6166100532025
 20
103.3341084356336
 30
0.0
 10
183.5990273941802
 20
103.531536891146
 30
0.0
 10
183.5874386776611
 20
103.6856993871327
 30
0.0
 10
183.5777509716431
 20
103.8448500477601
 30
0.0
 10
183.5701456844041
 20
104.0102564627265
 30
0.0
 10
183.5655290770061
 20
104.1634163587729
 30
0.0
 10
183.5631247002305
 20
104.3013439186681
 30
0.0
 10
183.5628617453846
 20
104.3821914907862
 30
0.0
 10
183.5627300181409
 20
104.4226920862263
 30
0.0
  0
LINE
  5
24A
330
1F
100
AcDbEntity
  8
0
  6
HIDDEN
 62
     7
370
    18
100
AcDbLine
 10
165.8531583382
 20
116.4226920862
 30
0.0
 11
180.4973037277
 21
116.4226920862
 31
0.0
  0
LINE
  5
24B
330
1F
100
AcDbEntity
  8
0
  6
HIDDEN
 62
     7
370
    18
100
AcDbLine
 10
165.0057202252
 20
101.2226920862
 30
0.0
 11
170.6367884311
 21
101.2226920862
 31
0.0
  0
ARC
  5
24C
330
1F
100
AcDbEntity
  8
0
  6
HIDDEN
 62
     7
370
    18
100
AcDbCircle
 10
173.135076525
 20
113.1244039939
 30
0.0
 40
2.498288680440755
100
AcDbArc
 50
90.0393147922
 51
180.0392609126
  0
LINE
  5
24D
330
1F
100
AcDbEntity
  8
0
  6
HIDDEN
 62
     7
370
    18
100
AcDbLine
 10
170.6367884311
 20
113.1226920862
 30
0.0
 11
170.6367884311
 21
101.2226920862
 31
0.0
  0
ARC
  5
24E
330
1F
100
AcDbEntity
  8
0
  6
HIDDEN
 62
     7
370
    18
100
AcDbCircle
 10
173.1281286723
 20
113.1252565007
 30
0.0
 40
2.496575153935347
100
AcDbArc
 50
359.9411473151
 51
180.0588526849
  0
ARC
  5
24F
330
1F
100
AcDbEntity
  8
0
  6
HIDDEN
 62
     7
370
    18
100
AcDbCircle
 10
173.1316480109
 20
113.1244039939
 30
0.0
 40
2.498288680440755
100
AcDbArc
 50
359.9607390874
 51
89.9606852078
  0
LINE
  5
250
330
1F
100
AcDbEntity
  8
0
  6
HIDDEN
 62
     7
370
    18
100
AcDbLine
 10
170.6315548354
 20
101.2226920862
 30
0.0
 11
170.6367884311
 21
101.2226920862
 31
0.0
  0
LINE
  5
251
330
1F
100
AcDbEntity
  8
0
  6
HIDDEN
 62
     7
370
    18
100
AcDbLine
 10
175.6247025092
 20
101.2226920862
 30
0.0
 11
175.6247025092
 21
113.1226920862
 31
0.0
  0
LINE
  5
252
330
1F
100
AcDbEntity
  8
0
  6
HIDDEN
 62
     7
370
    18
100
AcDbLine
 10
170.6315548354
 20
113.1226920862
 30
0.0
 11
170.6315548354
 21
101.2226920862
 31
0.0
  0
LINE
  5
253
330
1F
100
AcDbEntity
  8
0
  6
HIDDEN
 62
     7
370
    18
100
AcDbLine
 10
170.6315548354
 20
101.2226920862
 30
0.0
 11
175.6247025092
 21
101.2226920862
 31
0.0
  0
LINE
  5
254
330
1F
100
AcDbEntity
  8
0
  6
HIDDEN
 62
     7
370
    18
100
AcDbLine
 10
175.6299361048
 20
101.2226920862
 30
0.0
 11
175.6299361048
 21
113.1226920862
 31
0.0
  0
LINE
  5
255
330
1F
100
AcDbEntity
  8
0
  6
HIDDEN
 62
     7
370
    18
100
AcDbLine
 10
175.6299361048
 20
101.2226920862
 30
0.0
 11
181.2610043107
 21
101.2226920862
 31
0.0
  0
LINE
  5
256
330
1F
100
AcDbEntity
  8
0
  6
HIDDEN
 62
     7
370
    18
100
AcDbLine
 10
175.6247025092
 20
101.2226920862
 30
0.0
 11
175.6299361048
 21
101.2226920862
 31
0.0
  0
LINE
  5
257
330
1F
100
AcDbEntity
  8
0
  6
HIDDEN
 62
     7
370
    18
100
AcDbLine
 10
167.2460761917
 20
101.6226920862
 30
0.0
 11
178.2460761917
 21
101.6226920862
 31
0.0
  0
LINE
  5
258
330
1F
100
AcDbEntity
  8
0
  6
HIDDEN
 62
     7
370
    18
100
AcDbLine
 10
167.031160955
 20
101.2226920862
 30
0.0
 11
178.4609914285
 21
101.2226920862
 31
0.0
  0
LINE
  5
259
330
1F
100
AcDbEntity
  8
0
  6
HIDDEN
 62
     7
370
    18
100
AcDbLine
 10
167.6460761917
 20
107.2226920862
 30
0.0
 11
177.8460761917
 21
107.2226920862
 31
0.0
  0
LINE
  5
25A
330
1F
100
AcDbEntity
  8
0
  6
HIDDEN
 62
     7
370
    18
100
AcDbLine
 10
167.8460761917
 20
117.7226920862
 30
0.0
 11
177.6460761917
 21
117.7226920862
 31
0.0
  0
LINE
  5
25B
330
1F
100
AcDbEntity
  8
0
  6
HIDDEN
 62
     7
370
    18
100
AcDbLine
 10
169.3460761917
 20
118.6239830148
 30
0.0
 11
176.1460761917
 21
118.6239830148
 31
0.0
  0
LINE
  5
25C
330
1F
100
AcDbEntity
  8
0
  6
HIDDEN
 62
     7
370
    18
100
AcDbLine
 10
167.8500501007
 20
107.2226920862
 30
0.0
 11
177.6421022828
 21
107.2226920862
 31
0.0
  0
LINE
  5
25D
330
1F
100
AcDbEntity
  8
0
  6
HIDDEN
 62
     7
370
    18
100
AcDbLine
 10
168.4960761917
 20
128.4896793843
 30
0.0
 11
176.9960761917
 21
128.4896793843
 31
0.0
  0
LINE
  5
25E
330
1F
100
AcDbEntity
  8
0
  6
HIDDEN
 62
     7
370
    18
100
AcDbLine
 10
168.2501308438
 20
128.9226920862
 30
0.0
 11
177.2420215397
 21
128.9226920862
 31
0.0
  0
LINE
  5
25F
330
1F
100
AcDbEntity
  8
0
  6
HIDDEN
 62
     7
370
    18
100
AcDbLine
 10
168.4960761917
 20
126.4226920862
 30
0.0
 11
176.9960761917
 21
126.4226920862
 31
0.0
  0
LINE
  5
260
330
1F
100
AcDbEntity
  8
0
  6
HIDDEN
 62
     7
370
    18
100
AcDbLine
 10
169.3460761917
 20
125.9119605601
 30
0.0
 11
176.1460761917
 21
125.9119605601
 31
0.0
  0
LINE
  5
261
330
1F
100
AcDbEntity
  8
0
  6
HIDDEN
 62
     7
370
    18
100
AcDbLine
 10
167.2460761917
 20
129.7226920862
 30
0.0
 11
163.7995684932
 21
129.7226920862
 31
0.0
  0
LINE
  5
262
330
1F
100
AcDbEntity
  8
0
  6
HIDDEN
 62
     7
370
    18
100
AcDbLine
 10
167.2460761917
 20
128.9226920862
 30
0.0
 11
162.9297632383
 21
128.9226920862
 31
0.0
  0
LINE
  5
263
330
1F
100
AcDbEntity
  8
0
  6
HIDDEN
 62
     7
370
    18
100
AcDbLine
 10
167.7460761917
 20
129.7226920862
 30
0.0
 11
167.7460761917
 21
128.9226920862
 31
0.0
  0
LINE
  5
264
330
1F
100
AcDbEntity
  8
0
  6
HIDDEN
 62
     7
370
    18
100
AcDbLine
 10
167.7460761917
 20
129.7226920862
 30
0.0
 11
167.2460761917
 21
129.7226920862
 31
0.0
  0
LINE
  5
265
330
1F
100
AcDbEntity
  8
0
  6
HIDDEN
 62
     7
370
    18
100
AcDbLine
 10
167.7460761917
 20
128.9226920862
 30
0.0
 11
167.2460761917
 21
128.9226920862
 31
0.0
  0
LINE
  5
266
330
1F
100
AcDbEntity
  8
0
  6
HIDDEN
 62
     7
370
    18
100
AcDbLine
 10
181.1460761917
 20
112.4226920862
 30
0.0
 11
181.1460761917
 21
114.4226920862
 31
0.0
  0
LINE
  5
267
330
1F
100
AcDbEntity
  8
0
  6
HIDDEN
 62
     7
370
    18
100
AcDbLine
 10
181.1460761917
 20
112.4226920862
 30
0.0
 11
181.1460761917
 21
104.4226920862
 31
0.0
  0
LINE
  5
268
330
1F
100
AcDbEntity
  8
0
  6
HIDDEN
 62
     7
370
    18
100
AcDbLine
 10
181.1460761917
 20
104.4226920862
 30
0.0
 11
181.1460761917
 21
102.4226920862
 31
0.0
  0
LINE
  5
269
330
1F
100
AcDbEntity
  8
0
  6
HIDDEN
 62
     7
370
    18
100
AcDbLine
 10
167.2460761917
 20
129.7226920862
 30
0.0
 11
167.7460761917
 21
129.7226920862
 31
0.0
  0
LINE
  5
26A
330
1F
100
AcDbEntity
  8
0
  6
HIDDEN
 62
     7
370
    18
100
AcDbLine
 10
167.2460761917
 20
128.9226920862
 30
0.0
 11
167.7460761917
 21
128.9226920862
 31
0.0
  0
LINE
  5
26B
330
1F
100
AcDbEntity
  8
0
  6
HIDDEN
 62
     7
370
    18
100
AcDbLine
 10
183.2173887213
 20
141.0513795566
 30
0.0
 11
182.6460761917
 21
141.6226920862
 31
0.0
  0
LINE
  5
26C
330
1F
100
AcDbEntity
  8
0
  6
HIDDEN
 62
     7
370
    18
100
AcDbLine
 10
162.1460761917
 20
140.9226920862
 30
0.0
 11
161.7460761917
 21
140.5226920862
 31
0.0
  0
LINE
  5
26D
330
1F
100
AcDbEntity
  8
0
  6
HIDDEN
 62
     7
370
    18
100
AcDbLine
 10
161.7460761917
 20
140.5226920862
 30
0.0
 11
161.7460761917
 21
137.6506577386
 31
0.0
  0
ARC
  5
26E
330
1F
100
AcDbEntity
  8
0
  6
HIDDEN
 62
     7
370
    18
100
AcDbCircle
 10
183.5460761917
 20
128.7226920862
 30
0.0
 40
0.1999999999999886
100
AcDbArc
 50
0.0
 51
90.0
  0
LINE
  5
26F
330
1F
100
AcDbEntity
  8
0
  6
HIDDEN
 62
     7
370
    18
100
AcDbLine
 10
183.7460761917
 20
125.6006577386
 30
0.0
 11
183.7460761917
 21
128.7226920862
 31
0.0
  0
LINE
  5
270
330
1F
100
AcDbEntity
  8
0
  6
HIDDEN
 62
     7
370
    18
100
AcDbLine
 10
168.4960761917
 20
140.9226920862
 30
0.0
 11
168.4960761917
 21
129.9226920862
 31
0.0
  0
LINE
  5
271
330
1F
100
AcDbEntity
  8
0
  6
HIDDEN
 62
     7
370
    18
100
AcDbLine
 10
176.9960761917
 20
128.9226920862
 30
0.0
 11
176.9960761917
 21
140.9226920862
 31
0.0
  0
LINE
  5
272
330
1F
100
AcDbEntity
  8
0
  6
HIDDEN
 62
     7
370
    18
100
AcDbLine
 10
183.7460761917
 20
128.5226920862
 30
0.0
 11
183.3460761917
 21
128.9226920862
 31
0.0
  0
LINE
  5
273
330
1F
100
AcDbEntity
  8
0
  6
HIDDEN
 62
     7
370
    18
100
AcDbLine
 10
162.9460761917
 20
129.7226920862
 30
0.0
 11
162.231600099
 21
129.0082159934
 31
0.0
  0
LINE
  5
274
330
1F
100
AcDbEntity
  8
0
  6
HIDDEN
 62
     7
370
    18
100
AcDbLine
 10
161.7460761917
 20
127.7269662508
 30
0.0
 11
161.7460761917
 21
101.2226920862
 31
0.0
  0
LINE
  5
275
330
1F
100
AcDbEntity
  8
0
  6
HIDDEN
 62
     7
370
    18
100
AcDbLine
 10
183.7460761917
 20
114.4194141519
 30
0.0
 11
183.7460761917
 21
124.2425085637
 31
0.0
  0
LINE
  5
276
330
1F
100
AcDbEntity
  8
0
  6
HIDDEN
 62
     7
370
    18
100
AcDbLine
 10
183.7460761917
 20
125.6006577386
 30
0.0
 11
183.7460761917
 21
128.5226920862
 31
0.0
  0
LINE
  5
277
330
1F
100
AcDbEntity
  8
0
  6
HIDDEN
 62
     7
370
    18
100
AcDbLine
 10
183.7460761917
 20
101.2226920862
 30
0.0
 11
183.7460761917
 21
102.4259700205
 31
0.0
  0
LINE
  5
278
330
1F
100
AcDbEntity
  8
0
  6
HIDDEN
 62
     7
370
    18
100
AcDbLine
 10
173.1333622679
 20
115.6226920862
 30
0.0
 11
173.1281286723
 21
115.6226920862
 31
0.0
  0
LINE
  5
279
330
1F
100
AcDbEntity
  8
0
  6
HIDDEN
 62
     7
370
    18
100
AcDbLine
 10
178.4770162994
 20
101.2226920862
 30
0.0
 11
178.2460761917
 21
101.6226920862
 31
0.0
  0
LINE
  5
27A
330
1F
100
AcDbEntity
  8
0
  6
HIDDEN
 62
     7
370
    18
100
AcDbLine
 10
167.2460761917
 20
101.6226920862
 30
0.0
 11
167.0151360841
 21
101.2226920862
 31
0.0
  0
ARC
  5
27B
330
1F
100
AcDbEntity
  8
0
  6
HIDDEN
 62
     7
370
    18
100
AcDbCircle
 10
167.6460761917
 20
106.8226920862
 30
0.0
 40
0.4000000000000057
100
AcDbArc
 50
90.0
 51
180.0
  0
ARC
  5
27C
330
1F
100
AcDbEntity
  8
0
  6
HIDDEN
 62
     7
370
    18
100
AcDbCircle
 10
177.8460761917
 20
106.8226920862
 30
0.0
 40
0.4000000000000057
100
AcDbArc
 50
0.0
 51
90.0
  0
LINE
  5
27D
330
1F
100
AcDbEntity
  8
0
  6
HIDDEN
 62
     7
370
    18
100
AcDbLine
 10
167.2460761917
 20
106.8226920862
 30
0.0
 11
167.2460761917
 21
101.6226920862
 31
0.0
  0
LINE
  5
27E
330
1F
100
AcDbEntity
  8
0
  6
HIDDEN
 62
     7
370
    18
100
AcDbLine
 10
178.2460761917
 20
101.6226920862
 30
0.0
 11
178.2460761917
 21
106.8226920862
 31
0.0
  0
LINE
  5
27F
330
1F
100
AcDbEntity
  8
0
  6
HIDDEN
 62
     7
370
    18
100
AcDbLine
 10
177.6460761917
 20
117.7226920862
 30
0.0
 11
176.1460761917
 21
118.6239830148
 31
0.0
  0
LINE
  5
280
330
1F
100
AcDbEntity
  8
0
  6
HIDDEN
 62
     7
370
    18
100
AcDbLine
 10
169.3460761917
 20
118.6239830148
 30
0.0
 11
167.8460761917
 21
117.7226920862
 31
0.0
  0
LINE
  5
281
330
1F
100
AcDbEntity
  8
0
  6
HIDDEN
 62
     7
370
    18
100
AcDbLine
 10
167.8460761917
 20
117.7226920862
 30
0.0
 11
167.8460761917
 21
107.2226920862
 31
0.0
  0
LINE
  5
282
330
1F
100
AcDbEntity
  8
0
  6
HIDDEN
 62
     7
370
    18
100
AcDbLine
 10
177.6460761917
 20
107.2226920862
 30
0.0
 11
177.6460761917
 21
117.7226920862
 31
0.0
  0
LINE
  5
283
330
1F
100
AcDbEntity
  8
0
  6
HIDDEN
 62
     7
370
    18
100
AcDbLine
 10
168.2460761917
 20
128.9226920862
 30
0.0
 11
168.4960761917
 21
128.4896793843
 31
0.0
  0
LINE
  5
284
330
1F
100
AcDbEntity
  8
0
  6
HIDDEN
 62
     7
370
    18
100
AcDbLine
 10
176.9960761917
 20
128.4896793843
 30
0.0
 11
177.2460761917
 21
128.9226920862
 31
0.0
  0
LINE
  5
285
330
1F
100
AcDbEntity
  8
0
  6
HIDDEN
 62
     7
370
    18
100
AcDbLine
 10
168.4960761917
 20
128.4896793843
 30
0.0
 11
168.4960761917
 21
126.4226920862
 31
0.0
  0
LINE
  5
286
330
1F
100
AcDbEntity
  8
0
  6
HIDDEN
 62
     7
370
    18
100
AcDbLine
 10
176.9960761917
 20
126.4226920862
 30
0.0
 11
176.9960761917
 21
128.4896793843
 31
0.0
  0
LINE
  5
287
330
1F
100
AcDbEntity
  8
0
  6
HIDDEN
 62
     7
370
    18
100
AcDbLine
 10
168.4960761917
 20
126.4226920862
 30
0.0
 11
169.3460761917
 21
125.9119605601
 31
0.0
  0
LINE
  5
288
330
1F
100
AcDbEntity
  8
0
  6
HIDDEN
 62
     7
370
    18
100
AcDbLine
 10
176.1460761917
 20
125.9119605601
 30
0.0
 11
176.9960761917
 21
126.4226920862
 31
0.0
  0
LINE
  5
289
330
1F
100
AcDbEntity
  8
0
  6
HIDDEN
 62
     7
370
    18
100
AcDbLine
 10
169.3460761917
 20
125.9119605601
 30
0.0
 11
169.3460761917
 21
118.6239830148
 31
0.0
  0
LINE
  5
28A
330
1F
100
AcDbEntity
  8
0
  6
HIDDEN
 62
     7
370
    18
100
AcDbLine
 10
176.1460761917
 20
118.6239830148
 30
0.0
 11
176.1460761917
 21
125.9119605601
 31
0.0
  0
LINE
  5
28B
330
1F
100
AcDbEntity
  8
0
  6
HIDDEN
 62
     7
370
    18
100
AcDbLine
 10
183.7460761917
 20
114.4226920862
 30
0.0
 11
181.1460761917
 21
114.4226920862
 31
0.0
  0
LINE
  5
28C
330
1F
100
AcDbEntity
  8
0
  6
HIDDEN
 62
     7
370
    18
100
AcDbLine
 10
181.1460761917
 20
102.4226920862
 30
0.0
 11
183.7460761917
 21
102.4226920862
 31
0.0
  0
LINE
  5
28D
330
1F
100
AcDbEntity
  8
VERMASSUNG
100
AcDbLine
 10
152.7460761917
 20
149.9726920862
 30
0.0
 11
157.7663080806
 21
149.9726920862
 31
0.0
  0
DIMENSION
  5
28E
330
1F
100
AcDbEntity
  8
VERMASSUNG
100
AcDbDimension
  2
_D
 10
205.8960761917
 20
149.9726920862
 30
0.0
 11
205.8960761917
 21
111.9226920862
 31
0.0
 70
   160
  1
%%c75 - %%c91
 71
     2
 42
-1.0
  3
SLDDIMSTYLE0
100
AcDbAlignedDimension
 13
153.6460808739
 23
90.9226920862
 33
0.0
 14
157.7663080806
 24
149.9726920862
 34
0.0
 50
90.0
100
AcDbRotatedDimension
  0
DIMENSION
  5
29B
330
1F
100
AcDbEntity
  8
VERMASSUNG
100
AcDbDimension
  2
_D_1
 10
118.1460761917
 20
156.8791057727
 30
0.0
 11
135.2460761917
 21
156.8791057727
 31
0.0
 70
   160
  1
(16.2 - 62)
 71
     2
 42
-1.0
  3
SLDDIMSTYLE1
100
AcDbAlignedDimension
 13
152.3460761917
 23
149.5729357554
 33
0.0
 14
118.1460761917
 24
131.4226920862
 34
0.0
100
AcDbRotatedDimension
  0
DIMENSION
  5
2A8
330
1F
100
AcDbEntity
  8
VERMASSUNG
100
AcDbDimension
  2
_D_2
 10
196.2227170919
 20
128.9226920862
 30
0.0
 11
196.2227170919
 21
134.9226920862
 31
0.0
 70
   160
  1
<>
 71
     2
 42
-1.0
  3
SLDDIMSTYLE1
100
AcDbAlignedDimension
 13
182.5623891452
 23
140.9226920862
 33
0.0
 14
183.3460761917
 24
128.9226920862
 34
0.0
 50
90.0
100
AcDbRotatedDimension
  0
DIMENSION
  5
2B2
330
1F
100
AcDbEntity
  8
VERMASSUNG
100
AcDbDimension
  2
_D_3
 10
80.1460761917
 20
132.9226920862
 30
0.0
 11
80.1460761917
 21
111.9226920862
 31
0.0
 70
   160
  1
%%c<>
 71
     2
 42
-1.0
  3
SLDDIMSTYLE1
100
AcDbAlignedDimension
 13
124.0121015955
 23
90.9226920862
 33
0.0
 14
124.0121015955
 24
132.9226920862
 34
0.0
 50
90.0
100
AcDbRotatedDimension
  0
LINE
  5
2BD
330
1F
100
AcDbEntity
  8
VERMASSUNG
  6
CENTERX2
370
    18
100
AcDbLine
 10
87.4049661745
 20
111.9226920862
 30
0.0
 11
194.3199293506
 21
111.9226920862
 31
0.0
  0
LINE
  5
2BE
330
1F
100
AcDbEntity
  8
0
  6
Continuous
 62
     7
370
    25
100
AcDbLine
 10
248.1130333798
 20
75.8528871255
 30
0.0
 11
236.6862084778
 21
69.2563215214
 31
0.0
  0
LINE
  5
2BF
330
1F
100
AcDbEntity
  8
0
  6
Continuous
 62
     7
370
    25
100
AcDbLine
 10
257.7248875728
 20
23.6682293865
 30
0.0
 11
273.1110016957
 21
32.5504440065
 31
0.0
  0
LINE
  5
2C0
330
1F
100
AcDbEntity
  8
0
  6
Continuous
 62
     7
370
    25
100
AcDbLine
 10
281.4009569047
 20
48.2418863497
 30
0.0
 11
281.4009569047
 21
50.0379841957
 31
0.0
  0
LINE
  5
2C1
330
1F
100
AcDbEntity
  8
0
  6
Continuous
 62
     7
370
    25
100
AcDbLine
 10
266.412729548
 20
74.8581973015
 30
0.0
 11
265.8471360628
 21
75.1848136219
 31
0.0
  0
LWPOLYLINE
  5
2C2
330
1F
100
AcDbEntity
  8
0
  6
Continuous
 62
     7
370
    25
100
AcDbPolyline
 90
       47
 70
   128
 43
0.0
 10
248.1130333798
 20
75.8528871255
 10
248.3320764288
 20
75.9749822881
 10
249.249030596
 20
76.3990420882
 10
250.2213440933
 20
76.7149585012
 10
251.2442799073
 20
76.921192414
 10
252.3128543973
 20
77.0167390758
 10
253.4218615759
 20
77.0011329927
 10
254.5658984716
 20
76.8744501962
 10
255.7393914516
 20
76.637307872
 10
256.9366233762
 20
76.2908613538
 10
258.1517614516
 20
75.836798494
 10
259.3788856474
 20
75.2773314414
 10
260.6120175378
 20
74.6151858632
 10
261.8451494282
 20
73.853587666
 10
263.072273624
 20
72.9962472797
 10
264.2874116994
 20
72.0473415806
 10
265.4846436239
 20
71.0114935418
 10
266.658136604
 20
69.8937497108
 10
267.8021734997
 20
68.6995556232
 10
268.9111806783
 20
67.4347292725
 10
269.9797551683
 20
66.1054327657
 10
271.0026909822
 20
64.7181423016
 10
271.9750044796
 20
63.27961662
 10
272.8919586468
 20
61.7968640734
 10
273.7490861753
 20
60.2771084831
 10
274.5422112259
 20
58.7277539456
 10
275.2674697731
 20
57.1563487605
 10
275.9213284302
 20
55.5705486559
 10
276.5006016635
 20
53.9780794905
 10
277.0024673121
 20
52.3866996139
 10
277.4244803369
 20
50.804162069
 10
277.7645847329
 20
49.2381768197
 10
278.0211235458
 20
47.6963731886
 10
278.1928469441
 20
46.186262688
 10
278.2789183088
 20
44.7152024246
 10
278.2789183088
 20
43.290359256
 10
278.1928469441
 20
41.9186748749
 10
278.0211235458
 20
40.6068319898
 10
277.7645847329
 20
39.3612217674
 10
277.4244803369
 20
38.1879126954
 10
277.0024673121
 20
37.0926210176
 10
276.5006016635
 20
36.0806828851
 10
275.9213284302
 20
35.1570283588
 10
275.2674697731
 20
34.3261573905
 10
274.5422112259
 20
33.5921179002
 10
273.7490861753
 20
32.9584860544
 10
273.1110016957
 20
32.5504440065
  0
ARC
  5
2C3
330
1F
100
AcDbEntity
  8
0
  6
Continuous
 62
     7
370
    25
100
AcDbCircle
 10
238.7723236349
 20
34.9967824738
 30
0.0
 40
23.39734677839796
100
AcDbArc
 50
347.7320945527
 51
12.2679054473
  0
ELLIPSE
  5
2C4
330
1F
100
AcDbEntity
  8
0
  6
Continuous
 62
     7
370
    25
100
AcDbEllipse
 10
247.2055480253
 20
46.462275454
 30
0.0
 11
-9.899732326465028
 21
23.10438903198212
 31
0.0
210
0.0
220
0.0
230
1.0
 40
0.4806899322
 41
4.230371219512387
 42
6.800218736895858
  0
ARC
  5
2C5
330
1F
100
AcDbEntity
  8
0
  6
Continuous
 62
     7
370
    25
100
AcDbCircle
 10
257.1157320071
 20
58.3412729599
 30
0.0
 40
23.94789655587811
100
AcDbArc
 50
167.1402286524
 51
196.0889317872
  0
LINE
  5
2C6
330
1F
100
AcDbEntity
  8
0
  6
Continuous
 62
     7
370
    25
100
AcDbLine
 10
233.1100576665
 20
51.1297797552
 30
0.0
 11
234.105809733
 21
51.7046151875
 31
0.0
  0
ELLIPSE
  5
2C7
330
1F
100
AcDbEntity
  8
0
  6
Continuous
 62
     7
370
    25
100
AcDbEllipse
 10
247.2055480253
 20
46.462275454
 30
0.0
 11
-9.899732326465028
 21
23.10438903198212
 31
0.0
210
0.0
220
0.0
230
1.0
 40
0.4806899322
 41
1.168492404305535
 42
3.738339921689041
  0
SPLINE
  5
2C8
330
1F
100
AcDbEntity
  8
0
  6
Continuous
 62
     7
370
    25
100
AcDbSpline
210
0.0
220
0.0
230
1.0
 70
     8
 71
     3
 72
    12
 73
     8
 74
     0
 42
0.000000001
 43
0.00000001
 40
0.0
 40
0.0
 40
0.0
 40
0.0
 40
0.0432261162927817
 40
0.218389638229234
 40
0.4962498372047258
 40
0.7742479148689267
 40
0.9999999999999999
 40
0.9999999999999999
 40
0.9999999999999999
 40
0.9999999999999999
 10
235.333658073978
 20
49.13242070367937
 30
0.0
 10
235.3396291797401
 20
49.05990211969738
 30
0.0
 10
235.3697967668161
 20
48.69351927805014
 30
0.0
 10
235.5677888638898
 20
47.7949365049881
 30
0.0
 10
235.8976356756206
 20
46.47684830632792
 30
0.0
 10
236.344599073346
 20
45.05062139121095
 30
0.0
 10
236.684354821705
 20
44.14091222145469
 30
0.0
 10
236.8366139658047
 20
43.7332324684681
 30
0.0
  0
ELLIPSE
  5
2C9
330
1F
100
AcDbEntity
  8
0
  6
Continuous
 62
     7
370
    25
100
AcDbEllipse
 10
247.2055480253
 20
46.462275454
 30
0.0
 11
-8.711764447289227
 21
20.33186234814428
 31
0.0
210
0.0
220
0.0
230
1.0
 40
0.4806899322
 41
1.499518642203103
 42
6.469192498998295
  0
SPLINE
  5
2CA
330
1F
100
AcDbEntity
  8
0
  6
Continuous
 62
     7
370
    25
100
AcDbSpline
210
0.0
220
0.0
230
1.0
 70
     8
 71
     3
 72
    13
 73
     9
 74
     0
 42
0.000000001
 43
0.00000001
 40
0.0
 40
0.0
 40
0.0
 40
0.0
 40
0.1373072392418539
 40
0.4151489936861234
 40
0.6929401193525764
 40
0.8317969989646199
 40
0.9701631448403212
 40
1.0
 40
1.0
 40
1.0
 40
1.0
 10
236.8366139658048
 20
65.66897250445022
 30
0.0
 10
236.7427032662827
 20
65.57052070377
 30
0.0
 10
236.4587638861141
 20
65.27285128586706
 30
0.0
 10
236.0427341362232
 20
64.67223688237284
 30
0.0
 10
235.696575145336
 20
63.95935749164525
 30
0.0
 10
235.4641359918157
 20
63.331485998094
 30
0.0
 10
235.3558844269355
 20
62.95176540418584
 30
0.0
 10
235.3370067154417
 20
62.70241751597971
 30
0.0
 10
235.333658073978
 20
62.65818669501348
 30
0.0
  0
LINE
  5
2CB
330
1F
100
AcDbEntity
  8
0
  6
Continuous
 62
     7
370
    25
100
AcDbLine
 10
235.333658074
 20
62.658186695
 30
0.0
 11
235.333658074
 21
62.4276301944
 31
0.0
  0
LINE
  5
2CC
330
1F
100
AcDbEntity
  8
0
  6
Continuous
 62
     7
370
    25
100
AcDbLine
 10
233.1100576665
 20
64.1944327454
 30
0.0
 11
235.333658074
 21
62.4276301944
 31
0.0
  0
LINE
  5
2CD
330
1F
100
AcDbEntity
  8
0
  6
Continuous
 62
     7
370
    25
100
AcDbLine
 10
261.6353861809
 20
39.9683222036
 30
0.0
 11
261.6353861809
 21
30.0252427441
 31
0.0
  0
LINE
  5
2CE
330
1F
100
AcDbEntity
  8
0
  6
Continuous
 62
     7
370
    25
100
AcDbLine
 10
235.333658074
 20
49.3629772043
 30
0.0
 11
233.1100576665
 21
51.1297797552
 31
0.0
  0
LINE
  5
2CF
330
1F
100
AcDbEntity
  8
0
  6
Continuous
 62
     7
370
    25
100
AcDbLine
 10
235.333658074
 20
49.3629772043
 30
0.0
 11
235.333658074
 21
49.1324207037
 31
0.0
  0
LWPOLYLINE
  5
2D0
330
1F
100
AcDbEntity
  8
0
  6
Continuous
 62
     7
370
    25
100
AcDbPolyline
 90
        3
 70
   128
 43
0.0
 10
236.8366139658
 20
65.6689725045
 10
237.5860252916
 20
66.2755221015
 10
238.0446939888
 20
66.5751944959
  0
LWPOLYLINE
  5
2D1
330
1F
100
AcDbEntity
  8
0
  6
Continuous
 62
     7
370
    25
100
AcDbPolyline
 90
        3
 70
   128
 43
0.0
 10
257.9846173387
 20
27.7012276599
 10
257.8366519005
 20
27.6703336777
 10
257.4760093638
 20
27.6068200695
  0
LINE
  5
2D2
330
1F
100
AcDbEntity
  8
0
  6
Continuous
 62
     7
370
    25
100
AcDbLine
 10
247.4087207939
 20
55.4568448636
 30
0.0
 11
235.333658074
 21
62.4276301944
 31
0.0
  0
LINE
  5
2D3
330
1F
100
AcDbEntity
  8
0
  6
Continuous
 62
     7
370
    25
100
AcDbLine
 10
235.333658074
 20
49.3629772043
 30
0.0
 11
247.4087207939
 21
42.3921918734
 31
0.0
  0
LWPOLYLINE
  5
2D4
330
1F
100
AcDbEntity
  8
0
  6
Continuous
 62
     7
370
    25
100
AcDbPolyline
 90
       33
 70
   128
 43
0.0
 10
247.4087207939
 20
55.4568448636
 10
248.0988722409
 20
55.2917823423
 10
248.808218651
 20
55.0187851773
 10
249.5266054242
 20
54.6417614408
 10
250.2437485438
 20
54.1661083903
 10
250.9493817968
 20
53.5986352044
 10
251.6334037385
 20
52.9474655067
 10
252.2860222998
 20
52.2219210724
 10
252.8978949643
 20
51.432388383
 10
253.4602625109
 20
50.5901699398
 10
253.9650744054
 20
49.707322463
 10
254.4051040478
 20
48.7964842954
 10
254.7740522239
 20
47.8706944782
 10
255.0666372813
 20
46.9432060923
 10
255.2786707388
 20
46.0272965339
 10
255.4071172457
 20
45.1360774436
 10
255.4501380351
 20
44.2823070074
 10
255.4071172457
 20
43.4782073172
 10
255.2786707388
 20
42.7352894073
 10
255.0666372813
 20
42.064188468
 10
254.7740522239
 20
41.4745115987
 10
254.4051040478
 20
40.9747002785
 10
253.9650744054
 20
40.5719095219
 10
253.4602625109
 20
40.2719054524
 10
252.8978949643
 20
40.0789827578
 10
252.2860222998
 20
39.9959032096
 10
251.6334037385
 20
40.0238561275
 10
250.9493817968
 20
40.1624413533
 10
250.2437485438
 20
40.4096749797
 10
249.5266054242
 20
40.7620177508
 10
248.808218651
 20
41.2144257277
 10
248.0988722409
 20
41.760422495
 10
247.4087207939
 20
42.3921918734
  0
LWPOLYLINE
  5
2D5
330
1F
100
AcDbEntity
  8
0
  6
Continuous
 62
     7
370
    25
100
AcDbPolyline
 90
       42
 70
   128
 43
0.0
 10
255.623834001
 20
76.6652620435
 10
256.1453826469
 20
76.8663599263
 10
257.0814041918
 20
77.1237342453
 10
258.0664331255
 20
77.2698120938
 10
259.0949607667
 20
77.3037765454
 10
260.1612351715
 20
77.225437657
 10
261.259293301
 20
77.0352335314
 10
262.3829943687
 20
76.7342278674
 10
263.5260541824
 20
76.3241040106
 10
264.682080288
 20
75.80715554
 10
265.8446077186
 20
75.1862734412
 10
267.0071351491
 20
74.4649299388
 10
268.1631612547
 20
73.6471590781
 10
269.3062210684
 20
72.7375341656
 10
270.4299221361
 20
71.7411421928
 10
271.5279802656
 20
70.6635553877
 10
272.5942546705
 20
69.5108000529
 10
273.6227823116
 20
68.2893228638
 10
274.6078112453
 20
67.0059548163
 10
275.5438327903
 20
65.6678730251
 10
276.4256123342
 20
64.2825605863
 10
277.2482186083
 20
62.8577647292
 10
278.0070512645
 20
61.40145349
 10
278.6978666029
 20
59.9217711519
 10
279.3168013039
 20
58.4269926989
 10
279.8603940335
 20
56.9254775382
 10
280.3256048007
 20
55.4256227518
 10
280.7098319581
 20
53.9358161361
 10
281.0109267517
 20
52.464389294
 10
281.2272053373
 20
51.0195710411
 10
281.3574581972
 20
49.6094413874
 10
281.4009569047
 20
48.2418863497
 10
281.3574581972
 20
46.9245538506
 10
281.2272053373
 20
45.6648109479
 10
281.0109267517
 20
44.4697026347
 10
280.7098319581
 20
43.3459124416
 10
280.3256048007
 20
42.2997250592
 10
279.8603940335
 20
41.3369911917
 10
279.3168013039
 20
40.4630948374
 10
278.6978666029
 20
39.6829231792
 10
278.0070512645
 20
39.0008392535
 10
277.5705115618
 20
38.6483822426
  0
ARC
  5
2D6
330
1F
100
AcDbEntity
  8
0
  6
Continuous
 62
     7
370
    25
100
AcDbCircle
 10
248.5638940727
 20
47.1525348181
 30
0.0
 40
32.95731575028465
100
AcDbArc
 50
15.6934062658
 51
57.209126742
  0
SPLINE
  5
2D7
330
1F
100
AcDbEntity
  8
0
  6
Continuous
 62
     7
370
    25
100
AcDbSpline
210
0.0
220
0.0
230
1.0
 70
     8
 71
     3
 72
     9
 73
     5
 74
     0
 42
0.000000001
 43
0.00000001
 40
0.0
 40
0.0
 40
0.0
 40
0.0
 40
0.6545477205207716
 40
1.0
 40
1.0
 40
1.0
 40
1.0
 10
280.2072719570467
 20
57.25941034316222
 30
0.0
 10
280.2268189209672
 20
56.99930108506305
 30
0.0
 10
280.2566822346841
 20
56.60191331646423
 30
0.0
 10
280.2834195784331
 20
56.20445178740214
 30
0.0
 10
280.2926560547784
 20
56.06714779618233
 30
0.0
  0
ARC
  5
2D8
330
1F
100
AcDbEntity
  8
0
  6
Continuous
 62
     7
370
    25
100
AcDbCircle
 10
257.1162373868
 20
49.7331462839
 30
0.0
 40
24.2866327064132
100
AcDbArc
 50
0.7191768672
 51
18.0527986462
  0
LINE
  5
2D9
330
1F
100
AcDbEntity
  8
0
  6
Continuous
 62
     7
370
    25
100
AcDbLine
 10
248.8229343563
 20
43.2085999852
 30
0.0
 11
247.4087207939
 21
42.3921918734
 31
0.0
  0
LWPOLYLINE
  5
2DA
330
1F
100
AcDbEntity
  8
0
  6
Continuous
 62
     7
370
    25
100
AcDbPolyline
 90
       18
 70
   128
 43
0.0
 10
246.6042893437
 20
55.9298649247
 10
246.3978880873
 20
55.7985332036
 10
245.9380414144
 20
55.3997005314
 10
245.5520034282
 20
54.8983016152
 10
245.2455702071
 20
54.3018645936
 10
245.0233426221
 20
53.6193445329
 10
244.888657258
 20
52.8609889732
 10
244.8435363173
 20
52.0381840697
 10
244.888657258
 20
51.1632836369
 10
245.0233426221
 20
50.249423666
 10
245.2455702071
 20
49.3103250969
 10
245.5520034282
 20
48.360087809
 10
245.9380414144
 20
47.4129789212
 10
246.3978880873
 20
46.4832185817
 10
246.9246391848
 20
45.584766463
 10
247.5103859239
 20
44.7311121675
 10
248.1463337451
 20
43.9350726911
 10
248.8229343563
 20
43.2085999852
  0
LINE
  5
2DB
330
1F
100
AcDbEntity
  8
0
  6
Continuous
 62
     7
370
    25
100
AcDbLine
 10
279.8468901335
 20
57.4674543416
 30
0.0
 11
280.207271957
 21
57.2594103432
 31
0.0
  0
LINE
  5
2DC
330
1F
100
AcDbEntity
  8
0
  6
Continuous
 62
     7
370
    25
100
AcDbLine
 10
234.105809733
 20
51.7046151875
 30
0.0
 11
248.8229343563
 21
43.2085999852
 31
0.0
  0
LWPOLYLINE
  5
2DD
330
1F
100
AcDbEntity
  8
0
  6
Continuous
 62
     7
370
    18
100
AcDbPolyline
 90
       21
 70
   128
 43
0.0
 10
257.4760093638
 20
27.6068200695
 10
256.8408959329
 20
27.5334081322
 10
255.8015937394
 20
27.5101387474
 10
254.7246351742
 20
27.600657394
 10
253.6161234947
 20
27.8044510915
 10
252.4823407739
 20
28.1203649158
 10
251.3297122988
 20
28.5466085441
 10
250.1647701576
 20
29.0807664011
 10
248.9941162217
 20
29.7198113481
 10
247.8243847318
 20
30.4601218382
 10
246.662204701
 20
31.2975024403
 10
245.5141623475
 20
32.2272076148
 10
244.3867637694
 20
33.2439686074
 10
243.286398074
 20
34.3420233078
 10
242.2193011699
 20
35.5151489039
 10
241.1915204274
 20
36.7566971479
 10
240.208880407
 20
38.0596320321
 10
239.2769498516
 20
39.4165696633
 10
238.4010101268
 20
40.819820108
 10
237.5860252916
 20
42.2614309721
 10
236.8366139658
 20
43.7332324685
  0
ARC
  5
2DE
330
1F
100
AcDbEntity
  8
0
  6
Continuous
 62
     7
370
    18
100
AcDbCircle
 10
242.5143897991
 20
59.72076938
 30
0.0
 40
7.758307069851728
100
AcDbArc
 50
104.8554882132
 51
157.7520341271
  0
LWPOLYLINE
  5
2DF
330
1F
100
AcDbEntity
  8
0
  6
Continuous
 62
     7
370
    18
100
AcDbPolyline
 90
       26
 70
   128
 43
0.0
 10
258.4362639057
 20
28.3055522203
 10
258.4340355116
 20
28.3049633595
 10
257.4800329818
 20
28.1148384499
 10
256.4804752823
 20
28.0359750389
 10
255.4410257598
 20
28.0688199551
 10
254.3675737821
 20
28.213187104
 10
253.2662013699
 20
28.4682585226
 10
252.1431487371
 20
28.8325890139
 10
251.0047789343
 20
29.3041143349
 10
249.857541797
 20
29.8801628927
 10
248.707937402
 20
30.5574708811
 10
247.5624792382
 20
31.3322007727
 10
246.4276573028
 20
32.1999630622
 10
245.3099013297
 20
33.1558411363
 10
244.2155443596
 20
34.1944191307
 10
243.1507868576
 20
35.3098126155
 10
242.1216615831
 20
36.4957019357
 10
241.1339994081
 20
37.745368017
 10
240.1933962809
 20
39.0517304356
 10
239.3051815203
 20
40.4073875346
 10
238.4743876202
 20
41.8046583605
 10
237.7057217365
 20
43.2356261828
 10
237.0035390167
 20
44.6921833487
 10
236.3718179248
 20
46.1660772199
 10
235.8141376992
 20
47.6489569308
 10
235.333658074
 20
49.1324207037
  0
OLE2FRAME
  5
2E0
330
1F
100
AcDbEntity
  8
0
100
AcDbOle2Frame
 70
     2
  3
Paintbrush-Bild
 10
13.8511154363
 20
38.264191557
 30
0.0
 11
51.6290888628
 21
31.9806341108
 31
0.0
 71
     2
 72
     0
 73
     1
 90
    12928
310
80552BED0767C5B32B40DDAF6807D121434000000000000000006FFBDDFB85D0
310
4940DDAF6807D121434000000000000000006FFBDDFB85D04940416F4BD60AFB
310
3F4000000000000000002BED0767C5B32B40416F4BD60AFB3F40000000000000
310
0000000000000100000000010000010000000100000000000100000000320000
310
D0CF11E0A1B11AE1000000000000000000000000000000003E000300FEFF0900
310
0600000000000000000000000100000001000000000000000010000002000000
310
01000000FEFFFFFF0000000000000000FFFFFFFFFFFFFFFFFFFFFFFFFFFFFFFF
310
FFFFFFFFFFFFFFFFFFFFFFFFFFFFFFFFFFFFFFFFFFFFFFFFFFFFFFFFFFFFFFFF
310
FFFFFFFFFFFFFFFFFFFFFFFFFFFFFFFFFFFFFFFFFFFFFFFFFFFFFFFFFFFFFFFF
310
FFFFFFFFFFFFFFFFFFFFFFFFFFFFFFFFFFFFFFFFFFFFFFFFFFFFFFFFFFFFFFFF
310
FFFFFFFFFFFFFFFFFFFFFFFFFFFFFFFFFFFFFFFFFFFFFFFFFFFFFFFFFFFFFFFF
310
FFFFFFFFFFFFFFFFFFFFFFFFFFFFFFFFFFFFFFFFFFFFFFFFFFFFFFFFFFFFFFFF
310
FFFFFFFFFFFFFFFFFFFFFFFFFFFFFFFFFFFFFFFFFFFFFFFFFFFFFFFFFFFFFFFF
310
FFFFFFFFFFFFFFFFFFFFFFFFFFFFFFFFFFFFFFFFFFFFFFFFFFFFFFFFFFFFFFFF
310
FFFFFFFFFFFFFFFFFFFFFFFFFFFFFFFFFFFFFFFFFFFFFFFFFFFFFFFFFFFFFFFF
310
FFFFFFFFFFFFFFFFFFFFFFFFFFFFFFFFFFFFFFFFFFFFFFFFFFFFFFFFFFFFFFFF
310
FFFFFFFFFFFFFFFFFFFFFFFFFFFFFFFFFFFFFFFFFFFFFFFFFFFFFFFFFFFFFFFF
310
FFFFFFFFFFFFFFFFFFFFFFFFFFFFFFFFFFFFFFFFFFFFFFFFFFFFFFFFFFFFFFFF
310
FFFFFFFFFFFFFFFFFFFFFFFFFFFFFFFFFFFFFFFFFFFFFFFFFFFFFFFFFFFFFFFF
310
FFFFFFFFFFFFFFFFFFFFFFFFFFFFFFFFFFFFFFFFFFFFFFFFFFFFFFFFFFFFFFFF
310
FDFFFFFFFEFFFFFFFEFFFFFFFEFFFFFF05000000060000000700000008000000
310
090000000A0000000B0000000C0000000D0000000E0000000F00000010000000
310
11000000120000001300000014000000150000001600000017000000FEFFFFFF
310
FFFFFFFFFFFFFFFFFFFFFFFFFFFFFFFFFFFFFFFFFFFFFFFFFFFFFFFFFFFFFFFF
310
FFFFFFFFFFFFFFFFFFFFFFFFFFFFFFFFFFFFFFFFFFFFFFFFFFFFFFFFFFFFFFFF
310
FFFFFFFFFFFFFFFFFFFFFFFFFFFFFFFFFFFFFFFFFFFFFFFFFFFFFFFFFFFFFFFF
310
FFFFFFFFFFFFFFFFFFFFFFFFFFFFFFFFFFFFFFFFFFFFFFFFFFFFFFFFFFFFFFFF
310
FFFFFFFFFFFFFFFFFFFFFFFFFFFFFFFFFFFFFFFFFFFFFFFFFFFFFFFFFFFFFFFF
310
FFFFFFFFFFFFFFFFFFFFFFFFFFFFFFFFFFFFFFFFFFFFFFFFFFFFFFFFFFFFFFFF
310
FFFFFFFFFFFFFFFFFFFFFFFFFFFFFFFFFFFFFFFFFFFFFFFFFFFFFFFFFFFFFFFF
310
FFFFFFFFFFFFFFFFFFFFFFFFFFFFFFFFFFFFFFFFFFFFFFFFFFFFFFFFFFFFFFFF
310
FFFFFFFFFFFFFFFFFFFFFFFFFFFFFFFFFFFFFFFFFFFFFFFFFFFFFFFFFFFFFFFF
310
FFFFFFFFFFFFFFFFFFFFFFFFFFFFFFFFFFFFFFFFFFFFFFFFFFFFFFFFFFFFFFFF
310
FFFFFFFFFFFFFFFFFFFFFFFFFFFFFFFFFFFFFFFFFFFFFFFFFFFFFFFFFFFFFFFF
310
FFFFFFFFFFFFFFFFFFFFFFFFFFFFFFFFFFFFFFFFFFFFFFFFFFFFFFFFFFFFFFFF
310
FFFFFFFFFFFFFFFFFFFFFFFFFFFFFFFFFFFFFFFFFFFFFFFFFFFFFFFFFFFFFFFF
310
52006F006F007400200045006E00740072007900000000000000000000000000
310
0000000000000000000000000000000000000000000000000000000000000000
310
16000500FFFFFFFFFFFFFFFF020000000A00030000000000C000000000000046
310
00000000000000000000000010CEFF42D2AFD30103000000C000000000000000
310
01004F006C006500000000000000000000000000000000000000000000000000
310
0000000000000000000000000000000000000000000000000000000000000000
310
0A000200FFFFFFFFFFFFFFFFFFFFFFFF00000000000000000000000000000000
310
0000000000000000000000000000000000000000000000001400000000000000
310
010043006F006D0070004F0062006A0000000000000000000000000000000000
310
0000000000000000000000000000000000000000000000000000000000000000
310
120002010100000003000000FFFFFFFF00000000000000000000000000000000
310
0000000000000000000000000000000000000000010000004D00000000000000
310
01004F006C006500310030004E00610074006900760065000000000000000000
310
0000000000000000000000000000000000000000000000000000000000000000
310
1A000200FFFFFFFFFFFFFFFFFFFFFFFF00000000000000000000000000000000
310
0000000000000000000000000000000000000000040000002426000000000000
310
FEFFFFFF02000000FEFFFFFFFFFFFFFFFFFFFFFFFFFFFFFFFFFFFFFFFFFFFFFF
310
FFFFFFFFFFFFFFFFFFFFFFFFFFFFFFFFFFFFFFFFFFFFFFFFFFFFFFFFFFFFFFFF
310
FFFFFFFFFFFFFFFFFFFFFFFFFFFFFFFFFFFFFFFFFFFFFFFFFFFFFFFFFFFFFFFF
310
FFFFFFFFFFFFFFFFFFFFFFFFFFFFFFFFFFFFFFFFFFFFFFFFFFFFFFFFFFFFFFFF
310
FFFFFFFFFFFFFFFFFFFFFFFFFFFFFFFFFFFFFFFFFFFFFFFFFFFFFFFFFFFFFFFF
310
FFFFFFFFFFFFFFFFFFFFFFFFFFFFFFFFFFFFFFFFFFFFFFFFFFFFFFFFFFFFFFFF
310
FFFFFFFFFFFFFFFFFFFFFFFFFFFFFFFFFFFFFFFFFFFFFFFFFFFFFFFFFFFFFFFF
310
FFFFFFFFFFFFFFFFFFFFFFFFFFFFFFFFFFFFFFFFFFFFFFFFFFFFFFFFFFFFFFFF
310
FFFFFFFFFFFFFFFFFFFFFFFFFFFFFFFFFFFFFFFFFFFFFFFFFFFFFFFFFFFFFFFF
310
FFFFFFFFFFFFFFFFFFFFFFFFFFFFFFFFFFFFFFFFFFFFFFFFFFFFFFFFFFFFFFFF
310
FFFFFFFFFFFFFFFFFFFFFFFFFFFFFFFFFFFFFFFFFFFFFFFFFFFFFFFFFFFFFFFF
310
FFFFFFFFFFFFFFFFFFFFFFFFFFFFFFFFFFFFFFFFFFFFFFFFFFFFFFFFFFFFFFFF
310
FFFFFFFFFFFFFFFFFFFFFFFFFFFFFFFFFFFFFFFFFFFFFFFFFFFFFFFFFFFFFFFF
310
FFFFFFFFFFFFFFFFFFFFFFFFFFFFFFFFFFFFFFFFFFFFFFFFFFFFFFFFFFFFFFFF
310
FFFFFFFFFFFFFFFFFFFFFFFFFFFFFFFFFFFFFFFFFFFFFFFFFFFFFFFFFFFFFFFF
310
FFFFFFFFFFFFFFFFFFFFFFFFFFFFFFFFFFFFFFFFFFFFFFFFFFFFFFFFFFFFFFFF
310
0100000200000000000000000000000000000000000000000000000000000000
310
0000000000000000000000000000000000000000000000000000000000000000
310
0100FEFF030A0000FFFFFFFF0A00030000000000C00000000000004607000000
310
5042727573680007000000504272757368000700000050427275736800F439B2
310
7100000000000000000000000000000000000000000000000000000000000000
310
0000000000000000000000000000000000000000000000000000000000000000
310
0000000000000000000000000000000000000000000000000000000000000000
310
0000000000000000000000000000000000000000000000000000000000000000
310
0000000000000000000000000000000000000000000000000000000000000000
310
0000000000000000000000000000000000000000000000000000000000000000
310
0000000000000000000000000000000000000000000000000000000000000000
310
0000000000000000000000000000000000000000000000000000000000000000
310
0000000000000000000000000000000000000000000000000000000000000000
310
0000000000000000000000000000000000000000000000000000000000000000
310
0000000000000000000000000000000000000000000000000000000000000000
310
0000000000000000000000000000000000000000000000000000000000000000
310
20260000424D0E260000000000003E00000028000000B40200006E0000000100
310
01000000000000000000130B0000130B00000200000002000000000000FFFFFF
310
FFFFFFFFFFFFFFFFFFFFFFFFFFFFFFFFFFFFFFFFFFFFFFFFFFFFFFFFFFFFFFFF
310
FFFFFFFFFFFFFFFFFFFFFFFFFFFFFFFFFFFFFFFFFFFFFFFFFFFFFFFFFFFFFFFF
310
FFFFFFFFFFFFFFFFFFFFFFFFFFFFFFFFFFFFFFFFFFFFFFFFF000FFFFFFFFFFFF
310
FFFFFFFFFFFFFFFFFFFFFFFFFFFFFFFFFFFFFFFFFFFFFFFFFFFFFFFFFFFFFFFF
310
FFFFFFFFFFFFFFFFFFFFFFFFFFFFFFFFFFFFFFFFFFFFFFFFFFFFFFFFFFFFFFFF
310
FFFFFFFFFFFFFFFFFFFFFFFFFFFFFFFFF000FFFFFFFFFFFFFFFFFFFFFFFFFFFF
310
FFFFFFFFFFFFFFFFFFFFFFFFFFFFFFFFFFFFFFFFFFFFFFFFFFFFFFFFFFFFFFFF
310
FFFFFFFFFFFFFFFFFFFFFFFFFFFFFFFFFFFFFFFFFFFFFFFFFFFFFFFFFFFFFFFF
310
FFFFFFFFFFFFFFFFF000FFFFFFFFFFFFFFFFFFFFFFFFFFFFFFFFFFFFFFFFFFFF
310
FFFFFFFFFFFFFFFFFFFFFFFFFFFFFFFFFFFFFFFFFFFFFFFFFFFFFFFFFFFFFFFF
310
FFFFFFFFFFFFFFFFFFFFFFFFFFFFFFFFFFFFFFFFFFFFFFFFFFFFFFFFFFFFFFFF
310
F000FFFFFFFFFFFFFFFFFFFFFFFFFFFFFFFFFFFFFFFFFFFFFFFFFFFFFFFFFFFF
310
FFFFFFFFFFFFFFFFFFFFFFFFFFFFFFFFFFFFFFFFFFFFFFFFFFFFFFFFFFFFFFFF
310
FFFFFFFFFFFFFFFFFFFFFFFFFFFFFFFFFFFFFFFFFFFFFFFFF000FFFFFFFFFFFF
310
FFFFFFFFFFFFFFFFFFFFFFFFFFFFFFFFFFFFFFFFFFFFFFFFFFFFFFFFFFFFFFFF
310
FFFFFFFFFFFFFFFFFFFFFFFFFFFFFFFFFFFFFFFFFFFFFFFFFFFFFFFFFFFFFFFF
310
FFFFFFFFFFFFFFFFFFFFFFFFFFFFFFFFF000FFFFFFFFFFFFFFFFFFFFFFFFFFFF
310
FFFFFFFFFFFFFFFFFFFFFFFFFFFFFFFFFFFFFFFFFFFFFFFFFFFFFFFFFFFFFFFF
310
FFFFFFFFFFFFFFFFFFFFFFFFFFFFFFFFFFFFFFFFFFFFFFFFFFFFFFFFFFFFFFFF
310
FFFFFFFFFFFFFFFFF000FFFFFFFFFFFFFFFFFFFFFFFFFFFFFFFFFFFFFFFFFFFF
310
FFFFFFFFFFFFFFFFFFFFFFFFFFFFFFFFFFFFFFFFFFFFFFFFFFFFFFFFFFFFFFFF
310
FFFFFFFFFFFFFFFFFFFFFFFFFFFFFFFFFFFFFFFFFFFFFFFFFFFFFFFFFFFFFFFF
310
F000FFFFFFFFFFFFFFFFFFFFFFFFFFFFFFFFFFFFFFFFFFFFFFFFFFFFFFFFFFFF
310
FFFFFFFFFFFFFFFFFFFFFFFFFFFFFFFFFFFFFFFFFFFFFFFFFFFFFFFFFFFFFFFF
310
FFFFFFFFFFFFFFFFFFFFFFFFFFFFFFFFFFFFFFFFFFFFFFFFF000FFFFFFFFFFFF
310
FFFFFFFFFFFFFFFFFFFFFFFFFFFFFFFFFFFFFFFFFFFFFFFFFFFFFFFFFFFFFFFF
310
FFFFFFFFFFFFFFFFFFFFFFFFFFFFFFFFFFFFFFFFFFFFFFFFFFFFFFFFFFFFFFFF
310
FFFFFFFFFFFFFFFFFFFFFFFFFFFFFFFFF000FFFFFFFFFFFFFFFFFFFFFFFFFFFF
310
FFFFFFFFFFFFFFFFFFFFFFFFFFFFFFFFFFFFFFFFFFFFFFFFFFFFFFFFFFFFFFFF
310
FFFFFFFFFFFFFFFFFFFFFFFFFFFFFFFFFFFFFFFFFFFFFFFFFFFFFFFFFFFFFFFF
310
FFFFFFFFFFFFFFFFF000FFFFFFFFFFFFFFFFFFFFFFFFFFFFFFFFFFFFFFFFFFFF
310
FFFFFFFFFFFFFFFFFFFFFFFFFFFFFFFFFFFFFFFFFFFFFFFFFFFFFFFFFFFFFFFF
310
FFFFFFFFFFFFFFFFFFFFFFFFFFFFFFFFFFFFFFFFFFFFFFFFFFFFFFFFFFFFFFFF
310
F000FFFFFFFFFFFFFFFFFFFFFFFFFFFFFFFFFFFFFFFFFFFFFFFFFFFFFFFFFFFF
310
FFFFFFFFFFFFFFFFFFFFFFFFFFFFFFFFFFFFFFFFFFFFFFFFFFFFFFFFFFFFFFFF
310
FFFFFFFFFFFFFFFFFFFFFFFFFFFFFFFFFFFFFFFFFFFFFFFFF000FFFFFFFFFFFF
310
FFFFFFFFFFFFFFFFFFFFFFFFFFFFFFFFFFFFFFFFFFFFFFFFFFFFFFFFFFFFFFFF
310
FFFFFFFFFFFFFFFFFFFFFFFFFFFFFFFFFFFFFFFFFFFFFFFFFFFFFFFFFFFFFFFF
310
FFFFFFFFFFFFFFFFFFFFFFFFFFFFFFFFF000FFFFFFFFFFFFFFFFFFFFFFFFFFFF
310
FFFFFFFFFFFFFFFFFFFFFFFFFFFFFFFFFFFFFFFFFFFFFFFFFFFFFFFFFFFFFFFF
310
FFFFFFFFFFFFFFFFFFFFFFFFFFFFFFFFFFFFFFFFFFFFFFFFFFFFFFFFFFFFFFFF
310
FFFFFFFFFFFFFFFFF000FFFFFFFFFFFFFFFFFFFFFFFFFFFFFFFFFFFFFFFFFFFF
310
FFFFFFFFFFFFFFFFFFFFFFFFFFFFFFFFFFFFFFFFFFFFFFFFFFFFFFFFFFFFFFFF
310
FFFFFFFFFFFFFFFFFFFFFFFFFFFFFFFFFFFFFFFFFFFFFFFFFFFFFFFFFFFFFFFF
310
F000FFFFFFFFFFFFFFFFFFFFFFFFFFFFFFFFFFFFFFFFFFFFFFFFFFFFFFFFFFFF
310
FFFFFFFFFFFFFFFFFFFFFFFFFFFFFFFFFFFFFFFFFFFFFFFFFFFFFFFFFFFFFFFF
310
FFFFFFFFFFFFFFFFFFFFFFFFFFFFFFFFFFFFFFFFFFFFFFFFF000FFFFFFFFFFFF
310
FFFFFFFFFFFFFFFFFFFFFFFFFFFFFFFFFFFFFFFFFFFFFFFFFFFFFFFFFFFFFFFF
310
FFFFFFFFFFFFFFFFFFFFFFFFFFFFFFFFFFFFFFFFFFFFFFFFFFFFFFFFFFFFFFFF
310
FFFFFFFFFFFFFFFFFFFFFFFFFFFFFFFFF000FFFFFFFFFFFFFFFFFFFFFFFFFFFF
310
FFFFFFFFFFFFFFFFFFFFFFFFFFFFFFFFFFFFFFFFFFFFFFFFFFFFFFFFFFFFFFFF
310
FFFFFFFFFFFFFFFFFFFFFFFFFFFFFFFFFFFFFFFFFFFFFFFFFFFFFFFFFFFFFFFF
310
FFFFFFFFFFFFFFFFF000FFFFF80003FFFFFFFFFFFFFFFFFFFFFFFFFFFFFFFFFF
310
FFFFF00007FFFFFFFFFF00007FFFFFF800000000000000007FFFFFFFFFFFFFFF
310
FFFFFFFC001FFFFFFFFFFFFFFC001FFFFFFFFFFFFFFFFFFFFFFFFFFE0007FFFF
310
F000FFFF8000007FFFFFFFF8000FFFFFC0007FFFFF80007FFFFF0000007FFFFF
310
FFF8000007FFFFF800000000000000007FFFFFF0001FFFFFFFFFFFC00001FFFF
310
FFFFFFFFC00001FFFFFFFF000000000003FFFFE000007FFFF000FFFE0000000F
310
FFFFFFF0000FFFFF80007FFFFF80007FFFFC0000001FFFFFFFC0000001FFFFF8
310
00000000000000007FFFFFF0001FFFFFFFFFFE0000003FFFFFFFFFFE0000003F
310
FFFFFF000000000003FFFF0000000FFFF000FFF800000003FFFFFFF00007FFFF
310
80007FFFFF80007FFFF000000007FFFFFF000000003FFFF80000000000000000
310
7FFFFFF0001FFFFFFFFFF80000000FFFFFFFFFF80000000FFFFFFF0000000000
310
03FFFC00000003FFF000FFE000000000FFFFFFF00007FFFF80003FFFFF80007F
310
FFC000000001FFFFFC000000001FFFF800000000000000007FFFFFF0001FFFFF
310
FFFFE000000003FFFFFFFFE000000003FFFFFF000000000003FFF000000000FF
310
F000FF80000000007FFFFFF00007FFFF80003FFFFF80007FFF8000000000FFFF
310
F80000000007FFF800000000000000007FFFFFF0001FFFFFFFFFC000000001FF
310
FFFFFFC000000001FFFFFF000000000003FFC0000000007FF000FF0000000000
310
3FFFFFE00007FFFF00003FFFFF80007FFE00000000003FFFF00000000003FFF8
310
00000000000000007FFFFFF0001FFFFFFFFF8000000000FFFFFFFF8000000000
310
FFFFFF000000000003FF80000000003FF000FE00000000001FFFFFE00003FFFF
310
00003FFFFF80007FFC00000000001FFFE00000000001FFF8000001FFFE000000
310
7FFFFFF0001FFFFFFFFE00000000003FFFFFFE00000000003FFFFF0000000000
310
03FF00000000001FF000FC00000000000FFFFFE00003FFFF00001FFFFF80007F
310
F800000000001FFFC00000000000FFF8000001FFFE0000007FFFFFF0001FFFFF
310
FFFC00000000001FFFFFFC00000000001FFFFF000000000003FE00000000000F
310
F000F8000000000007FFFFE00003FFFF00001FFFFF80007FF800000000000FFF
310
800000000000FFF8000001FFFE0000007FFFFFF0001FFFFFFFF800000000000F
310
FFFFF800000000000FFFFF000000000003FC000000000007F000F80000000000
310
03FFFFC00003FFFE00001FFFFF80007FF0000000000007FF0000000000007FF8
310
000001FFFE0000007FFFFFF0001FFFFFFFF0000000000007FFFFF00000000000
310
07FFFF000000000003F8000000000003F000F0000000000003FFFFC00001FFFE
310
00001FFFFF80007FE0000000000007FE0000000000003FF8000001FFFE000000
310
7FFFFFF0001FFFFFFFF0000000000007FFFFF0000000000007FFFF0000000000
310
03F800001F800003F000E00001FFF00001FFFFC00001FFFE00000FFFFF80007F
310
E00001FFE00003FE00001FFF00003FF8000001FFFE0000007FFFFFF0001FFFFF
310
FFE000003E000003FFFFE000003E000003FFFF000000000003F00001FFF80001
310
F000E00007FFFC0001FFFFC00001FFFE00000FFFFF80007FC0000FFFFC0003FC
310
0000FFFFC0001FF8000001FFFE0000007FFFFFF0001FFFFFFFC00003FFE00001
310
FFFFC00003FFE00001FFFF0001FFFFFFFFF00007FFFE0001F000E0000FFFFF00
310
00FFFF800001FFFC00000FFFFF80007FC0001FFFFE0001FC0001FFFFE0001FF8
310
000001FFFE0000007FFFFFF0001FFFFFFF80000FFFF80000FFFF80000FFFF800
310
00FFFF0003FFFFFFFFE0000FFFFF8000F000C0003FFFFF8000FFFF800000FFFC
310
000007FFFF80007F80003FFFFF0001FC0003FFFFF0001FF8000001FFFE000000
310
7FFFFFF0001FFFFFFF80003FFFFE0000FFFF80003FFFFE0000FFFF0003FFFFFF
310
FFE0003FFFFF8000F000C0003FFFFF8000FFFF800000FFFC000007FFFF80007F
310
80007FFFFF8001F80007FFFFF8000FF8000001FFFE0000007FFFFFF0001FFFFF
310
FF00007FFFFF00007FFF00007FFFFF00007FFF0003FFFFFFFFE0003FFFFFC000
310
F000C0007FFFFFC000FFFF000000FFFC000007FFFF80007F8000FFFFFF8000F8
310
000FFFFFF8000FF8000001FFFE0000007FFFFFF0001FFFFFFF0000FFFFFF8000
310
7FFF0000FFFFFF80007FFF0003FFFFFFFFC0007FFFFFC00070008000FFFFFFC0
310
00FFFF000000FFF8000007FFFF80007F8000FFFFFF8000F8000FFFFFF8000FF8
310
000001FFFE0000007FFFFFF0001FFFFFFE0001FFFFFFC0003FFE0001FFFFFFC0
310
003FFF0003FFFFFFFFC0007FFFFFE00070008000FFFFFFC0007FFF0000007FF8
310
000003FFFF80007F0001FFFFFF8000F8000FFFFFF8000FF8000001FFFE000000
310
7FFFFFF0001FFFFFFE0001FFFFFFC0003FFE0001FFFFFFC0003FFF0003FFFFFF
310
FFC000FFFFFFE00070008000FFFFFFC0007FFF0000007FF8000003FFFF80007F
310
0001FFFFFF8000F8001FFFFFF8000FF8000001FFFE0000007FFFFFF0001FFFFF
310
FE0003FFFFFFE0003FFE0003FFFFFFE0003FFF0003FFFFFFFFC000FFFFFFE000
310
70008000FFFFFFC0007FFE0000007FF8000003FFFF80007F0001FFFFFF8000F0
310
001FFFFFF8000FF8000001FFFE0000007FFFFFF0001FFFFFFC0003FFFFFFE000
310
1FFC0003FFFFFFE0001FFF0003FFFFFFFFC000FFFFFFC00070008000FFFFFF80
310
007FFE0000007FF0000003FFFF80007F0001FFFFFF0000F0001FFFFFF8000FF8
310
000001FFFE0000007FFFFFF0001FFFFFFC0007FFFFFFF0001FFC0007FFFFFFF0
310
001FFF0003FFFFFFFFC000FFFFFFC00070008001FFFFFF0000FFFE0000003FF0
310
000001FFFF80007F0001FFFFFF0000F8001FFFFFF0000FF8000001FFFE000000
310
7FFFFFF0001FFFFFFC0007FFFFFFF0001FFC0007FFFFFFF0001FFF0003FFFFFF
310
FFC001FFFFFF80007000FFFFFFFFFE0000FFFE0008003FF0008001FFFF80007F
310
FFFFFFFFFC0000FFFFFFFFFFE0000FF8000001FFFE0000007FFFFFF0001FFFFF
310
F8000FFFFFFFF8000FF8000FFFFFFFF8000FFF0003FFFFFFFFFFFFFFFFFF0000
310
7000FFFFFFFFFC0000FFFC0008003FF0008001FFFF80007FFFFFFFFFF80001FF
310
FFFFFFFF80000FF8000001FFFE0000007FFFFFF0001FFFFFF8000FFFFFFFF800
310
0FF8000FFFFFFFF8000FFF0003FFFFFFFFFFFFFFFFFE0000F000FFFFFFFFE000
310
00FFFC000C003FE000C001FFFF80007FFFFFFFFFC00001FFFFFFFFFE00001FF8
310
000001FFFE0000007FFFFFF0001FFFFFF8000FFFFFFFF8000FF8000FFFFFFFF8
310
000FFF0003FFFFFFFFFFFFFFFFF00000F000FFFFFFFE000001FFFC000C001FE0
310
00C000FFFF80007FFFFFFFFE000001FFFFFFFFE000001FF80FFFFFFFFFFFFFC0
310
7FFFFFF0001FFFFFF8000FFFFFFFF8000FF8000FFFFFFFF8000FFF0003FFFFFF
310
FFFFFFFFFF800000F000FFFFFFC0000001FFFC001C001FE001C000FFFF80007F
310
FFFFFF80000003FFFFFFF80000001FF80FFFFFFFFFFFFFC07FFFFFF0001FFFFF
310
F8001FFFFFFFFC000FF8001FFFFFFFFC000FFF0003FFFFFFFFFFFFFFF0000001
310
F000FFFFF800000001FFF8001C001FE001C000FFFF80007FFFFFF800000003FF
310
FFFF800000003FF80FFFFFFFFFFFFFC07FFFFFF0001FFFFFF8001FFFFFFFFC00
310
0FF8001FFFFFFFFC000FFF0003FFFFFFFFFFFFFE00000001F000FFFFC0000000
310
03FFF8001E001FC001E000FFFF80007FFFFF8000000007FFFFFC000000003FF8
310
0FFFFFFFFFFFFFC07FFFFFF0001FFFFFF8001FFFFFFFFC000FF8001FFFFFFFFC
310
000FFF0003FFFFFFFFFFFFE000000003F000FFFE0000000007FFF8001E000FC0
310
01E0007FFF80007FFFFE0000000007FFFFE0000000007FF80FFFFFFFFFFFFFC0
310
7FFFFFF0001FFFFFF0001FFFFFFFFC0007F0001FFFFFFFFC0007FF0003FFFFFF
310
FFFFFF0000000003F000FFF80000000007FFF8001E000FC003E0007FFF80007F
310
FFF0000000000FFFFF8000000000FFF80FFFFFFFFFFFFFC07FFFFFF0001FFFFF
310
F0001FFFFFFFFC0007F0001FFFFFFFFC0007FF0003FFFFFFFFFFFC0000000007
310
F000FFE0000000000FFFF0003E000FC003E0007FFF80007FFFC0000000001FFF
310
FE0000000001FFF80FFFFFFFFFFFFFC07FFFFFF0001FFFFFF0001FFFFFFFFC00
310
07F0001FFFFFFFFC0007FF0003FFFFFFFFFFF0000000000FF000FFC000000000
310
1FFFF0003F000F8003F0003FFF80007FFF80000000003FFFF80000000003FFF8
310
0FFFFFFFFFFFFFC07FFFFFF0001FFFFFF0001FFFFFFFFC0007F0001FFFFFFFFC
310
0007FF0003FFFFFFFFFFE0000000001FF000FF00000000007FFFF0003F000780
310
03F0003FFF80007FFF00000000007FFFF00000000007FFF80FFFFFFFFFFFFFC0
310
7FFFFFF0001FFFFFF0001FFFFFFFFC0007F0001FFFFFFFFC0007FF0003FFFFFF
310
FFFF80000000007FF000FE0000000000FFFFE0003F00078007F0003FFF80007F
310
FE0000000001FFFFE0000000001FFFF80FFFFFFFFFFFFFC07FFFFFF0001FFFFF
310
F0001FFFFFFFFC0007F0001FFFFFFFFC0007FF0003FFFFFFFFFF0000000000FF
310
F000FC0000000003FFFFE0007F00078007F0003FFF80007FFC0000000007FFFF
310
C0000000007FFFF80FFFFFFFFFFFFFC07FFFFFF0001FFFFFF8001FFFFFFFFC00
310
0FF8001FFFFFFFFC000FFF0003FFFFFFFFFE0000000003FFF000FC000000000F
310
FFFFE0007F80070007F8001FFF80007FF8000000001FFFFF8000000001FFFFF8
310
0FFFFFFFFFFFFFC07FFFFFF0001FFFFFF8001FFFFFFFFC000FF8001FFFFFFFFC
310
000FFF0003FFFFFFFFFC000000000FFFF000F8000000007FFFFFE0007F800700
310
07F8001FFF80007FF000000000FFFFFF800000000FFFFFF80FFFFFFFFFFFFFC0
310
7FFFFFF0001FFFFFF8000FFFFFFFF8000FF8000FFFFFFFF8000FFF0003FFFFFF
310
FFFC000000007FFFF000F800000007FFFFFFC0007F8003000FF8001FFF80007F
310
F000000007FFFFFF000000007FFFFFF80FFFFFFFFFFFFFC07FFFFFF0001FFFFF
310
F8000FFFFFFFF8000FF8000FFFFFFFF8000FFF0003FFFFFFFFF80000000FFFFF
310
F000F0000000FFFFFFFFC000FF8003000FF8001FFF80007FE0000000FFFFFFFF
310
0000000FFFFFFFF8000001FFFE0000007FFFFFF0001FFFFFF8000FFFFFFFF800
310
0FF8000FFFFFFFF8000FFF0003FFFFFFFFF8000000FFFFFFF000F000000FFFFF
310
FFFFC000FFC002000FF8000FFF80007FE000001FFFFFFFFE000001FFFFFFFFF8
310
000001FFFE0000007FFFFFF0001FFFFFF8000FFFFFFFF8000FF8000FFFFFFFF8
310
000FFF0003FFFFFFFFF000001FFFFFFFF000E00000FFFFFFFFFFC000FFC00200
310
0FFC000FFF80007FE00001FFFFFFFFFE00001FFFFFFFFFF8000001FFFE000000
310
7FFFFFF0001FFFFFFC000FFFFFFFF8001FFC000FFFFFFFF8001FFF0003FFFFFF
310
FFF00001FFFFFFFFF000E00007FFFFFFFFFF8000FFC000001FFC000FFF80007F
310
C0000FFFFFFFFFFE0000FFFFFFFFFFF8000001FFFE0000007FFFFFF0001FFFFF
310
FC0007FFFFFFF0001FFC0007FFFFFFF0001FFF0003FFFFFFFFF00007FFFFFFFF
310
F000E0001FFFFFFFFFFF8000FFC000001FFC000FFF80007FC0003FFFFFFFFFFE
310
0001FFFFFFFFFFF8000001FFFE0000007FFFFFF0001FFFFFFC0007FFFFFFF000
310
1FFC0007FFFFFFF0001FFF0003FFFFFFFFF0001FFFFFFFFFF000E0003FFFFF00
310
03FF8001FFE000001FFC0007FF80007FC0007FFFFF0007FC0003FFFFF0003FF8
310
000001FFFE0000007FFFFFF0001FFFFFFC0003FFFFFFE0001FFC0003FFFFFFE0
310
001FFF0003FFFFFFFFF0003FFFFFFFFFF000E0003FFFFF0001FF8001FFE00000
310
1FFE0007FF80007FC0007FFFFE0003FC0007FFFFE0003FF8000001FFFE000000
310
7FFFFFF0001FFFFFFE0003FFFFFFE0003FFE0003FFFFFFE0003FFF0003FFFFFF
310
FFF0003FFFFF8001F000E0003FFFFF0001FF0001FFE000001FFE0007FF80007F
310
C0007FFFFE0003FC0007FFFFE0003FF8000001FFFE0000007FFFFFF0001FFFFF
310
FE0001FFFFFFC0003FFE0001FFFFFFC0003FFF0003FFFFFFFFF0003FFFFF0001
310
F000E0003FFFFF0003FF0001FFE000003FFE0007FF80007FC0007FFFFE0003FC
310
0007FFFFE0003FF8000001FFFE0000007FFFFFF0001FFFFFFF0001FFFFFFC000
310
7FFF0001FFFFFFC0007FFF0003FFFFFFFFF0003FFFFF0001F000E0003FFFFE00
310
03FF0003FFF000003FFE0003FF80007FC0007FFFFC0003FE0007FFFFE0003FF8
310
000001FFFE0000007FFFFFF0001FFFFFFF0000FFFFFF80007FFF0000FFFFFF80
310
007FFF0003FFFFFFFFF0003FFFFF0001F000E0003FFFFE0003FF0003FFF00000
310
3FFF0003FF80007FC0007FFFFC0007FE0007FFFFC0003FF8000001FFFE000000
310
7FFFFFF0001FFFFFFF80007FFFFF0000FFFF80007FFFFF0000FFFF0003FFFFFF
310
FFF0003FFFFF0003F000E0003FFFFC0003FE0003FFF000003FFF0003FF80007F
310
E0003FFFF80007FE0003FFFFC0007FF8000001FFFE0000007FFFFFF0001FFFFF
310
FF80003FFFFE0000FFFF80003FFFFE0000FFFF0003FFFFFFFFF0001FFFFE0003
310
F000F0001FFFF80003FE0003FFF000007FFF0001FF80007FE0003FFFF00007FE
310
0001FFFF80007FF8000001FFFE0000007FFFFFF0001FFFFFFFC0000FFFF80001
310
FFFFC0000FFFF80001FFFF0003FFFFFFFFF0001FFFFC0003F000F0000FFFF000
310
07FE0007FFF800007FFF0001FF80007FE0001FFFE00007FF0000FFFE00007FF8
310
000001FFFE0000007FFFFFF0001FFFFFFFC00003FFE00001FFFFC00003FFE000
310
01FFFF0003FFFFFFFFF8000FFFF80003F000F00003FFC00007FC0007FFF80000
310
7FFF8001FF80007FF00007FF80000FFF00007FF80000FFF8000001FFFE000000
310
7F80000000000001FFE000003E000003FFFFE000003E000003FFFF0003FFFFFF
310
FFF80003FFE00007F000F800000000000FFC0007FFF800007FFF8001FF80007F
310
F000000000000FFF000000000000FFF8000001FFFE0000007F80000000000001
310
FFF0000000000007FFFFF0000000000007FFFF0003FFFFFFFFFC00007E000007
310
F000F800000000000FFC0007FFF80000FFFF8000FF80007FF800000000001FFF
310
800000000001FFF8000001FFFE0000007F80000000000001FFF800000000000F
310
FFFFF800000000000FFFFF0003FFFFFFFFFC00000000000FF000FC0000000000
310
1FFC0007FFFC0000FFFF8000FF80007FF800000000003FFFC00000000001FFF8
310
000001FFFE0000007F80000000000001FFF800000000000FFFFFF80000000000
310
0FFFFF0003FFFFFFFFFE00000000001FF000FE00000000003FF8000FFFFC0000
310
FFFF8000FF80007FFC00000000003FFFC00000000003FFF8000001FFFE000000
310
7F80000000000001FFFC00000000001FFFFFFC00000000001FFFFF0003FFFFFF
310
FFFF00000000001FF000FF00000000003FF8000FFFFC0000FFFFC000FF80007F
310
FE00000000007FFFE00000000007FFF8000001FFFE0000007F80000000000001
310
FFFE00000000003FFFFFFE00000000003FFFFF0003FFFFFFFFFF80000000003F
310
F000FF80000000007FF8000FFFFC0001FFFFC0007F80007FFF0000000000FFFF
310
F0000000000FFFF800000000000000007F80000000000001FFFF8000000000FF
310
FFFFFF8000000000FFFFFF0003FFFFFFFFFFC0000000007FF000FFC000000000
310
FFF8000FFFFE0001FFFFC0007F80007FFF8000000001FFFFF8000000001FFFF8
310
00000000000000007F80000000000001FFFFC000000001FFFFFFFFC000000001
310
FFFFFF0003FFFFFFFFFFE000000000FFF000FFE000000003FFF0001FFFFE0001
310
FFFFC0007F80007FFFC000000007FFFFFE000000003FFFF80000000000000000
310
7F80000000000001FFFFE000000003FFFFFFFFE000000003FFFFFF0003FFFFFF
310
FFFFF000000003FFF000FFF80000000FFFF0001FFFFE0001FFFFE0007F80007F
310
FFF00000000FFFFFFF00000000FFFFF800000000000000007F80000000000001
310
FFFFF80000000FFFFFFFFFF80000000FFFFFFF0003FFFFFFFFFFFC0000000FFF
310
F000FFFE0000003FFFF0001FFFFE0003FFFFE0003F80007FFFFC0000003FFFFF
310
FFC0000003FFFFF800000000000000007F80000000000001FFFFFE0000003FFF
310
FFFFFFFE0000003FFFFFFF0003FFFFFFFFFFFF0000003FFFF000FFFF800000FF
310
FFF0001FFFFF0003FFFFE0003F80007FFFFF000001FFFFFFFFF800001FFFFFF8
310
00000000000000007F80000000000001FFFFFFC00001FFFFFFFFFFFFC00001FF
310
FFFFFF0003FFFFFFFFFFFFC00000FFFFF000FFFFF8000FFFFFFFFFFFFFFFFFFF
310
FFFFFFFFFFFFFFFFFFFFF0001FFFFFFFFFFF0000FFFFFFF80000000000000000
310
7FFFFFFFFFFFFFFFFFFFFFFC001FFFFFFFFFFFFFFC001FFFFFFFFFFFFFFFFFFF
310
FFFFFFFC001FFFFFF000FFFFFFFFFFFFFFFFFFFFFFFFFFFFFFFFFFFFFFFFFFFF
310
FFFFFFFFFFFFFFFFFFFFFFFFFFFFFFFFFFFFFFFFFFFFFFFFFFFFFFFFFFFFFFFF
310
FFFFFFFFFFFFFFFFFFFFFFFFFFFFFFFFFFFFFFFFFFFFFFFFFFFFFFFFFFFFFFFF
310
F000FFFFFFFFFFFFFFFFFFFFFFFFFFFFFFFFFFFFFFFFFFFFFFFFFFFFFFFFFFFF
310
FFFFFFFFFFFFFFFFFFFFFFFFFFFFFFFFFFFFFFFFFFFFFFFFFFFFFFFFFFFFFFFF
310
FFFFFFFFFFFFFFFFFFFFFFFFFFFFFFFFFFFFFFFFFFFFFFFFF000FFFFFFFFFFFF
310
FFFFFFFFFFFFFFFFFFFFFFFFFFFFFFFFFFFFFFFFFFFFFFFFFFFFFFFFFFFFFFFF
310
FFFFFFFFFFFFFFFFFFFFFFFFFFFFFFFFFFFFFFFFFFFFFFFFFFFFFFFFFFFFFFFF
310
FFFFFFFFFFFFFFFFFFFFFFFFFFFFFFFFF000FFFFFFFFFFFFFFFFFFFFFFFFFFFF
310
FFFFFFFFFFFFFFFFFFFFFFFFFFFFFFFFFFFFFFFFFFFFFFFFFFFFFFFFFFFFFFFF
310
FFFFFFFFFFFFFFFFFFFFFFFFFFFFFFFFFFFFFFFFFFFFFFFFFFFFFFFFFFFFFFFF
310
FFFFFFFFFFFFFFFFF000FFFFFFFFFFFFFFFFFFFFFFFFFFFFFFFFFFFFFFFFFFFF
310
FFFFFFFFFFFFFFFFFFFFFFFFFFFFFFFFFFFFFFFFFFFFFFFFFFFFFFFFFFFFFFFF
310
FFFFFFFFFFFFFFFFFFFFFFFFFFFFFFFFFFFFFFFFFFFFFFFFFFFFFFFFFFFFFFFF
310
F000FFFFFFFFFFFFFFFFFFFFFFFFFFFFFFFFFFFFFFFFFFFFFFFFFFFFFFFFFFFF
310
FFFFFFFFFFFFFFFFFFFFFFFFFFFFFFFFFFFFFFFFFFFFFFFFFFFFFFFFFFFFFFFF
310
FFFFFFFFFFFFFFFFFFFFFFFFFFFFFFFFFFFFFFFFFFFFFFFFF000FFFFFFFFFFFF
310
FFFFFFFFFFFFFFFFFFFFFFFFFFFFFFFFFFFFFFFFFFFFFFFFFFFFFFFFFFFFFFFF
310
FFFFFFFFFFFFFFFFFFFFFFFFFFFFFFFFFFFFFFFFFFFFFFFFFFFFFFFFFFFFFFFF
310
FFFFFFFFFFFFFFFFFFFFFFFFFFFFFFFFF000FFFFFFFFFFFFFFFFFFFFFFFFFFFF
310
FFFFFFFFFFFFFFFFFFFFFFFFFFFFFFFFFFFFFFFFFFFFFFFFFFFFFFFFFFFFFFFF
310
FFFFFFFFFFFFFFFFFFFFFFFFFFFFFFFFFFFFFFFFFFFFFFFFFFFFFFFFFFFFFFFF
310
FFFFFFFFFFFFFFFFF000FFFFFFFFFFFFFFFFFFFFFFFFFFFFFFFFFFFFFFFFFFFF
310
FFFFFFFFFFFFFFFFFFFFFFFFFFFFFFFFFFFFFFFFFFFFFFFFFFFFFFFFFFFFFFFF
310
FFFFFFFFFFFFFFFFFFFFFFFFFFFFFFFFFFFFFFFFFFFFFFFFFFFFFFFFFFFFFFFF
310
F000FFFFFFFFFFFFFFFFFFFFFFFFFFFFFFFFFFFFFFFFFFFFFFFFFFFFFFFFFFFF
310
FFFFFFFFFFFFFFFFFFFFFFFFFFFFFFFFFFFFFFFFFFFFFFFFFFFFFFFFFFFFFFFF
310
FFFFFFFFFFFFFFFFFFFFFFFFFFFFFFFFFFFFFFFFFFFFFFFFF000FFFFFFFFFFFF
310
FFFFFFFFFFFFFFFFFFFFFFFFFFFFFFFFFFFFFFFFFFFFFFFFFFFFFFFFFFFFFFFF
310
FFFFFFFFFFFFFFFFFFFFFFFFFFFFFFFFFFFFFFFFFFFFFFFFFFFFFFFFFFFFFFFF
310
FFFFFFFFFFFFFFFFFFFFFFFFFFFFFFFFF000FFFFFFFFFFFFFFFFFFFFFFFFFFFF
310
FFFFFFFFFFFFFFFFFFFFFFFFFFFFFFFFFFFFFFFFFFFFFFFFFFFFFFFFFFFFFFFF
310
FFFFFFFFFFFFFFFFFFFFFFFFFFFFFFFFFFFFFFFFFFFFFFFFFFFFFFFFFFFFFFFF
310
FFFFFFFFFFFFFFFFF000FFFFFFFFFFFFFFFFFFFFFFFFFFFFFFFFFFFFFFFFFFFF
310
FFFFFFFFFFFFFFFFFFFFFFFFFFFFFFFFFFFFFFFFFFFFFFFFFFFFFFFFFFFFFFFF
310
FFFFFFFFFFFFFFFFFFFFFFFFFFFFFFFFFFFFFFFFFFFFFFFFFFFFFFFFFFFFFFFF
310
F000FFFFFFFFFFFFFFFFFFFFFFFFFFFFFFFFFFFFFFFFFFFFFFFFFFFFFFFFFFFF
310
FFFFFFFFFFFFFFFFFFFFFFFFFFFFFFFFFFFFFFFFFFFFFFFFFFFFFFFFFFFFFFFF
310
FFFFFFFFFFFFFFFFFFFFFFFFFFFFFFFFFFFFFFFFFFFFFFFFF000FFFFFFFFFFFF
310
FFFFFFFFFFFFFFFFFFFFFFFFFFFFFFFFFFFFFFFFFFFFFFFFFFFFFFFFFFFFFFFF
310
FFFFFFFFFFFFFFFFFFFFFFFFFFFFFFFFFFFFFFFFFFFFFFFFFFFFFFFFFFFFFFFF
310
FFFFFFFFFFFFFFFFFFFFFFFFFFFFFFFFF000FFFFFFFFFFFFFFFFFFFFFFFFFFFF
310
FFFFFFFFFFFFFFFFFFFFFFFFFFFFFFFFFFFFFFFFFFFFFFFFFFFFFFFFFFFFFFFF
310
FFFFFFFFFFFFFFFFFFFFFFFFFFFFFFFFFFFFFFFFFFFFFFFFFFFFFFFFFFFFFFFF
310
FFFFFFFFFFFFFFFFF000FFFFFFFFFFFFFFFFFFFFFFFFFFFFFFFFFFFFFFFFFFFF
310
FFFFFFFFFFFFFFFFFFFFFFFFFFFFFFFFFFFFFFFFFFFFFFFFFFFFFFFFFFFFFFFF
310
FFFFFFFFFFFFFFFFFFFFFFFFFFFFFFFFFFFFFFFFFFFFFFFFFFFFFFFFFFFFFFFF
310
F000FFFFFFFFFFFFFFFFFFFFFFFFFFFFFFFFFFFFFFFFFFFFFFFFFFFFFFFFFFFF
310
FFFFFFFFFFFFFFFFFFFFFFFFFFFFFFFFFFFFFFFFFFFFFFFFFFFFFFFFFFFFFFFF
310
FFFFFFFFFFFFFFFFFFFFFFFFFFFFFFFFFFFFFFFFFFFFFFFFF000FFFFFFFFFFFF
310
FFFFFFFFFFFFFFFFFFFFFFFFFFFFFFFFFFFFFFFFFFFFFFFFFFFFFFFFFFFFFFFF
310
FFFFFFFFFFFFFFFFFFFFFFFFFFFFFFFFFFFFFFFFFFFFFFFFFFFFFFFFFFFFFFFF
310
FFFFFFFFFFFFFFFFFFFFFFFFFFFFFFFFF000FFFFFFFFFFFFFFFFFFFFFFFFFFFF
310
FFFFFFFFFFFFFFFFFFFFFFFFFFFFFFFFFFFFFFFFFFFFFFFFFFFFFFFFFFFFFFFF
310
FFFFFFFFFFFFFFFFFFFFFFFFFFFFFFFFFFFFFFFFFFFFFFFFFFFFFFFFFFFFFFFF
310
FFFFFFFFFFFFFFFFF000FFFFFFFFFFFFFFFFFFFFFFFFFFFFFFFFFFFFFFFFFFFF
310
FFFFFFFFFFFFFFFFFFFFFFFFFFFFFFFFFFFFFFFFFFFFFFFFFFFFFFFFFFFFFFFF
310
FFFFFFFFFFFFFFFFFFFFFFFFFFFFFFFFFFFFFFFFFFFFFFFFFFFFFFFFFFFFFFFF
310
F000FFFFFFFFFFFFFFFFFFFFFFFFFFFFFFFFFFFFFFFFFFFFFFFFFFFFFFFFFFFF
310
FFFFFFFFFFFFFFFFFFFFFFFFFFFFFFFFFFFFFFFFFFFFFFFFFFFFFFFFFFFFFFFF
310
FFFFFFFFFFFFFFFFFFFFFFFFFFFFFFFFFFFFFFFFFFFFFFFFF000FFFFFFFFFFFF
310
FFFFFFFFFFFFFFFFFFFFFFFFFFFFFFFFFFFFFFFFFFFFFFFFFFFFFFFFFFFFFFFF
310
FFFFFFFFFFFFFFFFFFFFFFFFFFFFFFFFFFFFFFFFFFFFFFFFFFFFFFFFFFFFFFFF
310
FFFFFFFFFFFFFFFFFFFFFFFFFFFFFFFFF0000000000000000000000000000000
310
0000000000000000000000000000000000000000000000000000000000000000
310
0000000000000000000000000000000000000000000000000000000000000000
310
0000000000000000000000000000000000000000000000000000000000000000
310
0000000000000000000000000000000000000000000000000000000000000000
310
0000000000000000000000000000000000000000000000000000000000000000
310
0000000000000000000000000000000000000000000000000000000000000000
310
0000000000000000000000000000000000000000000000000000000000000000
310
0000000000000000000000000000000000000000000000000000000000000000
310
0000000000000000000000000000000000000000000000000000000000000000
310
0000000000000000000000000000000000000000000000000000000000000000
310
0000000000000000000000000000000000000000000000000000000000000000
310
0000000000000000000000000000000000000000000000000000000000000000
310
0000000000000000000000000000000000000000000000000000000000000000
310
0000000000000000000000000000000000000000000000000000000000000000
310
0000000000000000000000000000000000000000000000000000000000000000
  1
OLE
  0
ENDSEC
  0
SECTION
  2
OBJECTS
  0
DICTIONARY
  5
C
330
0
100
AcDbDictionary
281
     1
  3
ACAD_GROUP
350
D
  3
ACAD_LAYOUT
350
1A
  3
ACAD_MLINESTYLE
350
17
  3
ACAD_PLOTSETTINGS
350
19
  3
ACAD_PLOTSTYLENAME
350
E
  3
ACAD_SCALELIST
350
47
  0
DICTIONARY
  5
D
102
{ACAD_REACTORS
330
C
102
}
330
C
100
AcDbDictionary
281
     1
  0
DICTIONARY
  5
1A
102
{ACAD_REACTORS
330
C
102
}
330
C
100
AcDbDictionary
281
     1
  3
Layout1
350
1E
  3
Layout2
350
26
  3
Model
350
22
  0
DICTIONARY
  5
17
102
{ACAD_REACTORS
330
C
102
}
330
C
100
AcDbDictionary
281
     1
  3
Standard
350
18
  0
DICTIONARY
  5
19
102
{ACAD_REACTORS
330
C
102
}
330
C
100
AcDbDictionary
281
     1
  0
ACDBDICTIONARYWDFLT
  5
E
102
{ACAD_REACTORS
330
C
102
}
330
C
100
AcDbDictionary
281
     1
  3
Normal
350
F
100
AcDbDictionaryWithDefault
340
F
  0
DICTIONARY
  5
47
102
{ACAD_REACTORS
330
C
102
}
330
C
100
AcDbDictionary
281
     1
  3
A0
350
48
  3
A1
350
49
  3
A2
350
4A
  3
A3
350
4B
  3
A4
350
4C
  3
A5
350
4D
  3
A6
350
4E
  3
A7
350
4F
  3
A8
350
50
  3
A9
350
51
  3
B0
350
52
  3
B1
350
53
  3
B2
350
54
  3
B3
350
55
  3
B4
350
56
  3
B5
350
57
  3
B6
350
58
  3
B7
350
59
  3
B8
350
5A
  3
B9
350
5B
  3
C0
350
5C
  3
C1
350
5D
  3
C2
350
5E
  3
C3
350
5F
  3
C4
350
60
  3
C5
350
61
  3
C6
350
62
  3
C7
350
63
  3
C8
350
64
  3
C9
350
65
  3
D0
350
66
  3
D1
350
67
  3
D2
350
68
  0
LAYOUT
  5
1E
102
{ACAD_REACTORS
330
1A
102
}
330
1A
100
AcDbPlotSettings
  1

  2
none_device
  4

  6

 40
0.0
 41
0.0
 42
0.0
 43
0.0
 44
0.0
 45
0.0
 46
0.0
 47
0.0
 48
0.0
 49
0.0
140
0.0
141
0.0
142
1.0
143
1.0
 70
   688
 72
     1
 73
     0
 74
     5
  7

 75
    16
147
1.0
148
0.0
149
0.0
100
AcDbLayout
  1
Layout1
 70
     1
 71
     1
 10
0.0
 20
0.0
 11
420.0
 21
297.0
 12
0.0
 22
0.0
 32
0.0
 14
1.0000000000E+20
 24
1.0000000000E+20
 34
1.0000000000E+20
 15
-1.0000000000E+20
 25
-1.0000000000E+20
 35
-1.0000000000E+20
146
0.0
 13
0.0
 23
0.0
 33
0.0
 16
1.0
 26
0.0
 36
0.0
 17
0.0
 27
1.0
 37
0.0
 76
     0
330
1B
  0
LAYOUT
  5
26
102
{ACAD_REACTORS
330
1A
102
}
330
1A
100
AcDbPlotSettings
  1

  2
none_device
  4

  6

 40
0.0
 41
0.0
 42
0.0
 43
0.0
 44
0.0
 45
0.0
 46
0.0
 47
0.0
 48
0.0
 49
0.0
140
0.0
141
0.0
142
1.0
143
1.0
 70
   688
 72
     1
 73
     0
 74
     5
  7

 75
    16
147
1.0
148
0.0
149
0.0
100
AcDbLayout
  1
Layout2
 70
     1
 71
     2
 10
0.0
 20
0.0
 11
0.0
 21
0.0
 12
0.0
 22
0.0
 32
0.0
 14
0.0
 24
0.0
 34
0.0
 15
0.0
 25
0.0
 35
0.0
146
0.0
 13
0.0
 23
0.0
 33
0.0
 16
1.0
 26
0.0
 36
0.0
 17
0.0
 27
1.0
 37
0.0
 76
     0
330
23
  0
LAYOUT
  5
22
102
{ACAD_REACTORS
330
1A
102
}
330
1A
100
AcDbPlotSettings
  1

  2
none_device
  4
Letter_(8.50_x_11.00_Inches)
  6

 40
6.35
 41
6.35
 42
6.35000508
 43
6.35000508
 44
215.9
 45
279.4
 46
0.0
 47
0.0
 48
0.0
 49
0.0
140
0.0
141
0.0
142
1.0
143
1.0
 70
  1712
 72
     1
 73
     0
 74
     0
  7

 75
     0
147
1.0
148
0.0
149
0.0
100
AcDbLayout
  1
Model
 70
     1
 71
     0
 10
0.0
 20
0.0
 11
297.0
 21
210.0
 12
0.0
 22
0.0
 32
0.0
 14
0.0
 24
0.0
 34
0.0
 15
297.0
 25
210.0
 35
0.0
146
0.0
 13
0.0
 23
0.0
 33
0.0
 16
1.0
 26
0.0
 36
0.0
 17
0.0
 27
1.0
 37
0.0
 76
     0
330
1F
331
29
  0
MLINESTYLE
  5
18
102
{ACAD_REACTORS
330
17
102
}
330
17
100
AcDbMlineStyle
  2
Standard
 70
     0
  3

 62
   256
 51
90.0
 52
90.0
 71
     2
 49
0.5
 62
   256
  6
BYLAYER
 49
-0.5
 62
   256
  6
BYLAYER
  0
ACDBPLACEHOLDER
  5
F
102
{ACAD_REACTORS
330
E
102
}
330
E
  0
SCALE
  5
48
102
{ACAD_REACTORS
330
47
102
}
330
47
100
AcDbScale
 70
     0
300
1:1
140
1.0
141
1.0
290
     1
  0
SCALE
  5
49
102
{ACAD_REACTORS
330
47
102
}
330
47
100
AcDbScale
 70
     0
300
1:2
140
1.0
141
2.0
290
     0
  0
SCALE
  5
4A
102
{ACAD_REACTORS
330
47
102
}
330
47
100
AcDbScale
 70
     0
300
1:4
140
1.0
141
4.0
290
     0
  0
SCALE
  5
4B
102
{ACAD_REACTORS
330
47
102
}
330
47
100
AcDbScale
 70
     0
300
1:5
140
1.0
141
5.0
290
     0
  0
SCALE
  5
4C
102
{ACAD_REACTORS
330
47
102
}
330
47
100
AcDbScale
 70
     0
300
1:8
140
1.0
141
8.0
290
     0
  0
SCALE
  5
4D
102
{ACAD_REACTORS
330
47
102
}
330
47
100
AcDbScale
 70
     0
300
1:10
140
1.0
141
10.0
290
     0
  0
SCALE
  5
4E
102
{ACAD_REACTORS
330
47
102
}
330
47
100
AcDbScale
 70
     0
300
1:16
140
1.0
141
16.0
290
     0
  0
SCALE
  5
4F
102
{ACAD_REACTORS
330
47
102
}
330
47
100
AcDbScale
 70
     0
300
1:20
140
1.0
141
20.0
290
     0
  0
SCALE
  5
50
102
{ACAD_REACTORS
330
47
102
}
330
47
100
AcDbScale
 70
     0
300
1:30
140
1.0
141
30.0
290
     0
  0
SCALE
  5
51
102
{ACAD_REACTORS
330
47
102
}
330
47
100
AcDbScale
 70
     0
300
1:40
140
1.0
141
40.0
290
     0
  0
SCALE
  5
52
102
{ACAD_REACTORS
330
47
102
}
330
47
100
AcDbScale
 70
     0
300
1:50
140
1.0
141
50.0
290
     0
  0
SCALE
  5
53
102
{ACAD_REACTORS
330
47
102
}
330
47
100
AcDbScale
 70
     0
300
1:100
140
1.0
141
100.0
290
     0
  0
SCALE
  5
54
102
{ACAD_REACTORS
330
47
102
}
330
47
100
AcDbScale
 70
     0
300
2:1
140
2.0
141
1.0
290
     0
  0
SCALE
  5
55
102
{ACAD_REACTORS
330
47
102
}
330
47
100
AcDbScale
 70
     0
300
4:1
140
4.0
141
1.0
290
     0
  0
SCALE
  5
56
102
{ACAD_REACTORS
330
47
102
}
330
47
100
AcDbScale
 70
     0
300
8:1
140
8.0
141
1.0
290
     0
  0
SCALE
  5
57
102
{ACAD_REACTORS
330
47
102
}
330
47
100
AcDbScale
 70
     0
300
10:1
140
10.0
141
1.0
290
     0
  0
SCALE
  5
58
102
{ACAD_REACTORS
330
47
102
}
330
47
100
AcDbScale
 70
     0
300
100:1
140
100.0
141
1.0
290
     0
  0
SCALE
  5
59
102
{ACAD_REACTORS
330
47
102
}
330
47
100
AcDbScale
 70
     0
300
1/128" = 1'-0"
140
0.0078125
141
12.0
290
     0
  0
SCALE
  5
5A
102
{ACAD_REACTORS
330
47
102
}
330
47
100
AcDbScale
 70
     0
300
1/64" = 1'-0"
140
0.015625
141
12.0
290
     0
  0
SCALE
  5
5B
102
{ACAD_REACTORS
330
47
102
}
330
47
100
AcDbScale
 70
     0
300
1/32" = 1'-0"
140
0.03125
141
12.0
290
     0
  0
SCALE
  5
5C
102
{ACAD_REACTORS
330
47
102
}
330
47
100
AcDbScale
 70
     0
300
1/16" = 1'-0"
140
0.0625
141
12.0
290
     0
  0
SCALE
  5
5D
102
{ACAD_REACTORS
330
47
102
}
330
47
100
AcDbScale
 70
     0
300
3/32" = 1'-0"
140
0.09375
141
12.0
290
     0
  0
SCALE
  5
5E
102
{ACAD_REACTORS
330
47
102
}
330
47
100
AcDbScale
 70
     0
300
1/8" = 1'-0"
140
0.125
141
12.0
290
     0
  0
SCALE
  5
5F
102
{ACAD_REACTORS
330
47
102
}
330
47
100
AcDbScale
 70
     0
300
3/16" = 1'-0"
140
0.1875
141
12.0
290
     0
  0
SCALE
  5
60
102
{ACAD_REACTORS
330
47
102
}
330
47
100
AcDbScale
 70
     0
300
1/4" = 1'-0"
140
0.25
141
12.0
290
     0
  0
SCALE
  5
61
102
{ACAD_REACTORS
330
47
102
}
330
47
100
AcDbScale
 70
     0
300
3/8" = 1'-0"
140
0.375
141
12.0
290
     0
  0
SCALE
  5
62
102
{ACAD_REACTORS
330
47
102
}
330
47
100
AcDbScale
 70
     0
300
1/2" = 1'-0"
140
0.5
141
12.0
290
     0
  0
SCALE
  5
63
102
{ACAD_REACTORS
330
47
102
}
330
47
100
AcDbScale
 70
     0
300
3/4" = 1'-0"
140
0.75
141
12.0
290
     0
  0
SCALE
  5
64
102
{ACAD_REACTORS
330
47
102
}
330
47
100
AcDbScale
 70
     0
300
1" = 1'-0"
140
1.0
141
12.0
290
     0
  0
SCALE
  5
65
102
{ACAD_REACTORS
330
47
102
}
330
47
100
AcDbScale
 70
     0
300
1-1/2" = 1'-0"
140
1.5
141
12.0
290
     0
  0
SCALE
  5
66
102
{ACAD_REACTORS
330
47
102
}
330
47
100
AcDbScale
 70
     0
300
3" = 1'-0"
140
3.0
141
12.0
290
     0
  0
SCALE
  5
67
102
{ACAD_REACTORS
330
47
102
}
330
47
100
AcDbScale
 70
     0
300
6" = 1'-0"
140
6.0
141
12.0
290
     0
  0
SCALE
  5
68
102
{ACAD_REACTORS
330
47
102
}
330
47
100
AcDbScale
 70
     0
300
1'-0" = 1'-0"
140
12.0
141
12.0
290
     0
  0
ENDSEC
  0
EOF
