  0
SECTION
  2
HEADER
  9
$ACADVER
  1
AC1015
  9
$ACADMAINTVER
 70
     6
  9
$DWGCODEPAGE
  3
ANSI_1252
  9
$INSBASE
 10
0.0
 20
0.0
 30
0.0
  9
$EXTMIN
 10
0.0
 20
0.0
 30
0.0
  9
$EXTMAX
 10
297.0
 20
210.0
 30
0.0
  9
$LIMMIN
 10
0.0
 20
0.0
  9
$LIMMAX
 10
297.0
 20
210.0
  9
$ORTHOMODE
 70
     0
  9
$REGENMODE
 70
     1
  9
$FILLMODE
 70
     1
  9
$QTEXTMODE
 70
     0
  9
$MIRRTEXT
 70
     1
  9
$LTSCALE
 40
1.0
  9
$ATTMODE
 70
     1
  9
$TEXTSIZE
 40
2.0
  9
$TRACEWID
 40
1.0
  9
$TEXTSTYLE
  7
Standard
  9
$CLAYER
  8
0
  9
$CELTYPE
  6
ByLayer
  9
$CECOLOR
 62
   256
  9
$CELTSCALE
 40
1.0
  9
$DISPSILH
 70
     0
  9
$DIMSCALE
 40
1.0
  9
$DIMASZ
 40
3.0
  9
$DIMEXO
 40
0.0
  9
$DIMDLI
 40
3.75
  9
$DIMRND
 40
0.0
  9
$DIMDLE
 40
0.0
  9
$DIMEXE
 40
1.0
  9
$DIMTP
 40
0.0
  9
$DIMTM
 40
0.0
  9
$DIMTXT
 40
2.0
  9
$DIMCEN
 40
2.5
  9
$DIMTSZ
 40
0.0
  9
$DIMTOL
 70
     0
  9
$DIMLIM
 70
     0
  9
$DIMTIH
 70
     1
  9
$DIMTOH
 70
     1
  9
$DIMSE1
 70
     0
  9
$DIMSE2
 70
     0
  9
$DIMTAD
 70
     1
  9
$DIMZIN
 70
     0
  9
$DIMBLK
  1

  9
$DIMASO
 70
     1
  9
$DIMSHO
 70
     1
  9
$DIMPOST
  1

  9
$DIMAPOST
  1

  9
$DIMALT
 70
     0
  9
$DIMALTD
 70
     3
  9
$DIMALTF
 40
0.0393700787
  9
$DIMLFAC
 40
1.0
  9
$DIMTOFL
 70
     1
  9
$DIMTVP
 40
0.0
  9
$DIMTIX
 70
     0
  9
$DIMSOXD
 70
     0
  9
$DIMSAH
 70
     0
  9
$DIMBLK1
  1

  9
$DIMBLK2
  1

  9
$DIMSTYLE
  2
ISO-25
  9
$DIMCLRD
 70
     0
  9
$DIMCLRE
 70
     0
  9
$DIMCLRT
 70
     0
  9
$DIMTFAC
 40
1.0
  9
$DIMGAP
 40
1.524
  9
$DIMJUST
 70
     0
  9
$DIMSD1
 70
     0
  9
$DIMSD2
 70
     0
  9
$DIMTOLJ
 70
     0
  9
$DIMTZIN
 70
     0
  9
$DIMALTZ
 70
     0
  9
$DIMALTTZ
 70
     0
  9
$DIMUPT
 70
     0
  9
$DIMDEC
 70
     2
  9
$DIMTDEC
 70
     3
  9
$DIMALTU
 70
     2
  9
$DIMALTTD
 70
     3
  9
$DIMTXSTY
  7
Standard
  9
$DIMAUNIT
 70
     0
  9
$DIMADEC
 70
     2
  9
$DIMALTRND
 40
0.0
  9
$DIMAZIN
 70
     0
  9
$DIMDSEP
 70
    44
  9
$DIMATFIT
 70
     3
  9
$DIMFRAC
 70
     0
  9
$DIMLDRBLK
  1

  9
$DIMLUNIT
 70
     2
  9
$DIMLWD
 70
    -2
  9
$DIMLWE
 70
    -2
  9
$DIMTMOVE
 70
     0
  9
$LUNITS
 70
     2
  9
$LUPREC
 70
     2
  9
$SKETCHINC
 40
1.0
  9
$FILLETRAD
 40
10.0
  9
$AUNITS
 70
     0
  9
$AUPREC
 70
     2
  9
$MENU
  1
.
  9
$ELEVATION
 40
0.0
  9
$PELEVATION
 40
0.0
  9
$THICKNESS
 40
0.0
  9
$LIMCHECK
 70
     0
  9
$CHAMFERA
 40
10.0
  9
$CHAMFERB
 40
10.0
  9
$CHAMFERC
 40
20.0
  9
$CHAMFERD
 40
0.0
  9
$SKPOLY
 70
     0
  9
$TDCREATE
 40
2455973.498246134
  9
$TDUCREATE
 40
2455973.456579468
  9
$TDUPDATE
 40
2455973.498246146
  9
$TDUUPDATE
 40
2455973.456579479
  9
$TDINDWG
 40
0.0000000116
  9
$TDUSRTIMER
 40
0.0000000116
  9
$USRTIMER
 70
     1
  9
$ANGBASE
 50
0.0
  9
$ANGDIR
 70
     0
  9
$PDMODE
 70
     0
  9
$PDSIZE
 40
-1.0
  9
$PLINEWID
 40
0.0
  9
$SPLFRAME
 70
     0
  9
$SPLINETYPE
 70
     6
  9
$SPLINESEGS
 70
     8
  9
$HANDSEED
  5
366
  9
$SURFTAB1
 70
     6
  9
$SURFTAB2
 70
     6
  9
$SURFTYPE
 70
     6
  9
$SURFU
 70
     6
  9
$SURFV
 70
     6
  9
$UCSBASE
  2

  9
$UCSNAME
  2

  9
$UCSORG
 10
0.0
 20
0.0
 30
0.0
  9
$UCSXDIR
 10
1.0
 20
0.0
 30
0.0
  9
$UCSYDIR
 10
0.0
 20
1.0
 30
0.0
  9
$UCSORTHOREF
  2

  9
$UCSORTHOVIEW
 70
     0
  9
$UCSORGTOP
 10
0.0
 20
0.0
 30
0.0
  9
$UCSORGBOTTOM
 10
0.0
 20
0.0
 30
0.0
  9
$UCSORGLEFT
 10
0.0
 20
0.0
 30
0.0
  9
$UCSORGRIGHT
 10
0.0
 20
0.0
 30
0.0
  9
$UCSORGFRONT
 10
0.0
 20
0.0
 30
0.0
  9
$UCSORGBACK
 10
0.0
 20
0.0
 30
0.0
  9
$PUCSBASE
  2

  9
$PUCSNAME
  2

  9
$PUCSORG
 10
0.0
 20
0.0
 30
0.0
  9
$PUCSXDIR
 10
1.0
 20
0.0
 30
0.0
  9
$PUCSYDIR
 10
0.0
 20
1.0
 30
0.0
  9
$PUCSORTHOREF
  2

  9
$PUCSORTHOVIEW
 70
     0
  9
$PUCSORGTOP
 10
0.0
 20
0.0
 30
0.0
  9
$PUCSORGBOTTOM
 10
0.0
 20
0.0
 30
0.0
  9
$PUCSORGLEFT
 10
0.0
 20
0.0
 30
0.0
  9
$PUCSORGRIGHT
 10
0.0
 20
0.0
 30
0.0
  9
$PUCSORGFRONT
 10
0.0
 20
0.0
 30
0.0
  9
$PUCSORGBACK
 10
0.0
 20
0.0
 30
0.0
  9
$USERI1
 70
     0
  9
$USERI2
 70
     0
  9
$USERI3
 70
     0
  9
$USERI4
 70
     0
  9
$USERI5
 70
     0
  9
$USERR1
 40
0.0
  9
$USERR2
 40
0.0
  9
$USERR3
 40
0.0
  9
$USERR4
 40
0.0
  9
$USERR5
 40
0.0
  9
$WORLDVIEW
 70
     1
  9
$SHADEDGE
 70
     3
  9
$SHADEDIF
 70
    70
  9
$TILEMODE
 70
     1
  9
$MAXACTVP
 70
    64
  9
$PINSBASE
 10
0.0
 20
0.0
 30
0.0
  9
$PLIMCHECK
 70
     0
  9
$PEXTMIN
 10
1.0000000000E+20
 20
1.0000000000E+20
 30
1.0000000000E+20
  9
$PEXTMAX
 10
-1.0000000000E+20
 20
-1.0000000000E+20
 30
-1.0000000000E+20
  9
$PLIMMIN
 10
0.0
 20
0.0
  9
$PLIMMAX
 10
420.0
 20
297.0
  9
$UNITMODE
 70
     0
  9
$VISRETAIN
 70
     1
  9
$PLINEGEN
 70
     0
  9
$PSLTSCALE
 70
     1
  9
$TREEDEPTH
 70
  3020
  9
$CMLSTYLE
  2
Standard
  9
$CMLJUST
 70
     0
  9
$CMLSCALE
 40
20.0
  9
$PROXYGRAPHICS
 70
     1
  9
$MEASUREMENT
 70
     1
  9
$CELWEIGHT
370
    -1
  9
$ENDCAPS
280
     0
  9
$JOINSTYLE
280
     0
  9
$LWDISPLAY
290
     1
  9
$INSUNITS
 70
     4
  9
$HYPERLINKBASE
  1

  9
$STYLESHEET
  1

  9
$XEDIT
290
     1
  9
$CEPSNTYPE
380
     0
  9
$PSTYLEMODE
290
     1
  9
$FINGERPRINTGUID
  2
{477D855E-C152-4E5C-912D-9AAE287FDB47}
  9
$VERSIONGUID
  2
{FAEB1C32-E019-11D5-929B-00C0DF256EC4}
  9
$EXTNAMES
290
     1
  9
$PSVPSCALE
 40
0.0
  9
$OLESTARTUP
290
     0
  0
ENDSEC
  0
SECTION
  2
CLASSES
  0
CLASS
  1
ACDBDICTIONARYWDFLT
  2
AcDbDictionaryWithDefault
  3
ObjectDBX Classes
 90
        0
280
     0
281
     0
  0
CLASS
  1
VISUALSTYLE
  2
AcDbVisualStyle
  3
ObjectDBX Classes
 90
     4095
280
     0
281
     0
  0
CLASS
  1
MATERIAL
  2
AcDbMaterial
  3
ObjectDBX Classes
 90
     1153
280
     0
281
     0
  0
CLASS
  1
ACDBPLACEHOLDER
  2
AcDbPlaceHolder
  3
ObjectDBX Classes
 90
        0
280
     0
281
     0
  0
CLASS
  1
LAYOUT
  2
AcDbLayout
  3
ObjectDBX Classes
 90
        0
280
     0
281
     0
  0
ENDSEC
  0
SECTION
  2
TABLES
  0
TABLE
  2
VPORT
  5
8
330
0
100
AcDbSymbolTable
 70
     1
  0
VPORT
  5
29
330
8
100
AcDbSymbolTableRecord
100
AcDbViewportTableRecord
  2
*Active
 70
     0
 10
0.0
 20
0.0
 11
1.0
 21
1.0
 12
148.5
 22
105.0
 13
0.0
 23
0.0
 14
10.0
 24
10.0
 15
10.0
 25
10.0
 16
0.0
 26
0.0
 36
1.0
 17
0.0
 27
0.0
 37
0.0
 40
210.0
 41
1.4142857143
 42
50.0
 43
0.0
 44
0.0
 50
0.0
 51
0.0
 71
     0
 72
  2000
 73
     1
 74
     3
 75
     0
 76
     0
 77
     0
 78
     0
281
     0
 65
     1
110
0.0
120
0.0
130
0.0
111
1.0
121
0.0
131
0.0
112
0.0
122
1.0
132
0.0
 79
     0
146
0.0
  0
ENDTAB
  0
TABLE
  2
LTYPE
  5
5
330
0
100
AcDbSymbolTable
 70
     6
  0
LTYPE
  5
14
330
5
100
AcDbSymbolTableRecord
100
AcDbLinetypeTableRecord
  2
ByBlock
 70
     0
  3

 72
    65
 73
     0
 40
0.0
  0
LTYPE
  5
15
330
5
100
AcDbSymbolTableRecord
100
AcDbLinetypeTableRecord
  2
ByLayer
 70
     0
  3

 72
    65
 73
     0
 40
0.0
  0
LTYPE
  5
16
330
5
100
AcDbSymbolTableRecord
100
AcDbLinetypeTableRecord
  2
Continuous
 70
     0
  3
Solid line
 72
    65
 73
     0
 40
0.0
  0
LTYPE
  5
3F
330
5
100
AcDbSymbolTableRecord
100
AcDbLinetypeTableRecord
  2
HIDDEN
 70
     0
  3
Hidden __ __ __ __ __ __ __ __ __ __ __ __ __ __
 72
    65
 73
     2
 40
1.905
 49
1.27
 74
     0
 49
-0.635
 74
     0
  0
LTYPE
  5
40
330
5
100
AcDbSymbolTableRecord
100
AcDbLinetypeTableRecord
  2
PHANTOM
 70
     0
  3
Phantom ______  __  __  ______  __  __  ______
 72
    65
 73
     6
 40
12.7
 49
6.35
 74
     0
 49
-1.27
 74
     0
 49
1.27
 74
     0
 49
-1.27
 74
     0
 49
1.27
 74
     0
 49
-1.27
 74
     0
  0
LTYPE
  5
41
330
5
100
AcDbSymbolTableRecord
100
AcDbLinetypeTableRecord
  2
CENTER
 70
     0
  3
Center ____ _ ____ _ ____ _ ____ _ ____ _ ____
 72
    65
 73
     4
 40
10.16
 49
6.35
 74
     0
 49
-1.27
 74
     0
 49
1.27
 74
     0
 49
-1.27
 74
     0
  0
LTYPE
  5
42
330
5
100
AcDbSymbolTableRecord
100
AcDbLinetypeTableRecord
  2
CENTERX2
 70
     0
  3
Center (2x) ________  __  ________  __  _____
 72
    65
 73
     4
 40
20.32
 49
12.7
 74
     0
 49
-2.54
 74
     0
 49
2.54
 74
     0
 49
-2.54
 74
     0
  0
LTYPE
  5
43
330
5
100
AcDbSymbolTableRecord
100
AcDbLinetypeTableRecord
  2
DOT2
 70
     0
  3
Dot (.5x) ........................................
 72
    65
 73
     2
 40
0.635
 49
0.0
 74
     0
 49
-0.635
 74
     0
  0
ENDTAB
  0
TABLE
  2
LAYER
  5
2
330
0
100
AcDbSymbolTable
 70
     5
  0
LAYER
  5
10
330
2
100
AcDbSymbolTableRecord
100
AcDbLayerTableRecord
  2
0
 70
     0
 62
     7
  6
Continuous
370
    -3
390
F
  0
LAYER
  5
44
330
2
100
AcDbSymbolTableRecord
100
AcDbLayerTableRecord
  2
FORMAT
 70
     0
 62
     7
  6
Continuous
370
    -3
390
F
  0
LAYER
  5
45
330
2
100
AcDbSymbolTableRecord
100
AcDbLayerTableRecord
  2
VERMASSUNG
 70
     0
 62
     7
  6
Continuous
370
    -3
390
F
  0
LAYER
  5
46
330
2
100
AcDbSymbolTableRecord
100
AcDbLayerTableRecord
  2
KOPF_DÜNN
 70
     0
 62
     7
  6
Continuous
370
    -3
390
F
  0
LAYER
  5
47
330
2
100
AcDbSymbolTableRecord
100
AcDbLayerTableRecord
  2
KOPF_DICK
 70
     0
 62
     7
  6
Continuous
370
    15
390
F
  0
ENDTAB
  0
TABLE
  2
STYLE
  5
3
330
0
100
AcDbSymbolTable
 70
     2
  0
STYLE
  5
11
330
3
100
AcDbSymbolTableRecord
100
AcDbTextStyleTableRecord
  2
Standard
 70
     0
 40
0.0
 41
1.0
 50
0.0
 71
     0
 42
2.5
  3
txt
  4

  0
STYLE
  5
48
330
3
100
AcDbSymbolTableRecord
100
AcDbTextStyleTableRecord
  2
SLDTEXTSTYLE0
 70
     0
 40
0.0
 41
0.7
 50
0.0
 71
     0
 42
0.2
  3
TXT
  4

  0
ENDTAB
  0
TABLE
  2
VIEW
  5
6
330
0
100
AcDbSymbolTable
 70
     0
  0
ENDTAB
  0
TABLE
  2
UCS
  5
7
330
0
100
AcDbSymbolTable
 70
     0
  0
ENDTAB
  0
TABLE
  2
APPID
  5
9
330
0
100
AcDbSymbolTable
 70
     1
  0
APPID
  5
12
330
9
100
AcDbSymbolTableRecord
100
AcDbRegAppTableRecord
  2
ACAD
 70
     0
  0
ENDTAB
  0
TABLE
  2
DIMSTYLE
  5
A
330
0
100
AcDbSymbolTable
 70
     2
100
AcDbDimStyleTable
  0
DIMSTYLE
105
27
330
A
100
AcDbSymbolTableRecord
100
AcDbDimStyleTableRecord
  2
ISO-25
 70
     0
 41
2.5
 42
0.625
 43
3.75
 44
1.25
 73
     0
 74
     0
 77
     1
 78
     8
140
2.5
141
2.5
143
0.0393700787
147
0.625
171
     3
172
     1
178
     0
271
     2
272
     2
274
     3
278
    44
283
     0
284
     8
340
11
  0
DIMSTYLE
105
32D
102
{ACAD_REACTORS
330
32C
330
338
330
344
330
34F
330
359
102
}
330
A
100
AcDbSymbolTableRecord
100
AcDbDimStyleTableRecord
  2
SLDDIMSTYLE0
 70
     0
 41
3.0
 44
0.0
 45
0.000000001
 73
     0
 74
     0
 77
     1
 78
    12
 79
     3
140
2.0
147
0.5
173
     1
178
     0
271
     2
272
     3
276
     2
284
    12
340
48
  0
ENDTAB
  0
TABLE
  2
BLOCK_RECORD
  5
1
330
0
100
AcDbSymbolTable
 70
     6
  0
BLOCK_RECORD
  5
1F
330
1
100
AcDbSymbolTableRecord
100
AcDbBlockTableRecord
  2
*Model_Space
340
22
  0
BLOCK_RECORD
  5
1B
330
1
100
AcDbSymbolTableRecord
100
AcDbBlockTableRecord
  2
*Paper_Space
340
1E
  0
BLOCK_RECORD
  5
23
330
1
100
AcDbSymbolTableRecord
100
AcDbBlockTableRecord
  2
*Paper_Space0
340
26
  0
BLOCK_RECORD
  5
32E
330
1
100
AcDbSymbolTableRecord
100
AcDbBlockTableRecord
  2
*D1
340
0
  0
BLOCK_RECORD
  5
339
330
1
100
AcDbSymbolTableRecord
100
AcDbBlockTableRecord
  2
*D2
340
0
  0
BLOCK_RECORD
  5
345
330
1
100
AcDbSymbolTableRecord
100
AcDbBlockTableRecord
  2
*D3
340
0
  0
BLOCK_RECORD
  5
350
330
1
100
AcDbSymbolTableRecord
100
AcDbBlockTableRecord
  2
*D4
340
0
  0
BLOCK_RECORD
  5
35A
330
1
100
AcDbSymbolTableRecord
100
AcDbBlockTableRecord
  2
*D5
340
0
  0
ENDTAB
  0
ENDSEC
  0
SECTION
  2
BLOCKS
  0
BLOCK
  5
20
330
1F
100
AcDbEntity
  8
0
100
AcDbBlockBegin
  2
*Model_Space
 70
     0
 10
0.0
 20
0.0
 30
0.0
  3
*Model_Space
  1

  0
ENDBLK
  5
21
330
1F
100
AcDbEntity
  8
0
100
AcDbBlockEnd
  0
BLOCK
  5
1C
330
1B
100
AcDbEntity
 67
     1
  8
0
100
AcDbBlockBegin
  2
*Paper_Space
 70
     0
 10
0.0
 20
0.0
 30
0.0
  3
*Paper_Space
  1

  0
ENDBLK
  5
1D
330
1B
100
AcDbEntity
 67
     1
  8
0
100
AcDbBlockEnd
  0
BLOCK
  5
24
330
23
100
AcDbEntity
  8
0
100
AcDbBlockBegin
  2
*Paper_Space0
 70
     0
 10
0.0
 20
0.0
 30
0.0
  3
*Paper_Space0
  1

  0
ENDBLK
  5
25
330
23
100
AcDbEntity
  8
0
100
AcDbBlockEnd
  0
BLOCK
  5
32F
330
32E
100
AcDbEntity
  8
0
100
AcDbBlockBegin
  2
*D1
 70
     1
 10
0.0
 20
0.0
 30
0.0
  3
*D1
  1

  0
SOLID
  5
331
330
32E
100
AcDbEntity
  8
VERMASSUNG
100
AcDbTrace
 10
51.0856091342
 20
136.2646788991
 30
0.0
 11
50.6356091342
 21
133.2646788991
 31
0.0
 12
51.5356091342
 22
133.2646788991
 32
0.0
 13
51.5356091342
 23
133.2646788991
 33
0.0
  0
SOLID
  5
332
330
32E
100
AcDbEntity
  8
VERMASSUNG
100
AcDbTrace
 10
51.0856091342
 20
100.2646788991
 30
0.0
 11
51.5356091342
 21
103.2646788991
 31
0.0
 12
50.6356091342
 22
103.2646788991
 32
0.0
 13
50.6356091342
 23
103.2646788991
 33
0.0
  0
LINE
  5
333
330
32E
100
AcDbEntity
  8
VERMASSUNG
100
AcDbLine
 10
64.6557002032
 20
136.2646788991
 30
0.0
 11
50.0856091342
 21
136.2646788991
 31
0.0
  0
LINE
  5
334
330
32E
100
AcDbEntity
  8
VERMASSUNG
100
AcDbLine
 10
64.6557002032
 20
100.2646788991
 30
0.0
 11
50.0856091342
 21
100.2646788991
 31
0.0
  0
LINE
  5
335
330
32E
100
AcDbEntity
  8
VERMASSUNG
100
AcDbLine
 10
51.0856091342
 20
136.2646788991
 30
0.0
 11
51.0856091342
 21
100.2646788991
 31
0.0
  0
MTEXT
  5
336
330
32E
100
AcDbEntity
  8
VERMASSUNG
100
AcDbMText
 10
48.5074736546
 20
115.0615483087
 30
0.0
 40
2.0
 41
0.0
 71
     1
 72
     1
  1
%%c
  7
SLDTEXTSTYLE0
 11
-7.044195017643634E-15
 21
1.0
 31
0.0
 73
     1
 44
1.0
  0
MTEXT
  5
337
330
32E
100
AcDbEntity
  8
VERMASSUNG
100
AcDbMText
 10
48.507473771
 20
118.6681194831
 30
0.0
 40
2.0
 41
0.0
 71
     1
 72
     1
  1
36
  7
SLDTEXTSTYLE0
 11
-7.044195017643634E-15
 21
1.0
 31
0.0
 73
     1
 44
1.0
  0
ENDBLK
  5
330
330
32E
100
AcDbEntity
  8
0
100
AcDbBlockEnd
  0
BLOCK
  5
33A
330
339
100
AcDbEntity
  8
0
100
AcDbBlockBegin
  2
*D2
 70
     1
 10
0.0
 20
0.0
 30
0.0
  3
*D2
  1

  0
SOLID
  5
33C
330
339
100
AcDbEntity
  8
VERMASSUNG
100
AcDbTrace
 10
45.0856091342
 20
158.2646788991
 30
0.0
 11
44.6356091342
 21
155.2646788991
 31
0.0
 12
45.5356091342
 22
155.2646788991
 32
0.0
 13
45.5356091342
 23
155.2646788991
 33
0.0
  0
SOLID
  5
33D
330
339
100
AcDbEntity
  8
VERMASSUNG
100
AcDbTrace
 10
45.0856091342
 20
78.2646788991
 30
0.0
 11
45.5356091342
 21
81.2646788991
 31
0.0
 12
44.6356091342
 22
81.2646788991
 32
0.0
 13
44.6356091342
 23
81.2646788991
 33
0.0
  0
LINE
  5
33E
330
339
100
AcDbEntity
  8
VERMASSUNG
100
AcDbLine
 10
97.1557002032
 20
158.2646788991
 30
0.0
 11
44.0856091342
 21
158.2646788991
 31
0.0
  0
LINE
  5
33F
330
339
100
AcDbEntity
  8
VERMASSUNG
100
AcDbLine
 10
97.1557002032
 20
78.2646788991
 30
0.0
 11
44.0856091342
 21
78.2646788991
 31
0.0
  0
LINE
  5
340
330
339
100
AcDbEntity
  8
VERMASSUNG
100
AcDbLine
 10
45.0856091342
 20
158.2646788991
 30
0.0
 11
45.0856091342
 21
78.2646788991
 31
0.0
  0
MTEXT
  5
341
330
339
100
AcDbEntity
  8
VERMASSUNG
100
AcDbMText
 10
42.3074736451
 20
113.1606863942
 30
0.0
 40
2.0
 41
0.0
 71
     1
 72
     1
  1
WH
  7
SLDTEXTSTYLE0
 11
-7.044195017643634E-15
 21
1.0
 31
0.0
 73
     1
 44
1.0
  0
MTEXT
  5
342
330
339
100
AcDbEntity
  8
VERMASSUNG
100
AcDbMText
 10
42.5074736546
 20
116.9606864582
 30
0.0
 40
2.0
 41
0.0
 71
     1
 72
     1
  1
%%c
  7
SLDTEXTSTYLE0
 11
-7.044195017643634E-15
 21
1.0
 31
0.0
 73
     1
 44
1.0
  0
MTEXT
  5
343
330
339
100
AcDbEntity
  8
VERMASSUNG
100
AcDbMText
 10
42.507473771
 20
120.5689813976
 30
0.0
 40
2.0
 41
0.0
 71
     1
 72
     1
  1
80
  7
SLDTEXTSTYLE0
 11
-7.044195017643634E-15
 21
1.0
 31
0.0
 73
     1
 44
1.0
  0
ENDBLK
  5
33B
330
339
100
AcDbEntity
  8
0
100
AcDbBlockEnd
  0
BLOCK
  5
346
330
345
100
AcDbEntity
  8
0
100
AcDbBlockBegin
  2
*D3
 70
     1
 10
0.0
 20
0.0
 30
0.0
  3
*D3
  1

  0
SOLID
  5
348
330
345
100
AcDbEntity
  8
VERMASSUNG
100
AcDbTrace
 10
39.0856091342
 20
165.2646788991
 30
0.0
 11
38.6356091342
 21
162.2646788991
 31
0.0
 12
39.5356091342
 22
162.2646788991
 32
0.0
 13
39.5356091342
 23
162.2646788991
 33
0.0
  0
SOLID
  5
349
330
345
100
AcDbEntity
  8
VERMASSUNG
100
AcDbTrace
 10
39.0856091342
 20
71.2646788991
 30
0.0
 11
39.5356091342
 21
74.2646788991
 31
0.0
 12
38.6356091342
 22
74.2646788991
 32
0.0
 13
38.6356091342
 23
74.2646788991
 33
0.0
  0
LINE
  5
34A
330
345
100
AcDbEntity
  8
VERMASSUNG
100
AcDbLine
 10
106.2745023567
 20
165.2646788991
 30
0.0
 11
38.0856091342
 21
165.2646788991
 31
0.0
  0
LINE
  5
34B
330
345
100
AcDbEntity
  8
VERMASSUNG
100
AcDbLine
 10
106.2745023567
 20
71.2646788991
 30
0.0
 11
38.0856091342
 21
71.2646788991
 31
0.0
  0
LINE
  5
34C
330
345
100
AcDbEntity
  8
VERMASSUNG
100
AcDbLine
 10
39.0856091342
 20
165.2646788991
 30
0.0
 11
39.0856091342
 21
71.2646788991
 31
0.0
  0
MTEXT
  5
34D
330
345
100
AcDbEntity
  8
VERMASSUNG
100
AcDbMText
 10
36.5074736546
 20
114.9620955135
 30
0.0
 40
2.0
 41
0.0
 71
     1
 72
     1
  1
%%c
  7
SLDTEXTSTYLE0
 11
-7.044195017643634E-15
 21
1.0
 31
0.0
 73
     1
 44
1.0
  0
MTEXT
  5
34E
330
345
100
AcDbEntity
  8
VERMASSUNG
100
AcDbMText
 10
36.507473771
 20
118.568666688
 30
0.0
 40
2.0
 41
0.0
 71
     1
 72
     1
  1
94
  7
SLDTEXTSTYLE0
 11
-7.044195017643634E-15
 21
1.0
 31
0.0
 73
     1
 44
1.0
  0
ENDBLK
  5
347
330
345
100
AcDbEntity
  8
0
100
AcDbBlockEnd
  0
BLOCK
  5
351
330
350
100
AcDbEntity
  8
0
100
AcDbBlockBegin
  2
*D4
 70
     1
 10
0.0
 20
0.0
 30
0.0
  3
*D4
  1

  0
SOLID
  5
353
330
350
100
AcDbEntity
  8
VERMASSUNG
100
AcDbTrace
 10
96.6557002032
 20
184.1412320049
 30
0.0
 11
99.6557002032
 21
183.6912320049
 31
0.0
 12
99.6557002032
 22
184.5912320049
 32
0.0
 13
99.6557002032
 23
184.5912320049
 33
0.0
  0
SOLID
  5
354
330
350
100
AcDbEntity
  8
VERMASSUNG
100
AcDbTrace
 10
236.6557002032
 20
184.1412320049
 30
0.0
 11
233.6557002032
 21
184.5912320049
 31
0.0
 12
233.6557002032
 22
183.6912320049
 32
0.0
 13
233.6557002032
 23
183.6912320049
 33
0.0
  0
LINE
  5
355
330
350
100
AcDbEntity
  8
VERMASSUNG
100
AcDbLine
 10
96.6557002032
 20
157.7646788991
 30
0.0
 11
96.6557002032
 21
185.1412320049
 31
0.0
  0
LINE
  5
356
330
350
100
AcDbEntity
  8
VERMASSUNG
100
AcDbLine
 10
236.6557002032
 20
175.5146788991
 30
0.0
 11
236.6557002032
 21
185.1412320049
 31
0.0
  0
LINE
  5
357
330
350
100
AcDbEntity
  8
VERMASSUNG
100
AcDbLine
 10
96.6557002032
 20
184.1412320049
 30
0.0
 11
236.6557002032
 21
184.1412320049
 31
0.0
  0
MTEXT
  5
358
330
350
100
AcDbEntity
  8
VERMASSUNG
100
AcDbMText
 10
164.6572619614
 20
186.7193673681
 30
0.0
 40
2.0
 41
0.0
 71
     1
 72
     1
  1
140
  7
SLDTEXTSTYLE0
 73
     1
 44
1.0
  0
ENDBLK
  5
352
330
350
100
AcDbEntity
  8
0
100
AcDbBlockEnd
  0
BLOCK
  5
35B
330
35A
100
AcDbEntity
  8
0
100
AcDbBlockBegin
  2
*D5
 70
     1
 10
0.0
 20
0.0
 30
0.0
  3
*D5
  1

  0
SOLID
  5
35D
330
35A
100
AcDbEntity
  8
VERMASSUNG
100
AcDbTrace
 10
247.5486222729
 20
175.5146788991
 30
0.0
 11
247.0986222729
 21
172.5146788991
 31
0.0
 12
247.9986222729
 22
172.5146788991
 32
0.0
 13
247.9986222729
 23
172.5146788991
 33
0.0
  0
SOLID
  5
35E
330
35A
100
AcDbEntity
  8
VERMASSUNG
100
AcDbTrace
 10
247.5486222729
 20
61.0146788991
 30
0.0
 11
247.9986222729
 21
64.0146788991
 31
0.0
 12
247.0986222729
 22
64.0146788991
 32
0.0
 13
247.0986222729
 23
64.0146788991
 33
0.0
  0
LINE
  5
35F
330
35A
100
AcDbEntity
  8
VERMASSUNG
100
AcDbLine
 10
236.6557002032
 20
175.5146788991
 30
0.0
 11
248.5486222729
 21
175.5146788991
 31
0.0
  0
LINE
  5
360
330
35A
100
AcDbEntity
  8
VERMASSUNG
100
AcDbLine
 10
236.6557002032
 20
61.0146788991
 30
0.0
 11
248.5486222729
 21
61.0146788991
 31
0.0
  0
LINE
  5
361
330
35A
100
AcDbEntity
  8
VERMASSUNG
100
AcDbLine
 10
247.5486222729
 20
175.5146788991
 30
0.0
 11
247.5486222729
 21
61.0146788991
 31
0.0
  0
MTEXT
  5
362
330
35A
100
AcDbEntity
  8
VERMASSUNG
100
AcDbMText
 10
244.9704867933
 20
111.0627953572
 30
0.0
 40
2.0
 41
0.0
 71
     1
 72
     1
  1
%%c
  7
SLDTEXTSTYLE0
 11
-7.044195017643634E-15
 21
1.0
 31
0.0
 73
     1
 44
1.0
  0
MTEXT
  5
363
330
35A
100
AcDbEntity
  8
VERMASSUNG
100
AcDbMText
 10
244.9704869097
 20
114.6693665316
 30
0.0
 40
2.0
 41
0.0
 71
     1
 72
     1
  1
114.5
  7
SLDTEXTSTYLE0
 11
-7.044195017643634E-15
 21
1.0
 31
0.0
 73
     1
 44
1.0
  0
MTEXT
  5
364
330
35A
100
AcDbEntity
  8
VERMASSUNG
100
AcDbMText
 10
244.9704869097
 20
120.2687465444
 30
0.0
 40
2.0
 41
0.0
 71
     1
 72
     1
  1
-153
  7
SLDTEXTSTYLE0
 11
-7.044195017643634E-15
 21
1.0
 31
0.0
 73
     1
 44
1.0
  0
ENDBLK
  5
35C
330
35A
100
AcDbEntity
  8
0
100
AcDbBlockEnd
  0
ENDSEC
  0
SECTION
  2
ENTITIES
  0
MTEXT
  5
49
330
1F
100
AcDbEntity
  8
KOPF_DÜNN
100
AcDbMText
 10
13.8892156294
 20
23.8442973028
 30
0.0
 40
3.0
 41
0.0
 71
     1
 72
     1
  1
D04.080.115.140
  7
SLDTEXTSTYLE0
 73
     1
 44
1.0
  0
MTEXT
  5
4A
330
1F
100
AcDbEntity
  8
VERMASSUNG
100
AcDbMText
 10
13.9329988022
 20
28.8834360957
 30
0.0
 40
3.0
 41
0.0
 71
     1
 72
     1
  1
Zweischneiderkopf_Twin cutter head
  7
SLDTEXTSTYLE0
 73
     1
 44
1.0
  0
MTEXT
  5
4B
330
1F
100
AcDbEntity
  8
VERMASSUNG
100
AcDbMText
 10
98.8601118557
 20
13.8365368179
 30
0.0
 40
2.0
 41
0.0
 71
     1
 72
     1
  1
Datum: 27.02.2008
  7
SLDTEXTSTYLE0
 73
     1
 44
1.0
  0
MTEXT
  5
4C
330
1F
100
AcDbEntity
  8
VERMASSUNG
100
AcDbMText
 10
13.933048693
 20
18.0482802738
 30
0.0
 40
2.0
 41
0.0
 71
     1
 72
     1
  1
Wohlhaupter ø80
  7
SLDTEXTSTYLE0
 73
     1
 44
1.0
  0
MTEXT
  5
4D
330
1F
100
AcDbEntity
  8
VERMASSUNG
100
AcDbMText
 10
13.9808475933
 20
13.9090973692
 30
0.0
 40
2.0
 41
0.0
 71
     1
 72
     1
  1
Gewicht: 5533g
  7
SLDTEXTSTYLE0
 73
     1
 44
1.0
  0
LINE
  5
4E
330
1F
100
AcDbEntity
  8
0
  6
PHANTOM
 62
     7
370
     0
100
AcDbLine
 10
172.6482248271
 20
166.2646793163
 30
0.0
 11
169.8557025159
 21
166.2646793163
 31
0.0
  0
LINE
  5
4F
330
1F
100
AcDbEntity
  8
0
  6
PHANTOM
 62
     7
370
     0
100
AcDbLine
 10
207.641485926
 20
166.2646793163
 30
0.0
 11
179.0958157146
 21
166.2646793163
 31
0.0
  0
ARC
  5
50
330
1F
100
AcDbEntity
  8
0
  6
PHANTOM
 62
     7
370
     0
100
AcDbCircle
 10
175.9085473305
 20
91.0128329549
 30
0.0
 40
1.0
100
AcDbArc
 50
348.2208984366
 51
0.0
  0
SPLINE
  5
51
330
1F
100
AcDbEntity
  8
0
  6
PHANTOM
 62
     7
370
     0
100
AcDbSpline
210
0.0
220
0.0
230
1.0
 70
     8
 71
     3
 72
    13
 73
     9
 74
     0
 42
0.00000001
 43
0.00000001
 40
0.0
 40
0.0
 40
0.0
 40
0.0
 40
0.0839221413536887
 40
0.2577299969171518
 40
0.4345246549126591
 40
0.6163945091622113
 40
0.8056011546370349
 40
1.0
 40
1.0
 40
1.0
 40
1.0
 10
176.9085487688099
 20
118.2646788990825
 30
0.0
 10
176.9122721142263
 20
118.3859884939012
 30
0.0
 10
176.9237067343064
 20
118.7585376328329
 30
0.0
 10
177.0582328836763
 20
119.3708902667303
 30
0.0
 10
177.3581201323648
 20
120.0343908735331
 30
0.0
 10
177.7827589771225
 20
120.58134418115
 30
0.0
 10
178.2963708057511
 20
120.9944800482694
 30
0.0
 10
178.6741526267715
 20
121.1263533398525
 30
0.0
 10
178.8656002247845
 20
121.1931824552596
 30
0.0
  0
LINE
  5
52
330
1F
100
AcDbEntity
  8
0
  6
PHANTOM
 62
     7
370
     0
100
AcDbLine
 10
176.9085487688
 20
91.0128336734
 30
0.0
 11
176.9085487688
 21
118.2646788991
 31
0.0
  0
SPLINE
  5
53
330
1F
100
AcDbEntity
  8
0
  6
PHANTOM
 62
     7
370
     0
100
AcDbSpline
210
0.0
220
0.0
230
1.0
 70
     8
 71
     3
 72
    18
 73
    14
 74
     0
 42
0.00000001
 43
0.00000001
 40
0.0
 40
0.0
 40
0.0
 40
0.0
 40
0.0456947775035296
 40
0.1476713070720257
 40
0.2505075267518205
 40
0.3534122262326648
 40
0.4556958188341835
 40
0.5572356042319294
 40
0.658051446772782
 40
0.7582020371580477
 40
0.8577492882819168
 40
0.9567495375182711
 40
1.0
 40
1.0
 40
1.0
 40
1.0
 10
169.72462445145
 20
73.79376891616285
 30
0.0
 10
169.8616174396507
 20
73.91985778363761
 30
0.0
 10
170.3043361644707
 20
74.32733778210763
 30
0.0
 10
171.0201584809891
 20
75.16621201683677
 30
0.0
 10
171.8629764066281
 20
76.37659110626437
 30
0.0
 10
172.6695073965114
 20
77.78441245078469
 30
0.0
 10
173.4382023898841
 20
79.37357109987744
 30
0.0
 10
174.1669416917128
 20
81.13415527392884
 30
0.0
 10
174.8549179030302
 20
83.0569850971426
 30
0.0
 10
175.5012901342406
 20
85.13295039001312
 30
0.0
 10
176.104139936255
 20
87.35499498128806
 30
0.0
 10
176.5603778882929
 20
89.26892948844431
 30
0.0
 10
176.8112192034157
 20
90.44969023861995
 30
0.0
 10
176.8874859774624
 20
90.80869335297048
 30
0.0
  0
ARC
  5
54
330
1F
100
AcDbEntity
  8
0
  6
PHANTOM
 62
     7
370
     0
100
AcDbCircle
 10
207.6414866409
 20
167.2646788991
 30
0.0
 40
1.000000000000028
100
AcDbArc
 50
270.0
 51
315.0
  0
LINE
  5
55
330
1F
100
AcDbEntity
  8
0
  6
PHANTOM
 62
     7
370
     0
100
AcDbLine
 10
211.4122024143
 20
169.6211770511
 30
0.0
 11
208.3485907281
 21
166.5575728155
 31
0.0
  0
LINE
  5
56
330
1F
100
AcDbEntity
  8
0
  6
PHANTOM
 62
     7
370
     0
100
AcDbLine
 10
220.6596916879
 20
171.6034524477
 30
0.0
 11
211.4251440728
 21
169.6405895388
 31
0.0
  0
LINE
  5
57
330
1F
100
AcDbEntity
  8
0
  6
PHANTOM
 62
     7
370
     0
100
AcDbLine
 10
179.0958157146
 20
70.2646784819
 30
0.0
 11
207.641485926
 21
70.2646784819
 31
0.0
  0
LINE
  5
58
330
1F
100
AcDbEntity
  8
0
  6
PHANTOM
 62
     7
370
     0
100
AcDbLine
 10
169.8557025159
 20
70.2646784819
 30
0.0
 11
172.6482248271
 21
70.2646784819
 31
0.0
  0
ARC
  5
59
330
1F
100
AcDbEntity
  8
0
  6
PHANTOM
 62
     7
370
     0
100
AcDbCircle
 10
207.6414866409
 20
69.2646788991
 30
0.0
 40
1.000000000000008
100
AcDbArc
 50
45.0
 51
90.0
  0
LINE
  5
5A
330
1F
100
AcDbEntity
  8
0
  6
PHANTOM
 62
     7
370
     0
100
AcDbLine
 10
208.3485907281
 20
69.9717849827
 30
0.0
 11
211.4122024143
 21
66.9081807471
 31
0.0
  0
LINE
  5
5B
330
1F
100
AcDbEntity
  8
0
  6
PHANTOM
 62
     7
370
     0
100
AcDbLine
 10
211.4251440728
 20
66.8887682593
 30
0.0
 11
220.2170750464
 21
65.019987557
 31
0.0
  0
LINE
  5
5C
330
1F
100
AcDbEntity
  8
0
  6
PHANTOM
 62
     7
370
     0
100
AcDbLine
 10
178.2730331982
 20
115.6175081021
 30
0.0
 11
178.0322602356
 21
115.7820890992
 31
0.0
  0
LINE
  5
5D
330
1F
100
AcDbEntity
  8
0
  6
Continuous
 62
     7
370
    15
100
AcDbLine
 10
149.7682405973
 20
117.2646788516
 30
0.0
 11
150.2341142262
 21
117.2646788516
 31
0.0
  0
LINE
  5
5E
330
1F
100
AcDbEntity
  8
0
  6
Continuous
 62
     7
370
    15
100
AcDbLine
 10
150.2341142262
 20
151.2646787203
 30
0.0
 11
149.7682405973
 21
151.2646787203
 31
0.0
  0
LINE
  5
5F
330
1F
100
AcDbEntity
  8
0
  6
Continuous
 62
     7
370
    15
100
AcDbLine
 10
150.3324656153
 20
148.2646782285
 30
0.0
 11
150.2341142262
 21
148.2646782285
 31
0.0
  0
LINE
  5
60
330
1F
100
AcDbEntity
  8
0
  6
Continuous
 62
     7
370
    15
100
AcDbLine
 10
150.2341142262
 20
120.2646789941
 30
0.0
 11
150.3324656153
 21
120.2646789941
 31
0.0
  0
LINE
  5
61
330
1F
100
AcDbEntity
  8
0
  6
Continuous
 62
     7
370
    15
100
AcDbLine
 10
169.3557015026
 20
165.2646772898
 30
0.0
 11
106.2745021993
 21
165.2646772898
 31
0.0
  0
LINE
  5
62
330
1F
100
AcDbEntity
  8
0
  6
Continuous
 62
     7
370
    15
100
AcDbLine
 10
106.2745021993
 20
71.2646805084
 30
0.0
 11
169.3557015026
 21
71.2646805084
 31
0.0
  0
ARC
  5
63
330
1F
100
AcDbEntity
  8
0
  6
Continuous
 62
     7
370
    15
100
AcDbCircle
 10
106.2745023567
 20
164.2646788991
 30
0.0
 40
1.000000000000022
100
AcDbArc
 50
90.0
 51
150.0
  0
ARC
  5
64
330
1F
100
AcDbEntity
  8
0
  6
Continuous
 62
     7
370
    15
100
AcDbCircle
 10
106.2745023567
 20
72.2646788991
 30
0.0
 40
1.000000000000022
100
AcDbArc
 50
210.0
 51
270.0
  0
LINE
  5
65
330
1F
100
AcDbEntity
  8
0
  6
Continuous
 62
     7
370
    15
100
AcDbLine
 10
105.4084765131
 20
164.7646800018
 30
0.0
 11
101.944375165
 21
158.7646790183
 31
0.0
  0
LINE
  5
66
330
1F
100
AcDbEntity
  8
0
  6
Continuous
 62
     7
370
    15
100
AcDbLine
 10
101.944375165
 20
77.7646787799
 30
0.0
 11
105.4084765131
 21
71.7646777964
 31
0.0
  0
ARC
  5
67
330
1F
100
AcDbEntity
  8
0
  6
Continuous
 62
     7
370
    15
100
AcDbCircle
 10
101.078349934
 20
159.2646788991
 30
0.0
 40
1.0
100
AcDbArc
 50
270.0
 51
330.0
  0
ARC
  5
68
330
1F
100
AcDbEntity
  8
0
  6
Continuous
 62
     7
370
    15
100
AcDbCircle
 10
101.078349934
 20
77.2646788991
 30
0.0
 40
1.0
100
AcDbArc
 50
30.0
 51
90.0
  0
ARC
  5
69
330
1F
100
AcDbEntity
  8
0
  6
Continuous
 62
     7
370
    15
100
AcDbCircle
 10
97.1557002032
 20
78.7646788991
 30
0.0
 40
0.5
100
AcDbArc
 50
180.0
 51
270.0
  0
ARC
  5
6A
330
1F
100
AcDbEntity
  8
0
  6
Continuous
 62
     7
370
    15
100
AcDbCircle
 10
97.1557002032
 20
157.7646788991
 30
0.0
 40
0.5
100
AcDbArc
 50
90.0
 51
180.0
  0
LINE
  5
6B
330
1F
100
AcDbEntity
  8
0
  6
Continuous
 62
     7
370
    15
100
AcDbLine
 10
97.155700227
 20
78.2646797932
 30
0.0
 11
101.0783499444
 21
78.2646797932
 31
0.0
  0
LINE
  5
6C
330
1F
100
AcDbEntity
  8
0
  6
Continuous
 62
     7
370
    15
100
AcDbLine
 10
101.0783499444
 20
158.264678005
 30
0.0
 11
97.155700227
 21
158.264678005
 31
0.0
  0
ARC
  5
6D
330
1F
100
AcDbEntity
  8
0
  6
Continuous
 62
     7
370
    15
100
AcDbCircle
 10
96.2557002032
 20
100.0146788991
 30
0.0
 40
0.6000000000000085
100
AcDbArc
 50
48.1896851042
 51
90.0
  0
ARC
  5
6E
330
1F
100
AcDbEntity
  8
0
  6
Continuous
 62
     7
370
    15
100
AcDbCircle
 10
96.2557002032
 20
136.5146788991
 30
0.0
 40
0.6000000000000054
100
AcDbArc
 50
270.0
 51
311.8103148958
  0
LINE
  5
6F
330
1F
100
AcDbEntity
  8
0
  6
Continuous
 62
     7
370
    15
100
AcDbLine
 10
64.6556986833
 20
100.2646796739
 30
0.0
 11
94.1557002591
 21
100.2646796739
 31
0.0
  0
LINE
  5
70
330
1F
100
AcDbEntity
  8
0
  6
Continuous
 62
     7
370
    15
100
AcDbLine
 10
69.6745643729
 20
136.2646781242
 30
0.0
 11
64.6556986833
 21
136.2646781242
 31
0.0
  0
LINE
  5
71
330
1F
100
AcDbEntity
  8
0
  6
Continuous
 62
     7
370
    15
100
AcDbLine
 10
94.1557002591
 20
136.2646781242
 30
0.0
 11
88.0747305567
 21
136.2646781242
 31
0.0
  0
LINE
  5
72
330
1F
100
AcDbEntity
  8
0
  6
Continuous
 62
     7
370
    15
100
AcDbLine
 10
94.1557002591
 20
100.2646796739
 30
0.0
 11
95.3856180061
 21
100.5942337549
 31
0.0
  0
LINE
  5
73
330
1F
100
AcDbEntity
  8
0
  6
Continuous
 62
     7
370
    15
100
AcDbLine
 10
95.3856180061
 20
135.9351240433
 30
0.0
 11
94.1557002591
 21
136.2646781242
 31
0.0
  0
LINE
  5
74
330
1F
100
AcDbEntity
  8
0
  6
Continuous
 62
     7
370
    15
100
AcDbLine
 10
64.6556986833
 20
136.2646781242
 30
0.0
 11
59.2526419426
 21
135.8668394721
 31
0.0
  0
LINE
  5
75
330
1F
100
AcDbEntity
  8
0
  6
Continuous
 62
     7
370
    15
100
AcDbLine
 10
59.2526419426
 20
100.6625183261
 30
0.0
 11
64.6556986833
 21
100.2646796739
 31
0.0
  0
ARC
  5
76
330
1F
100
AcDbEntity
  8
0
  6
Continuous
 62
     7
370
    15
100
AcDbCircle
 10
57.9557002032
 20
101.5746788991
 30
0.0
 40
1.299999999999997
100
AcDbArc
 50
180.0
 51
300.0
  0
ARC
  5
77
330
1F
100
AcDbEntity
  8
0
  6
Continuous
 62
     7
370
    15
100
AcDbCircle
 10
57.9557002032
 20
134.9546788991
 30
0.0
 40
1.299999999999997
100
AcDbArc
 50
60.0
 51
180.0
  0
LINE
  5
78
330
1F
100
AcDbEntity
  8
0
  6
Continuous
 62
     7
370
    15
100
AcDbLine
 10
58.6057005787
 20
100.4488449878
 30
0.0
 11
58.793894794
 21
100.5574986673
 31
0.0
  0
LINE
  5
79
330
1F
100
AcDbEntity
  8
0
  6
Continuous
 62
     7
370
    15
100
AcDbLine
 10
58.793894794
 20
135.9718591309
 30
0.0
 11
58.6057005787
 21
136.0805128104
 31
0.0
  0
ARC
  5
7A
330
1F
100
AcDbEntity
  8
0
  6
Continuous
 62
     7
370
    15
100
AcDbCircle
 10
59.1938933223
 20
99.8646788991
 30
0.0
 40
0.8000000000000032
100
AcDbArc
 50
85.7887759701
 51
120.0
  0
ARC
  5
7B
330
1F
100
AcDbEntity
  8
0
  6
Continuous
 62
     7
370
    15
100
AcDbCircle
 10
59.1938933223
 20
136.6646788991
 30
0.0
 40
0.8000000000000032
100
AcDbArc
 50
240.0
 51
274.2112240299
  0
ARC
  5
7C
330
1F
100
AcDbEntity
  8
0
  6
Continuous
 62
     7
370
    15
100
AcDbCircle
 10
95.5409094844
 20
100.0146788991
 30
0.0
 40
0.6000000000000085
100
AcDbArc
 50
90.0
 51
105.0
  0
ARC
  5
7D
330
1F
100
AcDbEntity
  8
0
  6
Continuous
 62
     7
370
    15
100
AcDbCircle
 10
95.5409094844
 20
136.5146788991
 30
0.0
 40
0.5999999999999943
100
AcDbArc
 50
255.0
 51
270.0
  0
LINE
  5
7E
330
1F
100
AcDbEntity
  8
0
  6
Continuous
 62
     7
370
    15
100
AcDbLine
 10
95.5409095261
 20
100.6146781481
 30
0.0
 11
96.2557002133
 21
100.6146781481
 31
0.0
  0
LINE
  5
7F
330
1F
100
AcDbEntity
  8
0
  6
Continuous
 62
     7
370
    15
100
AcDbLine
 10
96.2557002133
 20
135.9146796501
 30
0.0
 11
95.5409095261
 21
135.9146796501
 31
0.0
  0
LINE
  5
80
330
1F
100
AcDbEntity
  8
0
  6
Continuous
 62
     7
370
    15
100
AcDbLine
 10
169.3557015026
 20
71.2646805084
 30
0.0
 11
169.8557025159
 21
71.7646777964
 31
0.0
  0
LINE
  5
81
330
1F
100
AcDbEntity
  8
0
  6
Continuous
 62
     7
370
    15
100
AcDbLine
 10
169.37376171
 20
165.2466133571
 30
0.0
 11
169.3557015026
 21
165.2646772898
 31
0.0
  0
LINE
  5
82
330
1F
100
AcDbEntity
  8
0
  6
PHANTOM
 62
     7
370
     0
100
AcDbLine
 10
177.8557038272
 20
115.264678873
 30
0.0
 11
177.8557038272
 21
115.764678955
 31
0.0
  0
LINE
  5
83
330
1F
100
AcDbEntity
  8
0
  6
PHANTOM
 62
     7
370
     0
100
AcDbLine
 10
221.2994730437
 20
172.816626761
 30
0.0
 11
220.5256035889
 21
172.0485240555
 31
0.0
  0
LINE
  5
84
330
1F
100
AcDbEntity
  8
0
  6
PHANTOM
 62
     7
370
     0
100
AcDbLine
 10
235.7885426248
 20
159.1523215509
 30
0.0
 11
236.5311419929
 21
159.8893888629
 31
0.0
  0
LINE
  5
85
330
1F
100
AcDbEntity
  8
0
  6
PHANTOM
 62
     7
370
     0
100
AcDbLine
 10
236.5311419929
 20
76.6399689353
 30
0.0
 11
235.7572799886
 21
77.4080716408
 31
0.0
  0
LINE
  5
86
330
1F
100
AcDbEntity
  8
0
  6
PHANTOM
 62
     7
370
     0
100
AcDbLine
 10
220.5256035889
 20
64.4808337427
 30
0.0
 11
221.2994730437
 21
63.7127310372
 31
0.0
  0
LINE
  5
87
330
1F
100
AcDbEntity
  8
0
  6
PHANTOM
 62
     7
370
     0
100
AcDbLine
 10
235.2047151292
 20
76.6443759537
 30
0.0
 11
234.6611803735
 21
77.1838613189
 31
0.0
  0
LINE
  5
88
330
1F
100
AcDbEntity
  8
0
  6
PHANTOM
 62
     7
370
     0
100
AcDbLine
 10
220.8709081972
 20
65.3758757151
 30
0.0
 11
221.4144504035
 21
64.8363903499
 31
0.0
  0
LINE
  5
89
330
1F
100
AcDbEntity
  8
0
  6
PHANTOM
 62
     7
370
     0
100
AcDbLine
 10
227.0704394544
 20
168.4559323228
 30
0.0
 11
226.0247206653
 21
167.6514223552
 31
0.0
  0
LINE
  5
8A
330
1F
100
AcDbEntity
  8
0
  6
PHANTOM
 62
     7
370
     0
100
AcDbLine
 10
225.780282017
 20
89.5880516953
 30
0.0
 11
225.689772364
 21
89.6778982467
 31
0.0
  0
LINE
  5
8B
330
1F
100
AcDbEntity
  8
0
  6
Continuous
 62
     7
370
    15
100
AcDbLine
 10
177.8557038272
 20
115.764678955
 30
0.0
 11
178.6557024682
 21
115.764678955
 31
0.0
  0
LINE
  5
8C
330
1F
100
AcDbEntity
  8
0
  6
Continuous
 62
     7
370
    15
100
AcDbLine
 10
178.6557024682
 20
120.7646788432
 30
0.0
 11
177.8557038272
 21
120.7646788432
 31
0.0
  0
LINE
  5
8D
330
1F
100
AcDbEntity
  8
0
  6
Continuous
 62
     7
370
    15
100
AcDbLine
 10
178.6557024682
 20
115.764678955
 30
0.0
 11
178.8556984032
 21
115.964678848
 31
0.0
  0
LINE
  5
8E
330
1F
100
AcDbEntity
  8
0
  6
Continuous
 62
     7
370
    15
100
AcDbLine
 10
178.8556984032
 20
120.5646789501
 30
0.0
 11
178.6557024682
 21
120.7646788432
 31
0.0
  0
SPLINE
  5
8F
330
1F
100
AcDbEntity
  8
0
  6
PHANTOM
 62
     7
370
     0
100
AcDbSpline
210
0.0
220
0.0
230
1.0
 70
     8
 71
     3
 72
    36
 73
    32
 74
     0
 42
0.00000001
 43
0.00000001
 40
0.0
 40
0.0
 40
0.0
 40
0.0
 40
0.0586968100309425
 40
0.1192647641603281
 40
0.181866382665162
 40
0.2032447150495633
 40
0.2248712749764575
 40
0.2467509476030559
 40
0.2659178039994212
 40
0.2858169376672671
 40
0.3064506819102352
 40
0.3278211201344272
 40
0.3499301483078608
 40
0.372779478896568
 40
0.405804924275187
 40
0.4482239408473417
 40
0.500030157295651
 40
0.5271246064188594
 40
0.5518694248275701
 40
0.5742644784901462
 40
0.594309545283516
 40
0.6120047613736628
 40
0.6273501784193612
 40
0.6613320252530065
 40
0.6936551905439536
 40
0.7243258671471905
 40
0.7533511888388286
 40
0.8181327291850781
 40
0.8807340079958439
 40
0.9413022681681665
 40
1.0
 40
1.0
 40
1.0
 40
1.0
 10
133.1703996623074
 20
114.7646787910491
 30
0.0
 10
133.2349221978788
 20
113.6350427985008
 30
0.0
 10
133.3660241263124
 20
111.3397601388934
 30
0.0
 10
134.4333351835854
 20
107.9760515851143
 30
0.0
 10
135.7613270080363
 20
105.5175928750203
 30
0.0
 10
136.963602416751
 20
103.8811619399235
 30
0.0
 10
137.7689764624479
 20
102.9282716138162
 30
0.0
 10
138.6085859719763
 20
102.063736983649
 30
0.0
 10
139.4773092862007
 20
101.2775968994859
 30
0.0
 10
140.3735567014984
 20
100.5606469858821
 30
0.0
 10
141.3476102141973
 20
99.87683062260562
 30
0.0
 10
142.3999692593965
 20
99.2349918808686
 30
0.0
 10
143.5303238000661
 20
98.64448418858402
 30
0.0
 10
144.9034038572802
 20
98.04220469421482
 30
0.0
 10
146.6934237197766
 20
97.43087976177561
 30
0.0
 10
149.0870434965404
 20
96.90401070165679
 30
0.0
 10
151.4212054578912
 20
96.7246772141073
 30
0.0
 10
153.4125660354594
 20
96.80465256039491
 30
0.0
 10
154.8303615082634
 20
96.9711408076391
 30
0.0
 10
156.0995597976952
 20
97.21110009320182
 30
0.0
 10
157.2196132941979
 20
97.49703430689242
 30
0.0
 10
158.1924946812713
 20
97.80463236160729
 30
0.0
 10
159.3998091937783
 20
98.25321287979833
 30
0.0
 10
160.8284211908266
 20
98.90861178117085
 30
0.0
 10
162.4376381767213
 20
99.85328641400102
 30
0.0
 10
163.8711145599281
 20
100.8929394054877
 30
0.0
 10
165.6707202970833
 20
102.4714110122492
 30
0.0
 10
167.6322134000494
 20
104.7815567472274
 30
0.0
 10
169.3579433869137
 20
107.9754348001295
 30
0.0
 10
170.4255280660147
 20
111.3398511460719
 30
0.0
 10
170.5565949992126
 20
113.6350687202889
 30
0.0
 10
170.6211006606136
 20
114.7646787910491
 30
0.0
  0
SPLINE
  5
90
330
1F
100
AcDbEntity
  8
0
  6
PHANTOM
 62
     7
370
     0
100
AcDbSpline
210
0.0
220
0.0
230
1.0
 70
     8
 71
     3
 72
    26
 73
    22
 74
     0
 42
0.00000001
 43
0.00000001
 40
0.0
 40
0.0
 40
0.0
 40
0.0
 40
0.0354208858066228
 40
0.0708440627836402
 40
0.1223282411500376
 40
0.1738177145847924
 40
0.2255112491170123
 40
0.2772086817910723
 40
0.3304573991153091
 40
0.3837092137176371
 40
0.4387981541250845
 40
0.4938903921695144
 40
0.5502681555509522
 40
0.606646995804674
 40
0.6630704840254994
 40
0.7194902894930106
 40
0.7747391006827627
 40
0.8299815076717129
 40
0.8833653225294079
 40
0.9367437294114066
 40
1.0
 40
1.0
 40
1.0
 40
1.0
 10
132.525443878225
 20
114.7646787910491
 30
0.0
 10
132.5493744233599
 20
114.0666440568157
 30
0.0
 10
132.5972370615571
 20
112.6705294365555
 30
0.0
 10
133.0337109247824
 20
110.2930508896704
 30
0.0
 10
133.8896782558396
 20
107.6927784345647
 30
0.0
 10
135.3185529078973
 20
104.9856738472272
 30
0.0
 10
137.1815939709348
 20
102.5530586262733
 30
0.0
 10
139.4350443855794
 20
100.4260985428614
 30
0.0
 10
142.0352608993904
 20
98.68400694500365
 30
0.0
 10
144.9396775045411
 20
97.34916455541256
 30
0.0
 10
148.0617668429873
 20
96.50679011551219
 30
0.0
 10
151.3396945075413
 20
96.16974546097137
 30
0.0
 10
154.6537399123166
 20
96.39364309688372
 30
0.0
 10
157.9117576801711
 20
97.1647065606796
 30
0.0
 10
160.9887704358012
 20
98.48719030711639
 30
0.0
 10
163.7818864962487
 20
100.2959214185718
 30
0.0
 10
166.1947746327538
 20
102.551982571222
 30
0.0
 10
168.1555779711106
 20
105.1387984606329
 30
0.0
 10
169.5979387990163
 20
107.9983745471246
 30
0.0
 10
170.624472577059
 20
111.2143884823525
 30
0.0
 10
170.7624872502381
 20
113.5162662007664
 30
0.0
 10
170.8373388612782
 20
114.7646787910491
 30
0.0
  0
ARC
  5
91
330
1F
100
AcDbEntity
  8
0
  6
PHANTOM
 62
     7
370
     0
100
AcDbCircle
 10
149.7961059925
 20
114.4622882138
 30
0.0
 40
17.7158257138044
100
AcDbArc
 50
273.9363552072
 51
0.9780264005
  0
LINE
  5
92
330
1F
100
AcDbEntity
  8
0
  6
PHANTOM
 62
     7
370
     0
100
AcDbLine
 10
166.5253376926
 20
147.4646795875
 30
0.0
 11
175.1972919667
 21
147.4646795875
 31
0.0
  0
LINE
  5
93
330
1F
100
AcDbEntity
  8
0
  6
PHANTOM
 62
     7
370
     0
100
AcDbLine
 10
165.8216452563
 20
147.798083756
 30
0.0
 11
166.5252855385
 21
147.4647038019
 31
0.0
  0
SPLINE
  5
94
330
1F
100
AcDbEntity
  8
0
  6
PHANTOM
 62
     7
370
     0
100
AcDbSpline
210
0.0
220
0.0
230
1.0
 70
     8
 71
     3
 72
    18
 73
    14
 74
     0
 42
0.00000001
 43
0.00000001
 40
0.0
 40
0.0
 40
0.0
 40
0.0
 40
0.0983371371512086
 40
0.1749021019578487
 40
0.2513768977960891
 40
0.3286088199440337
 40
0.4058036411197416
 40
0.4708490797454885
 40
0.5359501769980812
 40
0.6299690768263333
 40
0.7241572114438155
 40
0.8620169668616454
 40
1.0
 40
1.0
 40
1.0
 40
1.0
 10
138.5890579188381
 20
148.4289653933376
 30
0.0
 10
139.1988171561178
 20
149.1029954719756
 30
0.0
 10
140.2833328882
 20
150.3018231067004
 30
0.0
 10
142.2603646616948
 20
151.6768742274554
 30
0.0
 10
144.3048664855022
 20
152.6961320488542
 30
0.0
 10
146.599112096519
 20
153.3966106710504
 30
0.0
 10
148.9257553166003
 20
153.7490252412734
 30
0.0
 10
151.1714831489241
 20
153.7890966303525
 30
0.0
 10
153.577721542217
 20
153.5815163983892
 30
0.0
 10
156.2076168666374
 20
153.0340553312421
 30
0.0
 10
159.3754735078734
 20
151.9450628913865
 30
0.0
 10
162.6915370060433
 20
150.2928034704415
 30
0.0
 10
164.7779650223203
 20
148.6299047178238
 30
0.0
 10
165.821645256332
 20
147.7980837560028
 30
0.0
  0
LINE
  5
95
330
1F
100
AcDbEntity
  8
0
  6
PHANTOM
 62
     7
370
     0
100
AcDbLine
 10
136.8354669178
 20
147.4648751653
 30
0.0
 11
138.5890579188
 21
148.4289653933
 31
0.0
  0
LINE
  5
96
330
1F
100
AcDbEntity
  8
0
  6
PHANTOM
 62
     7
370
     0
100
AcDbLine
 10
121.4557009155
 20
147.4646795875
 30
0.0
 11
136.8351465428
 21
147.4646795875
 31
0.0
  0
ARC
  5
97
330
1F
100
AcDbEntity
  8
0
  6
PHANTOM
 62
     7
370
     0
100
AcDbCircle
 10
83.8557002032
 20
119.2646788991
 30
0.0
 40
47.00000000000001
100
AcDbArc
 50
36.8698976458
 51
38.8561603484
  0
LINE
  5
98
330
1F
100
AcDbEntity
  8
0
  6
PHANTOM
 62
     7
370
     0
100
AcDbLine
 10
120.4557007516
 20
157.1774632073
 30
0.0
 11
120.4557007516
 21
148.7509459591
 31
0.0
  0
ELLIPSE
  5
99
330
1F
100
AcDbEntity
  8
0
  6
PHANTOM
 62
     7
370
     0
100
AcDbEllipse
 10
127.8988098153
 20
119.2646788991
 30
0.0
 11
0.0
 21
47.0
 31
0.0
210
0.0
220
0.0
230
1.0
 40
0.2679491924
 41
0.4981045545434504
 42
0.6323259846092758
  0
ELLIPSE
  5
9A
330
1F
100
AcDbEntity
  8
0
  6
PHANTOM
 62
     7
370
     0
100
AcDbEllipse
 10
205.6844481631
 20
119.2646788991
 30
0.0
 11
175.4063879557689
 21
1.421085471520200E-14
 31
0.0
210
0.0
220
0.0
230
1.0
 40
0.2679491924
 41
2.060558109395453
 42
2.068900881338348
  0
ARC
  5
9B
330
1F
100
AcDbEntity
  8
0
  6
PHANTOM
 62
     7
370
     0
100
AcDbCircle
 10
101.060994206
 20
119.2646788991
 30
0.0
 40
46.99999999999896
100
AcDbArc
 50
56.2431185768
 51
61.9387168902
  0
SPLINE
  5
9C
330
1F
100
AcDbEntity
  8
0
  6
PHANTOM
 62
     7
370
     0
100
AcDbSpline
210
0.0
220
0.0
230
1.0
 70
     8
 71
     3
 72
    14
 73
    10
 74
     0
 42
0.00000001
 43
0.00000001
 40
0.0
 40
0.0
 40
0.0
 40
0.0
 40
0.2290195792284661
 40
0.3880776823574123
 40
0.5480617589730634
 40
0.6855453563554119
 40
0.8114186883655577
 40
0.942115104972301
 40
0.9999999999999999
 40
0.9999999999999999
 40
0.9999999999999999
 40
0.9999999999999999
 10
128.1428298318897
 20
158.5122570729584
 30
0.0
 10
128.1112534330687
 20
158.4602745370618
 30
0.0
 10
128.0577466730224
 20
158.3721892208553
 30
0.0
 10
127.8887283340261
 20
158.2768084754921
 30
0.0
 10
127.7083632263668
 20
158.2285950768108
 30
0.0
 10
127.5228716914987
 20
158.2236748909782
 30
0.0
 10
127.3597505725338
 20
158.252840823245
 30
0.0
 10
127.2477013379753
 20
158.296836507434
 30
0.0
 10
127.1939781877516
 20
158.3303326929325
 30
0.0
 10
127.1774879062687
 20
158.3406143224567
 30
0.0
  0
ELLIPSE
  5
9D
330
1F
100
AcDbEntity
  8
0
  6
PHANTOM
 62
     7
370
     0
100
AcDbEllipse
 10
135.0714135927
 20
119.2646788991
 30
0.0
 11
0.0
 21
47.0
 31
0.0
210
0.0
220
0.0
230
1.0
 40
0.2679491924
 41
0.4486027530392008
 42
0.5825637854121459
  0
ELLIPSE
  5
9E
330
1F
100
AcDbEntity
  8
0
  6
PHANTOM
 62
     7
370
     0
100
AcDbEllipse
 10
205.6844481626
 20
119.2646788991
 30
0.0
 11
175.4063879545603
 21
1.421085471520200E-14
 31
0.0
210
0.0
220
0.0
230
1.0
 40
0.2679491924
 41
2.011262712790158
 42
2.019399079834119
  0
ARC
  5
9F
330
1F
100
AcDbEntity
  8
0
  6
PHANTOM
 62
     7
370
     0
100
AcDbCircle
 10
110.8589531772
 20
119.2646788991
 30
0.0
 40
46.99999999999858
100
AcDbArc
 50
59.2284835185
 51
64.7631350651
  0
SPLINE
  5
A0
330
1F
100
AcDbEntity
  8
0
  6
PHANTOM
 62
     7
370
     0
100
AcDbSpline
210
0.0
220
0.0
230
1.0
 70
     8
 71
     3
 72
    14
 73
    10
 74
     0
 42
0.00000001
 43
0.00000001
 40
0.0
 40
0.0
 40
0.0
 40
0.0
 40
0.18833293462845
 40
0.3774937472962162
 40
0.5437225902484643
 40
0.6854669580291083
 40
0.8171081580068656
 40
0.9529928056017093
 40
1.0
 40
1.0
 40
1.0
 40
1.0
 10
135.8702367508923
 20
159.800656173262
 30
0.0
 10
135.845141152842
 20
159.7619629877662
 30
0.0
 10
135.7948396409617
 20
159.6844065284222
 30
0.0
 10
135.6327880635574
 20
159.5952874283804
 30
0.0
 10
135.4384034371091
 20
159.5479844323322
 30
0.0
 10
135.2483349658856
 20
159.5434349293607
 30
0.0
 10
135.0808471131508
 20
159.5708032453762
 30
0.0
 10
134.9703084478764
 20
159.6109896188109
 30
0.0
 10
134.9182698742595
 20
159.640234945755
 30
0.0
 10
134.9048948252712
 20
159.6477516329616
 30
0.0
  0
ELLIPSE
  5
A1
330
1F
100
AcDbEntity
  8
0
  6
PHANTOM
 62
     7
370
     0
100
AcDbEllipse
 10
142.24401737
 20
119.2646788991
 30
0.0
 11
0.0
 21
47.0
 31
0.0
210
0.0
220
0.0
230
1.0
 40
0.2679491924
 41
0.4002544106206945
 42
0.5306711943893788
  0
ELLIPSE
  5
A2
330
1F
100
AcDbEntity
  8
0
  6
PHANTOM
 62
     7
370
     0
100
AcDbEllipse
 10
205.6844481631
 20
119.2646788991
 30
0.0
 11
175.4063879557656
 21
1.421085471520200E-14
 31
0.0
210
0.0
220
0.0
230
1.0
 40
0.2679491924
 41
1.963088078389137
 42
1.971050737415593
  0
ARC
  5
A3
330
1F
100
AcDbEntity
  8
0
  6
PHANTOM
 62
     7
370
     0
100
AcDbCircle
 10
120.6569121483
 20
119.2646788991
 30
0.0
 40
46.99999999999952
100
AcDbArc
 50
62.1238769785
 51
67.5233382959
  0
SPLINE
  5
A4
330
1F
100
AcDbEntity
  8
0
  6
PHANTOM
 62
     7
370
     0
100
AcDbSpline
210
0.0
220
0.0
230
1.0
 70
     8
 71
     3
 72
    14
 73
    10
 74
     0
 42
0.00000001
 43
0.00000001
 40
0.0
 40
0.0
 40
0.0
 40
0.0
 40
0.1824045492596163
 40
0.3654325118756555
 40
0.5311180147305232
 40
0.6770151220974489
 40
0.8139161947205186
 40
0.9538404287157122
 40
1.0
 40
1.0
 40
1.0
 40
1.0
 10
143.5976399446045
 20
160.9466150737137
 30
0.0
 10
143.5730510825337
 20
160.9128278628526
 30
0.0
 10
143.5237893197808
 20
160.8451379648521
 30
0.0
 10
143.3666049688178
 20
160.7668604940289
 30
0.0
 10
143.1764692409056
 20
160.723494020688
 30
0.0
 10
142.9848960180574
 20
160.7174017668067
 30
0.0
 10
142.8124805312162
 20
160.7412173767799
 30
0.0
 10
142.6986879795553
 20
160.7776611333734
 30
0.0
 10
142.6454963516082
 20
160.8042331231574
 30
0.0
 10
142.6323017442738
 20
160.8108245170444
 30
0.0
  0
ELLIPSE
  5
A5
330
1F
100
AcDbEntity
  8
0
  6
PHANTOM
 62
     7
370
     0
100
AcDbEllipse
 10
149.4166211474
 20
119.2646788991
 30
0.0
 11
0.0
 21
47.0
 31
0.0
210
0.0
220
0.0
230
1.0
 40
0.2679491924
 41
0.3528763520073656
 42
0.4803144102466431
  0
ELLIPSE
  5
A6
330
1F
100
AcDbEntity
  8
0
  6
PHANTOM
 62
     7
370
     0
100
AcDbEllipse
 10
205.6844481631
 20
119.2646788991
 30
0.0
 11
175.4063879557656
 21
1.421085471520200E-14
 31
0.0
210
0.0
220
0.0
230
1.0
 40
0.2679491924
 41
1.915855933583616
 42
1.923672678802261
  0
ARC
  5
A7
330
1F
100
AcDbEntity
  8
0
  6
PHANTOM
 62
     7
370
     0
100
AcDbCircle
 10
130.4548711194
 20
119.2646788991
 30
0.0
 40
46.99999999999963
100
AcDbArc
 50
64.9437910322
 51
70.2295408506
  0
SPLINE
  5
A8
330
1F
100
AcDbEntity
  8
0
  6
PHANTOM
 62
     7
370
     0
100
AcDbSpline
210
0.0
220
0.0
230
1.0
 70
     8
 71
     3
 72
    14
 73
    10
 74
     0
 42
0.00000001
 43
0.00000001
 40
0.0
 40
0.0
 40
0.0
 40
0.0
 40
0.1776051007051131
 40
0.3556812144628245
 40
0.5207039420010815
 40
0.6699658081766031
 40
0.8115083403291289
 40
0.9551881314985643
 40
1.0
 40
1.0
 40
1.0
 40
1.0
 10
151.325046863607
 20
161.9616076684326
 30
0.0
 10
151.3008531085033
 20
161.9321605784999
 30
0.0
 10
151.252401435868
 20
161.873188304235
 30
0.0
 10
151.0990623511227
 20
161.8046578795687
 30
0.0
 10
150.9123184881201
 20
161.7654191577757
 30
0.0
 10
150.7196298632524
 20
161.7585687287285
 30
0.0
 10
150.5430479214401
 20
161.7792504231085
 30
0.0
 10
150.4266312753534
 20
161.8120518449345
 30
0.0
 10
150.3725628507619
 20
161.8359555664849
 30
0.0
 10
150.3597086632763
 20
161.8416384196609
 30
0.0
  0
ELLIPSE
  5
A9
330
1F
100
AcDbEntity
  8
0
  6
PHANTOM
 62
     7
370
     0
100
AcDbEllipse
 10
156.5892249247
 20
119.2646788991
 30
0.0
 11
0.0
 21
46.99999999999999
 31
0.0
210
0.0
220
0.0
230
1.0
 40
0.2679491924
 41
0.3063116672155871
 42
0.4312467458836947
  0
ELLIPSE
  5
AA
330
1F
100
AcDbEntity
  8
0
  6
PHANTOM
 62
     7
370
     0
100
AcDbEllipse
 10
205.6844481631
 20
119.2646788991
 30
0.0
 11
175.4063879557656
 21
1.421085471520200E-14
 31
0.0
210
0.0
220
0.0
230
1.0
 40
0.2679491924
 41
1.869413087697776
 42
1.877107994010483
  0
ARC
  5
AB
330
1F
100
AcDbEntity
  8
0
  6
PHANTOM
 62
     7
370
     0
100
AcDbCircle
 10
140.2528300906
 20
119.2646788991
 30
0.0
 40
46.99999999999971
100
AcDbArc
 50
67.70020376
 51
72.8905199084
  0
SPLINE
  5
AC
330
1F
100
AcDbEntity
  8
0
  6
PHANTOM
 62
     7
370
     0
100
AcDbSpline
210
0.0
220
0.0
230
1.0
 70
     8
 71
     3
 72
    14
 73
    10
 74
     0
 42
0.00000001
 43
0.00000001
 40
0.0
 40
0.0
 40
0.0
 40
0.0
 40
0.1737028801188553
 40
0.3477578697201076
 40
0.5120910989283749
 40
0.6640947301827118
 40
0.8097036060770083
 40
0.956795907711207
 40
1.0
 40
1.0
 40
1.0
 40
1.0
 10
159.0524537826096
 20
162.8547869956821
 30
0.0
 10
159.0285702579527
 20
162.8292523118292
 30
0.0
 10
158.9807547948447
 20
162.7781311832987
 30
0.0
 10
158.8304767304984
 20
162.7184909949707
 30
0.0
 10
158.6464564447265
 20
162.6834487246637
 30
0.0
 10
158.4529131932915
 20
162.6763780274688
 30
0.0
 10
158.2728063825136
 20
162.6942726184181
 30
0.0
 10
158.1542762387851
 20
162.7235058108362
 30
0.0
 10
158.0995421739701
 20
162.7447716028965
 30
0.0
 10
158.0871155822788
 20
162.7495996988148
 30
0.0
  0
ELLIPSE
  5
AD
330
1F
100
AcDbEntity
  8
0
  6
PHANTOM
 62
     7
370
     0
100
AcDbEllipse
 10
163.7618287021
 20
119.2646788991
 30
0.0
 11
0.0
 21
46.99999999999999
 31
0.0
210
0.0
220
0.0
230
1.0
 40
0.2679491924
 41
0.2604234438807636
 42
0.3832637545311771
  0
ELLIPSE
  5
AE
330
1F
100
AcDbEntity
  8
0
  6
PHANTOM
 62
     7
370
     0
100
AcDbEllipse
 10
205.6844481631
 20
119.2646788991
 30
0.0
 11
175.4063879557656
 21
1.421085471520200E-14
 31
0.0
210
0.0
220
0.0
230
1.0
 40
0.2679491924
 41
1.823625472642265
 42
1.831219770675661
  0
ARC
  5
AF
330
1F
100
AcDbEntity
  8
0
  6
PHANTOM
 62
     7
370
     0
100
AcDbCircle
 10
150.0507890617
 20
119.2646788991
 30
0.0
 40
46.99999999999979
100
AcDbArc
 50
70.4032237888
 51
75.513957005
  0
SPLINE
  5
B0
330
1F
100
AcDbEntity
  8
0
  6
PHANTOM
 62
     7
370
     0
100
AcDbSpline
210
0.0
220
0.0
230
1.0
 70
     8
 71
     3
 72
    14
 73
    10
 74
     0
 42
0.00000001
 43
0.00000001
 40
0.0
 40
0.0
 40
0.0
 40
0.0
 40
0.1705255960690447
 40
0.3413115360309801
 40
0.5049840838552802
 40
0.6592355521907249
 40
0.8083604157185644
 40
0.9585076512548281
 40
1.0
 40
1.0
 40
1.0
 40
1.0
 10
166.7798644269024
 20
163.6335067785114
 30
0.0
 10
166.7562243596887
 20
163.6115565353358
 30
0.0
 10
166.708908133629
 20
163.5676225372309
 30
0.0
 10
166.5610789572364
 20
163.5161926848542
 30
0.0
 10
166.3792419713361
 20
163.4853493075808
 30
0.0
 10
166.185027062066
 20
163.4784694620436
 30
0.0
 10
166.0019445792023
 20
163.4938215188995
 30
0.0
 10
165.8817127341839
 20
163.5195662091902
 30
0.0
 10
165.8264808826994
 20
163.5382267334034
 30
0.0
 10
165.8145225012814
 20
163.5422669685215
 30
0.0
  0
ELLIPSE
  5
B1
330
1F
100
AcDbEntity
  8
0
  6
PHANTOM
 62
     7
370
     0
100
AcDbEllipse
 10
170.9344324794
 20
119.2646788991
 30
0.0
 11
0.0
 21
46.99999999999999
 31
0.0
210
0.0
220
0.0
230
1.0
 40
0.2679491924
 41
0.2150900817776648
 42
0.336192469513088
  0
ELLIPSE
  5
B2
330
1F
100
AcDbEntity
  8
0
  6
PHANTOM
 62
     7
370
     0
100
AcDbEllipse
 10
205.6844481631
 20
119.2646788991
 30
0.0
 11
175.4063879557824
 21
1.421085471520200E-14
 31
0.0
210
0.0
220
0.0
230
1.0
 40
0.2679491924
 41
1.776505429479359
 42
1.785886408572561
  0
LINE
  5
B3
330
1F
100
AcDbEntity
  8
0
  6
PHANTOM
 62
     7
370
     0
100
AcDbLine
 10
169.8557025159
 20
166.2646793163
 30
0.0
 11
169.8557025159
 21
165.2737483716
 31
0.0
  0
SPLINE
  5
B4
330
1F
100
AcDbEntity
  8
0
  6
PHANTOM
 62
     7
370
     0
100
AcDbSpline
210
0.0
220
0.0
230
1.0
 70
     8
 71
     3
 72
    11
 73
     7
 74
     0
 42
0.00000001
 43
0.00000001
 40
0.0
 40
0.0
 40
0.0
 40
0.0
 40
0.3095614465809632
 40
0.6193486006086047
 40
0.9233600688159734
 40
1.0
 40
1.0
 40
1.0
 40
1.0
 10
205.9557026589428
 20
165.9162529146999
 30
0.0
 10
205.9895364966919
 20
165.9566605845235
 30
0.0
 10
206.0572288411184
 20
166.0375053862115
 30
0.0
 10
206.592097729849
 20
166.1180040389584
 30
0.0
 10
207.1844001467863
 20
166.1556867642099
 30
0.0
 10
207.5648804442521
 20
166.1685385389557
 30
0.0
 10
207.641485925964
 20
166.1711261010498
 30
0.0
  0
LINE
  5
B5
330
1F
100
AcDbEntity
  8
0
  6
PHANTOM
 62
     7
370
     0
100
AcDbLine
 10
205.9557026589
 20
165.1716344393
 30
0.0
 11
205.9557026589
 21
165.9162529147
 31
0.0
  0
SPLINE
  5
B6
330
1F
100
AcDbEntity
  8
0
  6
PHANTOM
 62
     7
370
     0
100
AcDbSpline
210
0.0
220
0.0
230
1.0
 70
     8
 71
     3
 72
    12
 73
     8
 74
     0
 42
0.00000001
 43
0.00000001
 40
0.0
 40
0.0
 40
0.0
 40
0.0
 40
0.2183141473023651
 40
0.4366728861113631
 40
0.6538402751407759
 40
0.8681328692596546
 40
1.0
 40
1.0
 40
1.0
 40
1.0
 10
175.855699774078
 20
166.1553345954746
 30
0.0
 10
175.4870469034355
 20
166.1578527730884
 30
0.0
 10
174.7496658633798
 20
166.1628896426634
 30
0.0
 10
173.765508029621
 20
166.1983067855945
 30
0.0
 10
173.0388360512472
 20
166.2361908599779
 30
0.0
 10
172.6376003834847
 20
166.26251114633
 30
0.0
 10
172.6452939982605
 20
166.2620256076705
 30
0.0
 10
172.6482248271023
 20
166.2618406451076
 30
0.0
  0
LINE
  5
B7
330
1F
100
AcDbEntity
  8
0
  6
PHANTOM
 62
     7
370
     0
100
AcDbLine
 10
175.6753882731
 20
166.1573611534
 30
0.0
 11
176.5799930656
 21
166.1609709597
 31
0.0
  0
SPLINE
  5
B8
330
1F
100
AcDbEntity
  8
0
  6
PHANTOM
 62
     7
370
     0
100
AcDbSpline
210
0.0
220
0.0
230
1.0
 70
     8
 71
     3
 72
    13
 73
     9
 74
     0
 42
0.00000001
 43
0.00000001
 40
0.0
 40
0.0
 40
0.0
 40
0.0
 40
0.0122583446814037
 40
0.2223689251897099
 40
0.4325359985325729
 40
0.6447009818196164
 40
0.8597961951592068
 40
1.0
 40
1.0
 40
1.0
 40
1.0
 10
179.0958157146488
 20
166.2640311158031
 30
0.0
 10
179.099087381746
 20
166.2642451999615
 30
0.0
 10
179.1584361041772
 20
166.2681287311752
 30
0.0
 10
178.9383947704969
 20
166.2532606740178
 30
0.0
 10
178.4277461212737
 20
166.2222272240942
 30
0.0
 10
177.5934030143096
 20
166.1837138907389
 30
0.0
 10
176.691304081419
 20
166.1590282496661
 30
0.0
 10
176.0921361732013
 20
166.1563797244776
 30
0.0
 10
175.855699774078
 20
166.1553345954746
 30
0.0
  0
SPLINE
  5
B9
330
1F
100
AcDbEntity
  8
0
  6
PHANTOM
 62
     7
370
     0
100
AcDbSpline
210
0.0
220
0.0
230
1.0
 70
     8
 71
     3
 72
    11
 73
     7
 74
     0
 42
0.00000001
 43
0.00000001
 40
0.0
 40
0.0
 40
0.0
 40
0.0
 40
0.2398909592394035
 40
0.4861326875674767
 40
0.739319890789007
 40
1.0
 40
1.0
 40
1.0
 40
1.0
 10
170.621242221645
 20
135.7646789735884
 30
0.0
 10
170.5649727885573
 20
136.8258323618933
 30
0.0
 10
170.4509442698439
 20
138.9762316525278
 30
0.0
 10
169.5088723035134
 20
142.1277327392721
 30
0.0
 10
168.0263576470246
 20
145.1681755414441
 30
0.0
 10
166.5636587867174
 20
146.9129671815633
 30
0.0
 10
165.821645256332
 20
147.7980837560028
 30
0.0
  0
ARC
  5
BA
330
1F
100
AcDbEntity
  8
0
  6
PHANTOM
 62
     7
370
     0
100
AcDbCircle
 10
149.8225255217
 20
136.0776330214
 30
0.0
 40
17.68959376897802
100
AcDbArc
 50
358.9863033688
 51
89.0277559839
  0
SPLINE
  5
BB
330
1F
100
AcDbEntity
  8
0
  6
PHANTOM
 62
     7
370
     0
100
AcDbSpline
210
0.0
220
0.0
230
1.0
 70
     8
 71
     3
 72
    11
 73
     7
 74
     0
 42
0.00000001
 43
0.00000001
 40
0.0
 40
0.0
 40
0.0
 40
0.0
 40
0.2621777061290042
 40
0.5158261770222379
 40
0.7615465775815704
 40
1.0
 40
1.0
 40
1.0
 40
1.0
 10
138.5890579188381
 20
148.4289653933376
 30
0.0
 10
137.7512524069925
 20
147.5156421317774
 30
0.0
 10
136.1028970962216
 20
145.7187080852025
 30
0.0
 10
134.4252392524995
 20
142.513198910231
 30
0.0
 10
133.3621590411906
 20
139.1742628248652
 30
0.0
 10
133.233556848035
 20
136.8897726317132
 30
0.0
 10
133.170220848373
 20
135.7646715230078
 30
0.0
  0
SPLINE
  5
BC
330
1F
100
AcDbEntity
  8
0
  6
PHANTOM
 62
     7
370
     0
100
AcDbSpline
210
0.0
220
0.0
230
1.0
 70
     8
 71
     3
 72
    11
 73
     7
 74
     0
 42
0.00000001
 43
0.00000001
 40
0.0
 40
0.0
 40
0.0
 40
0.0
 40
0.2581294715649485
 40
0.4957558950647447
 40
0.7402201412271023
 40
1.0
 40
1.0
 40
1.0
 40
1.0
 10
170.8393058145558
 20
135.7646733856529
 30
0.0
 10
170.781620598213
 20
136.8605382013828
 30
0.0
 10
170.6708320629612
 20
138.965224037132
 30
0.0
 10
169.7936011412006
 20
141.9970933265592
 30
0.0
 10
168.4922205979624
 20
144.8805613256628
 30
0.0
 10
167.1940293528612
 20
146.5860741894874
 30
0.0
 10
166.5252184832607
 20
147.4647317415804
 30
0.0
  0
SPLINE
  5
BD
330
1F
100
AcDbEntity
  8
0
  6
PHANTOM
 62
     7
370
     0
100
AcDbSpline
210
0.0
220
0.0
230
1.0
 70
     8
 71
     3
 72
    12
 73
     8
 74
     0
 42
0.00000001
 43
0.00000001
 40
0.0
 40
0.0
 40
0.0
 40
0.0
 40
0.1816668462996761
 40
0.4224818063336016
 40
0.6702992167744785
 40
0.8339853577870228
 40
1.0
 40
1.0
 40
1.0
 40
1.0
 10
136.8359176779305
 20
147.4650819188684
 30
0.0
 10
136.3609687277168
 20
146.857759307114
 30
0.0
 10
135.2564342763866
 20
145.4453785713467
 30
0.0
 10
133.9252975805394
 20
142.9136179582479
 30
0.0
 10
133.0436943771309
 20
140.282231373226
 30
0.0
 10
132.5929572773042
 20
137.8673211471438
 30
0.0
 10
132.5462948910452
 20
136.4688469574143
 30
0.0
 10
132.5227989221131
 20
135.7646715230078
 30
0.0
  0
SPLINE
  5
BE
330
1F
100
AcDbEntity
  8
0
  6
PHANTOM
 62
     7
370
     0
100
AcDbSpline
210
0.0
220
0.0
230
1.0
 70
     8
 71
     3
 72
    11
 73
     7
 74
     0
 42
0.00000001
 43
0.00000001
 40
0.0
 40
0.0
 40
0.0
 40
0.0
 40
0.2491410243685128
 40
0.3747238918877671
 40
0.5004746674121006
 40
1.0
 40
1.0
 40
1.0
 40
1.0
 10
126.0787768626724
 20
103.1064261085123
 30
0.0
 10
126.0655641655602
 20
102.9933858733643
 30
0.0
 10
126.0456914316468
 20
102.8233661949033
 30
0.0
 10
125.8973518629452
 20
102.6502948088465
 30
0.0
 10
125.6166950861841
 20
102.4646109707417
 30
0.0
 10
125.3308075430415
 20
102.4496818310476
 30
0.0
 10
125.1024155283486
 20
102.4377551263899
 30
0.0
  0
SPLINE
  5
BF
330
1F
100
AcDbEntity
  8
0
  6
PHANTOM
 62
     7
370
     0
100
AcDbSpline
210
0.0
220
0.0
230
1.0
 70
     8
 71
     3
 72
    11
 73
     7
 74
     0
 42
0.00000001
 43
0.00000001
 40
0.0
 40
0.0
 40
0.0
 40
0.0
 40
0.4996102265966077
 40
0.6253673970081326
 40
0.750950634403755
 40
1.0
 40
1.0
 40
1.0
 40
1.0
 10
125.1024155283486
 20
103.7710896095961
 30
0.0
 10
125.3302681944221
 20
103.7593853208121
 30
0.0
 10
125.6154737828954
 20
103.7447349389323
 30
0.0
 10
125.8962635316068
 20
103.5606941517219
 30
0.0
 10
126.0453142508878
 20
103.3888682659748
 30
0.0
 10
126.0654145359484
 20
103.219211219637
 30
0.0
 10
126.0787768626724
 20
103.1064261085123
 30
0.0
  0
SPLINE
  5
C0
330
1F
100
AcDbEntity
  8
0
  6
PHANTOM
 62
     7
370
     0
100
AcDbSpline
210
0.0
220
0.0
230
1.0
 70
     8
 71
     3
 72
    11
 73
     7
 74
     0
 42
0.00000001
 43
0.00000001
 40
0.0
 40
0.0
 40
0.0
 40
0.0
 40
0.2491326699650815
 40
0.3747118689007516
 40
0.5004498458077845
 40
1.0
 40
1.0
 40
1.0
 40
1.0
 10
124.1300588810955
 20
103.1064261085123
 30
0.0
 10
124.1431498673855
 20
103.2189968037747
 30
0.0
 10
124.1628395690177
 20
103.3883105096454
 30
0.0
 10
124.3109326055171
 20
103.5602402623801
 30
0.0
 10
124.5903521772988
 20
103.7449537332308
 30
0.0
 10
124.8750038823209
 20
103.7594824468253
 30
0.0
 10
125.1024155283486
 20
103.7710896095961
 30
0.0
  0
SPLINE
  5
C1
330
1F
100
AcDbEntity
  8
0
  6
PHANTOM
 62
     7
370
     0
100
AcDbSpline
210
0.0
220
0.0
230
1.0
 70
     8
 71
     3
 72
    11
 73
     7
 74
     0
 42
0.00000001
 43
0.00000001
 40
0.0
 40
0.0
 40
0.0
 40
0.0
 40
0.4994601773276092
 40
0.6252006373871257
 40
0.750801781474321
 40
1.0
 40
1.0
 40
1.0
 40
1.0
 10
125.1024155283486
 20
102.4377551263899
 30
0.0
 10
124.8745537075388
 20
102.4497618176415
 30
0.0
 10
124.5893270526958
 20
102.4647912261192
 30
0.0
 10
124.3094844208795
 20
102.6504674222077
 30
0.0
 10
124.1623231876939
 20
102.8239328789031
 30
0.0
 10
124.142943879322
 20
102.9936102712526
 30
0.0
 10
124.1300588810955
 20
103.1064261085123
 30
0.0
  0
LINE
  5
C2
330
1F
100
AcDbEntity
  8
0
  6
PHANTOM
 62
     7
370
     0
100
AcDbLine
 10
126.0787768627
 20
106.1232528052
 30
0.0
 11
126.0787768627
 21
105.9505762866
 31
0.0
  0
SPLINE
  5
C3
330
1F
100
AcDbEntity
  8
0
  6
PHANTOM
 62
     7
370
     0
100
AcDbSpline
210
0.0
220
0.0
230
1.0
 70
     8
 71
     3
 72
    11
 73
     7
 74
     0
 42
0.00000001
 43
0.00000001
 40
0.0
 40
0.0
 40
0.0
 40
0.0
 40
0.2810637171241065
 40
0.5603632278226468
 40
0.7796781428799622
 40
1.0
 40
1.0
 40
1.0
 40
1.0
 10
125.7198023015772
 20
106.6172430625886
 30
0.0
 10
125.7230045678628
 20
106.5535556497607
 30
0.0
 10
125.7293890001565
 20
106.4265805830781
 30
0.0
 10
125.7950793146282
 20
106.2549089710152
 30
0.0
 10
125.9298252081261
 20
106.1495123290395
 30
0.0
 10
126.0290505560618
 20
106.1320193351085
 30
0.0
 10
126.0787768626724
 20
106.1232528052062
 30
0.0
  0
LINE
  5
C4
330
1F
100
AcDbEntity
  8
0
  6
PHANTOM
 62
     7
370
     0
100
AcDbLine
 10
125.5146747792
 20
106.6172430626
 30
0.0
 11
125.7198023016
 21
106.6172430626
 31
0.0
  0
LINE
  5
C5
330
1F
100
AcDbEntity
  8
0
  6
PHANTOM
 62
     7
370
     0
100
AcDbLine
 10
125.5146747792
 20
106.1813459134
 30
0.0
 11
125.5146747792
 21
106.6172430626
 31
0.0
  0
LINE
  5
C6
330
1F
100
AcDbEntity
  8
0
  6
PHANTOM
 62
     7
370
     0
100
AcDbLine
 10
124.1557000542
 20
106.1813459134
 30
0.0
 11
125.5146747792
 21
106.1813459134
 31
0.0
  0
LINE
  5
C7
330
1F
100
AcDbEntity
  8
0
  6
PHANTOM
 62
     7
370
     0
100
AcDbLine
 10
124.1557000542
 20
105.9505762866
 30
0.0
 11
124.1557000542
 21
106.1813459134
 31
0.0
  0
LINE
  5
C8
330
1F
100
AcDbEntity
  8
0
  6
PHANTOM
 62
     7
370
     0
100
AcDbLine
 10
126.0787768627
 20
105.9505762866
 30
0.0
 11
124.1557000542
 21
105.9505762866
 31
0.0
  0
SPLINE
  5
C9
330
1F
100
AcDbEntity
  8
0
  6
PHANTOM
 62
     7
370
     0
100
AcDbSpline
210
0.0
220
0.0
230
1.0
 70
     8
 71
     3
 72
     9
 73
     5
 74
     0
 42
0.00000001
 43
0.00000001
 40
0.0
 40
0.0
 40
0.0
 40
0.0
 40
0.5599679749222973
 40
1.0
 40
1.0
 40
1.0
 40
1.0
 10
124.1300588810955
 20
107.7222107312411
 30
0.0
 10
124.1352868656869
 20
107.8205279274607
 30
0.0
 10
124.1446230863737
 20
107.9961043900847
 30
0.0
 10
124.2496906246893
 20
108.1355913703723
 30
0.0
 10
124.2959237063442
 20
108.1969701087803
 30
0.0
  0
SPLINE
  5
CA
330
1F
100
AcDbEntity
  8
0
  6
PHANTOM
 62
     7
370
     0
100
AcDbSpline
210
0.0
220
0.0
230
1.0
 70
     8
 71
     3
 72
    11
 73
     7
 74
     0
 42
0.00000001
 43
0.00000001
 40
0.0
 40
0.0
 40
0.0
 40
0.0
 40
0.2806904842106736
 40
0.5595495296272271
 40
0.7793499948032329
 40
1.0
 40
1.0
 40
1.0
 40
1.0
 10
124.8852683568512
 20
107.0274990386099
 30
0.0
 10
124.7760452314385
 20
107.0341607157849
 30
0.0
 10
124.5583116355849
 20
107.0474406042723
 30
0.0
 10
124.2889794450933
 20
107.214506131849
 30
0.0
 10
124.1469733381254
 20
107.4652075707369
 30
0.0
 10
124.1357042786856
 20
107.6364329246952
 30
0.0
 10
124.1300588810955
 20
107.7222107312411
 30
0.0
  0
SPLINE
  5
CB
330
1F
100
AcDbEntity
  8
0
  6
PHANTOM
 62
     7
370
     0
100
AcDbSpline
210
0.0
220
0.0
230
1.0
 70
     8
 71
     3
 72
     9
 73
     5
 74
     0
 42
0.00000001
 43
0.00000001
 40
0.0
 40
0.0
 40
0.0
 40
0.0
 40
0.5587380098028413
 40
1.0
 40
1.0
 40
1.0
 40
1.0
 10
125.3860684448992
 20
107.1528997606367
 30
0.0
 10
125.297449636692
 20
107.1094809219515
 30
0.0
 10
125.1388443393031
 20
107.0317721605583
 30
0.0
 10
124.9629040979198
 20
107.0288073130999
 30
0.0
 10
124.8852683568512
 20
107.0274990386099
 30
0.0
  0
LINE
  5
CC
330
1F
100
AcDbEntity
  8
0
  6
PHANTOM
 62
     7
370
     0
100
AcDbLine
 10
125.5767735059
 20
106.9938456974
 30
0.0
 11
125.3860684449
 21
107.1528997606
 31
0.0
  0
LINE
  5
CD
330
1F
100
AcDbEntity
  8
0
  6
PHANTOM
 62
     7
370
     0
100
AcDbLine
 10
125.6536970252
 20
107.0779804474
 30
0.0
 11
125.5767735059
 21
106.9938456974
 31
0.0
  0
LINE
  5
CE
330
1F
100
AcDbEntity
  8
0
  6
PHANTOM
 62
     7
370
     0
100
AcDbLine
 10
125.4714055324
 20
107.2286209426
 30
0.0
 11
125.6536970252
 21
107.0779804474
 31
0.0
  0
SPLINE
  5
CF
330
1F
100
AcDbEntity
  8
0
  6
PHANTOM
 62
     7
370
     0
100
AcDbSpline
210
0.0
220
0.0
230
1.0
 70
     8
 71
     3
 72
     9
 73
     5
 74
     0
 42
0.00000001
 43
0.00000001
 40
0.0
 40
0.0
 40
0.0
 40
0.0
 40
0.5598518954806716
 40
1.0
 40
1.0
 40
1.0
 40
1.0
 10
125.6428787822043
 20
107.7089896759719
 30
0.0
 10
125.6363441935351
 20
107.6095644690069
 30
0.0
 10
125.6246721982773
 20
107.4319724884
 30
0.0
 10
125.5182479594194
 20
107.2907706597853
 30
0.0
 10
125.4714055324112
 20
107.2286209425658
 30
0.0
  0
SPLINE
  5
D0
330
1F
100
AcDbEntity
  8
0
  6
PHANTOM
 62
     7
370
     0
100
AcDbSpline
210
0.0
220
0.0
230
1.0
 70
     8
 71
     3
 72
    11
 73
     7
 74
     0
 42
0.00000001
 43
0.00000001
 40
0.0
 40
0.0
 40
0.0
 40
0.0
 40
0.2806219718924293
 40
0.5594428336542826
 40
0.7793138336431834
 40
1.0
 40
1.0
 40
1.0
 40
1.0
 10
124.8860692942654
 20
108.4121149367422
 30
0.0
 10
124.9959843578873
 20
108.4050722939519
 30
0.0
 10
125.215109019578
 20
108.3910322100182
 30
0.0
 10
125.4855949772505
 20
108.2212753929834
 30
0.0
 10
125.6262232386084
 20
107.9676832043733
 30
0.0
 10
125.6373200901419
 20
107.7953271560201
 30
0.0
 10
125.6428787822043
 20
107.7089896759719
 30
0.0
  0
SPLINE
  5
D1
330
1F
100
AcDbEntity
  8
0
  6
PHANTOM
 62
     7
370
     0
100
AcDbSpline
210
0.0
220
0.0
230
1.0
 70
     8
 71
     3
 72
     9
 73
     5
 74
     0
 42
0.00000001
 43
0.00000001
 40
0.0
 40
0.0
 40
0.0
 40
0.0
 40
0.5584322899560994
 40
1.0
 40
1.0
 40
1.0
 40
1.0
 10
124.384065937451
 20
108.2758969030112
 30
0.0
 10
124.4721175003822
 20
108.3226918147626
 30
0.0
 10
124.629793846315
 20
108.4064887451928
 30
0.0
 10
124.8075693654008
 20
108.4103915736969
 30
0.0
 10
124.8860692942654
 20
108.4121149367422
 30
0.0
  0
LINE
  5
D2
330
1F
100
AcDbEntity
  8
0
  6
PHANTOM
 62
     7
370
     0
100
AcDbLine
 10
124.1677197034
 20
108.4485734216
 30
0.0
 11
124.3840659375
 21
108.275896903
 31
0.0
  0
LINE
  5
D3
330
1F
100
AcDbEntity
  8
0
  6
PHANTOM
 62
     7
370
     0
100
AcDbLine
 10
124.1112294013
 20
108.3636368028
 30
0.0
 11
124.1677197034
 21
108.4485734216
 31
0.0
  0
LINE
  5
D4
330
1F
100
AcDbEntity
  8
0
  6
PHANTOM
 62
     7
370
     0
100
AcDbLine
 10
124.2959237063
 20
108.1969701088
 30
0.0
 11
124.1112294013
 21
108.3636368028
 31
0.0
  0
SPLINE
  5
D5
330
1F
100
AcDbEntity
  8
0
  6
PHANTOM
 62
     7
370
     0
100
AcDbSpline
210
0.0
220
0.0
230
1.0
 70
     8
 71
     3
 72
    11
 73
     7
 74
     0
 42
0.00000001
 43
0.00000001
 40
0.0
 40
0.0
 40
0.0
 40
0.0
 40
0.2803176755010504
 40
0.5594415527953808
 40
0.7794446437493584
 40
1.0
 40
1.0
 40
1.0
 40
1.0
 10
125.4121100867306
 20
104.6260567716092
 30
0.0
 10
125.4046530773922
 20
104.5309200139198
 30
0.0
 10
125.3897708161292
 20
104.3410516606149
 30
0.0
 10
125.230842074915
 20
104.1168128294451
 30
0.0
 10
125.0152182060953
 20
103.9921563224259
 30
0.0
 10
124.8661468260085
 20
103.9815346337377
 30
0.0
 10
124.7915177012001
 20
103.9762171319455
 30
0.0
  0
SPLINE
  5
D6
330
1F
100
AcDbEntity
  8
0
  6
PHANTOM
 62
     7
370
     0
100
AcDbSpline
210
0.0
220
0.0
230
1.0
 70
     8
 71
     3
 72
     9
 73
     5
 74
     0
 42
0.00000001
 43
0.00000001
 40
0.0
 40
0.0
 40
0.0
 40
0.0
 40
0.5587824535172888
 40
0.9999999999999999
 40
0.9999999999999999
 40
0.9999999999999999
 40
0.9999999999999999
 10
125.2827028149878
 20
104.9946472382873
 30
0.0
 10
125.3250424211686
 20
104.9319583188672
 30
0.0
 10
125.4008136017317
 20
104.8197699009496
 30
0.0
 10
125.4086517556776
 20
104.6853605400497
 30
0.0
 10
125.4121100867306
 20
104.6260567716092
 30
0.0
  0
LINE
  5
D7
330
1F
100
AcDbEntity
  8
0
  6
PHANTOM
 62
     7
370
     0
100
AcDbLine
 10
125.796725821
 20
104.9169227815
 30
0.0
 11
125.282702815
 21
104.9946472383
 31
0.0
  0
LINE
  5
D8
330
1F
100
AcDbEntity
  8
0
  6
PHANTOM
 62
     7
370
     0
100
AcDbLine
 10
125.796725821
 20
104.0759766808
 30
0.0
 11
125.796725821
 21
104.9169227815
 31
0.0
  0
LINE
  5
D9
330
1F
100
AcDbEntity
  8
0
  6
PHANTOM
 62
     7
370
     0
100
AcDbLine
 10
126.0274945164
 20
104.0759766808
 30
0.0
 11
125.796725821
 21
104.0759766808
 31
0.0
  0
LINE
  5
DA
330
1F
100
AcDbEntity
  8
0
  6
PHANTOM
 62
     7
370
     0
100
AcDbLine
 10
126.0274945164
 20
105.1016180179
 30
0.0
 11
126.0274945164
 21
104.0759766808
 31
0.0
  0
LINE
  5
DB
330
1F
100
AcDbEntity
  8
0
  6
PHANTOM
 62
     7
370
     0
100
AcDbLine
 10
125.0114700163
 20
105.2582683376
 30
0.0
 11
126.0274945164
 21
105.1016180179
 31
0.0
  0
LINE
  5
DC
330
1F
100
AcDbEntity
  8
0
  6
PHANTOM
 62
     7
370
     0
100
AcDbLine
 10
125.0114700163
 20
105.0315061918
 30
0.0
 11
125.0114700163
 21
105.2582683376
 31
0.0
  0
SPLINE
  5
DD
330
1F
100
AcDbEntity
  8
0
  6
PHANTOM
 62
     7
370
     0
100
AcDbSpline
210
0.0
220
0.0
230
1.0
 70
     8
 71
     3
 72
     9
 73
     5
 74
     0
 42
0.00000001
 43
0.00000001
 40
0.0
 40
0.0
 40
0.0
 40
0.0
 40
0.559180763706808
 40
1.0
 40
1.0
 40
1.0
 40
1.0
 10
125.1813413912569
 20
104.6633171251744
 30
0.0
 10
125.1723491078752
 20
104.7431708204242
 30
0.0
 10
125.1562679334762
 20
104.8859756170707
 30
0.0
 10
125.0557709984433
 20
104.9869810527884
 30
0.0
 10
125.0114700162922
 20
105.0315061918229
 30
0.0
  0
SPLINE
  5
DE
330
1F
100
AcDbEntity
  8
0
  6
PHANTOM
 62
     7
370
     0
100
AcDbSpline
210
0.0
220
0.0
230
1.0
 70
     8
 71
     3
 72
    11
 73
     7
 74
     0
 42
0.00000001
 43
0.00000001
 40
0.0
 40
0.0
 40
0.0
 40
0.0
 40
0.2800314089807576
 40
0.5588866488716243
 40
0.7791451423473114
 40
1.0
 40
1.0
 40
1.0
 40
1.0
 10
124.7702835464989
 20
104.232627931866
 30
0.0
 10
124.8336468829202
 20
104.2380962686342
 30
0.0
 10
124.9601074213389
 20
104.2490099744302
 30
0.0
 10
125.1030099615295
 20
104.3659058322732
 30
0.0
 10
125.1727050981947
 20
104.5148930113026
 30
0.0
 10
125.178460033437
 20
104.613797849012
 30
0.0
 10
125.1813413912569
 20
104.6633171251744
 30
0.0
  0
SPLINE
  5
DF
330
1F
100
AcDbEntity
  8
0
  6
PHANTOM
 62
     7
370
     0
100
AcDbSpline
210
0.0
220
0.0
230
1.0
 70
     8
 71
     3
 72
    11
 73
     7
 74
     0
 42
0.00000001
 43
0.00000001
 40
0.0
 40
0.0
 40
0.0
 40
0.0
 40
0.2802994589142464
 40
0.5595081314300633
 40
0.7794581398390464
 40
1.0
 40
1.0
 40
1.0
 40
1.0
 10
124.3608275765692
 20
104.6661213374466
 30
0.0
 10
124.3657509643958
 20
104.6030609975848
 30
0.0
 10
124.3755785806668
 20
104.477185717411
 30
0.0
 10
124.4798439101333
 20
104.3280347445725
 30
0.0
 10
124.6219334874598
 20
104.2436912249007
 30
0.0
 10
124.7207892521029
 20
104.236318998024
 30
0.0
 10
124.7702835464989
 20
104.232627931866
 30
0.0
  0
SPLINE
  5
E0
330
1F
100
AcDbEntity
  8
0
  6
PHANTOM
 62
     7
370
     0
100
AcDbSpline
210
0.0
220
0.0
230
1.0
 70
     8
 71
     3
 72
    11
 73
     7
 74
     0
 42
0.00000001
 43
0.00000001
 40
0.0
 40
0.0
 40
0.0
 40
0.0
 40
0.2797266632835611
 40
0.5588350603473438
 40
0.779247533854784
 40
1.0
 40
1.0
 40
1.0
 40
1.0
 10
124.6669179165875
 20
105.0531408152312
 30
0.0
 10
124.6173689026913
 20
105.0403089481943
 30
0.0
 10
124.518380390671
 20
105.0146735757714
 30
0.0
 10
124.4174737579925
 20
104.9075211152357
 30
0.0
 10
124.367259495132
 20
104.7857810012262
 30
0.0
 10
124.3629726506711
 20
104.706028379694
 30
0.0
 10
124.3608275765692
 20
104.6661213374466
 30
0.0
  0
LINE
  5
E1
330
1F
100
AcDbEntity
  8
0
  6
PHANTOM
 62
     7
370
     0
100
AcDbLine
 10
124.6669179166
 20
105.3095506838
 30
0.0
 11
124.6669179166
 21
105.0531408152
 31
0.0
  0
SPLINE
  5
E2
330
1F
100
AcDbEntity
  8
0
  6
PHANTOM
 62
     7
370
     0
100
AcDbSpline
210
0.0
220
0.0
230
1.0
 70
     8
 71
     3
 72
    11
 73
     7
 74
     0
 42
0.00000001
 43
0.00000001
 40
0.0
 40
0.0
 40
0.0
 40
0.0
 40
0.2803351142444947
 40
0.5597498346107447
 40
0.7797179146399318
 40
1.0
 40
1.0
 40
1.0
 40
1.0
 10
124.1300588810955
 20
104.6597110441655
 30
0.0
 10
124.1365978006986
 20
104.7471797755022
 30
0.0
 10
124.1496541713791
 20
104.9218300615761
 30
0.0
 10
124.2792646886939
 20
105.1361000940848
 30
0.0
 10
124.463170060609
 20
105.2736087626214
 30
0.0
 10
124.5989696785542
 20
105.2975643480424
 30
0.0
 10
124.6669179165875
 20
105.3095506838292
 30
0.0
  0
SPLINE
  5
E3
330
1F
100
AcDbEntity
  8
0
  6
PHANTOM
 62
     7
370
     0
100
AcDbSpline
210
0.0
220
0.0
230
1.0
 70
     8
 71
     3
 72
    11
 73
     7
 74
     0
 42
0.00000001
 43
0.00000001
 40
0.0
 40
0.0
 40
0.0
 40
0.0
 40
0.2798440986649496
 40
0.5589632289731344
 40
0.7792491657748968
 40
1.0
 40
1.0
 40
1.0
 40
1.0
 10
124.7915177012001
 20
103.9762171319455
 30
0.0
 10
124.6909057097261
 20
103.9858395698054
 30
0.0
 10
124.4899423737258
 20
104.005059517492
 30
0.0
 10
124.2639515953193
 20
104.1902107016481
 30
0.0
 10
124.1455832674734
 20
104.4234827524286
 30
0.0
 10
124.1352373117832
 20
104.5809129644574
 30
0.0
 10
124.1300588810955
 20
104.6597110441655
 30
0.0
  0
LINE
  5
E4
330
1F
100
AcDbEntity
  8
0
  6
PHANTOM
 62
     7
370
     0
100
AcDbLine
 10
121.4557009155
 20
105.4146793074
 30
0.0
 11
121.4557009155
 21
104.6146788037
 31
0.0
  0
LINE
  5
E5
330
1F
100
AcDbEntity
  8
0
  6
PHANTOM
 62
     7
370
     0
100
AcDbLine
 10
121.4557009155
 20
105.4146793074
 30
0.0
 11
123.955700394
 21
105.4146793074
 31
0.0
  0
LINE
  5
E6
330
1F
100
AcDbEntity
  8
0
  6
PHANTOM
 62
     7
370
     0
100
AcDbLine
 10
123.955700394
 20
105.4146793074
 30
0.0
 11
123.955700394
 21
105.6146789676
 31
0.0
  0
LINE
  5
E7
330
1F
100
AcDbEntity
  8
0
  6
PHANTOM
 62
     7
370
     0
100
AcDbLine
 10
123.955700394
 20
105.6146789676
 30
0.0
 11
121.4557009155
 21
105.6146789676
 31
0.0
  0
LINE
  5
E8
330
1F
100
AcDbEntity
  8
0
  6
PHANTOM
 62
     7
370
     0
100
AcDbLine
 10
121.4557009155
 20
106.41467854
 30
0.0
 11
121.4557009155
 21
105.6146789676
 31
0.0
  0
LINE
  5
E9
330
1F
100
AcDbEntity
  8
0
  6
PHANTOM
 62
     7
370
     0
100
AcDbLine
 10
121.4557009155
 20
106.41467854
 30
0.0
 11
122.9557002301
 21
106.41467854
 31
0.0
  0
LINE
  5
EA
330
1F
100
AcDbEntity
  8
0
  6
PHANTOM
 62
     7
370
     0
100
AcDbLine
 10
122.9557002301
 20
106.41467854
 30
0.0
 11
122.9557002301
 21
106.6146791315
 31
0.0
  0
LINE
  5
EB
330
1F
100
AcDbEntity
  8
0
  6
PHANTOM
 62
     7
370
     0
100
AcDbLine
 10
122.9557002301
 20
106.6146791315
 30
0.0
 11
121.4557009155
 21
106.6146791315
 31
0.0
  0
LINE
  5
EC
330
1F
100
AcDbEntity
  8
0
  6
PHANTOM
 62
     7
370
     0
100
AcDbLine
 10
121.4557009155
 20
107.4146787039
 30
0.0
 11
121.4557009155
 21
106.6146791315
 31
0.0
  0
LINE
  5
ED
330
1F
100
AcDbEntity
  8
0
  6
PHANTOM
 62
     7
370
     0
100
AcDbLine
 10
121.4557009155
 20
107.4146787039
 30
0.0
 11
122.9557002301
 21
107.4146787039
 31
0.0
  0
LINE
  5
EE
330
1F
100
AcDbEntity
  8
0
  6
PHANTOM
 62
     7
370
     0
100
AcDbLine
 10
122.9557002301
 20
107.4146787039
 30
0.0
 11
122.9557002301
 21
107.6146792955
 31
0.0
  0
LINE
  5
EF
330
1F
100
AcDbEntity
  8
0
  6
PHANTOM
 62
     7
370
     0
100
AcDbLine
 10
122.9557002301
 20
107.6146792955
 30
0.0
 11
121.4557009155
 21
107.6146792955
 31
0.0
  0
LINE
  5
F0
330
1F
100
AcDbEntity
  8
0
  6
PHANTOM
 62
     7
370
     0
100
AcDbLine
 10
121.4557009155
 20
108.4146788678
 30
0.0
 11
121.4557009155
 21
107.6146792955
 31
0.0
  0
LINE
  5
F1
330
1F
100
AcDbEntity
  8
0
  6
PHANTOM
 62
     7
370
     0
100
AcDbLine
 10
121.4557009155
 20
108.4146788678
 30
0.0
 11
122.9557002301
 21
108.4146788678
 31
0.0
  0
LINE
  5
F2
330
1F
100
AcDbEntity
  8
0
  6
PHANTOM
 62
     7
370
     0
100
AcDbLine
 10
122.9557002301
 20
108.4146788678
 30
0.0
 11
122.9557002301
 21
108.614678528
 31
0.0
  0
LINE
  5
F3
330
1F
100
AcDbEntity
  8
0
  6
PHANTOM
 62
     7
370
     0
100
AcDbLine
 10
122.9557002301
 20
108.614678528
 30
0.0
 11
121.4557009155
 21
108.614678528
 31
0.0
  0
LINE
  5
F4
330
1F
100
AcDbEntity
  8
0
  6
PHANTOM
 62
     7
370
     0
100
AcDbLine
 10
121.4557009155
 20
109.4146790317
 30
0.0
 11
121.4557009155
 21
108.614678528
 31
0.0
  0
LINE
  5
F5
330
1F
100
AcDbEntity
  8
0
  6
PHANTOM
 62
     7
370
     0
100
AcDbLine
 10
121.4557009155
 20
109.4146790317
 30
0.0
 11
122.9557002301
 21
109.4146790317
 31
0.0
  0
LINE
  5
F6
330
1F
100
AcDbEntity
  8
0
  6
PHANTOM
 62
     7
370
     0
100
AcDbLine
 10
122.9557002301
 20
109.4146790317
 30
0.0
 11
122.9557002301
 21
109.614678692
 31
0.0
  0
LINE
  5
F7
330
1F
100
AcDbEntity
  8
0
  6
PHANTOM
 62
     7
370
     0
100
AcDbLine
 10
122.9557002301
 20
109.614678692
 30
0.0
 11
121.4557009155
 21
109.614678692
 31
0.0
  0
LINE
  5
F8
330
1F
100
AcDbEntity
  8
0
  6
PHANTOM
 62
     7
370
     0
100
AcDbLine
 10
121.4557009155
 20
110.4146791956
 30
0.0
 11
121.4557009155
 21
109.614678692
 31
0.0
  0
LINE
  5
F9
330
1F
100
AcDbEntity
  8
0
  6
PHANTOM
 62
     7
370
     0
100
AcDbLine
 10
121.4557009155
 20
110.4146791956
 30
0.0
 11
123.955700394
 21
110.4146791956
 31
0.0
  0
LINE
  5
FA
330
1F
100
AcDbEntity
  8
0
  6
PHANTOM
 62
     7
370
     0
100
AcDbLine
 10
123.955700394
 20
110.4146791956
 30
0.0
 11
123.955700394
 21
110.6146788559
 31
0.0
  0
LINE
  5
FB
330
1F
100
AcDbEntity
  8
0
  6
PHANTOM
 62
     7
370
     0
100
AcDbLine
 10
123.955700394
 20
110.6146788559
 30
0.0
 11
121.4557009155
 21
110.6146788559
 31
0.0
  0
LINE
  5
FC
330
1F
100
AcDbEntity
  8
0
  6
PHANTOM
 62
     7
370
     0
100
AcDbLine
 10
121.4557009155
 20
111.4146788939
 30
0.0
 11
121.4557009155
 21
110.6146788559
 31
0.0
  0
LINE
  5
FD
330
1F
100
AcDbEntity
  8
0
  6
PHANTOM
 62
     7
370
     0
100
AcDbLine
 10
121.4557009155
 20
111.4146788939
 30
0.0
 11
122.9557002301
 21
111.4146788939
 31
0.0
  0
LINE
  5
FE
330
1F
100
AcDbEntity
  8
0
  6
PHANTOM
 62
     7
370
     0
100
AcDbLine
 10
122.9557002301
 20
111.4146788939
 30
0.0
 11
122.9557002301
 21
111.6146790198
 31
0.0
  0
LINE
  5
FF
330
1F
100
AcDbEntity
  8
0
  6
PHANTOM
 62
     7
370
     0
100
AcDbLine
 10
122.9557002301
 20
111.6146790198
 30
0.0
 11
121.4557009155
 21
111.6146790198
 31
0.0
  0
LINE
  5
100
330
1F
100
AcDbEntity
  8
0
  6
PHANTOM
 62
     7
370
     0
100
AcDbLine
 10
121.4557009155
 20
112.4146790578
 30
0.0
 11
121.4557009155
 21
111.6146790198
 31
0.0
  0
LINE
  5
101
330
1F
100
AcDbEntity
  8
0
  6
PHANTOM
 62
     7
370
     0
100
AcDbLine
 10
121.4557009155
 20
112.4146790578
 30
0.0
 11
122.9557002301
 21
112.4146790578
 31
0.0
  0
LINE
  5
102
330
1F
100
AcDbEntity
  8
0
  6
PHANTOM
 62
     7
370
     0
100
AcDbLine
 10
122.9557002301
 20
112.4146790578
 30
0.0
 11
122.9557002301
 21
112.614678718
 31
0.0
  0
LINE
  5
103
330
1F
100
AcDbEntity
  8
0
  6
PHANTOM
 62
     7
370
     0
100
AcDbLine
 10
122.9557002301
 20
112.614678718
 30
0.0
 11
121.4557009155
 21
112.614678718
 31
0.0
  0
LINE
  5
104
330
1F
100
AcDbEntity
  8
0
  6
PHANTOM
 62
     7
370
     0
100
AcDbLine
 10
121.4557009155
 20
113.414678756
 30
0.0
 11
121.4557009155
 21
112.614678718
 31
0.0
  0
LINE
  5
105
330
1F
100
AcDbEntity
  8
0
  6
PHANTOM
 62
     7
370
     0
100
AcDbLine
 10
121.4557009155
 20
113.414678756
 30
0.0
 11
122.9557002301
 21
113.414678756
 31
0.0
  0
LINE
  5
106
330
1F
100
AcDbEntity
  8
0
  6
PHANTOM
 62
     7
370
     0
100
AcDbLine
 10
122.9557002301
 20
113.414678756
 30
0.0
 11
122.9557002301
 21
113.6146788819
 31
0.0
  0
LINE
  5
107
330
1F
100
AcDbEntity
  8
0
  6
PHANTOM
 62
     7
370
     0
100
AcDbLine
 10
122.9557002301
 20
113.6146788819
 30
0.0
 11
121.4557009155
 21
113.6146788819
 31
0.0
  0
LINE
  5
108
330
1F
100
AcDbEntity
  8
0
  6
PHANTOM
 62
     7
370
     0
100
AcDbLine
 10
121.4557009155
 20
114.4146789199
 30
0.0
 11
121.4557009155
 21
113.6146788819
 31
0.0
  0
LINE
  5
109
330
1F
100
AcDbEntity
  8
0
  6
PHANTOM
 62
     7
370
     0
100
AcDbLine
 10
121.4557009155
 20
114.4146789199
 30
0.0
 11
122.9557002301
 21
114.4146789199
 31
0.0
  0
LINE
  5
10A
330
1F
100
AcDbEntity
  8
0
  6
PHANTOM
 62
     7
370
     0
100
AcDbLine
 10
122.9557002301
 20
114.4146789199
 30
0.0
 11
122.9557002301
 21
114.614678813
 31
0.0
  0
LINE
  5
10B
330
1F
100
AcDbEntity
  8
0
  6
PHANTOM
 62
     7
370
     0
100
AcDbLine
 10
122.9557002301
 20
114.614678813
 30
0.0
 11
121.4557009155
 21
114.614678813
 31
0.0
  0
LINE
  5
10C
330
1F
100
AcDbEntity
  8
0
  6
PHANTOM
 62
     7
370
     0
100
AcDbLine
 10
121.4557009155
 20
115.414678851
 30
0.0
 11
121.4557009155
 21
114.614678813
 31
0.0
  0
LINE
  5
10D
330
1F
100
AcDbEntity
  8
0
  6
PHANTOM
 62
     7
370
     0
100
AcDbLine
 10
121.4557009155
 20
115.414678851
 30
0.0
 11
123.955700394
 21
115.414678851
 31
0.0
  0
LINE
  5
10E
330
1F
100
AcDbEntity
  8
0
  6
PHANTOM
 62
     7
370
     0
100
AcDbLine
 10
123.955700394
 20
115.414678851
 30
0.0
 11
123.955700394
 21
115.6146789769
 31
0.0
  0
LINE
  5
10F
330
1F
100
AcDbEntity
  8
0
  6
PHANTOM
 62
     7
370
     0
100
AcDbLine
 10
123.955700394
 20
115.6146789769
 30
0.0
 11
121.4557009155
 21
115.6146789769
 31
0.0
  0
LINE
  5
110
330
1F
100
AcDbEntity
  8
0
  6
PHANTOM
 62
     7
370
     0
100
AcDbLine
 10
121.4557009155
 20
116.4146788985
 30
0.0
 11
121.4557009155
 21
115.6146789769
 31
0.0
  0
LINE
  5
111
330
1F
100
AcDbEntity
  8
0
  6
PHANTOM
 62
     7
370
     0
100
AcDbLine
 10
121.4557009155
 20
116.4146788985
 30
0.0
 11
122.9557002301
 21
116.4146788985
 31
0.0
  0
LINE
  5
112
330
1F
100
AcDbEntity
  8
0
  6
PHANTOM
 62
     7
370
     0
100
AcDbLine
 10
122.9557002301
 20
116.4146788985
 30
0.0
 11
122.9557002301
 21
116.614678908
 31
0.0
  0
LINE
  5
113
330
1F
100
AcDbEntity
  8
0
  6
PHANTOM
 62
     7
370
     0
100
AcDbLine
 10
122.9557002301
 20
116.614678908
 30
0.0
 11
121.4557009155
 21
116.614678908
 31
0.0
  0
LINE
  5
114
330
1F
100
AcDbEntity
  8
0
  6
PHANTOM
 62
     7
370
     0
100
AcDbLine
 10
121.4557009155
 20
117.4146788878
 30
0.0
 11
121.4557009155
 21
116.614678908
 31
0.0
  0
LINE
  5
115
330
1F
100
AcDbEntity
  8
0
  6
PHANTOM
 62
     7
370
     0
100
AcDbLine
 10
121.4557009155
 20
117.4146788878
 30
0.0
 11
122.9557002301
 21
117.4146788878
 31
0.0
  0
LINE
  5
116
330
1F
100
AcDbEntity
  8
0
  6
PHANTOM
 62
     7
370
     0
100
AcDbLine
 10
122.9557002301
 20
117.4146788878
 30
0.0
 11
122.9557002301
 21
117.6146788973
 31
0.0
  0
LINE
  5
117
330
1F
100
AcDbEntity
  8
0
  6
PHANTOM
 62
     7
370
     0
100
AcDbLine
 10
122.9557002301
 20
117.6146788973
 30
0.0
 11
121.4557009155
 21
117.6146788973
 31
0.0
  0
LINE
  5
118
330
1F
100
AcDbEntity
  8
0
  6
PHANTOM
 62
     7
370
     0
100
AcDbLine
 10
121.4557009155
 20
118.4146789062
 30
0.0
 11
121.4557009155
 21
117.6146788973
 31
0.0
  0
LINE
  5
119
330
1F
100
AcDbEntity
  8
0
  6
PHANTOM
 62
     7
370
     0
100
AcDbLine
 10
121.4557009155
 20
118.4146789062
 30
0.0
 11
122.9557002301
 21
118.4146789062
 31
0.0
  0
LINE
  5
11A
330
1F
100
AcDbEntity
  8
0
  6
PHANTOM
 62
     7
370
     0
100
AcDbLine
 10
122.9557002301
 20
118.4146789062
 30
0.0
 11
122.9557002301
 21
118.6146788866
 31
0.0
  0
LINE
  5
11B
330
1F
100
AcDbEntity
  8
0
  6
PHANTOM
 62
     7
370
     0
100
AcDbLine
 10
122.9557002301
 20
118.6146788866
 30
0.0
 11
121.4557009155
 21
118.6146788866
 31
0.0
  0
LINE
  5
11C
330
1F
100
AcDbEntity
  8
0
  6
PHANTOM
 62
     7
370
     0
100
AcDbLine
 10
121.4557009155
 20
119.4146789246
 30
0.0
 11
121.4557009155
 21
118.6146788866
 31
0.0
  0
LINE
  5
11D
330
1F
100
AcDbEntity
  8
0
  6
PHANTOM
 62
     7
370
     0
100
AcDbLine
 10
121.4557009155
 20
119.4146789246
 30
0.0
 11
122.9557002301
 21
119.4146789246
 31
0.0
  0
LINE
  5
11E
330
1F
100
AcDbEntity
  8
0
  6
PHANTOM
 62
     7
370
     0
100
AcDbLine
 10
122.9557002301
 20
119.4146789246
 30
0.0
 11
122.9557002301
 21
119.6146789341
 31
0.0
  0
LINE
  5
11F
330
1F
100
AcDbEntity
  8
0
  6
PHANTOM
 62
     7
370
     0
100
AcDbLine
 10
122.9557002301
 20
119.6146789341
 30
0.0
 11
121.4557009155
 21
119.6146789341
 31
0.0
  0
LINE
  5
120
330
1F
100
AcDbEntity
  8
0
  6
PHANTOM
 62
     7
370
     0
100
AcDbLine
 10
121.4557009155
 20
120.4146789721
 30
0.0
 11
121.4557009155
 21
119.6146789341
 31
0.0
  0
LINE
  5
121
330
1F
100
AcDbEntity
  8
0
  6
PHANTOM
 62
     7
370
     0
100
AcDbLine
 10
121.4557009155
 20
120.4146789721
 30
0.0
 11
123.955700394
 21
120.4146789721
 31
0.0
  0
LINE
  5
122
330
1F
100
AcDbEntity
  8
0
  6
PHANTOM
 62
     7
370
     0
100
AcDbLine
 10
123.955700394
 20
120.4146789721
 30
0.0
 11
123.955700394
 21
120.6146788652
 31
0.0
  0
LINE
  5
123
330
1F
100
AcDbEntity
  8
0
  6
PHANTOM
 62
     7
370
     0
100
AcDbLine
 10
123.955700394
 20
120.6146788652
 30
0.0
 11
121.4557009155
 21
120.6146788652
 31
0.0
  0
LINE
  5
124
330
1F
100
AcDbEntity
  8
0
  6
PHANTOM
 62
     7
370
     0
100
AcDbLine
 10
121.4557009155
 20
121.4146789032
 30
0.0
 11
121.4557009155
 21
120.6146788652
 31
0.0
  0
LINE
  5
125
330
1F
100
AcDbEntity
  8
0
  6
PHANTOM
 62
     7
370
     0
100
AcDbLine
 10
121.4557009155
 20
121.4146789032
 30
0.0
 11
122.9557002301
 21
121.4146789032
 31
0.0
  0
LINE
  5
126
330
1F
100
AcDbEntity
  8
0
  6
PHANTOM
 62
     7
370
     0
100
AcDbLine
 10
122.9557002301
 20
121.4146789032
 30
0.0
 11
122.9557002301
 21
121.6146787963
 31
0.0
  0
LINE
  5
127
330
1F
100
AcDbEntity
  8
0
  6
PHANTOM
 62
     7
370
     0
100
AcDbLine
 10
122.9557002301
 20
121.6146787963
 30
0.0
 11
121.4557009155
 21
121.6146787963
 31
0.0
  0
LINE
  5
128
330
1F
100
AcDbEntity
  8
0
  6
PHANTOM
 62
     7
370
     0
100
AcDbLine
 10
121.4557009155
 20
122.4146788343
 30
0.0
 11
121.4557009155
 21
121.6146787963
 31
0.0
  0
LINE
  5
129
330
1F
100
AcDbEntity
  8
0
  6
PHANTOM
 62
     7
370
     0
100
AcDbLine
 10
121.4557009155
 20
122.4146788343
 30
0.0
 11
122.9557002301
 21
122.4146788343
 31
0.0
  0
LINE
  5
12A
330
1F
100
AcDbEntity
  8
0
  6
PHANTOM
 62
     7
370
     0
100
AcDbLine
 10
122.9557002301
 20
122.4146788343
 30
0.0
 11
122.9557002301
 21
122.6146789602
 31
0.0
  0
LINE
  5
12B
330
1F
100
AcDbEntity
  8
0
  6
PHANTOM
 62
     7
370
     0
100
AcDbLine
 10
122.9557002301
 20
122.6146789602
 30
0.0
 11
121.4557009155
 21
122.6146789602
 31
0.0
  0
LINE
  5
12C
330
1F
100
AcDbEntity
  8
0
  6
PHANTOM
 62
     7
370
     0
100
AcDbLine
 10
121.4557009155
 20
123.4146789982
 30
0.0
 11
121.4557009155
 21
122.6146789602
 31
0.0
  0
LINE
  5
12D
330
1F
100
AcDbEntity
  8
0
  6
PHANTOM
 62
     7
370
     0
100
AcDbLine
 10
121.4557009155
 20
123.4146789982
 30
0.0
 11
122.9557002301
 21
123.4146789982
 31
0.0
  0
LINE
  5
12E
330
1F
100
AcDbEntity
  8
0
  6
PHANTOM
 62
     7
370
     0
100
AcDbLine
 10
122.9557002301
 20
123.4146789982
 30
0.0
 11
122.9557002301
 21
123.6146791241
 31
0.0
  0
LINE
  5
12F
330
1F
100
AcDbEntity
  8
0
  6
PHANTOM
 62
     7
370
     0
100
AcDbLine
 10
122.9557002301
 20
123.6146791241
 30
0.0
 11
121.4557009155
 21
123.6146791241
 31
0.0
  0
LINE
  5
130
330
1F
100
AcDbEntity
  8
0
  6
PHANTOM
 62
     7
370
     0
100
AcDbLine
 10
121.4557009155
 20
124.4146786964
 30
0.0
 11
121.4557009155
 21
123.6146791241
 31
0.0
  0
LINE
  5
131
330
1F
100
AcDbEntity
  8
0
  6
PHANTOM
 62
     7
370
     0
100
AcDbLine
 10
121.4557009155
 20
124.4146786964
 30
0.0
 11
122.9557002301
 21
124.4146786964
 31
0.0
  0
LINE
  5
132
330
1F
100
AcDbEntity
  8
0
  6
PHANTOM
 62
     7
370
     0
100
AcDbLine
 10
122.9557002301
 20
124.4146786964
 30
0.0
 11
122.9557002301
 21
124.6146788223
 31
0.0
  0
LINE
  5
133
330
1F
100
AcDbEntity
  8
0
  6
PHANTOM
 62
     7
370
     0
100
AcDbLine
 10
122.9557002301
 20
124.6146788223
 30
0.0
 11
121.4557009155
 21
124.6146788223
 31
0.0
  0
LINE
  5
134
330
1F
100
AcDbEntity
  8
0
  6
PHANTOM
 62
     7
370
     0
100
AcDbLine
 10
121.4557009155
 20
147.4646795875
 30
0.0
 11
121.4557009155
 21
124.6146788223
 31
0.0
  0
LINE
  5
135
330
1F
100
AcDbEntity
  8
0
  6
PHANTOM
 62
     7
370
     0
100
AcDbLine
 10
132.5254438782
 20
135.764671523
 30
0.0
 11
132.5254438782
 21
114.764678791
 31
0.0
  0
LINE
  5
136
330
1F
100
AcDbEntity
  8
0
  6
PHANTOM
 62
     7
370
     0
100
AcDbLine
 10
170.8373388613
 20
114.764678791
 30
0.0
 11
170.8373388613
 21
135.7646752483
 31
0.0
  0
SPLINE
  5
137
330
1F
100
AcDbEntity
  8
0
  6
PHANTOM
 62
     7
370
     0
100
AcDbSpline
210
0.0
220
0.0
230
1.0
 70
     8
 71
     3
 72
    12
 73
     8
 74
     0
 42
0.00000001
 43
0.00000001
 40
0.0
 40
0.0
 40
0.0
 40
0.0
 40
0.2174483906027216
 40
0.436837783368695
 40
0.6025083255073969
 40
0.7679063255568815
 40
0.9999999999999999
 40
0.9999999999999999
 40
0.9999999999999999
 40
0.9999999999999999
 10
175.1972919667278
 20
147.4646795875162
 30
0.0
 10
175.2657025070044
 20
147.4608877226391
 30
0.0
 10
175.4031342382334
 20
147.4532701456905
 30
0.0
 10
175.581957033629
 20
147.3757981122526
 30
0.0
 10
175.706031603142
 20
147.2515560451559
 30
0.0
 10
175.7848823869892
 20
147.0890797854346
 30
0.0
 10
175.7933022329999
 20
146.9635141914475
 30
0.0
 10
175.7982185447727
 20
146.8901969826549
 30
0.0
  0
LINE
  5
138
330
1F
100
AcDbEntity
  8
0
  6
PHANTOM
 62
     7
370
     0
100
AcDbLine
 10
175.7982185448
 20
91.6391611433
 30
0.0
 11
175.7982185448
 21
146.8901969827
 31
0.0
  0
SPLINE
  5
139
330
1F
100
AcDbEntity
  8
0
  6
PHANTOM
 62
     7
370
     0
100
AcDbSpline
210
0.0
220
0.0
230
1.0
 70
     8
 71
     3
 72
    12
 73
     8
 74
     0
 42
0.00000001
 43
0.00000001
 40
0.0
 40
0.0
 40
0.0
 40
0.0
 40
0.200873746111452
 40
0.4034340564320502
 40
0.5898994071330729
 40
0.7554516931853288
 40
1.0
 40
1.0
 40
1.0
 40
1.0
 10
175.7982185447727
 20
91.6391611433357
 30
0.0
 10
175.7945050559471
 20
91.57592706698573
 30
0.0
 10
175.7870468993217
 20
91.44892799209197
 30
0.0
 10
175.708567473964
 20
91.27511294160493
 30
0.0
 10
175.578340421316
 20
91.15397608786539
 30
0.0
 10
175.4039032479251
 20
91.07744552894384
 30
0.0
 10
175.2744729396282
 20
91.0694477298745
 30
0.0
 10
175.1972919667278
 20
91.06467853847444
 30
0.0
  0
LINE
  5
13A
330
1F
100
AcDbEntity
  8
0
  6
PHANTOM
 62
     7
370
     0
100
AcDbLine
 10
175.1972919667
 20
91.0646785385
 30
0.0
 11
121.4557009155
 21
91.0646785385
 31
0.0
  0
LINE
  5
13B
330
1F
100
AcDbEntity
  8
0
  6
PHANTOM
 62
     7
370
     0
100
AcDbLine
 10
121.4557009155
 20
103.4146789795
 30
0.0
 11
121.4557009155
 21
91.0646785385
 31
0.0
  0
LINE
  5
13C
330
1F
100
AcDbEntity
  8
0
  6
PHANTOM
 62
     7
370
     0
100
AcDbLine
 10
121.4557009155
 20
103.4146789795
 30
0.0
 11
122.9557002301
 21
103.4146789795
 31
0.0
  0
LINE
  5
13D
330
1F
100
AcDbEntity
  8
0
  6
PHANTOM
 62
     7
370
     0
100
AcDbLine
 10
122.9557002301
 20
103.4146789795
 30
0.0
 11
122.9557002301
 21
103.6146786398
 31
0.0
  0
LINE
  5
13E
330
1F
100
AcDbEntity
  8
0
  6
PHANTOM
 62
     7
370
     0
100
AcDbLine
 10
122.9557002301
 20
103.6146786398
 30
0.0
 11
121.4557009155
 21
103.6146786398
 31
0.0
  0
LINE
  5
13F
330
1F
100
AcDbEntity
  8
0
  6
PHANTOM
 62
     7
370
     0
100
AcDbLine
 10
121.4557009155
 20
104.4146791435
 30
0.0
 11
121.4557009155
 21
103.6146786398
 31
0.0
  0
LINE
  5
140
330
1F
100
AcDbEntity
  8
0
  6
PHANTOM
 62
     7
370
     0
100
AcDbLine
 10
121.4557009155
 20
104.4146791435
 30
0.0
 11
122.9557002301
 21
104.4146791435
 31
0.0
  0
LINE
  5
141
330
1F
100
AcDbEntity
  8
0
  6
PHANTOM
 62
     7
370
     0
100
AcDbLine
 10
122.9557002301
 20
104.4146791435
 30
0.0
 11
122.9557002301
 21
104.6146788037
 31
0.0
  0
LINE
  5
142
330
1F
100
AcDbEntity
  8
0
  6
PHANTOM
 62
     7
370
     0
100
AcDbLine
 10
122.9557002301
 20
104.6146788037
 30
0.0
 11
121.4557009155
 21
104.6146788037
 31
0.0
  0
LINE
  5
143
330
1F
100
AcDbEntity
  8
0
  6
PHANTOM
 62
     7
370
     0
100
AcDbLine
 10
133.1703996623
 20
135.764671523
 30
0.0
 11
133.1703996623
 21
114.764678791
 31
0.0
  0
LINE
  5
144
330
1F
100
AcDbEntity
  8
0
  6
PHANTOM
 62
     7
370
     0
100
AcDbLine
 10
170.6211006606
 20
114.764678791
 30
0.0
 11
170.6211006606
 21
135.7646752483
 31
0.0
  0
SPLINE
  5
145
330
1F
100
AcDbEntity
  8
0
  6
PHANTOM
 62
     7
370
     0
100
AcDbSpline
210
0.0
220
0.0
230
1.0
 70
     8
 71
     3
 72
    12
 73
     8
 74
     0
 42
0.00000001
 43
0.00000001
 40
0.0
 40
0.0
 40
0.0
 40
0.0
 40
0.1251066534406001
 40
0.249966394820093
 40
0.3749003080755132
 40
0.5001446677603117
 40
1.0
 40
1.0
 40
1.0
 40
1.0
 10
124.3608275765692
 20
103.1044228336543
 30
0.0
 10
124.363408949675
 20
103.0644401287593
 30
0.0
 10
124.3685666012564
 20
102.9845536293373
 30
0.0
 10
124.4247189972236
 20
102.8749122965351
 30
0.0
 10
124.5177112200042
 20
102.7965415003134
 30
0.0
 10
124.7392903709784
 20
102.7022991972573
 30
0.0
 10
124.9410668145929
 20
102.6977798119894
 30
0.0
 10
125.1024155283486
 20
102.6941659263104
 30
0.0
  0
SPLINE
  5
146
330
1F
100
AcDbEntity
  8
0
  6
PHANTOM
 62
     7
370
     0
100
AcDbSpline
210
0.0
220
0.0
230
1.0
 70
     8
 71
     3
 72
    12
 73
     8
 74
     0
 42
0.00000001
 43
0.00000001
 40
0.0
 40
0.0
 40
0.0
 40
0.0
 40
0.499900624498298
 40
0.625162786988942
 40
0.7500846051588645
 40
0.8748835506154241
 40
1.0
 40
1.0
 40
1.0
 40
1.0
 10
125.1024155283486
 20
103.5146788096756
 30
0.0
 10
124.9412030563757
 20
103.5110224705171
 30
0.0
 10
124.7395949100024
 20
103.5064499473665
 30
0.0
 10
124.5183776817645
 20
103.4117043360273
 30
0.0
 10
124.4259041846775
 20
103.3331456769739
 30
0.0
 10
124.3688335474134
 20
103.2242079574049
 30
0.0
 10
124.3634984928162
 20
103.1443850118093
 30
0.0
 10
124.3608275765692
 20
103.1044228336543
 30
0.0
  0
SPLINE
  5
147
330
1F
100
AcDbEntity
  8
0
  6
PHANTOM
 62
     7
370
     0
100
AcDbSpline
210
0.0
220
0.0
230
1.0
 70
     8
 71
     3
 72
    12
 73
     8
 74
     0
 42
0.00000001
 43
0.00000001
 40
0.0
 40
0.0
 40
0.0
 40
0.0
 40
0.1250772622196391
 40
0.2498581387802196
 40
0.3747905125053272
 40
0.5000563093533766
 40
1.0
 40
1.0
 40
1.0
 40
1.0
 10
125.8480081671988
 20
103.1044228336543
 30
0.0
 10
125.8452444725333
 20
103.1445031174038
 30
0.0
 10
125.8397236321102
 20
103.2245687098361
 30
0.0
 10
125.7821753440056
 20
103.3338440480214
 30
0.0
 10
125.6885874263654
 20
103.4117384193507
 30
0.0
 10
125.4666418311786
 20
103.506662839481
 30
0.0
 10
125.2642536190237
 20
103.5111170424415
 30
0.0
 10
125.1024155283486
 20
103.5146788096756
 30
0.0
  0
SPLINE
  5
148
330
1F
100
AcDbEntity
  8
0
  6
PHANTOM
 62
     7
370
     0
100
AcDbSpline
210
0.0
220
0.0
230
1.0
 70
     8
 71
     3
 72
    12
 73
     8
 74
     0
 42
0.00000001
 43
0.00000001
 40
0.0
 40
0.0
 40
0.0
 40
0.0
 40
0.499904430371315
 40
0.6251688112608494
 40
0.7500866041709537
 40
0.8748734815123791
 40
0.9999999999999999
 40
0.9999999999999999
 40
0.9999999999999999
 40
0.9999999999999999
 10
125.1024155283486
 20
102.6941659263104
 30
0.0
 10
125.2643118429173
 20
102.6977650083471
 30
0.0
 10
125.4667755947413
 20
102.7022659363281
 30
0.0
 10
125.689288968486
 20
102.7963651426675
 30
0.0
 10
125.7829569390947
 20
102.8744676811459
 30
0.0
 10
125.8400184497213
 20
102.9841379010969
 30
0.0
 10
125.8453425161747
 20
103.064291545589
 30
0.0
 10
125.8480081671988
 20
103.1044228336543
 30
0.0
  0
SPLINE
  5
149
330
1F
100
AcDbEntity
  8
0
  6
PHANTOM
 62
     7
370
     0
100
AcDbSpline
210
0.0
220
0.0
230
1.0
 70
     8
 71
     3
 72
    12
 73
     8
 74
     0
 42
0.00000001
 43
0.00000001
 40
0.0
 40
0.0
 40
0.0
 40
0.0
 40
0.0090983451419596
 40
0.1599241447800852
 40
0.4418904557955314
 40
0.7208877432905451
 40
1.0
 40
1.0
 40
1.0
 40
1.0
 10
198.5376885498081
 20
161.3612734115452
 30
0.0
 10
198.5404004663464
 20
161.3601729563765
 30
0.0
 10
198.5880685781113
 20
161.340829949603
 30
0.0
 10
198.7200243341595
 20
161.2721288083404
 30
0.0
 10
198.9220194267742
 20
161.1004531965353
 30
0.0
 10
199.1240261830863
 20
160.826660828524
 30
0.0
 10
199.201249103894
 20
160.615694672126
 30
0.0
 10
199.2398685181652
 20
160.5101898646683
 30
0.0
  0
ARC
  5
14A
330
1F
100
AcDbEntity
  8
0
  6
PHANTOM
 62
     7
370
     0
100
AcDbCircle
 10
150.0507890617
 20
119.2646788991
 30
0.0
 40
46.99999999999981
100
AcDbArc
 50
284.486042995
 51
289.5967762112
  0
ELLIPSE
  5
14B
330
1F
100
AcDbEntity
  8
0
  6
PHANTOM
 62
     7
370
     0
100
AcDbEllipse
 10
205.6844481631
 20
119.2646788991
 30
0.0
 11
175.4063879557656
 21
1.421085471520200E-14
 31
0.0
210
0.0
220
0.0
230
1.0
 40
0.2679491924
 41
4.451965536503931
 42
4.459559834537328
  0
ELLIPSE
  5
14C
330
1F
100
AcDbEntity
  8
0
  6
PHANTOM
 62
     7
370
     0
100
AcDbEllipse
 10
163.7618287021
 20
119.2646788991
 30
0.0
 11
0.0
 21
46.99999999999999
 31
0.0
210
0.0
220
0.0
230
1.0
 40
0.2679491924
 41
2.758328899058616
 42
2.88116920970903
  0
SPLINE
  5
14D
330
1F
100
AcDbEntity
  8
0
  6
PHANTOM
 62
     7
370
     0
100
AcDbSpline
210
0.0
220
0.0
230
1.0
 70
     8
 71
     3
 72
    14
 73
    10
 74
     0
 42
0.00000001
 43
0.00000001
 40
0.0
 40
0.0
 40
0.0
 40
0.0
 40
0.1551197883248109
 40
0.3105581527542308
 40
0.4591659635191302
 40
0.6043598878371641
 40
0.7536490589901882
 40
0.9125729923586374
 40
1.0
 40
1.0
 40
1.0
 40
1.0
 10
158.0871155822788
 20
75.77975842717588
 30
0.0
 10
158.1350576972642
 20
75.79613818778114
 30
0.0
 10
158.2310403879949
 20
75.82893134880247
 30
0.0
 10
158.4168173960297
 20
75.8513940226726
 30
0.0
 10
158.6046961983223
 20
75.84921020805201
 30
0.0
 10
158.777920189663
 20
75.82323308987546
 30
0.0
 10
158.9228366073098
 20
75.7768650025797
 30
0.0
 10
159.0127741878302
 20
75.72393468752308
 30
0.0
 10
159.0420604410182
 20
75.68750100812471
 30
0.0
 10
159.0524537826096
 20
75.67457113030851
 30
0.0
  0
ARC
  5
14E
330
1F
100
AcDbEntity
  8
0
  6
PHANTOM
 62
     7
370
     0
100
AcDbCircle
 10
140.2528300906
 20
119.2646788991
 30
0.0
 40
46.99999999999971
100
AcDbArc
 50
287.1094800916
 51
292.29979624
  0
ELLIPSE
  5
14F
330
1F
100
AcDbEntity
  8
0
  6
PHANTOM
 62
     7
370
     0
100
AcDbEllipse
 10
205.6844481631
 20
119.2646788991
 30
0.0
 11
175.4063879557656
 21
1.421085471520200E-14
 31
0.0
210
0.0
220
0.0
230
1.0
 40
0.2679491924
 41
4.406077313169111
 42
4.413772219481818
  0
ELLIPSE
  5
150
330
1F
100
AcDbEntity
  8
0
  6
PHANTOM
 62
     7
370
     0
100
AcDbEllipse
 10
156.5892249247
 20
119.2646788991
 30
0.0
 11
0.0
 21
46.99999999999999
 31
0.0
210
0.0
220
0.0
230
1.0
 40
0.2679491924
 41
2.710345907706099
 42
2.835280986374206
  0
SPLINE
  5
151
330
1F
100
AcDbEntity
  8
0
  6
PHANTOM
 62
     7
370
     0
100
AcDbSpline
210
0.0
220
0.0
230
1.0
 70
     8
 71
     3
 72
    14
 73
    10
 74
     0
 42
0.00000001
 43
0.00000001
 40
0.0
 40
0.0
 40
0.0
 40
0.0
 40
0.1537188502181419
 40
0.3078356160496256
 40
0.453375219357216
 40
0.5945000332532918
 40
0.7404410942180614
 40
0.8980709223734922
 40
1.0
 40
1.0
 40
1.0
 40
1.0
 10
150.3597086632763
 20
76.6877197063297
 30
0.0
 10
150.4070504767092
 20
76.70620600572342
 30
0.0
 10
150.5018566522845
 20
76.74322645802495
 30
0.0
 10
150.6860711619814
 20
76.76907665822428
 30
0.0
 10
150.8719057898837
 20
76.7671667197286
 30
0.0
 10
151.0426139418607
 20
76.73907043608922
 30
0.0
 10
151.1866975779478
 20
76.68845224566473
 30
0.0
 10
151.2815759872925
 20
76.62798222784521
 30
0.0
 10
151.3127893432198
 20
76.5847340616361
 30
0.0
 10
151.325046863607
 20
76.56775045755803
 30
0.0
  0
ARC
  5
152
330
1F
100
AcDbEntity
  8
0
  6
PHANTOM
 62
     7
370
     0
100
AcDbCircle
 10
130.4548711194
 20
119.2646788991
 30
0.0
 40
46.99999999999963
100
AcDbArc
 50
289.7704591494
 51
295.0562089678
  0
ELLIPSE
  5
153
330
1F
100
AcDbEntity
  8
0
  6
PHANTOM
 62
     7
370
     0
100
AcDbEllipse
 10
205.6844481631
 20
119.2646788991
 30
0.0
 11
175.4063879557656
 21
1.421085471520200E-14
 31
0.0
210
0.0
220
0.0
230
1.0
 40
0.2679491924
 41
4.359512628377336
 42
4.36732937359598
  0
ELLIPSE
  5
154
330
1F
100
AcDbEntity
  8
0
  6
PHANTOM
 62
     7
370
     0
100
AcDbEllipse
 10
149.4166211474
 20
119.2646788991
 30
0.0
 11
0.0
 21
47.0
 31
0.0
210
0.0
220
0.0
230
1.0
 40
0.2679491924
 41
2.66127824334315
 42
2.788716301582428
  0
SPLINE
  5
155
330
1F
100
AcDbEntity
  8
0
  6
PHANTOM
 62
     7
370
     0
100
AcDbSpline
210
0.0
220
0.0
230
1.0
 70
     8
 71
     3
 72
    14
 73
    10
 74
     0
 42
0.00000001
 43
0.00000001
 40
0.0
 40
0.0
 40
0.0
 40
0.0
 40
0.1522116775292019
 40
0.3049185197306609
 40
0.4470436895952185
 40
0.5835662894928297
 40
0.7255821404957808
 40
0.8814081815166758
 40
0.9999999999999999
 40
0.9999999999999999
 40
0.9999999999999999
 40
0.9999999999999999
 10
142.6323017442738
 20
77.7185336089462
 30
0.0
 10
142.6789815300548
 20
77.73922300425839
 30
0.0
 10
142.7724929571198
 20
77.78066910021585
 30
0.0
 10
142.9550369040576
 20
77.81021594846004
 30
0.0
 10
143.1386421091501
 20
77.80874801065302
 30
0.0
 10
143.3064371413485
 20
77.77878922954756
 30
0.0
 10
143.4493571727735
 20
77.72433147040731
 30
0.0
 10
143.5498164721749
 20
77.65583005059443
 30
0.0
 10
143.5832090720859
 20
77.60479726753789
 30
0.0
 10
143.5976399446045
 20
77.58274305227697
 30
0.0
  0
ARC
  5
156
330
1F
100
AcDbEntity
  8
0
  6
PHANTOM
 62
     7
370
     0
100
AcDbCircle
 10
120.6569121483
 20
119.2646788991
 30
0.0
 40
46.99999999999952
100
AcDbArc
 50
292.4766617041
 51
297.8761230215
  0
ELLIPSE
  5
157
330
1F
100
AcDbEntity
  8
0
  6
PHANTOM
 62
     7
370
     0
100
AcDbEllipse
 10
205.6844481631
 20
119.2646788991
 30
0.0
 11
175.4063879557656
 21
1.421085471520200E-14
 31
0.0
210
0.0
220
0.0
230
1.0
 40
0.2679491924
 41
4.312134569764005
 42
4.32009722879046
  0
ELLIPSE
  5
158
330
1F
100
AcDbEntity
  8
0
  6
PHANTOM
 62
     7
370
     0
100
AcDbEllipse
 10
142.24401737
 20
119.2646788991
 30
0.0
 11
0.0
 21
47.0
 31
0.0
210
0.0
220
0.0
230
1.0
 40
0.2679491924
 41
2.610921459200414
 42
2.741338242969099
  0
SPLINE
  5
159
330
1F
100
AcDbEntity
  8
0
  6
PHANTOM
 62
     7
370
     0
100
AcDbSpline
210
0.0
220
0.0
230
1.0
 70
     8
 71
     3
 72
    14
 73
    10
 74
     0
 42
0.00000001
 43
0.00000001
 40
0.0
 40
0.0
 40
0.0
 40
0.0
 40
0.1506314085741462
 40
0.3018733846640292
 40
0.4402344398640616
 40
0.571580552307132
 40
0.7090362694904437
 40
0.8624417665309464
 40
1.0
 40
1.0
 40
1.0
 40
1.0
 10
134.9048948252712
 20
78.881606493029
 30
0.0
 10
134.9508574844023
 20
78.90461945110061
 30
0.0
 10
135.0429691071468
 20
78.95073864768764
 30
0.0
 10
135.2237736093157
 20
78.9843841738223
 30
0.0
 10
135.4049873951421
 20
78.98352998816915
 30
0.0
 10
135.5694275087584
 20
78.95197327163336
 30
0.0
 10
135.7107616758695
 20
78.89413009087673
 30
0.0
 10
135.8174935382097
 20
78.817024991737
 30
0.0
 10
135.853305849389
 20
78.7570542012524
 30
0.0
 10
135.8702367508923
 20
78.72870195272863
 30
0.0
  0
ARC
  5
15A
330
1F
100
AcDbEntity
  8
0
  6
PHANTOM
 62
     7
370
     0
100
AcDbCircle
 10
110.8589531772
 20
119.2646788991
 30
0.0
 40
46.99999999999854
100
AcDbArc
 50
295.2368649349
 51
300.7715164815
  0
ELLIPSE
  5
15B
330
1F
100
AcDbEntity
  8
0
  6
PHANTOM
 62
     7
370
     0
100
AcDbEllipse
 10
205.6844481626
 20
119.2646788991
 30
0.0
 11
175.4063879545603
 21
1.421085471520200E-14
 31
0.0
210
0.0
220
0.0
230
1.0
 40
0.2679491924
 41
4.263786227345481
 42
4.271922594389441
  0
ELLIPSE
  5
15C
330
1F
100
AcDbEntity
  8
0
  6
PHANTOM
 62
     7
370
     0
100
AcDbEllipse
 10
135.0714135927
 20
119.2646788991
 30
0.0
 11
0.0
 21
47.0
 31
0.0
210
0.0
220
0.0
230
1.0
 40
0.2679491924
 41
2.559028868177647
 42
2.692989900550592
  0
SPLINE
  5
15D
330
1F
100
AcDbEntity
  8
0
  6
PHANTOM
 62
     7
370
     0
100
AcDbSpline
210
0.0
220
0.0
230
1.0
 70
     8
 71
     3
 72
    14
 73
    10
 74
     0
 42
0.00000001
 43
0.00000001
 40
0.0
 40
0.0
 40
0.0
 40
0.0
 40
0.1490346916932348
 40
0.2988086456956448
 40
0.4330371441321103
 40
0.5585928594473225
 40
0.6907953698831244
 40
0.8410340749862487
 40
1.0
 40
1.0
 40
1.0
 40
1.0
 10
127.1774879062687
 20
80.18874380353391
 30
0.0
 10
127.2226892400526
 20
80.21424725091595
 30
0.0
 10
127.3133161214731
 20
80.26538065137605
 30
0.0
 10
127.4923785298465
 20
80.30360814814688
 30
0.0
 10
127.671074875733
 20
80.30352469897261
 30
0.0
 10
127.8316713679254
 20
80.27064564677113
 30
0.0
 10
127.9708929693201
 20
80.20990648307446
 30
0.0
 10
128.0846058122081
 20
80.12350382709474
 30
0.0
 10
128.1230600384987
 20
80.05322979974116
 30
0.0
 10
128.1428298318897
 20
80.01710105303228
 30
0.0
  0
ARC
  5
15E
330
1F
100
AcDbEntity
  8
0
  6
PHANTOM
 62
     7
370
     0
100
AcDbCircle
 10
101.060994206
 20
119.2646788991
 30
0.0
 40
46.99999999999893
100
AcDbArc
 50
298.0612831098
 51
303.7568814232
  0
ELLIPSE
  5
15F
330
1F
100
AcDbEntity
  8
0
  6
PHANTOM
 62
     7
370
     0
100
AcDbEllipse
 10
205.6844481631
 20
119.2646788991
 30
0.0
 11
175.4063879557689
 21
1.421085471520200E-14
 31
0.0
210
0.0
220
0.0
230
1.0
 40
0.2679491924
 41
4.214284425841253
 42
4.222627197784147
  0
ELLIPSE
  5
160
330
1F
100
AcDbEntity
  8
0
  6
PHANTOM
 62
     7
370
     0
100
AcDbEllipse
 10
127.8988098153
 20
119.2646788991
 30
0.0
 11
0.0
 21
47.0
 31
0.0
210
0.0
220
0.0
230
1.0
 40
0.2679491924
 41
2.509266668980517
 42
2.643488099046342
  0
LINE
  5
161
330
1F
100
AcDbEntity
  8
0
  6
PHANTOM
 62
     7
370
     0
100
AcDbLine
 10
120.4557007516
 20
89.7784103042
 30
0.0
 11
120.4557007516
 21
81.3518949187
 31
0.0
  0
ARC
  5
162
330
1F
100
AcDbEntity
  8
0
  6
PHANTOM
 62
     7
370
     0
100
AcDbCircle
 10
83.8557002032
 20
119.2646788991
 30
0.0
 40
46.99999999999996
100
AcDbArc
 50
321.1438396516
 51
323.1301023542
  0
ELLIPSE
  5
163
330
1F
100
AcDbEntity
  8
0
  6
PHANTOM
 62
     7
370
     0
100
AcDbEllipse
 10
209.7822319476
 20
119.2646788991
 30
0.0
 11
175.4063879557382
 21
2.842170943040401E-14
 31
0.0
210
0.0
220
0.0
230
1.0
 40
0.2679491924
 41
4.471460777992562
 42
4.477998680628497
  0
ELLIPSE
  5
164
330
1F
100
AcDbEntity
  8
0
  6
PHANTOM
 62
     7
370
     0
100
AcDbEllipse
 10
170.9344324794
 20
119.2646788991
 30
0.0
 11
0.0
 21
46.99999999999999
 31
0.0
210
0.0
220
0.0
230
1.0
 40
0.2679491924
 41
2.805400184076705
 42
2.90066445119766
  0
SPLINE
  5
165
330
1F
100
AcDbEntity
  8
0
  6
PHANTOM
 62
     7
370
     0
100
AcDbSpline
210
0.0
220
0.0
230
1.0
 70
     8
 71
     3
 72
    14
 73
    10
 74
     0
 42
0.00000001
 43
0.00000001
 40
0.0
 40
0.0
 40
0.0
 40
0.0
 40
0.1564012933007533
 40
0.3130414699765147
 40
0.4643710440153523
 40
0.6131227851421983
 40
0.7652455963311847
 40
0.925067190206697
 40
1.0
 40
1.0
 40
1.0
 40
1.0
 10
165.8145225012814
 20
74.98709115746915
 30
0.0
 10
165.8630036088985
 20
75.00143605499487
 30
0.0
 10
165.960039872949
 20
75.03014776007954
 30
0.0
 10
166.1472403704071
 20
75.04949303408047
 30
0.0
 10
166.336953334293
 20
75.04717968851593
 30
0.0
 10
166.5123312945292
 20
75.02357902301902
 30
0.0
 10
166.657825898523
 20
74.98180256338246
 30
0.0
 10
166.7434471341997
 20
74.93600069312278
 30
0.0
 10
166.7710527939106
 20
74.90556599874559
 30
0.0
 10
166.7798644269024
 20
74.89585134747922
 30
0.0
  0
SPLINE
  5
166
330
1F
100
AcDbEntity
  8
0
  6
PHANTOM
 62
     7
370
     0
100
AcDbSpline
210
0.0
220
0.0
230
1.0
 70
     8
 71
     3
 72
     9
 73
     5
 74
     0
 42
0.00000001
 43
0.00000001
 40
0.0
 40
0.0
 40
0.0
 40
0.0
 40
0.5583879241935139
 40
0.9999999999999999
 40
0.9999999999999999
 40
0.9999999999999999
 40
0.9999999999999999
 10
125.3031360322748
 20
107.3824670499891
 30
0.0
 10
125.347383624248
 20
107.4378893847193
 30
0.0
 10
125.4266252948789
 20
107.5371435632731
 30
0.0
 10
125.4343430194754
 20
107.6630179377508
 30
0.0
 10
125.4377512598549
 20
107.7186055815548
 30
0.0
  0
LINE
  5
167
330
1F
100
AcDbEntity
  8
0
  6
PHANTOM
 62
     7
370
     0
100
AcDbLine
 10
124.559545737
 20
108.1212498582
 30
0.0
 11
125.3031360323
 21
107.38246705
 31
0.0
  0
SPLINE
  5
168
330
1F
100
AcDbEntity
  8
0
  6
PHANTOM
 62
     7
370
     0
100
AcDbSpline
210
0.0
220
0.0
230
1.0
 70
     8
 71
     3
 72
     9
 73
     5
 74
     0
 42
0.00000001
 43
0.00000001
 40
0.0
 40
0.0
 40
0.0
 40
0.0
 40
0.5606572175777481
 40
1.0
 40
1.0
 40
1.0
 40
1.0
 10
124.8868702316796
 20
108.1813453099459
 30
0.0
 10
124.8235111585802
 20
108.1810859545651
 30
0.0
 10
124.7105025837988
 20
108.1806233628554
 30
0.0
 10
124.6056235732655
 20
108.1393729356419
 30
0.0
 10
124.55954573696
 20
108.1212498581737
 30
0.0
  0
SPLINE
  5
169
330
1F
100
AcDbEntity
  8
0
  6
PHANTOM
 62
     7
370
     0
100
AcDbSpline
210
0.0
220
0.0
230
1.0
 70
     8
 71
     3
 72
    11
 73
     7
 74
     0
 42
0.00000001
 43
0.00000001
 40
0.0
 40
0.0
 40
0.0
 40
0.0
 40
0.1875652778466781
 40
0.3744438442528011
 40
0.5612313205905286
 40
1.0
 40
1.0
 40
1.0
 40
1.0
 10
125.4377512598549
 20
107.7186055815548
 30
0.0
 10
125.4348174419289
 20
107.7698934365098
 30
0.0
 10
125.428960547331
 20
107.8722813720239
 30
0.0
 10
125.3631842841927
 20
108.0156320221426
 30
0.0
 10
125.186647074854
 20
108.1625517911079
 30
0.0
 10
125.0104534510618
 20
108.1735976682771
 30
0.0
 10
124.8868702316796
 20
108.1813453099459
 30
0.0
  0
LINE
  5
16A
330
1F
100
AcDbEntity
  8
0
  6
PHANTOM
 62
     7
370
     0
100
AcDbLine
 10
125.2105886454
 20
107.3155599049
 30
0.0
 11
124.4645936752
 21
108.0587497315
 31
0.0
  0
SPLINE
  5
16B
330
1F
100
AcDbEntity
  8
0
  6
PHANTOM
 62
     7
370
     0
100
AcDbSpline
210
0.0
220
0.0
230
1.0
 70
     8
 71
     3
 72
    11
 73
     7
 74
     0
 42
0.00000001
 43
0.00000001
 40
0.0
 40
0.0
 40
0.0
 40
0.0
 40
0.2799798672631917
 40
0.5580485173100821
 40
0.7787033218168693
 40
1.0
 40
1.0
 40
1.0
 40
1.0
 10
124.33518826609
 20
107.7214097938269
 30
0.0
 10
124.3413426532307
 20
107.6451374091505
 30
0.0
 10
124.3536094160247
 20
107.4931132954297
 30
0.0
 10
124.5071568469226
 20
107.329233126058
 30
0.0
 10
124.6925843709971
 20
107.2662923077559
 30
0.0
 10
124.810832940678
 20
107.2609458012109
 30
0.0
 10
124.8700430954014
 20
107.2582686654061
 30
0.0
  0
SPLINE
  5
16C
330
1F
100
AcDbEntity
  8
0
  6
PHANTOM
 62
     7
370
     0
100
AcDbSpline
210
0.0
220
0.0
230
1.0
 70
     8
 71
     3
 72
     9
 73
     5
 74
     0
 42
0.00000001
 43
0.00000001
 40
0.0
 40
0.0
 40
0.0
 40
0.0
 40
0.5604714989654697
 40
0.9999999999999999
 40
0.9999999999999999
 40
0.9999999999999999
 40
0.9999999999999999
 10
124.8700430954014
 20
107.2582686654061
 30
0.0
 10
124.9353931359659
 20
107.2594375248323
 30
0.0
 10
125.0519914655601
 20
107.2615230179007
 30
0.0
 10
125.1621644699265
 20
107.2990609249075
 30
0.0
 10
125.2105886453901
 20
107.3155599049062
 30
0.0
  0
SPLINE
  5
16D
330
1F
100
AcDbEntity
  8
0
  6
PHANTOM
 62
     7
370
     0
100
AcDbSpline
210
0.0
220
0.0
230
1.0
 70
     8
 71
     3
 72
     9
 73
     5
 74
     0
 42
0.00000001
 43
0.00000001
 40
0.0
 40
0.0
 40
0.0
 40
0.0
 40
0.5582128694757302
 40
1.0
 40
1.0
 40
1.0
 40
1.0
 10
124.4645936751877
 20
108.0587497315139
 30
0.0
 10
124.4210976421811
 20
108.0028828636426
 30
0.0
 10
124.3431774877292
 20
107.9028012085496
 30
0.0
 10
124.3376362941161
 20
107.7769910865958
 30
0.0
 10
124.33518826609
 20
107.7214097938269
 30
0.0
  0
LINE
  5
16E
330
1F
100
AcDbEntity
  8
0
  6
PHANTOM
 62
     7
370
     0
100
AcDbLine
 10
199.2557010019
 20
160.3935696519
 30
0.0
 11
199.2398685182
 21
160.5101898647
 31
0.0
  0
LINE
  5
16F
330
1F
100
AcDbEntity
  8
0
  6
PHANTOM
 62
     7
370
     0
100
AcDbLine
 10
199.2557010019
 20
122.2646790891
 30
0.0
 11
199.2557010019
 21
160.3935696519
 31
0.0
  0
LINE
  5
170
330
1F
100
AcDbEntity
  8
0
  6
PHANTOM
 62
     7
370
     0
100
AcDbLine
 10
120.4557007516
 20
148.7509459591
 30
0.0
 11
120.4557007516
 21
131.931137327
 31
0.0
  0
LINE
  5
171
330
1F
100
AcDbEntity
  8
0
  6
PHANTOM
 62
     7
370
     0
100
AcDbLine
 10
121.4557009155
 20
124.6146788223
 30
0.0
 11
121.4557009155
 21
124.4146786964
 31
0.0
  0
LINE
  5
172
330
1F
100
AcDbEntity
  8
0
  6
PHANTOM
 62
     7
370
     0
100
AcDbLine
 10
121.4557009155
 20
123.6146791241
 30
0.0
 11
121.4557009155
 21
123.4146789982
 31
0.0
  0
LINE
  5
173
330
1F
100
AcDbEntity
  8
0
  6
PHANTOM
 62
     7
370
     0
100
AcDbLine
 10
121.4557009155
 20
122.6146789602
 30
0.0
 11
121.4557009155
 21
122.4146788343
 31
0.0
  0
LINE
  5
174
330
1F
100
AcDbEntity
  8
0
  6
PHANTOM
 62
     7
370
     0
100
AcDbLine
 10
121.4557009155
 20
121.6146787963
 30
0.0
 11
121.4557009155
 21
121.4146789032
 31
0.0
  0
LINE
  5
175
330
1F
100
AcDbEntity
  8
0
  6
PHANTOM
 62
     7
370
     0
100
AcDbLine
 10
121.4557009155
 20
119.6146789341
 30
0.0
 11
121.4557009155
 21
119.4146789246
 31
0.0
  0
LINE
  5
176
330
1F
100
AcDbEntity
  8
0
  6
PHANTOM
 62
     7
370
     0
100
AcDbLine
 10
121.4557009155
 20
118.6146788866
 30
0.0
 11
121.4557009155
 21
118.4146789062
 31
0.0
  0
LINE
  5
177
330
1F
100
AcDbEntity
  8
0
  6
PHANTOM
 62
     7
370
     0
100
AcDbLine
 10
121.4557009155
 20
117.6146788973
 30
0.0
 11
121.4557009155
 21
117.4146788878
 31
0.0
  0
LINE
  5
178
330
1F
100
AcDbEntity
  8
0
  6
PHANTOM
 62
     7
370
     0
100
AcDbLine
 10
121.4557009155
 20
116.614678908
 30
0.0
 11
121.4557009155
 21
116.4146788985
 31
0.0
  0
LINE
  5
179
330
1F
100
AcDbEntity
  8
0
  6
PHANTOM
 62
     7
370
     0
100
AcDbLine
 10
121.4557009155
 20
115.6146789769
 30
0.0
 11
121.4557009155
 21
115.414678851
 31
0.0
  0
LINE
  5
17A
330
1F
100
AcDbEntity
  8
0
  6
PHANTOM
 62
     7
370
     0
100
AcDbLine
 10
121.4557009155
 20
110.6146788559
 30
0.0
 11
121.4557009155
 21
110.4146791956
 31
0.0
  0
LINE
  5
17B
330
1F
100
AcDbEntity
  8
0
  6
PHANTOM
 62
     7
370
     0
100
AcDbLine
 10
121.4557009155
 20
109.614678692
 30
0.0
 11
121.4557009155
 21
109.4146790317
 31
0.0
  0
LINE
  5
17C
330
1F
100
AcDbEntity
  8
0
  6
PHANTOM
 62
     7
370
     0
100
AcDbLine
 10
121.4557009155
 20
108.614678528
 30
0.0
 11
121.4557009155
 21
108.4146788678
 31
0.0
  0
LINE
  5
17D
330
1F
100
AcDbEntity
  8
0
  6
PHANTOM
 62
     7
370
     0
100
AcDbLine
 10
121.4557009155
 20
106.6146791315
 30
0.0
 11
121.4557009155
 21
106.41467854
 31
0.0
  0
LINE
  5
17E
330
1F
100
AcDbEntity
  8
0
  6
PHANTOM
 62
     7
370
     0
100
AcDbLine
 10
120.4557007516
 20
106.598220799
 30
0.0
 11
120.4557007516
 21
89.7784103042
 31
0.0
  0
ARC
  5
17F
330
1F
100
AcDbEntity
  8
0
  6
PHANTOM
 62
     7
370
     0
100
AcDbCircle
 10
108.7557002032
 20
109.2646788991
 30
0.0
 40
12.0
100
AcDbArc
 50
347.161431859
 51
0.0
  0
LINE
  5
180
330
1F
100
AcDbEntity
  8
0
  6
PHANTOM
 62
     7
370
     0
100
AcDbLine
 10
120.755700242
 20
109.2646792865
 30
0.0
 11
120.755700242
 21
129.2646788395
 31
0.0
  0
ARC
  5
181
330
1F
100
AcDbEntity
  8
0
  6
PHANTOM
 62
     7
370
     0
100
AcDbCircle
 10
108.7557002032
 20
129.2646788991
 30
0.0
 40
12.0
100
AcDbArc
 50
0.0
 51
12.838568141
  0
LINE
  5
182
330
1F
100
AcDbEntity
  8
0
  6
PHANTOM
 62
     7
370
     0
100
AcDbLine
 10
121.4557009155
 20
105.6146789676
 30
0.0
 11
121.4557009155
 21
105.4146793074
 31
0.0
  0
LINE
  5
183
330
1F
100
AcDbEntity
  8
0
  6
PHANTOM
 62
     7
370
     0
100
AcDbLine
 10
121.4557009155
 20
113.6146788819
 30
0.0
 11
121.4557009155
 21
113.414678756
 31
0.0
  0
LINE
  5
184
330
1F
100
AcDbEntity
  8
0
  6
PHANTOM
 62
     7
370
     0
100
AcDbLine
 10
121.4557009155
 20
104.6146788037
 30
0.0
 11
121.4557009155
 21
104.4146791435
 31
0.0
  0
LINE
  5
185
330
1F
100
AcDbEntity
  8
0
  6
PHANTOM
 62
     7
370
     0
100
AcDbLine
 10
121.4557009155
 20
120.6146788652
 30
0.0
 11
121.4557009155
 21
120.4146789721
 31
0.0
  0
LINE
  5
186
330
1F
100
AcDbEntity
  8
0
  6
PHANTOM
 62
     7
370
     0
100
AcDbLine
 10
121.4557009155
 20
111.6146790198
 30
0.0
 11
121.4557009155
 21
111.4146788939
 31
0.0
  0
LINE
  5
187
330
1F
100
AcDbEntity
  8
0
  6
PHANTOM
 62
     7
370
     0
100
AcDbLine
 10
121.4557009155
 20
112.614678718
 30
0.0
 11
121.4557009155
 21
112.4146790578
 31
0.0
  0
LINE
  5
188
330
1F
100
AcDbEntity
  8
0
  6
PHANTOM
 62
     7
370
     0
100
AcDbLine
 10
121.4557009155
 20
103.6146786398
 30
0.0
 11
121.4557009155
 21
103.4146789795
 31
0.0
  0
LINE
  5
189
330
1F
100
AcDbEntity
  8
0
  6
PHANTOM
 62
     7
370
     0
100
AcDbLine
 10
121.4557009155
 20
114.614678813
 30
0.0
 11
121.4557009155
 21
114.4146789199
 31
0.0
  0
LINE
  5
18A
330
1F
100
AcDbEntity
  8
0
  6
PHANTOM
 62
     7
370
     0
100
AcDbLine
 10
121.4557009155
 20
107.6146792955
 30
0.0
 11
121.4557009155
 21
107.4146787039
 31
0.0
  0
LINE
  5
18B
330
1F
100
AcDbEntity
  8
0
  6
PHANTOM
 62
     7
370
     0
100
AcDbLine
 10
167.5093507731
 20
114.764678791
 30
0.0
 11
167.5093507731
 21
135.7646789736
 31
0.0
  0
ELLIPSE
  5
18C
330
1F
100
AcDbEntity
  8
0
  6
PHANTOM
 62
     7
370
     0
100
AcDbEllipse
 10
179.3954409218
 20
118.2646788991
 30
0.0
 11
0.0
 21
3.0
 31
0.0
210
0.0
220
0.0
230
1.0
 40
0.8403225883
 41
0.0
 42
0.2309620404427156
  0
SPLINE
  5
18D
330
1F
100
AcDbEntity
  8
0
  6
PHANTOM
 62
     7
370
     0
100
AcDbSpline
210
0.0
220
0.0
230
1.0
 70
     8
 71
     3
 72
    10
 73
     6
 74
     0
 42
0.00000001
 43
0.00000001
 40
0.0
 40
0.0
 40
0.0
 40
0.0
 40
0.2216473693010977
 40
0.6656595876589565
 40
1.0
 40
1.0
 40
1.0
 40
1.0
 10
169.7167566383396
 20
73.80241158965528
 30
0.0
 10
169.677455490031
 20
73.76310833791383
 30
0.0
 10
169.5594248260075
 20
73.64507135678305
 30
0.0
 10
169.3169695990013
 20
73.55619044226148
 30
0.0
 10
169.1260885775858
 20
73.55174861439184
 30
0.0
 10
169.0440958703076
 20
73.54984063270986
 30
0.0
  0
LINE
  5
18E
330
1F
100
AcDbEntity
  8
0
  6
PHANTOM
 62
     7
370
     0
100
AcDbLine
 10
141.9123148883
 20
119.3364020771
 30
0.0
 11
141.9123148883
 21
114.764678791
 31
0.0
  0
ARC
  5
18F
330
1F
100
AcDbEntity
  8
0
  6
PHANTOM
 62
     7
370
     0
100
AcDbCircle
 10
150.1226833427
 20
114.5477791322
 30
0.0
 40
8.213232957851572
100
AcDbArc
 50
178.4867250139
 51
1.5132749861
  0
LINE
  5
190
330
1F
100
AcDbEntity
  8
0
  6
PHANTOM
 62
     7
370
     0
100
AcDbLine
 10
158.3330517972
 20
114.764678791
 30
0.0
 11
158.3330517972
 21
119.4762429557
 31
0.0
  0
ELLIPSE
  5
191
330
1F
100
AcDbEntity
  8
0
  6
PHANTOM
 62
     7
370
     0
100
AcDbEllipse
 10
198.5376851602
 20
122.2646788991
 30
0.0
 11
0.0
 21
1.000000000000014
 31
0.0
210
0.0
220
0.0
230
1.0
 40
0.7180150431
 41
3.141592653589793
 42
4.712388980384686
  0
LINE
  5
192
330
1F
100
AcDbEntity
  8
0
  6
PHANTOM
 62
     7
370
     0
100
AcDbLine
 10
198.5376885498
 20
121.2646789252
 30
0.0
 11
179.3954408134
 21
121.2646789252
 31
0.0
  0
ELLIPSE
  5
193
330
1F
100
AcDbEntity
  8
0
  6
PHANTOM
 62
     7
370
     0
100
AcDbEllipse
 10
146.1652958125
 20
114.7646788991
 30
0.0
 11
12.02081528017172
 21
0.0
 31
0.0
210
0.0
220
0.0
230
1.0
 40
0.7071067812
 41
4.909266647422643
 42
5.068817143010493
  0
SPLINE
  5
194
330
1F
100
AcDbEntity
  8
0
  6
PHANTOM
 62
     7
370
     0
100
AcDbSpline
210
0.0
220
0.0
230
1.0
 70
     8
 71
     3
 72
    13
 73
     9
 74
     0
 42
0.00000001
 43
0.00000001
 40
0.0
 40
0.0
 40
0.0
 40
0.0
 40
0.1548367478349135
 40
0.3093625516436679
 40
0.4722059019814875
 40
0.646528393412668
 40
0.8278615545554693
 40
1.0
 40
1.0
 40
1.0
 40
1.0
 10
150.3597086632763
 20
106.7989115006059
 30
0.0
 10
150.4103676802307
 20
106.813271844316
 30
0.0
 10
150.5115839804172
 20
106.8419636932132
 30
0.0
 10
150.701125832782
 20
106.9098655840211
 30
0.0
 10
150.8980445156811
 20
106.9921286217208
 30
0.0
 10
151.0871241026598
 20
107.0852795485755
 30
0.0
 10
151.2460694134442
 20
107.1789729850402
 30
0.0
 10
151.2991815753698
 20
107.224230373588
 30
0.0
 10
151.325046863607
 20
107.2462704366773
 30
0.0
  0
ELLIPSE
  5
195
330
1F
100
AcDbEntity
  8
0
  6
PHANTOM
 62
     7
370
     0
100
AcDbEllipse
 10
149.272462564
 20
114.7646788991
 30
0.0
 11
0.0
 21
8.500000000000014
 31
0.0
210
0.0
220
0.0
230
1.0
 40
0.5176380902
 41
3.626927774346515
 42
4.068620722847514
  0
ARC
  5
196
330
1F
100
AcDbEntity
  8
0
  6
PHANTOM
 62
     7
370
     0
100
AcDbCircle
 10
145.8108419311
 20
114.7137894316
 30
0.0
 40
8.616507725048965
100
AcDbArc
 50
324.1127640937
 51
343.6798305406
  0
ELLIPSE
  5
197
330
1F
100
AcDbEntity
  8
0
  6
PHANTOM
 62
     7
370
     0
100
AcDbEllipse
 10
142.5789939238
 20
114.7646788991
 30
0.0
 11
12.02081528017169
 21
0.0
 31
0.0
210
0.0
220
0.0
230
1.0
 40
0.7071067812
 41
5.988077237439317
 42
6.283185307179586
  0
LINE
  5
198
330
1F
100
AcDbEntity
  8
0
  6
PHANTOM
 62
     7
370
     0
100
AcDbLine
 10
154.599808004
 20
114.764678791
 30
0.0
 11
154.599808004
 21
117.876503097
 31
0.0
  0
SPLINE
  5
199
330
1F
100
AcDbEntity
  8
0
  6
PHANTOM
 62
     7
370
     0
100
AcDbSpline
210
0.0
220
0.0
230
1.0
 70
    24
 71
     3
 72
    11
 73
     7
 74
     0
 42
0.00000001
 43
0.00000001
 40
0.0
 40
0.0
 40
0.0
 40
0.0
 40
0.1320858737415744
 40
0.2981935477860765
 40
0.5686332116893424
 40
1.0
 40
1.0
 40
1.0
 40
1.0
 10
205.9557026589428
 20
163.9220305121273
 30
0.0
 10
205.9557026589428
 20
164.0145531794649
 30
0.0
 10
205.9557026589428
 20
164.2234298870377
 30
0.0
 10
205.9557026589429
 20
164.5552652638013
 30
0.0
 10
205.9557026589428
 20
164.9390271175732
 30
0.0
 10
205.9557026589428
 20
165.0830874548243
 30
0.0
 10
205.9557026589428
 20
165.1716344392628
 30
0.0
  0
LINE
  5
19A
330
1F
100
AcDbEntity
  8
0
  6
PHANTOM
 62
     7
370
     0
100
AcDbLine
 10
205.9557026589
 20
121.5930402147
 30
0.0
 11
205.9557026589
 21
122.2646790891
 31
0.0
  0
SPLINE
  5
19B
330
1F
100
AcDbEntity
  8
0
  6
PHANTOM
 62
     7
370
     0
100
AcDbSpline
210
0.0
220
0.0
230
1.0
 70
     8
 71
     3
 72
     9
 73
     5
 74
     0
 42
0.00000001
 43
0.00000001
 40
0.0
 40
0.0
 40
0.0
 40
0.0
 40
0.6603475838245207
 40
1.0
 40
1.0
 40
1.0
 40
1.0
 10
206.2683513725315
 20
121.2957480790794
 30
0.0
 10
206.1525295712609
 20
121.3072952962333
 30
0.0
 10
205.9771343640884
 20
121.3247818706326
 30
0.0
 10
205.9611364045529
 20
121.5250266064041
 30
0.0
 10
205.9557026589428
 20
121.5930402147353
 30
0.0
  0
LINE
  5
19C
330
1F
100
AcDbEntity
  8
0
  6
PHANTOM
 62
     7
370
     0
100
AcDbLine
 10
206.0657477344
 20
121.2646789252
 30
0.0
 11
198.5376885498
 21
121.2646789252
 31
0.0
  0
LINE
  5
19D
330
1F
100
AcDbEntity
  8
0
  6
PHANTOM
 62
     7
370
     0
100
AcDbLine
 10
205.9557026589
 20
163.9220305121
 30
0.0
 11
205.9557026589
 21
122.2646790891
 31
0.0
  0
SPLINE
  5
19E
330
1F
100
AcDbEntity
  8
0
  6
PHANTOM
 62
     7
370
     0
100
AcDbSpline
210
0.0
220
0.0
230
1.0
 70
     8
 71
     3
 72
    10
 73
     6
 74
     0
 42
0.00000001
 43
0.00000001
 40
0.0
 40
0.0
 40
0.0
 40
0.0
 40
0.4346142316061369
 40
0.8689664787222323
 40
1.0
 40
1.0
 40
1.0
 40
1.0
 10
208.3485907280956
 20
166.481409255299
 30
0.0
 10
208.2574007096023
 20
166.405591855986
 30
0.0
 10
208.0750756417556
 20
166.2540027599194
 30
0.0
 10
207.8161387180262
 20
166.1820432903215
 30
0.0
 10
207.6743474085281
 20
166.1731802051993
 30
0.0
 10
207.641485925964
 20
166.1711261010498
 30
0.0
  0
LINE
  5
19F
330
1F
100
AcDbEntity
  8
0
  6
PHANTOM
 62
     7
370
     0
100
AcDbLine
 10
208.3485907281
 20
166.4814092553
 30
0.0
 11
208.955701288
 21
167.0970321036
 31
0.0
  0
SPLINE
  5
1A0
330
1F
100
AcDbEntity
  8
0
  6
PHANTOM
 62
     7
370
     0
100
AcDbSpline
210
0.0
220
0.0
230
1.0
 70
     8
 71
     3
 72
    11
 73
     7
 74
     0
 42
0.00000001
 43
0.00000001
 40
0.0
 40
0.0
 40
0.0
 40
0.0
 40
0.3025167849243427
 40
0.6049957873147639
 40
0.9081425792247926
 40
1.0
 40
1.0
 40
1.0
 40
1.0
 10
208.955701288036
 20
121.276212191093
 30
0.0
 10
208.6190434217133
 20
121.2730732389445
 30
0.0
 10
207.9457697356184
 20
121.2667957266839
 30
0.0
 10
207.0527033347337
 20
121.2694205603389
 30
0.0
 10
206.5224489744568
 20
121.277175801348
 30
0.0
 10
206.3162926123703
 20
121.2922440002753
 30
0.0
 10
206.2683513725315
 20
121.2957480790794
 30
0.0
  0
LINE
  5
1A1
330
1F
100
AcDbEntity
  8
0
  6
PHANTOM
 62
     7
370
     0
100
AcDbLine
 10
210.5037829245
 20
121.2646789252
 30
0.0
 11
208.955701288
 21
121.2762121911
 31
0.0
  0
LINE
  5
1A2
330
1F
100
AcDbEntity
  8
0
  6
PHANTOM
 62
     7
370
     0
100
AcDbLine
 10
210.5037829245
 20
121.2646789252
 30
0.0
 11
206.0657477344
 21
121.2646789252
 31
0.0
  0
LINE
  5
1A3
330
1F
100
AcDbEntity
  8
0
  6
PHANTOM
 62
     7
370
     0
100
AcDbLine
 10
219.5158785546
 20
163.6837609446
 30
0.0
 11
219.5158785546
 21
171.3199504054
 31
0.0
  0
LINE
  5
1A4
330
1F
100
AcDbEntity
  8
0
  6
PHANTOM
 62
     7
370
     0
100
AcDbLine
 10
219.5158785546
 20
163.6837609446
 30
0.0
 11
219.4693720305
 21
163.6749729848
 31
0.0
  0
ELLIPSE
  5
1A5
330
1F
100
AcDbEntity
  8
0
  6
PHANTOM
 62
     7
370
     0
100
AcDbEllipse
 10
220.1335966681
 20
160.2632466567
 30
0.0
 11
3.526284389105967
 21
0.0
 31
0.0
210
0.0
220
0.0
230
1.0
 40
0.9851478631
 41
1.760291809115489
 42
4.536304122047188
  0
LINE
  5
1A6
330
1F
100
AcDbEntity
  8
0
  6
PHANTOM
 62
     7
370
     0
100
AcDbLine
 10
219.5158785546
 20
121.2776899672
 30
0.0
 11
219.5158785546
 21
156.8430513478
 31
0.0
  0
ARC
  5
1A7
330
1F
100
AcDbEntity
  8
0
  6
PHANTOM
 62
     7
370
     0
100
AcDbCircle
 10
219.3550869804
 20
122.2646788991
 30
0.0
 40
1.000000000000006
100
AcDbArc
 50
270.0
 51
279.2526463269
  0
LINE
  5
1A8
330
1F
100
AcDbEntity
  8
0
  6
PHANTOM
 62
     7
370
     0
100
AcDbLine
 10
208.955701288
 20
167.0970321036
 30
0.0
 11
211.4339581097
 21
169.5931889451
 31
0.0
  0
ELLIPSE
  5
1A9
330
1F
100
AcDbEntity
  8
0
  6
PHANTOM
 62
     7
370
     0
100
AcDbEllipse
 10
547.0725806994
 20
187.8229424713
 30
0.0
 11
2008.047531480956
 21
420.4804207281884
 31
0.0
210
0.0
220
0.0
230
0.9999999999999997
 40
0.0251651217
 41
1.729378765801479
 42
1.733459498426959
  0
LINE
  5
1AA
330
1F
100
AcDbEntity
  8
0
  6
PHANTOM
 62
     7
370
     0
100
AcDbLine
 10
210.5037829245
 20
121.2646789252
 30
0.0
 11
219.3550875748
 21
121.2646789252
 31
0.0
  0
CIRCLE
  5
1AB
330
1F
100
AcDbEntity
  8
0
  6
PHANTOM
 62
     7
370
     0
100
AcDbCircle
 10
225.3809866213
 20
152.158954257
 30
0.0
 40
3.879320583054014
  0
LINE
  5
1AC
330
1F
100
AcDbEntity
  8
0
  6
PHANTOM
 62
     7
370
     0
100
AcDbLine
 10
220.7787817681
 20
156.8326242602
 30
0.0
 11
235.7885426248
 21
159.4868451691
 31
0.0
  0
LINE
  5
1AD
330
1F
100
AcDbEntity
  8
0
  6
PHANTOM
 62
     7
370
     0
100
AcDbLine
 10
235.7885426248
 20
137.2839194125
 30
0.0
 11
235.7885426248
 21
159.4868451691
 31
0.0
  0
LINE
  5
1AE
330
1F
100
AcDbEntity
  8
0
  6
PHANTOM
 62
     7
370
     0
100
AcDbLine
 10
220.0621923769
 20
121.5575721915
 30
0.0
 11
235.7885426248
 21
137.2839194125
 31
0.0
  0
ARC
  5
1AF
330
1F
100
AcDbEntity
  8
0
  6
PHANTOM
 62
     7
370
     0
100
AcDbCircle
 10
220.1755343484
 20
160.2538596102
 30
0.0
 40
3.474011912694986
100
AcDbArc
 50
259.0540438786
 51
279.999859021
  0
ARC
  5
1B0
330
1F
100
AcDbEntity
  8
0
  6
PHANTOM
 62
     7
370
     0
100
AcDbCircle
 10
219.3550869804
 20
122.2646788991
 30
0.0
 40
1.000000000000006
100
AcDbArc
 50
279.2526463269
 51
315.0
  0
CIRCLE
  5
1B1
330
1F
100
AcDbEntity
  8
0
  6
PHANTOM
 62
     7
370
     0
100
AcDbCircle
 10
225.3201109817
 20
152.1045491543
 30
0.0
 40
3.470175402211206
  0
LWPOLYLINE
  5
1B2
330
1F
100
AcDbEntity
  8
0
  6
PHANTOM
 62
     7
370
     0
100
AcDbPolyline
 90
        3
 70
   128
 43
0.0
 10
218.7510317529
 20
162.9619896746
 10
217.89031088
 20
162.6892574466
 10
217.3072656954
 20
162.3406038022
  0
LINE
  5
1B3
330
1F
100
AcDbEntity
  8
0
  6
PHANTOM
 62
     7
370
     0
100
AcDbLine
 10
220.2806284988
 20
163.2324718273
 30
0.0
 11
220.9996542299
 21
163.9461405909
 31
0.0
  0
LINE
  5
1B4
330
1F
100
AcDbEntity
  8
0
  6
PHANTOM
 62
     7
370
     0
100
AcDbLine
 10
220.2806284988
 20
163.2324718273
 30
0.0
 11
220.2991282905
 21
163.2357426322
 31
0.0
  0
LINE
  5
1B5
330
1F
100
AcDbEntity
  8
0
  6
PHANTOM
 62
     7
370
     0
100
AcDbLine
 10
218.189220723
 20
162.4043584204
 30
0.0
 11
220.3059679235
 21
162.7786718643
 31
0.0
  0
LINE
  5
1B6
330
1F
100
AcDbEntity
  8
0
  6
PHANTOM
 62
     7
370
     0
100
AcDbLine
 10
220.9996542299
 20
163.9461405909
 30
0.0
 11
219.5158785546
 21
163.6837609446
 31
0.0
  0
LINE
  5
1B7
330
1F
100
AcDbEntity
  8
0
  6
PHANTOM
 62
     7
370
     0
100
AcDbLine
 10
220.8848705853
 20
171.6187335885
 30
0.0
 11
220.9996542299
 21
163.9461405909
 31
0.0
  0
ELLIPSE
  5
1B8
330
1F
100
AcDbEntity
  8
0
  6
PHANTOM
 62
     7
370
     0
100
AcDbEllipse
 10
276.5818904098
 20
130.3283713795
 30
0.0
 11
349.6968378692354
 21
69.22747230183634
 31
0.0
210
0.0
220
0.0
230
1.0
 40
0.1452100801
 41
1.701944718229895
 42
1.705909743914329
  0
LINE
  5
1B9
330
1F
100
AcDbEntity
  8
0
  6
PHANTOM
 62
     7
370
     0
100
AcDbLine
 10
211.4338761533
 20
169.5995033121
 30
0.0
 11
211.4339581097
 21
169.5931889451
 31
0.0
  0
ELLIPSE
  5
1BA
330
1F
100
AcDbEntity
  8
0
  6
PHANTOM
 62
     7
370
     0
100
AcDbEllipse
 10
220.6596911793
 20
118.4417409901
 30
0.0
 11
0.1678502544293394
 21
53.17928795837165
 31
0.0
210
0.0
220
0.0
230
0.9999999999999997
 40
0.1209221839
 41
6.274268967298879
 42
6.309281364791032
  0
LINE
  5
1BB
330
1F
100
AcDbEntity
  8
0
  6
PHANTOM
 62
     7
370
     0
100
AcDbLine
 10
219.9101856316
 20
156.9010131395
 30
0.0
 11
219.4504475558
 21
156.8551510907
 31
0.0
  0
ARC
  5
1BC
330
1F
100
AcDbEntity
  8
0
  6
PHANTOM
 62
     7
370
     0
100
AcDbCircle
 10
219.2732878097
 20
159.9879266012
 30
0.0
 40
3.019569928558778
100
AcDbArc
 50
99.9597957968
 51
134.7679313853
  0
LINE
  5
1BD
330
1F
100
AcDbEntity
  8
0
  6
PHANTOM
 62
     7
370
     0
100
AcDbLine
 10
220.554042455
 20
157.0148691869
 30
0.0
 11
219.9101856316
 21
156.9010131395
 31
0.0
  0
LWPOLYLINE
  5
1BE
330
1F
100
AcDbEntity
  8
0
  6
PHANTOM
 62
     7
370
     0
100
AcDbPolyline
 90
        3
 70
   128
 43
0.0
 10
217.0528954232
 20
161.9535573161
 10
217.3613494599
 20
162.1310562229
 10
218.189220723
 20
162.4043584204
  0
LINE
  5
1BF
330
1F
100
AcDbEntity
  8
0
  6
PHANTOM
 62
     7
370
     0
100
AcDbLine
 10
178.9012810553
 20
115.264678873
 30
0.0
 11
219.3550875748
 21
115.264678873
 31
0.0
  0
ELLIPSE
  5
1C0
330
1F
100
AcDbEntity
  8
0
  6
PHANTOM
 62
     7
370
     0
100
AcDbEllipse
 10
221.838656132
 20
87.9349394381
 30
0.0
 11
3.909357488728091
 21
-2.088225304438552
 31
0.0
210
0.0
220
0.0
230
0.9999999999999998
 40
0.9427838111
 41
0.0
 42
6.283185307179586
  0
LINE
  5
1C1
330
1F
100
AcDbEntity
  8
0
  6
PHANTOM
 62
     7
370
     0
100
AcDbLine
 10
232.5615620578
 20
101.3170257545
 30
0.0
 11
233.0719268287
 21
68.3241226113
 31
0.0
  0
LINE
  5
1C2
330
1F
100
AcDbEntity
  8
0
  6
PHANTOM
 62
     7
370
     0
100
AcDbLine
 10
232.217792269
 20
67.5208792425
 30
0.0
 11
233.0719268287
 21
68.3241226113
 31
0.0
  0
ELLIPSE
  5
1C3
330
1F
100
AcDbEntity
  8
0
  6
PHANTOM
 62
     7
370
     0
100
AcDbEllipse
 10
314.7872355332
 20
98.0801896218
 30
0.0
 11
193.7205254991664
 21
-44.35019612537355
 31
0.0
210
0.0
220
0.0
230
1.0
 40
0.2612235458
 41
4.219831022349172
 42
4.332641475869732
  0
SPLINE
  5
1C4
330
1F
100
AcDbEntity
  8
0
  6
PHANTOM
 62
     7
370
     0
100
AcDbSpline
210
0.0
220
0.0
230
1.0
 70
     8
 71
     3
 72
    12
 73
     8
 74
     0
 42
0.00000001
 43
0.00000001
 40
0.0
 40
0.0
 40
0.0
 40
0.0
 40
0.2232770397333587
 40
0.4468356401984595
 40
0.6634950561437145
 40
0.8734719333173957
 40
1.0
 40
1.0
 40
1.0
 40
1.0
 10
171.1533477867161
 20
70.73039192322194
 30
0.0
 10
171.0379317376253
 20
70.74137255161149
 30
0.0
 10
170.8069540954718
 20
70.76334765537531
 30
0.0
 10
170.5015388559861
 20
70.93821346053359
 30
0.0
 10
170.2787336997689
 20
71.1940434967095
 30
0.0
 10
170.1698658539326
 20
71.46536660154682
 30
0.0
 10
170.1595710554136
 20
71.6386804042087
 30
0.0
 10
170.1557001436268
 20
71.70384753111303
 30
0.0
  0
ELLIPSE
  5
1C5
330
1F
100
AcDbEntity
  8
0
  6
PHANTOM
 62
     7
370
     0
100
AcDbEllipse
 10
205.6844481631
 20
117.2646788991
 30
0.0
 11
175.4063879557823
 21
-1.421085471520200E-14
 31
0.0
210
0.0
220
0.0
230
1.0
 40
0.2679491924
 41
4.503872337630726
 42
4.506679877700233
  0
LINE
  5
1C6
330
1F
100
AcDbEntity
  8
0
  6
PHANTOM
 62
     7
370
     0
100
AcDbLine
 10
169.8557025159
 20
70.7303919232
 30
0.0
 11
169.8557025159
 21
70.2646784819
 31
0.0
  0
LINE
  5
1C7
330
1F
100
AcDbEntity
  8
0
  6
PHANTOM
 62
     7
370
     0
100
AcDbLine
 10
169.8557025159
 20
70.7303919232
 30
0.0
 11
171.1533477867
 21
70.7303919232
 31
0.0
  0
LINE
  5
1C8
330
1F
100
AcDbEntity
  8
0
  6
PHANTOM
 62
     7
370
     0
100
AcDbLine
 10
175.8556997741
 20
70.3740232027
 30
0.0
 11
175.6753882731
 21
70.3719966448
 31
0.0
  0
SPLINE
  5
1C9
330
1F
100
AcDbEntity
  8
0
  6
PHANTOM
 62
     7
370
     0
100
AcDbSpline
210
0.0
220
0.0
230
1.0
 70
     8
 71
     3
 72
    17
 73
    13
 74
     0
 42
0.00000001
 43
0.00000001
 40
0.0
 40
0.0
 40
0.0
 40
0.0
 40
0.0397899463024167
 40
0.1448025078666968
 40
0.250184142817226
 40
0.3567846805276521
 40
0.4648592535825494
 40
0.5740320523544219
 40
0.6835216755745658
 40
0.7924275391048327
 40
0.9000296366678116
 40
1.0
 40
1.0
 40
1.0
 40
1.0
 10
172.6482248271023
 20
70.26751715305745
 30
0.0
 10
172.6371204777553
 20
70.26677746040991
 30
0.0
 10
172.5967098267469
 20
70.26408559071992
 30
0.0
 10
172.9009623955889
 20
70.28446823438358
 30
0.0
 10
173.5228223063503
 20
70.31968453228173
 30
0.0
 10
174.4282349879078
 20
70.35641936879794
 30
0.0
 10
175.4952837386693
 20
70.3769497877967
 30
0.0
 10
176.6134583240319
 20
70.37228657058043
 30
0.0
 10
177.6514599179085
 20
70.34370064985788
 30
0.0
 10
178.4733230666209
 20
70.30474984240101
 30
0.0
 10
179.0106202260642
 20
70.2712459504874
 30
0.0
 10
179.0681219325895
 20
70.26725080914542
 30
0.0
 10
179.0958157146488
 20
70.26532668236196
 30
0.0
  0
SPLINE
  5
1CA
330
1F
100
AcDbEntity
  8
0
  6
PHANTOM
 62
     7
370
     0
100
AcDbSpline
210
0.0
220
0.0
230
1.0
 70
     8
 71
     3
 72
     9
 73
     5
 74
     0
 42
0.00000001
 43
0.00000001
 40
0.0
 40
0.0
 40
0.0
 40
0.0
 40
0.0300168465608988
 40
1.0
 40
1.0
 40
1.0
 40
1.0
 10
176.5799930656468
 20
70.36838683846891
 30
0.0
 10
176.5732227846525
 20
70.36855745875434
 30
0.0
 10
176.3476734092222
 20
70.37424160965564
 30
0.0
 10
176.0979384638825
 20
70.37413074222778
 30
0.0
 10
175.855699774078
 20
70.37402320269048
 30
0.0
  0
LINE
  5
1CB
330
1F
100
AcDbEntity
  8
0
  6
PHANTOM
 62
     7
370
     0
100
AcDbLine
 10
170.1557001436
 20
74.2058381772
 30
0.0
 11
170.1557001436
 21
71.7038475311
 31
0.0
  0
LINE
  5
1CC
330
1F
100
AcDbEntity
  8
0
  6
PHANTOM
 62
     7
370
     0
100
AcDbLine
 10
176.9085487688
 20
115.264678873
 30
0.0
 11
178.9012810553
 21
115.264678873
 31
0.0
  0
SPLINE
  5
1CD
330
1F
100
AcDbEntity
  8
0
  6
PHANTOM
 62
     7
370
     0
100
AcDbSpline
210
0.0
220
0.0
230
1.0
 70
     8
 71
     3
 72
    14
 73
    10
 74
     0
 42
0.00000001
 43
0.00000001
 40
0.0
 40
0.0
 40
0.0
 40
0.0
 40
0.3658524076234668
 40
0.5143743935271831
 40
0.6642257931716535
 40
0.7592173161823749
 40
0.8544927864874743
 40
0.9462574847378167
 40
1.0
 40
1.0
 40
1.0
 40
1.0
 10
212.9722943866764
 20
74.46374374988973
 30
0.0
 10
212.7678185138698
 20
74.53520143567216
 30
0.0
 10
212.4803333125311
 20
74.63566818953599
 30
0.0
 10
212.0860808995474
 20
74.70024359240904
 30
0.0
 10
211.8559939676547
 20
74.70436858570147
 30
0.0
 10
211.6898814857515
 20
74.66543057862893
 30
0.0
 10
211.5963989960303
 20
74.60361966899382
 30
0.0
 10
211.5584234649906
 20
74.53506295958256
 30
0.0
 10
211.5545524425881
 20
74.49001274451597
 30
0.0
 10
211.5531226957356
 20
74.47337362531125
 30
0.0
  0
SPLINE
  5
1CE
330
1F
100
AcDbEntity
  8
0
  6
PHANTOM
 62
     7
370
     0
100
AcDbSpline
210
0.0
220
0.0
230
1.0
 70
     8
 71
     3
 72
    14
 73
    10
 74
     0
 42
0.00000001
 43
0.00000001
 40
0.0
 40
0.0
 40
0.0
 40
0.0
 40
0.2447034175667986
 40
0.3693868908476068
 40
0.4940697579597759
 40
0.6384675693562396
 40
0.7828646539153771
 40
0.9311075958796525
 40
1.0
 40
1.0
 40
1.0
 40
1.0
 10
211.5531226957356
 20
74.47337362531125
 30
0.0
 10
211.5324782350862
 20
73.34226954672285
 30
0.0
 10
211.501314824259
 20
71.63483520449198
 30
0.0
 10
211.4748141570821
 20
69.9211852491818
 30
0.0
 10
211.458041849718
 20
68.77391992942414
 30
0.0
 10
211.4454861714973
 20
67.84812663078675
 30
0.0
 10
211.4372993225038
 20
67.20620024968666
 30
0.0
 10
211.4333955833606
 20
66.89196576300401
 30
0.0
 10
211.4337604036135
 20
66.92072863995978
 30
0.0
 10
211.4338761532818
 20
66.9298544860214
 30
0.0
  0
ELLIPSE
  5
1CF
330
1F
100
AcDbEntity
  8
0
  6
PHANTOM
 62
     7
370
     0
100
AcDbEllipse
 10
221.4657892718
 20
117.9162753691
 30
0.0
 11
-0.167850254429311
 21
53.17928795837165
 31
0.0
210
0.0
220
0.0
230
0.9999999999999997
 40
0.1209221839
 41
2.94766157922058
 42
3.035379374428425
  0
ELLIPSE
  5
1D0
330
1F
100
AcDbEntity
  8
0
  6
PHANTOM
 62
     7
370
     0
100
AcDbEllipse
 10
236.6036782822
 20
114.6986177302
 30
0.0
 11
349.6968378692362
 21
-69.22747230183646
 31
0.0
210
0.0
220
0.0
230
1.0
 40
0.1452100801
 41
4.694105159725
 42
4.696370207991896
  0
ELLIPSE
  5
1D1
330
1F
100
AcDbEntity
  8
0
  6
PHANTOM
 62
     7
370
     0
100
AcDbEllipse
 10
220.6596911793
 20
118.0876168081
 30
0.0
 11
-0.167850254429311
 21
53.17928795837165
 31
0.0
210
0.0
220
0.0
230
0.9999999999999997
 40
0.1209221839
 41
3.037644422695318
 42
3.042247027469069
  0
SPLINE
  5
1D2
330
1F
100
AcDbEntity
  8
0
  6
PHANTOM
 62
     7
370
     0
100
AcDbSpline
210
0.0
220
0.0
230
1.0
 70
     8
 71
     3
 72
     9
 73
     5
 74
     0
 42
0.00000001
 43
0.00000001
 40
0.0
 40
0.0
 40
0.0
 40
0.0
 40
0.4885580960756109
 40
0.9999999999999999
 40
0.9999999999999999
 40
0.9999999999999999
 40
0.9999999999999999
 10
233.6449360812222
 20
63.28758228186071
 30
0.0
 10
233.4070980381957
 20
63.81060989696829
 30
0.0
 10
232.9202817415528
 20
64.88116346942746
 30
0.0
 10
232.4555106051134
 20
66.62770857172234
 30
0.0
 10
232.2178071702038
 20
67.52096492412984
 30
0.0
  0
ELLIPSE
  5
1D3
330
1F
100
AcDbEntity
  8
0
  6
PHANTOM
 62
     7
370
     0
100
AcDbEllipse
 10
205.3664650774
 20
121.3382923651
 30
0.0
 11
349.696837869236
 21
-69.22747230183644
 31
0.0
210
0.0
220
0.0
230
1.0
 40
0.1452100801
 41
4.784088003199734
 42
4.822048013088394
  0
LINE
  5
1D4
330
1F
100
AcDbEntity
  8
0
  6
PHANTOM
 62
     7
370
     0
100
AcDbLine
 10
220.0621923769
 20
114.9717856067
 30
0.0
 11
232.6516395772
 21
102.3823414332
 31
0.0
  0
ELLIPSE
  5
1D5
330
1F
100
AcDbEntity
  8
0
  6
PHANTOM
 62
     7
370
     0
100
AcDbEllipse
 10
232.6981020754
 20
100.9216638041
 30
0.0
 11
-0.05827440475101753
 21
1.466464742208715
 31
0.0
210
0.0
220
0.0
230
1.0
 40
0.0855122968
 41
6.190858822458108
 42
7.577605107886354
  0
ARC
  5
1D6
330
1F
100
AcDbEntity
  8
0
  6
PHANTOM
 62
     7
370
     0
100
AcDbCircle
 10
219.3550869804
 20
114.2646788991
 30
0.0
 40
1.0
100
AcDbArc
 50
45.0
 51
90.0
  0
SPLINE
  5
1D7
330
1F
100
AcDbEntity
  8
0
  6
PHANTOM
 62
     7
370
     0
100
AcDbSpline
210
0.0
220
0.0
230
1.0
 70
     8
 71
     3
 72
     9
 73
     5
 74
     0
 42
0.00000001
 43
0.00000001
 40
0.0
 40
0.0
 40
0.0
 40
0.0
 40
0.5009387842396688
 40
1.0
 40
1.0
 40
1.0
 40
1.0
 10
233.071926828674
 20
68.32412261131704
 30
0.0
 10
233.3067332543342
 20
67.46088785980886
 30
0.0
 10
233.7754660277742
 20
65.73765384665812
 30
0.0
 10
234.2639266574751
 20
64.67733121877049
 30
0.0
 10
234.5076984131848
 20
64.1481653189987
 30
0.0
  0
LINE
  5
1D8
330
1F
100
AcDbEntity
  8
0
  6
PHANTOM
 62
     7
370
     0
100
AcDbLine
 10
234.5076984132
 20
64.1481615937
 30
0.0
 11
233.6449211801
 21
63.2875077761
 31
0.0
  0
LINE
  5
1D9
330
1F
100
AcDbEntity
  8
0
  6
PHANTOM
 62
     7
370
     0
100
AcDbLine
 10
235.7885426248
 20
99.2454383856
 30
0.0
 11
235.7885426248
 21
77.3770362473
 31
0.0
  0
LINE
  5
1DA
330
1F
100
AcDbEntity
  8
0
  6
PHANTOM
 62
     7
370
     0
100
AcDbLine
 10
235.0877857173
 20
77.7380392289
 30
0.0
 11
235.0695168937
 21
77.7561813927
 31
0.0
  0
LINE
  5
1DB
330
1F
100
AcDbEntity
  8
0
  6
PHANTOM
 62
     7
370
     0
100
AcDbLine
 10
235.0695168937
 20
77.7561813927
 30
0.0
 11
235.0695168937
 21
76.9476741886
 31
0.0
  0
LINE
  5
1DC
330
1F
100
AcDbEntity
  8
0
  6
PHANTOM
 62
     7
370
     0
100
AcDbLine
 10
235.0695168937
 20
76.9476741886
 30
0.0
 11
234.5076984132
 21
77.5053017176
 31
0.0
  0
LINE
  5
1DD
330
1F
100
AcDbEntity
  8
0
  6
PHANTOM
 62
     7
370
     0
100
AcDbLine
 10
234.5076984132
 20
64.1481615937
 30
0.0
 11
234.5076984132
 21
77.5053017176
 31
0.0
  0
LINE
  5
1DE
330
1F
100
AcDbEntity
  8
0
  6
PHANTOM
 62
     7
370
     0
100
AcDbLine
 10
235.7885426248
 20
99.2454383856
 30
0.0
 11
232.6516395772
 21
102.3823414332
 31
0.0
  0
LINE
  5
1DF
330
1F
100
AcDbEntity
  8
0
  6
PHANTOM
 62
     7
370
     0
100
AcDbLine
 10
235.0695168937
 20
76.9476741886
 30
0.0
 11
234.862197038
 21
76.9843310452
 31
0.0
  0
LINE
  5
1E0
330
1F
100
AcDbEntity
  8
0
  6
PHANTOM
 62
     7
370
     0
100
AcDbLine
 10
220.9548240865
 20
65.2925856746
 30
0.0
 11
220.9509646857
 21
65.0345199144
 31
0.0
  0
LINE
  5
1E1
330
1F
100
AcDbEntity
  8
0
  6
PHANTOM
 62
     7
370
     0
100
AcDbLine
 10
169.8557025159
 20
70.7303919232
 30
0.0
 11
169.8557025159
 21
72.235450182
 31
0.0
  0
ELLIPSE
  5
1E2
330
1F
100
AcDbEntity
  8
0
  6
PHANTOM
 62
     7
370
     0
100
AcDbEllipse
 10
179.3954409218
 20
118.2646788991
 30
0.0
 11
0.0
 21
3.0
 31
0.0
210
0.0
220
0.0
230
1.0
 40
0.8403225883
 41
2.640940361172821
 42
3.141592653589793
  0
ARC
  5
1E3
330
1F
100
AcDbEntity
  8
0
  6
Continuous
 62
     7
370
    15
100
AcDbCircle
 10
149.8004346719
 20
135.1903106097
 30
0.0
 40
16.07440034998127
100
AcDbArc
 50
90.1147530107
 51
129.725786377
  0
LWPOLYLINE
  5
1E4
330
1F
100
AcDbEntity
  8
0
  6
Continuous
 62
     7
370
    15
100
AcDbPolyline
 90
       22
 70
   128
 43
0.0
 10
149.7682405973
 20
117.2646788516
 10
148.1755374337
 20
117.3448333618
 10
146.2537421251
 20
117.6586111294
 10
144.3812808359
 20
118.2055017205
 10
142.5844392145
 20
118.9778279265
 10
140.8884449268
 20
119.9647480723
 10
139.3171025777
 20
121.152407756
 10
137.8924733365
 20
122.5241353138
 10
136.6345508361
 20
124.0606741383
 10
135.5609966779
 20
125.7404545656
 10
134.6868833864
 20
127.5398964396
 10
134.0244783426
 20
129.4337399638
 10
133.583079871
 20
131.3953996039
 10
133.3688868547
 20
133.3973370827
 10
133.384905603
 20
135.4114506728
 10
133.6309088731
 20
137.4094654209
 10
134.103443321
 20
139.3633336163
 10
134.7958816553
 20
141.2456296718
 10
135.6984934176
 20
143.0299263782
 10
136.7986200715
 20
144.6911804712
 10
138.0808053875
 20
146.2060679084
 10
139.527059939
 20
147.5533247328
  0
LWPOLYLINE
  5
1E5
330
1F
100
AcDbEntity
  8
0
  6
Continuous
 62
     7
370
    15
100
AcDbPolyline
 90
       54
 70
   128
 43
0.0
 10
139.9929335678
 20
147.5533247328
 10
141.5829545224
 20
148.7140376455
 10
143.2944162155
 20
149.6719122267
 10
145.1032942498
 20
150.4135057664
 10
146.9842007721
 20
150.9284042156
 10
148.9107271994
 20
151.2093805111
 10
150.8558316494
 20
151.2524895704
 10
152.7922077442
 20
151.0571278966
 10
154.6926720405
 20
150.6260373032
 10
156.5305514598
 20
149.9652676618
 10
158.2800409163
 20
149.0840968079
 10
159.9165832961
 20
147.9948945678
 10
161.4172047341
 20
146.7129495329
 10
162.760842439
 20
145.2562567181
 10
163.9286315406
 20
143.645267967
 10
164.9041807616
 20
141.9025957918
 10
165.6737884844
 20
140.052704174
 10
166.2266588176
 20
138.121562112
 10
166.5550357068
 20
136.1362766809
 10
166.6542997921
 20
134.1247186399
 10
166.5230578149
 20
132.1151256895
 10
166.1631500686
 20
130.1357066593
 10
165.579642948
 20
128.2142503521
 10
164.78070974
 20
126.3777288011
 10
163.7775859201
 20
124.6519219464
 10
162.5843307341
 20
123.0610576792
 10
161.2177079881
 20
121.627467485
 10
159.6969029272
 20
120.3712760805
 10
158.0432577396
 20
119.3101177093
 10
156.2799921597
 20
118.4588885851
 10
154.4318532908
 20
117.8295380712
 10
152.5247877801
 20
117.4309008972
 10
150.5855655635
 20
117.2685730605
 10
148.6414110625
 20
117.3448333618
 10
146.7196157539
 20
117.6586111294
 10
144.8471544648
 20
118.2055017205
 10
143.0503128434
 20
118.9778279265
 10
141.3543185556
 20
119.9647480723
 10
139.7829762066
 20
121.152407756
 10
138.3583469654
 20
122.5241353138
 10
137.100424465
 20
124.0606741383
 10
136.0268703068
 20
125.7404545656
 10
135.1527570153
 20
127.5398964396
 10
134.4903519714
 20
129.4337399638
 10
134.0489534998
 20
131.3953996039
 10
133.8347604836
 20
133.3973370827
 10
133.8507792318
 20
135.4114506728
 10
134.096782502
 20
137.4094654209
 10
134.5693169499
 20
139.3633336163
 10
135.2617552841
 20
141.2456296718
 10
136.1643707717
 20
143.0299263782
 10
137.2644937003
 20
144.6911804712
 10
138.5466827417
 20
146.2060679084
 10
139.9929335678
 20
147.5533247328
  0
LWPOLYLINE
  5
1E6
330
1F
100
AcDbEntity
  8
0
  6
Continuous
 62
     7
370
    15
100
AcDbPolyline
 90
       35
 70
   128
 43
0.0
 10
156.7286772991
 20
128.7928838617
 10
157.6280555094
 20
129.688249003
 10
158.3532018924
 20
130.7394598013
 10
158.8794252241
 20
131.9107171482
 10
159.1888031328
 20
133.1621362231
 10
159.2708042229
 20
134.4511006362
 10
159.1226308013
 20
135.7337162233
 10
158.7493306363
 20
136.9663067496
 10
158.1636144186
 20
138.1068956441
 10
157.3854310775
 20
139.1166430301
 10
156.4412786031
 20
139.9611626155
 10
155.3633137012
 20
140.6116951591
 10
154.1882379318
 20
141.0460863597
 10
152.9560683632
 20
141.2495468146
 10
151.7087703908
 20
141.2151456213
 10
150.4888160492
 20
140.9440543837
 10
149.3377460504
 20
140.445504371
 10
148.2947653497
 20
139.7364735937
 10
147.3953871394
 20
138.8411093837
 10
146.6702407563
 20
137.7898976541
 10
146.1440174246
 20
136.6186403072
 10
145.8346357906
 20
135.3672221637
 10
145.7526384259
 20
134.0782568193
 10
145.9008118475
 20
132.7956412322
 10
146.2741120124
 20
131.5630516371
 10
146.8598282302
 20
130.4224618113
 10
147.6380115712
 20
129.4127144254
 10
148.5821640456
 20
128.5681957713
 10
149.6601289475
 20
127.9176632277
 10
150.835204717
 20
127.4832710958
 10
152.0673742855
 20
127.2798106408
 10
153.314672258
 20
127.3142127654
 10
154.5346265996
 20
127.5853040031
 10
155.6856965983
 20
128.0838540158
 10
156.7286772991
 20
128.7928838617
  0
LWPOLYLINE
  5
1E7
330
1F
100
AcDbEntity
  8
0
  6
Continuous
 62
     7
370
    15
100
AcDbPolyline
 90
       49
 70
   128
 43
0.0
 10
158.7663775647
 20
123.32108853
 10
160.0739768112
 20
124.5543924494
 10
161.2148916686
 20
125.9538419879
 10
162.1696165169
 20
127.4954928419
 10
162.9217973316
 20
129.1529657653
 10
163.4585669601
 20
130.8979010544
 10
163.7707537377
 20
132.7004433012
 10
163.8530006969
 20
134.5297508276
 10
163.7039145792
 20
136.3545209504
 10
163.3260360325
 20
138.1435357368
 10
162.7258321608
 20
139.8661807514
 10
161.9135773147
 20
141.4929833597
 10
160.9031593764
 20
142.9961063302
 10
159.7118785942
 20
144.3498339838
 10
158.3601160312
 20
145.5310006029
 10
156.8709982896
 20
146.5193964875
 10
155.2700026298
 20
147.298112545
 10
153.5845211113
 20
147.8538215494
 10
151.8433986569
 20
148.1770184225
 10
150.0764264131
 20
148.2621692455
 10
148.3138313854
 20
148.1078192926
 10
146.5857772494
 20
147.7166116572
 10
144.9218279088
 20
147.095235098
 10
143.3504594827
 20
146.254325319
 10
141.8985536659
 20
145.2082693911
 10
140.5909544194
 20
143.9749654717
 10
139.4500358367
 20
142.5755154676
 10
138.4953147138
 20
141.0338655448
 10
137.743133899
 20
139.3763926214
 10
137.2063605452
 20
137.6314573324
 10
136.8941774929
 20
135.8289141542
 10
136.8119268084
 20
133.9996066279
 10
136.9610166514
 20
132.1748355738
 10
137.3388951982
 20
130.3858226499
 10
137.9390990699
 20
128.6631767041
 10
138.751353916
 20
127.036375027
 10
139.7617681289
 20
125.5332511252
 10
140.9530489111
 20
124.1795244029
 10
142.3048114741
 20
122.9983577839
 10
143.793932941
 20
122.0099607351
 10
145.3949286008
 20
121.2312456089
 10
147.0804063941
 20
120.675535906
 10
148.8215288485
 20
120.3523401971
 10
150.5885048175
 20
120.2671884428
 10
152.3510998452
 20
120.4215376972
 10
154.0791539813
 20
120.8127469624
 10
155.7430995966
 20
121.4341225902
 10
157.3144717479
 20
122.2750326021
 10
158.7663775647
 20
123.32108853
  0
LINE
  5
1E8
330
1F
100
AcDbEntity
  8
0
  6
Continuous
 62
     7
370
    15
100
AcDbLine
 10
156.8710020149
 20
137.8654595799
 30
0.0
 11
157.7034740115
 21
132.1566440499
 31
0.0
  0
LINE
  5
1E9
330
1F
100
AcDbEntity
  8
0
  6
Continuous
 62
     7
370
    15
100
AcDbLine
 10
151.6792511905
 20
139.9734933263
 30
0.0
 11
156.8710020149
 21
137.8654595799
 31
0.0
  0
LINE
  5
1EA
330
1F
100
AcDbEntity
  8
0
  6
Continuous
 62
     7
370
    15
100
AcDbLine
 10
147.3199686373
 20
136.3727134055
 30
0.0
 11
151.6792511905
 21
139.9734933263
 31
0.0
  0
LINE
  5
1EB
330
1F
100
AcDbEntity
  8
0
  6
Continuous
 62
     7
370
    15
100
AcDbLine
 10
148.1524406338
 20
130.6638988069
 30
0.0
 11
147.3199686373
 21
136.3727134055
 31
0.0
  0
LINE
  5
1EC
330
1F
100
AcDbEntity
  8
0
  6
Continuous
 62
     7
370
    15
100
AcDbLine
 10
153.3441914583
 20
128.5558641291
 30
0.0
 11
148.1524406338
 21
130.6638988069
 31
0.0
  0
LINE
  5
1ED
330
1F
100
AcDbEntity
  8
0
  6
Continuous
 62
     7
370
    15
100
AcDbLine
 10
157.7034740115
 20
132.1566440499
 30
0.0
 11
153.3441914583
 21
128.5558641291
 31
0.0
  0
LINE
  5
1EE
330
1F
100
AcDbEntity
  8
0
  6
Continuous
 62
     7
370
    15
100
AcDbLine
 10
155.5251440371
 20
137.8654595799
 30
0.0
 11
156.8710020149
 21
137.8654595799
 31
0.0
  0
LINE
  5
1EF
330
1F
100
AcDbEntity
  8
0
  6
Continuous
 62
     7
370
    15
100
AcDbLine
 10
152.9292686248
 20
138.9194764531
 30
0.0
 11
155.5251440371
 21
137.8654595799
 31
0.0
  0
LINE
  5
1F0
330
1F
100
AcDbEntity
  8
0
  6
Continuous
 62
     7
370
    15
100
AcDbLine
 10
151.2357032264
 20
139.607124064
 30
0.0
 11
152.9292686248
 21
138.9194764531
 31
0.0
  0
LINE
  5
1F1
330
1F
100
AcDbEntity
  8
0
  6
Continuous
 62
     7
370
    15
100
AcDbLine
 10
156.3576160336
 20
132.1566440499
 30
0.0
 11
157.7034740115
 21
132.1566440499
 31
0.0
  0
LINE
  5
1F2
330
1F
100
AcDbEntity
  8
0
  6
Continuous
 62
     7
370
    15
100
AcDbLine
 10
154.177974757
 20
130.3562540895
 30
0.0
 11
152.4418777192
 21
128.9222343228
 31
0.0
  0
LINE
  5
1F3
330
1F
100
AcDbEntity
  8
0
  6
Continuous
 62
     7
370
    15
100
AcDbLine
 10
156.3576160336
 20
132.1566440499
 30
0.0
 11
154.177974757
 21
130.3562540895
 31
0.0
  0
LINE
  5
1F4
330
1F
100
AcDbEntity
  8
0
  6
Continuous
 62
     7
370
    15
100
AcDbLine
 10
155.9413781727
 20
135.0110508836
 30
0.0
 11
156.3576160336
 21
132.1566440499
 31
0.0
  0
LINE
  5
1F5
330
1F
100
AcDbEntity
  8
0
  6
Continuous
 62
     7
370
    15
100
AcDbLine
 10
155.5251440371
 20
137.8654595799
 30
0.0
 11
155.9413781727
 21
135.0110508836
 31
0.0
  0
LWPOLYLINE
  5
1F6
330
1F
100
AcDbEntity
  8
0
  6
Continuous
 62
     7
370
    15
100
AcDbPolyline
 90
       26
 70
   128
 43
0.0
 10
150.2341142262
 20
148.2646782285
 10
149.9780750239
 20
148.2621692455
 10
148.2154799963
 20
148.1078192926
 10
146.4874258602
 20
147.7166116572
 10
144.8234765196
 20
147.095235098
 10
143.2521080936
 20
146.254325319
 10
141.8002022768
 20
145.2082693911
 10
140.4926030303
 20
143.9749654717
 10
139.3516844476
 20
142.5755154676
 10
138.3969633246
 20
141.0338655448
 10
137.6447825099
 20
139.3763926214
 10
137.108009156
 20
137.6314573324
 10
136.7958261037
 20
135.8289141542
 10
136.7135754192
 20
133.9996066279
 10
136.8626652623
 20
132.1748355738
 10
137.240543809
 20
130.3858226499
 10
137.8407476807
 20
128.6631767041
 10
138.6530062521
 20
127.036375027
 10
139.6634167398
 20
125.5332511252
 10
140.854697522
 20
124.1795244029
 10
142.206460085
 20
122.9983577839
 10
143.6955815518
 20
122.0099607351
 10
145.2965772117
 20
121.2312456089
 10
146.9820550049
 20
120.675535906
 10
148.7231774593
 20
120.3523401971
 10
150.2341142262
 20
120.2646789941
  0
ARC
  5
1F7
330
1F
100
AcDbEntity
  8
0
  6
Continuous
 62
     7
370
    15
100
AcDbCircle
 10
151.151075598
 20
134.0028974089
 30
0.0
 40
4.739211539705732
100
AcDbArc
 50
274.9240033338
 51
309.6943960689
  0
ARC
  5
1F8
330
1F
100
AcDbEntity
  8
0
  6
Continuous
 62
     7
370
    15
100
AcDbCircle
 10
151.1654890902
 20
134.585189878
 30
0.0
 40
4.679418592262087
100
AcDbArc
 50
67.8567967397
 51
94.4290774782
  0
ARC
  5
1F9
330
1F
100
AcDbEntity
  8
0
  6
Continuous
 62
     7
370
    15
100
AcDbCircle
 10
151.019090668
 20
134.3324727803
 30
0.0
 40
4.968841164819036
100
AcDbArc
 50
7.8492227247
 51
67.3915621826
  0
ARC
  5
1FA
330
1F
100
AcDbEntity
  8
0
  6
Continuous
 62
     7
370
    15
100
AcDbCircle
 10
150.9104033205
 20
134.2555454733
 30
0.0
 40
5.08738600736888
100
AcDbArc
 50
309.9627076714
 51
8.5403349435
  0
LINE
  5
1FB
330
1F
100
AcDbEntity
  8
0
  6
Continuous
 62
     7
370
    15
100
AcDbLine
 10
169.3557015026
 20
165.2646772898
 30
0.0
 11
169.3557015026
 21
165.2455889023
 31
0.0
  0
ELLIPSE
  5
1FC
330
1F
100
AcDbEntity
  8
0
  6
Continuous
 62
     7
370
    15
100
AcDbEllipse
 10
223.1404723054
 20
118.2646788991
 30
0.0
 11
175.4063879557336
 21
0.0
 31
0.0
210
0.0
220
0.0
230
1.0
 40
0.2679491924
 41
2.195857846112014
 42
2.208189456643683
  0
LINE
  5
1FD
330
1F
100
AcDbEntity
  8
0
  6
Continuous
 62
     7
370
    15
100
AcDbLine
 10
118.7556999141
 20
156.0362205243
 30
0.0
 11
118.7556999141
 21
147.8125825858
 31
0.0
  0
ELLIPSE
  5
1FE
330
1F
100
AcDbEntity
  8
0
  6
Continuous
 62
     7
370
    15
100
AcDbEllipse
 10
128.5493122475
 20
118.2646788991
 30
0.0
 11
0.0
 21
46.99999999999999
 31
0.0
210
0.0
220
0.0
230
1.0
 40
0.2679491924
 41
0.8909431921452888
 42
1.461740496932471
  0
ELLIPSE
  5
1FF
330
1F
100
AcDbEntity
  8
0
  6
Continuous
 62
     7
370
    15
100
AcDbEllipse
 10
119.3765022897
 20
118.2646788991
 30
0.0
 11
85.16344106702903
 21
46.69523723724977
 31
0.0
210
0.0
220
0.0
230
1.0
 40
0.0627460668
 41
1.575682007940076
 42
1.578153168185231
  0
ELLIPSE
  5
200
330
1F
100
AcDbEntity
  8
0
  6
Continuous
 62
     7
370
    15
100
AcDbEllipse
 10
137.3080117331
 20
118.2646788991
 30
0.0
 11
85.16344106702877
 21
-46.6952372372496
 31
0.0
210
0.0
220
0.0
230
1.0
 40
0.0627460668
 41
4.491862799759823
 42
4.494333306826575
  0
ELLIPSE
  5
201
330
1F
100
AcDbEntity
  8
0
  6
Continuous
 62
     7
370
    15
100
AcDbEllipse
 10
128.5493122475
 20
118.2646788991
 30
0.0
 11
0.0
 21
46.99999999999999
 31
0.0
210
0.0
220
0.0
230
1.0
 40
0.2679491924
 41
1.466682164244377
 42
2.250649461444503
  0
LINE
  5
202
330
1F
100
AcDbEntity
  8
0
  6
Continuous
 62
     7
370
    15
100
AcDbLine
 10
118.7556999141
 20
88.7167752123
 30
0.0
 11
118.7556999141
 21
80.4931372738
 31
0.0
  0
ELLIPSE
  5
203
330
1F
100
AcDbEntity
  8
0
  6
Continuous
 62
     7
370
    15
100
AcDbEllipse
 10
223.1404723054
 20
118.2646788991
 30
0.0
 11
175.4063879557336
 21
0.0
 31
0.0
210
0.0
220
0.0
230
1.0
 40
0.2679491924
 41
4.074995850535924
 42
4.087327461067593
  0
ELLIPSE
  5
204
330
1F
100
AcDbEntity
  8
0
  6
Continuous
 62
     7
370
    15
100
AcDbEllipse
 10
127.8710385873
 20
118.2646788991
 30
0.0
 11
0.0
 21
47.00000000000001
 31
0.0
210
0.0
220
0.0
230
1.0
 40
0.2679491924
 41
2.516531134272677
 42
2.653586788580615
  0
SPLINE
  5
205
330
1F
100
AcDbEntity
  8
0
  6
Continuous
 62
     7
370
    15
100
AcDbSpline
210
0.0
220
0.0
230
1.0
 70
     8
 71
     3
 72
    14
 73
    10
 74
     0
 42
0.00000001
 43
0.00000001
 40
0.0
 40
0.0
 40
0.0
 40
0.0
 40
0.25
 40
0.25
 40
0.5
 40
0.5
 40
0.75
 40
0.75
 40
1.0
 40
1.0
 40
1.0
 40
1.0
 10
121.9663288482478
 20
76.75100792426973
 30
0.0
 10
121.9908147011
 20
76.70249943547716
 30
0.0
 10
122.0379458978034
 20
76.657267566132
 30
0.0
 10
122.172540609378
 20
76.58283547446607
 30
0.0
 10
122.2613017610951
 20
76.55351375798335
 30
0.0
 10
122.4613227074061
 20
76.52269298582901
 30
0.0
 10
122.5723846328172
 20
76.52174192379834
 30
0.0
 10
122.7743120190328
 20
76.54911624231845
 30
0.0
 10
122.8659959640159
 20
76.57706827458475
 30
0.0
 10
122.9366877605836
 20
76.6140288481657
 30
0.0
  0
ARC
  5
206
330
1F
100
AcDbEntity
  8
0
  6
Continuous
 62
     7
370
    15
100
AcDbCircle
 10
101.1600178973
 20
118.2646788991
 30
0.0
 40
47.00000000000063
100
AcDbArc
 50
297.6024158678
 51
303.2612561411
  0
ELLIPSE
  5
207
330
1F
100
AcDbEntity
  8
0
  6
Continuous
 62
     7
370
    15
100
AcDbEllipse
 10
223.1404723054
 20
118.2646788991
 30
0.0
 11
175.4063879557337
 21
0.0
 31
0.0
210
0.0
220
0.0
230
1.0
 40
0.2679491924
 41
4.13187054737346
 42
4.140652883791002
  0
ELLIPSE
  5
208
330
1F
100
AcDbEntity
  8
0
  6
Continuous
 62
     7
370
    15
100
AcDbEllipse
 10
135.0436423647
 20
118.2646788991
 30
0.0
 11
0.0
 21
47.00000000000001
 31
0.0
210
0.0
220
0.0
230
1.0
 40
0.2679491924
 41
2.569856556996088
 42
2.70283937924729
  0
SPLINE
  5
209
330
1F
100
AcDbEntity
  8
0
  6
Continuous
 62
     7
370
    15
100
AcDbSpline
210
0.0
220
0.0
230
1.0
 70
     8
 71
     3
 72
    14
 73
    10
 74
     0
 42
0.00000001
 43
0.00000001
 40
0.0
 40
0.0
 40
0.0
 40
0.0
 40
0.25
 40
0.25
 40
0.5
 40
0.5
 40
0.75
 40
0.75
 40
1.0
 40
1.0
 40
1.0
 40
1.0
 10
129.6937354585604
 20
75.71642538773568
 30
0.0
 10
129.7185890143472
 20
75.67289945228923
 30
0.0
 10
129.7667307429546
 20
75.63254343008147
 30
0.0
 10
129.9029232068844
 20
75.56674446182257
 30
0.0
 10
129.9919566470324
 20
75.54121807489716
 30
0.0
 10
130.1917609898102
 20
75.51459777391139
 30
0.0
 10
130.3011655050331
 20
75.51399705886448
 30
0.0
 10
130.5015503630242
 20
75.53808668852139
 30
0.0
 10
130.593092250749
 20
75.56259041990538
 30
0.0
 10
130.6640943708962
 20
75.59538158851456
 30
0.0
  0
ARC
  5
20A
330
1F
100
AcDbEntity
  8
0
  6
Continuous
 62
     7
370
    15
100
AcDbCircle
 10
110.9579768684
 20
118.2646788991
 30
0.0
 40
47.00000000000053
100
AcDbArc
 50
294.7890821607
 51
300.2917439534
  0
ELLIPSE
  5
20B
330
1F
100
AcDbEntity
  8
0
  6
Continuous
 62
     7
370
    15
100
AcDbEllipse
 10
223.1404723054
 20
118.2646788991
 30
0.0
 11
175.4063879557336
 21
0.0
 31
0.0
210
0.0
220
0.0
230
1.0
 40
0.2679491924
 41
4.183698312226404
 42
4.192206429604664
  0
ELLIPSE
  5
20C
330
1F
100
AcDbEntity
  8
0
  6
Continuous
 62
     7
370
    15
100
AcDbEllipse
 10
142.216246142
 20
118.2646788991
 30
0.0
 11
0.0
 21
47.00000000000001
 31
0.0
210
0.0
220
0.0
230
1.0
 40
0.2679491924
 41
2.621410102809751
 42
2.750977989478792
  0
SPLINE
  5
20D
330
1F
100
AcDbEntity
  8
0
  6
Continuous
 62
     7
370
    15
100
AcDbSpline
210
0.0
220
0.0
230
1.0
 70
     8
 71
     3
 72
    14
 73
    10
 74
     0
 42
0.00000001
 43
0.00000001
 40
0.0
 40
0.0
 40
0.0
 40
0.0
 40
0.25
 40
0.25
 40
0.5
 40
0.5
 40
0.75
 40
0.75
 40
1.0
 40
1.0
 40
1.0
 40
1.0
 10
137.4211420688729
 20
74.80494464116435
 30
0.0
 10
137.4463197131584
 20
74.76625264289663
 30
0.0
 10
137.4953420224567
 20
74.73057946670738
 30
0.0
 10
137.6328999647464
 20
74.6728778769026
 30
0.0
 10
137.7221205878568
 20
74.65079826165606
 30
0.0
 10
137.9217330188494
 20
74.62791816281128
 30
0.0
 10
138.0297117847407
 20
74.62756263824664
 30
0.0
 10
138.2288323741713
 20
74.64860746245041
 30
0.0
 10
138.3202309130606
 20
74.66993781336356
 30
0.0
 10
138.3915009812087
 20
74.69878808833988
 30
0.0
  0
ARC
  5
20E
330
1F
100
AcDbEntity
  8
0
  6
Continuous
 62
     7
370
    15
100
AcDbCircle
 10
120.7559358395
 20
118.2646788991
 30
0.0
 40
47.00000000000044
100
AcDbArc
 50
292.0382069251
 51
297.4096237937
  0
ELLIPSE
  5
20F
330
1F
100
AcDbEntity
  8
0
  6
Continuous
 62
     7
370
    15
100
AcDbEllipse
 10
223.1404723054
 20
118.2646788991
 30
0.0
 11
175.4063879557337
 21
0.0
 31
0.0
210
0.0
220
0.0
230
1.0
 40
0.2679491924
 41
4.234000798452039
 42
4.242279103846132
  0
ELLIPSE
  5
210
330
1F
100
AcDbEntity
  8
0
  6
Continuous
 62
     7
370
    15
100
AcDbEllipse
 10
149.3888499194
 20
118.2646788991
 30
0.0
 11
0.0
 21
47.00000000000001
 31
0.0
210
0.0
220
0.0
230
1.0
 40
0.2679491924
 41
2.671482777051221
 42
2.798179886300005
  0
SPLINE
  5
211
330
1F
100
AcDbEntity
  8
0
  6
Continuous
 62
     7
370
    15
100
AcDbSpline
210
0.0
220
0.0
230
1.0
 70
     8
 71
     3
 72
    14
 73
    10
 74
     0
 42
0.00000001
 43
0.00000001
 40
0.0
 40
0.0
 40
0.0
 40
0.0
 40
0.25
 40
0.25
 40
0.5
 40
0.5
 40
0.75
 40
0.75
 40
1.0
 40
1.0
 40
1.0
 40
1.0
 10
145.1485486791854
 20
74.00895890139073
 30
0.0
 10
145.1740095055949
 20
73.97498112990655
 30
0.0
 10
145.2237938551359
 20
73.94382712026751
 30
0.0
 10
145.3625103783064
 20
73.89378513259717
 30
0.0
 10
145.4518615773671
 20
73.87486961173164
 30
0.0
 10
145.6512973461479
 20
73.85536978309182
 30
0.0
 10
145.7580669827134
 20
73.85518224076779
 30
0.0
 10
145.956146434244
 20
73.87337257350909
 30
0.0
 10
146.0474080335769
 20
73.89175032841568
 30
0.0
 10
146.1189075915212
 20
73.91684493696367
 30
0.0
  0
ARC
  5
212
330
1F
100
AcDbEntity
  8
0
  6
Continuous
 62
     7
370
    15
100
AcDbCircle
 10
130.5538948107
 20
118.2646788991
 30
0.0
 40
47.00000000000035
100
AcDbArc
 50
289.3398345451
 51
294.6008698704
  0
ELLIPSE
  5
213
330
1F
100
AcDbEntity
  8
0
  6
Continuous
 62
     7
370
    15
100
AcDbEllipse
 10
223.1404723054
 20
118.2646788991
 30
0.0
 11
175.4063879557336
 21
0.0
 31
0.0
210
0.0
220
0.0
230
1.0
 40
0.2679491924
 41
4.283022802292088
 42
4.29110781116914
  0
ELLIPSE
  5
214
330
1F
100
AcDbEntity
  8
0
  6
Continuous
 62
     7
370
    15
100
AcDbEllipse
 10
156.5614536967
 20
118.2646788991
 30
0.0
 11
0.0
 21
47.00000000000001
 31
0.0
210
0.0
220
0.0
230
1.0
 40
0.2679491924
 41
2.720311484374232
 42
2.844597496703163
  0
SPLINE
  5
215
330
1F
100
AcDbEntity
  8
0
  6
Continuous
 62
     7
370
    15
100
AcDbSpline
210
0.0
220
0.0
230
1.0
 70
     8
 71
     3
 72
    14
 73
    10
 74
     0
 42
0.00000001
 43
0.00000001
 40
0.0
 40
0.0
 40
0.0
 40
0.0
 40
0.25
 40
0.25
 40
0.5
 40
0.5
 40
0.75
 40
0.75
 40
1.0
 40
1.0
 40
1.0
 40
1.0
 10
152.875955289498
 20
73.3223310620866
 30
0.0
 10
152.9016605735249
 20
73.29297093215956
 30
0.0
 10
152.9520972261873
 20
73.26619825398768
 30
0.0
 10
153.0917867210853
 20
73.22345791191492
 30
0.0
 10
153.1813300761999
 20
73.20746993376228
 30
0.0
 10
153.3804003004161
 20
73.19108343235756
 30
0.0
 10
153.486261073432
 20
73.19099843759469
 30
0.0
 10
153.6834844549382
 20
73.20648591565218
 30
0.0
 10
153.7746202881714
 20
73.22208859699916
 30
0.0
 10
153.8463142018338
 20
73.24357786887694
 30
0.0
  0
ARC
  5
216
330
1F
100
AcDbEntity
  8
0
  6
Continuous
 62
     7
370
    15
100
AcDbCircle
 10
140.3518537818
 20
118.2646788991
 30
0.0
 40
47.00000000000029
100
AcDbArc
 50
286.6853843949
 51
291.8538483254
  0
ELLIPSE
  5
217
330
1F
100
AcDbEntity
  8
0
  6
Continuous
 62
     7
370
    15
100
AcDbEllipse
 10
223.1404723054
 20
118.2646788991
 30
0.0
 11
175.4063879557337
 21
0.0
 31
0.0
210
0.0
220
0.0
230
1.0
 40
0.2679491924
 41
4.330967372875749
 42
4.338889755994593
  0
ELLIPSE
  5
218
330
1F
100
AcDbEntity
  8
0
  6
Continuous
 62
     7
370
    15
100
AcDbEllipse
 10
163.7340574741
 20
118.2646788991
 30
0.0
 11
0.0
 21
47.00000000000001
 31
0.0
210
0.0
220
0.0
230
1.0
 40
0.2679491924
 41
2.768093429199687
 42
2.89036430447464
  0
SPLINE
  5
219
330
1F
100
AcDbEntity
  8
0
  6
Continuous
 62
     7
370
    15
100
AcDbSpline
210
0.0
220
0.0
230
1.0
 70
     8
 71
     3
 72
    14
 73
    10
 74
     0
 42
0.00000001
 43
0.00000001
 40
0.0
 40
0.0
 40
0.0
 40
0.0
 40
0.25
 40
0.25
 40
0.5
 40
0.5
 40
0.75
 40
0.75
 40
1.0
 40
1.0
 40
1.0
 40
1.0
 10
160.6033618998105
 20
72.74011265698451
 30
0.0
 10
160.6292746773942
 20
72.71529252507774
 30
0.0
 10
160.6802608022609
 20
72.69278633859301
 30
0.0
 10
160.8207552882946
 20
72.65705647570638
 30
0.0
 10
160.9107001661002
 20
72.64380037660449
 30
0.0
 10
161.108917293876
 20
72.63033083696227
 30
0.0
 10
161.2143152926205
 20
72.63029158380027
 30
0.0
 10
161.4108407194809
 20
72.64319679282951
 30
0.0
 10
161.5018649345591
 20
72.65616654966722
 30
0.0
 10
161.5737208121463
 20
72.6741719414439
 30
0.0
  0
ARC
  5
21A
330
1F
100
AcDbEntity
  8
0
  6
Continuous
 62
     7
370
    15
100
AcDbCircle
 10
150.1498127529
 20
118.2646788991
 30
0.0
 40
47.00000000000026
100
AcDbArc
 50
284.0673253635
 51
289.1587091086
  0
ELLIPSE
  5
21B
330
1F
100
AcDbEntity
  8
0
  6
Continuous
 62
     7
370
    15
100
AcDbEllipse
 10
223.1404723054
 20
118.2646788991
 30
0.0
 11
175.4063879557299
 21
0.0
 31
0.0
210
0.0
220
0.0
230
1.0
 40
0.2679491924
 41
4.378006426007781
 42
4.385792453182461
  0
ELLIPSE
  5
21C
330
1F
100
AcDbEntity
  8
0
  6
Continuous
 62
     7
370
    15
100
AcDbEllipse
 10
170.9066612514
 20
118.2646788991
 30
0.0
 11
0.0
 21
47.00000000000001
 31
0.0
210
0.0
220
0.0
230
1.0
 40
0.2679491924
 41
2.814996126387553
 42
2.935599283223611
  0
SPLINE
  5
21D
330
1F
100
AcDbEntity
  8
0
  6
Continuous
 62
     7
370
    15
100
AcDbSpline
210
0.0
220
0.0
230
1.0
 70
     8
 71
     3
 72
    10
 73
     6
 74
     0
 42
0.00000001
 43
0.00000001
 40
0.0
 40
0.0
 40
0.0
 40
0.0
 40
0.5
 40
0.5
 40
1.0
 40
1.0
 40
1.0
 40
1.0
 10
168.3307685101231
 20
72.25833955543324
 30
0.0
 10
168.3569794158764
 20
72.23789925754545
 30
0.0
 10
168.4087907306521
 20
72.21948728050116
 30
0.0
 10
168.5509890829296
 20
72.19046749901159
 30
0.0
 10
168.641175276474
 20
72.17988103060073
 30
0.0
 10
168.7408904432113
 20
72.17454588238408
 30
0.0
  0
ELLIPSE
  5
21E
330
1F
100
AcDbEntity
  8
0
  6
Continuous
 62
     7
370
    15
100
AcDbEllipse
 10
203.0878521517
 20
118.2646788991
 30
0.0
 11
175.4063879557336
 21
0.0
 31
0.0
210
0.0
220
0.0
230
1.0
 40
0.2679491924
 41
4.515301906027368
 42
4.518874891676178
  0
LINE
  5
21F
330
1F
100
AcDbEntity
  8
0
  6
Continuous
 62
     7
370
    15
100
AcDbLine
 10
169.3557015026
 20
72.1419565714
 30
0.0
 11
169.3557015026
 21
71.2646805084
 31
0.0
  0
LINE
  5
220
330
1F
100
AcDbEntity
  8
0
  6
Continuous
 62
     7
370
    15
100
AcDbLine
 10
118.7556999141
 20
123.1492087579
 30
0.0
 11
116.0238942469
 21
123.1492087579
 31
0.0
  0
LINE
  5
221
330
1F
100
AcDbEntity
  8
0
  6
Continuous
 62
     7
370
    15
100
AcDbLine
 10
118.7556999141
 20
123.1492087579
 30
0.0
 11
118.7556999141
 21
88.7167752123
 31
0.0
  0
LWPOLYLINE
  5
222
330
1F
100
AcDbEntity
  8
0
  6
Continuous
 62
     7
370
    15
100
AcDbPolyline
 90
       21
 70
   128
 43
0.0
 10
117.1842960978
 20
118.2646788991
 10
117.2159647906
 20
117.4921364043
 10
117.3078714276
 20
116.7952157891
 10
117.4510194326
 20
116.242136374
 10
117.6313961262
 20
115.8870375118
 10
117.8313436324
 20
115.764678955
 10
118.0312930012
 20
115.8870375118
 10
118.2116696948
 20
116.242136374
 10
118.3548176998
 20
116.7952157891
 10
118.4467224741
 20
117.4921364043
 10
118.4783930296
 20
118.2646788991
 10
118.4467224741
 20
119.0372213939
 10
118.3548176998
 20
119.7341420091
 10
118.2116696948
 20
120.2872214242
 10
118.0312930012
 20
120.6423202864
 10
117.8313436324
 20
120.7646788432
 10
117.6313961262
 20
120.6423202864
 10
117.4510194326
 20
120.2872214242
 10
117.3078714276
 20
119.7341420091
 10
117.2159647906
 20
119.0372213939
 10
117.1842960978
 20
118.2646788991
  0
LINE
  5
223
330
1F
100
AcDbEntity
  8
0
  6
Continuous
 62
     7
370
    15
100
AcDbLine
 10
118.7556999141
 20
123.2646787873
 30
0.0
 11
115.8201115543
 21
123.2646787873
 31
0.0
  0
LINE
  5
224
330
1F
100
AcDbEntity
  8
0
  6
Continuous
 62
     7
370
    15
100
AcDbLine
 10
118.7556999141
 20
123.2646787873
 30
0.0
 11
118.7556999141
 21
123.1492087579
 31
0.0
  0
LINE
  5
225
330
1F
100
AcDbEntity
  8
0
  6
Continuous
 62
     7
370
    15
100
AcDbLine
 10
116.0305159504
 20
123.3801488167
 30
0.0
 11
118.7556999141
 21
123.3801488167
 31
0.0
  0
LINE
  5
226
330
1F
100
AcDbEntity
  8
0
  6
Continuous
 62
     7
370
    15
100
AcDbLine
 10
118.7556999141
 20
123.3801488167
 30
0.0
 11
118.7556999141
 21
123.2646787873
 31
0.0
  0
LINE
  5
227
330
1F
100
AcDbEntity
  8
0
  6
Continuous
 62
     7
370
    15
100
AcDbLine
 10
118.7556999141
 20
147.8125825858
 30
0.0
 11
118.7556999141
 21
123.3801488167
 31
0.0
  0
LINE
  5
228
330
1F
100
AcDbEntity
  8
0
  6
Continuous
 62
     7
370
    15
100
AcDbLine
 10
96.6557002032
 20
78.7646770811
 30
0.0
 11
96.6557002032
 21
157.764680717
 31
0.0
  0
LINE
  5
229
330
1F
100
AcDbEntity
  8
0
  6
Continuous
 62
     7
370
    15
100
AcDbLine
 10
120.501922291
 20
131.7195250056
 30
0.0
 11
120.501922291
 21
106.8098331204
 31
0.0
  0
LINE
  5
22A
330
1F
100
AcDbEntity
  8
0
  6
Continuous
 62
     7
370
    15
100
AcDbLine
 10
120.501922291
 20
81.2261067665
 30
0.0
 11
120.501922291
 21
80.1511034704
 31
0.0
  0
LINE
  5
22B
330
1F
100
AcDbEntity
  8
0
  6
Continuous
 62
     7
370
    15
100
AcDbLine
 10
126.937521469
 20
80.029420588
 30
0.0
 11
126.937521469
 21
78.9642930365
 31
0.0
  0
LINE
  5
22C
330
1F
100
AcDbEntity
  8
0
  6
Continuous
 62
     7
370
    15
100
AcDbLine
 10
128.2293273473
 20
79.8063055015
 30
0.0
 11
128.2293273473
 21
78.7394233382
 31
0.0
  0
LINE
  5
22D
330
1F
100
AcDbEntity
  8
0
  6
Continuous
 62
     7
370
    15
100
AcDbLine
 10
134.6649265254
 20
78.7396803832
 30
0.0
 11
134.6649265254
 21
77.6816718614
 31
0.0
  0
LINE
  5
22E
330
1F
100
AcDbEntity
  8
0
  6
Continuous
 62
     7
370
    15
100
AcDbLine
 10
135.9567342663
 20
78.5409845746
 30
0.0
 11
135.9567342663
 21
77.4814412332
 31
0.0
  0
LINE
  5
22F
330
1F
100
AcDbEntity
  8
0
  6
Continuous
 62
     7
370
    15
100
AcDbLine
 10
142.3923334444
 20
77.5924884117
 30
0.0
 11
142.3923334444
 21
76.5409879721
 31
0.0
  0
LINE
  5
230
330
1F
100
AcDbEntity
  8
0
  6
Continuous
 62
     7
370
    15
100
AcDbLine
 10
142.3923334444
 20
119.0761966034
 30
0.0
 11
142.3923334444
 21
111.9008954017
 31
0.0
  0
LINE
  5
231
330
1F
100
AcDbEntity
  8
0
  6
Continuous
 62
     7
370
    15
100
AcDbLine
 10
143.6841411853
 20
118.4746151309
 30
0.0
 11
143.6841411853
 21
109.4903191886
 31
0.0
  0
LINE
  5
232
330
1F
100
AcDbEntity
  8
0
  6
Continuous
 62
     7
370
    15
100
AcDbLine
 10
143.6841411853
 20
77.416133169
 30
0.0
 11
143.6841411853
 21
76.3633102513
 31
0.0
  0
LINE
  5
233
330
1F
100
AcDbEntity
  8
0
  6
Continuous
 62
     7
370
    15
100
AcDbLine
 10
150.1197403634
 20
117.2646788516
 30
0.0
 11
150.1197403634
 21
106.7377748302
 31
0.0
  0
LINE
  5
234
330
1F
100
AcDbEntity
  8
0
  6
Continuous
 62
     7
370
    15
100
AcDbLine
 10
150.1197403634
 20
76.5763558781
 30
0.0
 11
150.1197403634
 21
75.5308792329
 31
0.0
  0
LINE
  5
235
330
1F
100
AcDbEntity
  8
0
  6
Continuous
 62
     7
370
    15
100
AcDbLine
 10
151.4115481043
 20
117.3084378577
 30
0.0
 11
151.4115481043
 21
107.3368061668
 31
0.0
  0
LINE
  5
236
330
1F
100
AcDbEntity
  8
0
  6
Continuous
 62
     7
370
    15
100
AcDbLine
 10
151.4115481043
 20
76.4206797219
 30
0.0
 11
151.4115481043
 21
75.3740854895
 31
0.0
  0
SPLINE
  5
237
330
1F
100
AcDbEntity
  8
0
  6
Continuous
 62
     7
370
    15
100
AcDbSpline
210
0.0
220
0.0
230
1.0
 70
     8
 71
     3
 72
    23
 73
    19
 74
     0
 42
0.00000001
 43
0.00000001
 40
0.0
 40
0.0
 40
0.0
 40
0.0
 40
0.009453866647867
 40
0.0842493969077027
 40
0.1597226318057457
 40
0.212773710389736
 40
0.2673561963431615
 40
0.3761375250105084
 40
0.4383134214262656
 40
0.502237058898578
 40
0.565272458230912
 40
0.6301389393427947
 40
0.6931949239402944
 40
0.7581404718532507
 40
0.8082403040689635
 40
0.8596465261974869
 40
0.9415158152717095
 40
1.0
 40
1.0
 40
1.0
 40
1.0
 10
69.67456437294828
 20
136.2582892513603
 30
0.0
 10
69.66897484376578
 20
136.2601838170549
 30
0.0
 10
69.61916300696262
 20
136.2770674926044
 30
0.0
 10
69.99042235866989
 20
136.1502299722058
 30
0.0
 10
70.85409791301029
 20
135.8732826650171
 30
0.0
 10
71.93724940813325
 20
135.5620339594047
 30
0.0
 10
73.42256997561938
 20
135.1861614726052
 30
0.0
 10
75.24134025323423
 20
134.8371900097733
 30
0.0
 10
77.27320658163187
 20
134.6285960020982
 30
0.0
 10
78.95732999911372
 20
134.571825499999
 30
0.0
 10
80.66297947985704
 20
134.6368562946744
 30
0.0
 10
82.31174610204921
 20
134.8151628948446
 30
0.0
 10
83.88013675823747
 20
135.0850848955097
 30
0.0
 10
85.19705712684025
 20
135.3849843305183
 30
0.0
 10
86.27868596352012
 20
135.6752556708229
 30
0.0
 10
87.26516601159835
 20
135.9685998101895
 30
0.0
 10
88.049961553773
 20
136.2283650323149
 30
0.0
 10
88.06744524183931
 20
136.2347199690612
 30
0.0
 10
88.07473055665838
 20
136.2373680210441
 30
0.0
  0
LINE
  5
238
330
1F
100
AcDbEntity
  8
0
  6
Continuous
 62
     7
370
    15
100
AcDbLine
 10
94.1557002591
 20
100.2646796739
 30
0.0
 11
94.1557002591
 21
136.2646781242
 31
0.0
  0
LINE
  5
239
330
1F
100
AcDbEntity
  8
0
  6
Continuous
 62
     7
370
    15
100
AcDbLine
 10
64.6556986833
 20
100.2646796739
 30
0.0
 11
64.6556986833
 21
136.2646781242
 31
0.0
  0
SPLINE
  5
23A
330
1F
100
AcDbEntity
  8
0
  6
Continuous
 62
     7
370
    15
100
AcDbSpline
210
0.0
220
0.0
230
1.0
 70
     8
 71
     3
 72
    98
 73
    94
 74
     0
 42
0.00000001
 43
0.00000001
 40
-0.0312500000000001
 40
-0.0312500000000001
 40
0.0
 40
0.0
 40
0.0312499999999998
 40
0.0312499999999998
 40
0.0624999999999995
 40
0.0624999999999995
 40
0.0781249999999994
 40
0.0781249999999994
 40
0.0937499999999992
 40
0.0937499999999992
 40
0.1249999999999988
 40
0.1249999999999988
 40
0.1406249999999986
 40
0.1406249999999986
 40
0.1562499999999984
 40
0.1562499999999984
 40
0.1718749999999983
 40
0.1718749999999983
 40
0.1874999999999981
 40
0.1874999999999981
 40
0.2031249999999979
 40
0.2031249999999979
 40
0.2187499999999978
 40
0.2187499999999978
 40
0.2499999999999976
 40
0.2499999999999976
 40
0.2656249999999976
 40
0.2656249999999976
 40
0.2812499999999976
 40
0.2812499999999976
 40
0.3124999999999975
 40
0.3124999999999975
 40
0.3437499999999974
 40
0.3437499999999974
 40
0.3749999999999973
 40
0.3749999999999973
 40
0.3906249999999972
 40
0.3906249999999972
 40
0.4062499999999971
 40
0.4062499999999971
 40
0.437499999999997
 40
0.437499999999997
 40
0.453124999999997
 40
0.453124999999997
 40
0.468749999999997
 40
0.468749999999997
 40
0.499999999999997
 40
0.499999999999997
 40
0.5156249999999971
 40
0.5156249999999971
 40
0.5312499999999972
 40
0.5312499999999972
 40
0.5468749999999973
 40
0.5468749999999973
 40
0.5624999999999974
 40
0.5624999999999974
 40
0.5937499999999976
 40
0.5937499999999976
 40
0.6093749999999977
 40
0.6093749999999977
 40
0.6249999999999977
 40
0.6249999999999977
 40
0.6406249999999978
 40
0.6406249999999978
 40
0.6562499999999979
 40
0.6562499999999979
 40
0.671874999999998
 40
0.671874999999998
 40
0.6874999999999981
 40
0.6874999999999981
 40
0.7031249999999982
 40
0.7031249999999982
 40
0.7187499999999983
 40
0.7187499999999983
 40
0.7499999999999984
 40
0.7499999999999984
 40
0.7656249999999986
 40
0.7656249999999986
 40
0.7812499999999987
 40
0.7812499999999987
 40
0.8124999999999989
 40
0.8124999999999989
 40
0.8437499999999991
 40
0.8437499999999991
 40
0.8749999999999992
 40
0.8749999999999992
 40
0.9062499999999994
 40
0.9062499999999994
 40
0.9374999999999997
 40
0.9374999999999997
 40
0.9687499999999999
 40
0.9687499999999999
 40
1.0
 40
1.0
 40
1.03125
 40
1.03125
 10
73.23467960926925
 20
124.2514823220481
 30
0.0
 10
72.34342782929137
 20
123.6045272568886
 30
0.0
 10
71.93293335111824
 20
123.2453150093831
 30
0.0
 10
71.18731937785927
 20
122.4469173563489
 30
0.0
 10
70.85042582972481
 20
122.0032097112639
 30
0.0
 10
70.43241870975413
 20
121.2948647136589
 30
0.0
 10
70.30676922209383
 20
121.0508223532102
 30
0.0
 10
70.08495424008393
 20
120.5454676768532
 30
0.0
 10
69.98820397822402
 20
120.2819218764299
 30
0.0
 10
69.7527524655259
 20
119.4813794311834
 30
0.0
 10
69.66717036569126
 20
118.9361603818606
 30
0.0
 10
69.65156172373138
 20
118.1000070315828
 30
0.0
 10
69.66579739159823
 20
117.8169071736306
 30
0.0
 10
69.73166416034879
 20
117.2637454609631
 30
0.0
 10
69.78306538816835
 20
116.9913754446895
 30
0.0
 10
69.92125731471863
 20
116.4546719753602
 30
0.0
 10
70.00861841941776
 20
116.1889846202907
 30
0.0
 10
70.21584840271329
 20
115.6718984700418
 30
0.0
 10
70.33465635202123
 20
115.4225370038191
 30
0.0
 10
70.60004920064878
 20
114.9404247664332
 30
0.0
 10
70.74664605968259
 20
114.7076815439843
 30
0.0
 10
71.06628667372566
 20
114.2578006172244
 30
0.0
 10
71.23884730977443
 20
114.0416406237686
 30
0.0
 10
71.78252562462518
 20
113.4282186949995
 30
0.0
 10
72.18264934716984
 20
113.0607854375528
 30
0.0
 10
72.83405621870295
 20
112.5637930016197
 30
0.0
 10
73.06088456238099
 20
112.4066223752476
 30
0.0
 10
73.52566606858721
 20
112.113942726816
 30
0.0
 10
73.76346770779132
 20
111.9783587895136
 30
0.0
 10
74.49248929327007
 20
111.6019191997706
 30
0.0
 10
74.99919165780166
 20
111.3910988927244
 30
0.0
 10
76.05443858099098
 20
111.0472372840581
 30
0.0
 10
76.59378316901072
 20
110.917584420429
 30
0.0
 10
77.68295078380804
 20
110.7410168912168
 30
0.0
 10
78.23475017495868
 20
110.6934902625958
 30
0.0
 10
79.07370631720556
 20
110.6850467158841
 30
0.0
 10
79.35401258101209
 20
110.6928769511911
 30
0.0
 10
79.90836352034052
 20
110.7292336679799
 30
0.0
 10
80.18353094239859
 20
110.7577378903193
 30
0.0
 10
81.00312091782946
 20
110.8738676067915
 30
0.0
 10
81.54167307754592
 20
110.9918403617835
 30
0.0
 10
82.33748256620721
 20
111.2327318782083
 30
0.0
 10
82.60044125583241
 20
111.3237968092604
 30
0.0
 10
83.1126030481305
 20
111.5244145479307
 30
0.0
 10
83.36305767522276
 20
111.6343167822883
 30
0.0
 10
84.09769930090067
 20
111.9931586255079
 30
0.0
 10
84.56536079801052
 20
112.2708524360735
 30
0.0
 10
85.23122849306952
 20
112.7523943178179
 30
0.0
 10
85.44753580268404
 20
112.9243123700006
 30
0.0
 10
85.85880637494822
 20
113.2846085544237
 30
0.0
 10
86.05488857383276
 20
113.4737142110486
 30
0.0
 10
86.42720608894545
 20
113.87090837026
 30
0.0
 10
86.60344867354947
 20
114.0789890558321
 30
0.0
 10
86.9345248437892
 20
114.515992816961
 30
0.0
 10
87.09022852775094
 20
114.7464962318734
 30
0.0
 10
87.51293151614445
 20
115.4589625734823
 30
0.0
 10
87.73737461766365
 20
115.9615473266441
 30
0.0
 10
87.97583632959518
 20
116.7636090928843
 30
0.0
 10
88.03814738768584
 20
117.0382325654791
 30
0.0
 10
88.1242422039299
 20
117.5863868170094
 30
0.0
 10
88.14872309270099
 20
117.8620391745788
 30
0.0
 10
88.16010391282573
 20
118.416538373526
 30
0.0
 10
88.14686511852358
 20
118.6965506248425
 30
0.0
 10
88.08161652151692
 20
119.2548750205793
 30
0.0
 10
88.03033057689171
 20
119.5285137886431
 30
0.0
 10
87.89292938036364
 20
120.0655242658706
 30
0.0
 10
87.80680421926354
 20
120.3288930145807
 30
0.0
 10
87.60079818258107
 20
120.8457493153592
 30
0.0
 10
87.48101802130101
 20
121.0983206775643
 30
0.0
 10
87.21560770765694
 20
121.5819134586115
 30
0.0
 10
87.06934837064335
 20
121.8145941378804
 30
0.0
 10
86.7515066995086
 20
122.2631546447552
 30
0.0
 10
86.57892818627245
 20
122.4800917269929
 30
0.0
 10
86.03233526372847
 20
123.0980808677744
 30
0.0
 10
85.63165795082767
 20
123.4659153861003
 30
0.0
 10
84.98268526845578
 20
123.9617059541845
 30
0.0
 10
84.75827587175523
 20
124.1175281520564
 30
0.0
 10
84.2934333614548
 20
124.4108770678312
 30
0.0
 10
84.05332212826919
 20
124.5480519398007
 30
0.0
 10
83.32194042764657
 20
124.9261981047525
 30
0.0
 10
82.8157008954841
 20
125.1367417503506
 30
0.0
 10
81.76646266386214
 20
125.4793991229677
 30
0.0
 10
81.22064992051882
 20
125.6112121019395
 30
0.0
 10
80.12809746220536
 20
125.7884674662577
 30
0.0
 10
79.57722738526273
 20
125.8356418482491
 30
0.0
 10
78.46621091682886
 20
125.8472615379783
 30
0.0
 10
77.90257262612515
 20
125.8105766548018
 30
0.0
 10
76.80547524917442
 20
125.6550594310158
 30
0.0
 10
76.26756151745758
 20
125.5368044049996
 30
0.0
 10
75.21283617070908
 20
125.2176538340287
 30
0.0
 10
74.69287965359035
 20
125.0147740595954
 30
0.0
 10
73.70562334993498
 20
124.5319641278516
 30
0.0
 10
73.23467960926925
 20
124.2514823220481
 30
0.0
 10
72.34342782929137
 20
123.6045272568886
 30
0.0
  0
CIRCLE
  5
23B
330
1F
100
AcDbEntity
  8
0
  6
Continuous
 62
     7
370
    15
100
AcDbCircle
 10
78.9057002032
 20
118.2646788991
 30
0.0
 40
7.325658596124484
  0
LINE
  5
23C
330
1F
100
AcDbEntity
  8
0
  6
Continuous
 62
     7
370
    15
100
AcDbLine
 10
56.6557010973
 20
101.5746780074
 30
0.0
 11
56.6557010973
 21
134.9546779281
 31
0.0
  0
LINE
  5
23D
330
1F
100
AcDbEntity
  8
0
  6
Continuous
 62
     7
370
    15
100
AcDbLine
 10
157.8471472824
 20
75.6821148432
 30
0.0
 11
157.8471472824
 21
74.6422671116
 31
0.0
  0
LINE
  5
23E
330
1F
100
AcDbEntity
  8
0
  6
Continuous
 62
     7
370
    15
100
AcDbLine
 10
159.1389550233
 20
75.5457952953
 30
0.0
 11
159.1389550233
 21
74.5050348676
 31
0.0
  0
SPLINE
  5
23F
330
1F
100
AcDbEntity
  8
0
  6
Continuous
 62
     7
370
    15
100
AcDbSpline
210
0.0
220
0.0
230
1.0
 70
     8
 71
     3
 72
    80
 73
    76
 74
     0
 42
0.00000001
 43
0.00000001
 40
-0.0312500000000002
 40
-0.0312500000000002
 40
0.0
 40
0.0
 40
0.0312499999999998
 40
0.0312499999999998
 40
0.0624999999999997
 40
0.0624999999999997
 40
0.0937499999999995
 40
0.0937499999999995
 40
0.1249999999999993
 40
0.1249999999999993
 40
0.1562499999999991
 40
0.1562499999999991
 40
0.1874999999999989
 40
0.1874999999999989
 40
0.2187499999999988
 40
0.2187499999999988
 40
0.2499999999999986
 40
0.2499999999999986
 40
0.2812499999999984
 40
0.2812499999999984
 40
0.3124999999999983
 40
0.3124999999999983
 40
0.3281249999999982
 40
0.3281249999999982
 40
0.3437499999999982
 40
0.3437499999999982
 40
0.3749999999999981
 40
0.3749999999999981
 40
0.3906249999999981
 40
0.3906249999999981
 40
0.4062499999999981
 40
0.4062499999999981
 40
0.437499999999998
 40
0.437499999999998
 40
0.4687499999999979
 40
0.4687499999999979
 40
0.4999999999999979
 40
0.4999999999999979
 40
0.5312499999999978
 40
0.5312499999999978
 40
0.5624999999999978
 40
0.5624999999999978
 40
0.5781249999999977
 40
0.5781249999999977
 40
0.5937499999999976
 40
0.5937499999999976
 40
0.6249999999999972
 40
0.6249999999999972
 40
0.6406249999999971
 40
0.6406249999999971
 40
0.656249999999997
 40
0.656249999999997
 40
0.6874999999999973
 40
0.6874999999999973
 40
0.7187499999999976
 40
0.7187499999999976
 40
0.7499999999999978
 40
0.7499999999999978
 40
0.7812499999999981
 40
0.7812499999999981
 40
0.8124999999999983
 40
0.8124999999999983
 40
0.8437499999999987
 40
0.8437499999999987
 40
0.8749999999999989
 40
0.8749999999999989
 40
0.9062499999999992
 40
0.9062499999999992
 40
0.9218749999999993
 40
0.9218749999999993
 40
0.9374999999999994
 40
0.9374999999999994
 40
0.9687499999999998
 40
0.9687499999999998
 40
1.0
 40
1.0
 40
1.03125
 40
1.03125
 10
75.4825284002084
 20
121.100114056566
 30
0.0
 10
75.90691706896965
 20
121.4677231172525
 30
0.0
 10
76.13294614673359
 20
121.6282649867426
 30
0.0
 10
76.61328715915438
 20
121.9087483979248
 30
0.0
 10
76.8675699246072
 20
122.0286680754574
 30
0.0
 10
77.4098604653249
 20
122.2274138115753
 30
0.0
 10
77.68923982973743
 20
122.303011081956
 30
0.0
 10
78.26620086522698
 20
122.4072221171911
 30
0.0
 10
78.56778284961226
 20
122.4355067737752
 30
0.0
 10
79.16198856954513
 20
122.440121311231
 30
0.0
 10
79.45672499053019
 20
122.4174764509867
 30
0.0
 10
80.0416307815698
 20
122.3218342704053
 30
0.0
 10
80.3255687314467
 20
122.249536727591
 30
0.0
 10
80.86744282907708
 20
122.0609688937545
 30
0.0
 10
81.12925809807476
 20
121.9430743344912
 30
0.0
 10
81.61830384765841
 20
121.6678916670588
 30
0.0
 10
81.8471491363371
 20
121.5104562097363
 30
0.0
 10
82.27534313336645
 20
121.1518117627878
 30
0.0
 10
82.47312033425104
 20
120.9511067547409
 30
0.0
 10
82.82282241021656
 20
120.5165598646006
 30
0.0
 10
82.97691122544434
 20
120.2811578227438
 30
0.0
 10
83.17295739654513
 20
119.8950180983924
 30
0.0
 10
83.2323602927964
 20
119.7604333592259
 30
0.0
 10
83.33505111633076
 20
119.4870877743174
 30
0.0
 10
83.37885132354141
 20
119.3474250149618
 30
0.0
 10
83.4867613993802
 20
118.9189810187341
 30
0.0
 10
83.52692408848522
 20
118.6171759520768
 30
0.0
 10
83.5333354386435
 20
118.1710730957099
 30
0.0
 10
83.52684181541838
 20
118.0225631611311
 30
0.0
 10
83.49649509202146
 20
117.7259267036667
 30
0.0
 10
83.47234390199128
 20
117.5768050343787
 30
0.0
 10
83.3758499712601
 20
117.141867038746
 30
0.0
 10
83.27999443273893
 20
116.865704066241
 30
0.0
 10
83.02975183641261
 20
116.3381075778154
 30
0.0
 10
82.8797360993079
 20
116.0957468091204
 30
0.0
 10
82.53522891092298
 20
115.6467554182467
 30
0.0
 10
82.3403951530682
 20
115.4408205440012
 30
0.0
 10
81.92061490452573
 20
115.0741141751113
 30
0.0
 10
81.6930577465197
 20
114.910576289125
 30
0.0
 10
81.2063866728742
 20
114.6245282070757
 30
0.0
 10
80.95170195686546
 20
114.5043621204383
 30
0.0
 10
80.55075030740316
 20
114.3562600951037
 30
0.0
 10
80.41391932170161
 20
114.3123013934821
 30
0.0
 10
80.1332292020174
 20
114.2354758652581
 30
0.0
 10
79.98845236720727
 20
114.202480218178
 30
0.0
 10
79.55198143892696
 20
114.1228190472171
 30
0.0
 10
79.25687865679815
 20
114.0945825684156
 30
0.0
 10
78.8075800114542
 20
114.090167268282
 30
0.0
 10
78.65592884725913
 20
114.0951920993997
 30
0.0
 10
78.35789650008758
 20
114.1178992397224
 30
0.0
 10
78.21075008493189
 20
114.1355083054453
 30
0.0
 10
77.7745723888767
 20
114.20655578828
 30
0.0
 10
77.48810055708671
 20
114.2790711187792
 30
0.0
 10
76.94289733238182
 20
114.4687183479086
 30
0.0
 10
76.68442612009724
 20
114.5850471325259
 30
0.0
 10
76.19203438637858
 20
114.8620151750788
 30
0.0
 10
75.9601514319479
 20
115.0220186306562
 30
0.0
 10
75.53422474441692
 20
115.3794022360108
 30
0.0
 10
75.33825330840877
 20
115.5777348423436
 30
0.0
 10
74.98221767203373
 20
116.021260797793
 30
0.0
 10
74.82724677809246
 20
116.2603851941022
 30
0.0
 10
74.56827304691006
 20
116.774727555594
 30
0.0
 10
74.4635045769693
 20
117.0543481508528
 30
0.0
 10
74.3221527312074
 20
117.6251807783719
 30
0.0
 10
74.2834377839314
 20
117.9189746872169
 30
0.0
 10
74.2766555255383
 20
118.5245049494327
 30
0.0
 10
74.30875922720124
 20
118.8204769479892
 30
0.0
 10
74.40668866516998
 20
119.2550056472739
 30
0.0
 10
74.44805805835398
 20
119.3990211448218
 30
0.0
 10
74.5451069689275
 20
119.6768282088672
 30
0.0
 10
74.60086109369107
 20
119.8113731780828
 30
0.0
 10
74.7885332874915
 20
120.2029710380407
 30
0.0
 10
74.94230295790659
 20
120.449501756751
 30
0.0
 10
75.28840163569235
 20
120.8963773286594
 30
0.0
 10
75.4825284002084
 20
121.100114056566
 30
0.0
 10
75.90691706896965
 20
121.4677231172525
 30
0.0
  0
LINE
  5
240
330
1F
100
AcDbEntity
  8
0
  6
Continuous
 62
     7
370
    15
100
AcDbLine
 10
166.8663582171
 20
74.7843534088
 30
0.0
 11
166.8663582171
 21
73.7491101361
 31
0.0
  0
LINE
  5
241
330
1F
100
AcDbEntity
  8
0
  6
Continuous
 62
     7
370
    15
100
AcDbLine
 10
165.5745542014
 20
74.902389232
 30
0.0
 11
165.5745542014
 21
73.8678612149
 31
0.0
  0
LINE
  5
242
330
1F
100
AcDbEntity
  8
0
  6
Continuous
 62
     7
370
    15
100
AcDbLine
 10
169.3557015026
 20
72.1419565714
 30
0.0
 11
169.8557025159
 21
72.6252273059
 31
0.0
  0
LINE
  5
243
330
1F
100
AcDbEntity
  8
0
  6
Continuous
 62
     7
370
    15
100
AcDbLine
 10
169.8557025159
 20
73.9176683462
 30
0.0
 11
169.8557025159
 21
72.6252273059
 31
0.0
  0
LINE
  5
244
330
1F
100
AcDbEntity
  8
0
  6
Continuous
 62
     7
370
    15
100
AcDbLine
 10
169.8557025159
 20
72.6252273059
 30
0.0
 11
169.8557025159
 21
72.235450182
 31
0.0
  0
LINE
  5
245
330
1F
100
AcDbEntity
  8
0
  6
PHANTOM
 62
     7
370
     0
100
AcDbLine
 10
177.8557038272
 20
115.764678955
 30
0.0
 11
176.9085487688
 21
115.764678955
 31
0.0
  0
LINE
  5
246
330
1F
100
AcDbEntity
  8
0
  6
PHANTOM
 62
     7
370
     0
100
AcDbLine
 10
235.2582401002
 20
175.4965819753
 30
0.0
 11
221.9204640353
 21
173.1380224562
 31
0.0
  0
ARC
  5
247
330
1F
100
AcDbEntity
  8
0
  6
PHANTOM
 62
     7
370
     0
100
AcDbCircle
 10
235.4631149967
 20
174.3034710654
 30
0.0
 40
1.210573156166284
100
AcDbArc
 50
0.9476131694
 51
99.7435137332
  0
LINE
  5
248
330
1F
100
AcDbEntity
  8
0
  6
PHANTOM
 62
     7
370
     0
100
AcDbLine
 10
236.8767148221
 20
160.7410870827
 30
0.0
 11
236.6735225881
 21
174.3234917856
 31
0.0
  0
ARC
  5
249
330
1F
100
AcDbEntity
  8
0
  6
PHANTOM
 62
     7
370
     0
100
AcDbCircle
 10
235.7071794511
 20
160.7199746215
 30
0.0
 40
1.169725916638853
100
AcDbArc
 50
279.9925780216
 51
1.0341915076
  0
LINE
  5
24A
330
1F
100
AcDbEntity
  8
0
  6
PHANTOM
 62
     7
370
     0
100
AcDbLine
 10
222.5723749364
 20
157.2094336486
 30
0.0
 11
235.9101510013
 21
159.5679931677
 31
0.0
  0
ARC
  5
24B
330
1F
100
AcDbEntity
  8
0
  6
PHANTOM
 62
     7
370
     0
100
AcDbCircle
 10
222.3674926992
 20
158.4025279512
 30
0.0
 40
1.210558030832945
100
AcDbArc
 50
180.9466625386
 51
279.743989181
  0
LINE
  5
24C
330
1F
100
AcDbEntity
  8
0
  6
PHANTOM
 62
     7
370
     0
100
AcDbLine
 10
220.9539002145
 20
171.9649322665
 30
0.0
 11
221.1570998991
 21
158.3825275636
 31
0.0
  0
ARC
  5
24D
330
1F
100
AcDbEntity
  8
0
  6
PHANTOM
 62
     7
370
     0
100
AcDbCircle
 10
222.1234391048
 20
171.9860381697
 30
0.0
 40
1.169729317072932
100
AcDbArc
 50
99.9927237154
 51
181.0338672234
  0
ARC
  5
24E
330
1F
100
AcDbEntity
  8
0
  6
PHANTOM
 62
     7
370
     0
100
AcDbCircle
 10
235.7068471721
 20
160.7203095301
 30
0.0
 40
1.150206983390161
100
AcDbArc
 50
279.9915170752
 51
1.0350579013
  0
LINE
  5
24F
330
1F
100
AcDbEntity
  8
0
  6
PHANTOM
 62
     7
370
     0
100
AcDbLine
 10
236.8568664754
 20
160.7410870827
 30
0.0
 11
236.6536742414
 21
174.3234917856
 31
0.0
  0
ARC
  5
250
330
1F
100
AcDbEntity
  8
0
  6
PHANTOM
 62
     7
370
     0
100
AcDbCircle
 10
235.4634492747
 20
174.3038169141
 30
0.0
 40
1.190387572106348
100
AcDbArc
 50
0.947034777
 51
99.7440144545
  0
LINE
  5
251
330
1F
100
AcDbEntity
  8
0
  6
PHANTOM
 62
     7
370
     0
100
AcDbLine
 10
235.2619802917
 20
175.4770316518
 30
0.0
 11
221.9242042268
 21
173.1184721327
 31
0.0
  0
ARC
  5
252
330
1F
100
AcDbEntity
  8
0
  6
PHANTOM
 62
     7
370
     0
100
AcDbCircle
 10
222.1237931552
 20
171.9856889809
 30
0.0
 40
1.150231893733302
100
AcDbArc
 50
99.9925776628
 51
181.0339973137
  0
LINE
  5
253
330
1F
100
AcDbEntity
  8
0
  6
PHANTOM
 62
     7
370
     0
100
AcDbLine
 10
220.9737485612
 20
171.9649322665
 30
0.0
 11
221.1769482458
 21
158.3825275636
 31
0.0
  0
ARC
  5
254
330
1F
100
AcDbEntity
  8
0
  6
PHANTOM
 62
     7
370
     0
100
AcDbCircle
 10
222.3671678179
 20
158.402197228
 30
0.0
 40
1.190382092182434
100
AcDbArc
 50
180.9467884745
 51
279.7439593415
  0
LINE
  5
255
330
1F
100
AcDbEntity
  8
0
  6
PHANTOM
 62
     7
370
     0
100
AcDbLine
 10
222.5686347449
 20
157.2289876974
 30
0.0
 11
235.9064108098
 21
159.5875472164
 31
0.0
  0
ARC
  5
256
330
1F
100
AcDbEntity
  8
0
  6
PHANTOM
 62
     7
370
     0
100
AcDbCircle
 10
221.5924908284
 20
157.6347161046
 30
0.0
 40
1.209438064060122
100
AcDbArc
 50
180.9613202769
 51
222.3805338683
  0
LINE
  5
257
330
1F
100
AcDbEntity
  8
0
  6
PHANTOM
 62
     7
370
     0
100
AcDbLine
 10
220.298904773
 20
163.2506139911
 30
0.0
 11
220.3832229937
 21
157.6144248581
 31
0.0
  0
LINE
  5
258
330
1F
100
AcDbEntity
  8
0
  6
PHANTOM
 62
     7
370
     0
100
AcDbLine
 10
222.8465712035
 20
159.0159647501
 30
0.0
 11
222.2649937833
 21
158.3001204169
 31
0.0
  0
LINE
  5
259
330
1F
100
AcDbEntity
  8
0
  6
PHANTOM
 62
     7
370
     0
100
AcDbLine
 10
222.4233037198
 20
171.5332940555
 30
0.0
 11
222.0618015492
 21
171.8825213945
 31
0.0
  0
LINE
  5
25A
330
1F
100
AcDbEntity
  8
0
  6
PHANTOM
 62
     7
370
     0
100
AcDbLine
 10
235.1868188346
 20
160.9538756645
 30
0.0
 11
235.6027698482
 21
160.658679936
 31
0.0
  0
ARC
  5
25B
330
1F
100
AcDbEntity
  8
0
  6
PHANTOM
 62
     7
370
     0
100
AcDbCircle
 10
225.1130081298
 20
161.7352627671
 30
0.0
 40
1.008797404148145
100
AcDbArc
 50
180.9466617887
 51
279.7432663457
  0
SPLINE
  5
25C
330
1F
100
AcDbEntity
  8
0
  6
PHANTOM
 62
     7
370
     0
100
AcDbSpline
210
0.0
220
0.0
230
1.0
 70
     8
 71
     3
 72
    11
 73
     7
 74
     0
 42
0.00000001
 43
0.00000001
 40
0.0
 40
0.0
 40
0.0
 40
0.0
 40
0.0077058355830255
 40
0.2978242714101375
 40
0.6482777648357594
 40
1.0
 40
1.0
 40
1.0
 40
1.0
 10
223.2899403536831
 20
159.5520451999039
 30
0.0
 10
223.2888281161808
 20
159.5507194973661
 30
0.0
 10
223.2458410422684
 20
159.4994821736312
 30
0.0
 10
223.1485391428104
 20
159.3830681454056
 30
0.0
 10
222.9933624261999
 20
159.1958197313881
 30
0.0
 10
222.8955605162619
 20
159.075988583705
 30
0.0
 10
222.8465712035214
 20
159.0159647500843
 30
0.0
  0
LINE
  5
25D
330
1F
100
AcDbEntity
  8
0
  6
PHANTOM
 62
     7
370
     0
100
AcDbLine
 10
223.9861971105
 20
169.6160436011
 30
0.0
 11
224.1043484176
 21
161.7185958064
 31
0.0
  0
LINE
  5
25E
330
1F
100
AcDbEntity
  8
0
  6
PHANTOM
 62
     7
370
     0
100
AcDbLine
 10
232.546884414
 20
171.9649993217
 30
0.0
 11
224.7916644776
 21
170.59361938
 31
0.0
  0
ARC
  5
25F
330
1F
100
AcDbEntity
  8
0
  6
PHANTOM
 62
     7
370
     0
100
AcDbCircle
 10
232.7175975788
 20
170.9707261644
 30
0.0
 40
1.008822133018345
100
AcDbArc
 50
0.9483663824
 51
99.7424876487
  0
LINE
  5
260
330
1F
100
AcDbEntity
  8
0
  6
PHANTOM
 62
     7
370
     0
100
AcDbLine
 10
233.8444179261
 20
163.0899720228
 30
0.0
 11
233.7262815202
 21
170.9874235428
 31
0.0
  0
ARC
  5
261
330
1F
100
AcDbEntity
  8
0
  6
PHANTOM
 62
     7
370
     0
100
AcDbCircle
 10
232.8698292161
 20
163.0723604579
 30
0.0
 40
0.9747478242291453
100
AcDbArc
 50
279.9915340897
 51
1.0352659676
  0
LINE
  5
262
330
1F
100
AcDbEntity
  8
0
  6
PHANTOM
 62
     7
370
     0
100
AcDbLine
 10
225.2837306226
 20
160.7410163021
 30
0.0
 11
233.038950559
 21
162.1123962438
 31
0.0
  0
ARC
  5
263
330
1F
100
AcDbEntity
  8
0
  6
PHANTOM
 62
     7
370
     0
100
AcDbCircle
 10
224.9607858204
 20
169.633655166
 30
0.0
 40
0.9747478242291887
100
AcDbArc
 50
99.9915340897
 51
181.0352659676
  0
CIRCLE
  5
264
330
1F
100
AcDbEntity
  8
0
  6
PHANTOM
 62
     7
370
     0
100
AcDbCircle
 10
228.9096844231
 20
166.3993605376
 30
0.0
 40
3.145703050293789
  0
LWPOLYLINE
  5
265
330
1F
100
AcDbEntity
  8
0
  6
PHANTOM
 62
     7
370
     0
100
AcDbPolyline
 90
        3
 70
   128
 43
0.0
 10
227.3525333369
 20
168.6476990915
 10
226.6499137843
 20
168.3832407332
 10
226.32596254
 20
168.187912587
  0
ARC
  5
266
330
1F
100
AcDbEntity
  8
0
  6
PHANTOM
 62
     7
370
     0
100
AcDbCircle
 10
221.3494684266
 20
171.2192168072
 30
0.0
 40
1.168975527077925
100
AcDbArc
 50
134.8113771523
 51
165.628283422
  0
LINE
  5
267
330
1F
100
AcDbEntity
  8
0
  6
PHANTOM
 62
     7
370
     0
100
AcDbLine
 10
234.727505442
 20
173.435416106
 30
0.0
 11
235.3995776141
 21
174.2410809136
 31
0.0
  0
SPLINE
  5
268
330
1F
100
AcDbEntity
  8
0
  6
PHANTOM
 62
     7
370
     0
100
AcDbSpline
210
0.0
220
0.0
230
1.0
 70
     8
 71
     3
 72
    11
 73
     7
 74
     0
 42
0.00000001
 43
0.00000001
 40
0.0
 40
0.0
 40
0.0
 40
0.0
 40
0.008231884421239
 40
0.3243902375201679
 40
0.6617849969898317
 40
1.0
 40
1.0
 40
1.0
 40
1.0
 10
222.9644095862423
 20
171.0957661605209
 30
0.0
 10
222.962969796662
 20
171.0967399115671
 30
0.0
 10
222.906232643898
 20
171.1351120894273
 30
0.0
 10
222.7842491406674
 20
171.2232147698734
 30
0.0
 10
222.5940660952434
 20
171.3749643597115
 30
0.0
 10
222.4802705638715
 20
171.4804747909051
 30
0.0
 10
222.4233037198101
 20
171.5332940554947
 30
0.0
  0
SPLINE
  5
269
330
1F
100
AcDbEntity
  8
0
  6
PHANTOM
 62
     7
370
     0
100
AcDbSpline
210
0.0
220
0.0
230
1.0
 70
     8
 71
     3
 72
    11
 73
     7
 74
     0
 42
0.00000001
 43
0.00000001
 40
0.0
 40
0.0
 40
0.0
 40
0.0
 40
0.3382101423997229
 40
0.6756063719946489
 40
0.9917675832158704
 40
1.0
 40
1.0
 40
1.0
 40
1.0
 10
235.1868188345944
 20
160.9538756645054
 30
0.0
 10
235.1237092939573
 20
161.0005954869081
 30
0.0
 10
234.9976420876768
 20
161.0939226990662
 30
0.0
 10
234.8138565420582
 20
161.2520306146337
 30
0.0
 10
234.7062883058627
 20
161.3544181469938
 30
0.0
 10
234.6589688735985
 20
161.4021540319187
 30
0.0
 10
234.657768007568
 20
161.4033654666275
 30
0.0
  0
SPLINE
  5
26A
330
1F
100
AcDbEntity
  8
0
  6
PHANTOM
 62
     7
370
     0
100
AcDbSpline
210
0.0
220
0.0
230
1.0
 70
     8
 71
     3
 72
    11
 73
     7
 74
     0
 42
0.00000001
 43
0.00000001
 40
0.0
 40
0.0
 40
0.0
 40
0.0
 40
0.3517372872064116
 40
0.7021756724811539
 40
0.9922856695907524
 40
1.0
 40
1.0
 40
1.0
 40
1.0
 10
234.7275054419552
 20
173.4354161060184
 30
0.0
 10
234.6734139390983
 20
173.3703276525971
 30
0.0
 10
234.5654306834823
 20
173.2403911055939
 30
0.0
 10
234.4199712713332
 20
173.0629203501171
 30
0.0
 10
234.3377274069272
 20
172.9611039282634
 30
0.0
 10
234.3032388433519
 20
172.9185212051099
 30
0.0
 10
234.3023455107723
 20
172.9174182153076
 30
0.0
  0
LINE
  5
26B
330
1F
100
AcDbEntity
  8
0
  6
PHANTOM
 62
     7
370
     0
100
AcDbLine
 10
236.1028528178
 20
76.556373421
 30
0.0
 11
235.8996456826
 21
62.9739687181
 31
0.0
  0
ARC
  5
26C
330
1F
100
AcDbEntity
  8
0
  6
PHANTOM
 62
     7
370
     0
100
AcDbCircle
 10
234.6892594595
 20
62.993966261
 30
0.0
 40
1.210551407729221
100
AcDbArc
 50
260.25599894
 51
359.0534669426
  0
LINE
  5
26D
330
1F
100
AcDbEntity
  8
0
  6
PHANTOM
 62
     7
370
     0
100
AcDbLine
 10
234.4843780959
 20
61.8008785284
 30
0.0
 11
221.146602031
 21
64.1594380474
 31
0.0
  0
ARC
  5
26E
330
1F
100
AcDbEntity
  8
0
  6
PHANTOM
 62
     7
370
     0
100
AcDbCircle
 10
221.3490242108
 20
65.3105841415
 30
0.0
 40
1.16880796914977
100
AcDbArc
 50
186.0304222016
 51
260.0268383165
  0
LINE
  5
26F
330
1F
100
AcDbEntity
  8
0
  6
PHANTOM
 62
     7
370
     0
100
AcDbLine
 10
235.0695168937
 20
77.7412727809
 30
0.0
 11
235.1362740958
 21
77.7294636107
 31
0.0
  0
ARC
  5
270
330
1F
100
AcDbEntity
  8
0
  6
PHANTOM
 62
     7
370
     0
100
AcDbCircle
 10
234.9333187974
 20
76.5774807586
 30
0.0
 40
1.169724473762671
100
AcDbArc
 50
358.9660582198
 51
80.0082178368
  0
ARC
  5
271
330
1F
100
AcDbEntity
  8
0
  6
PHANTOM
 62
     7
370
     0
100
AcDbCircle
 10
235.4631149967
 20
62.2258867328
 30
0.0
 40
1.210573156166267
100
AcDbArc
 50
260.2564862668
 51
359.0523868306
  0
LINE
  5
272
330
1F
100
AcDbEntity
  8
0
  6
PHANTOM
 62
     7
370
     0
100
AcDbLine
 10
236.8767148221
 20
75.7882707155
 30
0.0
 11
236.6735225881
 21
62.2058660126
 31
0.0
  0
LINE
  5
273
330
1F
100
AcDbEntity
  8
0
  6
PHANTOM
 62
     7
370
     0
100
AcDbLine
 10
235.2582401002
 20
61.0327758229
 30
0.0
 11
221.9204640353
 21
63.391335342
 31
0.0
  0
ARC
  5
274
330
1F
100
AcDbEntity
  8
0
  6
PHANTOM
 62
     7
370
     0
100
AcDbCircle
 10
235.7031796223
 20
75.8080703809
 30
0.0
 40
1.173702216028455
100
AcDbArc
 50
359.0334080849
 51
45.1358706007
  0
ARC
  5
275
330
1F
100
AcDbEntity
  8
0
  6
PHANTOM
 62
     7
370
     0
100
AcDbCircle
 10
222.1229794117
 20
64.5432572009
 30
0.0
 40
1.169588152598569
100
AcDbArc
 50
225.2431646564
 51
260.0289234366
  0
ARC
  5
276
330
1F
100
AcDbEntity
  8
0
  6
PHANTOM
 62
     7
370
     0
100
AcDbCircle
 10
233.3732336064
 20
64.4629078303
 30
0.0
 40
1.210551407729221
100
AcDbArc
 50
260.25599894
 51
359.0534669426
  0
ARC
  5
277
330
1F
100
AcDbEntity
  8
0
  6
PHANTOM
 62
     7
370
     0
100
AcDbCircle
 10
233.4049315174
 20
64.431616675
 30
0.0
 40
1.513187402212245
100
AcDbArc
 50
260.2560601918
 51
359.0535600072
  0
LINE
  5
278
330
1F
100
AcDbEntity
  8
0
  6
PHANTOM
 62
     7
370
     0
100
AcDbLine
 10
234.5836198295
 20
64.4429102874
 30
0.0
 11
234.7588574851
 21
76.1555284596
 31
0.0
  0
LINE
  5
279
330
1F
100
AcDbEntity
  8
0
  6
PHANTOM
 62
     7
370
     0
100
AcDbLine
 10
221.666682359
 20
65.3036944902
 30
0.0
 11
233.1683522428
 21
63.2698200977
 31
0.0
  0
ARC
  5
27A
330
1F
100
AcDbEntity
  8
0
  6
PHANTOM
 62
     7
370
     0
100
AcDbCircle
 10
221.8692681592
 20
66.4558273448
 30
0.0
 40
1.16980815562692
100
AcDbArc
 50
226.7786937413
 51
260.027315663
  0
ARC
  5
27B
330
1F
100
AcDbEntity
  8
0
  6
PHANTOM
 62
     7
370
     0
100
AcDbCircle
 10
233.5833362286
 20
76.1748555038
 30
0.0
 40
1.175680126192256
100
AcDbArc
 50
359.0580703714
 51
38.1648504837
  0
LINE
  5
27C
330
1F
100
AcDbEntity
  8
0
  6
PHANTOM
 62
     7
370
     0
100
AcDbLine
 10
235.0931352342
 20
76.1192404068
 30
0.0
 11
234.9179124797
 21
64.4066222346
 31
0.0
  0
LINE
  5
27D
330
1F
100
AcDbEntity
  8
0
  6
PHANTOM
 62
     7
370
     0
100
AcDbLine
 10
233.1488317216
 20
62.9402585662
 30
0.0
 11
221.6471543873
 21
64.9741329587
 31
0.0
  0
ARC
  5
27E
330
1F
100
AcDbEntity
  8
0
  6
PHANTOM
 62
     7
370
     0
100
AcDbCircle
 10
233.9484662731
 20
63.8921313099
 30
0.0
 40
1.513187402212245
100
AcDbArc
 50
260.2560601918
 51
359.0535600072
  0
LINE
  5
27F
330
1F
100
AcDbEntity
  8
0
  6
PHANTOM
 62
     7
370
     0
100
AcDbLine
 10
235.636684891
 20
75.5797550416
 30
0.0
 11
235.4614472354
 21
63.8671368695
 31
0.0
  0
LINE
  5
280
330
1F
100
AcDbEntity
  8
0
  6
PHANTOM
 62
     7
370
     0
100
AcDbLine
 10
233.6923664773
 20
62.400773201
 30
0.0
 11
222.1906965936
 21
64.4346475935
 31
0.0
  0
ARC
  5
281
330
1F
100
AcDbEntity
  8
0
  6
PHANTOM
 62
     7
370
     0
100
AcDbCircle
 10
233.6287516713
 20
76.144762919
 30
0.0
 40
1.464605959964909
100
AcDbArc
 50
359.0015019097
 51
53.1211449523
  0
ARC
  5
282
330
1F
100
AcDbEntity
  8
0
  6
PHANTOM
 62
     7
370
     0
100
AcDbCircle
 10
221.8993937348
 20
66.411956758
 30
0.0
 40
1.459781478936353
100
AcDbArc
 50
209.8858201888
 51
260.0497769847
  0
ARC
  5
283
330
1F
100
AcDbEntity
  8
0
  6
PHANTOM
 62
     7
370
     0
100
AcDbCircle
 10
234.1695916064
 20
75.6044284664
 30
0.0
 40
1.467300747579107
100
AcDbArc
 50
359.0364962741
 51
45.1331965532
  0
ARC
  5
284
330
1F
100
AcDbEntity
  8
0
  6
PHANTOM
 62
     7
370
     0
100
AcDbCircle
 10
222.4438246323
 20
65.8745425547
 30
0.0
 40
1.461975137714247
100
AcDbArc
 50
225.2432558786
 51
260.0294980719
  0
LWPOLYLINE
  5
285
330
1F
100
AcDbEntity
  8
0
  6
PHANTOM
 62
     7
370
     0
100
AcDbPolyline
 90
        3
 70
   128
 43
0.0
 10
226.2291347945
 20
168.1183204389
 10
226.4779096807
 20
168.1729555464
 10
226.7534321511
 20
168.2120524681
  0
ELLIPSE
  5
286
330
1F
100
AcDbEntity
  8
0
  6
PHANTOM
 62
     7
370
     0
100
AcDbEllipse
 10
228.910639864
 20
166.0865807048
 30
0.0
 11
2.142313802535767
 21
-2.101494032444577
 31
0.0
210
0.0
220
0.0
230
1.0
 40
0.9831856447
 41
2.093019233784296
 42
4.593559237818814
  0
ELLIPSE
  5
287
330
1F
100
AcDbEntity
  8
0
  6
PHANTOM
 62
     7
370
     0
100
AcDbEllipse
 10
228.910639864
 20
166.0865807048
 30
0.0
 11
2.142313802535767
 21
-2.101494032444577
 31
0.0
210
0.0
220
0.0
230
1.0
 40
0.9831856447
 41
0.118375079495922
 42
2.093019233784316
  0
ARC
  5
288
330
1F
100
AcDbEntity
  8
0
  6
PHANTOM
 62
     7
370
     0
100
AcDbCircle
 10
222.7729555826
 20
86.8853875661
 30
0.0
 40
3.262536551550547
100
AcDbArc
 50
194.1776772417
 51
257.6097831411
  0
ARC
  5
289
330
1F
100
AcDbEntity
  8
0
  6
PHANTOM
 62
     7
370
     0
100
AcDbCircle
 10
222.8297934328
 20
86.9379208976
 30
0.0
 40
3.330715790745057
100
AcDbArc
 50
1.9133119627
 51
194.8143786176
  0
LWPOLYLINE
  5
28A
330
1F
100
AcDbEntity
  8
0
  6
PHANTOM
 62
     7
370
     0
100
AcDbPolyline
 90
        3
 70
   128
 43
0.0
 10
219.1054335201
 20
85.8595706857
 10
219.4631060923
 20
84.9495642221
 10
220.0308477843
 20
84.1672309077
  0
ARC
  5
28B
330
1F
100
AcDbEntity
  8
0
  6
PHANTOM
 62
     7
370
     0
100
AcDbCircle
 10
222.9405894763
 20
86.8304011502
 30
0.0
 40
3.956126008983523
100
AcDbArc
 50
44.0620344081
 51
194.205431012
  0
CIRCLE
  5
28C
330
1F
100
AcDbEntity
  8
0
  6
PHANTOM
 62
     7
370
     0
100
AcDbCircle
 10
225.308630478
 20
152.0883161239
 30
0.0
 40
3.474526945992229
  0
CIRCLE
  5
28D
330
1F
100
AcDbEntity
  8
0
  6
PHANTOM
 62
     7
370
     0
100
AcDbCircle
 10
225.3081558676
 20
152.0669151388
 30
0.0
 40
1.985207206820874
  0
SPLINE
  5
28E
330
1F
100
AcDbEntity
  8
0
  6
PHANTOM
 62
     7
370
     0
100
AcDbSpline
210
0.0
220
0.0
230
1.0
 70
     8
 71
     3
 72
    11
 73
     7
 74
     0
 42
0.00000001
 43
0.00000001
 40
0.0
 40
0.0
 40
0.0
 40
0.0
 40
0.1081091345908097
 40
0.4711563613876696
 40
0.813579615809335
 40
1.0
 40
1.0
 40
1.0
 40
1.0
 10
226.5090084040677
 20
150.7897265589565
 30
0.0
 10
226.5197960592329
 20
150.8424846656403
 30
0.0
 10
226.5668103321229
 20
151.0724126700862
 30
0.0
 10
226.6690855298706
 20
151.5227849424392
 30
0.0
 10
226.812463227649
 20
152.0548047118483
 30
0.0
 10
226.8986691574304
 20
152.3473514792449
 30
0.0
 10
226.929057236961
 20
152.450475875172
 30
0.0
  0
SPLINE
  5
28F
330
1F
100
AcDbEntity
  8
0
  6
PHANTOM
 62
     7
370
     0
100
AcDbSpline
210
0.0
220
0.0
230
1.0
 70
     8
 71
     3
 72
    10
 73
     6
 74
     0
 42
0.00000001
 43
0.00000001
 40
0.0
 40
0.0
 40
0.0
 40
0.0
 40
0.4391189419612517
 40
0.751365954772227
 40
1.0
 40
1.0
 40
1.0
 40
1.0
 10
226.929057236961
 20
152.450475875172
 30
0.0
 10
226.7399256175958
 20
152.612092906767
 30
0.0
 10
226.4163070118319
 20
152.8886319572335
 30
0.0
 10
225.9865420249164
 20
153.3309990892951
 30
0.0
 10
225.784814351063
 20
153.5632660296968
 30
0.0
 10
225.6953901017224
 20
153.6662280893654
 30
0.0
  0
SPLINE
  5
290
330
1F
100
AcDbEntity
  8
0
  6
PHANTOM
 62
     7
370
     0
100
AcDbSpline
210
0.0
220
0.0
230
1.0
 70
     8
 71
     3
 72
    10
 73
     6
 74
     0
 42
0.00000001
 43
0.00000001
 40
0.0
 40
0.0
 40
0.0
 40
0.0
 40
0.4391166387378511
 40
0.7513659688407208
 40
0.9999999999999999
 40
0.9999999999999999
 40
0.9999999999999999
 40
0.9999999999999999
 10
225.6953901017224
 20
153.6662280893654
 30
0.0
 10
225.4461258411847
 20
153.5900952987266
 30
0.0
 10
225.0196134613428
 20
153.4598256096453
 30
0.0
 10
224.4402655136449
 20
153.3108243097473
 30
0.0
 10
224.164086603937
 20
153.248748554134
 30
0.0
 10
224.0416592324292
 20
153.2212309873432
 30
0.0
  0
SPLINE
  5
291
330
1F
100
AcDbEntity
  8
0
  6
PHANTOM
 62
     7
370
     0
100
AcDbSpline
210
0.0
220
0.0
230
1.0
 70
     8
 71
     3
 72
    11
 73
     7
 74
     0
 42
0.00000001
 43
0.00000001
 40
0.0
 40
0.0
 40
0.0
 40
0.0
 40
0.1864167248482952
 40
0.5288409594738539
 40
0.8918892255117717
 40
1.0
 40
1.0
 40
1.0
 40
1.0
 10
224.0416592324291
 20
153.2212309873432
 30
0.0
 10
224.0112771162264
 20
153.1181075643074
 30
0.0
 10
223.9250868481776
 20
152.8255592962972
 30
0.0
 10
223.781694593245
 20
152.2935451014895
 30
0.0
 10
223.6794419540822
 20
151.8431687749824
 30
0.0
 10
223.6324036671803
 20
151.6132434000278
 30
0.0
 10
223.6216103995358
 20
151.560485396418
 30
0.0
  0
SPLINE
  5
292
330
1F
100
AcDbEntity
  8
0
  6
PHANTOM
 62
     7
370
     0
100
AcDbSpline
210
0.0
220
0.0
230
1.0
 70
     8
 71
     3
 72
    10
 73
     6
 74
     0
 42
0.00000001
 43
0.00000001
 40
0.0
 40
0.0
 40
0.0
 40
0.0
 40
0.4391205762396921
 40
0.7513715519743388
 40
0.9999999999999999
 40
0.9999999999999999
 40
0.9999999999999999
 40
0.9999999999999999
 10
223.6216103995358
 20
151.560485396418
 30
0.0
 10
223.7857020819484
 20
151.3740135716375
 30
0.0
 10
224.0664764950634
 20
151.0549448876223
 30
0.0
 10
224.5152927718543
 20
150.6314861026322
 30
0.0
 10
224.7508562105312
 20
150.4328051282212
 30
0.0
 10
224.8552775347744
 20
150.3447331822246
 30
0.0
  0
SPLINE
  5
293
330
1F
100
AcDbEntity
  8
0
  6
PHANTOM
 62
     7
370
     0
100
AcDbSpline
210
0.0
220
0.0
230
1.0
 70
     8
 71
     3
 72
    10
 73
     6
 74
     0
 42
0.00000001
 43
0.00000001
 40
0.0
 40
0.0
 40
0.0
 40
0.0
 40
0.4391175817617184
 40
0.7513640312335856
 40
0.9999999999999999
 40
0.9999999999999999
 40
0.9999999999999999
 40
0.9999999999999999
 10
224.8552775347744
 20
150.3447331822246
 30
0.0
 10
225.079503048771
 20
150.3960084497312
 30
0.0
 10
225.4631701873673
 20
150.4837443849258
 30
0.0
 10
226.0615584108326
 20
150.6516635256277
 30
0.0
 10
226.371578341541
 20
150.747321795095
 30
0.0
 10
226.5090084040676
 20
150.7897265589565
 30
0.0
  0
LINE
  5
294
330
1F
100
AcDbEntity
  8
0
  6
PHANTOM
 62
     7
370
     0
100
AcDbLine
 10
225.2405619586
 20
153.2147936857
 30
0.0
 11
225.6953901017
 21
153.6662280894
 31
0.0
  0
LINE
  5
295
330
1F
100
AcDbEntity
  8
0
  6
PHANTOM
 62
     7
370
     0
100
AcDbLine
 10
225.2405619586
 20
153.2147936857
 30
0.0
 11
224.413696524
 21
152.9922969973
 31
0.0
  0
LINE
  5
296
330
1F
100
AcDbEntity
  8
0
  6
PHANTOM
 62
     7
370
     0
100
AcDbLine
 10
224.413696524
 20
152.9922969973
 30
0.0
 11
223.9387071097
 21
152.8644822872
 31
0.0
  0
LINE
  5
297
330
1F
100
AcDbEntity
  8
0
  6
PHANTOM
 62
     7
370
     0
100
AcDbLine
 10
226.1399662459
 20
150.6774872876
 30
0.0
 11
226.264212128
 21
151.1686705387
 31
0.0
  0
LINE
  5
298
330
1F
100
AcDbEntity
  8
0
  6
PHANTOM
 62
     7
370
     0
100
AcDbLine
 10
226.264212128
 20
151.1686705387
 30
0.0
 11
226.4742290938
 21
151.9990451968
 31
0.0
  0
LINE
  5
299
330
1F
100
AcDbEntity
  8
0
  6
PHANTOM
 62
     7
370
     0
100
AcDbLine
 10
226.4742290938
 20
151.9990451968
 30
0.0
 11
226.929057237
 21
152.4504758752
 31
0.0
  0
LINE
  5
29A
330
1F
100
AcDbEntity
  8
0
  6
PHANTOM
 62
     7
370
     0
100
AcDbLine
 10
226.4742290938
 20
151.9990451968
 30
0.0
 11
225.8573955262
 21
152.6069194413
 31
0.0
  0
LINE
  5
29B
330
1F
100
AcDbEntity
  8
0
  6
PHANTOM
 62
     7
370
     0
100
AcDbLine
 10
225.8573955262
 20
152.6069194413
 30
0.0
 11
225.2405619586
 21
153.2147936857
 31
0.0
  0
ARC
  5
29C
330
1F
100
AcDbEntity
  8
0
  6
PHANTOM
 62
     7
370
     0
100
AcDbCircle
 10
224.7990505898
 20
151.5390311137
 30
0.0
 40
1.503489103621684
100
AcDbArc
 50
45.2571648052
 51
104.851016622
  0
ARC
  5
29D
330
1F
100
AcDbEntity
  8
0
  6
PHANTOM
 62
     7
370
     0
100
AcDbCircle
 10
224.8041812359
 20
151.532352388
 30
0.0
 40
1.504644374388221
100
AcDbArc
 50
346.012737405
 51
45.5749566959
  0
ARC
  5
29E
330
1F
100
AcDbEntity
  8
0
  6
PHANTOM
 62
     7
370
     0
100
AcDbCircle
 10
224.8447264667
 20
151.5272382914
 30
0.0
 40
1.464073213998925
100
AcDbArc
 50
322.6720815964
 51
345.8234210791
  0
ARC
  5
29F
330
1F
100
AcDbEntity
  8
0
  6
PHANTOM
 62
     7
370
     0
100
AcDbCircle
 10
224.7928751001
 20
151.5805382615
 30
0.0
 40
1.461793118369976
100
AcDbArc
 50
105.0340347295
 51
128.9154034456
  0
LINE
  5
2A0
330
1F
100
AcDbEntity
  8
0
  6
Continuous
 62
     7
370
    15
100
AcDbLine
 10
178.6557024682
 20
115.764678955
 30
0.0
 11
178.6557024682
 21
120.7646788432
 31
0.0
  0
LINE
  5
2A1
330
1F
100
AcDbEntity
  8
0
  6
Continuous
 62
     7
370
    15
100
AcDbLine
 10
178.8556984032
 20
115.964678848
 30
0.0
 11
178.8556984032
 21
120.5646789501
 31
0.0
  0
ELLIPSE
  5
2A2
330
1F
100
AcDbEntity
  8
0
  6
HIDDEN
 62
     7
370
     0
100
AcDbEllipse
 10
128.5493122475
 20
118.2646788991
 30
0.0
 11
0.0
 21
46.99999999999999
 31
0.0
210
0.0
220
0.0
230
1.0
 40
0.2679491924
 41
0.890943192145289
 42
1.67491048934541
  0
LINE
  5
2A3
330
1F
100
AcDbEntity
  8
0
  6
HIDDEN
 62
     7
370
     0
100
AcDbLine
 10
118.7556999141
 20
147.8125825858
 30
0.0
 11
118.7556999141
 21
156.0362205243
 31
0.0
  0
ELLIPSE
  5
2A4
330
1F
100
AcDbEntity
  8
0
  6
HIDDEN
 62
     7
370
     0
100
AcDbEllipse
 10
223.1404723055
 20
118.2646788991
 30
0.0
 11
175.4063879558406
 21
0.0
 31
0.0
210
0.0
220
0.0
230
1.0
 40
0.2679491924
 41
2.195857846112018
 42
2.208189456643682
  0
ELLIPSE
  5
2A5
330
1F
100
AcDbEntity
  8
0
  6
HIDDEN
 62
     7
370
     0
100
AcDbEllipse
 10
127.8710385873
 20
118.2646788991
 30
0.0
 11
0.0
 21
47.00000000000001
 31
0.0
210
0.0
220
0.0
230
1.0
 40
0.2679491924
 41
0.4880058650091778
 42
0.6250615193171167
  0
SPLINE
  5
2A6
330
1F
100
AcDbEntity
  8
0
  6
HIDDEN
 62
     7
370
     0
100
AcDbSpline
210
0.0
220
0.0
230
1.0
 70
     8
 71
     3
 72
    14
 73
    10
 74
     0
 42
0.00000001
 43
0.00000001
 40
0.0
 40
0.0
 40
0.0
 40
0.0
 40
0.25
 40
0.25
 40
0.5
 40
0.5
 40
0.75
 40
0.75
 40
1.0
 40
1.0
 40
1.0
 40
1.0
 10
122.9366877605836
 20
159.9153289499994
 30
0.0
 10
122.8661521408745
 20
159.9522078679066
 30
0.0
 10
122.7754334271359
 20
159.9799334205683
 30
0.0
 10
122.574376403275
 20
160.0074995733219
 30
0.0
 10
122.4631242485176
 20
160.006743086951
 30
0.0
 10
122.2633916668718
 20
159.9763615417731
 30
0.0
 10
122.1737719541017
 20
159.9471080905723
 30
0.0
 10
122.0377075371184
 20
159.8720529017745
 30
0.0
 10
121.9908052222734
 20
159.8268395843529
 30
0.0
 10
121.9663288482478
 20
159.7783498738954
 30
0.0
  0
ARC
  5
2A7
330
1F
100
AcDbEntity
  8
0
  6
HIDDEN
 62
     7
370
     0
100
AcDbCircle
 10
101.1600178973
 20
118.2646788991
 30
0.0
 40
47.00000000000063
100
AcDbArc
 50
56.7387438589
 51
62.3975841322
  0
ELLIPSE
  5
2A8
330
1F
100
AcDbEntity
  8
0
  6
HIDDEN
 62
     7
370
     0
100
AcDbEllipse
 10
223.1404723054
 20
118.2646788991
 30
0.0
 11
175.4063879557338
 21
0.0
 31
0.0
210
0.0
220
0.0
230
1.0
 40
0.2679491924
 41
2.142532423388601
 42
2.151314759806146
  0
ELLIPSE
  5
2A9
330
1F
100
AcDbEntity
  8
0
  6
HIDDEN
 62
     7
370
     0
100
AcDbEllipse
 10
135.0436423647
 20
118.2646788991
 30
0.0
 11
0.0
 21
47.00000000000001
 31
0.0
210
0.0
220
0.0
230
1.0
 40
0.2679491924
 41
0.4387532743425036
 42
0.5717360965937056
  0
SPLINE
  5
2AA
330
1F
100
AcDbEntity
  8
0
  6
HIDDEN
 62
     7
370
     0
100
AcDbSpline
210
0.0
220
0.0
230
1.0
 70
     8
 71
     3
 72
    14
 73
    10
 74
     0
 42
0.00000001
 43
0.00000001
 40
0.0
 40
0.0
 40
0.0
 40
0.0
 40
0.25
 40
0.25
 40
0.5
 40
0.5
 40
0.75
 40
0.75
 40
1.0
 40
1.0
 40
1.0
 40
1.0
 10
130.6640943708962
 20
160.9339762096505
 30
0.0
 10
130.5932138972983
 20
160.9667111977893
 30
0.0
 10
130.5025397181578
 20
160.9910335912099
 30
0.0
 10
130.3028735794592
 20
161.0152723906095
 30
0.0
 10
130.192908450525
 20
161.014770669727
 30
0.0
 10
129.9939874908411
 20
160.9885502736674
 30
0.0
 10
129.9044410717799
 20
160.963257166748
 30
0.0
 10
129.7662712926773
 20
160.8966812084456
 30
0.0
 10
129.7185774591331
 20
160.8564381092744
 30
0.0
 10
129.6937354585604
 20
160.8129324104294
 30
0.0
  0
ARC
  5
2AB
330
1F
100
AcDbEntity
  8
0
  6
HIDDEN
 62
     7
370
     0
100
AcDbCircle
 10
110.9579768684
 20
118.2646788991
 30
0.0
 40
47.0000000000005
100
AcDbArc
 50
59.7082560466
 51
65.2109178393
  0
ELLIPSE
  5
2AC
330
1F
100
AcDbEntity
  8
0
  6
HIDDEN
 62
     7
370
     0
100
AcDbEllipse
 10
223.1404723054
 20
118.2646788991
 30
0.0
 11
175.4063879557338
 21
0.0
 31
0.0
210
0.0
220
0.0
230
1.0
 40
0.2679491924
 41
2.090978877574937
 42
2.099486994953198
  0
ELLIPSE
  5
2AD
330
1F
100
AcDbEntity
  8
0
  6
HIDDEN
 62
     7
370
     0
100
AcDbEllipse
 10
142.216246142
 20
118.2646788991
 30
0.0
 11
0.0
 21
47.00000000000001
 31
0.0
210
0.0
220
0.0
230
1.0
 40
0.2679491924
 41
0.3906146641110012
 42
0.5201825507800412
  0
SPLINE
  5
2AE
330
1F
100
AcDbEntity
  8
0
  6
HIDDEN
 62
     7
370
     0
100
AcDbSpline
210
0.0
220
0.0
230
1.0
 70
     8
 71
     3
 72
    14
 73
    10
 74
     0
 42
0.00000001
 43
0.00000001
 40
0.0
 40
0.0
 40
0.0
 40
0.0
 40
0.25
 40
0.25
 40
0.5
 40
0.5
 40
0.75
 40
0.75
 40
1.0
 40
1.0
 40
1.0
 40
1.0
 10
138.3915009812087
 20
161.8305697098252
 30
0.0
 10
138.3203243619578
 20
161.8593821564894
 30
0.0
 10
138.229700840027
 20
161.8805686954585
 30
0.0
 10
138.0311905133512
 20
161.9017276720315
 30
0.0
 10
137.9223236582175
 20
161.9014093480054
 30
0.0
 10
137.724051500954
 20
161.8788776120846
 30
0.0
 10
137.6345197507196
 20
161.8570735426906
 30
0.0
 10
137.4948839853996
 20
161.7986713185103
 30
0.0
 10
137.4463076957122
 20
161.763086687337
 30
0.0
 10
137.4211420688729
 20
161.7244131570007
 30
0.0
  0
ARC
  5
2AF
330
1F
100
AcDbEntity
  8
0
  6
HIDDEN
 62
     7
370
     0
100
AcDbCircle
 10
120.7559358395
 20
118.2646788991
 30
0.0
 40
47.00000000000046
100
AcDbArc
 50
62.5903762063
 51
67.9617930749
  0
ELLIPSE
  5
2B0
330
1F
100
AcDbEntity
  8
0
  6
HIDDEN
 62
     7
370
     0
100
AcDbEllipse
 10
223.1404723054
 20
118.2646788991
 30
0.0
 11
175.4063879557338
 21
0.0
 31
0.0
210
0.0
220
0.0
230
1.0
 40
0.2679491924
 41
2.040906203333468
 42
2.049184508727561
  0
ELLIPSE
  5
2B1
330
1F
100
AcDbEntity
  8
0
  6
HIDDEN
 62
     7
370
     0
100
AcDbEllipse
 10
149.3888499194
 20
118.2646788991
 30
0.0
 11
0.0
 21
47.00000000000001
 31
0.0
210
0.0
220
0.0
230
1.0
 40
0.2679491924
 41
0.3434127672897878
 42
0.470109876538572
  0
SPLINE
  5
2B2
330
1F
100
AcDbEntity
  8
0
  6
HIDDEN
 62
     7
370
     0
100
AcDbSpline
210
0.0
220
0.0
230
1.0
 70
     8
 71
     3
 72
    14
 73
    10
 74
     0
 42
0.00000001
 43
0.00000001
 40
0.0
 40
0.0
 40
0.0
 40
0.0
 40
0.25
 40
0.25
 40
0.5
 40
0.5
 40
0.75
 40
0.75
 40
1.0
 40
1.0
 40
1.0
 40
1.0
 10
146.1189075915212
 20
162.6125128612014
 30
0.0
 10
146.0474782841256
 20
162.6375828135128
 30
0.0
 10
145.956906986766
 20
162.655847763036
 30
0.0
 10
145.7593554100124
 20
162.6741241564672
 30
0.0
 10
145.6514244817321
 20
162.673935791416
 30
0.0
 10
145.4536688538245
 20
162.6547289176751
 30
0.0
 10
145.3639081011511
 20
162.6360010859026
 30
0.0
 10
145.2235871299065
 20
162.5855312687654
 30
0.0
 10
145.173998227142
 20
162.5543616170309
 30
0.0
 10
145.1485486791854
 20
162.5203988967744
 30
0.0
  0
ARC
  5
2B3
330
1F
100
AcDbEntity
  8
0
  6
HIDDEN
 62
     7
370
     0
100
AcDbCircle
 10
130.5538948107
 20
118.2646788991
 30
0.0
 40
47.00000000000036
100
AcDbArc
 50
65.3991301296
 51
70.6601654549
  0
ELLIPSE
  5
2B4
330
1F
100
AcDbEntity
  8
0
  6
HIDDEN
 62
     7
370
     0
100
AcDbEllipse
 10
223.1404723054
 20
118.2646788991
 30
0.0
 11
175.4063879557337
 21
0.0
 31
0.0
210
0.0
220
0.0
230
1.0
 40
0.2679491924
 41
1.992077496010458
 42
2.000162504887511
  0
ELLIPSE
  5
2B5
330
1F
100
AcDbEntity
  8
0
  6
HIDDEN
 62
     7
370
     0
100
AcDbEllipse
 10
156.5614536967
 20
118.2646788991
 30
0.0
 11
0.0
 21
47.00000000000001
 31
0.0
210
0.0
220
0.0
230
1.0
 40
0.2679491924
 41
0.296995156886629
 42
0.4212811692155611
  0
SPLINE
  5
2B6
330
1F
100
AcDbEntity
  8
0
  6
HIDDEN
 62
     7
370
     0
100
AcDbSpline
210
0.0
220
0.0
230
1.0
 70
     8
 71
     3
 72
    14
 73
    10
 74
     0
 42
0.00000001
 43
0.00000001
 40
0.0
 40
0.0
 40
0.0
 40
0.0
 40
0.25
 40
0.25
 40
0.5
 40
0.5
 40
0.75
 40
0.75
 40
1.0
 40
1.0
 40
1.0
 40
1.0
 10
153.8463142018338
 20
163.2857799292881
 30
0.0
 10
153.7746714967361
 20
163.3072538520977
 30
0.0
 10
153.684150850204
 20
163.3227692140671
 30
0.0
 10
153.4873900808088
 20
163.3383205832253
 30
0.0
 10
153.3802514050556
 20
163.3382217071557
 30
0.0
 10
153.1829043821856
 20
163.3220575651636
 30
0.0
 10
153.0929778734068
 20
163.3062018167098
 30
0.0
 10
152.9520616442155
 20
163.2632106688418
 30
0.0
 10
152.9016508426139
 20
163.2363757515276
 30
0.0
 10
152.875955289498
 20
163.2070267360785
 30
0.0
  0
ARC
  5
2B7
330
1F
100
AcDbEntity
  8
0
  6
HIDDEN
 62
     7
370
     0
100
AcDbCircle
 10
140.3518537818
 20
118.2646788991
 30
0.0
 40
47.00000000000031
100
AcDbArc
 50
68.1461516746
 51
73.3146156051
  0
ELLIPSE
  5
2B8
330
1F
100
AcDbEntity
  8
0
  6
HIDDEN
 62
     7
370
     0
100
AcDbEllipse
 10
223.1404723054
 20
118.2646788991
 30
0.0
 11
175.4063879557338
 21
0.0
 31
0.0
210
0.0
220
0.0
230
1.0
 40
0.2679491924
 41
1.944295551185004
 42
1.952217934303847
  0
ELLIPSE
  5
2B9
330
1F
100
AcDbEntity
  8
0
  6
HIDDEN
 62
     7
370
     0
100
AcDbEllipse
 10
163.7340574741
 20
118.2646788991
 30
0.0
 11
0.0
 21
47.00000000000001
 31
0.0
210
0.0
220
0.0
230
1.0
 40
0.2679491924
 41
0.2512283491151556
 42
0.3734992243901084
  0
SPLINE
  5
2BA
330
1F
100
AcDbEntity
  8
0
  6
HIDDEN
 62
     7
370
     0
100
AcDbSpline
210
0.0
220
0.0
230
1.0
 70
     8
 71
     3
 72
    14
 73
    10
 74
     0
 42
0.00000001
 43
0.00000001
 40
0.0
 40
0.0
 40
0.0
 40
0.0
 40
0.25
 40
0.25
 40
0.5
 40
0.5
 40
0.75
 40
0.75
 40
1.0
 40
1.0
 40
1.0
 40
1.0
 10
161.5737208121463
 20
163.8551858567212
 30
0.0
 10
161.5019006792706
 20
163.8731822917144
 30
0.0
 10
161.4114269214079
 20
163.8860856044839
 30
0.0
 10
161.2153113472129
 20
163.8990374168797
 30
0.0
 10
161.1088345574146
 20
163.8989972108284
 30
0.0
 10
160.9118075025013
 20
163.8856566718812
 30
0.0
 10
160.8217637302996
 20
163.8725088171672
 30
0.0
 10
160.6803380158741
 20
163.8366396887145
 30
0.0
 10
160.6292669446457
 20
163.8140578664002
 30
0.0
 10
160.6033618998105
 20
163.7892451411806
 30
0.0
  0
ARC
  5
2BB
330
1F
100
AcDbEntity
  8
0
  6
HIDDEN
 62
     7
370
     0
100
AcDbCircle
 10
150.1498127529
 20
118.2646788991
 30
0.0
 40
47.0000000000003
100
AcDbArc
 50
70.8412908914
 51
75.9326746365
  0
ELLIPSE
  5
2BC
330
1F
100
AcDbEntity
  8
0
  6
HIDDEN
 62
     7
370
     0
100
AcDbEllipse
 10
223.1404723054
 20
118.2646788991
 30
0.0
 11
175.40638795573
 21
0.0
 31
0.0
210
0.0
220
0.0
230
1.0
 40
0.2679491924
 41
1.897392853997135
 42
1.905178881171815
  0
ELLIPSE
  5
2BD
330
1F
100
AcDbEntity
  8
0
  6
HIDDEN
 62
     7
370
     0
100
AcDbEllipse
 10
170.9066612514
 20
118.2646788991
 30
0.0
 11
0.0
 21
47.00000000000001
 31
0.0
210
0.0
220
0.0
230
1.0
 40
0.2679491924
 41
0.2059933703661828
 42
0.3265965272022403
  0
SPLINE
  5
2BE
330
1F
100
AcDbEntity
  8
0
  6
HIDDEN
 62
     7
370
     0
100
AcDbSpline
210
0.0
220
0.0
230
1.0
 70
     8
 71
     3
 72
    10
 73
     6
 74
     0
 42
0.00000001
 43
0.00000001
 40
0.0
 40
0.0
 40
0.0
 40
0.0
 40
0.5
 40
0.5
 40
1.0
 40
1.0
 40
1.0
 40
1.0
 10
168.7408904432113
 20
164.354811915781
 30
0.0
 10
168.6413095809974
 20
164.3494839533773
 30
0.0
 10
168.551022982263
 20
164.3388942964216
 30
0.0
 10
168.4088373432455
 20
164.3098829495833
 30
0.0
 10
168.3569457872422
 20
164.2914323156847
 30
0.0
 10
168.3307685101231
 20
164.2710182427319
 30
0.0
  0
ELLIPSE
  5
2BF
330
1F
100
AcDbEntity
  8
0
  6
HIDDEN
 62
     7
370
     0
100
AcDbEllipse
 10
203.0878521517
 20
118.2646788991
 30
0.0
 11
175.4063879557337
 21
0.0
 31
0.0
210
0.0
220
0.0
230
1.0
 40
0.2679491924
 41
1.764310415503415
 42
1.767883401152225
  0
LINE
  5
2C0
330
1F
100
AcDbEntity
  8
0
  6
HIDDEN
 62
     7
370
     0
100
AcDbLine
 10
169.3557015026
 20
164.3874012268
 30
0.0
 11
169.3557015026
 21
165.2646772898
 31
0.0
  0
LINE
  5
2C1
330
1F
100
AcDbEntity
  8
0
  6
HIDDEN
 62
     7
370
     0
100
AcDbLine
 10
169.3557015026
 20
165.2455889023
 30
0.0
 11
169.3557015026
 21
164.3874012268
 31
0.0
  0
SPLINE
  5
2C2
330
1F
100
AcDbEntity
  8
0
  6
HIDDEN
 62
     7
370
     0
100
AcDbSpline
210
0.0
220
0.0
230
1.0
 70
     8
 71
     3
 72
    10
 73
     6
 74
     0
 42
0.00000001
 43
0.00000001
 40
0.0
 40
0.0
 40
0.0
 40
0.0
 40
0.5
 40
0.5
 40
1.0
 40
1.0
 40
1.0
 40
1.0
 10
168.7408904432113
 20
164.354811915781
 30
0.0
 10
168.6413095809974
 20
164.3494839533773
 30
0.0
 10
168.551022982263
 20
164.3388942964216
 30
0.0
 10
168.4088373432455
 20
164.3098829495833
 30
0.0
 10
168.3569457872422
 20
164.2914323156847
 30
0.0
 10
168.3307685101231
 20
164.2710182427319
 30
0.0
  0
SPLINE
  5
2C3
330
1F
100
AcDbEntity
  8
0
  6
HIDDEN
 62
     7
370
     0
100
AcDbSpline
210
0.0
220
0.0
230
1.0
 70
     8
 71
     3
 72
    14
 73
    10
 74
     0
 42
0.00000001
 43
0.00000001
 40
0.0
 40
0.0
 40
0.0
 40
0.0
 40
0.25
 40
0.25
 40
0.5
 40
0.5
 40
0.75
 40
0.75
 40
1.0
 40
1.0
 40
1.0
 40
1.0
 10
161.5737208121463
 20
163.8551858567212
 30
0.0
 10
161.5019006792706
 20
163.8731822917144
 30
0.0
 10
161.4114269214079
 20
163.8860856044839
 30
0.0
 10
161.2153113472129
 20
163.8990374168797
 30
0.0
 10
161.1088345574146
 20
163.8989972108284
 30
0.0
 10
160.9118075025013
 20
163.8856566718812
 30
0.0
 10
160.8217637302996
 20
163.8725088171672
 30
0.0
 10
160.6803380158741
 20
163.8366396887146
 30
0.0
 10
160.6292669446457
 20
163.8140578664002
 30
0.0
 10
160.6033618998105
 20
163.7892451411806
 30
0.0
  0
SPLINE
  5
2C4
330
1F
100
AcDbEntity
  8
0
  6
HIDDEN
 62
     7
370
     0
100
AcDbSpline
210
0.0
220
0.0
230
1.0
 70
     8
 71
     3
 72
    14
 73
    10
 74
     0
 42
0.00000001
 43
0.00000001
 40
0.0
 40
0.0
 40
0.0
 40
0.0
 40
0.25
 40
0.25
 40
0.5
 40
0.5
 40
0.75
 40
0.75
 40
1.0
 40
1.0
 40
1.0
 40
1.0
 10
153.8463142018338
 20
163.2857799292881
 30
0.0
 10
153.7746714967361
 20
163.3072538520977
 30
0.0
 10
153.684150850204
 20
163.3227692140672
 30
0.0
 10
153.4873900808088
 20
163.3383205832253
 30
0.0
 10
153.3802514050556
 20
163.3382217071557
 30
0.0
 10
153.1829043821856
 20
163.3220575651636
 30
0.0
 10
153.0929778734068
 20
163.3062018167098
 30
0.0
 10
152.9520616442155
 20
163.2632106688418
 30
0.0
 10
152.9016508426139
 20
163.2363757515276
 30
0.0
 10
152.875955289498
 20
163.2070267360785
 30
0.0
  0
SPLINE
  5
2C5
330
1F
100
AcDbEntity
  8
0
  6
HIDDEN
 62
     7
370
     0
100
AcDbSpline
210
0.0
220
0.0
230
1.0
 70
     8
 71
     3
 72
    14
 73
    10
 74
     0
 42
0.00000001
 43
0.00000001
 40
0.0
 40
0.0
 40
0.0
 40
0.0
 40
0.25
 40
0.25
 40
0.5
 40
0.5
 40
0.75
 40
0.75
 40
1.0
 40
1.0
 40
1.0
 40
1.0
 10
146.1189075915212
 20
162.6125128612014
 30
0.0
 10
146.0474782841256
 20
162.6375828135128
 30
0.0
 10
145.956906986766
 20
162.655847763036
 30
0.0
 10
145.7593554100124
 20
162.6741241564673
 30
0.0
 10
145.6514244817321
 20
162.673935791416
 30
0.0
 10
145.4536688538245
 20
162.6547289176751
 30
0.0
 10
145.3639081011511
 20
162.6360010859026
 30
0.0
 10
145.2235871299065
 20
162.5855312687654
 30
0.0
 10
145.173998227142
 20
162.5543616170309
 30
0.0
 10
145.1485486791854
 20
162.5203988967744
 30
0.0
  0
SPLINE
  5
2C6
330
1F
100
AcDbEntity
  8
0
  6
HIDDEN
 62
     7
370
     0
100
AcDbSpline
210
0.0
220
0.0
230
1.0
 70
     8
 71
     3
 72
    14
 73
    10
 74
     0
 42
0.00000001
 43
0.00000001
 40
0.0
 40
0.0
 40
0.0
 40
0.0
 40
0.25
 40
0.25
 40
0.5
 40
0.5
 40
0.75
 40
0.75
 40
1.0
 40
1.0
 40
1.0
 40
1.0
 10
138.3915009812087
 20
161.8305697098252
 30
0.0
 10
138.3203243619578
 20
161.8593821564894
 30
0.0
 10
138.229700840027
 20
161.8805686954586
 30
0.0
 10
138.0311905133512
 20
161.9017276720315
 30
0.0
 10
137.9223236582175
 20
161.9014093480054
 30
0.0
 10
137.724051500954
 20
161.8788776120847
 30
0.0
 10
137.6345197507196
 20
161.8570735426906
 30
0.0
 10
137.4948839853996
 20
161.7986713185103
 30
0.0
 10
137.4463076957122
 20
161.763086687337
 30
0.0
 10
137.4211420688729
 20
161.7244131570007
 30
0.0
  0
SPLINE
  5
2C7
330
1F
100
AcDbEntity
  8
0
  6
HIDDEN
 62
     7
370
     0
100
AcDbSpline
210
0.0
220
0.0
230
1.0
 70
     8
 71
     3
 72
    14
 73
    10
 74
     0
 42
0.00000001
 43
0.00000001
 40
0.0
 40
0.0
 40
0.0
 40
0.0
 40
0.25
 40
0.25
 40
0.5
 40
0.5
 40
0.75
 40
0.75
 40
1.0
 40
1.0
 40
1.0
 40
1.0
 10
130.6640943708962
 20
160.9339762096505
 30
0.0
 10
130.5932138972983
 20
160.9667111977894
 30
0.0
 10
130.5025397181578
 20
160.9910335912099
 30
0.0
 10
130.3028735794592
 20
161.0152723906095
 30
0.0
 10
130.192908450525
 20
161.014770669727
 30
0.0
 10
129.9939874908411
 20
160.9885502736674
 30
0.0
 10
129.9044410717799
 20
160.963257166748
 30
0.0
 10
129.7662712926773
 20
160.8966812084456
 30
0.0
 10
129.7185774591331
 20
160.8564381092744
 30
0.0
 10
129.6937354585604
 20
160.8129324104294
 30
0.0
  0
SPLINE
  5
2C8
330
1F
100
AcDbEntity
  8
0
  6
HIDDEN
 62
     7
370
     0
100
AcDbSpline
210
0.0
220
0.0
230
1.0
 70
     8
 71
     3
 72
    14
 73
    10
 74
     0
 42
0.00000001
 43
0.00000001
 40
0.0
 40
0.0
 40
0.0
 40
0.0
 40
0.25
 40
0.25
 40
0.5
 40
0.5
 40
0.75
 40
0.75
 40
1.0
 40
1.0
 40
1.0
 40
1.0
 10
122.9366877605836
 20
159.9153289499994
 30
0.0
 10
122.8661521408745
 20
159.9522078679066
 30
0.0
 10
122.7754334271359
 20
159.9799334205683
 30
0.0
 10
122.574376403275
 20
160.0074995733219
 30
0.0
 10
122.4631242485176
 20
160.0067430869511
 30
0.0
 10
122.2633916668718
 20
159.9763615417731
 30
0.0
 10
122.1737719541017
 20
159.9471080905723
 30
0.0
 10
122.0377075371184
 20
159.8720529017745
 30
0.0
 10
121.9908052222734
 20
159.8268395843529
 30
0.0
 10
121.9663288482478
 20
159.7783498738954
 30
0.0
  0
LINE
  5
2C9
330
1F
100
AcDbEntity
  8
0
  6
HIDDEN
 62
     7
370
     0
100
AcDbLine
 10
169.3557015026
 20
71.2646805084
 30
0.0
 11
169.3557015026
 21
72.1419565714
 31
0.0
  0
ELLIPSE
  5
2CA
330
1F
100
AcDbEntity
  8
0
  6
HIDDEN
 62
     7
370
     0
100
AcDbEllipse
 10
203.0878521517
 20
118.2646788991
 30
0.0
 11
175.4063879557337
 21
0.0
 31
0.0
210
0.0
220
0.0
230
1.0
 40
0.2679491924
 41
4.515301906027367
 42
4.518874891676177
  0
SPLINE
  5
2CB
330
1F
100
AcDbEntity
  8
0
  6
HIDDEN
 62
     7
370
     0
100
AcDbSpline
210
0.0
220
0.0
230
1.0
 70
     8
 71
     3
 72
    10
 73
     6
 74
     0
 42
0.00000001
 43
0.00000001
 40
0.0
 40
0.0
 40
0.0
 40
0.0
 40
0.5
 40
0.5
 40
1.0
 40
1.0
 40
1.0
 40
1.0
 10
168.3307685101231
 20
72.25833955543324
 30
0.0
 10
168.3569794158763
 20
72.23789925754548
 30
0.0
 10
168.4087907306521
 20
72.21948728050116
 30
0.0
 10
168.5509890829296
 20
72.19046749901159
 30
0.0
 10
168.641175276474
 20
72.17988103060073
 30
0.0
 10
168.7408904432113
 20
72.1745458823841
 30
0.0
  0
ELLIPSE
  5
2CC
330
1F
100
AcDbEntity
  8
0
  6
HIDDEN
 62
     7
370
     0
100
AcDbEllipse
 10
170.9066612514
 20
118.2646788991
 30
0.0
 11
0.0
 21
47.00000000000001
 31
0.0
210
0.0
220
0.0
230
1.0
 40
0.2679491924
 41
2.814996126387553
 42
2.93559928322361
  0
ELLIPSE
  5
2CD
330
1F
100
AcDbEntity
  8
0
  6
HIDDEN
 62
     7
370
     0
100
AcDbEllipse
 10
223.1404723054
 20
118.2646788991
 30
0.0
 11
175.40638795573
 21
0.0
 31
0.0
210
0.0
220
0.0
230
1.0
 40
0.2679491924
 41
4.37800642600778
 42
4.385792453182461
  0
ARC
  5
2CE
330
1F
100
AcDbEntity
  8
0
  6
HIDDEN
 62
     7
370
     0
100
AcDbCircle
 10
150.1498127529
 20
118.2646788991
 30
0.0
 40
47.00000000000023
100
AcDbArc
 50
284.0673253635
 51
289.1587091086
  0
SPLINE
  5
2CF
330
1F
100
AcDbEntity
  8
0
  6
HIDDEN
 62
     7
370
     0
100
AcDbSpline
210
0.0
220
0.0
230
1.0
 70
     8
 71
     3
 72
    14
 73
    10
 74
     0
 42
0.00000001
 43
0.00000001
 40
0.0
 40
0.0
 40
0.0
 40
0.0
 40
0.25
 40
0.25
 40
0.5
 40
0.5
 40
0.75
 40
0.75
 40
1.0
 40
1.0
 40
1.0
 40
1.0
 10
160.6033618998105
 20
72.74011265698452
 30
0.0
 10
160.6292746773942
 20
72.71529252507774
 30
0.0
 10
160.6802608022609
 20
72.69278633859302
 30
0.0
 10
160.8207552882946
 20
72.65705647570641
 30
0.0
 10
160.9107001661002
 20
72.6438003766045
 30
0.0
 10
161.108917293876
 20
72.63033083696227
 30
0.0
 10
161.2143152926205
 20
72.6302915838003
 30
0.0
 10
161.4108407194808
 20
72.64319679282951
 30
0.0
 10
161.5018649345591
 20
72.65616654966722
 30
0.0
 10
161.5737208121463
 20
72.6741719414439
 30
0.0
  0
ELLIPSE
  5
2D0
330
1F
100
AcDbEntity
  8
0
  6
HIDDEN
 62
     7
370
     0
100
AcDbEllipse
 10
163.7340574741
 20
118.2646788991
 30
0.0
 11
0.0
 21
47.00000000000001
 31
0.0
210
0.0
220
0.0
230
1.0
 40
0.2679491924
 41
2.768093429199685
 42
2.890364304474637
  0
ELLIPSE
  5
2D1
330
1F
100
AcDbEntity
  8
0
  6
HIDDEN
 62
     7
370
     0
100
AcDbEllipse
 10
223.1404723054
 20
118.2646788991
 30
0.0
 11
175.4063879557338
 21
0.0
 31
0.0
210
0.0
220
0.0
230
1.0
 40
0.2679491924
 41
4.330967372875749
 42
4.338889755994592
  0
ARC
  5
2D2
330
1F
100
AcDbEntity
  8
0
  6
HIDDEN
 62
     7
370
     0
100
AcDbCircle
 10
140.3518537818
 20
118.2646788991
 30
0.0
 40
47.00000000000029
100
AcDbArc
 50
286.6853843949
 51
291.8538483254
  0
SPLINE
  5
2D3
330
1F
100
AcDbEntity
  8
0
  6
HIDDEN
 62
     7
370
     0
100
AcDbSpline
210
0.0
220
0.0
230
1.0
 70
     8
 71
     3
 72
    14
 73
    10
 74
     0
 42
0.00000001
 43
0.00000001
 40
0.0
 40
0.0
 40
0.0
 40
0.0
 40
0.25
 40
0.25
 40
0.5
 40
0.5
 40
0.75
 40
0.75
 40
1.0
 40
1.0
 40
1.0
 40
1.0
 10
152.875955289498
 20
73.3223310620866
 30
0.0
 10
152.9016605735249
 20
73.29297093215956
 30
0.0
 10
152.9520972261873
 20
73.2661982539877
 30
0.0
 10
153.0917867210853
 20
73.22345791191495
 30
0.0
 10
153.1813300761999
 20
73.20746993376228
 30
0.0
 10
153.3804003004161
 20
73.19108343235756
 30
0.0
 10
153.486261073432
 20
73.1909984375947
 30
0.0
 10
153.6834844549382
 20
73.20648591565218
 30
0.0
 10
153.7746202881714
 20
73.22208859699916
 30
0.0
 10
153.8463142018338
 20
73.24357786887694
 30
0.0
  0
ELLIPSE
  5
2D4
330
1F
100
AcDbEntity
  8
0
  6
HIDDEN
 62
     7
370
     0
100
AcDbEllipse
 10
156.5614536967
 20
118.2646788991
 30
0.0
 11
0.0
 21
47.00000000000001
 31
0.0
210
0.0
220
0.0
230
1.0
 40
0.2679491924
 41
2.720311484374232
 42
2.844597496703165
  0
ELLIPSE
  5
2D5
330
1F
100
AcDbEntity
  8
0
  6
HIDDEN
 62
     7
370
     0
100
AcDbEllipse
 10
223.1404723054
 20
118.2646788991
 30
0.0
 11
175.4063879557337
 21
0.0
 31
0.0
210
0.0
220
0.0
230
1.0
 40
0.2679491924
 41
4.283022802292088
 42
4.291107811169139
  0
ARC
  5
2D6
330
1F
100
AcDbEntity
  8
0
  6
HIDDEN
 62
     7
370
     0
100
AcDbCircle
 10
130.5538948107
 20
118.2646788991
 30
0.0
 40
47.00000000000033
100
AcDbArc
 50
289.3398345451
 51
294.6008698704
  0
SPLINE
  5
2D7
330
1F
100
AcDbEntity
  8
0
  6
HIDDEN
 62
     7
370
     0
100
AcDbSpline
210
0.0
220
0.0
230
1.0
 70
     8
 71
     3
 72
    14
 73
    10
 74
     0
 42
0.00000001
 43
0.00000001
 40
0.0
 40
0.0
 40
0.0
 40
0.0
 40
0.25
 40
0.25
 40
0.5
 40
0.5
 40
0.75
 40
0.75
 40
1.0
 40
1.0
 40
1.0
 40
1.0
 10
145.1485486791854
 20
74.00895890139073
 30
0.0
 10
145.1740095055949
 20
73.97498112990658
 30
0.0
 10
145.2237938551359
 20
73.94382712026753
 30
0.0
 10
145.3625103783064
 20
73.89378513259717
 30
0.0
 10
145.4518615773671
 20
73.87486961173165
 30
0.0
 10
145.6512973461479
 20
73.85536978309185
 30
0.0
 10
145.7580669827134
 20
73.8551822407678
 30
0.0
 10
145.956146434244
 20
73.87337257350909
 30
0.0
 10
146.0474080335768
 20
73.89175032841568
 30
0.0
 10
146.1189075915212
 20
73.91684493696368
 30
0.0
  0
ELLIPSE
  5
2D8
330
1F
100
AcDbEntity
  8
0
  6
HIDDEN
 62
     7
370
     0
100
AcDbEllipse
 10
149.3888499194
 20
118.2646788991
 30
0.0
 11
0.0
 21
47.00000000000001
 31
0.0
210
0.0
220
0.0
230
1.0
 40
0.2679491924
 41
2.671482777051221
 42
2.798179886300005
  0
ELLIPSE
  5
2D9
330
1F
100
AcDbEntity
  8
0
  6
HIDDEN
 62
     7
370
     0
100
AcDbEllipse
 10
223.1404723054
 20
118.2646788991
 30
0.0
 11
175.4063879557338
 21
0.0
 31
0.0
210
0.0
220
0.0
230
1.0
 40
0.2679491924
 41
4.234000798452039
 42
4.242279103846132
  0
ARC
  5
2DA
330
1F
100
AcDbEntity
  8
0
  6
HIDDEN
 62
     7
370
     0
100
AcDbCircle
 10
120.7559358395
 20
118.2646788991
 30
0.0
 40
47.00000000000042
100
AcDbArc
 50
292.0382069251
 51
297.4096237937
  0
SPLINE
  5
2DB
330
1F
100
AcDbEntity
  8
0
  6
HIDDEN
 62
     7
370
     0
100
AcDbSpline
210
0.0
220
0.0
230
1.0
 70
     8
 71
     3
 72
    14
 73
    10
 74
     0
 42
0.00000001
 43
0.00000001
 40
0.0
 40
0.0
 40
0.0
 40
0.0
 40
0.25
 40
0.25
 40
0.5
 40
0.5
 40
0.75
 40
0.75
 40
1.0
 40
1.0
 40
1.0
 40
1.0
 10
137.4211420688729
 20
74.80494464116435
 30
0.0
 10
137.4463197131584
 20
74.76625264289663
 30
0.0
 10
137.4953420224567
 20
74.73057946670738
 30
0.0
 10
137.6328999647464
 20
74.67287787690263
 30
0.0
 10
137.7221205878568
 20
74.65079826165606
 30
0.0
 10
137.9217330188494
 20
74.62791816281131
 30
0.0
 10
138.0297117847407
 20
74.62756263824666
 30
0.0
 10
138.2288323741713
 20
74.64860746245044
 30
0.0
 10
138.3202309130606
 20
74.66993781336356
 30
0.0
 10
138.3915009812087
 20
74.69878808833988
 30
0.0
  0
ELLIPSE
  5
2DC
330
1F
100
AcDbEntity
  8
0
  6
HIDDEN
 62
     7
370
     0
100
AcDbEllipse
 10
142.216246142
 20
118.2646788991
 30
0.0
 11
0.0
 21
47.00000000000001
 31
0.0
210
0.0
220
0.0
230
1.0
 40
0.2679491924
 41
2.621410102809751
 42
2.750977989478792
  0
ELLIPSE
  5
2DD
330
1F
100
AcDbEntity
  8
0
  6
HIDDEN
 62
     7
370
     0
100
AcDbEllipse
 10
223.1404723054
 20
118.2646788991
 30
0.0
 11
175.4063879557338
 21
0.0
 31
0.0
210
0.0
220
0.0
230
1.0
 40
0.2679491924
 41
4.183698312226404
 42
4.192206429604663
  0
ARC
  5
2DE
330
1F
100
AcDbEntity
  8
0
  6
HIDDEN
 62
     7
370
     0
100
AcDbCircle
 10
110.9579768684
 20
118.2646788991
 30
0.0
 40
47.0000000000005
100
AcDbArc
 50
294.7890821607
 51
300.2917439534
  0
SPLINE
  5
2DF
330
1F
100
AcDbEntity
  8
0
  6
HIDDEN
 62
     7
370
     0
100
AcDbSpline
210
0.0
220
0.0
230
1.0
 70
     8
 71
     3
 72
    14
 73
    10
 74
     0
 42
0.00000001
 43
0.00000001
 40
0.0
 40
0.0
 40
0.0
 40
0.0
 40
0.25
 40
0.25
 40
0.5
 40
0.5
 40
0.75
 40
0.75
 40
1.0
 40
1.0
 40
1.0
 40
1.0
 10
129.6937354585604
 20
75.71642538773568
 30
0.0
 10
129.7185890143472
 20
75.67289945228922
 30
0.0
 10
129.7667307429546
 20
75.63254343008148
 30
0.0
 10
129.9029232068844
 20
75.5667444618226
 30
0.0
 10
129.9919566470324
 20
75.54121807489716
 30
0.0
 10
130.1917609898102
 20
75.51459777391142
 30
0.0
 10
130.3011655050331
 20
75.51399705886449
 30
0.0
 10
130.5015503630242
 20
75.53808668852139
 30
0.0
 10
130.593092250749
 20
75.56259041990539
 30
0.0
 10
130.6640943708962
 20
75.59538158851456
 30
0.0
  0
ELLIPSE
  5
2E0
330
1F
100
AcDbEntity
  8
0
  6
HIDDEN
 62
     7
370
     0
100
AcDbEllipse
 10
135.0436423647
 20
118.2646788991
 30
0.0
 11
0.0
 21
47.00000000000001
 31
0.0
210
0.0
220
0.0
230
1.0
 40
0.2679491924
 41
2.569856556996087
 42
2.702839379247289
  0
ELLIPSE
  5
2E1
330
1F
100
AcDbEntity
  8
0
  6
HIDDEN
 62
     7
370
     0
100
AcDbEllipse
 10
223.1404723054
 20
118.2646788991
 30
0.0
 11
175.4063879557338
 21
0.0
 31
0.0
210
0.0
220
0.0
230
1.0
 40
0.2679491924
 41
4.131870547373459
 42
4.140652883791002
  0
ARC
  5
2E2
330
1F
100
AcDbEntity
  8
0
  6
HIDDEN
 62
     7
370
     0
100
AcDbCircle
 10
101.1600178973
 20
118.2646788991
 30
0.0
 40
47.00000000000063
100
AcDbArc
 50
297.6024158678
 51
303.2612561411
  0
SPLINE
  5
2E3
330
1F
100
AcDbEntity
  8
0
  6
HIDDEN
 62
     7
370
     0
100
AcDbSpline
210
0.0
220
0.0
230
1.0
 70
     8
 71
     3
 72
    14
 73
    10
 74
     0
 42
0.00000001
 43
0.00000001
 40
0.0
 40
0.0
 40
0.0
 40
0.0
 40
0.25
 40
0.25
 40
0.5
 40
0.5
 40
0.75
 40
0.75
 40
1.0
 40
1.0
 40
1.0
 40
1.0
 10
121.9663288482478
 20
76.75100792426973
 30
0.0
 10
121.9908147011
 20
76.70249943547716
 30
0.0
 10
122.0379458978034
 20
76.657267566132
 30
0.0
 10
122.172540609378
 20
76.5828354744661
 30
0.0
 10
122.2613017610951
 20
76.55351375798337
 30
0.0
 10
122.4613227074061
 20
76.52269298582904
 30
0.0
 10
122.5723846328172
 20
76.52174192379836
 30
0.0
 10
122.7743120190328
 20
76.54911624231845
 30
0.0
 10
122.8659959640159
 20
76.57706827458475
 30
0.0
 10
122.9366877605836
 20
76.6140288481657
 30
0.0
  0
ELLIPSE
  5
2E4
330
1F
100
AcDbEntity
  8
0
  6
HIDDEN
 62
     7
370
     0
100
AcDbEllipse
 10
127.8710385873
 20
118.2646788991
 30
0.0
 11
0.0
 21
47.00000000000001
 31
0.0
210
0.0
220
0.0
230
1.0
 40
0.2679491924
 41
2.516531134272676
 42
2.653586788580615
  0
ELLIPSE
  5
2E5
330
1F
100
AcDbEntity
  8
0
  6
HIDDEN
 62
     7
370
     0
100
AcDbEllipse
 10
223.1404723055
 20
118.2646788991
 30
0.0
 11
175.4063879558406
 21
0.0
 31
0.0
210
0.0
220
0.0
230
1.0
 40
0.2679491924
 41
4.074995850535925
 42
4.087327461067589
  0
LINE
  5
2E6
330
1F
100
AcDbEntity
  8
0
  6
HIDDEN
 62
     7
370
     0
100
AcDbLine
 10
118.7556999141
 20
80.4931372738
 30
0.0
 11
118.7556999141
 21
88.7167752123
 31
0.0
  0
ELLIPSE
  5
2E7
330
1F
100
AcDbEntity
  8
0
  6
HIDDEN
 62
     7
370
     0
100
AcDbEllipse
 10
128.5493122475
 20
118.2646788991
 30
0.0
 11
0.0
 21
46.99999999999999
 31
0.0
210
0.0
220
0.0
230
1.0
 40
0.2679491924
 41
1.679852156657315
 42
2.250649461444504
  0
ELLIPSE
  5
2E8
330
1F
100
AcDbEntity
  8
0
  6
HIDDEN
 62
     7
370
     0
100
AcDbEllipse
 10
119.3765022897
 20
118.2646788991
 30
0.0
 11
85.16344106702887
 21
-46.69523723724968
 31
0.0
210
0.0
220
0.0
230
0.9999999999999998
 40
0.0627460668
 41
4.705032138994355
 42
4.707503299239509
  0
ELLIPSE
  5
2E9
330
1F
100
AcDbEntity
  8
0
  6
HIDDEN
 62
     7
370
     0
100
AcDbEllipse
 10
137.3080117331
 20
118.2646788991
 30
0.0
 11
85.1634410670292
 21
46.69523723724983
 31
0.0
210
0.0
220
0.0
230
1.0
 40
0.0627460668
 41
1.78885200035302
 42
1.791322507419772
  0
LWPOLYLINE
  5
2EA
330
1F
100
AcDbEntity
  8
0
  6
HIDDEN
 62
     7
370
     0
100
AcDbPolyline
 90
       21
 70
   128
 43
0.0
 10
105.5931866506
 20
118.2646788991
 10
105.6248553435
 20
117.4921364043
 10
105.7167619804
 20
116.7952157891
 10
105.8599099854
 20
116.242136374
 10
106.0402857477
 20
115.8870375118
 10
106.2402341852
 20
115.764678955
 10
106.440183554
 20
115.8870375118
 10
106.6205593163
 20
116.242136374
 10
106.7637073213
 20
116.7952157891
 10
106.855613027
 20
117.4921364043
 10
106.8872826511
 20
118.2646788991
 10
106.855613027
 20
119.0372213939
 10
106.7637073213
 20
119.7341420091
 10
106.6205593163
 20
120.2872214242
 10
106.440183554
 20
120.6423202864
 10
106.2402341852
 20
120.7646788432
 10
106.0402857477
 20
120.6423202864
 10
105.8599099854
 20
120.2872214242
 10
105.7167619804
 20
119.7341420091
 10
105.6248553435
 20
119.0372213939
 10
105.5931866506
 20
118.2646788991
  0
SPLINE
  5
2EB
330
1F
100
AcDbEntity
  8
0
  6
HIDDEN
 62
     7
370
     0
100
AcDbSpline
210
0.0
220
0.0
230
1.0
 70
     8
 71
     3
 72
     8
 73
     4
 74
     0
 42
0.00000001
 43
0.00000001
 40
0.0
 40
0.0
 40
0.0
 40
0.0
 40
1.0
 40
1.0
 40
1.0
 40
1.0
 10
109.9608757659235
 20
115.7668922586721
 30
0.0
 10
109.8662691355502
 20
115.7679240383361
 30
0.0
 10
109.7716664351236
 20
115.7693164150456
 30
0.0
 10
109.6770704090908
 20
115.7710687858842
 30
0.0
  0
ARC
  5
2EC
330
1F
100
AcDbEntity
  8
0
  6
HIDDEN
 62
     7
370
     0
100
AcDbCircle
 10
109.8557002032
 20
118.2646788991
 30
0.0
 40
2.500000000000002
100
AcDbArc
 50
270.0
 51
272.41115795
  0
ARC
  5
2ED
330
1F
100
AcDbEntity
  8
0
  6
HIDDEN
 62
     7
370
     0
100
AcDbCircle
 10
109.8557002032
 20
118.2646788991
 30
0.0
 40
2.5
100
AcDbArc
 50
270.0
 51
90.0
  0
ARC
  5
2EE
330
1F
100
AcDbEntity
  8
0
  6
HIDDEN
 62
     7
370
     0
100
AcDbCircle
 10
109.8557002032
 20
118.2646788991
 30
0.0
 40
2.500000000000002
100
AcDbArc
 50
87.58884205
 51
90.0
  0
SPLINE
  5
2EF
330
1F
100
AcDbEntity
  8
0
  6
HIDDEN
 62
     7
370
     0
100
AcDbSpline
210
0.0
220
0.0
230
1.0
 70
     8
 71
     3
 72
     8
 73
     4
 74
     0
 42
0.00000001
 43
0.00000001
 40
0.0
 40
0.0
 40
0.0
 40
0.0
 40
1.0
 40
1.0
 40
1.0
 40
1.0
 10
109.6770704090908
 20
120.7582890122809
 30
0.0
 10
109.7716664351236
 20
120.7600413831195
 30
0.0
 10
109.8662691355502
 20
120.7614337598289
 30
0.0
 10
109.9608757659235
 20
120.762465539493
 30
0.0
  0
ARC
  5
2F0
330
1F
100
AcDbEntity
  8
0
  6
HIDDEN
 62
     7
370
     0
100
AcDbCircle
 10
109.8557002032
 20
118.2646788991
 30
0.0
 40
2.500000000000001
100
AcDbArc
 50
90.0
 51
94.0973848251
  0
ARC
  5
2F1
330
1F
100
AcDbEntity
  8
0
  6
HIDDEN
 62
     7
370
     0
100
AcDbCircle
 10
109.8557002032
 20
118.2646788991
 30
0.0
 40
2.5
100
AcDbArc
 50
90.0
 51
270.0
  0
ARC
  5
2F2
330
1F
100
AcDbEntity
  8
0
  6
HIDDEN
 62
     7
370
     0
100
AcDbCircle
 10
109.8557002032
 20
118.2646788991
 30
0.0
 40
2.500000000000001
100
AcDbArc
 50
265.9026151749
 51
270.0
  0
LINE
  5
2F3
330
1F
100
AcDbEntity
  8
0
  6
HIDDEN
 62
     7
370
     0
100
AcDbLine
 10
96.6557002032
 20
157.764680717
 30
0.0
 11
96.6557002032
 21
78.7646770811
 31
0.0
  0
LINE
  5
2F4
330
1F
100
AcDbEntity
  8
0
  6
HIDDEN
 62
     7
370
     0
100
AcDbLine
 10
96.6557002032
 20
98.5496491528
 30
0.0
 11
96.6557002032
 21
137.9497722125
 31
0.0
  0
SPLINE
  5
2F5
330
1F
100
AcDbEntity
  8
0
  6
HIDDEN
 62
     7
370
     0
100
AcDbSpline
210
0.0
220
0.0
230
1.0
 70
     8
 71
     3
 72
    12
 73
     8
 74
     0
 42
0.00000001
 43
0.00000001
 40
0.0
 40
0.0
 40
0.0
 40
0.0
 40
0.0431878925021976
 40
0.3640162650313059
 40
0.6988609172430164
 40
0.8648903448622928
 40
1.0
 40
1.0
 40
1.0
 40
1.0
 10
72.78905421142923
 20
135.3505421763986
 30
0.0
 10
72.7206289172269
 20
135.3690425163321
 30
0.0
 10
72.14389505534814
 20
135.5249756784803
 30
0.0
 10
70.91181880943051
 20
135.8424129773363
 30
0.0
 10
70.06307586425729
 20
136.1287967107113
 30
0.0
 10
69.69273424491305
 20
136.2518700878684
 30
0.0
 10
69.68019172478179
 20
136.2563011860885
 30
0.0
 10
69.67456437294828
 20
136.2582892513603
 30
0.0
  0
SPLINE
  5
2F6
330
1F
100
AcDbEntity
  8
0
  6
HIDDEN
 62
     7
370
     0
100
AcDbSpline
210
0.0
220
0.0
230
1.0
 70
     8
 71
     3
 72
    18
 73
    14
 74
     0
 42
0.00000001
 43
0.00000001
 40
0.0
 40
0.0
 40
0.0
 40
0.0
 40
0.0318640614021568
 40
0.1307884128885671
 40
0.2339801597864391
 40
0.3074947211768632
 40
0.3831321890490643
 40
0.5336905824113505
 40
0.6178014877601844
 40
0.704334987893906
 40
0.7886646043427252
 40
0.8754207131018754
 40
1.0
 40
1.0
 40
1.0
 40
1.0
 10
88.07473055665838
 20
136.2373680210441
 30
0.0
 10
88.09863198760267
 20
136.245420969433
 30
0.0
 10
88.19673719081314
 20
136.2784748957845
 30
0.0
 10
87.66344831824604
 20
136.0976536794799
 30
0.0
 10
86.72378363524147
 20
135.8020644978649
 30
0.0
 10
85.54796444680949
 20
135.4747305708591
 30
0.0
 10
83.95392860215084
 20
135.0914762559046
 30
0.0
 10
82.03809089255255
 20
134.7595503301648
 30
0.0
 10
79.93850840035716
 20
134.5944396282001
 30
0.0
 10
78.23873616480651
 20
134.5809395335985
 30
0.0
 10
76.54563771844016
 20
134.6897669378013
 30
0.0
 10
74.66168243028457
 20
134.9348389785869
 30
0.0
 10
73.48354808218116
 20
135.1963720533463
 30
0.0
 10
72.78905421142923
 20
135.3505421763986
 30
0.0
  0
LINE
  5
2F7
330
1F
100
AcDbEntity
  8
0
  6
HIDDEN
 62
     7
370
     0
100
AcDbLine
 10
94.1557002591
 20
136.2646781242
 30
0.0
 11
94.1557002591
 21
100.2646796739
 31
0.0
  0
LINE
  5
2F8
330
1F
100
AcDbEntity
  8
0
  6
HIDDEN
 62
     7
370
     0
100
AcDbLine
 10
64.6556986833
 20
136.2646781242
 30
0.0
 11
64.6556986833
 21
100.2646796739
 31
0.0
  0
LINE
  5
2F9
330
1F
100
AcDbEntity
  8
0
  6
HIDDEN
 62
     7
370
     0
100
AcDbLine
 10
56.6557010973
 20
134.9546779281
 30
0.0
 11
56.6557010973
 21
101.5746780074
 31
0.0
  0
LINE
  5
2FA
330
1F
100
AcDbEntity
  8
0
  6
HIDDEN
 62
     7
370
     0
100
AcDbLine
 10
169.8557025159
 20
120.9449586793
 30
0.0
 11
169.8557025159
 21
120.7646788432
 31
0.0
  0
LINE
  5
2FB
330
1F
100
AcDbEntity
  8
0
  6
HIDDEN
 62
     7
370
     0
100
AcDbLine
 10
169.8557025159
 20
115.5843991189
 30
0.0
 11
169.8557025159
 21
115.764678955
 31
0.0
  0
LINE
  5
2FC
330
1F
100
AcDbEntity
  8
0
  6
HIDDEN
 62
     7
370
     0
100
AcDbLine
 10
169.8557025159
 20
163.9041304922
 30
0.0
 11
169.3557015026
 21
164.3874012268
 31
0.0
  0
LINE
  5
2FD
330
1F
100
AcDbEntity
  8
0
  6
HIDDEN
 62
     7
370
     0
100
AcDbLine
 10
169.8557025159
 20
163.9041304922
 30
0.0
 11
169.8557025159
 21
120.9449586793
 31
0.0
  0
LINE
  5
2FE
330
1F
100
AcDbEntity
  8
0
  6
HIDDEN
 62
     7
370
     0
100
AcDbLine
 10
169.8557025159
 20
115.5843991189
 30
0.0
 11
169.8557025159
 21
73.9176683462
 31
0.0
  0
LINE
  5
2FF
330
1F
100
AcDbEntity
  8
0
  6
HIDDEN
 62
     7
370
     0
100
AcDbLine
 10
169.8557025159
 20
72.6252273059
 30
0.0
 11
169.8557025159
 21
71.7646777964
 31
0.0
  0
LINE
  5
300
330
1F
100
AcDbEntity
  8
0
  6
HIDDEN
 62
     7
370
     0
100
AcDbLine
 10
169.3557015026
 20
72.1419565714
 30
0.0
 11
169.8557025159
 21
72.6252273059
 31
0.0
  0
LINE
  5
301
330
1F
100
AcDbEntity
  8
0
  6
HIDDEN
 62
     7
370
     0
100
AcDbLine
 10
169.8557025159
 20
163.9041304922
 30
0.0
 11
169.3557015026
 21
164.3874012268
 31
0.0
  0
LINE
  5
302
330
1F
100
AcDbEntity
  8
0
  6
HIDDEN
 62
     7
370
     0
100
AcDbLine
 10
169.8557025159
 20
163.9041304922
 30
0.0
 11
169.8557025159
 21
164.7646800018
 31
0.0
  0
LINE
  5
303
330
1F
100
AcDbEntity
  8
0
  6
HIDDEN
 62
     7
370
     0
100
AcDbLine
 10
86.2313591281
 20
134.3403365797
 30
0.0
 11
71.5800410474
 21
134.3403365797
 31
0.0
  0
SPLINE
  5
304
330
1F
100
AcDbEntity
  8
0
  6
HIDDEN
 62
     7
370
     0
100
AcDbSpline
210
0.0
220
0.0
230
1.0
 70
    11
 71
     3
 72
    32
 73
    28
 74
     0
 42
0.00000001
 43
0.00000001
 40
0.0
 40
0.0
 40
0.0
 40
0.0
 40
0.0224436557124104
 40
0.0313984078412698
 40
0.0847032778485967
 40
0.1331281878168965
 40
0.1817479279808886
 40
0.2268693092575031
 40
0.279562733529861
 40
0.3396008277420258
 40
0.3801367578063262
 40
0.3983598819541029
 40
0.4207965295731632
 40
0.4590167192429548
 40
0.5004882249333839
 40
0.5501279978202505
 40
0.6089481211903414
 40
0.6545645006200149
 40
0.7001926323043837
 40
0.7473658782218151
 40
0.8042698019392622
 40
0.850374477833265
 40
0.896779373830685
 40
0.8984107776904559
 40
0.9364374698354869
 40
0.9752483651546983
 40
1.0
 40
1.0
 40
1.0
 40
1.0
 10
75.30239954238283
 20
123.664791729185
 30
0.0
 10
75.41737544189407
 20
123.5928457468373
 30
0.0
 10
75.57822536006381
 20
123.4921941718337
 30
0.0
 10
76.26239056639068
 20
123.224479072566
 30
0.0
 10
77.03734532918315
 20
122.8256602446418
 30
0.0
 10
78.46558213492621
 20
122.5342263077635
 30
0.0
 10
79.83931180943442
 20
122.6033417952115
 30
0.0
 10
81.1368259846014
 20
122.9792302563076
 30
0.0
 10
82.32697543491456
 20
123.5362973846912
 30
0.0
 10
83.14686343559033
 20
124.0199797801016
 30
0.0
 10
83.5362293460803
 20
124.2675544520058
 30
0.0
 10
83.47345839315376
 20
124.2276697993392
 30
0.0
 10
83.52051072302369
 20
124.2574792464908
 30
0.0
 10
83.17198165037162
 20
124.0366473633738
 30
0.0
 10
82.53055495037371
 20
123.6575506992197
 30
0.0
 10
81.49072669000708
 20
123.1239652340232
 30
0.0
 10
80.17016848313285
 20
122.6588499029509
 30
0.0
 10
78.72562646090853
 20
122.5232014326585
 30
0.0
 10
77.41588098050667
 20
122.7331108092373
 30
0.0
 10
76.16992682816233
 20
123.1920655563165
 30
0.0
 10
75.13757898043332
 20
123.7365484695195
 30
0.0
 10
74.4831635976724
 20
124.1335396187772
 30
0.0
 10
74.21995404398929
 20
124.3025872061805
 30
0.0
 10
74.3351036335031
 20
124.2296546763853
 30
0.0
 10
74.36685441496488
 20
124.2106508231027
 30
0.0
 10
74.76233566796535
 20
123.9560151118414
 30
0.0
 10
75.15103691769815
 20
123.7464123256671
 30
0.0
 10
75.30239954238283
 20
123.664791729185
 30
0.0
  0
LINE
  5
305
330
1F
100
AcDbEntity
  8
0
  6
HIDDEN
 62
     7
370
     0
100
AcDbLine
 10
57.5217267836
 20
124.2646789512
 30
0.0
 11
57.5217267836
 21
112.2646788469
 31
0.0
  0
LINE
  5
306
330
1F
100
AcDbEntity
  8
0
  6
HIDDEN
 62
     7
370
     0
100
AcDbLine
 10
56.6557010973
 20
111.764678765
 30
0.0
 11
56.6557010973
 21
124.7352464459
 31
0.0
  0
LINE
  5
307
330
1F
100
AcDbEntity
  8
0
  6
HIDDEN
 62
     7
370
     0
100
AcDbLine
 10
116.6556997562
 20
124.2646789512
 30
0.0
 11
116.6556997562
 21
112.2646788469
 31
0.0
  0
LINE
  5
308
330
1F
100
AcDbEntity
  8
0
  6
HIDDEN
 62
     7
370
     0
100
AcDbLine
 10
169.8557025159
 20
115.5843991189
 30
0.0
 11
169.8557025159
 21
72.6252273059
 31
0.0
  0
LWPOLYLINE
  5
309
330
1F
100
AcDbEntity
  8
0
  6
HIDDEN
 62
     7
370
     0
100
AcDbPolyline
 90
       21
 70
   128
 43
0.0
 10
106.8872826511
 20
118.2646788991
 10
106.855613027
 20
117.4921364043
 10
106.7637073213
 20
116.7952157891
 10
106.6205593163
 20
116.242136374
 10
106.440183554
 20
115.8870375118
 10
106.2402341852
 20
115.764678955
 10
106.0402857477
 20
115.8870375118
 10
105.8599099854
 20
116.242136374
 10
105.7167619804
 20
116.7952157891
 10
105.6248553435
 20
117.4921364043
 10
105.5931866506
 20
118.2646788991
 10
105.6248553435
 20
119.0372213939
 10
105.7167619804
 20
119.7341420091
 10
105.8599099854
 20
120.2872214242
 10
106.0402857477
 20
120.6423202864
 10
106.2402341852
 20
120.7646788432
 10
106.440183554
 20
120.6423202864
 10
106.6205593163
 20
120.2872214242
 10
106.7637073213
 20
119.7341420091
 10
106.855613027
 20
119.0372213939
 10
106.8872826511
 20
118.2646788991
  0
LWPOLYLINE
  5
30A
330
1F
100
AcDbEntity
  8
0
  6
HIDDEN
 62
     7
370
     0
100
AcDbPolyline
 90
       21
 70
   128
 43
0.0
 10
118.4783930296
 20
118.2646788991
 10
118.4467224741
 20
117.4921364043
 10
118.3548176998
 20
116.7952157891
 10
118.2116696948
 20
116.242136374
 10
118.0312930012
 20
115.8870375118
 10
117.8313436324
 20
115.764678955
 10
117.6313961262
 20
115.8870375118
 10
117.4510194326
 20
116.242136374
 10
117.3078714276
 20
116.7952157891
 10
117.2159647906
 20
117.4921364043
 10
117.1842960978
 20
118.2646788991
 10
117.2159647906
 20
119.0372213939
 10
117.3078714276
 20
119.7341420091
 10
117.4510194326
 20
120.2872214242
 10
117.6313961262
 20
120.6423202864
 10
117.8313436324
 20
120.7646788432
 10
118.0312930012
 20
120.6423202864
 10
118.2116696948
 20
120.2872214242
 10
118.3548176998
 20
119.7341420091
 10
118.4467224741
 20
119.0372213939
 10
118.4783930296
 20
118.2646788991
  0
LINE
  5
30B
330
1F
100
AcDbEntity
  8
0
  6
HIDDEN
 62
     7
370
     0
100
AcDbLine
 10
109.8557001317
 20
120.7646788432
 30
0.0
 11
106.2402341852
 21
120.7646788432
 31
0.0
  0
LINE
  5
30C
330
1F
100
AcDbEntity
  8
0
  6
HIDDEN
 62
     7
370
     0
100
AcDbLine
 10
110.0042153487
 20
120.7646788432
 30
0.0
 11
109.8557001317
 21
120.7646788432
 31
0.0
  0
LINE
  5
30D
330
1F
100
AcDbEntity
  8
0
  6
HIDDEN
 62
     7
370
     0
100
AcDbLine
 10
117.8313436324
 20
120.7646788432
 30
0.0
 11
110.0042153487
 21
120.7646788432
 31
0.0
  0
LINE
  5
30E
330
1F
100
AcDbEntity
  8
0
  6
HIDDEN
 62
     7
370
     0
100
AcDbLine
 10
110.0042153487
 20
115.764678955
 30
0.0
 11
117.8313436324
 21
115.764678955
 31
0.0
  0
LINE
  5
30F
330
1F
100
AcDbEntity
  8
0
  6
HIDDEN
 62
     7
370
     0
100
AcDbLine
 10
109.8557001317
 20
115.764678955
 30
0.0
 11
110.0042153487
 21
115.764678955
 31
0.0
  0
LINE
  5
310
330
1F
100
AcDbEntity
  8
0
  6
HIDDEN
 62
     7
370
     0
100
AcDbLine
 10
106.2402341852
 20
115.764678955
 30
0.0
 11
109.8557001317
 21
115.764678955
 31
0.0
  0
LINE
  5
311
330
1F
100
AcDbEntity
  8
0
  6
HIDDEN
 62
     7
370
     0
100
AcDbLine
 10
105.9516890312
 20
120.5023331902
 30
0.0
 11
104.7892680729
 21
118.2646788991
 31
0.0
  0
LINE
  5
312
330
1F
100
AcDbEntity
  8
0
  6
HIDDEN
 62
     7
370
     0
100
AcDbLine
 10
104.7892680729
 20
118.2646788991
 30
0.0
 11
105.9516890312
 21
116.027024608
 31
0.0
  0
LINE
  5
313
330
1F
100
AcDbEntity
  8
0
  6
HIDDEN
 62
     7
370
     0
100
AcDbLine
 10
96.6557002032
 20
98.5496491528
 30
0.0
 11
96.8498610385
 21
99.9311749226
 31
0.0
  0
LINE
  5
314
330
1F
100
AcDbEntity
  8
0
  6
HIDDEN
 62
     7
370
     0
100
AcDbLine
 10
96.8498610385
 20
136.5981828755
 30
0.0
 11
96.6557002032
 21
137.9797086454
 31
0.0
  0
ARC
  5
315
330
1F
100
AcDbEntity
  8
0
  6
HIDDEN
 62
     7
370
     0
100
AcDbCircle
 10
96.2557002032
 20
100.0146788991
 30
0.0
 40
0.6000000000000085
100
AcDbArc
 50
352.0
 51
0.0
  0
ARC
  5
316
330
1F
100
AcDbEntity
  8
0
  6
HIDDEN
 62
     7
370
     0
100
AcDbCircle
 10
96.2557002032
 20
100.0146788991
 30
0.0
 40
0.6000000000000085
100
AcDbArc
 50
0.0
 51
48.1896851042
  0
ARC
  5
317
330
1F
100
AcDbEntity
  8
0
  6
HIDDEN
 62
     7
370
     0
100
AcDbCircle
 10
96.2557002032
 20
136.5146788991
 30
0.0
 40
0.599999999999998
100
AcDbArc
 50
348.75
 51
8.0
  0
ARC
  5
318
330
1F
100
AcDbEntity
  8
0
  6
HIDDEN
 62
     7
370
     0
100
AcDbCircle
 10
96.2557002032
 20
136.5146788991
 30
0.0
 40
0.6000000000000054
100
AcDbArc
 50
311.8103148958
 51
348.75
  0
LINE
  5
319
330
1F
100
AcDbEntity
  8
0
  6
HIDDEN
 62
     7
370
     0
100
AcDbLine
 10
96.8557001982
 20
100.0146791673
 30
0.0
 11
96.8557001982
 21
136.5146786309
 31
0.0
  0
LINE
  5
31A
330
1F
100
AcDbEntity
  8
0
  6
HIDDEN
 62
     7
370
     0
100
AcDbLine
 10
96.8557001982
 20
100.0146791673
 30
0.0
 11
96.8557001982
 21
136.5146786309
 31
0.0
  0
LINE
  5
31B
330
1F
100
AcDbEntity
  8
0
  6
HIDDEN
 62
     7
370
     0
100
AcDbLine
 10
169.8557025159
 20
164.7646800018
 30
0.0
 11
169.37376171
 21
165.2466133571
 31
0.0
  0
LINE
  5
31C
330
1F
100
AcDbEntity
  8
0
  6
HIDDEN
 62
     7
370
     0
100
AcDbLine
 10
69.6556995029
 20
136.2646781242
 30
0.0
 11
71.5800410474
 21
134.3403365797
 31
0.0
  0
LINE
  5
31D
330
1F
100
AcDbEntity
  8
0
  6
HIDDEN
 62
     7
370
     0
100
AcDbLine
 10
86.2313591281
 20
134.3403365797
 30
0.0
 11
88.1556997413
 21
136.2646781242
 31
0.0
  0
LINE
  5
31E
330
1F
100
AcDbEntity
  8
0
  6
HIDDEN
 62
     7
370
     0
100
AcDbLine
 10
71.5800410474
 20
134.3403365797
 30
0.0
 11
74.2812788451
 21
124.2591804228
 31
0.0
  0
LINE
  5
31F
330
1F
100
AcDbEntity
  8
0
  6
HIDDEN
 62
     7
370
     0
100
AcDbLine
 10
83.5217068309
 20
124.2277794852
 30
0.0
 11
86.2313591281
 21
134.3403365797
 31
0.0
  0
LINE
  5
320
330
1F
100
AcDbEntity
  8
0
  6
HIDDEN
 62
     7
370
     0
100
AcDbLine
 10
56.6557010973
 20
111.764678765
 30
0.0
 11
57.5217267836
 21
112.2646788469
 31
0.0
  0
LINE
  5
321
330
1F
100
AcDbEntity
  8
0
  6
HIDDEN
 62
     7
370
     0
100
AcDbLine
 10
57.5217267836
 20
124.2646789512
 30
0.0
 11
56.6557010973
 21
124.7646790332
 31
0.0
  0
LINE
  5
322
330
1F
100
AcDbEntity
  8
0
  6
HIDDEN
 62
     7
370
     0
100
AcDbLine
 10
116.6556997562
 20
112.2646788469
 30
0.0
 11
120.2608643437
 21
118.2646788991
 31
0.0
  0
LINE
  5
323
330
1F
100
AcDbEntity
  8
0
  6
HIDDEN
 62
     7
370
     0
100
AcDbLine
 10
120.2608643437
 20
118.2646788991
 30
0.0
 11
116.6556997562
 21
124.2646789512
 31
0.0
  0
LINE
  5
324
330
1F
100
AcDbEntity
  8
0
  6
HIDDEN
 62
     7
370
     0
100
AcDbLine
 10
109.8557001317
 20
120.7646788432
 30
0.0
 11
106.2402341852
 21
120.7646788432
 31
0.0
  0
LINE
  5
325
330
1F
100
AcDbEntity
  8
0
  6
HIDDEN
 62
     7
370
     0
100
AcDbLine
 10
106.2402341852
 20
115.764678955
 30
0.0
 11
109.8557001317
 21
115.764678955
 31
0.0
  0
LINE
  5
326
330
1F
100
AcDbEntity
  8
0
  6
HIDDEN
 62
     7
370
     0
100
AcDbLine
 10
105.9516890312
 20
120.5023331902
 30
0.0
 11
104.7892680729
 21
118.2646788991
 31
0.0
  0
LINE
  5
327
330
1F
100
AcDbEntity
  8
0
  6
HIDDEN
 62
     7
370
     0
100
AcDbLine
 10
104.7892680729
 20
118.2646788991
 30
0.0
 11
105.9516890312
 21
116.027024608
 31
0.0
  0
LINE
  5
328
330
1F
100
AcDbEntity
  8
0
  6
HIDDEN
 62
     7
370
     0
100
AcDbLine
 10
117.8313436324
 20
120.7646788432
 30
0.0
 11
109.8557001317
 21
120.7646788432
 31
0.0
  0
LINE
  5
329
330
1F
100
AcDbEntity
  8
0
  6
HIDDEN
 62
     7
370
     0
100
AcDbLine
 10
109.8557001317
 20
115.764678955
 30
0.0
 11
117.8313436324
 21
115.764678955
 31
0.0
  0
LINE
  5
32A
330
1F
100
AcDbEntity
  8
VERMASSUNG
100
AcDbLine
 10
106.2745023567
 20
165.2646788991
 30
0.0
 11
106.2745023567
 21
71.2646788991
 31
0.0
  0
LINE
  5
32B
330
1F
100
AcDbEntity
  8
VERMASSUNG
100
AcDbLine
 10
101.078349934
 20
158.2646788991
 30
0.0
 11
101.078349934
 21
78.2646788991
 31
0.0
  0
DIMENSION
  5
32C
330
1F
100
AcDbEntity
  8
VERMASSUNG
100
AcDbDimension
  2
*D1
 10
51.0856091342
 20
100.2646788991
 30
0.0
 11
51.0856091342
 21
118.2646788991
 31
0.0
 70
   160
  1
%%c<>
 71
     2
 42
-1.0
  3
SLDDIMSTYLE0
100
AcDbAlignedDimension
 13
64.6557002032
 23
136.2646788991
 33
0.0
 14
64.6557002032
 24
100.2646788991
 34
0.0
 50
90.0
100
AcDbRotatedDimension
  0
DIMENSION
  5
338
330
1F
100
AcDbEntity
  8
VERMASSUNG
100
AcDbDimension
  2
*D2
 10
45.0856091342
 20
78.2646788991
 30
0.0
 11
45.0856091342
 21
118.2646788991
 31
0.0
 70
   160
  1
WH%%c<>
 71
     2
 42
-1.0
  3
SLDDIMSTYLE0
100
AcDbAlignedDimension
 13
97.1557002032
 23
158.2646788991
 33
0.0
 14
97.1557002032
 24
78.2646788991
 34
0.0
 50
90.0
100
AcDbRotatedDimension
  0
DIMENSION
  5
344
330
1F
100
AcDbEntity
  8
VERMASSUNG
100
AcDbDimension
  2
*D3
 10
39.0856091342
 20
71.2646788991
 30
0.0
 11
39.0856091342
 21
118.2646788991
 31
0.0
 70
   160
  1
%%c<>
 71
     2
 42
-1.0
  3
SLDDIMSTYLE0
100
AcDbAlignedDimension
 13
106.2745023567
 23
165.2646788991
 33
0.0
 14
106.2745023567
 24
71.2646788991
 34
0.0
 50
90.0
100
AcDbRotatedDimension
  0
DIMENSION
  5
34F
330
1F
100
AcDbEntity
  8
VERMASSUNG
100
AcDbDimension
  2
*D4
 10
236.6557002032
 20
184.1412320049
 30
0.0
 11
166.6557002032
 21
184.1412320049
 31
0.0
 70
   160
 71
     2
 42
-1.0
  3
SLDDIMSTYLE0
100
AcDbAlignedDimension
 13
96.6557002032
 23
157.7646788991
 33
0.0
 14
236.6557002032
 24
175.5146788991
 34
0.0
100
AcDbRotatedDimension
  0
DIMENSION
  5
359
330
1F
100
AcDbEntity
  8
VERMASSUNG
100
AcDbDimension
  2
*D5
 10
247.5486222729
 20
61.0146788991
 30
0.0
 11
247.5486222729
 21
118.2646788991
 31
0.0
 70
   160
  1
%%c<>-153
 71
     2
 42
-1.0
  3
SLDDIMSTYLE0
100
AcDbAlignedDimension
 13
236.6557002032
 23
175.5146788991
 33
0.0
 14
236.6557002032
 24
61.0146788991
 34
0.0
 50
90.0
100
AcDbRotatedDimension
  0
OLE2FRAME
  5
365
330
1F
100
AcDbEntity
  8
0
100
AcDbOle2Frame
 70
     2
  3
Paintbrush-Bild
 10
13.8511154363
 20
38.264191557
 30
0.0
 11
51.6290888628
 21
31.9806341108
 31
0.0
 71
     2
 72
     0
 73
     1
 90
    12928
310
80552BED0767C5B32B40DDAF6807D121434000000000000000006FFBDDFB85D0
310
4940DDAF6807D121434000000000000000006FFBDDFB85D04940416F4BD60AFB
310
3F4000000000000000002BED0767C5B32B40416F4BD60AFB3F40000000000000
310
0000000000000100000000010000010000000100000000000100000000320000
310
D0CF11E0A1B11AE1000000000000000000000000000000003E000300FEFF0900
310
0600000000000000000000000100000001000000000000000010000002000000
310
01000000FEFFFFFF0000000000000000FFFFFFFFFFFFFFFFFFFFFFFFFFFFFFFF
310
FFFFFFFFFFFFFFFFFFFFFFFFFFFFFFFFFFFFFFFFFFFFFFFFFFFFFFFFFFFFFFFF
310
FFFFFFFFFFFFFFFFFFFFFFFFFFFFFFFFFFFFFFFFFFFFFFFFFFFFFFFFFFFFFFFF
310
FFFFFFFFFFFFFFFFFFFFFFFFFFFFFFFFFFFFFFFFFFFFFFFFFFFFFFFFFFFFFFFF
310
FFFFFFFFFFFFFFFFFFFFFFFFFFFFFFFFFFFFFFFFFFFFFFFFFFFFFFFFFFFFFFFF
310
FFFFFFFFFFFFFFFFFFFFFFFFFFFFFFFFFFFFFFFFFFFFFFFFFFFFFFFFFFFFFFFF
310
FFFFFFFFFFFFFFFFFFFFFFFFFFFFFFFFFFFFFFFFFFFFFFFFFFFFFFFFFFFFFFFF
310
FFFFFFFFFFFFFFFFFFFFFFFFFFFFFFFFFFFFFFFFFFFFFFFFFFFFFFFFFFFFFFFF
310
FFFFFFFFFFFFFFFFFFFFFFFFFFFFFFFFFFFFFFFFFFFFFFFFFFFFFFFFFFFFFFFF
310
FFFFFFFFFFFFFFFFFFFFFFFFFFFFFFFFFFFFFFFFFFFFFFFFFFFFFFFFFFFFFFFF
310
FFFFFFFFFFFFFFFFFFFFFFFFFFFFFFFFFFFFFFFFFFFFFFFFFFFFFFFFFFFFFFFF
310
FFFFFFFFFFFFFFFFFFFFFFFFFFFFFFFFFFFFFFFFFFFFFFFFFFFFFFFFFFFFFFFF
310
FFFFFFFFFFFFFFFFFFFFFFFFFFFFFFFFFFFFFFFFFFFFFFFFFFFFFFFFFFFFFFFF
310
FFFFFFFFFFFFFFFFFFFFFFFFFFFFFFFFFFFFFFFFFFFFFFFFFFFFFFFFFFFFFFFF
310
FDFFFFFFFEFFFFFFFEFFFFFFFEFFFFFF05000000060000000700000008000000
310
090000000A0000000B0000000C0000000D0000000E0000000F00000010000000
310
11000000120000001300000014000000150000001600000017000000FEFFFFFF
310
FFFFFFFFFFFFFFFFFFFFFFFFFFFFFFFFFFFFFFFFFFFFFFFFFFFFFFFFFFFFFFFF
310
FFFFFFFFFFFFFFFFFFFFFFFFFFFFFFFFFFFFFFFFFFFFFFFFFFFFFFFFFFFFFFFF
310
FFFFFFFFFFFFFFFFFFFFFFFFFFFFFFFFFFFFFFFFFFFFFFFFFFFFFFFFFFFFFFFF
310
FFFFFFFFFFFFFFFFFFFFFFFFFFFFFFFFFFFFFFFFFFFFFFFFFFFFFFFFFFFFFFFF
310
FFFFFFFFFFFFFFFFFFFFFFFFFFFFFFFFFFFFFFFFFFFFFFFFFFFFFFFFFFFFFFFF
310
FFFFFFFFFFFFFFFFFFFFFFFFFFFFFFFFFFFFFFFFFFFFFFFFFFFFFFFFFFFFFFFF
310
FFFFFFFFFFFFFFFFFFFFFFFFFFFFFFFFFFFFFFFFFFFFFFFFFFFFFFFFFFFFFFFF
310
FFFFFFFFFFFFFFFFFFFFFFFFFFFFFFFFFFFFFFFFFFFFFFFFFFFFFFFFFFFFFFFF
310
FFFFFFFFFFFFFFFFFFFFFFFFFFFFFFFFFFFFFFFFFFFFFFFFFFFFFFFFFFFFFFFF
310
FFFFFFFFFFFFFFFFFFFFFFFFFFFFFFFFFFFFFFFFFFFFFFFFFFFFFFFFFFFFFFFF
310
FFFFFFFFFFFFFFFFFFFFFFFFFFFFFFFFFFFFFFFFFFFFFFFFFFFFFFFFFFFFFFFF
310
FFFFFFFFFFFFFFFFFFFFFFFFFFFFFFFFFFFFFFFFFFFFFFFFFFFFFFFFFFFFFFFF
310
FFFFFFFFFFFFFFFFFFFFFFFFFFFFFFFFFFFFFFFFFFFFFFFFFFFFFFFFFFFFFFFF
310
52006F006F007400200045006E00740072007900000000000000000000000000
310
0000000000000000000000000000000000000000000000000000000000000000
310
16000500FFFFFFFFFFFFFFFF020000000A00030000000000C000000000000046
310
000000000000000000000000E0D3C59BD0EBCC0103000000C000000000000000
310
01004F006C006500000000000000000000000000000000000000000000000000
310
0000000000000000000000000000000000000000000000000000000000000000
310
0A000200FFFFFFFFFFFFFFFFFFFFFFFF00000000000000000000000000000000
310
0000000000000000000000000000000000000000000000001400000000000000
310
010043006F006D0070004F0062006A0000000000000000000000000000000000
310
0000000000000000000000000000000000000000000000000000000000000000
310
120002010100000003000000FFFFFFFF00000000000000000000000000000000
310
0000000000000000000000000000000000000000010000004D00000000000000
310
01004F006C006500310030004E00610074006900760065000000000000000000
310
0000000000000000000000000000000000000000000000000000000000000000
310
1A000200FFFFFFFFFFFFFFFFFFFFFFFF00000000000000000000000000000000
310
0000000000000000000000000000000000000000040000002426000000000000
310
FEFFFFFF02000000FEFFFFFFFFFFFFFFFFFFFFFFFFFFFFFFFFFFFFFFFFFFFFFF
310
FFFFFFFFFFFFFFFFFFFFFFFFFFFFFFFFFFFFFFFFFFFFFFFFFFFFFFFFFFFFFFFF
310
FFFFFFFFFFFFFFFFFFFFFFFFFFFFFFFFFFFFFFFFFFFFFFFFFFFFFFFFFFFFFFFF
310
FFFFFFFFFFFFFFFFFFFFFFFFFFFFFFFFFFFFFFFFFFFFFFFFFFFFFFFFFFFFFFFF
310
FFFFFFFFFFFFFFFFFFFFFFFFFFFFFFFFFFFFFFFFFFFFFFFFFFFFFFFFFFFFFFFF
310
FFFFFFFFFFFFFFFFFFFFFFFFFFFFFFFFFFFFFFFFFFFFFFFFFFFFFFFFFFFFFFFF
310
FFFFFFFFFFFFFFFFFFFFFFFFFFFFFFFFFFFFFFFFFFFFFFFFFFFFFFFFFFFFFFFF
310
FFFFFFFFFFFFFFFFFFFFFFFFFFFFFFFFFFFFFFFFFFFFFFFFFFFFFFFFFFFFFFFF
310
FFFFFFFFFFFFFFFFFFFFFFFFFFFFFFFFFFFFFFFFFFFFFFFFFFFFFFFFFFFFFFFF
310
FFFFFFFFFFFFFFFFFFFFFFFFFFFFFFFFFFFFFFFFFFFFFFFFFFFFFFFFFFFFFFFF
310
FFFFFFFFFFFFFFFFFFFFFFFFFFFFFFFFFFFFFFFFFFFFFFFFFFFFFFFFFFFFFFFF
310
FFFFFFFFFFFFFFFFFFFFFFFFFFFFFFFFFFFFFFFFFFFFFFFFFFFFFFFFFFFFFFFF
310
FFFFFFFFFFFFFFFFFFFFFFFFFFFFFFFFFFFFFFFFFFFFFFFFFFFFFFFFFFFFFFFF
310
FFFFFFFFFFFFFFFFFFFFFFFFFFFFFFFFFFFFFFFFFFFFFFFFFFFFFFFFFFFFFFFF
310
FFFFFFFFFFFFFFFFFFFFFFFFFFFFFFFFFFFFFFFFFFFFFFFFFFFFFFFFFFFFFFFF
310
FFFFFFFFFFFFFFFFFFFFFFFFFFFFFFFFFFFFFFFFFFFFFFFFFFFFFFFFFFFFFFFF
310
0100000200000000000000000000000000000000000000000000000000000000
310
0000000000000000000000000000000000000000000000000000000000000000
310
0100FEFF030A0000FFFFFFFF0A00030000000000C00000000000004607000000
310
5042727573680007000000504272757368000700000050427275736800F439B2
310
7100000000000000000000000000000000000000000000000000000000000000
310
0000000000000000000000000000000000000000000000000000000000000000
310
0000000000000000000000000000000000000000000000000000000000000000
310
0000000000000000000000000000000000000000000000000000000000000000
310
0000000000000000000000000000000000000000000000000000000000000000
310
0000000000000000000000000000000000000000000000000000000000000000
310
0000000000000000000000000000000000000000000000000000000000000000
310
0000000000000000000000000000000000000000000000000000000000000000
310
0000000000000000000000000000000000000000000000000000000000000000
310
0000000000000000000000000000000000000000000000000000000000000000
310
0000000000000000000000000000000000000000000000000000000000000000
310
0000000000000000000000000000000000000000000000000000000000000000
310
20260000424D0E260000000000003E00000028000000B40200006E0000000100
310
01000000000000000000130B0000130B00000200000002000000000000FFFFFF
310
FFFFFFFFFFFFFFFFFFFFFFFFFFFFFFFFFFFFFFFFFFFFFFFFFFFFFFFFFFFFFFFF
310
FFFFFFFFFFFFFFFFFFFFFFFFFFFFFFFFFFFFFFFFFFFFFFFFFFFFFFFFFFFFFFFF
310
FFFFFFFFFFFFFFFFFFFFFFFFFFFFFFFFFFFFFFFFFFFFFFFFF000FFFFFFFFFFFF
310
FFFFFFFFFFFFFFFFFFFFFFFFFFFFFFFFFFFFFFFFFFFFFFFFFFFFFFFFFFFFFFFF
310
FFFFFFFFFFFFFFFFFFFFFFFFFFFFFFFFFFFFFFFFFFFFFFFFFFFFFFFFFFFFFFFF
310
FFFFFFFFFFFFFFFFFFFFFFFFFFFFFFFFF000FFFFFFFFFFFFFFFFFFFFFFFFFFFF
310
FFFFFFFFFFFFFFFFFFFFFFFFFFFFFFFFFFFFFFFFFFFFFFFFFFFFFFFFFFFFFFFF
310
FFFFFFFFFFFFFFFFFFFFFFFFFFFFFFFFFFFFFFFFFFFFFFFFFFFFFFFFFFFFFFFF
310
FFFFFFFFFFFFFFFFF000FFFFFFFFFFFFFFFFFFFFFFFFFFFFFFFFFFFFFFFFFFFF
310
FFFFFFFFFFFFFFFFFFFFFFFFFFFFFFFFFFFFFFFFFFFFFFFFFFFFFFFFFFFFFFFF
310
FFFFFFFFFFFFFFFFFFFFFFFFFFFFFFFFFFFFFFFFFFFFFFFFFFFFFFFFFFFFFFFF
310
F000FFFFFFFFFFFFFFFFFFFFFFFFFFFFFFFFFFFFFFFFFFFFFFFFFFFFFFFFFFFF
310
FFFFFFFFFFFFFFFFFFFFFFFFFFFFFFFFFFFFFFFFFFFFFFFFFFFFFFFFFFFFFFFF
310
FFFFFFFFFFFFFFFFFFFFFFFFFFFFFFFFFFFFFFFFFFFFFFFFF000FFFFFFFFFFFF
310
FFFFFFFFFFFFFFFFFFFFFFFFFFFFFFFFFFFFFFFFFFFFFFFFFFFFFFFFFFFFFFFF
310
FFFFFFFFFFFFFFFFFFFFFFFFFFFFFFFFFFFFFFFFFFFFFFFFFFFFFFFFFFFFFFFF
310
FFFFFFFFFFFFFFFFFFFFFFFFFFFFFFFFF000FFFFFFFFFFFFFFFFFFFFFFFFFFFF
310
FFFFFFFFFFFFFFFFFFFFFFFFFFFFFFFFFFFFFFFFFFFFFFFFFFFFFFFFFFFFFFFF
310
FFFFFFFFFFFFFFFFFFFFFFFFFFFFFFFFFFFFFFFFFFFFFFFFFFFFFFFFFFFFFFFF
310
FFFFFFFFFFFFFFFFF000FFFFFFFFFFFFFFFFFFFFFFFFFFFFFFFFFFFFFFFFFFFF
310
FFFFFFFFFFFFFFFFFFFFFFFFFFFFFFFFFFFFFFFFFFFFFFFFFFFFFFFFFFFFFFFF
310
FFFFFFFFFFFFFFFFFFFFFFFFFFFFFFFFFFFFFFFFFFFFFFFFFFFFFFFFFFFFFFFF
310
F000FFFFFFFFFFFFFFFFFFFFFFFFFFFFFFFFFFFFFFFFFFFFFFFFFFFFFFFFFFFF
310
FFFFFFFFFFFFFFFFFFFFFFFFFFFFFFFFFFFFFFFFFFFFFFFFFFFFFFFFFFFFFFFF
310
FFFFFFFFFFFFFFFFFFFFFFFFFFFFFFFFFFFFFFFFFFFFFFFFF000FFFFFFFFFFFF
310
FFFFFFFFFFFFFFFFFFFFFFFFFFFFFFFFFFFFFFFFFFFFFFFFFFFFFFFFFFFFFFFF
310
FFFFFFFFFFFFFFFFFFFFFFFFFFFFFFFFFFFFFFFFFFFFFFFFFFFFFFFFFFFFFFFF
310
FFFFFFFFFFFFFFFFFFFFFFFFFFFFFFFFF000FFFFFFFFFFFFFFFFFFFFFFFFFFFF
310
FFFFFFFFFFFFFFFFFFFFFFFFFFFFFFFFFFFFFFFFFFFFFFFFFFFFFFFFFFFFFFFF
310
FFFFFFFFFFFFFFFFFFFFFFFFFFFFFFFFFFFFFFFFFFFFFFFFFFFFFFFFFFFFFFFF
310
FFFFFFFFFFFFFFFFF000FFFFFFFFFFFFFFFFFFFFFFFFFFFFFFFFFFFFFFFFFFFF
310
FFFFFFFFFFFFFFFFFFFFFFFFFFFFFFFFFFFFFFFFFFFFFFFFFFFFFFFFFFFFFFFF
310
FFFFFFFFFFFFFFFFFFFFFFFFFFFFFFFFFFFFFFFFFFFFFFFFFFFFFFFFFFFFFFFF
310
F000FFFFFFFFFFFFFFFFFFFFFFFFFFFFFFFFFFFFFFFFFFFFFFFFFFFFFFFFFFFF
310
FFFFFFFFFFFFFFFFFFFFFFFFFFFFFFFFFFFFFFFFFFFFFFFFFFFFFFFFFFFFFFFF
310
FFFFFFFFFFFFFFFFFFFFFFFFFFFFFFFFFFFFFFFFFFFFFFFFF000FFFFFFFFFFFF
310
FFFFFFFFFFFFFFFFFFFFFFFFFFFFFFFFFFFFFFFFFFFFFFFFFFFFFFFFFFFFFFFF
310
FFFFFFFFFFFFFFFFFFFFFFFFFFFFFFFFFFFFFFFFFFFFFFFFFFFFFFFFFFFFFFFF
310
FFFFFFFFFFFFFFFFFFFFFFFFFFFFFFFFF000FFFFFFFFFFFFFFFFFFFFFFFFFFFF
310
FFFFFFFFFFFFFFFFFFFFFFFFFFFFFFFFFFFFFFFFFFFFFFFFFFFFFFFFFFFFFFFF
310
FFFFFFFFFFFFFFFFFFFFFFFFFFFFFFFFFFFFFFFFFFFFFFFFFFFFFFFFFFFFFFFF
310
FFFFFFFFFFFFFFFFF000FFFFFFFFFFFFFFFFFFFFFFFFFFFFFFFFFFFFFFFFFFFF
310
FFFFFFFFFFFFFFFFFFFFFFFFFFFFFFFFFFFFFFFFFFFFFFFFFFFFFFFFFFFFFFFF
310
FFFFFFFFFFFFFFFFFFFFFFFFFFFFFFFFFFFFFFFFFFFFFFFFFFFFFFFFFFFFFFFF
310
F000FFFFFFFFFFFFFFFFFFFFFFFFFFFFFFFFFFFFFFFFFFFFFFFFFFFFFFFFFFFF
310
FFFFFFFFFFFFFFFFFFFFFFFFFFFFFFFFFFFFFFFFFFFFFFFFFFFFFFFFFFFFFFFF
310
FFFFFFFFFFFFFFFFFFFFFFFFFFFFFFFFFFFFFFFFFFFFFFFFF000FFFFFFFFFFFF
310
FFFFFFFFFFFFFFFFFFFFFFFFFFFFFFFFFFFFFFFFFFFFFFFFFFFFFFFFFFFFFFFF
310
FFFFFFFFFFFFFFFFFFFFFFFFFFFFFFFFFFFFFFFFFFFFFFFFFFFFFFFFFFFFFFFF
310
FFFFFFFFFFFFFFFFFFFFFFFFFFFFFFFFF000FFFFFFFFFFFFFFFFFFFFFFFFFFFF
310
FFFFFFFFFFFFFFFFFFFFFFFFFFFFFFFFFFFFFFFFFFFFFFFFFFFFFFFFFFFFFFFF
310
FFFFFFFFFFFFFFFFFFFFFFFFFFFFFFFFFFFFFFFFFFFFFFFFFFFFFFFFFFFFFFFF
310
FFFFFFFFFFFFFFFFF000FFFFF80003FFFFFFFFFFFFFFFFFFFFFFFFFFFFFFFFFF
310
FFFFF00007FFFFFFFFFF00007FFFFFF800000000000000007FFFFFFFFFFFFFFF
310
FFFFFFFC001FFFFFFFFFFFFFFC001FFFFFFFFFFFFFFFFFFFFFFFFFFE0007FFFF
310
F000FFFF8000007FFFFFFFF8000FFFFFC0007FFFFF80007FFFFF0000007FFFFF
310
FFF8000007FFFFF800000000000000007FFFFFF0001FFFFFFFFFFFC00001FFFF
310
FFFFFFFFC00001FFFFFFFF000000000003FFFFE000007FFFF000FFFE0000000F
310
FFFFFFF0000FFFFF80007FFFFF80007FFFFC0000001FFFFFFFC0000001FFFFF8
310
00000000000000007FFFFFF0001FFFFFFFFFFE0000003FFFFFFFFFFE0000003F
310
FFFFFF000000000003FFFF0000000FFFF000FFF800000003FFFFFFF00007FFFF
310
80007FFFFF80007FFFF000000007FFFFFF000000003FFFF80000000000000000
310
7FFFFFF0001FFFFFFFFFF80000000FFFFFFFFFF80000000FFFFFFF0000000000
310
03FFFC00000003FFF000FFE000000000FFFFFFF00007FFFF80003FFFFF80007F
310
FFC000000001FFFFFC000000001FFFF800000000000000007FFFFFF0001FFFFF
310
FFFFE000000003FFFFFFFFE000000003FFFFFF000000000003FFF000000000FF
310
F000FF80000000007FFFFFF00007FFFF80003FFFFF80007FFF8000000000FFFF
310
F80000000007FFF800000000000000007FFFFFF0001FFFFFFFFFC000000001FF
310
FFFFFFC000000001FFFFFF000000000003FFC0000000007FF000FF0000000000
310
3FFFFFE00007FFFF00003FFFFF80007FFE00000000003FFFF00000000003FFF8
310
00000000000000007FFFFFF0001FFFFFFFFF8000000000FFFFFFFF8000000000
310
FFFFFF000000000003FF80000000003FF000FE00000000001FFFFFE00003FFFF
310
00003FFFFF80007FFC00000000001FFFE00000000001FFF8000001FFFE000000
310
7FFFFFF0001FFFFFFFFE00000000003FFFFFFE00000000003FFFFF0000000000
310
03FF00000000001FF000FC00000000000FFFFFE00003FFFF00001FFFFF80007F
310
F800000000001FFFC00000000000FFF8000001FFFE0000007FFFFFF0001FFFFF
310
FFFC00000000001FFFFFFC00000000001FFFFF000000000003FE00000000000F
310
F000F8000000000007FFFFE00003FFFF00001FFFFF80007FF800000000000FFF
310
800000000000FFF8000001FFFE0000007FFFFFF0001FFFFFFFF800000000000F
310
FFFFF800000000000FFFFF000000000003FC000000000007F000F80000000000
310
03FFFFC00003FFFE00001FFFFF80007FF0000000000007FF0000000000007FF8
310
000001FFFE0000007FFFFFF0001FFFFFFFF0000000000007FFFFF00000000000
310
07FFFF000000000003F8000000000003F000F0000000000003FFFFC00001FFFE
310
00001FFFFF80007FE0000000000007FE0000000000003FF8000001FFFE000000
310
7FFFFFF0001FFFFFFFF0000000000007FFFFF0000000000007FFFF0000000000
310
03F800001F800003F000E00001FFF00001FFFFC00001FFFE00000FFFFF80007F
310
E00001FFE00003FE00001FFF00003FF8000001FFFE0000007FFFFFF0001FFFFF
310
FFE000003E000003FFFFE000003E000003FFFF000000000003F00001FFF80001
310
F000E00007FFFC0001FFFFC00001FFFE00000FFFFF80007FC0000FFFFC0003FC
310
0000FFFFC0001FF8000001FFFE0000007FFFFFF0001FFFFFFFC00003FFE00001
310
FFFFC00003FFE00001FFFF0001FFFFFFFFF00007FFFE0001F000E0000FFFFF00
310
00FFFF800001FFFC00000FFFFF80007FC0001FFFFE0001FC0001FFFFE0001FF8
310
000001FFFE0000007FFFFFF0001FFFFFFF80000FFFF80000FFFF80000FFFF800
310
00FFFF0003FFFFFFFFE0000FFFFF8000F000C0003FFFFF8000FFFF800000FFFC
310
000007FFFF80007F80003FFFFF0001FC0003FFFFF0001FF8000001FFFE000000
310
7FFFFFF0001FFFFFFF80003FFFFE0000FFFF80003FFFFE0000FFFF0003FFFFFF
310
FFE0003FFFFF8000F000C0003FFFFF8000FFFF800000FFFC000007FFFF80007F
310
80007FFFFF8001F80007FFFFF8000FF8000001FFFE0000007FFFFFF0001FFFFF
310
FF00007FFFFF00007FFF00007FFFFF00007FFF0003FFFFFFFFE0003FFFFFC000
310
F000C0007FFFFFC000FFFF000000FFFC000007FFFF80007F8000FFFFFF8000F8
310
000FFFFFF8000FF8000001FFFE0000007FFFFFF0001FFFFFFF0000FFFFFF8000
310
7FFF0000FFFFFF80007FFF0003FFFFFFFFC0007FFFFFC00070008000FFFFFFC0
310
00FFFF000000FFF8000007FFFF80007F8000FFFFFF8000F8000FFFFFF8000FF8
310
000001FFFE0000007FFFFFF0001FFFFFFE0001FFFFFFC0003FFE0001FFFFFFC0
310
003FFF0003FFFFFFFFC0007FFFFFE00070008000FFFFFFC0007FFF0000007FF8
310
000003FFFF80007F0001FFFFFF8000F8000FFFFFF8000FF8000001FFFE000000
310
7FFFFFF0001FFFFFFE0001FFFFFFC0003FFE0001FFFFFFC0003FFF0003FFFFFF
310
FFC000FFFFFFE00070008000FFFFFFC0007FFF0000007FF8000003FFFF80007F
310
0001FFFFFF8000F8001FFFFFF8000FF8000001FFFE0000007FFFFFF0001FFFFF
310
FE0003FFFFFFE0003FFE0003FFFFFFE0003FFF0003FFFFFFFFC000FFFFFFE000
310
70008000FFFFFFC0007FFE0000007FF8000003FFFF80007F0001FFFFFF8000F0
310
001FFFFFF8000FF8000001FFFE0000007FFFFFF0001FFFFFFC0003FFFFFFE000
310
1FFC0003FFFFFFE0001FFF0003FFFFFFFFC000FFFFFFC00070008000FFFFFF80
310
007FFE0000007FF0000003FFFF80007F0001FFFFFF0000F0001FFFFFF8000FF8
310
000001FFFE0000007FFFFFF0001FFFFFFC0007FFFFFFF0001FFC0007FFFFFFF0
310
001FFF0003FFFFFFFFC000FFFFFFC00070008001FFFFFF0000FFFE0000003FF0
310
000001FFFF80007F0001FFFFFF0000F8001FFFFFF0000FF8000001FFFE000000
310
7FFFFFF0001FFFFFFC0007FFFFFFF0001FFC0007FFFFFFF0001FFF0003FFFFFF
310
FFC001FFFFFF80007000FFFFFFFFFE0000FFFE0008003FF0008001FFFF80007F
310
FFFFFFFFFC0000FFFFFFFFFFE0000FF8000001FFFE0000007FFFFFF0001FFFFF
310
F8000FFFFFFFF8000FF8000FFFFFFFF8000FFF0003FFFFFFFFFFFFFFFFFF0000
310
7000FFFFFFFFFC0000FFFC0008003FF0008001FFFF80007FFFFFFFFFF80001FF
310
FFFFFFFF80000FF8000001FFFE0000007FFFFFF0001FFFFFF8000FFFFFFFF800
310
0FF8000FFFFFFFF8000FFF0003FFFFFFFFFFFFFFFFFE0000F000FFFFFFFFE000
310
00FFFC000C003FE000C001FFFF80007FFFFFFFFFC00001FFFFFFFFFE00001FF8
310
000001FFFE0000007FFFFFF0001FFFFFF8000FFFFFFFF8000FF8000FFFFFFFF8
310
000FFF0003FFFFFFFFFFFFFFFFF00000F000FFFFFFFE000001FFFC000C001FE0
310
00C000FFFF80007FFFFFFFFE000001FFFFFFFFE000001FF80FFFFFFFFFFFFFC0
310
7FFFFFF0001FFFFFF8000FFFFFFFF8000FF8000FFFFFFFF8000FFF0003FFFFFF
310
FFFFFFFFFF800000F000FFFFFFC0000001FFFC001C001FE001C000FFFF80007F
310
FFFFFF80000003FFFFFFF80000001FF80FFFFFFFFFFFFFC07FFFFFF0001FFFFF
310
F8001FFFFFFFFC000FF8001FFFFFFFFC000FFF0003FFFFFFFFFFFFFFF0000001
310
F000FFFFF800000001FFF8001C001FE001C000FFFF80007FFFFFF800000003FF
310
FFFF800000003FF80FFFFFFFFFFFFFC07FFFFFF0001FFFFFF8001FFFFFFFFC00
310
0FF8001FFFFFFFFC000FFF0003FFFFFFFFFFFFFE00000001F000FFFFC0000000
310
03FFF8001E001FC001E000FFFF80007FFFFF8000000007FFFFFC000000003FF8
310
0FFFFFFFFFFFFFC07FFFFFF0001FFFFFF8001FFFFFFFFC000FF8001FFFFFFFFC
310
000FFF0003FFFFFFFFFFFFE000000003F000FFFE0000000007FFF8001E000FC0
310
01E0007FFF80007FFFFE0000000007FFFFE0000000007FF80FFFFFFFFFFFFFC0
310
7FFFFFF0001FFFFFF0001FFFFFFFFC0007F0001FFFFFFFFC0007FF0003FFFFFF
310
FFFFFF0000000003F000FFF80000000007FFF8001E000FC003E0007FFF80007F
310
FFF0000000000FFFFF8000000000FFF80FFFFFFFFFFFFFC07FFFFFF0001FFFFF
310
F0001FFFFFFFFC0007F0001FFFFFFFFC0007FF0003FFFFFFFFFFFC0000000007
310
F000FFE0000000000FFFF0003E000FC003E0007FFF80007FFFC0000000001FFF
310
FE0000000001FFF80FFFFFFFFFFFFFC07FFFFFF0001FFFFFF0001FFFFFFFFC00
310
07F0001FFFFFFFFC0007FF0003FFFFFFFFFFF0000000000FF000FFC000000000
310
1FFFF0003F000F8003F0003FFF80007FFF80000000003FFFF80000000003FFF8
310
0FFFFFFFFFFFFFC07FFFFFF0001FFFFFF0001FFFFFFFFC0007F0001FFFFFFFFC
310
0007FF0003FFFFFFFFFFE0000000001FF000FF00000000007FFFF0003F000780
310
03F0003FFF80007FFF00000000007FFFF00000000007FFF80FFFFFFFFFFFFFC0
310
7FFFFFF0001FFFFFF0001FFFFFFFFC0007F0001FFFFFFFFC0007FF0003FFFFFF
310
FFFF80000000007FF000FE0000000000FFFFE0003F00078007F0003FFF80007F
310
FE0000000001FFFFE0000000001FFFF80FFFFFFFFFFFFFC07FFFFFF0001FFFFF
310
F0001FFFFFFFFC0007F0001FFFFFFFFC0007FF0003FFFFFFFFFF0000000000FF
310
F000FC0000000003FFFFE0007F00078007F0003FFF80007FFC0000000007FFFF
310
C0000000007FFFF80FFFFFFFFFFFFFC07FFFFFF0001FFFFFF8001FFFFFFFFC00
310
0FF8001FFFFFFFFC000FFF0003FFFFFFFFFE0000000003FFF000FC000000000F
310
FFFFE0007F80070007F8001FFF80007FF8000000001FFFFF8000000001FFFFF8
310
0FFFFFFFFFFFFFC07FFFFFF0001FFFFFF8001FFFFFFFFC000FF8001FFFFFFFFC
310
000FFF0003FFFFFFFFFC000000000FFFF000F8000000007FFFFFE0007F800700
310
07F8001FFF80007FF000000000FFFFFF800000000FFFFFF80FFFFFFFFFFFFFC0
310
7FFFFFF0001FFFFFF8000FFFFFFFF8000FF8000FFFFFFFF8000FFF0003FFFFFF
310
FFFC000000007FFFF000F800000007FFFFFFC0007F8003000FF8001FFF80007F
310
F000000007FFFFFF000000007FFFFFF80FFFFFFFFFFFFFC07FFFFFF0001FFFFF
310
F8000FFFFFFFF8000FF8000FFFFFFFF8000FFF0003FFFFFFFFF80000000FFFFF
310
F000F0000000FFFFFFFFC000FF8003000FF8001FFF80007FE0000000FFFFFFFF
310
0000000FFFFFFFF8000001FFFE0000007FFFFFF0001FFFFFF8000FFFFFFFF800
310
0FF8000FFFFFFFF8000FFF0003FFFFFFFFF8000000FFFFFFF000F000000FFFFF
310
FFFFC000FFC002000FF8000FFF80007FE000001FFFFFFFFE000001FFFFFFFFF8
310
000001FFFE0000007FFFFFF0001FFFFFF8000FFFFFFFF8000FF8000FFFFFFFF8
310
000FFF0003FFFFFFFFF000001FFFFFFFF000E00000FFFFFFFFFFC000FFC00200
310
0FFC000FFF80007FE00001FFFFFFFFFE00001FFFFFFFFFF8000001FFFE000000
310
7FFFFFF0001FFFFFFC000FFFFFFFF8001FFC000FFFFFFFF8001FFF0003FFFFFF
310
FFF00001FFFFFFFFF000E00007FFFFFFFFFF8000FFC000001FFC000FFF80007F
310
C0000FFFFFFFFFFE0000FFFFFFFFFFF8000001FFFE0000007FFFFFF0001FFFFF
310
FC0007FFFFFFF0001FFC0007FFFFFFF0001FFF0003FFFFFFFFF00007FFFFFFFF
310
F000E0001FFFFFFFFFFF8000FFC000001FFC000FFF80007FC0003FFFFFFFFFFE
310
0001FFFFFFFFFFF8000001FFFE0000007FFFFFF0001FFFFFFC0007FFFFFFF000
310
1FFC0007FFFFFFF0001FFF0003FFFFFFFFF0001FFFFFFFFFF000E0003FFFFF00
310
03FF8001FFE000001FFC0007FF80007FC0007FFFFF0007FC0003FFFFF0003FF8
310
000001FFFE0000007FFFFFF0001FFFFFFC0003FFFFFFE0001FFC0003FFFFFFE0
310
001FFF0003FFFFFFFFF0003FFFFFFFFFF000E0003FFFFF0001FF8001FFE00000
310
1FFE0007FF80007FC0007FFFFE0003FC0007FFFFE0003FF8000001FFFE000000
310
7FFFFFF0001FFFFFFE0003FFFFFFE0003FFE0003FFFFFFE0003FFF0003FFFFFF
310
FFF0003FFFFF8001F000E0003FFFFF0001FF0001FFE000001FFE0007FF80007F
310
C0007FFFFE0003FC0007FFFFE0003FF8000001FFFE0000007FFFFFF0001FFFFF
310
FE0001FFFFFFC0003FFE0001FFFFFFC0003FFF0003FFFFFFFFF0003FFFFF0001
310
F000E0003FFFFF0003FF0001FFE000003FFE0007FF80007FC0007FFFFE0003FC
310
0007FFFFE0003FF8000001FFFE0000007FFFFFF0001FFFFFFF0001FFFFFFC000
310
7FFF0001FFFFFFC0007FFF0003FFFFFFFFF0003FFFFF0001F000E0003FFFFE00
310
03FF0003FFF000003FFE0003FF80007FC0007FFFFC0003FE0007FFFFE0003FF8
310
000001FFFE0000007FFFFFF0001FFFFFFF0000FFFFFF80007FFF0000FFFFFF80
310
007FFF0003FFFFFFFFF0003FFFFF0001F000E0003FFFFE0003FF0003FFF00000
310
3FFF0003FF80007FC0007FFFFC0007FE0007FFFFC0003FF8000001FFFE000000
310
7FFFFFF0001FFFFFFF80007FFFFF0000FFFF80007FFFFF0000FFFF0003FFFFFF
310
FFF0003FFFFF0003F000E0003FFFFC0003FE0003FFF000003FFF0003FF80007F
310
E0003FFFF80007FE0003FFFFC0007FF8000001FFFE0000007FFFFFF0001FFFFF
310
FF80003FFFFE0000FFFF80003FFFFE0000FFFF0003FFFFFFFFF0001FFFFE0003
310
F000F0001FFFF80003FE0003FFF000007FFF0001FF80007FE0003FFFF00007FE
310
0001FFFF80007FF8000001FFFE0000007FFFFFF0001FFFFFFFC0000FFFF80001
310
FFFFC0000FFFF80001FFFF0003FFFFFFFFF0001FFFFC0003F000F0000FFFF000
310
07FE0007FFF800007FFF0001FF80007FE0001FFFE00007FF0000FFFE00007FF8
310
000001FFFE0000007FFFFFF0001FFFFFFFC00003FFE00001FFFFC00003FFE000
310
01FFFF0003FFFFFFFFF8000FFFF80003F000F00003FFC00007FC0007FFF80000
310
7FFF8001FF80007FF00007FF80000FFF00007FF80000FFF8000001FFFE000000
310
7F80000000000001FFE000003E000003FFFFE000003E000003FFFF0003FFFFFF
310
FFF80003FFE00007F000F800000000000FFC0007FFF800007FFF8001FF80007F
310
F000000000000FFF000000000000FFF8000001FFFE0000007F80000000000001
310
FFF0000000000007FFFFF0000000000007FFFF0003FFFFFFFFFC00007E000007
310
F000F800000000000FFC0007FFF80000FFFF8000FF80007FF800000000001FFF
310
800000000001FFF8000001FFFE0000007F80000000000001FFF800000000000F
310
FFFFF800000000000FFFFF0003FFFFFFFFFC00000000000FF000FC0000000000
310
1FFC0007FFFC0000FFFF8000FF80007FF800000000003FFFC00000000001FFF8
310
000001FFFE0000007F80000000000001FFF800000000000FFFFFF80000000000
310
0FFFFF0003FFFFFFFFFE00000000001FF000FE00000000003FF8000FFFFC0000
310
FFFF8000FF80007FFC00000000003FFFC00000000003FFF8000001FFFE000000
310
7F80000000000001FFFC00000000001FFFFFFC00000000001FFFFF0003FFFFFF
310
FFFF00000000001FF000FF00000000003FF8000FFFFC0000FFFFC000FF80007F
310
FE00000000007FFFE00000000007FFF8000001FFFE0000007F80000000000001
310
FFFE00000000003FFFFFFE00000000003FFFFF0003FFFFFFFFFF80000000003F
310
F000FF80000000007FF8000FFFFC0001FFFFC0007F80007FFF0000000000FFFF
310
F0000000000FFFF800000000000000007F80000000000001FFFF8000000000FF
310
FFFFFF8000000000FFFFFF0003FFFFFFFFFFC0000000007FF000FFC000000000
310
FFF8000FFFFE0001FFFFC0007F80007FFF8000000001FFFFF8000000001FFFF8
310
00000000000000007F80000000000001FFFFC000000001FFFFFFFFC000000001
310
FFFFFF0003FFFFFFFFFFE000000000FFF000FFE000000003FFF0001FFFFE0001
310
FFFFC0007F80007FFFC000000007FFFFFE000000003FFFF80000000000000000
310
7F80000000000001FFFFE000000003FFFFFFFFE000000003FFFFFF0003FFFFFF
310
FFFFF000000003FFF000FFF80000000FFFF0001FFFFE0001FFFFE0007F80007F
310
FFF00000000FFFFFFF00000000FFFFF800000000000000007F80000000000001
310
FFFFF80000000FFFFFFFFFF80000000FFFFFFF0003FFFFFFFFFFFC0000000FFF
310
F000FFFE0000003FFFF0001FFFFE0003FFFFE0003F80007FFFFC0000003FFFFF
310
FFC0000003FFFFF800000000000000007F80000000000001FFFFFE0000003FFF
310
FFFFFFFE0000003FFFFFFF0003FFFFFFFFFFFF0000003FFFF000FFFF800000FF
310
FFF0001FFFFF0003FFFFE0003F80007FFFFF000001FFFFFFFFF800001FFFFFF8
310
00000000000000007F80000000000001FFFFFFC00001FFFFFFFFFFFFC00001FF
310
FFFFFF0003FFFFFFFFFFFFC00000FFFFF000FFFFF8000FFFFFFFFFFFFFFFFFFF
310
FFFFFFFFFFFFFFFFFFFFF0001FFFFFFFFFFF0000FFFFFFF80000000000000000
310
7FFFFFFFFFFFFFFFFFFFFFFC001FFFFFFFFFFFFFFC001FFFFFFFFFFFFFFFFFFF
310
FFFFFFFC001FFFFFF000FFFFFFFFFFFFFFFFFFFFFFFFFFFFFFFFFFFFFFFFFFFF
310
FFFFFFFFFFFFFFFFFFFFFFFFFFFFFFFFFFFFFFFFFFFFFFFFFFFFFFFFFFFFFFFF
310
FFFFFFFFFFFFFFFFFFFFFFFFFFFFFFFFFFFFFFFFFFFFFFFFFFFFFFFFFFFFFFFF
310
F000FFFFFFFFFFFFFFFFFFFFFFFFFFFFFFFFFFFFFFFFFFFFFFFFFFFFFFFFFFFF
310
FFFFFFFFFFFFFFFFFFFFFFFFFFFFFFFFFFFFFFFFFFFFFFFFFFFFFFFFFFFFFFFF
310
FFFFFFFFFFFFFFFFFFFFFFFFFFFFFFFFFFFFFFFFFFFFFFFFF000FFFFFFFFFFFF
310
FFFFFFFFFFFFFFFFFFFFFFFFFFFFFFFFFFFFFFFFFFFFFFFFFFFFFFFFFFFFFFFF
310
FFFFFFFFFFFFFFFFFFFFFFFFFFFFFFFFFFFFFFFFFFFFFFFFFFFFFFFFFFFFFFFF
310
FFFFFFFFFFFFFFFFFFFFFFFFFFFFFFFFF000FFFFFFFFFFFFFFFFFFFFFFFFFFFF
310
FFFFFFFFFFFFFFFFFFFFFFFFFFFFFFFFFFFFFFFFFFFFFFFFFFFFFFFFFFFFFFFF
310
FFFFFFFFFFFFFFFFFFFFFFFFFFFFFFFFFFFFFFFFFFFFFFFFFFFFFFFFFFFFFFFF
310
FFFFFFFFFFFFFFFFF000FFFFFFFFFFFFFFFFFFFFFFFFFFFFFFFFFFFFFFFFFFFF
310
FFFFFFFFFFFFFFFFFFFFFFFFFFFFFFFFFFFFFFFFFFFFFFFFFFFFFFFFFFFFFFFF
310
FFFFFFFFFFFFFFFFFFFFFFFFFFFFFFFFFFFFFFFFFFFFFFFFFFFFFFFFFFFFFFFF
310
F000FFFFFFFFFFFFFFFFFFFFFFFFFFFFFFFFFFFFFFFFFFFFFFFFFFFFFFFFFFFF
310
FFFFFFFFFFFFFFFFFFFFFFFFFFFFFFFFFFFFFFFFFFFFFFFFFFFFFFFFFFFFFFFF
310
FFFFFFFFFFFFFFFFFFFFFFFFFFFFFFFFFFFFFFFFFFFFFFFFF000FFFFFFFFFFFF
310
FFFFFFFFFFFFFFFFFFFFFFFFFFFFFFFFFFFFFFFFFFFFFFFFFFFFFFFFFFFFFFFF
310
FFFFFFFFFFFFFFFFFFFFFFFFFFFFFFFFFFFFFFFFFFFFFFFFFFFFFFFFFFFFFFFF
310
FFFFFFFFFFFFFFFFFFFFFFFFFFFFFFFFF000FFFFFFFFFFFFFFFFFFFFFFFFFFFF
310
FFFFFFFFFFFFFFFFFFFFFFFFFFFFFFFFFFFFFFFFFFFFFFFFFFFFFFFFFFFFFFFF
310
FFFFFFFFFFFFFFFFFFFFFFFFFFFFFFFFFFFFFFFFFFFFFFFFFFFFFFFFFFFFFFFF
310
FFFFFFFFFFFFFFFFF000FFFFFFFFFFFFFFFFFFFFFFFFFFFFFFFFFFFFFFFFFFFF
310
FFFFFFFFFFFFFFFFFFFFFFFFFFFFFFFFFFFFFFFFFFFFFFFFFFFFFFFFFFFFFFFF
310
FFFFFFFFFFFFFFFFFFFFFFFFFFFFFFFFFFFFFFFFFFFFFFFFFFFFFFFFFFFFFFFF
310
F000FFFFFFFFFFFFFFFFFFFFFFFFFFFFFFFFFFFFFFFFFFFFFFFFFFFFFFFFFFFF
310
FFFFFFFFFFFFFFFFFFFFFFFFFFFFFFFFFFFFFFFFFFFFFFFFFFFFFFFFFFFFFFFF
310
FFFFFFFFFFFFFFFFFFFFFFFFFFFFFFFFFFFFFFFFFFFFFFFFF000FFFFFFFFFFFF
310
FFFFFFFFFFFFFFFFFFFFFFFFFFFFFFFFFFFFFFFFFFFFFFFFFFFFFFFFFFFFFFFF
310
FFFFFFFFFFFFFFFFFFFFFFFFFFFFFFFFFFFFFFFFFFFFFFFFFFFFFFFFFFFFFFFF
310
FFFFFFFFFFFFFFFFFFFFFFFFFFFFFFFFF000FFFFFFFFFFFFFFFFFFFFFFFFFFFF
310
FFFFFFFFFFFFFFFFFFFFFFFFFFFFFFFFFFFFFFFFFFFFFFFFFFFFFFFFFFFFFFFF
310
FFFFFFFFFFFFFFFFFFFFFFFFFFFFFFFFFFFFFFFFFFFFFFFFFFFFFFFFFFFFFFFF
310
FFFFFFFFFFFFFFFFF000FFFFFFFFFFFFFFFFFFFFFFFFFFFFFFFFFFFFFFFFFFFF
310
FFFFFFFFFFFFFFFFFFFFFFFFFFFFFFFFFFFFFFFFFFFFFFFFFFFFFFFFFFFFFFFF
310
FFFFFFFFFFFFFFFFFFFFFFFFFFFFFFFFFFFFFFFFFFFFFFFFFFFFFFFFFFFFFFFF
310
F000FFFFFFFFFFFFFFFFFFFFFFFFFFFFFFFFFFFFFFFFFFFFFFFFFFFFFFFFFFFF
310
FFFFFFFFFFFFFFFFFFFFFFFFFFFFFFFFFFFFFFFFFFFFFFFFFFFFFFFFFFFFFFFF
310
FFFFFFFFFFFFFFFFFFFFFFFFFFFFFFFFFFFFFFFFFFFFFFFFF000FFFFFFFFFFFF
310
FFFFFFFFFFFFFFFFFFFFFFFFFFFFFFFFFFFFFFFFFFFFFFFFFFFFFFFFFFFFFFFF
310
FFFFFFFFFFFFFFFFFFFFFFFFFFFFFFFFFFFFFFFFFFFFFFFFFFFFFFFFFFFFFFFF
310
FFFFFFFFFFFFFFFFFFFFFFFFFFFFFFFFF000FFFFFFFFFFFFFFFFFFFFFFFFFFFF
310
FFFFFFFFFFFFFFFFFFFFFFFFFFFFFFFFFFFFFFFFFFFFFFFFFFFFFFFFFFFFFFFF
310
FFFFFFFFFFFFFFFFFFFFFFFFFFFFFFFFFFFFFFFFFFFFFFFFFFFFFFFFFFFFFFFF
310
FFFFFFFFFFFFFFFFF000FFFFFFFFFFFFFFFFFFFFFFFFFFFFFFFFFFFFFFFFFFFF
310
FFFFFFFFFFFFFFFFFFFFFFFFFFFFFFFFFFFFFFFFFFFFFFFFFFFFFFFFFFFFFFFF
310
FFFFFFFFFFFFFFFFFFFFFFFFFFFFFFFFFFFFFFFFFFFFFFFFFFFFFFFFFFFFFFFF
310
F000FFFFFFFFFFFFFFFFFFFFFFFFFFFFFFFFFFFFFFFFFFFFFFFFFFFFFFFFFFFF
310
FFFFFFFFFFFFFFFFFFFFFFFFFFFFFFFFFFFFFFFFFFFFFFFFFFFFFFFFFFFFFFFF
310
FFFFFFFFFFFFFFFFFFFFFFFFFFFFFFFFFFFFFFFFFFFFFFFFF000FFFFFFFFFFFF
310
FFFFFFFFFFFFFFFFFFFFFFFFFFFFFFFFFFFFFFFFFFFFFFFFFFFFFFFFFFFFFFFF
310
FFFFFFFFFFFFFFFFFFFFFFFFFFFFFFFFFFFFFFFFFFFFFFFFFFFFFFFFFFFFFFFF
310
FFFFFFFFFFFFFFFFFFFFFFFFFFFFFFFFF000FFFFFFFFFFFFFFFFFFFFFFFFFFFF
310
FFFFFFFFFFFFFFFFFFFFFFFFFFFFFFFFFFFFFFFFFFFFFFFFFFFFFFFFFFFFFFFF
310
FFFFFFFFFFFFFFFFFFFFFFFFFFFFFFFFFFFFFFFFFFFFFFFFFFFFFFFFFFFFFFFF
310
FFFFFFFFFFFFFFFFF000FFFFFFFFFFFFFFFFFFFFFFFFFFFFFFFFFFFFFFFFFFFF
310
FFFFFFFFFFFFFFFFFFFFFFFFFFFFFFFFFFFFFFFFFFFFFFFFFFFFFFFFFFFFFFFF
310
FFFFFFFFFFFFFFFFFFFFFFFFFFFFFFFFFFFFFFFFFFFFFFFFFFFFFFFFFFFFFFFF
310
F000FFFFFFFFFFFFFFFFFFFFFFFFFFFFFFFFFFFFFFFFFFFFFFFFFFFFFFFFFFFF
310
FFFFFFFFFFFFFFFFFFFFFFFFFFFFFFFFFFFFFFFFFFFFFFFFFFFFFFFFFFFFFFFF
310
FFFFFFFFFFFFFFFFFFFFFFFFFFFFFFFFFFFFFFFFFFFFFFFFF000FFFFFFFFFFFF
310
FFFFFFFFFFFFFFFFFFFFFFFFFFFFFFFFFFFFFFFFFFFFFFFFFFFFFFFFFFFFFFFF
310
FFFFFFFFFFFFFFFFFFFFFFFFFFFFFFFFFFFFFFFFFFFFFFFFFFFFFFFFFFFFFFFF
310
FFFFFFFFFFFFFFFFFFFFFFFFFFFFFFFFF0000000000000000000000000000000
310
0000000000000000000000000000000000000000000000000000000000000000
310
0000000000000000000000000000000000000000000000000000000000000000
310
0000000000000000000000000000000000000000000000000000000000000000
310
0000000000000000000000000000000000000000000000000000000000000000
310
0000000000000000000000000000000000000000000000000000000000000000
310
0000000000000000000000000000000000000000000000000000000000000000
310
0000000000000000000000000000000000000000000000000000000000000000
310
0000000000000000000000000000000000000000000000000000000000000000
310
0000000000000000000000000000000000000000000000000000000000000000
310
0000000000000000000000000000000000000000000000000000000000000000
310
0000000000000000000000000000000000000000000000000000000000000000
310
0000000000000000000000000000000000000000000000000000000000000000
310
0000000000000000000000000000000000000000000000000000000000000000
310
0000000000000000000000000000000000000000000000000000000000000000
310
0000000000000000000000000000000000000000000000000000000000000000
  1
OLE
  0
ENDSEC
  0
SECTION
  2
OBJECTS
  0
DICTIONARY
  5
C
330
0
100
AcDbDictionary
281
     1
  3
ACAD_GROUP
350
D
  3
ACAD_LAYOUT
350
1A
  3
ACAD_MLINESTYLE
350
17
  3
ACAD_PLOTSETTINGS
350
19
  3
ACAD_PLOTSTYLENAME
350
E
  0
DICTIONARY
  5
D
102
{ACAD_REACTORS
330
C
102
}
330
C
100
AcDbDictionary
281
     1
  0
DICTIONARY
  5
1A
102
{ACAD_REACTORS
330
C
102
}
330
C
100
AcDbDictionary
281
     1
  3
Layout1
350
1E
  3
Layout2
350
26
  3
Model
350
22
  0
DICTIONARY
  5
17
102
{ACAD_REACTORS
330
C
102
}
330
C
100
AcDbDictionary
281
     1
  3
Standard
350
18
  0
DICTIONARY
  5
19
102
{ACAD_REACTORS
330
C
102
}
330
C
100
AcDbDictionary
281
     1
  0
ACDBDICTIONARYWDFLT
  5
E
102
{ACAD_REACTORS
330
C
102
}
330
C
100
AcDbDictionary
281
     1
  3
Normal
350
F
100
AcDbDictionaryWithDefault
340
F
  0
LAYOUT
  5
1E
102
{ACAD_REACTORS
330
1A
102
}
330
1A
100
AcDbPlotSettings
  1

  2
none_device
  4

  6

 40
0.0
 41
0.0
 42
0.0
 43
0.0
 44
0.0
 45
0.0
 46
0.0
 47
0.0
 48
0.0
 49
0.0
140
0.0
141
0.0
142
1.0
143
1.0
 70
   688
 72
     0
 73
     0
 74
     5
  7

 75
    16
147
1.0
148
0.0
149
0.0
100
AcDbLayout
  1
Layout1
 70
     1
 71
     1
 10
0.0
 20
0.0
 11
420.0
 21
297.0
 12
0.0
 22
0.0
 32
0.0
 14
1.0000000000E+20
 24
1.0000000000E+20
 34
1.0000000000E+20
 15
-1.0000000000E+20
 25
-1.0000000000E+20
 35
-1.0000000000E+20
146
0.0
 13
0.0
 23
0.0
 33
0.0
 16
1.0
 26
0.0
 36
0.0
 17
0.0
 27
1.0
 37
0.0
 76
     0
330
1B
  0
LAYOUT
  5
26
102
{ACAD_REACTORS
330
1A
102
}
330
1A
100
AcDbPlotSettings
  1

  2
none_device
  4

  6

 40
0.0
 41
0.0
 42
0.0
 43
0.0
 44
0.0
 45
0.0
 46
0.0
 47
0.0
 48
0.0
 49
0.0
140
0.0
141
0.0
142
1.0
143
1.0
 70
   688
 72
     0
 73
     0
 74
     5
  7

 75
    16
147
1.0
148
0.0
149
0.0
100
AcDbLayout
  1
Layout2
 70
     1
 71
     2
 10
0.0
 20
0.0
 11
0.0
 21
0.0
 12
0.0
 22
0.0
 32
0.0
 14
0.0
 24
0.0
 34
0.0
 15
0.0
 25
0.0
 35
0.0
146
0.0
 13
0.0
 23
0.0
 33
0.0
 16
1.0
 26
0.0
 36
0.0
 17
0.0
 27
1.0
 37
0.0
 76
     0
330
23
  0
LAYOUT
  5
22
102
{ACAD_REACTORS
330
1A
102
}
330
1A
100
AcDbPlotSettings
  1

  2
none_device
  4

  6

 40
0.0
 41
0.0
 42
0.0
 43
0.0
 44
0.0
 45
0.0
 46
0.0
 47
0.0
 48
0.0
 49
0.0
140
0.0
141
0.0
142
1.0
143
1.0
 70
  1712
 72
     0
 73
     0
 74
     0
  7

 75
     0
147
1.0
148
0.0
149
0.0
100
AcDbLayout
  1
Model
 70
     1
 71
     0
 10
0.0
 20
0.0
 11
297.0
 21
210.0
 12
0.0
 22
0.0
 32
0.0
 14
0.0
 24
0.0
 34
0.0
 15
297.0
 25
210.0
 35
0.0
146
0.0
 13
0.0
 23
0.0
 33
0.0
 16
1.0
 26
0.0
 36
0.0
 17
0.0
 27
1.0
 37
0.0
 76
     0
330
1F
331
29
  0
MLINESTYLE
  5
18
102
{ACAD_REACTORS
330
17
102
}
330
17
100
AcDbMlineStyle
  2
Standard
 70
     0
  3

 62
   256
 51
90.0
 52
90.0
 71
     2
 49
0.5
 62
   256
  6
BYLAYER
 49
-0.5
 62
   256
  6
BYLAYER
  0
ACDBPLACEHOLDER
  5
F
102
{ACAD_REACTORS
330
E
102
}
330
E
  0
ENDSEC
  0
EOF
