  0
SECTION
  2
HEADER
  9
$ACADVER
  1
AC1015
  9
$ACADMAINTVER
 70
     6
  9
$DWGCODEPAGE
  3
ANSI_1252
  9
$INSBASE
 10
0.0
 20
0.0
 30
0.0
  9
$EXTMIN
 10
0.0
 20
0.0
 30
0.0
  9
$EXTMAX
 10
297.0
 20
210.0
 30
0.0
  9
$LIMMIN
 10
0.0
 20
0.0
  9
$LIMMAX
 10
297.0
 20
210.0
  9
$ORTHOMODE
 70
     0
  9
$REGENMODE
 70
     1
  9
$FILLMODE
 70
     1
  9
$QTEXTMODE
 70
     0
  9
$MIRRTEXT
 70
     1
  9
$LTSCALE
 40
1.0
  9
$ATTMODE
 70
     1
  9
$TEXTSIZE
 40
2.0
  9
$TRACEWID
 40
1.0
  9
$TEXTSTYLE
  7
Standard
  9
$CLAYER
  8
0
  9
$CELTYPE
  6
ByLayer
  9
$CECOLOR
 62
   256
  9
$CELTSCALE
 40
1.0
  9
$DISPSILH
 70
     0
  9
$DIMSCALE
 40
1.0
  9
$DIMASZ
 40
3.0
  9
$DIMEXO
 40
0.0
  9
$DIMDLI
 40
3.75
  9
$DIMRND
 40
0.0
  9
$DIMDLE
 40
0.0
  9
$DIMEXE
 40
1.0
  9
$DIMTP
 40
0.0
  9
$DIMTM
 40
0.0
  9
$DIMTXT
 40
2.0
  9
$DIMCEN
 40
2.5
  9
$DIMTSZ
 40
0.0
  9
$DIMTOL
 70
     0
  9
$DIMLIM
 70
     0
  9
$DIMTIH
 70
     1
  9
$DIMTOH
 70
     1
  9
$DIMSE1
 70
     0
  9
$DIMSE2
 70
     0
  9
$DIMTAD
 70
     1
  9
$DIMZIN
 70
     0
  9
$DIMBLK
  1

  9
$DIMASO
 70
     1
  9
$DIMSHO
 70
     1
  9
$DIMPOST
  1

  9
$DIMAPOST
  1

  9
$DIMALT
 70
     0
  9
$DIMALTD
 70
     3
  9
$DIMALTF
 40
0.0393700787
  9
$DIMLFAC
 40
1.0
  9
$DIMTOFL
 70
     1
  9
$DIMTVP
 40
0.0
  9
$DIMTIX
 70
     0
  9
$DIMSOXD
 70
     0
  9
$DIMSAH
 70
     0
  9
$DIMBLK1
  1

  9
$DIMBLK2
  1

  9
$DIMSTYLE
  2
ISO-25
  9
$DIMCLRD
 70
     0
  9
$DIMCLRE
 70
     0
  9
$DIMCLRT
 70
     0
  9
$DIMTFAC
 40
1.0
  9
$DIMGAP
 40
1.524
  9
$DIMJUST
 70
     0
  9
$DIMSD1
 70
     0
  9
$DIMSD2
 70
     0
  9
$DIMTOLJ
 70
     0
  9
$DIMTZIN
 70
     0
  9
$DIMALTZ
 70
     0
  9
$DIMALTTZ
 70
     0
  9
$DIMUPT
 70
     0
  9
$DIMDEC
 70
     2
  9
$DIMTDEC
 70
     3
  9
$DIMALTU
 70
     2
  9
$DIMALTTD
 70
     3
  9
$DIMTXSTY
  7
Standard
  9
$DIMAUNIT
 70
     0
  9
$DIMADEC
 70
     2
  9
$DIMALTRND
 40
0.0
  9
$DIMAZIN
 70
     0
  9
$DIMDSEP
 70
    44
  9
$DIMATFIT
 70
     3
  9
$DIMFRAC
 70
     0
  9
$DIMLDRBLK
  1

  9
$DIMLUNIT
 70
     2
  9
$DIMLWD
 70
    -2
  9
$DIMLWE
 70
    -2
  9
$DIMTMOVE
 70
     0
  9
$LUNITS
 70
     2
  9
$LUPREC
 70
     2
  9
$SKETCHINC
 40
1.0
  9
$FILLETRAD
 40
10.0
  9
$AUNITS
 70
     0
  9
$AUPREC
 70
     2
  9
$MENU
  1
.
  9
$ELEVATION
 40
0.0
  9
$PELEVATION
 40
0.0
  9
$THICKNESS
 40
0.0
  9
$LIMCHECK
 70
     0
  9
$CHAMFERA
 40
10.0
  9
$CHAMFERB
 40
10.0
  9
$CHAMFERC
 40
20.0
  9
$CHAMFERD
 40
0.0
  9
$SKPOLY
 70
     0
  9
$TDCREATE
 40
2455629.491428912
  9
$TDUCREATE
 40
2455629.449762245
  9
$TDUPDATE
 40
2455629.491428924
  9
$TDUUPDATE
 40
2455629.449762257
  9
$TDINDWG
 40
0.0000000116
  9
$TDUSRTIMER
 40
0.0000000116
  9
$USRTIMER
 70
     1
  9
$ANGBASE
 50
0.0
  9
$ANGDIR
 70
     0
  9
$PDMODE
 70
     0
  9
$PDSIZE
 40
-1.0
  9
$PLINEWID
 40
0.0
  9
$SPLFRAME
 70
     0
  9
$SPLINETYPE
 70
     6
  9
$SPLINESEGS
 70
     8
  9
$HANDSEED
  5
2D0
  9
$SURFTAB1
 70
     6
  9
$SURFTAB2
 70
     6
  9
$SURFTYPE
 70
     6
  9
$SURFU
 70
     6
  9
$SURFV
 70
     6
  9
$UCSBASE
  2

  9
$UCSNAME
  2

  9
$UCSORG
 10
0.0
 20
0.0
 30
0.0
  9
$UCSXDIR
 10
1.0
 20
0.0
 30
0.0
  9
$UCSYDIR
 10
0.0
 20
1.0
 30
0.0
  9
$UCSORTHOREF
  2

  9
$UCSORTHOVIEW
 70
     0
  9
$UCSORGTOP
 10
0.0
 20
0.0
 30
0.0
  9
$UCSORGBOTTOM
 10
0.0
 20
0.0
 30
0.0
  9
$UCSORGLEFT
 10
0.0
 20
0.0
 30
0.0
  9
$UCSORGRIGHT
 10
0.0
 20
0.0
 30
0.0
  9
$UCSORGFRONT
 10
0.0
 20
0.0
 30
0.0
  9
$UCSORGBACK
 10
0.0
 20
0.0
 30
0.0
  9
$PUCSBASE
  2

  9
$PUCSNAME
  2

  9
$PUCSORG
 10
0.0
 20
0.0
 30
0.0
  9
$PUCSXDIR
 10
1.0
 20
0.0
 30
0.0
  9
$PUCSYDIR
 10
0.0
 20
1.0
 30
0.0
  9
$PUCSORTHOREF
  2

  9
$PUCSORTHOVIEW
 70
     0
  9
$PUCSORGTOP
 10
0.0
 20
0.0
 30
0.0
  9
$PUCSORGBOTTOM
 10
0.0
 20
0.0
 30
0.0
  9
$PUCSORGLEFT
 10
0.0
 20
0.0
 30
0.0
  9
$PUCSORGRIGHT
 10
0.0
 20
0.0
 30
0.0
  9
$PUCSORGFRONT
 10
0.0
 20
0.0
 30
0.0
  9
$PUCSORGBACK
 10
0.0
 20
0.0
 30
0.0
  9
$USERI1
 70
     0
  9
$USERI2
 70
     0
  9
$USERI3
 70
     0
  9
$USERI4
 70
     0
  9
$USERI5
 70
     0
  9
$USERR1
 40
0.0
  9
$USERR2
 40
0.0
  9
$USERR3
 40
0.0
  9
$USERR4
 40
0.0
  9
$USERR5
 40
0.0
  9
$WORLDVIEW
 70
     1
  9
$SHADEDGE
 70
     3
  9
$SHADEDIF
 70
    70
  9
$TILEMODE
 70
     1
  9
$MAXACTVP
 70
    64
  9
$PINSBASE
 10
0.0
 20
0.0
 30
0.0
  9
$PLIMCHECK
 70
     0
  9
$PEXTMIN
 10
1.0000000000E+20
 20
1.0000000000E+20
 30
1.0000000000E+20
  9
$PEXTMAX
 10
-1.0000000000E+20
 20
-1.0000000000E+20
 30
-1.0000000000E+20
  9
$PLIMMIN
 10
0.0
 20
0.0
  9
$PLIMMAX
 10
420.0
 20
297.0
  9
$UNITMODE
 70
     0
  9
$VISRETAIN
 70
     1
  9
$PLINEGEN
 70
     0
  9
$PSLTSCALE
 70
     1
  9
$TREEDEPTH
 70
  3020
  9
$CMLSTYLE
  2
Standard
  9
$CMLJUST
 70
     0
  9
$CMLSCALE
 40
20.0
  9
$PROXYGRAPHICS
 70
     1
  9
$MEASUREMENT
 70
     1
  9
$CELWEIGHT
370
    -1
  9
$ENDCAPS
280
     0
  9
$JOINSTYLE
280
     0
  9
$LWDISPLAY
290
     1
  9
$INSUNITS
 70
     4
  9
$HYPERLINKBASE
  1

  9
$STYLESHEET
  1

  9
$XEDIT
290
     1
  9
$CEPSNTYPE
380
     0
  9
$PSTYLEMODE
290
     1
  9
$FINGERPRINTGUID
  2
{7EBF43EB-6232-4256-AF19-4E0FCAA4F865}
  9
$VERSIONGUID
  2
{FAEB1C32-E019-11D5-929B-00C0DF256EC4}
  9
$EXTNAMES
290
     1
  9
$PSVPSCALE
 40
0.0
  9
$OLESTARTUP
290
     0
  0
ENDSEC
  0
SECTION
  2
CLASSES
  0
CLASS
  1
ACDBDICTIONARYWDFLT
  2
AcDbDictionaryWithDefault
  3
ObjectDBX Classes
 90
        0
280
     0
281
     0
  0
CLASS
  1
VISUALSTYLE
  2
AcDbVisualStyle
  3
ObjectDBX Classes
 90
     4095
280
     0
281
     0
  0
CLASS
  1
DICTIONARYVAR
  2
AcDbDictionaryVar
  3
ObjectDBX Classes
 90
        0
280
     0
281
     0
  0
CLASS
  1
ACDBPLACEHOLDER
  2
AcDbPlaceHolder
  3
ObjectDBX Classes
 90
        0
280
     0
281
     0
  0
CLASS
  1
LAYOUT
  2
AcDbLayout
  3
ObjectDBX Classes
 90
        0
280
     0
281
     0
  0
ENDSEC
  0
SECTION
  2
TABLES
  0
TABLE
  2
VPORT
  5
8
330
0
100
AcDbSymbolTable
 70
     1
  0
VPORT
  5
29
330
8
100
AcDbSymbolTableRecord
100
AcDbViewportTableRecord
  2
*Active
 70
     0
 10
0.0
 20
0.0
 11
1.0
 21
1.0
 12
148.5
 22
105.0
 13
0.0
 23
0.0
 14
10.0
 24
10.0
 15
10.0
 25
10.0
 16
0.0
 26
0.0
 36
1.0
 17
0.0
 27
0.0
 37
0.0
 40
210.0
 41
1.4142857143
 42
50.0
 43
0.0
 44
0.0
 50
0.0
 51
0.0
 71
     0
 72
  2000
 73
     1
 74
     3
 75
     0
 76
     0
 77
     0
 78
     0
281
     0
 65
     1
110
0.0
120
0.0
130
0.0
111
1.0
121
0.0
131
0.0
112
0.0
122
1.0
132
0.0
 79
     0
146
0.0
  0
ENDTAB
  0
TABLE
  2
LTYPE
  5
5
330
0
100
AcDbSymbolTable
 70
     6
  0
LTYPE
  5
14
330
5
100
AcDbSymbolTableRecord
100
AcDbLinetypeTableRecord
  2
ByBlock
 70
     0
  3

 72
    65
 73
     0
 40
0.0
  0
LTYPE
  5
15
330
5
100
AcDbSymbolTableRecord
100
AcDbLinetypeTableRecord
  2
ByLayer
 70
     0
  3

 72
    65
 73
     0
 40
0.0
  0
LTYPE
  5
16
330
5
100
AcDbSymbolTableRecord
100
AcDbLinetypeTableRecord
  2
Continuous
 70
     0
  3
Solid line
 72
    65
 73
     0
 40
0.0
  0
LTYPE
  5
3B
330
5
100
AcDbSymbolTableRecord
100
AcDbLinetypeTableRecord
  2
HIDDEN
 70
     0
  3
Hidden __ __ __ __ __ __ __ __ __ __ __ __ __ __
 72
    65
 73
     2
 40
1.905
 49
1.27
 74
     0
 49
-0.635
 74
     0
  0
LTYPE
  5
3C
330
5
100
AcDbSymbolTableRecord
100
AcDbLinetypeTableRecord
  2
PHANTOM
 70
     0
  3
Phantom ______  __  __  ______  __  __  ______
 72
    65
 73
     6
 40
12.7
 49
6.35
 74
     0
 49
-1.27
 74
     0
 49
1.27
 74
     0
 49
-1.27
 74
     0
 49
1.27
 74
     0
 49
-1.27
 74
     0
  0
LTYPE
  5
3D
330
5
100
AcDbSymbolTableRecord
100
AcDbLinetypeTableRecord
  2
CENTER
 70
     0
  3
Center ____ _ ____ _ ____ _ ____ _ ____ _ ____
 72
    65
 73
     4
 40
10.16
 49
6.35
 74
     0
 49
-1.27
 74
     0
 49
1.27
 74
     0
 49
-1.27
 74
     0
  0
LTYPE
  5
3E
330
5
100
AcDbSymbolTableRecord
100
AcDbLinetypeTableRecord
  2
CENTERX2
 70
     0
  3
Center (2x) ________  __  ________  __  _____
 72
    65
 73
     4
 40
20.32
 49
12.7
 74
     0
 49
-2.54
 74
     0
 49
2.54
 74
     0
 49
-2.54
 74
     0
  0
LTYPE
  5
3F
330
5
100
AcDbSymbolTableRecord
100
AcDbLinetypeTableRecord
  2
DOT2
 70
     0
  3
Dot (.5x) ........................................
 72
    65
 73
     2
 40
0.635
 49
0.0
 74
     0
 49
-0.635
 74
     0
  0
ENDTAB
  0
TABLE
  2
LAYER
  5
2
330
0
100
AcDbSymbolTable
 70
     5
  0
LAYER
  5
10
330
2
100
AcDbSymbolTableRecord
100
AcDbLayerTableRecord
  2
0
 70
     0
 62
     7
  6
Continuous
370
    -3
390
F
  0
LAYER
  5
40
330
2
100
AcDbSymbolTableRecord
100
AcDbLayerTableRecord
  2
FORMAT
 70
     0
 62
     7
  6
Continuous
370
    -3
390
F
  0
LAYER
  5
41
330
2
100
AcDbSymbolTableRecord
100
AcDbLayerTableRecord
  2
VERMASSUNG
 70
     0
 62
     7
  6
Continuous
370
    -3
390
F
  0
LAYER
  5
42
330
2
100
AcDbSymbolTableRecord
100
AcDbLayerTableRecord
  2
KOPF_DÜNN
 70
     0
 62
     7
  6
Continuous
370
    -3
390
F
  0
LAYER
  5
43
330
2
100
AcDbSymbolTableRecord
100
AcDbLayerTableRecord
  2
KOPF_DICK
 70
     0
 62
     7
  6
Continuous
370
    15
390
F
  0
ENDTAB
  0
TABLE
  2
STYLE
  5
3
330
0
100
AcDbSymbolTable
 70
     3
  0
STYLE
  5
11
330
3
100
AcDbSymbolTableRecord
100
AcDbTextStyleTableRecord
  2
Standard
 70
     0
 40
0.0
 41
1.0
 50
0.0
 71
     0
 42
2.5
  3
txt
  4

  0
STYLE
  5
44
330
3
100
AcDbSymbolTableRecord
100
AcDbTextStyleTableRecord
  2
SLDTEXTSTYLE0
 70
     0
 40
0.0
 41
0.7
 50
0.0
 71
     0
 42
0.2
  3
TXT
  4

  0
STYLE
  5
48
330
3
100
AcDbSymbolTableRecord
100
AcDbTextStyleTableRecord
  2
SLDTEXTSTYLE1
 70
     0
 40
0.0
 41
0.65
 50
0.0
 71
     0
 42
0.2
  3
TXT
  4

  0
ENDTAB
  0
TABLE
  2
VIEW
  5
6
330
0
100
AcDbSymbolTable
 70
     0
  0
ENDTAB
  0
TABLE
  2
UCS
  5
7
330
0
100
AcDbSymbolTable
 70
     0
  0
ENDTAB
  0
TABLE
  2
APPID
  5
9
330
0
100
AcDbSymbolTable
 70
     1
  0
APPID
  5
12
330
9
100
AcDbSymbolTableRecord
100
AcDbRegAppTableRecord
  2
ACAD
 70
     0
  0
ENDTAB
  0
TABLE
  2
DIMSTYLE
  5
A
330
0
100
AcDbSymbolTable
 70
     2
100
AcDbDimStyleTable
  0
DIMSTYLE
105
27
330
A
100
AcDbSymbolTableRecord
100
AcDbDimStyleTableRecord
  2
ISO-25
 70
     0
 41
2.5
 42
0.625
 43
3.75
 44
1.25
 73
     0
 74
     0
 77
     1
 78
     8
140
2.5
141
2.5
143
0.0393700787
147
0.625
171
     3
172
     1
271
     2
272
     2
274
     3
278
    44
283
     0
284
     8
340
11
  0
DIMSTYLE
105
27E
102
{ACAD_REACTORS
330
27D
330
28A
330
295
330
2A0
330
2AA
330
2B4
330
2BE
102
}
330
A
100
AcDbSymbolTableRecord
100
AcDbDimStyleTableRecord
  2
SLDDIMSTYLE0
 70
     0
 41
3.0
 44
0.0
 45
0.000000001
 73
     0
 74
     0
 77
     1
 78
    12
140
2.0
147
0.5
173
     1
271
     2
272
     3
284
    12
340
44
  0
ENDTAB
  0
TABLE
  2
BLOCK_RECORD
  5
1
330
0
100
AcDbSymbolTable
 70
     8
  0
BLOCK_RECORD
  5
1F
330
1
100
AcDbSymbolTableRecord
100
AcDbBlockTableRecord
  2
*Model_Space
340
22
  0
BLOCK_RECORD
  5
1B
330
1
100
AcDbSymbolTableRecord
100
AcDbBlockTableRecord
  2
*Paper_Space
340
1E
  0
BLOCK_RECORD
  5
23
330
1
100
AcDbSymbolTableRecord
100
AcDbBlockTableRecord
  2
*Paper_Space0
340
26
  0
BLOCK_RECORD
  5
27F
330
1
100
AcDbSymbolTableRecord
100
AcDbBlockTableRecord
  2
*D1
340
0
  0
BLOCK_RECORD
  5
28B
330
1
100
AcDbSymbolTableRecord
100
AcDbBlockTableRecord
  2
*D2
340
0
  0
BLOCK_RECORD
  5
296
330
1
100
AcDbSymbolTableRecord
100
AcDbBlockTableRecord
  2
*D3
340
0
  0
BLOCK_RECORD
  5
2A1
330
1
100
AcDbSymbolTableRecord
100
AcDbBlockTableRecord
  2
*D4
340
0
  0
BLOCK_RECORD
  5
2AB
330
1
100
AcDbSymbolTableRecord
100
AcDbBlockTableRecord
  2
*D5
340
0
  0
BLOCK_RECORD
  5
2B5
330
1
100
AcDbSymbolTableRecord
100
AcDbBlockTableRecord
  2
*D6
340
0
  0
BLOCK_RECORD
  5
2BF
330
1
100
AcDbSymbolTableRecord
100
AcDbBlockTableRecord
  2
*D7
340
0
  0
ENDTAB
  0
ENDSEC
  0
SECTION
  2
BLOCKS
  0
BLOCK
  5
20
330
1F
100
AcDbEntity
  8
0
100
AcDbBlockBegin
  2
*Model_Space
 70
     0
 10
0.0
 20
0.0
 30
0.0
  3
*Model_Space
  1

  0
ENDBLK
  5
21
330
1F
100
AcDbEntity
  8
0
100
AcDbBlockEnd
  0
BLOCK
  5
1C
330
1B
100
AcDbEntity
 67
     1
  8
0
100
AcDbBlockBegin
  2
*Paper_Space
 70
     0
 10
0.0
 20
0.0
 30
0.0
  3
*Paper_Space
  1

  0
ENDBLK
  5
1D
330
1B
100
AcDbEntity
 67
     1
  8
0
100
AcDbBlockEnd
  0
BLOCK
  5
24
330
23
100
AcDbEntity
  8
0
100
AcDbBlockBegin
  2
*Paper_Space0
 70
     0
 10
0.0
 20
0.0
 30
0.0
  3
*Paper_Space0
  1

  0
ENDBLK
  5
25
330
23
100
AcDbEntity
  8
0
100
AcDbBlockEnd
  0
BLOCK
  5
280
330
27F
100
AcDbEntity
  8
0
100
AcDbBlockBegin
  2
*D1
 70
     1
 10
0.0
 20
0.0
 30
0.0
  3
*D1
  1

  0
SOLID
  5
282
330
27F
100
AcDbEntity
  8
VERMASSUNG
100
AcDbTrace
 10
58.3619682127
 20
161.2205338809
 30
0.0
 11
57.9119682127
 21
158.2205338809
 31
0.0
 12
58.8119682127
 22
158.2205338809
 32
0.0
 13
58.8119682127
 23
158.2205338809
 33
0.0
  0
SOLID
  5
283
330
27F
100
AcDbEntity
  8
VERMASSUNG
100
AcDbTrace
 10
58.3619682127
 20
61.2205338809
 30
0.0
 11
58.8119682127
 21
64.2205338809
 31
0.0
 12
57.9119682127
 22
64.2205338809
 32
0.0
 13
57.9119682127
 23
64.2205338809
 33
0.0
  0
LINE
  5
284
330
27F
100
AcDbEntity
  8
VERMASSUNG
100
AcDbLine
 10
116.0121135306
 20
161.2205338809
 30
0.0
 11
57.3619682127
 21
161.2205338809
 31
0.0
  0
LINE
  5
285
330
27F
100
AcDbEntity
  8
VERMASSUNG
100
AcDbLine
 10
116.0121135306
 20
61.2205338809
 30
0.0
 11
57.3619682127
 21
61.2205338809
 31
0.0
  0
LINE
  5
286
330
27F
100
AcDbEntity
  8
VERMASSUNG
100
AcDbLine
 10
58.3619682127
 20
161.2205338809
 30
0.0
 11
58.3619682127
 21
61.2205338809
 31
0.0
  0
MTEXT
  5
287
330
27F
100
AcDbEntity
  8
VERMASSUNG
100
AcDbMText
 10
55.5838327236
 20
103.4140667646
 30
0.0
 40
2.0
 41
0.0
 71
     1
 72
     1
  1
HSK A 
  7
SLDTEXTSTYLE0
 11
-7.044195017643634E-15
 21
1.0
 31
0.0
 73
     1
 44
1.0
  0
MTEXT
  5
288
330
27F
100
AcDbEntity
  8
VERMASSUNG
100
AcDbMText
 10
55.7838327331
 20
112.4140673085
 30
0.0
 40
2.0
 41
0.0
 71
     1
 72
     1
  1
%%c
  7
SLDTEXTSTYLE0
 11
-7.044195017643634E-15
 21
1.0
 31
0.0
 73
     1
 44
1.0
  0
MTEXT
  5
289
330
27F
100
AcDbEntity
  8
VERMASSUNG
100
AcDbMText
 10
55.7838328496
 20
116.0223955537
 30
0.0
 40
2.0
 41
0.0
 71
     1
 72
     1
  1
100
  7
SLDTEXTSTYLE0
 11
-7.044195017643634E-15
 21
1.0
 31
0.0
 73
     1
 44
1.0
  0
ENDBLK
  5
281
330
27F
100
AcDbEntity
  8
0
100
AcDbBlockEnd
  0
BLOCK
  5
28C
330
28B
100
AcDbEntity
  8
0
100
AcDbBlockBegin
  2
*D2
 70
     1
 10
0.0
 20
0.0
 30
0.0
  3
*D2
  1

  0
SOLID
  5
28E
330
28B
100
AcDbEntity
  8
VERMASSUNG
100
AcDbTrace
 10
219.4372798554
 20
127.2205338809
 30
0.0
 11
218.9872798554
 21
124.2205338809
 31
0.0
 12
219.8872798554
 22
124.2205338809
 32
0.0
 13
219.8872798554
 23
124.2205338809
 33
0.0
  0
SOLID
  5
28F
330
28B
100
AcDbEntity
  8
VERMASSUNG
100
AcDbTrace
 10
219.4372798554
 20
95.2205338809
 30
0.0
 11
219.8872798554
 21
98.2205338809
 31
0.0
 12
218.9872798554
 22
98.2205338809
 32
0.0
 13
218.9872798554
 23
98.2205338809
 33
0.0
  0
LINE
  5
290
330
28B
100
AcDbEntity
  8
VERMASSUNG
100
AcDbLine
 10
203.9621135306
 20
127.2205338809
 30
0.0
 11
220.4372798554
 21
127.2205338809
 31
0.0
  0
LINE
  5
291
330
28B
100
AcDbEntity
  8
VERMASSUNG
100
AcDbLine
 10
203.9621135306
 20
95.2205338809
 30
0.0
 11
220.4372798554
 21
95.2205338809
 31
0.0
  0
LINE
  5
292
330
28B
100
AcDbEntity
  8
VERMASSUNG
100
AcDbLine
 10
219.4372798554
 20
127.2205338809
 30
0.0
 11
219.4372798554
 21
95.2205338809
 31
0.0
  0
MTEXT
  5
293
330
28B
100
AcDbEntity
  8
VERMASSUNG
100
AcDbMText
 10
216.8591443759
 20
108.0174353244
 30
0.0
 40
2.0
 41
0.0
 71
     1
 72
     1
  1
%%c
  7
SLDTEXTSTYLE0
 11
-7.044195017643634E-15
 21
1.0
 31
0.0
 73
     1
 44
1.0
  0
MTEXT
  5
294
330
28B
100
AcDbEntity
  8
VERMASSUNG
100
AcDbMText
 10
216.8591444923
 20
111.6250207293
 30
0.0
 40
2.0
 41
0.0
 71
     1
 72
     1
  1
32
  7
SLDTEXTSTYLE0
 11
-7.044195017643634E-15
 21
1.0
 31
0.0
 73
     1
 44
1.0
  0
ENDBLK
  5
28D
330
28B
100
AcDbEntity
  8
0
100
AcDbBlockEnd
  0
BLOCK
  5
297
330
296
100
AcDbEntity
  8
0
100
AcDbBlockBegin
  2
*D3
 70
     1
 10
0.0
 20
0.0
 30
0.0
  3
*D3
  1

  0
SOLID
  5
299
330
296
100
AcDbEntity
  8
VERMASSUNG
100
AcDbTrace
 10
213.4372798554
 20
120.7205338809
 30
0.0
 11
212.9872798554
 21
117.7205338809
 31
0.0
 12
213.8872798554
 22
117.7205338809
 32
0.0
 13
213.8872798554
 23
117.7205338809
 33
0.0
  0
SOLID
  5
29A
330
296
100
AcDbEntity
  8
VERMASSUNG
100
AcDbTrace
 10
213.4372798554
 20
101.7205338809
 30
0.0
 11
213.8872798554
 21
104.7205338809
 31
0.0
 12
212.9872798554
 22
104.7205338809
 32
0.0
 13
212.9872798554
 23
104.7205338809
 33
0.0
  0
LINE
  5
29B
330
296
100
AcDbEntity
  8
VERMASSUNG
100
AcDbLine
 10
204.8121135306
 20
120.7205338809
 30
0.0
 11
214.4372798554
 21
120.7205338809
 31
0.0
  0
LINE
  5
29C
330
296
100
AcDbEntity
  8
VERMASSUNG
100
AcDbLine
 10
204.8121135306
 20
101.7205338809
 30
0.0
 11
214.4372798554
 21
101.7205338809
 31
0.0
  0
LINE
  5
29D
330
296
100
AcDbEntity
  8
VERMASSUNG
100
AcDbLine
 10
213.4372798554
 20
120.7205338809
 30
0.0
 11
213.4372798554
 21
101.7205338809
 31
0.0
  0
MTEXT
  5
29E
330
296
100
AcDbEntity
  8
VERMASSUNG
100
AcDbMText
 10
210.8591443759
 20
108.2178567358
 30
0.0
 40
2.0
 41
0.0
 71
     1
 72
     1
  1
%%c
  7
SLDTEXTSTYLE0
 11
-7.044195017643634E-15
 21
1.0
 31
0.0
 73
     1
 44
1.0
  0
MTEXT
  5
29F
330
296
100
AcDbEntity
  8
VERMASSUNG
100
AcDbMText
 10
210.8591444923
 20
111.8254421407
 30
0.0
 40
2.0
 41
0.0
 71
     1
 72
     1
  1
19
  7
SLDTEXTSTYLE0
 11
-7.044195017643634E-15
 21
1.0
 31
0.0
 73
     1
 44
1.0
  0
ENDBLK
  5
298
330
296
100
AcDbEntity
  8
0
100
AcDbBlockEnd
  0
BLOCK
  5
2A2
330
2A1
100
AcDbEntity
  8
0
100
AcDbBlockBegin
  2
*D4
 70
     1
 10
0.0
 20
0.0
 30
0.0
  3
*D4
  1

  0
SOLID
  5
2A4
330
2A1
100
AcDbEntity
  8
VERMASSUNG
100
AcDbTrace
 10
65.6121135306
 20
179.6666091723
 30
0.0
 11
68.6121135306
 21
179.2166091723
 31
0.0
 12
68.6121135306
 22
180.1166091723
 32
0.0
 13
68.6121135306
 23
180.1166091723
 33
0.0
  0
SOLID
  5
2A5
330
2A1
100
AcDbEntity
  8
VERMASSUNG
100
AcDbTrace
 10
205.5121135306
 20
179.6666091723
 30
0.0
 11
202.5121135306
 21
180.1166091723
 31
0.0
 12
202.5121135306
 22
179.2166091723
 32
0.0
 13
202.5121135306
 23
179.2166091723
 33
0.0
  0
LINE
  5
2A6
330
2A1
100
AcDbEntity
  8
VERMASSUNG
100
AcDbLine
 10
65.6121135306
 20
141.7232036235
 30
0.0
 11
65.6121135306
 21
180.6666091723
 31
0.0
  0
LINE
  5
2A7
330
2A1
100
AcDbEntity
  8
VERMASSUNG
100
AcDbLine
 10
205.5121135306
 20
123.0205338809
 30
0.0
 11
205.5121135306
 21
180.6666091723
 31
0.0
  0
LINE
  5
2A8
330
2A1
100
AcDbEntity
  8
VERMASSUNG
100
AcDbLine
 10
65.6121135306
 20
179.6666091723
 30
0.0
 11
205.5121135306
 21
179.6666091723
 31
0.0
  0
MTEXT
  5
2A9
330
2A1
100
AcDbEntity
  8
VERMASSUNG
100
AcDbMText
 10
128.2162622317
 20
182.2447445354
 30
0.0
 40
2.0
 41
0.0
 71
     1
 72
     1
  1
139.9
  7
SLDTEXTSTYLE0
 73
     1
 44
1.0
  0
ENDBLK
  5
2A3
330
2A1
100
AcDbEntity
  8
0
100
AcDbBlockEnd
  0
BLOCK
  5
2AC
330
2AB
100
AcDbEntity
  8
0
100
AcDbBlockBegin
  2
*D5
 70
     1
 10
0.0
 20
0.0
 30
0.0
  3
*D5
  1

  0
SOLID
  5
2AE
330
2AB
100
AcDbEntity
  8
VERMASSUNG
100
AcDbTrace
 10
115.5121135306
 20
173.6666091723
 30
0.0
 11
118.5121135306
 21
173.2166091723
 31
0.0
 12
118.5121135306
 22
174.1166091723
 32
0.0
 13
118.5121135306
 23
174.1166091723
 33
0.0
  0
SOLID
  5
2AF
330
2AB
100
AcDbEntity
  8
VERMASSUNG
100
AcDbTrace
 10
205.5121135306
 20
173.6666091723
 30
0.0
 11
202.5121135306
 21
174.1166091723
 31
0.0
 12
202.5121135306
 22
173.2166091723
 32
0.0
 13
202.5121135306
 23
173.2166091723
 33
0.0
  0
LINE
  5
2B0
330
2AB
100
AcDbEntity
  8
VERMASSUNG
100
AcDbLine
 10
115.5121135306
 20
160.7205338809
 30
0.0
 11
115.5121135306
 21
174.6666091723
 31
0.0
  0
LINE
  5
2B1
330
2AB
100
AcDbEntity
  8
VERMASSUNG
100
AcDbLine
 10
205.5121135306
 20
123.0205338809
 30
0.0
 11
205.5121135306
 21
174.6666091723
 31
0.0
  0
LINE
  5
2B2
330
2AB
100
AcDbEntity
  8
VERMASSUNG
100
AcDbLine
 10
115.5121135306
 20
173.6666091723
 30
0.0
 11
205.5121135306
 21
173.6666091723
 31
0.0
  0
MTEXT
  5
2B3
330
2AB
100
AcDbEntity
  8
VERMASSUNG
100
AcDbMText
 10
151.2855246021
 20
176.2447445354
 30
0.0
 40
2.0
 41
0.0
 71
     1
 72
     1
  1
90
  7
SLDTEXTSTYLE0
 73
     1
 44
1.0
  0
ENDBLK
  5
2AD
330
2AB
100
AcDbEntity
  8
0
100
AcDbBlockEnd
  0
BLOCK
  5
2B6
330
2B5
100
AcDbEntity
  8
0
100
AcDbBlockBegin
  2
*D6
 70
     1
 10
0.0
 20
0.0
 30
0.0
  3
*D6
  1

  0
SOLID
  5
2B8
330
2B5
100
AcDbEntity
  8
VERMASSUNG
100
AcDbTrace
 10
144.4621135306
 20
167.6666091723
 30
0.0
 11
147.4621135306
 21
167.2166091723
 31
0.0
 12
147.4621135306
 22
168.1166091723
 32
0.0
 13
147.4621135306
 23
168.1166091723
 33
0.0
  0
SOLID
  5
2B9
330
2B5
100
AcDbEntity
  8
VERMASSUNG
100
AcDbTrace
 10
205.5121135306
 20
167.6666091723
 30
0.0
 11
202.5121135306
 21
168.1166091723
 31
0.0
 12
202.5121135306
 22
167.2166091723
 32
0.0
 13
202.5121135306
 23
167.2166091723
 33
0.0
  0
LINE
  5
2BA
330
2B5
100
AcDbEntity
  8
VERMASSUNG
100
AcDbLine
 10
144.4621135306
 20
159.1892737017
 30
0.0
 11
144.4621135306
 21
168.6666091723
 31
0.0
  0
LINE
  5
2BB
330
2B5
100
AcDbEntity
  8
VERMASSUNG
100
AcDbLine
 10
205.5121135306
 20
123.0205338809
 30
0.0
 11
205.5121135306
 21
168.6666091723
 31
0.0
  0
LINE
  5
2BC
330
2B5
100
AcDbEntity
  8
VERMASSUNG
100
AcDbLine
 10
144.4621135306
 20
167.6666091723
 30
0.0
 11
205.5121135306
 21
167.6666091723
 31
0.0
  0
MTEXT
  5
2BD
330
2B5
100
AcDbEntity
  8
VERMASSUNG
100
AcDbMText
 10
170.820541389
 20
170.2447445354
 30
0.0
 40
2.0
 41
0.0
 71
     1
 72
     1
  1
61.05
  7
SLDTEXTSTYLE0
 73
     1
 44
1.0
  0
ENDBLK
  5
2B7
330
2B5
100
AcDbEntity
  8
0
100
AcDbBlockEnd
  0
BLOCK
  5
2C0
330
2BF
100
AcDbEntity
  8
0
100
AcDbBlockBegin
  2
*D7
 70
     1
 10
0.0
 20
0.0
 30
0.0
  3
*D7
  1

  0
SOLID
  5
2C2
330
2BF
100
AcDbEntity
  8
VERMASSUNG
100
AcDbTrace
 10
225.4372798554
 20
128.2205338809
 30
0.0
 11
224.9872798554
 21
125.2205338809
 31
0.0
 12
225.8872798554
 22
125.2205338809
 32
0.0
 13
225.8872798554
 23
125.2205338809
 33
0.0
  0
SOLID
  5
2C3
330
2BF
100
AcDbEntity
  8
VERMASSUNG
100
AcDbTrace
 10
225.4372798554
 20
94.2205338809
 30
0.0
 11
225.8872798554
 21
97.2205338809
 31
0.0
 12
224.9872798554
 22
97.2205338809
 32
0.0
 13
224.9872798554
 23
97.2205338809
 33
0.0
  0
LINE
  5
2C4
330
2BF
100
AcDbEntity
  8
VERMASSUNG
100
AcDbLine
 10
168.5121135306
 20
128.2205338809
 30
0.0
 11
226.4372798554
 21
128.2205338809
 31
0.0
  0
LINE
  5
2C5
330
2BF
100
AcDbEntity
  8
VERMASSUNG
100
AcDbLine
 10
168.5121135306
 20
94.2205338809
 30
0.0
 11
226.4372798554
 21
94.2205338809
 31
0.0
  0
LINE
  5
2C6
330
2BF
100
AcDbEntity
  8
VERMASSUNG
100
AcDbLine
 10
225.4372798554
 20
128.2205338809
 30
0.0
 11
225.4372798554
 21
94.2205338809
 31
0.0
  0
MTEXT
  5
2C7
330
2BF
100
AcDbEntity
  8
VERMASSUNG
100
AcDbMText
 10
222.8591443759
 20
107.9178319563
 30
0.0
 40
2.0
 41
0.0
 71
     1
 72
     1
  1
%%c
  7
SLDTEXTSTYLE0
 11
-7.044195017643634E-15
 21
1.0
 31
0.0
 73
     1
 44
1.0
  0
MTEXT
  5
2C8
330
2BF
100
AcDbEntity
  8
VERMASSUNG
100
AcDbMText
 10
222.8591444923
 20
111.5254173613
 30
0.0
 40
2.0
 41
0.0
 71
     1
 72
     1
  1
34
  7
SLDTEXTSTYLE0
 11
-7.044195017643634E-15
 21
1.0
 31
0.0
 73
     1
 44
1.0
  0
ENDBLK
  5
2C1
330
2BF
100
AcDbEntity
  8
0
100
AcDbBlockEnd
  0
ENDSEC
  0
SECTION
  2
ENTITIES
  0
MTEXT
  5
45
330
1F
100
AcDbEntity
  8
KOPF_DÜNN
100
AcDbMText
 10
13.8892156294
 20
23.8442973028
 30
0.0
 40
3.0
 41
0.0
 71
     1
 72
     1
  1
HA0.Go1.K01.090
  7
SLDTEXTSTYLE0
 73
     1
 44
1.0
  0
MTEXT
  5
46
330
1F
100
AcDbEntity
  8
VERMASSUNG
100
AcDbMText
 10
13.9329988022
 20
28.8834360957
 30
0.0
 40
3.0
 41
0.0
 71
     1
 72
     1
  1
Gewindeschneidfutter_Tapping chuck
  7
SLDTEXTSTYLE0
 73
     1
 44
1.0
  0
MTEXT
  5
47
330
1F
100
AcDbEntity
  8
VERMASSUNG
100
AcDbMText
 10
98.8601118557
 20
13.8365368179
 30
0.0
 40
2.0
 41
0.0
 71
     1
 72
     1
  1
Datum: 12.10.2006
  7
SLDTEXTSTYLE0
 73
     1
 44
1.0
  0
MTEXT
  5
49
330
1F
100
AcDbEntity
  8
VERMASSUNG
100
AcDbMText
 10
13.933048693
 20
18.0482802738
 30
0.0
 40
2.0
 41
0.0
 71
     1
 72
     1
  1
DIN 69 893 HSK A 100
  7
SLDTEXTSTYLE1
 73
     1
 44
1.0
  0
MTEXT
  5
4A
330
1F
100
AcDbEntity
  8
VERMASSUNG
100
AcDbMText
 10
13.9808475933
 20
13.9090973692
 30
0.0
 40
2.0
 41
0.0
 71
     1
 72
     1
  1
Gewicht: 2305g
  7
SLDTEXTSTYLE0
 73
     1
 44
1.0
  0
ARC
  5
4B
330
1F
100
AcDbEntity
  8
0
  6
Continuous
 62
     7
370
    15
100
AcDbCircle
 10
196.3085236921
 20
127.4205338809
 30
0.0
 40
0.4000000000000057
100
AcDbArc
 50
210.0
 51
270.0
  0
ARC
  5
4C
330
1F
100
AcDbEntity
  8
0
  6
Continuous
 62
     7
370
    15
100
AcDbCircle
 10
196.3085236921
 20
95.0205338809
 30
0.0
 40
0.4000000000000057
100
AcDbArc
 50
90.0
 51
150.0
  0
LINE
  5
4D
330
1F
100
AcDbEntity
  8
0
  6
Continuous
 62
     7
370
    15
100
AcDbLine
 10
195.9621135306
 20
127.2205338809
 30
0.0
 11
184.4621135306
 21
127.2205338809
 31
0.0
  0
LINE
  5
4E
330
1F
100
AcDbEntity
  8
0
  6
Continuous
 62
     7
370
    15
100
AcDbLine
 10
184.4621135306
 20
95.2205338809
 30
0.0
 11
195.9621135306
 21
95.2205338809
 31
0.0
  0
ARC
  5
4F
330
1F
100
AcDbEntity
  8
0
  6
Continuous
 62
     7
370
    15
100
AcDbCircle
 10
203.9621135306
 20
126.2205338809
 30
0.0
 40
1.0
100
AcDbArc
 50
360.0
 51
90.0
  0
ARC
  5
50
330
1F
100
AcDbEntity
  8
0
  6
Continuous
 62
     7
370
    15
100
AcDbCircle
 10
203.9621135306
 20
96.2205338809
 30
0.0
 40
1.0
100
AcDbArc
 50
270.0
 51
0.0
  0
LINE
  5
51
330
1F
100
AcDbEntity
  8
0
  6
Continuous
 62
     7
370
    15
100
AcDbLine
 10
179.9621135306
 20
127.2205338809
 30
0.0
 11
176.4621135306
 21
127.2205338809
 31
0.0
  0
LINE
  5
52
330
1F
100
AcDbEntity
  8
0
  6
Continuous
 62
     7
370
    15
100
AcDbLine
 10
176.4621135306
 20
95.2205338809
 30
0.0
 11
179.9621135306
 21
95.2205338809
 31
0.0
  0
ARC
  5
53
330
1F
100
AcDbEntity
  8
0
  6
Continuous
 62
     7
370
    15
100
AcDbCircle
 10
180.3085236921
 20
127.4205338809
 30
0.0
 40
0.4000000000000057
100
AcDbArc
 50
210.0
 51
270.0
  0
ARC
  5
54
330
1F
100
AcDbEntity
  8
0
  6
Continuous
 62
     7
370
    15
100
AcDbCircle
 10
180.3085236921
 20
95.0205338809
 30
0.0
 40
0.3999999999999915
100
AcDbArc
 50
90.0
 51
150.0
  0
ARC
  5
55
330
1F
100
AcDbEntity
  8
0
  6
Continuous
 62
     7
370
    15
100
AcDbCircle
 10
176.4621135306
 20
126.2205338809
 30
0.0
 40
1.0
100
AcDbArc
 50
90.0
 51
180.0
  0
ARC
  5
56
330
1F
100
AcDbEntity
  8
0
  6
Continuous
 62
     7
370
    15
100
AcDbCircle
 10
176.4621135306
 20
96.2205338809
 30
0.0
 40
1.0
100
AcDbArc
 50
180.0
 51
270.0
  0
LINE
  5
57
330
1F
100
AcDbEntity
  8
0
  6
Continuous
 62
     7
370
    15
100
AcDbLine
 10
203.9621135306
 20
127.2205338809
 30
0.0
 11
200.4621135306
 21
127.2205338809
 31
0.0
  0
LINE
  5
58
330
1F
100
AcDbEntity
  8
0
  6
Continuous
 62
     7
370
    15
100
AcDbLine
 10
200.4621135306
 20
95.2205338809
 30
0.0
 11
203.9621135306
 21
95.2205338809
 31
0.0
  0
ARC
  5
59
330
1F
100
AcDbEntity
  8
0
  6
Continuous
 62
     7
370
    15
100
AcDbCircle
 10
200.1157033691
 20
127.4205338809
 30
0.0
 40
0.4000000000000057
100
AcDbArc
 50
270.0
 51
330.0
  0
ARC
  5
5A
330
1F
100
AcDbEntity
  8
0
  6
Continuous
 62
     7
370
    15
100
AcDbCircle
 10
200.1157033691
 20
95.0205338809
 30
0.0
 40
0.3999999999999998
100
AcDbArc
 50
30.0
 51
90.0
  0
ARC
  5
5B
330
1F
100
AcDbEntity
  8
0
  6
Continuous
 62
     7
370
    15
100
AcDbCircle
 10
184.1157033691
 20
127.4205338809
 30
0.0
 40
0.4000000000000057
100
AcDbArc
 50
270.0
 51
330.0
  0
ARC
  5
5C
330
1F
100
AcDbEntity
  8
0
  6
Continuous
 62
     7
370
    15
100
AcDbCircle
 10
184.1157033691
 20
95.0205338809
 30
0.0
 40
0.400000000000014
100
AcDbArc
 50
30.0
 51
90.0
  0
LINE
  5
5D
330
1F
100
AcDbEntity
  8
0
  6
Continuous
 62
     7
370
    15
100
AcDbLine
 10
184.1157033691
 20
127.0205338809
 30
0.0
 11
180.3085236921
 21
127.0205338809
 31
0.0
  0
LINE
  5
5E
330
1F
100
AcDbEntity
  8
0
  6
Continuous
 62
     7
370
    15
100
AcDbLine
 10
180.3085236921
 20
95.4205338809
 30
0.0
 11
184.1157033691
 21
95.4205338809
 31
0.0
  0
LINE
  5
5F
330
1F
100
AcDbEntity
  8
0
  6
Continuous
 62
     7
370
    15
100
AcDbLine
 10
200.1157033691
 20
127.0205338809
 30
0.0
 11
196.3085236921
 21
127.0205338809
 31
0.0
  0
LINE
  5
60
330
1F
100
AcDbEntity
  8
0
  6
Continuous
 62
     7
370
    15
100
AcDbLine
 10
196.3085236921
 20
95.4205338809
 30
0.0
 11
200.1157033691
 21
95.4205338809
 31
0.0
  0
ARC
  5
61
330
1F
100
AcDbEntity
  8
0
  6
Continuous
 62
     7
370
    15
100
AcDbCircle
 10
116.0121135306
 20
61.7205338809
 30
0.0
 40
0.5
100
AcDbArc
 50
180.0
 51
270.0
  0
ARC
  5
62
330
1F
100
AcDbEntity
  8
0
  6
Continuous
 62
     7
370
    15
100
AcDbCircle
 10
116.0121135306
 20
160.7205338809
 30
0.0
 40
0.5
100
AcDbArc
 50
90.0
 51
180.0
  0
LINE
  5
63
330
1F
100
AcDbEntity
  8
0
  6
Continuous
 62
     7
370
    15
100
AcDbLine
 10
116.0121135306
 20
61.2205338809
 30
0.0
 11
120.4621135306
 21
61.2205338809
 31
0.0
  0
LINE
  5
64
330
1F
100
AcDbEntity
  8
0
  6
Continuous
 62
     7
370
    15
100
AcDbLine
 10
120.496186363
 20
161.2205338809
 30
0.0
 11
116.0121135306
 21
161.2205338809
 31
0.0
  0
ARC
  5
65
330
1F
100
AcDbEntity
  8
0
  6
Continuous
 62
     7
370
    15
100
AcDbCircle
 10
114.6151766121
 20
72.5920485565
 30
0.0
 40
0.9962338214386932
100
AcDbArc
 50
25.7988228126
 51
90.0
  0
ARC
  5
66
330
1F
100
AcDbEntity
  8
0
  6
Continuous
 62
     7
370
    15
100
AcDbCircle
 10
114.6151766121
 20
149.8490192053
 30
0.0
 40
0.9962338214387216
100
AcDbArc
 50
270.0
 51
334.2011771874
  0
LINE
  5
67
330
1F
100
AcDbEntity
  8
0
  6
Continuous
 62
     7
370
    15
100
AcDbLine
 10
94.0314181093
 20
148.1518487396
 30
0.0
 11
75.7121135306
 21
147.234047909
 31
0.0
  0
LINE
  5
68
330
1F
100
AcDbEntity
  8
0
  6
Continuous
 62
     7
370
    15
100
AcDbLine
 10
113.0121135306
 20
149.1027853839
 30
0.0
 11
106.9440743761
 21
148.7987754062
 31
0.0
  0
LINE
  5
69
330
1F
100
AcDbEntity
  8
0
  6
Continuous
 62
     7
370
    15
100
AcDbLine
 10
106.9441976526
 20
73.6422861794
 30
0.0
 11
113.0121135306
 21
73.3382823779
 31
0.0
  0
LINE
  5
6A
330
1F
100
AcDbEntity
  8
0
  6
Continuous
 62
     7
370
    15
100
AcDbLine
 10
80.7121135306
 20
74.9565188508
 30
0.0
 11
94.0320646845
 21
74.2891866287
 31
0.0
  0
LINE
  5
6B
330
1F
100
AcDbEntity
  8
0
  6
Continuous
 62
     7
370
    15
100
AcDbLine
 10
113.0121135306
 20
73.3382823779
 30
0.0
 11
113.817959685
 21
73.5542082042
 31
0.0
  0
LINE
  5
6C
330
1F
100
AcDbEntity
  8
0
  6
Continuous
 62
     7
370
    15
100
AcDbLine
 10
113.817959685
 20
148.8868595576
 30
0.0
 11
113.0121135306
 21
149.1027853839
 31
0.0
  0
ARC
  5
6D
330
1F
100
AcDbEntity
  8
0
  6
Continuous
 62
     7
370
    15
100
AcDbCircle
 10
114.0767787301
 20
72.5882823779
 30
0.0
 40
1.0
100
AcDbArc
 50
90.0
 51
105.0
  0
ARC
  5
6E
330
1F
100
AcDbEntity
  8
0
  6
Continuous
 62
     7
370
    15
100
AcDbCircle
 10
114.0767787301
 20
149.8527853839
 30
0.0
 40
1.0
100
AcDbArc
 50
255.0
 51
270.0
  0
LINE
  5
6F
330
1F
100
AcDbEntity
  8
0
  6
Continuous
 62
     7
370
    15
100
AcDbLine
 10
114.0767787301
 20
73.5882823779
 30
0.0
 11
114.6151766121
 21
73.5882823779
 31
0.0
  0
LINE
  5
70
330
1F
100
AcDbEntity
  8
0
  6
Continuous
 62
     7
370
    15
100
AcDbLine
 10
114.6151766121
 20
148.8527853839
 30
0.0
 11
114.0767787301
 21
148.8527853839
 31
0.0
  0
ARC
  5
71
330
1F
100
AcDbEntity
  8
0
  6
Continuous
 62
     7
370
    15
100
AcDbCircle
 10
149.4621135306
 20
89.2205338809
 30
0.0
 40
5.000000000000028
100
AcDbArc
 50
90.0
 51
180.0
  0
ARC
  5
72
330
1F
100
AcDbEntity
  8
0
  6
Continuous
 62
     7
370
    15
100
AcDbCircle
 10
149.4621135306
 20
133.2205338809
 30
0.0
 40
5.000000000000028
100
AcDbArc
 50
180.0
 51
270.0
  0
LINE
  5
73
330
1F
100
AcDbEntity
  8
0
  6
Continuous
 62
     7
370
    15
100
AcDbLine
 10
67.2621135306
 20
78.9705338809
 30
0.0
 11
78.8121135306
 21
78.9705338809
 31
0.0
  0
LINE
  5
74
330
1F
100
AcDbEntity
  8
0
  6
Continuous
 62
     7
370
    15
100
AcDbLine
 10
149.4621135306
 20
94.2205338809
 30
0.0
 11
168.5121135306
 21
94.2205338809
 31
0.0
  0
LINE
  5
75
330
1F
100
AcDbEntity
  8
0
  6
Continuous
 62
     7
370
    15
100
AcDbLine
 10
168.5121135306
 20
128.2205338809
 30
0.0
 11
149.4621135306
 21
128.2205338809
 31
0.0
  0
ARC
  5
76
330
1F
100
AcDbEntity
  8
0
  6
Continuous
 62
     7
370
    15
100
AcDbCircle
 10
168.5121135306
 20
127.2205338809
 30
0.0
 40
1.0
100
AcDbArc
 50
0.0
 51
90.0
  0
ARC
  5
77
330
1F
100
AcDbEntity
  8
0
  6
Continuous
 62
     7
370
    15
100
AcDbCircle
 10
168.5121135306
 20
95.2205338809
 30
0.0
 40
1.0
100
AcDbArc
 50
270.0
 51
0.0
  0
ARC
  5
78
330
1F
100
AcDbEntity
  8
0
  6
Continuous
 62
     7
370
    15
100
AcDbCircle
 10
78.8121135306
 20
77.0705338809
 30
0.0
 40
1.900000000000006
100
AcDbArc
 50
35.6630613694
 51
90.0
  0
ARC
  5
79
330
1F
100
AcDbEntity
  8
0
  6
Continuous
 62
     7
370
    15
100
AcDbCircle
 10
73.8121135306
 20
145.3705338809
 30
0.0
 40
1.899999999999996
100
AcDbArc
 50
270.0
 51
310.9212832533
  0
LINE
  5
7A
330
1F
100
AcDbEntity
  8
0
  6
Continuous
 62
     7
370
    15
100
AcDbLine
 10
67.2621135306
 20
143.4705338809
 30
0.0
 11
65.6688971686
 21
141.8773175189
 31
0.0
  0
LINE
  5
7B
330
1F
100
AcDbEntity
  8
0
  6
Continuous
 62
     7
370
    15
100
AcDbLine
 10
65.669636431
 20
80.5630109805
 30
0.0
 11
67.2621135306
 21
78.9705338809
 31
0.0
  0
LINE
  5
7C
330
1F
100
AcDbEntity
  8
0
  6
Continuous
 62
     7
370
    15
100
AcDbLine
 10
73.8121135306
 20
143.4705338809
 30
0.0
 11
67.2621135306
 21
143.4705338809
 31
0.0
  0
ARC
  5
7D
330
1F
100
AcDbEntity
  8
0
  6
Continuous
 62
     7
370
    15
100
AcDbCircle
 10
170.1121135306
 20
125.7455338809
 30
0.0
 40
0.6000000000000227
100
AcDbArc
 50
180.0
 51
270.0
  0
ARC
  5
7E
330
1F
100
AcDbEntity
  8
0
  6
Continuous
 62
     7
370
    15
100
AcDbCircle
 10
170.1121135306
 20
96.6955338809
 30
0.0
 40
0.6000000000000085
100
AcDbArc
 50
90.0
 51
180.0
  0
LINE
  5
7F
330
1F
100
AcDbEntity
  8
0
  6
Continuous
 62
     7
370
    15
100
AcDbLine
 10
175.4621135306
 20
125.1455338809
 30
0.0
 11
170.1121135306
 21
125.1455338809
 31
0.0
  0
LINE
  5
80
330
1F
100
AcDbEntity
  8
0
  6
Continuous
 62
     7
370
    15
100
AcDbLine
 10
170.1121135306
 20
97.2955338809
 30
0.0
 11
175.4621135306
 21
97.2955338809
 31
0.0
  0
LINE
  5
81
330
1F
100
AcDbEntity
  8
0
  6
Continuous
 62
     7
370
    15
100
AcDbLine
 10
205.5121135306
 20
123.0205338809
 30
0.0
 11
204.9621135306
 21
123.5705338809
 31
0.0
  0
LINE
  5
82
330
1F
100
AcDbEntity
  8
0
  6
Continuous
 62
     7
370
    15
100
AcDbLine
 10
204.9621135306
 20
98.8705338809
 30
0.0
 11
205.5121135306
 21
99.4205338809
 31
0.0
  0
LINE
  5
83
330
1F
100
AcDbEntity
  8
0
  6
Continuous
 62
     7
370
    15
100
AcDbLine
 10
195.9621135306
 20
101.0346714686
 30
0.0
 11
195.9621135306
 21
95.2205338809
 31
0.0
  0
LINE
  5
84
330
1F
100
AcDbEntity
  8
0
  6
Continuous
 62
     7
370
    15
100
AcDbLine
 10
195.9621135306
 20
127.2205338809
 30
0.0
 11
195.9621135306
 21
101.0346714686
 31
0.0
  0
LINE
  5
85
330
1F
100
AcDbEntity
  8
0
  6
Continuous
 62
     7
370
    15
100
AcDbLine
 10
184.4621135306
 20
101.0346714686
 30
0.0
 11
184.4621135306
 21
95.2205338809
 31
0.0
  0
LINE
  5
86
330
1F
100
AcDbEntity
  8
0
  6
Continuous
 62
     7
370
    15
100
AcDbLine
 10
184.4621135306
 20
127.2205338809
 30
0.0
 11
184.4621135306
 21
101.0346714686
 31
0.0
  0
LINE
  5
87
330
1F
100
AcDbEntity
  8
0
  6
Continuous
 62
     7
370
    15
100
AcDbLine
 10
204.9621135306
 20
101.6712878694
 30
0.0
 11
204.9621135306
 21
96.2205338809
 31
0.0
  0
LINE
  5
88
330
1F
100
AcDbEntity
  8
0
  6
Continuous
 62
     7
370
    15
100
AcDbLine
 10
204.9621135306
 20
126.2205338809
 30
0.0
 11
204.9621135306
 21
101.6712878694
 31
0.0
  0
LINE
  5
89
330
1F
100
AcDbEntity
  8
0
  6
Continuous
 62
     7
370
    15
100
AcDbLine
 10
179.9621135306
 20
101.0346714686
 30
0.0
 11
179.9621135306
 21
95.2205338809
 31
0.0
  0
LINE
  5
8A
330
1F
100
AcDbEntity
  8
0
  6
Continuous
 62
     7
370
    15
100
AcDbLine
 10
179.9621135306
 20
127.2205338809
 30
0.0
 11
179.9621135306
 21
101.0346714686
 31
0.0
  0
LINE
  5
8B
330
1F
100
AcDbEntity
  8
0
  6
Continuous
 62
     7
370
    15
100
AcDbLine
 10
175.4621135306
 20
101.6712878694
 30
0.0
 11
175.4621135306
 21
96.2205338809
 31
0.0
  0
LINE
  5
8C
330
1F
100
AcDbEntity
  8
0
  6
Continuous
 62
     7
370
    15
100
AcDbLine
 10
175.4621135306
 20
126.2205338809
 30
0.0
 11
175.4621135306
 21
101.6712878694
 31
0.0
  0
LINE
  5
8D
330
1F
100
AcDbEntity
  8
0
  6
Continuous
 62
     7
370
    15
100
AcDbLine
 10
200.4621135306
 20
101.0346714686
 30
0.0
 11
200.4621135306
 21
95.2205338809
 31
0.0
  0
LINE
  5
8E
330
1F
100
AcDbEntity
  8
0
  6
Continuous
 62
     7
370
    15
100
AcDbLine
 10
200.4621135306
 20
127.2205338809
 30
0.0
 11
200.4621135306
 21
101.0346714686
 31
0.0
  0
LINE
  5
8F
330
1F
100
AcDbEntity
  8
0
  6
Continuous
 62
     7
370
    15
100
AcDbLine
 10
143.4621135306
 20
62.4455402879
 30
0.0
 11
138.7741425515
 21
62.4455402879
 31
0.0
  0
LINE
  5
90
330
1F
100
AcDbEntity
  8
0
  6
Continuous
 62
     7
370
    15
100
AcDbLine
 10
138.7741425515
 20
62.4455402879
 30
0.0
 11
138.7741425515
 21
142.5705338809
 31
0.0
  0
LINE
  5
91
330
1F
100
AcDbEntity
  8
0
  6
Continuous
 62
     7
370
    15
100
AcDbLine
 10
138.7741425515
 20
142.5705338809
 30
0.0
 11
143.4621135306
 21
142.5705338809
 31
0.0
  0
SPLINE
  5
92
330
1F
100
AcDbEntity
  8
0
  6
Continuous
 62
     7
370
    15
100
AcDbSpline
210
0.0
220
0.0
230
1.0
 70
     8
 71
     3
 72
     8
 73
     4
 74
     0
 42
0.00000001
 43
0.00000001
 40
0.0
 40
0.0
 40
0.0
 40
0.0
 40
1.0
 40
1.0
 40
1.0
 40
1.0
 10
138.7741425515099
 20
62.4455402878747
 30
0.0
 10
138.3230378221097
 20
63.24650021969461
 30
0.0
 10
137.8723399948663
 20
64.04769023125529
 30
0.0
 10
137.4221135305885
 20
64.84914559388004
 30
0.0
  0
LINE
  5
93
330
1F
100
AcDbEntity
  8
0
  6
Continuous
 62
     7
370
    15
100
AcDbLine
 10
137.4221135306
 20
64.8491455939
 30
0.0
 11
137.4221135306
 21
142.5705338809
 31
0.0
  0
SPLINE
  5
94
330
1F
100
AcDbEntity
  8
0
  6
Continuous
 62
     7
370
    15
100
AcDbSpline
210
0.0
220
0.0
230
1.0
 70
    24
 71
     3
 72
     8
 73
     4
 74
     0
 42
0.00000001
 43
0.00000001
 40
0.0
 40
0.0
 40
0.0
 40
0.0
 40
1.0
 40
1.0
 40
1.0
 40
1.0
 10
137.4221135305885
 20
142.5705338809035
 30
0.0
 10
137.8663264129424
 20
142.5705338809035
 30
0.0
 10
138.3173409791816
 20
142.5705338809035
 30
0.0
 10
138.7741425515099
 20
142.5705338809035
 30
0.0
  0
LINE
  5
95
330
1F
100
AcDbEntity
  8
0
  6
Continuous
 62
     7
370
    15
100
AcDbLine
 10
115.5121135306
 20
61.7205338809
 30
0.0
 11
115.5121135306
 21
160.7205338744
 31
0.0
  0
LINE
  5
96
330
1F
100
AcDbEntity
  8
0
  6
Continuous
 62
     7
370
    15
100
AcDbLine
 10
133.6021135306
 20
64.8491455939
 30
0.0
 11
133.6021135306
 21
142.5705338809
 31
0.0
  0
SPLINE
  5
97
330
1F
100
AcDbEntity
  8
0
  6
Continuous
 62
     7
370
    15
100
AcDbSpline
210
0.0
220
0.0
230
1.0
 70
     8
 71
     3
 72
     8
 73
     4
 74
     0
 42
0.00000001
 43
0.00000001
 40
0.0
 40
0.0
 40
0.0
 40
0.0
 40
1.0
 40
1.0
 40
1.0
 40
1.0
 10
133.6021135305885
 20
64.84914559388004
 30
0.0
 10
133.1518870663107
 20
64.04769023125529
 30
0.0
 10
132.7011892390673
 20
63.24650021969461
 30
0.0
 10
132.2500845096671
 20
62.4455402878747
 30
0.0
  0
LINE
  5
98
330
1F
100
AcDbEntity
  8
0
  6
Continuous
 62
     7
370
    15
100
AcDbLine
 10
132.2500845097
 20
62.4455402879
 30
0.0
 11
132.2500845097
 21
142.5705338809
 31
0.0
  0
SPLINE
  5
99
330
1F
100
AcDbEntity
  8
0
  6
Continuous
 62
     7
370
    15
100
AcDbSpline
210
0.0
220
0.0
230
1.0
 70
    24
 71
     3
 72
     8
 73
     4
 74
     0
 42
0.00000001
 43
0.00000001
 40
0.0
 40
0.0
 40
0.0
 40
0.0
 40
1.0
 40
1.0
 40
1.0
 40
1.0
 10
132.2500845096671
 20
142.5705338809035
 30
0.0
 10
132.7068860819953
 20
142.5705338809035
 30
0.0
 10
133.1579006482345
 20
142.5705338809035
 30
0.0
 10
133.6021135305885
 20
142.5705338809035
 30
0.0
  0
LINE
  5
9A
330
1F
100
AcDbEntity
  8
0
  6
Continuous
 62
     7
370
    15
100
AcDbLine
 10
120.4621135306
 20
142.5705338809
 30
0.0
 11
132.2500845097
 21
142.5705338809
 31
0.0
  0
LINE
  5
9B
330
1F
100
AcDbEntity
  8
0
  6
Continuous
 62
     7
370
    15
100
AcDbLine
 10
132.2500845097
 20
62.4455402879
 30
0.0
 11
130.4621135306
 21
62.4455402879
 31
0.0
  0
SPLINE
  5
9C
330
1F
100
AcDbEntity
  8
0
  6
Continuous
 62
     7
370
    15
100
AcDbSpline
210
0.0
220
0.0
230
1.0
 70
     8
 71
     3
 72
    30
 73
    26
 74
     0
 42
0.00000001
 43
0.00000001
 40
0.0
 40
0.0
 40
0.0
 40
0.0
 40
0.1250000000000002
 40
0.1250000000000002
 40
0.1875000000000003
 40
0.1875000000000003
 40
0.2500000000000004
 40
0.2500000000000004
 40
0.3750000000000001
 40
0.3750000000000001
 40
0.4374999999999998
 40
0.4374999999999998
 40
0.4999999999999996
 40
0.4999999999999996
 40
0.6249999999999996
 40
0.6249999999999996
 40
0.6874999999999997
 40
0.6874999999999997
 40
0.7499999999999997
 40
0.7499999999999997
 40
0.8124999999999998
 40
0.8124999999999998
 40
0.8749999999999999
 40
0.8749999999999999
 40
1.0
 40
1.0
 40
1.0
 40
1.0
 10
130.4621135305885
 20
62.4455402878747
 30
0.0
 10
129.7993688367434
 20
62.44554028787471
 30
0.0
 10
129.1481129776277
 20
62.43070021128589
 30
0.0
 10
128.1876624393695
 20
62.38833064705627
 30
0.0
 10
127.8702709961365
 20
62.3708525442771
 30
0.0
 10
127.2411074945816
 20
62.32952425772479
 30
0.0
 10
126.9289593081399
 20
62.30559898426709
 30
0.0
 10
126.0216520062917
 20
62.22679246780018
 30
0.0
 10
125.4482270486504
 20
62.16448644782372
 30
0.0
 10
124.6343501790757
 20
62.06135712758436
 30
0.0
 10
124.3695439825059
 20
62.02517320853785
 30
0.0
 10
123.8626365716915
 20
61.95137842433734
 30
0.0
 10
123.621242420338
 20
61.91390456556569
 30
0.0
 10
122.9321009482057
 20
61.80119262222596
 30
0.0
 10
122.5190461333415
 20
61.72565652475218
 30
0.0
 10
121.9708913139664
 20
61.61726326773469
 30
0.0
 10
121.8014287066208
 20
61.58219103607143
 30
0.0
 10
121.4934114586055
 20
61.51595557547158
 30
0.0
 10
121.3540314379971
 20
61.48462887871685
 30
0.0
 10
121.1042459253703
 20
61.42622010713592
 30
0.0
 10
120.9938398127164
 20
61.39913687195308
 30
0.0
 10
120.8025819590787
 20
61.34987711733949
 30
0.0
 10
120.7214624407944
 20
61.32761513753184
 30
0.0
 10
120.527315520686
 20
61.27004823036357
 30
0.0
 10
120.4621135305885
 20
61.24378862557758
 30
0.0
 10
120.4621135305885
 20
61.23053488110354
 30
0.0
  0
LINE
  5
9D
330
1F
100
AcDbEntity
  8
0
  6
Continuous
 62
     7
370
    15
100
AcDbLine
 10
120.4621135306
 20
61.2305348811
 30
0.0
 11
120.4621135306
 21
61.2205338809
 31
0.0
  0
SPLINE
  5
9E
330
1F
100
AcDbEntity
  8
0
  6
Continuous
 62
     7
370
    15
100
AcDbSpline
210
0.0
220
0.0
230
1.0
 70
     8
 71
     3
 72
    17
 73
    13
 74
     0
 42
0.00000001
 43
0.00000001
 40
0.0
 40
0.0
 40
0.0
 40
0.0
 40
0.104384384054747
 40
0.2118345768143993
 40
0.316208200519045
 40
0.4235375806108392
 40
0.5292276236193852
 40
0.6379275864803491
 40
0.7444714844189683
 40
0.8541836219421859
 40
0.9593080534965217
 40
1.0
 40
1.0
 40
1.0
 40
1.0
 10
130.4621135305885
 20
160.2103287365671
 30
0.0
 10
129.9141750827291
 20
160.2156969403158
 30
0.0
 10
128.8022050282644
 20
160.2265910139808
 30
0.0
 10
127.1893491150494
 20
160.3117683882397
 30
0.0
 10
125.6558358980725
 20
160.4381430945323
 30
0.0
 10
124.2648150487359
 20
160.5950459151091
 30
0.0
 10
123.0292985315055
 20
160.7667447446296
 30
0.0
 10
122.0059427643502
 20
160.9320810207307
 30
0.0
 10
121.2056007660851
 20
161.0757945003172
 30
0.0
 10
120.6952686641716
 20
161.1739493074965
 30
0.0
 10
120.455360235347
 20
161.2218777043663
 30
0.0
 10
120.4872790147669
 20
161.2155103051267
 30
0.0
 10
120.496186363049
 20
161.2137334000034
 30
0.0
  0
LINE
  5
9F
330
1F
100
AcDbEntity
  8
0
  6
Continuous
 62
     7
370
    15
100
AcDbLine
 10
132.2500845097
 20
160.2103287366
 30
0.0
 11
130.4621135306
 21
160.2103287366
 31
0.0
  0
LINE
  5
A0
330
1F
100
AcDbEntity
  8
0
  6
Continuous
 62
     7
370
    15
100
AcDbLine
 10
132.2500845097
 20
150.1714966418
 30
0.0
 11
132.2500845097
 21
160.2103287366
 31
0.0
  0
LINE
  5
A1
330
1F
100
AcDbEntity
  8
0
  6
Continuous
 62
     7
370
    15
100
AcDbLine
 10
130.1700803788
 20
150.1714966418
 30
0.0
 11
132.2500845097
 21
150.1714966418
 31
0.0
  0
SPLINE
  5
A2
330
1F
100
AcDbEntity
  8
0
  6
Continuous
 62
     7
370
    15
100
AcDbSpline
210
0.0
220
0.0
230
1.0
 70
     8
 71
     3
 72
    22
 73
    18
 74
     0
 42
0.00000001
 43
0.00000001
 40
0.0
 40
0.0
 40
0.0
 40
0.0
 40
0.2500000000000002
 40
0.2500000000000002
 40
0.3750000000000003
 40
0.3750000000000003
 40
0.5000000000000004
 40
0.5000000000000004
 40
0.6250000000000004
 40
0.6250000000000004
 40
0.7500000000000004
 40
0.7500000000000004
 40
0.8750000000000004
 40
0.8750000000000004
 40
0.9375000000000002
 40
0.9375000000000002
 40
1.0
 40
1.0
 40
1.0
 40
1.0
 10
120.4621135305885
 20
142.5705338809035
 30
0.0
 10
120.6648384865075
 20
143.5897802227681
 30
0.0
 10
120.9795822083029
 20
144.5488883727074
 30
0.0
 10
121.6876376779739
 20
145.8913674502167
 30
0.0
 10
121.9661003081916
 20
146.3255760329567
 30
0.0
 10
122.6048677148287
 20
147.1372037484588
 30
0.0
 10
122.9652813946189
 20
147.5164840413957
 30
0.0
 10
123.7828136266082
 20
148.2194426204167
 30
0.0
 10
124.2439816098954
 20
148.5444714381173
 30
0.0
 10
125.2419718563791
 20
149.1094867615082
 30
0.0
 10
125.7817310503714
 20
149.3531903557147
 30
0.0
 10
126.9563240144027
 20
149.7573902833596
 30
0.0
 10
127.5680602003946
 20
149.9098274764051
 30
0.0
 10
128.5199694252563
 20
150.0651550240138
 30
0.0
 10
128.843202589517
 20
150.1046598040639
 30
0.0
 10
129.5022657607922
 20
150.1579689247326
 30
0.0
 10
129.8363297713663
 20
150.1714966417904
 30
0.0
 10
130.1700803787678
 20
150.1714966417904
 30
0.0
  0
SPLINE
  5
A3
330
1F
100
AcDbEntity
  8
0
  6
Continuous
 62
     7
370
    15
100
AcDbSpline
210
0.0
220
0.0
230
1.0
 70
     8
 71
     3
 72
    80
 73
    76
 74
     0
 42
0.00000001
 43
0.00000001
 40
-0.0312499999999993
 40
-0.0312499999999993
 40
0.0
 40
0.0
 40
0.03125
 40
0.03125
 40
0.046875
 40
0.046875
 40
0.0625
 40
0.0625
 40
0.09375
 40
0.09375
 40
0.1250000000000001
 40
0.1250000000000001
 40
0.1562500000000001
 40
0.1562500000000001
 40
0.1875000000000001
 40
0.1875000000000001
 40
0.2187500000000002
 40
0.2187500000000002
 40
0.2500000000000002
 40
0.2500000000000002
 40
0.2812500000000003
 40
0.2812500000000003
 40
0.3125000000000003
 40
0.3125000000000003
 40
0.3281250000000004
 40
0.3281250000000004
 40
0.3437500000000006
 40
0.3437500000000006
 40
0.3750000000000011
 40
0.3750000000000011
 40
0.4062500000000016
 40
0.4062500000000016
 40
0.4218750000000018
 40
0.4218750000000018
 40
0.437500000000002
 40
0.437500000000002
 40
0.4687500000000023
 40
0.4687500000000023
 40
0.5000000000000027
 40
0.5000000000000027
 40
0.531250000000003
 40
0.531250000000003
 40
0.5625000000000033
 40
0.5625000000000033
 40
0.5937500000000037
 40
0.5937500000000037
 40
0.6250000000000039
 40
0.6250000000000039
 40
0.6562500000000042
 40
0.6562500000000042
 40
0.6875000000000046
 40
0.6875000000000046
 40
0.7031250000000047
 40
0.7031250000000047
 40
0.7187500000000048
 40
0.7187500000000048
 40
0.7500000000000048
 40
0.7500000000000048
 40
0.7812500000000048
 40
0.7812500000000048
 40
0.7968750000000044
 40
0.7968750000000044
 40
0.8125000000000041
 40
0.8125000000000041
 40
0.8437500000000034
 40
0.8437500000000034
 40
0.8750000000000027
 40
0.8750000000000027
 40
0.906250000000002
 40
0.906250000000002
 40
0.9375000000000013
 40
0.9375000000000013
 40
0.9687500000000007
 40
0.9687500000000007
 40
1.0
 40
1.0
 40
1.03125
 40
1.03125
 10
124.8426588433648
 20
154.6351633445348
 30
0.0
 10
124.1815682178122
 20
154.6351633445348
 30
0.0
 10
123.8565880885605
 20
154.651371575917
 30
0.0
 10
123.3771146773141
 20
154.6987362079365
 30
0.0
 10
123.2186328594733
 20
154.7183904198272
 30
0.0
 10
122.904413326969
 20
154.7655015760198
 30
0.0
 10
122.7482930432886
 20
154.7930828955145
 30
0.0
 10
122.294239014332
 20
154.8856186823083
 30
0.0
 10
122.0071356313922
 20
154.9606891159048
 30
0.0
 10
121.4637810753652
 20
155.1359274245154
 30
0.0
 10
121.2066774641596
 20
155.2369287223536
 30
0.0
 10
120.7457712092208
 20
155.4542849208145
 30
0.0
 10
120.5388735000059
 20
155.5714492525867
 30
0.0
 10
120.1733481860137
 20
155.8215191768154
 30
0.0
 10
120.0181426638877
 20
155.9524652655744
 30
0.0
 10
119.768712277288
 20
156.2182002092867
 30
0.0
 10
119.6726223215028
 20
156.3549538025977
 30
0.0
 10
119.5441034723093
 20
156.6290193774367
 30
0.0
 10
119.5122926021315
 20
156.7639594679055
 30
0.0
 10
119.5119359523582
 20
157.0294311049742
 30
0.0
 10
119.5444332045553
 20
157.1612555821155
 30
0.0
 10
119.6720586782698
 20
157.4107051817359
 30
0.0
 10
119.7664870793216
 20
157.5291378736639
 30
0.0
 10
119.9543478993072
 20
157.698007070758
 30
0.0
 10
120.0251758981104
 20
157.7530930658782
 30
0.0
 10
120.1798977900757
 20
157.8583458943666
 30
0.0
 10
120.2638742602591
 20
157.9086811231269
 30
0.0
 10
120.5351979299035
 20
158.053256955665
 30
0.0
 10
120.7417471485058
 20
158.141118542082
 30
0.0
 10
121.2083572886948
 20
158.3008396350815
 30
0.0
 10
121.4607228583203
 20
158.3700779315487
 30
0.0
 10
121.866624199999
 20
158.4598653207785
 30
0.0
 10
122.0065248174765
 20
158.4874312828647
 30
0.0
 10
122.2957487527234
 20
158.537922083791
 30
0.0
 10
122.4455882090127
 20
158.5608855226417
 30
0.0
 10
122.8997047786235
 20
158.6215160390606
 30
0.0
 10
123.2113559973604
 20
158.6515900678564
 30
0.0
 10
123.8523524622727
 20
158.6921796551151
 30
0.0
 10
124.1838800902249
 20
158.7024918853311
 30
0.0
 10
124.8366711352964
 20
158.7025674524969
 30
0.0
 10
125.1612073403282
 20
158.6926658470292
 30
0.0
 10
125.8064767897446
 20
158.6521793165039
 30
0.0
 10
126.1222197959073
 20
158.6217180166192
 30
0.0
 10
126.724109090891
 20
158.5415673451826
 30
0.0
 10
127.0148583217025
 20
158.4912851133755
 30
0.0
 10
127.561770113387
 20
158.3706149306025
 30
0.0
 10
127.8135474772239
 20
158.3013910714325
 30
0.0
 10
128.274935469845
 20
158.1439393437918
 30
0.0
 10
128.4862047494431
 20
158.054590869118
 30
0.0
 10
128.8495091018193
 20
157.8613429984172
 30
0.0
 10
129.0033157502621
 20
157.7572150065379
 30
0.0
 10
129.1919352198595
 20
157.5885906203545
 30
0.0
 10
129.2479657060686
 20
157.5299622186795
 30
0.0
 10
129.3435394678048
 20
157.4105073038533
 30
0.0
 10
129.3833023848298
 20
157.3495875150151
 30
0.0
 10
129.479074135142
 20
157.1631827888412
 30
0.0
 10
129.5117969742681
 20
157.0340699710462
 30
0.0
 10
129.5124255605971
 20
156.7654130480903
 30
0.0
 10
129.4802394158624
 20
156.6300423073335
 30
0.0
 10
129.3853287140068
 20
156.4264919990976
 30
0.0
 10
129.3458619306078
 20
156.3585200750341
 30
0.0
 10
129.250931931887
 20
156.2224278519033
 30
0.0
 10
129.1951751041236
 20
156.1540777516938
 30
0.0
 10
129.0072349861537
 20
155.9533747386517
 30
0.0
 10
128.8538735164375
 20
155.823986464839
 30
0.0
 10
128.4916092815571
 20
155.5753210327892
 30
0.0
 10
128.2807608080913
 20
155.455511390421
 30
0.0
 10
127.8200908377723
 20
155.2379891028483
 30
0.0
 10
127.5687164581885
 20
155.1389040030124
 30
0.0
 10
127.0228085712904
 20
154.9622315290956
 30
0.0
 10
126.7319859966392
 20
154.8861744409615
 30
0.0
 10
126.1306593818591
 20
154.7633294636086
 30
0.0
 10
125.8161407972467
 20
154.7156233385554
 30
0.0
 10
125.1695593411268
 20
154.6513748034358
 30
0.0
 10
124.8426588433648
 20
154.6351633445348
 30
0.0
 10
124.1815682178122
 20
154.6351633445348
 30
0.0
  0
LINE
  5
A4
330
1F
100
AcDbEntity
  8
0
  6
Continuous
 62
     7
370
    15
100
AcDbLine
 10
144.4621135306
 20
63.4711883357
 30
0.0
 11
144.4621135306
 21
142.5705338809
 31
0.0
  0
SPLINE
  5
A5
330
1F
100
AcDbEntity
  8
0
  6
Continuous
 62
     7
370
    15
100
AcDbSpline
210
0.0
220
0.0
230
1.0
 70
     8
 71
     3
 72
    14
 73
    10
 74
     0
 42
0.00000001
 43
0.00000001
 40
0.0
 40
0.0
 40
0.0
 40
0.0
 40
0.25
 40
0.25
 40
0.5
 40
0.5
 40
0.75
 40
0.75
 40
1.0
 40
1.0
 40
1.0
 40
1.0
 10
144.4621135305885
 20
63.47118833565021
 30
0.0
 10
144.4621135305885
 20
63.33776263959567
 30
0.0
 10
144.4368024306776
 20
63.20591483175131
 30
0.0
 10
144.3384676668329
 20
62.95939228305722
 30
0.0
 10
144.2653236625768
 20
62.84558709481666
 30
0.0
 10
144.0818856014811
 20
62.6551299178694
 30
0.0
 10
143.9701992671425
 20
62.57749505401948
 30
0.0
 10
143.7276958368362
 20
62.47320364390701
 30
0.0
 10
143.594321408142
 20
62.44554028787466
 30
0.0
 10
143.4621135305885
 20
62.44554028787466
 30
0.0
  0
SPLINE
  5
A6
330
1F
100
AcDbEntity
  8
0
  6
Continuous
 62
     7
370
    15
100
AcDbSpline
210
0.0
220
0.0
230
1.0
 70
    24
 71
     3
 72
    12
 73
     8
 74
     0
 42
0.00000001
 43
0.00000001
 40
0.0
 40
0.0
 40
0.0
 40
0.0
 40
0.2500000000000032
 40
0.2500000000000032
 40
0.5000000000000064
 40
0.5000000000000064
 40
1.0
 40
1.0
 40
1.0
 40
1.0
 10
143.4621135305885
 20
142.5705338809035
 30
0.0
 10
143.6142037675334
 20
142.5705338809035
 30
0.0
 10
143.7626630286089
 20
142.5705338809035
 30
0.0
 10
144.0200666608746
 20
142.5705338809035
 30
0.0
 10
144.1291714087165
 20
142.5705338809035
 30
0.0
 10
144.383230885124
 20
142.5705338809035
 30
0.0
 10
144.4621135305885
 20
142.5705338809035
 30
0.0
 10
144.4621135305885
 20
142.5705338809035
 30
0.0
  0
SPLINE
  5
A7
330
1F
100
AcDbEntity
  8
0
  6
Continuous
 62
     7
370
    15
100
AcDbSpline
210
0.0
220
0.0
230
1.0
 70
     8
 71
     3
 72
    12
 73
     8
 74
     0
 42
0.00000001
 43
0.00000001
 40
0.0
 40
0.0
 40
0.0
 40
0.0
 40
0.25
 40
0.25
 40
0.5
 40
0.5
 40
1.0
 40
1.0
 40
1.0
 40
1.0
 10
134.4021135305885
 20
66.58085842285385
 30
0.0
 10
134.2963528772395
 20
66.58085842285385
 30
0.0
 10
134.1883652490566
 20
66.55831891685347
 30
0.0
 10
133.993770583791
 20
66.47374828485813
 30
0.0
 10
133.9048986709522
 20
66.41126663209937
 30
0.0
 10
133.6857063786263
 20
66.1818776806272
 30
0.0
 10
133.6021135305885
 20
65.9692943431048
 30
0.0
 10
133.6021135305885
 20
65.75735509850861
 30
0.0
  0
SPLINE
  5
A8
330
1F
100
AcDbEntity
  8
0
  6
Continuous
 62
     7
370
    15
100
AcDbSpline
210
0.0
220
0.0
230
1.0
 70
    24
 71
     3
 72
    14
 73
    10
 74
     0
 42
0.00000001
 43
0.00000001
 40
0.0
 40
0.0
 40
0.0
 40
0.0
 40
0.25
 40
0.25
 40
0.5
 40
0.5
 40
0.75
 40
0.75
 40
1.0
 40
1.0
 40
1.0
 40
1.0
 10
133.6021135305885
 20
142.5705338809035
 30
0.0
 10
133.6021135305885
 20
142.5705338809035
 30
0.0
 10
133.6178278510544
 20
142.5705338809035
 30
0.0
 10
133.6815118295228
 20
142.5705338809035
 30
0.0
 10
133.7301150239333
 20
142.5705338809035
 30
0.0
 10
133.8627985463588
 20
142.5705338809035
 30
0.0
 10
133.9479006506695
 20
142.5705338809035
 30
0.0
 10
134.1543428855795
 20
142.5705338809035
 30
0.0
 10
134.2784238272026
 20
142.5705338809035
 30
0.0
 10
134.4021135305885
 20
142.5705338809035
 30
0.0
  0
SPLINE
  5
A9
330
1F
100
AcDbEntity
  8
0
  6
Continuous
 62
     7
370
    15
100
AcDbSpline
210
0.0
220
0.0
230
1.0
 70
     8
 71
     3
 72
    14
 73
    10
 74
     0
 42
0.00000001
 43
0.00000001
 40
0.0
 40
0.0
 40
0.0
 40
0.0
 40
0.25
 40
0.25
 40
0.5
 40
0.5
 40
0.75
 40
0.75
 40
1.0
 40
1.0
 40
1.0
 40
1.0
 10
137.4221135305885
 20
65.75735509850861
 30
0.0
 10
137.4221135305885
 20
65.864399179503
 30
0.0
 10
137.4019958434303
 20
65.96963431974545
 30
0.0
 10
137.3235046541647
 20
66.16748480659312
 30
0.0
 10
137.2653480293635
 20
66.25853657015806
 30
0.0
 10
137.1188327737454
 20
66.41170266408284
 30
0.0
 10
137.0301902251043
 20
66.47399711029225
 30
0.0
 10
136.834466902304
 20
66.55879089582822
 30
0.0
 10
136.7292357112331
 20
66.58085842285385
 30
0.0
 10
136.6221135305885
 20
66.58085842285385
 30
0.0
  0
SPLINE
  5
AA
330
1F
100
AcDbEntity
  8
0
  6
Continuous
 62
     7
370
    15
100
AcDbSpline
210
0.0
220
0.0
230
1.0
 70
    24
 71
     3
 72
    14
 73
    10
 74
     0
 42
0.00000001
 43
0.00000001
 40
0.0
 40
0.0
 40
0.0
 40
0.0
 40
0.25
 40
0.25
 40
0.5
 40
0.5
 40
0.75
 40
0.75
 40
1.0
 40
1.0
 40
1.0
 40
1.0
 10
136.6221135305885
 20
142.5705338809035
 30
0.0
 10
136.7458832953536
 20
142.5705338809035
 30
0.0
 10
136.8702503993605
 20
142.5705338809035
 30
0.0
 10
137.0766068680865
 20
142.5705338809035
 30
0.0
 10
137.1619350115049
 20
142.5705338809035
 30
0.0
 10
137.2941270702202
 20
142.5705338809035
 30
0.0
 10
137.3427723139707
 20
142.5705338809035
 30
0.0
 10
137.4063081056995
 20
142.5705338809035
 30
0.0
 10
137.4221135305885
 20
142.5705338809035
 30
0.0
 10
137.4221135305885
 20
142.5705338809035
 30
0.0
  0
LINE
  5
AB
330
1F
100
AcDbEntity
  8
0
  6
Continuous
 62
     7
370
    15
100
AcDbLine
 10
136.6221135306
 20
66.5808584229
 30
0.0
 11
134.4021135306
 21
66.5808584229
 31
0.0
  0
LINE
  5
AC
330
1F
100
AcDbEntity
  8
0
  6
Continuous
 62
     7
370
    15
100
AcDbLine
 10
134.4021135306
 20
142.5705338809
 30
0.0
 11
136.6221135306
 21
142.5705338809
 31
0.0
  0
LINE
  5
AD
330
1F
100
AcDbEntity
  8
0
  6
Continuous
 62
     7
370
    15
100
AcDbLine
 10
80.7121135306
 20
74.9565188508
 30
0.0
 11
80.7121135306
 21
77.3512006155
 31
0.0
  0
SPLINE
  5
AE
330
1F
100
AcDbEntity
  8
0
  6
Continuous
 62
     7
370
    15
100
AcDbSpline
210
0.0
220
0.0
230
1.0
 70
     8
 71
     3
 72
    14
 73
    10
 74
     0
 42
0.00000001
 43
0.00000001
 40
0.0
 40
0.0
 40
0.0
 40
0.0
 40
0.25
 40
0.25
 40
0.5
 40
0.5
 40
0.75
 40
0.75
 40
1.0
 40
1.0
 40
1.0
 40
1.0
 10
79.70769105925152
 20
79.05405253715998
 30
0.0
 10
79.79645963719683
 20
78.89551840585202
 30
0.0
 10
79.91817747587575
 20
78.74307572896348
 30
0.0
 10
80.15322708573258
 20
78.44594110513455
 30
0.0
 10
80.26885727194947
 20
78.30125846151718
 30
0.0
 10
80.46926220537729
 20
78.01796925901378
 30
0.0
 10
80.55466249736162
 20
77.87941526597692
 30
0.0
 10
80.67636813107885
 20
77.6080312359434
 30
0.0
 10
80.7121135305915
 20
77.47589536730877
 30
0.0
 10
80.71211353059148
 20
77.351200615538
 30
0.0
  0
SPLINE
  5
AF
330
1F
100
AcDbEntity
  8
0
  6
Continuous
 62
     7
370
    15
100
AcDbSpline
210
0.0
220
0.0
230
1.0
 70
     8
 71
     3
 72
    14
 73
    10
 74
     0
 42
0.00000001
 43
0.00000001
 40
0.0
 40
0.0
 40
0.0
 40
0.0
 40
0.124999999999999
 40
0.124999999999999
 40
0.249999999999998
 40
0.249999999999998
 40
0.5000000000000007
 40
0.5000000000000007
 40
1.0
 40
1.0
 40
1.0
 40
1.0
 10
78.81211353058848
 20
79.68288247626009
 30
0.0
 10
78.87969583037297
 20
79.69003836136149
 30
0.0
 10
78.95218340812086
 20
79.68561389132245
 30
0.0
 10
79.08447451738681
 20
79.65590773355211
 30
0.0
 10
79.14175189677698
 20
79.63262345197388
 30
0.0
 10
79.29140232397727
 20
79.55513821212357
 30
0.0
 10
79.36511561949877
 20
79.49328638522219
 30
0.0
 10
79.552923602825
 20
79.30860893257388
 30
0.0
 10
79.63696390918645
 20
79.18036600928266
 30
0.0
 10
79.70769105925274
 20
79.05405253716008
 30
0.0
  0
SPLINE
  5
B0
330
1F
100
AcDbEntity
  8
0
  6
Continuous
 62
     7
370
    15
100
AcDbSpline
210
0.0
220
0.0
230
1.0
 70
     8
 71
     3
 72
     8
 73
     4
 74
     0
 42
0.00000001
 43
0.00000001
 40
0.0
 40
0.0
 40
0.0
 40
0.0
 40
1.0
 40
1.0
 40
1.0
 40
1.0
 10
75.26747314250768
 20
79.2648338914683
 30
0.0
 10
76.43277145321656
 20
79.4200213633549
 30
0.0
 10
77.61738666725637
 20
79.55638000166523
 30
0.0
 10
78.81211353058845
 20
79.68288247626009
 30
0.0
  0
SPLINE
  5
B1
330
1F
100
AcDbEntity
  8
0
  6
Continuous
 62
     7
370
    15
100
AcDbSpline
210
0.0
220
0.0
230
1.0
 70
     8
 71
     3
 72
    14
 73
    10
 74
     0
 42
0.00000001
 43
0.00000001
 40
0.0
 40
0.0
 40
0.0
 40
0.0
 40
0.4999999999999972
 40
0.4999999999999972
 40
0.7499999999999971
 40
0.7499999999999971
 40
0.8749999999999986
 40
0.8749999999999986
 40
1.0
 40
1.0
 40
1.0
 40
1.0
 10
67.51203864655977
 20
78.97470171233837
 30
0.0
 10
68.82034020909353
 20
78.98171643607951
 30
0.0
 10
70.12539958375034
 20
78.99712501252398
 30
0.0
 10
72.07127563523866
 20
79.05102156799066
 30
0.0
 10
72.71797313897765
 20
79.07405313259336
 30
0.0
 10
73.681815502832
 20
79.12499565746411
 30
0.0
 10
74.00205419476607
 20
79.14473057969731
 30
0.0
 10
74.63874942110849
 20
79.19421770816886
 30
0.0
 10
74.95546482939142
 20
79.2232824870981
 30
0.0
 10
75.26747314250773
 20
79.26483389146827
 30
0.0
  0
SPLINE
  5
B2
330
1F
100
AcDbEntity
  8
0
  6
Continuous
 62
     7
370
    15
100
AcDbSpline
210
0.0
220
0.0
230
1.0
 70
     8
 71
     3
 72
    12
 73
     8
 74
     0
 42
0.00000001
 43
0.00000001
 40
0.0
 40
0.0
 40
0.0
 40
0.0
 40
0.2500000000000009
 40
0.2500000000000009
 40
0.5000000000000018
 40
0.5000000000000018
 40
1.0
 40
1.0
 40
1.0
 40
1.0
 10
73.81211353058848
 20
143.3070567723999
 30
0.0
 10
73.29341470876028
 20
143.3395795472481
 30
0.0
 10
72.77170313555528
 20
143.3628762884186
 30
0.0
 10
71.72541111905973
 20
143.4007218028407
 30
0.0
 10
71.20073949338945
 20
143.4149902773369
 30
0.0
 10
69.62389347085023
 20
143.4491997647952
 30
0.0
 10
68.5689381563033
 20
143.4606992687391
 30
0.0
 10
67.51203864655808
 20
143.4663660494686
 30
0.0
  0
SPLINE
  5
B3
330
1F
100
AcDbEntity
  8
0
  6
Continuous
 62
     7
370
    15
100
AcDbSpline
210
0.0
220
0.0
230
1.0
 70
     8
 71
     3
 72
    20
 73
    16
 74
     0
 42
0.00000001
 43
0.00000001
 40
0.0
 40
0.0
 40
0.0
 40
0.0
 40
0.2500000000000011
 40
0.2500000000000011
 40
0.5000000000000021
 40
0.5000000000000021
 40
0.7500000000000031
 40
0.7500000000000031
 40
0.8750000000000008
 40
0.8750000000000008
 40
0.9375000000000006
 40
0.9375000000000006
 40
0.9687500000000003
 40
0.9687500000000003
 40
1.0
 40
1.0
 40
1.0
 40
1.0
 10
75.71211353058847
 20
144.9651426178881
 30
0.0
 10
75.71211353058845
 20
144.8294602981413
 30
0.0
 10
75.66340174137184
 20
144.6883733120012
 30
0.0
 10
75.49424031814667
 20
144.3963015932707
 30
0.0
 10
75.37245990422834
 20
144.2446528511803
 30
0.0
 10
75.07491280947883
 20
143.9422444110272
 30
0.0
 10
74.90100020377605
 20
143.7896557749038
 30
0.0
 10
74.58158536989423
 20
143.5643850110615
 30
0.0
 10
74.46654459444697
 20
143.4896619165508
 30
0.0
 10
74.25946027043055
 20
143.3902515072938
 30
0.0
 10
74.18335243562416
 20
143.3586864149493
 30
0.0
 10
74.05195789607083
 20
143.3242430307563
 30
0.0
 10
74.00540467706936
 20
143.3151914589886
 30
0.0
 10
73.90907132598865
 20
143.3050158101502
 30
0.0
 10
73.85981190263321
 20
143.3040660514752
 30
0.0
 10
73.81211353058647
 20
143.3070567723898
 30
0.0
  0
LINE
  5
B4
330
1F
100
AcDbEntity
  8
0
  6
Continuous
 62
     7
370
    15
100
AcDbLine
 10
75.7121135306
 20
144.9651426179
 30
0.0
 11
75.7121135306
 21
147.234047909
 31
0.0
  0
LINE
  5
B5
330
1F
100
AcDbEntity
  8
0
  6
Continuous
 62
     7
370
    15
100
AcDbLine
 10
113.0121135306
 20
73.3382823779
 30
0.0
 11
113.0121135306
 21
149.1027853839
 31
0.0
  0
SPLINE
  5
B6
330
1F
100
AcDbEntity
  8
0
  6
Continuous
 62
     7
370
    15
100
AcDbSpline
210
0.0
220
0.0
230
1.0
 70
     8
 71
     3
 72
    24
 73
    20
 74
     0
 42
0.00000001
 43
0.00000001
 40
0.0
 40
0.0
 40
0.0
 40
0.0
 40
0.0002934293894791
 40
0.062808005175641
 40
0.1260453927228619
 40
0.18907467666103
 40
0.2513200540860133
 40
0.3133304633786588
 40
0.3759158453762907
 40
0.4383740564599686
 40
0.5000631094857209
 40
0.5616593988040849
 40
0.6245050380644152
 40
0.6872231506510951
 40
0.7494953263230465
 40
0.8117583797535242
 40
0.8747365508229858
 40
0.9378980306234599
 40
1.0
 40
1.0
 40
1.0
 40
1.0
 10
94.0320697944279
 20
74.28928862259113
 30
0.0
 10
94.03187494154311
 20
74.28926431519714
 30
0.0
 10
93.99016705053195
 20
74.28406136354293
 30
0.0
 10
94.1352854420624
 20
74.30269598687345
 30
0.0
 10
94.49036438360167
 20
74.34521576542218
 30
0.0
 10
95.09494002114481
 20
74.41335204902401
 30
0.0
 10
95.901375329961
 20
74.4866075860399
 30
0.0
 10
96.88685275387998
 20
74.55112692685775
 30
0.0
 10
98.01852235055952
 20
74.58969115491884
 30
0.0
 10
99.2408148207218
 20
74.59338566092023
 30
0.0
 10
100.5081435021736
 20
74.55095968087124
 30
0.0
 10
101.7746290326002
 20
74.4627125400903
 30
0.0
 10
102.9907663964201
 20
74.33431926982362
 30
0.0
 10
104.1161768922609
 20
74.18167828123109
 30
0.0
 10
105.0935939538148
 20
74.01990366612675
 30
0.0
 10
105.8968594323574
 20
73.86737477302586
 30
0.0
 10
106.4853529553586
 20
73.74336102975845
 30
0.0
 10
106.8742590670106
 20
73.65843710348219
 30
0.0
 10
106.9210201977486
 20
73.6477107922034
 30
0.0
 10
106.9442030042911
 20
73.64239299951178
 30
0.0
  0
SPLINE
  5
B7
330
1F
100
AcDbEntity
  8
0
  6
Continuous
 62
     7
370
    15
100
AcDbSpline
210
0.0
220
0.0
230
1.0
 70
     8
 71
     3
 72
    41
 73
    37
 74
     0
 42
0.00000001
 43
0.00000001
 40
0.0
 40
0.0
 40
0.0
 40
0.0
 40
0.0619930088506718
 40
0.125434783814564
 40
0.1886508980471406
 40
0.2510246518033811
 40
0.3131658325491701
 40
0.3756581805174193
 40
0.4382227337757709
 40
0.4998045140815297
 40
0.5615164441954765
 40
0.624068336616565
 40
0.6867257531766615
 40
0.7488365631577111
 40
0.8110686297814758
 40
0.8741743265521147
 40
0.9373213196242014
 40
0.9685512131827939
 40
0.9842087301523141
 40
0.9920641614992075
 40
0.9960005295431575
 40
0.9979711229155388
 40
0.9989570525954627
 40
0.999450179507506
 40
0.9996967839589672
 40
0.9998200964931991
 40
0.9998817553448945
 40
0.9999125854178207
 40
0.9999280006161647
 40
0.9999357082558249
 40
0.9999395620857793
 40
0.9999414890032862
 40
0.9999424524626737
 40
0.9999434159224813
 40
0.9999502132908483
 40
1.0
 40
1.0
 40
1.0
 40
1.0
 10
106.944081673813
 20
148.7986297443437
 30
0.0
 10
106.9205100284695
 20
148.7933202646938
 30
0.0
 10
106.8728158724244
 20
148.7825772237543
 30
0.0
 10
106.4807738829988
 20
148.6973480872989
 30
0.0
 10
105.8902598337286
 20
148.5727793086581
 30
0.0
 10
105.0862223876835
 20
148.4198323625063
 30
0.0
 10
104.110146987502
 20
148.2580758085527
 30
0.0
 10
102.9883382522215
 20
148.1058430406205
 30
0.0
 10
101.7748073324343
 20
147.9780630994191
 30
0.0
 10
100.5099766260351
 20
147.8902145477365
 30
0.0
 10
99.24193358859233
 20
147.8478290638659
 30
0.0
 10
98.01842623089124
 20
147.8515648718375
 30
0.0
 10
96.88492769047723
 20
147.8901603422856
 30
0.0
 10
95.89882187950298
 20
147.9545997135768
 30
0.0
 10
95.09019407071591
 20
148.0281095208579
 30
0.0
 10
94.49357537560626
 20
148.0954232056697
 30
0.0
 10
94.17818408614959
 20
148.1333877569375
 30
0.0
 10
94.06811751734912
 20
148.1471868162697
 30
0.0
 10
94.0406981295385
 20
148.1506728901899
 30
0.0
 10
94.03377607870394
 20
148.1515521158839
 30
0.0
 10
94.03200783852766
 20
148.1517728904893
 30
0.0
 10
94.0315474593442
 20
148.1518280932014
 30
0.0
 10
94.03142330067365
 20
148.1518418329866
 30
0.0
 10
94.03138774616035
 20
148.1518452288201
 30
0.0
 10
94.03137660211867
 20
148.1518460571369
 30
0.0
 10
94.03137268888247
 20
148.1518462537307
 30
0.0
 10
94.03137114673424
 20
148.1518462976537
 30
0.0
 10
94.03137047965284
 20
148.1518463059704
 30
0.0
 10
94.03137017158788
 20
148.1518463067866
 30
0.0
 10
94.03137002466259
 20
148.1518463062612
 30
0.0
 10
94.03136995193489
 20
148.1518463059034
 30
0.0
 10
94.0313699172253
 20
148.1518463055056
 30
0.0
 10
94.03136989549179
 20
148.1518463055305
 30
0.0
 10
94.0313698636367
 20
148.1518463032858
 30
0.0
 10
94.03136791429606
 20
148.1518465192318
 30
0.0
 10
94.03139484915884
 20
148.1518430381012
 30
0.0
 10
94.03141854837317
 20
148.151839975154
 30
0.0
  0
SPLINE
  5
B8
330
1F
100
AcDbEntity
  8
0
  6
Continuous
 62
     7
370
    15
100
AcDbSpline
210
0.0
220
0.0
230
1.0
 70
     8
 71
     3
 72
    20
 73
    16
 74
     0
 42
0.00000001
 43
0.00000001
 40
0.0
 40
0.0
 40
0.0
 40
0.0
 40
0.249999999999986
 40
0.249999999999986
 40
0.3749999999999789
 40
0.3749999999999789
 40
0.4374999999999789
 40
0.4374999999999789
 40
0.4999999999999789
 40
0.4999999999999789
 40
0.6249999999999835
 40
0.6249999999999835
 40
0.7499999999999879
 40
0.7499999999999879
 40
1.0
 40
1.0
 40
1.0
 40
1.0
 10
65.90292776230449
 20
80.54205072820281
 30
0.0
 10
65.92919997951789
 20
80.56136866928526
 30
0.0
 10
65.95988012177273
 20
80.57575738038705
 30
0.0
 10
66.03135099215466
 20
80.56885301855102
 30
0.0
 10
66.05937802919898
 20
80.56168701520261
 30
0.0
 10
66.1144616186965
 20
80.53198798849901
 30
0.0
 10
66.13535294724893
 20
80.51851434593767
 30
0.0
 10
66.18056159469438
 20
80.48331608042167
 30
0.0
 10
66.20496580708995
 20
80.4614078516944
 30
0.0
 10
66.27629812514141
 20
80.38928299169886
 30
0.0
 10
66.31819490996166
 20
80.33694245074881
 30
0.0
 10
66.38977086881755
 20
80.23945905884807
 30
0.0
 10
66.42059885863486
 20
80.19270528896965
 30
0.0
 10
66.50369879147041
 20
80.05941207313053
 30
0.0
 10
66.54855369684073
 20
79.97677467521531
 30
0.0
 10
66.58866577229331
 20
79.89766778042454
 30
0.0
  0
SPLINE
  5
B9
330
1F
100
AcDbEntity
  8
0
  6
Continuous
 62
     7
370
    15
100
AcDbSpline
210
0.0
220
0.0
230
1.0
 70
     8
 71
     3
 72
    14
 73
    10
 74
     0
 42
0.00000001
 43
0.00000001
 40
0.0
 40
0.0
 40
0.0
 40
0.0
 40
0.25
 40
0.25
 40
0.5
 40
0.5
 40
0.75
 40
0.75
 40
1.0
 40
1.0
 40
1.0
 40
1.0
 10
65.61211353058849
 20
80.71786413833559
 30
0.0
 10
65.61211353058849
 20
80.67661720731122
 30
0.0
 10
65.62072324696975
 20
80.63971023502874
 30
0.0
 10
65.65180942654007
 20
80.57881017512935
 30
0.0
 10
65.67419898002413
 20
80.55462925558965
 30
0.0
 10
65.72894291120025
 20
80.5206616647064
 30
0.0
 10
65.76139315078544
 20
80.5107415807382
 30
0.0
 10
65.8313946655135
 20
80.50939037183336
 30
0.0
 10
65.86960516563606
 20
80.51754864852951
 30
0.0
 10
65.90292776230913
 20
80.54205072819761
 30
0.0
  0
LINE
  5
BA
330
1F
100
AcDbEntity
  8
0
  6
Continuous
 62
     7
370
    15
100
AcDbLine
 10
65.6121135306
 20
80.7178641383
 30
0.0
 11
65.6121135306
 21
141.7232036235
 31
0.0
  0
SPLINE
  5
BB
330
1F
100
AcDbEntity
  8
0
  6
Continuous
 62
     7
370
    15
100
AcDbSpline
210
0.0
220
0.0
230
1.0
 70
     8
 71
     3
 72
    10
 73
     6
 74
     0
 42
0.00000001
 43
0.00000001
 40
0.0
 40
0.0
 40
0.0
 40
0.0
 40
0.0592402688376383
 40
0.6438088530391344
 40
1.0
 40
1.0
 40
1.0
 40
1.0
 10
65.90292776230912
 20
141.8990170336094
 30
0.0
 10
65.89809550468792
 20
141.902265940241
 30
0.0
 10
65.84557970255318
 20
141.9375742683967
 30
0.0
 10
65.7466295048744
 20
141.9438285649553
 30
0.0
 10
65.69720097998305
 20
141.8886283272664
 30
0.0
 10
65.67848631523876
 20
141.8677283723431
 30
0.0
  0
SPLINE
  5
BC
330
1F
100
AcDbEntity
  8
0
  6
Continuous
 62
     7
370
    15
100
AcDbSpline
210
0.0
220
0.0
230
1.0
 70
     8
 71
     3
 72
     8
 73
     4
 74
     0
 42
0.00000001
 43
0.00000001
 40
0.0
 40
0.0
 40
0.0
 40
0.0
 40
1.0
 40
1.0
 40
1.0
 40
1.0
 10
65.63574719952469
 20
141.8307831245411
 30
0.0
 10
65.62039816088863
 20
141.8002730695451
 30
0.0
 10
65.61211353058849
 20
141.7639615140328
 30
0.0
 10
65.61211353058849
 20
141.7232036234714
 30
0.0
  0
SPLINE
  5
BD
330
1F
100
AcDbEntity
  8
0
  6
Continuous
 62
     7
370
    15
100
AcDbSpline
210
0.0
220
0.0
230
1.0
 70
     8
 71
     3
 72
    20
 73
    16
 74
     0
 42
0.00000001
 43
0.00000001
 40
0.0
 40
0.0
 40
0.0
 40
0.0
 40
0.2500000000000037
 40
0.2500000000000037
 40
0.3750000000000055
 40
0.3750000000000055
 40
0.5000000000000073
 40
0.5000000000000073
 40
0.5625000000000057
 40
0.5625000000000057
 40
0.625000000000004
 40
0.625000000000004
 40
0.7500000000000027
 40
0.7500000000000027
 40
1.0
 40
1.0
 40
1.0
 40
1.0
 10
66.5886657722909
 20
142.5433999813817
 30
0.0
 10
66.54866955446705
 20
142.4645215748242
 30
0.0
 10
66.5035559266294
 20
142.3813919281327
 30
0.0
 10
66.42030171226287
 20
142.2479032637818
 30
0.0
 10
66.39008238364238
 20
142.2020382078998
 30
0.0
 10
66.31799414850096
 20
142.1038466554949
 30
0.0
 10
66.27607683108988
 20
142.0515368359713
 30
0.0
 10
66.2048262265384
 20
141.9795309332368
 30
0.0
 10
66.1805904141591
 20
141.9577607209353
 30
0.0
 10
66.13499222397445
 20
141.9222860626062
 30
0.0
 10
66.11418973437473
 20
141.9089158784287
 30
0.0
 10
66.05924873595562
 20
141.8793459662934
 30
0.0
 10
66.03117974786879
 20
141.8722194439915
 30
0.0
 10
65.96067691780597
 20
141.8653450725088
 30
0.0
 10
65.92925283001509
 20
141.8796602315959
 30
0.0
 10
65.90292776230649
 20
141.8990170336065
 30
0.0
  0
SPLINE
  5
BE
330
1F
100
AcDbEntity
  8
0
  6
Continuous
 62
     7
370
    15
100
AcDbSpline
210
0.0
220
0.0
230
1.0
 70
     8
 71
     3
 72
    10
 73
     6
 74
     0
 42
0.00000001
 43
0.00000001
 40
0.0
 40
0.0
 40
0.0
 40
0.0
 40
0.4999999999999989
 40
0.4999999999999989
 40
1.0
 40
1.0
 40
1.0
 40
1.0
 10
67.26211353058848
 20
143.4688190827235
 30
0.0
 10
67.13722525983829
 20
143.337822804652
 30
0.0
 10
67.01577514177784
 20
143.194109967987
 30
0.0
 10
66.78619116682042
 20
142.8835396752978
 30
0.0
 10
66.67591619142443
 20
142.7154706022347
 30
0.0
 10
66.58866577229091
 20
142.5433999813817
 30
0.0
  0
SPLINE
  5
BF
330
1F
100
AcDbEntity
  8
0
  6
Continuous
 62
     7
370
    15
100
AcDbSpline
210
0.0
220
0.0
230
1.0
 70
     8
 71
     3
 72
     8
 73
     4
 74
     0
 42
0.00000001
 43
0.00000001
 40
0.0
 40
0.0
 40
0.0
 40
0.0
 40
1.0
 40
1.0
 40
1.0
 40
1.0
 10
67.51203864655422
 20
143.4663660494681
 30
0.0
 10
67.42502061670585
 20
143.4668326142552
 30
0.0
 10
67.34206659032591
 20
143.4678726338313
 30
0.0
 10
67.26211353058618
 20
143.4688190827236
 30
0.0
  0
SPLINE
  5
C0
330
1F
100
AcDbEntity
  8
0
  6
Continuous
 62
     7
370
    15
100
AcDbSpline
210
0.0
220
0.0
230
1.0
 70
     8
 71
     3
 72
     8
 73
     4
 74
     0
 42
0.00000001
 43
0.00000001
 40
0.0
 40
0.0
 40
0.0
 40
0.0
 40
1.0
 40
1.0
 40
1.0
 40
1.0
 10
67.26211353058618
 20
78.97224867908342
 30
0.0
 10
67.34206659032644
 20
78.9731951279757
 30
0.0
 10
67.42502061670693
 20
78.97423514755182
 30
0.0
 10
67.51203864655592
 20
78.97470171233888
 30
0.0
  0
SPLINE
  5
C1
330
1F
100
AcDbEntity
  8
0
  6
Continuous
 62
     7
370
    15
100
AcDbSpline
210
0.0
220
0.0
230
1.0
 70
     8
 71
     3
 72
    10
 73
     6
 74
     0
 42
0.00000001
 43
0.00000001
 40
0.0
 40
0.0
 40
0.0
 40
0.0
 40
0.4999999999999989
 40
0.4999999999999989
 40
1.0
 40
1.0
 40
1.0
 40
1.0
 10
66.58866577228997
 20
79.8976677804271
 30
0.0
 10
66.67591619142347
 20
79.72559715957372
 30
0.0
 10
66.7861911668196
 20
79.55752808651029
 30
0.0
 10
67.01577514177745
 20
79.24695779382048
 30
0.0
 10
67.13722525983809
 20
79.10324495715521
 30
0.0
 10
67.26211353058848
 20
78.9722486790835
 30
0.0
  0
SPLINE
  5
C2
330
1F
100
AcDbEntity
  8
0
  6
Continuous
 62
     7
370
    15
100
AcDbSpline
210
0.0
220
0.0
230
1.0
 70
     8
 71
     3
 72
     8
 73
     4
 74
     0
 42
0.00000001
 43
0.00000001
 40
0.0
 40
0.0
 40
0.0
 40
0.0
 40
1.0
 40
1.0
 40
1.0
 40
1.0
 10
138.7741425515099
 20
160.2103287365671
 30
0.0
 10
138.3231155827966
 20
159.4130181663792
 30
0.0
 10
137.872421766273
 20
158.615519866722
 30
0.0
 10
137.4221135305885
 20
157.8178047416084
 30
0.0
  0
LINE
  5
C3
330
1F
100
AcDbEntity
  8
0
  6
Continuous
 62
     7
370
    15
100
AcDbLine
 10
138.7741425515
 20
150.1714966418
 30
0.0
 11
138.7741425515
 21
160.2103287366
 31
0.0
  0
SPLINE
  5
C4
330
1F
100
AcDbEntity
  8
0
  6
Continuous
 62
     7
370
    15
100
AcDbSpline
210
0.0
220
0.0
230
1.0
 70
     8
 71
     3
 72
     8
 73
     4
 74
     0
 42
0.00000001
 43
0.00000001
 40
0.0
 40
0.0
 40
0.0
 40
0.0
 40
1.0
 40
1.0
 40
1.0
 40
1.0
 10
137.4221135305885
 20
147.1159813870413
 30
0.0
 10
137.866263541614
 20
148.137364617993
 30
0.0
 10
138.3173378518719
 20
149.1558491547613
 30
0.0
 10
138.7741425515099
 20
150.1714966417904
 30
0.0
  0
LINE
  5
C5
330
1F
100
AcDbEntity
  8
0
  6
Continuous
 62
     7
370
    15
100
AcDbLine
 10
137.4221135306
 20
147.115981387
 30
0.0
 11
137.4221135306
 21
157.8178047416
 31
0.0
  0
SPLINE
  5
C6
330
1F
100
AcDbEntity
  8
0
  6
Continuous
 62
     7
370
    15
100
AcDbSpline
210
0.0
220
0.0
230
1.0
 70
     8
 71
     3
 72
     8
 73
     4
 74
     0
 42
0.00000001
 43
0.00000001
 40
0.0
 40
0.0
 40
0.0
 40
0.0
 40
1.0
 40
1.0
 40
1.0
 40
1.0
 10
133.6021135305885
 20
157.8178047416084
 30
0.0
 10
133.1518052949039
 20
158.615519866722
 30
0.0
 10
132.7011114783803
 20
159.4130181663792
 30
0.0
 10
132.2500845096671
 20
160.2103287365671
 30
0.0
  0
LINE
  5
C7
330
1F
100
AcDbEntity
  8
0
  6
Continuous
 62
     7
370
    15
100
AcDbLine
 10
133.6021135306
 20
147.115981387
 30
0.0
 11
133.6021135306
 21
157.8178047416
 31
0.0
  0
SPLINE
  5
C8
330
1F
100
AcDbEntity
  8
0
  6
Continuous
 62
     7
370
    15
100
AcDbSpline
210
0.0
220
0.0
230
1.0
 70
     8
 71
     3
 72
     8
 73
     4
 74
     0
 42
0.00000001
 43
0.00000001
 40
0.0
 40
0.0
 40
0.0
 40
0.0
 40
1.0
 40
1.0
 40
1.0
 40
1.0
 10
132.2500845096671
 20
150.1714966417904
 30
0.0
 10
132.7070108634666
 20
149.1555786721161
 30
0.0
 10
133.1582165052696
 20
148.136782843025
 30
0.0
 10
133.6021135305885
 20
147.1159813870414
 30
0.0
  0
SPLINE
  5
C9
330
1F
100
AcDbEntity
  8
0
  6
Continuous
 62
     7
370
    15
100
AcDbSpline
210
0.0
220
0.0
230
1.0
 70
     8
 71
     3
 72
    10
 73
     6
 74
     0
 42
0.00000001
 43
0.00000001
 40
0.0
 40
0.0
 40
0.0
 40
0.0
 40
0.5
 40
0.5
 40
1.0
 40
1.0
 40
1.0
 40
1.0
 10
134.4021135305885
 20
156.094809641076
 30
0.0
 10
134.1895772167321
 20
156.094809641076
 30
0.0
 10
133.9796410450781
 20
156.1862222277061
 30
0.0
 10
133.6859339040668
 20
156.4909670936103
 30
0.0
 10
133.6021135305885
 20
156.7031220635189
 30
0.0
 10
133.6021135305885
 20
156.9140851217515
 30
0.0
  0
SPLINE
  5
CA
330
1F
100
AcDbEntity
  8
0
  6
Continuous
 62
     7
370
    15
100
AcDbSpline
210
0.0
220
0.0
230
1.0
 70
     8
 71
     3
 72
    14
 73
    10
 74
     0
 42
0.00000001
 43
0.00000001
 40
0.0
 40
0.0
 40
0.0
 40
0.0
 40
0.25
 40
0.25
 40
0.5
 40
0.5
 40
0.75
 40
0.75
 40
1.0
 40
1.0
 40
1.0
 40
1.0
 10
133.6021135305885
 20
145.9347690734006
 30
0.0
 10
133.6021135305885
 20
145.8109021966114
 30
0.0
 10
133.6179726582161
 20
145.6866425197738
 30
0.0
 10
133.681334303736
 20
145.449034157368
 30
0.0
 10
133.7299240117853
 20
145.3322537726155
 30
0.0
 10
133.8622096165602
 20
145.1234512440065
 30
0.0
 10
133.9475344078208
 20
145.0289405404139
 30
0.0
 10
134.1544256561269
 20
144.8909837396116
 30
0.0
 10
134.2783936020169
 20
144.8490652939759
 30
0.0
 10
134.4021135305885
 20
144.8490652939759
 30
0.0
  0
SPLINE
  5
CB
330
1F
100
AcDbEntity
  8
0
  6
Continuous
 62
     7
370
    15
100
AcDbSpline
210
0.0
220
0.0
230
1.0
 70
     8
 71
     3
 72
    14
 73
    10
 74
     0
 42
0.00000001
 43
0.00000001
 40
0.0
 40
0.0
 40
0.0
 40
0.0
 40
0.25
 40
0.25
 40
0.5
 40
0.5
 40
0.75
 40
0.75
 40
1.0
 40
1.0
 40
1.0
 40
1.0
 10
137.4221135305885
 20
156.9140851217515
 30
0.0
 10
137.4221135305885
 20
156.8077284279991
 30
0.0
 10
137.4017259744473
 20
156.701887940239
 30
0.0
 10
137.3230916289857
 20
156.5053230267026
 30
0.0
 10
137.2643602693471
 20
156.4141522844155
 30
0.0
 10
137.1177513637445
 20
156.2622411953838
 30
0.0
 10
137.028346043718
 20
156.2001723585643
 30
0.0
 10
136.8344553111177
 20
156.1169043108056
 30
0.0
 10
136.7279503212278
 20
156.0948096410759
 30
0.0
 10
136.6221135305885
 20
156.0948096410759
 30
0.0
  0
SPLINE
  5
CC
330
1F
100
AcDbEntity
  8
0
  6
Continuous
 62
     7
370
    15
100
AcDbSpline
210
0.0
220
0.0
230
1.0
 70
     8
 71
     3
 72
    12
 73
     8
 74
     0
 42
0.00000001
 43
0.00000001
 40
0.0
 40
0.0
 40
0.0
 40
0.0
 40
0.250000000000002
 40
0.250000000000002
 40
0.500000000000004
 40
0.500000000000004
 40
1.0
 40
1.0
 40
1.0
 40
1.0
 10
136.6221135305885
 20
144.849065293976
 30
0.0
 10
136.7458144805684
 20
144.849065293976
 30
0.0
 10
136.8699110928386
 20
144.8910589057085
 30
0.0
 10
137.0765662559257
 20
145.0288542323529
 30
0.0
 10
137.1616070226525
 20
145.1228278308178
 30
0.0
 10
137.3610855911261
 20
145.4376160370387
 30
0.0
 10
137.4221135305885
 20
145.6878550292663
 30
0.0
 10
137.4221135305885
 20
145.9347690734006
 30
0.0
  0
SPLINE
  5
CD
330
1F
100
AcDbEntity
  8
0
  6
Continuous
 62
     7
370
    15
100
AcDbSpline
210
0.0
220
0.0
230
1.0
 70
     8
 71
     3
 72
    12
 73
     8
 74
     0
 42
0.00000001
 43
0.00000001
 40
0.0
 40
0.0
 40
0.0
 40
0.0
 40
0.4999999999999953
 40
0.4999999999999953
 40
0.7499999999999977
 40
0.7499999999999977
 40
1.0
 40
1.0
 40
1.0
 40
1.0
 10
144.4621135305885
 20
159.1892737017494
 30
0.0
 10
144.4621135305885
 20
159.4545431345157
 30
0.0
 10
144.357506787102
 20
159.7170582401681
 30
0.0
 10
144.0808384353567
 20
160.0025958462054
 30
0.0
 10
143.9704731760047
 20
160.0789174630668
 30
0.0
 10
143.726401127389
 20
160.1832596279069
 30
0.0
 10
143.5946486660573
 20
160.2103287365671
 30
0.0
 10
143.4621135305885
 20
160.2103287365671
 30
0.0
  0
SPLINE
  5
CE
330
1F
100
AcDbEntity
  8
0
  6
Continuous
 62
     7
370
    15
100
AcDbSpline
210
0.0
220
0.0
230
1.0
 70
     8
 71
     3
 72
    16
 73
    12
 74
     0
 42
0.00000001
 43
0.00000001
 40
0.0
 40
0.0
 40
0.0
 40
0.0
 40
0.1249999999999978
 40
0.1249999999999978
 40
0.2499999999999955
 40
0.2499999999999955
 40
0.499999999999997
 40
0.499999999999997
 40
0.7499999999999984
 40
0.7499999999999984
 40
1.0
 40
1.0
 40
1.0
 40
1.0
 10
143.4621135305885
 20
150.1714966417904
 30
0.0
 10
143.5377512369997
 20
150.1714966417904
 30
0.0
 10
143.6140669014179
 20
150.1601516416555
 30
0.0
 10
143.7584776393098
 20
150.117499091017
 30
0.0
 10
143.8269240884183
 20
150.0865647663341
 30
0.0
 10
144.0218553410314
 20
149.9673083945665
 30
0.0
 10
144.1296965148123
 20
149.857156380946
 30
0.0
 10
144.2984092630244
 20
149.6090202952879
 30
0.0
 10
144.3607736757479
 20
149.4686779712842
 30
0.0
 10
144.4420776002562
 20
149.1804062797956
 30
0.0
 10
144.4621135305885
 20
149.0296013068157
 30
0.0
 10
144.4621135305885
 20
148.8792314154705
 30
0.0
  0
LINE
  5
CF
330
1F
100
AcDbEntity
  8
0
  6
Continuous
 62
     7
370
    15
100
AcDbLine
 10
144.4621135306
 20
148.8792314155
 30
0.0
 11
144.4621135306
 21
159.1892737017
 31
0.0
  0
LINE
  5
D0
330
1F
100
AcDbEntity
  8
0
  6
Continuous
 62
     7
370
    15
100
AcDbLine
 10
143.4621135306
 20
160.2103287366
 30
0.0
 11
138.7741425515
 21
160.2103287366
 31
0.0
  0
LINE
  5
D1
330
1F
100
AcDbEntity
  8
0
  6
Continuous
 62
     7
370
    15
100
AcDbLine
 10
138.7741425515
 20
150.1714966418
 30
0.0
 11
143.4621135306
 21
150.1714966418
 31
0.0
  0
LINE
  5
D2
330
1F
100
AcDbEntity
  8
0
  6
Continuous
 62
     7
370
    15
100
AcDbLine
 10
133.6021135306
 20
147.115981387
 30
0.0
 11
133.6021135306
 21
145.9347690734
 31
0.0
  0
LINE
  5
D3
330
1F
100
AcDbEntity
  8
0
  6
Continuous
 62
     7
370
    15
100
AcDbLine
 10
134.4021135306
 20
144.849065294
 30
0.0
 11
136.6221135306
 21
144.849065294
 31
0.0
  0
LINE
  5
D4
330
1F
100
AcDbEntity
  8
0
  6
Continuous
 62
     7
370
    15
100
AcDbLine
 10
137.4221135306
 20
145.9347690734
 30
0.0
 11
137.4221135306
 21
147.115981387
 31
0.0
  0
LINE
  5
D5
330
1F
100
AcDbEntity
  8
0
  6
Continuous
 62
     7
370
    15
100
AcDbLine
 10
144.4621135306
 20
148.8792314155
 30
0.0
 11
144.4621135306
 21
142.5705338809
 31
0.0
  0
LINE
  5
D6
330
1F
100
AcDbEntity
  8
0
  6
Continuous
 62
     7
370
    15
100
AcDbLine
 10
136.6221135306
 20
156.0948096411
 30
0.0
 11
134.4021135306
 21
156.0948096411
 31
0.0
  0
ARC
  5
D7
330
1F
100
AcDbEntity
  8
0
  6
Continuous
 62
     7
370
    15
100
AcDbCircle
 10
124.5121102282
 20
143.7335123623
 30
0.0
 40
11.50171094808873
100
AcDbArc
 50
77.9584181057
 51
102.04076569
  0
LINE
  5
D8
330
1F
100
AcDbEntity
  8
0
  6
Continuous
 62
     7
370
    15
100
AcDbLine
 10
67.2621135306
 20
78.9705338809
 30
0.0
 11
67.2621135306
 21
78.9722486791
 31
0.0
  0
LINE
  5
D9
330
1F
100
AcDbEntity
  8
0
  6
Continuous
 62
     7
370
    15
100
AcDbLine
 10
169.5121135306
 20
127.2205338809
 30
0.0
 11
169.5121135306
 21
95.2205339043
 31
0.0
  0
LINE
  5
DA
330
1F
100
AcDbEntity
  8
0
  6
Continuous
 62
     7
370
    15
100
AcDbLine
 10
67.2621135306
 20
143.4705338809
 30
0.0
 11
67.2621135306
 21
143.4688190827
 31
0.0
  0
LINE
  5
DB
330
1F
100
AcDbEntity
  8
0
  6
Continuous
 62
     7
370
    15
100
AcDbLine
 10
205.5121135306
 20
123.0205338809
 30
0.0
 11
205.5121135306
 21
117.1955338809
 31
0.0
  0
LINE
  5
DC
330
1F
100
AcDbEntity
  8
0
  6
Continuous
 62
     7
370
    15
100
AcDbLine
 10
205.5121135306
 20
117.1955338809
 30
0.0
 11
204.9621135306
 21
116.6455338809
 31
0.0
  0
LINE
  5
DD
330
1F
100
AcDbEntity
  8
0
  6
Continuous
 62
     7
370
    15
100
AcDbLine
 10
205.5121135306
 20
105.2455338809
 30
0.0
 11
205.5121135306
 21
99.4205338809
 31
0.0
  0
LINE
  5
DE
330
1F
100
AcDbEntity
  8
0
  6
Continuous
 62
     7
370
    15
100
AcDbLine
 10
204.9621135306
 20
105.7955338809
 30
0.0
 11
205.5121135306
 21
105.2455338809
 31
0.0
  0
LINE
  5
DF
330
1F
100
AcDbEntity
  8
0
  6
HIDDEN
 62
     7
370
     0
100
AcDbLine
 10
115.5121135306
 20
160.7205338744
 30
0.0
 11
115.5121135306
 21
61.7205338809
 31
0.0
  0
LINE
  5
E0
330
1F
100
AcDbEntity
  8
0
  6
HIDDEN
 62
     7
370
     0
100
AcDbLine
 10
120.4621135306
 20
61.2205338809
 30
0.0
 11
120.4621135306
 21
61.2305348811
 31
0.0
  0
SPLINE
  5
E1
330
1F
100
AcDbEntity
  8
0
  6
HIDDEN
 62
     7
370
     0
100
AcDbSpline
210
0.0
220
0.0
230
1.0
 70
     8
 71
     3
 72
    30
 73
    26
 74
     0
 42
0.00000001
 43
0.00000001
 40
0.0
 40
0.0
 40
0.0
 40
0.0
 40
0.1249999999999996
 40
0.1249999999999996
 40
0.1874999999999994
 40
0.1874999999999994
 40
0.2499999999999993
 40
0.2499999999999993
 40
0.3749999999999992
 40
0.3749999999999992
 40
0.4374999999999993
 40
0.4374999999999993
 40
0.4999999999999994
 40
0.4999999999999994
 40
0.6249999999999992
 40
0.6249999999999992
 40
0.6874999999999993
 40
0.6874999999999993
 40
0.7499999999999994
 40
0.7499999999999994
 40
0.8124999999999997
 40
0.8124999999999997
 40
0.8749999999999998
 40
0.8749999999999998
 40
1.0
 40
1.0
 40
1.0
 40
1.0
 10
120.4621135305885
 20
61.23053488110354
 30
0.0
 10
120.4621135305885
 20
61.24378958826647
 30
0.0
 10
120.527313783461
 20
61.26997445905104
 30
0.0
 10
120.7184615521675
 20
61.32676111185153
 30
0.0
 10
120.7978532063429
 20
61.34861066272703
 30
0.0
 10
120.9886417751137
 20
61.39784415882743
 30
0.0
 10
121.1004769116849
 20
61.42531654758096
 30
0.0
 10
121.476843188414
 20
61.51339026927427
 30
0.0
 10
121.7835970867013
 20
61.5801371252543
 30
0.0
 10
122.3267419406904
 20
61.68767353649905
 30
0.0
 10
122.5227223420467
 20
61.72493383000769
 30
0.0
 10
122.9388590511809
 20
61.80024124173902
 30
0.0
 10
123.1578373114746
 20
61.83808866675781
 30
0.0
 10
123.8466656171401
 20
61.95082097335455
 30
0.0
 10
124.3480900089039
 20
62.02492457843892
 30
0.0
 10
125.1660178198597
 20
62.12880375878908
 30
0.0
 10
125.4488122545072
 20
62.16205951184757
 30
0.0
 10
126.0243052295653
 20
62.22382277624818
 30
0.0
 10
126.3184018296927
 20
62.25251376779848
 30
0.0
 10
126.9192215995398
 20
62.30480550163944
 30
0.0
 10
127.2259444839011
 20
62.32840731254627
 30
0.0
 10
127.8523079646514
 20
62.36978728653614
 30
0.0
 10
128.1735316553742
 20
62.38762801318061
 30
0.0
 10
129.1444118152241
 20
62.43069161600327
 30
0.0
 10
129.7993591992351
 20
62.44554028787469
 30
0.0
 10
130.4621135305885
 20
62.44554028787471
 30
0.0
  0
LINE
  5
E2
330
1F
100
AcDbEntity
  8
0
  6
HIDDEN
 62
     7
370
     0
100
AcDbLine
 10
130.4621135306
 20
62.4455402879
 30
0.0
 11
132.2500845097
 21
62.4455402879
 31
0.0
  0
LINE
  5
E3
330
1F
100
AcDbEntity
  8
0
  6
HIDDEN
 62
     7
370
     0
100
AcDbLine
 10
132.2500845097
 20
160.2103287366
 30
0.0
 11
132.2500845097
 21
62.4455402879
 31
0.0
  0
LINE
  5
E4
330
1F
100
AcDbEntity
  8
0
  6
HIDDEN
 62
     7
370
     0
100
AcDbLine
 10
130.4621135306
 20
160.2103287366
 30
0.0
 11
132.2500845097
 21
160.2103287366
 31
0.0
  0
SPLINE
  5
E5
330
1F
100
AcDbEntity
  8
0
  6
HIDDEN
 62
     7
370
     0
100
AcDbSpline
210
0.0
220
0.0
230
1.0
 70
     8
 71
     3
 72
    17
 73
    13
 74
     0
 42
0.00000001
 43
0.00000001
 40
0.0
 40
0.0
 40
0.0
 40
0.0
 40
0.0675713835403045
 40
0.171257585940554
 40
0.2779172497219738
 40
0.3822981543720018
 40
0.4896051157883323
 40
0.5957700740380902
 40
0.7049969930015989
 40
0.8113234717900902
 40
0.9208377487614552
 40
1.0
 40
1.0
 40
1.0
 40
1.0
 10
120.496186363049
 20
161.2137334000034
 30
0.0
 10
120.4936537391093
 20
161.2142305534693
 30
0.0
 10
120.4872348819055
 20
161.2154905735836
 30
0.0
 10
120.7909944340369
 20
161.1551671727709
 30
0.0
 10
121.3545477970479
 20
161.048175773306
 30
0.0
 10
122.1858166296004
 20
160.9016283770738
 30
0.0
 10
123.2394475441342
 20
160.7354150525248
 30
0.0
 10
124.5125792297973
 20
160.5641369956002
 30
0.0
 10
125.9519744769426
 20
160.4095833796629
 30
0.0
 10
127.5377271441488
 20
160.2891356839987
 30
0.0
 10
129.0570452800034
 20
160.2209201067485
 30
0.0
 10
130.0468324944026
 20
160.2134591148827
 30
0.0
 10
130.4621135305885
 20
160.2103287365671
 30
0.0
  0
SPLINE
  5
E6
330
1F
100
AcDbEntity
  8
0
  6
HIDDEN
 62
     7
370
     0
100
AcDbSpline
210
0.0
220
0.0
230
1.0
 70
     8
 71
     3
 72
    80
 73
    76
 74
     0
 42
0.00000001
 43
0.00000001
 40
-0.0312500000000001
 40
-0.0312500000000001
 40
0.0
 40
0.0
 40
0.0312499999999999
 40
0.0312499999999999
 40
0.0468749999999998
 40
0.0468749999999998
 40
0.0624999999999998
 40
0.0624999999999998
 40
0.0937499999999996
 40
0.0937499999999996
 40
0.1249999999999995
 40
0.1249999999999995
 40
0.1562499999999993
 40
0.1562499999999993
 40
0.1874999999999992
 40
0.1874999999999992
 40
0.218749999999999
 40
0.218749999999999
 40
0.2499999999999988
 40
0.2499999999999988
 40
0.2812499999999987
 40
0.2812499999999987
 40
0.3124999999999985
 40
0.3124999999999985
 40
0.3281249999999984
 40
0.3281249999999984
 40
0.3437499999999984
 40
0.3437499999999984
 40
0.3749999999999983
 40
0.3749999999999983
 40
0.4062499999999983
 40
0.4062499999999983
 40
0.4218749999999983
 40
0.4218749999999983
 40
0.4374999999999983
 40
0.4374999999999983
 40
0.4687499999999983
 40
0.4687499999999983
 40
0.4999999999999984
 40
0.4999999999999984
 40
0.5312499999999986
 40
0.5312499999999986
 40
0.5624999999999987
 40
0.5624999999999987
 40
0.5937499999999987
 40
0.5937499999999987
 40
0.6249999999999987
 40
0.6249999999999987
 40
0.6562499999999987
 40
0.6562499999999987
 40
0.6874999999999987
 40
0.6874999999999987
 40
0.7031249999999987
 40
0.7031249999999987
 40
0.7187499999999988
 40
0.7187499999999988
 40
0.749999999999999
 40
0.749999999999999
 40
0.7812499999999992
 40
0.7812499999999992
 40
0.7968749999999992
 40
0.7968749999999992
 40
0.8124999999999993
 40
0.8124999999999993
 40
0.8437499999999994
 40
0.8437499999999994
 40
0.8749999999999996
 40
0.8749999999999996
 40
0.9062499999999997
 40
0.9062499999999997
 40
0.9374999999999998
 40
0.9374999999999998
 40
0.9687499999999999
 40
0.9687499999999999
 40
1.0
 40
1.0
 40
1.03125
 40
1.03125
 10
117.5121135305885
 20
111.5510790239635
 30
0.0
 10
117.5121135305885
 20
110.8899887378435
 30
0.0
 10
117.544568624769
 20
110.5650083357423
 30
0.0
 10
117.6399138790033
 20
110.0855340623942
 30
0.0
 10
117.6795307371571
 20
109.9270518832932
 30
0.0
 10
117.7747888329822
 20
109.6128315319097
 30
0.0
 10
117.8306849441261
 20
109.4567105964219
 30
0.0
 10
118.0189636048632
 20
109.0026546008116
 30
0.0
 10
118.1725539530458
 20
108.7155501398499
 30
0.0
 10
118.5353876438228
 20
108.1721946459244
 30
0.0
 10
118.7464418659506
 20
107.9150905263051
 30
0.0
 10
119.2074421562254
 20
107.4541847250524
 30
0.0
 10
119.4590204585463
 20
107.2472880503239
 30
0.0
 10
120.0054928609409
 20
106.8817653280459
 30
0.0
 10
120.2962111530215
 20
106.726560819374
 30
0.0
 10
120.8977543000036
 20
106.4771319899306
 30
0.0
 10
121.213029145765
 20
106.3810425357558
 30
0.0
 10
121.8585288128839
 20
106.2525238431284
 30
0.0
 10
122.1830772789674
 20
106.2207130103366
 30
0.0
 10
122.8356830123678
 20
106.2203562457491
 30
0.0
 10
123.1671520388795
 20
106.2528533692631
 30
0.0
 10
123.8085663028777
 20
106.380478579329
 30
0.0
 10
124.120340718329
 20
106.4749066763595
 30
0.0
 10
124.5745391902547
 20
106.6627665040703
 30
0.0
 10
124.7244203160469
 20
106.7335940283024
 30
0.0
 10
125.0138744859072
 20
106.8883147409836
 30
0.0
 10
125.1538823183597
 20
106.9722906097711
 30
0.0
 10
125.5600883274465
 20
107.2436126454784
 30
0.0
 10
125.8126052185927
 20
107.4501609989289
 30
0.0
 10
126.2796204577342
 20
107.9167710859039
 30
0.0
 10
126.4864042965638
 20
108.1691357058036
 30
0.0
 10
126.7580357891425
 20
108.5750379627068
 30
0.0
 10
126.8421144981055
 20
108.7149390667084
 30
0.0
 10
126.9970460336809
 20
109.0041642830419
 30
0.0
 10
127.0680228215165
 20
109.1540044207781
 30
0.0
 10
127.2563252053344
 20
109.6081228005252
 30
0.0
 10
127.3510031526587
 20
109.9197752777839
 30
0.0
 10
127.479159147098
 20
110.5607736504539
 30
0.0
 10
127.5119932486997
 20
110.8923009636986
 30
0.0
 10
127.5122331372644
 20
111.5450919842571
 30
0.0
 10
127.4807004237666
 20
111.869628617261
 30
0.0
 10
127.352856938104
 20
112.5148997312039
 30
0.0
 10
127.2569645237906
 20
112.8306429898502
 30
0.0
 10
127.0080136946023
 20
113.432533882175
 30
0.0
 10
126.8531216131311
 20
113.7232836576425
 30
0.0
 10
126.4879979593086
 20
114.2701978996323
 30
0.0
 10
126.2812935477814
 20
114.5219755030393
 30
0.0
 10
125.8207924501378
 20
114.9833624172185
 30
0.0
 10
125.5638798324885
 20
115.1946304529292
 30
0.0
 10
125.0208366480024
 20
115.5579328071439
 30
0.0
 10
124.733912414408
 20
115.7117383652992
 30
0.0
 10
124.2801876572618
 20
115.9003566214341
 30
0.0
 10
124.1241516394683
 20
115.9563867915967
 30
0.0
 10
123.8099154876542
 20
116.0519601440725
 30
0.0
 10
123.6514429518159
 20
116.091722912492
 30
0.0
 10
123.1720528893099
 20
116.1874943688661
 30
0.0
 10
122.8472015959494
 20
116.2202172182841
 30
0.0
 10
122.1865431765461
 20
116.2208460141805
 30
0.0
 10
121.8610159424288
 20
116.1886598390396
 30
0.0
 10
121.3814847947407
 20
116.0937494069169
 30
0.0
 10
121.2230048402506
 20
116.0542827652229
 30
0.0
 10
120.9088291717712
 20
115.9593532229902
 30
0.0
 10
120.7526277880815
 20
115.9035967240991
 30
0.0
 10
120.2982182985471
 20
115.7156577487365
 30
0.0
 10
120.0109613503313
 20
115.5622972812615
 30
0.0
 10
119.4674059374587
 20
115.2000347699386
 30
0.0
 10
119.2100649438469
 20
114.9891875396337
 30
0.0
 10
118.7486696819188
 20
114.5285190178974
 30
0.0
 10
118.5415845526065
 20
114.2771446076959
 30
0.0
 10
118.1757151692774
 20
113.7312347297018
 30
0.0
 10
118.0201023325223
 20
113.4404111236415
 30
0.0
 10
117.7701391009782
 20
112.8390820220783
 30
0.0
 10
117.6739103005675
 20
112.5245617396459
 30
0.0
 10
117.5445724744448
 20
111.8779797014006
 30
0.0
 10
117.5121135305885
 20
111.5510790239635
 30
0.0
 10
117.5121135305885
 20
110.8899887378435
 30
0.0
  0
SPLINE
  5
E7
330
1F
100
AcDbEntity
  8
0
  6
HIDDEN
 62
     7
370
     0
100
AcDbSpline
210
0.0
220
0.0
230
1.0
 70
     8
 71
     3
 72
    80
 73
    76
 74
     0
 42
0.00000001
 43
0.00000001
 40
-0.0312500000000003
 40
-0.0312500000000003
 40
0.0
 40
0.0
 40
0.03125
 40
0.03125
 40
0.046875
 40
0.046875
 40
0.0624999999999999
 40
0.0624999999999999
 40
0.0937499999999998
 40
0.0937499999999998
 40
0.1249999999999996
 40
0.1249999999999996
 40
0.1562499999999995
 40
0.1562499999999995
 40
0.1874999999999994
 40
0.1874999999999994
 40
0.2187499999999993
 40
0.2187499999999993
 40
0.2499999999999992
 40
0.2499999999999992
 40
0.2812499999999991
 40
0.2812499999999991
 40
0.3124999999999989
 40
0.3124999999999989
 40
0.3281249999999988
 40
0.3281249999999988
 40
0.3437499999999986
 40
0.3437499999999986
 40
0.3749999999999983
 40
0.3749999999999983
 40
0.4062499999999981
 40
0.4062499999999981
 40
0.4218749999999979
 40
0.4218749999999979
 40
0.4374999999999978
 40
0.4374999999999978
 40
0.4687499999999977
 40
0.4687499999999977
 40
0.4999999999999975
 40
0.4999999999999975
 40
0.5312499999999972
 40
0.5312499999999972
 40
0.562499999999997
 40
0.562499999999997
 40
0.5937499999999968
 40
0.5937499999999968
 40
0.6249999999999966
 40
0.6249999999999966
 40
0.6562499999999964
 40
0.6562499999999964
 40
0.6874999999999962
 40
0.6874999999999962
 40
0.7031249999999962
 40
0.7031249999999962
 40
0.7187499999999963
 40
0.7187499999999963
 40
0.7499999999999968
 40
0.7499999999999968
 40
0.7812499999999972
 40
0.7812499999999972
 40
0.7968749999999976
 40
0.7968749999999976
 40
0.8124999999999978
 40
0.8124999999999978
 40
0.8437499999999981
 40
0.8437499999999981
 40
0.8749999999999984
 40
0.8749999999999984
 40
0.9062499999999989
 40
0.9062499999999989
 40
0.9374999999999992
 40
0.9374999999999992
 40
0.9687499999999997
 40
0.9687499999999997
 40
1.0
 40
1.0
 40
1.03125
 40
1.03125
 10
124.8426588433648
 20
160.0800831373815
 30
0.0
 10
124.1815682178122
 20
160.0800831373815
 30
0.0
 10
123.8565880885606
 20
160.0731849915547
 30
0.0
 10
123.3771146773141
 20
160.0526585635741
 30
0.0
 10
123.2186328594733
 20
160.0441023364866
 30
0.0
 10
122.904413326969
 20
160.023375961269
 30
0.0
 10
122.7482930432886
 20
160.0111486610626
 30
0.0
 10
122.2942390143321
 20
159.9695793672334
 30
0.0
 10
122.0071356313922
 20
159.9352350821356
 30
0.0
 10
121.4637810753652
 20
159.8519109578133
 30
0.0
 10
121.2066774641596
 20
159.8024727350388
 30
0.0
 10
120.7457712092208
 20
159.6910930052789
 30
0.0
 10
120.5388735000059
 20
159.6287984917667
 30
0.0
 10
120.1733481860137
 20
159.4888688488957
 30
0.0
 10
120.0181426638877
 20
159.4122529511467
 30
0.0
 10
119.768712277288
 20
159.248294331291
 30
0.0
 10
119.6726223215028
 20
159.1597374771952
 30
0.0
 10
119.5441034723093
 20
158.9722567950895
 30
0.0
 10
119.5122926021315
 20
158.875020333635
 30
0.0
 10
119.5119359523582
 20
158.6733876943079
 30
0.0
 10
119.5444332045553
 20
158.5678389024698
 30
0.0
 10
119.6720586782698
 20
158.3577241197813
 30
0.0
 10
119.7664870793217
 20
158.2526586118124
 30
0.0
 10
119.9543478993072
 20
158.0957809045613
 30
0.0
 10
120.0251758981104
 20
158.0433471708556
 30
0.0
 10
120.1798977900757
 20
157.9409087252258
 30
0.0
 10
120.2638742602591
 20
157.890760996574
 30
0.0
 10
120.5351979299035
 20
157.7437450401405
 30
0.0
 10
120.7417471485058
 20
157.650257219706
 30
0.0
 10
121.2083572886949
 20
157.4744703620917
 30
0.0
 10
121.4607228583203
 20
157.395091887008
 30
0.0
 10
121.8666241999991
 20
157.2896094495139
 30
0.0
 10
122.0065248174765
 20
157.2567238846738
 30
0.0
 10
122.2957487527235
 20
157.1958084054451
 30
0.0
 10
122.4455882090127
 20
157.1677278338027
 30
0.0
 10
122.8997047786235
 20
157.0929257917599
 30
0.0
 10
123.2113559973604
 20
157.0548877335138
 30
0.0
 10
123.8523524622727
 20
157.0032758069897
 30
0.0
 10
124.1838800902249
 20
156.9899618734682
 30
0.0
 10
124.8366711352964
 20
156.9898647871401
 30
0.0
 10
125.1612073403282
 20
157.0026528723011
 30
0.0
 10
125.8064767897446
 20
157.0541430618971
 30
0.0
 10
126.1222197959073
 20
157.0926676412172
 30
0.0
 10
126.724109090891
 20
157.1915702040752
 30
0.0
 10
127.0148583217025
 20
157.2526743020002
 30
0.0
 10
127.561770113387
 20
157.3944837351109
 30
0.0
 10
127.8135474772239
 20
157.4738182196901
 30
0.0
 10
128.274935469845
 20
157.6471969643516
 30
0.0
 10
128.4862047494431
 20
157.7423569091056
 30
0.0
 10
128.8495091018193
 20
157.9389294324815
 30
0.0
 10
129.0033157502621
 20
158.0406856608879
 30
0.0
 10
129.1919352198595
 20
158.1974716236734
 30
0.0
 10
129.2479657060686
 20
158.2507256574234
 30
0.0
 10
129.3435394678048
 20
158.3565302189762
 30
0.0
 10
129.3833023848298
 20
158.4091832833317
 30
0.0
 10
129.4790741351419
 20
158.5662570027909
 30
0.0
 10
129.511796974268
 20
158.669782038118
 30
0.0
 10
129.5124255605971
 20
158.8739967723451
 30
0.0
 10
129.4802394158623
 20
158.9715006099298
 30
0.0
 10
129.3853287140068
 20
159.1108276602815
 30
0.0
 10
129.3458619306078
 20
159.156144391786
 30
0.0
 10
129.250931931887
 20
159.2445842127748
 30
0.0
 10
129.1951751041236
 20
159.2878384632347
 30
0.0
 10
129.0072349861537
 20
159.4117299378247
 30
0.0
 10
128.8538735164375
 20
159.4874322285988
 30
0.0
 10
128.4916092815571
 20
159.626686600057
 30
0.0
 10
128.2807608080912
 20
159.6904484415857
 30
0.0
 10
127.8200908377723
 20
159.8019452810536
 30
0.0
 10
127.5687164581885
 20
159.8504713533702
 30
0.0
 10
127.0228085712904
 20
159.9345253367507
 30
0.0
 10
126.7319859966392
 20
159.9693238904173
 30
0.0
 10
126.1306593818591
 20
160.0245203551812
 30
0.0
 10
125.8161407972467
 20
160.0453382039351
 30
0.0
 10
125.1695593411268
 20
160.0731855368458
 30
0.0
 10
124.8426588433648
 20
160.0800831373815
 30
0.0
 10
124.1815682178122
 20
160.0800831373815
 30
0.0
  0
LINE
  5
E8
330
1F
100
AcDbEntity
  8
0
  6
HIDDEN
 62
     7
370
     0
100
AcDbLine
 10
133.6021135306
 20
65.7573550985
 30
0.0
 11
133.6021135306
 21
142.5705338809
 31
0.0
  0
LINE
  5
E9
330
1F
100
AcDbEntity
  8
0
  6
HIDDEN
 62
     7
370
     0
100
AcDbLine
 10
137.4221135306
 20
65.7573550985
 30
0.0
 11
137.4221135306
 21
142.5705338809
 31
0.0
  0
LINE
  5
EA
330
1F
100
AcDbEntity
  8
0
  6
HIDDEN
 62
     7
370
     0
100
AcDbLine
 10
120.4621135306
 20
142.5705338809
 30
0.0
 11
130.1700803788
 21
142.5705338809
 31
0.0
  0
LINE
  5
EB
330
1F
100
AcDbEntity
  8
0
  6
HIDDEN
 62
     7
370
     0
100
AcDbLine
 10
115.5121135306
 20
71.8158509243
 30
0.0
 11
115.5121135306
 21
150.6252168375
 31
0.0
  0
LWPOLYLINE
  5
EC
330
1F
100
AcDbEntity
  8
0
  6
HIDDEN
 62
     7
370
     0
100
AcDbPolyline
 90
        2
 70
   128
 43
0.0
 10
137.4221135306
 20
142.5705338809
 10
137.4221135306
 20
142.5705338809
  0
LWPOLYLINE
  5
ED
330
1F
100
AcDbEntity
  8
0
  6
HIDDEN
 62
     7
370
     0
100
AcDbPolyline
 90
        2
 70
   128
 43
0.0
 10
133.6021135306
 20
142.5705338809
 10
133.6021135306
 20
142.5705338809
  0
LWPOLYLINE
  5
EE
330
1F
100
AcDbEntity
  8
0
  6
HIDDEN
 62
     7
370
     0
100
AcDbPolyline
 90
        2
 70
   128
 43
0.0
 10
144.4621135306
 20
142.5705338809
 10
144.4621135306
 20
142.5705338809
  0
SPLINE
  5
EF
330
1F
100
AcDbEntity
  8
0
  6
HIDDEN
 62
     7
370
     0
100
AcDbSpline
210
0.0
220
0.0
230
1.0
 70
     8
 71
     3
 72
     8
 73
     4
 74
     0
 42
0.00000001
 43
0.00000001
 40
0.0
 40
0.0
 40
0.0
 40
0.0
 40
1.0
 40
1.0
 40
1.0
 40
1.0
 10
75.26747314250768
 20
79.2648338914683
 30
0.0
 10
76.4327714532165
 20
79.4200213633549
 30
0.0
 10
77.61738666725626
 20
79.5563800016652
 30
0.0
 10
78.81211353058829
 20
79.68288247626006
 30
0.0
  0
SPLINE
  5
F0
330
1F
100
AcDbEntity
  8
0
  6
HIDDEN
 62
     7
370
     0
100
AcDbSpline
210
0.0
220
0.0
230
1.0
 70
     8
 71
     3
 72
    14
 73
    10
 74
     0
 42
0.00000001
 43
0.00000001
 40
0.0
 40
0.0
 40
0.0
 40
0.0
 40
0.1249999999999987
 40
0.1249999999999987
 40
0.2499999999999973
 40
0.2499999999999973
 40
0.4999999999999947
 40
0.4999999999999947
 40
1.0
 40
1.0
 40
1.0
 40
1.0
 10
78.81211353058839
 20
79.68288247626009
 30
0.0
 10
78.87969583037288
 20
79.69003836136149
 30
0.0
 10
78.95218340812079
 20
79.68561389132248
 30
0.0
 10
79.08447451738674
 20
79.65590773355216
 30
0.0
 10
79.14175189677691
 20
79.6326234519739
 30
0.0
 10
79.29140232397722
 20
79.5551382121236
 30
0.0
 10
79.36511561949874
 20
79.4932863852222
 30
0.0
 10
79.552923602825
 20
79.30860893257389
 30
0.0
 10
79.63696390918645
 20
79.18036600928268
 30
0.0
 10
79.70769105925274
 20
79.05405253716008
 30
0.0
  0
SPLINE
  5
F1
330
1F
100
AcDbEntity
  8
0
  6
HIDDEN
 62
     7
370
     0
100
AcDbSpline
210
0.0
220
0.0
230
1.0
 70
     8
 71
     3
 72
    14
 73
    10
 74
     0
 42
0.00000001
 43
0.00000001
 40
0.0
 40
0.0
 40
0.0
 40
0.0
 40
0.25
 40
0.25
 40
0.5
 40
0.5
 40
0.75
 40
0.75
 40
1.0
 40
1.0
 40
1.0
 40
1.0
 10
79.70769105925152
 20
79.05405253715998
 30
0.0
 10
79.79645963719683
 20
78.89551840585202
 30
0.0
 10
79.91817747587575
 20
78.74307572896348
 30
0.0
 10
80.15322708573258
 20
78.44594110513455
 30
0.0
 10
80.26885727194947
 20
78.30125846151718
 30
0.0
 10
80.46926220537729
 20
78.01796925901378
 30
0.0
 10
80.55466249736162
 20
77.87941526597692
 30
0.0
 10
80.67636813107885
 20
77.6080312359434
 30
0.0
 10
80.7121135305915
 20
77.47589536730877
 30
0.0
 10
80.71211353059148
 20
77.351200615538
 30
0.0
  0
LINE
  5
F2
330
1F
100
AcDbEntity
  8
0
  6
HIDDEN
 62
     7
370
     0
100
AcDbLine
 10
80.7121135306
 20
77.3512006155
 30
0.0
 11
80.7121135306
 21
74.9565188508
 31
0.0
  0
LINE
  5
F3
330
1F
100
AcDbEntity
  8
0
  6
HIDDEN
 62
     7
370
     0
100
AcDbLine
 10
75.7121135306
 20
147.234047909
 30
0.0
 11
75.7121135306
 21
144.9651426179
 31
0.0
  0
SPLINE
  5
F4
330
1F
100
AcDbEntity
  8
0
  6
HIDDEN
 62
     7
370
     0
100
AcDbSpline
210
0.0
220
0.0
230
1.0
 70
     8
 71
     3
 72
    20
 73
    16
 74
     0
 42
0.00000001
 43
0.00000001
 40
0.0
 40
0.0
 40
0.0
 40
0.0
 40
0.2499999999999997
 40
0.2499999999999997
 40
0.4999999999999994
 40
0.4999999999999994
 40
0.7499999999999991
 40
0.7499999999999991
 40
0.8750000000000007
 40
0.8750000000000007
 40
0.9375000000000008
 40
0.9375000000000008
 40
0.9687500000000003
 40
0.9687500000000003
 40
1.0
 40
1.0
 40
1.0
 40
1.0
 10
75.71211353058847
 20
144.9651426178881
 30
0.0
 10
75.71211353058845
 20
144.8294602981413
 30
0.0
 10
75.66340174137184
 20
144.6883733120012
 30
0.0
 10
75.49424031814667
 20
144.3963015932707
 30
0.0
 10
75.37245990422834
 20
144.2446528511803
 30
0.0
 10
75.07491280947883
 20
143.9422444110272
 30
0.0
 10
74.90100020377605
 20
143.7896557749038
 30
0.0
 10
74.58158536989423
 20
143.5643850110615
 30
0.0
 10
74.46654459444699
 20
143.4896619165509
 30
0.0
 10
74.25946027043057
 20
143.3902515072938
 30
0.0
 10
74.18335243562419
 20
143.3586864149493
 30
0.0
 10
74.05195789607083
 20
143.3242430307563
 30
0.0
 10
74.00540467706936
 20
143.3151914589887
 30
0.0
 10
73.90907132598868
 20
143.3050158101502
 30
0.0
 10
73.85981190263321
 20
143.3040660514752
 30
0.0
 10
73.81211353058647
 20
143.3070567723898
 30
0.0
  0
SPLINE
  5
F5
330
1F
100
AcDbEntity
  8
0
  6
HIDDEN
 62
     7
370
     0
100
AcDbSpline
210
0.0
220
0.0
230
1.0
 70
     8
 71
     3
 72
    12
 73
     8
 74
     0
 42
0.00000001
 43
0.00000001
 40
0.0
 40
0.0
 40
0.0
 40
0.0
 40
0.2500000000000009
 40
0.2500000000000009
 40
0.5000000000000018
 40
0.5000000000000018
 40
1.0
 40
1.0
 40
1.0
 40
1.0
 10
73.81211353058848
 20
143.3070567723999
 30
0.0
 10
73.29341470876028
 20
143.3395795472481
 30
0.0
 10
72.77170313555528
 20
143.3628762884186
 30
0.0
 10
71.72541111905973
 20
143.4007218028407
 30
0.0
 10
71.20073949338945
 20
143.4149902773369
 30
0.0
 10
69.62389347085023
 20
143.4491997647952
 30
0.0
 10
68.5689381563033
 20
143.4606992687391
 30
0.0
 10
67.51203864655808
 20
143.4663660494686
 30
0.0
  0
SPLINE
  5
F6
330
1F
100
AcDbEntity
  8
0
  6
HIDDEN
 62
     7
370
     0
100
AcDbSpline
210
0.0
220
0.0
230
1.0
 70
     8
 71
     3
 72
    14
 73
    10
 74
     0
 42
0.00000001
 43
0.00000001
 40
0.0
 40
0.0
 40
0.0
 40
0.0
 40
0.4999999999999986
 40
0.4999999999999986
 40
0.7499999999999978
 40
0.7499999999999978
 40
0.8749999999999989
 40
0.8749999999999989
 40
1.0
 40
1.0
 40
1.0
 40
1.0
 10
67.51203864655977
 20
78.97470171233837
 30
0.0
 10
68.82034020909353
 20
78.9817164360795
 30
0.0
 10
70.12539958375034
 20
78.997125012524
 30
0.0
 10
72.07127563523865
 20
79.05102156799065
 30
0.0
 10
72.71797313897765
 20
79.07405313259336
 30
0.0
 10
73.68181550283201
 20
79.12499565746411
 30
0.0
 10
74.00205419476607
 20
79.14473057969731
 30
0.0
 10
74.63874942110849
 20
79.19421770816886
 30
0.0
 10
74.9554648293914
 20
79.2232824870981
 30
0.0
 10
75.26747314250773
 20
79.26483389146827
 30
0.0
  0
LINE
  5
F7
330
1F
100
AcDbEntity
  8
0
  6
HIDDEN
 62
     7
370
     0
100
AcDbLine
 10
113.0121135306
 20
149.1027853839
 30
0.0
 11
113.0121135306
 21
73.3382823779
 31
0.0
  0
SPLINE
  5
F8
330
1F
100
AcDbEntity
  8
0
  6
HIDDEN
 62
     7
370
     0
100
AcDbSpline
210
0.0
220
0.0
230
1.0
 70
     8
 71
     3
 72
    12
 73
     8
 74
     0
 42
0.00000001
 43
0.00000001
 40
0.0
 40
0.0
 40
0.0
 40
0.0
 40
0.0839235972206062
 40
0.2482590032409733
 40
0.4996930663134925
 40
0.7517604277922931
 40
1.0
 40
1.0
 40
1.0
 40
1.0
 10
95.92553828001581
 20
74.48472751862936
 30
0.0
 10
95.83628213433778
 20
74.47676595387787
 30
0.0
 10
95.57224862656385
 20
74.4532144118217
 30
0.0
 10
95.00227992466641
 20
74.40508084183236
 30
0.0
 10
94.50105136086755
 20
74.34568248009462
 30
0.0
 10
94.10208390687741
 20
74.29853966437841
 30
0.0
 10
94.0552884898411
 20
74.29235653438775
 30
0.0
 10
94.0320697944279
 20
74.28928862259113
 30
0.0
  0
SPLINE
  5
F9
330
1F
100
AcDbEntity
  8
0
  6
HIDDEN
 62
     7
370
     0
100
AcDbSpline
210
0.0
220
0.0
230
1.0
 70
     8
 71
     3
 72
    20
 73
    16
 74
     0
 42
0.00000001
 43
0.00000001
 40
0.0
 40
0.0
 40
0.0
 40
0.0
 40
0.0004183574979395
 40
0.0837682350829537
 40
0.1682468091625338
 40
0.2524475490810403
 40
0.335632074489995
 40
0.4186123924902007
 40
0.5021246713316226
 40
0.5856818093394092
 40
0.6679084328578928
 40
0.7502172156799358
 40
0.8336315884330394
 40
0.9171894590285659
 40
1.0
 40
1.0
 40
1.0
 40
1.0
 10
106.9442030042911
 20
73.64239299951178
 30
0.0
 10
106.9444086245513
 20
73.64234701736075
 30
0.0
 10
106.9855802215326
 20
73.63313995484329
 30
0.0
 10
106.8397564462163
 20
73.66586760929825
 30
0.0
 10
106.4853830678168
 20
73.74286942666485
 30
0.0
 10
105.8834112622041
 20
73.86987698351052
 30
0.0
 10
105.0808244525307
 20
74.02215764014909
 30
0.0
 10
104.102165668752
 20
74.18402154141654
 30
0.0
 10
102.9786732775418
 20
74.33607430672251
 30
0.0
 10
101.7637990986916
 20
74.46368788524744
 30
0.0
 10
100.4991828828148
 20
74.55138034921642
 30
0.0
 10
99.23113813731408
 20
74.59365112591276
 30
0.0
 10
98.01196637349206
 20
74.58952085710064
 30
0.0
 10
96.87034168542591
 20
74.55118840165665
 30
0.0
 10
96.23952820700056
 20
74.50681470384652
 30
0.0
 10
95.92553828001581
 20
74.48472751862937
 30
0.0
  0
SPLINE
  5
FA
330
1F
100
AcDbEntity
  8
0
  6
HIDDEN
 62
     7
370
     0
100
AcDbSpline
210
0.0
220
0.0
230
1.0
 70
     8
 71
     3
 72
    20
 73
    16
 74
     0
 42
0.00000001
 43
0.00000001
 40
0.0
 40
0.0
 40
0.0
 40
0.0
 40
0.0828827642345758
 40
0.1664508420281813
 40
0.2499279906541592
 40
0.332367224719036
 40
0.4145715539045698
 40
0.4982798010780777
 40
0.5816916838216248
 40
0.6646901799535231
 40
0.7477267886327897
 40
0.8318096998609676
 40
0.9161489651157791
 40
0.9994284456270257
 40
0.9999999999999999
 40
0.9999999999999999
 40
0.9999999999999999
 40
0.9999999999999999
 10
95.92544706805944
 20
147.9563241752946
 30
0.0
 10
96.24016431085585
 20
147.9343137265061
 30
0.0
 10
96.87220102618531
 20
147.8901108362176
 30
0.0
 10
98.01443283449777
 20
147.8518001898258
 30
0.0
 10
99.23460593775656
 20
147.8476867668884
 30
0.0
 10
100.5034458846276
 20
147.8898543651841
 30
0.0
 10
101.7694613715463
 20
147.9776635634913
 30
0.0
 10
102.9840034225867
 20
148.1055560006378
 30
0.0
 10
104.1068961810127
 20
148.2577892582131
 30
0.0
 10
105.084038644857
 20
148.4194836505424
 30
0.0
 10
105.8856708437032
 20
148.5715256414514
 30
0.0
 10
106.4866238344678
 20
148.6982793521099
 30
0.0
 10
106.8403057230185
 20
148.7751950905631
 30
0.0
 10
106.9860798222025
 20
148.8079192775718
 30
0.0
 10
106.9443660079656
 20
148.798692635963
 30
0.0
 10
106.944081673813
 20
148.7986297443437
 30
0.0
  0
SPLINE
  5
FB
330
1F
100
AcDbEntity
  8
0
  6
HIDDEN
 62
     7
370
     0
100
AcDbSpline
210
0.0
220
0.0
230
1.0
 70
     8
 71
     3
 72
    13
 73
     9
 74
     0
 42
0.00000001
 43
0.00000001
 40
0.0
 40
0.0
 40
0.0
 40
0.0
 40
0.1247122447407212
 40
0.2490589432165421
 40
0.3740779474703908
 40
0.5009711379560823
 40
0.7521757810472769
 40
1.0
 40
1.0
 40
1.0
 40
1.0
 10
94.03141854837315
 20
148.151839975154
 30
0.0
 10
94.03720514193624
 20
148.1510637284725
 30
0.0
 10
94.04876136787571
 20
148.1495135103798
 30
0.0
 10
94.14577173746599
 20
148.1372972317623
 30
0.0
 10
94.3010663033155
 20
148.1183704124529
 30
0.0
 10
94.5912533345121
 20
148.0843972551227
 30
0.0
 10
95.07878126273638
 20
148.0278708548883
 30
0.0
 10
95.64450253257174
 20
147.9800651230662
 30
0.0
 10
95.92544706805944
 20
147.9563241752946
 30
0.0
  0
LINE
  5
FC
330
1F
100
AcDbEntity
  8
0
  6
HIDDEN
 62
     7
370
     0
100
AcDbLine
 10
65.6784863152
 20
141.8677283723
 30
0.0
 11
65.6357471995
 21
141.8307831245
 31
0.0
  0
SPLINE
  5
FD
330
1F
100
AcDbEntity
  8
0
  6
HIDDEN
 62
     7
370
     0
100
AcDbSpline
210
0.0
220
0.0
230
1.0
 70
    11
 71
     3
 72
    66
 73
    62
 74
     0
 42
0.00000001
 43
0.00000001
 40
0.0
 40
0.0
 40
0.0
 40
0.0
 40
0.0625000000000002
 40
0.0625000000000002
 40
0.1250000000000004
 40
0.1250000000000004
 40
0.1562500000000005
 40
0.1562500000000005
 40
0.1875000000000005
 40
0.1875000000000005
 40
0.2187500000000006
 40
0.2187500000000006
 40
0.2500000000000006
 40
0.2500000000000006
 40
0.2812500000000007
 40
0.2812500000000007
 40
0.3125000000000007
 40
0.3125000000000007
 40
0.3437500000000008
 40
0.3437500000000008
 40
0.3750000000000008
 40
0.3750000000000008
 40
0.4062500000000008
 40
0.4062500000000008
 40
0.4375000000000009
 40
0.4375000000000009
 40
0.4687500000000009
 40
0.4687500000000009
 40
0.500000000000001
 40
0.500000000000001
 40
0.531250000000001
 40
0.531250000000001
 40
0.562500000000001
 40
0.562500000000001
 40
0.593750000000001
 40
0.593750000000001
 40
0.625000000000001
 40
0.625000000000001
 40
0.656250000000001
 40
0.656250000000001
 40
0.687500000000001
 40
0.687500000000001
 40
0.718750000000001
 40
0.718750000000001
 40
0.7500000000000009
 40
0.7500000000000009
 40
0.7812500000000009
 40
0.7812500000000009
 40
0.8125000000000008
 40
0.8125000000000008
 40
0.8437500000000007
 40
0.8437500000000007
 40
0.8750000000000006
 40
0.8750000000000006
 40
0.9062500000000004
 40
0.9062500000000004
 40
0.9375000000000003
 40
0.9375000000000003
 40
0.9687500000000002
 40
0.9687500000000002
 40
1.0
 40
1.0
 40
1.0
 40
1.0
 10
105.7653191857795
 20
79.85421166015644
 30
0.0
 10
105.444032481303
 20
79.9080204912019
 30
0.0
 10
105.0379533574111
 20
79.97159010574266
 30
0.0
 10
104.0565866881325
 20
80.09857136422313
 30
0.0
 10
103.5046224321053
 20
80.15871520293965
 30
0.0
 10
102.5913211782878
 20
80.22890643159853
 30
0.0
 10
102.2768941492976
 20
80.24856197406025
 30
0.0
 10
101.6393094433309
 20
80.2783432055195
 30
0.0
 10
101.3144823302607
 20
80.28860529627268
 30
0.0
 10
100.6523186623968
 20
80.29869584121057
 30
0.0
 10
100.3189661661142
 20
80.29837446251
 30
0.0
 10
99.6635479269227
 20
80.28733649078775
 30
0.0
 10
99.3390515690421
 20
80.2766631344276
 30
0.0
 10
98.6966250693625
 20
80.24565598345531
 30
0.0
 10
98.38217147043451
 20
80.22541971815888
 30
0.0
 10
97.78182405511252
 20
80.17838625220594
 30
0.0
 10
97.49346795051014
 20
80.15147036834404
 30
0.0
 10
96.94076205236618
 20
80.0929088865303
 30
0.0
 10
96.6793036151496
 20
80.06152946910974
 30
0.0
 10
96.19820991117527
 20
79.99870035812842
 30
0.0
 10
95.97644296274719
 20
79.96701889833658
 30
0.0
 10
95.57122486616501
 20
79.90564489723023
 30
0.0
 10
95.3895585306177
 20
79.87620523293151
 30
0.0
 10
95.0776618149314
 20
79.82372458259806
 30
0.0
 10
94.94565063180362
 20
79.80040774932131
 30
0.0
 10
94.73061966388572
 20
79.76160051926986
 30
0.0
 10
94.64849668817897
 20
79.7462719693875
 30
0.0
 10
94.53998685598312
 20
79.72587627969038
 30
0.0
 10
94.51245472598764
 20
79.72059887047082
 30
0.0
 10
94.51177859552384
 20
79.72047008378055
 30
0.0
 10
94.53932745562493
 20
79.72575079380725
 30
0.0
 10
94.64730530401567
 20
79.7460495524758
 30
0.0
 10
94.72757521119333
 20
79.76103858587099
 30
0.0
 10
94.94122446820352
 20
79.7996210107302
 30
0.0
 10
95.07528003311755
 20
79.82331212455468
 30
0.0
 10
95.38713540341809
 20
79.87580902420558
 30
0.0
 10
95.56580648127668
 20
79.9047835838274
 30
0.0
 10
95.96915357552236
 20
79.9659542421356
 30
0.0
 10
96.19460042953138
 20
79.99820223439997
 30
0.0
 10
96.67591269407151
 20
80.0611129792797
 30
0.0
 10
96.93353179731432
 20
80.09206547975751
 30
0.0
 10
97.48327668577525
 20
80.15046548040075
 30
0.0
 10
97.77679116026931
 20
80.17794580538259
 30
0.0
 10
98.37769133957828
 20
80.22511415400866
 30
0.0
 10
98.68748355252721
 20
80.24509879039894
 30
0.0
 10
99.32603349065589
 20
80.27614682363014
 30
0.0
 10
99.6569317171203
 20
80.28716296395858
 30
0.0
 10
100.3139886262973
 20
80.29835165149238
 30
0.0
 10
100.6427810720003
 20
80.2987160265329
 30
0.0
 10
101.3008950849659
 20
80.28893318270134
 30
0.0
 10
101.6324357139831
 20
80.27860634664205
 30
0.0
 10
102.2726359905095
 20
80.24881779876225
 30
0.0
 10
102.583867573135
 20
80.22938626689982
 30
0.0
 10
103.1887490827443
 20
80.18308160950689
 30
0.0
 10
103.4841729990008
 20
80.15596360371543
 30
0.0
 10
104.0371482640526
 20
80.0981904778963
 30
0.0
 10
104.2970622732699
 20
80.06740330532067
 30
0.0
 10
104.7840184784028
 20
80.00449826524999
 30
0.0
 10
105.0122161851009
 20
79.97217483253688
 30
0.0
 10
105.4217492297388
 20
79.91057473029365
 30
0.0
 10
105.6046767078188
 20
79.8811159292559
 30
0.0
 10
105.7653191857795
 20
79.85421166015644
 30
0.0
  0
SPLINE
  5
FE
330
1F
100
AcDbEntity
  8
0
  6
HIDDEN
 62
     7
370
     0
100
AcDbSpline
210
0.0
220
0.0
230
1.0
 70
    11
 71
     3
 72
    66
 73
    62
 74
     0
 42
0.00000001
 43
0.00000001
 40
0.0
 40
0.0
 40
0.0
 40
0.0
 40
0.0625000000000002
 40
0.0625000000000002
 40
0.1250000000000004
 40
0.1250000000000004
 40
0.1562500000000005
 40
0.1562500000000005
 40
0.1875000000000005
 40
0.1875000000000005
 40
0.2187500000000006
 40
0.2187500000000006
 40
0.2500000000000006
 40
0.2500000000000006
 40
0.2812500000000007
 40
0.2812500000000007
 40
0.3125000000000007
 40
0.3125000000000007
 40
0.3437500000000008
 40
0.3437500000000008
 40
0.3750000000000008
 40
0.3750000000000008
 40
0.4062500000000008
 40
0.4062500000000008
 40
0.4375000000000009
 40
0.4375000000000009
 40
0.4687500000000009
 40
0.4687500000000009
 40
0.500000000000001
 40
0.500000000000001
 40
0.531250000000001
 40
0.531250000000001
 40
0.562500000000001
 40
0.562500000000001
 40
0.593750000000001
 40
0.593750000000001
 40
0.625000000000001
 40
0.625000000000001
 40
0.656250000000001
 40
0.656250000000001
 40
0.687500000000001
 40
0.687500000000001
 40
0.718750000000001
 40
0.718750000000001
 40
0.7500000000000009
 40
0.7500000000000009
 40
0.7812500000000009
 40
0.7812500000000009
 40
0.8125000000000008
 40
0.8125000000000008
 40
0.8437500000000007
 40
0.8437500000000007
 40
0.8750000000000006
 40
0.8750000000000006
 40
0.9062500000000004
 40
0.9062500000000004
 40
0.9375000000000003
 40
0.9375000000000003
 40
0.9687500000000002
 40
0.9687500000000002
 40
1.0
 40
1.0
 40
1.0
 40
1.0
 10
105.7653191857795
 20
142.5868561016506
 30
0.0
 10
105.444032481303
 20
142.5330472706051
 30
0.0
 10
105.0379533574111
 20
142.4694776560643
 30
0.0
 10
104.0565866881325
 20
142.3424963975839
 30
0.0
 10
103.5046224321053
 20
142.2823525588673
 30
0.0
 10
102.5913211782878
 20
142.2121613302085
 30
0.0
 10
102.2768941492976
 20
142.1925057877467
 30
0.0
 10
101.6393094433309
 20
142.1627245562875
 30
0.0
 10
101.3144823302607
 20
142.1524624655343
 30
0.0
 10
100.6523186623968
 20
142.1423719205964
 30
0.0
 10
100.3189661661142
 20
142.142693299297
 30
0.0
 10
99.6635479269227
 20
142.1537312710192
 30
0.0
 10
99.3390515690421
 20
142.1644046273794
 30
0.0
 10
98.6966250693625
 20
142.1954117783517
 30
0.0
 10
98.38217147043451
 20
142.2156480436481
 30
0.0
 10
97.78182405511252
 20
142.2626815096011
 30
0.0
 10
97.49346795051014
 20
142.289597393463
 30
0.0
 10
96.94076205236618
 20
142.3481588752767
 30
0.0
 10
96.6793036151496
 20
142.3795382926972
 30
0.0
 10
96.19820991117527
 20
142.4423674036786
 30
0.0
 10
95.97644296274719
 20
142.4740488634704
 30
0.0
 10
95.57122486616501
 20
142.5354228645768
 30
0.0
 10
95.3895585306177
 20
142.5648625288755
 30
0.0
 10
95.0776618149314
 20
142.6173431792089
 30
0.0
 10
94.94565063180362
 20
142.6406600124857
 30
0.0
 10
94.73061966388572
 20
142.6794672425371
 30
0.0
 10
94.64849668817897
 20
142.6947957924195
 30
0.0
 10
94.53998685598312
 20
142.7151914821166
 30
0.0
 10
94.51245472598764
 20
142.7204688913362
 30
0.0
 10
94.51177859552384
 20
142.7205976780265
 30
0.0
 10
94.53932745562493
 20
142.7153169679997
 30
0.0
 10
94.64730530401567
 20
142.6950182093312
 30
0.0
 10
94.72757521119333
 20
142.680029175936
 30
0.0
 10
94.94122446820352
 20
142.6414467510768
 30
0.0
 10
95.07528003311755
 20
142.6177556372523
 30
0.0
 10
95.38713540341809
 20
142.5652587376014
 30
0.0
 10
95.56580648127668
 20
142.5362841779796
 30
0.0
 10
95.96915357552236
 20
142.4751135196714
 30
0.0
 10
96.19460042953138
 20
142.442865527407
 30
0.0
 10
96.67591269407151
 20
142.3799547825273
 30
0.0
 10
96.93353179731432
 20
142.3490022820495
 30
0.0
 10
97.48327668577525
 20
142.2906022814063
 30
0.0
 10
97.77679116026931
 20
142.2631219564244
 30
0.0
 10
98.37769133957828
 20
142.2159536077983
 30
0.0
 10
98.68748355252721
 20
142.1959689714081
 30
0.0
 10
99.32603349065589
 20
142.1649209381768
 30
0.0
 10
99.6569317171203
 20
142.1539047978484
 30
0.0
 10
100.3139886262973
 20
142.1427161103146
 30
0.0
 10
100.6427810720003
 20
142.1423517352741
 30
0.0
 10
101.3008950849659
 20
142.1521345791056
 30
0.0
 10
101.6324357139831
 20
142.162461415165
 30
0.0
 10
102.2726359905095
 20
142.1922499630448
 30
0.0
 10
102.583867573135
 20
142.2116814949072
 30
0.0
 10
103.1887490827443
 20
142.2579861523001
 30
0.0
 10
103.4841729990008
 20
142.2851041580916
 30
0.0
 10
104.0371482640526
 20
142.3428772839107
 30
0.0
 10
104.2970622732699
 20
142.3736644564863
 30
0.0
 10
104.7840184784028
 20
142.436569496557
 30
0.0
 10
105.0122161851009
 20
142.4688929292701
 30
0.0
 10
105.4217492297388
 20
142.5304930315133
 30
0.0
 10
105.6046767078188
 20
142.5599518325511
 30
0.0
 10
105.7653191857795
 20
142.5868561016506
 30
0.0
  0
SPLINE
  5
FF
330
1F
100
AcDbEntity
  8
0
  6
HIDDEN
 62
     7
370
     0
100
AcDbSpline
210
0.0
220
0.0
230
1.0
 70
    11
 71
     3
 72
    17
 73
    13
 74
     0
 42
0.00000001
 43
0.00000001
 40
0.0
 40
0.0
 40
0.0
 40
0.0
 40
0.25
 40
0.25
 40
0.3750000000000001
 40
0.3750000000000001
 40
0.5
 40
0.625
 40
0.625
 40
0.75
 40
0.75
 40
1.0
 40
1.0
 40
1.0
 40
1.0
 10
105.7653191857795
 20
142.5868561016506
 30
0.0
 10
106.0107687773561
 20
142.6279637958667
 30
0.0
 10
106.1957995272978
 20
142.6544946974143
 30
0.0
 10
106.3847167472804
 20
142.6806118361142
 30
0.0
 10
106.4328968113128
 20
142.686975076047
 30
0.0
 10
106.4964303510661
 20
142.6952821992643
 30
0.0
 10
106.5278279000865
 20
142.6992692396644
 30
0.0
 10
106.4963675043548
 20
142.6952742262046
 30
0.0
 10
106.4326665151274
 20
142.6869447190248
 30
0.0
 10
106.3844770108719
 20
142.6805793665795
 30
0.0
 10
106.1956661240768
 20
142.6544749052523
 30
0.0
 10
106.0107696260514
 20
142.6279639380055
 30
0.0
 10
105.7653191857795
 20
142.5868561016506
 30
0.0
  0
SPLINE
  5
100
330
1F
100
AcDbEntity
  8
0
  6
HIDDEN
 62
     7
370
     0
100
AcDbSpline
210
0.0
220
0.0
230
1.0
 70
    11
 71
     3
 72
    17
 73
    13
 74
     0
 42
0.00000001
 43
0.00000001
 40
0.0
 40
0.0
 40
0.0
 40
0.0
 40
0.2500000000000001
 40
0.2500000000000001
 40
0.3749999999999999
 40
0.3749999999999999
 40
0.4999999999999999
 40
0.6249999999999999
 40
0.6249999999999999
 40
0.7499999999999999
 40
0.7499999999999999
 40
1.0
 40
1.0
 40
1.0
 40
1.0
 10
105.7653191857795
 20
79.85421166015644
 30
0.0
 10
106.0107687773561
 20
79.8131039659403
 30
0.0
 10
106.1957995272978
 20
79.78657306439266
 30
0.0
 10
106.3847167472804
 20
79.76045592569281
 30
0.0
 10
106.4328968113128
 20
79.75409268576003
 30
0.0
 10
106.4964303510662
 20
79.7457855625427
 30
0.0
 10
106.5278279000865
 20
79.74179852214259
 30
0.0
 10
106.4963675043548
 20
79.7457935356024
 30
0.0
 10
106.4326665151274
 20
79.75412304278225
 30
0.0
 10
106.3844770108719
 20
79.76048839522754
 30
0.0
 10
106.1956661240768
 20
79.78659285655476
 30
0.0
 10
106.0107696260514
 20
79.81310382380153
 30
0.0
 10
105.7653191857795
 20
79.85421166015644
 30
0.0
  0
LINE
  5
101
330
1F
100
AcDbEntity
  8
0
  6
HIDDEN
 62
     7
370
     0
100
AcDbLine
 10
115.5121135306
 20
84.7205338809
 30
0.0
 11
115.5121135306
 21
137.7205338809
 31
0.0
  0
LINE
  5
102
330
1F
100
AcDbEntity
  8
0
  6
HIDDEN
 62
     7
370
     0
100
AcDbLine
 10
133.6021135306
 20
145.9347690734
 30
0.0
 11
133.6021135306
 21
156.9140851218
 31
0.0
  0
LINE
  5
103
330
1F
100
AcDbEntity
  8
0
  6
HIDDEN
 62
     7
370
     0
100
AcDbLine
 10
137.4221135306
 20
145.9347690734
 30
0.0
 11
137.4221135306
 21
156.9140851218
 31
0.0
  0
LINE
  5
104
330
1F
100
AcDbEntity
  8
0
  6
HIDDEN
 62
     7
370
     0
100
AcDbLine
 10
130.1700803788
 20
142.5705338809
 30
0.0
 11
144.4621135306
 21
142.5705338809
 31
0.0
  0
LINE
  5
105
330
1F
100
AcDbEntity
  8
0
  6
HIDDEN
 62
     7
370
     0
100
AcDbLine
 10
85.5087378576
 20
137.7205338809
 30
0.0
 11
85.5087378576
 21
84.7205338809
 31
0.0
  0
LINE
  5
106
330
1F
100
AcDbEntity
  8
0
  6
HIDDEN
 62
     7
370
     0
100
AcDbLine
 10
65.6121135306
 20
86.3671401279
 30
0.0
 11
65.6121135306
 21
136.0739276339
 31
0.0
  0
LINE
  5
107
330
1F
100
AcDbEntity
  8
0
  6
HIDDEN
 62
     7
370
     0
100
AcDbLine
 10
124.796191149
 20
137.7205338809
 30
0.0
 11
124.796191149
 21
84.7205338809
 31
0.0
  0
LINE
  5
108
330
1F
100
AcDbEntity
  8
0
  6
HIDDEN
 62
     7
370
     0
100
AcDbLine
 10
127.9621135306
 20
136.0955338809
 30
0.0
 11
127.9621135306
 21
86.3455338809
 31
0.0
  0
LINE
  5
109
330
1F
100
AcDbEntity
  8
0
  6
HIDDEN
 62
     7
370
     0
100
AcDbLine
 10
67.2621135306
 20
86.6838287231
 30
0.0
 11
78.8121135306
 21
86.6838287231
 31
0.0
  0
LINE
  5
10A
330
1F
100
AcDbEntity
  8
0
  6
HIDDEN
 62
     7
370
     0
100
AcDbLine
 10
67.2621135306
 20
135.7572390387
 30
0.0
 11
67.2621135306
 21
86.6838287231
 31
0.0
  0
LINE
  5
10B
330
1F
100
AcDbEntity
  8
0
  6
HIDDEN
 62
     7
370
     0
100
AcDbLine
 10
73.8121135306
 20
135.7572390387
 30
0.0
 11
67.2621135306
 21
135.7572390387
 31
0.0
  0
SPLINE
  5
10C
330
1F
100
AcDbEntity
  8
0
  6
HIDDEN
 62
     7
370
     0
100
AcDbSpline
210
0.0
220
0.0
230
1.0
 70
     8
 71
     3
 72
    20
 73
    16
 74
     0
 42
0.00000001
 43
0.00000001
 40
0.0
 40
0.0
 40
0.0
 40
0.0
 40
0.2499999999999978
 40
0.2499999999999978
 40
0.3749999999999982
 40
0.3749999999999982
 40
0.4999999999999986
 40
0.4999999999999986
 40
0.6249999999999989
 40
0.6249999999999989
 40
0.7499999999999992
 40
0.7499999999999992
 40
0.8749999999999997
 40
0.8749999999999997
 40
1.0
 40
1.0
 40
1.0
 40
1.0
 10
75.71211353058847
 20
136.4490475113178
 30
0.0
 10
75.71211353058848
 20
136.3698445247855
 30
0.0
 10
75.66513103537574
 20
136.2887483063826
 30
0.0
 10
75.52730944459816
 20
136.1685516146317
 30
0.0
 10
75.47102716068818
 20
136.1296249106296
 30
0.0
 10
75.33794230922096
 20
136.0544361782052
 30
0.0
 10
75.26010236698791
 20
136.0177939728632
 30
0.0
 10
75.08747001087356
 20
135.9502034400314
 30
0.0
 10
74.99307701378247
 20
135.9192452582558
 30
0.0
 10
74.78763970746732
 20
135.8637208368861
 30
0.0
 10
74.67529346748016
 20
135.8390123230529
 30
0.0
 10
74.44305260358053
 20
135.7992160959446
 30
0.0
 10
74.3223419611578
 20
135.7837962585476
 30
0.0
 10
74.07127110188877
 20
135.762716283708
 30
0.0
 10
73.941749105473
 20
135.757239038687
 30
0.0
 10
73.81211353058848
 20
135.757239038687
 30
0.0
  0
LINE
  5
10D
330
1F
100
AcDbEntity
  8
0
  6
HIDDEN
 62
     7
370
     0
100
AcDbLine
 10
75.7121135306
 20
136.4490475113
 30
0.0
 11
75.7121135306
 21
137.7205338809
 31
0.0
  0
SPLINE
  5
10E
330
1F
100
AcDbEntity
  8
0
  6
HIDDEN
 62
     7
370
     0
100
AcDbSpline
210
0.0
220
0.0
230
1.0
 70
     8
 71
     3
 72
    20
 73
    16
 74
     0
 42
0.00000001
 43
0.00000001
 40
0.0
 40
0.0
 40
0.0
 40
0.0
 40
0.2499999999999978
 40
0.2499999999999978
 40
0.3749999999999982
 40
0.3749999999999982
 40
0.4999999999999986
 40
0.4999999999999986
 40
0.6249999999999989
 40
0.6249999999999989
 40
0.7499999999999992
 40
0.7499999999999992
 40
0.8749999999999997
 40
0.8749999999999997
 40
1.0
 40
1.0
 40
1.0
 40
1.0
 10
75.71211353058847
 20
136.4490475113178
 30
0.0
 10
75.71211353058848
 20
136.3698445247855
 30
0.0
 10
75.66513103537574
 20
136.2887483063826
 30
0.0
 10
75.52730944459816
 20
136.1685516146317
 30
0.0
 10
75.47102716068818
 20
136.1296249106296
 30
0.0
 10
75.33794230922096
 20
136.0544361782052
 30
0.0
 10
75.26010236698791
 20
136.0177939728632
 30
0.0
 10
75.08747001087356
 20
135.9502034400314
 30
0.0
 10
74.99307701378247
 20
135.9192452582558
 30
0.0
 10
74.78763970746732
 20
135.8637208368861
 30
0.0
 10
74.67529346748016
 20
135.8390123230529
 30
0.0
 10
74.44305260358053
 20
135.7992160959446
 30
0.0
 10
74.3223419611578
 20
135.7837962585476
 30
0.0
 10
74.07127110188877
 20
135.762716283708
 30
0.0
 10
73.941749105473
 20
135.757239038687
 30
0.0
 10
73.81211353058848
 20
135.757239038687
 30
0.0
  0
LINE
  5
10F
330
1F
100
AcDbEntity
  8
0
  6
HIDDEN
 62
     7
370
     0
100
AcDbLine
 10
73.8121135306
 20
135.7572390387
 30
0.0
 11
67.2621135306
 21
135.7572390387
 31
0.0
  0
LINE
  5
110
330
1F
100
AcDbEntity
  8
0
  6
HIDDEN
 62
     7
370
     0
100
AcDbLine
 10
67.2621135306
 20
86.6838287231
 30
0.0
 11
78.8121135306
 21
86.6838287231
 31
0.0
  0
SPLINE
  5
111
330
1F
100
AcDbEntity
  8
0
  6
HIDDEN
 62
     7
370
     0
100
AcDbSpline
210
0.0
220
0.0
230
1.0
 70
     8
 71
     3
 72
    18
 73
    14
 74
     0
 42
0.00000001
 43
0.00000001
 40
0.0
 40
0.0
 40
0.0
 40
0.0
 40
0.1249999999999982
 40
0.1249999999999982
 40
0.2499999999999964
 40
0.2499999999999964
 40
0.4999999999999988
 40
0.4999999999999988
 40
0.7500000000000011
 40
0.7500000000000011
 40
0.8750000000000006
 40
0.8750000000000006
 40
1.0
 40
1.0
 40
1.0
 40
1.0
 10
78.81211353058848
 20
86.68382872312
 30
0.0
 10
78.9415808435457
 20
86.68382872311999
 30
0.0
 10
79.06859159244233
 20
86.67847572452735
 30
0.0
 10
79.31795491363958
 20
86.65773775183857
 30
0.0
 10
79.44157856826801
 20
86.64206584758428
 30
0.0
 10
79.79061090520206
 20
86.58237111918218
 30
0.0
 10
80.00112267000885
 20
86.5246059395012
 30
0.0
 10
80.34503934770837
 20
86.3900840982237
 30
0.0
 10
80.48138974922617
 20
86.3124149847183
 30
0.0
 10
80.61842780578871
 20
86.19312385063097
 30
0.0
 10
80.65364682450162
 20
86.15220484149592
 30
0.0
 10
80.70027040144018
 20
86.07154884820588
 30
0.0
 10
80.7121135305885
 20
86.03158032801304
 30
0.0
 10
80.71211353058848
 20
85.9920202504892
 30
0.0
  0
LINE
  5
112
330
1F
100
AcDbEntity
  8
0
  6
HIDDEN
 62
     7
370
     0
100
AcDbLine
 10
80.7121135306
 20
85.9920202505
 30
0.0
 11
80.7121135306
 21
84.7205338809
 31
0.0
  0
SPLINE
  5
113
330
1F
100
AcDbEntity
  8
0
  6
HIDDEN
 62
     7
370
     0
100
AcDbSpline
210
0.0
220
0.0
230
1.0
 70
     8
 71
     3
 72
    18
 73
    14
 74
     0
 42
0.00000001
 43
0.00000001
 40
0.0
 40
0.0
 40
0.0
 40
0.0
 40
0.1249999999999982
 40
0.1249999999999982
 40
0.2499999999999964
 40
0.2499999999999964
 40
0.4999999999999988
 40
0.4999999999999988
 40
0.7500000000000011
 40
0.7500000000000011
 40
0.8750000000000006
 40
0.8750000000000006
 40
1.0
 40
1.0
 40
1.0
 40
1.0
 10
78.81211353058848
 20
86.68382872312
 30
0.0
 10
78.9415808435457
 20
86.68382872311999
 30
0.0
 10
79.06859159244233
 20
86.67847572452735
 30
0.0
 10
79.31795491363958
 20
86.65773775183857
 30
0.0
 10
79.44157856826801
 20
86.64206584758428
 30
0.0
 10
79.79061090520206
 20
86.58237111918218
 30
0.0
 10
80.00112267000885
 20
86.5246059395012
 30
0.0
 10
80.34503934770837
 20
86.3900840982237
 30
0.0
 10
80.48138974922617
 20
86.3124149847183
 30
0.0
 10
80.61842780578871
 20
86.19312385063097
 30
0.0
 10
80.65364682450162
 20
86.15220484149592
 30
0.0
 10
80.70027040144018
 20
86.07154884820588
 30
0.0
 10
80.7121135305885
 20
86.03158032801304
 30
0.0
 10
80.71211353058848
 20
85.9920202504892
 30
0.0
  0
LINE
  5
114
330
1F
100
AcDbEntity
  8
0
  6
HIDDEN
 62
     7
370
     0
100
AcDbLine
 10
67.2621135306
 20
86.6838287231
 30
0.0
 11
67.2621135306
 21
135.7572390387
 31
0.0
  0
LWPOLYLINE
  5
115
330
1F
100
AcDbEntity
  8
0
  6
HIDDEN
 62
     7
370
     0
100
AcDbPolyline
 90
       15
 70
   128
 43
0.0
 10
124.5121135306
 20
151.1642644442
 10
125.518606131
 20
151.2058940591
 10
126.4838928062
 20
151.3290785824
 10
127.3684546061
 20
151.5287748254
 10
128.1360774667
 20
151.7968072003
 10
128.7553348181
 20
152.1222024302
 10
129.2008741913
 20
152.4916387963
 10
129.4544551522
 20
152.8899915301
 10
129.5056960664
 20
153.3009520241
 10
129.3524991249
 20
153.7076955073
 10
129.0011362284
 20
154.0935698538
 10
128.4659922153
 20
154.4427773223
 10
127.7689759442
 20
154.7410213182
 10
126.9386233432
 20
154.9760916973
 10
126.9116146233
 20
154.9821448744
  0
LWPOLYLINE
  5
116
330
1F
100
AcDbEntity
  8
0
  6
HIDDEN
 62
     7
370
     0
100
AcDbPolyline
 90
       15
 70
   128
 43
0.0
 10
122.1127660752
 20
154.9821790552
 10
122.0856037179
 20
154.9760916973
 10
121.255251117
 20
154.7410213182
 10
120.5582348459
 20
154.4427773223
 10
120.0230908327
 20
154.0935698538
 10
119.6717279363
 20
153.7076955073
 10
119.5185309947
 20
153.3009520241
 10
119.5697719089
 20
152.8899915301
 10
119.8233528699
 20
152.4916387963
 10
120.2688922431
 20
152.1222024302
 10
120.8881495944
 20
151.7968072003
 10
121.6557724551
 20
151.5287748254
 10
122.540334255
 20
151.3290785824
 10
123.5056209301
 20
151.2058940591
 10
124.5121135306
 20
151.1642644442
  0
LINE
  5
117
330
1F
100
AcDbEntity
  8
0
  6
HIDDEN
 62
     7
370
     0
100
AcDbLine
 10
144.4621135306
 20
89.2205338809
 30
0.0
 11
144.4621135306
 21
133.2205338809
 31
0.0
  0
LINE
  5
118
330
1F
100
AcDbEntity
  8
0
  6
HIDDEN
 62
     7
370
     0
100
AcDbLine
 10
67.2621135306
 20
83.8505338809
 30
0.0
 11
67.2621135306
 21
78.9705338809
 31
0.0
  0
LINE
  5
119
330
1F
100
AcDbEntity
  8
0
  6
HIDDEN
 62
     7
370
     0
100
AcDbLine
 10
169.5121135306
 20
127.2205338809
 30
0.0
 11
169.5121135306
 21
95.2205338809
 31
0.0
  0
LINE
  5
11A
330
1F
100
AcDbEntity
  8
0
  6
HIDDEN
 62
     7
370
     0
100
AcDbLine
 10
80.7121135306
 20
83.8505338809
 30
0.0
 11
80.7121135306
 21
77.3512006155
 31
0.0
  0
LINE
  5
11B
330
1F
100
AcDbEntity
  8
0
  6
HIDDEN
 62
     7
370
     0
100
AcDbLine
 10
75.7121135306
 20
138.5905338809
 30
0.0
 11
75.7121135306
 21
144.9651426179
 31
0.0
  0
LINE
  5
11C
330
1F
100
AcDbEntity
  8
0
  6
HIDDEN
 62
     7
370
     0
100
AcDbLine
 10
67.2621135306
 20
138.5905338809
 30
0.0
 11
67.2621135306
 21
143.4705338809
 31
0.0
  0
LINE
  5
11D
330
1F
100
AcDbEntity
  8
0
  6
HIDDEN
 62
     7
370
     0
100
AcDbLine
 10
65.6121135306
 20
138.5905338809
 30
0.0
 11
65.6121135306
 21
141.7232036235
 31
0.0
  0
LINE
  5
11E
330
1F
100
AcDbEntity
  8
0
  6
HIDDEN
 62
     7
370
     0
100
AcDbLine
 10
65.6121135306
 20
83.8505338809
 30
0.0
 11
65.6121135306
 21
80.7178641383
 31
0.0
  0
LINE
  5
11F
330
1F
100
AcDbEntity
  8
0
  6
HIDDEN
 62
     7
370
     0
100
AcDbLine
 10
169.5121135306
 20
125.7455338809
 30
0.0
 11
169.5121135306
 21
96.721043677
 31
0.0
  0
LINE
  5
120
330
1F
100
AcDbEntity
  8
0
  6
HIDDEN
 62
     7
370
     0
100
AcDbLine
 10
176.4621135306
 20
97.5955338826
 30
0.0
 11
176.4621135306
 21
124.8455338809
 31
0.0
  0
LINE
  5
121
330
1F
100
AcDbEntity
  8
0
  6
HIDDEN
 62
     7
370
     0
100
AcDbLine
 10
139.8121135306
 20
124.2205338809
 30
0.0
 11
139.8121135306
 21
98.2205338809
 31
0.0
  0
LINE
  5
122
330
1F
100
AcDbEntity
  8
0
  6
HIDDEN
 62
     7
370
     0
100
AcDbLine
 10
143.8121135306
 20
124.2205338809
 30
0.0
 11
143.8121135306
 21
98.2205338809
 31
0.0
  0
LINE
  5
123
330
1F
100
AcDbEntity
  8
0
  6
HIDDEN
 62
     7
370
     0
100
AcDbLine
 10
176.4621135306
 20
123.7705338809
 30
0.0
 11
176.4621135306
 21
98.6963192019
 31
0.0
  0
LINE
  5
124
330
1F
100
AcDbEntity
  8
0
  6
HIDDEN
 62
     7
370
     0
100
AcDbLine
 10
178.4621135306
 20
98.7205338809
 30
0.0
 11
178.4621135306
 21
123.7205338809
 31
0.0
  0
LINE
  5
125
330
1F
100
AcDbEntity
  8
0
  6
HIDDEN
 62
     7
370
     0
100
AcDbLine
 10
200.9621135306
 20
98.7205338809
 30
0.0
 11
200.9621135306
 21
123.7205338809
 31
0.0
  0
LINE
  5
126
330
1F
100
AcDbEntity
  8
0
  6
HIDDEN
 62
     7
370
     0
100
AcDbLine
 10
204.8121135306
 20
105.9455338809
 30
0.0
 11
204.8121135306
 21
98.7205338809
 31
0.0
  0
LINE
  5
127
330
1F
100
AcDbEntity
  8
0
  6
HIDDEN
 62
     7
370
     0
100
AcDbLine
 10
204.8121135306
 20
105.9455338809
 30
0.0
 11
201.9621135306
 21
105.9455338809
 31
0.0
  0
SPLINE
  5
128
330
1F
100
AcDbEntity
  8
0
  6
HIDDEN
 62
     7
370
     0
100
AcDbSpline
210
0.0
220
0.0
230
1.0
 70
     8
 71
     3
 72
    10
 73
     6
 74
     0
 42
0.00000001
 43
0.00000001
 40
0.0
 40
0.0
 40
0.0
 40
0.0
 40
0.5
 40
0.5
 40
1.0
 40
1.0
 40
1.0
 40
1.0
 10
201.9621135305885
 20
105.9455338809035
 30
0.0
 10
201.8238886330694
 20
105.9455338809035
 30
0.0
 10
201.6913870330205
 20
106.0055838746308
 30
0.0
 10
201.5115698148583
 20
106.1928300924064
 30
0.0
 10
201.4621135305885
 20
106.3180712682396
 30
0.0
 10
201.4621135305885
 20
106.4455338809035
 30
0.0
  0
LINE
  5
129
330
1F
100
AcDbEntity
  8
0
  6
HIDDEN
 62
     7
370
     0
100
AcDbLine
 10
201.4621135306
 20
106.4455338809
 30
0.0
 11
201.4621135306
 21
115.9955338809
 31
0.0
  0
SPLINE
  5
12A
330
1F
100
AcDbEntity
  8
0
  6
HIDDEN
 62
     7
370
     0
100
AcDbSpline
210
0.0
220
0.0
230
1.0
 70
     8
 71
     3
 72
    10
 73
     6
 74
     0
 42
0.00000001
 43
0.00000001
 40
0.0
 40
0.0
 40
0.0
 40
0.0
 40
0.5
 40
0.5
 40
1.0
 40
1.0
 40
1.0
 40
1.0
 10
201.4621135305885
 20
115.9955338809035
 30
0.0
 10
201.4621135305885
 20
116.1231735375768
 30
0.0
 10
201.5107460675328
 20
116.2472703116377
 30
0.0
 10
201.6918093620479
 20
116.4360329997832
 30
0.0
 10
201.8236107071256
 20
116.4955338809035
 30
0.0
 10
201.9621135305885
 20
116.4955338809035
 30
0.0
  0
LINE
  5
12B
330
1F
100
AcDbEntity
  8
0
  6
HIDDEN
 62
     7
370
     0
100
AcDbLine
 10
201.9621135306
 20
116.4955338809
 30
0.0
 11
204.8121135306
 21
116.4955338809
 31
0.0
  0
LINE
  5
12C
330
1F
100
AcDbEntity
  8
0
  6
HIDDEN
 62
     7
370
     0
100
AcDbLine
 10
204.8121135306
 20
116.4955338809
 30
0.0
 11
204.8121135306
 21
123.7205338809
 31
0.0
  0
LINE
  5
12D
330
1F
100
AcDbEntity
  8
0
  6
HIDDEN
 62
     7
370
     0
100
AcDbLine
 10
204.8121135306
 20
116.4955338809
 30
0.0
 11
201.9621135306
 21
116.4955338809
 31
0.0
  0
SPLINE
  5
12E
330
1F
100
AcDbEntity
  8
0
  6
HIDDEN
 62
     7
370
     0
100
AcDbSpline
210
0.0
220
0.0
230
1.0
 70
     8
 71
     3
 72
    10
 73
     6
 74
     0
 42
0.00000001
 43
0.00000001
 40
0.0
 40
0.0
 40
0.0
 40
0.0
 40
0.5
 40
0.5
 40
1.0
 40
1.0
 40
1.0
 40
1.0
 10
201.9621135305885
 20
116.4955338809035
 30
0.0
 10
201.8238886330694
 20
116.4955338809035
 30
0.0
 10
201.6913870330205
 20
116.4354838871762
 30
0.0
 10
201.5115698148583
 20
116.2482376694007
 30
0.0
 10
201.4621135305885
 20
116.1229964935674
 30
0.0
 10
201.4621135305885
 20
115.9955338809035
 30
0.0
  0
SPLINE
  5
12F
330
1F
100
AcDbEntity
  8
0
  6
HIDDEN
 62
     7
370
     0
100
AcDbSpline
210
0.0
220
0.0
230
1.0
 70
     8
 71
     3
 72
    10
 73
     6
 74
     0
 42
0.00000001
 43
0.00000001
 40
0.0
 40
0.0
 40
0.0
 40
0.0
 40
0.5
 40
0.5
 40
1.0
 40
1.0
 40
1.0
 40
1.0
 10
201.4621135305885
 20
106.4455338809035
 30
0.0
 10
201.4621135305885
 20
106.3178942242302
 30
0.0
 10
201.5107460675328
 20
106.1937974501693
 30
0.0
 10
201.6918093620479
 20
106.0050347620238
 30
0.0
 10
201.8236107071256
 20
105.9455338809035
 30
0.0
 10
201.9621135305885
 20
105.9455338809035
 30
0.0
  0
LINE
  5
130
330
1F
100
AcDbEntity
  8
0
  6
HIDDEN
 62
     7
370
     0
100
AcDbLine
 10
201.9621135306
 20
105.9455338809
 30
0.0
 11
204.8121135306
 21
105.9455338809
 31
0.0
  0
LINE
  5
131
330
1F
100
AcDbEntity
  8
0
  6
HIDDEN
 62
     7
370
     0
100
AcDbLine
 10
201.4621135306
 20
115.9955338809
 30
0.0
 11
201.4621135306
 21
106.4455338809
 31
0.0
  0
SPLINE
  5
132
330
1F
100
AcDbEntity
  8
0
  6
HIDDEN
 62
     7
370
     0
100
AcDbSpline
210
0.0
220
0.0
230
1.0
 70
     8
 71
     3
 72
    58
 73
    54
 74
     0
 42
0.00000001
 43
0.00000001
 40
-0.0624999999999999
 40
-0.0624999999999999
 40
0.0
 40
0.0
 40
0.0312499999999977
 40
0.0312499999999977
 40
0.0624999999999953
 40
0.0624999999999953
 40
0.093749999999993
 40
0.093749999999993
 40
0.1249999999999906
 40
0.1249999999999906
 40
0.1874999999999889
 40
0.1874999999999889
 40
0.2499999999999872
 40
0.2499999999999872
 40
0.2812499999999884
 40
0.2812499999999884
 40
0.3124999999999895
 40
0.3124999999999895
 40
0.3437499999999907
 40
0.3437499999999907
 40
0.3749999999999918
 40
0.3749999999999918
 40
0.406249999999993
 40
0.406249999999993
 40
0.4374999999999941
 40
0.4374999999999941
 40
0.4687499999999953
 40
0.4687499999999953
 40
0.4999999999999964
 40
0.4999999999999964
 40
0.5624999999999989
 40
0.5624999999999989
 40
0.6250000000000012
 40
0.6250000000000012
 40
0.6562500000000011
 40
0.6562500000000011
 40
0.687500000000001
 40
0.687500000000001
 40
0.7187500000000009
 40
0.7187500000000009
 40
0.7500000000000008
 40
0.7500000000000008
 40
0.7812500000000007
 40
0.7812500000000007
 40
0.8125000000000006
 40
0.8125000000000006
 40
0.8437500000000004
 40
0.8437500000000004
 40
0.8750000000000002
 40
0.8750000000000002
 40
0.9375000000000001
 40
0.9375000000000001
 40
1.0
 40
1.0
 40
1.031249999999998
 40
1.031249999999998
 10
180.5621135305884
 20
117.6595601351825
 30
0.0
 10
180.5621135305884
 20
117.3760207537639
 30
0.0
 10
180.5728342173531
 20
117.2823934979145
 30
0.0
 10
180.6148178008558
 20
117.0969109582246
 30
0.0
 10
180.6465989172099
 20
117.0040683791722
 30
0.0
 10
180.7294594249223
 20
116.826013615797
 30
0.0
 10
180.7801476460996
 20
116.7409824026496
 30
0.0
 10
180.8998816461101
 20
116.5791423206513
 30
0.0
 10
180.9694945770432
 20
116.5021019876266
 30
0.0
 10
181.1975681456844
 20
116.2939396371043
 30
0.0
 10
181.3814602010892
 20
116.1803535486882
 30
0.0
 10
181.7784283666755
 20
116.0276438441037
 30
0.0
 10
181.9957206549623
 20
115.9870151773779
 30
0.0
 10
182.3189274925771
 20
115.9868468083939
 30
0.0
 10
182.4283777409139
 20
115.9968673407212
 30
0.0
 10
182.6400819110555
 20
116.0361126443777
 30
0.0
 10
182.7429914654294
 20
116.0651278604824
 30
0.0
 10
182.9429009781624
 20
116.1418424741722
 30
0.0
 10
183.0393575843545
 20
116.1896054851114
 30
0.0
 10
183.2180163588066
 20
116.2995589281152
 30
0.0
 10
183.3014299833707
 20
116.3622190842067
 30
0.0
 10
183.4553726857873
 20
116.5026504186671
 30
0.0
 10
183.5235610677837
 20
116.5782496553232
 30
0.0
 10
183.6430664887008
 20
116.7394482609
 30
0.0
 10
183.6948005672604
 20
116.8260769442222
 30
0.0
 10
183.777633533153
 20
117.004087398514
 30
0.0
 10
183.8088984078224
 20
117.0951563632997
 30
0.0
 10
183.851232405253
 20
117.2811902671825
 30
0.0
 10
183.8620727253553
 20
117.3766893126832
 30
0.0
 10
183.8621947880538
 20
117.6566040338986
 30
0.0
 10
183.818952710602
 20
117.8418645535856
 30
0.0
 10
183.6545892248757
 20
118.1758691062388
 30
0.0
 10
183.5319013333489
 20
118.3280394226721
 30
0.0
 10
183.3039658186128
 20
118.515117473975
 30
0.0
 10
183.2191959777809
 20
118.5718581876855
 30
0.0
 10
183.0401562256979
 20
118.6689927519178
 30
0.0
 10
182.9454979759921
 20
118.7099433997588
 30
0.0
 10
182.7457385140885
 20
118.7767774328455
 30
0.0
 10
182.640982713854
 20
118.8023000741819
 30
0.0
 10
182.4300361270456
 20
118.8360621897034
 30
0.0
 10
182.322680353916
 20
118.8447083465193
 30
0.0
 10
182.1044848779755
 20
118.8448636554403
 30
0.0
 10
181.9971978052316
 20
118.8363817220453
 30
0.0
 10
181.7860945315046
 20
118.8029135403661
 30
0.0
 10
181.6811688754528
 20
118.7775050123576
 30
0.0
 10
181.481390410297
 20
118.7109985252155
 30
0.0
 10
181.3866155865341
 20
118.6701871076326
 30
0.0
 10
181.2071827151412
 20
118.5732069491998
 30
0.0
 10
181.1223604437767
 20
118.5166159373046
 30
0.0
 10
180.8941733027633
 20
118.329995919585
 30
0.0
 10
180.7710916275872
 20
118.1779523556668
 30
0.0
 10
180.6060770613368
 20
117.8443549075186
 30
0.0
 10
180.5621135305884
 20
117.6595601351825
 30
0.0
 10
180.5621135305884
 20
117.3760207537639
 30
0.0
  0
SPLINE
  5
133
330
1F
100
AcDbEntity
  8
0
  6
HIDDEN
 62
     7
370
     0
100
AcDbSpline
210
0.0
220
0.0
230
1.0
 70
     8
 71
     3
 72
    58
 73
    54
 74
     0
 42
0.00000001
 43
0.00000001
 40
-0.0624999999999978
 40
-0.0624999999999978
 40
0.0
 40
0.0
 40
0.0312500000000008
 40
0.0312500000000008
 40
0.0625000000000017
 40
0.0625000000000017
 40
0.0937500000000025
 40
0.0937500000000025
 40
0.1250000000000034
 40
0.1250000000000034
 40
0.1875000000000077
 40
0.1875000000000077
 40
0.250000000000012
 40
0.250000000000012
 40
0.2812500000000122
 40
0.2812500000000122
 40
0.3125000000000124
 40
0.3125000000000124
 40
0.3437500000000125
 40
0.3437500000000125
 40
0.3750000000000127
 40
0.3750000000000127
 40
0.4062500000000129
 40
0.4062500000000129
 40
0.4375000000000131
 40
0.4375000000000131
 40
0.4687500000000133
 40
0.4687500000000133
 40
0.5000000000000134
 40
0.5000000000000134
 40
0.5625000000000139
 40
0.5625000000000139
 40
0.6250000000000144
 40
0.6250000000000144
 40
0.6562500000000132
 40
0.6562500000000132
 40
0.687500000000012
 40
0.687500000000012
 40
0.7187500000000107
 40
0.7187500000000107
 40
0.7500000000000094
 40
0.7500000000000094
 40
0.7812500000000082
 40
0.7812500000000082
 40
0.8125000000000069
 40
0.8125000000000069
 40
0.8437500000000057
 40
0.8437500000000057
 40
0.8750000000000043
 40
0.8750000000000043
 40
0.9375000000000022
 40
0.9375000000000022
 40
1.0
 40
1.0
 40
1.031250000000001
 40
1.031250000000001
 10
180.5621135305884
 20
117.2815076266245
 30
0.0
 10
180.5621135305884
 20
117.5650470080431
 30
0.0
 10
180.5728342173531
 20
117.6572463184137
 30
0.0
 10
180.6148178008558
 20
117.8372917337542
 30
0.0
 10
180.64659891721
 20
117.9260604010385
 30
0.0
 10
180.7294594249223
 20
118.0939993063093
 30
0.0
 10
180.7801476460995
 20
118.1730355175726
 30
0.0
 10
180.8998816461101
 20
118.3216971837925
 30
0.0
 10
180.9694945770433
 20
118.3915106112722
 30
0.0
 10
181.1975681456844
 20
118.5782940620681
 30
0.0
 10
181.3814602010893
 20
118.6775653157758
 30
0.0
 10
181.7784283666755
 20
118.8100480215932
 30
0.0
 10
181.9957206549623
 20
118.8446900994257
 30
0.0
 10
182.3189274925771
 20
118.8448344273428
 30
0.0
 10
182.4283777409139
 20
118.8362572766734
 30
0.0
 10
182.6400819110555
 20
118.8025137415346
 30
0.0
 10
182.7429914654294
 20
118.7775271488671
 30
0.0
 10
182.9429009781624
 20
118.710977185342
 30
0.0
 10
183.0393575843546
 20
118.6693484258272
 30
0.0
 10
183.2180163588066
 20
118.5725749258706
 30
0.0
 10
183.3014299833707
 20
118.5170253034268
 30
0.0
 10
183.4553726857873
 20
118.3910203147254
 30
0.0
 10
183.5235610677837
 20
118.3225078077766
 30
0.0
 10
183.6430664887008
 20
118.1744539493399
 30
0.0
 10
183.6948005672605
 20
118.0939399355967
 30
0.0
 10
183.777633533153
 20
117.9260421022566
 30
0.0
 10
183.8088984078224
 20
117.8389807336918
 30
0.0
 10
183.851232405253
 20
117.6584282168022
 30
0.0
 10
183.8620727253554
 20
117.5643730628334
 30
0.0
 10
183.8621947880538
 20
117.284474453893
 30
0.0
 10
183.818952710602
 20
117.0933129823145
 30
0.0
 10
183.6545892248756
 20
116.7392350121479
 30
0.0
 10
183.5319013333489
 20
116.5728217655415
 30
0.0
 10
183.3039658186128
 20
116.3643553107827
 30
0.0
 10
183.2191959777809
 20
116.30036981579
 30
0.0
 10
183.0401562256979
 20
116.1900130272704
 30
0.0
 10
182.9454979759921
 20
116.143030049482
 30
0.0
 10
182.7457385140885
 20
116.0659960855099
 30
0.0
 10
182.640982713854
 20
116.0363606690794
 30
0.0
 10
182.4300361270456
 20
115.9970947105619
 30
0.0
 10
182.322680353916
 20
115.9869938908163
 30
0.0
 10
182.1044848779755
 20
115.9868127117016
 30
0.0
 10
181.9971978052316
 20
115.9967219930924
 30
0.0
 10
181.7860945315046
 20
116.0356482620611
 30
0.0
 10
181.6811688754528
 20
116.0651533798606
 30
0.0
 10
181.481390410297
 20
116.1418178731058
 30
0.0
 10
181.3866155865341
 20
116.1886478243451
 30
0.0
 10
181.2071827151413
 20
116.2988455113656
 30
0.0
 10
181.1223604437767
 20
116.3626722386929
 30
0.0
 10
180.8941733027633
 20
116.570667645104
 30
0.0
 10
180.7710916275872
 20
116.7369816095414
 30
0.0
 10
180.6060770613368
 20
117.090717299461
 30
0.0
 10
180.5621135305884
 20
117.2815076266245
 30
0.0
 10
180.5621135305884
 20
117.5650470080431
 30
0.0
  0
SPLINE
  5
134
330
1F
100
AcDbEntity
  8
0
  6
HIDDEN
 62
     7
370
     0
100
AcDbSpline
210
0.0
220
0.0
230
1.0
 70
    11
 71
     3
 72
    58
 73
    54
 74
     0
 42
0.00000001
 43
0.00000001
 40
-0.0624999999999996
 40
-0.0624999999999996
 40
0.0
 40
0.0
 40
0.0312499999999978
 40
0.0312499999999978
 40
0.0624999999999957
 40
0.0624999999999957
 40
0.0937499999999935
 40
0.0937499999999935
 40
0.1249999999999913
 40
0.1249999999999913
 40
0.1874999999999898
 40
0.1874999999999898
 40
0.2499999999999883
 40
0.2499999999999883
 40
0.2812499999999895
 40
0.2812499999999895
 40
0.3124999999999908
 40
0.3124999999999908
 40
0.3437499999999921
 40
0.3437499999999921
 40
0.3749999999999933
 40
0.3749999999999933
 40
0.4062499999999946
 40
0.4062499999999946
 40
0.4374999999999958
 40
0.4374999999999958
 40
0.4687499999999971
 40
0.4687499999999971
 40
0.4999999999999982
 40
0.4999999999999982
 40
0.5625000000000007
 40
0.5625000000000007
 40
0.6250000000000031
 40
0.6250000000000031
 40
0.6562500000000028
 40
0.6562500000000028
 40
0.6875000000000026
 40
0.6875000000000026
 40
0.7187500000000022
 40
0.7187500000000022
 40
0.750000000000002
 40
0.750000000000002
 40
0.7812500000000017
 40
0.7812500000000017
 40
0.8125000000000014
 40
0.8125000000000014
 40
0.8437500000000011
 40
0.8437500000000011
 40
0.8750000000000009
 40
0.8750000000000009
 40
0.9375000000000004
 40
0.9375000000000004
 40
1.0
 40
1.0
 40
1.031249999999998
 40
1.031249999999998
 10
180.5621135305884
 20
98.7205338809035
 30
0.0
 10
180.5621135305884
 20
98.7205338809035
 30
0.0
 10
180.5728342173531
 20
98.72196182638221
 30
0.0
 10
180.6148178008558
 20
98.7273989507316
 30
0.0
 10
180.64659891721
 20
98.7314728624997
 30
0.0
 10
180.7294594249223
 20
98.74158872060408
 30
0.0
 10
180.7801476460996
 20
98.74758372248824
 30
0.0
 10
180.8998816461101
 20
98.76076213826663
 30
0.0
 10
180.9694945770432
 20
98.76798904381174
 30
0.0
 10
181.1975681456844
 20
98.78936794353807
 30
0.0
 10
181.3814602010892
 20
98.80368277824645
 30
0.0
 10
181.7784283666755
 20
98.82390977701354
 30
0.0
 10
181.9957206549624
 20
98.82989636590683
 30
0.0
 10
182.3189274925771
 20
98.8299204069737
 30
0.0
 10
182.428377740914
 20
98.8284770253158
 30
0.0
 10
182.6400819110555
 20
98.82297525679812
 30
0.0
 10
182.7429914654294
 20
98.818946633361
 30
0.0
 10
182.9429009781624
 20
98.80878198319624
 30
0.0
 10
183.0393575843545
 20
98.80264773177193
 30
0.0
 10
183.2180163588066
 20
98.78946778872462
 30
0.0
 10
183.3014299833707
 20
98.78235725507695
 30
0.0
 10
183.4553726857873
 20
98.76793090931793
 30
0.0
 10
183.5235610677837
 20
98.76084417961067
 30
0.0
 10
183.6430664887008
 20
98.74769943247047
 30
0.0
 10
183.6948005672604
 20
98.74158476289155
 30
0.0
 10
183.777633533153
 20
98.73147214193985
 30
0.0
 10
183.8088984078224
 20
98.72746454571893
 30
0.0
 10
183.851232405253
 20
98.72198315872583
 30
0.0
 10
183.8620727253554
 20
98.7205392671939
 30
0.0
 10
183.8621947880538
 20
98.72052315491884
 30
0.0
 10
183.818952710602
 20
98.72642410681037
 30
0.0
 10
183.6545892248757
 20
98.74649752432381
 30
0.0
 10
183.5319013333489
 20
98.76074045449687
 30
0.0
 10
183.3039658186128
 20
98.78212885795274
 30
0.0
 10
183.2191959777809
 20
98.78937363923497
 30
0.0
 10
183.0401562256979
 20
98.8025958635223
 30
0.0
 10
182.9454979759921
 20
98.80862819346967
 30
0.0
 10
182.7457385140884
 20
98.81882812435501
 30
0.0
 10
182.640982713854
 20
98.82294089944918
 30
0.0
 10
182.4300361270456
 20
98.82844474244517
 30
0.0
 10
182.322680353916
 20
98.8298994053749
 30
0.0
 10
182.1044848779755
 20
98.82992527556856
 30
0.0
 10
181.9971978052316
 20
98.82849792757281
 30
0.0
 10
181.7860945315046
 20
98.82303984028323
 30
0.0
 10
181.6811688754528
 20
98.81894325049225
 30
0.0
 10
181.481390410297
 20
98.80878524438916
 30
0.0
 10
181.3866155865341
 20
98.8027667107328
 30
0.0
 10
181.2071827151413
 20
98.78954918214505
 30
0.0
 10
181.1223604437767
 20
98.78231346671303
 30
0.0
 10
180.8941733027633
 20
98.76093807802151
 30
0.0
 10
180.7710916275872
 20
98.74666767750224
 30
0.0
 10
180.6060770613368
 20
98.7265294357309
 30
0.0
 10
180.5621135305884
 20
98.7205338809035
 30
0.0
 10
180.5621135305884
 20
98.7205338809035
 30
0.0
  0
SPLINE
  5
135
330
1F
100
AcDbEntity
  8
0
  6
HIDDEN
 62
     7
370
     0
100
AcDbSpline
210
0.0
220
0.0
230
1.0
 70
    11
 71
     3
 72
    58
 73
    54
 74
     0
 42
0.00000001
 43
0.00000001
 40
-0.0624999999999996
 40
-0.0624999999999996
 40
0.0
 40
0.0
 40
0.0312499999999978
 40
0.0312499999999978
 40
0.0624999999999957
 40
0.0624999999999957
 40
0.0937499999999935
 40
0.0937499999999935
 40
0.1249999999999913
 40
0.1249999999999913
 40
0.1874999999999898
 40
0.1874999999999898
 40
0.2499999999999883
 40
0.2499999999999883
 40
0.2812499999999895
 40
0.2812499999999895
 40
0.3124999999999908
 40
0.3124999999999908
 40
0.3437499999999921
 40
0.3437499999999921
 40
0.3749999999999933
 40
0.3749999999999933
 40
0.4062499999999946
 40
0.4062499999999946
 40
0.4374999999999958
 40
0.4374999999999958
 40
0.4687499999999971
 40
0.4687499999999971
 40
0.4999999999999982
 40
0.4999999999999982
 40
0.5625000000000007
 40
0.5625000000000007
 40
0.6250000000000031
 40
0.6250000000000031
 40
0.6562500000000028
 40
0.6562500000000028
 40
0.6875000000000026
 40
0.6875000000000026
 40
0.7187500000000022
 40
0.7187500000000022
 40
0.750000000000002
 40
0.750000000000002
 40
0.7812500000000017
 40
0.7812500000000017
 40
0.8125000000000014
 40
0.8125000000000014
 40
0.8437500000000011
 40
0.8437500000000011
 40
0.8750000000000009
 40
0.8750000000000009
 40
0.9375000000000004
 40
0.9375000000000004
 40
1.0
 40
1.0
 40
1.031249999999998
 40
1.031249999999998
 10
180.5621135305884
 20
98.7205338809035
 30
0.0
 10
180.5621135305884
 20
98.7205338809035
 30
0.0
 10
180.5728342173531
 20
98.72196182638221
 30
0.0
 10
180.6148178008558
 20
98.7273989507316
 30
0.0
 10
180.64659891721
 20
98.7314728624997
 30
0.0
 10
180.7294594249223
 20
98.74158872060408
 30
0.0
 10
180.7801476460996
 20
98.74758372248824
 30
0.0
 10
180.8998816461101
 20
98.76076213826663
 30
0.0
 10
180.9694945770432
 20
98.76798904381174
 30
0.0
 10
181.1975681456844
 20
98.78936794353807
 30
0.0
 10
181.3814602010892
 20
98.80368277824645
 30
0.0
 10
181.7784283666755
 20
98.82390977701354
 30
0.0
 10
181.9957206549624
 20
98.82989636590683
 30
0.0
 10
182.3189274925771
 20
98.8299204069737
 30
0.0
 10
182.428377740914
 20
98.8284770253158
 30
0.0
 10
182.6400819110555
 20
98.82297525679812
 30
0.0
 10
182.7429914654294
 20
98.818946633361
 30
0.0
 10
182.9429009781624
 20
98.80878198319624
 30
0.0
 10
183.0393575843545
 20
98.80264773177193
 30
0.0
 10
183.2180163588066
 20
98.78946778872462
 30
0.0
 10
183.3014299833707
 20
98.78235725507695
 30
0.0
 10
183.4553726857873
 20
98.76793090931793
 30
0.0
 10
183.5235610677837
 20
98.76084417961067
 30
0.0
 10
183.6430664887008
 20
98.74769943247047
 30
0.0
 10
183.6948005672604
 20
98.74158476289155
 30
0.0
 10
183.777633533153
 20
98.73147214193985
 30
0.0
 10
183.8088984078224
 20
98.72746454571893
 30
0.0
 10
183.851232405253
 20
98.72198315872583
 30
0.0
 10
183.8620727253554
 20
98.7205392671939
 30
0.0
 10
183.8621947880538
 20
98.72052315491884
 30
0.0
 10
183.818952710602
 20
98.72642410681037
 30
0.0
 10
183.6545892248757
 20
98.74649752432381
 30
0.0
 10
183.5319013333489
 20
98.76074045449687
 30
0.0
 10
183.3039658186128
 20
98.78212885795274
 30
0.0
 10
183.2191959777809
 20
98.78937363923497
 30
0.0
 10
183.0401562256979
 20
98.8025958635223
 30
0.0
 10
182.9454979759921
 20
98.80862819346967
 30
0.0
 10
182.7457385140884
 20
98.81882812435501
 30
0.0
 10
182.640982713854
 20
98.82294089944918
 30
0.0
 10
182.4300361270456
 20
98.82844474244517
 30
0.0
 10
182.322680353916
 20
98.8298994053749
 30
0.0
 10
182.1044848779755
 20
98.82992527556856
 30
0.0
 10
181.9971978052316
 20
98.82849792757281
 30
0.0
 10
181.7860945315046
 20
98.82303984028323
 30
0.0
 10
181.6811688754528
 20
98.81894325049225
 30
0.0
 10
181.481390410297
 20
98.80878524438916
 30
0.0
 10
181.3866155865341
 20
98.8027667107328
 30
0.0
 10
181.2071827151413
 20
98.78954918214505
 30
0.0
 10
181.1223604437767
 20
98.78231346671303
 30
0.0
 10
180.8941733027633
 20
98.76093807802151
 30
0.0
 10
180.7710916275872
 20
98.74666767750224
 30
0.0
 10
180.6060770613368
 20
98.7265294357309
 30
0.0
 10
180.5621135305884
 20
98.7205338809035
 30
0.0
 10
180.5621135305884
 20
98.7205338809035
 30
0.0
  0
LINE
  5
136
330
1F
100
AcDbEntity
  8
0
  6
HIDDEN
 62
     7
370
     0
100
AcDbLine
 10
199.8621135306
 20
98.7205338809
 30
0.0
 11
199.8621135306
 21
123.7205338809
 31
0.0
  0
SPLINE
  5
137
330
1F
100
AcDbEntity
  8
0
  6
HIDDEN
 62
     7
370
     0
100
AcDbSpline
210
0.0
220
0.0
230
1.0
 70
    11
 71
     3
 72
    64
 73
    60
 74
     0
 42
0.00000001
 43
0.00000001
 40
-0.0312500000000007
 40
-0.0312500000000007
 40
0.0
 40
0.0
 40
0.0312499999999978
 40
0.0312499999999978
 40
0.0624999999999956
 40
0.0624999999999956
 40
0.0937499999999934
 40
0.0937499999999934
 40
0.1249999999999912
 40
0.1249999999999912
 40
0.1874999999999888
 40
0.1874999999999888
 40
0.2187499999999889
 40
0.2187499999999889
 40
0.2499999999999891
 40
0.2499999999999891
 40
0.2812499999999892
 40
0.2812499999999892
 40
0.3124999999999893
 40
0.3124999999999893
 40
0.3437499999999895
 40
0.3437499999999895
 40
0.3749999999999896
 40
0.3749999999999896
 40
0.4062499999999898
 40
0.4062499999999898
 40
0.43749999999999
 40
0.43749999999999
 40
0.4687499999999901
 40
0.4687499999999901
 40
0.4999999999999902
 40
0.4999999999999902
 40
0.5624999999999906
 40
0.5624999999999906
 40
0.5937499999999912
 40
0.5937499999999912
 40
0.6249999999999919
 40
0.6249999999999919
 40
0.6562499999999927
 40
0.6562499999999927
 40
0.6874999999999933
 40
0.6874999999999933
 40
0.718749999999994
 40
0.718749999999994
 40
0.7499999999999947
 40
0.7499999999999947
 40
0.7812499999999954
 40
0.7812499999999954
 40
0.8124999999999961
 40
0.8124999999999961
 40
0.8437499999999968
 40
0.8437499999999968
 40
0.8749999999999976
 40
0.8749999999999976
 40
0.9374999999999987
 40
0.9374999999999987
 40
0.9687499999999993
 40
0.9687499999999993
 40
1.0
 40
1.0
 40
1.031249999999998
 40
1.031249999999998
 10
185.7121135305885
 20
123.7205338809035
 30
0.0
 10
185.7121135305885
 20
123.7205338809035
 30
0.0
 10
185.7270902768623
 20
123.7177535780593
 30
0.0
 10
185.7857119252918
 20
123.7071680549705
 30
0.0
 10
185.8300913646914
 20
123.6992348990182
 30
0.0
 10
185.9456513905709
 20
123.6795476517907
 30
0.0
 10
186.0163194454454
 20
123.6678787717517
 30
0.0
 10
186.1832195541472
 20
123.6422106589595
 30
0.0
 10
186.2801444858517
 20
123.6281406370261
 30
0.0
 10
186.597694673668
 20
123.586476435898
 30
0.0
 10
186.8537647337778
 20
123.55851014098
 30
0.0
 10
187.2686598209625
 20
123.5288113795278
 30
0.0
 10
187.4139410279637
 20
123.5207689536143
 30
0.0
 10
187.7109730254123
 20
123.5099056347771
 30
0.0
 10
187.8604158126864
 20
123.5071284703811
 30
0.0
 10
188.1611189334457
 20
123.5070955243676
 30
0.0
 10
188.3138838191807
 20
123.509931950333
 30
0.0
 10
188.6091092104399
 20
123.5207226373244
 30
0.0
 10
188.7526354599183
 20
123.5286219361281
 30
0.0
 10
189.0314928317586
 20
123.5485423578229
 30
0.0
 10
189.1656767615376
 20
123.5605255760665
 30
0.0
 10
189.4145041096862
 20
123.5862682402222
 30
0.0
 10
189.5310269175966
 20
123.6001883266741
 30
0.0
 10
189.7450433254526
 20
123.6282650189231
 30
0.0
 10
189.8399743072106
 20
123.6420596975478
 30
0.0
 10
190.0065304617963
 20
123.6676591510346
 30
0.0
 10
190.0787260215049
 20
123.6795729288559
 30
0.0
 10
190.1941355631102
 20
123.6992352140231
 30
0.0
 10
190.2377851454375
 20
123.7070373184572
 30
0.0
 10
190.2969305873608
 20
123.7177152807958
 30
0.0
 10
190.3120534774765
 20
123.7205228311317
 30
0.0
 10
190.3122330891297
 20
123.7205558796734
 30
0.0
 10
190.2518344084209
 20
123.7090720365612
 30
0.0
 10
190.0798491896389
 20
123.67976097047
 30
0.0
 10
190.0082088250857
 20
123.6679251443142
 30
0.0
 10
189.840721076804
 20
123.6421665593317
 30
0.0
 10
189.7458253102018
 20
123.6283835237503
 30
0.0
 10
189.5340020756486
 20
123.600562999137
 30
0.0
 10
189.4159419137913
 20
123.5864300528566
 30
0.0
 10
189.1668446651947
 20
123.5606334752856
 30
0.0
 10
189.0349620772272
 20
123.5488296756873
 30
0.0
 10
188.756093376347
 20
123.5288304350664
 30
0.0
 10
188.6104209775103
 20
123.5207929541403
 30
0.0
 10
188.3162940301157
 20
123.5099979556301
 30
0.0
 10
188.1657758846861
 20
123.5071335213311
 30
0.0
 10
187.8619246357304
 20
123.507090571418
 30
0.0
 10
187.7123422388208
 20
123.5098864858863
 30
0.0
 10
187.4176961516362
 20
123.5206012239155
 30
0.0
 10
187.2711181821776
 20
123.5286550261428
 30
0.0
 10
186.9930777509494
 20
123.5485185474946
 30
0.0
 10
186.8610050941722
 20
123.5602887421332
 30
0.0
 10
186.6106625142525
 20
123.5861541384579
 30
0.0
 10
186.4928454855696
 20
123.6002416676177
 30
0.0
 10
186.1753109232632
 20
123.6418784854759
 30
0.0
 10
186.0037252898186
 20
123.6696607911015
 30
0.0
 10
185.8310838094056
 20
123.6990624407867
 30
0.0
 10
185.7865035843959
 20
123.7070260216522
 30
0.0
 10
185.7270926574852
 20
123.7177522409588
 30
0.0
 10
185.7121135305885
 20
123.7205338809035
 30
0.0
 10
185.7121135305885
 20
123.7205338809035
 30
0.0
  0
SPLINE
  5
138
330
1F
100
AcDbEntity
  8
0
  6
HIDDEN
 62
     7
370
     0
100
AcDbSpline
210
0.0
220
0.0
230
1.0
 70
    11
 71
     3
 72
    64
 73
    60
 74
     0
 42
0.00000001
 43
0.00000001
 40
-0.0312500000000007
 40
-0.0312500000000007
 40
0.0
 40
0.0
 40
0.0312499999999978
 40
0.0312499999999978
 40
0.0624999999999956
 40
0.0624999999999956
 40
0.0937499999999934
 40
0.0937499999999934
 40
0.1249999999999912
 40
0.1249999999999912
 40
0.1874999999999888
 40
0.1874999999999888
 40
0.2187499999999889
 40
0.2187499999999889
 40
0.2499999999999891
 40
0.2499999999999891
 40
0.2812499999999892
 40
0.2812499999999892
 40
0.3124999999999893
 40
0.3124999999999893
 40
0.3437499999999895
 40
0.3437499999999895
 40
0.3749999999999896
 40
0.3749999999999896
 40
0.4062499999999898
 40
0.4062499999999898
 40
0.43749999999999
 40
0.43749999999999
 40
0.4687499999999901
 40
0.4687499999999901
 40
0.4999999999999902
 40
0.4999999999999902
 40
0.5624999999999906
 40
0.5624999999999906
 40
0.5937499999999912
 40
0.5937499999999912
 40
0.6249999999999919
 40
0.6249999999999919
 40
0.6562499999999927
 40
0.6562499999999927
 40
0.6874999999999933
 40
0.6874999999999933
 40
0.718749999999994
 40
0.718749999999994
 40
0.7499999999999947
 40
0.7499999999999947
 40
0.7812499999999954
 40
0.7812499999999954
 40
0.8124999999999961
 40
0.8124999999999961
 40
0.8437499999999968
 40
0.8437499999999968
 40
0.8749999999999976
 40
0.8749999999999976
 40
0.9374999999999987
 40
0.9374999999999987
 40
0.9687499999999993
 40
0.9687499999999993
 40
1.0
 40
1.0
 40
1.031249999999998
 40
1.031249999999998
 10
185.7121135305885
 20
123.7205338809035
 30
0.0
 10
185.7121135305885
 20
123.7205338809035
 30
0.0
 10
185.7270902768623
 20
123.7177535780593
 30
0.0
 10
185.7857119252918
 20
123.7071680549705
 30
0.0
 10
185.8300913646914
 20
123.6992348990182
 30
0.0
 10
185.9456513905709
 20
123.6795476517907
 30
0.0
 10
186.0163194454454
 20
123.6678787717517
 30
0.0
 10
186.1832195541472
 20
123.6422106589595
 30
0.0
 10
186.2801444858517
 20
123.6281406370261
 30
0.0
 10
186.597694673668
 20
123.586476435898
 30
0.0
 10
186.8537647337778
 20
123.55851014098
 30
0.0
 10
187.2686598209625
 20
123.5288113795278
 30
0.0
 10
187.4139410279637
 20
123.5207689536143
 30
0.0
 10
187.7109730254123
 20
123.5099056347771
 30
0.0
 10
187.8604158126864
 20
123.5071284703811
 30
0.0
 10
188.1611189334457
 20
123.5070955243676
 30
0.0
 10
188.3138838191807
 20
123.509931950333
 30
0.0
 10
188.6091092104399
 20
123.5207226373244
 30
0.0
 10
188.7526354599183
 20
123.5286219361281
 30
0.0
 10
189.0314928317586
 20
123.5485423578229
 30
0.0
 10
189.1656767615376
 20
123.5605255760665
 30
0.0
 10
189.4145041096862
 20
123.5862682402222
 30
0.0
 10
189.5310269175966
 20
123.6001883266741
 30
0.0
 10
189.7450433254526
 20
123.6282650189231
 30
0.0
 10
189.8399743072106
 20
123.6420596975478
 30
0.0
 10
190.0065304617963
 20
123.6676591510346
 30
0.0
 10
190.0787260215049
 20
123.6795729288559
 30
0.0
 10
190.1941355631102
 20
123.6992352140231
 30
0.0
 10
190.2377851454375
 20
123.7070373184572
 30
0.0
 10
190.2969305873608
 20
123.7177152807958
 30
0.0
 10
190.3120534774765
 20
123.7205228311317
 30
0.0
 10
190.3122330891297
 20
123.7205558796734
 30
0.0
 10
190.2518344084209
 20
123.7090720365612
 30
0.0
 10
190.0798491896389
 20
123.67976097047
 30
0.0
 10
190.0082088250857
 20
123.6679251443142
 30
0.0
 10
189.840721076804
 20
123.6421665593317
 30
0.0
 10
189.7458253102018
 20
123.6283835237503
 30
0.0
 10
189.5340020756486
 20
123.600562999137
 30
0.0
 10
189.4159419137913
 20
123.5864300528566
 30
0.0
 10
189.1668446651947
 20
123.5606334752856
 30
0.0
 10
189.0349620772272
 20
123.5488296756873
 30
0.0
 10
188.756093376347
 20
123.5288304350664
 30
0.0
 10
188.6104209775103
 20
123.5207929541403
 30
0.0
 10
188.3162940301157
 20
123.5099979556301
 30
0.0
 10
188.1657758846861
 20
123.5071335213311
 30
0.0
 10
187.8619246357304
 20
123.507090571418
 30
0.0
 10
187.7123422388208
 20
123.5098864858863
 30
0.0
 10
187.4176961516362
 20
123.5206012239155
 30
0.0
 10
187.2711181821776
 20
123.5286550261428
 30
0.0
 10
186.9930777509494
 20
123.5485185474946
 30
0.0
 10
186.8610050941722
 20
123.5602887421332
 30
0.0
 10
186.6106625142525
 20
123.5861541384579
 30
0.0
 10
186.4928454855696
 20
123.6002416676177
 30
0.0
 10
186.1753109232632
 20
123.6418784854759
 30
0.0
 10
186.0037252898186
 20
123.6696607911015
 30
0.0
 10
185.8310838094056
 20
123.6990624407867
 30
0.0
 10
185.7865035843959
 20
123.7070260216522
 30
0.0
 10
185.7270926574852
 20
123.7177522409588
 30
0.0
 10
185.7121135305885
 20
123.7205338809035
 30
0.0
 10
185.7121135305885
 20
123.7205338809035
 30
0.0
  0
SPLINE
  5
139
330
1F
100
AcDbEntity
  8
0
  6
HIDDEN
 62
     7
370
     0
100
AcDbSpline
210
0.0
220
0.0
230
1.0
 70
     8
 71
     3
 72
    64
 73
    60
 74
     0
 42
0.00000001
 43
0.00000001
 40
-0.0312499999999991
 40
-0.0312499999999991
 40
0.0
 40
0.0
 40
0.0312500000000015
 40
0.0312500000000015
 40
0.0625000000000029
 40
0.0625000000000029
 40
0.0937500000000044
 40
0.0937500000000044
 40
0.1250000000000058
 40
0.1250000000000058
 40
0.1875000000000086
 40
0.1875000000000086
 40
0.2187500000000087
 40
0.2187500000000087
 40
0.2500000000000088
 40
0.2500000000000088
 40
0.2812500000000089
 40
0.2812500000000089
 40
0.312500000000009
 40
0.312500000000009
 40
0.3437500000000092
 40
0.3437500000000092
 40
0.3750000000000093
 40
0.3750000000000093
 40
0.4062500000000094
 40
0.4062500000000094
 40
0.4375000000000095
 40
0.4375000000000095
 40
0.4687500000000097
 40
0.4687500000000097
 40
0.5000000000000098
 40
0.5000000000000098
 40
0.5625000000000095
 40
0.5625000000000095
 40
0.5937500000000089
 40
0.5937500000000089
 40
0.6250000000000082
 40
0.6250000000000082
 40
0.6562500000000077
 40
0.6562500000000077
 40
0.687500000000007
 40
0.687500000000007
 40
0.7187500000000063
 40
0.7187500000000063
 40
0.7500000000000057
 40
0.7500000000000057
 40
0.781250000000005
 40
0.781250000000005
 40
0.8125000000000043
 40
0.8125000000000043
 40
0.8437500000000037
 40
0.8437500000000037
 40
0.875000000000003
 40
0.875000000000003
 40
0.9375000000000017
 40
0.9375000000000017
 40
0.9687500000000009
 40
0.9687500000000009
 40
1.0
 40
1.0
 40
1.031250000000002
 40
1.031250000000002
 10
185.7121135305885
 20
104.8386413688679
 30
0.0
 10
185.7121135305885
 20
105.102426392939
 30
0.0
 10
185.7270902768623
 20
105.233449631082
 30
0.0
 10
185.7857119252918
 20
105.4936913917992
 30
0.0
 10
185.8300913646913
 20
105.6243151834406
 30
0.0
 10
185.9456513905709
 20
105.8752411914215
 30
0.0
 10
186.0163194454454
 20
105.9953725562929
 30
0.0
 10
186.1832195541472
 20
106.2245123909635
 30
0.0
 10
186.2801444858517
 20
106.3337400292808
 30
0.0
 10
186.597694673668
 20
106.6295020367989
 30
0.0
 10
186.8537647337778
 20
106.7917861277763
 30
0.0
 10
187.2686598209625
 20
106.955779638889
 30
0.0
 10
187.4139410279637
 20
106.9981980769703
 30
0.0
 10
187.7109730254123
 20
107.0549098933829
 30
0.0
 10
187.8604158126863
 20
107.0690184646284
 30
0.0
 10
188.1611189334457
 20
107.0691873557858
 30
0.0
 10
188.3138838191807
 20
107.0547718766007
 30
0.0
 10
188.6091092104398
 20
106.9984405061479
 30
0.0
 10
188.7526354599183
 20
106.9568075060457
 30
0.0
 10
189.0314928317586
 20
106.8468451884966
 30
0.0
 10
189.1656767615376
 20
106.7786187415387
 30
0.0
 10
189.4145041096862
 20
106.6217341012315
 30
0.0
 10
189.5310269175966
 20
106.5321538850179
 30
0.0
 10
189.7450433254525
 20
106.3328684972545
 30
0.0
 10
189.8399743072106
 20
106.2257054421823
 30
0.0
 10
190.0065304617963
 20
105.9974854770124
 30
0.0
 10
190.0787260215049
 20
105.8749438368421
 30
0.0
 10
190.1941355631102
 20
105.6242863191128
 30
0.0
 10
190.2377851454375
 20
105.4962317009361
 30
0.0
 10
190.2969305873607
 20
105.2350543542298
 30
0.0
 10
190.3120534774765
 20
105.1014664696689
 30
0.0
 10
190.3122330891298
 20
104.7110496181363
 30
0.0
 10
190.2518344084209
 20
104.4541385873276
 30
0.0
 10
190.0798491896389
 20
104.1090493526434
 30
0.0
 10
190.0082088250857
 20
103.9987188602626
 30
0.0
 10
189.840721076804
 20
103.7945280648803
 30
0.0
 10
189.7458253102018
 20
103.7012997157243
 30
0.0
 10
189.5340020756485
 20
103.5314370981714
 30
0.0
 10
189.4159419137912
 20
103.4544574887988
 30
0.0
 10
189.1668446651947
 20
103.3229734944955
 30
0.0
 10
189.0349620772271
 20
103.2675482226349
 30
0.0
 10
188.756093376347
 20
103.1770800730548
 30
0.0
 10
188.6104209775103
 20
103.1427396282539
 30
0.0
 10
188.3162940301157
 20
103.0971720711993
 30
0.0
 10
188.1657758846861
 20
103.0854755494489
 30
0.0
 10
187.8619246357304
 20
103.0852983251881
 30
0.0
 10
187.7123422388208
 20
103.0967112488608
 30
0.0
 10
187.4176961516361
 20
103.1419208620534
 30
0.0
 10
187.2711181821776
 20
103.1763211203616
 30
0.0
 10
186.9930777509494
 20
103.2661071217929
 30
0.0
 10
186.8610050941722
 20
103.3212949830767
 30
0.0
 10
186.6106625142525
 20
103.4529744517077
 30
0.0
 10
186.4928454855696
 20
103.5296311112594
 30
0.0
 10
186.1753109232632
 20
103.7833893081814
 30
0.0
 10
186.0037252898186
 20
103.9911861451349
 30
0.0
 10
185.8310838094056
 20
104.3357781194383
 30
0.0
 10
185.7865035843959
 20
104.4579664472846
 30
0.0
 10
185.7270926574852
 20
104.7098004748351
 30
0.0
 10
185.7121135305885
 20
104.8386413688679
 30
0.0
 10
185.7121135305885
 20
105.102426392939
 30
0.0
  0
SPLINE
  5
13A
330
1F
100
AcDbEntity
  8
0
  6
HIDDEN
 62
     7
370
     0
100
AcDbSpline
210
0.0
220
0.0
230
1.0
 70
     8
 71
     3
 72
    64
 73
    60
 74
     0
 42
0.00000001
 43
0.00000001
 40
-0.0312500000000008
 40
-0.0312500000000008
 40
0.0
 40
0.0
 40
0.0312499999999978
 40
0.0312499999999978
 40
0.0624999999999957
 40
0.0624999999999957
 40
0.0937499999999935
 40
0.0937499999999935
 40
0.1249999999999914
 40
0.1249999999999914
 40
0.187499999999989
 40
0.187499999999989
 40
0.2187499999999891
 40
0.2187499999999891
 40
0.2499999999999893
 40
0.2499999999999893
 40
0.2812499999999895
 40
0.2812499999999895
 40
0.3124999999999896
 40
0.3124999999999896
 40
0.3437499999999898
 40
0.3437499999999898
 40
0.37499999999999
 40
0.37499999999999
 40
0.4062499999999902
 40
0.4062499999999902
 40
0.4374999999999903
 40
0.4374999999999903
 40
0.4687499999999905
 40
0.4687499999999905
 40
0.4999999999999907
 40
0.4999999999999907
 40
0.562499999999991
 40
0.562499999999991
 40
0.5937499999999917
 40
0.5937499999999917
 40
0.6249999999999922
 40
0.6249999999999922
 40
0.6562499999999929
 40
0.6562499999999929
 40
0.6874999999999934
 40
0.6874999999999934
 40
0.7187499999999941
 40
0.7187499999999941
 40
0.7499999999999947
 40
0.7499999999999947
 40
0.7812499999999953
 40
0.7812499999999953
 40
0.812499999999996
 40
0.812499999999996
 40
0.8437499999999966
 40
0.8437499999999966
 40
0.8749999999999972
 40
0.8749999999999972
 40
0.9374999999999986
 40
0.9374999999999986
 40
0.9687499999999992
 40
0.9687499999999992
 40
1.0
 40
1.0
 40
1.031249999999998
 40
1.031249999999998
 10
185.7121135305885
 20
105.1024263929391
 30
0.0
 10
185.7121135305885
 20
104.8386413688681
 30
0.0
 10
185.7270902768623
 20
104.7103984335693
 30
0.0
 10
185.7857119252917
 20
104.4607421959409
 30
0.0
 10
185.8300913646913
 20
104.3380515602517
 30
0.0
 10
185.9456513905709
 20
104.1068127994983
 30
0.0
 10
186.0163194454454
 20
103.998350314666
 30
0.0
 10
186.1832195541472
 20
103.7948785927876
 30
0.0
 10
186.2801444858517
 20
103.6997209764037
 30
0.0
 10
186.597694673668
 20
103.4456231700137
 30
0.0
 10
186.8537647337778
 20
103.3113053739543
 30
0.0
 10
187.2686598209625
 20
103.1770106242937
 30
0.0
 10
187.4139410279637
 20
103.142634612126
 30
0.0
 10
187.7109730254123
 20
103.0967861145506
 30
0.0
 10
187.8604158126863
 20
103.085454707701
 30
0.0
 10
188.1611189334457
 20
103.0853187625571
 30
0.0
 10
188.3138838191807
 20
103.0968978157768
 30
0.0
 10
188.6091092104399
 20
103.1424384992383
 30
0.0
 10
188.7526354599183
 20
103.1761722005368
 30
0.0
 10
189.0314928317586
 20
103.266214096391
 30
0.0
 10
189.1656767615376
 20
103.3224573251054
 30
0.0
 10
189.4145041096862
 20
103.4535993012569
 30
0.0
 10
189.5310269175967
 20
103.5292594310185
 30
0.0
 10
189.7450433254525
 20
103.7004681265329
 30
0.0
 10
189.8399743072106
 20
103.7938365029805
 30
0.0
 10
190.0065304617963
 20
103.9964570146636
 30
0.0
 10
190.0787260215049
 20
104.1070848770125
 30
0.0
 10
190.1941355631102
 20
104.3380801095746
 30
0.0
 10
190.2377851454374
 20
104.4583326233173
 30
0.0
 10
190.2969305873608
 20
104.708832007685
 30
0.0
 10
190.3120534774765
 20
104.8396123419099
 30
0.0
 10
190.3122330891297
 20
105.2299961449009
 30
0.0
 10
190.2518344084209
 20
105.4983910188218
 30
0.0
 10
190.0798491896389
 20
105.8727913195971
 30
0.0
 10
190.0082088250857
 20
105.9949576381338
 30
0.0
 10
189.840721076804
 20
106.2249070184985
 30
0.0
 10
189.7458253102018
 20
106.3319184032359
 30
0.0
 10
189.5340020756486
 20
106.5296015454022
 30
0.0
 10
189.4159419137913
 20
106.6207141010552
 30
0.0
 10
189.1668446651947
 20
106.7779946729296
 30
0.0
 10
189.0349620772272
 20
106.8452237443883
 30
0.0
 10
188.756093376347
 20
106.9556911345893
 30
0.0
 10
188.6104209775104
 20
106.9980690603164
 30
0.0
 10
188.3162940301157
 20
107.0544316158812
 30
0.0
 10
188.1657758846862
 20
107.0689925719306
 30
0.0
 10
187.8619246357304
 20
107.0692127461045
 30
0.0
 10
187.7123422388208
 20
107.0550039079635
 30
0.0
 10
187.4176961516361
 20
106.9990795567416
 30
0.0
 10
187.2711181821776
 20
106.9566254962061
 30
0.0
 10
186.9930777509494
 20
106.8469759734231
 30
0.0
 10
186.8610050941722
 20
106.7800179175007
 30
0.0
 10
186.6106625142525
 20
106.6224730525449
 30
0.0
 10
186.4928454855696
 20
106.5317288638335
 30
0.0
 10
186.1753109232632
 20
106.2363338490533
 30
0.0
 10
186.0037252898186
 20
106.0007547064742
 30
0.0
 10
185.8310838094056
 20
105.6267610824856
 30
0.0
 10
185.7865035843959
 20
105.4966091737738
 30
0.0
 10
185.7270926574852
 20
105.2340489269166
 30
0.0
 10
185.7121135305885
 20
105.1024263929391
 30
0.0
 10
185.7121135305885
 20
104.8386413688681
 30
0.0
  0
LINE
  5
13B
330
1F
100
AcDbEntity
  8
0
  6
HIDDEN
 62
     7
370
     0
100
AcDbLine
 10
199.8621135306
 20
123.2955338809
 30
0.0
 11
199.8621135306
 21
99.1455338809
 31
0.0
  0
LINE
  5
13C
330
1F
100
AcDbEntity
  8
0
  6
HIDDEN
 62
     7
370
     0
100
AcDbLine
 10
200.9621135306
 20
123.2955338809
 30
0.0
 11
200.9621135306
 21
99.1455338809
 31
0.0
  0
LINE
  5
13D
330
1F
100
AcDbEntity
  8
0
  6
HIDDEN
 62
     7
370
     0
100
AcDbLine
 10
128.7121135306
 20
122.4705338809
 30
0.0
 11
128.7121135306
 21
99.9705338809
 31
0.0
  0
LINE
  5
13E
330
1F
100
AcDbEntity
  8
0
  6
HIDDEN
 62
     7
370
     0
100
AcDbLine
 10
127.9621135306
 20
99.2205338809
 30
0.0
 11
127.9621135306
 21
123.2205338809
 31
0.0
  0
LWPOLYLINE
  5
13F
330
1F
100
AcDbEntity
  8
0
  6
HIDDEN
 62
     7
370
     0
100
AcDbPolyline
 90
       11
 70
   128
 43
0.0
 10
190.3121135306
 20
106.4705338809
 10
190.1995435181
 20
107.0860519858
 10
189.8728526177
 20
107.64131889
 10
189.3640196109
 20
108.0819812001
 10
188.7228526177
 20
108.3649038191
 10
188.0121135306
 20
108.4623923096
 10
187.3013744435
 20
108.3649038191
 10
186.6602074503
 20
108.0819812001
 10
186.1513744435
 20
107.64131889
 10
185.8246835431
 20
107.0860519858
 10
185.7121135306
 20
106.4705338809
  0
LWPOLYLINE
  5
140
330
1F
100
AcDbEntity
  8
0
  6
HIDDEN
 62
     7
370
     0
100
AcDbPolyline
 90
       11
 70
   128
 43
0.0
 10
185.7121135306
 20
106.4705338809
 10
185.8246835431
 20
105.855015776
 10
186.1513744435
 20
105.2997488719
 10
186.6602074503
 20
104.8590865617
 10
187.3013744435
 20
104.5761639427
 10
188.0121135306
 20
104.4786754522
 10
188.7228526177
 20
104.5761639427
 10
189.3640196109
 20
104.8590865617
 10
189.8728526177
 20
105.2997488719
 10
190.1995435181
 20
105.855015776
 10
190.3121135306
 20
106.4705338809
  0
ELLIPSE
  5
141
330
1F
100
AcDbEntity
  8
0
  6
HIDDEN
 62
     7
370
     0
100
AcDbEllipse
 10
59.3274403303
 20
111.2205338809
 30
0.0
 11
31.08108570811661
 21
-1.421085471520200E-14
 31
0.0
210
0.0
220
0.0
230
1.0
 40
0.8164965809
 41
4.915995335118103
 42
4.970536038964787
  0
LINE
  5
142
330
1F
100
AcDbEntity
  8
0
  6
HIDDEN
 62
     7
370
     0
100
AcDbLine
 10
65.6121135306
 20
83.8505338809
 30
0.0
 11
65.6121135306
 21
86.3671401279
 31
0.0
  0
ELLIPSE
  5
143
330
1F
100
AcDbEntity
  8
0
  6
HIDDEN
 62
     7
370
     0
100
AcDbEllipse
 10
59.3274403303
 20
111.2205338809
 30
0.0
 11
31.08108570811661
 21
1.421085471520200E-14
 31
0.0
210
0.0
220
0.0
230
1.0
 40
0.8164965809
 41
1.312649268214811
 42
1.367189972061496
  0
LINE
  5
144
330
1F
100
AcDbEntity
  8
0
  6
HIDDEN
 62
     7
370
     0
100
AcDbLine
 10
65.6121135306
 20
138.5905338809
 30
0.0
 11
65.6121135306
 21
136.0739276339
 31
0.0
  0
SPLINE
  5
145
330
1F
100
AcDbEntity
  8
0
  6
HIDDEN
 62
     7
370
     0
100
AcDbSpline
210
0.0
220
0.0
230
1.0
 70
     8
 71
     3
 72
    18
 73
    14
 74
     0
 42
0.00000001
 43
0.00000001
 40
0.0
 40
0.0
 40
0.0
 40
0.0
 40
0.125000000000003
 40
0.125000000000003
 40
0.250000000000006
 40
0.250000000000006
 40
0.5000000000000059
 40
0.5000000000000059
 40
0.6250000000000059
 40
0.6250000000000059
 40
0.7500000000000058
 40
0.7500000000000058
 40
1.0
 40
1.0
 40
1.0
 40
1.0
 10
181.7621135305885
 20
117.2785212972592
 30
0.0
 10
181.5890769827199
 20
117.2401983452135
 30
0.0
 10
181.4288094186566
 20
117.1813081784698
 30
0.0
 10
181.133226035838
 20
117.0209729470463
 30
0.0
 10
181.0046834713492
 20
116.9229332299689
 30
0.0
 10
180.6811240261839
 20
116.5755152319803
 30
0.0
 10
180.5624659456452
 20
116.2812336916164
 30
0.0
 10
180.5619385223269
 20
115.8172939133947
 30
0.0
 10
180.5909177818634
 20
115.6605883988955
 30
0.0
 10
180.7040824505648
 20
115.3585778023917
 30
0.0
 10
180.7881386286824
 20
115.2138309001076
 30
0.0
 10
181.1092645125878
 20
114.823024389075
 30
0.0
 10
181.4160568746363
 20
114.6222440622344
 30
0.0
 10
181.7621135305885
 20
114.5289758802857
 30
0.0
  0
LINE
  5
146
330
1F
100
AcDbEntity
  8
0
  6
HIDDEN
 62
     7
370
     0
100
AcDbLine
 10
181.7621135306
 20
114.5289758803
 30
0.0
 11
181.7621135305
 21
114.7443738587
 31
0.0
  0
SPLINE
  5
147
330
1F
100
AcDbEntity
  8
0
  6
HIDDEN
 62
     7
370
     0
100
AcDbSpline
210
0.0
220
0.0
230
1.0
 70
     8
 71
     3
 72
    23
 73
    19
 74
     0
 42
0.00000001
 43
0.00000001
 40
0.0001620647303176
 40
0.0001620647303176
 40
0.0001620647303176
 40
0.0001620647303176
 40
0.0001791833705586
 40
0.0001791833705586
 40
0.0001791833705586
 40
0.0002124145184226
 40
0.0002124145184226
 40
0.0002124145184226
 40
0.0002445804891104
 40
0.0002445804891104
 40
0.0002445804891104
 40
0.00027685321484
 40
0.00027685321484
 40
0.00027685321484
 40
0.00031002209323
 40
0.00031002209323
 40
0.00031002209323
 40
0.0003194655452153
 40
0.0003194655452153
 40
0.0003194655452153
 40
0.0003194655452153
 10
181.7621135305885
 20
114.744373858676
 30
0.0
 10
181.7621135305882
 20
114.7472366450885
 30
0.0
 10
181.7625966567321
 20
114.749991835082
 30
0.0
 10
181.7635615779454
 20
114.7525743210792
 30
0.0
 10
181.765428870943
 20
114.7575718876706
 30
0.0
 10
181.769187176438
 20
114.7620165994135
 30
0.0
 10
181.7745354596311
 20
114.7655384347532
 30
0.0
 10
181.7797177264892
 20
114.7689509486201
 30
0.0
 10
181.7865307370541
 20
114.7715952325279
 30
0.0
 10
181.7944024354897
 20
114.7733133258608
 30
0.0
 10
181.8023036082417
 20
114.7750378523194
 30
0.0
 10
181.8114779402381
 20
114.7758805259571
 30
0.0
 10
181.8211883569718
 20
114.7758439205352
 30
0.0
 10
181.8311669130005
 20
114.7758063043068
 30
0.0
 10
181.8419738027108
 20
114.7748427499729
 30
0.0
 10
181.8527640513161
 20
114.773074911739
 30
0.0
 10
181.8558736215435
 20
114.7725654501557
 30
0.0
 10
181.8589967215435
 20
114.7719881347027
 30
0.0
 10
181.8621135305885
 20
114.77134711058
 30
0.0
  0
SPLINE
  5
148
330
1F
100
AcDbEntity
  8
0
  6
HIDDEN
 62
     7
370
     0
100
AcDbSpline
210
0.0
220
0.0
230
1.0
 70
     8
 71
     3
 72
    10
 73
     6
 74
     0
 42
0.00000001
 43
0.00000001
 40
0.0
 40
0.0
 40
0.0
 40
0.0
 40
0.5
 40
0.5
 40
1.0
 40
1.0
 40
1.0
 40
1.0
 10
181.8621135305885
 20
114.7713471105796
 30
0.0
 10
182.0119563649139
 20
114.7405294152945
 30
0.0
 10
182.1628241893669
 20
114.7297828109688
 30
0.0
 10
182.4665667993091
 20
114.7477439293538
 30
0.0
 10
182.6176629178472
 20
114.7768578019056
 30
0.0
 10
182.7621135305885
 20
114.8250976607988
 30
0.0
  0
SPLINE
  5
149
330
1F
100
AcDbEntity
  8
0
  6
HIDDEN
 62
     7
370
     0
100
AcDbSpline
210
0.0
220
0.0
230
1.0
 70
     8
 71
     3
 72
    20
 73
    16
 74
     0
 42
0.00000001
 43
0.00000001
 40
0.0000002095638252
 40
0.0000002095638252
 40
0.0000002095638252
 40
0.0000002095638252
 40
0.0000365247662458
 40
0.0000365247662458
 40
0.0000365247662458
 40
0.0000731650534721
 40
0.0000731650534721
 40
0.0000731650534721
 40
0.0001079711865408
 40
0.0001079711865408
 40
0.0001079711865408
 40
0.0001401117176298
 40
0.0001401117176298
 40
0.0001401117176298
 40
0.0001602202130874
 40
0.0001602202130874
 40
0.0001602202130874
 40
0.0001602202130874
 10
182.7621135305885
 20
114.8250976607988
 30
0.0
 10
182.7735106908677
 20
114.8289037879811
 30
0.0
 10
182.7851188527846
 20
114.8319088065815
 30
0.0
 10
182.796004708627
 20
114.8338123679219
 30
0.0
 10
182.8069730798452
 20
114.8357303583602
 30
0.0
 10
182.8175259442353
 20
114.8365770781597
 30
0.0
 10
182.8266440477944
 20
114.8361324530495
 30
0.0
 10
182.8353053019137
 20
114.8357101052398
 30
0.0
 10
182.8429287270688
 20
114.834096920981
 30
0.0
 10
182.8487060761177
 20
114.8313155138891
 30
0.0
 10
182.8540496509738
 20
114.8287429400538
 30
0.0
 10
182.8579674727911
 20
114.8250917612835
 30
0.0
 10
182.8601016494927
 20
114.8206502399707
 30
0.0
 10
182.8614414034772
 20
114.8178620238537
 30
0.0
 10
182.8621135305885
 20
114.8147281330728
 30
0.0
 10
182.8621135305885
 20
114.8113646347648
 30
0.0
  0
LINE
  5
14A
330
1F
100
AcDbEntity
  8
0
  6
HIDDEN
 62
     7
370
     0
100
AcDbLine
 10
182.8621135306
 20
114.8113646348
 30
0.0
 11
182.8621135306
 21
114.5962243933
 31
0.0
  0
SPLINE
  5
14B
330
1F
100
AcDbEntity
  8
0
  6
HIDDEN
 62
     7
370
     0
100
AcDbSpline
210
0.0
220
0.0
230
1.0
 70
     8
 71
     3
 72
    22
 73
    18
 74
     0
 42
0.00000001
 43
0.00000001
 40
0.0
 40
0.0
 40
0.0
 40
0.0
 40
0.1249999999999999
 40
0.1249999999999999
 40
0.2499999999999998
 40
0.2499999999999998
 40
0.3749999999999998
 40
0.3749999999999998
 40
0.4999999999999997
 40
0.4999999999999997
 40
0.6249999999999996
 40
0.6249999999999996
 40
0.7499999999999996
 40
0.7499999999999996
 40
0.8749999999999998
 40
0.8749999999999998
 40
1.0
 40
1.0
 40
1.0
 40
1.0
 10
182.8621135305885
 20
114.5962243932634
 30
0.0
 10
183.0108941491714
 20
114.6566041982531
 30
0.0
 10
183.1466481903009
 20
114.7354003277522
 30
0.0
 10
183.3929832864746
 20
114.9274131888774
 30
0.0
 10
183.5005850794542
 20
115.0390146123472
 30
0.0
 10
183.6768106178635
 20
115.2827894070284
 30
0.0
 10
183.7460481074698
 20
115.4164177358292
 30
0.0
 10
183.8381237142899
 20
115.6889893176871
 30
0.0
 10
183.8620780687139
 20
115.8317379286392
 30
0.0
 10
183.8621489114929
 20
116.1086967364362
 30
0.0
 10
183.8383577153903
 20
116.24696315114
 30
0.0
 10
183.746240652149
 20
116.504748524103
 30
0.0
 10
183.6773718158327
 20
116.6266478259751
 30
0.0
 10
183.5008226949085
 20
116.8453869625269
 30
0.0
 10
183.3939621114206
 20
116.9419668289817
 30
0.0
 10
183.1468959249639
 20
117.1069622765285
 30
0.0
 10
183.010893142115
 20
117.1729420081365
 30
0.0
 10
182.8621135305885
 20
117.2230095005761
 30
0.0
  0
LINE
  5
14C
330
1F
100
AcDbEntity
  8
0
  6
HIDDEN
 62
     7
370
     0
100
AcDbLine
 10
182.8621135306
 20
117.2230095006
 30
0.0
 11
182.8621135306
 21
117.4381497421
 31
0.0
  0
SPLINE
  5
14D
330
1F
100
AcDbEntity
  8
0
  6
HIDDEN
 62
     7
370
     0
100
AcDbSpline
210
0.0
220
0.0
230
1.0
 70
     8
 71
     3
 72
    23
 73
    19
 74
     0
 42
0.00000001
 43
0.00000001
 40
0.0001662950200273
 40
0.0001662950200273
 40
0.0001662950200273
 40
0.0001662950200273
 40
0.0001888869641777
 40
0.0001888869641777
 40
0.0001888869641777
 40
0.0002202292132408
 40
0.0002202292132408
 40
0.0002202292132408
 40
0.0002508744951465
 40
0.0002508744951465
 40
0.0002508744951465
 40
0.0002827639243137
 40
0.0002827639243137
 40
0.0002827639243137
 40
0.0003169268929599
 40
0.0003169268929599
 40
0.0003169268929599
 40
0.0003258677376186
 40
0.0003258677376186
 40
0.0003258677376186
 40
0.0003258677376186
 10
182.8621135305885
 20
117.4381497420778
 30
0.0
 10
182.8621135305885
 20
117.4419210908915
 30
0.0
 10
182.8612654444392
 20
117.446036647153
 30
0.0
 10
182.8595812058192
 20
117.450317445478
 30
0.0
 10
182.8572435324894
 20
117.4562590667875
 30
0.0
 10
182.8532110019808
 20
117.4626686446756
 30
0.0
 10
182.8478402082166
 20
117.4689617076484
 30
0.0
 10
182.842581444304
 20
117.4751235030765
 30
0.0
 10
182.8359111234152
 20
117.4813331427418
 30
0.0
 10
182.8283875686793
 20
117.4870908861346
 30
0.0
 10
182.8205572585064
 20
117.4930833881159
 30
0.0
 10
182.8116109261225
 20
117.4987380247826
 30
0.0
 10
182.8022316858643
 20
117.5036478827325
 30
0.0
 10
182.7921902468491
 20
117.5089043894239
 30
0.0
 10
182.7813999636676
 20
117.513441339784
 30
0.0
 10
182.7706568300826
 20
117.5169516652262
 30
0.0
 10
182.767812827127
 20
117.5178809449242
 30
0.0
 10
182.7649603805628
 20
117.5187437623237
 30
0.0
 10
182.7621135305885
 20
117.5195363778606
 30
0.0
  0
SPLINE
  5
14E
330
1F
100
AcDbEntity
  8
0
  6
HIDDEN
 62
     7
370
     0
100
AcDbSpline
210
0.0
220
0.0
230
1.0
 70
     8
 71
     3
 72
    10
 73
     6
 74
     0
 42
0.00000001
 43
0.00000001
 40
0.0
 40
0.0
 40
0.0
 40
0.0
 40
0.5
 40
0.5
 40
1.0
 40
1.0
 40
1.0
 40
1.0
 10
182.7621135305885
 20
117.5195363778603
 30
0.0
 10
182.6176702383931
 20
117.5597520543542
 30
0.0
 10
182.4694913098073
 20
117.5833556691562
 30
0.0
 10
182.1657816971434
 20
117.5985907620975
 30
0.0
 10
182.0119578994398
 20
117.5897126436432
 30
0.0
 10
181.8621135305885
 20
117.5641951193334
 30
0.0
  0
SPLINE
  5
14F
330
1F
100
AcDbEntity
  8
0
  6
HIDDEN
 62
     7
370
     0
100
AcDbSpline
210
0.0
220
0.0
230
1.0
 70
     8
 71
     3
 72
    20
 73
    16
 74
     0
 42
0.00000001
 43
0.00000001
 40
0.0000002019816324
 40
0.0000002019816324
 40
0.0000002019816324
 40
0.0000002019816324
 40
0.000034327889285
 40
0.000034327889285
 40
0.000034327889285
 40
0.0000687102723354
 40
0.0000687102723354
 40
0.0000687102723354
 40
0.0001022735979614
 40
0.0001022735979614
 40
0.0001022735979614
 40
0.0001347629901449
 40
0.0001347629901449
 40
0.0001347629901449
 40
0.0001578678762431
 40
0.0001578678762431
 40
0.0001578678762431
 40
0.0001578678762431
 10
181.8621135305885
 20
117.5641951193334
 30
0.0
 10
181.8510037221715
 20
117.5623031910045
 30
0.0
 10
181.8397025217141
 20
117.5593154230107
 30
0.0
 10
181.8291242091694
 20
117.5554616059825
 30
0.0
 10
181.8184734864262
 20
117.5515814089761
 30
0.0
 10
181.8082578988685
 20
117.546711443433
 30
0.0
 10
181.7993846562141
 20
117.5412915637149
 30
0.0
 10
181.7907220879354
 20
117.5360003663535
 30
0.0
 10
181.7830934172734
 20
117.5300339475857
 30
0.0
 10
181.7771898237499
 20
117.5239580718796
 30
0.0
 10
181.7714708183842
 20
117.5180721710928
 30
0.0
 10
181.7672106737767
 20
117.5119217631059
 30
0.0
 10
181.7647502324967
 20
117.5060587084349
 30
0.0
 10
181.7629972858303
 20
117.5018815625612
 30
0.0
 10
181.7621135305885
 20
117.4977777882737
 30
0.0
 10
181.7621135305885
 20
117.4939192756516
 30
0.0
  0
LINE
  5
150
330
1F
100
AcDbEntity
  8
0
  6
HIDDEN
 62
     7
370
     0
100
AcDbLine
 10
181.7621135306
 20
117.4939192757
 30
0.0
 11
181.7621135306
 21
117.2785212973
 31
0.0
  0
LWPOLYLINE
  5
151
330
1F
100
AcDbEntity
  8
0
  6
HIDDEN
 62
     7
370
     0
100
AcDbPolyline
 90
        2
 70
   128
 43
0.0
 10
201.4621135306
 20
106.4455338809
 10
201.4621135306
 20
106.4455338809
  0
LWPOLYLINE
  5
152
330
1F
100
AcDbEntity
  8
0
  6
HIDDEN
 62
     7
370
     0
100
AcDbPolyline
 90
        2
 70
   128
 43
0.0
 10
201.4621135306
 20
115.9955338809
 10
201.4621135306
 20
115.9955338809
  0
LWPOLYLINE
  5
153
330
1F
100
AcDbEntity
  8
0
  6
HIDDEN
 62
     7
370
     0
100
AcDbPolyline
 90
        2
 70
   128
 43
0.0
 10
201.9621135306
 20
116.4955338809
 10
201.9621135306
 20
116.4955338809
  0
LWPOLYLINE
  5
154
330
1F
100
AcDbEntity
  8
0
  6
HIDDEN
 62
     7
370
     0
100
AcDbPolyline
 90
        2
 70
   128
 43
0.0
 10
201.9621135306
 20
105.9455338809
 10
201.9621135306
 20
105.9455338809
  0
SPLINE
  5
155
330
1F
100
AcDbEntity
  8
0
  6
HIDDEN
 62
     7
370
     0
100
AcDbSpline
210
0.0
220
0.0
230
1.0
 70
    24
 71
     3
 72
     8
 73
     4
 74
     0
 42
0.00000001
 43
0.00000001
 40
0.0
 40
0.0
 40
0.0
 40
0.0
 40
1.0
 40
1.0
 40
1.0
 40
1.0
 10
204.8121135305885
 20
116.4955338809035
 30
0.0
 10
205.0525327344013
 20
116.7359530847164
 30
0.0
 10
205.286195781422
 20
116.969616131737
 30
0.0
 10
205.5121135305885
 20
117.1955338809035
 30
0.0
  0
LINE
  5
156
330
1F
100
AcDbEntity
  8
0
  6
HIDDEN
 62
     7
370
     0
100
AcDbLine
 10
205.5121135306
 20
117.1955338809
 30
0.0
 11
205.5121135306
 21
123.0205338809
 31
0.0
  0
LINE
  5
157
330
1F
100
AcDbEntity
  8
0
  6
HIDDEN
 62
     7
370
     0
100
AcDbLine
 10
204.9621135306
 20
116.6455338809
 30
0.0
 11
204.8121135306
 21
116.4955338809
 31
0.0
  0
LWPOLYLINE
  5
158
330
1F
100
AcDbEntity
  8
0
  6
HIDDEN
 62
     7
370
     0
100
AcDbPolyline
 90
        2
 70
   128
 43
0.0
 10
204.8121135306
 20
116.4955338809
 10
204.8121135306
 20
116.4955338809
  0
LWPOLYLINE
  5
159
330
1F
100
AcDbEntity
  8
0
  6
HIDDEN
 62
     7
370
     0
100
AcDbPolyline
 90
        2
 70
   128
 43
0.0
 10
204.8121135306
 20
105.9455338809
 10
204.8121135306
 20
105.9455338809
  0
LINE
  5
15A
330
1F
100
AcDbEntity
  8
0
  6
HIDDEN
 62
     7
370
     0
100
AcDbLine
 10
205.5121135306
 20
99.4205338809
 30
0.0
 11
205.5121135306
 21
105.2455338809
 31
0.0
  0
SPLINE
  5
15B
330
1F
100
AcDbEntity
  8
0
  6
HIDDEN
 62
     7
370
     0
100
AcDbSpline
210
0.0
220
0.0
230
1.0
 70
    24
 71
     3
 72
     8
 73
     4
 74
     0
 42
0.00000001
 43
0.00000001
 40
0.0
 40
0.0
 40
0.0
 40
0.0
 40
1.0
 40
1.0
 40
1.0
 40
1.0
 10
205.5121135305885
 20
105.2455338809035
 30
0.0
 10
205.286195781422
 20
105.47145163007
 30
0.0
 10
205.0525327344013
 20
105.7051146770906
 30
0.0
 10
204.8121135305885
 20
105.9455338809035
 30
0.0
  0
LINE
  5
15C
330
1F
100
AcDbEntity
  8
0
  6
HIDDEN
 62
     7
370
     0
100
AcDbLine
 10
204.8121135306
 20
105.9455338809
 30
0.0
 11
204.9621135306
 21
105.7955338809
 31
0.0
  0
LINE
  5
15D
330
1F
100
AcDbEntity
  8
0
  6
HIDDEN
 62
     7
370
     0
100
AcDbLine
 10
139.8121135306
 20
99.9705338809
 30
0.0
 11
139.8121135306
 21
122.4454112654
 31
0.0
  0
LWPOLYLINE
  5
15E
330
1F
100
AcDbEntity
  8
0
  6
HIDDEN
 62
     7
370
     0
100
AcDbPolyline
 90
        2
 70
   128
 43
0.0
 10
144.4621135306
 20
67.3205338809
 10
144.4621135306
 20
67.3205338809
  0
LINE
  5
15F
330
1F
100
AcDbEntity
  8
0
  6
HIDDEN
 62
     7
370
     0
100
AcDbLine
 10
144.4621135306
 20
67.3205338809
 30
0.0
 11
130.4621135306
 21
67.3205338809
 31
0.0
  0
LINE
  5
160
330
1F
100
AcDbEntity
  8
0
  6
HIDDEN
 62
     7
370
     0
100
AcDbLine
 10
137.4221135306
 20
64.8491455939
 30
0.0
 11
137.4221135306
 21
65.7573550985
 31
0.0
  0
LINE
  5
161
330
1F
100
AcDbEntity
  8
0
  6
HIDDEN
 62
     7
370
     0
100
AcDbLine
 10
133.6021135306
 20
65.7573550985
 30
0.0
 11
133.6021135306
 21
64.8491455939
 31
0.0
  0
LINE
  5
162
330
1F
100
AcDbEntity
  8
0
  6
HIDDEN
 62
     7
370
     0
100
AcDbLine
 10
144.4621135306
 20
67.3205338809
 30
0.0
 11
144.4621135306
 21
63.4711883357
 31
0.0
  0
LINE
  5
163
330
1F
100
AcDbEntity
  8
0
  6
HIDDEN
 62
     7
370
     0
100
AcDbLine
 10
120.4621135306
 20
61.2305348811
 30
0.0
 11
120.4621135306
 21
67.3205338809
 31
0.0
  0
LINE
  5
164
330
1F
100
AcDbEntity
  8
0
  6
HIDDEN
 62
     7
370
     0
100
AcDbLine
 10
130.4621135306
 20
67.3205338809
 30
0.0
 11
120.4621135306
 21
67.3205338809
 31
0.0
  0
LWPOLYLINE
  5
165
330
1F
100
AcDbEntity
  8
0
  6
HIDDEN
 62
     7
370
     0
100
AcDbPolyline
 90
        2
 70
   128
 43
0.0
 10
205.5121135306
 20
117.1955338809
 10
205.5121135306
 20
117.1955338809
  0
LWPOLYLINE
  5
166
330
1F
100
AcDbEntity
  8
0
  6
HIDDEN
 62
     7
370
     0
100
AcDbPolyline
 90
        2
 70
   128
 43
0.0
 10
205.5121135306
 20
105.2455338809
 10
205.5121135306
 20
105.2455338809
  0
SPLINE
  5
167
330
1F
100
AcDbEntity
  8
0
  6
HIDDEN
 62
     7
370
     0
100
AcDbSpline
210
0.0
220
0.0
230
1.0
 70
     8
 71
     3
 72
    20
 73
    16
 74
     0
 42
0.00000001
 43
0.00000001
 40
0.0000002019816303
 40
0.0000002019816303
 40
0.0000002019816303
 40
0.0000002019816303
 40
0.0000343278892849
 40
0.0000343278892849
 40
0.0000343278892849
 40
0.0000687102723353
 40
0.0000687102723353
 40
0.0000687102723353
 40
0.0001022735979613
 40
0.0001022735979613
 40
0.0001022735979613
 40
0.0001347629901447
 40
0.0001347629901447
 40
0.0001347629901447
 40
0.000157867876241
 40
0.000157867876241
 40
0.000157867876241
 40
0.000157867876241
 10
181.8621135305885
 20
101.3260594127976
 30
0.0
 10
181.8510037221708
 20
101.3256664224514
 30
0.0
 10
181.8397025217128
 20
101.3271735443635
 30
0.0
 10
181.8291242091674
 20
101.3305089182106
 30
0.0
 10
181.8184734864244
 20
101.3338671232114
 30
0.0
 10
181.8082578988668
 20
101.3391810754085
 30
0.0
 10
181.7993846562126
 20
101.346050251416
 30
0.0
 10
181.790722087934
 20
101.352756334919
 30
0.0
 10
181.7830934172721
 20
101.3611419790486
 30
0.0
 10
181.7771898237489
 20
101.3704996217567
 30
0.0
 10
181.7714708183834
 20
101.3795646782592
 30
0.0
 10
181.7672106737761
 20
101.3897944437141
 30
0.0
 10
181.7647502324962
 20
101.4003201421709
 30
0.0
 10
181.7629972858301
 20
101.4078191986083
 30
0.0
 10
181.7621135305885
 20
101.4155914831374
 30
0.0
 10
181.7621135305885
 20
101.423308508381
 30
0.0
  0
LINE
  5
168
330
1F
100
AcDbEntity
  8
0
  6
HIDDEN
 62
     7
370
     0
100
AcDbLine
 10
181.7621135305
 20
114.7443738587
 30
0.0
 11
181.7621135306
 21
101.4233085084
 31
0.0
  0
SPLINE
  5
169
330
1F
100
AcDbEntity
  8
0
  6
HIDDEN
 62
     7
370
     0
100
AcDbSpline
210
0.0
220
0.0
230
1.0
 70
     8
 71
     3
 72
    23
 73
    19
 74
     0
 42
0.00000001
 43
0.00000001
 40
0.0001662950200273
 40
0.0001662950200273
 40
0.0001662950200273
 40
0.0001662950200273
 40
0.0001888869641776
 40
0.0001888869641776
 40
0.0001888869641776
 40
0.0002202292132408
 40
0.0002202292132408
 40
0.0002202292132408
 40
0.0002508744951465
 40
0.0002508744951465
 40
0.0002508744951465
 40
0.0002827639243137
 40
0.0002827639243137
 40
0.0002827639243137
 40
0.0003169268929599
 40
0.0003169268929599
 40
0.0003169268929599
 40
0.0003258677376186
 40
0.0003258677376186
 40
0.0003258677376186
 40
0.0003258677376186
 10
182.8621135305885
 20
101.4120872658681
 30
0.0
 10
182.8621135305885
 20
101.4045445682407
 30
0.0
 10
182.8612654444392
 20
101.3969444625914
 30
0.0
 10
182.8595812058192
 20
101.3896274047476
 30
0.0
 10
182.8572435324894
 20
101.3794715451379
 30
0.0
 10
182.8532110019808
 20
101.3696241309633
 30
0.0
 10
182.8478402082166
 20
101.3609220109983
 30
0.0
 10
182.842581444304
 20
101.3524014093063
 30
0.0
 10
182.8359111234152
 20
101.3447484705468
 30
0.0
 10
182.8283875686793
 20
101.3384798339137
 30
0.0
 10
182.8205572585064
 20
101.3319556082091
 30
0.0
 10
182.8116109261225
 20
101.3267579818108
 30
0.0
 10
182.8022316858644
 20
101.3231598800793
 30
0.0
 10
182.7921902468491
 20
101.319307743007
 30
0.0
 10
182.7813999636676
 20
101.3171860975315
 30
0.0
 10
182.7706568300826
 20
101.3168595472478
 30
0.0
 10
182.767812827127
 20
101.3167731004057
 30
0.0
 10
182.7649603805628
 20
101.3168095026719
 30
0.0
 10
182.7621135305885
 20
101.3169676040509
 30
0.0
  0
LINE
  5
16A
330
1F
100
AcDbEntity
  8
0
  6
HIDDEN
 62
     7
370
     0
100
AcDbLine
 10
182.8621135306
 20
114.8113646348
 30
0.0
 11
182.8621135306
 21
101.4120872659
 31
0.0
  0
LINE
  5
16B
330
1F
100
AcDbEntity
  8
0
  6
HIDDEN
 62
     7
370
     0
100
AcDbLine
 10
80.7121135306
 20
83.8505338809
 30
0.0
 11
80.7121135306
 21
85.9920202505
 31
0.0
  0
LINE
  5
16C
330
1F
100
AcDbEntity
  8
0
  6
HIDDEN
 62
     7
370
     0
100
AcDbLine
 10
67.2621135306
 20
83.8505338809
 30
0.0
 11
67.2621135306
 21
86.6838287231
 31
0.0
  0
LINE
  5
16D
330
1F
100
AcDbEntity
  8
0
  6
HIDDEN
 62
     7
370
     0
100
AcDbLine
 10
67.2621135306
 20
138.5905338809
 30
0.0
 11
67.2621135306
 21
135.7572390387
 31
0.0
  0
LINE
  5
16E
330
1F
100
AcDbEntity
  8
0
  6
HIDDEN
 62
     7
370
     0
100
AcDbLine
 10
75.7121135306
 20
138.5905338809
 30
0.0
 11
75.7121135306
 21
136.4490475113
 31
0.0
  0
LINE
  5
16F
330
1F
100
AcDbEntity
  8
0
  6
HIDDEN
 62
     7
370
     0
100
AcDbLine
 10
133.6021135306
 20
156.9140851218
 30
0.0
 11
133.6021135306
 21
157.8178047416
 31
0.0
  0
LINE
  5
170
330
1F
100
AcDbEntity
  8
0
  6
HIDDEN
 62
     7
370
     0
100
AcDbLine
 10
137.4221135306
 20
157.8178047416
 30
0.0
 11
137.4221135306
 21
156.9140851218
 31
0.0
  0
LINE
  5
171
330
1F
100
AcDbEntity
  8
0
  6
HIDDEN
 62
     7
370
     0
100
AcDbLine
 10
144.4621135306
 20
155.1205338809
 30
0.0
 11
144.4621135306
 21
159.1892737017
 31
0.0
  0
LINE
  5
172
330
1F
100
AcDbEntity
  8
0
  6
HIDDEN
 62
     7
370
     0
100
AcDbLine
 10
130.4621135306
 20
155.1205338809
 30
0.0
 11
120.4621135306
 21
155.1205338809
 31
0.0
  0
LINE
  5
173
330
1F
100
AcDbEntity
  8
0
  6
HIDDEN
 62
     7
370
     0
100
AcDbLine
 10
144.4621135306
 20
155.1205338809
 30
0.0
 11
130.4621135306
 21
155.1205338809
 31
0.0
  0
LWPOLYLINE
  5
174
330
1F
100
AcDbEntity
  8
0
  6
HIDDEN
 62
     7
370
     0
100
AcDbPolyline
 90
        2
 70
   128
 43
0.0
 10
144.4621135306
 20
155.1205338809
 10
144.4621135306
 20
155.1205338809
  0
LINE
  5
175
330
1F
100
AcDbEntity
  8
0
  6
HIDDEN
 62
     7
370
     0
100
AcDbLine
 10
175.5121135306
 20
101.7705340607
 30
0.0
 11
175.5121135306
 21
120.6705338809
 31
0.0
  0
LINE
  5
176
330
1F
100
AcDbEntity
  8
0
  6
HIDDEN
 62
     7
370
     0
100
AcDbLine
 10
177.5121135306
 20
101.7205338809
 30
0.0
 11
177.5121135306
 21
120.7205338809
 31
0.0
  0
SPLINE
  5
177
330
1F
100
AcDbEntity
  8
0
  6
HIDDEN
 62
     7
370
     0
100
AcDbSpline
210
0.0
220
0.0
230
1.0
 70
    11
 71
     3
 72
    18
 73
    14
 74
     0
 42
0.00000001
 43
0.00000001
 40
0.0
 40
0.0
 40
0.0
 40
0.0
 40
0.1250000000000029
 40
0.1250000000000029
 40
0.2500000000000059
 40
0.2500000000000059
 40
0.5000000000000059
 40
0.5000000000000059
 40
0.6250000000000059
 40
0.6250000000000059
 40
0.750000000000006
 40
0.750000000000006
 40
1.0
 40
1.0
 40
1.0
 40
1.0
 10
181.7621135305885
 20
101.8541044651656
 30
0.0
 10
181.5890769827199
 20
101.8457911108355
 30
0.0
 10
181.4288094186566
 20
101.8333384973184
 30
0.0
 10
181.133226035838
 20
101.804065855993
 30
0.0
 10
181.0046834713491
 20
101.7879318803305
 30
0.0
 10
180.6811240261839
 20
101.7428864156496
 30
0.0
 10
180.5624659456452
 20
101.7205950898057
 30
0.0
 10
180.5619385223269
 20
101.7205034847461
 30
0.0
 10
180.5909177818634
 20
101.7256583576643
 30
0.0
 10
180.7040824505648
 20
101.7443245499294
 30
0.0
 10
180.7881386286823
 20
101.7577663595793
 30
0.0
 10
181.1092645125878
 20
101.8025280133121
 30
0.0
 10
181.4160568746364
 20
101.8374785463372
 30
0.0
 10
181.7621135305885
 20
101.8541044651656
 30
0.0
  0
LINE
  5
178
330
1F
100
AcDbEntity
  8
0
  6
HIDDEN
 62
     7
370
     0
100
AcDbLine
 10
181.7621135306
 20
117.2785212973
 30
0.0
 11
181.7621135306
 21
120.7205338809
 31
0.0
  0
SPLINE
  5
179
330
1F
100
AcDbEntity
  8
0
  6
HIDDEN
 62
     7
370
     0
100
AcDbSpline
210
0.0
220
0.0
230
1.0
 70
     8
 71
     3
 72
    18
 73
    14
 74
     0
 42
0.00000001
 43
0.00000001
 40
0.0
 40
0.0
 40
0.0
 40
0.0
 40
0.1250000000000032
 40
0.1250000000000032
 40
0.2500000000000063
 40
0.2500000000000063
 40
0.500000000000007
 40
0.500000000000007
 40
0.6250000000000067
 40
0.6250000000000067
 40
0.7500000000000064
 40
0.7500000000000064
 40
1.0
 40
1.0
 40
1.0
 40
1.0
 10
181.7621135305885
 20
114.5289758802856
 30
0.0
 10
181.5890769827199
 20
114.5756121866614
 30
0.0
 10
181.4288094186566
 20
114.6469549669223
 30
0.0
 10
181.133226035838
 20
114.8365628396712
 30
0.0
 10
181.0046834713492
 20
114.9507365324111
 30
0.0
 10
180.6811240261839
 20
115.3431999950806
 30
0.0
 10
180.5624659456452
 20
115.6597728612884
 30
0.0
 10
180.5619385223269
 20
116.1238042445697
 30
0.0
 10
180.5909177818634
 20
116.2753548861507
 30
0.0
 10
180.7040824505648
 20
116.5586992903894
 30
0.0
 10
180.7881386286823
 20
116.6900043830235
 30
0.0
 10
181.1092645125878
 20
117.0360492403233
 30
0.0
 10
181.4160568746364
 20
117.2018790341389
 30
0.0
 10
181.7621135305885
 20
117.2785212972591
 30
0.0
  0
LINE
  5
17A
330
1F
100
AcDbEntity
  8
0
  6
HIDDEN
 62
     7
370
     0
100
AcDbLine
 10
181.7621135306
 20
101.8541044652
 30
0.0
 11
181.7621135306
 21
114.5289758803
 31
0.0
  0
LINE
  5
17B
330
1F
100
AcDbEntity
  8
0
  6
HIDDEN
 62
     7
370
     0
100
AcDbLine
 10
181.7621135306
 20
114.5289758803
 30
0.0
 11
181.7621135306
 21
101.8541044652
 31
0.0
  0
SPLINE
  5
17C
330
1F
100
AcDbEntity
  8
0
  6
HIDDEN
 62
     7
370
     0
100
AcDbSpline
210
0.0
220
0.0
230
1.0
 70
    11
 71
     3
 72
    22
 73
    18
 74
     0
 42
0.00000001
 43
0.00000001
 40
0.0
 40
0.0
 40
0.0
 40
0.0
 40
0.1249999999999999
 40
0.1249999999999999
 40
0.2499999999999999
 40
0.2499999999999999
 40
0.3749999999999999
 40
0.3749999999999999
 40
0.5
 40
0.5
 40
0.625
 40
0.625
 40
0.7500000000000001
 40
0.7500000000000001
 40
0.875
 40
0.875
 40
1.0
 40
1.0
 40
1.0
 40
1.0
 10
182.8621135305885
 20
101.8423677488711
 30
0.0
 10
183.0108941491714
 20
101.8320557752168
 30
0.0
 10
183.1466481903009
 20
101.8191575860754
 30
0.0
 10
183.3929832864746
 20
101.7914843748759
 30
0.0
 10
183.5005850794542
 20
101.7770144310945
 30
0.0
 10
183.6768106178635
 20
101.7513608323127
 30
0.0
 10
183.7460481074699
 20
101.7401122352777
 30
0.0
 10
183.8381237142899
 20
101.7247796501855
 30
0.0
 10
183.8620780687139
 20
101.7205400400711
 30
0.0
 10
183.8621489114928
 20
101.7205277357992
 30
0.0
 10
183.8383577153902
 20
101.7247396750098
 30
0.0
 10
183.7462406521489
 20
101.7400811766709
 30
0.0
 10
183.6773718158327
 20
101.7512754796454
 30
0.0
 10
183.5008226949085
 20
101.7769834819527
 30
0.0
 10
183.3939621114206
 20
101.7913664492997
 30
0.0
 10
183.1468959249639
 20
101.8191376808683
 30
0.0
 10
183.010893142115
 20
101.8320558450158
 30
0.0
 10
182.8621135305885
 20
101.8423677488711
 30
0.0
  0
LINE
  5
17D
330
1F
100
AcDbEntity
  8
0
  6
HIDDEN
 62
     7
370
     0
100
AcDbLine
 10
182.8621135306
 20
101.8423677489
 30
0.0
 11
182.8621135306
 21
114.5962243933
 31
0.0
  0
SPLINE
  5
17E
330
1F
100
AcDbEntity
  8
0
  6
HIDDEN
 62
     7
370
     0
100
AcDbSpline
210
0.0
220
0.0
230
1.0
 70
     8
 71
     3
 72
    22
 73
    18
 74
     0
 42
0.00000001
 43
0.00000001
 40
0.0
 40
0.0
 40
0.0
 40
0.0
 40
0.125
 40
0.125
 40
0.25
 40
0.25
 40
0.375
 40
0.375
 40
0.5
 40
0.5
 40
0.625
 40
0.625
 40
0.75
 40
0.75
 40
0.875
 40
0.875
 40
1.0
 40
1.0
 40
1.0
 40
1.0
 10
182.8621135305885
 20
117.223009500576
 30
0.0
 10
183.0108941491714
 20
117.1729416692406
 30
0.0
 10
183.1466481903009
 20
117.1070437288829
 30
0.0
 10
183.3929832864746
 20
116.9427040789572
 30
0.0
 10
183.5005850794542
 20
116.8455725992688
 30
0.0
 10
183.6768106178635
 20
116.6274514033693
 30
0.0
 10
183.7460481074698
 20
116.5050716716036
 30
0.0
 10
183.8381237142899
 20
116.2478326748379
 30
0.0
 10
183.8620780687139
 20
116.1093236740003
 30
0.0
 10
183.8621489114928
 20
115.832377170475
 30
0.0
 10
183.8383577153902
 20
115.6898988165607
 30
0.0
 10
183.746240652149
 20
115.4167719419366
 30
0.0
 10
183.6773718158327
 20
115.28367833709
 30
0.0
 10
183.5008226949086
 20
115.0392311982308
 30
0.0
 10
183.3939621114206
 20
114.928268364429
 30
0.0
 10
183.1468959249638
 20
114.7355016853137
 30
0.0
 10
183.010893142115
 20
114.6566037895581
 30
0.0
 10
182.8621135305885
 20
114.5962243932633
 30
0.0
  0
LINE
  5
17F
330
1F
100
AcDbEntity
  8
0
  6
HIDDEN
 62
     7
370
     0
100
AcDbLine
 10
182.8621135306
 20
117.2230095006
 30
0.0
 11
182.8621135306
 21
120.7205338809
 31
0.0
  0
SPLINE
  5
180
330
1F
100
AcDbEntity
  8
0
  6
HIDDEN
 62
     7
370
     0
100
AcDbSpline
210
0.0
220
0.0
230
1.0
 70
     8
 71
     3
 72
    14
 73
    10
 74
     0
 42
0.00000001
 43
0.00000001
 40
0.0
 40
0.0
 40
0.0
 40
0.0
 40
0.2500000000000001
 40
0.2500000000000001
 40
0.5000000000000001
 40
0.5000000000000001
 40
0.7500000000000002
 40
0.7500000000000002
 40
1.0
 40
1.0
 40
1.0
 40
1.0
 10
190.3121135305884
 20
120.7205338809035
 30
0.0
 10
190.3121135305884
 20
120.7205338809035
 30
0.0
 10
190.2982615080101
 20
120.7181248413791
 30
0.0
 10
190.2436190644547
 20
120.7088454409274
 30
0.0
 10
190.2035439145407
 20
120.7021011335001
 30
0.0
 10
190.0998318774257
 20
120.6853245318426
 30
0.0
 10
190.036037377694
 20
120.6752812157745
 30
0.0
 10
189.8914726469904
 20
120.65377135115
 30
0.0
 10
189.8099024404904
 20
120.642179438344
 30
0.0
 10
189.7203788756536
 20
120.6304047880494
 30
0.0
  0
SPLINE
  5
181
330
1F
100
AcDbEntity
  8
0
  6
HIDDEN
 62
     7
370
     0
100
AcDbSpline
210
0.0
220
0.0
230
1.0
 70
     8
 71
     3
 72
    20
 73
    16
 74
     0
 42
0.00000001
 43
0.00000001
 40
0.0
 40
0.0
 40
0.0
 40
0.0
 40
0.1249999999999965
 40
0.1249999999999965
 40
0.249999999999993
 40
0.249999999999993
 40
0.4999999999999953
 40
0.4999999999999953
 40
0.6249999999999966
 40
0.6249999999999966
 40
0.7499999999999977
 40
0.7499999999999977
 40
0.8749999999999989
 40
0.8749999999999989
 40
1.0
 40
1.0
 40
1.0
 40
1.0
 10
189.7203788756536
 20
120.6304047880494
 30
0.0
 10
189.6198332628019
 20
120.6121517654811
 30
0.0
 10
189.5063117554096
 20
120.5930768507009
 30
0.0
 10
189.2540668999279
 20
120.5561849860623
 30
0.0
 10
189.1137613829859
 20
120.5382505382644
 30
0.0
 10
188.6737627684804
 20
120.4930816741843
 30
0.0
 10
188.3436478398143
 20
120.4741282220343
 30
0.0
 10
187.8497700788151
 20
120.4740064023052
 30
0.0
 10
187.6827502546544
 20
120.4785302222465
 30
0.0
 10
187.3630307412393
 20
120.4954098669324
 30
0.0
 10
187.2067871694204
 20
120.5078584012323
 30
0.0
 10
186.9109250564865
 20
120.5381764074981
 30
0.0
 10
186.7737186025828
 20
120.5557034502637
 30
0.0
 10
186.5201559797053
 20
120.5927111212589
 30
0.0
 10
186.4043937885191
 20
120.6121517672703
 30
0.0
 10
186.3038481855233
 20
120.6304047880494
 30
0.0
  0
SPLINE
  5
182
330
1F
100
AcDbEntity
  8
0
  6
HIDDEN
 62
     7
370
     0
100
AcDbSpline
210
0.0
220
0.0
230
1.0
 70
     8
 71
     3
 72
    14
 73
    10
 74
     0
 42
0.00000001
 43
0.00000001
 40
0.0
 40
0.0
 40
0.0
 40
0.0
 40
0.2499999999999998
 40
0.2499999999999998
 40
0.4999999999999999
 40
0.4999999999999999
 40
0.7499999999999999
 40
0.7499999999999999
 40
1.0
 40
1.0
 40
1.0
 40
1.0
 10
186.303848185523
 20
120.6304047880497
 30
0.0
 10
186.2145463222931
 20
120.6421502788833
 30
0.0
 10
186.133169714346
 20
120.6537093339042
 30
0.0
 10
185.987686016941
 20
120.6753563812385
 30
0.0
 10
185.9239386786313
 20
120.6853981718438
 30
0.0
 10
185.8210227255252
 20
120.7020464078795
 30
0.0
 10
185.7809689380078
 20
120.708784637445
 30
0.0
 10
185.7261373295173
 20
120.7180951833051
 30
0.0
 10
185.7121135305885
 20
120.7205338809035
 30
0.0
 10
185.7121135305885
 20
120.7205338809035
 30
0.0
  0
SPLINE
  5
183
330
1F
100
AcDbEntity
  8
0
  6
HIDDEN
 62
     7
370
     0
100
AcDbSpline
210
0.0
220
0.0
230
1.0
 70
     8
 71
     3
 72
    14
 73
    10
 74
     0
 42
0.00000001
 43
0.00000001
 40
0.0
 40
0.0
 40
0.0
 40
0.0
 40
0.25
 40
0.25
 40
0.5
 40
0.5
 40
0.75
 40
0.75
 40
1.0
 40
1.0
 40
1.0
 40
1.0
 10
185.7121135305885
 20
120.7205338809035
 30
0.0
 10
185.7121135305885
 20
120.7205338809035
 30
0.0
 10
185.7259655531668
 20
120.7181248413791
 30
0.0
 10
185.7806079967222
 20
120.7088454409274
 30
0.0
 10
185.8206831466362
 20
120.7021011335001
 30
0.0
 10
185.9243951837512
 20
120.6853245318426
 30
0.0
 10
185.9881896834829
 20
120.6752812157745
 30
0.0
 10
186.1327544141865
 20
120.65377135115
 30
0.0
 10
186.2143246206865
 20
120.642179438344
 30
0.0
 10
186.3038481855233
 20
120.6304047880494
 30
0.0
  0
SPLINE
  5
184
330
1F
100
AcDbEntity
  8
0
  6
HIDDEN
 62
     7
370
     0
100
AcDbSpline
210
0.0
220
0.0
230
1.0
 70
     8
 71
     3
 72
    20
 73
    16
 74
     0
 42
0.00000001
 43
0.00000001
 40
0.0
 40
0.0
 40
0.0
 40
0.0
 40
0.1249999999999965
 40
0.1249999999999965
 40
0.249999999999993
 40
0.249999999999993
 40
0.4999999999999953
 40
0.4999999999999953
 40
0.6249999999999966
 40
0.6249999999999966
 40
0.7499999999999977
 40
0.7499999999999977
 40
0.8749999999999989
 40
0.8749999999999989
 40
1.0
 40
1.0
 40
1.0
 40
1.0
 10
186.3038481855233
 20
120.6304047880494
 30
0.0
 10
186.404393798375
 20
120.6121517654811
 30
0.0
 10
186.5179153057673
 20
120.5930768507009
 30
0.0
 10
186.770160161249
 20
120.5561849860623
 30
0.0
 10
186.910465678191
 20
120.5382505382644
 30
0.0
 10
187.3504642926965
 20
120.4930816741843
 30
0.0
 10
187.6805792213626
 20
120.4741282220343
 30
0.0
 10
188.1744569823618
 20
120.4740064023052
 30
0.0
 10
188.3414768065225
 20
120.4785302222465
 30
0.0
 10
188.6611963199376
 20
120.4954098669324
 30
0.0
 10
188.8174398917565
 20
120.5078584012323
 30
0.0
 10
189.1133020046904
 20
120.5381764074981
 30
0.0
 10
189.2505084585941
 20
120.5557034502637
 30
0.0
 10
189.5040710814716
 20
120.5927111212589
 30
0.0
 10
189.6198332726578
 20
120.6121517672703
 30
0.0
 10
189.7203788756536
 20
120.6304047880494
 30
0.0
  0
SPLINE
  5
185
330
1F
100
AcDbEntity
  8
0
  6
HIDDEN
 62
     7
370
     0
100
AcDbSpline
210
0.0
220
0.0
230
1.0
 70
     8
 71
     3
 72
    14
 73
    10
 74
     0
 42
0.00000001
 43
0.00000001
 40
0.0
 40
0.0
 40
0.0
 40
0.0
 40
0.25
 40
0.25
 40
0.5
 40
0.5
 40
0.75
 40
0.75
 40
1.0
 40
1.0
 40
1.0
 40
1.0
 10
189.7203788756539
 20
120.6304047880497
 30
0.0
 10
189.8096807388838
 20
120.6421502788833
 30
0.0
 10
189.8910573468309
 20
120.6537093339042
 30
0.0
 10
190.0365410442358
 20
120.6753563812385
 30
0.0
 10
190.1002883825457
 20
120.6853981718438
 30
0.0
 10
190.2032043356517
 20
120.7020464078795
 30
0.0
 10
190.2432581231691
 20
120.708784637445
 30
0.0
 10
190.2980897316596
 20
120.7180951833051
 30
0.0
 10
190.3121135305884
 20
120.7205338809035
 30
0.0
 10
190.3121135305884
 20
120.7205338809035
 30
0.0
  0
SPLINE
  5
186
330
1F
100
AcDbEntity
  8
0
  6
HIDDEN
 62
     7
370
     0
100
AcDbSpline
210
0.0
220
0.0
230
1.0
 70
     8
 71
     3
 72
    14
 73
    10
 74
     0
 42
0.00000001
 43
0.00000001
 40
0.0
 40
0.0
 40
0.0
 40
0.0
 40
0.25
 40
0.25
 40
0.5
 40
0.5
 40
0.75
 40
0.75
 40
1.0
 40
1.0
 40
1.0
 40
1.0
 10
190.3121135305884
 20
106.4705338809035
 30
0.0
 10
190.3121135305884
 20
106.5766115319955
 30
0.0
 10
190.2979639146735
 20
106.6856924439916
 30
0.0
 10
190.2436510253694
 20
106.8972014871872
 30
0.0
 10
190.2034941721338
 20
107.0012967150504
 30
0.0
 10
190.0990860081526
 20
107.2037089430344
 30
0.0
 10
190.0362369785156
 20
107.2995433174665
 30
0.0
 10
189.8915544599803
 20
107.4812813124899
 30
0.0
 10
189.80907749903
 20
107.5675388626332
 30
0.0
 10
189.7203788756537
 20
107.646194346807
 30
0.0
  0
SPLINE
  5
187
330
1F
100
AcDbEntity
  8
0
  6
HIDDEN
 62
     7
370
     0
100
AcDbSpline
210
0.0
220
0.0
230
1.0
 70
     8
 71
     3
 72
    20
 73
    16
 74
     0
 42
0.00000001
 43
0.00000001
 40
0.0
 40
0.0
 40
0.0
 40
0.0
 40
0.125
 40
0.125
 40
0.25
 40
0.25
 40
0.5
 40
0.5
 40
0.625
 40
0.625
 40
0.75
 40
0.75
 40
0.875
 40
0.875
 40
1.0
 40
1.0
 40
1.0
 40
1.0
 10
189.7203788756537
 20
107.646194346807
 30
0.0
 10
189.619833262802
 20
107.76925983249
 30
0.0
 10
189.5063117554097
 20
107.8805353677131
 30
0.0
 10
189.254066899928
 20
108.0791702626467
 30
0.0
 10
189.113761382986
 20
108.1669021888028
 30
0.0
 10
188.6737627684805
 20
108.3783988879476
 30
0.0
 10
188.3436478398143
 20
108.4553875701729
 30
0.0
 10
187.8497700788151
 20
108.4559025436406
 30
0.0
 10
187.6827502546544
 20
108.4369971146176
 30
0.0
 10
187.3630307412392
 20
108.3638559981104
 30
0.0
 10
187.2067871694203
 20
108.3091795255946
 30
0.0
 10
186.9109250564865
 20
108.1672784202434
 30
0.0
 10
186.7737186025828
 20
108.081627440625
 30
0.0
 10
186.5201559797052
 20
107.8826370047655
 30
0.0
 10
186.404393788519
 20
107.7692598204265
 30
0.0
 10
186.3038481855232
 20
107.646194346807
 30
0.0
  0
SPLINE
  5
188
330
1F
100
AcDbEntity
  8
0
  6
HIDDEN
 62
     7
370
     0
100
AcDbSpline
210
0.0
220
0.0
230
1.0
 70
     8
 71
     3
 72
    12
 73
     8
 74
     0
 42
0.00000001
 43
0.00000001
 40
0.0
 40
0.0
 40
0.0
 40
0.0
 40
0.5
 40
0.5
 40
0.75
 40
0.75
 40
1.0
 40
1.0
 40
1.0
 40
1.0
 10
186.3038481855232
 20
107.646194346807
 30
0.0
 10
186.1241926408601
 20
107.4868807823784
 30
0.0
 10
185.9764193024843
 20
107.3036000549503
 30
0.0
 10
185.820120988973
 20
106.9998680287606
 30
0.0
 10
185.7804005202053
 20
106.896566651909
 30
0.0
 10
185.7263625387359
 20
106.6860307657374
 30
0.0
 10
185.7121135305885
 20
106.5772535919073
 30
0.0
 10
185.7121135305885
 20
106.4705338809035
 30
0.0
  0
SPLINE
  5
189
330
1F
100
AcDbEntity
  8
0
  6
HIDDEN
 62
     7
370
     0
100
AcDbSpline
210
0.0
220
0.0
230
1.0
 70
     8
 71
     3
 72
    14
 73
    10
 74
     0
 42
0.00000001
 43
0.00000001
 40
0.0
 40
0.0
 40
0.0
 40
0.0
 40
0.2499999999999996
 40
0.2499999999999996
 40
0.4999999999999991
 40
0.4999999999999991
 40
0.7499999999999996
 40
0.7499999999999996
 40
1.0
 40
1.0
 40
1.0
 40
1.0
 10
185.7121135305885
 20
106.4705338809035
 30
0.0
 10
185.7121135305885
 20
106.3638490991395
 30
0.0
 10
185.7258817419211
 20
106.2597060056683
 30
0.0
 10
185.7802653320923
 20
106.0562615865964
 30
0.0
 10
185.8210655915081
 20
105.9576681098654
 30
0.0
 10
185.9245290117452
 20
105.7737290298345
 30
0.0
 10
185.9881743196504
 20
105.6864557037023
 30
0.0
 10
186.1336309098318
 20
105.5255640395938
 30
0.0
 10
186.214867348623
 20
105.4522049835515
 30
0.0
 10
186.3038481855232
 20
105.385002507854
 30
0.0
  0
SPLINE
  5
18A
330
1F
100
AcDbEntity
  8
0
  6
HIDDEN
 62
     7
370
     0
100
AcDbSpline
210
0.0
220
0.0
230
1.0
 70
     8
 71
     3
 72
    20
 73
    16
 74
     0
 42
0.00000001
 43
0.00000001
 40
0.0
 40
0.0
 40
0.0
 40
0.0
 40
0.1250000000000035
 40
0.1250000000000035
 40
0.250000000000007
 40
0.250000000000007
 40
0.5000000000000047
 40
0.5000000000000047
 40
0.6250000000000036
 40
0.6250000000000036
 40
0.7500000000000023
 40
0.7500000000000023
 40
0.8750000000000012
 40
0.8750000000000012
 40
1.0
 40
1.0
 40
1.0
 40
1.0
 10
186.3038481855232
 20
105.385002507854
 30
0.0
 10
186.4043937983749
 20
105.2801900447393
 30
0.0
 10
186.5179153057672
 20
105.1879894242965
 30
0.0
 10
186.7701601612489
 20
105.0262463940014
 30
0.0
 10
186.9104656781909
 20
104.9564489156433
 30
0.0
 10
187.3504642926964
 20
104.7901210805785
 30
0.0
 10
187.6805792213626
 20
104.7320858505032
 30
0.0
 10
188.1744569823618
 20
104.7316926967646
 30
0.0
 10
188.3414768065225
 20
104.7460743058463
 30
0.0
 10
188.6611963199377
 20
104.8023357776677
 30
0.0
 10
188.8174398917566
 20
104.8445637158835
 30
0.0
 10
189.1133020046905
 20
104.956146814969
 30
0.0
 10
189.2505084585941
 20
105.0242707518217
 30
0.0
 10
189.5040710814718
 20
105.186253516686
 30
0.0
 10
189.619833272658
 20
105.2801900550136
 30
0.0
 10
189.7203788756537
 20
105.385002507854
 30
0.0
  0
SPLINE
  5
18B
330
1F
100
AcDbEntity
  8
0
  6
HIDDEN
 62
     7
370
     0
100
AcDbSpline
210
0.0
220
0.0
230
1.0
 70
     8
 71
     3
 72
    14
 73
    10
 74
     0
 42
0.00000001
 43
0.00000001
 40
0.0
 40
0.0
 40
0.0
 40
0.0
 40
0.25
 40
0.25
 40
0.5
 40
0.5
 40
0.75
 40
0.75
 40
1.0
 40
1.0
 40
1.0
 40
1.0
 10
189.7203788756537
 20
105.385002507854
 30
0.0
 10
189.8084913909032
 20
105.4515491865657
 30
0.0
 10
189.8894606143452
 20
105.5244604627643
 30
0.0
 10
190.0352048521262
 20
105.6853674456676
 30
0.0
 10
190.0991088704667
 20
105.7728416957807
 30
0.0
 10
190.2027830016501
 20
105.9568366327809
 30
0.0
 10
190.2436319832337
 20
106.0552173340872
 30
0.0
 10
190.2983860967962
 20
106.2596702494021
 30
0.0
 10
190.3121135305884
 20
106.3640102604875
 30
0.0
 10
190.3121135305884
 20
106.4705338809035
 30
0.0
  0
SPLINE
  5
18C
330
1F
100
AcDbEntity
  8
0
  6
HIDDEN
 62
     7
370
     0
100
AcDbSpline
210
0.0
220
0.0
230
1.0
 70
     8
 71
     3
 72
    12
 73
     8
 74
     0
 42
0.00000001
 43
0.00000001
 40
0.0
 40
0.0
 40
0.0
 40
0.0
 40
0.25
 40
0.25
 40
0.5
 40
0.5
 40
1.0
 40
1.0
 40
1.0
 40
1.0
 10
190.3121135305884
 20
106.4705338809036
 30
0.0
 10
190.3121135305884
 20
106.3646551841386
 30
0.0
 10
190.2980446083002
 20
106.2581625869817
 30
0.0
 10
190.243612144337
 20
106.0553773434952
 30
0.0
 10
190.2036335747588
 20
105.9585379262459
 30
0.0
 10
190.0472974724867
 20
105.6805094477864
 30
0.0
 10
189.8981648761806
 20
105.5192747826042
 30
0.0
 10
189.7203788756537
 20
105.3850025078541
 30
0.0
  0
SPLINE
  5
18D
330
1F
100
AcDbEntity
  8
0
  6
HIDDEN
 62
     7
370
     0
100
AcDbSpline
210
0.0
220
0.0
230
1.0
 70
     8
 71
     3
 72
    20
 73
    16
 74
     0
 42
0.00000001
 43
0.00000001
 40
0.0
 40
0.0
 40
0.0
 40
0.0
 40
0.1249999999999999
 40
0.1249999999999999
 40
0.2499999999999998
 40
0.2499999999999998
 40
0.4999999999999999
 40
0.4999999999999999
 40
0.6249999999999999
 40
0.6249999999999999
 40
0.7499999999999999
 40
0.7499999999999999
 40
0.875
 40
0.875
 40
1.0
 40
1.0
 40
1.0
 40
1.0
 10
189.7203788756537
 20
105.3850025078541
 30
0.0
 10
189.619833262802
 20
105.2801900447394
 30
0.0
 10
189.5063117554097
 20
105.1879894242966
 30
0.0
 10
189.254066899928
 20
105.0262463940015
 30
0.0
 10
189.113761382986
 20
104.9564489156434
 30
0.0
 10
188.6737627684805
 20
104.7901210805786
 30
0.0
 10
188.3436478398143
 20
104.7320858505033
 30
0.0
 10
187.8497700788151
 20
104.7316926967647
 30
0.0
 10
187.6827502546544
 20
104.7460743058464
 30
0.0
 10
187.3630307412392
 20
104.8023357776677
 30
0.0
 10
187.2067871694204
 20
104.8445637158836
 30
0.0
 10
186.9109250564864
 20
104.9561468149691
 30
0.0
 10
186.7737186025828
 20
105.0242707518218
 30
0.0
 10
186.5201559797052
 20
105.1862535166861
 30
0.0
 10
186.404393788519
 20
105.2801900550136
 30
0.0
 10
186.3038481855233
 20
105.3850025078541
 30
0.0
  0
SPLINE
  5
18E
330
1F
100
AcDbEntity
  8
0
  6
HIDDEN
 62
     7
370
     0
100
AcDbSpline
210
0.0
220
0.0
230
1.0
 70
     8
 71
     3
 72
    14
 73
    10
 74
     0
 42
0.00000001
 43
0.00000001
 40
0.0
 40
0.0
 40
0.0
 40
0.0
 40
0.2499999999999991
 40
0.2499999999999991
 40
0.4999999999999982
 40
0.4999999999999982
 40
0.7499999999999991
 40
0.7499999999999991
 40
1.0
 40
1.0
 40
1.0
 40
1.0
 10
186.3038481855233
 20
105.3850025078541
 30
0.0
 10
186.2148237670521
 20
105.4522378983854
 30
0.0
 10
186.1324709387882
 20
105.5267535449935
 30
0.0
 10
185.9880959327733
 20
105.6866367697117
 30
0.0
 10
185.9251354899836
 20
105.7726347439178
 30
0.0
 10
185.8203627048281
 20
105.9589338071985
 30
0.0
 10
185.7805203027522
 20
106.055791163536
 30
0.0
 10
185.72637287362
 20
106.2573919528213
 30
0.0
 10
185.7121135305885
 20
106.3635937189194
 30
0.0
 10
185.7121135305885
 20
106.4705338809036
 30
0.0
  0
SPLINE
  5
18F
330
1F
100
AcDbEntity
  8
0
  6
HIDDEN
 62
     7
370
     0
100
AcDbSpline
210
0.0
220
0.0
230
1.0
 70
     8
 71
     3
 72
    12
 73
     8
 74
     0
 42
0.00000001
 43
0.00000001
 40
0.0
 40
0.0
 40
0.0
 40
0.0
 40
0.2499999999999997
 40
0.2499999999999997
 40
0.4999999999999993
 40
0.4999999999999993
 40
1.0
 40
1.0
 40
1.0
 40
1.0
 10
185.7121135305885
 20
106.4705338809036
 30
0.0
 10
185.7121135305885
 20
106.5773038259208
 30
0.0
 10
185.7259031614912
 20
106.6838263850647
 30
0.0
 10
185.7802230930061
 20
106.8962851733223
 30
0.0
 10
185.8210413092008
 20
107.0018341049746
 30
0.0
 10
185.9761834562265
 20
107.3027837008459
 30
0.0
 10
186.1257586950839
 20
107.4882695159183
 30
0.0
 10
186.3038481855233
 20
107.6461943468072
 30
0.0
  0
SPLINE
  5
190
330
1F
100
AcDbEntity
  8
0
  6
HIDDEN
 62
     7
370
     0
100
AcDbSpline
210
0.0
220
0.0
230
1.0
 70
     8
 71
     3
 72
    20
 73
    16
 74
     0
 42
0.00000001
 43
0.00000001
 40
0.0
 40
0.0
 40
0.0
 40
0.0
 40
0.125
 40
0.125
 40
0.2499999999999999
 40
0.2499999999999999
 40
0.5
 40
0.5
 40
0.6250000000000001
 40
0.6250000000000001
 40
0.75
 40
0.75
 40
0.875
 40
0.875
 40
1.0
 40
1.0
 40
1.0
 40
1.0
 10
186.3038481855233
 20
107.6461943468072
 30
0.0
 10
186.4043937983749
 20
107.7692598324901
 30
0.0
 10
186.5179153057672
 20
107.8805353677132
 30
0.0
 10
186.7701601612489
 20
108.0791702626468
 30
0.0
 10
186.9104656781909
 20
108.1669021888029
 30
0.0
 10
187.3504642926965
 20
108.3783988879478
 30
0.0
 10
187.6805792213626
 20
108.4553875701731
 30
0.0
 10
188.1744569823618
 20
108.4559025436407
 30
0.0
 10
188.3414768065225
 20
108.4369971146178
 30
0.0
 10
188.6611963199377
 20
108.3638559981105
 30
0.0
 10
188.8174398917566
 20
108.3091795255948
 30
0.0
 10
189.1133020046905
 20
108.1672784202435
 30
0.0
 10
189.2505084585941
 20
108.0816274406252
 30
0.0
 10
189.5040710814717
 20
107.8826370047657
 30
0.0
 10
189.6198332726579
 20
107.7692598204267
 30
0.0
 10
189.7203788756537
 20
107.6461943468072
 30
0.0
  0
SPLINE
  5
191
330
1F
100
AcDbEntity
  8
0
  6
HIDDEN
 62
     7
370
     0
100
AcDbSpline
210
0.0
220
0.0
230
1.0
 70
     8
 71
     3
 72
    12
 73
     8
 74
     0
 42
0.00000001
 43
0.00000001
 40
0.0
 40
0.0
 40
0.0
 40
0.0
 40
0.2500000000000023
 40
0.2500000000000023
 40
0.5000000000000046
 40
0.5000000000000046
 40
1.0
 40
1.0
 40
1.0
 40
1.0
 10
189.7203788756537
 20
107.6461943468072
 30
0.0
 10
189.8086199705971
 20
107.5679445861839
 30
0.0
 10
189.8894060576833
 20
107.4836647840187
 30
0.0
 10
190.0344258046975
 20
107.302125031853
 30
0.0
 10
190.0988244287777
 20
107.2040420659258
 30
0.0
 10
190.2546625210666
 20
106.9024439211661
 30
0.0
 10
190.3121135305884
 20
106.6832211497762
 30
0.0
 10
190.3121135305884
 20
106.4705338809036
 30
0.0
  0
LINE
  5
192
330
1F
100
AcDbEntity
  8
0
  6
HIDDEN
 62
     7
370
     0
100
AcDbLine
 10
204.8121135306
 20
116.4955338809
 30
0.0
 11
204.8121135306
 21
120.693436534
 31
0.0
  0
LINE
  5
193
330
1F
100
AcDbEntity
  8
0
  6
HIDDEN
 62
     7
370
     0
100
AcDbLine
 10
204.8121135306
 20
116.4955338809
 30
0.0
 11
201.9621135306
 21
116.4955338809
 31
0.0
  0
SPLINE
  5
194
330
1F
100
AcDbEntity
  8
0
  6
HIDDEN
 62
     7
370
     0
100
AcDbSpline
210
0.0
220
0.0
230
1.0
 70
     8
 71
     3
 72
    10
 73
     6
 74
     0
 42
0.00000001
 43
0.00000001
 40
0.0
 40
0.0
 40
0.0
 40
0.0
 40
0.5
 40
0.5
 40
1.0
 40
1.0
 40
1.0
 40
1.0
 10
201.9621135305885
 20
116.4955338809035
 30
0.0
 10
201.8179532567499
 20
116.4955338809035
 30
0.0
 10
201.6835173923339
 20
116.4304414795505
 30
0.0
 10
201.5074595802525
 20
116.2405853307159
 30
0.0
 10
201.4621135305885
 20
116.1196902834357
 30
0.0
 10
201.4621135305885
 20
115.9955338809035
 30
0.0
  0
LINE
  5
195
330
1F
100
AcDbEntity
  8
0
  6
HIDDEN
 62
     7
370
     0
100
AcDbLine
 10
201.4621135306
 20
115.9955338809
 30
0.0
 11
201.4621135306
 21
106.4455338809
 31
0.0
  0
SPLINE
  5
196
330
1F
100
AcDbEntity
  8
0
  6
HIDDEN
 62
     7
370
     0
100
AcDbSpline
210
0.0
220
0.0
230
1.0
 70
     8
 71
     3
 72
    12
 73
     8
 74
     0
 42
0.00000001
 43
0.00000001
 40
0.0
 40
0.0
 40
0.0
 40
0.0
 40
0.25
 40
0.25
 40
0.5
 40
0.5
 40
1.0
 40
1.0
 40
1.0
 40
1.0
 10
201.4621135305885
 20
106.4455338809035
 30
0.0
 10
201.4621135305885
 20
106.3833257320926
 30
0.0
 10
201.4733261355902
 20
106.323411344023
 30
0.0
 10
201.5178291844321
 20
106.2079660983996
 30
0.0
 10
201.551115814651
 20
106.1536009304168
 30
0.0
 10
201.682138723447
 20
106.0117251814651
 30
0.0
 10
201.8174351638178
 20
105.9455338809035
 30
0.0
 10
201.9621135305885
 20
105.9455338809035
 30
0.0
  0
LINE
  5
197
330
1F
100
AcDbEntity
  8
0
  6
HIDDEN
 62
     7
370
     0
100
AcDbLine
 10
201.9621135306
 20
105.9455338809
 30
0.0
 11
204.8121135306
 21
105.9455338809
 31
0.0
  0
LINE
  5
198
330
1F
100
AcDbEntity
  8
0
  6
HIDDEN
 62
     7
370
     0
100
AcDbLine
 10
204.8121135306
 20
105.9455338809
 30
0.0
 11
204.8121135306
 21
101.7476312278
 31
0.0
  0
LINE
  5
199
330
1F
100
AcDbEntity
  8
0
  6
HIDDEN
 62
     7
370
     0
100
AcDbLine
 10
182.8621135306
 20
114.5962243933
 30
0.0
 11
182.8621135306
 21
101.8423677489
 31
0.0
  0
LINE
  5
19A
330
1F
100
AcDbEntity
  8
0
  6
HIDDEN
 62
     7
370
     0
100
AcDbLine
 10
204.8121135306
 20
105.9455338809
 30
0.0
 11
201.9621135306
 21
105.9455338809
 31
0.0
  0
LINE
  5
19B
330
1F
100
AcDbEntity
  8
0
  6
HIDDEN
 62
     7
370
     0
100
AcDbLine
 10
201.9621135306
 20
116.4955338809
 30
0.0
 11
204.8121135306
 21
116.4955338809
 31
0.0
  0
SPLINE
  5
19C
330
1F
100
AcDbEntity
  8
0
  6
HIDDEN
 62
     7
370
     0
100
AcDbSpline
210
0.0
220
0.0
230
1.0
 70
     8
 71
     3
 72
    12
 73
     8
 74
     0
 42
0.00000001
 43
0.00000001
 40
0.0
 40
0.0
 40
0.0
 40
0.0
 40
0.25
 40
0.25
 40
0.5
 40
0.5
 40
1.0
 40
1.0
 40
1.0
 40
1.0
 10
201.4621135305885
 20
115.9955338809035
 30
0.0
 10
201.4621135305885
 20
116.0577420297144
 30
0.0
 10
201.4733261355902
 20
116.117656417784
 30
0.0
 10
201.5178291844321
 20
116.2331016634074
 30
0.0
 10
201.551115814651
 20
116.2874668313902
 30
0.0
 10
201.682138723447
 20
116.4293425803419
 30
0.0
 10
201.8174351638177
 20
116.4955338809035
 30
0.0
 10
201.9621135305885
 20
116.4955338809035
 30
0.0
  0
SPLINE
  5
19D
330
1F
100
AcDbEntity
  8
0
  6
HIDDEN
 62
     7
370
     0
100
AcDbSpline
210
0.0
220
0.0
230
1.0
 70
     8
 71
     3
 72
    10
 73
     6
 74
     0
 42
0.00000001
 43
0.00000001
 40
0.0
 40
0.0
 40
0.0
 40
0.0
 40
0.5
 40
0.5
 40
1.0
 40
1.0
 40
1.0
 40
1.0
 10
201.9621135305885
 20
105.9455338809035
 30
0.0
 10
201.8179532567499
 20
105.9455338809035
 30
0.0
 10
201.6835173923339
 20
106.0106262822565
 30
0.0
 10
201.5074595802525
 20
106.2004824310911
 30
0.0
 10
201.4621135305885
 20
106.3213774783713
 30
0.0
 10
201.4621135305885
 20
106.4455338809035
 30
0.0
  0
LINE
  5
19E
330
1F
100
AcDbEntity
  8
0
  6
HIDDEN
 62
     7
370
     0
100
AcDbLine
 10
201.4621135306
 20
106.4455338809
 30
0.0
 11
201.4621135306
 21
115.9955338809
 31
0.0
  0
ARC
  5
19F
330
1F
100
AcDbEntity
  8
0
  6
HIDDEN
 62
     7
370
     0
100
AcDbCircle
 10
188.0121135306
 20
106.0382649057
 30
0.0
 40
2.345976891758386
100
AcDbArc
 50
43.2669683419
 51
136.7330316581
  0
ARC
  5
1A0
330
1F
100
AcDbEntity
  8
0
  6
HIDDEN
 62
     7
370
     0
100
AcDbCircle
 10
188.0121135306
 20
106.9929319489
 30
0.0
 40
2.345976891758425
100
AcDbArc
 50
223.2669683419
 51
316.7330316581
  0
LINE
  5
1A1
330
1F
100
AcDbEntity
  8
0
  6
HIDDEN
 62
     7
370
     0
100
AcDbLine
 10
205.5121135306
 20
117.1955338809
 30
0.0
 11
204.8121135306
 21
116.4955338809
 31
0.0
  0
LINE
  5
1A2
330
1F
100
AcDbEntity
  8
0
  6
HIDDEN
 62
     7
370
     0
100
AcDbLine
 10
205.5121135306
 20
117.1955338809
 30
0.0
 11
205.5121135306
 21
121.0997161336
 31
0.0
  0
LINE
  5
1A3
330
1F
100
AcDbEntity
  8
0
  6
HIDDEN
 62
     7
370
     0
100
AcDbLine
 10
204.8121135306
 20
116.4955338809
 30
0.0
 11
205.5121135306
 21
117.1955338809
 31
0.0
  0
LINE
  5
1A4
330
1F
100
AcDbEntity
  8
0
  6
HIDDEN
 62
     7
370
     0
100
AcDbLine
 10
204.8121135306
 20
105.9455338809
 30
0.0
 11
205.5121135306
 21
105.2455338809
 31
0.0
  0
LINE
  5
1A5
330
1F
100
AcDbEntity
  8
0
  6
HIDDEN
 62
     7
370
     0
100
AcDbLine
 10
205.5121135306
 20
105.2455338809
 30
0.0
 11
205.5121135306
 21
101.3413516282
 31
0.0
  0
LINE
  5
1A6
330
1F
100
AcDbEntity
  8
0
  6
HIDDEN
 62
     7
370
     0
100
AcDbLine
 10
205.5121135306
 20
105.2455338809
 30
0.0
 11
204.8121135306
 21
105.9455338809
 31
0.0
  0
SPLINE
  5
1A7
330
1F
100
AcDbEntity
  8
0
  6
HIDDEN
 62
     7
370
     0
100
AcDbSpline
210
0.0
220
0.0
230
1.0
 70
     8
 71
     3
 72
    10
 73
     6
 74
     0
 42
0.00000001
 43
0.00000001
 40
0.0
 40
0.0
 40
0.0
 40
0.0
 40
0.5
 40
0.5
 40
1.0
 40
1.0
 40
1.0
 40
1.0
 10
181.8621135305885
 20
117.5641951193333
 30
0.0
 10
182.0119563649139
 20
117.5897123823233
 30
0.0
 10
182.1628241893669
 20
117.5985237983579
 30
0.0
 10
182.4665667993091
 20
117.5837135646482
 30
0.0
 10
182.6176629178472
 20
117.5597540925291
 30
0.0
 10
182.7621135305885
 20
117.5195363778602
 30
0.0
  0
LINE
  5
1A8
330
1F
100
AcDbEntity
  8
0
  6
HIDDEN
 62
     7
370
     0
100
AcDbLine
 10
182.8621135306
 20
117.4381497421
 30
0.0
 11
182.8621135306
 21
121.1455338809
 31
0.0
  0
SPLINE
  5
1A9
330
1F
100
AcDbEntity
  8
0
  6
HIDDEN
 62
     7
370
     0
100
AcDbSpline
210
0.0
220
0.0
230
1.0
 70
     8
 71
     3
 72
    20
 73
    16
 74
     0
 42
0.00000001
 43
0.00000001
 40
0.000000209563825
 40
0.000000209563825
 40
0.000000209563825
 40
0.000000209563825
 40
0.0000365247662458
 40
0.0000365247662458
 40
0.0000365247662458
 40
0.0000731650534721
 40
0.0000731650534721
 40
0.0000731650534721
 40
0.0001079711865408
 40
0.0001079711865408
 40
0.0001079711865408
 40
0.0001401117176298
 40
0.0001401117176298
 40
0.0001401117176298
 40
0.0001602202130872
 40
0.0001602202130872
 40
0.0001602202130872
 40
0.0001602202130872
 10
182.7621135305885
 20
117.5195363778602
 30
0.0
 10
182.7735106908677
 20
117.5163631982423
 30
0.0
 10
182.7851188527848
 20
117.5120022936533
 30
0.0
 10
182.7960047086272
 20
117.5067720153213
 30
0.0
 10
182.8069730798453
 20
117.5015020911968
 30
0.0
 10
182.8175259442355
 20
117.4951889373135
 30
0.0
 10
182.8266440477945
 20
117.4884063322458
 30
0.0
 10
182.8353053019138
 20
117.4819635598314
 30
0.0
 10
182.8429287270689
 20
117.4748987326793
 30
0.0
 10
182.8487060761178
 20
117.4679326254411
 30
0.0
 10
182.8540496509739
 20
117.4614895465882
 30
0.0
 10
182.8579674727911
 20
117.4549461701532
 30
0.0
 10
182.8601016494927
 20
117.448926137451
 30
0.0
 10
182.8614414034772
 20
117.4451469926439
 30
0.0
 10
182.8621135305885
 20
117.4415132403855
 30
0.0
 10
182.8621135305885
 20
117.4381497420776
 30
0.0
  0
SPLINE
  5
1AA
330
1F
100
AcDbEntity
  8
0
  6
HIDDEN
 62
     7
370
     0
100
AcDbSpline
210
0.0
220
0.0
230
1.0
 70
     8
 71
     3
 72
    23
 73
    19
 74
     0
 42
0.00000001
 43
0.00000001
 40
0.0001620647303176
 40
0.0001620647303176
 40
0.0001620647303176
 40
0.0001620647303176
 40
0.0001791833705586
 40
0.0001791833705586
 40
0.0001791833705586
 40
0.0002124145184226
 40
0.0002124145184226
 40
0.0002124145184226
 40
0.0002445804891104
 40
0.0002445804891104
 40
0.0002445804891104
 40
0.00027685321484
 40
0.00027685321484
 40
0.00027685321484
 40
0.00031002209323
 40
0.00031002209323
 40
0.00031002209323
 40
0.0003194655452153
 40
0.0003194655452153
 40
0.0003194655452153
 40
0.0003194655452153
 10
181.7621135305885
 20
117.4939192756499
 30
0.0
 10
181.7621135305882
 20
117.4967820620623
 30
0.0
 10
181.7625966567321
 20
117.4997748731545
 30
0.0
 10
181.7635615779454
 20
117.5028294796672
 30
0.0
 10
181.765428870943
 20
117.5087406828544
 30
0.0
 10
181.769187176438
 20
117.5150224182574
 30
0.0
 10
181.7745354596311
 20
117.5210921532372
 30
0.0
 10
181.7797177264892
 20
117.5269734772598
 30
0.0
 10
181.7865307370541
 20
117.5328153392645
 30
0.0
 10
181.7944024354897
 20
117.5381012604217
 30
0.0
 10
181.8023036082417
 20
117.5434069738656
 30
0.0
 10
181.8114779402381
 20
117.5482933867875
 30
0.0
 10
181.8211883569718
 20
117.552358376809
 30
0.0
 10
181.8311669130004
 20
117.5565356157266
 30
0.0
 10
181.8419738027108
 20
117.5599561096256
 30
0.0
 10
181.8527640513161
 20
117.5623586648268
 30
0.0
 10
181.8558736215435
 20
117.563051041286
 30
0.0
 10
181.8589967215435
 20
117.5636643469652
 30
0.0
 10
181.8621135305885
 20
117.5641951193338
 30
0.0
  0
LINE
  5
1AB
330
1F
100
AcDbEntity
  8
0
  6
HIDDEN
 62
     7
370
     0
100
AcDbLine
 10
181.7621135305
 20
117.4939192756
 30
0.0
 11
181.7621135306
 21
121.1455338809
 31
0.0
  0
SPLINE
  5
1AC
330
1F
100
AcDbEntity
  8
0
  6
HIDDEN
 62
     7
370
     0
100
AcDbSpline
210
0.0
220
0.0
230
1.0
 70
     8
 71
     3
 72
    43
 73
    39
 74
     0
 42
0.00000001
 43
0.00000001
 40
-0.0956093829325199
 40
-0.0624935963491684
 40
-0.0378613648808227
 40
0.0
 40
0.028410569889903
 40
0.0550998574881184
 40
0.0800772929338835
 40
0.1033546039289737
 40
0.1249465072218098
 40
0.1542906652264347
 40
0.1874273443297026
 40
0.211895523343143
 40
0.2499806198006135
 40
0.2742598702230328
 40
0.2971733732883078
 40
0.3187280787773054
 40
0.3389324365508533
 40
0.3577968097597828
 40
0.3753340366442276
 40
0.4115607085079986
 40
0.4530653289854602
 40
0.4999157535593448
 40
0.5208052877033273
 40
0.5382319773326172
 40
0.5521939656693636
 40
0.5626899286749022
 40
0.5959292802567115
 40
0.6252973741914519
 40
0.6621940257191185
 40
0.7037412342680988
 40
0.7499883761539267
 40
0.7768708437245551
 40
0.7977153902378311
 40
0.8125147914969159
 40
0.8456185013181322
 40
0.875003052464211
 40
0.9043906170674801
 40
0.9375064036508316
 40
0.9621386351191773
 40
1.0
 40
1.028410569889903
 40
1.055099857488118
 40
1.080077292933884
 10
95.44452186591495
 20
74.8846743011769
 30
0.0
 10
96.1580837472881
 20
74.95392325093886
 30
0.0
 10
97.0594074735581
 20
75.01645876029534
 30
0.0
 10
97.93650525301484
 20
75.0494077366917
 30
0.0
 10
98.82283458345697
 20
75.0613159019653
 30
0.0
 10
99.68598189747402
 20
75.0515098155812
 30
0.0
 10
100.6198352331049
 20
75.01513480252662
 30
0.0
 10
101.6761473196268
 20
74.934381731958
 30
0.0
 10
102.7267726721752
 20
74.81953451984947
 30
0.0
 10
103.7948795024389
 20
74.66744534858294
 30
0.0
 10
104.655552199072
 20
74.5200539789611
 30
0.0
 10
105.3516547040877
 20
74.38227295588143
 30
0.0
 10
105.8121847853174
 20
74.28778642029309
 30
0.0
 10
106.1462508151532
 20
74.21365609855958
 30
0.0
 10
106.3663078902997
 20
74.160572015834
 30
0.0
 10
106.4867714146857
 20
74.12834257782643
 30
0.0
 10
106.537406230461
 20
74.1127346917923
 30
0.0
 10
106.3996001858775
 20
74.15434950953991
 30
0.0
 10
105.844579532709
 20
74.28293258572525
 30
0.0
 10
105.0199118551888
 20
74.45099221797405
 30
0.0
 10
104.2215070204346
 20
74.5954721191624
 30
0.0
 10
103.6832822127105
 20
74.6810356425291
 30
0.0
 10
103.2252473616737
 20
74.74834373123748
 30
0.0
 10
102.5696871665307
 20
74.83668844639377
 30
0.0
 10
101.6862909944796
 20
74.9333381736923
 30
0.0
 10
100.4370669410387
 20
75.0294571627528
 30
0.0
 10
99.0765467297297
 20
75.06705954271098
 30
0.0
 10
97.59177046526206
 20
75.04641631238812
 30
0.0
 10
96.4158088911352
 20
74.97598474648376
 30
0.0
 10
95.6498215650366
 20
74.90428154083243
 30
0.0
 10
95.23593540033052
 20
74.86056154010276
 30
0.0
 10
94.86675532663088
 20
74.81602135409335
 30
0.0
 10
94.5861258485578
 20
74.7797863997765
 30
0.0
 10
94.4778021414673
 20
74.76170507664588
 30
0.0
 10
94.58405765029957
 20
74.77949021148143
 30
0.0
 10
94.8984844121378
 20
74.82046452455297
 30
0.0
 10
95.44452186591495
 20
74.8846743011769
 30
0.0
 10
96.1580837472881
 20
74.95392325093886
 30
0.0
 10
97.0594074735581
 20
75.01645876029534
 30
0.0
  0
SPLINE
  5
1AD
330
1F
100
AcDbEntity
  8
0
  6
HIDDEN
 62
     7
370
     0
100
AcDbSpline
210
0.0
220
0.0
230
1.0
 70
     8
 71
     3
 72
    43
 73
    39
 74
     0
 42
0.00000001
 43
0.00000001
 40
-0.0937902222074497
 40
-0.065598420538878
 40
-0.0343403538220568
 40
0.0
 40
0.0273365738614275
 40
0.0520717403568292
 40
0.0742047603533121
 40
0.0937354292997498
 40
0.1106643003348918
 40
0.1249931095775311
 40
0.1543513865328482
 40
0.1874527833689948
 40
0.2119177690183627
 40
0.2499503115779628
 40
0.2783738631992692
 40
0.3050847229545509
 40
0.3300923654961979
 40
0.3534085554430274
 40
0.3750480314724636
 40
0.404377481799783
 40
0.4374963616385906
 40
0.4617853790231753
 40
0.4999948248458861
 40
0.5242323768335053
 40
0.5471082899825092
 40
0.5686295237825622
 40
0.5888045366193944
 40
0.6076436979389355
 40
0.625159848295666
 40
0.6689986353784504
 40
0.7186819201207354
 40
0.7374501607070933
 40
0.7656131886438831
 40
0.7919505201066247
 40
0.812571876431532
 40
0.8617921544267944
 40
0.9062097777925503
 40
0.934401579461122
 40
0.9656596461779432
 40
1.0
 40
1.027336573861428
 40
1.052071740356829
 40
1.074204760353312
 10
97.22572762084569
 20
147.4139982681753
 30
0.0
 10
96.30798748248685
 20
147.4755929612817
 30
0.0
 10
95.6054900119943
 20
147.5399462520525
 30
0.0
 10
95.12704833088081
 20
147.5876811518155
 30
0.0
 10
94.80953609102593
 20
147.6254742721516
 30
0.0
 10
94.62112942542103
 20
147.6524756189028
 30
0.0
 10
94.52976569616511
 20
147.6692523607988
 30
0.0
 10
94.49545491862382
 20
147.6771080706085
 30
0.0
 10
94.58517826244271
 20
147.6610164738842
 30
0.0
 10
94.89975080232715
 20
147.6204043336382
 30
0.0
 10
95.44597037101077
 20
147.5560093448337
 30
0.0
 10
96.159994926428
 20
147.48686353672
 30
0.0
 10
97.06395541650276
 20
147.4243568009229
 30
0.0
 10
97.94225047315494
 20
147.3915652809227
 30
0.0
 10
98.83002424460793
 20
147.3798332703646
 30
0.0
 10
99.6948494808267
 20
147.3898468634506
 30
0.0
 10
100.6296953472263
 20
147.4264134633461
 30
0.0
 10
101.6859808378368
 20
147.5073490977196
 30
0.0
 10
102.733504019994
 20
147.6221178671758
 30
0.0
 10
103.8001438620513
 20
147.7743858438134
 30
0.0
 10
104.6593743493651
 20
147.9216564533759
 30
0.0
 10
105.3549568152959
 20
148.0594802178401
 30
0.0
 10
105.8141302251679
 20
148.1537692326322
 30
0.0
 10
106.1472356228193
 20
148.2277335709585
 30
0.0
 10
106.3666859372903
 20
148.2806484869692
 30
0.0
 10
106.4868345154892
 20
148.312829566516
 30
0.0
 10
106.5426783689834
 20
148.329556595958
 30
0.0
 10
106.3483299167207
 20
148.2743948644089
 30
0.0
 10
105.7455434538954
 20
148.1420825633816
 30
0.0
 10
105.0165290795569
 20
147.9904266407322
 30
0.0
 10
104.3612950559869
 20
147.8675777891033
 30
0.0
 10
103.5877735506665
 20
147.7425963035818
 30
0.0
 10
102.5098031890448
 20
147.592473719673
 30
0.0
 10
101.0956405165483
 20
147.4506898830373
 30
0.0
 10
99.54543880733587
 20
147.3779578521443
 30
0.0
 10
98.28436418598547
 20
147.3813611905061
 30
0.0
 10
97.22572762084569
 20
147.4139982681753
 30
0.0
 10
96.30798748248685
 20
147.4755929612817
 30
0.0
 10
95.6054900119943
 20
147.5399462520525
 30
0.0
  0
LINE
  5
1AE
330
1F
100
AcDbEntity
  8
0
  6
HIDDEN
 62
     7
370
     0
100
AcDbLine
 10
174.5121135306
 20
107.1705338809
 30
0.0
 11
174.5121135306
 21
115.2705338809
 31
0.0
  0
LINE
  5
1AF
330
1F
100
AcDbEntity
  8
0
  6
HIDDEN
 62
     7
370
     0
100
AcDbLine
 10
175.5121135306
 20
116.2705338809
 30
0.0
 11
175.5121135306
 21
106.1964437978
 31
0.0
  0
LINE
  5
1B0
330
1F
100
AcDbEntity
  8
0
  6
HIDDEN
 62
     7
370
     0
100
AcDbLine
 10
170.4121135306
 20
107.1705338809
 30
0.0
 11
170.4121135306
 21
115.2705338809
 31
0.0
  0
LINE
  5
1B1
330
1F
100
AcDbEntity
  8
0
  6
HIDDEN
 62
     7
370
     0
100
AcDbLine
 10
169.4807795711
 20
108.7205338809
 30
0.0
 11
169.4807795711
 21
113.7205338809
 31
0.0
  0
LWPOLYLINE
  5
1B2
330
1F
100
AcDbEntity
  8
0
  6
HIDDEN
 62
     7
370
     0
100
AcDbPolyline
 90
        2
 70
   128
 43
0.0
 10
169.4807795711
 20
113.7205338809
 10
169.4807795711
 20
113.7205338809
  0
LINE
  5
1B3
330
1F
100
AcDbEntity
  8
0
  6
HIDDEN
 62
     7
370
     0
100
AcDbLine
 10
143.8121135306
 20
108.7205338809
 30
0.0
 11
143.8121135306
 21
113.7205338809
 31
0.0
  0
LINE
  5
1B4
330
1F
100
AcDbEntity
  8
0
  6
HIDDEN
 62
     7
370
     0
100
AcDbLine
 10
190.3121135306
 20
120.7205338809
 30
0.0
 11
185.7121135306
 21
120.7205338809
 31
0.0
  0
LINE
  5
1B5
330
1F
100
AcDbEntity
  8
0
  6
HIDDEN
 62
     7
370
     0
100
AcDbLine
 10
185.7121135306
 20
120.7205338809
 30
0.0
 11
190.3121135306
 21
120.7205338809
 31
0.0
  0
LINE
  5
1B6
330
1F
100
AcDbEntity
  8
0
  6
HIDDEN
 62
     7
370
     0
100
AcDbLine
 10
186.3038481855
 20
120.630404788
 30
0.0
 11
189.7203788757
 21
120.630404788
 31
0.0
  0
LINE
  5
1B7
330
1F
100
AcDbEntity
  8
0
  6
HIDDEN
 62
     7
370
     0
100
AcDbLine
 10
181.7621135306
 20
101.8541044652
 30
0.0
 11
181.7621135305
 21
101.4233085084
 31
0.0
  0
SPLINE
  5
1B8
330
1F
100
AcDbEntity
  8
0
  6
HIDDEN
 62
     7
370
     0
100
AcDbSpline
210
0.0
220
0.0
230
1.0
 70
     8
 71
     3
 72
    23
 73
    19
 74
     0
 42
0.00000001
 43
0.00000001
 40
0.0001620647303176
 40
0.0001620647303176
 40
0.0001620647303176
 40
0.0001620647303176
 40
0.0001791833705586
 40
0.0001791833705586
 40
0.0001791833705586
 40
0.0002124145184226
 40
0.0002124145184226
 40
0.0002124145184226
 40
0.0002445804891104
 40
0.0002445804891104
 40
0.0002445804891104
 40
0.00027685321484
 40
0.00027685321484
 40
0.00027685321484
 40
0.00031002209323
 40
0.00031002209323
 40
0.00031002209323
 40
0.0003194655452153
 40
0.0003194655452153
 40
0.0003194655452153
 40
0.0003194655452153
 10
181.7621135305885
 20
101.4233085083845
 30
0.0
 10
181.7621135305882
 20
101.4175829355597
 30
0.0
 10
181.7625966567321
 20
101.4118349344739
 30
0.0
 10
181.7635615779454
 20
101.4061978419641
 30
0.0
 10
181.765428870943
 20
101.3952890721854
 30
0.0
 10
181.769187176438
 20
101.3845626250395
 30
0.0
 10
181.7745354596311
 20
101.37497105472
 30
0.0
 10
181.7797177264892
 20
101.3656772168306
 30
0.0
 10
181.7865307370541
 20
101.357191070918
 30
0.0
 10
181.7944024354897
 20
101.350187056428
 30
0.0
 10
181.8023036082417
 20
101.3431568165255
 30
0.0
 10
181.8114779402381
 20
101.3374277299659
 30
0.0
 10
181.8211883569718
 20
101.3333993453663
 30
0.0
 10
181.8311669130005
 20
101.329259722677
 30
0.0
 10
181.8419738027108
 20
101.326802783112
 30
0.0
 10
181.8527640513161
 20
101.3261680661447
 30
0.0
 10
181.8558736215435
 20
101.3259851512688
 30
0.0
 10
181.8589967215435
 20
101.3259491610425
 30
0.0
 10
181.8621135305885
 20
101.3260594127966
 30
0.0
  0
SPLINE
  5
1B9
330
1F
100
AcDbEntity
  8
0
  6
HIDDEN
 62
     7
370
     0
100
AcDbSpline
210
0.0
220
0.0
230
1.0
 70
     8
 71
     3
 72
    10
 73
     6
 74
     0
 42
0.00000001
 43
0.00000001
 40
0.0
 40
0.0
 40
0.0
 40
0.0
 40
0.5
 40
0.5
 40
1.0
 40
1.0
 40
1.0
 40
1.0
 10
181.8621135305885
 20
101.3260594127976
 30
0.0
 10
182.0119563649139
 20
101.3313598450927
 30
0.0
 10
182.1628241893669
 20
101.3332950333838
 30
0.0
 10
182.4665667993091
 20
101.3301441487085
 30
0.0
 10
182.6176629178472
 20
101.3249897482758
 30
0.0
 10
182.7621135305885
 20
101.3169676040515
 30
0.0
  0
SPLINE
  5
1BA
330
1F
100
AcDbEntity
  8
0
  6
HIDDEN
 62
     7
370
     0
100
AcDbSpline
210
0.0
220
0.0
230
1.0
 70
     8
 71
     3
 72
    20
 73
    16
 74
     0
 42
0.00000001
 43
0.00000001
 40
0.0000002095638255
 40
0.0000002095638255
 40
0.0000002095638255
 40
0.0000002095638255
 40
0.0000365247662459
 40
0.0000365247662459
 40
0.0000365247662459
 40
0.0000731650534722
 40
0.0000731650534722
 40
0.0000731650534722
 40
0.0001079711865408
 40
0.0001079711865408
 40
0.0001079711865408
 40
0.0001401117176299
 40
0.0001401117176299
 40
0.0001401117176299
 40
0.0001602202130877
 40
0.0001602202130877
 40
0.0001602202130877
 40
0.0001602202130877
 10
182.7621135305885
 20
101.3169676040515
 30
0.0
 10
182.7735106908676
 20
101.3163346564871
 30
0.0
 10
182.7851188527845
 20
101.3176905424756
 30
0.0
 10
182.7960047086268
 20
101.3210172594671
 30
0.0
 10
182.806973079845
 20
101.3243691931532
 30
0.0
 10
182.8175259442352
 20
101.329835627237
 30
0.0
 10
182.8266440477942
 20
101.3370628574149
 30
0.0
 10
182.8353053019135
 20
101.343927977639
 30
0.0
 10
182.8429287270687
 20
101.35260598905
 30
0.0
 10
182.8487060761176
 20
101.3623535033799
 30
0.0
 10
182.8540496509738
 20
101.3713691560682
 30
0.0
 10
182.857967472791
 20
101.3815637112735
 30
0.0
 10
182.8601016494926
 20
101.3920252652884
 30
0.0
 10
182.8614414034772
 20
101.3985926262127
 30
0.0
 10
182.8621135305885
 20
101.4053602692521
 30
0.0
 10
182.8621135305885
 20
101.4120872658681
 30
0.0
  0
LINE
  5
1BB
330
1F
100
AcDbEntity
  8
0
  6
HIDDEN
 62
     7
370
     0
100
AcDbLine
 10
182.8621135306
 20
101.4120872659
 30
0.0
 11
182.8621135306
 21
101.8423677489
 31
0.0
  0
LINE
  5
1BC
330
1F
100
AcDbEntity
  8
0
  6
HIDDEN
 62
     7
370
     0
100
AcDbLine
 10
182.8621135306
 20
101.8423677489
 30
0.0
 11
182.8621135306
 21
101.4120872659
 31
0.0
  0
LINE
  5
1BD
330
1F
100
AcDbEntity
  8
0
  6
HIDDEN
 62
     7
370
     0
100
AcDbLine
 10
181.7621135306
 20
101.4233085084
 30
0.0
 11
181.7621135306
 21
101.8541044652
 31
0.0
  0
SPLINE
  5
1BE
330
1F
100
AcDbEntity
  8
0
  6
HIDDEN
 62
     7
370
     0
100
AcDbSpline
210
0.0
220
0.0
230
1.0
 70
     8
 71
     3
 72
    10
 73
     6
 74
     0
 42
0.00000001
 43
0.00000001
 40
0.0
 40
0.0
 40
0.0
 40
0.0
 40
0.5
 40
0.5
 40
1.0
 40
1.0
 40
1.0
 40
1.0
 10
182.7621135305885
 20
101.3169676040515
 30
0.0
 10
182.6176702383931
 20
101.3249893417253
 30
0.0
 10
182.4694913098073
 20
101.3300682161929
 30
0.0
 10
182.1657816971434
 20
101.3333090739936
 30
0.0
 10
182.0119578994398
 20
101.3313598993739
 30
0.0
 10
181.8621135305885
 20
101.3260594127976
 30
0.0
  0
LWPOLYLINE
  5
1BF
330
1F
100
AcDbEntity
  8
0
  6
HIDDEN
 62
     7
370
     0
100
AcDbPolyline
 90
        2
 70
   128
 43
0.0
 10
120.4621135306
 20
67.3205338809
 10
120.4621135306
 20
67.3205338809
  0
LINE
  5
1C0
330
1F
100
AcDbEntity
  8
0
  6
HIDDEN
 62
     7
370
     0
100
AcDbLine
 10
189.7203788757
 20
120.630404788
 30
0.0
 11
186.3038481855
 21
120.630404788
 31
0.0
  0
LINE
  5
1C1
330
1F
100
AcDbEntity
  8
0
  6
HIDDEN
 62
     7
370
     0
100
AcDbLine
 10
120.4621135306
 20
61.2305348811
 30
0.0
 11
120.4621135306
 21
67.3205338809
 31
0.0
  0
LINE
  5
1C2
330
1F
100
AcDbEntity
  8
0
  6
HIDDEN
 62
     7
370
     0
100
AcDbLine
 10
120.4621135306
 20
67.3205338809
 30
0.0
 11
130.4621135306
 21
67.3205338809
 31
0.0
  0
SPLINE
  5
1C3
330
1F
100
AcDbEntity
  8
0
  6
HIDDEN
 62
     7
370
     0
100
AcDbSpline
210
0.0
220
0.0
230
1.0
 70
     8
 71
     3
 72
    10
 73
     6
 74
     0
 42
0.00000001
 43
0.00000001
 40
0.0
 40
0.0
 40
0.0
 40
0.0
 40
0.5
 40
0.5
 40
1.0
 40
1.0
 40
1.0
 40
1.0
 10
182.7621135305885
 20
114.8250976607986
 30
0.0
 10
182.6176702383931
 20
114.776860246631
 30
0.0
 10
182.4694913098073
 20
114.7481777573614
 30
0.0
 10
182.1657816971434
 20
114.7297018066193
 30
0.0
 10
182.0119578994398
 20
114.7405290996934
 30
0.0
 10
181.8621135305885
 20
114.7713471105795
 30
0.0
  0
SPLINE
  5
1C4
330
1F
100
AcDbEntity
  8
0
  6
HIDDEN
 62
     7
370
     0
100
AcDbSpline
210
0.0
220
0.0
230
1.0
 70
     8
 71
     3
 72
    23
 73
    19
 74
     0
 42
0.00000001
 43
0.00000001
 40
0.0001662950200273
 40
0.0001662950200273
 40
0.0001662950200273
 40
0.0001662950200273
 40
0.0001888869641776
 40
0.0001888869641776
 40
0.0001888869641776
 40
0.0002202292132408
 40
0.0002202292132408
 40
0.0002202292132408
 40
0.0002508744951465
 40
0.0002508744951465
 40
0.0002508744951465
 40
0.0002827639243137
 40
0.0002827639243137
 40
0.0002827639243137
 40
0.0003169268929599
 40
0.0003169268929599
 40
0.0003169268929599
 40
0.0003258677376186
 40
0.0003258677376186
 40
0.0003258677376186
 40
0.0003258677376186
 10
182.8621135305885
 20
114.8113646347646
 30
0.0
 10
182.8621135305885
 20
114.8151359835783
 30
0.0
 10
182.8612654444392
 20
114.8186205329661
 30
0.0
 10
182.8595812058192
 20
114.8216567924848
 30
0.0
 10
182.8572435324894
 20
114.8258710307851
 30
0.0
 10
182.8532110019808
 20
114.8293088670715
 30
0.0
 10
182.8478402082166
 20
114.8317179240637
 30
0.0
 10
182.842581444304
 20
114.8340767303277
 30
0.0
 10
182.8359111234152
 20
114.8355200294219
 30
0.0
 10
182.8283875686793
 20
114.8360309226622
 30
0.0
 10
182.8205572585064
 20
114.8365626463855
 30
0.0
 10
182.8116109261225
 20
114.836105636117
 30
0.0
 10
182.8022316858644
 20
114.8347938798987
 30
0.0
 10
182.7921902468491
 20
114.8333895102795
 30
0.0
 10
182.7813999636676
 20
114.830974205395
 30
0.0
 10
182.7706568300826
 20
114.8277904302365
 30
0.0
 10
182.767812827127
 20
114.8269475973806
 30
0.0
 10
182.7649603805628
 20
114.8260483777149
 30
0.0
 10
182.7621135305885
 20
114.8250976607989
 30
0.0
  0
LINE
  5
1C5
330
1F
100
AcDbEntity
  8
0
  6
HIDDEN
 62
     7
370
     0
100
AcDbLine
 10
182.8621135306
 20
101.4120872659
 30
0.0
 11
182.8621135306
 21
114.8113646348
 31
0.0
  0
LINE
  5
1C6
330
1F
100
AcDbEntity
  8
0
  6
HIDDEN
 62
     7
370
     0
100
AcDbLine
 10
181.7621135305
 20
101.4233085084
 30
0.0
 11
181.7621135306
 21
114.7443738587
 31
0.0
  0
SPLINE
  5
1C7
330
1F
100
AcDbEntity
  8
0
  6
HIDDEN
 62
     7
370
     0
100
AcDbSpline
210
0.0
220
0.0
230
1.0
 70
     8
 71
     3
 72
    20
 73
    16
 74
     0
 42
0.00000001
 43
0.00000001
 40
0.000000201981633
 40
0.000000201981633
 40
0.000000201981633
 40
0.000000201981633
 40
0.000034327889285
 40
0.000034327889285
 40
0.000034327889285
 40
0.0000687102723355
 40
0.0000687102723355
 40
0.0000687102723355
 40
0.0001022735979615
 40
0.0001022735979615
 40
0.0001022735979615
 40
0.000134762990145
 40
0.000134762990145
 40
0.000134762990145
 40
0.0001578678762437
 40
0.0001578678762437
 40
0.0001578678762437
 40
0.0001578678762437
 10
181.8621135305885
 20
114.7713471105795
 30
0.0
 10
181.8510037221717
 20
114.7736320292545
 30
0.0
 10
181.8397025217145
 20
114.7751126753364
 30
0.0
 10
181.8291242091699
 20
114.7756311185179
 30
0.0
 10
181.8184734864267
 20
114.7761531105238
 30
0.0
 10
181.808257898869
 20
114.77570912387
 30
0.0
 10
181.7993846562145
 20
114.7742598275808
 30
0.0
 10
181.7907220879358
 20
114.7728449414394
 30
0.0
 10
181.7830934172737
 20
114.7704257160778
 30
0.0
 10
181.7771898237502
 20
114.767143949076
 30
0.0
 10
181.7714708183844
 20
114.7639647933604
 30
0.0
 10
181.7672106737769
 20
114.7598854358925
 30
0.0
 10
181.7647502324968
 20
114.7552227921067
 30
0.0
 10
181.7629972858303
 20
114.7519008815425
 30
0.0
 10
181.7621135305885
 20
114.7482323713001
 30
0.0
 10
181.7621135305885
 20
114.7443738586779
 30
0.0
  0
ARC
  5
1C8
330
1F
100
AcDbEntity
  8
0
  6
HIDDEN
 62
     7
370
     0
100
AcDbCircle
 10
188.0121135306
 20
106.9929319489
 30
0.0
 40
2.345976891758457
100
AcDbArc
 50
223.2669683419
 51
316.7330316581
  0
LWPOLYLINE
  5
1C9
330
1F
100
AcDbEntity
  8
0
  6
HIDDEN
 62
     7
370
     0
100
AcDbPolyline
 90
       11
 70
   128
 43
0.0
 10
185.7121135306
 20
106.4705338809
 10
185.8246835431
 20
107.0860519858
 10
186.1513744435
 20
107.64131889
 10
186.6602074503
 20
108.0819812001
 10
187.3013744435
 20
108.3649038191
 10
188.0121135306
 20
108.4623923096
 10
188.7228526177
 20
108.3649038191
 10
189.3640196109
 20
108.0819812001
 10
189.8728526177
 20
107.64131889
 10
190.1995435181
 20
107.0860519858
 10
190.3121135306
 20
106.4705338809
  0
LWPOLYLINE
  5
1CA
330
1F
100
AcDbEntity
  8
0
  6
HIDDEN
 62
     7
370
     0
100
AcDbPolyline
 90
       11
 70
   128
 43
0.0
 10
190.3121135306
 20
106.4705338809
 10
190.1995435181
 20
105.855015776
 10
189.8728526177
 20
105.2997488719
 10
189.3640196109
 20
104.8590865617
 10
188.7228526177
 20
104.5761639427
 10
188.0121135306
 20
104.4786754522
 10
187.3013744435
 20
104.5761639427
 10
186.6602074503
 20
104.8590865617
 10
186.1513744435
 20
105.2997488719
 10
185.8246835431
 20
105.855015776
 10
185.7121135306
 20
106.4705338809
  0
LINE
  5
1CB
330
1F
100
AcDbEntity
  8
0
  6
HIDDEN
 62
     7
370
     0
100
AcDbLine
 10
181.7621135306
 20
114.7443738587
 30
0.0
 11
181.7621135306
 21
114.5289758803
 31
0.0
  0
LINE
  5
1CC
330
1F
100
AcDbEntity
  8
0
  6
HIDDEN
 62
     7
370
     0
100
AcDbLine
 10
182.8621135306
 20
114.5962243933
 30
0.0
 11
182.8621135306
 21
114.8113646348
 31
0.0
  0
LINE
  5
1CD
330
1F
100
AcDbEntity
  8
0
  6
HIDDEN
 62
     7
370
     0
100
AcDbLine
 10
181.7621135306
 20
117.2785212973
 30
0.0
 11
181.7621135305
 21
117.4939192756
 31
0.0
  0
LINE
  5
1CE
330
1F
100
AcDbEntity
  8
0
  6
HIDDEN
 62
     7
370
     0
100
AcDbLine
 10
182.8621135306
 20
117.4381497421
 30
0.0
 11
182.8621135306
 21
117.2230095006
 31
0.0
  0
LWPOLYLINE
  5
1CF
330
1F
100
AcDbEntity
  8
0
  6
HIDDEN
 62
     7
370
     0
100
AcDbPolyline
 90
        2
 70
   128
 43
0.0
 10
205.5121135306
 20
105.2455338809
 10
205.5121135306
 20
105.2455338809
  0
LWPOLYLINE
  5
1D0
330
1F
100
AcDbEntity
  8
0
  6
HIDDEN
 62
     7
370
     0
100
AcDbPolyline
 90
        2
 70
   128
 43
0.0
 10
205.5121135306
 20
117.1955338809
 10
205.5121135306
 20
117.1955338809
  0
LWPOLYLINE
  5
1D1
330
1F
100
AcDbEntity
  8
0
  6
HIDDEN
 62
     7
370
     0
100
AcDbPolyline
 90
        2
 70
   128
 43
0.0
 10
204.8121135306
 20
105.9455338809
 10
204.8121135306
 20
105.9455338809
  0
LWPOLYLINE
  5
1D2
330
1F
100
AcDbEntity
  8
0
  6
HIDDEN
 62
     7
370
     0
100
AcDbPolyline
 90
        2
 70
   128
 43
0.0
 10
201.9621135306
 20
105.9455338809
 10
201.9621135306
 20
105.9455338809
  0
LWPOLYLINE
  5
1D3
330
1F
100
AcDbEntity
  8
0
  6
HIDDEN
 62
     7
370
     0
100
AcDbPolyline
 90
        2
 70
   128
 43
0.0
 10
204.8121135306
 20
116.4955338809
 10
204.8121135306
 20
116.4955338809
  0
LWPOLYLINE
  5
1D4
330
1F
100
AcDbEntity
  8
0
  6
HIDDEN
 62
     7
370
     0
100
AcDbPolyline
 90
        2
 70
   128
 43
0.0
 10
201.9621135306
 20
116.4955338809
 10
201.9621135306
 20
116.4955338809
  0
LINE
  5
1D5
330
1F
100
AcDbEntity
  8
0
  6
HIDDEN
 62
     7
370
     0
100
AcDbLine
 10
75.7121135306
 20
138.5905338809
 30
0.0
 11
75.7121135306
 21
136.4490475113
 31
0.0
  0
LINE
  5
1D6
330
1F
100
AcDbEntity
  8
0
  6
HIDDEN
 62
     7
370
     0
100
AcDbLine
 10
80.7121135306
 20
83.8505338809
 30
0.0
 11
80.7121135306
 21
85.9920202505
 31
0.0
  0
LINE
  5
1D7
330
1F
100
AcDbEntity
  8
0
  6
HIDDEN
 62
     7
370
     0
100
AcDbLine
 10
75.7121135306
 20
138.5905338809
 30
0.0
 11
75.7121135306
 21
144.9651426179
 31
0.0
  0
LINE
  5
1D8
330
1F
100
AcDbEntity
  8
0
  6
HIDDEN
 62
     7
370
     0
100
AcDbLine
 10
80.7121135306
 20
83.8505338809
 30
0.0
 11
80.7121135306
 21
77.3512006155
 31
0.0
  0
LWPOLYLINE
  5
1D9
330
1F
100
AcDbEntity
  8
0
  6
HIDDEN
 62
     7
370
     0
100
AcDbPolyline
 90
        2
 70
   128
 43
0.0
 10
201.4621135306
 20
115.9955338809
 10
201.4621135306
 20
115.9955338809
  0
LWPOLYLINE
  5
1DA
330
1F
100
AcDbEntity
  8
0
  6
HIDDEN
 62
     7
370
     0
100
AcDbPolyline
 90
        2
 70
   128
 43
0.0
 10
201.4621135306
 20
106.4455338809
 10
201.4621135306
 20
106.4455338809
  0
ARC
  5
1DB
330
1F
100
AcDbEntity
  8
0
  6
HIDDEN
 62
     7
370
     0
100
AcDbCircle
 10
188.0121135306
 20
106.0382649057
 30
0.0
 40
2.345976891758427
100
AcDbArc
 50
43.2669683419
 51
136.7330316581
  0
LWPOLYLINE
  5
1DC
330
1F
100
AcDbEntity
  8
0
  6
HIDDEN
 62
     7
370
     0
100
AcDbPolyline
 90
       32
 70
   128
 43
0.0
 10
124.5121135306
 20
156.5332397327
 10
125.518606131
 20
156.5016117525
 10
126.4838928062
 20
156.4080226653
 10
127.3684546061
 20
156.2563040193
 10
128.1360774667
 20
156.0526671936
 10
128.7553348181
 20
155.8054491038
 10
129.2008741913
 20
155.5247708876
 10
129.4544551522
 20
155.2221235442
 10
129.5056960664
 20
154.9098974912
 10
129.3524991249
 20
154.6008753001
 10
129.0011362284
 20
154.3077083755
 10
128.4659922153
 20
154.042399006
 10
127.7689759442
 20
153.8158089881
 10
126.9386233432
 20
153.637214944
 10
126.0089291455
 20
153.5139285347
 10
125.0179551405
 20
153.4509971203
 10
124.0062719207
 20
153.4509971203
 10
123.0152979157
 20
153.5139285347
 10
122.0856037179
 20
153.637214944
 10
121.255251117
 20
153.8158089881
 10
120.5582348459
 20
154.042399006
 10
120.0230908327
 20
154.3077083755
 10
119.6717279363
 20
154.6008753001
 10
119.5185309947
 20
154.9098974912
 10
119.5697719089
 20
155.2221235442
 10
119.8233528699
 20
155.5247708876
 10
120.2688922431
 20
155.8054491038
 10
120.8881495944
 20
156.0526671936
 10
121.6557724551
 20
156.2563040193
 10
122.540334255
 20
156.4080226653
 10
123.5056209301
 20
156.5016117525
 10
124.5121135306
 20
156.5332397327
  0
SPLINE
  5
1DD
330
1F
100
AcDbEntity
  8
0
  6
HIDDEN
 62
     7
370
     0
100
AcDbSpline
210
0.0
220
0.0
230
1.0
 70
     8
 71
     3
 72
    14
 73
    10
 74
     0
 42
0.00000001
 43
0.00000001
 40
0.0
 40
0.0
 40
0.0
 40
0.0
 40
0.25
 40
0.25
 40
0.5
 40
0.5
 40
0.75
 40
0.75
 40
1.0
 40
1.0
 40
1.0
 40
1.0
 10
143.4621135305885
 20
160.2103287365671
 30
0.0
 10
143.5941502684071
 20
160.2103287365671
 30
0.0
 10
143.7285505588472
 20
160.1825222891187
 30
0.0
 10
143.9706389844467
 20
160.0786632796546
 30
0.0
 10
144.0820574413247
 20
160.0014722710822
 30
0.0
 10
144.2650679308647
 20
159.8123251933692
 30
0.0
 10
144.3384941771104
 20
159.6986209736666
 30
0.0
 10
144.4366349174682
 20
159.4538222066312
 30
0.0
 10
144.4621135305885
 20
159.3216933927014
 30
0.0
 10
144.4621135305885
 20
159.1892737017494
 30
0.0
  0
SPLINE
  5
1DE
330
1F
100
AcDbEntity
  8
0
  6
HIDDEN
 62
     7
370
     0
100
AcDbSpline
210
0.0
220
0.0
230
1.0
 70
     8
 71
     3
 72
    14
 73
    10
 74
     0
 42
0.00000001
 43
0.00000001
 40
0.0
 40
0.0
 40
0.0
 40
0.0
 40
0.25
 40
0.25
 40
0.5
 40
0.5
 40
0.75
 40
0.75
 40
1.0
 40
1.0
 40
1.0
 40
1.0
 10
143.4621135305885
 20
62.44554028787471
 30
0.0
 10
143.5956751500779
 20
62.44554028787471
 30
0.0
 10
143.7274121706152
 20
62.47300626447717
 30
0.0
 10
143.9714295299287
 20
62.57809982124385
 30
0.0
 10
144.0824561752717
 20
62.65559724392944
 30
0.0
 10
144.2656781477313
 20
62.84608085726559
 30
0.0
 10
144.3389697005035
 20
62.96048190694112
 30
0.0
 10
144.4366665611613
 20
63.20574380540398
 30
0.0
 10
144.4621135305886
 20
63.33900300022273
 30
0.0
 10
144.4621135305885
 20
63.4711883356511
 30
0.0
  0
LINE
  5
1DF
330
1F
100
AcDbEntity
  8
0
  6
HIDDEN
 62
     7
370
     0
100
AcDbLine
 10
144.4621135306
 20
159.1892737017
 30
0.0
 11
144.4621135306
 21
63.4711883357
 31
0.0
  0
LINE
  5
1E0
330
1F
100
AcDbEntity
  8
0
  6
HIDDEN
 62
     7
370
     0
100
AcDbLine
 10
138.7741425515
 20
160.2103287366
 30
0.0
 11
138.7741425515
 21
62.4455402879
 31
0.0
  0
SPLINE
  5
1E1
330
1F
100
AcDbEntity
  8
0
  6
HIDDEN
 62
     7
370
     0
100
AcDbSpline
210
0.0
220
0.0
230
1.0
 70
     8
 71
     3
 72
     8
 73
     4
 74
     0
 42
0.00000001
 43
0.00000001
 40
0.0
 40
0.0
 40
0.0
 40
0.0
 40
1.0
 40
1.0
 40
1.0
 40
1.0
 10
132.2500845096671
 20
160.2103287365671
 30
0.0
 10
132.7011114783803
 20
159.4130181663792
 30
0.0
 10
133.1518052949039
 20
158.615519866722
 30
0.0
 10
133.6021135305885
 20
157.8178047416084
 30
0.0
  0
LINE
  5
1E2
330
1F
100
AcDbEntity
  8
0
  6
HIDDEN
 62
     7
370
     0
100
AcDbLine
 10
133.6021135306
 20
157.8178047416
 30
0.0
 11
133.6021135306
 21
156.9140851218
 31
0.0
  0
SPLINE
  5
1E3
330
1F
100
AcDbEntity
  8
0
  6
HIDDEN
 62
     7
370
     0
100
AcDbSpline
210
0.0
220
0.0
230
1.0
 70
     8
 71
     3
 72
    14
 73
    10
 74
     0
 42
0.00000001
 43
0.00000001
 40
0.0
 40
0.0
 40
0.0
 40
0.0
 40
0.25
 40
0.25
 40
0.5
 40
0.5
 40
0.75
 40
0.75
 40
1.0
 40
1.0
 40
1.0
 40
1.0
 10
133.6021135305885
 20
156.9140851217515
 30
0.0
 10
133.6021135305885
 20
156.8077284279991
 30
0.0
 10
133.6225010867297
 20
156.701887940239
 30
0.0
 10
133.7011354321913
 20
156.5053230267025
 30
0.0
 10
133.7598667918299
 20
156.4141522844154
 30
0.0
 10
133.9064756974325
 20
156.2622411953837
 30
0.0
 10
133.9958810174591
 20
156.2001723585641
 30
0.0
 10
134.1897717500595
 20
156.1169043108055
 30
0.0
 10
134.2962767399494
 20
156.0948096410759
 30
0.0
 10
134.4021135305887
 20
156.0948096410759
 30
0.0
  0
LINE
  5
1E4
330
1F
100
AcDbEntity
  8
0
  6
HIDDEN
 62
     7
370
     0
100
AcDbLine
 10
134.4021135306
 20
156.0948096411
 30
0.0
 11
136.6221135306
 21
156.0948096411
 31
0.0
  0
SPLINE
  5
1E5
330
1F
100
AcDbEntity
  8
0
  6
HIDDEN
 62
     7
370
     0
100
AcDbSpline
210
0.0
220
0.0
230
1.0
 70
     8
 71
     3
 72
    10
 73
     6
 74
     0
 42
0.00000001
 43
0.00000001
 40
0.0
 40
0.0
 40
0.0
 40
0.0
 40
0.5
 40
0.5
 40
1.0
 40
1.0
 40
1.0
 40
1.0
 10
136.6221135305885
 20
156.094809641076
 30
0.0
 10
136.8346498444448
 20
156.094809641076
 30
0.0
 10
137.0445860160988
 20
156.1862222277061
 30
0.0
 10
137.3382931571101
 20
156.4909670936104
 30
0.0
 10
137.4221135305885
 20
156.7031220635189
 30
0.0
 10
137.4221135305885
 20
156.9140851217515
 30
0.0
  0
LINE
  5
1E6
330
1F
100
AcDbEntity
  8
0
  6
HIDDEN
 62
     7
370
     0
100
AcDbLine
 10
137.4221135306
 20
156.9140851218
 30
0.0
 11
137.4221135306
 21
157.8178047416
 31
0.0
  0
LINE
  5
1E7
330
1F
100
AcDbEntity
  8
0
  6
HIDDEN
 62
     7
370
     0
100
AcDbLine
 10
138.7741425515
 20
160.2103287366
 30
0.0
 11
143.4621135306
 21
160.2103287366
 31
0.0
  0
SPLINE
  5
1E8
330
1F
100
AcDbEntity
  8
0
  6
HIDDEN
 62
     7
370
     0
100
AcDbSpline
210
0.0
220
0.0
230
1.0
 70
     8
 71
     3
 72
     8
 73
     4
 74
     0
 42
0.00000001
 43
0.00000001
 40
0.0
 40
0.0
 40
0.0
 40
0.0
 40
1.0
 40
1.0
 40
1.0
 40
1.0
 10
137.4221135305885
 20
157.8178047416084
 30
0.0
 10
137.872421766273
 20
158.615519866722
 30
0.0
 10
138.3231155827966
 20
159.4130181663792
 30
0.0
 10
138.7741425515099
 20
160.2103287365671
 30
0.0
  0
LINE
  5
1E9
330
1F
100
AcDbEntity
  8
0
  6
HIDDEN
 62
     7
370
     0
100
AcDbLine
 10
130.4621135306
 20
155.1205338809
 30
0.0
 11
144.4621135306
 21
155.1205338809
 31
0.0
  0
LINE
  5
1EA
330
1F
100
AcDbEntity
  8
0
  6
HIDDEN
 62
     7
370
     0
100
AcDbLine
 10
144.4621135306
 20
159.1892737017
 30
0.0
 11
144.4621135306
 21
155.1205338809
 31
0.0
  0
LINE
  5
1EB
330
1F
100
AcDbEntity
  8
0
  6
HIDDEN
 62
     7
370
     0
100
AcDbLine
 10
137.4221135306
 20
157.8178047416
 30
0.0
 11
137.4221135306
 21
64.8491455939
 31
0.0
  0
SPLINE
  5
1EC
330
1F
100
AcDbEntity
  8
0
  6
HIDDEN
 62
     7
370
     0
100
AcDbSpline
210
0.0
220
0.0
230
1.0
 70
     8
 71
     3
 72
    12
 73
     8
 74
     0
 42
0.00000001
 43
0.00000001
 40
0.0
 40
0.0
 40
0.0
 40
0.0
 40
0.250000000000003
 40
0.250000000000003
 40
0.500000000000006
 40
0.500000000000006
 40
1.0
 40
1.0
 40
1.0
 40
1.0
 10
136.6221135305885
 20
66.58085842285385
 30
0.0
 10
136.7278741839374
 20
66.58085842285385
 30
0.0
 10
136.8358618121204
 20
66.55831891685347
 30
0.0
 10
137.030456477386
 20
66.47374828485813
 30
0.0
 10
137.1193283902248
 20
66.4112666320993
 30
0.0
 10
137.3385206825507
 20
66.18187768062708
 30
0.0
 10
137.4221135305885
 20
65.96929434310466
 30
0.0
 10
137.4221135305885
 20
65.75735509850847
 30
0.0
  0
LINE
  5
1ED
330
1F
100
AcDbEntity
  8
0
  6
HIDDEN
 62
     7
370
     0
100
AcDbLine
 10
137.4221135306
 20
156.9140851218
 30
0.0
 11
137.4221135306
 21
65.7573550985
 31
0.0
  0
SPLINE
  5
1EE
330
1F
100
AcDbEntity
  8
0
  6
HIDDEN
 62
     7
370
     0
100
AcDbSpline
210
0.0
220
0.0
230
1.0
 70
     8
 71
     3
 72
    14
 73
    10
 74
     0
 42
0.00000001
 43
0.00000001
 40
0.0
 40
0.0
 40
0.0
 40
0.0
 40
0.25
 40
0.25
 40
0.5
 40
0.5
 40
0.75
 40
0.75
 40
1.0
 40
1.0
 40
1.0
 40
1.0
 10
133.6021135305885
 20
65.75735509850861
 30
0.0
 10
133.6021135305885
 20
65.864399179503
 30
0.0
 10
133.6222312177466
 20
65.96963431974545
 30
0.0
 10
133.7007224070123
 20
66.16748480659312
 30
0.0
 10
133.7588790318135
 20
66.25853657015806
 30
0.0
 10
133.9053942874315
 20
66.41170266408284
 30
0.0
 10
133.9940368360726
 20
66.47399711029226
 30
0.0
 10
134.189760158873
 20
66.55879089582822
 30
0.0
 10
134.2949913499439
 20
66.58085842285385
 30
0.0
 10
134.4021135305885
 20
66.58085842285385
 30
0.0
  0
LINE
  5
1EF
330
1F
100
AcDbEntity
  8
0
  6
HIDDEN
 62
     7
370
     0
100
AcDbLine
 10
133.6021135306
 20
156.9140851218
 30
0.0
 11
133.6021135306
 21
65.7573550985
 31
0.0
  0
LINE
  5
1F0
330
1F
100
AcDbEntity
  8
0
  6
HIDDEN
 62
     7
370
     0
100
AcDbLine
 10
133.6021135306
 20
157.8178047416
 30
0.0
 11
133.6021135306
 21
64.8491455939
 31
0.0
  0
LINE
  5
1F1
330
1F
100
AcDbEntity
  8
0
  6
HIDDEN
 62
     7
370
     0
100
AcDbLine
 10
67.2621135306
 20
83.8505338809
 30
0.0
 11
67.2621135306
 21
86.6838287231
 31
0.0
  0
LINE
  5
1F2
330
1F
100
AcDbEntity
  8
0
  6
HIDDEN
 62
     7
370
     0
100
AcDbLine
 10
67.2621135306
 20
138.5905338809
 30
0.0
 11
67.2621135306
 21
143.4688190827
 31
0.0
  0
SPLINE
  5
1F3
330
1F
100
AcDbEntity
  8
0
  6
HIDDEN
 62
     7
370
     0
100
AcDbSpline
210
0.0
220
0.0
230
1.0
 70
     8
 71
     3
 72
     8
 73
     4
 74
     0
 42
0.00000001
 43
0.00000001
 40
0.0
 40
0.0
 40
0.0
 40
0.0
 40
1.0
 40
1.0
 40
1.0
 40
1.0
 10
67.51203864655422
 20
143.4663660494681
 30
0.0
 10
67.42502061670585
 20
143.4668326142552
 30
0.0
 10
67.34206659032591
 20
143.4678726338313
 30
0.0
 10
67.26211353058618
 20
143.4688190827236
 30
0.0
  0
ELLIPSE
  5
1F4
330
1F
100
AcDbEntity
  8
0
  6
HIDDEN
 62
     7
370
     0
100
AcDbEllipse
 10
59.3274403303
 20
111.2205338809
 30
0.0
 11
31.08108570811661
 21
-1.421085471520200E-14
 31
0.0
210
0.0
220
0.0
230
1.0
 40
0.8164965809
 41
4.915995335118103
 42
4.970536038964787
  0
LINE
  5
1F5
330
1F
100
AcDbEntity
  8
0
  6
HIDDEN
 62
     7
370
     0
100
AcDbLine
 10
65.6121135306
 20
83.8505338809
 30
0.0
 11
65.6121135306
 21
86.3671401279
 31
0.0
  0
ELLIPSE
  5
1F6
330
1F
100
AcDbEntity
  8
0
  6
HIDDEN
 62
     7
370
     0
100
AcDbEllipse
 10
59.3274403303
 20
111.2205338809
 30
0.0
 11
31.08108570811661
 21
1.421085471520200E-14
 31
0.0
210
0.0
220
0.0
230
1.0
 40
0.8164965809
 41
1.312649268214811
 42
1.367189972061496
  0
LINE
  5
1F7
330
1F
100
AcDbEntity
  8
0
  6
HIDDEN
 62
     7
370
     0
100
AcDbLine
 10
65.6121135306
 20
136.0739276339
 30
0.0
 11
65.6121135306
 21
86.3671401279
 31
0.0
  0
SPLINE
  5
1F8
330
1F
100
AcDbEntity
  8
0
  6
HIDDEN
 62
     7
370
     0
100
AcDbSpline
210
0.0
220
0.0
230
1.0
 70
     8
 71
     3
 72
    10
 73
     6
 74
     0
 42
0.00000001
 43
0.00000001
 40
0.0
 40
0.0
 40
0.0
 40
0.0
 40
0.4999999999999989
 40
0.4999999999999989
 40
1.0
 40
1.0
 40
1.0
 40
1.0
 10
67.26211353058848
 20
143.4688190827235
 30
0.0
 10
67.13722525983827
 20
143.337822804652
 30
0.0
 10
67.01577514177784
 20
143.194109967987
 30
0.0
 10
66.78619116682042
 20
142.8835396752978
 30
0.0
 10
66.67591619142443
 20
142.7154706022347
 30
0.0
 10
66.58866577229091
 20
142.5433999813817
 30
0.0
  0
LINE
  5
1F9
330
1F
100
AcDbEntity
  8
0
  6
HIDDEN
 62
     7
370
     0
100
AcDbLine
 10
65.6121135306
 20
138.5905338809
 30
0.0
 11
65.6121135306
 21
141.7232036235
 31
0.0
  0
SPLINE
  5
1FA
330
1F
100
AcDbEntity
  8
0
  6
HIDDEN
 62
     7
370
     0
100
AcDbSpline
210
0.0
220
0.0
230
1.0
 70
     8
 71
     3
 72
    12
 73
     8
 74
     0
 42
0.00000001
 43
0.00000001
 40
0.0
 40
0.0
 40
0.0
 40
0.0
 40
0.249999999999997
 40
0.249999999999997
 40
0.4999999999999964
 40
0.4999999999999964
 40
1.0
 40
1.0
 40
1.0
 40
1.0
 10
65.90292776230824
 20
141.8990170336085
 30
0.0
 10
65.86942636297135
 20
141.9236505867378
 30
0.0
 10
65.83133549500764
 20
141.9316687479014
 30
0.0
 10
65.76153508429097
 20
141.9303364117919
 30
0.0
 10
65.72908248440831
 20
141.9204707463899
 30
0.0
 10
65.6468089736911
 20
141.8694873190468
 30
0.0
 10
65.61211353058849
 20
141.805418171874
 30
0.0
 10
65.61211353058849
 20
141.7232036234714
 30
0.0
  0
LINE
  5
1FB
330
1F
100
AcDbEntity
  8
0
  6
HIDDEN
 62
     7
370
     0
100
AcDbLine
 10
67.2621135306
 20
138.5905338809
 30
0.0
 11
67.2621135306
 21
135.7572390387
 31
0.0
  0
SPLINE
  5
1FC
330
1F
100
AcDbEntity
  8
0
  6
HIDDEN
 62
     7
370
     0
100
AcDbSpline
210
0.0
220
0.0
230
1.0
 70
     8
 71
     3
 72
     8
 73
     4
 74
     0
 42
0.00000001
 43
0.00000001
 40
0.0
 40
0.0
 40
0.0
 40
0.0
 40
1.0
 40
1.0
 40
1.0
 40
1.0
 10
67.26211353058811
 20
78.97224867908345
 30
0.0
 10
67.34206659032778
 20
78.97319512797571
 30
0.0
 10
67.42502061670763
 20
78.97423514755184
 30
0.0
 10
67.51203864655592
 20
78.97470171233888
 30
0.0
  0
LINE
  5
1FD
330
1F
100
AcDbEntity
  8
0
  6
HIDDEN
 62
     7
370
     0
100
AcDbLine
 10
67.2621135306
 20
83.8505338809
 30
0.0
 11
67.2621135306
 21
78.9722486791
 31
0.0
  0
LINE
  5
1FE
330
1F
100
AcDbEntity
  8
0
  6
HIDDEN
 62
     7
370
     0
100
AcDbLine
 10
65.6121135306
 20
138.5905338809
 30
0.0
 11
65.6121135306
 21
136.0739276339
 31
0.0
  0
SPLINE
  5
1FF
330
1F
100
AcDbEntity
  8
0
  6
HIDDEN
 62
     7
370
     0
100
AcDbSpline
210
0.0
220
0.0
230
1.0
 70
     8
 71
     3
 72
    14
 73
    10
 74
     0
 42
0.00000001
 43
0.00000001
 40
0.0
 40
0.0
 40
0.0
 40
0.0
 40
0.25
 40
0.25
 40
0.5
 40
0.5
 40
0.75
 40
0.75
 40
1.0
 40
1.0
 40
1.0
 40
1.0
 10
65.61211353058849
 20
80.71786413833559
 30
0.0
 10
65.61211353058849
 20
80.67661720731122
 30
0.0
 10
65.62072324696975
 20
80.63971023502874
 30
0.0
 10
65.65180942654007
 20
80.57881017512935
 30
0.0
 10
65.67419898002413
 20
80.55462925558965
 30
0.0
 10
65.72894291120025
 20
80.5206616647064
 30
0.0
 10
65.76139315078544
 20
80.5107415807382
 30
0.0
 10
65.8313946655135
 20
80.50939037183336
 30
0.0
 10
65.86960516563606
 20
80.51754864852951
 30
0.0
 10
65.90292776230913
 20
80.54205072819761
 30
0.0
  0
LINE
  5
200
330
1F
100
AcDbEntity
  8
0
  6
HIDDEN
 62
     7
370
     0
100
AcDbLine
 10
65.6121135306
 20
83.8505338809
 30
0.0
 11
65.6121135306
 21
80.7178641383
 31
0.0
  0
SPLINE
  5
201
330
1F
100
AcDbEntity
  8
0
  6
HIDDEN
 62
     7
370
     0
100
AcDbSpline
210
0.0
220
0.0
230
1.0
 70
     8
 71
     3
 72
    10
 73
     6
 74
     0
 42
0.00000001
 43
0.00000001
 40
0.0
 40
0.0
 40
0.0
 40
0.0
 40
0.5
 40
0.5
 40
1.0
 40
1.0
 40
1.0
 40
1.0
 10
66.58866577228997
 20
79.8976677804271
 30
0.0
 10
66.67591619142316
 20
79.7255971595743
 30
0.0
 10
66.78619116681888
 20
79.55752808651141
 30
0.0
 10
67.01577514177585
 20
79.24695779382249
 30
0.0
 10
67.13722525983604
 20
79.10324495715756
 30
0.0
 10
67.26211353058598
 20
78.97224867908612
 30
0.0
  0
SPLINE
  5
202
330
1F
100
AcDbEntity
  8
0
  6
HIDDEN
 62
     7
370
     0
100
AcDbSpline
210
0.0
220
0.0
230
1.0
 70
     8
 71
     3
 72
     8
 73
     4
 74
     0
 42
0.00000001
 43
0.00000001
 40
0.0
 40
0.0
 40
0.0
 40
0.0
 40
1.0
 40
1.0
 40
1.0
 40
1.0
 10
132.2500845096671
 20
62.4455402878747
 30
0.0
 10
132.7011892390673
 20
63.24650021969461
 30
0.0
 10
133.1518870663107
 20
64.04769023125529
 30
0.0
 10
133.6021135305885
 20
64.84914559388004
 30
0.0
  0
LINE
  5
203
330
1F
100
AcDbEntity
  8
0
  6
HIDDEN
 62
     7
370
     0
100
AcDbLine
 10
133.6021135306
 20
64.8491455939
 30
0.0
 11
133.6021135306
 21
65.7573550985
 31
0.0
  0
LINE
  5
204
330
1F
100
AcDbEntity
  8
0
  6
HIDDEN
 62
     7
370
     0
100
AcDbLine
 10
134.4021135306
 20
66.5808584229
 30
0.0
 11
136.6221135306
 21
66.5808584229
 31
0.0
  0
LINE
  5
205
330
1F
100
AcDbEntity
  8
0
  6
HIDDEN
 62
     7
370
     0
100
AcDbLine
 10
137.4221135306
 20
65.7573550985
 30
0.0
 11
137.4221135306
 21
64.8491455939
 31
0.0
  0
LINE
  5
206
330
1F
100
AcDbEntity
  8
0
  6
HIDDEN
 62
     7
370
     0
100
AcDbLine
 10
138.7741425515
 20
62.4455402879
 30
0.0
 11
143.4621135306
 21
62.4455402879
 31
0.0
  0
SPLINE
  5
207
330
1F
100
AcDbEntity
  8
0
  6
HIDDEN
 62
     7
370
     0
100
AcDbSpline
210
0.0
220
0.0
230
1.0
 70
     8
 71
     3
 72
     8
 73
     4
 74
     0
 42
0.00000001
 43
0.00000001
 40
0.0
 40
0.0
 40
0.0
 40
0.0
 40
1.0
 40
1.0
 40
1.0
 40
1.0
 10
137.4221135305885
 20
64.84914559388004
 30
0.0
 10
137.8723399948663
 20
64.04769023125529
 30
0.0
 10
138.3230378221097
 20
63.24650021969461
 30
0.0
 10
138.7741425515099
 20
62.4455402878747
 30
0.0
  0
LINE
  5
208
330
1F
100
AcDbEntity
  8
0
  6
HIDDEN
 62
     7
370
     0
100
AcDbLine
 10
130.4621135306
 20
67.3205338809
 30
0.0
 11
144.4621135306
 21
67.3205338809
 31
0.0
  0
LINE
  5
209
330
1F
100
AcDbEntity
  8
0
  6
HIDDEN
 62
     7
370
     0
100
AcDbLine
 10
144.4621135306
 20
63.4711883357
 30
0.0
 11
144.4621135306
 21
67.3205338809
 31
0.0
  0
SPLINE
  5
20A
330
1F
100
AcDbEntity
  8
0
  6
HIDDEN
 62
     7
370
     0
100
AcDbSpline
210
0.0
220
0.0
230
1.0
 70
     8
 71
     3
 72
    20
 73
    16
 74
     0
 42
0.00000001
 43
0.00000001
 40
0.0
 40
0.0
 40
0.0
 40
0.0
 40
0.249999999999986
 40
0.249999999999986
 40
0.3749999999999789
 40
0.3749999999999789
 40
0.4374999999999789
 40
0.4374999999999789
 40
0.4999999999999789
 40
0.4999999999999789
 40
0.6249999999999835
 40
0.6249999999999835
 40
0.7499999999999879
 40
0.7499999999999879
 40
1.0
 40
1.0
 40
1.0
 40
1.0
 10
65.90292776230449
 20
80.54205072820281
 30
0.0
 10
65.92919997951789
 20
80.56136866928526
 30
0.0
 10
65.95988012177273
 20
80.57575738038705
 30
0.0
 10
66.03135099215466
 20
80.56885301855102
 30
0.0
 10
66.05937802919898
 20
80.56168701520261
 30
0.0
 10
66.1144616186965
 20
80.53198798849901
 30
0.0
 10
66.13535294724893
 20
80.51851434593767
 30
0.0
 10
66.18056159469438
 20
80.48331608042167
 30
0.0
 10
66.20496580708995
 20
80.4614078516944
 30
0.0
 10
66.27629812514141
 20
80.38928299169886
 30
0.0
 10
66.31819490996166
 20
80.33694245074881
 30
0.0
 10
66.38977086881755
 20
80.23945905884807
 30
0.0
 10
66.42059885863486
 20
80.19270528896965
 30
0.0
 10
66.50369879147041
 20
80.05941207313053
 30
0.0
 10
66.54855369684073
 20
79.97677467521531
 30
0.0
 10
66.58866577229331
 20
79.89766778042454
 30
0.0
  0
SPLINE
  5
20B
330
1F
100
AcDbEntity
  8
0
  6
HIDDEN
 62
     7
370
     0
100
AcDbSpline
210
0.0
220
0.0
230
1.0
 70
     8
 71
     3
 72
    20
 73
    16
 74
     0
 42
0.00000001
 43
0.00000001
 40
0.0
 40
0.0
 40
0.0
 40
0.0
 40
0.2500000000000037
 40
0.2500000000000037
 40
0.3750000000000055
 40
0.3750000000000055
 40
0.5000000000000073
 40
0.5000000000000073
 40
0.5625000000000057
 40
0.5625000000000057
 40
0.625000000000004
 40
0.625000000000004
 40
0.7500000000000027
 40
0.7500000000000027
 40
1.0
 40
1.0
 40
1.0
 40
1.0
 10
66.5886657722909
 20
142.5433999813817
 30
0.0
 10
66.54866955446705
 20
142.4645215748242
 30
0.0
 10
66.5035559266294
 20
142.3813919281327
 30
0.0
 10
66.42030171226287
 20
142.2479032637818
 30
0.0
 10
66.39008238364238
 20
142.2020382078998
 30
0.0
 10
66.31799414850096
 20
142.1038466554949
 30
0.0
 10
66.27607683108988
 20
142.0515368359713
 30
0.0
 10
66.2048262265384
 20
141.9795309332368
 30
0.0
 10
66.1805904141591
 20
141.9577607209353
 30
0.0
 10
66.13499222397445
 20
141.9222860626062
 30
0.0
 10
66.11418973437473
 20
141.9089158784287
 30
0.0
 10
66.05924873595562
 20
141.8793459662934
 30
0.0
 10
66.03117974786879
 20
141.8722194439915
 30
0.0
 10
65.96067691780597
 20
141.8653450725088
 30
0.0
 10
65.92925283001509
 20
141.8796602315959
 30
0.0
 10
65.90292776230649
 20
141.8990170336065
 30
0.0
  0
LINE
  5
20C
330
1F
100
AcDbEntity
  8
0
  6
HIDDEN
 62
     7
370
     0
100
AcDbLine
 10
65.6121135306
 20
141.7232036235
 30
0.0
 11
65.6121135306
 21
80.7178641383
 31
0.0
  0
CIRCLE
  5
20D
330
1F
100
AcDbEntity
  8
0
  6
HIDDEN
 62
     7
370
     0
100
AcDbCircle
 10
122.5121135306
 20
111.2205338809
 30
0.0
 40
5.000000000000014
  0
LINE
  5
20E
330
1F
100
AcDbEntity
  8
0
  6
HIDDEN
 62
     7
370
     0
100
AcDbLine
 10
115.5121135306
 20
71.8158509243
 30
0.0
 11
115.6017151545
 21
72.4533996062
 31
0.0
  0
LINE
  5
20F
330
1F
100
AcDbEntity
  8
0
  6
HIDDEN
 62
     7
370
     0
100
AcDbLine
 10
115.6017151545
 20
149.9876681556
 30
0.0
 11
115.5121135306
 21
150.6252168375
 31
0.0
  0
ARC
  5
210
330
1F
100
AcDbEntity
  8
0
  6
HIDDEN
 62
     7
370
     0
100
AcDbCircle
 10
114.6151766121
 20
72.5920485565
 30
0.0
 40
0.9962338214386842
100
AcDbArc
 50
352.0
 51
0.0
  0
ARC
  5
211
330
1F
100
AcDbEntity
  8
0
  6
HIDDEN
 62
     7
370
     0
100
AcDbCircle
 10
114.6151766121
 20
72.5920485565
 30
0.0
 40
0.9962338214386854
100
AcDbArc
 50
0.0
 51
25.7988228126
  0
ARC
  5
212
330
1F
100
AcDbEntity
  8
0
  6
HIDDEN
 62
     7
370
     0
100
AcDbCircle
 10
114.6151766121
 20
149.8490192053
 30
0.0
 40
0.9962338214386854
100
AcDbArc
 50
348.75
 51
8.0
  0
LWPOLYLINE
  5
213
330
1F
100
AcDbEntity
  8
0
  6
HIDDEN
 62
     7
370
     0
100
AcDbPolyline
 90
        3
 70
   128
 43
0.0
 10
115.59226808
 20
149.6546636283
 10
115.5355766494
 20
149.4677770271
 10
115.5121135306
 20
149.4154456922
  0
LINE
  5
214
330
1F
100
AcDbEntity
  8
0
  6
HIDDEN
 62
     7
370
     0
100
AcDbLine
 10
115.6114104336
 20
72.5920485565
 30
0.0
 11
115.6114104336
 21
149.8490192053
 31
0.0
  0
LINE
  5
215
330
1F
100
AcDbEntity
  8
0
  6
HIDDEN
 62
     7
370
     0
100
AcDbLine
 10
115.6114104336
 20
72.5920485565
 30
0.0
 11
115.6114104336
 21
149.8490192053
 31
0.0
  0
ARC
  5
216
330
1F
100
AcDbEntity
  8
0
  6
HIDDEN
 62
     7
370
     0
100
AcDbCircle
 10
88.9728394728
 20
80.7205338809
 30
0.0
 40
1.000000000000008
100
AcDbArc
 50
210.0
 51
270.0
  0
ARC
  5
217
330
1F
100
AcDbEntity
  8
0
  6
HIDDEN
 62
     7
370
     0
100
AcDbCircle
 10
88.9728394728
 20
141.7205338809
 30
0.0
 40
1.000000000000008
100
AcDbArc
 50
90.0
 51
150.0
  0
LINE
  5
218
330
1F
100
AcDbEntity
  8
0
  6
HIDDEN
 62
     7
370
     0
100
AcDbLine
 10
88.9728394728
 20
79.7205338809
 30
0.0
 11
94.5310306449
 21
79.7205338809
 31
0.0
  0
LINE
  5
219
330
1F
100
AcDbEntity
  8
0
  6
HIDDEN
 62
     7
370
     0
100
AcDbLine
 10
94.5310306449
 20
142.7205338809
 30
0.0
 11
88.9728394728
 21
142.7205338809
 31
0.0
  0
ARC
  5
21A
330
1F
100
AcDbEntity
  8
0
  6
HIDDEN
 62
     7
370
     0
100
AcDbCircle
 10
105.7653191858
 20
91.7205338809
 30
0.0
 40
12.0
100
AcDbArc
 50
273.5463438575
 51
324.3146652873
  0
ARC
  5
21B
330
1F
100
AcDbEntity
  8
0
  6
HIDDEN
 62
     7
370
     0
100
AcDbCircle
 10
105.7653191858
 20
130.7205338809
 30
0.0
 40
12.0
100
AcDbArc
 50
35.6853347127
 51
86.4545166685
  0
LINE
  5
21C
330
1F
100
AcDbEntity
  8
0
  6
HIDDEN
 62
     7
370
     0
100
AcDbLine
 10
88.106814069
 20
142.2205338809
 30
0.0
 11
85.5087378576
 21
137.7205338809
 31
0.0
  0
LINE
  5
21D
330
1F
100
AcDbEntity
  8
0
  6
HIDDEN
 62
     7
370
     0
100
AcDbLine
 10
85.5087378576
 20
84.7205338809
 30
0.0
 11
88.106814069
 21
80.2205338809
 31
0.0
  0
ARC
  5
21E
330
1F
100
AcDbEntity
  8
0
  6
HIDDEN
 62
     7
370
     0
100
AcDbCircle
 10
125.9621135306
 20
86.3455338809
 30
0.0
 40
2.0
100
AcDbArc
 50
234.3409123039
 51
0.0
  0
ARC
  5
21F
330
1F
100
AcDbEntity
  8
0
  6
HIDDEN
 62
     7
370
     0
100
AcDbCircle
 10
125.9621135306
 20
136.0955338809
 30
0.0
 40
2.000000000000003
100
AcDbArc
 50
0.0
 51
125.6590876961
  0
LINE
  5
220
330
1F
100
AcDbEntity
  8
0
  6
HIDDEN
 62
     7
370
     0
100
AcDbLine
 10
80.7121135306
 20
84.7205338809
 30
0.0
 11
85.5087378576
 21
84.7205338809
 31
0.0
  0
LINE
  5
221
330
1F
100
AcDbEntity
  8
0
  6
HIDDEN
 62
     7
370
     0
100
AcDbLine
 10
85.5087378576
 20
137.7205338809
 30
0.0
 11
75.7121135306
 21
137.7205338809
 31
0.0
  0
LINE
  5
222
330
1F
100
AcDbEntity
  8
0
  6
HIDDEN
 62
     7
370
     0
100
AcDbLine
 10
115.5121135306
 20
84.7205338809
 30
0.0
 11
124.796191149
 21
84.7205338809
 31
0.0
  0
LINE
  5
223
330
1F
100
AcDbEntity
  8
0
  6
HIDDEN
 62
     7
370
     0
100
AcDbLine
 10
124.796191149
 20
137.7205338809
 30
0.0
 11
115.5121135306
 21
137.7205338809
 31
0.0
  0
LINE
  5
224
330
1F
100
AcDbEntity
  8
0
  6
HIDDEN
 62
     7
370
     0
100
AcDbLine
 10
119.5121135306
 20
156.89208726
 30
0.0
 11
119.5121135306
 21
153.1979476596
 31
0.0
  0
LINE
  5
225
330
1F
100
AcDbEntity
  8
0
  6
HIDDEN
 62
     7
370
     0
100
AcDbLine
 10
129.5121135306
 20
153.1979476596
 30
0.0
 11
129.5121135306
 21
156.8975955184
 31
0.0
  0
ARC
  5
226
330
1F
100
AcDbEntity
  8
0
  6
HIDDEN
 62
     7
370
     0
100
AcDbCircle
 10
176.1621135306
 20
124.8455338809
 30
0.0
 40
0.2999999999999829
100
AcDbArc
 50
0.0
 51
90.0
  0
ARC
  5
227
330
1F
100
AcDbEntity
  8
0
  6
HIDDEN
 62
     7
370
     0
100
AcDbCircle
 10
176.1621135306
 20
97.5955338809
 30
0.0
 40
0.2999999999999972
100
AcDbArc
 50
270.0
 51
0.0
  0
LINE
  5
228
330
1F
100
AcDbEntity
  8
0
  6
HIDDEN
 62
     7
370
     0
100
AcDbLine
 10
176.1621135306
 20
125.1455338809
 30
0.0
 11
175.4621135306
 21
125.1455338809
 31
0.0
  0
LINE
  5
229
330
1F
100
AcDbEntity
  8
0
  6
HIDDEN
 62
     7
370
     0
100
AcDbLine
 10
175.4621135306
 20
97.2955338809
 30
0.0
 11
176.1621135306
 21
97.2955338809
 31
0.0
  0
LINE
  5
22A
330
1F
100
AcDbEntity
  8
0
  6
HIDDEN
 62
     7
370
     0
100
AcDbLine
 10
139.8121135306
 20
98.2205338809
 30
0.0
 11
143.8121135306
 21
98.2205338809
 31
0.0
  0
LINE
  5
22B
330
1F
100
AcDbEntity
  8
0
  6
HIDDEN
 62
     7
370
     0
100
AcDbLine
 10
143.8121135306
 20
124.2205338809
 30
0.0
 11
139.8121135306
 21
124.2205338809
 31
0.0
  0
ARC
  5
22C
330
1F
100
AcDbEntity
  8
0
  6
HIDDEN
 62
     7
370
     0
100
AcDbCircle
 10
176.6621135306
 20
123.7705338809
 30
0.0
 40
0.2000000000000171
100
AcDbArc
 50
180.0
 51
270.0
  0
ARC
  5
22D
330
1F
100
AcDbEntity
  8
0
  6
HIDDEN
 62
     7
370
     0
100
AcDbCircle
 10
176.6621135306
 20
98.6705338809
 30
0.0
 40
0.2000000000000171
100
AcDbArc
 50
90.0
 51
180.0
  0
LINE
  5
22E
330
1F
100
AcDbEntity
  8
0
  6
HIDDEN
 62
     7
370
     0
100
AcDbLine
 10
178.4621135306
 20
123.7205338809
 30
0.0
 11
177.927739219
 21
123.5773487156
 31
0.0
  0
LINE
  5
22F
330
1F
100
AcDbEntity
  8
0
  6
HIDDEN
 62
     7
370
     0
100
AcDbLine
 10
177.927739219
 20
98.8637190462
 30
0.0
 11
178.4621135306
 21
98.7205338809
 31
0.0
  0
LINE
  5
230
330
1F
100
AcDbEntity
  8
0
  6
HIDDEN
 62
     7
370
     0
100
AcDbLine
 10
204.8121135306
 20
123.7205338809
 30
0.0
 11
200.9621135306
 21
123.7205338809
 31
0.0
  0
LINE
  5
231
330
1F
100
AcDbEntity
  8
0
  6
HIDDEN
 62
     7
370
     0
100
AcDbLine
 10
200.9621135306
 20
98.7205338809
 30
0.0
 11
204.8121135306
 21
98.7205338809
 31
0.0
  0
LINE
  5
232
330
1F
100
AcDbEntity
  8
0
  6
HIDDEN
 62
     7
370
     0
100
AcDbLine
 10
185.7121135306
 20
123.7205338809
 30
0.0
 11
178.4621135306
 21
123.7205338809
 31
0.0
  0
LINE
  5
233
330
1F
100
AcDbEntity
  8
0
  6
HIDDEN
 62
     7
370
     0
100
AcDbLine
 10
199.8621135306
 20
123.7205338809
 30
0.0
 11
190.3062968232
 21
123.7205338809
 31
0.0
  0
LINE
  5
234
330
1F
100
AcDbEntity
  8
0
  6
HIDDEN
 62
     7
370
     0
100
AcDbLine
 10
183.8585844148
 20
98.7205338809
 30
0.0
 11
199.8621135306
 21
98.7205338809
 31
0.0
  0
LINE
  5
235
330
1F
100
AcDbEntity
  8
0
  6
HIDDEN
 62
     7
370
     0
100
AcDbLine
 10
178.4621135306
 20
98.7205338809
 30
0.0
 11
180.5621135306
 21
98.7205338809
 31
0.0
  0
ARC
  5
236
330
1F
100
AcDbEntity
  8
0
  6
HIDDEN
 62
     7
370
     0
100
AcDbCircle
 10
177.8759754099
 20
123.7705338809
 30
0.0
 40
0.1999999999999911
100
AcDbArc
 50
270.0
 51
285.0
  0
ARC
  5
237
330
1F
100
AcDbEntity
  8
0
  6
HIDDEN
 62
     7
370
     0
100
AcDbCircle
 10
177.8759754099
 20
98.6705338809
 30
0.0
 40
0.2000000000000048
100
AcDbArc
 50
75.0
 51
90.0
  0
LINE
  5
238
330
1F
100
AcDbEntity
  8
0
  6
HIDDEN
 62
     7
370
     0
100
AcDbLine
 10
177.8759754099
 20
123.5705338809
 30
0.0
 11
176.6621135306
 21
123.5705338809
 31
0.0
  0
LINE
  5
239
330
1F
100
AcDbEntity
  8
0
  6
HIDDEN
 62
     7
370
     0
100
AcDbLine
 10
176.6621135306
 20
98.8705338809
 30
0.0
 11
177.8759754099
 21
98.8705338809
 31
0.0
  0
ARC
  5
23A
330
1F
100
AcDbEntity
  8
0
  6
HIDDEN
 62
     7
370
     0
100
AcDbCircle
 10
199.9621135306
 20
123.2955338809
 30
0.0
 40
0.0999999999999943
100
AcDbArc
 50
180.0
 51
270.0
  0
ARC
  5
23B
330
1F
100
AcDbEntity
  8
0
  6
HIDDEN
 62
     7
370
     0
100
AcDbCircle
 10
199.9621135306
 20
99.1455338809
 30
0.0
 40
0.0999999999999943
100
AcDbArc
 50
90.0
 51
180.0
  0
ARC
  5
23C
330
1F
100
AcDbEntity
  8
0
  6
HIDDEN
 62
     7
370
     0
100
AcDbCircle
 10
200.8621135306
 20
123.2955338809
 30
0.0
 40
0.1000000000000085
100
AcDbArc
 50
270.0
 51
0.0
  0
ARC
  5
23D
330
1F
100
AcDbEntity
  8
0
  6
HIDDEN
 62
     7
370
     0
100
AcDbCircle
 10
200.8621135306
 20
99.1455338809
 30
0.0
 40
0.0999999999999943
100
AcDbArc
 50
0.0
 51
90.0
  0
LINE
  5
23E
330
1F
100
AcDbEntity
  8
0
  6
HIDDEN
 62
     7
370
     0
100
AcDbLine
 10
127.9621135306
 20
99.2205338809
 30
0.0
 11
128.7121135306
 21
99.9705338809
 31
0.0
  0
LINE
  5
23F
330
1F
100
AcDbEntity
  8
0
  6
HIDDEN
 62
     7
370
     0
100
AcDbLine
 10
128.7121135306
 20
122.4705338809
 30
0.0
 11
127.9621135306
 21
123.2205338809
 31
0.0
  0
LINE
  5
240
330
1F
100
AcDbEntity
  8
0
  6
HIDDEN
 62
     7
370
     0
100
AcDbLine
 10
200.8621135306
 20
123.1955338809
 30
0.0
 11
199.9621135306
 21
123.1955338809
 31
0.0
  0
LINE
  5
241
330
1F
100
AcDbEntity
  8
0
  6
HIDDEN
 62
     7
370
     0
100
AcDbLine
 10
199.9621135306
 20
99.2455338809
 30
0.0
 11
200.8621135306
 21
99.2455338809
 31
0.0
  0
LINE
  5
242
330
1F
100
AcDbEntity
  8
0
  6
HIDDEN
 62
     7
370
     0
100
AcDbLine
 10
190.3121135306
 20
104.97324217
 30
0.0
 11
190.3121135306
 21
106.4705338809
 31
0.0
  0
LINE
  5
243
330
1F
100
AcDbEntity
  8
0
  6
HIDDEN
 62
     7
370
     0
100
AcDbLine
 10
185.7121135306
 20
106.4705338809
 30
0.0
 11
185.7121135306
 21
104.9705338809
 31
0.0
  0
LINE
  5
244
330
1F
100
AcDbEntity
  8
0
  6
HIDDEN
 62
     7
370
     0
100
AcDbLine
 10
183.8621135306
 20
115.9685599093
 30
0.0
 11
183.8621135306
 21
117.4691763925
 31
0.0
  0
LINE
  5
245
330
1F
100
AcDbEntity
  8
0
  6
HIDDEN
 62
     7
370
     0
100
AcDbLine
 10
180.5621135306
 20
117.4705338809
 30
0.0
 11
180.5621135306
 21
115.969446243
 31
0.0
  0
LINE
  5
246
330
1F
100
AcDbEntity
  8
0
  6
HIDDEN
 62
     7
370
     0
100
AcDbLine
 10
204.9621135306
 20
123.5705338809
 30
0.0
 11
204.8121135306
 21
123.7205338809
 31
0.0
  0
LINE
  5
247
330
1F
100
AcDbEntity
  8
0
  6
HIDDEN
 62
     7
370
     0
100
AcDbLine
 10
204.8121135306
 20
98.7205338809
 30
0.0
 11
204.9621135306
 21
98.8705338809
 31
0.0
  0
LINE
  5
248
330
1F
100
AcDbEntity
  8
0
  6
HIDDEN
 62
     7
370
     0
100
AcDbLine
 10
128.7121135306
 20
99.9705338809
 30
0.0
 11
139.8121135306
 21
99.9705338809
 31
0.0
  0
LINE
  5
249
330
1F
100
AcDbEntity
  8
0
  6
HIDDEN
 62
     7
370
     0
100
AcDbLine
 10
139.8121135306
 20
122.4705338809
 30
0.0
 11
128.7121135306
 21
122.4705338809
 31
0.0
  0
LINE
  5
24A
330
1F
100
AcDbEntity
  8
0
  6
HIDDEN
 62
     7
370
     0
100
AcDbLine
 10
120.4621135306
 20
161.2205338809
 30
0.0
 11
120.4621135306
 21
155.1205338809
 31
0.0
  0
LINE
  5
24B
330
1F
100
AcDbEntity
  8
0
  6
HIDDEN
 62
     7
370
     0
100
AcDbLine
 10
176.9259754099
 20
120.8705338809
 30
0.0
 11
175.7121135306
 21
120.8705338809
 31
0.0
  0
LINE
  5
24C
330
1F
100
AcDbEntity
  8
0
  6
HIDDEN
 62
     7
370
     0
100
AcDbLine
 10
175.7121135306
 20
101.5705338809
 30
0.0
 11
176.9259754099
 21
101.5705338809
 31
0.0
  0
ARC
  5
24D
330
1F
100
AcDbEntity
  8
0
  6
HIDDEN
 62
     7
370
     0
100
AcDbCircle
 10
175.7121135306
 20
120.6705338809
 30
0.0
 40
0.2000000000000028
100
AcDbArc
 50
90.0
 51
180.0
  0
ARC
  5
24E
330
1F
100
AcDbEntity
  8
0
  6
HIDDEN
 62
     7
370
     0
100
AcDbCircle
 10
175.7121135306
 20
101.7705338809
 30
0.0
 40
0.1999999999999886
100
AcDbArc
 50
180.0
 51
270.0
  0
ARC
  5
24F
330
1F
100
AcDbEntity
  8
0
  6
HIDDEN
 62
     7
370
     0
100
AcDbCircle
 10
176.9259754099
 20
120.6705338809
 30
0.0
 40
0.1999999999999901
100
AcDbArc
 50
75.0
 51
90.0
  0
ARC
  5
250
330
1F
100
AcDbEntity
  8
0
  6
HIDDEN
 62
     7
370
     0
100
AcDbCircle
 10
176.9259754099
 20
101.7705338809
 30
0.0
 40
0.1999999999999901
100
AcDbArc
 50
270.0
 51
285.0
  0
LINE
  5
251
330
1F
100
AcDbEntity
  8
0
  6
HIDDEN
 62
     7
370
     0
100
AcDbLine
 10
176.977739219
 20
101.5773487156
 30
0.0
 11
177.5121135306
 21
101.7205338809
 31
0.0
  0
LINE
  5
252
330
1F
100
AcDbEntity
  8
0
  6
HIDDEN
 62
     7
370
     0
100
AcDbLine
 10
177.5121135306
 20
120.7205338809
 30
0.0
 11
176.977739219
 21
120.8637190462
 31
0.0
  0
LINE
  5
253
330
1F
100
AcDbEntity
  8
0
  6
HIDDEN
 62
     7
370
     0
100
AcDbLine
 10
181.7621135306
 20
120.7205338809
 30
0.0
 11
177.5121135306
 21
120.7205338809
 31
0.0
  0
LINE
  5
254
330
1F
100
AcDbEntity
  8
0
  6
HIDDEN
 62
     7
370
     0
100
AcDbLine
 10
177.5121135306
 20
101.7205338809
 30
0.0
 11
180.5635064127
 21
101.7205338809
 31
0.0
  0
LINE
  5
255
330
1F
100
AcDbEntity
  8
0
  6
HIDDEN
 62
     7
370
     0
100
AcDbLine
 10
185.7121135306
 20
120.7205338809
 30
0.0
 11
182.8621135306
 21
120.7205338809
 31
0.0
  0
LINE
  5
256
330
1F
100
AcDbEntity
  8
0
  6
HIDDEN
 62
     7
370
     0
100
AcDbLine
 10
204.8121135306
 20
120.7205338809
 30
0.0
 11
190.3121135306
 21
120.7205338809
 31
0.0
  0
LINE
  5
257
330
1F
100
AcDbEntity
  8
0
  6
HIDDEN
 62
     7
370
     0
100
AcDbLine
 10
183.8603454937
 20
101.7205338809
 30
0.0
 11
204.8121135306
 21
101.7205338809
 31
0.0
  0
LINE
  5
258
330
1F
100
AcDbEntity
  8
0
  6
HIDDEN
 62
     7
370
     0
100
AcDbLine
 10
205.5121135306
 20
121.1246790693
 30
0.0
 11
204.8121135306
 21
120.7205338809
 31
0.0
  0
LINE
  5
259
330
1F
100
AcDbEntity
  8
0
  6
HIDDEN
 62
     7
370
     0
100
AcDbLine
 10
204.8121135306
 20
101.7205338809
 30
0.0
 11
205.5121135306
 21
101.3163886925
 31
0.0
  0
LINE
  5
25A
330
1F
100
AcDbEntity
  8
0
  6
HIDDEN
 62
     7
370
     0
100
AcDbLine
 10
182.7621135306
 20
121.2455338809
 30
0.0
 11
181.8621135306
 21
121.2455338809
 31
0.0
  0
ARC
  5
25B
330
1F
100
AcDbEntity
  8
0
  6
HIDDEN
 62
     7
370
     0
100
AcDbCircle
 10
182.7621135306
 20
121.1455338809
 30
0.0
 40
0.0999999999999943
100
AcDbArc
 50
360.0
 51
90.0
  0
ARC
  5
25C
330
1F
100
AcDbEntity
  8
0
  6
HIDDEN
 62
     7
370
     0
100
AcDbCircle
 10
181.8621135306
 20
121.1455338809
 30
0.0
 40
0.1000000000000085
100
AcDbArc
 50
90.0
 51
180.0
  0
LINE
  5
25D
330
1F
100
AcDbEntity
  8
0
  6
HIDDEN
 62
     7
370
     0
100
AcDbLine
 10
106.9448261466
 20
73.6422543103
 30
0.0
 11
106.5121168601
 21
74.1204790277
 31
0.0
  0
LINE
  5
25E
330
1F
100
AcDbEntity
  8
0
  6
HIDDEN
 62
     7
370
     0
100
AcDbLine
 10
94.5121139886
 20
74.7674403844
 30
0.0
 11
94.0314866834
 21
74.2892156735
 31
0.0
  0
LINE
  5
25F
330
1F
100
AcDbEntity
  8
0
  6
HIDDEN
 62
     7
370
     0
100
AcDbLine
 10
94.0313683419
 20
148.1518461721
 30
0.0
 11
94.512113806
 21
147.6735665003
 31
0.0
  0
LINE
  5
260
330
1F
100
AcDbEntity
  8
0
  6
HIDDEN
 62
     7
370
     0
100
AcDbLine
 10
106.5121135327
 20
148.3205388876
 30
0.0
 11
106.9449352024
 21
148.7988185605
 31
0.0
  0
LINE
  5
261
330
1F
100
AcDbEntity
  8
0
  6
HIDDEN
 62
     7
370
     0
100
AcDbLine
 10
106.5121135306
 20
142.6968597836
 30
0.0
 11
106.5121135306
 21
148.3203868857
 31
0.0
  0
LINE
  5
262
330
1F
100
AcDbEntity
  8
0
  6
HIDDEN
 62
     7
370
     0
100
AcDbLine
 10
94.5121135306
 20
147.673556001
 30
0.0
 11
94.5121135306
 21
142.7169430576
 31
0.0
  0
LINE
  5
263
330
1F
100
AcDbEntity
  8
0
  6
HIDDEN
 62
     7
370
     0
100
AcDbLine
 10
106.5121135306
 20
74.1205980969
 30
0.0
 11
106.5121135306
 21
79.7442079782
 31
0.0
  0
LINE
  5
264
330
1F
100
AcDbEntity
  8
0
  6
HIDDEN
 62
     7
370
     0
100
AcDbLine
 10
94.5121135306
 20
79.7241247042
 30
0.0
 11
94.5121135306
 21
74.7674787989
 31
0.0
  0
LINE
  5
265
330
1F
100
AcDbEntity
  8
0
  6
HIDDEN
 62
     7
370
     0
100
AcDbLine
 10
175.5121135306
 20
116.2705338809
 30
0.0
 11
174.5121135306
 21
115.2705338809
 31
0.0
  0
LINE
  5
266
330
1F
100
AcDbEntity
  8
0
  6
HIDDEN
 62
     7
370
     0
100
AcDbLine
 10
174.5121135306
 20
107.1705338809
 30
0.0
 11
175.5121135306
 21
106.1705338809
 31
0.0
  0
LINE
  5
267
330
1F
100
AcDbEntity
  8
0
  6
HIDDEN
 62
     7
370
     0
100
AcDbLine
 10
174.5121135306
 20
115.2705338809
 30
0.0
 11
170.4121135306
 21
115.2705338809
 31
0.0
  0
LINE
  5
268
330
1F
100
AcDbEntity
  8
0
  6
HIDDEN
 62
     7
370
     0
100
AcDbLine
 10
170.4121135306
 20
107.1705338809
 30
0.0
 11
174.5121135306
 21
107.1705338809
 31
0.0
  0
LINE
  5
269
330
1F
100
AcDbEntity
  8
0
  6
HIDDEN
 62
     7
370
     0
100
AcDbLine
 10
170.4121135306
 20
115.2705338809
 30
0.0
 11
169.4807795711
 21
113.7205338809
 31
0.0
  0
LINE
  5
26A
330
1F
100
AcDbEntity
  8
0
  6
HIDDEN
 62
     7
370
     0
100
AcDbLine
 10
169.4807795711
 20
108.7205338809
 30
0.0
 11
170.4121135306
 21
107.1705338809
 31
0.0
  0
LINE
  5
26B
330
1F
100
AcDbEntity
  8
0
  6
HIDDEN
 62
     7
370
     0
100
AcDbLine
 10
143.8121135306
 20
108.7205338809
 30
0.0
 11
169.4807795711
 21
108.7205338809
 31
0.0
  0
LINE
  5
26C
330
1F
100
AcDbEntity
  8
0
  6
HIDDEN
 62
     7
370
     0
100
AcDbLine
 10
169.4807795711
 20
113.7205338809
 30
0.0
 11
143.8121135306
 21
113.7205338809
 31
0.0
  0
LINE
  5
26D
330
1F
100
AcDbEntity
  8
0
  6
HIDDEN
 62
     7
370
     0
100
AcDbLine
 10
185.7121135306
 20
123.7205338809
 30
0.0
 11
185.7121135306
 21
120.7205338809
 31
0.0
  0
LINE
  5
26E
330
1F
100
AcDbEntity
  8
0
  6
HIDDEN
 62
     7
370
     0
100
AcDbLine
 10
190.3121135306
 20
120.7205338809
 30
0.0
 11
190.3121135306
 21
123.7205338809
 31
0.0
  0
LINE
  5
26F
330
1F
100
AcDbEntity
  8
0
  6
HIDDEN
 62
     7
370
     0
100
AcDbLine
 10
180.5621135306
 20
101.7207756315
 30
0.0
 11
180.5621135306
 21
98.7205338809
 31
0.0
  0
LINE
  5
270
330
1F
100
AcDbEntity
  8
0
  6
HIDDEN
 62
     7
370
     0
100
AcDbLine
 10
183.8621135306
 20
98.7205338809
 30
0.0
 11
183.8621135306
 21
101.7208380257
 31
0.0
  0
LINE
  5
271
330
1F
100
AcDbEntity
  8
0
  6
HIDDEN
 62
     7
370
     0
100
AcDbLine
 10
190.3121135306
 20
104.97324217
 30
0.0
 11
190.3121135306
 21
106.4705338809
 31
0.0
  0
LINE
  5
272
330
1F
100
AcDbEntity
  8
0
  6
HIDDEN
 62
     7
370
     0
100
AcDbLine
 10
185.7121135306
 20
106.4705338809
 30
0.0
 11
185.7121135306
 21
104.9705338809
 31
0.0
  0
LINE
  5
273
330
1F
100
AcDbEntity
  8
0
  6
HIDDEN
 62
     7
370
     0
100
AcDbLine
 10
183.8621135306
 20
117.4691763925
 30
0.0
 11
183.8621135306
 21
117.4702145402
 31
0.0
  0
LINE
  5
274
330
1F
100
AcDbEntity
  8
0
  6
HIDDEN
 62
     7
370
     0
100
AcDbLine
 10
180.5621135306
 20
117.4705338809
 30
0.0
 11
180.5621135306
 21
115.9700769539
 31
0.0
  0
ARC
  5
275
330
1F
100
AcDbEntity
  8
0
  6
HIDDEN
 62
     7
370
     0
100
AcDbCircle
 10
73.8121135306
 20
145.3705338809
 30
0.0
 40
1.899999999999996
100
AcDbArc
 50
270.0
 51
310.9212832533
  0
ARC
  5
276
330
1F
100
AcDbEntity
  8
0
  6
HIDDEN
 62
     7
370
     0
100
AcDbCircle
 10
78.8121135306
 20
77.0705338809
 30
0.0
 40
1.900000000000006
100
AcDbArc
 50
35.6630613694
 51
90.0
  0
LINE
  5
277
330
1F
100
AcDbEntity
  8
0
  6
HIDDEN
 62
     7
370
     0
100
AcDbLine
 10
119.5121135306
 20
158.7674053444
 30
0.0
 11
119.5121135306
 21
156.89208726
 31
0.0
  0
LINE
  5
278
330
1F
100
AcDbEntity
  8
0
  6
HIDDEN
 62
     7
370
     0
100
AcDbLine
 10
129.5121135306
 20
156.8975955184
 30
0.0
 11
129.5121135306
 21
158.7731397771
 31
0.0
  0
LINE
  5
279
330
1F
100
AcDbEntity
  8
0
  6
HIDDEN
 62
     7
370
     0
100
AcDbLine
 10
73.8121135306
 20
143.4705338809
 30
0.0
 11
67.2621135306
 21
143.4705338809
 31
0.0
  0
LINE
  5
27A
330
1F
100
AcDbEntity
  8
0
  6
HIDDEN
 62
     7
370
     0
100
AcDbLine
 10
67.2621135306
 20
143.4705338809
 30
0.0
 11
65.6688971686
 21
141.8773175189
 31
0.0
  0
LINE
  5
27B
330
1F
100
AcDbEntity
  8
0
  6
HIDDEN
 62
     7
370
     0
100
AcDbLine
 10
67.2621135306
 20
78.9705338809
 30
0.0
 11
78.8121135306
 21
78.9705338809
 31
0.0
  0
LINE
  5
27C
330
1F
100
AcDbEntity
  8
0
  6
HIDDEN
 62
     7
370
     0
100
AcDbLine
 10
65.669636431
 20
80.5630109805
 30
0.0
 11
67.2621135306
 21
78.9705338809
 31
0.0
  0
DIMENSION
  5
27D
330
1F
100
AcDbEntity
  8
VERMASSUNG
100
AcDbDimension
  2
*D1
 10
58.3619682127
 20
61.2205338809
 30
0.0
 11
58.3619682127
 21
111.617983204
 31
0.0
 70
   160
  1
HSK A %%c<>
 71
     2
 42
-1.0
  3
SLDDIMSTYLE0
100
AcDbAlignedDimension
 13
116.0121135306
 23
161.2205338809
 33
0.0
 14
116.0121135306
 24
61.2205338809
 34
0.0
 50
90.0
100
AcDbRotatedDimension
  0
DIMENSION
  5
28A
330
1F
100
AcDbEntity
  8
VERMASSUNG
100
AcDbDimension
  2
*D2
 10
219.4372798554
 20
95.2205338809
 30
0.0
 11
219.4372798554
 21
111.2205338809
 31
0.0
 70
   160
  1
%%c<>
 71
     2
 42
-1.0
  3
SLDDIMSTYLE0
100
AcDbAlignedDimension
 13
203.9621135306
 23
127.2205338809
 33
0.0
 14
203.9621135306
 24
95.2205338809
 34
0.0
 50
90.0
100
AcDbRotatedDimension
  0
DIMENSION
  5
295
330
1F
100
AcDbEntity
  8
VERMASSUNG
100
AcDbDimension
  2
*D3
 10
213.4372798554
 20
101.7205338809
 30
0.0
 11
213.4372798554
 21
111.2205338809
 31
0.0
 70
   160
  1
%%c<>
 71
     2
 42
-1.0
  3
SLDDIMSTYLE0
100
AcDbAlignedDimension
 13
204.8121135306
 23
120.7205338809
 33
0.0
 14
204.8121135306
 24
101.7205338809
 34
0.0
 50
90.0
100
AcDbRotatedDimension
  0
DIMENSION
  5
2A0
330
1F
100
AcDbEntity
  8
VERMASSUNG
100
AcDbDimension
  2
*D4
 10
205.5121135306
 20
179.6666091723
 30
0.0
 11
131.1156919831
 21
179.6666091723
 31
0.0
 70
   160
 71
     2
 42
-1.0
  3
SLDDIMSTYLE0
100
AcDbAlignedDimension
 13
65.6121135306
 23
141.7232036235
 33
0.0
 14
205.5121135306
 24
123.0205338809
 34
0.0
100
AcDbRotatedDimension
  0
DIMENSION
  5
2AA
330
1F
100
AcDbEntity
  8
VERMASSUNG
100
AcDbDimension
  2
*D5
 10
205.5121135306
 20
173.6666091723
 30
0.0
 11
152.6848304561
 21
173.6666091723
 31
0.0
 70
   160
 71
     2
 42
-1.0
  3
SLDDIMSTYLE0
100
AcDbAlignedDimension
 13
115.5121135306
 23
160.7205338809
 33
0.0
 14
205.5121135306
 24
123.0205338809
 34
0.0
100
AcDbRotatedDimension
  0
DIMENSION
  5
2B4
330
1F
100
AcDbEntity
  8
VERMASSUNG
100
AcDbDimension
  2
*D6
 10
205.5121135306
 20
167.6666091723
 30
0.0
 11
173.7199711404
 21
167.6666091723
 31
0.0
 70
   160
 71
     2
 42
-1.0
  3
SLDDIMSTYLE0
100
AcDbAlignedDimension
 13
144.4621135306
 23
159.1892737017
 33
0.0
 14
205.5121135306
 24
123.0205338809
 34
0.0
100
AcDbRotatedDimension
  0
DIMENSION
  5
2BE
330
1F
100
AcDbEntity
  8
VERMASSUNG
100
AcDbDimension
  2
*D7
 10
225.4372798554
 20
94.2205338809
 30
0.0
 11
225.4372798554
 21
111.2205338809
 31
0.0
 70
   160
  1
%%c<>
 71
     2
 42
-1.0
  3
SLDDIMSTYLE0
100
AcDbAlignedDimension
 13
168.5121135306
 23
128.2205338809
 33
0.0
 14
168.5121135306
 24
94.2205338809
 34
0.0
 50
90.0
100
AcDbRotatedDimension
  0
LINE
  5
2C9
330
1F
100
AcDbEntity
  8
VERMASSUNG
  6
CENTERX2
370
     0
100
AcDbLine
 10
64.4240665178
 20
111.2205338809
 30
0.0
 11
207.08559165
 21
111.2205338809
 31
0.0
  0
OLE2FRAME
  5
2CA
330
1F
100
AcDbEntity
  8
0
100
AcDbOle2Frame
 70
     2
  3
Bitmap Image
 10
13.8511154363
 20
38.264191557
 30
0.0
 11
51.6290888628
 21
31.9806341108
 31
0.0
 71
     2
 72
     0
 73
     1
 90
    12928
310
80552BED0767C5B32B40DDAF6807D121434000000000000000006FFBDDFB85D0
310
4940DDAF6807D121434000000000000000006FFBDDFB85D04940416F4BD60AFB
310
3F4000000000000000002BED0767C5B32B40416F4BD60AFB3F40000000000000
310
0000000000000100000000010000010000000100000000000100000000320000
310
D0CF11E0A1B11AE1000000000000000000000000000000003E000300FEFF0900
310
0600000000000000000000000100000001000000000000000010000002000000
310
01000000FEFFFFFF0000000000000000FFFFFFFFFFFFFFFFFFFFFFFFFFFFFFFF
310
FFFFFFFFFFFFFFFFFFFFFFFFFFFFFFFFFFFFFFFFFFFFFFFFFFFFFFFFFFFFFFFF
310
FFFFFFFFFFFFFFFFFFFFFFFFFFFFFFFFFFFFFFFFFFFFFFFFFFFFFFFFFFFFFFFF
310
FFFFFFFFFFFFFFFFFFFFFFFFFFFFFFFFFFFFFFFFFFFFFFFFFFFFFFFFFFFFFFFF
310
FFFFFFFFFFFFFFFFFFFFFFFFFFFFFFFFFFFFFFFFFFFFFFFFFFFFFFFFFFFFFFFF
310
FFFFFFFFFFFFFFFFFFFFFFFFFFFFFFFFFFFFFFFFFFFFFFFFFFFFFFFFFFFFFFFF
310
FFFFFFFFFFFFFFFFFFFFFFFFFFFFFFFFFFFFFFFFFFFFFFFFFFFFFFFFFFFFFFFF
310
FFFFFFFFFFFFFFFFFFFFFFFFFFFFFFFFFFFFFFFFFFFFFFFFFFFFFFFFFFFFFFFF
310
FFFFFFFFFFFFFFFFFFFFFFFFFFFFFFFFFFFFFFFFFFFFFFFFFFFFFFFFFFFFFFFF
310
FFFFFFFFFFFFFFFFFFFFFFFFFFFFFFFFFFFFFFFFFFFFFFFFFFFFFFFFFFFFFFFF
310
FFFFFFFFFFFFFFFFFFFFFFFFFFFFFFFFFFFFFFFFFFFFFFFFFFFFFFFFFFFFFFFF
310
FFFFFFFFFFFFFFFFFFFFFFFFFFFFFFFFFFFFFFFFFFFFFFFFFFFFFFFFFFFFFFFF
310
FFFFFFFFFFFFFFFFFFFFFFFFFFFFFFFFFFFFFFFFFFFFFFFFFFFFFFFFFFFFFFFF
310
FFFFFFFFFFFFFFFFFFFFFFFFFFFFFFFFFFFFFFFFFFFFFFFFFFFFFFFFFFFFFFFF
310
FDFFFFFFFEFFFFFFFEFFFFFFFEFFFFFF05000000060000000700000008000000
310
090000000A0000000B0000000C0000000D0000000E0000000F00000010000000
310
11000000120000001300000014000000150000001600000017000000FEFFFFFF
310
FFFFFFFFFFFFFFFFFFFFFFFFFFFFFFFFFFFFFFFFFFFFFFFFFFFFFFFFFFFFFFFF
310
FFFFFFFFFFFFFFFFFFFFFFFFFFFFFFFFFFFFFFFFFFFFFFFFFFFFFFFFFFFFFFFF
310
FFFFFFFFFFFFFFFFFFFFFFFFFFFFFFFFFFFFFFFFFFFFFFFFFFFFFFFFFFFFFFFF
310
FFFFFFFFFFFFFFFFFFFFFFFFFFFFFFFFFFFFFFFFFFFFFFFFFFFFFFFFFFFFFFFF
310
FFFFFFFFFFFFFFFFFFFFFFFFFFFFFFFFFFFFFFFFFFFFFFFFFFFFFFFFFFFFFFFF
310
FFFFFFFFFFFFFFFFFFFFFFFFFFFFFFFFFFFFFFFFFFFFFFFFFFFFFFFFFFFFFFFF
310
FFFFFFFFFFFFFFFFFFFFFFFFFFFFFFFFFFFFFFFFFFFFFFFFFFFFFFFFFFFFFFFF
310
FFFFFFFFFFFFFFFFFFFFFFFFFFFFFFFFFFFFFFFFFFFFFFFFFFFFFFFFFFFFFFFF
310
FFFFFFFFFFFFFFFFFFFFFFFFFFFFFFFFFFFFFFFFFFFFFFFFFFFFFFFFFFFFFFFF
310
FFFFFFFFFFFFFFFFFFFFFFFFFFFFFFFFFFFFFFFFFFFFFFFFFFFFFFFFFFFFFFFF
310
FFFFFFFFFFFFFFFFFFFFFFFFFFFFFFFFFFFFFFFFFFFFFFFFFFFFFFFFFFFFFFFF
310
FFFFFFFFFFFFFFFFFFFFFFFFFFFFFFFFFFFFFFFFFFFFFFFFFFFFFFFFFFFFFFFF
310
FFFFFFFFFFFFFFFFFFFFFFFFFFFFFFFFFFFFFFFFFFFFFFFFFFFFFFFFFFFFFFFF
310
52006F006F007400200045006E00740072007900000000000000000000000000
310
0000000000000000000000000000000000000000000000000000000000000000
310
16000500FFFFFFFFFFFFFFFF020000000A00030000000000C000000000000046
310
000000000000000000000000E0C79A3E7EDDCB0103000000C000000000000000
310
01004F006C006500000000000000000000000000000000000000000000000000
310
0000000000000000000000000000000000000000000000000000000000000000
310
0A000200FFFFFFFFFFFFFFFFFFFFFFFF00000000000000000000000000000000
310
0000000000000000000000000000000000000000000000001400000000000000
310
010043006F006D0070004F0062006A0000000000000000000000000000000000
310
0000000000000000000000000000000000000000000000000000000000000000
310
120002010100000003000000FFFFFFFF00000000000000000000000000000000
310
0000000000000000000000000000000000000000010000004D00000000000000
310
01004F006C006500310030004E00610074006900760065000000000000000000
310
0000000000000000000000000000000000000000000000000000000000000000
310
1A000200FFFFFFFFFFFFFFFFFFFFFFFF00000000000000000000000000000000
310
0000000000000000000000000000000000000000040000002426000000000000
310
FEFFFFFF02000000FEFFFFFFFFFFFFFFFFFFFFFFFFFFFFFFFFFFFFFFFFFFFFFF
310
FFFFFFFFFFFFFFFFFFFFFFFFFFFFFFFFFFFFFFFFFFFFFFFFFFFFFFFFFFFFFFFF
310
FFFFFFFFFFFFFFFFFFFFFFFFFFFFFFFFFFFFFFFFFFFFFFFFFFFFFFFFFFFFFFFF
310
FFFFFFFFFFFFFFFFFFFFFFFFFFFFFFFFFFFFFFFFFFFFFFFFFFFFFFFFFFFFFFFF
310
FFFFFFFFFFFFFFFFFFFFFFFFFFFFFFFFFFFFFFFFFFFFFFFFFFFFFFFFFFFFFFFF
310
FFFFFFFFFFFFFFFFFFFFFFFFFFFFFFFFFFFFFFFFFFFFFFFFFFFFFFFFFFFFFFFF
310
FFFFFFFFFFFFFFFFFFFFFFFFFFFFFFFFFFFFFFFFFFFFFFFFFFFFFFFFFFFFFFFF
310
FFFFFFFFFFFFFFFFFFFFFFFFFFFFFFFFFFFFFFFFFFFFFFFFFFFFFFFFFFFFFFFF
310
FFFFFFFFFFFFFFFFFFFFFFFFFFFFFFFFFFFFFFFFFFFFFFFFFFFFFFFFFFFFFFFF
310
FFFFFFFFFFFFFFFFFFFFFFFFFFFFFFFFFFFFFFFFFFFFFFFFFFFFFFFFFFFFFFFF
310
FFFFFFFFFFFFFFFFFFFFFFFFFFFFFFFFFFFFFFFFFFFFFFFFFFFFFFFFFFFFFFFF
310
FFFFFFFFFFFFFFFFFFFFFFFFFFFFFFFFFFFFFFFFFFFFFFFFFFFFFFFFFFFFFFFF
310
FFFFFFFFFFFFFFFFFFFFFFFFFFFFFFFFFFFFFFFFFFFFFFFFFFFFFFFFFFFFFFFF
310
FFFFFFFFFFFFFFFFFFFFFFFFFFFFFFFFFFFFFFFFFFFFFFFFFFFFFFFFFFFFFFFF
310
FFFFFFFFFFFFFFFFFFFFFFFFFFFFFFFFFFFFFFFFFFFFFFFFFFFFFFFFFFFFFFFF
310
FFFFFFFFFFFFFFFFFFFFFFFFFFFFFFFFFFFFFFFFFFFFFFFFFFFFFFFFFFFFFFFF
310
010000020000000000000000000000000000000061007200650064005C003100
310
30002E0030005C0044004C004C005300680061007200650064005C003B004300
310
0100FEFF030A0000FFFFFFFF0A00030000000000C00000000000004607000000
310
5042727573680007000000504272757368000700000050427275736800F439B2
310
71000000000000000000000000004100540049002E004100430045005C004300
310
6F00720065002D005300740061007400690063003B0043003A005C0050007200
310
6F006700720061006D002000460069006C006500730020002800780038003600
310
29005C0043006F006D006D006F006E002000460069006C00650073005C004100
310
750074006F006400650073006B0020005300680061007200650064005C003B00
310
43003A005C00500072006F006700720061006D002000460069006C0065007300
310
5C004E006F0072006D0061006E005C004E0070006D005C00420069006E000000
310
43003A005C00500072006F006700720061006D002000460069006C0065007300
310
5C0053006F006C006900640057006F0072006B007300200043006F0072007000
310
5C0053006F006C006900640057006F0072006B00730020002800320029005C00
310
730065007400750070005C0069003300380036005C0073007700610063007400
310
770069007A002E006500780065000000220043003A005C00500072006F006700
310
20260000424D0E260000000000003E00000028000000B40200006E0000000100
310
01000000000000000000130B0000130B00000200000002000000000000FFFFFF
310
FFFFFFFFFFFFFFFFFFFFFFFFFFFFFFFFFFFFFFFFFFFFFFFFFFFFFFFFFFFFFFFF
310
FFFFFFFFFFFFFFFFFFFFFFFFFFFFFFFFFFFFFFFFFFFFFFFFFFFFFFFFFFFFFFFF
310
FFFFFFFFFFFFFFFFFFFFFFFFFFFFFFFFFFFFFFFFFFFFFFFFF000FFFFFFFFFFFF
310
FFFFFFFFFFFFFFFFFFFFFFFFFFFFFFFFFFFFFFFFFFFFFFFFFFFFFFFFFFFFFFFF
310
FFFFFFFFFFFFFFFFFFFFFFFFFFFFFFFFFFFFFFFFFFFFFFFFFFFFFFFFFFFFFFFF
310
FFFFFFFFFFFFFFFFFFFFFFFFFFFFFFFFF000FFFFFFFFFFFFFFFFFFFFFFFFFFFF
310
FFFFFFFFFFFFFFFFFFFFFFFFFFFFFFFFFFFFFFFFFFFFFFFFFFFFFFFFFFFFFFFF
310
FFFFFFFFFFFFFFFFFFFFFFFFFFFFFFFFFFFFFFFFFFFFFFFFFFFFFFFFFFFFFFFF
310
FFFFFFFFFFFFFFFFF000FFFFFFFFFFFFFFFFFFFFFFFFFFFFFFFFFFFFFFFFFFFF
310
FFFFFFFFFFFFFFFFFFFFFFFFFFFFFFFFFFFFFFFFFFFFFFFFFFFFFFFFFFFFFFFF
310
FFFFFFFFFFFFFFFFFFFFFFFFFFFFFFFFFFFFFFFFFFFFFFFFFFFFFFFFFFFFFFFF
310
F000FFFFFFFFFFFFFFFFFFFFFFFFFFFFFFFFFFFFFFFFFFFFFFFFFFFFFFFFFFFF
310
FFFFFFFFFFFFFFFFFFFFFFFFFFFFFFFFFFFFFFFFFFFFFFFFFFFFFFFFFFFFFFFF
310
FFFFFFFFFFFFFFFFFFFFFFFFFFFFFFFFFFFFFFFFFFFFFFFFF000FFFFFFFFFFFF
310
FFFFFFFFFFFFFFFFFFFFFFFFFFFFFFFFFFFFFFFFFFFFFFFFFFFFFFFFFFFFFFFF
310
FFFFFFFFFFFFFFFFFFFFFFFFFFFFFFFFFFFFFFFFFFFFFFFFFFFFFFFFFFFFFFFF
310
FFFFFFFFFFFFFFFFFFFFFFFFFFFFFFFFF000FFFFFFFFFFFFFFFFFFFFFFFFFFFF
310
FFFFFFFFFFFFFFFFFFFFFFFFFFFFFFFFFFFFFFFFFFFFFFFFFFFFFFFFFFFFFFFF
310
FFFFFFFFFFFFFFFFFFFFFFFFFFFFFFFFFFFFFFFFFFFFFFFFFFFFFFFFFFFFFFFF
310
FFFFFFFFFFFFFFFFF000FFFFFFFFFFFFFFFFFFFFFFFFFFFFFFFFFFFFFFFFFFFF
310
FFFFFFFFFFFFFFFFFFFFFFFFFFFFFFFFFFFFFFFFFFFFFFFFFFFFFFFFFFFFFFFF
310
FFFFFFFFFFFFFFFFFFFFFFFFFFFFFFFFFFFFFFFFFFFFFFFFFFFFFFFFFFFFFFFF
310
F000FFFFFFFFFFFFFFFFFFFFFFFFFFFFFFFFFFFFFFFFFFFFFFFFFFFFFFFFFFFF
310
FFFFFFFFFFFFFFFFFFFFFFFFFFFFFFFFFFFFFFFFFFFFFFFFFFFFFFFFFFFFFFFF
310
FFFFFFFFFFFFFFFFFFFFFFFFFFFFFFFFFFFFFFFFFFFFFFFFF000FFFFFFFFFFFF
310
FFFFFFFFFFFFFFFFFFFFFFFFFFFFFFFFFFFFFFFFFFFFFFFFFFFFFFFFFFFFFFFF
310
FFFFFFFFFFFFFFFFFFFFFFFFFFFFFFFFFFFFFFFFFFFFFFFFFFFFFFFFFFFFFFFF
310
FFFFFFFFFFFFFFFFFFFFFFFFFFFFFFFFF000FFFFFFFFFFFFFFFFFFFFFFFFFFFF
310
FFFFFFFFFFFFFFFFFFFFFFFFFFFFFFFFFFFFFFFFFFFFFFFFFFFFFFFFFFFFFFFF
310
FFFFFFFFFFFFFFFFFFFFFFFFFFFFFFFFFFFFFFFFFFFFFFFFFFFFFFFFFFFFFFFF
310
FFFFFFFFFFFFFFFFF000FFFFFFFFFFFFFFFFFFFFFFFFFFFFFFFFFFFFFFFFFFFF
310
FFFFFFFFFFFFFFFFFFFFFFFFFFFFFFFFFFFFFFFFFFFFFFFFFFFFFFFFFFFFFFFF
310
FFFFFFFFFFFFFFFFFFFFFFFFFFFFFFFFFFFFFFFFFFFFFFFFFFFFFFFFFFFFFFFF
310
F000FFFFFFFFFFFFFFFFFFFFFFFFFFFFFFFFFFFFFFFFFFFFFFFFFFFFFFFFFFFF
310
FFFFFFFFFFFFFFFFFFFFFFFFFFFFFFFFFFFFFFFFFFFFFFFFFFFFFFFFFFFFFFFF
310
FFFFFFFFFFFFFFFFFFFFFFFFFFFFFFFFFFFFFFFFFFFFFFFFF000FFFFFFFFFFFF
310
FFFFFFFFFFFFFFFFFFFFFFFFFFFFFFFFFFFFFFFFFFFFFFFFFFFFFFFFFFFFFFFF
310
FFFFFFFFFFFFFFFFFFFFFFFFFFFFFFFFFFFFFFFFFFFFFFFFFFFFFFFFFFFFFFFF
310
FFFFFFFFFFFFFFFFFFFFFFFFFFFFFFFFF000FFFFFFFFFFFFFFFFFFFFFFFFFFFF
310
FFFFFFFFFFFFFFFFFFFFFFFFFFFFFFFFFFFFFFFFFFFFFFFFFFFFFFFFFFFFFFFF
310
FFFFFFFFFFFFFFFFFFFFFFFFFFFFFFFFFFFFFFFFFFFFFFFFFFFFFFFFFFFFFFFF
310
FFFFFFFFFFFFFFFFF000FFFFFFFFFFFFFFFFFFFFFFFFFFFFFFFFFFFFFFFFFFFF
310
FFFFFFFFFFFFFFFFFFFFFFFFFFFFFFFFFFFFFFFFFFFFFFFFFFFFFFFFFFFFFFFF
310
FFFFFFFFFFFFFFFFFFFFFFFFFFFFFFFFFFFFFFFFFFFFFFFFFFFFFFFFFFFFFFFF
310
F000FFFFFFFFFFFFFFFFFFFFFFFFFFFFFFFFFFFFFFFFFFFFFFFFFFFFFFFFFFFF
310
FFFFFFFFFFFFFFFFFFFFFFFFFFFFFFFFFFFFFFFFFFFFFFFFFFFFFFFFFFFFFFFF
310
FFFFFFFFFFFFFFFFFFFFFFFFFFFFFFFFFFFFFFFFFFFFFFFFF000FFFFFFFFFFFF
310
FFFFFFFFFFFFFFFFFFFFFFFFFFFFFFFFFFFFFFFFFFFFFFFFFFFFFFFFFFFFFFFF
310
FFFFFFFFFFFFFFFFFFFFFFFFFFFFFFFFFFFFFFFFFFFFFFFFFFFFFFFFFFFFFFFF
310
FFFFFFFFFFFFFFFFFFFFFFFFFFFFFFFFF000FFFFFFFFFFFFFFFFFFFFFFFFFFFF
310
FFFFFFFFFFFFFFFFFFFFFFFFFFFFFFFFFFFFFFFFFFFFFFFFFFFFFFFFFFFFFFFF
310
FFFFFFFFFFFFFFFFFFFFFFFFFFFFFFFFFFFFFFFFFFFFFFFFFFFFFFFFFFFFFFFF
310
FFFFFFFFFFFFFFFFF000FFFFF80003FFFFFFFFFFFFFFFFFFFFFFFFFFFFFFFFFF
310
FFFFF00007FFFFFFFFFF00007FFFFFF800000000000000007FFFFFFFFFFFFFFF
310
FFFFFFFC001FFFFFFFFFFFFFFC001FFFFFFFFFFFFFFFFFFFFFFFFFFE0007FFFF
310
F000FFFF8000007FFFFFFFF8000FFFFFC0007FFFFF80007FFFFF0000007FFFFF
310
FFF8000007FFFFF800000000000000007FFFFFF0001FFFFFFFFFFFC00001FFFF
310
FFFFFFFFC00001FFFFFFFF000000000003FFFFE000007FFFF000FFFE0000000F
310
FFFFFFF0000FFFFF80007FFFFF80007FFFFC0000001FFFFFFFC0000001FFFFF8
310
00000000000000007FFFFFF0001FFFFFFFFFFE0000003FFFFFFFFFFE0000003F
310
FFFFFF000000000003FFFF0000000FFFF000FFF800000003FFFFFFF00007FFFF
310
80007FFFFF80007FFFF000000007FFFFFF000000003FFFF80000000000000000
310
7FFFFFF0001FFFFFFFFFF80000000FFFFFFFFFF80000000FFFFFFF0000000000
310
03FFFC00000003FFF000FFE000000000FFFFFFF00007FFFF80003FFFFF80007F
310
FFC000000001FFFFFC000000001FFFF800000000000000007FFFFFF0001FFFFF
310
FFFFE000000003FFFFFFFFE000000003FFFFFF000000000003FFF000000000FF
310
F000FF80000000007FFFFFF00007FFFF80003FFFFF80007FFF8000000000FFFF
310
F80000000007FFF800000000000000007FFFFFF0001FFFFFFFFFC000000001FF
310
FFFFFFC000000001FFFFFF000000000003FFC0000000007FF000FF0000000000
310
3FFFFFE00007FFFF00003FFFFF80007FFE00000000003FFFF00000000003FFF8
310
00000000000000007FFFFFF0001FFFFFFFFF8000000000FFFFFFFF8000000000
310
FFFFFF000000000003FF80000000003FF000FE00000000001FFFFFE00003FFFF
310
00003FFFFF80007FFC00000000001FFFE00000000001FFF8000001FFFE000000
310
7FFFFFF0001FFFFFFFFE00000000003FFFFFFE00000000003FFFFF0000000000
310
03FF00000000001FF000FC00000000000FFFFFE00003FFFF00001FFFFF80007F
310
F800000000001FFFC00000000000FFF8000001FFFE0000007FFFFFF0001FFFFF
310
FFFC00000000001FFFFFFC00000000001FFFFF000000000003FE00000000000F
310
F000F8000000000007FFFFE00003FFFF00001FFFFF80007FF800000000000FFF
310
800000000000FFF8000001FFFE0000007FFFFFF0001FFFFFFFF800000000000F
310
FFFFF800000000000FFFFF000000000003FC000000000007F000F80000000000
310
03FFFFC00003FFFE00001FFFFF80007FF0000000000007FF0000000000007FF8
310
000001FFFE0000007FFFFFF0001FFFFFFFF0000000000007FFFFF00000000000
310
07FFFF000000000003F8000000000003F000F0000000000003FFFFC00001FFFE
310
00001FFFFF80007FE0000000000007FE0000000000003FF8000001FFFE000000
310
7FFFFFF0001FFFFFFFF0000000000007FFFFF0000000000007FFFF0000000000
310
03F800001F800003F000E00001FFF00001FFFFC00001FFFE00000FFFFF80007F
310
E00001FFE00003FE00001FFF00003FF8000001FFFE0000007FFFFFF0001FFFFF
310
FFE000003E000003FFFFE000003E000003FFFF000000000003F00001FFF80001
310
F000E00007FFFC0001FFFFC00001FFFE00000FFFFF80007FC0000FFFFC0003FC
310
0000FFFFC0001FF8000001FFFE0000007FFFFFF0001FFFFFFFC00003FFE00001
310
FFFFC00003FFE00001FFFF0001FFFFFFFFF00007FFFE0001F000E0000FFFFF00
310
00FFFF800001FFFC00000FFFFF80007FC0001FFFFE0001FC0001FFFFE0001FF8
310
000001FFFE0000007FFFFFF0001FFFFFFF80000FFFF80000FFFF80000FFFF800
310
00FFFF0003FFFFFFFFE0000FFFFF8000F000C0003FFFFF8000FFFF800000FFFC
310
000007FFFF80007F80003FFFFF0001FC0003FFFFF0001FF8000001FFFE000000
310
7FFFFFF0001FFFFFFF80003FFFFE0000FFFF80003FFFFE0000FFFF0003FFFFFF
310
FFE0003FFFFF8000F000C0003FFFFF8000FFFF800000FFFC000007FFFF80007F
310
80007FFFFF8001F80007FFFFF8000FF8000001FFFE0000007FFFFFF0001FFFFF
310
FF00007FFFFF00007FFF00007FFFFF00007FFF0003FFFFFFFFE0003FFFFFC000
310
F000C0007FFFFFC000FFFF000000FFFC000007FFFF80007F8000FFFFFF8000F8
310
000FFFFFF8000FF8000001FFFE0000007FFFFFF0001FFFFFFF0000FFFFFF8000
310
7FFF0000FFFFFF80007FFF0003FFFFFFFFC0007FFFFFC00070008000FFFFFFC0
310
00FFFF000000FFF8000007FFFF80007F8000FFFFFF8000F8000FFFFFF8000FF8
310
000001FFFE0000007FFFFFF0001FFFFFFE0001FFFFFFC0003FFE0001FFFFFFC0
310
003FFF0003FFFFFFFFC0007FFFFFE00070008000FFFFFFC0007FFF0000007FF8
310
000003FFFF80007F0001FFFFFF8000F8000FFFFFF8000FF8000001FFFE000000
310
7FFFFFF0001FFFFFFE0001FFFFFFC0003FFE0001FFFFFFC0003FFF0003FFFFFF
310
FFC000FFFFFFE00070008000FFFFFFC0007FFF0000007FF8000003FFFF80007F
310
0001FFFFFF8000F8001FFFFFF8000FF8000001FFFE0000007FFFFFF0001FFFFF
310
FE0003FFFFFFE0003FFE0003FFFFFFE0003FFF0003FFFFFFFFC000FFFFFFE000
310
70008000FFFFFFC0007FFE0000007FF8000003FFFF80007F0001FFFFFF8000F0
310
001FFFFFF8000FF8000001FFFE0000007FFFFFF0001FFFFFFC0003FFFFFFE000
310
1FFC0003FFFFFFE0001FFF0003FFFFFFFFC000FFFFFFC00070008000FFFFFF80
310
007FFE0000007FF0000003FFFF80007F0001FFFFFF0000F0001FFFFFF8000FF8
310
000001FFFE0000007FFFFFF0001FFFFFFC0007FFFFFFF0001FFC0007FFFFFFF0
310
001FFF0003FFFFFFFFC000FFFFFFC00070008001FFFFFF0000FFFE0000003FF0
310
000001FFFF80007F0001FFFFFF0000F8001FFFFFF0000FF8000001FFFE000000
310
7FFFFFF0001FFFFFFC0007FFFFFFF0001FFC0007FFFFFFF0001FFF0003FFFFFF
310
FFC001FFFFFF80007000FFFFFFFFFE0000FFFE0008003FF0008001FFFF80007F
310
FFFFFFFFFC0000FFFFFFFFFFE0000FF8000001FFFE0000007FFFFFF0001FFFFF
310
F8000FFFFFFFF8000FF8000FFFFFFFF8000FFF0003FFFFFFFFFFFFFFFFFF0000
310
7000FFFFFFFFFC0000FFFC0008003FF0008001FFFF80007FFFFFFFFFF80001FF
310
FFFFFFFF80000FF8000001FFFE0000007FFFFFF0001FFFFFF8000FFFFFFFF800
310
0FF8000FFFFFFFF8000FFF0003FFFFFFFFFFFFFFFFFE0000F000FFFFFFFFE000
310
00FFFC000C003FE000C001FFFF80007FFFFFFFFFC00001FFFFFFFFFE00001FF8
310
000001FFFE0000007FFFFFF0001FFFFFF8000FFFFFFFF8000FF8000FFFFFFFF8
310
000FFF0003FFFFFFFFFFFFFFFFF00000F000FFFFFFFE000001FFFC000C001FE0
310
00C000FFFF80007FFFFFFFFE000001FFFFFFFFE000001FF80FFFFFFFFFFFFFC0
310
7FFFFFF0001FFFFFF8000FFFFFFFF8000FF8000FFFFFFFF8000FFF0003FFFFFF
310
FFFFFFFFFF800000F000FFFFFFC0000001FFFC001C001FE001C000FFFF80007F
310
FFFFFF80000003FFFFFFF80000001FF80FFFFFFFFFFFFFC07FFFFFF0001FFFFF
310
F8001FFFFFFFFC000FF8001FFFFFFFFC000FFF0003FFFFFFFFFFFFFFF0000001
310
F000FFFFF800000001FFF8001C001FE001C000FFFF80007FFFFFF800000003FF
310
FFFF800000003FF80FFFFFFFFFFFFFC07FFFFFF0001FFFFFF8001FFFFFFFFC00
310
0FF8001FFFFFFFFC000FFF0003FFFFFFFFFFFFFE00000001F000FFFFC0000000
310
03FFF8001E001FC001E000FFFF80007FFFFF8000000007FFFFFC000000003FF8
310
0FFFFFFFFFFFFFC07FFFFFF0001FFFFFF8001FFFFFFFFC000FF8001FFFFFFFFC
310
000FFF0003FFFFFFFFFFFFE000000003F000FFFE0000000007FFF8001E000FC0
310
01E0007FFF80007FFFFE0000000007FFFFE0000000007FF80FFFFFFFFFFFFFC0
310
7FFFFFF0001FFFFFF0001FFFFFFFFC0007F0001FFFFFFFFC0007FF0003FFFFFF
310
FFFFFF0000000003F000FFF80000000007FFF8001E000FC003E0007FFF80007F
310
FFF0000000000FFFFF8000000000FFF80FFFFFFFFFFFFFC07FFFFFF0001FFFFF
310
F0001FFFFFFFFC0007F0001FFFFFFFFC0007FF0003FFFFFFFFFFFC0000000007
310
F000FFE0000000000FFFF0003E000FC003E0007FFF80007FFFC0000000001FFF
310
FE0000000001FFF80FFFFFFFFFFFFFC07FFFFFF0001FFFFFF0001FFFFFFFFC00
310
07F0001FFFFFFFFC0007FF0003FFFFFFFFFFF0000000000FF000FFC000000000
310
1FFFF0003F000F8003F0003FFF80007FFF80000000003FFFF80000000003FFF8
310
0FFFFFFFFFFFFFC07FFFFFF0001FFFFFF0001FFFFFFFFC0007F0001FFFFFFFFC
310
0007FF0003FFFFFFFFFFE0000000001FF000FF00000000007FFFF0003F000780
310
03F0003FFF80007FFF00000000007FFFF00000000007FFF80FFFFFFFFFFFFFC0
310
7FFFFFF0001FFFFFF0001FFFFFFFFC0007F0001FFFFFFFFC0007FF0003FFFFFF
310
FFFF80000000007FF000FE0000000000FFFFE0003F00078007F0003FFF80007F
310
FE0000000001FFFFE0000000001FFFF80FFFFFFFFFFFFFC07FFFFFF0001FFFFF
310
F0001FFFFFFFFC0007F0001FFFFFFFFC0007FF0003FFFFFFFFFF0000000000FF
310
F000FC0000000003FFFFE0007F00078007F0003FFF80007FFC0000000007FFFF
310
C0000000007FFFF80FFFFFFFFFFFFFC07FFFFFF0001FFFFFF8001FFFFFFFFC00
310
0FF8001FFFFFFFFC000FFF0003FFFFFFFFFE0000000003FFF000FC000000000F
310
FFFFE0007F80070007F8001FFF80007FF8000000001FFFFF8000000001FFFFF8
310
0FFFFFFFFFFFFFC07FFFFFF0001FFFFFF8001FFFFFFFFC000FF8001FFFFFFFFC
310
000FFF0003FFFFFFFFFC000000000FFFF000F8000000007FFFFFE0007F800700
310
07F8001FFF80007FF000000000FFFFFF800000000FFFFFF80FFFFFFFFFFFFFC0
310
7FFFFFF0001FFFFFF8000FFFFFFFF8000FF8000FFFFFFFF8000FFF0003FFFFFF
310
FFFC000000007FFFF000F800000007FFFFFFC0007F8003000FF8001FFF80007F
310
F000000007FFFFFF000000007FFFFFF80FFFFFFFFFFFFFC07FFFFFF0001FFFFF
310
F8000FFFFFFFF8000FF8000FFFFFFFF8000FFF0003FFFFFFFFF80000000FFFFF
310
F000F0000000FFFFFFFFC000FF8003000FF8001FFF80007FE0000000FFFFFFFF
310
0000000FFFFFFFF8000001FFFE0000007FFFFFF0001FFFFFF8000FFFFFFFF800
310
0FF8000FFFFFFFF8000FFF0003FFFFFFFFF8000000FFFFFFF000F000000FFFFF
310
FFFFC000FFC002000FF8000FFF80007FE000001FFFFFFFFE000001FFFFFFFFF8
310
000001FFFE0000007FFFFFF0001FFFFFF8000FFFFFFFF8000FF8000FFFFFFFF8
310
000FFF0003FFFFFFFFF000001FFFFFFFF000E00000FFFFFFFFFFC000FFC00200
310
0FFC000FFF80007FE00001FFFFFFFFFE00001FFFFFFFFFF8000001FFFE000000
310
7FFFFFF0001FFFFFFC000FFFFFFFF8001FFC000FFFFFFFF8001FFF0003FFFFFF
310
FFF00001FFFFFFFFF000E00007FFFFFFFFFF8000FFC000001FFC000FFF80007F
310
C0000FFFFFFFFFFE0000FFFFFFFFFFF8000001FFFE0000007FFFFFF0001FFFFF
310
FC0007FFFFFFF0001FFC0007FFFFFFF0001FFF0003FFFFFFFFF00007FFFFFFFF
310
F000E0001FFFFFFFFFFF8000FFC000001FFC000FFF80007FC0003FFFFFFFFFFE
310
0001FFFFFFFFFFF8000001FFFE0000007FFFFFF0001FFFFFFC0007FFFFFFF000
310
1FFC0007FFFFFFF0001FFF0003FFFFFFFFF0001FFFFFFFFFF000E0003FFFFF00
310
03FF8001FFE000001FFC0007FF80007FC0007FFFFF0007FC0003FFFFF0003FF8
310
000001FFFE0000007FFFFFF0001FFFFFFC0003FFFFFFE0001FFC0003FFFFFFE0
310
001FFF0003FFFFFFFFF0003FFFFFFFFFF000E0003FFFFF0001FF8001FFE00000
310
1FFE0007FF80007FC0007FFFFE0003FC0007FFFFE0003FF8000001FFFE000000
310
7FFFFFF0001FFFFFFE0003FFFFFFE0003FFE0003FFFFFFE0003FFF0003FFFFFF
310
FFF0003FFFFF8001F000E0003FFFFF0001FF0001FFE000001FFE0007FF80007F
310
C0007FFFFE0003FC0007FFFFE0003FF8000001FFFE0000007FFFFFF0001FFFFF
310
FE0001FFFFFFC0003FFE0001FFFFFFC0003FFF0003FFFFFFFFF0003FFFFF0001
310
F000E0003FFFFF0003FF0001FFE000003FFE0007FF80007FC0007FFFFE0003FC
310
0007FFFFE0003FF8000001FFFE0000007FFFFFF0001FFFFFFF0001FFFFFFC000
310
7FFF0001FFFFFFC0007FFF0003FFFFFFFFF0003FFFFF0001F000E0003FFFFE00
310
03FF0003FFF000003FFE0003FF80007FC0007FFFFC0003FE0007FFFFE0003FF8
310
000001FFFE0000007FFFFFF0001FFFFFFF0000FFFFFF80007FFF0000FFFFFF80
310
007FFF0003FFFFFFFFF0003FFFFF0001F000E0003FFFFE0003FF0003FFF00000
310
3FFF0003FF80007FC0007FFFFC0007FE0007FFFFC0003FF8000001FFFE000000
310
7FFFFFF0001FFFFFFF80007FFFFF0000FFFF80007FFFFF0000FFFF0003FFFFFF
310
FFF0003FFFFF0003F000E0003FFFFC0003FE0003FFF000003FFF0003FF80007F
310
E0003FFFF80007FE0003FFFFC0007FF8000001FFFE0000007FFFFFF0001FFFFF
310
FF80003FFFFE0000FFFF80003FFFFE0000FFFF0003FFFFFFFFF0001FFFFE0003
310
F000F0001FFFF80003FE0003FFF000007FFF0001FF80007FE0003FFFF00007FE
310
0001FFFF80007FF8000001FFFE0000007FFFFFF0001FFFFFFFC0000FFFF80001
310
FFFFC0000FFFF80001FFFF0003FFFFFFFFF0001FFFFC0003F000F0000FFFF000
310
07FE0007FFF800007FFF0001FF80007FE0001FFFE00007FF0000FFFE00007FF8
310
000001FFFE0000007FFFFFF0001FFFFFFFC00003FFE00001FFFFC00003FFE000
310
01FFFF0003FFFFFFFFF8000FFFF80003F000F00003FFC00007FC0007FFF80000
310
7FFF8001FF80007FF00007FF80000FFF00007FF80000FFF8000001FFFE000000
310
7F80000000000001FFE000003E000003FFFFE000003E000003FFFF0003FFFFFF
310
FFF80003FFE00007F000F800000000000FFC0007FFF800007FFF8001FF80007F
310
F000000000000FFF000000000000FFF8000001FFFE0000007F80000000000001
310
FFF0000000000007FFFFF0000000000007FFFF0003FFFFFFFFFC00007E000007
310
F000F800000000000FFC0007FFF80000FFFF8000FF80007FF800000000001FFF
310
800000000001FFF8000001FFFE0000007F80000000000001FFF800000000000F
310
FFFFF800000000000FFFFF0003FFFFFFFFFC00000000000FF000FC0000000000
310
1FFC0007FFFC0000FFFF8000FF80007FF800000000003FFFC00000000001FFF8
310
000001FFFE0000007F80000000000001FFF800000000000FFFFFF80000000000
310
0FFFFF0003FFFFFFFFFE00000000001FF000FE00000000003FF8000FFFFC0000
310
FFFF8000FF80007FFC00000000003FFFC00000000003FFF8000001FFFE000000
310
7F80000000000001FFFC00000000001FFFFFFC00000000001FFFFF0003FFFFFF
310
FFFF00000000001FF000FF00000000003FF8000FFFFC0000FFFFC000FF80007F
310
FE00000000007FFFE00000000007FFF8000001FFFE0000007F80000000000001
310
FFFE00000000003FFFFFFE00000000003FFFFF0003FFFFFFFFFF80000000003F
310
F000FF80000000007FF8000FFFFC0001FFFFC0007F80007FFF0000000000FFFF
310
F0000000000FFFF800000000000000007F80000000000001FFFF8000000000FF
310
FFFFFF8000000000FFFFFF0003FFFFFFFFFFC0000000007FF000FFC000000000
310
FFF8000FFFFE0001FFFFC0007F80007FFF8000000001FFFFF8000000001FFFF8
310
00000000000000007F80000000000001FFFFC000000001FFFFFFFFC000000001
310
FFFFFF0003FFFFFFFFFFE000000000FFF000FFE000000003FFF0001FFFFE0001
310
FFFFC0007F80007FFFC000000007FFFFFE000000003FFFF80000000000000000
310
7F80000000000001FFFFE000000003FFFFFFFFE000000003FFFFFF0003FFFFFF
310
FFFFF000000003FFF000FFF80000000FFFF0001FFFFE0001FFFFE0007F80007F
310
FFF00000000FFFFFFF00000000FFFFF800000000000000007F80000000000001
310
FFFFF80000000FFFFFFFFFF80000000FFFFFFF0003FFFFFFFFFFFC0000000FFF
310
F000FFFE0000003FFFF0001FFFFE0003FFFFE0003F80007FFFFC0000003FFFFF
310
FFC0000003FFFFF800000000000000007F80000000000001FFFFFE0000003FFF
310
FFFFFFFE0000003FFFFFFF0003FFFFFFFFFFFF0000003FFFF000FFFF800000FF
310
FFF0001FFFFF0003FFFFE0003F80007FFFFF000001FFFFFFFFF800001FFFFFF8
310
00000000000000007F80000000000001FFFFFFC00001FFFFFFFFFFFFC00001FF
310
FFFFFF0003FFFFFFFFFFFFC00000FFFFF000FFFFF8000FFFFFFFFFFFFFFFFFFF
310
FFFFFFFFFFFFFFFFFFFFF0001FFFFFFFFFFF0000FFFFFFF80000000000000000
310
7FFFFFFFFFFFFFFFFFFFFFFC001FFFFFFFFFFFFFFC001FFFFFFFFFFFFFFFFFFF
310
FFFFFFFC001FFFFFF000FFFFFFFFFFFFFFFFFFFFFFFFFFFFFFFFFFFFFFFFFFFF
310
FFFFFFFFFFFFFFFFFFFFFFFFFFFFFFFFFFFFFFFFFFFFFFFFFFFFFFFFFFFFFFFF
310
FFFFFFFFFFFFFFFFFFFFFFFFFFFFFFFFFFFFFFFFFFFFFFFFFFFFFFFFFFFFFFFF
310
F000FFFFFFFFFFFFFFFFFFFFFFFFFFFFFFFFFFFFFFFFFFFFFFFFFFFFFFFFFFFF
310
FFFFFFFFFFFFFFFFFFFFFFFFFFFFFFFFFFFFFFFFFFFFFFFFFFFFFFFFFFFFFFFF
310
FFFFFFFFFFFFFFFFFFFFFFFFFFFFFFFFFFFFFFFFFFFFFFFFF000FFFFFFFFFFFF
310
FFFFFFFFFFFFFFFFFFFFFFFFFFFFFFFFFFFFFFFFFFFFFFFFFFFFFFFFFFFFFFFF
310
FFFFFFFFFFFFFFFFFFFFFFFFFFFFFFFFFFFFFFFFFFFFFFFFFFFFFFFFFFFFFFFF
310
FFFFFFFFFFFFFFFFFFFFFFFFFFFFFFFFF000FFFFFFFFFFFFFFFFFFFFFFFFFFFF
310
FFFFFFFFFFFFFFFFFFFFFFFFFFFFFFFFFFFFFFFFFFFFFFFFFFFFFFFFFFFFFFFF
310
FFFFFFFFFFFFFFFFFFFFFFFFFFFFFFFFFFFFFFFFFFFFFFFFFFFFFFFFFFFFFFFF
310
FFFFFFFFFFFFFFFFF000FFFFFFFFFFFFFFFFFFFFFFFFFFFFFFFFFFFFFFFFFFFF
310
FFFFFFFFFFFFFFFFFFFFFFFFFFFFFFFFFFFFFFFFFFFFFFFFFFFFFFFFFFFFFFFF
310
FFFFFFFFFFFFFFFFFFFFFFFFFFFFFFFFFFFFFFFFFFFFFFFFFFFFFFFFFFFFFFFF
310
F000FFFFFFFFFFFFFFFFFFFFFFFFFFFFFFFFFFFFFFFFFFFFFFFFFFFFFFFFFFFF
310
FFFFFFFFFFFFFFFFFFFFFFFFFFFFFFFFFFFFFFFFFFFFFFFFFFFFFFFFFFFFFFFF
310
FFFFFFFFFFFFFFFFFFFFFFFFFFFFFFFFFFFFFFFFFFFFFFFFF000FFFFFFFFFFFF
310
FFFFFFFFFFFFFFFFFFFFFFFFFFFFFFFFFFFFFFFFFFFFFFFFFFFFFFFFFFFFFFFF
310
FFFFFFFFFFFFFFFFFFFFFFFFFFFFFFFFFFFFFFFFFFFFFFFFFFFFFFFFFFFFFFFF
310
FFFFFFFFFFFFFFFFFFFFFFFFFFFFFFFFF000FFFFFFFFFFFFFFFFFFFFFFFFFFFF
310
FFFFFFFFFFFFFFFFFFFFFFFFFFFFFFFFFFFFFFFFFFFFFFFFFFFFFFFFFFFFFFFF
310
FFFFFFFFFFFFFFFFFFFFFFFFFFFFFFFFFFFFFFFFFFFFFFFFFFFFFFFFFFFFFFFF
310
FFFFFFFFFFFFFFFFF000FFFFFFFFFFFFFFFFFFFFFFFFFFFFFFFFFFFFFFFFFFFF
310
FFFFFFFFFFFFFFFFFFFFFFFFFFFFFFFFFFFFFFFFFFFFFFFFFFFFFFFFFFFFFFFF
310
FFFFFFFFFFFFFFFFFFFFFFFFFFFFFFFFFFFFFFFFFFFFFFFFFFFFFFFFFFFFFFFF
310
F000FFFFFFFFFFFFFFFFFFFFFFFFFFFFFFFFFFFFFFFFFFFFFFFFFFFFFFFFFFFF
310
FFFFFFFFFFFFFFFFFFFFFFFFFFFFFFFFFFFFFFFFFFFFFFFFFFFFFFFFFFFFFFFF
310
FFFFFFFFFFFFFFFFFFFFFFFFFFFFFFFFFFFFFFFFFFFFFFFFF000FFFFFFFFFFFF
310
FFFFFFFFFFFFFFFFFFFFFFFFFFFFFFFFFFFFFFFFFFFFFFFFFFFFFFFFFFFFFFFF
310
FFFFFFFFFFFFFFFFFFFFFFFFFFFFFFFFFFFFFFFFFFFFFFFFFFFFFFFFFFFFFFFF
310
FFFFFFFFFFFFFFFFFFFFFFFFFFFFFFFFF000FFFFFFFFFFFFFFFFFFFFFFFFFFFF
310
FFFFFFFFFFFFFFFFFFFFFFFFFFFFFFFFFFFFFFFFFFFFFFFFFFFFFFFFFFFFFFFF
310
FFFFFFFFFFFFFFFFFFFFFFFFFFFFFFFFFFFFFFFFFFFFFFFFFFFFFFFFFFFFFFFF
310
FFFFFFFFFFFFFFFFF000FFFFFFFFFFFFFFFFFFFFFFFFFFFFFFFFFFFFFFFFFFFF
310
FFFFFFFFFFFFFFFFFFFFFFFFFFFFFFFFFFFFFFFFFFFFFFFFFFFFFFFFFFFFFFFF
310
FFFFFFFFFFFFFFFFFFFFFFFFFFFFFFFFFFFFFFFFFFFFFFFFFFFFFFFFFFFFFFFF
310
F000FFFFFFFFFFFFFFFFFFFFFFFFFFFFFFFFFFFFFFFFFFFFFFFFFFFFFFFFFFFF
310
FFFFFFFFFFFFFFFFFFFFFFFFFFFFFFFFFFFFFFFFFFFFFFFFFFFFFFFFFFFFFFFF
310
FFFFFFFFFFFFFFFFFFFFFFFFFFFFFFFFFFFFFFFFFFFFFFFFF000FFFFFFFFFFFF
310
FFFFFFFFFFFFFFFFFFFFFFFFFFFFFFFFFFFFFFFFFFFFFFFFFFFFFFFFFFFFFFFF
310
FFFFFFFFFFFFFFFFFFFFFFFFFFFFFFFFFFFFFFFFFFFFFFFFFFFFFFFFFFFFFFFF
310
FFFFFFFFFFFFFFFFFFFFFFFFFFFFFFFFF000FFFFFFFFFFFFFFFFFFFFFFFFFFFF
310
FFFFFFFFFFFFFFFFFFFFFFFFFFFFFFFFFFFFFFFFFFFFFFFFFFFFFFFFFFFFFFFF
310
FFFFFFFFFFFFFFFFFFFFFFFFFFFFFFFFFFFFFFFFFFFFFFFFFFFFFFFFFFFFFFFF
310
FFFFFFFFFFFFFFFFF000FFFFFFFFFFFFFFFFFFFFFFFFFFFFFFFFFFFFFFFFFFFF
310
FFFFFFFFFFFFFFFFFFFFFFFFFFFFFFFFFFFFFFFFFFFFFFFFFFFFFFFFFFFFFFFF
310
FFFFFFFFFFFFFFFFFFFFFFFFFFFFFFFFFFFFFFFFFFFFFFFFFFFFFFFFFFFFFFFF
310
F000FFFFFFFFFFFFFFFFFFFFFFFFFFFFFFFFFFFFFFFFFFFFFFFFFFFFFFFFFFFF
310
FFFFFFFFFFFFFFFFFFFFFFFFFFFFFFFFFFFFFFFFFFFFFFFFFFFFFFFFFFFFFFFF
310
FFFFFFFFFFFFFFFFFFFFFFFFFFFFFFFFFFFFFFFFFFFFFFFFF000FFFFFFFFFFFF
310
FFFFFFFFFFFFFFFFFFFFFFFFFFFFFFFFFFFFFFFFFFFFFFFFFFFFFFFFFFFFFFFF
310
FFFFFFFFFFFFFFFFFFFFFFFFFFFFFFFFFFFFFFFFFFFFFFFFFFFFFFFFFFFFFFFF
310
FFFFFFFFFFFFFFFFFFFFFFFFFFFFFFFFF000FFFFFFFFFFFFFFFFFFFFFFFFFFFF
310
FFFFFFFFFFFFFFFFFFFFFFFFFFFFFFFFFFFFFFFFFFFFFFFFFFFFFFFFFFFFFFFF
310
FFFFFFFFFFFFFFFFFFFFFFFFFFFFFFFFFFFFFFFFFFFFFFFFFFFFFFFFFFFFFFFF
310
FFFFFFFFFFFFFFFFF000FFFFFFFFFFFFFFFFFFFFFFFFFFFFFFFFFFFFFFFFFFFF
310
FFFFFFFFFFFFFFFFFFFFFFFFFFFFFFFFFFFFFFFFFFFFFFFFFFFFFFFFFFFFFFFF
310
FFFFFFFFFFFFFFFFFFFFFFFFFFFFFFFFFFFFFFFFFFFFFFFFFFFFFFFFFFFFFFFF
310
F000FFFFFFFFFFFFFFFFFFFFFFFFFFFFFFFFFFFFFFFFFFFFFFFFFFFFFFFFFFFF
310
FFFFFFFFFFFFFFFFFFFFFFFFFFFFFFFFFFFFFFFFFFFFFFFFFFFFFFFFFFFFFFFF
310
FFFFFFFFFFFFFFFFFFFFFFFFFFFFFFFFFFFFFFFFFFFFFFFFF000FFFFFFFFFFFF
310
FFFFFFFFFFFFFFFFFFFFFFFFFFFFFFFFFFFFFFFFFFFFFFFFFFFFFFFFFFFFFFFF
310
FFFFFFFFFFFFFFFFFFFFFFFFFFFFFFFFFFFFFFFFFFFFFFFFFFFFFFFFFFFFFFFF
310
FFFFFFFFFFFFFFFFFFFFFFFFFFFFFFFFF0000000000000000000000000000000
310
00000000000000000000000042006C00610063006B0000000000000000000000
310
0000000000000000000000000000000000000000000000000000000000000000
310
0000000000000000000000000000FFFFFFFFFFFFFFFFFFFFFFFFFFFFFFFFFFFF
310
FFFFFFFFFFFFFFFFFFFFFFFFFFFFFFFFFFFFFFFFFFFFFFFFFFFFFFFFFFFFFFFF
310
FFFFFFFFFFFFFFFFFFFFFFFF6476000800000000FFFFFFFF20FF202026000000
310
1E00000008000000060000000000000011000000200000008403000000000000
310
6000000060000000200002FB200020000000002B00FFFFFF40002200E8030000
310
A80400001C020000AF0000804A20004000000000000000000100000000000000
310
616C000800000000E40100007001000002000000270000001100000000000000
310
00000000BC0200000000000003020122420065006C006C00200047006F007400
310
680069006300200053007400640020004C006900670068007400000000000000
310
00000000000000000000000000000000420065006C006C0047006F0074006800
310
690063005300740064002D0042006F006C006400000000000000000000000000
310
0000000000000000000000000000000000000000000000000000000000000000
310
0000000000000000000000000000000000000000000000000000000000000000
  1
OLE
  0
ENDSEC
  0
SECTION
  2
OBJECTS
  0
DICTIONARY
  5
C
330
0
100
AcDbDictionary
281
     1
  3
ACAD_GROUP
350
D
  3
ACAD_LAYOUT
350
1A
  3
ACAD_MLEADERSTYLE
350
2CC
  3
ACAD_MLINESTYLE
350
17
  3
ACAD_PLOTSETTINGS
350
19
  3
ACAD_PLOTSTYLENAME
350
E
  3
ACAD_TABLESTYLE
350
2CB
  3
ACAD_VISUALSTYLE
350
2A
  3
AcDbVariableDictionary
350
2CD
  0
DICTIONARY
  5
D
102
{ACAD_REACTORS
330
C
102
}
330
C
100
AcDbDictionary
281
     1
  0
DICTIONARY
  5
1A
102
{ACAD_REACTORS
330
C
102
}
330
C
100
AcDbDictionary
281
     1
  3
Layout1
350
1E
  3
Layout2
350
26
  3
Model
350
22
  0
DICTIONARY
  5
2CC
102
{ACAD_REACTORS
330
C
102
}
330
C
100
AcDbDictionary
281
     1
  0
DICTIONARY
  5
17
102
{ACAD_REACTORS
330
C
102
}
330
C
100
AcDbDictionary
281
     1
  3
Standard
350
18
  0
DICTIONARY
  5
19
102
{ACAD_REACTORS
330
C
102
}
330
C
100
AcDbDictionary
281
     1
  0
ACDBDICTIONARYWDFLT
  5
E
102
{ACAD_REACTORS
330
C
102
}
330
C
100
AcDbDictionary
281
     1
  3
Normal
350
F
100
AcDbDictionaryWithDefault
340
F
  0
DICTIONARY
  5
2CB
102
{ACAD_REACTORS
330
C
102
}
330
C
100
AcDbDictionary
281
     1
  0
DICTIONARY
  5
2A
102
{ACAD_REACTORS
330
C
102
}
330
C
100
AcDbDictionary
281
     1
  3
2dWireframe
350
2F
  3
3D Hidden
350
31
  3
3dWireframe
350
30
  3
Basic
350
32
  3
Brighten
350
36
  3
ColorChange
350
3A
  3
Conceptual
350
34
  3
Dim
350
35
  3
Facepattern
350
39
  3
Flat
350
2B
  3
FlatWithEdges
350
2C
  3
Gouraud
350
2D
  3
GouraudWithEdges
350
2E
  3
Linepattern
350
38
  3
Realistic
350
33
  3
Thicken
350
37
  0
DICTIONARY
  5
2CD
102
{ACAD_REACTORS
330
C
102
}
330
C
100
AcDbDictionary
281
     1
  3
PSOLHEIGHT
350
2CF
  3
PSOLWIDTH
350
2CE
  0
LAYOUT
  5
1E
102
{ACAD_REACTORS
330
1A
102
}
330
1A
100
AcDbPlotSettings
  1

  2
none_device
  4

  6

 40
0.0
 41
0.0
 42
0.0
 43
0.0
 44
0.0
 45
0.0
 46
0.0
 47
0.0
 48
0.0
 49
0.0
140
0.0
141
0.0
142
1.0
143
1.0
 70
   688
 72
     0
 73
     0
 74
     5
  7

 75
    16
147
1.0
148
0.0
149
0.0
100
AcDbLayout
  1
Layout1
 70
     1
 71
     1
 10
0.0
 20
0.0
 11
420.0
 21
297.0
 12
0.0
 22
0.0
 32
0.0
 14
1.0000000000E+20
 24
1.0000000000E+20
 34
1.0000000000E+20
 15
-1.0000000000E+20
 25
-1.0000000000E+20
 35
-1.0000000000E+20
146
0.0
 13
0.0
 23
0.0
 33
0.0
 16
1.0
 26
0.0
 36
0.0
 17
0.0
 27
1.0
 37
0.0
 76
     0
330
1B
  0
LAYOUT
  5
26
102
{ACAD_REACTORS
330
1A
102
}
330
1A
100
AcDbPlotSettings
  1

  2
none_device
  4

  6

 40
0.0
 41
0.0
 42
0.0
 43
0.0
 44
0.0
 45
0.0
 46
0.0
 47
0.0
 48
0.0
 49
0.0
140
0.0
141
0.0
142
1.0
143
1.0
 70
   688
 72
     0
 73
     0
 74
     5
  7

 75
    16
147
1.0
148
0.0
149
0.0
100
AcDbLayout
  1
Layout2
 70
     1
 71
     2
 10
0.0
 20
0.0
 11
0.0
 21
0.0
 12
0.0
 22
0.0
 32
0.0
 14
0.0
 24
0.0
 34
0.0
 15
0.0
 25
0.0
 35
0.0
146
0.0
 13
0.0
 23
0.0
 33
0.0
 16
1.0
 26
0.0
 36
0.0
 17
0.0
 27
1.0
 37
0.0
 76
     0
330
23
  0
LAYOUT
  5
22
102
{ACAD_REACTORS
330
1A
102
}
330
1A
100
AcDbPlotSettings
  1

  2
none_device
  4

  6

 40
0.0
 41
0.0
 42
0.0
 43
0.0
 44
0.0
 45
0.0
 46
0.0
 47
0.0
 48
0.0
 49
0.0
140
0.0
141
0.0
142
1.0
143
1.0
 70
  1712
 72
     0
 73
     0
 74
     0
  7

 75
     0
147
1.0
148
0.0
149
0.0
100
AcDbLayout
  1
Model
 70
     1
 71
     0
 10
0.0
 20
0.0
 11
297.0
 21
210.0
 12
0.0
 22
0.0
 32
0.0
 14
0.0
 24
0.0
 34
0.0
 15
297.0
 25
210.0
 35
0.0
146
0.0
 13
0.0
 23
0.0
 33
0.0
 16
1.0
 26
0.0
 36
0.0
 17
0.0
 27
1.0
 37
0.0
 76
     0
330
1F
331
29
  0
MLINESTYLE
  5
18
102
{ACAD_REACTORS
330
17
102
}
330
17
100
AcDbMlineStyle
  2
Standard
 70
     0
  3

 62
   256
 51
90.0
 52
90.0
 71
     2
 49
0.5
 62
   256
  6
BYLAYER
 49
-0.5
 62
   256
  6
BYLAYER
  0
ACDBPLACEHOLDER
  5
F
102
{ACAD_REACTORS
330
E
102
}
330
E
  0
VISUALSTYLE
  5
2F
102
{ACAD_REACTORS
330
2A
102
}
330
2A
100
AcDbVisualStyle
  2
2dWireframe
 70
     4
 71
     0
 72
     2
 73
     0
 90
        0
 40
-0.6
 41
-30.0
 62
     5
 63
     7
 74
     1
 91
        4
 64
     7
 65
   257
 75
     1
175
     1
 42
1.0
 92
        0
 66
   257
 43
1.0
 76
     1
 77
     6
 78
     2
 67
     7
 79
     5
170
     0
171
     0
290
     0
174
     0
 93
        1
 44
0.0
173
     0
291
     0
 45
0.0
1001
ACAD
1000
AcDbSavedByObjectVersion
1070
     0
  0
VISUALSTYLE
  5
31
102
{ACAD_REACTORS
330
2A
102
}
330
2A
100
AcDbVisualStyle
  2
3D Hidden
 70
     6
 71
     1
 72
     2
 73
     2
 90
        0
 40
-0.6
 41
-30.0
 62
     5
 63
     7
 74
     2
 91
        2
 64
     7
 65
   257
 75
     2
175
     1
 42
40.0
 92
        0
 66
   257
 43
1.0
 76
     1
 77
     6
 78
     2
 67
     7
 79
     3
170
     0
171
     0
290
     0
174
     0
 93
        1
 44
0.0
173
     0
291
     0
 45
0.0
1001
ACAD
1000
AcDbSavedByObjectVersion
1070
     0
  0
VISUALSTYLE
  5
30
102
{ACAD_REACTORS
330
2A
102
}
330
2A
100
AcDbVisualStyle
  2
3dWireframe
 70
     5
 71
     0
 72
     2
 73
     0
 90
        0
 40
-0.6
 41
-30.0
 62
     5
 63
     7
 74
     1
 91
        4
 64
     7
 65
   257
 75
     1
175
     1
 42
1.0
 92
        0
 66
   257
 43
1.0
 76
     1
 77
     6
 78
     2
 67
     7
 79
     5
170
     0
171
     0
290
     0
174
     0
 93
        1
 44
0.0
173
     0
291
     0
 45
0.0
1001
ACAD
1000
AcDbSavedByObjectVersion
1070
     0
  0
VISUALSTYLE
  5
32
102
{ACAD_REACTORS
330
2A
102
}
330
2A
100
AcDbVisualStyle
  2
Basic
 70
     7
 71
     1
 72
     0
 73
     1
 90
        0
 40
-0.6
 41
-30.0
 62
     5
 63
     7
 74
     0
 91
        4
 64
     7
 65
   257
 75
     1
175
     1
 42
1.0
 92
        8
 66
     7
 43
1.0
 76
     1
 77
     6
 78
     2
 67
     7
 79
     5
170
     0
171
     0
290
     0
174
     0
 93
        1
 44
0.0
173
     0
291
     1
 45
0.0
1001
ACAD
1000
AcDbSavedByObjectVersion
1070
     0
  0
VISUALSTYLE
  5
36
102
{ACAD_REACTORS
330
2A
102
}
330
2A
100
AcDbVisualStyle
  2
Brighten
 70
    12
 71
     2
 72
     2
 73
     0
 90
        0
 40
-0.6
 41
-30.0
 62
     5
 63
     7
 74
     1
 91
        4
 64
     7
 65
   257
 75
     1
175
     1
 42
1.0
 92
        8
 66
     7
 43
1.0
 76
     1
 77
     6
 78
     2
 67
     7
 79
     5
170
     0
171
     0
290
     0
174
     0
 93
        1
 44
50.0
173
     0
291
     1
 45
0.0
1001
ACAD
1000
AcDbSavedByObjectVersion
1070
     0
  0
VISUALSTYLE
  5
3A
102
{ACAD_REACTORS
330
2A
102
}
330
2A
100
AcDbVisualStyle
  2
ColorChange
 70
    16
 71
     2
 72
     2
 73
     3
 90
        0
 40
-0.6
 41
-30.0
 62
     5
 63
     8
 74
     1
 91
        4
 64
     7
 65
   257
 75
     1
175
     1
 42
1.0
 92
        8
 66
     8
 43
1.0
 76
     1
 77
     6
 78
     2
 67
     7
 79
     5
170
     0
171
     0
290
     0
174
     0
 93
        1
 44
0.0
173
     0
291
     1
 45
0.0
1001
ACAD
1000
AcDbSavedByObjectVersion
1070
     0
  0
VISUALSTYLE
  5
34
102
{ACAD_REACTORS
330
2A
102
}
330
2A
100
AcDbVisualStyle
  2
Conceptual
 70
     9
 71
     3
 72
     2
 73
     0
 90
        0
 40
-0.6
 41
-30.0
 62
     5
 63
     7
 74
     2
 91
        2
 64
     7
 65
   257
 75
     1
175
     1
 42
40.0
 92
        8
 66
     7
 43
1.0
 76
     1
 77
     6
 78
     2
 67
     7
 79
     3
170
     0
171
     0
290
     0
174
     0
 93
        1
 44
0.0
173
     0
291
     0
 45
0.0
1001
ACAD
1000
AcDbSavedByObjectVersion
1070
     0
  0
VISUALSTYLE
  5
35
102
{ACAD_REACTORS
330
2A
102
}
330
2A
100
AcDbVisualStyle
  2
Dim
 70
    11
 71
     2
 72
     2
 73
     0
 90
        0
 40
-0.6
 41
-30.0
 62
     5
 63
     7
 74
     1
 91
        4
 64
     7
 65
   257
 75
     1
175
     1
 42
1.0
 92
        8
 66
     7
 43
1.0
 76
     1
 77
     6
 78
     2
 67
     7
 79
     5
170
     0
171
     0
290
     0
174
     0
 93
        1
 44
-50.0
173
     0
291
     1
 45
0.0
1001
ACAD
1000
AcDbSavedByObjectVersion
1070
     0
  0
VISUALSTYLE
  5
39
102
{ACAD_REACTORS
330
2A
102
}
330
2A
100
AcDbVisualStyle
  2
Facepattern
 70
    15
 71
     2
 72
     2
 73
     0
 90
        0
 40
-0.6
 41
-30.0
 62
     5
 63
     7
 74
     1
 91
        4
 64
     7
 65
   257
 75
     1
175
     1
 42
1.0
 92
        8
 66
     7
 43
1.0
 76
     1
 77
     6
 78
     2
 67
     7
 79
     5
170
     0
171
     0
290
     0
174
     0
 93
        1
 44
0.0
173
     0
291
     1
 45
0.0
1001
ACAD
1000
AcDbSavedByObjectVersion
1070
     0
  0
VISUALSTYLE
  5
2B
102
{ACAD_REACTORS
330
2A
102
}
330
2A
100
AcDbVisualStyle
  2
Flat
 70
     0
 71
     2
 72
     1
 73
     1
 90
        2
 40
-0.6
 41
30.0
 62
     5
 63
     7
 74
     0
 91
        4
 64
     7
 65
   257
 75
     1
175
     1
 42
1.0
 92
        8
 66
     7
 43
1.0
 76
     1
 77
     6
 78
     2
 67
     7
 79
     5
170
     0
171
     0
290
     0
174
     0
 93
       13
 44
0.0
173
     0
291
     1
 45
0.0
1001
ACAD
1000
AcDbSavedByObjectVersion
1070
     0
  0
VISUALSTYLE
  5
2C
102
{ACAD_REACTORS
330
2A
102
}
330
2A
100
AcDbVisualStyle
  2
FlatWithEdges
 70
     1
 71
     2
 72
     1
 73
     1
 90
        2
 40
-0.6
 41
30.0
 62
     5
 63
     7
 74
     1
 91
        4
 64
     7
 65
   257
 75
     1
175
     1
 42
1.0
 92
        0
 66
   257
 43
1.0
 76
     1
 77
     6
 78
     2
 67
     7
 79
     5
170
     0
171
     0
290
     0
174
     0
 93
       13
 44
0.0
173
     0
291
     1
 45
0.0
1001
ACAD
1000
AcDbSavedByObjectVersion
1070
     0
  0
VISUALSTYLE
  5
2D
102
{ACAD_REACTORS
330
2A
102
}
330
2A
100
AcDbVisualStyle
  2
Gouraud
 70
     2
 71
     2
 72
     2
 73
     1
 90
        2
 40
-0.6
 41
30.0
 62
     5
 63
     7
 74
     0
 91
        4
 64
     7
 65
   257
 75
     1
175
     1
 42
1.0
 92
        0
 66
     7
 43
1.0
 76
     1
 77
     6
 78
     2
 67
     7
 79
     5
170
     0
171
     0
290
     0
174
     0
 93
       13
 44
0.0
173
     0
291
     1
 45
0.0
1001
ACAD
1000
AcDbSavedByObjectVersion
1070
     0
  0
VISUALSTYLE
  5
2E
102
{ACAD_REACTORS
330
2A
102
}
330
2A
100
AcDbVisualStyle
  2
GouraudWithEdges
 70
     3
 71
     2
 72
     2
 73
     1
 90
        2
 40
-0.6
 41
30.0
 62
     5
 63
     7
 74
     1
 91
        4
 64
     7
 65
   257
 75
     1
175
     1
 42
1.0
 92
        0
 66
   257
 43
1.0
 76
     1
 77
     6
 78
     2
 67
     7
 79
     5
170
     0
171
     0
290
     0
174
     0
 93
       13
 44
0.0
173
     0
291
     1
 45
0.0
1001
ACAD
1000
AcDbSavedByObjectVersion
1070
     0
  0
VISUALSTYLE
  5
38
102
{ACAD_REACTORS
330
2A
102
}
330
2A
100
AcDbVisualStyle
  2
Linepattern
 70
    14
 71
     2
 72
     2
 73
     0
 90
        0
 40
-0.6
 41
-30.0
 62
     5
 63
     7
 74
     1
 91
        4
 64
     7
 65
   257
 75
     7
175
     7
 42
1.0
 92
        8
 66
     7
 43
1.0
 76
     1
 77
     6
 78
     2
 67
     7
 79
     5
170
     0
171
     0
290
     0
174
     0
 93
        1
 44
0.0
173
     0
291
     1
 45
0.0
1001
ACAD
1000
AcDbSavedByObjectVersion
1070
     0
  0
VISUALSTYLE
  5
33
102
{ACAD_REACTORS
330
2A
102
}
330
2A
100
AcDbVisualStyle
  2
Realistic
 70
     8
 71
     2
 72
     2
 73
     0
 90
        0
 40
-0.6
 41
-30.0
 62
     5
 63
     7
 74
     1
 91
        0
 64
     7
 65
   257
 75
     1
175
     1
 42
1.0
 92
        8
 66
     8
 43
1.0
 76
     1
 77
     6
 78
     2
 67
     7
 79
     5
170
     0
171
     0
290
     0
174
     0
 93
       13
 44
0.0
173
     0
291
     0
 45
0.0
1001
ACAD
1000
AcDbSavedByObjectVersion
1070
     0
  0
VISUALSTYLE
  5
37
102
{ACAD_REACTORS
330
2A
102
}
330
2A
100
AcDbVisualStyle
  2
Thicken
 70
    13
 71
     2
 72
     2
 73
     0
 90
        0
 40
-0.6
 41
-30.0
 62
     5
 63
     7
 74
     1
 91
        4
 64
     7
 65
   257
 75
     1
175
     1
 42
1.0
 92
       12
 66
     7
 43
1.0
 76
     1
 77
     6
 78
     2
 67
     7
 79
     5
170
     0
171
     0
290
     0
174
     0
 93
        1
 44
0.0
173
     0
291
     1
 45
0.0
1001
ACAD
1000
AcDbSavedByObjectVersion
1070
     0
  0
DICTIONARYVAR
  5
2CF
102
{ACAD_REACTORS
330
2CD
102
}
330
2CD
100
DictionaryVariables
280
     0
  1
80.000000
  0
DICTIONARYVAR
  5
2CE
102
{ACAD_REACTORS
330
2CD
102
}
330
2CD
100
DictionaryVariables
280
     0
  1
5.000000
  0
ENDSEC
  0
EOF
