  0
SECTION
  2
HEADER
  9
$ACADVER
  1
AC1015
  9
$ACADMAINTVER
 70
     6
  9
$DWGCODEPAGE
  3
ANSI_1252
  9
$INSBASE
 10
0.0
 20
0.0
 30
0.0
  9
$EXTMIN
 10
0.0
 20
0.0
 30
0.0
  9
$EXTMAX
 10
297.0
 20
210.0
 30
0.0
  9
$LIMMIN
 10
0.0
 20
0.0
  9
$LIMMAX
 10
297.0
 20
210.0
  9
$ORTHOMODE
 70
     0
  9
$REGENMODE
 70
     1
  9
$FILLMODE
 70
     1
  9
$QTEXTMODE
 70
     0
  9
$MIRRTEXT
 70
     1
  9
$LTSCALE
 40
1.0
  9
$ATTMODE
 70
     1
  9
$TEXTSIZE
 40
2.0
  9
$TRACEWID
 40
1.0
  9
$TEXTSTYLE
  7
Standard
  9
$CLAYER
  8
0
  9
$CELTYPE
  6
ByLayer
  9
$CECOLOR
 62
   256
  9
$CELTSCALE
 40
1.0
  9
$DISPSILH
 70
     0
  9
$DIMSCALE
 40
1.0
  9
$DIMASZ
 40
3.0
  9
$DIMEXO
 40
0.0
  9
$DIMDLI
 40
3.75
  9
$DIMRND
 40
0.0
  9
$DIMDLE
 40
0.0
  9
$DIMEXE
 40
1.0
  9
$DIMTP
 40
0.0
  9
$DIMTM
 40
0.0
  9
$DIMTXT
 40
2.0
  9
$DIMCEN
 40
2.5
  9
$DIMTSZ
 40
0.0
  9
$DIMTOL
 70
     0
  9
$DIMLIM
 70
     0
  9
$DIMTIH
 70
     1
  9
$DIMTOH
 70
     1
  9
$DIMSE1
 70
     0
  9
$DIMSE2
 70
     0
  9
$DIMTAD
 70
     1
  9
$DIMZIN
 70
     0
  9
$DIMBLK
  1

  9
$DIMASO
 70
     1
  9
$DIMSHO
 70
     1
  9
$DIMPOST
  1

  9
$DIMAPOST
  1

  9
$DIMALT
 70
     0
  9
$DIMALTD
 70
     3
  9
$DIMALTF
 40
0.0393700787
  9
$DIMLFAC
 40
1.0
  9
$DIMTOFL
 70
     1
  9
$DIMTVP
 40
0.0
  9
$DIMTIX
 70
     0
  9
$DIMSOXD
 70
     0
  9
$DIMSAH
 70
     0
  9
$DIMBLK1
  1

  9
$DIMBLK2
  1

  9
$DIMSTYLE
  2
ISO-25
  9
$DIMCLRD
 70
     0
  9
$DIMCLRE
 70
     0
  9
$DIMCLRT
 70
     0
  9
$DIMTFAC
 40
1.0
  9
$DIMGAP
 40
1.524
  9
$DIMJUST
 70
     0
  9
$DIMSD1
 70
     0
  9
$DIMSD2
 70
     0
  9
$DIMTOLJ
 70
     0
  9
$DIMTZIN
 70
     0
  9
$DIMALTZ
 70
     0
  9
$DIMALTTZ
 70
     0
  9
$DIMUPT
 70
     0
  9
$DIMDEC
 70
     2
  9
$DIMTDEC
 70
     3
  9
$DIMALTU
 70
     2
  9
$DIMALTTD
 70
     3
  9
$DIMTXSTY
  7
Standard
  9
$DIMAUNIT
 70
     0
  9
$DIMADEC
 70
     2
  9
$DIMALTRND
 40
0.0
  9
$DIMAZIN
 70
     0
  9
$DIMDSEP
 70
    44
  9
$DIMATFIT
 70
     3
  9
$DIMFRAC
 70
     0
  9
$DIMLDRBLK
  1

  9
$DIMLUNIT
 70
     2
  9
$DIMLWD
 70
    -2
  9
$DIMLWE
 70
    -2
  9
$DIMTMOVE
 70
     0
  9
$LUNITS
 70
     2
  9
$LUPREC
 70
     2
  9
$SKETCHINC
 40
1.0
  9
$FILLETRAD
 40
10.0
  9
$AUNITS
 70
     0
  9
$AUPREC
 70
     2
  9
$MENU
  1
.
  9
$ELEVATION
 40
0.0
  9
$PELEVATION
 40
0.0
  9
$THICKNESS
 40
0.0
  9
$LIMCHECK
 70
     0
  9
$CHAMFERA
 40
10.0
  9
$CHAMFERB
 40
10.0
  9
$CHAMFERC
 40
20.0
  9
$CHAMFERD
 40
0.0
  9
$SKPOLY
 70
     0
  9
$TDCREATE
 40
2455642.419176296
  9
$TDUCREATE
 40
2455642.37750963
  9
$TDUPDATE
 40
2455642.419176308
  9
$TDUUPDATE
 40
2455642.377509641
  9
$TDINDWG
 40
0.0000000116
  9
$TDUSRTIMER
 40
0.0000000116
  9
$USRTIMER
 70
     1
  9
$ANGBASE
 50
0.0
  9
$ANGDIR
 70
     0
  9
$PDMODE
 70
     0
  9
$PDSIZE
 40
-1.0
  9
$PLINEWID
 40
0.0
  9
$SPLFRAME
 70
     0
  9
$SPLINETYPE
 70
     6
  9
$SPLINESEGS
 70
     8
  9
$HANDSEED
  5
2DB
  9
$SURFTAB1
 70
     6
  9
$SURFTAB2
 70
     6
  9
$SURFTYPE
 70
     6
  9
$SURFU
 70
     6
  9
$SURFV
 70
     6
  9
$UCSBASE
  2

  9
$UCSNAME
  2

  9
$UCSORG
 10
0.0
 20
0.0
 30
0.0
  9
$UCSXDIR
 10
1.0
 20
0.0
 30
0.0
  9
$UCSYDIR
 10
0.0
 20
1.0
 30
0.0
  9
$UCSORTHOREF
  2

  9
$UCSORTHOVIEW
 70
     0
  9
$UCSORGTOP
 10
0.0
 20
0.0
 30
0.0
  9
$UCSORGBOTTOM
 10
0.0
 20
0.0
 30
0.0
  9
$UCSORGLEFT
 10
0.0
 20
0.0
 30
0.0
  9
$UCSORGRIGHT
 10
0.0
 20
0.0
 30
0.0
  9
$UCSORGFRONT
 10
0.0
 20
0.0
 30
0.0
  9
$UCSORGBACK
 10
0.0
 20
0.0
 30
0.0
  9
$PUCSBASE
  2

  9
$PUCSNAME
  2

  9
$PUCSORG
 10
0.0
 20
0.0
 30
0.0
  9
$PUCSXDIR
 10
1.0
 20
0.0
 30
0.0
  9
$PUCSYDIR
 10
0.0
 20
1.0
 30
0.0
  9
$PUCSORTHOREF
  2

  9
$PUCSORTHOVIEW
 70
     0
  9
$PUCSORGTOP
 10
0.0
 20
0.0
 30
0.0
  9
$PUCSORGBOTTOM
 10
0.0
 20
0.0
 30
0.0
  9
$PUCSORGLEFT
 10
0.0
 20
0.0
 30
0.0
  9
$PUCSORGRIGHT
 10
0.0
 20
0.0
 30
0.0
  9
$PUCSORGFRONT
 10
0.0
 20
0.0
 30
0.0
  9
$PUCSORGBACK
 10
0.0
 20
0.0
 30
0.0
  9
$USERI1
 70
     0
  9
$USERI2
 70
     0
  9
$USERI3
 70
     0
  9
$USERI4
 70
     0
  9
$USERI5
 70
     0
  9
$USERR1
 40
0.0
  9
$USERR2
 40
0.0
  9
$USERR3
 40
0.0
  9
$USERR4
 40
0.0
  9
$USERR5
 40
0.0
  9
$WORLDVIEW
 70
     1
  9
$SHADEDGE
 70
     3
  9
$SHADEDIF
 70
    70
  9
$TILEMODE
 70
     1
  9
$MAXACTVP
 70
    64
  9
$PINSBASE
 10
0.0
 20
0.0
 30
0.0
  9
$PLIMCHECK
 70
     0
  9
$PEXTMIN
 10
1.0000000000E+20
 20
1.0000000000E+20
 30
1.0000000000E+20
  9
$PEXTMAX
 10
-1.0000000000E+20
 20
-1.0000000000E+20
 30
-1.0000000000E+20
  9
$PLIMMIN
 10
0.0
 20
0.0
  9
$PLIMMAX
 10
420.0
 20
297.0
  9
$UNITMODE
 70
     0
  9
$VISRETAIN
 70
     1
  9
$PLINEGEN
 70
     0
  9
$PSLTSCALE
 70
     1
  9
$TREEDEPTH
 70
  3020
  9
$CMLSTYLE
  2
Standard
  9
$CMLJUST
 70
     0
  9
$CMLSCALE
 40
20.0
  9
$PROXYGRAPHICS
 70
     1
  9
$MEASUREMENT
 70
     1
  9
$CELWEIGHT
370
    -1
  9
$ENDCAPS
280
     0
  9
$JOINSTYLE
280
     0
  9
$LWDISPLAY
290
     1
  9
$INSUNITS
 70
     4
  9
$HYPERLINKBASE
  1

  9
$STYLESHEET
  1

  9
$XEDIT
290
     1
  9
$CEPSNTYPE
380
     0
  9
$PSTYLEMODE
290
     1
  9
$FINGERPRINTGUID
  2
{C7A59FB6-E17C-47B7-8AE2-B65CDE889982}
  9
$VERSIONGUID
  2
{FAEB1C32-E019-11D5-929B-00C0DF256EC4}
  9
$EXTNAMES
290
     1
  9
$PSVPSCALE
 40
0.0
  9
$OLESTARTUP
290
     0
  0
ENDSEC
  0
SECTION
  2
CLASSES
  0
CLASS
  1
ACDBDICTIONARYWDFLT
  2
AcDbDictionaryWithDefault
  3
ObjectDBX Classes
 90
        0
280
     0
281
     0
  0
CLASS
  1
VISUALSTYLE
  2
AcDbVisualStyle
  3
ObjectDBX Classes
 90
     4095
280
     0
281
     0
  0
CLASS
  1
DICTIONARYVAR
  2
AcDbDictionaryVar
  3
ObjectDBX Classes
 90
        0
280
     0
281
     0
  0
CLASS
  1
ACDBPLACEHOLDER
  2
AcDbPlaceHolder
  3
ObjectDBX Classes
 90
        0
280
     0
281
     0
  0
CLASS
  1
LAYOUT
  2
AcDbLayout
  3
ObjectDBX Classes
 90
        0
280
     0
281
     0
  0
ENDSEC
  0
SECTION
  2
TABLES
  0
TABLE
  2
VPORT
  5
8
330
0
100
AcDbSymbolTable
 70
     1
  0
VPORT
  5
29
330
8
100
AcDbSymbolTableRecord
100
AcDbViewportTableRecord
  2
*Active
 70
     0
 10
0.0
 20
0.0
 11
1.0
 21
1.0
 12
148.5
 22
105.0
 13
0.0
 23
0.0
 14
10.0
 24
10.0
 15
10.0
 25
10.0
 16
0.0
 26
0.0
 36
1.0
 17
0.0
 27
0.0
 37
0.0
 40
210.0
 41
1.4142857143
 42
50.0
 43
0.0
 44
0.0
 50
0.0
 51
0.0
 71
     0
 72
  2000
 73
     1
 74
     3
 75
     0
 76
     0
 77
     0
 78
     0
281
     0
 65
     1
110
0.0
120
0.0
130
0.0
111
1.0
121
0.0
131
0.0
112
0.0
122
1.0
132
0.0
 79
     0
146
0.0
  0
ENDTAB
  0
TABLE
  2
LTYPE
  5
5
330
0
100
AcDbSymbolTable
 70
     6
  0
LTYPE
  5
14
330
5
100
AcDbSymbolTableRecord
100
AcDbLinetypeTableRecord
  2
ByBlock
 70
     0
  3

 72
    65
 73
     0
 40
0.0
  0
LTYPE
  5
15
330
5
100
AcDbSymbolTableRecord
100
AcDbLinetypeTableRecord
  2
ByLayer
 70
     0
  3

 72
    65
 73
     0
 40
0.0
  0
LTYPE
  5
16
330
5
100
AcDbSymbolTableRecord
100
AcDbLinetypeTableRecord
  2
Continuous
 70
     0
  3
Solid line
 72
    65
 73
     0
 40
0.0
  0
LTYPE
  5
3B
330
5
100
AcDbSymbolTableRecord
100
AcDbLinetypeTableRecord
  2
HIDDEN
 70
     0
  3
Hidden __ __ __ __ __ __ __ __ __ __ __ __ __ __
 72
    65
 73
     2
 40
1.905
 49
1.27
 74
     0
 49
-0.635
 74
     0
  0
LTYPE
  5
3C
330
5
100
AcDbSymbolTableRecord
100
AcDbLinetypeTableRecord
  2
PHANTOM
 70
     0
  3
Phantom ______  __  __  ______  __  __  ______
 72
    65
 73
     6
 40
12.7
 49
6.35
 74
     0
 49
-1.27
 74
     0
 49
1.27
 74
     0
 49
-1.27
 74
     0
 49
1.27
 74
     0
 49
-1.27
 74
     0
  0
LTYPE
  5
3D
330
5
100
AcDbSymbolTableRecord
100
AcDbLinetypeTableRecord
  2
CENTER
 70
     0
  3
Center ____ _ ____ _ ____ _ ____ _ ____ _ ____
 72
    65
 73
     4
 40
10.16
 49
6.35
 74
     0
 49
-1.27
 74
     0
 49
1.27
 74
     0
 49
-1.27
 74
     0
  0
LTYPE
  5
3E
330
5
100
AcDbSymbolTableRecord
100
AcDbLinetypeTableRecord
  2
CENTERX2
 70
     0
  3
Center (2x) ________  __  ________  __  _____
 72
    65
 73
     4
 40
20.32
 49
12.7
 74
     0
 49
-2.54
 74
     0
 49
2.54
 74
     0
 49
-2.54
 74
     0
  0
LTYPE
  5
3F
330
5
100
AcDbSymbolTableRecord
100
AcDbLinetypeTableRecord
  2
DOT2
 70
     0
  3
Dot (.5x) ........................................
 72
    65
 73
     2
 40
0.635
 49
0.0
 74
     0
 49
-0.635
 74
     0
  0
ENDTAB
  0
TABLE
  2
LAYER
  5
2
330
0
100
AcDbSymbolTable
 70
     5
  0
LAYER
  5
10
330
2
100
AcDbSymbolTableRecord
100
AcDbLayerTableRecord
  2
0
 70
     0
 62
     7
  6
Continuous
370
    -3
390
F
  0
LAYER
  5
40
330
2
100
AcDbSymbolTableRecord
100
AcDbLayerTableRecord
  2
FORMAT
 70
     0
 62
     7
  6
Continuous
370
    -3
390
F
  0
LAYER
  5
41
330
2
100
AcDbSymbolTableRecord
100
AcDbLayerTableRecord
  2
VERMASSUNG
 70
     0
 62
     7
  6
Continuous
370
    -3
390
F
  0
LAYER
  5
42
330
2
100
AcDbSymbolTableRecord
100
AcDbLayerTableRecord
  2
KOPF_DÜNN
 70
     0
 62
     7
  6
Continuous
370
    -3
390
F
  0
LAYER
  5
43
330
2
100
AcDbSymbolTableRecord
100
AcDbLayerTableRecord
  2
KOPF_DICK
 70
     0
 62
     7
  6
Continuous
370
    15
390
F
  0
ENDTAB
  0
TABLE
  2
STYLE
  5
3
330
0
100
AcDbSymbolTable
 70
     3
  0
STYLE
  5
11
330
3
100
AcDbSymbolTableRecord
100
AcDbTextStyleTableRecord
  2
Standard
 70
     0
 40
0.0
 41
1.0
 50
0.0
 71
     0
 42
2.5
  3
txt
  4

  0
STYLE
  5
44
330
3
100
AcDbSymbolTableRecord
100
AcDbTextStyleTableRecord
  2
SLDTEXTSTYLE0
 70
     0
 40
0.0
 41
0.7
 50
0.0
 71
     0
 42
0.2
  3
TXT
  4

  0
STYLE
  5
48
330
3
100
AcDbSymbolTableRecord
100
AcDbTextStyleTableRecord
  2
SLDTEXTSTYLE1
 70
     0
 40
0.0
 41
0.65
 50
0.0
 71
     0
 42
0.2
  3
TXT
  4

  0
ENDTAB
  0
TABLE
  2
VIEW
  5
6
330
0
100
AcDbSymbolTable
 70
     0
  0
ENDTAB
  0
TABLE
  2
UCS
  5
7
330
0
100
AcDbSymbolTable
 70
     0
  0
ENDTAB
  0
TABLE
  2
APPID
  5
9
330
0
100
AcDbSymbolTable
 70
     1
  0
APPID
  5
12
330
9
100
AcDbSymbolTableRecord
100
AcDbRegAppTableRecord
  2
ACAD
 70
     0
  0
ENDTAB
  0
TABLE
  2
DIMSTYLE
  5
A
330
0
100
AcDbSymbolTable
 70
     3
100
AcDbDimStyleTable
  0
DIMSTYLE
105
27
330
A
100
AcDbSymbolTableRecord
100
AcDbDimStyleTableRecord
  2
ISO-25
 70
     0
 41
2.5
 42
0.625
 43
3.75
 44
1.25
 73
     0
 74
     0
 77
     1
 78
     8
140
2.5
141
2.5
143
0.0393700787
147
0.625
171
     3
172
     1
271
     2
272
     2
274
     3
278
    44
283
     0
284
     8
340
11
  0
DIMSTYLE
105
27D
102
{ACAD_REACTORS
330
27C
330
289
330
294
330
29F
330
2A9
330
2B3
330
2BD
102
}
330
A
100
AcDbSymbolTableRecord
100
AcDbDimStyleTableRecord
  2
SLDDIMSTYLE0
 70
     0
 41
3.0
 44
0.0
 45
0.000000001
 73
     0
 74
     0
 77
     1
 78
    12
140
2.0
147
0.5
173
     1
271
     2
272
     3
284
    12
340
44
  0
DIMSTYLE
105
2C9
102
{ACAD_REACTORS
330
2C8
102
}
330
A
100
AcDbSymbolTableRecord
100
AcDbDimStyleTableRecord
  2
SLDDIMSTYLE1
 70
     0
 41
3.0
 44
0.0
 45
0.000000001
 73
     0
 74
     0
 77
     1
 78
    12
140
2.0
147
0.5
173
     1
271
     0
272
     3
284
    12
340
44
  0
ENDTAB
  0
TABLE
  2
BLOCK_RECORD
  5
1
330
0
100
AcDbSymbolTable
 70
     9
  0
BLOCK_RECORD
  5
1F
330
1
100
AcDbSymbolTableRecord
100
AcDbBlockTableRecord
  2
*Model_Space
340
22
  0
BLOCK_RECORD
  5
1B
330
1
100
AcDbSymbolTableRecord
100
AcDbBlockTableRecord
  2
*Paper_Space
340
1E
  0
BLOCK_RECORD
  5
23
330
1
100
AcDbSymbolTableRecord
100
AcDbBlockTableRecord
  2
*Paper_Space0
340
26
  0
BLOCK_RECORD
  5
27E
330
1
100
AcDbSymbolTableRecord
100
AcDbBlockTableRecord
  2
*D1
340
0
  0
BLOCK_RECORD
  5
28A
330
1
100
AcDbSymbolTableRecord
100
AcDbBlockTableRecord
  2
*D2
340
0
  0
BLOCK_RECORD
  5
295
330
1
100
AcDbSymbolTableRecord
100
AcDbBlockTableRecord
  2
*D3
340
0
  0
BLOCK_RECORD
  5
2A0
330
1
100
AcDbSymbolTableRecord
100
AcDbBlockTableRecord
  2
*D4
340
0
  0
BLOCK_RECORD
  5
2AA
330
1
100
AcDbSymbolTableRecord
100
AcDbBlockTableRecord
  2
*D5
340
0
  0
BLOCK_RECORD
  5
2B4
330
1
100
AcDbSymbolTableRecord
100
AcDbBlockTableRecord
  2
*D6
340
0
  0
BLOCK_RECORD
  5
2BE
330
1
100
AcDbSymbolTableRecord
100
AcDbBlockTableRecord
  2
*D7
340
0
  0
BLOCK_RECORD
  5
2CA
330
1
100
AcDbSymbolTableRecord
100
AcDbBlockTableRecord
  2
*D8
340
0
  0
ENDTAB
  0
ENDSEC
  0
SECTION
  2
BLOCKS
  0
BLOCK
  5
20
330
1F
100
AcDbEntity
  8
0
100
AcDbBlockBegin
  2
*Model_Space
 70
     0
 10
0.0
 20
0.0
 30
0.0
  3
*Model_Space
  1

  0
ENDBLK
  5
21
330
1F
100
AcDbEntity
  8
0
100
AcDbBlockEnd
  0
BLOCK
  5
1C
330
1B
100
AcDbEntity
 67
     1
  8
0
100
AcDbBlockBegin
  2
*Paper_Space
 70
     0
 10
0.0
 20
0.0
 30
0.0
  3
*Paper_Space
  1

  0
ENDBLK
  5
1D
330
1B
100
AcDbEntity
 67
     1
  8
0
100
AcDbBlockEnd
  0
BLOCK
  5
24
330
23
100
AcDbEntity
  8
0
100
AcDbBlockBegin
  2
*Paper_Space0
 70
     0
 10
0.0
 20
0.0
 30
0.0
  3
*Paper_Space0
  1

  0
ENDBLK
  5
25
330
23
100
AcDbEntity
  8
0
100
AcDbBlockEnd
  0
BLOCK
  5
27F
330
27E
100
AcDbEntity
  8
0
100
AcDbBlockBegin
  2
*D1
 70
     1
 10
0.0
 20
0.0
 30
0.0
  3
*D1
  1

  0
SOLID
  5
281
330
27E
100
AcDbEntity
  8
VERMASSUNG
100
AcDbTrace
 10
29.9765042916
 20
165.4953926342
 30
0.0
 11
29.5265042916
 21
162.4953926342
 31
0.0
 12
30.4265042916
 22
162.4953926342
 32
0.0
 13
30.4265042916
 23
162.4953926342
 33
0.0
  0
SOLID
  5
282
330
27E
100
AcDbEntity
  8
VERMASSUNG
100
AcDbTrace
 10
29.9765042916
 20
65.4953926342
 30
0.0
 11
30.4265042916
 21
68.4953926342
 31
0.0
 12
29.5265042916
 22
68.4953926342
 32
0.0
 13
29.5265042916
 23
68.4953926342
 33
0.0
  0
LINE
  5
283
330
27E
100
AcDbEntity
  8
VERMASSUNG
100
AcDbLine
 10
87.5213488283
 20
165.4953926342
 30
0.0
 11
28.9765042916
 21
165.4953926342
 31
0.0
  0
LINE
  5
284
330
27E
100
AcDbEntity
  8
VERMASSUNG
100
AcDbLine
 10
87.5213488283
 20
65.4953926342
 30
0.0
 11
28.9765042916
 21
65.4953926342
 31
0.0
  0
LINE
  5
285
330
27E
100
AcDbEntity
  8
VERMASSUNG
100
AcDbLine
 10
29.9765042916
 20
165.4953926342
 30
0.0
 11
29.9765042916
 21
65.4953926342
 31
0.0
  0
MTEXT
  5
286
330
27E
100
AcDbEntity
  8
VERMASSUNG
100
AcDbMText
 10
27.1983688025
 20
107.2914761947
 30
0.0
 40
2.0
 41
0.0
 71
     1
 72
     1
  1
HSK A 
  7
SLDTEXTSTYLE0
 11
-7.044195017643634E-15
 21
1.0
 31
0.0
 73
     1
 44
1.0
  0
MTEXT
  5
287
330
27E
100
AcDbEntity
  8
VERMASSUNG
100
AcDbMText
 10
27.398368812
 20
116.2914767386
 30
0.0
 40
2.0
 41
0.0
 71
     1
 72
     1
  1
%%c
  7
SLDTEXTSTYLE0
 11
-7.044195017643634E-15
 21
1.0
 31
0.0
 73
     1
 44
1.0
  0
MTEXT
  5
288
330
27E
100
AcDbEntity
  8
VERMASSUNG
100
AcDbMText
 10
27.3983689284
 20
119.8998049838
 30
0.0
 40
2.0
 41
0.0
 71
     1
 72
     1
  1
100
  7
SLDTEXTSTYLE0
 11
-7.044195017643634E-15
 21
1.0
 31
0.0
 73
     1
 44
1.0
  0
ENDBLK
  5
280
330
27E
100
AcDbEntity
  8
0
100
AcDbBlockEnd
  0
BLOCK
  5
28B
330
28A
100
AcDbEntity
  8
0
100
AcDbBlockBegin
  2
*D2
 70
     1
 10
0.0
 20
0.0
 30
0.0
  3
*D2
  1

  0
SOLID
  5
28D
330
28A
100
AcDbEntity
  8
VERMASSUNG
100
AcDbTrace
 10
259.8009034311
 20
131.4953926342
 30
0.0
 11
259.3509034311
 21
128.4953926342
 31
0.0
 12
260.2509034311
 22
128.4953926342
 32
0.0
 13
260.2509034311
 23
128.4953926342
 33
0.0
  0
SOLID
  5
28E
330
28A
100
AcDbEntity
  8
VERMASSUNG
100
AcDbTrace
 10
259.8009034311
 20
99.4953926342
 30
0.0
 11
260.2509034311
 21
102.4953926342
 31
0.0
 12
259.3509034311
 22
102.4953926342
 32
0.0
 13
259.3509034311
 23
102.4953926342
 33
0.0
  0
LINE
  5
28F
330
28A
100
AcDbEntity
  8
VERMASSUNG
100
AcDbLine
 10
245.4713488283
 20
131.4953926342
 30
0.0
 11
260.8009034311
 21
131.4953926342
 31
0.0
  0
LINE
  5
290
330
28A
100
AcDbEntity
  8
VERMASSUNG
100
AcDbLine
 10
245.4713488283
 20
99.4953926342
 30
0.0
 11
260.8009034311
 21
99.4953926342
 31
0.0
  0
LINE
  5
291
330
28A
100
AcDbEntity
  8
VERMASSUNG
100
AcDbLine
 10
259.8009034311
 20
131.4953926342
 30
0.0
 11
259.8009034311
 21
99.4953926342
 31
0.0
  0
MTEXT
  5
292
330
28A
100
AcDbEntity
  8
VERMASSUNG
100
AcDbMText
 10
257.2227679515
 20
112.2922940777
 30
0.0
 40
2.0
 41
0.0
 71
     1
 72
     1
  1
%%c
  7
SLDTEXTSTYLE0
 11
-7.044195017643634E-15
 21
1.0
 31
0.0
 73
     1
 44
1.0
  0
MTEXT
  5
293
330
28A
100
AcDbEntity
  8
VERMASSUNG
100
AcDbMText
 10
257.222768068
 20
115.8998794826
 30
0.0
 40
2.0
 41
0.0
 71
     1
 72
     1
  1
32
  7
SLDTEXTSTYLE0
 11
-7.044195017643634E-15
 21
1.0
 31
0.0
 73
     1
 44
1.0
  0
ENDBLK
  5
28C
330
28A
100
AcDbEntity
  8
0
100
AcDbBlockEnd
  0
BLOCK
  5
296
330
295
100
AcDbEntity
  8
0
100
AcDbBlockBegin
  2
*D3
 70
     1
 10
0.0
 20
0.0
 30
0.0
  3
*D3
  1

  0
SOLID
  5
298
330
295
100
AcDbEntity
  8
VERMASSUNG
100
AcDbTrace
 10
253.8009034311
 20
124.9953926342
 30
0.0
 11
253.3509034311
 21
121.9953926342
 31
0.0
 12
254.2509034311
 22
121.9953926342
 32
0.0
 13
254.2509034311
 23
121.9953926342
 33
0.0
  0
SOLID
  5
299
330
295
100
AcDbEntity
  8
VERMASSUNG
100
AcDbTrace
 10
253.8009034311
 20
105.9953926342
 30
0.0
 11
254.2509034311
 21
108.9953926342
 31
0.0
 12
253.3509034311
 22
108.9953926342
 32
0.0
 13
253.3509034311
 23
108.9953926342
 33
0.0
  0
LINE
  5
29A
330
295
100
AcDbEntity
  8
VERMASSUNG
100
AcDbLine
 10
246.3213488283
 20
124.9953926342
 30
0.0
 11
254.8009034311
 21
124.9953926342
 31
0.0
  0
LINE
  5
29B
330
295
100
AcDbEntity
  8
VERMASSUNG
100
AcDbLine
 10
246.3213488283
 20
105.9953926342
 30
0.0
 11
254.8009034311
 21
105.9953926342
 31
0.0
  0
LINE
  5
29C
330
295
100
AcDbEntity
  8
VERMASSUNG
100
AcDbLine
 10
253.8009034311
 20
124.9953926342
 30
0.0
 11
253.8009034311
 21
105.9953926342
 31
0.0
  0
MTEXT
  5
29D
330
295
100
AcDbEntity
  8
VERMASSUNG
100
AcDbMText
 10
251.2227679515
 20
112.492715489
 30
0.0
 40
2.0
 41
0.0
 71
     1
 72
     1
  1
%%c
  7
SLDTEXTSTYLE0
 11
-7.044195017643634E-15
 21
1.0
 31
0.0
 73
     1
 44
1.0
  0
MTEXT
  5
29E
330
295
100
AcDbEntity
  8
VERMASSUNG
100
AcDbMText
 10
251.222768068
 20
116.100300894
 30
0.0
 40
2.0
 41
0.0
 71
     1
 72
     1
  1
19
  7
SLDTEXTSTYLE0
 11
-7.044195017643634E-15
 21
1.0
 31
0.0
 73
     1
 44
1.0
  0
ENDBLK
  5
297
330
295
100
AcDbEntity
  8
0
100
AcDbBlockEnd
  0
BLOCK
  5
2A1
330
2A0
100
AcDbEntity
  8
0
100
AcDbBlockBegin
  2
*D4
 70
     1
 10
0.0
 20
0.0
 30
0.0
  3
*D4
  1

  0
SOLID
  5
2A3
330
2A0
100
AcDbEntity
  8
VERMASSUNG
100
AcDbTrace
 10
115.9713488283
 20
170.0424244175
 30
0.0
 11
118.9713488283
 21
169.5924244175
 31
0.0
 12
118.9713488283
 22
170.4924244175
 32
0.0
 13
118.9713488283
 23
170.4924244175
 33
0.0
  0
SOLID
  5
2A4
330
2A0
100
AcDbEntity
  8
VERMASSUNG
100
AcDbTrace
 10
247.0213488283
 20
170.0424244175
 30
0.0
 11
244.0213488283
 21
170.4924244175
 31
0.0
 12
244.0213488283
 22
169.5924244175
 32
0.0
 13
244.0213488283
 23
169.5924244175
 33
0.0
  0
LINE
  5
2A5
330
2A0
100
AcDbEntity
  8
VERMASSUNG
100
AcDbLine
 10
115.9713488283
 20
163.464132455
 30
0.0
 11
115.9713488283
 21
171.0424244175
 31
0.0
  0
LINE
  5
2A6
330
2A0
100
AcDbEntity
  8
VERMASSUNG
100
AcDbLine
 10
247.0213488283
 20
127.2953926342
 30
0.0
 11
247.0213488283
 21
171.0424244175
 31
0.0
  0
LINE
  5
2A7
330
2A0
100
AcDbEntity
  8
VERMASSUNG
100
AcDbLine
 10
115.9713488283
 20
170.0424244175
 30
0.0
 11
247.0213488283
 21
170.0424244175
 31
0.0
  0
MTEXT
  5
2A8
330
2A0
100
AcDbEntity
  8
VERMASSUNG
100
AcDbMText
 10
176.4025441587
 20
172.6205597806
 30
0.0
 40
2.0
 41
0.0
 71
     1
 72
     1
  1
131.05
  7
SLDTEXTSTYLE0
 73
     1
 44
1.0
  0
ENDBLK
  5
2A2
330
2A0
100
AcDbEntity
  8
0
100
AcDbBlockEnd
  0
BLOCK
  5
2AB
330
2AA
100
AcDbEntity
  8
0
100
AcDbBlockBegin
  2
*D5
 70
     1
 10
0.0
 20
0.0
 30
0.0
  3
*D5
  1

  0
SOLID
  5
2AD
330
2AA
100
AcDbEntity
  8
VERMASSUNG
100
AcDbTrace
 10
37.1213488283
 20
182.0424244175
 30
0.0
 11
40.1213488283
 21
181.5924244175
 31
0.0
 12
40.1213488283
 22
182.4924244175
 32
0.0
 13
40.1213488283
 23
182.4924244175
 33
0.0
  0
SOLID
  5
2AE
330
2AA
100
AcDbEntity
  8
VERMASSUNG
100
AcDbTrace
 10
247.0213488283
 20
182.0424244175
 30
0.0
 11
244.0213488283
 21
182.4924244175
 31
0.0
 12
244.0213488283
 22
181.5924244175
 32
0.0
 13
244.0213488283
 23
181.5924244175
 33
0.0
  0
LINE
  5
2AF
330
2AA
100
AcDbEntity
  8
VERMASSUNG
100
AcDbLine
 10
37.1213488283
 20
145.9980623768
 30
0.0
 11
37.1213488283
 21
183.0424244175
 31
0.0
  0
LINE
  5
2B0
330
2AA
100
AcDbEntity
  8
VERMASSUNG
100
AcDbLine
 10
247.0213488283
 20
127.2953926342
 30
0.0
 11
247.0213488283
 21
183.0424244175
 31
0.0
  0
LINE
  5
2B1
330
2AA
100
AcDbEntity
  8
VERMASSUNG
100
AcDbLine
 10
37.1213488283
 20
182.0424244175
 30
0.0
 11
247.0213488283
 21
182.0424244175
 31
0.0
  0
MTEXT
  5
2B2
330
2AA
100
AcDbEntity
  8
VERMASSUNG
100
AcDbMText
 10
140.2044100297
 20
184.6205597806
 30
0.0
 40
2.0
 41
0.0
 71
     1
 72
     1
  1
209.9
  7
SLDTEXTSTYLE0
 73
     1
 44
1.0
  0
ENDBLK
  5
2AC
330
2AA
100
AcDbEntity
  8
0
100
AcDbBlockEnd
  0
BLOCK
  5
2B5
330
2B4
100
AcDbEntity
  8
0
100
AcDbBlockBegin
  2
*D6
 70
     1
 10
0.0
 20
0.0
 30
0.0
  3
*D6
  1

  0
SOLID
  5
2B7
330
2B4
100
AcDbEntity
  8
VERMASSUNG
100
AcDbTrace
 10
247.0213488283
 20
176.0424244175
 30
0.0
 11
244.0213488283
 21
176.4924244175
 31
0.0
 12
244.0213488283
 22
175.5924244175
 32
0.0
 13
244.0213488283
 23
175.5924244175
 33
0.0
  0
SOLID
  5
2B8
330
2B4
100
AcDbEntity
  8
VERMASSUNG
100
AcDbTrace
 10
87.0213488283
 20
176.0424244175
 30
0.0
 11
90.0213488283
 21
175.5924244175
 31
0.0
 12
90.0213488283
 22
176.4924244175
 32
0.0
 13
90.0213488283
 23
176.4924244175
 33
0.0
  0
LINE
  5
2B9
330
2B4
100
AcDbEntity
  8
VERMASSUNG
100
AcDbLine
 10
247.0213488283
 20
127.2953926342
 30
0.0
 11
247.0213488283
 21
177.0424244175
 31
0.0
  0
LINE
  5
2BA
330
2B4
100
AcDbEntity
  8
VERMASSUNG
100
AcDbLine
 10
87.0213488283
 20
164.9953926342
 30
0.0
 11
87.0213488283
 21
177.0424244175
 31
0.0
  0
LINE
  5
2BB
330
2B4
100
AcDbEntity
  8
VERMASSUNG
100
AcDbLine
 10
247.0213488283
 20
176.0424244175
 30
0.0
 11
87.0213488283
 21
176.0424244175
 31
0.0
  0
MTEXT
  5
2BC
330
2B4
100
AcDbEntity
  8
VERMASSUNG
100
AcDbMText
 10
164.812189091
 20
178.6205597806
 30
0.0
 40
2.0
 41
0.0
 71
     1
 72
     1
  1
160
  7
SLDTEXTSTYLE0
 73
     1
 44
1.0
  0
ENDBLK
  5
2B6
330
2B4
100
AcDbEntity
  8
0
100
AcDbBlockEnd
  0
BLOCK
  5
2BF
330
2BE
100
AcDbEntity
  8
0
100
AcDbBlockBegin
  2
*D7
 70
     1
 10
0.0
 20
0.0
 30
0.0
  3
*D7
  1

  0
SOLID
  5
2C1
330
2BE
100
AcDbEntity
  8
VERMASSUNG
100
AcDbTrace
 10
265.8009034311
 20
132.4953926342
 30
0.0
 11
265.3509034311
 21
129.4953926342
 31
0.0
 12
266.2509034311
 22
129.4953926342
 32
0.0
 13
266.2509034311
 23
129.4953926342
 33
0.0
  0
SOLID
  5
2C2
330
2BE
100
AcDbEntity
  8
VERMASSUNG
100
AcDbTrace
 10
265.8009034311
 20
98.4953926342
 30
0.0
 11
266.2509034311
 21
101.4953926342
 31
0.0
 12
265.3509034311
 22
101.4953926342
 32
0.0
 13
265.3509034311
 23
101.4953926342
 33
0.0
  0
LINE
  5
2C3
330
2BE
100
AcDbEntity
  8
VERMASSUNG
100
AcDbLine
 10
163.9713488283
 20
132.4953926342
 30
0.0
 11
266.8009034311
 21
132.4953926342
 31
0.0
  0
LINE
  5
2C4
330
2BE
100
AcDbEntity
  8
VERMASSUNG
100
AcDbLine
 10
163.9713488283
 20
98.4953926342
 30
0.0
 11
266.8009034311
 21
98.4953926342
 31
0.0
  0
LINE
  5
2C5
330
2BE
100
AcDbEntity
  8
VERMASSUNG
100
AcDbLine
 10
265.8009034311
 20
132.4953926342
 30
0.0
 11
265.8009034311
 21
98.4953926342
 31
0.0
  0
MTEXT
  5
2C6
330
2BE
100
AcDbEntity
  8
VERMASSUNG
100
AcDbMText
 10
263.2227679515
 20
112.1926907096
 30
0.0
 40
2.0
 41
0.0
 71
     1
 72
     1
  1
%%c
  7
SLDTEXTSTYLE0
 11
-7.044195017643634E-15
 21
1.0
 31
0.0
 73
     1
 44
1.0
  0
MTEXT
  5
2C7
330
2BE
100
AcDbEntity
  8
VERMASSUNG
100
AcDbMText
 10
263.222768068
 20
115.8002761145
 30
0.0
 40
2.0
 41
0.0
 71
     1
 72
     1
  1
34
  7
SLDTEXTSTYLE0
 11
-7.044195017643634E-15
 21
1.0
 31
0.0
 73
     1
 44
1.0
  0
ENDBLK
  5
2C0
330
2BE
100
AcDbEntity
  8
0
100
AcDbBlockEnd
  0
BLOCK
  5
2CB
330
2CA
100
AcDbEntity
  8
0
100
AcDbBlockBegin
  2
*D8
 70
     1
 10
0.0
 20
0.0
 30
0.0
  3
*D8
  1

  0
SOLID
  5
2CD
330
2CA
100
AcDbEntity
  8
VERMASSUNG
100
AcDbTrace
 10
272.0324699278
 20
136.6192028512
 30
0.0
 11
271.5824699278
 21
133.6192028512
 31
0.0
 12
272.4824699278
 22
133.6192028512
 32
0.0
 13
272.4824699278
 23
133.6192028512
 33
0.0
  0
SOLID
  5
2CE
330
2CA
100
AcDbEntity
  8
VERMASSUNG
100
AcDbTrace
 10
272.0324699278
 20
94.3715824172
 30
0.0
 11
272.4824699278
 21
97.3715824172
 31
0.0
 12
271.5824699278
 22
97.3715824172
 32
0.0
 13
271.5824699278
 23
97.3715824172
 33
0.0
  0
LINE
  5
2CF
330
2CA
100
AcDbEntity
  8
VERMASSUNG
100
AcDbLine
 10
119.5502961967
 20
136.6192028512
 30
0.0
 11
273.0324699278
 21
136.6192028512
 31
0.0
  0
LINE
  5
2D0
330
2CA
100
AcDbEntity
  8
VERMASSUNG
100
AcDbLine
 10
119.5502961967
 20
94.3715824172
 30
0.0
 11
273.0324699278
 21
94.3715824172
 31
0.0
  0
LINE
  5
2D1
330
2CA
100
AcDbEntity
  8
VERMASSUNG
100
AcDbLine
 10
272.0324699278
 20
136.6192028512
 30
0.0
 11
272.0324699278
 21
94.3715824172
 31
0.0
  0
MTEXT
  5
2D2
330
2CA
100
AcDbEntity
  8
VERMASSUNG
100
AcDbMText
 10
269.4543344483
 20
112.1926907096
 30
0.0
 40
2.0
 41
0.0
 71
     1
 72
     1
  1
%%c
  7
SLDTEXTSTYLE0
 11
-5.267838178243384E-15
 21
1.0
 31
0.0
 73
     1
 44
1.0
  0
MTEXT
  5
2D3
330
2CA
100
AcDbEntity
  8
VERMASSUNG
100
AcDbMText
 10
269.4543345647
 20
115.8002761145
 30
0.0
 40
2.0
 41
0.0
 71
     1
 72
     1
  1
42
  7
SLDTEXTSTYLE0
 11
-5.267838178243384E-15
 21
1.0
 31
0.0
 73
     1
 44
1.0
  0
ENDBLK
  5
2CC
330
2CA
100
AcDbEntity
  8
0
100
AcDbBlockEnd
  0
ENDSEC
  0
SECTION
  2
ENTITIES
  0
MTEXT
  5
45
330
1F
100
AcDbEntity
  8
KOPF_DÜNN
100
AcDbMText
 10
13.8892156294
 20
23.8442973028
 30
0.0
 40
3.0
 41
0.0
 71
     1
 72
     1
  1
HA0.Go1.K01.160
  7
SLDTEXTSTYLE0
 73
     1
 44
1.0
  0
MTEXT
  5
46
330
1F
100
AcDbEntity
  8
VERMASSUNG
100
AcDbMText
 10
13.9329988022
 20
28.8834360957
 30
0.0
 40
3.0
 41
0.0
 71
     1
 72
     1
  1
Gewindeschneidfutter_Tapping chuck
  7
SLDTEXTSTYLE0
 73
     1
 44
1.0
  0
MTEXT
  5
47
330
1F
100
AcDbEntity
  8
VERMASSUNG
100
AcDbMText
 10
98.8601118557
 20
13.8365368179
 30
0.0
 40
2.0
 41
0.0
 71
     1
 72
     1
  1
Datum: 12.10.2006
  7
SLDTEXTSTYLE0
 73
     1
 44
1.0
  0
MTEXT
  5
49
330
1F
100
AcDbEntity
  8
VERMASSUNG
100
AcDbMText
 10
13.933048693
 20
18.0482802738
 30
0.0
 40
2.0
 41
0.0
 71
     1
 72
     1
  1
DIN 69 893 HSK A 100
  7
SLDTEXTSTYLE1
 73
     1
 44
1.0
  0
MTEXT
  5
4A
330
1F
100
AcDbEntity
  8
VERMASSUNG
100
AcDbMText
 10
13.9808475933
 20
13.9090973692
 30
0.0
 40
2.0
 41
0.0
 71
     1
 72
     1
  1
Gewicht: 2767g
  7
SLDTEXTSTYLE0
 73
     1
 44
1.0
  0
ARC
  5
4B
330
1F
100
AcDbEntity
  8
0
  6
Continuous
 62
     7
370
    15
100
AcDbCircle
 10
87.5213488283
 20
65.9953926342
 30
0.0
 40
0.5000000000000142
100
AcDbArc
 50
180.0
 51
270.0
  0
ARC
  5
4C
330
1F
100
AcDbEntity
  8
0
  6
Continuous
 62
     7
370
    15
100
AcDbCircle
 10
87.5213488283
 20
164.9953926342
 30
0.0
 40
0.5000000000000142
100
AcDbArc
 50
90.0
 51
180.0
  0
LINE
  5
4D
330
1F
100
AcDbEntity
  8
0
  6
Continuous
 62
     7
370
    15
100
AcDbLine
 10
87.5213488521
 20
65.4953918891
 30
0.0
 11
91.9713488015
 21
65.4953918891
 31
0.0
  0
LINE
  5
4E
330
1F
100
AcDbEntity
  8
0
  6
Continuous
 62
     7
370
    15
100
AcDbLine
 10
92.0054217036
 20
165.4953933792
 30
0.0
 11
87.5213488521
 21
165.4953933792
 31
0.0
  0
ARC
  5
4F
330
1F
100
AcDbEntity
  8
0
  6
Continuous
 62
     7
370
    15
100
AcDbCircle
 10
86.1244119099
 20
76.8669073097
 30
0.0
 40
0.9962338214386793
100
AcDbArc
 50
25.7988228126
 51
90.0
  0
ARC
  5
50
330
1F
100
AcDbEntity
  8
0
  6
Continuous
 62
     7
370
    15
100
AcDbCircle
 10
86.1244119099
 20
154.1238779586
 30
0.0
 40
0.9962338214386793
100
AcDbArc
 50
270.0
 51
334.2011771874
  0
LINE
  5
51
330
1F
100
AcDbEntity
  8
0
  6
Continuous
 62
     7
370
    15
100
AcDbLine
 10
84.5213488842
 20
77.6131428318
 30
0.0
 11
85.3271949504
 21
77.8290681081
 31
0.0
  0
LINE
  5
52
330
1F
100
AcDbEntity
  8
0
  6
Continuous
 62
     7
370
    15
100
AcDbLine
 10
85.3271949504
 20
153.1617171603
 30
0.0
 11
84.5213488842
 21
153.3776424365
 31
0.0
  0
LINE
  5
53
330
1F
100
AcDbEntity
  8
0
  6
Continuous
 62
     7
370
    15
100
AcDbLine
 10
65.5406693163
 20
152.4267099338
 30
0.0
 11
47.2213493826
 21
151.5089064377
 31
0.0
  0
LINE
  5
54
330
1F
100
AcDbEntity
  8
0
  6
Continuous
 62
     7
370
    15
100
AcDbLine
 10
84.5213488842
 20
153.3776424365
 30
0.0
 11
78.4533096644
 21
153.0736326712
 31
0.0
  0
LINE
  5
55
330
1F
100
AcDbEntity
  8
0
  6
Continuous
 62
     7
370
    15
100
AcDbLine
 10
78.453432599
 20
77.9171451466
 30
0.0
 11
84.5213488842
 21
77.6131428318
 31
0.0
  0
LINE
  5
56
330
1F
100
AcDbEntity
  8
0
  6
Continuous
 62
     7
370
    15
100
AcDbLine
 10
52.2213483396
 20
79.2313791352
 30
0.0
 11
65.541300753
 21
78.5640455323
 31
0.0
  0
ARC
  5
57
330
1F
100
AcDbEntity
  8
0
  6
Continuous
 62
     7
370
    15
100
AcDbCircle
 10
85.5860140278
 20
76.8631411312
 30
0.0
 40
0.9999999999999858
100
AcDbArc
 50
90.0
 51
105.0
  0
ARC
  5
58
330
1F
100
AcDbEntity
  8
0
  6
Continuous
 62
     7
370
    15
100
AcDbCircle
 10
85.5860140278
 20
154.1276441372
 30
0.0
 40
1.0
100
AcDbArc
 50
255.0
 51
270.0
  0
LINE
  5
59
330
1F
100
AcDbEntity
  8
0
  6
Continuous
 62
     7
370
    15
100
AcDbLine
 10
85.5860140341
 20
77.8631396132
 30
0.0
 11
86.1244119055
 21
77.8631396132
 31
0.0
  0
LINE
  5
5A
330
1F
100
AcDbEntity
  8
0
  6
Continuous
 62
     7
370
    15
100
AcDbLine
 10
86.1244119055
 20
153.1276456552
 30
0.0
 11
85.5860140341
 21
153.1276456552
 31
0.0
  0
ARC
  5
5B
330
1F
100
AcDbEntity
  8
0
  6
Continuous
 62
     7
370
    15
100
AcDbCircle
 10
120.9713488283
 20
89.5777729281
 30
0.0
 40
5.000000000000002
100
AcDbArc
 50
106.5116637356
 51
180.0
  0
ARC
  5
5C
330
1F
100
AcDbEntity
  8
0
  6
Continuous
 62
     7
370
    15
100
AcDbCircle
 10
120.9713488283
 20
141.4130123403
 30
0.0
 40
5.000000000000002
100
AcDbArc
 50
180.0
 51
253.4883362644
  0
ARC
  5
5D
330
1F
100
AcDbEntity
  8
0
  6
Continuous
 62
     7
370
    15
100
AcDbCircle
 10
147.9713488283
 20
-1.5046073658
 30
0.0
 40
100.0
100
AcDbArc
 50
90.0
 51
106.5116637356
  0
ARC
  5
5E
330
1F
100
AcDbEntity
  8
0
  6
Continuous
 62
     7
370
    15
100
AcDbCircle
 10
147.9713488283
 20
232.4953926342
 30
0.0
 40
100.0
100
AcDbArc
 50
253.4883362644
 51
270.0
  0
LINE
  5
5F
330
1F
100
AcDbEntity
  8
0
  6
Continuous
 62
     7
370
    15
100
AcDbLine
 10
38.7713479044
 20
83.2453943329
 30
0.0
 11
50.3213497045
 21
83.2453943329
 31
0.0
  0
ARC
  5
60
330
1F
100
AcDbEntity
  8
0
  6
Continuous
 62
     7
370
    15
100
AcDbCircle
 10
210.9239246363
 20
489.4203926342
 30
0.0
 40
360.0
100
AcDbArc
 50
262.5059159715
 51
270.0
  0
ARC
  5
61
330
1F
100
AcDbEntity
  8
0
  6
Continuous
 62
     7
370
    15
100
AcDbCircle
 10
210.9239246363
 20
-258.4296073658
 30
0.0
 40
360.0000000000001
100
AcDbArc
 50
90.0
 51
97.4940840285
  0
LINE
  5
62
330
1F
100
AcDbEntity
  8
0
  6
Continuous
 62
     7
370
    15
100
AcDbLine
 10
147.9713486674
 20
98.4953917103
 30
0.0
 11
163.9713475647
 21
98.4953917103
 31
0.0
  0
LINE
  5
63
330
1F
100
AcDbEntity
  8
0
  6
Continuous
 62
     7
370
    15
100
AcDbLine
 10
163.9713475647
 20
132.4953935581
 30
0.0
 11
147.9713486674
 21
132.4953935581
 31
0.0
  0
ARC
  5
64
330
1F
100
AcDbEntity
  8
0
  6
Continuous
 62
     7
370
    15
100
AcDbCircle
 10
50.3213488283
 20
81.3453926342
 30
0.0
 40
1.900000000000006
100
AcDbArc
 50
35.6630613694
 51
90.0
  0
ARC
  5
65
330
1F
100
AcDbEntity
  8
0
  6
Continuous
 62
     7
370
    15
100
AcDbCircle
 10
45.3213488283
 20
149.6453926342
 30
0.0
 40
1.900000000000034
100
AcDbArc
 50
270.0
 51
310.9212832533
  0
LINE
  5
66
330
1F
100
AcDbEntity
  8
0
  6
Continuous
 62
     7
370
    15
100
AcDbLine
 10
38.7713479044
 20
147.7453909355
 30
0.0
 11
37.1720323505
 21
146.1460772442
 31
0.0
  0
LINE
  5
67
330
1F
100
AcDbEntity
  8
0
  6
Continuous
 62
     7
370
    15
100
AcDbLine
 10
37.1728705409
 20
84.8438716965
 30
0.0
 11
38.7713479044
 21
83.2453943329
 31
0.0
  0
LINE
  5
68
330
1F
100
AcDbEntity
  8
0
  6
Continuous
 62
     7
370
    15
100
AcDbLine
 10
45.3213470223
 20
147.7453909355
 30
0.0
 11
38.7713479044
 21
147.7453909355
 31
0.0
  0
LINE
  5
69
330
1F
100
AcDbEntity
  8
0
  6
Continuous
 62
     7
370
    15
100
AcDbLine
 10
216.9713506641
 20
129.4203927281
 30
0.0
 11
210.9239230099
 21
129.4203927281
 31
0.0
  0
LINE
  5
6A
330
1F
100
AcDbEntity
  8
0
  6
Continuous
 62
     7
370
    15
100
AcDbLine
 10
210.9239230099
 20
101.5703925403
 30
0.0
 11
216.9713506641
 21
101.5703925403
 31
0.0
  0
LINE
  5
6B
330
1F
100
AcDbEntity
  8
0
  6
Continuous
 62
     7
370
    15
100
AcDbLine
 10
247.021345252
 20
127.2953930782
 30
0.0
 11
246.4713433924
 21
127.8453930753
 31
0.0
  0
LINE
  5
6C
330
1F
100
AcDbEntity
  8
0
  6
Continuous
 62
     7
370
    15
100
AcDbLine
 10
246.4713433924
 20
103.1453921931
 30
0.0
 11
247.021345252
 21
103.6953921901
 31
0.0
  0
ARC
  5
6D
330
1F
100
AcDbEntity
  8
0
  6
Continuous
 62
     7
370
    15
100
AcDbCircle
 10
237.8177589898
 20
131.6953926342
 30
0.0
 40
0.4000000000000057
100
AcDbArc
 50
210.0
 51
270.0
  0
ARC
  5
6E
330
1F
100
AcDbEntity
  8
0
  6
Continuous
 62
     7
370
    15
100
AcDbCircle
 10
237.8177589898
 20
99.2953926342
 30
0.0
 40
0.4000000000000057
100
AcDbArc
 50
90.0
 51
150.0
  0
LINE
  5
6F
330
1F
100
AcDbEntity
  8
0
  6
Continuous
 62
     7
370
    15
100
AcDbLine
 10
237.4713549557
 20
131.4953933941
 30
0.0
 11
225.971354002
 21
131.4953933941
 31
0.0
  0
LINE
  5
70
330
1F
100
AcDbEntity
  8
0
  6
Continuous
 62
     7
370
    15
100
AcDbLine
 10
225.971354002
 20
99.4953918742
 30
0.0
 11
237.4713549557
 21
99.4953918742
 31
0.0
  0
LINE
  5
71
330
1F
100
AcDbEntity
  8
0
  6
Continuous
 62
     7
370
    15
100
AcDbLine
 10
245.471356267
 20
131.4953933941
 30
0.0
 11
241.9713417234
 21
131.4953933941
 31
0.0
  0
LINE
  5
72
330
1F
100
AcDbEntity
  8
0
  6
Continuous
 62
     7
370
    15
100
AcDbLine
 10
241.9713417234
 20
99.4953918742
 30
0.0
 11
245.471356267
 21
99.4953918742
 31
0.0
  0
ARC
  5
73
330
1F
100
AcDbEntity
  8
0
  6
Continuous
 62
     7
370
    15
100
AcDbCircle
 10
245.4713488283
 20
130.4953926342
 30
0.0
 40
1.0
100
AcDbArc
 50
0.0
 51
90.0
  0
ARC
  5
74
330
1F
100
AcDbEntity
  8
0
  6
Continuous
 62
     7
370
    15
100
AcDbCircle
 10
245.4713488283
 20
100.4953926342
 30
0.0
 40
1.0
100
AcDbArc
 50
270.0
 51
0.0
  0
ARC
  5
75
330
1F
100
AcDbEntity
  8
0
  6
Continuous
 62
     7
370
    15
100
AcDbCircle
 10
217.9713488283
 20
130.4953926342
 30
0.0
 40
1.0
100
AcDbArc
 50
90.0
 51
180.0
  0
ARC
  5
76
330
1F
100
AcDbEntity
  8
0
  6
Continuous
 62
     7
370
    15
100
AcDbCircle
 10
217.9713488283
 20
100.4953926342
 30
0.0
 40
1.0
100
AcDbArc
 50
180.0
 51
270.0
  0
ARC
  5
77
330
1F
100
AcDbEntity
  8
0
  6
Continuous
 62
     7
370
    15
100
AcDbCircle
 10
221.8177589898
 20
131.6953926342
 30
0.0
 40
0.3999999999999927
100
AcDbArc
 50
210.0
 51
270.0
  0
ARC
  5
78
330
1F
100
AcDbEntity
  8
0
  6
Continuous
 62
     7
370
    15
100
AcDbCircle
 10
221.8177589898
 20
99.2953926342
 30
0.0
 40
0.400000000000014
100
AcDbArc
 50
90.0
 51
150.0
  0
ARC
  5
79
330
1F
100
AcDbEntity
  8
0
  6
Continuous
 62
     7
370
    15
100
AcDbCircle
 10
241.6249386668
 20
131.6953926342
 30
0.0
 40
0.3999999999999927
100
AcDbArc
 50
270.0
 51
330.0
  0
ARC
  5
7A
330
1F
100
AcDbEntity
  8
0
  6
Continuous
 62
     7
370
    15
100
AcDbCircle
 10
241.6249386668
 20
99.2953926342
 30
0.0
 40
0.4000000000000069
100
AcDbArc
 50
30.0
 51
90.0
  0
LINE
  5
7B
330
1F
100
AcDbEntity
  8
0
  6
Continuous
 62
     7
370
    15
100
AcDbLine
 10
221.4713523331
 20
131.4953933941
 30
0.0
 11
217.9713526907
 21
131.4953933941
 31
0.0
  0
LINE
  5
7C
330
1F
100
AcDbEntity
  8
0
  6
Continuous
 62
     7
370
    15
100
AcDbLine
 10
217.9713526907
 20
99.4953918742
 30
0.0
 11
221.4713523331
 21
99.4953918742
 31
0.0
  0
ARC
  5
7D
330
1F
100
AcDbEntity
  8
0
  6
Continuous
 62
     7
370
    15
100
AcDbCircle
 10
225.6249386668
 20
131.6953926342
 30
0.0
 40
0.4000000000000057
100
AcDbArc
 50
270.0
 51
330.0
  0
ARC
  5
7E
330
1F
100
AcDbEntity
  8
0
  6
Continuous
 62
     7
370
    15
100
AcDbCircle
 10
225.6249386668
 20
99.2953926342
 30
0.0
 40
0.4000000000000057
100
AcDbArc
 50
30.0
 51
90.0
  0
LINE
  5
7F
330
1F
100
AcDbEntity
  8
0
  6
Continuous
 62
     7
370
    15
100
AcDbLine
 10
241.6249344292
 20
131.2953918712
 30
0.0
 11
237.81776225
 21
131.2953918712
 31
0.0
  0
LINE
  5
80
330
1F
100
AcDbEntity
  8
0
  6
Continuous
 62
     7
370
    15
100
AcDbLine
 10
237.81776225
 20
99.6953933971
 30
0.0
 11
241.6249344292
 21
99.6953933971
 31
0.0
  0
LINE
  5
81
330
1F
100
AcDbEntity
  8
0
  6
Continuous
 62
     7
370
    15
100
AcDbLine
 10
225.6249318066
 20
131.2953918712
 30
0.0
 11
221.8177596273
 21
131.2953918712
 31
0.0
  0
LINE
  5
82
330
1F
100
AcDbEntity
  8
0
  6
Continuous
 62
     7
370
    15
100
AcDbLine
 10
221.8177596273
 20
99.6953933971
 30
0.0
 11
225.6249318066
 21
99.6953933971
 31
0.0
  0
LINE
  5
83
330
1F
100
AcDbEntity
  8
0
  6
Continuous
 62
     7
370
    15
100
AcDbLine
 10
114.9713488462
 20
66.7203977244
 30
0.0
 11
110.283378342
 21
66.7203977244
 31
0.0
  0
LINE
  5
84
330
1F
100
AcDbEntity
  8
0
  6
Continuous
 62
     7
370
    15
100
AcDbLine
 10
110.283378342
 20
66.7203977244
 30
0.0
 11
110.283378342
 21
146.845394327
 31
0.0
  0
LINE
  5
85
330
1F
100
AcDbEntity
  8
0
  6
Continuous
 62
     7
370
    15
100
AcDbLine
 10
110.283378342
 20
146.845394327
 30
0.0
 11
114.9713488462
 21
146.845394327
 31
0.0
  0
LINE
  5
86
330
1F
100
AcDbEntity
  8
0
  6
Continuous
 62
     7
370
    15
100
AcDbLine
 10
87.0213488283
 20
65.9953929024
 30
0.0
 11
87.0213488283
 21
164.995392366
 31
0.0
  0
LINE
  5
87
330
1F
100
AcDbEntity
  8
0
  6
Continuous
 62
     7
370
    15
100
AcDbLine
 10
91.9713488015
 20
146.845394327
 30
0.0
 11
103.7593202832
 21
146.845394327
 31
0.0
  0
LINE
  5
88
330
1F
100
AcDbEntity
  8
0
  6
Continuous
 62
     7
370
    15
100
AcDbLine
 10
103.7593202832
 20
66.7203977244
 30
0.0
 11
103.7593202832
 21
146.845394327
 31
0.0
  0
LINE
  5
89
330
1F
100
AcDbEntity
  8
0
  6
Continuous
 62
     7
370
    15
100
AcDbLine
 10
103.7593202832
 20
66.7203977244
 30
0.0
 11
101.971348578
 21
66.7203977244
 31
0.0
  0
SPLINE
  5
8A
330
1F
100
AcDbEntity
  8
0
  6
Continuous
 62
     7
370
    15
100
AcDbSpline
210
0.0
220
0.0
230
1.0
 70
     8
 71
     3
 72
    30
 73
    26
 74
     0
 42
0.00000001
 43
0.00000001
 40
0.0
 40
0.0
 40
0.0
 40
0.0
 40
0.1250000000000002
 40
0.1250000000000002
 40
0.1875000000000003
 40
0.1875000000000003
 40
0.2500000000000004
 40
0.2500000000000004
 40
0.3750000000000001
 40
0.3750000000000001
 40
0.4374999999999998
 40
0.4374999999999998
 40
0.4999999999999996
 40
0.4999999999999996
 40
0.6249999999999996
 40
0.6249999999999996
 40
0.6874999999999997
 40
0.6874999999999997
 40
0.7499999999999997
 40
0.7499999999999997
 40
0.8124999999999998
 40
0.8124999999999998
 40
0.8749999999999999
 40
0.8749999999999999
 40
1.0
 40
1.0
 40
1.0
 40
1.0
 10
101.97134882832
 20
66.72039904115951
 30
0.0
 10
101.308604134475
 20
66.72039904115951
 30
0.0
 10
100.6573482753593
 20
66.7055589645707
 30
0.0
 10
99.696897737101
 20
66.66318940034108
 30
0.0
 10
99.37950629386803
 20
66.6457112975619
 30
0.0
 10
98.75034279231318
 20
66.6043830110096
 30
0.0
 10
98.43819460587144
 20
66.5804577375519
 30
0.0
 10
97.53088730402321
 20
66.50165122108498
 30
0.0
 10
96.95746234638194
 20
66.43934520110852
 30
0.0
 10
96.14358547680727
 20
66.33621588086916
 30
0.0
 10
95.87877928023741
 20
66.30003196182265
 30
0.0
 10
95.37187186942309
 20
66.22623717762215
 30
0.0
 10
95.1304777180696
 20
66.1887633188505
 30
0.0
 10
94.44133624593725
 20
66.07605137551076
 30
0.0
 10
94.02828143107301
 20
66.00051527803699
 30
0.0
 10
93.48012661169795
 20
65.89212202101949
 30
0.0
 10
93.31066400435236
 20
65.85704978935622
 30
0.0
 10
93.00264675633699
 20
65.79081432875638
 30
0.0
 10
92.86326673572863
 20
65.75948763200165
 30
0.0
 10
92.6134812231019
 20
65.70107886042074
 30
0.0
 10
92.50307511044798
 20
65.67399562523788
 30
0.0
 10
92.31181725681024
 20
65.62473587062428
 30
0.0
 10
92.23069773852596
 20
65.60247389081664
 30
0.0
 10
92.03655081841755
 20
65.54490698364837
 30
0.0
 10
91.97134882832
 20
65.51864737886237
 30
0.0
 10
91.97134882832002
 20
65.50539363438834
 30
0.0
  0
LINE
  5
8B
330
1F
100
AcDbEntity
  8
0
  6
Continuous
 62
     7
370
    15
100
AcDbLine
 10
91.9713488015
 20
65.5053942936
 30
0.0
 11
91.9713488015
 21
65.4953918891
 31
0.0
  0
SPLINE
  5
8C
330
1F
100
AcDbEntity
  8
0
  6
Continuous
 62
     7
370
    15
100
AcDbSpline
210
0.0
220
0.0
230
1.0
 70
     8
 71
     3
 72
    17
 73
    13
 74
     0
 42
0.00000001
 43
0.00000001
 40
0.0
 40
0.0
 40
0.0
 40
0.0
 40
0.1043843958185158
 40
0.2118345569819801
 40
0.3162081801235555
 40
0.4235375330682647
 40
0.5292275935501746
 40
0.6379275752951962
 40
0.7444714855043735
 40
0.8541836194561564
 40
0.959308052615968
 40
1.0
 40
1.0
 40
1.0
 40
1.0
 10
101.9713485779805
 20
164.4851877825609
 30
0.0
 10
101.4234100374669
 20
164.4905552228937
 30
0.0
 10
100.3114400243926
 20
164.5014477450578
 30
0.0
 10
98.69858469187007
 20
164.5866299288757
 30
0.0
 10
97.16507154113236
 20
164.7130004322072
 30
0.0
 10
95.77405065275809
 20
164.8699043037161
 30
0.0
 10
94.53853353646
 20
165.0415997011518
 30
0.0
 10
93.5151783906036
 20
165.2069445553618
 30
0.0
 10
92.71483571774462
 20
165.3506488531938
 30
0.0
 10
92.20450416498457
 20
165.4488128491257
 30
0.0
 10
91.96459540652515
 20
165.4967341635984
 30
0.0
 10
91.99651431829459
 20
165.4903676555847
 30
0.0
 10
92.00542170355152
 20
165.4885909991613
 30
0.0
  0
LINE
  5
8D
330
1F
100
AcDbEntity
  8
0
  6
Continuous
 62
     7
370
    15
100
AcDbLine
 10
103.7593202832
 20
164.4851877826
 30
0.0
 11
101.971348578
 21
164.4851877826
 31
0.0
  0
LINE
  5
8E
330
1F
100
AcDbEntity
  8
0
  6
Continuous
 62
     7
370
    15
100
AcDbLine
 10
103.7593202832
 20
154.4463537174
 30
0.0
 11
103.7593202832
 21
164.4851877826
 31
0.0
  0
LINE
  5
8F
330
1F
100
AcDbEntity
  8
0
  6
Continuous
 62
     7
370
    15
100
AcDbLine
 10
101.6793156209
 20
154.4463537174
 30
0.0
 11
103.7593202832
 21
154.4463537174
 31
0.0
  0
SPLINE
  5
90
330
1F
100
AcDbEntity
  8
0
  6
Continuous
 62
     7
370
    15
100
AcDbSpline
210
0.0
220
0.0
230
1.0
 70
     8
 71
     3
 72
    22
 73
    18
 74
     0
 42
0.00000001
 43
0.00000001
 40
0.0
 40
0.0
 40
0.0
 40
0.0
 40
0.2500000000000002
 40
0.2500000000000002
 40
0.3750000000000003
 40
0.3750000000000003
 40
0.5000000000000004
 40
0.5000000000000004
 40
0.6250000000000004
 40
0.6250000000000004
 40
0.7500000000000004
 40
0.7500000000000004
 40
0.8750000000000004
 40
0.8750000000000004
 40
0.9375000000000002
 40
0.9375000000000002
 40
1.0
 40
1.0
 40
1.0
 40
1.0
 10
91.97134882832
 20
146.8453926341883
 30
0.0
 10
92.1740737842391
 20
147.8646389760529
 30
0.0
 10
92.48881750603448
 20
148.8237471259922
 30
0.0
 10
93.19687297570545
 20
150.1662262035015
 30
0.0
 10
93.47533560592309
 20
150.6004347862415
 30
0.0
 10
94.11410301256029
 20
151.4120625017436
 30
0.0
 10
94.47451669235049
 20
151.7913427946804
 30
0.0
 10
95.29204892433978
 20
152.4943013737015
 30
0.0
 10
95.7532169076269
 20
152.8193301914021
 30
0.0
 10
96.7512071541107
 20
153.384345514793
 30
0.0
 10
97.29096634810298
 20
153.6280491089995
 30
0.0
 10
98.4655593121343
 20
154.0322490366444
 30
0.0
 10
99.07729549812618
 20
154.18468622969
 30
0.0
 10
100.0292047229879
 20
154.3400137772987
 30
0.0
 10
100.3524378872485
 20
154.3795185573487
 30
0.0
 10
101.0115010585238
 20
154.4328276780174
 30
0.0
 10
101.3455650690978
 20
154.4463553950752
 30
0.0
 10
101.6793156764993
 20
154.4463553950752
 30
0.0
  0
SPLINE
  5
91
330
1F
100
AcDbEntity
  8
0
  6
Continuous
 62
     7
370
    15
100
AcDbSpline
210
0.0
220
0.0
230
1.0
 70
     8
 71
     3
 72
    80
 73
    76
 74
     0
 42
0.00000001
 43
0.00000001
 40
-0.0312499999999993
 40
-0.0312499999999993
 40
0.0
 40
0.0
 40
0.03125
 40
0.03125
 40
0.046875
 40
0.046875
 40
0.0625
 40
0.0625
 40
0.09375
 40
0.09375
 40
0.1250000000000001
 40
0.1250000000000001
 40
0.1562500000000001
 40
0.1562500000000001
 40
0.1875000000000001
 40
0.1875000000000001
 40
0.2187500000000002
 40
0.2187500000000002
 40
0.2500000000000002
 40
0.2500000000000002
 40
0.2812500000000003
 40
0.2812500000000003
 40
0.3125000000000003
 40
0.3125000000000003
 40
0.3281250000000004
 40
0.3281250000000004
 40
0.3437500000000006
 40
0.3437500000000006
 40
0.3750000000000011
 40
0.3750000000000011
 40
0.4062500000000016
 40
0.4062500000000016
 40
0.4218750000000018
 40
0.4218750000000018
 40
0.437500000000002
 40
0.437500000000002
 40
0.4687500000000023
 40
0.4687500000000023
 40
0.5000000000000027
 40
0.5000000000000027
 40
0.531250000000003
 40
0.531250000000003
 40
0.5625000000000033
 40
0.5625000000000033
 40
0.5937500000000037
 40
0.5937500000000037
 40
0.6250000000000039
 40
0.6250000000000039
 40
0.6562500000000042
 40
0.6562500000000042
 40
0.6875000000000046
 40
0.6875000000000046
 40
0.7031250000000047
 40
0.7031250000000047
 40
0.7187500000000048
 40
0.7187500000000048
 40
0.7500000000000048
 40
0.7500000000000048
 40
0.7812500000000048
 40
0.7812500000000048
 40
0.7968750000000044
 40
0.7968750000000044
 40
0.8125000000000041
 40
0.8125000000000041
 40
0.8437500000000034
 40
0.8437500000000034
 40
0.8750000000000027
 40
0.8750000000000027
 40
0.906250000000002
 40
0.906250000000002
 40
0.9375000000000013
 40
0.9375000000000013
 40
0.9687500000000007
 40
0.9687500000000007
 40
1.0
 40
1.0
 40
1.03125
 40
1.03125
 10
96.35189414109632
 20
158.9100220978196
 30
0.0
 10
95.6908035155437
 20
158.9100220978196
 30
0.0
 10
95.36582338629208
 20
158.9262303292018
 30
0.0
 10
94.88634997504566
 20
158.9735949612213
 30
0.0
 10
94.72786815720485
 20
158.993249173112
 30
0.0
 10
94.41364862470057
 20
159.0403603293046
 30
0.0
 10
94.25752834102016
 20
159.0679416487993
 30
0.0
 10
93.8034743120636
 20
159.1604774355931
 30
0.0
 10
93.51637092912377
 20
159.2355478691896
 30
0.0
 10
92.97301637309674
 20
159.4107861778002
 30
0.0
 10
92.71591276189118
 20
159.5117874756384
 30
0.0
 10
92.25500650695237
 20
159.7291436740993
 30
0.0
 10
92.04810879773741
 20
159.8463080058715
 30
0.0
 10
91.6825834837452
 20
160.0963779301002
 30
0.0
 10
91.52737796161925
 20
160.2273240188592
 30
0.0
 10
91.27794757501952
 20
160.4930589625716
 30
0.0
 10
91.18185761923436
 20
160.6298125558825
 30
0.0
 10
91.05333877004081
 20
160.9038781307215
 30
0.0
 10
91.021527899863
 20
161.0388182211903
 30
0.0
 10
91.02117125008974
 20
161.3042898582591
 30
0.0
 10
91.05366850228681
 20
161.4361143354003
 30
0.0
 10
91.1812939760013
 20
161.6855639350207
 30
0.0
 10
91.27572237705319
 20
161.8039966269487
 30
0.0
 10
91.46358319703874
 20
161.9728658240428
 30
0.0
 10
91.53441119584194
 20
162.027951819163
 30
0.0
 10
91.6891330878072
 20
162.1332046476514
 30
0.0
 10
91.77310955799062
 20
162.1835398764117
 30
0.0
 10
92.04443322763503
 20
162.3281157089498
 30
0.0
 10
92.25098244623737
 20
162.4159772953668
 30
0.0
 10
92.71759258642639
 20
162.5756983883663
 30
0.0
 10
92.96995815605185
 20
162.6449366848335
 30
0.0
 10
93.37585949773057
 20
162.7347240740633
 30
0.0
 10
93.51576011520805
 20
162.7622900361496
 30
0.0
 10
93.80498405045498
 20
162.8127808370758
 30
0.0
 10
93.95482350674425
 20
162.8357442759266
 30
0.0
 10
94.40894007635504
 20
162.8963747923454
 30
0.0
 10
94.72059129509191
 20
162.9264488211412
 30
0.0
 10
95.36158776000427
 20
162.9670384083999
 30
0.0
 10
95.69311538795644
 20
162.9773506386159
 30
0.0
 10
96.34590643302793
 20
162.9774262057817
 30
0.0
 10
96.67044263805975
 20
162.9675246003139
 30
0.0
 10
97.31571208747616
 20
162.9270380697887
 30
0.0
 10
97.63145509363888
 20
162.896576769904
 30
0.0
 10
98.2333443886226
 20
162.8164260984674
 30
0.0
 10
98.52409361943405
 20
162.7661438666603
 30
0.0
 10
99.07100541111856
 20
162.6454736838873
 30
0.0
 10
99.32278277495547
 20
162.5762498247173
 30
0.0
 10
99.7841707675766
 20
162.4187980970766
 30
0.0
 10
99.9954400471747
 20
162.3294496224029
 30
0.0
 10
100.3587443995509
 20
162.136201751702
 30
0.0
 10
100.5125510479937
 20
162.0320737598228
 30
0.0
 10
100.7011705175911
 20
161.8634493736393
 30
0.0
 10
100.7572010038002
 20
161.8048209719643
 30
0.0
 10
100.8527747655364
 20
161.6853660571381
 30
0.0
 10
100.8925376825614
 20
161.6244462682999
 30
0.0
 10
100.9883094328735
 20
161.438041542126
 30
0.0
 10
101.0210322719996
 20
161.308928724331
 30
0.0
 10
101.0216608583287
 20
161.0402718013752
 30
0.0
 10
100.9894747135939
 20
160.9049010606183
 30
0.0
 10
100.8945640117383
 20
160.7013507523824
 30
0.0
 10
100.8550972283394
 20
160.633378828319
 30
0.0
 10
100.7601672296185
 20
160.4972866051881
 30
0.0
 10
100.7044104018551
 20
160.4289365049786
 30
0.0
 10
100.5164702838852
 20
160.2282334919365
 30
0.0
 10
100.3631088141691
 20
160.0988452181238
 30
0.0
 10
100.0008445792887
 20
159.850179786074
 30
0.0
 10
99.78999610582278
 20
159.7303701437058
 30
0.0
 10
99.32932613550386
 20
159.5128478561331
 30
0.0
 10
99.07795175592004
 20
159.4137627562972
 30
0.0
 10
98.53204386902192
 20
159.2370902823804
 30
0.0
 10
98.24122129437069
 20
159.1610331942463
 30
0.0
 10
97.63989467959067
 20
159.0381882168933
 30
0.0
 10
97.32537609497827
 20
158.9904820918402
 30
0.0
 10
96.67879463885832
 20
158.9262335567206
 30
0.0
 10
96.35189414109632
 20
158.9100220978196
 30
0.0
 10
95.6908035155437
 20
158.9100220978196
 30
0.0
  0
SPLINE
  5
92
330
1F
100
AcDbEntity
  8
0
  6
Continuous
 62
     7
370
    15
100
AcDbSpline
210
0.0
220
0.0
230
1.0
 70
     8
 71
     3
 72
     8
 73
     4
 74
     0
 42
0.00000001
 43
0.00000001
 40
0.0
 40
0.0
 40
0.0
 40
0.0
 40
1.0
 40
1.0
 40
1.0
 40
1.0
 10
110.2833778492414
 20
66.72039904115951
 30
0.0
 10
109.8322731198412
 20
67.52135897297943
 30
0.0
 10
109.3815752925978
 20
68.32254898454008
 30
0.0
 10
108.93134882832
 20
69.12400434716484
 30
0.0
  0
LINE
  5
93
330
1F
100
AcDbEntity
  8
0
  6
Continuous
 62
     7
370
    15
100
AcDbLine
 10
108.9313494208
 20
69.1240034538
 30
0.0
 11
108.9313494208
 21
146.845394327
 31
0.0
  0
SPLINE
  5
94
330
1F
100
AcDbEntity
  8
0
  6
Continuous
 62
     7
370
    15
100
AcDbSpline
210
0.0
220
0.0
230
1.0
 70
    24
 71
     3
 72
     8
 73
     4
 74
     0
 42
0.00000001
 43
0.00000001
 40
0.0
 40
0.0
 40
0.0
 40
0.0
 40
1.0
 40
1.0
 40
1.0
 40
1.0
 10
108.93134882832
 20
146.8453926341883
 30
0.0
 10
109.375561710674
 20
146.8453926341883
 30
0.0
 10
109.8265762769132
 20
146.8453926341883
 30
0.0
 10
110.2833778492414
 20
146.8453926341883
 30
0.0
  0
LINE
  5
95
330
1F
100
AcDbEntity
  8
0
  6
Continuous
 62
     7
370
    15
100
AcDbLine
 10
115.9713490101
 20
67.7460483747
 30
0.0
 11
115.9713490101
 21
146.845394327
 31
0.0
  0
SPLINE
  5
96
330
1F
100
AcDbEntity
  8
0
  6
Continuous
 62
     7
370
    15
100
AcDbSpline
210
0.0
220
0.0
230
1.0
 70
     8
 71
     3
 72
    14
 73
    10
 74
     0
 42
0.00000001
 43
0.00000001
 40
0.0
 40
0.0
 40
0.0
 40
0.0
 40
0.25
 40
0.25
 40
0.5
 40
0.5
 40
0.75
 40
0.75
 40
1.0
 40
1.0
 40
1.0
 40
1.0
 10
115.97134882832
 20
67.746047088935
 30
0.0
 10
115.97134882832
 20
67.61262139288046
 30
0.0
 10
115.9460377284092
 20
67.48077358503612
 30
0.0
 10
115.8477029645644
 20
67.234251036342
 30
0.0
 10
115.7745589603083
 20
67.12044584810148
 30
0.0
 10
115.5911208992127
 20
66.92998867115419
 30
0.0
 10
115.4794345648741
 20
66.85235380730428
 30
0.0
 10
115.2369311345678
 20
66.7480623971918
 30
0.0
 10
115.1035567058735
 20
66.72039904115945
 30
0.0
 10
114.97134882832
 20
66.72039904115947
 30
0.0
  0
SPLINE
  5
97
330
1F
100
AcDbEntity
  8
0
  6
Continuous
 62
     7
370
    15
100
AcDbSpline
210
0.0
220
0.0
230
1.0
 70
    24
 71
     3
 72
    12
 73
     8
 74
     0
 42
0.00000001
 43
0.00000001
 40
0.0
 40
0.0
 40
0.0
 40
0.0
 40
0.2500000000000032
 40
0.2500000000000032
 40
0.5000000000000064
 40
0.5000000000000064
 40
1.0
 40
1.0
 40
1.0
 40
1.0
 10
114.97134882832
 20
146.8453926341883
 30
0.0
 10
115.123439065265
 20
146.8453926341883
 30
0.0
 10
115.2718983263404
 20
146.8453926341883
 30
0.0
 10
115.5293019586061
 20
146.8453926341883
 30
0.0
 10
115.6384067064481
 20
146.8453926341883
 30
0.0
 10
115.8924661828556
 20
146.8453926341883
 30
0.0
 10
115.97134882832
 20
146.8453926341883
 30
0.0
 10
115.97134882832
 20
146.8453926341883
 30
0.0
  0
LINE
  5
98
330
1F
100
AcDbEntity
  8
0
  6
Continuous
 62
     7
370
    15
100
AcDbLine
 10
105.1113492044
 20
69.1240034538
 30
0.0
 11
105.1113492044
 21
146.845394327
 31
0.0
  0
SPLINE
  5
99
330
1F
100
AcDbEntity
  8
0
  6
Continuous
 62
     7
370
    15
100
AcDbSpline
210
0.0
220
0.0
230
1.0
 70
     8
 71
     3
 72
     8
 73
     4
 74
     0
 42
0.00000001
 43
0.00000001
 40
0.0
 40
0.0
 40
0.0
 40
0.0
 40
1.0
 40
1.0
 40
1.0
 40
1.0
 10
105.11134882832
 20
69.12400434716484
 30
0.0
 10
104.6611223640422
 20
68.32254898454008
 30
0.0
 10
104.2104245367989
 20
67.52135897297943
 30
0.0
 10
103.7593198073986
 20
66.72039904115951
 30
0.0
  0
SPLINE
  5
9A
330
1F
100
AcDbEntity
  8
0
  6
Continuous
 62
     7
370
    15
100
AcDbSpline
210
0.0
220
0.0
230
1.0
 70
    24
 71
     3
 72
     8
 73
     4
 74
     0
 42
0.00000001
 43
0.00000001
 40
0.0
 40
0.0
 40
0.0
 40
0.0
 40
1.0
 40
1.0
 40
1.0
 40
1.0
 10
103.7593198073986
 20
146.8453926341883
 30
0.0
 10
104.2161213797269
 20
146.8453926341883
 30
0.0
 10
104.6671359459661
 20
146.8453926341883
 30
0.0
 10
105.11134882832
 20
146.8453926341883
 30
0.0
  0
SPLINE
  5
9B
330
1F
100
AcDbEntity
  8
0
  6
Continuous
 62
     7
370
    15
100
AcDbSpline
210
0.0
220
0.0
230
1.0
 70
     8
 71
     3
 72
    12
 73
     8
 74
     0
 42
0.00000001
 43
0.00000001
 40
0.0
 40
0.0
 40
0.0
 40
0.0
 40
0.250000000000003
 40
0.250000000000003
 40
0.500000000000006
 40
0.500000000000006
 40
1.0
 40
1.0
 40
1.0
 40
1.0
 10
105.91134882832
 20
70.85571717613867
 30
0.0
 10
105.8055881749711
 20
70.85571717613865
 30
0.0
 10
105.6976005467881
 20
70.83317767013826
 30
0.0
 10
105.5030058815225
 20
70.74860703814292
 30
0.0
 10
105.4141339686837
 20
70.6861253853841
 30
0.0
 10
105.1949416763578
 20
70.4567364339119
 30
0.0
 10
105.11134882832
 20
70.24415309638948
 30
0.0
 10
105.11134882832
 20
70.03221385179326
 30
0.0
  0
SPLINE
  5
9C
330
1F
100
AcDbEntity
  8
0
  6
Continuous
 62
     7
370
    15
100
AcDbSpline
210
0.0
220
0.0
230
1.0
 70
    24
 71
     3
 72
    14
 73
    10
 74
     0
 42
0.00000001
 43
0.00000001
 40
0.0
 40
0.0
 40
0.0
 40
0.0
 40
0.25
 40
0.25
 40
0.5
 40
0.5
 40
0.75
 40
0.75
 40
1.0
 40
1.0
 40
1.0
 40
1.0
 10
105.11134882832
 20
146.8453926341883
 30
0.0
 10
105.11134882832
 20
146.8453926341883
 30
0.0
 10
105.127063148786
 20
146.8453926341883
 30
0.0
 10
105.1907471272543
 20
146.8453926341883
 30
0.0
 10
105.2393503216648
 20
146.8453926341883
 30
0.0
 10
105.3720338440904
 20
146.8453926341883
 30
0.0
 10
105.457135948401
 20
146.8453926341883
 30
0.0
 10
105.6635781833111
 20
146.8453926341883
 30
0.0
 10
105.7876591249341
 20
146.8453926341883
 30
0.0
 10
105.91134882832
 20
146.8453926341883
 30
0.0
  0
SPLINE
  5
9D
330
1F
100
AcDbEntity
  8
0
  6
Continuous
 62
     7
370
    15
100
AcDbSpline
210
0.0
220
0.0
230
1.0
 70
     8
 71
     3
 72
    14
 73
    10
 74
     0
 42
0.00000001
 43
0.00000001
 40
0.0
 40
0.0
 40
0.0
 40
0.0
 40
0.25
 40
0.25
 40
0.5
 40
0.5
 40
0.75
 40
0.75
 40
1.0
 40
1.0
 40
1.0
 40
1.0
 10
108.93134882832
 20
70.03221385179343
 30
0.0
 10
108.93134882832
 20
70.1392579327878
 30
0.0
 10
108.9112311411618
 20
70.24449307303024
 30
0.0
 10
108.8327399518962
 20
70.44234355987794
 30
0.0
 10
108.774583327095
 20
70.53339532344286
 30
0.0
 10
108.628068071477
 20
70.68656141736764
 30
0.0
 10
108.5394255228359
 20
70.74885586357705
 30
0.0
 10
108.3437022000356
 20
70.83364964911304
 30
0.0
 10
108.2384710089646
 20
70.85571717613865
 30
0.0
 10
108.13134882832
 20
70.85571717613867
 30
0.0
  0
SPLINE
  5
9E
330
1F
100
AcDbEntity
  8
0
  6
Continuous
 62
     7
370
    15
100
AcDbSpline
210
0.0
220
0.0
230
1.0
 70
    24
 71
     3
 72
    14
 73
    10
 74
     0
 42
0.00000001
 43
0.00000001
 40
0.0
 40
0.0
 40
0.0
 40
0.0
 40
0.25
 40
0.25
 40
0.5
 40
0.5
 40
0.75
 40
0.75
 40
1.0
 40
1.0
 40
1.0
 40
1.0
 10
108.13134882832
 20
146.8453926341883
 30
0.0
 10
108.2551185930852
 20
146.8453926341883
 30
0.0
 10
108.3794856970921
 20
146.8453926341883
 30
0.0
 10
108.5858421658181
 20
146.8453926341883
 30
0.0
 10
108.6711703092365
 20
146.8453926341883
 30
0.0
 10
108.8033623679517
 20
146.8453926341883
 30
0.0
 10
108.8520076117023
 20
146.8453926341883
 30
0.0
 10
108.915543403431
 20
146.8453926341883
 30
0.0
 10
108.93134882832
 20
146.8453926341883
 30
0.0
 10
108.93134882832
 20
146.8453926341883
 30
0.0
  0
LINE
  5
9F
330
1F
100
AcDbEntity
  8
0
  6
Continuous
 62
     7
370
    15
100
AcDbLine
 10
108.1313489171
 20
70.8557158249
 30
0.0
 11
105.9113497081
 21
70.8557158249
 31
0.0
  0
LINE
  5
A0
330
1F
100
AcDbEntity
  8
0
  6
Continuous
 62
     7
370
    15
100
AcDbLine
 10
105.9113497081
 20
146.845394327
 30
0.0
 11
108.1313489171
 21
146.845394327
 31
0.0
  0
LINE
  5
A1
330
1F
100
AcDbEntity
  8
0
  6
Continuous
 62
     7
370
    15
100
AcDbLine
 10
84.5213488842
 20
77.6131428318
 30
0.0
 11
84.5213488842
 21
153.3776424365
 31
0.0
  0
LINE
  5
A2
330
1F
100
AcDbEntity
  8
0
  6
Continuous
 62
     7
370
    15
100
AcDbLine
 10
52.2213483396
 20
79.2313791352
 30
0.0
 11
52.2213483396
 21
81.626059069
 31
0.0
  0
SPLINE
  5
A3
330
1F
100
AcDbEntity
  8
0
  6
Continuous
 62
     7
370
    15
100
AcDbSpline
210
0.0
220
0.0
230
1.0
 70
     8
 71
     3
 72
    14
 73
    10
 74
     0
 42
0.00000001
 43
0.00000001
 40
0.0
 40
0.0
 40
0.0
 40
0.0
 40
0.25
 40
0.25
 40
0.5
 40
0.5
 40
0.75
 40
0.75
 40
1.0
 40
1.0
 40
1.0
 40
1.0
 10
51.21692635698305
 20
83.32891129044478
 30
0.0
 10
51.30569493492838
 20
83.17037715913683
 30
0.0
 10
51.42741277360729
 20
83.01793448224826
 30
0.0
 10
51.66246238346413
 20
82.72079985841934
 30
0.0
 10
51.77809256968102
 20
82.57611721480198
 30
0.0
 10
51.97849750310885
 20
82.29282801229857
 30
0.0
 10
52.06389779509315
 20
82.15427401926173
 30
0.0
 10
52.1856034288104
 20
81.88288998922819
 30
0.0
 10
52.22134882832304
 20
81.75075412059357
 30
0.0
 10
52.22134882832302
 20
81.62605936882281
 30
0.0
  0
SPLINE
  5
A4
330
1F
100
AcDbEntity
  8
0
  6
Continuous
 62
     7
370
    15
100
AcDbSpline
210
0.0
220
0.0
230
1.0
 70
     8
 71
     3
 72
    14
 73
    10
 74
     0
 42
0.00000001
 43
0.00000001
 40
0.0
 40
0.0
 40
0.0
 40
0.0
 40
0.124999999999999
 40
0.124999999999999
 40
0.2499999999999981
 40
0.2499999999999981
 40
0.4999999999999952
 40
0.4999999999999952
 40
1.0
 40
1.0
 40
1.0
 40
1.0
 10
50.32134882832003
 20
83.95774122954488
 30
0.0
 10
50.38893112810451
 20
83.96489711464628
 30
0.0
 10
50.46141870585241
 20
83.96047264460726
 30
0.0
 10
50.59370981511834
 20
83.93076648683693
 30
0.0
 10
50.65098719450853
 20
83.9074822052587
 30
0.0
 10
50.8006376217088
 20
83.82999696540836
 30
0.0
 10
50.87435091723033
 20
83.768145138507
 30
0.0
 10
51.06215890055654
 20
83.58346768585865
 30
0.0
 10
51.14619920691798
 20
83.45522476256747
 30
0.0
 10
51.21692635698427
 20
83.32891129044489
 30
0.0
  0
SPLINE
  5
A5
330
1F
100
AcDbEntity
  8
0
  6
Continuous
 62
     7
370
    15
100
AcDbSpline
210
0.0
220
0.0
230
1.0
 70
     8
 71
     3
 72
     8
 73
     4
 74
     0
 42
0.00000001
 43
0.00000001
 40
0.0
 40
0.0
 40
0.0
 40
0.0
 40
1.0
 40
1.0
 40
1.0
 40
1.0
 10
46.77670844023913
 20
83.53969264475309
 30
0.0
 10
47.94200675094802
 20
83.69488011663971
 30
0.0
 10
49.1266219649879
 20
83.83123875495002
 30
0.0
 10
50.32134882832003
 20
83.95774122954488
 30
0.0
  0
SPLINE
  5
A6
330
1F
100
AcDbEntity
  8
0
  6
Continuous
 62
     7
370
    15
100
AcDbSpline
210
0.0
220
0.0
230
1.0
 70
     8
 71
     3
 72
    14
 73
    10
 74
     0
 42
0.00000001
 43
0.00000001
 40
0.0
 40
0.0
 40
0.0
 40
0.0
 40
0.5000000000000012
 40
0.5000000000000012
 40
0.7500000000000004
 40
0.7500000000000004
 40
0.8750000000000002
 40
0.8750000000000002
 40
1.0
 40
1.0
 40
1.0
 40
1.0
 10
39.02127394428967
 20
83.24956046562318
 30
0.0
 10
40.32957550682367
 20
83.2565751893643
 30
0.0
 10
41.63463488148075
 20
83.27198376580876
 30
0.0
 10
43.58051093296942
 20
83.32588032127542
 30
0.0
 10
44.22720843670858
 20
83.34891188587814
 30
0.0
 10
45.1910508005631
 20
83.39985441074887
 30
0.0
 10
45.51128949249725
 20
83.41958933298207
 30
0.0
 10
46.14798471883979
 20
83.46907646145365
 30
0.0
 10
46.46470012712275
 20
83.49814124038288
 30
0.0
 10
46.77670844023915
 20
83.53969264475306
 30
0.0
  0
SPLINE
  5
A7
330
1F
100
AcDbEntity
  8
0
  6
Continuous
 62
     7
370
    15
100
AcDbSpline
210
0.0
220
0.0
230
1.0
 70
     8
 71
     3
 72
    12
 73
     8
 74
     0
 42
0.00000001
 43
0.00000001
 40
0.0
 40
0.0
 40
0.0
 40
0.0
 40
0.25
 40
0.25
 40
0.5
 40
0.5
 40
1.0
 40
1.0
 40
1.0
 40
1.0
 10
45.32134882832002
 20
147.5819155256847
 30
0.0
 10
44.80265000649183
 20
147.614438300533
 30
0.0
 10
44.28093843328684
 20
147.6377350417035
 30
0.0
 10
43.23464641679126
 20
147.6755805561256
 30
0.0
 10
42.709974791121
 20
147.6898490306217
 30
0.0
 10
41.1331287685818
 20
147.72405851808
 30
0.0
 10
40.07817345403492
 20
147.7355580220239
 30
0.0
 10
39.02127394428967
 20
147.7412248027534
 30
0.0
  0
SPLINE
  5
A8
330
1F
100
AcDbEntity
  8
0
  6
Continuous
 62
     7
370
    15
100
AcDbSpline
210
0.0
220
0.0
230
1.0
 70
     8
 71
     3
 72
    20
 73
    16
 74
     0
 42
0.00000001
 43
0.00000001
 40
0.0
 40
0.0
 40
0.0
 40
0.0
 40
0.2499999999999999
 40
0.2499999999999999
 40
0.4999999999999998
 40
0.4999999999999998
 40
0.7499999999999997
 40
0.7499999999999997
 40
0.8749999999999996
 40
0.8749999999999996
 40
0.9375000000000002
 40
0.9375000000000002
 40
0.9687500000000001
 40
0.9687500000000001
 40
1.0
 40
1.0
 40
1.0
 40
1.0
 10
47.22134882832002
 20
149.2400013711729
 30
0.0
 10
47.22134882832002
 20
149.1043190514261
 30
0.0
 10
47.17263703910339
 20
148.9632320652861
 30
0.0
 10
47.00347561587822
 20
148.6711603465555
 30
0.0
 10
46.88169520195989
 20
148.5195116044651
 30
0.0
 10
46.5841481072104
 20
148.2171031643119
 30
0.0
 10
46.41023550150761
 20
148.0645145281887
 30
0.0
 10
46.09082066762579
 20
147.8392437643464
 30
0.0
 10
45.97577989217855
 20
147.7645206698356
 30
0.0
 10
45.76869556816213
 20
147.6651102605787
 30
0.0
 10
45.69258773335573
 20
147.633545168234
 30
0.0
 10
45.56119319380236
 20
147.5991017840411
 30
0.0
 10
45.51463997480091
 20
147.5900502122734
 30
0.0
 10
45.41830662372021
 20
147.579874563435
 30
0.0
 10
45.36904720036475
 20
147.57892480476
 30
0.0
 10
45.32134882831804
 20
147.5819155256745
 30
0.0
  0
LINE
  5
A9
330
1F
100
AcDbEntity
  8
0
  6
Continuous
 62
     7
370
    15
100
AcDbLine
 10
47.2213493826
 20
149.2399997549
 30
0.0
 11
47.2213493826
 21
151.5089064377
 31
0.0
  0
SPLINE
  5
AA
330
1F
100
AcDbEntity
  8
0
  6
Continuous
 62
     7
370
    15
100
AcDbSpline
210
0.0
220
0.0
230
1.0
 70
     8
 71
     3
 72
    22
 73
    18
 74
     0
 42
0.00000001
 43
0.00000001
 40
0.0
 40
0.0
 40
0.0
 40
0.0
 40
0.0002937795809534
 40
0.0628841226670476
 40
0.1261981634441474
 40
0.2510182376743836
 40
0.3131038035109783
 40
0.3757650301263917
 40
0.438298947461237
 40
0.5000628179552256
 40
0.5617337540173512
 40
0.6246555751056264
 40
0.7491916931696805
 40
0.8115302283016316
 40
0.874584730621348
 40
0.9378227612722644
 40
1.0
 40
1.0
 40
1.0
 40
1.0
 10
65.54130447829198
 20
78.56414611509956
 30
0.0
 10
65.54110993398133
 20
78.56412241790667
 30
0.0
 10
65.49946732473335
 20
78.55904998510022
 30
0.0
 10
65.64463592395668
 20
78.57747262337728
 30
0.0
 10
66.11482881094318
 20
78.6340974622677
 30
0.0
 10
67.08326429268998
 20
78.74027732713401
 30
0.0
 10
68.39572769336691
 20
78.82591554731135
 30
0.0
 10
69.52785013659488
 20
78.86457218821397
 30
0.0
 10
70.75003757908641
 20
78.86822888897385
 30
0.0
 10
72.01733635144573
 20
78.82585075221914
 30
0.0
 10
73.284047817721
 20
78.73746656362563
 30
0.0
 10
74.89970638596621
 20
78.56742521058358
 30
0.0
 10
76.33966907039365
 20
78.34523963239981
 30
0.0
 10
77.40553761390173
 20
78.14224120877813
 30
0.0
 10
77.99473779028988
 20
78.01821539215148
 30
0.0
 10
78.38345795500771
 20
77.93329701570218
 30
0.0
 10
78.43024335022987
 20
77.92257088389128
 30
0.0
 10
78.4534381868882
 20
77.91725318006195
 30
0.0
  0
SPLINE
  5
AB
330
1F
100
AcDbEntity
  8
0
  6
Continuous
 62
     7
370
    15
100
AcDbSpline
210
0.0
220
0.0
230
1.0
 70
     8
 71
     3
 72
    41
 73
    37
 74
     0
 42
0.00000001
 43
0.00000001
 40
0.0
 40
0.0
 40
0.0
 40
0.0
 40
0.0619930057521227
 40
0.125434780003805
 40
0.1886508796717335
 40
0.2510246486109842
 40
0.3131658162995059
 40
0.3756581562437792
 40
0.4382226967007955
 40
0.4998044866844429
 40
0.5615163978929769
 40
0.6240683345302137
 40
0.6867257381925734
 40
0.7488365438330927
 40
0.8110686224406414
 40
0.8741742887465517
 40
0.9373212795039263
 40
0.9685511676011517
 40
0.9842086839263058
 40
0.992064117437257
 40
0.9960004855111659
 40
0.9979710789827712
 40
0.9989570084930095
 40
0.9994501352406038
 40
0.9996967397140205
 40
0.999820052269151
 40
0.9998817111564898
 40
0.9999125412175109
 40
0.9999279564093936
 40
0.999935664047069
 40
0.9999395178742536
 40
0.9999414447906282
 40
0.9999424082488154
 40
0.9999433717070028
 40
0.9999501690780724
 40
1.0
 40
1.0
 40
1.0
 40
1.0
 10
78.4533171149535
 20
153.0734873848311
 30
0.0
 10
78.42974552399453
 20
153.0681777997877
 30
0.0
 10
78.38205147705473
 20
153.0574345453873
 30
0.0
 10
77.99000838367547
 20
152.9722076602118
 30
0.0
 10
77.39949573848953
 20
152.8476389792522
 30
0.0
 10
76.59545729041942
 20
152.6946900690954
 30
0.0
 10
75.61938252403145
 20
152.5329328664396
 30
0.0
 10
74.49757421108917
 20
152.3806994486891
 30
0.0
 10
73.2840425754834
 20
152.2529240941973
 30
0.0
 10
72.01921214402677
 20
152.1650755787218
 30
0.0
 10
70.75116877468164
 20
152.1226875395525
 30
0.0
 10
69.5276614648766
 20
152.1264266110017
 30
0.0
 10
68.39416215235863
 20
152.1650150904894
 30
0.0
 10
67.40805740691758
 20
152.2294615203966
 30
0.0
 10
66.59942802496894
 20
152.302968392541
 30
0.0
 10
66.00281150757306
 20
152.3702819225713
 30
0.0
 10
65.6874192770897
 20
152.4082450163632
 30
0.0
 10
65.5773529625254
 20
152.422044344713
 30
0.0
 10
65.54993460607153
 20
152.4255289592334
 30
0.0
 10
65.54301079217522
 20
152.4264102411621
 30
0.0
 10
65.54124233681074
 20
152.4266333489828
 30
0.0
 10
65.54078230505733
 20
152.4266863940877
 30
0.0
 10
65.54065784619681
 20
152.4267059436256
 30
0.0
 10
65.54062348049317
 20
152.4266993040329
 30
0.0
 10
65.54061237479054
 20
152.4267068201069
 30
0.0
 10
65.54060888472789
 20
152.4267061543173
 30
0.0
 10
65.54060572954077
 20
152.4267062133223
 30
0.0
 10
65.54060600927863
 20
152.426706208046
 30
0.0
 10
65.54060598408786
 20
152.4267062085846
 30
0.0
 10
65.54060598690603
 20
152.4267062084362
 30
0.0
 10
65.54060598582764
 20
152.4267062085915
 30
0.0
 10
65.54060598709296
 20
152.4267062083771
 30
0.0
 10
65.5406059850779
 20
152.4267062087224
 30
0.0
 10
65.54060600375394
 20
152.4267062055208
 30
0.0
 10
65.54060376558982
 20
152.4267065892058
 30
0.0
 10
65.540639624421
 20
152.4267004419777
 30
0.0
 10
65.54067117894124
 20
152.4266950326315
 30
0.0
  0
SPLINE
  5
AC
330
1F
100
AcDbEntity
  8
0
  6
Continuous
 62
     7
370
    15
100
AcDbSpline
210
0.0
220
0.0
230
1.0
 70
     8
 71
     3
 72
    20
 73
    16
 74
     0
 42
0.00000001
 43
0.00000001
 40
0.0
 40
0.0
 40
0.0
 40
0.0
 40
0.249999999999986
 40
0.249999999999986
 40
0.3749999999999789
 40
0.3749999999999789
 40
0.4374999999999789
 40
0.4374999999999789
 40
0.4999999999999789
 40
0.4999999999999789
 40
0.6249999999999835
 40
0.6249999999999835
 40
0.7499999999999879
 40
0.7499999999999879
 40
1.0
 40
1.0
 40
1.0
 40
1.0
 10
37.41216306003603
 20
84.8169094814876
 30
0.0
 10
37.43843527724944
 20
84.83622742257006
 30
0.0
 10
37.46911541950428
 20
84.85061613367183
 30
0.0
 10
37.5405862898862
 20
84.84371177183583
 30
0.0
 10
37.56861332693054
 20
84.83654576848741
 30
0.0
 10
37.62369691642805
 20
84.80684674178381
 30
0.0
 10
37.64458824498048
 20
84.79337309922248
 30
0.0
 10
37.68979689242594
 20
84.75817483370648
 30
0.0
 10
37.7142011048215
 20
84.7362666049792
 30
0.0
 10
37.78553342287294
 20
84.66414174498365
 30
0.0
 10
37.82743020769322
 20
84.61180120403361
 30
0.0
 10
37.89900616654909
 20
84.51431781213287
 30
0.0
 10
37.92983415636639
 20
84.46756404225445
 30
0.0
 10
38.01293408920196
 20
84.33427082641533
 30
0.0
 10
38.05778899457227
 20
84.25163342850011
 30
0.0
 10
38.09790107002484
 20
84.17252653370934
 30
0.0
  0
SPLINE
  5
AD
330
1F
100
AcDbEntity
  8
0
  6
Continuous
 62
     7
370
    15
100
AcDbSpline
210
0.0
220
0.0
230
1.0
 70
     8
 71
     3
 72
     8
 73
     4
 74
     0
 42
0.00000001
 43
0.00000001
 40
0.0
 40
0.0
 40
0.0
 40
0.0
 40
1.0
 40
1.0
 40
1.0
 40
1.0
 10
37.12134882832002
 20
84.99272289162037
 30
0.0
 10
37.12134882832002
 20
84.96744283439303
 30
0.0
 10
37.12453563275427
 20
84.94384326515497
 30
0.0
 10
37.13063862970169
 20
84.92226582346295
 30
0.0
  0
SPLINE
  5
AE
330
1F
100
AcDbEntity
  8
0
  6
Continuous
 62
     7
370
    15
100
AcDbSpline
210
0.0
220
0.0
230
1.0
 70
     8
 71
     3
 72
     9
 73
     5
 74
     0
 42
0.00000001
 43
0.00000001
 40
0.0
 40
0.0
 40
0.0
 40
0.0
 40
0.7766522094856231
 40
1.0
 40
1.0
 40
1.0
 40
1.0
 10
37.20668127561044
 20
84.8776805686108
 30
0.0
 10
37.24986794013289
 20
84.82548165855002
 30
0.0
 10
37.3054741226622
 20
84.75827151039971
 30
0.0
 10
37.39268598616361
 20
84.80620423895569
 30
0.0
 10
37.4121645631833
 20
84.81690990797199
 30
0.0
  0
LINE
  5
AF
330
1F
100
AcDbEntity
  8
0
  6
Continuous
 62
     7
370
    15
100
AcDbLine
 10
37.121349776
 20
84.992723121
 30
0.0
 11
37.121349776
 21
145.9980621474
 31
0.0
  0
SPLINE
  5
B0
330
1F
100
AcDbEntity
  8
0
  6
Continuous
 62
     7
370
    15
100
AcDbSpline
210
0.0
220
0.0
230
1.0
 70
     8
 71
     3
 72
     9
 73
     5
 74
     0
 42
0.00000001
 43
0.00000001
 40
0.0
 40
0.0
 40
0.0
 40
0.0
 40
0.0592942499244465
 40
1.0
 40
1.0
 40
1.0
 40
1.0
 10
37.4121645631833
 20
146.1738753604046
 30
0.0
 10
37.40728156548453
 20
146.1771685001024
 30
0.0
 10
37.32492960547193
 20
146.2327074385654
 30
0.0
 10
37.25879895105663
 20
146.1754152354527
 30
0.0
 10
37.19658946419191
 20
146.12152013055
 30
0.0
  0
SPLINE
  5
B1
330
1F
100
AcDbEntity
  8
0
  6
Continuous
 62
     7
370
    15
100
AcDbSpline
210
0.0
220
0.0
230
1.0
 70
     8
 71
     3
 72
     8
 73
     4
 74
     0
 42
0.00000001
 43
0.00000001
 40
0.0
 40
0.0
 40
0.0
 40
0.0
 40
1.0
 40
1.0
 40
1.0
 40
1.0
 10
37.14498249725623
 20
146.1056418778259
 30
0.0
 10
37.12963345862019
 20
146.0751318228299
 30
0.0
 10
37.12134882832002
 20
146.0388202673176
 30
0.0
 10
37.12134882832002
 20
145.9980623767562
 30
0.0
  0
SPLINE
  5
B2
330
1F
100
AcDbEntity
  8
0
  6
Continuous
 62
     7
370
    15
100
AcDbSpline
210
0.0
220
0.0
230
1.0
 70
     8
 71
     3
 72
    20
 73
    16
 74
     0
 42
0.00000001
 43
0.00000001
 40
0.0
 40
0.0
 40
0.0
 40
0.0
 40
0.2500000000000037
 40
0.2500000000000037
 40
0.3750000000000055
 40
0.3750000000000055
 40
0.5000000000000073
 40
0.5000000000000073
 40
0.5625000000000057
 40
0.5625000000000057
 40
0.625000000000004
 40
0.625000000000004
 40
0.7500000000000027
 40
0.7500000000000027
 40
1.0
 40
1.0
 40
1.0
 40
1.0
 10
38.09790107002245
 20
146.8182587346665
 30
0.0
 10
38.05790485219862
 20
146.739380328109
 30
0.0
 10
38.01279122436097
 20
146.6562506814175
 30
0.0
 10
37.92953700999443
 20
146.5227620170666
 30
0.0
 10
37.89931768137393
 20
146.4768969611846
 30
0.0
 10
37.82722944623251
 20
146.3787054087797
 30
0.0
 10
37.78531212882142
 20
146.3263955892561
 30
0.0
 10
37.71406152426995
 20
146.2543896865216
 30
0.0
 10
37.68982571189064
 20
146.23261947422
 30
0.0
 10
37.64422752170599
 20
146.197144815891
 30
0.0
 10
37.62342503210628
 20
146.1837746317135
 30
0.0
 10
37.56848403368715
 20
146.1542047195782
 30
0.0
 10
37.54041504560035
 20
146.1470781972763
 30
0.0
 10
37.46991221553751
 20
146.1402038257936
 30
0.0
 10
37.43848812774664
 20
146.1545189848808
 30
0.0
 10
37.41216306003804
 20
146.1738757868913
 30
0.0
  0
SPLINE
  5
B3
330
1F
100
AcDbEntity
  8
0
  6
Continuous
 62
     7
370
    15
100
AcDbSpline
210
0.0
220
0.0
230
1.0
 70
     8
 71
     3
 72
    10
 73
     6
 74
     0
 42
0.00000001
 43
0.00000001
 40
0.0
 40
0.0
 40
0.0
 40
0.0
 40
0.4999999999999989
 40
0.4999999999999989
 40
1.0
 40
1.0
 40
1.0
 40
1.0
 10
38.77134882832004
 20
147.7436778360083
 30
0.0
 10
38.64646055756983
 20
147.6126815579368
 30
0.0
 10
38.52501043950939
 20
147.4689687212718
 30
0.0
 10
38.29542646455194
 20
147.1583984285826
 30
0.0
 10
38.18515148915596
 20
146.9903293555195
 30
0.0
 10
38.09790107002245
 20
146.8182587346665
 30
0.0
  0
SPLINE
  5
B4
330
1F
100
AcDbEntity
  8
0
  6
Continuous
 62
     7
370
    15
100
AcDbSpline
210
0.0
220
0.0
230
1.0
 70
     8
 71
     3
 72
     8
 73
     4
 74
     0
 42
0.00000001
 43
0.00000001
 40
0.0
 40
0.0
 40
0.0
 40
0.0
 40
1.0
 40
1.0
 40
1.0
 40
1.0
 10
39.0212739442858
 20
147.7412248027529
 30
0.0
 10
38.93425591443741
 20
147.74169136754
 30
0.0
 10
38.85130188805746
 20
147.7427313871161
 30
0.0
 10
38.77134882831772
 20
147.7436778360084
 30
0.0
  0
SPLINE
  5
B5
330
1F
100
AcDbEntity
  8
0
  6
Continuous
 62
     7
370
    15
100
AcDbSpline
210
0.0
220
0.0
230
1.0
 70
     8
 71
     3
 72
     8
 73
     4
 74
     0
 42
0.00000001
 43
0.00000001
 40
0.0
 40
0.0
 40
0.0
 40
0.0
 40
1.0
 40
1.0
 40
1.0
 40
1.0
 10
38.77134882831772
 20
83.24710743236822
 30
0.0
 10
38.85130188805748
 20
83.2480538812605
 30
0.0
 10
38.93425591443744
 20
83.24909390083663
 30
0.0
 10
39.02127394428581
 20
83.24956046562367
 30
0.0
  0
SPLINE
  5
B6
330
1F
100
AcDbEntity
  8
0
  6
Continuous
 62
     7
370
    15
100
AcDbSpline
210
0.0
220
0.0
230
1.0
 70
     8
 71
     3
 72
    10
 73
     6
 74
     0
 42
0.00000001
 43
0.00000001
 40
0.0
 40
0.0
 40
0.0
 40
0.0
 40
0.4999999999999989
 40
0.4999999999999989
 40
1.0
 40
1.0
 40
1.0
 40
1.0
 10
38.09790107002152
 20
84.1725265337119
 30
0.0
 10
38.185151489155
 20
84.00045591285854
 30
0.0
 10
38.29542646455116
 20
83.8323868397951
 30
0.0
 10
38.52501043950898
 20
83.52181654710527
 30
0.0
 10
38.64646055756963
 20
83.37810371044
 30
0.0
 10
38.77134882832004
 20
83.2471074323683
 30
0.0
  0
SPLINE
  5
B7
330
1F
100
AcDbEntity
  8
0
  6
Continuous
 62
     7
370
    15
100
AcDbSpline
210
0.0
220
0.0
230
1.0
 70
     8
 71
     3
 72
     8
 73
     4
 74
     0
 42
0.00000001
 43
0.00000001
 40
0.0
 40
0.0
 40
0.0
 40
0.0
 40
1.0
 40
1.0
 40
1.0
 40
1.0
 10
103.7593198073986
 20
154.4463553950752
 30
0.0
 10
104.2162461611982
 20
153.4304374254009
 30
0.0
 10
104.6674518030012
 20
152.4116415963098
 30
0.0
 10
105.11134882832
 20
151.3908401403261
 30
0.0
  0
LINE
  5
B8
330
1F
100
AcDbEntity
  8
0
  6
Continuous
 62
     7
370
    15
100
AcDbLine
 10
105.1113492044
 20
151.3908408122
 30
0.0
 11
105.1113492044
 21
150.2096294897
 31
0.0
  0
SPLINE
  5
B9
330
1F
100
AcDbEntity
  8
0
  6
Continuous
 62
     7
370
    15
100
AcDbSpline
210
0.0
220
0.0
230
1.0
 70
     8
 71
     3
 72
    14
 73
    10
 74
     0
 42
0.00000001
 43
0.00000001
 40
0.0
 40
0.0
 40
0.0
 40
0.0
 40
0.25
 40
0.25
 40
0.5
 40
0.5
 40
0.75
 40
0.75
 40
1.0
 40
1.0
 40
1.0
 40
1.0
 10
105.11134882832
 20
150.2096278266853
 30
0.0
 10
105.11134882832
 20
150.0857609498961
 30
0.0
 10
105.1272079559476
 20
149.9615012730586
 30
0.0
 10
105.1905696014675
 20
149.7238929106528
 30
0.0
 10
105.2391593095169
 20
149.6071125259003
 30
0.0
 10
105.3714449142917
 20
149.3983099972913
 30
0.0
 10
105.4567697055523
 20
149.3037992936987
 30
0.0
 10
105.6636609538585
 20
149.1658424928964
 30
0.0
 10
105.7876288997485
 20
149.1239240472607
 30
0.0
 10
105.91134882832
 20
149.1239240472607
 30
0.0
  0
LINE
  5
BA
330
1F
100
AcDbEntity
  8
0
  6
Continuous
 62
     7
370
    15
100
AcDbLine
 10
105.9113497081
 20
149.1239234345
 30
0.0
 11
108.1313489171
 21
149.1239234345
 31
0.0
  0
SPLINE
  5
BB
330
1F
100
AcDbEntity
  8
0
  6
Continuous
 62
     7
370
    15
100
AcDbSpline
210
0.0
220
0.0
230
1.0
 70
     8
 71
     3
 72
    12
 73
     8
 74
     0
 42
0.00000001
 43
0.00000001
 40
0.0
 40
0.0
 40
0.0
 40
0.0
 40
0.250000000000002
 40
0.250000000000002
 40
0.500000000000004
 40
0.500000000000004
 40
1.0
 40
1.0
 40
1.0
 40
1.0
 10
108.1313488283221
 20
149.1239240472608
 30
0.0
 10
108.2550497783019
 20
149.1239240472613
 30
0.0
 10
108.3791463905718
 20
149.1659176589941
 30
0.0
 10
108.5858015536582
 20
149.3037129856387
 30
0.0
 10
108.6708423203848
 20
149.3976865841035
 30
0.0
 10
108.8703208888579
 20
149.7124747903242
 30
0.0
 10
108.93134882832
 20
149.9627137825514
 30
0.0
 10
108.93134882832
 20
150.2096278266853
 30
0.0
  0
LINE
  5
BC
330
1F
100
AcDbEntity
  8
0
  6
Continuous
 62
     7
370
    15
100
AcDbLine
 10
108.9313494208
 20
150.2096294897
 30
0.0
 11
108.9313494208
 21
151.3908408122
 31
0.0
  0
SPLINE
  5
BD
330
1F
100
AcDbEntity
  8
0
  6
Continuous
 62
     7
370
    15
100
AcDbSpline
210
0.0
220
0.0
230
1.0
 70
     8
 71
     3
 72
     8
 73
     4
 74
     0
 42
0.00000001
 43
0.00000001
 40
0.0
 40
0.0
 40
0.0
 40
0.0
 40
1.0
 40
1.0
 40
1.0
 40
1.0
 10
108.93134882832
 20
151.3908401403261
 30
0.0
 10
109.3754988393455
 20
152.4122233712778
 30
0.0
 10
109.8265731496034
 20
153.4307079080461
 30
0.0
 10
110.2833778492414
 20
154.4463553950752
 30
0.0
  0
LINE
  5
BE
330
1F
100
AcDbEntity
  8
0
  6
Continuous
 62
     7
370
    15
100
AcDbLine
 10
110.283378342
 20
154.4463537174
 30
0.0
 11
114.9713488462
 21
154.4463537174
 31
0.0
  0
SPLINE
  5
BF
330
1F
100
AcDbEntity
  8
0
  6
Continuous
 62
     7
370
    15
100
AcDbSpline
210
0.0
220
0.0
230
1.0
 70
     8
 71
     3
 72
    16
 73
    12
 74
     0
 42
0.00000001
 43
0.00000001
 40
0.0
 40
0.0
 40
0.0
 40
0.0
 40
0.125
 40
0.125
 40
0.25
 40
0.25
 40
0.5
 40
0.5
 40
0.75
 40
0.75
 40
1.0
 40
1.0
 40
1.0
 40
1.0
 10
114.971348828319
 20
154.4463553950752
 30
0.0
 10
115.0469865347303
 20
154.4463553950753
 30
0.0
 10
115.1233021991485
 20
154.4350103949405
 30
0.0
 10
115.2677129370406
 20
154.3923578443021
 30
0.0
 10
115.3361593861491
 20
154.3614235196193
 30
0.0
 10
115.5310906387625
 20
154.2421671478518
 30
0.0
 10
115.6389318125435
 20
154.1320151342312
 30
0.0
 10
115.8076445607557
 20
153.8838790485731
 30
0.0
 10
115.8700089734793
 20
153.7435367245693
 30
0.0
 10
115.9513128979878
 20
153.4552650330805
 30
0.0
 10
115.97134882832
 20
153.3044600601006
 30
0.0
 10
115.97134882832
 20
153.1540901687553
 30
0.0
  0
LINE
  5
C0
330
1F
100
AcDbEntity
  8
0
  6
Continuous
 62
     7
370
    15
100
AcDbLine
 10
115.9713490101
 20
153.154091491
 30
0.0
 11
115.9713490101
 21
146.845394327
 31
0.0
  0
SPLINE
  5
C1
330
1F
100
AcDbEntity
  8
0
  6
Continuous
 62
     7
370
    15
100
AcDbSpline
210
0.0
220
0.0
230
1.0
 70
     8
 71
     3
 72
    10
 73
     6
 74
     0
 42
0.00000001
 43
0.00000001
 40
0.0
 40
0.0
 40
0.0
 40
0.0
 40
0.5
 40
0.5
 40
1.0
 40
1.0
 40
1.0
 40
1.0
 10
105.91134882832
 20
160.3696683943607
 30
0.0
 10
105.6988125144637
 20
160.3696683943607
 30
0.0
 10
105.4888763428097
 20
160.4610809809909
 30
0.0
 10
105.1951692017984
 20
160.7658258468951
 30
0.0
 10
105.11134882832
 20
160.9779808168038
 30
0.0
 10
105.11134882832
 20
161.1889438750363
 30
0.0
  0
SPLINE
  5
C2
330
1F
100
AcDbEntity
  8
0
  6
Continuous
 62
     7
370
    15
100
AcDbSpline
210
0.0
220
0.0
230
1.0
 70
     8
 71
     3
 72
     8
 73
     4
 74
     0
 42
0.00000001
 43
0.00000001
 40
0.0
 40
0.0
 40
0.0
 40
0.0
 40
1.0
 40
1.0
 40
1.0
 40
1.0
 10
110.2833778492414
 20
164.4851874898519
 30
0.0
 10
109.8323508805282
 20
163.687876919664
 30
0.0
 10
109.3816570640046
 20
162.8903786200068
 30
0.0
 10
108.93134882832
 20
162.0926634948932
 30
0.0
  0
LINE
  5
C3
330
1F
100
AcDbEntity
  8
0
  6
Continuous
 62
     7
370
    15
100
AcDbLine
 10
110.283378342
 20
154.4463537174
 30
0.0
 11
110.283378342
 21
164.4851877826
 31
0.0
  0
LINE
  5
C4
330
1F
100
AcDbEntity
  8
0
  6
Continuous
 62
     7
370
    15
100
AcDbLine
 10
108.9313494208
 20
151.3908408122
 30
0.0
 11
108.9313494208
 21
162.0926647919
 31
0.0
  0
LINE
  5
C5
330
1F
100
AcDbEntity
  8
0
  6
Continuous
 62
     7
370
    15
100
AcDbLine
 10
114.9713488462
 20
164.4851877826
 30
0.0
 11
110.283378342
 21
164.4851877826
 31
0.0
  0
SPLINE
  5
C6
330
1F
100
AcDbEntity
  8
0
  6
Continuous
 62
     7
370
    15
100
AcDbSpline
210
0.0
220
0.0
230
1.0
 70
     8
 71
     3
 72
     8
 73
     4
 74
     0
 42
0.00000001
 43
0.00000001
 40
0.0
 40
0.0
 40
0.0
 40
0.0
 40
1.0
 40
1.0
 40
1.0
 40
1.0
 10
105.11134882832
 20
162.0926634948932
 30
0.0
 10
104.6610405926355
 20
162.8903786200068
 30
0.0
 10
104.2103467761119
 20
163.687876919664
 30
0.0
 10
103.7593198073986
 20
164.4851874898519
 30
0.0
  0
LINE
  5
C7
330
1F
100
AcDbEntity
  8
0
  6
Continuous
 62
     7
370
    15
100
AcDbLine
 10
105.1113492044
 20
151.3908408122
 30
0.0
 11
105.1113492044
 21
162.0926647919
 31
0.0
  0
SPLINE
  5
C8
330
1F
100
AcDbEntity
  8
0
  6
Continuous
 62
     7
370
    15
100
AcDbSpline
210
0.0
220
0.0
230
1.0
 70
     8
 71
     3
 72
    14
 73
    10
 74
     0
 42
0.00000001
 43
0.00000001
 40
0.0
 40
0.0
 40
0.0
 40
0.0
 40
0.25
 40
0.25
 40
0.5
 40
0.5
 40
0.75
 40
0.75
 40
1.0
 40
1.0
 40
1.0
 40
1.0
 10
108.93134882832
 20
161.1889438750363
 30
0.0
 10
108.93134882832
 20
161.0825871812839
 30
0.0
 10
108.9109612721788
 20
160.9767466935238
 30
0.0
 10
108.8323269267172
 20
160.7801817799873
 30
0.0
 10
108.7735955670786
 20
160.6890110377002
 30
0.0
 10
108.6269866614759
 20
160.5370999486686
 30
0.0
 10
108.5375813414494
 20
160.475031111849
 30
0.0
 10
108.343690608849
 20
160.3917630640903
 30
0.0
 10
108.2371856189591
 20
160.3696683943607
 30
0.0
 10
108.1313488283197
 20
160.3696683943607
 30
0.0
  0
SPLINE
  5
C9
330
1F
100
AcDbEntity
  8
0
  6
Continuous
 62
     7
370
    15
100
AcDbSpline
210
0.0
220
0.0
230
1.0
 70
     8
 71
     3
 72
    12
 73
     8
 74
     0
 42
0.00000001
 43
0.00000001
 40
0.0
 40
0.0
 40
0.0
 40
0.0
 40
0.5
 40
0.5
 40
0.75
 40
0.75
 40
1.0
 40
1.0
 40
1.0
 40
1.0
 10
115.97134882832
 20
163.4641324550341
 30
0.0
 10
115.97134882832
 20
163.7294018878005
 30
0.0
 10
115.8667420848335
 20
163.9919169934529
 30
0.0
 10
115.5900737330883
 20
164.2774545994902
 30
0.0
 10
115.4797084737363
 20
164.3537762163516
 30
0.0
 10
115.2356364251205
 20
164.4581183811917
 30
0.0
 10
115.1038839637888
 20
164.4851874898519
 30
0.0
 10
114.97134882832
 20
164.4851874898519
 30
0.0
  0
LINE
  5
CA
330
1F
100
AcDbEntity
  8
0
  6
Continuous
 62
     7
370
    15
100
AcDbLine
 10
115.9713490101
 20
153.154091491
 30
0.0
 11
115.9713490101
 21
163.4641341405
 31
0.0
  0
LINE
  5
CB
330
1F
100
AcDbEntity
  8
0
  6
Continuous
 62
     7
370
    15
100
AcDbLine
 10
108.1313489171
 20
160.3696696
 30
0.0
 11
105.9113497081
 21
160.3696696
 31
0.0
  0
ARC
  5
CC
330
1F
100
AcDbEntity
  8
0
  6
Continuous
 62
     7
370
    15
100
AcDbCircle
 10
96.0214100496
 20
148.0608877049
 30
0.0
 40
11.45035081746003
100
AcDbArc
 50
77.9103698821
 51
102.1081286463
  0
LINE
  5
CD
330
1F
100
AcDbEntity
  8
0
  6
Continuous
 62
     7
370
    15
100
AcDbLine
 10
38.7713479044
 20
83.2453943329
 30
0.0
 11
38.7713479044
 21
83.2471079665
 31
0.0
  0
LINE
  5
CE
330
1F
100
AcDbEntity
  8
0
  6
Continuous
 62
     7
370
    15
100
AcDbLine
 10
163.9713475647
 20
132.4953935581
 30
0.0
 11
163.9713475647
 21
98.4953917103
 31
0.0
  0
LINE
  5
CF
330
1F
100
AcDbEntity
  8
0
  6
Continuous
 62
     7
370
    15
100
AcDbLine
 10
38.7713479044
 20
147.7453909355
 30
0.0
 11
38.7713479044
 21
147.7436773019
 31
0.0
  0
LINE
  5
D0
330
1F
100
AcDbEntity
  8
0
  6
Continuous
 62
     7
370
    15
100
AcDbLine
 10
247.021345252
 20
127.2953930782
 30
0.0
 11
247.021345252
 21
121.4703927288
 31
0.0
  0
LINE
  5
D1
330
1F
100
AcDbEntity
  8
0
  6
Continuous
 62
     7
370
    15
100
AcDbLine
 10
247.021345252
 20
121.4703927288
 30
0.0
 11
246.4713433924
 21
120.9203927318
 31
0.0
  0
LINE
  5
D2
330
1F
100
AcDbEntity
  8
0
  6
Continuous
 62
     7
370
    15
100
AcDbLine
 10
246.4713433924
 20
110.0703925366
 30
0.0
 11
247.021345252
 21
109.5203925396
 31
0.0
  0
LINE
  5
D3
330
1F
100
AcDbEntity
  8
0
  6
Continuous
 62
     7
370
    15
100
AcDbLine
 10
247.021345252
 20
109.5203925396
 30
0.0
 11
247.021345252
 21
103.6953921901
 31
0.0
  0
LINE
  5
D4
330
1F
100
AcDbEntity
  8
0
  6
Continuous
 62
     7
370
    15
100
AcDbLine
 10
237.4713549557
 20
105.3095306741
 30
0.0
 11
237.4713549557
 21
99.4953918742
 31
0.0
  0
LINE
  5
D5
330
1F
100
AcDbEntity
  8
0
  6
Continuous
 62
     7
370
    15
100
AcDbLine
 10
237.4713549557
 20
131.4953933941
 30
0.0
 11
237.4713549557
 21
105.3095306741
 31
0.0
  0
LINE
  5
D6
330
1F
100
AcDbEntity
  8
0
  6
Continuous
 62
     7
370
    15
100
AcDbLine
 10
225.971354002
 20
105.3095306741
 30
0.0
 11
225.971354002
 21
99.4953918742
 31
0.0
  0
LINE
  5
D7
330
1F
100
AcDbEntity
  8
0
  6
Continuous
 62
     7
370
    15
100
AcDbLine
 10
225.971354002
 20
131.4953933941
 30
0.0
 11
225.971354002
 21
105.3095306741
 31
0.0
  0
LINE
  5
D8
330
1F
100
AcDbEntity
  8
0
  6
Continuous
 62
     7
370
    15
100
AcDbLine
 10
241.9713417234
 20
105.3095306741
 30
0.0
 11
241.9713417234
 21
99.4953918742
 31
0.0
  0
LINE
  5
D9
330
1F
100
AcDbEntity
  8
0
  6
Continuous
 62
     7
370
    15
100
AcDbLine
 10
241.9713417234
 20
131.4953933941
 30
0.0
 11
241.9713417234
 21
105.3095306741
 31
0.0
  0
LINE
  5
DA
330
1F
100
AcDbEntity
  8
0
  6
Continuous
 62
     7
370
    15
100
AcDbLine
 10
246.4713433924
 20
105.9461464646
 30
0.0
 11
246.4713433924
 21
100.4953929695
 31
0.0
  0
LINE
  5
DB
330
1F
100
AcDbEntity
  8
0
  6
Continuous
 62
     7
370
    15
100
AcDbLine
 10
246.4713433924
 20
130.4953922989
 30
0.0
 11
246.4713433924
 21
105.9461464646
 31
0.0
  0
LINE
  5
DC
330
1F
100
AcDbEntity
  8
0
  6
Continuous
 62
     7
370
    15
100
AcDbLine
 10
216.9713506641
 20
105.9461464646
 30
0.0
 11
216.9713506641
 21
100.4953929695
 31
0.0
  0
LINE
  5
DD
330
1F
100
AcDbEntity
  8
0
  6
Continuous
 62
     7
370
    15
100
AcDbLine
 10
216.9713506641
 20
130.4953922989
 30
0.0
 11
216.9713506641
 21
105.9461464646
 31
0.0
  0
LINE
  5
DE
330
1F
100
AcDbEntity
  8
0
  6
Continuous
 62
     7
370
    15
100
AcDbLine
 10
221.4713523331
 20
105.3095306741
 30
0.0
 11
221.4713523331
 21
99.4953918742
 31
0.0
  0
LINE
  5
DF
330
1F
100
AcDbEntity
  8
0
  6
Continuous
 62
     7
370
    15
100
AcDbLine
 10
221.4713523331
 20
131.4953933941
 30
0.0
 11
221.4713523331
 21
105.3095306741
 31
0.0
  0
LINE
  5
E0
330
1F
100
AcDbEntity
  8
0
  6
HIDDEN
 62
     7
370
     0
100
AcDbLine
 10
87.0213488283
 20
164.995392366
 30
0.0
 11
87.0213488283
 21
65.9953929024
 31
0.0
  0
LINE
  5
E1
330
1F
100
AcDbEntity
  8
0
  6
HIDDEN
 62
     7
370
     0
100
AcDbLine
 10
91.9713488015
 20
65.4953918891
 30
0.0
 11
91.9713488015
 21
65.5053942936
 31
0.0
  0
SPLINE
  5
E2
330
1F
100
AcDbEntity
  8
0
  6
HIDDEN
 62
     7
370
     0
100
AcDbSpline
210
0.0
220
0.0
230
1.0
 70
     8
 71
     3
 72
    30
 73
    26
 74
     0
 42
0.00000001
 43
0.00000001
 40
0.0
 40
0.0
 40
0.0
 40
0.0
 40
0.1249999999999996
 40
0.1249999999999996
 40
0.1874999999999994
 40
0.1874999999999994
 40
0.2499999999999993
 40
0.2499999999999993
 40
0.3749999999999992
 40
0.3749999999999992
 40
0.4374999999999993
 40
0.4374999999999993
 40
0.4999999999999994
 40
0.4999999999999994
 40
0.6249999999999992
 40
0.6249999999999992
 40
0.6874999999999993
 40
0.6874999999999993
 40
0.7499999999999994
 40
0.7499999999999994
 40
0.8124999999999997
 40
0.8124999999999997
 40
0.8749999999999998
 40
0.8749999999999998
 40
1.0
 40
1.0
 40
1.0
 40
1.0
 10
91.97134882832002
 20
65.50539363438834
 30
0.0
 10
91.97134882832
 20
65.51864834155127
 30
0.0
 10
92.03654908119255
 20
65.54483321233585
 30
0.0
 10
92.22769684989906
 20
65.60161986513633
 30
0.0
 10
92.30708850407443
 20
65.62346941601183
 30
0.0
 10
92.49787707284528
 20
65.67270291211223
 30
0.0
 10
92.60971220941641
 20
65.70017530086575
 30
0.0
 10
92.98607848614549
 20
65.78824902255907
 30
0.0
 10
93.29283238443287
 20
65.8549958785391
 30
0.0
 10
93.83597723842196
 20
65.96253228978385
 30
0.0
 10
94.03195763977828
 20
65.99979258329249
 30
0.0
 10
94.4480943489124
 20
66.07509999502382
 30
0.0
 10
94.66707260920612
 20
66.11294742004262
 30
0.0
 10
95.35590091487164
 20
66.22567972663936
 30
0.0
 10
95.85732530663545
 20
66.29978333172372
 30
0.0
 10
96.67525311759121
 20
66.40366251207388
 30
0.0
 10
96.9580475522387
 20
66.43691826513238
 30
0.0
 10
97.53354052729689
 20
66.49868152953297
 30
0.0
 10
97.82763712742425
 20
66.5273725210833
 30
0.0
 10
98.42845689727136
 20
66.57966425492424
 30
0.0
 10
98.73517978163268
 20
66.60326606583106
 30
0.0
 10
99.3615432623829
 20
66.64464603982096
 30
0.0
 10
99.68276695310576
 20
66.6624867664654
 30
0.0
 10
100.6536471129556
 20
66.70555036928808
 30
0.0
 10
101.3085944969666
 20
66.7203990411595
 30
0.0
 10
101.97134882832
 20
66.72039904115951
 30
0.0
  0
LINE
  5
E3
330
1F
100
AcDbEntity
  8
0
  6
HIDDEN
 62
     7
370
     0
100
AcDbLine
 10
101.971348578
 20
66.7203977244
 30
0.0
 11
103.7593202832
 21
66.7203977244
 31
0.0
  0
LINE
  5
E4
330
1F
100
AcDbEntity
  8
0
  6
HIDDEN
 62
     7
370
     0
100
AcDbLine
 10
103.7593202832
 20
164.4851877826
 30
0.0
 11
103.7593202832
 21
66.7203977244
 31
0.0
  0
LINE
  5
E5
330
1F
100
AcDbEntity
  8
0
  6
HIDDEN
 62
     7
370
     0
100
AcDbLine
 10
101.971348578
 20
164.4851877826
 30
0.0
 11
103.7593202832
 21
164.4851877826
 31
0.0
  0
SPLINE
  5
E6
330
1F
100
AcDbEntity
  8
0
  6
HIDDEN
 62
     7
370
     0
100
AcDbSpline
210
0.0
220
0.0
230
1.0
 70
     8
 71
     3
 72
    17
 73
    13
 74
     0
 42
0.00000001
 43
0.00000001
 40
0.0
 40
0.0
 40
0.0
 40
0.0
 40
0.0675713803268669
 40
0.1712576030248766
 40
0.2779172511717157
 40
0.3822981657295449
 40
0.4896051291308794
 40
0.5957700724795216
 40
0.7049970045876547
 40
0.81132349772151
 40
0.9208377748585306
 40
1.0
 40
1.0
 40
1.0
 40
1.0
 10
92.00542170355152
 20
165.4885909991613
 30
0.0
 10
92.00288898774897
 20
165.4890893774964
 30
0.0
 10
91.99646989677596
 20
165.4903525021898
 30
0.0
 10
92.30023011915031
 20
165.4300231701344
 30
0.0
 10
92.86378300035288
 20
165.3230367669792
 30
0.0
 10
93.69505195249866
 20
165.1764854927747
 30
0.0
 10
94.74868285483288
 20
165.0102756125613
 30
0.0
 10
96.02181452137872
 20
164.8389935312564
 30
0.0
 10
97.46120979579199
 20
164.6844411695304
 30
0.0
 10
99.04696276007671
 20
164.563994222865
 30
0.0
 10
100.5662805432159
 20
164.4957792329533
 30
0.0
 10
101.5560676618167
 20
164.4883181841597
 30
0.0
 10
101.9713485779805
 20
164.4851877825609
 30
0.0
  0
SPLINE
  5
E7
330
1F
100
AcDbEntity
  8
0
  6
HIDDEN
 62
     7
370
     0
100
AcDbSpline
210
0.0
220
0.0
230
1.0
 70
     8
 71
     3
 72
    80
 73
    76
 74
     0
 42
0.00000001
 43
0.00000001
 40
-0.0312500000000001
 40
-0.0312500000000001
 40
0.0
 40
0.0
 40
0.0312499999999999
 40
0.0312499999999999
 40
0.0468749999999998
 40
0.0468749999999998
 40
0.0624999999999998
 40
0.0624999999999998
 40
0.0937499999999996
 40
0.0937499999999996
 40
0.1249999999999995
 40
0.1249999999999995
 40
0.1562499999999993
 40
0.1562499999999993
 40
0.1874999999999992
 40
0.1874999999999992
 40
0.218749999999999
 40
0.218749999999999
 40
0.2499999999999988
 40
0.2499999999999988
 40
0.2812499999999987
 40
0.2812499999999987
 40
0.3124999999999985
 40
0.3124999999999985
 40
0.3281249999999984
 40
0.3281249999999984
 40
0.3437499999999984
 40
0.3437499999999984
 40
0.3749999999999983
 40
0.3749999999999983
 40
0.4062499999999983
 40
0.4062499999999983
 40
0.4218749999999983
 40
0.4218749999999983
 40
0.4374999999999983
 40
0.4374999999999983
 40
0.4687499999999983
 40
0.4687499999999983
 40
0.4999999999999984
 40
0.4999999999999984
 40
0.5312499999999986
 40
0.5312499999999986
 40
0.5624999999999987
 40
0.5624999999999987
 40
0.5937499999999987
 40
0.5937499999999987
 40
0.6249999999999987
 40
0.6249999999999987
 40
0.6562499999999987
 40
0.6562499999999987
 40
0.6874999999999987
 40
0.6874999999999987
 40
0.7031249999999987
 40
0.7031249999999987
 40
0.7187499999999988
 40
0.7187499999999988
 40
0.749999999999999
 40
0.749999999999999
 40
0.7812499999999992
 40
0.7812499999999992
 40
0.7968749999999992
 40
0.7968749999999992
 40
0.8124999999999993
 40
0.8124999999999993
 40
0.8437499999999994
 40
0.8437499999999994
 40
0.8749999999999996
 40
0.8749999999999996
 40
0.9062499999999997
 40
0.9062499999999997
 40
0.9374999999999998
 40
0.9374999999999998
 40
0.9687499999999999
 40
0.9687499999999999
 40
1.0
 40
1.0
 40
1.03125
 40
1.03125
 10
89.02134882832003
 20
115.8259377772483
 30
0.0
 10
89.02134882832003
 20
115.1648474911283
 30
0.0
 10
89.0538039225005
 20
114.8398670890271
 30
0.0
 10
89.14914917673481
 20
114.360392815679
 30
0.0
 10
89.18876603488862
 20
114.201910636578
 30
0.0
 10
89.28402413071369
 20
113.8876902851945
 30
0.0
 10
89.33992024185764
 20
113.7315693497067
 30
0.0
 10
89.52819890259472
 20
113.2775133540964
 30
0.0
 10
89.68178925077734
 20
112.9904088931347
 30
0.0
 10
90.04462294155434
 20
112.4470533992092
 30
0.0
 10
90.25567716368218
 20
112.1899492795899
 30
0.0
 10
90.71667745395689
 20
111.7290434783372
 30
0.0
 10
90.96825575627781
 20
111.5221468036087
 30
0.0
 10
91.51472815867245
 20
111.1566240813307
 30
0.0
 10
91.80544645075302
 20
111.0014195726588
 30
0.0
 10
92.40698959773515
 20
110.7519907432154
 30
0.0
 10
92.72226444349657
 20
110.6559012890406
 30
0.0
 10
93.36776411061541
 20
110.5273825964132
 30
0.0
 10
93.69231257669895
 20
110.4955717636214
 30
0.0
 10
94.34491831009933
 20
110.4952149990339
 30
0.0
 10
94.67638733661101
 20
110.5277121225479
 30
0.0
 10
95.31780160060926
 20
110.6553373326138
 30
0.0
 10
95.6295760160606
 20
110.7497654296443
 30
0.0
 10
96.08377448798622
 20
110.9376252573551
 30
0.0
 10
96.23365561377848
 20
111.0084527815872
 30
0.0
 10
96.52310978363873
 20
111.1631734942684
 30
0.0
 10
96.6631176160913
 20
111.2471493630559
 30
0.0
 10
97.06932362517806
 20
111.5184713987632
 30
0.0
 10
97.32184051632422
 20
111.7250197522137
 30
0.0
 10
97.78885575546573
 20
112.1916298391887
 30
0.0
 10
97.99563959429538
 20
112.4439944590884
 30
0.0
 10
98.26727108687408
 20
112.8498967159916
 30
0.0
 10
98.35134979583707
 20
112.9897978199932
 30
0.0
 10
98.5062813314124
 20
113.2790230363267
 30
0.0
 10
98.57725811924806
 20
113.4288631740629
 30
0.0
 10
98.76556050306598
 20
113.88298155381
 30
0.0
 10
98.8602384503903
 20
114.1946340310687
 30
0.0
 10
98.98839444482951
 20
114.8356324037387
 30
0.0
 10
99.02122854643126
 20
115.1671597169834
 30
0.0
 10
99.0214684349959
 20
115.8199507375419
 30
0.0
 10
98.98993572149818
 20
116.1444873705458
 30
0.0
 10
98.86209223583553
 20
116.7897584844887
 30
0.0
 10
98.76619982152215
 20
117.105501743135
 30
0.0
 10
98.51724899233383
 20
117.7073926354598
 30
0.0
 10
98.36235691086267
 20
117.9981424109273
 30
0.0
 10
97.99723325704014
 20
118.5450566529171
 30
0.0
 10
97.79052884551292
 20
118.7968342563241
 30
0.0
 10
97.33002774786934
 20
119.2582211705033
 30
0.0
 10
97.07311513021999
 20
119.469489206214
 30
0.0
 10
96.53007194573397
 20
119.8327915604287
 30
0.0
 10
96.24314771213956
 20
119.986597118584
 30
0.0
 10
95.78942295499337
 20
120.1752153747189
 30
0.0
 10
95.63338693719989
 20
120.2312455448815
 30
0.0
 10
95.3191507853857
 20
120.3268188973573
 30
0.0
 10
95.16067824954744
 20
120.3665816657768
 30
0.0
 10
94.68128818704147
 20
120.4623531221509
 30
0.0
 10
94.35643689368092
 20
120.4950759715689
 30
0.0
 10
93.69577847427765
 20
120.4957047674653
 30
0.0
 10
93.3702512401603
 20
120.4635185923244
 30
0.0
 10
92.89072009247222
 20
120.3686081602017
 30
0.0
 10
92.73224013798212
 20
120.3291415185077
 30
0.0
 10
92.41806446950271
 20
120.234211976275
 30
0.0
 10
92.26186308581306
 20
120.1784554773839
 30
0.0
 10
91.80745359627859
 20
119.9905165020213
 30
0.0
 10
91.52019664806281
 20
119.8371560345463
 30
0.0
 10
90.97664123519027
 20
119.4748935232234
 30
0.0
 10
90.71930024157848
 20
119.2640462929185
 30
0.0
 10
90.25790497965033
 20
118.8033777711822
 30
0.0
 10
90.050819850338
 20
118.5520033609807
 30
0.0
 10
89.68495046700899
 20
118.0060934829866
 30
0.0
 10
89.52933763025386
 20
117.7152698769263
 30
0.0
 10
89.27937439870978
 20
117.1139407753631
 30
0.0
 10
89.18314559829902
 20
116.7994204929307
 30
0.0
 10
89.05380777217637
 20
116.1528384546854
 30
0.0
 10
89.02134882832003
 20
115.8259377772483
 30
0.0
 10
89.02134882832003
 20
115.1648474911283
 30
0.0
  0
SPLINE
  5
E8
330
1F
100
AcDbEntity
  8
0
  6
HIDDEN
 62
     7
370
     0
100
AcDbSpline
210
0.0
220
0.0
230
1.0
 70
     8
 71
     3
 72
    80
 73
    76
 74
     0
 42
0.00000001
 43
0.00000001
 40
-0.0312500000000003
 40
-0.0312500000000003
 40
0.0
 40
0.0
 40
0.03125
 40
0.03125
 40
0.046875
 40
0.046875
 40
0.0624999999999999
 40
0.0624999999999999
 40
0.0937499999999998
 40
0.0937499999999998
 40
0.1249999999999996
 40
0.1249999999999996
 40
0.1562499999999995
 40
0.1562499999999995
 40
0.1874999999999994
 40
0.1874999999999994
 40
0.2187499999999993
 40
0.2187499999999993
 40
0.2499999999999992
 40
0.2499999999999992
 40
0.2812499999999991
 40
0.2812499999999991
 40
0.3124999999999989
 40
0.3124999999999989
 40
0.3281249999999988
 40
0.3281249999999988
 40
0.3437499999999986
 40
0.3437499999999986
 40
0.3749999999999983
 40
0.3749999999999983
 40
0.4062499999999981
 40
0.4062499999999981
 40
0.4218749999999979
 40
0.4218749999999979
 40
0.4374999999999978
 40
0.4374999999999978
 40
0.4687499999999977
 40
0.4687499999999977
 40
0.4999999999999975
 40
0.4999999999999975
 40
0.5312499999999972
 40
0.5312499999999972
 40
0.562499999999997
 40
0.562499999999997
 40
0.5937499999999968
 40
0.5937499999999968
 40
0.6249999999999966
 40
0.6249999999999966
 40
0.6562499999999964
 40
0.6562499999999964
 40
0.6874999999999962
 40
0.6874999999999962
 40
0.7031249999999962
 40
0.7031249999999962
 40
0.7187499999999963
 40
0.7187499999999963
 40
0.7499999999999968
 40
0.7499999999999968
 40
0.7812499999999972
 40
0.7812499999999972
 40
0.7968749999999976
 40
0.7968749999999976
 40
0.8124999999999978
 40
0.8124999999999978
 40
0.8437499999999981
 40
0.8437499999999981
 40
0.8749999999999984
 40
0.8749999999999984
 40
0.9062499999999989
 40
0.9062499999999989
 40
0.9374999999999992
 40
0.9374999999999992
 40
0.9687499999999997
 40
0.9687499999999997
 40
1.0
 40
1.0
 40
1.03125
 40
1.03125
 10
96.35189414109632
 20
164.3549418906663
 30
0.0
 10
95.6908035155437
 20
164.3549418906663
 30
0.0
 10
95.36582338629209
 20
164.3480437448395
 30
0.0
 10
94.88634997504566
 20
164.3275173168589
 30
0.0
 10
94.72786815720485
 20
164.3189610897714
 30
0.0
 10
94.41364862470057
 20
164.2982347145537
 30
0.0
 10
94.25752834102016
 20
164.2860074143474
 30
0.0
 10
93.8034743120636
 20
164.2444381205181
 30
0.0
 10
93.51637092912377
 20
164.2100938354204
 30
0.0
 10
92.97301637309674
 20
164.1267697110981
 30
0.0
 10
92.71591276189118
 20
164.0773314883236
 30
0.0
 10
92.2550065069524
 20
163.9659517585637
 30
0.0
 10
92.04810879773743
 20
163.9036572450515
 30
0.0
 10
91.68258348374522
 20
163.7637276021806
 30
0.0
 10
91.52737796161927
 20
163.6871117044315
 30
0.0
 10
91.27794757501954
 20
163.5231530845758
 30
0.0
 10
91.18185761923438
 20
163.43459623048
 30
0.0
 10
91.05333877004082
 20
163.2471155483743
 30
0.0
 10
91.02152789986303
 20
163.1498790869199
 30
0.0
 10
91.02117125008975
 20
162.9482464475928
 30
0.0
 10
91.05366850228683
 20
162.8426976557546
 30
0.0
 10
91.18129397600131
 20
162.6325828730661
 30
0.0
 10
91.2757223770532
 20
162.5275173650972
 30
0.0
 10
91.46358319703876
 20
162.3706396578461
 30
0.0
 10
91.53441119584195
 20
162.3182059241403
 30
0.0
 10
91.68913308780724
 20
162.2157674785106
 30
0.0
 10
91.77310955799064
 20
162.1656197498588
 30
0.0
 10
92.04443322763505
 20
162.0186037934253
 30
0.0
 10
92.25098244623739
 20
161.9251159729908
 30
0.0
 10
92.7175925864264
 20
161.7493291153765
 30
0.0
 10
92.96995815605186
 20
161.6699506402928
 30
0.0
 10
93.37585949773059
 20
161.5644682027987
 30
0.0
 10
93.51576011520807
 20
161.5315826379586
 30
0.0
 10
93.80498405045498
 20
161.4706671587299
 30
0.0
 10
93.95482350674428
 20
161.4425865870875
 30
0.0
 10
94.40894007635505
 20
161.3677845450447
 30
0.0
 10
94.72059129509192
 20
161.3297464867986
 30
0.0
 10
95.36158776000428
 20
161.2781345602745
 30
0.0
 10
95.69311538795645
 20
161.264820626753
 30
0.0
 10
96.34590643302793
 20
161.2647235404249
 30
0.0
 10
96.67044263805977
 20
161.277511625586
 30
0.0
 10
97.31571208747616
 20
161.3290018151819
 30
0.0
 10
97.63145509363888
 20
161.367526394502
 30
0.0
 10
98.23334438862258
 20
161.46642895736
 30
0.0
 10
98.52409361943405
 20
161.527533055285
 30
0.0
 10
99.07100541111855
 20
161.6693424883957
 30
0.0
 10
99.32278277495547
 20
161.7486769729749
 30
0.0
 10
99.7841707675766
 20
161.9220557176364
 30
0.0
 10
99.99544004717468
 20
162.0172156623904
 30
0.0
 10
100.3587443995509
 20
162.2137881857663
 30
0.0
 10
100.5125510479937
 20
162.3155444141727
 30
0.0
 10
100.7011705175911
 20
162.4723303769582
 30
0.0
 10
100.7572010038002
 20
162.5255844107082
 30
0.0
 10
100.8527747655364
 20
162.631388972261
 30
0.0
 10
100.8925376825613
 20
162.6840420366165
 30
0.0
 10
100.9883094328735
 20
162.8411157560757
 30
0.0
 10
101.0210322719996
 20
162.9446407914028
 30
0.0
 10
101.0216608583287
 20
163.1488555256299
 30
0.0
 10
100.9894747135939
 20
163.2463593632146
 30
0.0
 10
100.8945640117383
 20
163.3856864135663
 30
0.0
 10
100.8550972283394
 20
163.4310031450707
 30
0.0
 10
100.7601672296185
 20
163.5194429660596
 30
0.0
 10
100.7044104018551
 20
163.5626972165196
 30
0.0
 10
100.5164702838852
 20
163.6865886911095
 30
0.0
 10
100.363108814169
 20
163.7622909818836
 30
0.0
 10
100.0008445792887
 20
163.9015453533418
 30
0.0
 10
99.78999610582277
 20
163.9653071948705
 30
0.0
 10
99.32932613550386
 20
164.0768040343384
 30
0.0
 10
99.07795175592004
 20
164.125330106655
 30
0.0
 10
98.5320438690219
 20
164.2093840900355
 30
0.0
 10
98.24122129437069
 20
164.2441826437021
 30
0.0
 10
97.63989467959065
 20
164.299379108466
 30
0.0
 10
97.32537609497827
 20
164.3201969572198
 30
0.0
 10
96.67879463885832
 20
164.3480442901306
 30
0.0
 10
96.35189414109632
 20
164.3549418906663
 30
0.0
 10
95.6908035155437
 20
164.3549418906663
 30
0.0
  0
LINE
  5
E9
330
1F
100
AcDbEntity
  8
0
  6
HIDDEN
 62
     7
370
     0
100
AcDbLine
 10
105.1113492044
 20
70.0322143274
 30
0.0
 11
105.1113492044
 21
146.845394327
 31
0.0
  0
LINE
  5
EA
330
1F
100
AcDbEntity
  8
0
  6
HIDDEN
 62
     7
370
     0
100
AcDbLine
 10
108.9313494208
 20
70.0322143274
 30
0.0
 11
108.9313494208
 21
146.845394327
 31
0.0
  0
LINE
  5
EB
330
1F
100
AcDbEntity
  8
0
  6
HIDDEN
 62
     7
370
     0
100
AcDbLine
 10
91.9713488015
 20
146.845394327
 30
0.0
 11
101.6793156209
 21
146.845394327
 31
0.0
  0
LINE
  5
EC
330
1F
100
AcDbEntity
  8
0
  6
HIDDEN
 62
     7
370
     0
100
AcDbLine
 10
87.0213488283
 20
76.0907098191
 30
0.0
 11
87.0213488283
 21
154.9000754493
 31
0.0
  0
LWPOLYLINE
  5
ED
330
1F
100
AcDbEntity
  8
0
  6
HIDDEN
 62
     7
370
     0
100
AcDbPolyline
 90
        2
 70
   128
 43
0.0
 10
105.1113492044
 20
146.845394327
 10
105.1113492044
 20
146.845394327
  0
LWPOLYLINE
  5
EE
330
1F
100
AcDbEntity
  8
0
  6
HIDDEN
 62
     7
370
     0
100
AcDbPolyline
 90
        2
 70
   128
 43
0.0
 10
108.9313494208
 20
146.845394327
 10
108.9313494208
 20
146.845394327
  0
LWPOLYLINE
  5
EF
330
1F
100
AcDbEntity
  8
0
  6
HIDDEN
 62
     7
370
     0
100
AcDbPolyline
 90
        2
 70
   128
 43
0.0
 10
115.9713490101
 20
146.845394327
 10
115.9713490101
 20
146.845394327
  0
LINE
  5
F0
330
1F
100
AcDbEntity
  8
0
  6
HIDDEN
 62
     7
370
     0
100
AcDbLine
 10
84.5213488842
 20
153.3776424365
 30
0.0
 11
84.5213488842
 21
77.6131428318
 31
0.0
  0
SPLINE
  5
F1
330
1F
100
AcDbEntity
  8
0
  6
HIDDEN
 62
     7
370
     0
100
AcDbSpline
210
0.0
220
0.0
230
1.0
 70
     8
 71
     3
 72
     8
 73
     4
 74
     0
 42
0.00000001
 43
0.00000001
 40
0.0
 40
0.0
 40
0.0
 40
0.0
 40
1.0
 40
1.0
 40
1.0
 40
1.0
 10
46.77670844023913
 20
83.53969264475309
 30
0.0
 10
47.94200675094802
 20
83.69488011663971
 30
0.0
 10
49.1266219649879
 20
83.83123875495002
 30
0.0
 10
50.32134882832003
 20
83.95774122954488
 30
0.0
  0
SPLINE
  5
F2
330
1F
100
AcDbEntity
  8
0
  6
HIDDEN
 62
     7
370
     0
100
AcDbSpline
210
0.0
220
0.0
230
1.0
 70
     8
 71
     3
 72
    14
 73
    10
 74
     0
 42
0.00000001
 43
0.00000001
 40
0.0
 40
0.0
 40
0.0
 40
0.0
 40
0.124999999999998
 40
0.124999999999998
 40
0.249999999999996
 40
0.249999999999996
 40
0.4999999999999973
 40
0.4999999999999973
 40
1.0
 40
1.0
 40
1.0
 40
1.0
 10
50.32134882832001
 20
83.95774122954488
 30
0.0
 10
50.38893112810451
 20
83.96489711464628
 30
0.0
 10
50.46141870585242
 20
83.96047264460726
 30
0.0
 10
50.59370981511837
 20
83.93076648683693
 30
0.0
 10
50.65098719450856
 20
83.90748220525867
 30
0.0
 10
50.8006376217088
 20
83.82999696540837
 30
0.0
 10
50.8743509172303
 20
83.768145138507
 30
0.0
 10
51.06215890055654
 20
83.58346768585868
 30
0.0
 10
51.14619920691801
 20
83.45522476256745
 30
0.0
 10
51.21692635698427
 20
83.32891129044488
 30
0.0
  0
SPLINE
  5
F3
330
1F
100
AcDbEntity
  8
0
  6
HIDDEN
 62
     7
370
     0
100
AcDbSpline
210
0.0
220
0.0
230
1.0
 70
     8
 71
     3
 72
    14
 73
    10
 74
     0
 42
0.00000001
 43
0.00000001
 40
0.0
 40
0.0
 40
0.0
 40
0.0
 40
0.25
 40
0.25
 40
0.5
 40
0.5
 40
0.75
 40
0.75
 40
1.0
 40
1.0
 40
1.0
 40
1.0
 10
51.21692635698305
 20
83.32891129044478
 30
0.0
 10
51.30569493492838
 20
83.17037715913683
 30
0.0
 10
51.42741277360729
 20
83.01793448224826
 30
0.0
 10
51.66246238346413
 20
82.72079985841934
 30
0.0
 10
51.77809256968102
 20
82.57611721480198
 30
0.0
 10
51.97849750310885
 20
82.29282801229857
 30
0.0
 10
52.06389779509315
 20
82.15427401926173
 30
0.0
 10
52.1856034288104
 20
81.88288998922819
 30
0.0
 10
52.22134882832304
 20
81.75075412059357
 30
0.0
 10
52.22134882832302
 20
81.62605936882281
 30
0.0
  0
LINE
  5
F4
330
1F
100
AcDbEntity
  8
0
  6
HIDDEN
 62
     7
370
     0
100
AcDbLine
 10
52.2213483396
 20
81.626059069
 30
0.0
 11
52.2213483396
 21
79.2313791352
 31
0.0
  0
LINE
  5
F5
330
1F
100
AcDbEntity
  8
0
  6
HIDDEN
 62
     7
370
     0
100
AcDbLine
 10
47.2213493826
 20
151.5089064377
 30
0.0
 11
47.2213493826
 21
149.2399997549
 31
0.0
  0
SPLINE
  5
F6
330
1F
100
AcDbEntity
  8
0
  6
HIDDEN
 62
     7
370
     0
100
AcDbSpline
210
0.0
220
0.0
230
1.0
 70
     8
 71
     3
 72
    20
 73
    16
 74
     0
 42
0.00000001
 43
0.00000001
 40
0.0
 40
0.0
 40
0.0
 40
0.0
 40
0.249999999999999
 40
0.249999999999999
 40
0.499999999999998
 40
0.499999999999998
 40
0.749999999999997
 40
0.749999999999997
 40
0.8749999999999973
 40
0.8749999999999973
 40
0.9374999999999982
 40
0.9374999999999982
 40
0.9687499999999991
 40
0.9687499999999991
 40
1.0
 40
1.0
 40
1.0
 40
1.0
 10
47.22134882832002
 20
149.2400013711729
 30
0.0
 10
47.22134882832002
 20
149.1043190514261
 30
0.0
 10
47.17263703910341
 20
148.9632320652861
 30
0.0
 10
47.0034756158782
 20
148.6711603465555
 30
0.0
 10
46.88169520195988
 20
148.5195116044651
 30
0.0
 10
46.5841481072104
 20
148.2171031643119
 30
0.0
 10
46.41023550150759
 20
148.0645145281887
 30
0.0
 10
46.09082066762581
 20
147.8392437643464
 30
0.0
 10
45.97577989217855
 20
147.7645206698356
 30
0.0
 10
45.76869556816213
 20
147.6651102605787
 30
0.0
 10
45.69258773335574
 20
147.633545168234
 30
0.0
 10
45.56119319380239
 20
147.5991017840411
 30
0.0
 10
45.51463997480093
 20
147.5900502122735
 30
0.0
 10
45.41830662372021
 20
147.579874563435
 30
0.0
 10
45.36904720036475
 20
147.57892480476
 30
0.0
 10
45.32134882831804
 20
147.5819155256745
 30
0.0
  0
SPLINE
  5
F7
330
1F
100
AcDbEntity
  8
0
  6
HIDDEN
 62
     7
370
     0
100
AcDbSpline
210
0.0
220
0.0
230
1.0
 70
     8
 71
     3
 72
    12
 73
     8
 74
     0
 42
0.00000001
 43
0.00000001
 40
0.0
 40
0.0
 40
0.0
 40
0.0
 40
0.25
 40
0.25
 40
0.5
 40
0.5
 40
1.0
 40
1.0
 40
1.0
 40
1.0
 10
45.32134882832002
 20
147.5819155256847
 30
0.0
 10
44.80265000649183
 20
147.614438300533
 30
0.0
 10
44.28093843328684
 20
147.6377350417035
 30
0.0
 10
43.23464641679126
 20
147.6755805561256
 30
0.0
 10
42.709974791121
 20
147.6898490306217
 30
0.0
 10
41.1331287685818
 20
147.72405851808
 30
0.0
 10
40.07817345403492
 20
147.7355580220239
 30
0.0
 10
39.02127394428967
 20
147.7412248027534
 30
0.0
  0
SPLINE
  5
F8
330
1F
100
AcDbEntity
  8
0
  6
HIDDEN
 62
     7
370
     0
100
AcDbSpline
210
0.0
220
0.0
230
1.0
 70
     8
 71
     3
 72
    14
 73
    10
 74
     0
 42
0.00000001
 43
0.00000001
 40
0.0
 40
0.0
 40
0.0
 40
0.0
 40
0.5000000000000012
 40
0.5000000000000012
 40
0.7500000000000004
 40
0.7500000000000004
 40
0.8750000000000002
 40
0.8750000000000002
 40
1.0
 40
1.0
 40
1.0
 40
1.0
 10
39.02127394428967
 20
83.24956046562318
 30
0.0
 10
40.32957550682367
 20
83.2565751893643
 30
0.0
 10
41.63463488148075
 20
83.27198376580876
 30
0.0
 10
43.58051093296942
 20
83.32588032127542
 30
0.0
 10
44.22720843670858
 20
83.34891188587814
 30
0.0
 10
45.1910508005631
 20
83.39985441074887
 30
0.0
 10
45.51128949249725
 20
83.41958933298207
 30
0.0
 10
46.14798471883979
 20
83.46907646145365
 30
0.0
 10
46.46470012712275
 20
83.49814124038288
 30
0.0
 10
46.77670844023915
 20
83.53969264475306
 30
0.0
  0
SPLINE
  5
F9
330
1F
100
AcDbEntity
  8
0
  6
HIDDEN
 62
     7
370
     0
100
AcDbSpline
210
0.0
220
0.0
230
1.0
 70
     8
 71
     3
 72
    12
 73
     8
 74
     0
 42
0.00000001
 43
0.00000001
 40
0.0
 40
0.0
 40
0.0
 40
0.0
 40
0.2482589358280065
 40
0.49275692651338
 40
0.4996929268905924
 40
0.7517603429469285
 40
1.0
 40
1.0
 40
1.0
 40
1.0
 10
67.43477267945241
 20
78.75958602002775
 30
0.0
 10
67.14858039676758
 20
78.73535132642729
 30
0.0
 10
66.58053143958796
 20
78.68724907748417
 30
0.0
 10
66.24421924390236
 20
78.64616943726853
 30
0.0
 10
65.8429156838918
 20
78.60274565497177
 30
0.0
 10
65.62686498518019
 20
78.57441806014597
 30
0.0
 10
65.5696788068828
 20
78.56755258795268
 30
0.0
 10
65.54130447829198
 20
78.56414611509955
 30
0.0
  0
SPLINE
  5
FA
330
1F
100
AcDbEntity
  8
0
  6
HIDDEN
 62
     7
370
     0
100
AcDbSpline
210
0.0
220
0.0
230
1.0
 70
     8
 71
     3
 72
    20
 73
    16
 74
     0
 42
0.00000001
 43
0.00000001
 40
0.0
 40
0.0
 40
0.0
 40
0.0
 40
0.000418356455708
 40
0.0837682262268331
 40
0.1682467902922527
 40
0.2524475361374566
 40
0.3356320373710427
 40
0.4186123827497615
 40
0.5021246419430109
 40
0.5856817837477536
 40
0.6679083590237711
 40
0.7502171307502373
 40
0.8336315605145959
 40
0.9171894258508728
 40
0.9999999999999999
 40
0.9999999999999999
 40
0.9999999999999999
 40
0.9999999999999999
 10
78.4534381868882
 20
77.91725318006193
 30
0.0
 10
78.45364371308041
 20
77.91720702228014
 30
0.0
 10
78.49479657286737
 20
77.90796477095338
 30
0.0
 10
78.34900056936053
 20
77.94074527391828
 30
0.0
 10
77.99461578036423
 20
78.01772302440732
 30
0.0
 10
77.3926471852937
 20
78.14473726989942
 30
0.0
 10
76.59005926726117
 20
78.29701571932738
 30
0.0
 10
75.61140080539516
 20
78.45888025954673
 30
0.0
 10
74.48790836190943
 20
78.61093323077692
 30
0.0
 10
73.27303422896696
 20
78.73854567850996
 30
0.0
 10
72.0084184668072
 20
78.82624050166577
 30
0.0
 10
70.74037367879546
 20
78.86851008100065
 30
0.0
 10
69.52120146405342
 20
78.86438148455552
 30
0.0
 10
68.37957665812097
 20
78.82604747233849
 30
0.0
 10
67.74876284576183
 20
78.78167339787053
 30
0.0
 10
67.43477267945241
 20
78.75958602002777
 30
0.0
  0
SPLINE
  5
FB
330
1F
100
AcDbEntity
  8
0
  6
HIDDEN
 62
     7
370
     0
100
AcDbSpline
210
0.0
220
0.0
230
1.0
 70
     8
 71
     3
 72
    19
 73
    15
 74
     0
 42
0.00000001
 43
0.00000001
 40
0.0
 40
0.0
 40
0.0
 40
0.0
 40
0.0829493191956388
 40
0.1665845664378629
 40
0.2501287840155585
 40
0.3326342426237724
 40
0.414904590195398
 40
0.4986801461362106
 40
0.6644207758073458
 40
0.7475240743916562
 40
0.8316745465975424
 40
0.9160815921644417
 40
0.9994279840344213
 40
1.0
 40
1.0
 40
1.0
 40
1.0
 10
67.43468327248524
 20
152.2311843471876
 30
0.0
 10
67.74940064055893
 20
152.2091729843111
 30
0.0
 10
68.38143785098336
 20
152.1649682412577
 30
0.0
 10
69.52366413622225
 20
152.1266560475785
 30
0.0
 10
70.74385873115403
 20
152.1225550183358
 30
0.0
 10
72.0126184806772
 20
152.1646827870356
 30
0.0
 10
73.27893289854394
 20
152.2526326152031
 30
0.0
 10
74.89236931211569
 20
152.4219921691175
 30
0.0
 10
76.33114510020178
 20
152.6441311301219
 30
0.0
 10
77.39440164122128
 20
152.8463800102852
 30
0.0
 10
77.99599527733567
 20
152.973151222238
 30
0.0
 10
78.34950681829892
 20
153.0499977446516
 30
0.0
 10
78.49530603423096
 20
153.0829005347566
 30
0.0
 10
78.45360138778733
 20
153.073551113616
 30
0.0
 10
78.4533171149535
 20
153.0734873848311
 30
0.0
  0
SPLINE
  5
FC
330
1F
100
AcDbEntity
  8
0
  6
HIDDEN
 62
     7
370
     0
100
AcDbSpline
210
0.0
220
0.0
230
1.0
 70
     8
 71
     3
 72
    12
 73
     8
 74
     0
 42
0.00000001
 43
0.00000001
 40
0.0
 40
0.0
 40
0.0
 40
0.0
 40
0.1661348483723765
 40
0.3322012848936254
 40
0.5008930844532482
 40
0.7521368938593876
 40
0.9999999999999999
 40
0.9999999999999999
 40
0.9999999999999999
 40
0.9999999999999999
 10
65.54067117894124
 20
152.4266950326315
 30
0.0
 10
65.55106392051538
 20
152.4253181395981
 30
0.0
 10
65.57184512408776
 20
152.4225649205152
 30
0.0
 10
65.74514415798075
 20
152.4009591658125
 30
0.0
 10
66.06709497349725
 20
152.363095879078
 30
0.0
 10
66.58826010702526
 20
152.3027097808181
 30
0.0
 10
67.1538191563774
 20
152.2549182530111
 30
0.0
 10
67.43468327248524
 20
152.2311843471876
 30
0.0
  0
LINE
  5
FD
330
1F
100
AcDbEntity
  8
0
  6
HIDDEN
 62
     7
370
     0
100
AcDbLine
 10
37.1306369247
 20
84.9222667055
 30
0.0
 11
37.2066812756
 21
84.8776805686
 31
0.0
  0
LINE
  5
FE
330
1F
100
AcDbEntity
  8
0
  6
HIDDEN
 62
     7
370
     0
100
AcDbLine
 10
37.1965894642
 20
146.1215201306
 30
0.0
 11
37.1449830177
 21
146.1056410807
 31
0.0
  0
SPLINE
  5
FF
330
1F
100
AcDbEntity
  8
0
  6
HIDDEN
 62
     7
370
     0
100
AcDbSpline
210
0.0
220
0.0
230
1.0
 70
    11
 71
     3
 72
    66
 73
    62
 74
     0
 42
0.00000001
 43
0.00000001
 40
0.0
 40
0.0
 40
0.0
 40
0.0
 40
0.0625000000000002
 40
0.0625000000000002
 40
0.1250000000000004
 40
0.1250000000000004
 40
0.1562500000000005
 40
0.1562500000000005
 40
0.1875000000000005
 40
0.1875000000000005
 40
0.2187500000000006
 40
0.2187500000000006
 40
0.2500000000000006
 40
0.2500000000000006
 40
0.2812500000000007
 40
0.2812500000000007
 40
0.3125000000000007
 40
0.3125000000000007
 40
0.3437500000000008
 40
0.3437500000000008
 40
0.3750000000000008
 40
0.3750000000000008
 40
0.4062500000000008
 40
0.4062500000000008
 40
0.4375000000000009
 40
0.4375000000000009
 40
0.4687500000000009
 40
0.4687500000000009
 40
0.500000000000001
 40
0.500000000000001
 40
0.531250000000001
 40
0.531250000000001
 40
0.562500000000001
 40
0.562500000000001
 40
0.593750000000001
 40
0.593750000000001
 40
0.625000000000001
 40
0.625000000000001
 40
0.656250000000001
 40
0.656250000000001
 40
0.687500000000001
 40
0.687500000000001
 40
0.718750000000001
 40
0.718750000000001
 40
0.7500000000000009
 40
0.7500000000000009
 40
0.7812500000000009
 40
0.7812500000000009
 40
0.8125000000000008
 40
0.8125000000000008
 40
0.8437500000000007
 40
0.8437500000000007
 40
0.8750000000000006
 40
0.8750000000000006
 40
0.9062500000000004
 40
0.9062500000000004
 40
0.9375000000000003
 40
0.9375000000000003
 40
0.9687500000000002
 40
0.9687500000000002
 40
1.0
 40
1.0
 40
1.0
 40
1.0
 10
77.27455448351105
 20
84.12907041344123
 30
0.0
 10
76.95326777903458
 20
84.1828792444867
 30
0.0
 10
76.5471886551427
 20
84.24644885902747
 30
0.0
 10
75.56582198586403
 20
84.37343011750792
 30
0.0
 10
75.0138577298368
 20
84.43357395622445
 30
0.0
 10
74.10055647601935
 20
84.50376518488333
 30
0.0
 10
73.78612944702913
 20
84.52342072734504
 30
0.0
 10
73.14854474106248
 20
84.55320195880431
 30
0.0
 10
72.82371762799228
 20
84.56346404955747
 30
0.0
 10
72.16155396012833
 20
84.57355459449538
 30
0.0
 10
71.82820146384572
 20
84.5732332157948
 30
0.0
 10
71.17278322465425
 20
84.56219524407254
 30
0.0
 10
70.84828686677366
 20
84.5515218877124
 30
0.0
 10
70.20586036709406
 20
84.52051473674011
 30
0.0
 10
69.89140676816606
 20
84.50027847144368
 30
0.0
 10
69.29105935284407
 20
84.45324500549073
 30
0.0
 10
69.00270324824169
 20
84.42632912162884
 30
0.0
 10
68.44999735009775
 20
84.3677676398151
 30
0.0
 10
68.18853891288116
 20
84.33638822239455
 30
0.0
 10
67.70744520890682
 20
84.27355911141322
 30
0.0
 10
67.48567826047874
 20
84.24187765162137
 30
0.0
 10
67.08046016389657
 20
84.18050365051504
 30
0.0
 10
66.89879382834926
 20
84.15106398621633
 30
0.0
 10
66.58689711266295
 20
84.09858333588285
 30
0.0
 10
66.45488592953517
 20
84.0752665026061
 30
0.0
 10
66.23985496161724
 20
84.03645927255465
 30
0.0
 10
66.15773198591052
 20
84.02113072267228
 30
0.0
 10
66.04922215371465
 20
84.00073503297517
 30
0.0
 10
66.02169002371919
 20
83.99545762375563
 30
0.0
 10
66.02101389325537
 20
83.99532883706536
 30
0.0
 10
66.04856275335648
 20
84.00060954709205
 30
0.0
 10
66.15654060174722
 20
84.0209083057606
 30
0.0
 10
66.23681050892486
 20
84.03589733915578
 30
0.0
 10
66.45045976593505
 20
84.074479764015
 30
0.0
 10
66.5845153308491
 20
84.09817087783948
 30
0.0
 10
66.89637070114962
 20
84.15066777749037
 30
0.0
 10
67.07504177900822
 20
84.1796423371122
 30
0.0
 10
67.4783888732539
 20
84.24081299542041
 30
0.0
 10
67.70383572726293
 20
84.27306098768477
 30
0.0
 10
68.18514799180306
 20
84.3359717325645
 30
0.0
 10
68.44276709504587
 20
84.3669242330423
 30
0.0
 10
68.99251198350682
 20
84.42532423368556
 30
0.0
 10
69.28602645800086
 20
84.45280455866738
 30
0.0
 10
69.88692663730983
 20
84.49997290729347
 30
0.0
 10
70.19671885025878
 20
84.51995754368374
 30
0.0
 10
70.83526878838744
 20
84.55100557691495
 30
0.0
 10
71.16616701485185
 20
84.56202171724337
 30
0.0
 10
71.82322392402881
 20
84.5732104047772
 30
0.0
 10
72.1520163697319
 20
84.5735747798177
 30
0.0
 10
72.81013038269745
 20
84.56379193598615
 30
0.0
 10
73.14167101171462
 20
84.55346509992685
 30
0.0
 10
73.78187128824102
 20
84.52367655204706
 30
0.0
 10
74.09310287086653
 20
84.50424502018463
 30
0.0
 10
74.69798438047589
 20
84.45794036279169
 30
0.0
 10
74.99340829673233
 20
84.43082235700024
 30
0.0
 10
75.54638356178414
 20
84.3730492311811
 30
0.0
 10
75.80629757100148
 20
84.34226205860548
 30
0.0
 10
76.29325377613432
 20
84.2793570185348
 30
0.0
 10
76.52145148283242
 20
84.24703358582168
 30
0.0
 10
76.93098452747039
 20
84.18543348357846
 30
0.0
 10
77.11391200555039
 20
84.15597468254069
 30
0.0
 10
77.27455448351105
 20
84.12907041344124
 30
0.0
  0
SPLINE
  5
100
330
1F
100
AcDbEntity
  8
0
  6
HIDDEN
 62
     7
370
     0
100
AcDbSpline
210
0.0
220
0.0
230
1.0
 70
    11
 71
     3
 72
    66
 73
    62
 74
     0
 42
0.00000001
 43
0.00000001
 40
0.0
 40
0.0
 40
0.0
 40
0.0
 40
0.0625000000000002
 40
0.0625000000000002
 40
0.1250000000000004
 40
0.1250000000000004
 40
0.1562500000000005
 40
0.1562500000000005
 40
0.1875000000000005
 40
0.1875000000000005
 40
0.2187500000000006
 40
0.2187500000000006
 40
0.2500000000000006
 40
0.2500000000000006
 40
0.2812500000000007
 40
0.2812500000000007
 40
0.3125000000000007
 40
0.3125000000000007
 40
0.3437500000000008
 40
0.3437500000000008
 40
0.3750000000000008
 40
0.3750000000000008
 40
0.4062500000000008
 40
0.4062500000000008
 40
0.4375000000000009
 40
0.4375000000000009
 40
0.4687500000000009
 40
0.4687500000000009
 40
0.500000000000001
 40
0.500000000000001
 40
0.531250000000001
 40
0.531250000000001
 40
0.562500000000001
 40
0.562500000000001
 40
0.593750000000001
 40
0.593750000000001
 40
0.625000000000001
 40
0.625000000000001
 40
0.656250000000001
 40
0.656250000000001
 40
0.687500000000001
 40
0.687500000000001
 40
0.718750000000001
 40
0.718750000000001
 40
0.7500000000000009
 40
0.7500000000000009
 40
0.7812500000000009
 40
0.7812500000000009
 40
0.8125000000000008
 40
0.8125000000000008
 40
0.8437500000000007
 40
0.8437500000000007
 40
0.8750000000000006
 40
0.8750000000000006
 40
0.9062500000000004
 40
0.9062500000000004
 40
0.9375000000000003
 40
0.9375000000000003
 40
0.9687500000000002
 40
0.9687500000000002
 40
1.0
 40
1.0
 40
1.0
 40
1.0
 10
77.27455448351105
 20
146.8617148549354
 30
0.0
 10
76.95326777903458
 20
146.8079060238899
 30
0.0
 10
76.5471886551427
 20
146.7443364093491
 30
0.0
 10
75.56582198586403
 20
146.6173551508687
 30
0.0
 10
75.0138577298368
 20
146.5572113121522
 30
0.0
 10
74.10055647601935
 20
146.4870200834933
 30
0.0
 10
73.78612944702913
 20
146.4673645410315
 30
0.0
 10
73.14854474106248
 20
146.4375833095723
 30
0.0
 10
72.82371762799228
 20
146.4273212188191
 30
0.0
 10
72.16155396012833
 20
146.4172306738812
 30
0.0
 10
71.82820146384572
 20
146.4175520525818
 30
0.0
 10
71.17278322465425
 20
146.428590024304
 30
0.0
 10
70.84828686677366
 20
146.4392633806642
 30
0.0
 10
70.20586036709406
 20
146.4702705316365
 30
0.0
 10
69.89140676816606
 20
146.4905067969329
 30
0.0
 10
69.29105935284407
 20
146.5375402628859
 30
0.0
 10
69.00270324824169
 20
146.5644561467478
 30
0.0
 10
68.44999735009775
 20
146.6230176285615
 30
0.0
 10
68.18853891288116
 20
146.6543970459821
 30
0.0
 10
67.70744520890682
 20
146.7172261569634
 30
0.0
 10
67.48567826047874
 20
146.7489076167552
 30
0.0
 10
67.08046016389657
 20
146.8102816178616
 30
0.0
 10
66.89879382834926
 20
146.8397212821603
 30
0.0
 10
66.58689711266295
 20
146.8922019324937
 30
0.0
 10
66.45488592953517
 20
146.9155187657705
 30
0.0
 10
66.23985496161724
 20
146.954325995822
 30
0.0
 10
66.15773198591052
 20
146.9696545457043
 30
0.0
 10
66.04922215371465
 20
146.9900502354014
 30
0.0
 10
66.02169002371919
 20
146.995327644621
 30
0.0
 10
66.02101389325537
 20
146.9954564313112
 30
0.0
 10
66.04856275335648
 20
146.9901757212845
 30
0.0
 10
66.15654060174722
 20
146.969876962616
 30
0.0
 10
66.23681050892486
 20
146.9548879292208
 30
0.0
 10
66.45045976593505
 20
146.9163055043616
 30
0.0
 10
66.5845153308491
 20
146.8926143905371
 30
0.0
 10
66.89637070114962
 20
146.8401174908862
 30
0.0
 10
67.07504177900822
 20
146.8111429312644
 30
0.0
 10
67.4783888732539
 20
146.7499722729562
 30
0.0
 10
67.70383572726293
 20
146.7177242806918
 30
0.0
 10
68.18514799180306
 20
146.6548135358121
 30
0.0
 10
68.44276709504587
 20
146.6238610353343
 30
0.0
 10
68.99251198350682
 20
146.5654610346911
 30
0.0
 10
69.28602645800086
 20
146.5379807097092
 30
0.0
 10
69.88692663730983
 20
146.4908123610831
 30
0.0
 10
70.19671885025878
 20
146.4708277246929
 30
0.0
 10
70.83526878838744
 20
146.4397796914617
 30
0.0
 10
71.16616701485185
 20
146.4287635511332
 30
0.0
 10
71.82322392402881
 20
146.4175748635994
 30
0.0
 10
72.1520163697319
 20
146.4172104885589
 30
0.0
 10
72.81013038269745
 20
146.4269933323905
 30
0.0
 10
73.14167101171462
 20
146.4373201684497
 30
0.0
 10
73.78187128824102
 20
146.4671087163295
 30
0.0
 10
74.09310287086653
 20
146.486540248192
 30
0.0
 10
74.69798438047589
 20
146.5328449055849
 30
0.0
 10
74.99340829673233
 20
146.5599629113764
 30
0.0
 10
75.54638356178414
 20
146.6177360371955
 30
0.0
 10
75.80629757100148
 20
146.6485232097711
 30
0.0
 10
76.29325377613432
 20
146.7114282498418
 30
0.0
 10
76.52145148283242
 20
146.7437516825549
 30
0.0
 10
76.93098452747039
 20
146.8053517847981
 30
0.0
 10
77.11391200555039
 20
146.8348105858359
 30
0.0
 10
77.27455448351105
 20
146.8617148549354
 30
0.0
  0
SPLINE
  5
101
330
1F
100
AcDbEntity
  8
0
  6
HIDDEN
 62
     7
370
     0
100
AcDbSpline
210
0.0
220
0.0
230
1.0
 70
    11
 71
     3
 72
    17
 73
    13
 74
     0
 42
0.00000001
 43
0.00000001
 40
0.0
 40
0.0
 40
0.0
 40
0.0
 40
0.25
 40
0.25
 40
0.3750000000000001
 40
0.3750000000000001
 40
0.5
 40
0.625
 40
0.625
 40
0.75
 40
0.75
 40
1.0
 40
1.0
 40
1.0
 40
1.0
 10
77.27455448351105
 20
146.8617148549354
 30
0.0
 10
77.52000407508764
 20
146.9028225491515
 30
0.0
 10
77.70503482502936
 20
146.9293534506992
 30
0.0
 10
77.89395204501196
 20
146.955470589399
 30
0.0
 10
77.94213210904435
 20
146.9618338293318
 30
0.0
 10
78.00566564879769
 20
146.9701409525491
 30
0.0
 10
78.03706319781803
 20
146.9741279929492
 30
0.0
 10
78.00560280208636
 20
146.9701329794894
 30
0.0
 10
77.9419018128589
 20
146.9618034723095
 30
0.0
 10
77.89371230860347
 20
146.9554381198643
 30
0.0
 10
77.70490142180834
 20
146.929333658537
 30
0.0
 10
77.52000492378298
 20
146.9028226912903
 30
0.0
 10
77.27455448351105
 20
146.8617148549354
 30
0.0
  0
SPLINE
  5
102
330
1F
100
AcDbEntity
  8
0
  6
HIDDEN
 62
     7
370
     0
100
AcDbSpline
210
0.0
220
0.0
230
1.0
 70
    11
 71
     3
 72
    17
 73
    13
 74
     0
 42
0.00000001
 43
0.00000001
 40
0.0
 40
0.0
 40
0.0
 40
0.0
 40
0.2500000000000001
 40
0.2500000000000001
 40
0.3749999999999999
 40
0.3749999999999999
 40
0.4999999999999999
 40
0.6249999999999999
 40
0.6249999999999999
 40
0.7499999999999999
 40
0.7499999999999999
 40
1.0
 40
1.0
 40
1.0
 40
1.0
 10
77.27455448351105
 20
84.12907041344123
 30
0.0
 10
77.52000407508766
 20
84.08796271922512
 30
0.0
 10
77.70503482502937
 20
84.06143181767747
 30
0.0
 10
77.89395204501196
 20
84.03531467897761
 30
0.0
 10
77.94213210904435
 20
84.02895143904483
 30
0.0
 10
78.00566564879769
 20
84.02064431582748
 30
0.0
 10
78.03706319781803
 20
84.01665727542738
 30
0.0
 10
78.00560280208634
 20
84.0206522888872
 30
0.0
 10
77.9419018128589
 20
84.02898179606706
 30
0.0
 10
77.89371230860347
 20
84.03534714851233
 30
0.0
 10
77.70490142180833
 20
84.06145160983958
 30
0.0
 10
77.52000492378296
 20
84.08796257708634
 30
0.0
 10
77.27455448351105
 20
84.12907041344123
 30
0.0
  0
LINE
  5
103
330
1F
100
AcDbEntity
  8
0
  6
HIDDEN
 62
     7
370
     0
100
AcDbLine
 10
87.0213488283
 20
88.9953929471
 30
0.0
 11
87.0213488283
 21
141.9953923213
 31
0.0
  0
LINE
  5
104
330
1F
100
AcDbEntity
  8
0
  6
HIDDEN
 62
     7
370
     0
100
AcDbLine
 10
101.6793156209
 20
146.845394327
 30
0.0
 11
115.9713490101
 21
146.845394327
 31
0.0
  0
LINE
  5
105
330
1F
100
AcDbEntity
  8
0
  6
HIDDEN
 62
     7
370
     0
100
AcDbLine
 10
105.1113492044
 20
150.2096294897
 30
0.0
 11
105.1113492044
 21
161.1889428931
 31
0.0
  0
LINE
  5
106
330
1F
100
AcDbEntity
  8
0
  6
HIDDEN
 62
     7
370
     0
100
AcDbLine
 10
108.9313494208
 20
150.2096294897
 30
0.0
 11
108.9313494208
 21
161.1889428931
 31
0.0
  0
LINE
  5
107
330
1F
100
AcDbEntity
  8
0
  6
HIDDEN
 62
     7
370
     0
100
AcDbLine
 10
57.0179725232
 20
141.9953923213
 30
0.0
 11
57.0179725232
 21
88.9953929471
 31
0.0
  0
LINE
  5
108
330
1F
100
AcDbEntity
  8
0
  6
HIDDEN
 62
     7
370
     0
100
AcDbLine
 10
37.121349776
 20
90.6419991987
 30
0.0
 11
37.121349776
 21
140.3487860697
 31
0.0
  0
LINE
  5
109
330
1F
100
AcDbEntity
  8
0
  6
HIDDEN
 62
     7
370
     0
100
AcDbLine
 10
96.3054260405
 20
141.9953923213
 30
0.0
 11
96.3054260405
 21
88.9953929471
 31
0.0
  0
LINE
  5
10A
330
1F
100
AcDbEntity
  8
0
  6
HIDDEN
 62
     7
370
     0
100
AcDbLine
 10
99.4713490995
 20
140.3703927534
 30
0.0
 11
99.4713490995
 21
90.620392515
 31
0.0
  0
LINE
  5
10B
330
1F
100
AcDbEntity
  8
0
  6
HIDDEN
 62
     7
370
     0
100
AcDbLine
 10
38.7713479044
 20
90.9586879896
 30
0.0
 11
50.3213497045
 21
90.9586879896
 31
0.0
  0
LINE
  5
10C
330
1F
100
AcDbEntity
  8
0
  6
HIDDEN
 62
     7
370
     0
100
AcDbLine
 10
38.7713479044
 20
140.0320972787
 30
0.0
 11
38.7713479044
 21
90.9586879896
 31
0.0
  0
LINE
  5
10D
330
1F
100
AcDbEntity
  8
0
  6
HIDDEN
 62
     7
370
     0
100
AcDbLine
 10
45.3213470223
 20
140.0320972787
 30
0.0
 11
38.7713479044
 21
140.0320972787
 31
0.0
  0
SPLINE
  5
10E
330
1F
100
AcDbEntity
  8
0
  6
HIDDEN
 62
     7
370
     0
100
AcDbSpline
210
0.0
220
0.0
230
1.0
 70
     8
 71
     3
 72
    20
 73
    16
 74
     0
 42
0.00000001
 43
0.00000001
 40
0.0
 40
0.0
 40
0.0
 40
0.0
 40
0.2499999999999978
 40
0.2499999999999978
 40
0.3749999999999982
 40
0.3749999999999982
 40
0.4999999999999986
 40
0.4999999999999986
 40
0.6249999999999989
 40
0.6249999999999989
 40
0.7499999999999992
 40
0.7499999999999992
 40
0.8749999999999997
 40
0.8749999999999997
 40
1.0
 40
1.0
 40
1.0
 40
1.0
 10
47.22134882832002
 20
140.7239062646026
 30
0.0
 10
47.22134882832002
 20
140.6447032780703
 30
0.0
 10
47.17436633310729
 20
140.5636070596674
 30
0.0
 10
47.03654474232971
 20
140.4434103679165
 30
0.0
 10
46.98026245841973
 20
140.4044836639144
 30
0.0
 10
46.84717760695251
 20
140.32929493149
 30
0.0
 10
46.76933766471944
 20
140.292652726148
 30
0.0
 10
46.5967053086051
 20
140.2250621933162
 30
0.0
 10
46.50231231151403
 20
140.1941040115406
 30
0.0
 10
46.29687500519888
 20
140.1385795901709
 30
0.0
 10
46.1845287652117
 20
140.1138710763377
 30
0.0
 10
45.95228790131206
 20
140.0740748492294
 30
0.0
 10
45.83157725888934
 20
140.0586550118324
 30
0.0
 10
45.58050639962032
 20
140.0375750369928
 30
0.0
 10
45.45098440320452
 20
140.0320977919718
 30
0.0
 10
45.32134882832003
 20
140.0320977919718
 30
0.0
  0
LINE
  5
10F
330
1F
100
AcDbEntity
  8
0
  6
HIDDEN
 62
     7
370
     0
100
AcDbLine
 10
47.2213493826
 20
140.7239060389
 30
0.0
 11
47.2213493826
 21
141.9953923213
 31
0.0
  0
SPLINE
  5
110
330
1F
100
AcDbEntity
  8
0
  6
HIDDEN
 62
     7
370
     0
100
AcDbSpline
210
0.0
220
0.0
230
1.0
 70
     8
 71
     3
 72
    20
 73
    16
 74
     0
 42
0.00000001
 43
0.00000001
 40
0.0
 40
0.0
 40
0.0
 40
0.0
 40
0.2499999999999978
 40
0.2499999999999978
 40
0.3749999999999982
 40
0.3749999999999982
 40
0.4999999999999986
 40
0.4999999999999986
 40
0.6249999999999989
 40
0.6249999999999989
 40
0.7499999999999992
 40
0.7499999999999992
 40
0.8749999999999997
 40
0.8749999999999997
 40
1.0
 40
1.0
 40
1.0
 40
1.0
 10
47.22134882832002
 20
140.7239062646026
 30
0.0
 10
47.22134882832002
 20
140.6447032780703
 30
0.0
 10
47.17436633310729
 20
140.5636070596674
 30
0.0
 10
47.03654474232971
 20
140.4434103679165
 30
0.0
 10
46.98026245841973
 20
140.4044836639144
 30
0.0
 10
46.84717760695251
 20
140.32929493149
 30
0.0
 10
46.76933766471944
 20
140.292652726148
 30
0.0
 10
46.5967053086051
 20
140.2250621933162
 30
0.0
 10
46.50231231151403
 20
140.1941040115406
 30
0.0
 10
46.29687500519888
 20
140.1385795901709
 30
0.0
 10
46.1845287652117
 20
140.1138710763377
 30
0.0
 10
45.95228790131206
 20
140.0740748492294
 30
0.0
 10
45.83157725888934
 20
140.0586550118324
 30
0.0
 10
45.58050639962032
 20
140.0375750369928
 30
0.0
 10
45.45098440320452
 20
140.0320977919718
 30
0.0
 10
45.32134882832003
 20
140.0320977919718
 30
0.0
  0
LINE
  5
111
330
1F
100
AcDbEntity
  8
0
  6
HIDDEN
 62
     7
370
     0
100
AcDbLine
 10
45.3213470223
 20
140.0320972787
 30
0.0
 11
38.7713479044
 21
140.0320972787
 31
0.0
  0
LINE
  5
112
330
1F
100
AcDbEntity
  8
0
  6
HIDDEN
 62
     7
370
     0
100
AcDbLine
 10
38.7713479044
 20
90.9586879896
 30
0.0
 11
50.3213497045
 21
90.9586879896
 31
0.0
  0
SPLINE
  5
113
330
1F
100
AcDbEntity
  8
0
  6
HIDDEN
 62
     7
370
     0
100
AcDbSpline
210
0.0
220
0.0
230
1.0
 70
     8
 71
     3
 72
    18
 73
    14
 74
     0
 42
0.00000001
 43
0.00000001
 40
0.0
 40
0.0
 40
0.0
 40
0.0
 40
0.1249999999999982
 40
0.1249999999999982
 40
0.2499999999999964
 40
0.2499999999999964
 40
0.4999999999999988
 40
0.4999999999999988
 40
0.7500000000000011
 40
0.7500000000000011
 40
0.8750000000000006
 40
0.8750000000000006
 40
1.0
 40
1.0
 40
1.0
 40
1.0
 10
50.32134882832001
 20
90.95868747640479
 30
0.0
 10
50.45081614127725
 20
90.95868747640479
 30
0.0
 10
50.57782689017387
 20
90.95333447781215
 30
0.0
 10
50.82719021137112
 20
90.93259650512337
 30
0.0
 10
50.95081386599956
 20
90.91692460086907
 30
0.0
 10
51.29984620293359
 20
90.85722987246699
 30
0.0
 10
51.5103579677404
 20
90.79946469278599
 30
0.0
 10
51.8542746454399
 20
90.6649428515085
 30
0.0
 10
51.99062504695773
 20
90.5872737380031
 30
0.0
 10
52.12766310352026
 20
90.46798260391576
 30
0.0
 10
52.16288212223316
 20
90.42706359478072
 30
0.0
 10
52.20950569917171
 20
90.34640760149068
 30
0.0
 10
52.22134882832004
 20
90.30643908129782
 30
0.0
 10
52.22134882832002
 20
90.26687900377401
 30
0.0
  0
LINE
  5
114
330
1F
100
AcDbEntity
  8
0
  6
HIDDEN
 62
     7
370
     0
100
AcDbLine
 10
52.2213483396
 20
90.2668792295
 30
0.0
 11
52.2213483396
 21
88.9953929471
 31
0.0
  0
SPLINE
  5
115
330
1F
100
AcDbEntity
  8
0
  6
HIDDEN
 62
     7
370
     0
100
AcDbSpline
210
0.0
220
0.0
230
1.0
 70
     8
 71
     3
 72
    18
 73
    14
 74
     0
 42
0.00000001
 43
0.00000001
 40
0.0
 40
0.0
 40
0.0
 40
0.0
 40
0.1249999999999982
 40
0.1249999999999982
 40
0.2499999999999964
 40
0.2499999999999964
 40
0.4999999999999988
 40
0.4999999999999988
 40
0.7500000000000011
 40
0.7500000000000011
 40
0.8750000000000006
 40
0.8750000000000006
 40
1.0
 40
1.0
 40
1.0
 40
1.0
 10
50.32134882832001
 20
90.95868747640479
 30
0.0
 10
50.45081614127725
 20
90.95868747640479
 30
0.0
 10
50.57782689017387
 20
90.95333447781215
 30
0.0
 10
50.82719021137112
 20
90.93259650512337
 30
0.0
 10
50.95081386599956
 20
90.91692460086907
 30
0.0
 10
51.29984620293359
 20
90.85722987246699
 30
0.0
 10
51.5103579677404
 20
90.79946469278599
 30
0.0
 10
51.8542746454399
 20
90.6649428515085
 30
0.0
 10
51.99062504695773
 20
90.5872737380031
 30
0.0
 10
52.12766310352026
 20
90.46798260391576
 30
0.0
 10
52.16288212223316
 20
90.42706359478072
 30
0.0
 10
52.20950569917171
 20
90.34640760149068
 30
0.0
 10
52.22134882832004
 20
90.30643908129782
 30
0.0
 10
52.22134882832002
 20
90.26687900377401
 30
0.0
  0
LINE
  5
116
330
1F
100
AcDbEntity
  8
0
  6
HIDDEN
 62
     7
370
     0
100
AcDbLine
 10
38.7713479044
 20
90.9586879896
 30
0.0
 11
38.7713479044
 21
140.0320972787
 31
0.0
  0
LINE
  5
117
330
1F
100
AcDbEntity
  8
0
  6
HIDDEN
 62
     7
370
     0
100
AcDbLine
 10
115.9713490101
 20
89.5777731674
 30
0.0
 11
115.9713490101
 21
141.3807939278
 31
0.0
  0
LWPOLYLINE
  5
118
330
1F
100
AcDbEntity
  8
0
  6
HIDDEN
 62
     7
370
     0
100
AcDbPolyline
 90
       13
 70
   128
 43
0.0
 10
96.0213484409
 20
155.4391249555
 10
97.1744282337
 20
155.4939426022
 10
98.2653450387
 20
155.6554413872
 10
99.2352867665
 20
155.9149153071
 10
100.0319652426
 20
156.2583758967
 10
100.6124297323
 20
156.6673047381
 10
100.9453877973
 20
157.1196592884
 10
101.0128900575
 20
157.5910537975
 10
100.811295973
 20
158.0560743349
 10
100.3514759409
 20
158.4896496969
 10
99.6582171115
 20
158.8684036868
 10
98.7688934597
 20
159.1719254392
 10
98.4195897522
 20
159.2572830158
  0
LWPOLYLINE
  5
119
330
1F
100
AcDbEntity
  8
0
  6
HIDDEN
 62
     7
370
     0
100
AcDbPolyline
 90
       13
 70
   128
 43
0.0
 10
93.6196156012
 20
159.2565081554
 10
93.2738038878
 20
159.1719254392
 10
92.3844807016
 20
158.8684036868
 10
91.6912218722
 20
158.4896496969
 10
91.2314013744
 20
158.0560743349
 10
91.0298082213
 20
157.5910537975
 10
91.0973100158
 20
157.1196592884
 10
91.4302680808
 20
156.6673047381
 10
92.0107330362
 20
156.2583758967
 10
92.8074105809
 20
155.9149153071
 10
93.7773527744
 20
155.6554413872
 10
94.8682695794
 20
155.4939426022
 10
96.0213484409
 20
155.4391249555
  0
LINE
  5
11A
330
1F
100
AcDbEntity
  8
0
  6
HIDDEN
 62
     7
370
     0
100
AcDbLine
 10
38.7713479044
 20
88.1253923761
 30
0.0
 11
38.7713479044
 21
83.2453943329
 31
0.0
  0
LINE
  5
11B
330
1F
100
AcDbEntity
  8
0
  6
HIDDEN
 62
     7
370
     0
100
AcDbLine
 10
163.9713475647
 20
98.4953917103
 30
0.0
 11
163.9713475647
 21
132.4953935581
 31
0.0
  0
LINE
  5
11C
330
1F
100
AcDbEntity
  8
0
  6
HIDDEN
 62
     7
370
     0
100
AcDbLine
 10
52.2213483396
 20
88.1253923761
 30
0.0
 11
52.2213483396
 21
81.626059069
 31
0.0
  0
LINE
  5
11D
330
1F
100
AcDbEntity
  8
0
  6
HIDDEN
 62
     7
370
     0
100
AcDbLine
 10
47.2213493826
 20
142.8653928923
 30
0.0
 11
47.2213493826
 21
149.2399997549
 31
0.0
  0
LINE
  5
11E
330
1F
100
AcDbEntity
  8
0
  6
HIDDEN
 62
     7
370
     0
100
AcDbLine
 10
38.7713479044
 20
142.8653928923
 30
0.0
 11
38.7713479044
 21
147.7453909355
 31
0.0
  0
LINE
  5
11F
330
1F
100
AcDbEntity
  8
0
  6
HIDDEN
 62
     7
370
     0
100
AcDbLine
 10
37.121349776
 20
142.8653928923
 30
0.0
 11
37.121349776
 21
145.9980621474
 31
0.0
  0
LINE
  5
120
330
1F
100
AcDbEntity
  8
0
  6
HIDDEN
 62
     7
370
     0
100
AcDbLine
 10
37.121349776
 20
88.1253923761
 30
0.0
 11
37.121349776
 21
84.992723121
 31
0.0
  0
LINE
  5
121
330
1F
100
AcDbEntity
  8
0
  6
HIDDEN
 62
     7
370
     0
100
AcDbLine
 10
217.9713526907
 20
101.870392962
 30
0.0
 11
217.9713526907
 21
129.1203923064
 31
0.0
  0
LINE
  5
122
330
1F
100
AcDbEntity
  8
0
  6
HIDDEN
 62
     7
370
     0
100
AcDbLine
 10
111.3213485273
 20
128.4953929024
 30
0.0
 11
111.3213485273
 21
102.495392366
 31
0.0
  0
LINE
  5
123
330
1F
100
AcDbEntity
  8
0
  6
HIDDEN
 62
     7
370
     0
100
AcDbLine
 10
115.321349183
 20
128.4953929024
 30
0.0
 11
115.321349183
 21
102.495392366
 31
0.0
  0
LINE
  5
124
330
1F
100
AcDbEntity
  8
0
  6
HIDDEN
 62
     7
370
     0
100
AcDbLine
 10
217.9713526907
 20
128.0453927355
 30
0.0
 11
217.9713526907
 21
102.9453925329
 31
0.0
  0
SPLINE
  5
125
330
1F
100
AcDbEntity
  8
0
  6
HIDDEN
 62
     7
370
     0
100
AcDbSpline
210
0.0
220
0.0
230
1.0
 70
     8
 71
     3
 72
    58
 73
    54
 74
     0
 42
0.00000001
 43
0.00000001
 40
-0.0625000000000061
 40
-0.0625000000000061
 40
0.0
 40
0.0
 40
0.0312500000000039
 40
0.0312500000000039
 40
0.0625000000000078
 40
0.0625000000000078
 40
0.0937500000000117
 40
0.0937500000000117
 40
0.1250000000000157
 40
0.1250000000000157
 40
0.187500000000018
 40
0.187500000000018
 40
0.2500000000000203
 40
0.2500000000000203
 40
0.2812500000000174
 40
0.2812500000000174
 40
0.3125000000000145
 40
0.3125000000000145
 40
0.3437500000000117
 40
0.3437500000000117
 40
0.3750000000000088
 40
0.3750000000000088
 40
0.4062500000000059
 40
0.4062500000000059
 40
0.4375000000000031
 40
0.4375000000000031
 40
0.4687500000000002
 40
0.4687500000000002
 40
0.4999999999999974
 40
0.4999999999999974
 40
0.562499999999992
 40
0.562499999999992
 40
0.6249999999999868
 40
0.6249999999999868
 40
0.6562499999999869
 40
0.6562499999999869
 40
0.687499999999987
 40
0.687499999999987
 40
0.7187499999999872
 40
0.7187499999999872
 40
0.7499999999999873
 40
0.7499999999999873
 40
0.7812499999999875
 40
0.7812499999999875
 40
0.8124999999999876
 40
0.8124999999999876
 40
0.8437499999999878
 40
0.8437499999999878
 40
0.8749999999999879
 40
0.8749999999999879
 40
0.9374999999999939
 40
0.9374999999999939
 40
1.0
 40
1.0
 40
1.031250000000004
 40
1.031250000000004
 10
222.0713488283201
 20
121.9344188884673
 30
0.0
 10
222.0713488283201
 20
121.6508795070487
 30
0.0
 10
222.0820695150848
 20
121.5572522511993
 30
0.0
 10
222.1240530985875
 20
121.3717697115094
 30
0.0
 10
222.1558342149416
 20
121.278927132457
 30
0.0
 10
222.2386947226539
 20
121.1008723690819
 30
0.0
 10
222.2893829438311
 20
121.0158411559344
 30
0.0
 10
222.4091169438418
 20
120.8540010739362
 30
0.0
 10
222.4787298747748
 20
120.7769607409114
 30
0.0
 10
222.706803443416
 20
120.5687983903892
 30
0.0
 10
222.8906954988208
 20
120.455212301973
 30
0.0
 10
223.2876636644071
 20
120.3025025973886
 30
0.0
 10
223.5049559526939
 20
120.2618739306627
 30
0.0
 10
223.8281627903087
 20
120.2617055616788
 30
0.0
 10
223.9376130386455
 20
120.2717260940061
 30
0.0
 10
224.149317208787
 20
120.3109713976626
 30
0.0
 10
224.2522267631608
 20
120.3399866137672
 30
0.0
 10
224.4521362758938
 20
120.416701227457
 30
0.0
 10
224.5485928820861
 20
120.4644642383962
 30
0.0
 10
224.7272516565381
 20
120.5744176814
 30
0.0
 10
224.8106652811022
 20
120.6370778374915
 30
0.0
 10
224.9646079835188
 20
120.7775091719519
 30
0.0
 10
225.0327963655153
 20
120.853108408608
 30
0.0
 10
225.1523017864324
 20
121.0143070141849
 30
0.0
 10
225.2040358649919
 20
121.100935697507
 30
0.0
 10
225.2868688308845
 20
121.2789461517989
 30
0.0
 10
225.3181337055539
 20
121.3700151165845
 30
0.0
 10
225.3604677029845
 20
121.5560490204673
 30
0.0
 10
225.3713080230869
 20
121.651548065968
 30
0.0
 10
225.3714300857853
 20
121.9314627871834
 30
0.0
 10
225.3281880083335
 20
122.1167233068704
 30
0.0
 10
225.1638245226071
 20
122.4507278595236
 30
0.0
 10
225.0411366310804
 20
122.6028981759569
 30
0.0
 10
224.8132011163442
 20
122.7899762272598
 30
0.0
 10
224.7284312755124
 20
122.8467169409702
 30
0.0
 10
224.5493915234294
 20
122.9438515052026
 30
0.0
 10
224.4547332737237
 20
122.9848021530435
 30
0.0
 10
224.25497381182
 20
123.0516361861303
 30
0.0
 10
224.1502180115855
 20
123.0771588274667
 30
0.0
 10
223.9392714247772
 20
123.1109209429882
 30
0.0
 10
223.8319156516475
 20
123.119567099804
 30
0.0
 10
223.613720175707
 20
123.1197224087251
 30
0.0
 10
223.5064331029631
 20
123.1112404753301
 30
0.0
 10
223.2953298292361
 20
123.0777722936509
 30
0.0
 10
223.1904041731843
 20
123.0523637656424
 30
0.0
 10
222.9906257080286
 20
122.9858572785003
 30
0.0
 10
222.8958508842656
 20
122.9450458609174
 30
0.0
 10
222.7164180128728
 20
122.8480657024846
 30
0.0
 10
222.6315957415082
 20
122.7914746905893
 30
0.0
 10
222.4034086004949
 20
122.6048546728698
 30
0.0
 10
222.2803269253188
 20
122.4528111089516
 30
0.0
 10
222.1153123590684
 20
122.1192136608033
 30
0.0
 10
222.0713488283201
 20
121.9344188884673
 30
0.0
 10
222.0713488283201
 20
121.6508795070487
 30
0.0
  0
SPLINE
  5
126
330
1F
100
AcDbEntity
  8
0
  6
HIDDEN
 62
     7
370
     0
100
AcDbSpline
210
0.0
220
0.0
230
1.0
 70
     8
 71
     3
 72
    58
 73
    54
 74
     0
 42
0.00000001
 43
0.00000001
 40
-0.0624999999999991
 40
-0.0624999999999991
 40
0.0
 40
0.0
 40
0.0312500000000062
 40
0.0312500000000062
 40
0.0625000000000124
 40
0.0625000000000124
 40
0.0937500000000186
 40
0.0937500000000186
 40
0.1250000000000248
 40
0.1250000000000248
 40
0.1875000000000312
 40
0.1875000000000312
 40
0.2500000000000376
 40
0.2500000000000376
 40
0.2812500000000368
 40
0.2812500000000368
 40
0.312500000000036
 40
0.312500000000036
 40
0.3437500000000351
 40
0.3437500000000351
 40
0.3750000000000343
 40
0.3750000000000343
 40
0.4062500000000334
 40
0.4062500000000334
 40
0.4375000000000326
 40
0.4375000000000326
 40
0.4687500000000318
 40
0.4687500000000318
 40
0.5000000000000309
 40
0.5000000000000309
 40
0.5625000000000298
 40
0.5625000000000298
 40
0.6250000000000285
 40
0.6250000000000285
 40
0.6562500000000252
 40
0.6562500000000252
 40
0.6875000000000219
 40
0.6875000000000219
 40
0.7187500000000185
 40
0.7187500000000185
 40
0.7500000000000151
 40
0.7500000000000151
 40
0.7812500000000118
 40
0.7812500000000118
 40
0.8125000000000084
 40
0.8125000000000084
 40
0.8437500000000051
 40
0.8437500000000051
 40
0.8750000000000018
 40
0.8750000000000018
 40
0.9375000000000009
 40
0.9375000000000009
 40
1.0
 40
1.0
 40
1.031250000000006
 40
1.031250000000006
 10
222.0713488283201
 20
121.5563663799093
 30
0.0
 10
222.0713488283201
 20
121.8399057613279
 30
0.0
 10
222.0820695150847
 20
121.9321050716985
 30
0.0
 10
222.1240530985874
 20
122.112150487039
 30
0.0
 10
222.1558342149416
 20
122.2009191543233
 30
0.0
 10
222.2386947226539
 20
122.3688580595941
 30
0.0
 10
222.2893829438312
 20
122.4478942708574
 30
0.0
 10
222.4091169438418
 20
122.5965559370773
 30
0.0
 10
222.4787298747748
 20
122.6663693645569
 30
0.0
 10
222.706803443416
 20
122.8531528153528
 30
0.0
 10
222.8906954988209
 20
122.9524240690606
 30
0.0
 10
223.2876636644071
 20
123.084906774878
 30
0.0
 10
223.504955952694
 20
123.1195488527105
 30
0.0
 10
223.8281627903087
 20
123.1196931806276
 30
0.0
 10
223.9376130386456
 20
123.1111160299582
 30
0.0
 10
224.149317208787
 20
123.0773724948194
 30
0.0
 10
224.2522267631609
 20
123.0523859021519
 30
0.0
 10
224.4521362758938
 20
122.9858359386268
 30
0.0
 10
224.5485928820861
 20
122.9442071791119
 30
0.0
 10
224.7272516565381
 20
122.8474336791554
 30
0.0
 10
224.8106652811022
 20
122.7918840567116
 30
0.0
 10
224.9646079835188
 20
122.6658790680102
 30
0.0
 10
225.0327963655152
 20
122.5973665610614
 30
0.0
 10
225.1523017864323
 20
122.4493127026247
 30
0.0
 10
225.2040358649919
 20
122.3687986888815
 30
0.0
 10
225.2868688308845
 20
122.2009008555413
 30
0.0
 10
225.3181337055539
 20
122.1138394869766
 30
0.0
 10
225.3604677029845
 20
121.933286970087
 30
0.0
 10
225.3713080230868
 20
121.8392318161182
 30
0.0
 10
225.3714300857852
 20
121.5593332071778
 30
0.0
 10
225.3281880083335
 20
121.3681717355993
 30
0.0
 10
225.1638245226071
 20
121.0140937654327
 30
0.0
 10
225.0411366310804
 20
120.8476805188264
 30
0.0
 10
224.8132011163444
 20
120.6392140640675
 30
0.0
 10
224.7284312755125
 20
120.5752285690749
 30
0.0
 10
224.5493915234295
 20
120.4648717805552
 30
0.0
 10
224.4547332737237
 20
120.4178888027669
 30
0.0
 10
224.25497381182
 20
120.3408548387948
 30
0.0
 10
224.1502180115855
 20
120.3112194223642
 30
0.0
 10
223.9392714247771
 20
120.2719534638467
 30
0.0
 10
223.8319156516475
 20
120.2618526441012
 30
0.0
 10
223.6137201757071
 20
120.2616714649864
 30
0.0
 10
223.5064331029632
 20
120.2715807463772
 30
0.0
 10
223.2953298292361
 20
120.3105070153459
 30
0.0
 10
223.1904041731844
 20
120.3400121331455
 30
0.0
 10
222.9906257080285
 20
120.4166766263906
 30
0.0
 10
222.8958508842657
 20
120.4635065776299
 30
0.0
 10
222.7164180128729
 20
120.5737042646504
 30
0.0
 10
222.6315957415082
 20
120.6375309919777
 30
0.0
 10
222.4034086004949
 20
120.8455263983888
 30
0.0
 10
222.2803269253188
 20
121.0118403628262
 30
0.0
 10
222.1153123590684
 20
121.3655760527459
 30
0.0
 10
222.0713488283201
 20
121.5563663799093
 30
0.0
 10
222.0713488283201
 20
121.8399057613279
 30
0.0
  0
SPLINE
  5
127
330
1F
100
AcDbEntity
  8
0
  6
HIDDEN
 62
     7
370
     0
100
AcDbSpline
210
0.0
220
0.0
230
1.0
 70
    11
 71
     3
 72
    58
 73
    54
 74
     0
 42
0.00000001
 43
0.00000001
 40
-0.0624999999999987
 40
-0.0624999999999987
 40
0.0
 40
0.0
 40
0.0312500000000062
 40
0.0312500000000062
 40
0.0625000000000124
 40
0.0625000000000124
 40
0.0937500000000187
 40
0.0937500000000187
 40
0.1250000000000248
 40
0.1250000000000248
 40
0.1875000000000315
 40
0.1875000000000315
 40
0.2500000000000382
 40
0.2500000000000382
 40
0.2812500000000376
 40
0.2812500000000376
 40
0.3125000000000369
 40
0.3125000000000369
 40
0.3437500000000362
 40
0.3437500000000362
 40
0.3750000000000356
 40
0.3750000000000356
 40
0.4062500000000349
 40
0.4062500000000349
 40
0.4375000000000342
 40
0.4375000000000342
 40
0.4687500000000335
 40
0.4687500000000335
 40
0.5000000000000329
 40
0.5000000000000329
 40
0.5625000000000315
 40
0.5625000000000315
 40
0.6250000000000302
 40
0.6250000000000302
 40
0.6562500000000268
 40
0.6562500000000268
 40
0.6875000000000233
 40
0.6875000000000233
 40
0.7187500000000199
 40
0.7187500000000199
 40
0.7500000000000164
 40
0.7500000000000164
 40
0.781250000000013
 40
0.781250000000013
 40
0.8125000000000095
 40
0.8125000000000095
 40
0.8437500000000061
 40
0.8437500000000061
 40
0.8750000000000027
 40
0.8750000000000027
 40
0.9375000000000013
 40
0.9375000000000013
 40
1.0
 40
1.0
 40
1.031250000000006
 40
1.031250000000006
 10
222.0713488283201
 20
102.9953926341883
 30
0.0
 10
222.0713488283201
 20
102.9953926341883
 30
0.0
 10
222.0820695150848
 20
102.996820579667
 30
0.0
 10
222.1240530985875
 20
103.0022577040164
 30
0.0
 10
222.1558342149415
 20
103.0063316157845
 30
0.0
 10
222.2386947226539
 20
103.0164474738889
 30
0.0
 10
222.2893829438312
 20
103.0224424757731
 30
0.0
 10
222.4091169438418
 20
103.0356208915514
 30
0.0
 10
222.4787298747749
 20
103.0428477970965
 30
0.0
 10
222.706803443416
 20
103.0642266968229
 30
0.0
 10
222.8906954988209
 20
103.0785415315313
 30
0.0
 10
223.2876636644071
 20
103.0987685302983
 30
0.0
 10
223.5049559526939
 20
103.1047551191917
 30
0.0
 10
223.8281627903087
 20
103.1047791602585
 30
0.0
 10
223.9376130386455
 20
103.1033357786006
 30
0.0
 10
224.149317208787
 20
103.0978340100829
 30
0.0
 10
224.2522267631609
 20
103.0938053866458
 30
0.0
 10
224.4521362758939
 20
103.0836407364811
 30
0.0
 10
224.5485928820861
 20
103.0775064850567
 30
0.0
 10
224.7272516565381
 20
103.0643265420094
 30
0.0
 10
224.8106652811023
 20
103.0572160083617
 30
0.0
 10
224.9646079835188
 20
103.0427896626027
 30
0.0
 10
225.0327963655153
 20
103.0357029328955
 30
0.0
 10
225.1523017864323
 20
103.0225581857553
 30
0.0
 10
225.204035864992
 20
103.0164435161764
 30
0.0
 10
225.2868688308845
 20
103.0063308952247
 30
0.0
 10
225.3181337055538
 20
103.0023232990037
 30
0.0
 10
225.3604677029845
 20
102.9968419120107
 30
0.0
 10
225.3713080230868
 20
102.9953980204787
 30
0.0
 10
225.3714300857853
 20
102.9953819082037
 30
0.0
 10
225.3281880083336
 20
103.0012828600952
 30
0.0
 10
225.1638245226071
 20
103.0213562776086
 30
0.0
 10
225.0411366310805
 20
103.0355992077817
 30
0.0
 10
224.8132011163443
 20
103.0569876112375
 30
0.0
 10
224.7284312755125
 20
103.0642323925198
 30
0.0
 10
224.5493915234294
 20
103.0774546168071
 30
0.0
 10
224.4547332737236
 20
103.0834869467545
 30
0.0
 10
224.25497381182
 20
103.0936868776398
 30
0.0
 10
224.1502180115856
 20
103.097799652734
 30
0.0
 10
223.9392714247772
 20
103.10330349573
 30
0.0
 10
223.8319156516475
 20
103.1047581586597
 30
0.0
 10
223.6137201757071
 20
103.1047840288534
 30
0.0
 10
223.5064331029632
 20
103.1033566808576
 30
0.0
 10
223.2953298292361
 20
103.097898593568
 30
0.0
 10
223.1904041731842
 20
103.0938020037771
 30
0.0
 10
222.9906257080285
 20
103.083643997674
 30
0.0
 10
222.8958508842657
 20
103.0776254640176
 30
0.0
 10
222.7164180128729
 20
103.0644079354299
 30
0.0
 10
222.6315957415083
 20
103.0571722199978
 30
0.0
 10
222.4034086004949
 20
103.0357968313063
 30
0.0
 10
222.2803269253188
 20
103.0215264307871
 30
0.0
 10
222.1153123590684
 20
103.0013881890157
 30
0.0
 10
222.0713488283201
 20
102.9953926341883
 30
0.0
 10
222.0713488283201
 20
102.9953926341883
 30
0.0
  0
LINE
  5
128
330
1F
100
AcDbEntity
  8
0
  6
HIDDEN
 62
     7
370
     0
100
AcDbLine
 10
241.371346468
 20
102.9953924479
 30
0.0
 11
241.371346468
 21
127.9953928205
 31
0.0
  0
LINE
  5
129
330
1F
100
AcDbEntity
  8
0
  6
HIDDEN
 62
     7
370
     0
100
AcDbLine
 10
219.9713418427
 20
102.9953924479
 30
0.0
 11
219.9713418427
 21
127.9953928205
 31
0.0
  0
SPLINE
  5
12A
330
1F
100
AcDbEntity
  8
0
  6
HIDDEN
 62
     7
370
     0
100
AcDbSpline
210
0.0
220
0.0
230
1.0
 70
    11
 71
     3
 72
    64
 73
    60
 74
     0
 42
0.00000001
 43
0.00000001
 40
-0.0312500000000028
 40
-0.0312500000000028
 40
0.0
 40
0.0
 40
0.0312499999999971
 40
0.0312499999999971
 40
0.0624999999999942
 40
0.0624999999999942
 40
0.0937499999999913
 40
0.0937499999999913
 40
0.1249999999999884
 40
0.1249999999999884
 40
0.1874999999999826
 40
0.1874999999999826
 40
0.2187499999999824
 40
0.2187499999999824
 40
0.2499999999999822
 40
0.2499999999999822
 40
0.281249999999982
 40
0.281249999999982
 40
0.3124999999999817
 40
0.3124999999999817
 40
0.3437499999999815
 40
0.3437499999999815
 40
0.3749999999999813
 40
0.3749999999999813
 40
0.4062499999999811
 40
0.4062499999999811
 40
0.4374999999999808
 40
0.4374999999999808
 40
0.4687499999999806
 40
0.4687499999999806
 40
0.4999999999999803
 40
0.4999999999999803
 40
0.5624999999999799
 40
0.5624999999999799
 40
0.5937499999999808
 40
0.5937499999999808
 40
0.6249999999999816
 40
0.6249999999999816
 40
0.6562499999999825
 40
0.6562499999999825
 40
0.6874999999999833
 40
0.6874999999999833
 40
0.7187499999999842
 40
0.7187499999999842
 40
0.7499999999999851
 40
0.7499999999999851
 40
0.781249999999986
 40
0.781249999999986
 40
0.8124999999999869
 40
0.8124999999999869
 40
0.8437499999999878
 40
0.8437499999999878
 40
0.8749999999999886
 40
0.8749999999999886
 40
0.9374999999999943
 40
0.9374999999999943
 40
0.9687499999999972
 40
0.9687499999999972
 40
1.0
 40
1.0
 40
1.031249999999997
 40
1.031249999999997
 10
227.22134882832
 20
127.9953926341883
 30
0.0
 10
227.2213488283199
 20
127.9953926341883
 30
0.0
 10
227.2363255745938
 20
127.9926123313441
 30
0.0
 10
227.2949472230233
 20
127.9820268082553
 30
0.0
 10
227.3393266624228
 20
127.974093652303
 30
0.0
 10
227.4548866883024
 20
127.9544064050755
 30
0.0
 10
227.525554743177
 20
127.9427375250365
 30
0.0
 10
227.6924548518787
 20
127.9170694122443
 30
0.0
 10
227.7893797835832
 20
127.9029993903109
 30
0.0
 10
228.1069299713996
 20
127.8613351891828
 30
0.0
 10
228.3630000315094
 20
127.8333688942648
 30
0.0
 10
228.7778951186941
 20
127.8036701328126
 30
0.0
 10
228.9231763256952
 20
127.7956277068991
 30
0.0
 10
229.2202083231439
 20
127.7847643880619
 30
0.0
 10
229.3696511104179
 20
127.7819872236659
 30
0.0
 10
229.6703542311772
 20
127.7819542776524
 30
0.0
 10
229.8231191169123
 20
127.7847907036178
 30
0.0
 10
230.1183445081714
 20
127.7955813906091
 30
0.0
 10
230.2618707576499
 20
127.8034806894129
 30
0.0
 10
230.5407281294902
 20
127.8234011111077
 30
0.0
 10
230.6749120592691
 20
127.8353843293513
 30
0.0
 10
230.9237394074177
 20
127.861126993507
 30
0.0
 10
231.0402622153282
 20
127.8750470799589
 30
0.0
 10
231.2542786231841
 20
127.9031237722079
 30
0.0
 10
231.3492096049422
 20
127.9169184508326
 30
0.0
 10
231.5157657595279
 20
127.9425179043194
 30
0.0
 10
231.5879613192364
 20
127.9544316821407
 30
0.0
 10
231.7033708608418
 20
127.9740939673079
 30
0.0
 10
231.747020443169
 20
127.981896071742
 30
0.0
 10
231.8061658850923
 20
127.9925740340805
 30
0.0
 10
231.821288775208
 20
127.9953815844166
 30
0.0
 10
231.8214683868613
 20
127.9954146329582
 30
0.0
 10
231.7610697061526
 20
127.983930789846
 30
0.0
 10
231.5890844873705
 20
127.9546197237549
 30
0.0
 10
231.5174441228172
 20
127.942783897599
 30
0.0
 10
231.3499563745355
 20
127.9170253126165
 30
0.0
 10
231.2550606079334
 20
127.9032422770351
 30
0.0
 10
231.0432373733802
 20
127.8754217524218
 30
0.0
 10
230.9251772115229
 20
127.8612888061414
 30
0.0
 10
230.6760799629263
 20
127.8354922285703
 30
0.0
 10
230.5441973749587
 20
127.8236884289721
 30
0.0
 10
230.2653286740786
 20
127.8036891883512
 30
0.0
 10
230.1196562752419
 20
127.7956517074251
 30
0.0
 10
229.8255293278473
 20
127.7848567089149
 30
0.0
 10
229.6750111824177
 20
127.7819922746159
 30
0.0
 10
229.3711599334619
 20
127.7819493247028
 30
0.0
 10
229.2215775365523
 20
127.7847452391711
 30
0.0
 10
228.9269314493677
 20
127.7954599772003
 30
0.0
 10
228.7803534799091
 20
127.8035137794276
 30
0.0
 10
228.5023130486809
 20
127.8233773007794
 30
0.0
 10
228.3702403919038
 20
127.835147495418
 30
0.0
 10
228.119897811984
 20
127.8610128917428
 30
0.0
 10
228.0020807833012
 20
127.8751004209025
 30
0.0
 10
227.6845462209948
 20
127.9167372387607
 30
0.0
 10
227.51296058755
 20
127.9445195443863
 30
0.0
 10
227.3403191071371
 20
127.9739211940716
 30
0.0
 10
227.2957388821274
 20
127.981884774937
 30
0.0
 10
227.2363279552166
 20
127.9926109942436
 30
0.0
 10
227.22134882832
 20
127.9953926341883
 30
0.0
 10
227.2213488283199
 20
127.9953926341883
 30
0.0
  0
SPLINE
  5
12B
330
1F
100
AcDbEntity
  8
0
  6
HIDDEN
 62
     7
370
     0
100
AcDbSpline
210
0.0
220
0.0
230
1.0
 70
     8
 71
     3
 72
    64
 73
    60
 74
     0
 42
0.00000001
 43
0.00000001
 40
-0.0312500000000021
 40
-0.0312500000000021
 40
0.0
 40
0.0
 40
0.0312499999999977
 40
0.0312499999999977
 40
0.0624999999999954
 40
0.0624999999999954
 40
0.0937499999999931
 40
0.0937499999999931
 40
0.1249999999999908
 40
0.1249999999999908
 40
0.1874999999999861
 40
0.1874999999999861
 40
0.2187499999999864
 40
0.2187499999999864
 40
0.2499999999999867
 40
0.2499999999999867
 40
0.281249999999987
 40
0.281249999999987
 40
0.3124999999999873
 40
0.3124999999999873
 40
0.3437499999999876
 40
0.3437499999999876
 40
0.374999999999988
 40
0.374999999999988
 40
0.4062499999999882
 40
0.4062499999999882
 40
0.4374999999999886
 40
0.4374999999999886
 40
0.4687499999999888
 40
0.4687499999999888
 40
0.4999999999999892
 40
0.4999999999999892
 40
0.5624999999999898
 40
0.5624999999999898
 40
0.5937499999999901
 40
0.5937499999999901
 40
0.6249999999999903
 40
0.6249999999999903
 40
0.6562499999999906
 40
0.6562499999999906
 40
0.6874999999999907
 40
0.6874999999999907
 40
0.7187499999999909
 40
0.7187499999999909
 40
0.749999999999991
 40
0.749999999999991
 40
0.7812499999999911
 40
0.7812499999999911
 40
0.8124999999999912
 40
0.8124999999999912
 40
0.8437499999999915
 40
0.8437499999999915
 40
0.8749999999999916
 40
0.8749999999999916
 40
0.9374999999999958
 40
0.9374999999999958
 40
0.9687499999999979
 40
0.9687499999999979
 40
1.0
 40
1.0
 40
1.031249999999998
 40
1.031249999999998
 10
227.2213488283199
 20
109.1135001221527
 30
0.0
 10
227.2213488283199
 20
109.3772851462238
 30
0.0
 10
227.2363255745938
 20
109.5083083843668
 30
0.0
 10
227.2949472230233
 20
109.768550145084
 30
0.0
 10
227.3393266624228
 20
109.8991739367254
 30
0.0
 10
227.4548866883024
 20
110.1500999447063
 30
0.0
 10
227.5255547431771
 20
110.2702313095777
 30
0.0
 10
227.6924548518787
 20
110.4993711442483
 30
0.0
 10
227.7893797835833
 20
110.6085987825656
 30
0.0
 10
228.1069299713996
 20
110.9043607900837
 30
0.0
 10
228.3630000315094
 20
111.0666448810611
 30
0.0
 10
228.7778951186941
 20
111.2306383921738
 30
0.0
 10
228.9231763256952
 20
111.2730568302551
 30
0.0
 10
229.2202083231439
 20
111.3297686466678
 30
0.0
 10
229.3696511104179
 20
111.3438772179133
 30
0.0
 10
229.6703542311772
 20
111.3440461090706
 30
0.0
 10
229.8231191169122
 20
111.3296306298856
 30
0.0
 10
230.1183445081714
 20
111.2732992594327
 30
0.0
 10
230.2618707576498
 20
111.2316662593306
 30
0.0
 10
230.5407281294902
 20
111.1217039417814
 30
0.0
 10
230.6749120592692
 20
111.0534774948236
 30
0.0
 10
230.9237394074177
 20
110.8965928545163
 30
0.0
 10
231.0402622153283
 20
110.8070126383028
 30
0.0
 10
231.2542786231841
 20
110.6077272505394
 30
0.0
 10
231.3492096049422
 20
110.5005641954671
 30
0.0
 10
231.515765759528
 20
110.2723442302972
 30
0.0
 10
231.5879613192365
 20
110.1498025901269
 30
0.0
 10
231.7033708608417
 20
109.8991450723977
 30
0.0
 10
231.7470204431691
 20
109.7710904542209
 30
0.0
 10
231.8061658850923
 20
109.5099131075146
 30
0.0
 10
231.821288775208
 20
109.3763252229537
 30
0.0
 10
231.8214683868614
 20
108.9859083714211
 30
0.0
 10
231.7610697061525
 20
108.7289973406124
 30
0.0
 10
231.5890844873705
 20
108.3839081059282
 30
0.0
 10
231.5174441228174
 20
108.2735776135474
 30
0.0
 10
231.3499563745355
 20
108.0693868181651
 30
0.0
 10
231.2550606079334
 20
107.9761584690091
 30
0.0
 10
231.0432373733802
 20
107.8062958514561
 30
0.0
 10
230.9251772115228
 20
107.7293162420835
 30
0.0
 10
230.6760799629263
 20
107.5978322477803
 30
0.0
 10
230.5441973749587
 20
107.5424069759197
 30
0.0
 10
230.2653286740786
 20
107.4519388263396
 30
0.0
 10
230.1196562752419
 20
107.4175983815387
 30
0.0
 10
229.8255293278473
 20
107.3720308244841
 30
0.0
 10
229.6750111824177
 20
107.3603343027337
 30
0.0
 10
229.3711599334619
 20
107.3601570784729
 30
0.0
 10
229.2215775365523
 20
107.3715700021456
 30
0.0
 10
228.9269314493677
 20
107.4167796153382
 30
0.0
 10
228.7803534799092
 20
107.4511798736464
 30
0.0
 10
228.5023130486809
 20
107.5409658750777
 30
0.0
 10
228.3702403919036
 20
107.5961537363615
 30
0.0
 10
228.119897811984
 20
107.7278332049925
 30
0.0
 10
228.0020807833012
 20
107.8044898645442
 30
0.0
 10
227.6845462209948
 20
108.0582480614662
 30
0.0
 10
227.5129605875501
 20
108.2660448984197
 30
0.0
 10
227.340319107137
 20
108.6106368727231
 30
0.0
 10
227.2957388821274
 20
108.7328252005694
 30
0.0
 10
227.2363279552167
 20
108.9846592281199
 30
0.0
 10
227.2213488283199
 20
109.1135001221527
 30
0.0
 10
227.2213488283199
 20
109.3772851462238
 30
0.0
  0
SPLINE
  5
12C
330
1F
100
AcDbEntity
  8
0
  6
HIDDEN
 62
     7
370
     0
100
AcDbSpline
210
0.0
220
0.0
230
1.0
 70
     8
 71
     3
 72
    64
 73
    60
 74
     0
 42
0.00000001
 43
0.00000001
 40
-0.0312499999999984
 40
-0.0312499999999984
 40
0.0
 40
0.0
 40
0.0312500000000001
 40
0.0312500000000001
 40
0.0625000000000003
 40
0.0625000000000003
 40
0.0937500000000004
 40
0.0937500000000004
 40
0.1250000000000006
 40
0.1250000000000006
 40
0.1875000000000048
 40
0.1875000000000048
 40
0.2187500000000042
 40
0.2187500000000042
 40
0.2500000000000037
 40
0.2500000000000037
 40
0.2812500000000032
 40
0.2812500000000032
 40
0.3125000000000027
 40
0.3125000000000027
 40
0.3437500000000022
 40
0.3437500000000022
 40
0.3750000000000017
 40
0.3750000000000017
 40
0.4062500000000012
 40
0.4062500000000012
 40
0.4375000000000007
 40
0.4375000000000007
 40
0.4687500000000002
 40
0.4687500000000002
 40
0.4999999999999998
 40
0.4999999999999998
 40
0.5624999999999988
 40
0.5624999999999988
 40
0.5937499999999996
 40
0.5937499999999996
 40
0.6250000000000002
 40
0.6250000000000002
 40
0.6562500000000009
 40
0.6562500000000009
 40
0.6875000000000016
 40
0.6875000000000016
 40
0.7187500000000023
 40
0.7187500000000023
 40
0.750000000000003
 40
0.750000000000003
 40
0.7812500000000037
 40
0.7812500000000037
 40
0.8125000000000044
 40
0.8125000000000044
 40
0.8437500000000051
 40
0.8437500000000051
 40
0.8750000000000058
 40
0.8750000000000058
 40
0.9375000000000029
 40
0.9375000000000029
 40
0.9687500000000016
 40
0.9687500000000016
 40
1.0
 40
1.0
 40
1.03125
 40
1.03125
 10
227.22134882832
 20
109.3772851462239
 30
0.0
 10
227.2213488283199
 20
109.1135001221529
 30
0.0
 10
227.2363255745939
 20
108.9852571868541
 30
0.0
 10
227.2949472230233
 20
108.7356009492257
 30
0.0
 10
227.3393266624229
 20
108.6129103135365
 30
0.0
 10
227.4548866883024
 20
108.3816715527832
 30
0.0
 10
227.525554743177
 20
108.2732090679508
 30
0.0
 10
227.6924548518788
 20
108.0697373460724
 30
0.0
 10
227.7893797835832
 20
107.9745797296885
 30
0.0
 10
228.1069299713995
 20
107.7204819232985
 30
0.0
 10
228.3630000315092
 20
107.5861641272391
 30
0.0
 10
228.777895118694
 20
107.4518693775785
 30
0.0
 10
228.9231763256952
 20
107.4174933654108
 30
0.0
 10
229.2202083231439
 20
107.3716448678353
 30
0.0
 10
229.3696511104179
 20
107.3603134609858
 30
0.0
 10
229.6703542311772
 20
107.3601775158419
 30
0.0
 10
229.8231191169122
 20
107.3717565690616
 30
0.0
 10
230.1183445081714
 20
107.4172972525231
 30
0.0
 10
230.2618707576498
 20
107.4510309538215
 30
0.0
 10
230.5407281294902
 20
107.5410728496758
 30
0.0
 10
230.6749120592692
 20
107.5973160783901
 30
0.0
 10
230.9237394074177
 20
107.7284580545416
 30
0.0
 10
231.0402622153282
 20
107.8041181843033
 30
0.0
 10
231.2542786231841
 20
107.9753268798177
 30
0.0
 10
231.3492096049422
 20
108.0686952562652
 30
0.0
 10
231.5157657595279
 20
108.2713157679484
 30
0.0
 10
231.5879613192365
 20
108.3819436302973
 30
0.0
 10
231.7033708608417
 20
108.6129388628594
 30
0.0
 10
231.747020443169
 20
108.7331913766021
 30
0.0
 10
231.8061658850924
 20
108.9836907609698
 30
0.0
 10
231.8212887752081
 20
109.1144710951947
 30
0.0
 10
231.8214683868614
 20
109.5048548981857
 30
0.0
 10
231.7610697061525
 20
109.7732497721066
 30
0.0
 10
231.5890844873705
 20
110.1476500728819
 30
0.0
 10
231.5174441228172
 20
110.2698163914186
 30
0.0
 10
231.3499563745355
 20
110.4997657717833
 30
0.0
 10
231.2550606079334
 20
110.6067771565207
 30
0.0
 10
231.0432373733802
 20
110.8044602986871
 30
0.0
 10
230.9251772115228
 20
110.89557285434
 30
0.0
 10
230.6760799629263
 20
111.0528534262144
 30
0.0
 10
230.5441973749587
 20
111.1200824976731
 30
0.0
 10
230.2653286740785
 20
111.2305498878742
 30
0.0
 10
230.1196562752419
 20
111.2729278136012
 30
0.0
 10
229.8255293278473
 20
111.329290369166
 30
0.0
 10
229.6750111824177
 20
111.3438513252154
 30
0.0
 10
229.3711599334621
 20
111.3440714993893
 30
0.0
 10
229.2215775365523
 20
111.3298626612483
 30
0.0
 10
228.9269314493677
 20
111.2739383100265
 30
0.0
 10
228.7803534799092
 20
111.231484249491
 30
0.0
 10
228.502313048681
 20
111.1218347267079
 30
0.0
 10
228.3702403919037
 20
111.0548766707855
 30
0.0
 10
228.1198978119839
 20
110.8973318058297
 30
0.0
 10
228.0020807833012
 20
110.8065876171184
 30
0.0
 10
227.6845462209948
 20
110.5111926023381
 30
0.0
 10
227.5129605875501
 20
110.275613459759
 30
0.0
 10
227.3403191071371
 20
109.9016198357704
 30
0.0
 10
227.2957388821274
 20
109.7714679270587
 30
0.0
 10
227.2363279552167
 20
109.5089076802014
 30
0.0
 10
227.22134882832
 20
109.3772851462239
 30
0.0
 10
227.2213488283199
 20
109.1135001221529
 30
0.0
  0
LINE
  5
12D
330
1F
100
AcDbEntity
  8
0
  6
HIDDEN
 62
     7
370
     0
100
AcDbLine
 10
246.3213483038
 20
110.2203927474
 30
0.0
 11
246.3213483038
 21
102.9953924479
 31
0.0
  0
LINE
  5
12E
330
1F
100
AcDbEntity
  8
0
  6
HIDDEN
 62
     7
370
     0
100
AcDbLine
 10
246.3213483038
 20
110.2203927474
 30
0.0
 11
243.4713522139
 21
110.2203927474
 31
0.0
  0
SPLINE
  5
12F
330
1F
100
AcDbEntity
  8
0
  6
HIDDEN
 62
     7
370
     0
100
AcDbSpline
210
0.0
220
0.0
230
1.0
 70
     8
 71
     3
 72
    10
 73
     6
 74
     0
 42
0.00000001
 43
0.00000001
 40
0.0
 40
0.0
 40
0.0
 40
0.0
 40
0.5
 40
0.5
 40
1.0
 40
1.0
 40
1.0
 40
1.0
 10
243.47134882832
 20
110.2203926341883
 30
0.0
 10
243.3331239308009
 20
110.2203926341883
 30
0.0
 10
243.2006223307521
 20
110.2804426279156
 30
0.0
 10
243.0208051125899
 20
110.4676888456912
 30
0.0
 10
242.97134882832
 20
110.5929300215244
 30
0.0
 10
242.97134882832
 20
110.7203926341883
 30
0.0
  0
LINE
  5
130
330
1F
100
AcDbEntity
  8
0
  6
HIDDEN
 62
     7
370
     0
100
AcDbLine
 10
242.97134375
 20
110.7203928294
 30
0.0
 11
242.97134375
 21
120.270392439
 31
0.0
  0
SPLINE
  5
131
330
1F
100
AcDbEntity
  8
0
  6
HIDDEN
 62
     7
370
     0
100
AcDbSpline
210
0.0
220
0.0
230
1.0
 70
     8
 71
     3
 72
    10
 73
     6
 74
     0
 42
0.00000001
 43
0.00000001
 40
0.0
 40
0.0
 40
0.0
 40
0.0
 40
0.5
 40
0.5
 40
1.0
 40
1.0
 40
1.0
 40
1.0
 10
242.97134882832
 20
120.2703926341883
 30
0.0
 10
242.97134882832
 20
120.3980322908616
 30
0.0
 10
243.0199813652643
 20
120.5221290649226
 30
0.0
 10
243.2010446597794
 20
120.710891753068
 30
0.0
 10
243.3328460048571
 20
120.7703926341883
 30
0.0
 10
243.47134882832
 20
120.7703926341883
 30
0.0
  0
LINE
  5
132
330
1F
100
AcDbEntity
  8
0
  6
HIDDEN
 62
     7
370
     0
100
AcDbLine
 10
243.4713522139
 20
120.7703925209
 30
0.0
 11
246.3213483038
 21
120.7703925209
 31
0.0
  0
LINE
  5
133
330
1F
100
AcDbEntity
  8
0
  6
HIDDEN
 62
     7
370
     0
100
AcDbLine
 10
246.3213483038
 20
120.7703925209
 30
0.0
 11
246.3213483038
 21
127.9953928205
 31
0.0
  0
LINE
  5
134
330
1F
100
AcDbEntity
  8
0
  6
HIDDEN
 62
     7
370
     0
100
AcDbLine
 10
246.3213483038
 20
120.7703925209
 30
0.0
 11
243.4713522139
 21
120.7703925209
 31
0.0
  0
SPLINE
  5
135
330
1F
100
AcDbEntity
  8
0
  6
HIDDEN
 62
     7
370
     0
100
AcDbSpline
210
0.0
220
0.0
230
1.0
 70
     8
 71
     3
 72
    10
 73
     6
 74
     0
 42
0.00000001
 43
0.00000001
 40
0.0
 40
0.0
 40
0.0
 40
0.0
 40
0.5
 40
0.5
 40
1.0
 40
1.0
 40
1.0
 40
1.0
 10
243.47134882832
 20
120.7703926341883
 30
0.0
 10
243.3331239308009
 20
120.7703926341883
 30
0.0
 10
243.2006223307521
 20
120.710342640461
 30
0.0
 10
243.0208051125899
 20
120.5230964226855
 30
0.0
 10
242.97134882832
 20
120.3978552468522
 30
0.0
 10
242.97134882832
 20
120.2703926341883
 30
0.0
  0
SPLINE
  5
136
330
1F
100
AcDbEntity
  8
0
  6
HIDDEN
 62
     7
370
     0
100
AcDbSpline
210
0.0
220
0.0
230
1.0
 70
     8
 71
     3
 72
    10
 73
     6
 74
     0
 42
0.00000001
 43
0.00000001
 40
0.0
 40
0.0
 40
0.0
 40
0.0
 40
0.5
 40
0.5
 40
1.0
 40
1.0
 40
1.0
 40
1.0
 10
242.97134882832
 20
110.7203926341883
 30
0.0
 10
242.97134882832
 20
110.592752977515
 30
0.0
 10
243.0199813652643
 20
110.4686562034541
 30
0.0
 10
243.2010446597794
 20
110.2798935153087
 30
0.0
 10
243.3328460048571
 20
110.2203926341883
 30
0.0
 10
243.47134882832
 20
110.2203926341883
 30
0.0
  0
LINE
  5
137
330
1F
100
AcDbEntity
  8
0
  6
HIDDEN
 62
     7
370
     0
100
AcDbLine
 10
243.4713522139
 20
110.2203927474
 30
0.0
 11
246.3213483038
 21
110.2203927474
 31
0.0
  0
LINE
  5
138
330
1F
100
AcDbEntity
  8
0
  6
HIDDEN
 62
     7
370
     0
100
AcDbLine
 10
242.97134375
 20
120.270392439
 30
0.0
 11
242.97134375
 21
110.7203928294
 31
0.0
  0
LINE
  5
139
330
1F
100
AcDbEntity
  8
0
  6
HIDDEN
 62
     7
370
     0
100
AcDbLine
 10
242.4713501873
 20
102.9953924479
 30
0.0
 11
242.4713501873
 21
127.9953928205
 31
0.0
  0
LINE
  5
13A
330
1F
100
AcDbEntity
  8
0
  6
HIDDEN
 62
     7
370
     0
100
AcDbLine
 10
242.4713501873
 20
127.5703930768
 30
0.0
 11
242.4713501873
 21
103.4526057082
 31
0.0
  0
LINE
  5
13B
330
1F
100
AcDbEntity
  8
0
  6
HIDDEN
 62
     7
370
     0
100
AcDbLine
 10
241.371346468
 20
127.5703930768
 30
0.0
 11
241.371346468
 21
103.4526057082
 31
0.0
  0
LINE
  5
13C
330
1F
100
AcDbEntity
  8
0
  6
HIDDEN
 62
     7
370
     0
100
AcDbLine
 10
100.2213487568
 20
126.7453930812
 30
0.0
 11
100.2213487568
 21
104.2453921872
 31
0.0
  0
LWPOLYLINE
  5
13D
330
1F
100
AcDbEntity
  8
0
  6
HIDDEN
 62
     7
370
     0
100
AcDbPolyline
 90
        2
 70
   128
 43
0.0
 10
100.2213487568
 20
104.2453921872
 10
100.2213487568
 20
104.2453921872
  0
LINE
  5
13E
330
1F
100
AcDbEntity
  8
0
  6
HIDDEN
 62
     7
370
     0
100
AcDbLine
 10
99.4713490995
 20
103.4953925299
 30
0.0
 11
99.4713490995
 21
127.4633803876
 31
0.0
  0
ARC
  5
13F
330
1F
100
AcDbEntity
  8
0
  6
HIDDEN
 62
     7
370
     0
100
AcDbCircle
 10
229.5213544908
 20
110.4941494202
 30
0.0
 40
2.313683418540931
100
AcDbArc
 50
6.2340536943
 51
173.7659463057
  0
ARC
  5
140
330
1F
100
AcDbEntity
  8
0
  6
HIDDEN
 62
     7
370
     0
100
AcDbCircle
 10
229.5213544908
 20
110.9966367122
 30
0.0
 40
2.313683479199566
100
AcDbArc
 50
186.2340674456
 51
353.7659325544
  0
ELLIPSE
  5
141
330
1F
100
AcDbEntity
  8
0
  6
HIDDEN
 62
     7
370
     0
100
AcDbEllipse
 10
30.836675628
 20
115.4953926342
 30
0.0
 11
31.08108570811661
 21
1.421085471520200E-14
 31
0.0
210
0.0
220
0.0
230
1.0
 40
0.8164965809
 41
1.31264926821481
 42
1.367189972061495
  0
LINE
  5
142
330
1F
100
AcDbEntity
  8
0
  6
HIDDEN
 62
     7
370
     0
100
AcDbLine
 10
37.121349776
 20
142.8653928923
 30
0.0
 11
37.121349776
 21
140.3487860697
 31
0.0
  0
ELLIPSE
  5
143
330
1F
100
AcDbEntity
  8
0
  6
HIDDEN
 62
     7
370
     0
100
AcDbEllipse
 10
30.836675628
 20
115.4953926342
 30
0.0
 11
31.08108570811661
 21
-1.421085471520200E-14
 31
0.0
210
0.0
220
0.0
230
1.0
 40
0.8164965809
 41
4.915995335118103
 42
4.970536038964788
  0
LINE
  5
144
330
1F
100
AcDbEntity
  8
0
  6
HIDDEN
 62
     7
370
     0
100
AcDbLine
 10
37.121349776
 20
88.1253923761
 30
0.0
 11
37.121349776
 21
90.6419991987
 31
0.0
  0
SPLINE
  5
145
330
1F
100
AcDbEntity
  8
0
  6
HIDDEN
 62
     7
370
     0
100
AcDbSpline
210
0.0
220
0.0
230
1.0
 70
     8
 71
     3
 72
    18
 73
    14
 74
     0
 42
0.00000001
 43
0.00000001
 40
0.0
 40
0.0
 40
0.0
 40
0.0
 40
0.1250000000000018
 40
0.1250000000000018
 40
0.2500000000000036
 40
0.2500000000000036
 40
0.5000000000000069
 40
0.5000000000000069
 40
0.6250000000000082
 40
0.6250000000000082
 40
0.7500000000000095
 40
0.7500000000000095
 40
1.0
 40
1.0
 40
1.0
 40
1.0
 10
223.27134882832
 20
121.553380050544
 30
0.0
 10
223.0983122804514
 20
121.5150570984983
 30
0.0
 10
222.9380447163882
 20
121.4561669317546
 30
0.0
 10
222.6424613335696
 20
121.295831700331
 30
0.0
 10
222.5139187690808
 20
121.1977919832537
 30
0.0
 10
222.1903593239155
 20
120.8503739852651
 30
0.0
 10
222.0717012433768
 20
120.5560924449012
 30
0.0
 10
222.0711738200585
 20
120.0921526666795
 30
0.0
 10
222.100153079595
 20
119.9354471521803
 30
0.0
 10
222.2133177482965
 20
119.6334365556765
 30
0.0
 10
222.297373926414
 20
119.4886896533925
 30
0.0
 10
222.6184998103194
 20
119.0978831423598
 30
0.0
 10
222.925292172368
 20
118.8971028155193
 30
0.0
 10
223.27134882832
 20
118.8038346335706
 30
0.0
  0
LINE
  5
146
330
1F
100
AcDbEntity
  8
0
  6
HIDDEN
 62
     7
370
     0
100
AcDbLine
 10
223.2713530006
 20
118.8038345898
 30
0.0
 11
223.2713530006
 21
119.0192325047
 31
0.0
  0
SPLINE
  5
147
330
1F
100
AcDbEntity
  8
0
  6
HIDDEN
 62
     7
370
     0
100
AcDbSpline
210
0.0
220
0.0
230
1.0
 70
     8
 71
     3
 72
    23
 73
    19
 74
     0
 42
0.00000001
 43
0.00000001
 40
0.0001620647303176
 40
0.0001620647303176
 40
0.0001620647303176
 40
0.0001620647303176
 40
0.0001791833705586
 40
0.0001791833705586
 40
0.0001791833705586
 40
0.0002124145184225
 40
0.0002124145184225
 40
0.0002124145184225
 40
0.0002445804891103
 40
0.0002445804891103
 40
0.0002445804891103
 40
0.0002768532148399
 40
0.0002768532148399
 40
0.0002768532148399
 40
0.00031002209323
 40
0.00031002209323
 40
0.00031002209323
 40
0.0003194655452153
 40
0.0003194655452153
 40
0.0003194655452153
 40
0.0003194655452153
 10
223.27134882832
 20
119.0192326119609
 30
0.0
 10
223.2713488283198
 20
119.0220953983733
 30
0.0
 10
223.2718319544637
 20
119.0248505883669
 30
0.0
 10
223.2727968756769
 20
119.027433074364
 30
0.0
 10
223.2746641686745
 20
119.0324306409555
 30
0.0
 10
223.2784224741695
 20
119.0368753526984
 30
0.0
 10
223.2837707573626
 20
119.040397188038
 30
0.0
 10
223.2889530242206
 20
119.0438097019049
 30
0.0
 10
223.2957660347856
 20
119.0464539858128
 30
0.0
 10
223.3036377332212
 20
119.0481720791456
 30
0.0
 10
223.3115389059732
 20
119.0498966056042
 30
0.0
 10
223.3207132379696
 20
119.0507392792419
 30
0.0
 10
223.3304236547033
 20
119.05070267382
 30
0.0
 10
223.340402210732
 20
119.0506650575917
 30
0.0
 10
223.3512091004423
 20
119.0497015032578
 30
0.0
 10
223.3619993490476
 20
119.0479336650239
 30
0.0
 10
223.365108919275
 20
119.0474242034405
 30
0.0
 10
223.368232019275
 20
119.0468468879875
 30
0.0
 10
223.37134882832
 20
119.0462058638649
 30
0.0
  0
SPLINE
  5
148
330
1F
100
AcDbEntity
  8
0
  6
HIDDEN
 62
     7
370
     0
100
AcDbSpline
210
0.0
220
0.0
230
1.0
 70
     8
 71
     3
 72
    10
 73
     6
 74
     0
 42
0.00000001
 43
0.00000001
 40
0.0
 40
0.0
 40
0.0
 40
0.0
 40
0.5
 40
0.5
 40
1.0
 40
1.0
 40
1.0
 40
1.0
 10
223.37134882832
 20
119.0462058638645
 30
0.0
 10
223.5211916626454
 20
119.0153881685794
 30
0.0
 10
223.6720594870985
 20
119.0046415642537
 30
0.0
 10
223.9758020970406
 20
119.0226026826386
 30
0.0
 10
224.1268982155787
 20
119.0517165551904
 30
0.0
 10
224.27134882832
 20
119.0999564140836
 30
0.0
  0
SPLINE
  5
149
330
1F
100
AcDbEntity
  8
0
  6
HIDDEN
 62
     7
370
     0
100
AcDbSpline
210
0.0
220
0.0
230
1.0
 70
     8
 71
     3
 72
    20
 73
    16
 74
     0
 42
0.00000001
 43
0.00000001
 40
0.0000002095638251
 40
0.0000002095638251
 40
0.0000002095638251
 40
0.0000002095638251
 40
0.0000365247662458
 40
0.0000365247662458
 40
0.0000365247662458
 40
0.000073165053472
 40
0.000073165053472
 40
0.000073165053472
 40
0.0001079711865407
 40
0.0001079711865407
 40
0.0001079711865407
 40
0.0001401117176298
 40
0.0001401117176298
 40
0.0001401117176298
 40
0.0001602202130874
 40
0.0001602202130874
 40
0.0001602202130874
 40
0.0001602202130874
 10
224.27134882832
 20
119.0999564140836
 30
0.0
 10
224.2827459885992
 20
119.1037625412659
 30
0.0
 10
224.2943541505162
 20
119.1067675598664
 30
0.0
 10
224.3052400063585
 20
119.1086711212068
 30
0.0
 10
224.3162083775767
 20
119.1105891116451
 30
0.0
 10
224.3267612419668
 20
119.1114358314446
 30
0.0
 10
224.3358793455259
 20
119.1109912063344
 30
0.0
 10
224.3445405996451
 20
119.1105688585247
 30
0.0
 10
224.3521640248003
 20
119.1089556742659
 30
0.0
 10
224.3579413738492
 20
119.106174267174
 30
0.0
 10
224.3632849487054
 20
119.1036016933387
 30
0.0
 10
224.3672027705226
 20
119.0999505145684
 30
0.0
 10
224.3693369472242
 20
119.0955089932556
 30
0.0
 10
224.3706767012087
 20
119.0927207771386
 30
0.0
 10
224.37134882832
 20
119.0895868863577
 30
0.0
 10
224.37134882832
 20
119.0862233880497
 30
0.0
  0
LINE
  5
14A
330
1F
100
AcDbEntity
  8
0
  6
HIDDEN
 62
     7
370
     0
100
AcDbLine
 10
224.3713418188
 20
119.0862234688
 30
0.0
 11
224.3713418188
 21
118.8710830646
 31
0.0
  0
SPLINE
  5
14B
330
1F
100
AcDbEntity
  8
0
  6
HIDDEN
 62
     7
370
     0
100
AcDbSpline
210
0.0
220
0.0
230
1.0
 70
     8
 71
     3
 72
    22
 73
    18
 74
     0
 42
0.00000001
 43
0.00000001
 40
0.0
 40
0.0
 40
0.0
 40
0.0
 40
0.1249999999999998
 40
0.1249999999999998
 40
0.2499999999999997
 40
0.2499999999999997
 40
0.3749999999999997
 40
0.3749999999999997
 40
0.4999999999999998
 40
0.4999999999999998
 40
0.6249999999999998
 40
0.6249999999999998
 40
0.7499999999999999
 40
0.7499999999999999
 40
0.8749999999999999
 40
0.8749999999999999
 40
1.0
 40
1.0
 40
1.0
 40
1.0
 10
224.37134882832
 20
118.8710831465482
 30
0.0
 10
224.5201294469029
 20
118.9314629515379
 30
0.0
 10
224.6558834880324
 20
119.010259081037
 30
0.0
 10
224.9022185842061
 20
119.2022719421622
 30
0.0
 10
225.0098203771856
 20
119.313873365632
 30
0.0
 10
225.186045915595
 20
119.5576481603133
 30
0.0
 10
225.2552834052013
 20
119.6912764891141
 30
0.0
 10
225.3473590120214
 20
119.9638480709719
 30
0.0
 10
225.3713133664453
 20
120.106596681924
 30
0.0
 10
225.3713842092244
 20
120.383555489721
 30
0.0
 10
225.3475930131218
 20
120.5218219044248
 30
0.0
 10
225.2554759498805
 20
120.7796072773877
 30
0.0
 10
225.1866071135643
 20
120.9015065792599
 30
0.0
 10
225.0100579926402
 20
121.1202457158117
 30
0.0
 10
224.9031974091521
 20
121.2168255822665
 30
0.0
 10
224.6561312226953
 20
121.3818210298132
 30
0.0
 10
224.5201284398465
 20
121.4478007614213
 30
0.0
 10
224.37134882832
 20
121.4978682538609
 30
0.0
  0
LINE
  5
14C
330
1F
100
AcDbEntity
  8
0
  6
HIDDEN
 62
     7
370
     0
100
AcDbLine
 10
224.3713418188
 20
121.4978681417
 30
0.0
 11
224.3713418188
 21
121.7130083131
 31
0.0
  0
SPLINE
  5
14D
330
1F
100
AcDbEntity
  8
0
  6
HIDDEN
 62
     7
370
     0
100
AcDbSpline
210
0.0
220
0.0
230
1.0
 70
     8
 71
     3
 72
    23
 73
    19
 74
     0
 42
0.00000001
 43
0.00000001
 40
0.0001662950200273
 40
0.0001662950200273
 40
0.0001662950200273
 40
0.0001662950200273
 40
0.0001888869641777
 40
0.0001888869641777
 40
0.0001888869641777
 40
0.0002202292132409
 40
0.0002202292132409
 40
0.0002202292132409
 40
0.0002508744951465
 40
0.0002508744951465
 40
0.0002508744951465
 40
0.0002827639243138
 40
0.0002827639243138
 40
0.0002827639243138
 40
0.00031692689296
 40
0.00031692689296
 40
0.00031692689296
 40
0.0003258677376187
 40
0.0003258677376187
 40
0.0003258677376187
 40
0.0003258677376187
 10
224.37134882832
 20
121.7130084953625
 30
0.0
 10
224.37134882832
 20
121.7167798441763
 30
0.0
 10
224.3705007421708
 20
121.7208954004377
 30
0.0
 10
224.3688165035508
 20
121.7251761987628
 30
0.0
 10
224.366478830221
 20
121.7311178200722
 30
0.0
 10
224.3624462997124
 20
121.7375273979604
 30
0.0
 10
224.3570755059481
 20
121.7438204609332
 30
0.0
 10
224.3518167420355
 20
121.7499822563612
 30
0.0
 10
224.3451464211468
 20
121.7561918960265
 30
0.0
 10
224.3376228664108
 20
121.7619496394194
 30
0.0
 10
224.3297925562379
 20
121.7679421414007
 30
0.0
 10
224.320846223854
 20
121.7735967780674
 30
0.0
 10
224.3114669835959
 20
121.7785066360173
 30
0.0
 10
224.3014255445806
 20
121.7837631427087
 30
0.0
 10
224.2906352613991
 20
121.7883000930688
 30
0.0
 10
224.2798921278141
 20
121.791810418511
 30
0.0
 10
224.2770481248585
 20
121.7927396982089
 30
0.0
 10
224.2741956782943
 20
121.7936025156085
 30
0.0
 10
224.27134882832
 20
121.7943951311454
 30
0.0
  0
SPLINE
  5
14E
330
1F
100
AcDbEntity
  8
0
  6
HIDDEN
 62
     7
370
     0
100
AcDbSpline
210
0.0
220
0.0
230
1.0
 70
     8
 71
     3
 72
    10
 73
     6
 74
     0
 42
0.00000001
 43
0.00000001
 40
0.0
 40
0.0
 40
0.0
 40
0.0
 40
0.5
 40
0.5
 40
1.0
 40
1.0
 40
1.0
 40
1.0
 10
224.27134882832
 20
121.7943951311451
 30
0.0
 10
224.1269055361246
 20
121.834610807639
 30
0.0
 10
223.9787266075388
 20
121.8582144224409
 30
0.0
 10
223.6750169948749
 20
121.8734495153823
 30
0.0
 10
223.5211931971713
 20
121.8645713969279
 30
0.0
 10
223.3713488283199
 20
121.8390538726182
 30
0.0
  0
SPLINE
  5
14F
330
1F
100
AcDbEntity
  8
0
  6
HIDDEN
 62
     7
370
     0
100
AcDbSpline
210
0.0
220
0.0
230
1.0
 70
     8
 71
     3
 72
    20
 73
    16
 74
     0
 42
0.00000001
 43
0.00000001
 40
0.0000002019816324
 40
0.0000002019816324
 40
0.0000002019816324
 40
0.0000002019816324
 40
0.000034327889285
 40
0.000034327889285
 40
0.000034327889285
 40
0.0000687102723355
 40
0.0000687102723355
 40
0.0000687102723355
 40
0.0001022735979614
 40
0.0001022735979614
 40
0.0001022735979614
 40
0.0001347629901449
 40
0.0001347629901449
 40
0.0001347629901449
 40
0.0001578678762431
 40
0.0001578678762431
 40
0.0001578678762431
 40
0.0001578678762431
 10
223.37134882832
 20
121.8390538726182
 30
0.0
 10
223.360239019903
 20
121.8371619442892
 30
0.0
 10
223.3489378194456
 20
121.8341741762954
 30
0.0
 10
223.3383595069008
 20
121.8303203592673
 30
0.0
 10
223.3277087841577
 20
121.8264401622608
 30
0.0
 10
223.3174931966
 20
121.8215701967177
 30
0.0
 10
223.3086199539456
 20
121.8161503169997
 30
0.0
 10
223.2999573856669
 20
121.8108591196383
 30
0.0
 10
223.2923287150049
 20
121.8048927008704
 30
0.0
 10
223.2864251214814
 20
121.7988168251643
 30
0.0
 10
223.2807061161157
 20
121.7929309243775
 30
0.0
 10
223.2764459715082
 20
121.7867805163906
 30
0.0
 10
223.2739855302282
 20
121.7809174617196
 30
0.0
 10
223.2722325835618
 20
121.7767403158459
 30
0.0
 10
223.27134882832
 20
121.7726365415584
 30
0.0
 10
223.27134882832
 20
121.7687780289363
 30
0.0
  0
LINE
  5
150
330
1F
100
AcDbEntity
  8
0
  6
HIDDEN
 62
     7
370
     0
100
AcDbLine
 10
223.2713530006
 20
121.7687782372
 30
0.0
 11
223.2713530006
 21
121.5533800895
 31
0.0
  0
LWPOLYLINE
  5
151
330
1F
100
AcDbEntity
  8
0
  6
HIDDEN
 62
     7
370
     0
100
AcDbPolyline
 90
        2
 70
   128
 43
0.0
 10
242.97134375
 20
110.7203928294
 10
242.97134375
 20
110.7203928294
  0
LWPOLYLINE
  5
152
330
1F
100
AcDbEntity
  8
0
  6
HIDDEN
 62
     7
370
     0
100
AcDbPolyline
 90
        2
 70
   128
 43
0.0
 10
242.97134375
 20
120.270392439
 10
242.97134375
 20
120.270392439
  0
SPLINE
  5
153
330
1F
100
AcDbEntity
  8
0
  6
HIDDEN
 62
     7
370
     0
100
AcDbSpline
210
0.0
220
0.0
230
1.0
 70
    24
 71
     3
 72
     8
 73
     4
 74
     0
 42
0.00000001
 43
0.00000001
 40
0.0
 40
0.0
 40
0.0
 40
0.0
 40
1.0
 40
1.0
 40
1.0
 40
1.0
 10
246.32134882832
 20
120.7703926341883
 30
0.0
 10
246.5617680321329
 20
121.0108118380012
 30
0.0
 10
246.7954310791535
 20
121.2444748850218
 30
0.0
 10
247.02134882832
 20
121.4703926341883
 30
0.0
  0
LINE
  5
154
330
1F
100
AcDbEntity
  8
0
  6
HIDDEN
 62
     7
370
     0
100
AcDbLine
 10
247.021345252
 20
121.4703927288
 30
0.0
 11
247.021345252
 21
127.2953930782
 31
0.0
  0
LINE
  5
155
330
1F
100
AcDbEntity
  8
0
  6
HIDDEN
 62
     7
370
     0
100
AcDbLine
 10
246.4713433924
 20
120.9203927318
 30
0.0
 11
246.3213483038
 21
120.7703925209
 31
0.0
  0
LWPOLYLINE
  5
156
330
1F
100
AcDbEntity
  8
0
  6
HIDDEN
 62
     7
370
     0
100
AcDbPolyline
 90
        2
 70
   128
 43
0.0
 10
243.4713522139
 20
110.2203927474
 10
243.4713522139
 20
110.2203927474
  0
LWPOLYLINE
  5
157
330
1F
100
AcDbEntity
  8
0
  6
HIDDEN
 62
     7
370
     0
100
AcDbPolyline
 90
        2
 70
   128
 43
0.0
 10
246.3213483038
 20
120.7703925209
 10
246.3213483038
 20
120.7703925209
  0
LWPOLYLINE
  5
158
330
1F
100
AcDbEntity
  8
0
  6
HIDDEN
 62
     7
370
     0
100
AcDbPolyline
 90
        2
 70
   128
 43
0.0
 10
243.4713522139
 20
120.7703925209
 10
243.4713522139
 20
120.7703925209
  0
LINE
  5
159
330
1F
100
AcDbEntity
  8
0
  6
HIDDEN
 62
     7
370
     0
100
AcDbLine
 10
246.3213483038
 20
110.2203927474
 30
0.0
 11
246.4713433924
 21
110.0703925366
 31
0.0
  0
LINE
  5
15A
330
1F
100
AcDbEntity
  8
0
  6
HIDDEN
 62
     7
370
     0
100
AcDbLine
 10
247.021345252
 20
103.6953921901
 30
0.0
 11
247.021345252
 21
109.5203925396
 31
0.0
  0
SPLINE
  5
15B
330
1F
100
AcDbEntity
  8
0
  6
HIDDEN
 62
     7
370
     0
100
AcDbSpline
210
0.0
220
0.0
230
1.0
 70
    24
 71
     3
 72
     8
 73
     4
 74
     0
 42
0.00000001
 43
0.00000001
 40
0.0
 40
0.0
 40
0.0
 40
0.0
 40
1.0
 40
1.0
 40
1.0
 40
1.0
 10
247.02134882832
 20
109.5203926341884
 30
0.0
 10
246.7954310791535
 20
109.7463103833549
 30
0.0
 10
246.5617680321329
 20
109.9799734303755
 30
0.0
 10
246.32134882832
 20
110.2203926341883
 30
0.0
  0
LWPOLYLINE
  5
15C
330
1F
100
AcDbEntity
  8
0
  6
HIDDEN
 62
     7
370
     0
100
AcDbPolyline
 90
        2
 70
   128
 43
0.0
 10
246.3213483038
 20
110.2203927474
 10
246.3213483038
 20
110.2203927474
  0
LINE
  5
15D
330
1F
100
AcDbEntity
  8
0
  6
HIDDEN
 62
     7
370
     0
100
AcDbLine
 10
111.3213485273
 20
104.2453921872
 30
0.0
 11
111.3213485273
 21
126.7123832839
 31
0.0
  0
LWPOLYLINE
  5
15E
330
1F
100
AcDbEntity
  8
0
  6
HIDDEN
 62
     7
370
     0
100
AcDbPolyline
 90
        2
 70
   128
 43
0.0
 10
115.9713490101
 20
71.5953908401
 10
115.9713490101
 20
71.5953908401
  0
LINE
  5
15F
330
1F
100
AcDbEntity
  8
0
  6
HIDDEN
 62
     7
370
     0
100
AcDbLine
 10
115.9713490101
 20
71.5953908401
 30
0.0
 11
101.971348578
 21
71.5953908401
 31
0.0
  0
LINE
  5
160
330
1F
100
AcDbEntity
  8
0
  6
HIDDEN
 62
     7
370
     0
100
AcDbLine
 10
105.1113492044
 20
70.0322143274
 30
0.0
 11
105.1113492044
 21
69.1240034538
 31
0.0
  0
LINE
  5
161
330
1F
100
AcDbEntity
  8
0
  6
HIDDEN
 62
     7
370
     0
100
AcDbLine
 10
108.9313494208
 20
69.1240034538
 30
0.0
 11
108.9313494208
 21
70.0322143274
 31
0.0
  0
LINE
  5
162
330
1F
100
AcDbEntity
  8
0
  6
HIDDEN
 62
     7
370
     0
100
AcDbLine
 10
115.9713490101
 20
71.5953908401
 30
0.0
 11
115.9713490101
 21
67.7460483747
 31
0.0
  0
LINE
  5
163
330
1F
100
AcDbEntity
  8
0
  6
HIDDEN
 62
     7
370
     0
100
AcDbLine
 10
91.9713488015
 20
65.5053942936
 30
0.0
 11
91.9713488015
 21
71.5953908401
 31
0.0
  0
LINE
  5
164
330
1F
100
AcDbEntity
  8
0
  6
HIDDEN
 62
     7
370
     0
100
AcDbLine
 10
101.971348578
 20
71.5953908401
 30
0.0
 11
91.9713488015
 21
71.5953908401
 31
0.0
  0
LWPOLYLINE
  5
165
330
1F
100
AcDbEntity
  8
0
  6
HIDDEN
 62
     7
370
     0
100
AcDbPolyline
 90
        2
 70
   128
 43
0.0
 10
247.021345252
 20
109.5203925396
 10
247.021345252
 20
109.5203925396
  0
LWPOLYLINE
  5
166
330
1F
100
AcDbEntity
  8
0
  6
HIDDEN
 62
     7
370
     0
100
AcDbPolyline
 90
        2
 70
   128
 43
0.0
 10
247.021345252
 20
121.4703927288
 10
247.021345252
 20
121.4703927288
  0
SPLINE
  5
167
330
1F
100
AcDbEntity
  8
0
  6
HIDDEN
 62
     7
370
     0
100
AcDbSpline
210
0.0
220
0.0
230
1.0
 70
     8
 71
     3
 72
    23
 73
    19
 74
     0
 42
0.00000001
 43
0.00000001
 40
0.0001662950200273
 40
0.0001662950200273
 40
0.0001662950200273
 40
0.0001662950200273
 40
0.0001888869641777
 40
0.0001888869641777
 40
0.0001888869641777
 40
0.0002202292132409
 40
0.0002202292132409
 40
0.0002202292132409
 40
0.0002508744951465
 40
0.0002508744951465
 40
0.0002508744951465
 40
0.0002827639243138
 40
0.0002827639243138
 40
0.0002827639243138
 40
0.00031692689296
 40
0.00031692689296
 40
0.00031692689296
 40
0.0003258677376187
 40
0.0003258677376187
 40
0.0003258677376187
 40
0.0003258677376187
 10
224.37134882832
 20
105.6869460191529
 30
0.0
 10
224.37134882832
 20
105.6794033215255
 30
0.0
 10
224.3705007421708
 20
105.6718032158761
 30
0.0
 10
224.3688165035508
 20
105.6644861580323
 30
0.0
 10
224.366478830221
 20
105.6543302984227
 30
0.0
 10
224.3624462997124
 20
105.6444828842481
 30
0.0
 10
224.3570755059481
 20
105.6357807642831
 30
0.0
 10
224.3518167420355
 20
105.6272601625911
 30
0.0
 10
224.3451464211468
 20
105.6196072238316
 30
0.0
 10
224.3376228664108
 20
105.6133385871985
 30
0.0
 10
224.3297925562379
 20
105.6068143614939
 30
0.0
 10
224.320846223854
 20
105.6016167350956
 30
0.0
 10
224.3114669835959
 20
105.5980186333641
 30
0.0
 10
224.3014255445806
 20
105.5941664962918
 30
0.0
 10
224.2906352613991
 20
105.5920448508163
 30
0.0
 10
224.2798921278141
 20
105.5917183005325
 30
0.0
 10
224.2770481248585
 20
105.5916318536905
 30
0.0
 10
224.2741956782943
 20
105.5916682559567
 30
0.0
 10
224.27134882832
 20
105.5918263573357
 30
0.0
  0
LINE
  5
168
330
1F
100
AcDbEntity
  8
0
  6
HIDDEN
 62
     7
370
     0
100
AcDbLine
 10
224.3713418188
 20
119.0862234688
 30
0.0
 11
224.3713418188
 21
105.6869463535
 31
0.0
  0
SPLINE
  5
169
330
1F
100
AcDbEntity
  8
0
  6
HIDDEN
 62
     7
370
     0
100
AcDbSpline
210
0.0
220
0.0
230
1.0
 70
     8
 71
     3
 72
    20
 73
    16
 74
     0
 42
0.00000001
 43
0.00000001
 40
0.0000002019816303
 40
0.0000002019816303
 40
0.0000002019816303
 40
0.0000002019816303
 40
0.000034327889285
 40
0.000034327889285
 40
0.000034327889285
 40
0.0000687102723353
 40
0.0000687102723353
 40
0.0000687102723353
 40
0.0001022735979612
 40
0.0001022735979612
 40
0.0001022735979612
 40
0.0001347629901447
 40
0.0001347629901447
 40
0.0001347629901447
 40
0.000157867876241
 40
0.000157867876241
 40
0.000157867876241
 40
0.000157867876241
 10
223.37134882832
 20
105.6009181660824
 30
0.0
 10
223.3602390199023
 20
105.6005251757363
 30
0.0
 10
223.3489378194443
 20
105.6020322976483
 30
0.0
 10
223.3383595068989
 20
105.6053676714954
 30
0.0
 10
223.3277087841559
 20
105.6087258764962
 30
0.0
 10
223.3174931965983
 20
105.6140398286933
 30
0.0
 10
223.3086199539441
 20
105.6209090047008
 30
0.0
 10
223.2999573856655
 20
105.6276150882039
 30
0.0
 10
223.2923287150037
 20
105.6360007323335
 30
0.0
 10
223.2864251214804
 20
105.6453583750415
 30
0.0
 10
223.2807061161149
 20
105.654423431544
 30
0.0
 10
223.2764459715076
 20
105.664653196999
 30
0.0
 10
223.2739855302277
 20
105.6751788954557
 30
0.0
 10
223.2722325835616
 20
105.6826779518931
 30
0.0
 10
223.27134882832
 20
105.6904502364223
 30
0.0
 10
223.27134882832
 20
105.6981672616658
 30
0.0
  0
LINE
  5
16A
330
1F
100
AcDbEntity
  8
0
  6
HIDDEN
 62
     7
370
     0
100
AcDbLine
 10
223.2713530006
 20
119.0192325047
 30
0.0
 11
223.2713530006
 21
105.6981669279
 31
0.0
  0
LINE
  5
16B
330
1F
100
AcDbEntity
  8
0
  6
HIDDEN
 62
     7
370
     0
100
AcDbLine
 10
52.2213483396
 20
88.1253923761
 30
0.0
 11
52.2213483396
 21
90.2668792295
 31
0.0
  0
LINE
  5
16C
330
1F
100
AcDbEntity
  8
0
  6
HIDDEN
 62
     7
370
     0
100
AcDbLine
 10
38.7713479044
 20
88.1253923761
 30
0.0
 11
38.7713479044
 21
90.9586879896
 31
0.0
  0
LINE
  5
16D
330
1F
100
AcDbEntity
  8
0
  6
HIDDEN
 62
     7
370
     0
100
AcDbLine
 10
38.7713479044
 20
142.8653928923
 30
0.0
 11
38.7713479044
 21
140.0320972787
 31
0.0
  0
LINE
  5
16E
330
1F
100
AcDbEntity
  8
0
  6
HIDDEN
 62
     7
370
     0
100
AcDbLine
 10
47.2213493826
 20
142.8653928923
 30
0.0
 11
47.2213493826
 21
140.7239060389
 31
0.0
  0
LINE
  5
16F
330
1F
100
AcDbEntity
  8
0
  6
HIDDEN
 62
     7
370
     0
100
AcDbLine
 10
105.1113492044
 20
161.1889428931
 30
0.0
 11
105.1113492044
 21
162.0926647919
 31
0.0
  0
LINE
  5
170
330
1F
100
AcDbEntity
  8
0
  6
HIDDEN
 62
     7
370
     0
100
AcDbLine
 10
108.9313494208
 20
162.0926647919
 30
0.0
 11
108.9313494208
 21
161.1889428931
 31
0.0
  0
LINE
  5
171
330
1F
100
AcDbEntity
  8
0
  6
HIDDEN
 62
     7
370
     0
100
AcDbLine
 10
115.9713490101
 20
159.3953944283
 30
0.0
 11
115.9713490101
 21
163.4641341405
 31
0.0
  0
LINE
  5
172
330
1F
100
AcDbEntity
  8
0
  6
HIDDEN
 62
     7
370
     0
100
AcDbLine
 10
101.971348578
 20
159.3953944283
 30
0.0
 11
91.9713488015
 21
159.3953944283
 31
0.0
  0
LINE
  5
173
330
1F
100
AcDbEntity
  8
0
  6
HIDDEN
 62
     7
370
     0
100
AcDbLine
 10
115.9713490101
 20
159.3953944283
 30
0.0
 11
101.971348578
 21
159.3953944283
 31
0.0
  0
LWPOLYLINE
  5
174
330
1F
100
AcDbEntity
  8
0
  6
HIDDEN
 62
     7
370
     0
100
AcDbPolyline
 90
        2
 70
   128
 43
0.0
 10
115.9713490101
 20
159.3953944283
 10
115.9713490101
 20
159.3953944283
  0
LINE
  5
175
330
1F
100
AcDbEntity
  8
0
  6
HIDDEN
 62
     7
370
     0
100
AcDbLine
 10
217.0213440599
 20
106.0453928547
 30
0.0
 11
217.0213440599
 21
124.9453924137
 31
0.0
  0
LINE
  5
176
330
1F
100
AcDbEntity
  8
0
  6
HIDDEN
 62
     7
370
     0
100
AcDbLine
 10
219.0213481131
 20
105.9953929397
 30
0.0
 11
219.0213481131
 21
124.9953923287
 31
0.0
  0
SPLINE
  5
177
330
1F
100
AcDbEntity
  8
0
  6
HIDDEN
 62
     7
370
     0
100
AcDbSpline
210
0.0
220
0.0
230
1.0
 70
    11
 71
     3
 72
    22
 73
    18
 74
     0
 42
0.00000001
 43
0.00000001
 40
0.0
 40
0.0
 40
0.0
 40
0.0
 40
0.1249999999999999
 40
0.1249999999999999
 40
0.2499999999999999
 40
0.2499999999999999
 40
0.3749999999999999
 40
0.3749999999999999
 40
0.5
 40
0.5
 40
0.6249999999999999
 40
0.6249999999999999
 40
0.7499999999999999
 40
0.7499999999999999
 40
0.8749999999999999
 40
0.8749999999999999
 40
1.0
 40
1.0
 40
1.0
 40
1.0
 10
224.37134882832
 20
106.1172265021559
 30
0.0
 10
224.5201294469029
 20
106.1069145285016
 30
0.0
 10
224.6558834880324
 20
106.0940163393602
 30
0.0
 10
224.9022185842061
 20
106.0663431281607
 30
0.0
 10
225.0098203771856
 20
106.0518731843792
 30
0.0
 10
225.186045915595
 20
106.0262195855976
 30
0.0
 10
225.2552834052013
 20
106.0149709885625
 30
0.0
 10
225.3473590120214
 20
105.9996384034703
 30
0.0
 10
225.3713133664453
 20
105.9953987933559
 30
0.0
 10
225.3713842092244
 20
105.995386489084
 30
0.0
 10
225.3475930131218
 20
105.9995984282946
 30
0.0
 10
225.2554759498805
 20
106.0149399299557
 30
0.0
 10
225.1866071135643
 20
106.0261342329302
 30
0.0
 10
225.0100579926401
 20
106.0518422352375
 30
0.0
 10
224.9031974091521
 20
106.0662252025845
 30
0.0
 10
224.6561312226953
 20
106.0939964341531
 30
0.0
 10
224.5201284398465
 20
106.1069145983006
 30
0.0
 10
224.37134882832
 20
106.1172265021559
 30
0.0
  0
LINE
  5
178
330
1F
100
AcDbEntity
  8
0
  6
HIDDEN
 62
     7
370
     0
100
AcDbLine
 10
224.3713418188
 20
106.1172266962
 30
0.0
 11
224.3713418188
 21
118.8710830646
 31
0.0
  0
SPLINE
  5
179
330
1F
100
AcDbEntity
  8
0
  6
HIDDEN
 62
     7
370
     0
100
AcDbSpline
210
0.0
220
0.0
230
1.0
 70
     8
 71
     3
 72
    22
 73
    18
 74
     0
 42
0.00000001
 43
0.00000001
 40
0.0
 40
0.0
 40
0.0
 40
0.0
 40
0.1250000000000001
 40
0.1250000000000001
 40
0.2500000000000001
 40
0.2500000000000001
 40
0.3750000000000002
 40
0.3750000000000002
 40
0.5000000000000002
 40
0.5000000000000002
 40
0.6250000000000002
 40
0.6250000000000002
 40
0.7500000000000003
 40
0.7500000000000003
 40
0.8750000000000001
 40
0.8750000000000001
 40
1.0
 40
1.0
 40
1.0
 40
1.0
 10
224.37134882832
 20
121.4978682538608
 30
0.0
 10
224.5201294469029
 20
121.4478004225254
 30
0.0
 10
224.6558834880324
 20
121.3819024821677
 30
0.0
 10
224.9022185842061
 20
121.217562832242
 30
0.0
 10
225.0098203771856
 20
121.1204313525536
 30
0.0
 10
225.186045915595
 20
120.9023101566541
 30
0.0
 10
225.2552834052013
 20
120.7799304248883
 30
0.0
 10
225.3473590120214
 20
120.5226914281227
 30
0.0
 10
225.3713133664453
 20
120.3841824272851
 30
0.0
 10
225.3713842092244
 20
120.1072359237598
 30
0.0
 10
225.3475930131218
 20
119.9647575698455
 30
0.0
 10
225.2554759498805
 20
119.6916306952214
 30
0.0
 10
225.1866071135643
 20
119.5585370903748
 30
0.0
 10
225.0100579926401
 20
119.3140899515157
 30
0.0
 10
224.9031974091521
 20
119.2031271177139
 30
0.0
 10
224.6561312226954
 20
119.0103604385986
 30
0.0
 10
224.5201284398466
 20
118.931462542843
 30
0.0
 10
224.37134882832
 20
118.8710831465481
 30
0.0
  0
LINE
  5
17A
330
1F
100
AcDbEntity
  8
0
  6
HIDDEN
 62
     7
370
     0
100
AcDbLine
 10
224.3713418188
 20
121.4978681417
 30
0.0
 11
224.3713418188
 21
124.9953923287
 31
0.0
  0
SPLINE
  5
17B
330
1F
100
AcDbEntity
  8
0
  6
HIDDEN
 62
     7
370
     0
100
AcDbSpline
210
0.0
220
0.0
230
1.0
 70
     8
 71
     3
 72
    20
 73
    16
 74
     0
 42
0.00000001
 43
0.00000001
 40
0.0
 40
0.0
 40
0.0
 40
0.0
 40
0.1250000000000018
 40
0.1250000000000018
 40
0.2500000000000036
 40
0.2500000000000036
 40
0.4999999999999885
 40
0.4999999999999885
 40
0.6249999999999913
 40
0.6249999999999913
 40
0.7499999999999942
 40
0.7499999999999942
 40
0.8749999999999971
 40
0.8749999999999971
 40
1.0
 40
1.0
 40
1.0
 40
1.0
 10
231.2296141733849
 20
124.9052635413342
 30
0.0
 10
231.1290685605333
 20
124.8870105187659
 30
0.0
 10
231.0155470531409
 20
124.8679356039857
 30
0.0
 10
230.7633021976593
 20
124.8310437393471
 30
0.0
 10
230.6229966807174
 20
124.8131092915492
 30
0.0
 10
230.1829980662118
 20
124.7679404274691
 30
0.0
 10
229.8528831375457
 20
124.7489869753191
 30
0.0
 10
229.3590053765466
 20
124.7488651555901
 30
0.0
 10
229.1919855523861
 20
124.7533889755313
 30
0.0
 10
228.872266038971
 20
124.7702686202172
 30
0.0
 10
228.7160224671521
 20
124.7827171545171
 30
0.0
 10
228.4201603542182
 20
124.8130351607829
 30
0.0
 10
228.2829539003147
 20
124.8305622035485
 30
0.0
 10
228.0293912774371
 20
124.8675698745437
 30
0.0
 10
227.9136290862509
 20
124.8870105205551
 30
0.0
 10
227.8130834832551
 20
124.9052635413342
 30
0.0
  0
SPLINE
  5
17C
330
1F
100
AcDbEntity
  8
0
  6
HIDDEN
 62
     7
370
     0
100
AcDbSpline
210
0.0
220
0.0
230
1.0
 70
     8
 71
     3
 72
    14
 73
    10
 74
     0
 42
0.00000001
 43
0.00000001
 40
0.0
 40
0.0
 40
0.0
 40
0.0
 40
0.25
 40
0.25
 40
0.5
 40
0.5
 40
0.75
 40
0.75
 40
1.0
 40
1.0
 40
1.0
 40
1.0
 10
227.8130834832547
 20
124.9052635413344
 30
0.0
 10
227.7237816200248
 20
124.9170090321681
 30
0.0
 10
227.6424050120777
 20
124.928568087189
 30
0.0
 10
227.4969213146727
 20
124.9502151345233
 30
0.0
 10
227.4331739763629
 20
124.9602569251286
 30
0.0
 10
227.3302580232568
 20
124.9769051611643
 30
0.0
 10
227.2902042357394
 20
124.9836433907298
 30
0.0
 10
227.2353726272489
 20
124.9929539365899
 30
0.0
 10
227.22134882832
 20
124.9953926341883
 30
0.0
 10
227.22134882832
 20
124.9953926341883
 30
0.0
  0
SPLINE
  5
17D
330
1F
100
AcDbEntity
  8
0
  6
HIDDEN
 62
     7
370
     0
100
AcDbSpline
210
0.0
220
0.0
230
1.0
 70
     8
 71
     3
 72
    14
 73
    10
 74
     0
 42
0.00000001
 43
0.00000001
 40
0.0
 40
0.0
 40
0.0
 40
0.0
 40
0.2499999999999999
 40
0.2499999999999999
 40
0.4999999999999999
 40
0.4999999999999999
 40
0.7499999999999998
 40
0.7499999999999998
 40
1.0
 40
1.0
 40
1.0
 40
1.0
 10
227.22134882832
 20
124.9953926341883
 30
0.0
 10
227.22134882832
 20
124.9953926341883
 30
0.0
 10
227.2352008508983
 20
124.9929835946639
 30
0.0
 10
227.2898432944539
 20
124.9837041942122
 30
0.0
 10
227.3299184443678
 20
124.9769598867849
 30
0.0
 10
227.4336304814829
 20
124.9601832851274
 30
0.0
 10
227.4974249812146
 20
124.9501399690593
 30
0.0
 10
227.6419897119182
 20
124.9286301044347
 30
0.0
 10
227.7235599184182
 20
124.9170381916287
 30
0.0
 10
227.8130834832551
 20
124.9052635413342
 30
0.0
  0
SPLINE
  5
17E
330
1F
100
AcDbEntity
  8
0
  6
HIDDEN
 62
     7
370
     0
100
AcDbSpline
210
0.0
220
0.0
230
1.0
 70
     8
 71
     3
 72
    20
 73
    16
 74
     0
 42
0.00000001
 43
0.00000001
 40
0.0
 40
0.0
 40
0.0
 40
0.0
 40
0.1250000000000018
 40
0.1250000000000018
 40
0.2500000000000036
 40
0.2500000000000036
 40
0.4999999999999885
 40
0.4999999999999885
 40
0.6249999999999913
 40
0.6249999999999913
 40
0.7499999999999942
 40
0.7499999999999942
 40
0.8749999999999971
 40
0.8749999999999971
 40
1.0
 40
1.0
 40
1.0
 40
1.0
 10
227.8130834832551
 20
124.9052635413342
 30
0.0
 10
227.9136290961069
 20
124.8870105187659
 30
0.0
 10
228.0271506034991
 20
124.8679356039857
 30
0.0
 10
228.2793954589807
 20
124.8310437393471
 30
0.0
 10
228.4197009759227
 20
124.8131092915492
 30
0.0
 10
228.8596995904281
 20
124.7679404274691
 30
0.0
 10
229.1898145190943
 20
124.7489869753191
 30
0.0
 10
229.6836922800935
 20
124.7488651555901
 30
0.0
 10
229.8507121042539
 20
124.7533889755313
 30
0.0
 10
230.1704316176692
 20
124.7702686202172
 30
0.0
 10
230.326675189488
 20
124.7827171545171
 30
0.0
 10
230.6225373024218
 20
124.8130351607829
 30
0.0
 10
230.7597437563254
 20
124.8305622035485
 30
0.0
 10
231.013306379203
 20
124.8675698745437
 30
0.0
 10
231.1290685703891
 20
124.8870105205551
 30
0.0
 10
231.2296141733849
 20
124.9052635413342
 30
0.0
  0
SPLINE
  5
17F
330
1F
100
AcDbEntity
  8
0
  6
HIDDEN
 62
     7
370
     0
100
AcDbSpline
210
0.0
220
0.0
230
1.0
 70
     8
 71
     3
 72
    14
 73
    10
 74
     0
 42
0.00000001
 43
0.00000001
 40
0.0
 40
0.0
 40
0.0
 40
0.0
 40
0.25
 40
0.25
 40
0.5
 40
0.5
 40
0.75
 40
0.75
 40
1.0
 40
1.0
 40
1.0
 40
1.0
 10
231.2296141733853
 20
124.9052635413344
 30
0.0
 10
231.3189160366152
 20
124.9170090321681
 30
0.0
 10
231.4002926445623
 20
124.928568087189
 30
0.0
 10
231.5457763419672
 20
124.9502151345233
 30
0.0
 10
231.6095236802772
 20
124.9602569251286
 30
0.0
 10
231.7124396333832
 20
124.9769051611643
 30
0.0
 10
231.7524934209006
 20
124.9836433907298
 30
0.0
 10
231.8073250293912
 20
124.9929539365899
 30
0.0
 10
231.8213488283201
 20
124.9953926341883
 30
0.0
 10
231.82134882832
 20
124.9953926341883
 30
0.0
  0
SPLINE
  5
180
330
1F
100
AcDbEntity
  8
0
  6
HIDDEN
 62
     7
370
     0
100
AcDbSpline
210
0.0
220
0.0
230
1.0
 70
     8
 71
     3
 72
    14
 73
    10
 74
     0
 42
0.00000001
 43
0.00000001
 40
0.0
 40
0.0
 40
0.0
 40
0.0
 40
0.25
 40
0.25
 40
0.5
 40
0.5
 40
0.75
 40
0.75
 40
1.0
 40
1.0
 40
1.0
 40
1.0
 10
231.82134882832
 20
124.9953926341883
 30
0.0
 10
231.82134882832
 20
124.9953926341883
 30
0.0
 10
231.8074968057417
 20
124.9929835946639
 30
0.0
 10
231.7528543621862
 20
124.9837041942122
 30
0.0
 10
231.7127792122722
 20
124.9769598867849
 30
0.0
 10
231.6090671751572
 20
124.9601832851274
 30
0.0
 10
231.5452726754255
 20
124.9501399690593
 30
0.0
 10
231.4007079447218
 20
124.9286301044347
 30
0.0
 10
231.3191377382218
 20
124.9170381916287
 30
0.0
 10
231.2296141733849
 20
124.9052635413342
 30
0.0
  0
SPLINE
  5
181
330
1F
100
AcDbEntity
  8
0
  6
HIDDEN
 62
     7
370
     0
100
AcDbSpline
210
0.0
220
0.0
230
1.0
 70
     8
 71
     3
 72
    14
 73
    10
 74
     0
 42
0.00000001
 43
0.00000001
 40
0.0
 40
0.0
 40
0.0
 40
0.0
 40
0.2499999999999991
 40
0.2499999999999991
 40
0.4999999999999982
 40
0.4999999999999982
 40
0.7499999999999991
 40
0.7499999999999991
 40
1.0
 40
1.0
 40
1.0
 40
1.0
 10
231.2296141733851
 20
109.6598612611387
 30
0.0
 10
231.3177266886347
 20
109.7264079398504
 30
0.0
 10
231.3986959120766
 20
109.799319216049
 30
0.0
 10
231.5444401498578
 20
109.9602261989523
 30
0.0
 10
231.6083441681982
 20
110.0477004490655
 30
0.0
 10
231.7120182993817
 20
110.2316953860656
 30
0.0
 10
231.7528672809653
 20
110.3300760873719
 30
0.0
 10
231.8076213945277
 20
110.5345290026868
 30
0.0
 10
231.82134882832
 20
110.6388690137723
 30
0.0
 10
231.82134882832
 20
110.7453926341883
 30
0.0
  0
SPLINE
  5
182
330
1F
100
AcDbEntity
  8
0
  6
HIDDEN
 62
     7
370
     0
100
AcDbSpline
210
0.0
220
0.0
230
1.0
 70
     8
 71
     3
 72
    14
 73
    10
 74
     0
 42
0.00000001
 43
0.00000001
 40
0.0
 40
0.0
 40
0.0
 40
0.0
 40
0.2499999999999998
 40
0.2499999999999998
 40
0.4999999999999997
 40
0.4999999999999997
 40
0.7499999999999996
 40
0.7499999999999996
 40
1.0
 40
1.0
 40
1.0
 40
1.0
 10
231.82134882832
 20
110.7453926341883
 30
0.0
 10
231.82134882832
 20
110.8514702852803
 30
0.0
 10
231.807199212405
 20
110.9605511972764
 30
0.0
 10
231.752886323101
 20
111.1720602404721
 30
0.0
 10
231.7127294698653
 20
111.2761554683353
 30
0.0
 10
231.6083213058841
 20
111.4785676963194
 30
0.0
 10
231.5454722762471
 20
111.5744020707515
 30
0.0
 10
231.4007897577117
 20
111.7561400657748
 30
0.0
 10
231.3183127967614
 20
111.8423976159181
 30
0.0
 10
231.2296141733851
 20
111.921053100092
 30
0.0
  0
SPLINE
  5
183
330
1F
100
AcDbEntity
  8
0
  6
HIDDEN
 62
     7
370
     0
100
AcDbSpline
210
0.0
220
0.0
230
1.0
 70
     8
 71
     3
 72
    20
 73
    16
 74
     0
 42
0.00000001
 43
0.00000001
 40
0.0
 40
0.0
 40
0.0
 40
0.0
 40
0.125
 40
0.125
 40
0.25
 40
0.25
 40
0.5
 40
0.5
 40
0.625
 40
0.625
 40
0.75
 40
0.75
 40
0.875
 40
0.875
 40
1.0
 40
1.0
 40
1.0
 40
1.0
 10
231.2296141733851
 20
111.921053100092
 30
0.0
 10
231.1290685605334
 20
112.0441185857749
 30
0.0
 10
231.0155470531411
 20
112.155394120998
 30
0.0
 10
230.7633021976594
 20
112.3540290159315
 30
0.0
 10
230.6229966807175
 20
112.4417609420876
 30
0.0
 10
230.182998066212
 20
112.6532576412324
 30
0.0
 10
229.8528831375458
 20
112.7302463234577
 30
0.0
 10
229.3590053765466
 20
112.7307612969254
 30
0.0
 10
229.191985552386
 20
112.7118558679024
 30
0.0
 10
228.8722660389708
 20
112.6387147513952
 30
0.0
 10
228.716022467152
 20
112.5840382788795
 30
0.0
 10
228.4201603542181
 20
112.4421371735282
 30
0.0
 10
228.2829539003145
 20
112.3564861939099
 30
0.0
 10
228.0293912774369
 20
112.1574957580504
 30
0.0
 10
227.9136290862507
 20
112.0441185737115
 30
0.0
 10
227.8130834832549
 20
111.921053100092
 30
0.0
  0
SPLINE
  5
184
330
1F
100
AcDbEntity
  8
0
  6
HIDDEN
 62
     7
370
     0
100
AcDbSpline
210
0.0
220
0.0
230
1.0
 70
     8
 71
     3
 72
    12
 73
     8
 74
     0
 42
0.00000001
 43
0.00000001
 40
0.0
 40
0.0
 40
0.0
 40
0.0
 40
0.5
 40
0.5
 40
0.75
 40
0.75
 40
1.0
 40
1.0
 40
1.0
 40
1.0
 10
227.8130834832549
 20
111.921053100092
 30
0.0
 10
227.6334279385917
 20
111.7617395356633
 30
0.0
 10
227.4856546002159
 20
111.5784588082352
 30
0.0
 10
227.3293562867046
 20
111.2747267820455
 30
0.0
 10
227.2896358179369
 20
111.1714254051938
 30
0.0
 10
227.2355978364675
 20
110.9608895190223
 30
0.0
 10
227.22134882832
 20
110.8521123451921
 30
0.0
 10
227.22134882832
 20
110.7453926341883
 30
0.0
  0
SPLINE
  5
185
330
1F
100
AcDbEntity
  8
0
  6
HIDDEN
 62
     7
370
     0
100
AcDbSpline
210
0.0
220
0.0
230
1.0
 70
     8
 71
     3
 72
    14
 73
    10
 74
     0
 42
0.00000001
 43
0.00000001
 40
0.0
 40
0.0
 40
0.0
 40
0.0
 40
0.2500000000000009
 40
0.2500000000000009
 40
0.5000000000000018
 40
0.5000000000000018
 40
0.7500000000000009
 40
0.7500000000000009
 40
1.0
 40
1.0
 40
1.0
 40
1.0
 10
227.22134882832
 20
110.7453926341883
 30
0.0
 10
227.2213488283201
 20
110.6387078524243
 30
0.0
 10
227.2351170396527
 20
110.5345647589531
 30
0.0
 10
227.2895006298239
 20
110.3311203398812
 30
0.0
 10
227.3303008892397
 20
110.2325268631502
 30
0.0
 10
227.4337643094769
 20
110.0485877831192
 30
0.0
 10
227.497409617382
 20
109.961314456987
 30
0.0
 10
227.6428662075634
 20
109.8004227928785
 30
0.0
 10
227.7241026463547
 20
109.7270637368362
 30
0.0
 10
227.8130834832549
 20
109.6598612611387
 30
0.0
  0
SPLINE
  5
186
330
1F
100
AcDbEntity
  8
0
  6
HIDDEN
 62
     7
370
     0
100
AcDbSpline
210
0.0
220
0.0
230
1.0
 70
     8
 71
     3
 72
    20
 73
    16
 74
     0
 42
0.00000001
 43
0.00000001
 40
0.0
 40
0.0
 40
0.0
 40
0.0
 40
0.1249999999999947
 40
0.1249999999999947
 40
0.2499999999999895
 40
0.2499999999999895
 40
0.4999999999999789
 40
0.4999999999999789
 40
0.6249999999999841
 40
0.6249999999999841
 40
0.7499999999999895
 40
0.7499999999999895
 40
0.8749999999999947
 40
0.8749999999999947
 40
1.0
 40
1.0
 40
1.0
 40
1.0
 10
227.8130834832549
 20
109.6598612611387
 30
0.0
 10
227.9136290961066
 20
109.555048798024
 30
0.0
 10
228.0271506034989
 20
109.4628481775812
 30
0.0
 10
228.2793954589805
 20
109.3011051472862
 30
0.0
 10
228.4197009759226
 20
109.2313076689281
 30
0.0
 10
228.8596995904281
 20
109.0649798338633
 30
0.0
 10
229.1898145190942
 20
109.006944603788
 30
0.0
 10
229.6836922800934
 20
109.0065514500494
 30
0.0
 10
229.8507121042541
 20
109.0209330591311
 30
0.0
 10
230.1704316176692
 20
109.0771945309525
 30
0.0
 10
230.3266751894881
 20
109.1194224691683
 30
0.0
 10
230.622537302422
 20
109.2310055682537
 30
0.0
 10
230.7597437563256
 20
109.2991295051065
 30
0.0
 10
231.0133063792032
 20
109.4611122699708
 30
0.0
 10
231.1290685703894
 20
109.5550488082983
 30
0.0
 10
231.2296141733851
 20
109.6598612611387
 30
0.0
  0
SPLINE
  5
187
330
1F
100
AcDbEntity
  8
0
  6
HIDDEN
 62
     7
370
     0
100
AcDbSpline
210
0.0
220
0.0
230
1.0
 70
     8
 71
     3
 72
    20
 73
    16
 74
     0
 42
0.00000001
 43
0.00000001
 40
0.0
 40
0.0
 40
0.0
 40
0.0
 40
0.125
 40
0.125
 40
0.25
 40
0.25
 40
0.5
 40
0.5
 40
0.625
 40
0.625
 40
0.75
 40
0.75
 40
0.875
 40
0.875
 40
1.0
 40
1.0
 40
1.0
 40
1.0
 10
231.229614173385
 20
109.6598612611388
 30
0.0
 10
231.1290685605334
 20
109.5550487980241
 30
0.0
 10
231.0155470531411
 20
109.4628481775813
 30
0.0
 10
230.7633021976594
 20
109.3011051472863
 30
0.0
 10
230.6229966807175
 20
109.2313076689282
 30
0.0
 10
230.182998066212
 20
109.0649798338634
 30
0.0
 10
229.8528831375458
 20
109.0069446037881
 30
0.0
 10
229.3590053765467
 20
109.0065514500495
 30
0.0
 10
229.191985552386
 20
109.0209330591312
 30
0.0
 10
228.8722660389709
 20
109.0771945309526
 30
0.0
 10
228.716022467152
 20
109.1194224691684
 30
0.0
 10
228.4201603542182
 20
109.2310055682538
 30
0.0
 10
228.2829539003145
 20
109.2991295051066
 30
0.0
 10
228.0293912774369
 20
109.4611122699708
 30
0.0
 10
227.9136290862507
 20
109.5550488082983
 30
0.0
 10
227.813083483255
 20
109.6598612611388
 30
0.0
  0
SPLINE
  5
188
330
1F
100
AcDbEntity
  8
0
  6
HIDDEN
 62
     7
370
     0
100
AcDbSpline
210
0.0
220
0.0
230
1.0
 70
     8
 71
     3
 72
    14
 73
    10
 74
     0
 42
0.00000001
 43
0.00000001
 40
0.0
 40
0.0
 40
0.0
 40
0.0
 40
0.25
 40
0.25
 40
0.5
 40
0.5
 40
0.75
 40
0.75
 40
1.0
 40
1.0
 40
1.0
 40
1.0
 10
227.813083483255
 20
109.6598612611388
 30
0.0
 10
227.7240590647838
 20
109.7270966516701
 30
0.0
 10
227.6417062365199
 20
109.8016122982782
 30
0.0
 10
227.4973312305049
 20
109.9614955229964
 30
0.0
 10
227.4343707877152
 20
110.0474934972025
 30
0.0
 10
227.3295980025596
 20
110.2337925604832
 30
0.0
 10
227.2897556004838
 20
110.3306499168208
 30
0.0
 10
227.2356081713515
 20
110.5322507061061
 30
0.0
 10
227.22134882832
 20
110.6384524722042
 30
0.0
 10
227.22134882832
 20
110.7453926341884
 30
0.0
  0
SPLINE
  5
189
330
1F
100
AcDbEntity
  8
0
  6
HIDDEN
 62
     7
370
     0
100
AcDbSpline
210
0.0
220
0.0
230
1.0
 70
     8
 71
     3
 72
    12
 73
     8
 74
     0
 42
0.00000001
 43
0.00000001
 40
0.0
 40
0.0
 40
0.0
 40
0.0
 40
0.25
 40
0.25
 40
0.5
 40
0.5
 40
1.0
 40
1.0
 40
1.0
 40
1.0
 10
227.22134882832
 20
110.7453926341884
 30
0.0
 10
227.22134882832
 20
110.8521625792056
 30
0.0
 10
227.2351384592228
 20
110.9586851383495
 30
0.0
 10
227.2894583907377
 20
111.1711439266072
 30
0.0
 10
227.3302766069324
 20
111.2766928582595
 30
0.0
 10
227.4854187539581
 20
111.5776424541309
 30
0.0
 10
227.6349939928156
 20
111.7631282692033
 30
0.0
 10
227.813083483255
 20
111.9210531000921
 30
0.0
  0
SPLINE
  5
18A
330
1F
100
AcDbEntity
  8
0
  6
HIDDEN
 62
     7
370
     0
100
AcDbSpline
210
0.0
220
0.0
230
1.0
 70
     8
 71
     3
 72
    20
 73
    16
 74
     0
 42
0.00000001
 43
0.00000001
 40
0.0
 40
0.0
 40
0.0
 40
0.0
 40
0.125
 40
0.125
 40
0.25
 40
0.25
 40
0.5
 40
0.5
 40
0.625
 40
0.625
 40
0.75
 40
0.75
 40
0.875
 40
0.875
 40
1.0
 40
1.0
 40
1.0
 40
1.0
 10
227.813083483255
 20
111.9210531000921
 30
0.0
 10
227.9136290961067
 20
112.0441185857751
 30
0.0
 10
228.027150603499
 20
112.1553941209981
 30
0.0
 10
228.2793954589806
 20
112.3540290159317
 30
0.0
 10
228.4197009759226
 20
112.4417609420877
 30
0.0
 10
228.8596995904281
 20
112.6532576412326
 30
0.0
 10
229.1898145190943
 20
112.7302463234579
 30
0.0
 10
229.6836922800933
 20
112.7307612969255
 30
0.0
 10
229.850712104254
 20
112.7118558679025
 30
0.0
 10
230.1704316176692
 20
112.6387147513953
 30
0.0
 10
230.3266751894881
 20
112.5840382788796
 30
0.0
 10
230.6225373024219
 20
112.4421371735284
 30
0.0
 10
230.7597437563256
 20
112.35648619391
 30
0.0
 10
231.0133063792031
 20
112.1574957580506
 30
0.0
 10
231.1290685703894
 20
112.0441185737116
 30
0.0
 10
231.229614173385
 20
111.9210531000921
 30
0.0
  0
SPLINE
  5
18B
330
1F
100
AcDbEntity
  8
0
  6
HIDDEN
 62
     7
370
     0
100
AcDbSpline
210
0.0
220
0.0
230
1.0
 70
     8
 71
     3
 72
    12
 73
     8
 74
     0
 42
0.00000001
 43
0.00000001
 40
0.0
 40
0.0
 40
0.0
 40
0.0
 40
0.2499999999999995
 40
0.2499999999999995
 40
0.4999999999999997
 40
0.4999999999999997
 40
1.0
 40
1.0
 40
1.0
 40
1.0
 10
231.229614173385
 20
111.9210531000921
 30
0.0
 10
231.3178552683285
 20
111.8428033394689
 30
0.0
 10
231.3986413554147
 20
111.7585235373037
 30
0.0
 10
231.5436611024289
 20
111.576983785138
 30
0.0
 10
231.6080597265092
 20
111.4789008192107
 30
0.0
 10
231.7638978187982
 20
111.1773026744509
 30
0.0
 10
231.82134882832
 20
110.9580799030611
 30
0.0
 10
231.82134882832
 20
110.7453926341884
 30
0.0
  0
SPLINE
  5
18C
330
1F
100
AcDbEntity
  8
0
  6
HIDDEN
 62
     7
370
     0
100
AcDbSpline
210
0.0
220
0.0
230
1.0
 70
     8
 71
     3
 72
    12
 73
     8
 74
     0
 42
0.00000001
 43
0.00000001
 40
0.0
 40
0.0
 40
0.0
 40
0.0
 40
0.2500000000000006
 40
0.2500000000000006
 40
0.5000000000000011
 40
0.5000000000000011
 40
1.0
 40
1.0
 40
1.0
 40
1.0
 10
231.82134882832
 20
110.7453926341884
 30
0.0
 10
231.82134882832
 20
110.6395139374234
 30
0.0
 10
231.8072799060318
 20
110.5330213402665
 30
0.0
 10
231.7528474420686
 20
110.33023609678
 30
0.0
 10
231.7128688724903
 20
110.2333966795307
 30
0.0
 10
231.5565327702182
 20
109.9553682010711
 30
0.0
 10
231.407400173912
 20
109.7941335358889
 30
0.0
 10
231.229614173385
 20
109.6598612611388
 30
0.0
  0
LINE
  5
18D
330
1F
100
AcDbEntity
  8
0
  6
HIDDEN
 62
     7
370
     0
100
AcDbLine
 10
246.3213483038
 20
120.7703925209
 30
0.0
 11
246.3213483038
 21
124.9953923287
 31
0.0
  0
LINE
  5
18E
330
1F
100
AcDbEntity
  8
0
  6
HIDDEN
 62
     7
370
     0
100
AcDbLine
 10
246.3213483038
 20
120.7703925209
 30
0.0
 11
243.4713522139
 21
120.7703925209
 31
0.0
  0
SPLINE
  5
18F
330
1F
100
AcDbEntity
  8
0
  6
HIDDEN
 62
     7
370
     0
100
AcDbSpline
210
0.0
220
0.0
230
1.0
 70
     8
 71
     3
 72
    10
 73
     6
 74
     0
 42
0.00000001
 43
0.00000001
 40
0.0
 40
0.0
 40
0.0
 40
0.0
 40
0.5
 40
0.5
 40
1.0
 40
1.0
 40
1.0
 40
1.0
 10
243.47134882832
 20
120.7703926341883
 30
0.0
 10
243.3271885544814
 20
120.7703926341883
 30
0.0
 10
243.1927526900653
 20
120.7053002328353
 30
0.0
 10
243.016694877984
 20
120.5154440840007
 30
0.0
 10
242.97134882832
 20
120.3945490367205
 30
0.0
 10
242.97134882832
 20
120.2703926341883
 30
0.0
  0
LINE
  5
190
330
1F
100
AcDbEntity
  8
0
  6
HIDDEN
 62
     7
370
     0
100
AcDbLine
 10
242.97134375
 20
120.270392439
 30
0.0
 11
242.97134375
 21
110.7203928294
 31
0.0
  0
SPLINE
  5
191
330
1F
100
AcDbEntity
  8
0
  6
HIDDEN
 62
     7
370
     0
100
AcDbSpline
210
0.0
220
0.0
230
1.0
 70
     8
 71
     3
 72
    12
 73
     8
 74
     0
 42
0.00000001
 43
0.00000001
 40
0.0
 40
0.0
 40
0.0
 40
0.0
 40
0.250000000000015
 40
0.250000000000015
 40
0.50000000000003
 40
0.50000000000003
 40
1.0
 40
1.0
 40
1.0
 40
1.0
 10
242.97134882832
 20
110.7203926341883
 30
0.0
 10
242.9713488283201
 20
110.6581844853774
 30
0.0
 10
242.9825614333217
 20
110.5982700973078
 30
0.0
 10
243.0270644821637
 20
110.4828248516844
 30
0.0
 10
243.0603511123825
 20
110.4284596837016
 30
0.0
 10
243.1913740211785
 20
110.2865839347499
 30
0.0
 10
243.3266704615494
 20
110.2203926341883
 30
0.0
 10
243.47134882832
 20
110.2203926341883
 30
0.0
  0
LINE
  5
192
330
1F
100
AcDbEntity
  8
0
  6
HIDDEN
 62
     7
370
     0
100
AcDbLine
 10
243.4713522139
 20
110.2203927474
 30
0.0
 11
246.3213483038
 21
110.2203927474
 31
0.0
  0
LINE
  5
193
330
1F
100
AcDbEntity
  8
0
  6
HIDDEN
 62
     7
370
     0
100
AcDbLine
 10
246.3213483038
 20
110.2203927474
 30
0.0
 11
246.3213483038
 21
105.9953929397
 31
0.0
  0
LINE
  5
194
330
1F
100
AcDbEntity
  8
0
  6
HIDDEN
 62
     7
370
     0
100
AcDbLine
 10
224.3713418188
 20
118.8710830646
 30
0.0
 11
224.3713418188
 21
106.1172266962
 31
0.0
  0
LINE
  5
195
330
1F
100
AcDbEntity
  8
0
  6
HIDDEN
 62
     7
370
     0
100
AcDbLine
 10
243.4713522139
 20
120.7703925209
 30
0.0
 11
246.3213483038
 21
120.7703925209
 31
0.0
  0
LINE
  5
196
330
1F
100
AcDbEntity
  8
0
  6
HIDDEN
 62
     7
370
     0
100
AcDbLine
 10
246.3213483038
 20
110.2203927474
 30
0.0
 11
243.4713522139
 21
110.2203927474
 31
0.0
  0
SPLINE
  5
197
330
1F
100
AcDbEntity
  8
0
  6
HIDDEN
 62
     7
370
     0
100
AcDbSpline
210
0.0
220
0.0
230
1.0
 70
     8
 71
     3
 72
    12
 73
     8
 74
     0
 42
0.00000001
 43
0.00000001
 40
0.0
 40
0.0
 40
0.0
 40
0.0
 40
0.250000000000015
 40
0.250000000000015
 40
0.50000000000003
 40
0.50000000000003
 40
1.0
 40
1.0
 40
1.0
 40
1.0
 10
242.97134882832
 20
120.2703926341883
 30
0.0
 10
242.9713488283201
 20
120.3326007829992
 30
0.0
 10
242.9825614333217
 20
120.3925151710689
 30
0.0
 10
243.0270644821637
 20
120.5079604166922
 30
0.0
 10
243.0603511123825
 20
120.562325584675
 30
0.0
 10
243.1913740211785
 20
120.7042013336267
 30
0.0
 10
243.3266704615494
 20
120.7703926341883
 30
0.0
 10
243.47134882832
 20
120.7703926341883
 30
0.0
  0
SPLINE
  5
198
330
1F
100
AcDbEntity
  8
0
  6
HIDDEN
 62
     7
370
     0
100
AcDbSpline
210
0.0
220
0.0
230
1.0
 70
     8
 71
     3
 72
    10
 73
     6
 74
     0
 42
0.00000001
 43
0.00000001
 40
0.0
 40
0.0
 40
0.0
 40
0.0
 40
0.5
 40
0.5
 40
1.0
 40
1.0
 40
1.0
 40
1.0
 10
243.47134882832
 20
110.2203926341883
 30
0.0
 10
243.3271885544814
 20
110.2203926341883
 30
0.0
 10
243.1927526900653
 20
110.2854850355414
 30
0.0
 10
243.016694877984
 20
110.4753411843759
 30
0.0
 10
242.97134882832
 20
110.5962362316561
 30
0.0
 10
242.97134882832
 20
110.7203926341883
 30
0.0
  0
LINE
  5
199
330
1F
100
AcDbEntity
  8
0
  6
HIDDEN
 62
     7
370
     0
100
AcDbLine
 10
242.97134375
 20
110.7203928294
 30
0.0
 11
242.97134375
 21
120.270392439
 31
0.0
  0
SPLINE
  5
19A
330
1F
100
AcDbEntity
  8
0
  6
HIDDEN
 62
     7
370
     0
100
AcDbSpline
210
0.0
220
0.0
230
1.0
 70
    11
 71
     3
 72
    18
 73
    14
 74
     0
 42
0.00000001
 43
0.00000001
 40
0.0
 40
0.0
 40
0.0
 40
0.0
 40
0.1249999999999986
 40
0.1249999999999986
 40
0.2499999999999972
 40
0.2499999999999972
 40
0.4999999999999943
 40
0.4999999999999943
 40
0.6249999999999929
 40
0.6249999999999929
 40
0.7499999999999913
 40
0.7499999999999913
 40
1.0
 40
1.0
 40
1.0
 40
1.0
 10
223.27134882832
 20
106.1289632184504
 30
0.0
 10
223.0983122804515
 20
106.1206498641203
 30
0.0
 10
222.9380447163882
 20
106.1081972506032
 30
0.0
 10
222.6424613335696
 20
106.0789246092778
 30
0.0
 10
222.5139187690807
 20
106.0627906336153
 30
0.0
 10
222.1903593239155
 20
106.0177451689344
 30
0.0
 10
222.0717012433768
 20
105.9954538430905
 30
0.0
 10
222.0711738200585
 20
105.9953622380309
 30
0.0
 10
222.1001530795949
 20
106.0005171109491
 30
0.0
 10
222.2133177482964
 20
106.0191833032142
 30
0.0
 10
222.2973739264139
 20
106.0326251128641
 30
0.0
 10
222.6184998103193
 20
106.0773867665969
 30
0.0
 10
222.925292172368
 20
106.112337299622
 30
0.0
 10
223.27134882832
 20
106.1289632184504
 30
0.0
  0
LINE
  5
19B
330
1F
100
AcDbEntity
  8
0
  6
HIDDEN
 62
     7
370
     0
100
AcDbLine
 10
223.2713530006
 20
121.5533800895
 30
0.0
 11
223.2713530006
 21
124.9953923287
 31
0.0
  0
SPLINE
  5
19C
330
1F
100
AcDbEntity
  8
0
  6
HIDDEN
 62
     7
370
     0
100
AcDbSpline
210
0.0
220
0.0
230
1.0
 70
     8
 71
     3
 72
    18
 73
    14
 74
     0
 42
0.00000001
 43
0.00000001
 40
0.0
 40
0.0
 40
0.0
 40
0.0
 40
0.1249999999999985
 40
0.1249999999999985
 40
0.2499999999999969
 40
0.2499999999999969
 40
0.4999999999999938
 40
0.4999999999999938
 40
0.6249999999999923
 40
0.6249999999999923
 40
0.749999999999991
 40
0.749999999999991
 40
1.0
 40
1.0
 40
1.0
 40
1.0
 10
223.27134882832
 20
118.8038346335704
 30
0.0
 10
223.0983122804515
 20
118.8504709399463
 30
0.0
 10
222.9380447163882
 20
118.9218137202072
 30
0.0
 10
222.6424613335696
 20
119.111421592956
 30
0.0
 10
222.5139187690808
 20
119.2255952856959
 30
0.0
 10
222.1903593239155
 20
119.6180587483654
 30
0.0
 10
222.0717012433768
 20
119.9346316145732
 30
0.0
 10
222.0711738200585
 20
120.3986629978545
 30
0.0
 10
222.100153079595
 20
120.5502136394355
 30
0.0
 10
222.2133177482965
 20
120.8335580436741
 30
0.0
 10
222.297373926414
 20
120.9648631363083
 30
0.0
 10
222.6184998103194
 20
121.3109079936081
 30
0.0
 10
222.925292172368
 20
121.4767377874236
 30
0.0
 10
223.27134882832
 20
121.5533800505439
 30
0.0
  0
LINE
  5
19D
330
1F
100
AcDbEntity
  8
0
  6
HIDDEN
 62
     7
370
     0
100
AcDbLine
 10
223.2713530006
 20
106.1289632233
 30
0.0
 11
223.2713530006
 21
118.8038345898
 31
0.0
  0
LINE
  5
19E
330
1F
100
AcDbEntity
  8
0
  6
HIDDEN
 62
     7
370
     0
100
AcDbLine
 10
223.2713530006
 20
118.8038345898
 30
0.0
 11
223.2713530006
 21
106.1289632233
 31
0.0
  0
ARC
  5
19F
330
1F
100
AcDbEntity
  8
0
  6
HIDDEN
 62
     7
370
     0
100
AcDbCircle
 10
229.5213470402
 20
110.3131180756
 30
0.0
 40
2.345983531331138
100
AcDbArc
 50
43.2670061318
 51
136.7329938682
  0
ARC
  5
1A0
330
1F
100
AcDbEntity
  8
0
  6
HIDDEN
 62
     7
370
     0
100
AcDbCircle
 10
229.5213470402
 20
111.2677962228
 30
0.0
 40
2.345983359628513
100
AcDbArc
 50
223.2670016767
 51
316.7329983233
  0
LWPOLYLINE
  5
1A1
330
1F
100
AcDbEntity
  8
0
  6
HIDDEN
 62
     7
370
     0
100
AcDbPolyline
 90
        4
 70
   128
 43
0.0
 10
247.021345252
 20
121.4703927288
 10
246.7880526724
 20
121.2371024775
 10
246.5546855869
 20
121.0037237505
 10
246.3213483038
 20
120.7703925209
  0
LINE
  5
1A2
330
1F
100
AcDbEntity
  8
0
  6
HIDDEN
 62
     7
370
     0
100
AcDbLine
 10
247.021345252
 20
121.4703927288
 30
0.0
 11
247.021345252
 21
125.3646784934
 31
0.0
  0
LWPOLYLINE
  5
1A3
330
1F
100
AcDbEntity
  8
0
  6
HIDDEN
 62
     7
370
     0
100
AcDbPolyline
 90
        4
 70
   128
 43
0.0
 10
246.3213483038
 20
120.7703925209
 10
246.5546855869
 20
121.0037237505
 10
246.7880526724
 20
121.2371024775
 10
247.021345252
 20
121.4703927288
  0
LWPOLYLINE
  5
1A4
330
1F
100
AcDbEntity
  8
0
  6
HIDDEN
 62
     7
370
     0
100
AcDbPolyline
 90
        4
 70
   128
 43
0.0
 10
246.3213483038
 20
110.2203927474
 10
246.5546855869
 20
109.9870615179
 10
246.7880526724
 20
109.7536827909
 10
247.021345252
 20
109.5203925396
  0
LINE
  5
1A5
330
1F
100
AcDbEntity
  8
0
  6
HIDDEN
 62
     7
370
     0
100
AcDbLine
 10
247.021345252
 20
109.5203925396
 30
0.0
 11
247.021345252
 21
105.626106775
 31
0.0
  0
LWPOLYLINE
  5
1A6
330
1F
100
AcDbEntity
  8
0
  6
HIDDEN
 62
     7
370
     0
100
AcDbPolyline
 90
        4
 70
   128
 43
0.0
 10
247.021345252
 20
109.5203925396
 10
246.7880526724
 20
109.7536827909
 10
246.5546855869
 20
109.9870615179
 10
246.3213483038
 20
110.2203927474
  0
SPLINE
  5
1A7
330
1F
100
AcDbEntity
  8
0
  6
HIDDEN
 62
     7
370
     0
100
AcDbSpline
210
0.0
220
0.0
230
1.0
 70
     8
 71
     3
 72
    10
 73
     6
 74
     0
 42
0.00000001
 43
0.00000001
 40
0.0
 40
0.0
 40
0.0
 40
0.0
 40
0.5
 40
0.5
 40
1.0
 40
1.0
 40
1.0
 40
1.0
 10
223.3713488283199
 20
121.839053872618
 30
0.0
 10
223.5211916626454
 20
121.864571135608
 30
0.0
 10
223.6720594870985
 20
121.8733825516426
 30
0.0
 10
223.9758020970406
 20
121.8585723179329
 30
0.0
 10
224.1268982155787
 20
121.8346128458139
 30
0.0
 10
224.27134882832
 20
121.7943951311449
 30
0.0
  0
LINE
  5
1A8
330
1F
100
AcDbEntity
  8
0
  6
HIDDEN
 62
     7
370
     0
100
AcDbLine
 10
224.3713418188
 20
121.7130083131
 30
0.0
 11
224.3713418188
 21
125.387647702
 31
0.0
  0
SPLINE
  5
1A9
330
1F
100
AcDbEntity
  8
0
  6
HIDDEN
 62
     7
370
     0
100
AcDbSpline
210
0.0
220
0.0
230
1.0
 70
     8
 71
     3
 72
    20
 73
    16
 74
     0
 42
0.00000001
 43
0.00000001
 40
0.000000209563825
 40
0.000000209563825
 40
0.000000209563825
 40
0.000000209563825
 40
0.0000365247662458
 40
0.0000365247662458
 40
0.0000365247662458
 40
0.0000731650534721
 40
0.0000731650534721
 40
0.0000731650534721
 40
0.0001079711865407
 40
0.0001079711865407
 40
0.0001079711865407
 40
0.0001401117176298
 40
0.0001401117176298
 40
0.0001401117176298
 40
0.0001602202130872
 40
0.0001602202130872
 40
0.0001602202130872
 40
0.0001602202130872
 10
224.27134882832
 20
121.794395131145
 30
0.0
 10
224.2827459885992
 20
121.791221951527
 30
0.0
 10
224.2943541505163
 20
121.786861046938
 30
0.0
 10
224.3052400063587
 20
121.7816307686061
 30
0.0
 10
224.3162083775769
 20
121.7763608444816
 30
0.0
 10
224.326761241967
 20
121.7700476905983
 30
0.0
 10
224.335879345526
 20
121.7632650855306
 30
0.0
 10
224.3445405996453
 20
121.7568223131162
 30
0.0
 10
224.3521640248004
 20
121.7497574859641
 30
0.0
 10
224.3579413738493
 20
121.7427913787259
 30
0.0
 10
224.3632849487055
 20
121.736348299873
 30
0.0
 10
224.3672027705227
 20
121.729804923438
 30
0.0
 10
224.3693369472243
 20
121.7237848907358
 30
0.0
 10
224.3706767012087
 20
121.7200057459286
 30
0.0
 10
224.37134882832
 20
121.7163719936703
 30
0.0
 10
224.37134882832
 20
121.7130084953623
 30
0.0
  0
SPLINE
  5
1AA
330
1F
100
AcDbEntity
  8
0
  6
HIDDEN
 62
     7
370
     0
100
AcDbSpline
210
0.0
220
0.0
230
1.0
 70
     8
 71
     3
 72
    23
 73
    19
 74
     0
 42
0.00000001
 43
0.00000001
 40
0.0001620647303176
 40
0.0001620647303176
 40
0.0001620647303176
 40
0.0001620647303176
 40
0.0001791833705586
 40
0.0001791833705586
 40
0.0001791833705586
 40
0.0002124145184225
 40
0.0002124145184225
 40
0.0002124145184225
 40
0.0002445804891103
 40
0.0002445804891103
 40
0.0002445804891103
 40
0.0002768532148399
 40
0.0002768532148399
 40
0.0002768532148399
 40
0.00031002209323
 40
0.00031002209323
 40
0.00031002209323
 40
0.0003194655452152
 40
0.0003194655452152
 40
0.0003194655452152
 40
0.0003194655452152
 10
223.27134882832
 20
121.7687780289347
 30
0.0
 10
223.2713488283198
 20
121.771640815347
 30
0.0
 10
223.2718319544637
 20
121.7746336264393
 30
0.0
 10
223.2727968756769
 20
121.7776882329519
 30
0.0
 10
223.2746641686745
 20
121.7835994361391
 30
0.0
 10
223.2784224741695
 20
121.7898811715421
 30
0.0
 10
223.2837707573626
 20
121.795950906522
 30
0.0
 10
223.2889530242206
 20
121.8018322305445
 30
0.0
 10
223.2957660347856
 20
121.8076740925492
 30
0.0
 10
223.3036377332212
 20
121.8129600137064
 30
0.0
 10
223.3115389059732
 20
121.8182657271503
 30
0.0
 10
223.3207132379696
 20
121.8231521400722
 30
0.0
 10
223.3304236547033
 20
121.8272171300938
 30
0.0
 10
223.340402210732
 20
121.8313943690114
 30
0.0
 10
223.3512091004423
 20
121.8348148629103
 30
0.0
 10
223.3619993490476
 20
121.8372174181115
 30
0.0
 10
223.365108919275
 20
121.8379097945707
 30
0.0
 10
223.368232019275
 20
121.83852310025
 30
0.0
 10
223.3713488283199
 20
121.8390538726186
 30
0.0
  0
LINE
  5
1AB
330
1F
100
AcDbEntity
  8
0
  6
HIDDEN
 62
     7
370
     0
100
AcDbLine
 10
223.2713530006
 20
121.7687782372
 30
0.0
 11
223.2713530006
 21
125.4203930037
 31
0.0
  0
SPLINE
  5
1AC
330
1F
100
AcDbEntity
  8
0
  6
HIDDEN
 62
     7
370
     0
100
AcDbSpline
210
0.0
220
0.0
230
1.0
 70
     8
 71
     3
 72
    43
 73
    39
 74
     0
 42
0.00000001
 43
0.00000001
 40
-0.0956093829368836
 40
-0.0624935963491509
 40
-0.037861364880722
 40
0.0
 40
0.0284105698899409
 40
0.0550998574881715
 40
0.0800772929339295
 40
0.10335460392899
 40
0.124946507221774
 40
0.1542906652266545
 40
0.1874273443296489
 40
0.2118955233627836
 40
0.2499806198006242
 40
0.2742598702191721
 40
0.2971733732821188
 40
0.3187280787703353
 40
0.3389324365446529
 40
0.3577968097559039
 40
0.3753340366442203
 40
0.4115607085053306
 40
0.4530653289827803
 40
0.4999157535593026
 40
0.5208052877038862
 40
0.5382319773333737
 40
0.5521939656699134
 40
0.5626899286748406
 40
0.5959292802566456
 40
0.6252973741913724
 40
0.6621940257273792
 40
0.7037412342763472
 40
0.749988376153883
 40
0.7768708436792399
 40
0.7977153901925103
 40
0.8125147914969697
 40
0.8456185013137799
 40
0.8750030524642495
 40
0.9043906170631164
 40
0.9375064036508491
 40
0.962138635119278
 40
1.0
 40
1.028410569889941
 40
1.055099857488171
 40
1.08007729293393
 10
66.95375716364715
 20
79.15953305446133
 30
0.0
 10
67.66731904502088
 20
79.22878200422389
 30
0.0
 10
68.5686427712908
 20
79.2913175135802
 30
0.0
 10
69.44574055074848
 20
79.32426648997662
 30
0.0
 10
70.33206988119076
 20
79.33617465525028
 30
0.0
 10
71.19521719520704
 20
79.32636856886622
 30
0.0
 10
72.12907053084024
 20
79.2899935558109
 30
0.0
 10
73.1853826173621
 20
79.20924048524414
 30
0.0
 10
74.23600797014642
 20
79.09439327310284
 30
0.0
 10
75.30411480038374
 20
78.94230410184899
 30
0.0
 10
76.16478749692475
 20
78.79491273222301
 30
0.0
 10
76.86089000173871
 20
78.65713170917124
 30
0.0
 10
77.32142008294424
 20
78.56264517358836
 30
0.0
 10
77.65548611279876
 20
78.48851485185696
 30
0.0
 10
77.8755431879841
 20
78.43543076913012
 30
0.0
 10
77.9960067124073
 20
78.40320133111972
 30
0.0
 10
78.04664152819626
 20
78.38759344507397
 30
0.0
 10
77.90883548362126
 20
78.42920826281114
 30
0.0
 10
77.3538148304777
 20
78.55779133900123
 30
0.0
 10
76.52914715294071
 20
78.72585097125575
 30
0.0
 10
75.7307423181525
 20
78.87033087244912
 30
0.0
 10
75.19251751042047
 20
78.95589439581674
 30
0.0
 10
74.73448265938923
 20
79.02320248452425
 30
0.0
 10
74.0789224642549
 20
79.11154719967953
 30
0.0
 10
73.19552629221107
 20
79.2081969269782
 30
0.0
 10
71.94630223866552
 20
79.3043159160424
 30
0.0
 10
70.58578202724905
 20
79.3419182960147
 30
0.0
 10
69.10100576281071
 20
79.3212750656987
 30
0.0
 10
67.9250441892613
 20
79.25084349979909
 30
0.0
 10
67.15905686348387
 20
79.17914029416093
 30
0.0
 10
66.74517069858503
 20
79.13542029343384
 30
0.0
 10
66.3759906245501
 20
79.09088010741075
 30
0.0
 10
66.09536114630076
 20
79.05464515306602
 30
0.0
 10
65.98703743919889
 20
79.03656382993138
 30
0.0
 10
66.09329294802002
 20
79.05434896475863
 30
0.0
 10
66.40771970984457
 20
79.09532327783606
 30
0.0
 10
66.95375716364715
 20
79.15953305446133
 30
0.0
 10
67.66731904502088
 20
79.22878200422389
 30
0.0
 10
68.5686427712908
 20
79.2913175135802
 30
0.0
  0
SPLINE
  5
1AD
330
1F
100
AcDbEntity
  8
0
  6
HIDDEN
 62
     7
370
     0
100
AcDbSpline
210
0.0
220
0.0
230
1.0
 70
     8
 71
     3
 72
    43
 73
    39
 74
     0
 42
0.00000001
 43
0.00000001
 40
-0.0937902222074294
 40
-0.0655984205436123
 40
-0.0343403538267918
 40
0.0
 40
0.0273365738688141
 40
0.0520717403686518
 40
0.0742047603666143
 40
0.0937354293115707
 40
0.110664300342266
 40
0.1249931095774906
 40
0.1543513865379304
 40
0.1874527833689601
 40
0.2119177690105729
 40
0.2499503115778943
 40
0.2783738631985146
 40
0.3050847229534546
 40
0.3300923654951012
 40
0.3534085554422672
 40
0.3750480314723709
 40
0.4043774817961634
 40
0.4374963616384963
 40
0.4617853790319541
 40
0.499994824845829
 40
0.5242323768331801
 40
0.5471082899820217
 40
0.5686295237820199
 40
0.5888045366189072
 40
0.6076436979386154
 40
0.6251598482956278
 40
0.6689986353814409
 40
0.718681920120706
 40
0.7374501607104872
 40
0.7656131886438604
 40
0.791950520093971
 40
0.8125718764315244
 40
0.8617921544209775
 40
0.9062097777925705
 40
0.9344015794563876
 40
0.9656596461732081
 40
0.9999999999999999
 40
1.027336573868814
 40
1.052071740368652
 40
1.074204760366614
 10
68.73496291867619
 20
151.6888570214677
 30
0.0
 10
67.81722278018408
 20
151.7504517145699
 30
0.0
 10
67.11472530957388
 20
151.8148050053378
 30
0.0
 10
66.63628362842266
 20
151.8625399051029
 30
0.0
 10
66.31877138860796
 20
151.9003330254399
 30
0.0
 10
66.13036472307411
 20
151.9273343721905
 30
0.0
 10
66.03900099388078
 20
151.9441111140863
 30
0.0
 10
66.0046902163611
 20
151.9519668238927
 30
0.0
 10
66.09441356018725
 20
151.9358752271681
 30
0.0
 10
66.40898610006016
 20
151.8952630869257
 30
0.0
 10
66.95520566868606
 20
151.8308680981156
 30
0.0
 10
67.66923022407939
 20
151.7617222900097
 30
0.0
 10
68.57319071421738
 20
151.6992155542161
 30
0.0
 10
69.45148577085563
 20
151.6664240342202
 30
0.0
 10
70.33925954230642
 20
151.6546920236621
 30
0.0
 10
71.20408477853664
 20
151.6647056167455
 30
0.0
 10
72.13893064490522
 20
151.7012722166257
 30
0.0
 10
73.19521613552403
 20
151.782207850995
 30
0.0
 10
74.24273931779281
 20
151.89697662047
 30
0.0
 10
75.30937915987879
 20
152.0492445971059
 30
0.0
 10
76.16860964716564
 20
152.1965152066734
 30
0.0
 10
76.8641921130215
 20
152.3343389711294
 30
0.0
 10
77.32336552289176
 20
152.4286279859237
 30
0.0
 10
77.65647092054448
 20
152.5025923242509
 30
0.0
 10
77.87592123501841
 20
152.5555072402607
 30
0.0
 10
77.99606981322
 20
152.5876883198056
 30
0.0
 10
78.05191366671761
 20
152.6044153492397
 30
0.0
 10
77.85756521444016
 20
152.5492536176951
 30
0.0
 10
77.25477875158586
 20
152.4169413166573
 30
0.0
 10
76.52576437725938
 20
152.265285394011
 30
0.0
 10
75.87053035379597
 20
152.1424365424024
 30
0.0
 10
75.0970088485356
 20
152.0174550568916
 30
0.0
 10
74.01903848699683
 20
151.8673324729822
 30
0.0
 10
72.6048758143608
 20
151.7255486363075
 30
0.0
 10
71.0546741051979
 20
151.6528166054325
 30
0.0
 10
69.79359948383207
 20
151.6562199437944
 30
0.0
 10
68.73496291867619
 20
151.6888570214677
 30
0.0
 10
67.81722278018408
 20
151.7504517145699
 30
0.0
 10
67.11472530957388
 20
151.8148050053378
 30
0.0
  0
LINE
  5
1AE
330
1F
100
AcDbEntity
  8
0
  6
HIDDEN
 62
     7
370
     0
100
AcDbLine
 10
216.0213420334
 20
111.4453925291
 30
0.0
 11
216.0213420334
 21
119.5453927392
 31
0.0
  0
LINE
  5
1AF
330
1F
100
AcDbEntity
  8
0
  6
HIDDEN
 62
     7
370
     0
100
AcDbLine
 10
217.0213440599
 20
120.5453924375
 30
0.0
 11
217.0213440599
 21
110.4795388418
 31
0.0
  0
LINE
  5
1B0
330
1F
100
AcDbEntity
  8
0
  6
HIDDEN
 62
     7
370
     0
100
AcDbLine
 10
210.9900171104
 20
112.9953926901
 30
0.0
 11
210.9900171104
 21
117.9953925783
 31
0.0
  0
LINE
  5
1B1
330
1F
100
AcDbEntity
  8
0
  6
HIDDEN
 62
     7
370
     0
100
AcDbLine
 10
211.9213471355
 20
111.4453925291
 30
0.0
 11
211.9213471355
 21
119.5453927392
 31
0.0
  0
LINE
  5
1B2
330
1F
100
AcDbEntity
  8
0
  6
HIDDEN
 62
     7
370
     0
100
AcDbLine
 10
115.321349183
 20
112.9953926901
 30
0.0
 11
115.321349183
 21
117.9612959275
 31
0.0
  0
LINE
  5
1B3
330
1F
100
AcDbEntity
  8
0
  6
HIDDEN
 62
     7
370
     0
100
AcDbLine
 10
231.8213561716
 20
124.9953923287
 30
0.0
 11
227.2213528099
 21
124.9953923287
 31
0.0
  0
LINE
  5
1B4
330
1F
100
AcDbEntity
  8
0
  6
HIDDEN
 62
     7
370
     0
100
AcDbLine
 10
227.2213528099
 20
124.9953923287
 30
0.0
 11
231.8213561716
 21
124.9953923287
 31
0.0
  0
LINE
  5
1B5
330
1F
100
AcDbEntity
  8
0
  6
HIDDEN
 62
     7
370
     0
100
AcDbLine
 10
227.8130779209
 20
124.9052635866
 30
0.0
 11
231.2296161594
 21
124.9052635866
 31
0.0
  0
LINE
  5
1B6
330
1F
100
AcDbEntity
  8
0
  6
HIDDEN
 62
     7
370
     0
100
AcDbLine
 10
223.2713530006
 20
106.1289632233
 30
0.0
 11
223.2713530006
 21
105.6981669279
 31
0.0
  0
SPLINE
  5
1B7
330
1F
100
AcDbEntity
  8
0
  6
HIDDEN
 62
     7
370
     0
100
AcDbSpline
210
0.0
220
0.0
230
1.0
 70
     8
 71
     3
 72
    23
 73
    19
 74
     0
 42
0.00000001
 43
0.00000001
 40
0.0001620647303176
 40
0.0001620647303176
 40
0.0001620647303176
 40
0.0001620647303176
 40
0.0001791833705586
 40
0.0001791833705586
 40
0.0001791833705586
 40
0.0002124145184225
 40
0.0002124145184225
 40
0.0002124145184225
 40
0.0002445804891103
 40
0.0002445804891103
 40
0.0002445804891103
 40
0.0002768532148399
 40
0.0002768532148399
 40
0.0002768532148399
 40
0.00031002209323
 40
0.00031002209323
 40
0.00031002209323
 40
0.0003194655452153
 40
0.0003194655452153
 40
0.0003194655452153
 40
0.0003194655452153
 10
223.27134882832
 20
105.6981672616693
 30
0.0
 10
223.2713488283198
 20
105.6924416888445
 30
0.0
 10
223.2718319544637
 20
105.6866936877588
 30
0.0
 10
223.2727968756769
 20
105.681056595249
 30
0.0
 10
223.2746641686745
 20
105.6701478254703
 30
0.0
 10
223.2784224741695
 20
105.6594213783244
 30
0.0
 10
223.2837707573626
 20
105.6498298080049
 30
0.0
 10
223.2889530242206
 20
105.6405359701154
 30
0.0
 10
223.2957660347856
 20
105.6320498242029
 30
0.0
 10
223.3036377332212
 20
105.6250458097129
 30
0.0
 10
223.3115389059732
 20
105.6180155698103
 30
0.0
 10
223.3207132379696
 20
105.6122864832507
 30
0.0
 10
223.3304236547033
 20
105.6082580986511
 30
0.0
 10
223.340402210732
 20
105.6041184759619
 30
0.0
 10
223.3512091004423
 20
105.6016615363968
 30
0.0
 10
223.3619993490476
 20
105.6010268194295
 30
0.0
 10
223.365108919275
 20
105.6008439045536
 30
0.0
 10
223.368232019275
 20
105.6008079143274
 30
0.0
 10
223.37134882832
 20
105.6009181660814
 30
0.0
  0
SPLINE
  5
1B8
330
1F
100
AcDbEntity
  8
0
  6
HIDDEN
 62
     7
370
     0
100
AcDbSpline
210
0.0
220
0.0
230
1.0
 70
     8
 71
     3
 72
    10
 73
     6
 74
     0
 42
0.00000001
 43
0.00000001
 40
0.0
 40
0.0
 40
0.0
 40
0.0
 40
0.5
 40
0.5
 40
1.0
 40
1.0
 40
1.0
 40
1.0
 10
223.37134882832
 20
105.6009181660824
 30
0.0
 10
223.5211916626454
 20
105.6062185983775
 30
0.0
 10
223.6720594870985
 20
105.6081537866686
 30
0.0
 10
223.9758020970407
 20
105.6050029019933
 30
0.0
 10
224.1268982155787
 20
105.5998485015606
 30
0.0
 10
224.27134882832
 20
105.5918263573363
 30
0.0
  0
SPLINE
  5
1B9
330
1F
100
AcDbEntity
  8
0
  6
HIDDEN
 62
     7
370
     0
100
AcDbSpline
210
0.0
220
0.0
230
1.0
 70
     8
 71
     3
 72
    20
 73
    16
 74
     0
 42
0.00000001
 43
0.00000001
 40
0.0000002095638254
 40
0.0000002095638254
 40
0.0000002095638254
 40
0.0000002095638254
 40
0.0000365247662458
 40
0.0000365247662458
 40
0.0000365247662458
 40
0.0000731650534721
 40
0.0000731650534721
 40
0.0000731650534721
 40
0.0001079711865408
 40
0.0001079711865408
 40
0.0001079711865408
 40
0.0001401117176299
 40
0.0001401117176299
 40
0.0001401117176299
 40
0.0001602202130877
 40
0.0001602202130877
 40
0.0001602202130877
 40
0.0001602202130877
 10
224.27134882832
 20
105.5918263573363
 30
0.0
 10
224.2827459885991
 20
105.5911934097719
 30
0.0
 10
224.294354150516
 20
105.5925492957604
 30
0.0
 10
224.3052400063583
 20
105.5958760127519
 30
0.0
 10
224.3162083775765
 20
105.599227946438
 30
0.0
 10
224.3267612419667
 20
105.6046943805218
 30
0.0
 10
224.3358793455257
 20
105.6119216106996
 30
0.0
 10
224.344540599645
 20
105.6187867309238
 30
0.0
 10
224.3521640248001
 20
105.6274647423348
 30
0.0
 10
224.3579413738491
 20
105.6372122566647
 30
0.0
 10
224.3632849487053
 20
105.646227909353
 30
0.0
 10
224.3672027705226
 20
105.6564224645583
 30
0.0
 10
224.3693369472242
 20
105.6668840185732
 30
0.0
 10
224.3706767012087
 20
105.6734513794975
 30
0.0
 10
224.37134882832
 20
105.6802190225369
 30
0.0
 10
224.37134882832
 20
105.6869460191529
 30
0.0
  0
LINE
  5
1BA
330
1F
100
AcDbEntity
  8
0
  6
HIDDEN
 62
     7
370
     0
100
AcDbLine
 10
224.3713418188
 20
105.6869463535
 30
0.0
 11
224.3713418188
 21
106.1172266962
 31
0.0
  0
LINE
  5
1BB
330
1F
100
AcDbEntity
  8
0
  6
HIDDEN
 62
     7
370
     0
100
AcDbLine
 10
223.2713530006
 20
105.6981669279
 30
0.0
 11
223.2713530006
 21
106.1289632233
 31
0.0
  0
LINE
  5
1BC
330
1F
100
AcDbEntity
  8
0
  6
HIDDEN
 62
     7
370
     0
100
AcDbLine
 10
224.3713418188
 20
106.1172266962
 30
0.0
 11
224.3713418188
 21
105.6869463535
 31
0.0
  0
SPLINE
  5
1BD
330
1F
100
AcDbEntity
  8
0
  6
HIDDEN
 62
     7
370
     0
100
AcDbSpline
210
0.0
220
0.0
230
1.0
 70
     8
 71
     3
 72
    10
 73
     6
 74
     0
 42
0.00000001
 43
0.00000001
 40
0.0
 40
0.0
 40
0.0
 40
0.0
 40
0.5
 40
0.5
 40
1.0
 40
1.0
 40
1.0
 40
1.0
 10
224.27134882832
 20
105.5918263573363
 30
0.0
 10
224.1269055361247
 20
105.5998480950101
 30
0.0
 10
223.9787266075388
 20
105.6049269694777
 30
0.0
 10
223.6750169948749
 20
105.6081678272784
 30
0.0
 10
223.5211931971713
 20
105.6062186526587
 30
0.0
 10
223.37134882832
 20
105.6009181660824
 30
0.0
  0
LWPOLYLINE
  5
1BE
330
1F
100
AcDbEntity
  8
0
  6
HIDDEN
 62
     7
370
     0
100
AcDbPolyline
 90
        2
 70
   128
 43
0.0
 10
91.9713488015
 20
71.5953908401
 10
91.9713488015
 20
71.5953908401
  0
LINE
  5
1BF
330
1F
100
AcDbEntity
  8
0
  6
HIDDEN
 62
     7
370
     0
100
AcDbLine
 10
231.2296161594
 20
124.9052635866
 30
0.0
 11
227.8130779209
 21
124.9052635866
 31
0.0
  0
LINE
  5
1C0
330
1F
100
AcDbEntity
  8
0
  6
HIDDEN
 62
     7
370
     0
100
AcDbLine
 10
91.9713488015
 20
65.5053942936
 30
0.0
 11
91.9713488015
 21
71.5953908401
 31
0.0
  0
LINE
  5
1C1
330
1F
100
AcDbEntity
  8
0
  6
HIDDEN
 62
     7
370
     0
100
AcDbLine
 10
91.9713488015
 20
71.5953908401
 30
0.0
 11
101.971348578
 21
71.5953908401
 31
0.0
  0
SPLINE
  5
1C2
330
1F
100
AcDbEntity
  8
0
  6
HIDDEN
 62
     7
370
     0
100
AcDbSpline
210
0.0
220
0.0
230
1.0
 70
     8
 71
     3
 72
    10
 73
     6
 74
     0
 42
0.00000001
 43
0.00000001
 40
0.0
 40
0.0
 40
0.0
 40
0.0
 40
0.5
 40
0.5
 40
1.0
 40
1.0
 40
1.0
 40
1.0
 10
224.27134882832
 20
119.0999564140835
 30
0.0
 10
224.1269055361246
 20
119.0517189999158
 30
0.0
 10
223.9787266075388
 20
119.0230365106463
 30
0.0
 10
223.6750169948749
 20
119.0045605599042
 30
0.0
 10
223.5211931971712
 20
119.0153878529783
 30
0.0
 10
223.3713488283199
 20
119.0462058638643
 30
0.0
  0
SPLINE
  5
1C3
330
1F
100
AcDbEntity
  8
0
  6
HIDDEN
 62
     7
370
     0
100
AcDbSpline
210
0.0
220
0.0
230
1.0
 70
     8
 71
     3
 72
    23
 73
    19
 74
     0
 42
0.00000001
 43
0.00000001
 40
0.0001662950200274
 40
0.0001662950200274
 40
0.0001662950200274
 40
0.0001662950200274
 40
0.0001888869641777
 40
0.0001888869641777
 40
0.0001888869641777
 40
0.0002202292132409
 40
0.0002202292132409
 40
0.0002202292132409
 40
0.0002508744951465
 40
0.0002508744951465
 40
0.0002508744951465
 40
0.0002827639243138
 40
0.0002827639243138
 40
0.0002827639243138
 40
0.00031692689296
 40
0.00031692689296
 40
0.00031692689296
 40
0.0003258677376187
 40
0.0003258677376187
 40
0.0003258677376187
 40
0.0003258677376187
 10
224.37134882832
 20
119.0862233880495
 30
0.0
 10
224.37134882832
 20
119.0899947368632
 30
0.0
 10
224.3705007421708
 20
119.093479286251
 30
0.0
 10
224.3688165035508
 20
119.0965155457697
 30
0.0
 10
224.366478830221
 20
119.10072978407
 30
0.0
 10
224.3624462997124
 20
119.1041676203564
 30
0.0
 10
224.3570755059482
 20
119.1065766773485
 30
0.0
 10
224.3518167420355
 20
119.1089354836126
 30
0.0
 10
224.3451464211468
 20
119.1103787827067
 30
0.0
 10
224.3376228664108
 20
119.110889675947
 30
0.0
 10
224.329792556238
 20
119.1114213996703
 30
0.0
 10
224.320846223854
 20
119.1109643894019
 30
0.0
 10
224.3114669835959
 20
119.1096526331835
 30
0.0
 10
224.3014255445806
 20
119.1082482635643
 30
0.0
 10
224.2906352613991
 20
119.1058329586798
 30
0.0
 10
224.2798921278141
 20
119.1026491835214
 30
0.0
 10
224.2770481248585
 20
119.1018063506654
 30
0.0
 10
224.2741956782944
 20
119.1009071309997
 30
0.0
 10
224.27134882832
 20
119.0999564140838
 30
0.0
  0
LINE
  5
1C4
330
1F
100
AcDbEntity
  8
0
  6
HIDDEN
 62
     7
370
     0
100
AcDbLine
 10
224.3713418188
 20
105.6869463535
 30
0.0
 11
224.3713418188
 21
119.0862234688
 31
0.0
  0
LINE
  5
1C5
330
1F
100
AcDbEntity
  8
0
  6
HIDDEN
 62
     7
370
     0
100
AcDbLine
 10
223.2713530006
 20
105.6981669279
 30
0.0
 11
223.2713530006
 21
119.0192325047
 31
0.0
  0
SPLINE
  5
1C6
330
1F
100
AcDbEntity
  8
0
  6
HIDDEN
 62
     7
370
     0
100
AcDbSpline
210
0.0
220
0.0
230
1.0
 70
     8
 71
     3
 72
    20
 73
    16
 74
     0
 42
0.00000001
 43
0.00000001
 40
0.0000002019816331
 40
0.0000002019816331
 40
0.0000002019816331
 40
0.0000002019816331
 40
0.000034327889285
 40
0.000034327889285
 40
0.000034327889285
 40
0.0000687102723355
 40
0.0000687102723355
 40
0.0000687102723355
 40
0.0001022735979615
 40
0.0001022735979615
 40
0.0001022735979615
 40
0.000134762990145
 40
0.000134762990145
 40
0.000134762990145
 40
0.0001578678762437
 40
0.0001578678762437
 40
0.0001578678762437
 40
0.0001578678762437
 10
223.3713488283199
 20
119.0462058638643
 30
0.0
 10
223.3602390199032
 20
119.0484907825393
 30
0.0
 10
223.348937819446
 20
119.0499714286213
 30
0.0
 10
223.3383595069014
 20
119.0504898718028
 30
0.0
 10
223.3277087841582
 20
119.0510118638087
 30
0.0
 10
223.3174931966005
 20
119.0505678771549
 30
0.0
 10
223.3086199539461
 20
119.0491185808657
 30
0.0
 10
223.2999573856673
 20
119.0477036947242
 30
0.0
 10
223.2923287150052
 20
119.0452844693626
 30
0.0
 10
223.2864251214818
 20
119.0420027023608
 30
0.0
 10
223.280706116116
 20
119.0388235466453
 30
0.0
 10
223.2764459715084
 20
119.0347441891773
 30
0.0
 10
223.2739855302283
 20
119.0300815453916
 30
0.0
 10
223.2722325835618
 20
119.0267596348273
 30
0.0
 10
223.27134882832
 20
119.0230911245849
 30
0.0
 10
223.27134882832
 20
119.0192326119627
 30
0.0
  0
ARC
  5
1C7
330
1F
100
AcDbEntity
  8
0
  6
HIDDEN
 62
     7
370
     0
100
AcDbCircle
 10
229.5213470402
 20
111.2677962228
 30
0.0
 40
2.345983359628513
100
AcDbArc
 50
223.2670016767
 51
316.7329983233
  0
ARC
  5
1C8
330
1F
100
AcDbEntity
  8
0
  6
HIDDEN
 62
     7
370
     0
100
AcDbCircle
 10
229.5213544908
 20
110.4941484089
 30
0.0
 40
2.313683528361584
100
AcDbArc
 50
6.2340785906
 51
173.7659214094
  0
ARC
  5
1C9
330
1F
100
AcDbEntity
  8
0
  6
HIDDEN
 62
     7
370
     0
100
AcDbCircle
 10
229.5213544908
 20
110.9966357009
 30
0.0
 40
2.313683369379122
100
AcDbArc
 50
186.2340425493
 51
353.7659574507
  0
LINE
  5
1CA
330
1F
100
AcDbEntity
  8
0
  6
HIDDEN
 62
     7
370
     0
100
AcDbLine
 10
223.2713530006
 20
119.0192325047
 30
0.0
 11
223.2713530006
 21
118.8038345898
 31
0.0
  0
LINE
  5
1CB
330
1F
100
AcDbEntity
  8
0
  6
HIDDEN
 62
     7
370
     0
100
AcDbLine
 10
224.3713418188
 20
118.8710830646
 30
0.0
 11
224.3713418188
 21
119.0862234688
 31
0.0
  0
LINE
  5
1CC
330
1F
100
AcDbEntity
  8
0
  6
HIDDEN
 62
     7
370
     0
100
AcDbLine
 10
223.2713530006
 20
121.5533800895
 30
0.0
 11
223.2713530006
 21
121.7687782372
 31
0.0
  0
LINE
  5
1CD
330
1F
100
AcDbEntity
  8
0
  6
HIDDEN
 62
     7
370
     0
100
AcDbLine
 10
224.3713418188
 20
121.7130083131
 30
0.0
 11
224.3713418188
 21
121.4978681417
 31
0.0
  0
LWPOLYLINE
  5
1CE
330
1F
100
AcDbEntity
  8
0
  6
HIDDEN
 62
     7
370
     0
100
AcDbPolyline
 90
        2
 70
   128
 43
0.0
 10
247.021345252
 20
109.5203925396
 10
247.021345252
 20
109.5203925396
  0
LWPOLYLINE
  5
1CF
330
1F
100
AcDbEntity
  8
0
  6
HIDDEN
 62
     7
370
     0
100
AcDbPolyline
 90
        2
 70
   128
 43
0.0
 10
247.021345252
 20
121.4703927288
 10
247.021345252
 20
121.4703927288
  0
LWPOLYLINE
  5
1D0
330
1F
100
AcDbEntity
  8
0
  6
HIDDEN
 62
     7
370
     0
100
AcDbPolyline
 90
        2
 70
   128
 43
0.0
 10
246.3213483038
 20
120.7703925209
 10
246.3213483038
 20
120.7703925209
  0
LWPOLYLINE
  5
1D1
330
1F
100
AcDbEntity
  8
0
  6
HIDDEN
 62
     7
370
     0
100
AcDbPolyline
 90
        2
 70
   128
 43
0.0
 10
243.4713522139
 20
120.7703925209
 10
243.4713522139
 20
120.7703925209
  0
LWPOLYLINE
  5
1D2
330
1F
100
AcDbEntity
  8
0
  6
HIDDEN
 62
     7
370
     0
100
AcDbPolyline
 90
        2
 70
   128
 43
0.0
 10
246.3213483038
 20
110.2203927474
 10
246.3213483038
 20
110.2203927474
  0
LWPOLYLINE
  5
1D3
330
1F
100
AcDbEntity
  8
0
  6
HIDDEN
 62
     7
370
     0
100
AcDbPolyline
 90
        2
 70
   128
 43
0.0
 10
243.4713522139
 20
110.2203927474
 10
243.4713522139
 20
110.2203927474
  0
LINE
  5
1D4
330
1F
100
AcDbEntity
  8
0
  6
HIDDEN
 62
     7
370
     0
100
AcDbLine
 10
47.2213493826
 20
142.8653928923
 30
0.0
 11
47.2213493826
 21
140.7239060389
 31
0.0
  0
LINE
  5
1D5
330
1F
100
AcDbEntity
  8
0
  6
HIDDEN
 62
     7
370
     0
100
AcDbLine
 10
52.2213483396
 20
88.1253923761
 30
0.0
 11
52.2213483396
 21
90.2668792295
 31
0.0
  0
LINE
  5
1D6
330
1F
100
AcDbEntity
  8
0
  6
HIDDEN
 62
     7
370
     0
100
AcDbLine
 10
47.2213493826
 20
142.8653928923
 30
0.0
 11
47.2213493826
 21
149.2399997549
 31
0.0
  0
LINE
  5
1D7
330
1F
100
AcDbEntity
  8
0
  6
HIDDEN
 62
     7
370
     0
100
AcDbLine
 10
52.2213483396
 20
88.1253923761
 30
0.0
 11
52.2213483396
 21
81.626059069
 31
0.0
  0
LWPOLYLINE
  5
1D8
330
1F
100
AcDbEntity
  8
0
  6
HIDDEN
 62
     7
370
     0
100
AcDbPolyline
 90
        2
 70
   128
 43
0.0
 10
242.97134375
 20
120.270392439
 10
242.97134375
 20
120.270392439
  0
LWPOLYLINE
  5
1D9
330
1F
100
AcDbEntity
  8
0
  6
HIDDEN
 62
     7
370
     0
100
AcDbPolyline
 90
        2
 70
   128
 43
0.0
 10
242.97134375
 20
110.7203928294
 10
242.97134375
 20
110.7203928294
  0
ARC
  5
1DA
330
1F
100
AcDbEntity
  8
0
  6
HIDDEN
 62
     7
370
     0
100
AcDbCircle
 10
229.5213470402
 20
110.3131180756
 30
0.0
 40
2.345983531331138
100
AcDbArc
 50
43.2670061318
 51
136.7329938682
  0
LWPOLYLINE
  5
1DB
330
1F
100
AcDbEntity
  8
0
  6
HIDDEN
 62
     7
370
     0
100
AcDbPolyline
 90
       28
 70
   128
 43
0.0
 10
96.0213484409
 20
160.8080990153
 10
97.1744282337
 20
160.7664502697
 10
98.2653450387
 20
160.6437503832
 10
99.2352867665
 20
160.4466154712
 10
100.0319652426
 20
160.1856737869
 10
100.6124297323
 20
159.8749920266
 10
100.9453877973
 20
159.5313153701
 10
101.0128900575
 20
159.1731734114
 10
100.811295973
 20
158.8198780554
 10
100.3514759409
 20
158.4904692607
 10
99.6582171115
 20
158.2027129369
 10
98.7688934597
 20
157.9721137421
 10
97.7314494717
 20
157.8111104207
 10
96.601813862
 20
157.7283754485
 10
95.4408839511
 20
157.7283754485
 10
94.3112483414
 20
157.8111104207
 10
93.2738038878
 20
157.9721137421
 10
92.3844807016
 20
158.2027129369
 10
91.6912218722
 20
158.4904692607
 10
91.2314013744
 20
158.8198780554
 10
91.0298082213
 20
159.1731734114
 10
91.0973100158
 20
159.5313153701
 10
91.4302680808
 20
159.8749920266
 10
92.0107330362
 20
160.1856737869
 10
92.8074105809
 20
160.4466154712
 10
93.7773527744
 20
160.6437503832
 10
94.8682695794
 20
160.7664502697
 10
96.0213484409
 20
160.8080990153
  0
SPLINE
  5
1DC
330
1F
100
AcDbEntity
  8
0
  6
HIDDEN
 62
     7
370
     0
100
AcDbSpline
210
0.0
220
0.0
230
1.0
 70
     8
 71
     3
 72
     8
 73
     4
 74
     0
 42
0.00000001
 43
0.00000001
 40
0.0
 40
0.0
 40
0.0
 40
0.0
 40
1.0
 40
1.0
 40
1.0
 40
1.0
 10
103.7593198073986
 20
164.4851874898519
 30
0.0
 10
104.2103467761119
 20
163.687876919664
 30
0.0
 10
104.6610405926355
 20
162.8903786200068
 30
0.0
 10
105.11134882832
 20
162.0926634948932
 30
0.0
  0
LINE
  5
1DD
330
1F
100
AcDbEntity
  8
0
  6
HIDDEN
 62
     7
370
     0
100
AcDbLine
 10
105.1113492044
 20
162.0926647919
 30
0.0
 11
105.1113492044
 21
161.1889428931
 31
0.0
  0
SPLINE
  5
1DE
330
1F
100
AcDbEntity
  8
0
  6
HIDDEN
 62
     7
370
     0
100
AcDbSpline
210
0.0
220
0.0
230
1.0
 70
     8
 71
     3
 72
    14
 73
    10
 74
     0
 42
0.00000001
 43
0.00000001
 40
0.0
 40
0.0
 40
0.0
 40
0.0
 40
0.25
 40
0.25
 40
0.5
 40
0.5
 40
0.75
 40
0.75
 40
1.0
 40
1.0
 40
1.0
 40
1.0
 10
105.11134882832
 20
161.1889438750363
 30
0.0
 10
105.11134882832
 20
161.082587181284
 30
0.0
 10
105.1317363844612
 20
160.9767466935238
 30
0.0
 10
105.2103707299228
 20
160.7801817799874
 30
0.0
 10
105.2691020895614
 20
160.6890110377003
 30
0.0
 10
105.415710995164
 20
160.5370999486686
 30
0.0
 10
105.5051163151905
 20
160.4750311118491
 30
0.0
 10
105.6990070477908
 20
160.3917630640904
 30
0.0
 10
105.8055120376807
 20
160.3696683943607
 30
0.0
 10
105.91134882832
 20
160.3696683943607
 30
0.0
  0
LINE
  5
1DF
330
1F
100
AcDbEntity
  8
0
  6
HIDDEN
 62
     7
370
     0
100
AcDbLine
 10
105.9113497081
 20
160.3696696
 30
0.0
 11
108.1313489171
 21
160.3696696
 31
0.0
  0
SPLINE
  5
1E0
330
1F
100
AcDbEntity
  8
0
  6
HIDDEN
 62
     7
370
     0
100
AcDbSpline
210
0.0
220
0.0
230
1.0
 70
     8
 71
     3
 72
    10
 73
     6
 74
     0
 42
0.00000001
 43
0.00000001
 40
0.0
 40
0.0
 40
0.0
 40
0.0
 40
0.5
 40
0.5
 40
1.0
 40
1.0
 40
1.0
 40
1.0
 10
108.13134882832
 20
160.3696683943607
 30
0.0
 10
108.3438851421764
 20
160.3696683943607
 30
0.0
 10
108.5538213138304
 20
160.4610809809909
 30
0.0
 10
108.8475284548416
 20
160.7658258468951
 30
0.0
 10
108.93134882832
 20
160.9779808168038
 30
0.0
 10
108.93134882832
 20
161.1889438750363
 30
0.0
  0
LINE
  5
1E1
330
1F
100
AcDbEntity
  8
0
  6
HIDDEN
 62
     7
370
     0
100
AcDbLine
 10
108.9313494208
 20
161.1889428931
 30
0.0
 11
108.9313494208
 21
162.0926647919
 31
0.0
  0
SPLINE
  5
1E2
330
1F
100
AcDbEntity
  8
0
  6
HIDDEN
 62
     7
370
     0
100
AcDbSpline
210
0.0
220
0.0
230
1.0
 70
     8
 71
     3
 72
     8
 73
     4
 74
     0
 42
0.00000001
 43
0.00000001
 40
0.0
 40
0.0
 40
0.0
 40
0.0
 40
1.0
 40
1.0
 40
1.0
 40
1.0
 10
108.93134882832
 20
162.0926634948932
 30
0.0
 10
109.3816570640046
 20
162.8903786200068
 30
0.0
 10
109.8323508805282
 20
163.687876919664
 30
0.0
 10
110.2833778492414
 20
164.4851874898519
 30
0.0
  0
LINE
  5
1E3
330
1F
100
AcDbEntity
  8
0
  6
HIDDEN
 62
     7
370
     0
100
AcDbLine
 10
110.283378342
 20
164.4851877826
 30
0.0
 11
114.9713488462
 21
164.4851877826
 31
0.0
  0
SPLINE
  5
1E4
330
1F
100
AcDbEntity
  8
0
  6
HIDDEN
 62
     7
370
     0
100
AcDbSpline
210
0.0
220
0.0
230
1.0
 70
     8
 71
     3
 72
    14
 73
    10
 74
     0
 42
0.00000001
 43
0.00000001
 40
0.0
 40
0.0
 40
0.0
 40
0.0
 40
0.25
 40
0.25
 40
0.5
 40
0.5
 40
0.75
 40
0.75
 40
1.0
 40
1.0
 40
1.0
 40
1.0
 10
114.9713488283201
 20
164.4851874898519
 30
0.0
 10
115.1033855661387
 20
164.4851874898519
 30
0.0
 10
115.2377858565788
 20
164.4573810424034
 30
0.0
 10
115.4798742821782
 20
164.3535220329394
 30
0.0
 10
115.5912927390563
 20
164.276331024367
 30
0.0
 10
115.7743032285963
 20
164.087183946654
 30
0.0
 10
115.847729474842
 20
163.9734797269513
 30
0.0
 10
115.9458702151998
 20
163.7286809599159
 30
0.0
 10
115.97134882832
 20
163.5965521459862
 30
0.0
 10
115.97134882832
 20
163.4641324550341
 30
0.0
  0
LINE
  5
1E5
330
1F
100
AcDbEntity
  8
0
  6
HIDDEN
 62
     7
370
     0
100
AcDbLine
 10
101.971348578
 20
159.3953944283
 30
0.0
 11
115.9713490101
 21
159.3953944283
 31
0.0
  0
LINE
  5
1E6
330
1F
100
AcDbEntity
  8
0
  6
HIDDEN
 62
     7
370
     0
100
AcDbLine
 10
115.9713490101
 20
163.4641341405
 30
0.0
 11
115.9713490101
 21
159.3953944283
 31
0.0
  0
SPLINE
  5
1E7
330
1F
100
AcDbEntity
  8
0
  6
HIDDEN
 62
     7
370
     0
100
AcDbSpline
210
0.0
220
0.0
230
1.0
 70
     8
 71
     3
 72
    14
 73
    10
 74
     0
 42
0.00000001
 43
0.00000001
 40
0.0
 40
0.0
 40
0.0
 40
0.0
 40
0.25
 40
0.25
 40
0.5
 40
0.5
 40
0.75
 40
0.75
 40
1.0
 40
1.0
 40
1.0
 40
1.0
 10
114.97134882832
 20
66.72039904115951
 30
0.0
 10
115.1049104478094
 20
66.72039904115951
 30
0.0
 10
115.2366474683466
 20
66.74786501776195
 30
0.0
 10
115.48066482766
 20
66.8529585745285
 30
0.0
 10
115.591691473003
 20
66.93045599721401
 30
0.0
 10
115.7749134454625
 20
67.12093961054997
 30
0.0
 10
115.8482049982347
 20
67.2353406602254
 30
0.0
 10
115.9459018588926
 20
67.48060255868805
 30
0.0
 10
115.97134882832
 20
67.61386175350671
 30
0.0
 10
115.97134882832
 20
67.746047088935
 30
0.0
  0
LINE
  5
1E8
330
1F
100
AcDbEntity
  8
0
  6
HIDDEN
 62
     7
370
     0
100
AcDbLine
 10
115.9713490101
 20
163.4641341405
 30
0.0
 11
115.9713490101
 21
67.7460483747
 31
0.0
  0
LINE
  5
1E9
330
1F
100
AcDbEntity
  8
0
  6
HIDDEN
 62
     7
370
     0
100
AcDbLine
 10
105.1113492044
 20
161.1889428931
 30
0.0
 11
105.1113492044
 21
70.0322143274
 31
0.0
  0
SPLINE
  5
1EA
330
1F
100
AcDbEntity
  8
0
  6
HIDDEN
 62
     7
370
     0
100
AcDbSpline
210
0.0
220
0.0
230
1.0
 70
     8
 71
     3
 72
    14
 73
    10
 74
     0
 42
0.00000001
 43
0.00000001
 40
0.0
 40
0.0
 40
0.0
 40
0.0
 40
0.25
 40
0.25
 40
0.5
 40
0.5
 40
0.75
 40
0.75
 40
1.0
 40
1.0
 40
1.0
 40
1.0
 10
105.11134882832
 20
70.03221385179343
 30
0.0
 10
105.11134882832
 20
70.1392579327878
 30
0.0
 10
105.1314665154782
 20
70.24449307303024
 30
0.0
 10
105.2099577047438
 20
70.44234355987794
 30
0.0
 10
105.268114329545
 20
70.53339532344286
 30
0.0
 10
105.4146295851631
 20
70.68656141736764
 30
0.0
 10
105.5032721338041
 20
70.74885586357705
 30
0.0
 10
105.6989954566045
 20
70.83364964911304
 30
0.0
 10
105.8042266476754
 20
70.85571717613865
 30
0.0
 10
105.91134882832
 20
70.85571717613867
 30
0.0
  0
LINE
  5
1EB
330
1F
100
AcDbEntity
  8
0
  6
HIDDEN
 62
     7
370
     0
100
AcDbLine
 10
110.283378342
 20
164.4851877826
 30
0.0
 11
110.283378342
 21
66.7203977244
 31
0.0
  0
LINE
  5
1EC
330
1F
100
AcDbEntity
  8
0
  6
HIDDEN
 62
     7
370
     0
100
AcDbLine
 10
108.9313494208
 20
161.1889428931
 30
0.0
 11
108.9313494208
 21
70.0322143274
 31
0.0
  0
SPLINE
  5
1ED
330
1F
100
AcDbEntity
  8
0
  6
HIDDEN
 62
     7
370
     0
100
AcDbSpline
210
0.0
220
0.0
230
1.0
 70
     8
 71
     3
 72
    12
 73
     8
 74
     0
 42
0.00000001
 43
0.00000001
 40
0.0
 40
0.0
 40
0.0
 40
0.0
 40
0.2500000000000014
 40
0.2500000000000014
 40
0.5000000000000029
 40
0.5000000000000029
 40
1.0
 40
1.0
 40
1.0
 40
1.0
 10
108.13134882832
 20
70.85571717613867
 30
0.0
 10
108.237109481669
 20
70.85571717613864
 30
0.0
 10
108.3450971098519
 20
70.83317767013826
 30
0.0
 10
108.5396917751175
 20
70.74860703814295
 30
0.0
 10
108.6285636879563
 20
70.68612538538416
 30
0.0
 10
108.8477559802822
 20
70.456736433912
 30
0.0
 10
108.9313488283201
 20
70.2441530963896
 30
0.0
 10
108.93134882832
 20
70.03221385179343
 30
0.0
  0
LINE
  5
1EE
330
1F
100
AcDbEntity
  8
0
  6
HIDDEN
 62
     7
370
     0
100
AcDbLine
 10
108.9313494208
 20
162.0926647919
 30
0.0
 11
108.9313494208
 21
69.1240034538
 31
0.0
  0
LINE
  5
1EF
330
1F
100
AcDbEntity
  8
0
  6
HIDDEN
 62
     7
370
     0
100
AcDbLine
 10
105.1113492044
 20
162.0926647919
 30
0.0
 11
105.1113492044
 21
69.1240034538
 31
0.0
  0
LINE
  5
1F0
330
1F
100
AcDbEntity
  8
0
  6
HIDDEN
 62
     7
370
     0
100
AcDbLine
 10
38.7713479044
 20
142.8653928923
 30
0.0
 11
38.7713479044
 21
147.7436773019
 31
0.0
  0
SPLINE
  5
1F1
330
1F
100
AcDbEntity
  8
0
  6
HIDDEN
 62
     7
370
     0
100
AcDbSpline
210
0.0
220
0.0
230
1.0
 70
     8
 71
     3
 72
     8
 73
     4
 74
     0
 42
0.00000001
 43
0.00000001
 40
0.0
 40
0.0
 40
0.0
 40
0.0
 40
1.0
 40
1.0
 40
1.0
 40
1.0
 10
39.0212739442858
 20
147.7412248027529
 30
0.0
 10
38.93425591443741
 20
147.74169136754
 30
0.0
 10
38.85130188805746
 20
147.7427313871161
 30
0.0
 10
38.77134882831772
 20
147.7436778360084
 30
0.0
  0
ELLIPSE
  5
1F2
330
1F
100
AcDbEntity
  8
0
  6
HIDDEN
 62
     7
370
     0
100
AcDbEllipse
 10
30.836675628
 20
115.4953926342
 30
0.0
 11
31.08108570811661
 21
1.421085471520200E-14
 31
0.0
210
0.0
220
0.0
230
1.0
 40
0.8164965809
 41
1.31264926821481
 42
1.367189972061495
  0
ELLIPSE
  5
1F3
330
1F
100
AcDbEntity
  8
0
  6
HIDDEN
 62
     7
370
     0
100
AcDbEllipse
 10
30.836675628
 20
115.4953926342
 30
0.0
 11
31.08108570811661
 21
-1.421085471520200E-14
 31
0.0
210
0.0
220
0.0
230
1.0
 40
0.8164965809
 41
4.915995335118103
 42
4.970536038964788
  0
LINE
  5
1F4
330
1F
100
AcDbEntity
  8
0
  6
HIDDEN
 62
     7
370
     0
100
AcDbLine
 10
37.121349776
 20
140.3487860697
 30
0.0
 11
37.121349776
 21
90.6419991987
 31
0.0
  0
SPLINE
  5
1F5
330
1F
100
AcDbEntity
  8
0
  6
HIDDEN
 62
     7
370
     0
100
AcDbSpline
210
0.0
220
0.0
230
1.0
 70
     8
 71
     3
 72
    14
 73
    10
 74
     0
 42
0.00000001
 43
0.00000001
 40
0.0
 40
0.0
 40
0.0
 40
0.0
 40
0.2499999999999994
 40
0.2499999999999994
 40
0.4999999999999988
 40
0.4999999999999988
 40
0.7499999999999982
 40
0.7499999999999982
 40
1.0
 40
1.0
 40
1.0
 40
1.0
 10
37.12134882832002
 20
84.99272289162037
 30
0.0
 10
37.12134882832002
 20
84.95147596059604
 30
0.0
 10
37.12995854470127
 20
84.91456898831356
 30
0.0
 10
37.16104472427162
 20
84.85366892841414
 30
0.0
 10
37.18343427775569
 20
84.82948800887445
 30
0.0
 10
37.2381782089318
 20
84.79552041799118
 30
0.0
 10
37.27062844851699
 20
84.785600334023
 30
0.0
 10
37.34062996324505
 20
84.78424912511815
 30
0.0
 10
37.37884046336757
 20
84.7924074018143
 30
0.0
 10
37.41216306004068
 20
84.81690948148241
 30
0.0
  0
LINE
  5
1F6
330
1F
100
AcDbEntity
  8
0
  6
HIDDEN
 62
     7
370
     0
100
AcDbLine
 10
37.121349776
 20
88.1253923761
 30
0.0
 11
37.121349776
 21
84.992723121
 31
0.0
  0
LINE
  5
1F7
330
1F
100
AcDbEntity
  8
0
  6
HIDDEN
 62
     7
370
     0
100
AcDbLine
 10
38.7713479044
 20
88.1253923761
 30
0.0
 11
38.7713479044
 21
83.2471079665
 31
0.0
  0
SPLINE
  5
1F8
330
1F
100
AcDbEntity
  8
0
  6
HIDDEN
 62
     7
370
     0
100
AcDbSpline
210
0.0
220
0.0
230
1.0
 70
     8
 71
     3
 72
    10
 73
     6
 74
     0
 42
0.00000001
 43
0.00000001
 40
0.0
 40
0.0
 40
0.0
 40
0.0
 40
0.5
 40
0.5
 40
1.0
 40
1.0
 40
1.0
 40
1.0
 10
38.09790107002152
 20
84.1725265337119
 30
0.0
 10
38.18515148915471
 20
84.00045591285911
 30
0.0
 10
38.29542646455045
 20
83.83238683979621
 30
0.0
 10
38.5250104395074
 20
83.52181654710728
 30
0.0
 10
38.64646055756759
 20
83.37810371044235
 30
0.0
 10
38.77134882831752
 20
83.24710743237092
 30
0.0
  0
LINE
  5
1F9
330
1F
100
AcDbEntity
  8
0
  6
HIDDEN
 62
     7
370
     0
100
AcDbLine
 10
37.121349776
 20
142.8653928923
 30
0.0
 11
37.121349776
 21
140.3487860697
 31
0.0
  0
LINE
  5
1FA
330
1F
100
AcDbEntity
  8
0
  6
HIDDEN
 62
     7
370
     0
100
AcDbLine
 10
38.7713479044
 20
142.8653928923
 30
0.0
 11
38.7713479044
 21
140.0320972787
 31
0.0
  0
LINE
  5
1FB
330
1F
100
AcDbEntity
  8
0
  6
HIDDEN
 62
     7
370
     0
100
AcDbLine
 10
38.7713479044
 20
88.1253923761
 30
0.0
 11
38.7713479044
 21
90.9586879896
 31
0.0
  0
LINE
  5
1FC
330
1F
100
AcDbEntity
  8
0
  6
HIDDEN
 62
     7
370
     0
100
AcDbLine
 10
37.121349776
 20
88.1253923761
 30
0.0
 11
37.121349776
 21
90.6419991987
 31
0.0
  0
SPLINE
  5
1FD
330
1F
100
AcDbEntity
  8
0
  6
HIDDEN
 62
     7
370
     0
100
AcDbSpline
210
0.0
220
0.0
230
1.0
 70
     8
 71
     3
 72
    10
 73
     6
 74
     0
 42
0.00000001
 43
0.00000001
 40
0.0
 40
0.0
 40
0.0
 40
0.0
 40
0.4999999999999989
 40
0.4999999999999989
 40
1.0
 40
1.0
 40
1.0
 40
1.0
 10
38.77134882832004
 20
147.7436778360083
 30
0.0
 10
38.64646055756982
 20
147.6126815579368
 30
0.0
 10
38.52501043950939
 20
147.4689687212718
 30
0.0
 10
38.29542646455194
 20
147.1583984285826
 30
0.0
 10
38.18515148915596
 20
146.9903293555195
 30
0.0
 10
38.09790107002245
 20
146.8182587346665
 30
0.0
  0
LINE
  5
1FE
330
1F
100
AcDbEntity
  8
0
  6
HIDDEN
 62
     7
370
     0
100
AcDbLine
 10
37.121349776
 20
142.8653928923
 30
0.0
 11
37.121349776
 21
145.9980621474
 31
0.0
  0
SPLINE
  5
1FF
330
1F
100
AcDbEntity
  8
0
  6
HIDDEN
 62
     7
370
     0
100
AcDbSpline
210
0.0
220
0.0
230
1.0
 70
     8
 71
     3
 72
    12
 73
     8
 74
     0
 42
0.00000001
 43
0.00000001
 40
0.0
 40
0.0
 40
0.0
 40
0.0
 40
0.2500000000000004
 40
0.2500000000000004
 40
0.5000000000000008
 40
0.5000000000000008
 40
1.0
 40
1.0
 40
1.0
 40
1.0
 10
37.41216306003977
 20
146.1738757868933
 30
0.0
 10
37.37866166070289
 20
146.1985093400226
 30
0.0
 10
37.34057079273917
 20
146.2065275011861
 30
0.0
 10
37.2707703820225
 20
146.2051951650766
 30
0.0
 10
37.23831778213986
 20
146.1953294996747
 30
0.0
 10
37.15604427142266
 20
146.1443460723316
 30
0.0
 10
37.12134882832002
 20
146.0802769251588
 30
0.0
 10
37.12134882832002
 20
145.9980623767562
 30
0.0
  0
SPLINE
  5
200
330
1F
100
AcDbEntity
  8
0
  6
HIDDEN
 62
     7
370
     0
100
AcDbSpline
210
0.0
220
0.0
230
1.0
 70
     8
 71
     3
 72
     8
 73
     4
 74
     0
 42
0.00000001
 43
0.00000001
 40
0.0
 40
0.0
 40
0.0
 40
0.0
 40
1.0
 40
1.0
 40
1.0
 40
1.0
 10
38.77134882831965
 20
83.24710743236824
 30
0.0
 10
38.85130188805883
 20
83.2480538812605
 30
0.0
 10
38.93425591443814
 20
83.24909390083663
 30
0.0
 10
39.02127394428581
 20
83.24956046562367
 30
0.0
  0
SPLINE
  5
201
330
1F
100
AcDbEntity
  8
0
  6
HIDDEN
 62
     7
370
     0
100
AcDbSpline
210
0.0
220
0.0
230
1.0
 70
     8
 71
     3
 72
     8
 73
     4
 74
     0
 42
0.00000001
 43
0.00000001
 40
0.0
 40
0.0
 40
0.0
 40
0.0
 40
1.0
 40
1.0
 40
1.0
 40
1.0
 10
103.7593198073986
 20
66.72039904115951
 30
0.0
 10
104.2104245367989
 20
67.52135897297941
 30
0.0
 10
104.6611223640422
 20
68.32254898454009
 30
0.0
 10
105.11134882832
 20
69.12400434716484
 30
0.0
  0
LINE
  5
202
330
1F
100
AcDbEntity
  8
0
  6
HIDDEN
 62
     7
370
     0
100
AcDbLine
 10
108.9313494208
 20
70.0322143274
 30
0.0
 11
108.9313494208
 21
69.1240034538
 31
0.0
  0
LINE
  5
203
330
1F
100
AcDbEntity
  8
0
  6
HIDDEN
 62
     7
370
     0
100
AcDbLine
 10
105.9113497081
 20
70.8557158249
 30
0.0
 11
108.1313489171
 21
70.8557158249
 31
0.0
  0
SPLINE
  5
204
330
1F
100
AcDbEntity
  8
0
  6
HIDDEN
 62
     7
370
     0
100
AcDbSpline
210
0.0
220
0.0
230
1.0
 70
     8
 71
     3
 72
     8
 73
     4
 74
     0
 42
0.00000001
 43
0.00000001
 40
0.0
 40
0.0
 40
0.0
 40
0.0
 40
1.0
 40
1.0
 40
1.0
 40
1.0
 10
108.93134882832
 20
69.12400434716484
 30
0.0
 10
109.3815752925978
 20
68.32254898454009
 30
0.0
 10
109.8322731198412
 20
67.52135897297941
 30
0.0
 10
110.2833778492414
 20
66.72039904115951
 30
0.0
  0
LINE
  5
205
330
1F
100
AcDbEntity
  8
0
  6
HIDDEN
 62
     7
370
     0
100
AcDbLine
 10
105.1113492044
 20
69.1240034538
 30
0.0
 11
105.1113492044
 21
70.0322143274
 31
0.0
  0
LINE
  5
206
330
1F
100
AcDbEntity
  8
0
  6
HIDDEN
 62
     7
370
     0
100
AcDbLine
 10
110.283378342
 20
66.7203977244
 30
0.0
 11
114.9713488462
 21
66.7203977244
 31
0.0
  0
LINE
  5
207
330
1F
100
AcDbEntity
  8
0
  6
HIDDEN
 62
     7
370
     0
100
AcDbLine
 10
101.971348578
 20
71.5953908401
 30
0.0
 11
115.9713490101
 21
71.5953908401
 31
0.0
  0
LINE
  5
208
330
1F
100
AcDbEntity
  8
0
  6
HIDDEN
 62
     7
370
     0
100
AcDbLine
 10
115.9713490101
 20
67.7460483747
 30
0.0
 11
115.9713490101
 21
71.5953908401
 31
0.0
  0
SPLINE
  5
209
330
1F
100
AcDbEntity
  8
0
  6
HIDDEN
 62
     7
370
     0
100
AcDbSpline
210
0.0
220
0.0
230
1.0
 70
     8
 71
     3
 72
    20
 73
    16
 74
     0
 42
0.00000001
 43
0.00000001
 40
0.0
 40
0.0
 40
0.0
 40
0.0
 40
0.249999999999986
 40
0.249999999999986
 40
0.3749999999999789
 40
0.3749999999999789
 40
0.4374999999999789
 40
0.4374999999999789
 40
0.4999999999999789
 40
0.4999999999999789
 40
0.6249999999999835
 40
0.6249999999999835
 40
0.7499999999999879
 40
0.7499999999999879
 40
1.0
 40
1.0
 40
1.0
 40
1.0
 10
37.41216306003603
 20
84.8169094814876
 30
0.0
 10
37.43843527724944
 20
84.83622742257006
 30
0.0
 10
37.46911541950428
 20
84.85061613367183
 30
0.0
 10
37.5405862898862
 20
84.84371177183583
 30
0.0
 10
37.56861332693054
 20
84.83654576848741
 30
0.0
 10
37.62369691642805
 20
84.80684674178381
 30
0.0
 10
37.64458824498048
 20
84.79337309922248
 30
0.0
 10
37.68979689242594
 20
84.75817483370648
 30
0.0
 10
37.7142011048215
 20
84.7362666049792
 30
0.0
 10
37.78553342287294
 20
84.66414174498365
 30
0.0
 10
37.82743020769322
 20
84.61180120403361
 30
0.0
 10
37.89900616654909
 20
84.51431781213287
 30
0.0
 10
37.92983415636639
 20
84.46756404225445
 30
0.0
 10
38.01293408920196
 20
84.33427082641533
 30
0.0
 10
38.05778899457227
 20
84.25163342850011
 30
0.0
 10
38.09790107002484
 20
84.17252653370934
 30
0.0
  0
SPLINE
  5
20A
330
1F
100
AcDbEntity
  8
0
  6
HIDDEN
 62
     7
370
     0
100
AcDbSpline
210
0.0
220
0.0
230
1.0
 70
     8
 71
     3
 72
    20
 73
    16
 74
     0
 42
0.00000001
 43
0.00000001
 40
0.0
 40
0.0
 40
0.0
 40
0.0
 40
0.2500000000000037
 40
0.2500000000000037
 40
0.3750000000000055
 40
0.3750000000000055
 40
0.5000000000000073
 40
0.5000000000000073
 40
0.5625000000000057
 40
0.5625000000000057
 40
0.625000000000004
 40
0.625000000000004
 40
0.7500000000000027
 40
0.7500000000000027
 40
1.0
 40
1.0
 40
1.0
 40
1.0
 10
38.09790107002245
 20
146.8182587346665
 30
0.0
 10
38.05790485219862
 20
146.739380328109
 30
0.0
 10
38.01279122436097
 20
146.6562506814175
 30
0.0
 10
37.92953700999443
 20
146.5227620170666
 30
0.0
 10
37.89931768137393
 20
146.4768969611846
 30
0.0
 10
37.82722944623251
 20
146.3787054087797
 30
0.0
 10
37.78531212882142
 20
146.3263955892561
 30
0.0
 10
37.71406152426995
 20
146.2543896865216
 30
0.0
 10
37.68982571189064
 20
146.23261947422
 30
0.0
 10
37.64422752170599
 20
146.197144815891
 30
0.0
 10
37.62342503210628
 20
146.1837746317135
 30
0.0
 10
37.56848403368715
 20
146.1542047195782
 30
0.0
 10
37.54041504560035
 20
146.1470781972763
 30
0.0
 10
37.46991221553751
 20
146.1402038257936
 30
0.0
 10
37.43848812774664
 20
146.1545189848808
 30
0.0
 10
37.41216306003804
 20
146.1738757868913
 30
0.0
  0
LINE
  5
20B
330
1F
100
AcDbEntity
  8
0
  6
HIDDEN
 62
     7
370
     0
100
AcDbLine
 10
37.121349776
 20
145.9980621474
 30
0.0
 11
37.121349776
 21
84.992723121
 31
0.0
  0
CIRCLE
  5
20C
330
1F
100
AcDbEntity
  8
0
  6
HIDDEN
 62
     7
370
     0
100
AcDbCircle
 10
94.0213488283
 20
115.4953926342
 30
0.0
 40
5.000000000000014
  0
LINE
  5
20D
330
1F
100
AcDbEntity
  8
0
  6
HIDDEN
 62
     7
370
     0
100
AcDbLine
 10
87.0213488283
 20
76.0907098191
 30
0.0
 11
87.1109504492
 21
76.7282597261
 31
0.0
  0
LINE
  5
20E
330
1F
100
AcDbEntity
  8
0
  6
HIDDEN
 62
     7
370
     0
100
AcDbLine
 10
87.1109504492
 20
154.2625255423
 30
0.0
 11
87.0213488283
 21
154.9000754493
 31
0.0
  0
ARC
  5
20F
330
1F
100
AcDbEntity
  8
0
  6
HIDDEN
 62
     7
370
     0
100
AcDbCircle
 10
86.1244119099
 20
76.8669073097
 30
0.0
 40
0.9962338214386932
100
AcDbArc
 50
352.0
 51
0.0
  0
ARC
  5
210
330
1F
100
AcDbEntity
  8
0
  6
HIDDEN
 62
     7
370
     0
100
AcDbCircle
 10
86.1244119099
 20
76.8669073097
 30
0.0
 40
0.9962338214386932
100
AcDbArc
 50
0.0
 51
25.7988228126
  0
ARC
  5
211
330
1F
100
AcDbEntity
  8
0
  6
HIDDEN
 62
     7
370
     0
100
AcDbCircle
 10
86.1244119099
 20
154.1238779586
 30
0.0
 40
0.9962338214386862
100
AcDbArc
 50
348.75
 51
8.0
  0
LWPOLYLINE
  5
212
330
1F
100
AcDbEntity
  8
0
  6
HIDDEN
 62
     7
370
     0
100
AcDbPolyline
 90
        3
 70
   128
 43
0.0
 10
87.1015033749
 20
153.9295218425
 10
87.0448119472
 20
153.7426352041
 10
87.0213488283
 20
153.6903060513
  0
LINE
  5
213
330
1F
100
AcDbEntity
  8
0
  6
HIDDEN
 62
     7
370
     0
100
AcDbLine
 10
87.1206457282
 20
76.8669075804
 30
0.0
 11
87.1206457282
 21
154.123877688
 31
0.0
  0
LINE
  5
214
330
1F
100
AcDbEntity
  8
0
  6
HIDDEN
 62
     7
370
     0
100
AcDbLine
 10
87.1206457282
 20
76.8669075804
 30
0.0
 11
87.1206457282
 21
154.123877688
 31
0.0
  0
LINE
  5
215
330
1F
100
AcDbEntity
  8
0
  6
HIDDEN
 62
     7
370
     0
100
AcDbLine
 10
60.4820752683
 20
83.9953921275
 30
0.0
 11
66.0671794953
 21
83.9953921275
 31
0.0
  0
LINE
  5
216
330
1F
100
AcDbEntity
  8
0
  6
HIDDEN
 62
     7
370
     0
100
AcDbLine
 10
66.0671794953
 20
146.9953931408
 30
0.0
 11
60.4820752683
 21
146.9953931408
 31
0.0
  0
ARC
  5
217
330
1F
100
AcDbEntity
  8
0
  6
HIDDEN
 62
     7
370
     0
100
AcDbCircle
 10
77.2745544835
 20
95.9953926342
 30
0.0
 40
11.99999999999999
100
AcDbArc
 50
273.1770991538
 51
324.3146652873
  0
ARC
  5
218
330
1F
100
AcDbEntity
  8
0
  6
HIDDEN
 62
     7
370
     0
100
AcDbCircle
 10
77.2745544835
 20
134.9953926342
 30
0.0
 40
12.0
100
AcDbArc
 50
35.6853347127
 51
86.8211145725
  0
ARC
  5
219
330
1F
100
AcDbEntity
  8
0
  6
HIDDEN
 62
     7
370
     0
100
AcDbCircle
 10
60.4820747705
 20
84.9953926342
 30
0.0
 40
1.000000000000002
100
AcDbArc
 50
210.0
 51
270.0
  0
ARC
  5
21A
330
1F
100
AcDbEntity
  8
0
  6
HIDDEN
 62
     7
370
     0
100
AcDbCircle
 10
60.4820747705
 20
145.9953926342
 30
0.0
 40
1.0
100
AcDbArc
 50
90.0
 51
150.0
  0
LINE
  5
21B
330
1F
100
AcDbEntity
  8
0
  6
HIDDEN
 62
     7
370
     0
100
AcDbLine
 10
59.616049582
 20
146.4953921275
 30
0.0
 11
57.0179725232
 21
141.9953923213
 31
0.0
  0
LINE
  5
21C
330
1F
100
AcDbEntity
  8
0
  6
HIDDEN
 62
     7
370
     0
100
AcDbLine
 10
57.0179725232
 20
88.9953929471
 30
0.0
 11
59.616049582
 21
84.4953931408
 31
0.0
  0
ARC
  5
21D
330
1F
100
AcDbEntity
  8
0
  6
HIDDEN
 62
     7
370
     0
100
AcDbCircle
 10
97.4713488283
 20
90.6203926342
 30
0.0
 40
2.000000000000015
100
AcDbArc
 50
234.3409123039
 51
0.0
  0
ARC
  5
21E
330
1F
100
AcDbEntity
  8
0
  6
HIDDEN
 62
     7
370
     0
100
AcDbCircle
 10
97.4713488283
 20
140.3703926342
 30
0.0
 40
2.000000000000003
100
AcDbArc
 50
0.0
 51
125.6590876961
  0
LINE
  5
21F
330
1F
100
AcDbEntity
  8
0
  6
HIDDEN
 62
     7
370
     0
100
AcDbLine
 10
52.2213483396
 20
88.9953929471
 30
0.0
 11
57.0179725232
 21
88.9953929471
 31
0.0
  0
LINE
  5
220
330
1F
100
AcDbEntity
  8
0
  6
HIDDEN
 62
     7
370
     0
100
AcDbLine
 10
57.0179725232
 20
141.9953923213
 30
0.0
 11
47.2213493826
 21
141.9953923213
 31
0.0
  0
LINE
  5
221
330
1F
100
AcDbEntity
  8
0
  6
HIDDEN
 62
     7
370
     0
100
AcDbLine
 10
87.0213488283
 20
88.9953929471
 30
0.0
 11
96.3054260405
 21
88.9953929471
 31
0.0
  0
LINE
  5
222
330
1F
100
AcDbEntity
  8
0
  6
HIDDEN
 62
     7
370
     0
100
AcDbLine
 10
96.3054260405
 20
141.9953923213
 30
0.0
 11
87.0213488283
 21
141.9953923213
 31
0.0
  0
LINE
  5
223
330
1F
100
AcDbEntity
  8
0
  6
HIDDEN
 62
     7
370
     0
100
AcDbLine
 10
91.0213490183
 20
161.1669450539
 30
0.0
 11
91.0213490183
 21
157.4728056329
 31
0.0
  0
LINE
  5
224
330
1F
100
AcDbEntity
  8
0
  6
HIDDEN
 62
     7
370
     0
100
AcDbLine
 10
101.0213492605
 20
157.4728056329
 30
0.0
 11
101.0213492605
 21
161.1724547582
 31
0.0
  0
ARC
  5
225
330
1F
100
AcDbEntity
  8
0
  6
HIDDEN
 62
     7
370
     0
100
AcDbCircle
 10
217.6713488283
 20
129.1203926342
 30
0.0
 40
0.3000000000000398
100
AcDbArc
 50
0.0
 51
90.0
  0
ARC
  5
226
330
1F
100
AcDbEntity
  8
0
  6
HIDDEN
 62
     7
370
     0
100
AcDbCircle
 10
217.6713488283
 20
101.8703926342
 30
0.0
 40
0.3000000000000114
100
AcDbArc
 50
270.0
 51
0.0
  0
LINE
  5
227
330
1F
100
AcDbEntity
  8
0
  6
HIDDEN
 62
     7
370
     0
100
AcDbLine
 10
217.6713476124
 20
129.4203927281
 30
0.0
 11
216.9713506641
 21
129.4203927281
 31
0.0
  0
LINE
  5
228
330
1F
100
AcDbEntity
  8
0
  6
HIDDEN
 62
     7
370
     0
100
AcDbLine
 10
216.9713506641
 20
101.5703925403
 30
0.0
 11
217.6713476124
 21
101.5703925403
 31
0.0
  0
LINE
  5
229
330
1F
100
AcDbEntity
  8
0
  6
HIDDEN
 62
     7
370
     0
100
AcDbLine
 10
111.3213485273
 20
102.495392366
 30
0.0
 11
115.321349183
 21
102.495392366
 31
0.0
  0
LINE
  5
22A
330
1F
100
AcDbEntity
  8
0
  6
HIDDEN
 62
     7
370
     0
100
AcDbLine
 10
115.321349183
 20
128.4953929024
 30
0.0
 11
111.3213485273
 21
128.4953929024
 31
0.0
  0
ARC
  5
22B
330
1F
100
AcDbEntity
  8
0
  6
HIDDEN
 62
     7
370
     0
100
AcDbCircle
 10
218.1713488283
 20
128.0453926342
 30
0.0
 40
0.2000000000000028
100
AcDbArc
 50
180.0
 51
270.0
  0
ARC
  5
22C
330
1F
100
AcDbEntity
  8
0
  6
HIDDEN
 62
     7
370
     0
100
AcDbCircle
 10
218.1713488283
 20
102.9453926342
 30
0.0
 40
0.1999999999999886
100
AcDbArc
 50
90.0
 51
180.0
  0
LINE
  5
22D
330
1F
100
AcDbEntity
  8
0
  6
HIDDEN
 62
     7
370
     0
100
AcDbLine
 10
227.2213528099
 20
127.9953928205
 30
0.0
 11
219.9713418427
 21
127.9953928205
 31
0.0
  0
LINE
  5
22E
330
1F
100
AcDbEntity
  8
0
  6
HIDDEN
 62
     7
370
     0
100
AcDbLine
 10
241.371346468
 20
127.9953928205
 30
0.0
 11
231.8153212013
 21
127.9953928205
 31
0.0
  0
LINE
  5
22F
330
1F
100
AcDbEntity
  8
0
  6
HIDDEN
 62
     7
370
     0
100
AcDbLine
 10
225.366500968
 20
102.9953924479
 30
0.0
 11
241.371346468
 21
102.9953924479
 31
0.0
  0
LINE
  5
230
330
1F
100
AcDbEntity
  8
0
  6
HIDDEN
 62
     7
370
     0
100
AcDbLine
 10
219.9713418427
 20
102.9953924479
 30
0.0
 11
222.0713475885
 21
102.9953924479
 31
0.0
  0
LINE
  5
231
330
1F
100
AcDbEntity
  8
0
  6
HIDDEN
 62
     7
370
     0
100
AcDbLine
 10
219.9713418427
 20
127.9953928205
 30
0.0
 11
219.4369713011
 21
127.8522075625
 31
0.0
  0
LINE
  5
232
330
1F
100
AcDbEntity
  8
0
  6
HIDDEN
 62
     7
370
     0
100
AcDbLine
 10
219.4369713011
 20
103.1385777058
 30
0.0
 11
219.9713418427
 21
102.9953924479
 31
0.0
  0
LINE
  5
233
330
1F
100
AcDbEntity
  8
0
  6
HIDDEN
 62
     7
370
     0
100
AcDbLine
 10
246.3213483038
 20
127.9953928205
 30
0.0
 11
242.4713501873
 21
127.9953928205
 31
0.0
  0
LINE
  5
234
330
1F
100
AcDbEntity
  8
0
  6
HIDDEN
 62
     7
370
     0
100
AcDbLine
 10
242.4713501873
 20
102.9953924479
 30
0.0
 11
246.3213483038
 21
102.9953924479
 31
0.0
  0
ARC
  5
235
330
1F
100
AcDbEntity
  8
0
  6
HIDDEN
 62
     7
370
     0
100
AcDbCircle
 10
219.3852107077
 20
128.0453926342
 30
0.0
 40
0.2000000000000048
100
AcDbArc
 50
270.0
 51
285.0
  0
ARC
  5
236
330
1F
100
AcDbEntity
  8
0
  6
HIDDEN
 62
     7
370
     0
100
AcDbCircle
 10
219.3852107077
 20
102.9453926342
 30
0.0
 40
0.1999999999999911
100
AcDbArc
 50
75.0
 51
90.0
  0
LINE
  5
237
330
1F
100
AcDbEntity
  8
0
  6
HIDDEN
 62
     7
370
     0
100
AcDbLine
 10
219.3852046671
 20
127.8453930753
 30
0.0
 11
218.1713560762
 21
127.8453930753
 31
0.0
  0
LINE
  5
238
330
1F
100
AcDbEntity
  8
0
  6
HIDDEN
 62
     7
370
     0
100
AcDbLine
 10
218.1713560762
 20
103.1453921931
 30
0.0
 11
219.3852046671
 21
103.1453921931
 31
0.0
  0
ARC
  5
239
330
1F
100
AcDbEntity
  8
0
  6
HIDDEN
 62
     7
370
     0
100
AcDbCircle
 10
242.3713488283
 20
127.5703926342
 30
0.0
 40
0.0999999999999943
100
AcDbArc
 50
270.0
 51
0.0
  0
ARC
  5
23A
330
1F
100
AcDbEntity
  8
0
  6
HIDDEN
 62
     7
370
     0
100
AcDbCircle
 10
242.3713488283
 20
103.4203926342
 30
0.0
 40
0.0999999999999943
100
AcDbArc
 50
0.0
 51
90.0
  0
ARC
  5
23B
330
1F
100
AcDbEntity
  8
0
  6
HIDDEN
 62
     7
370
     0
100
AcDbCircle
 10
241.4713488283
 20
127.5703926342
 30
0.0
 40
0.0999999999999943
100
AcDbArc
 50
180.0
 51
270.0
  0
ARC
  5
23C
330
1F
100
AcDbEntity
  8
0
  6
HIDDEN
 62
     7
370
     0
100
AcDbCircle
 10
241.4713488283
 20
103.4203926342
 30
0.0
 40
0.0999999999999943
100
AcDbArc
 50
90.0
 51
180.0
  0
LINE
  5
23D
330
1F
100
AcDbEntity
  8
0
  6
HIDDEN
 62
     7
370
     0
100
AcDbLine
 10
99.4713490995
 20
103.4953925299
 30
0.0
 11
100.2213487568
 21
104.2453921872
 31
0.0
  0
LINE
  5
23E
330
1F
100
AcDbEntity
  8
0
  6
HIDDEN
 62
     7
370
     0
100
AcDbLine
 10
100.2213487568
 20
126.7453930812
 30
0.0
 11
99.4713490995
 21
127.4953927385
 31
0.0
  0
LINE
  5
23F
330
1F
100
AcDbEntity
  8
0
  6
HIDDEN
 62
     7
370
     0
100
AcDbLine
 10
242.3713484945
 20
127.4703923153
 30
0.0
 11
241.4713481607
 21
127.4703923153
 31
0.0
  0
LINE
  5
240
330
1F
100
AcDbEntity
  8
0
  6
HIDDEN
 62
     7
370
     0
100
AcDbLine
 10
241.4713481607
 20
103.5203929531
 30
0.0
 11
242.3713484945
 21
103.5203929531
 31
0.0
  0
LINE
  5
241
330
1F
100
AcDbEntity
  8
0
  6
HIDDEN
 62
     7
370
     0
100
AcDbLine
 10
231.8213561716
 20
109.2481008271
 30
0.0
 11
231.8213561716
 21
110.7453927869
 31
0.0
  0
LINE
  5
242
330
1F
100
AcDbEntity
  8
0
  6
HIDDEN
 62
     7
370
     0
100
AcDbLine
 10
227.2213528099
 20
110.7453927869
 30
0.0
 11
227.2213528099
 21
109.2453925411
 31
0.0
  0
LINE
  5
243
330
1F
100
AcDbEntity
  8
0
  6
HIDDEN
 62
     7
370
     0
100
AcDbLine
 10
225.3713438454
 20
120.2434185433
 30
0.0
 11
225.3713438454
 21
121.7440353247
 31
0.0
  0
LINE
  5
244
330
1F
100
AcDbEntity
  8
0
  6
HIDDEN
 62
     7
370
     0
100
AcDbLine
 10
222.0713475885
 20
121.7453927273
 30
0.0
 11
222.0713475885
 21
120.2443051623
 31
0.0
  0
LINE
  5
245
330
1F
100
AcDbEntity
  8
0
  6
HIDDEN
 62
     7
370
     0
100
AcDbLine
 10
246.4713433924
 20
127.8453930753
 30
0.0
 11
246.3213483038
 21
127.9953928205
 31
0.0
  0
LINE
  5
246
330
1F
100
AcDbEntity
  8
0
  6
HIDDEN
 62
     7
370
     0
100
AcDbLine
 10
246.3213483038
 20
102.9953924479
 30
0.0
 11
246.4713433924
 21
103.1453921931
 31
0.0
  0
LINE
  5
247
330
1F
100
AcDbEntity
  8
0
  6
HIDDEN
 62
     7
370
     0
100
AcDbLine
 10
100.2213487568
 20
104.2453921872
 30
0.0
 11
111.3213485273
 21
104.2453921872
 31
0.0
  0
LINE
  5
248
330
1F
100
AcDbEntity
  8
0
  6
HIDDEN
 62
     7
370
     0
100
AcDbLine
 10
111.3213485273
 20
126.7453930812
 30
0.0
 11
100.2213487568
 21
126.7453930812
 31
0.0
  0
LINE
  5
249
330
1F
100
AcDbEntity
  8
0
  6
HIDDEN
 62
     7
370
     0
100
AcDbLine
 10
91.9713488015
 20
165.4953933792
 30
0.0
 11
91.9713488015
 21
159.3953944283
 31
0.0
  0
LINE
  5
24A
330
1F
100
AcDbEntity
  8
0
  6
HIDDEN
 62
     7
370
     0
100
AcDbLine
 10
218.4352109375
 20
125.1453930052
 30
0.0
 11
217.2213474455
 21
125.1453930052
 31
0.0
  0
LINE
  5
24B
330
1F
100
AcDbEntity
  8
0
  6
HIDDEN
 62
     7
370
     0
100
AcDbLine
 10
217.2213474455
 20
105.8453922631
 30
0.0
 11
218.4352109375
 21
105.8453922631
 31
0.0
  0
ARC
  5
24C
330
1F
100
AcDbEntity
  8
0
  6
HIDDEN
 62
     7
370
     0
100
AcDbCircle
 10
217.2213488283
 20
124.9453926342
 30
0.0
 40
0.2000000000000455
100
AcDbArc
 50
90.0
 51
180.0
  0
ARC
  5
24D
330
1F
100
AcDbEntity
  8
0
  6
HIDDEN
 62
     7
370
     0
100
AcDbCircle
 10
217.2213488283
 20
106.0453926342
 30
0.0
 40
0.2000000000000455
100
AcDbArc
 50
180.0
 51
270.0
  0
ARC
  5
24E
330
1F
100
AcDbEntity
  8
0
  6
HIDDEN
 62
     7
370
     0
100
AcDbCircle
 10
218.4352107077
 20
124.9453926342
 30
0.0
 40
0.2000000000000048
100
AcDbArc
 50
75.0
 51
90.0
  0
ARC
  5
24F
330
1F
100
AcDbEntity
  8
0
  6
HIDDEN
 62
     7
370
     0
100
AcDbCircle
 10
218.4352107077
 20
106.0453926342
 30
0.0
 40
0.1999999999999911
100
AcDbArc
 50
270.0
 51
285.0
  0
LINE
  5
250
330
1F
100
AcDbEntity
  8
0
  6
HIDDEN
 62
     7
370
     0
100
AcDbLine
 10
218.4869775715
 20
105.8522076818
 30
0.0
 11
219.0213481131
 21
105.9953929397
 31
0.0
  0
LINE
  5
251
330
1F
100
AcDbEntity
  8
0
  6
HIDDEN
 62
     7
370
     0
100
AcDbLine
 10
219.0213481131
 20
124.9953923287
 30
0.0
 11
218.4869775715
 21
125.1385775866
 31
0.0
  0
LINE
  5
252
330
1F
100
AcDbEntity
  8
0
  6
HIDDEN
 62
     7
370
     0
100
AcDbLine
 10
227.2213528099
 20
124.9953923287
 30
0.0
 11
224.3713418188
 21
124.9953923287
 31
0.0
  0
LINE
  5
253
330
1F
100
AcDbEntity
  8
0
  6
HIDDEN
 62
     7
370
     0
100
AcDbLine
 10
246.3213483038
 20
124.9953923287
 30
0.0
 11
231.8213561716
 21
124.9953923287
 31
0.0
  0
LINE
  5
254
330
1F
100
AcDbEntity
  8
0
  6
HIDDEN
 62
     7
370
     0
100
AcDbLine
 10
225.3484556618
 20
105.9953929397
 30
0.0
 11
246.3213483038
 21
105.9953929397
 31
0.0
  0
LINE
  5
255
330
1F
100
AcDbEntity
  8
0
  6
HIDDEN
 62
     7
370
     0
100
AcDbLine
 10
223.2713530006
 20
124.9953923287
 30
0.0
 11
219.0213481131
 21
124.9953923287
 31
0.0
  0
LINE
  5
256
330
1F
100
AcDbEntity
  8
0
  6
HIDDEN
 62
     7
370
     0
100
AcDbLine
 10
219.0213481131
 20
105.9953929397
 30
0.0
 11
222.084237093
 21
105.9953929397
 31
0.0
  0
LINE
  5
257
330
1F
100
AcDbEntity
  8
0
  6
HIDDEN
 62
     7
370
     0
100
AcDbLine
 10
247.021345252
 20
125.3995378973
 30
0.0
 11
246.3213483038
 21
124.9953923287
 31
0.0
  0
LINE
  5
258
330
1F
100
AcDbEntity
  8
0
  6
HIDDEN
 62
     7
370
     0
100
AcDbLine
 10
246.3213483038
 20
105.9953929397
 30
0.0
 11
247.021345252
 21
105.5912473711
 31
0.0
  0
LINE
  5
259
330
1F
100
AcDbEntity
  8
0
  6
HIDDEN
 62
     7
370
     0
100
AcDbLine
 10
224.2713550272
 20
125.5203928339
 30
0.0
 11
223.3713546934
 21
125.5203928339
 31
0.0
  0
ARC
  5
25A
330
1F
100
AcDbEntity
  8
0
  6
HIDDEN
 62
     7
370
     0
100
AcDbCircle
 10
224.2713488283
 20
125.4203926342
 30
0.0
 40
0.1000000000000227
100
AcDbArc
 50
0.0
 51
90.0
  0
ARC
  5
25B
330
1F
100
AcDbEntity
  8
0
  6
HIDDEN
 62
     7
370
     0
100
AcDbCircle
 10
223.3713488283
 20
125.4203926342
 30
0.0
 40
0.1000000000000227
100
AcDbArc
 50
90.0
 51
180.0
  0
LINE
  5
25C
330
1F
100
AcDbEntity
  8
0
  6
HIDDEN
 62
     7
370
     0
100
AcDbLine
 10
78.4540612417
 20
77.917111619
 30
0.0
 11
78.0213520097
 21
78.3953383105
 31
0.0
  0
LINE
  5
25D
330
1F
100
AcDbEntity
  8
0
  6
HIDDEN
 62
     7
370
     0
100
AcDbLine
 10
66.0213491114
 20
79.0422983008
 30
0.0
 11
65.5407214704
 21
78.5640753346
 31
0.0
  0
LINE
  5
25E
330
1F
100
AcDbEntity
  8
0
  6
HIDDEN
 62
     7
370
     0
100
AcDbLine
 10
65.5406041237
 20
152.4267062085
 30
0.0
 11
66.0213491114
 21
151.9484236377
 31
0.0
  0
LINE
  5
25F
330
1F
100
AcDbEntity
  8
0
  6
HIDDEN
 62
     7
370
     0
100
AcDbLine
 10
78.0213492158
 20
152.5953985291
 30
0.0
 11
78.4541702064
 21
153.0736773746
 31
0.0
  0
LINE
  5
260
330
1F
100
AcDbEntity
  8
0
  6
HIDDEN
 62
     7
370
     0
100
AcDbLine
 10
78.0213492158
 20
146.9612694817
 30
0.0
 11
78.0213492158
 21
152.6954002219
 31
0.0
  0
LINE
  5
261
330
1F
100
AcDbEntity
  8
0
  6
HIDDEN
 62
     7
370
     0
100
AcDbLine
 10
66.0213491114
 20
151.9484161871
 30
0.0
 11
66.0213491114
 21
146.9869143801
 31
0.0
  0
LINE
  5
262
330
1F
100
AcDbEntity
  8
0
  6
HIDDEN
 62
     7
370
     0
100
AcDbLine
 10
78.0213492158
 20
78.2952099579
 30
0.0
 11
78.0213492158
 21
84.0295157867
 31
0.0
  0
LINE
  5
263
330
1F
100
AcDbEntity
  8
0
  6
HIDDEN
 62
     7
370
     0
100
AcDbLine
 10
66.0213491114
 20
84.0038708883
 30
0.0
 11
66.0213491114
 21
79.042339279
 31
0.0
  0
LINE
  5
264
330
1F
100
AcDbEntity
  8
0
  6
HIDDEN
 62
     7
370
     0
100
AcDbLine
 10
217.0213440599
 20
120.5453924375
 30
0.0
 11
216.0213420334
 21
119.5453927392
 31
0.0
  0
LINE
  5
265
330
1F
100
AcDbEntity
  8
0
  6
HIDDEN
 62
     7
370
     0
100
AcDbLine
 10
216.0213420334
 20
111.4453925291
 30
0.0
 11
217.0213440599
 21
110.4453928309
 31
0.0
  0
LINE
  5
266
330
1F
100
AcDbEntity
  8
0
  6
HIDDEN
 62
     7
370
     0
100
AcDbLine
 10
211.9213471355
 20
119.5453927392
 30
0.0
 11
210.9900171104
 21
117.9953925783
 31
0.0
  0
LINE
  5
267
330
1F
100
AcDbEntity
  8
0
  6
HIDDEN
 62
     7
370
     0
100
AcDbLine
 10
210.9900171104
 20
112.9953926901
 30
0.0
 11
211.9213471355
 21
111.4453925291
 31
0.0
  0
LINE
  5
268
330
1F
100
AcDbEntity
  8
0
  6
HIDDEN
 62
     7
370
     0
100
AcDbLine
 10
216.0213420334
 20
119.5453927392
 30
0.0
 11
211.9213471355
 21
119.5453927392
 31
0.0
  0
LINE
  5
269
330
1F
100
AcDbEntity
  8
0
  6
HIDDEN
 62
     7
370
     0
100
AcDbLine
 10
211.9213471355
 20
111.4453925291
 30
0.0
 11
216.0213420334
 21
111.4453925291
 31
0.0
  0
LINE
  5
26A
330
1F
100
AcDbEntity
  8
0
  6
HIDDEN
 62
     7
370
     0
100
AcDbLine
 10
115.321349183
 20
112.9953926901
 30
0.0
 11
210.9900171104
 21
112.9953926901
 31
0.0
  0
LINE
  5
26B
330
1F
100
AcDbEntity
  8
0
  6
HIDDEN
 62
     7
370
     0
100
AcDbLine
 10
210.9900171104
 20
117.9953925783
 30
0.0
 11
115.321349183
 21
117.9953925783
 31
0.0
  0
LINE
  5
26C
330
1F
100
AcDbEntity
  8
0
  6
HIDDEN
 62
     7
370
     0
100
AcDbLine
 10
227.2213528099
 20
127.9953928205
 30
0.0
 11
227.2213528099
 21
124.9953923287
 31
0.0
  0
LINE
  5
26D
330
1F
100
AcDbEntity
  8
0
  6
HIDDEN
 62
     7
370
     0
100
AcDbLine
 10
231.8213561716
 20
124.9953923287
 30
0.0
 11
231.8213561716
 21
127.9953928205
 31
0.0
  0
LINE
  5
26E
330
1F
100
AcDbEntity
  8
0
  6
HIDDEN
 62
     7
370
     0
100
AcDbLine
 10
222.0713475885
 20
105.9975675779
 30
0.0
 11
222.0713475885
 21
102.9953924479
 31
0.0
  0
LINE
  5
26F
330
1F
100
AcDbEntity
  8
0
  6
HIDDEN
 62
     7
370
     0
100
AcDbLine
 10
225.3713438454
 20
102.9953924479
 30
0.0
 11
225.3713438454
 21
105.9993408161
 31
0.0
  0
LINE
  5
270
330
1F
100
AcDbEntity
  8
0
  6
HIDDEN
 62
     7
370
     0
100
AcDbLine
 10
231.8213561716
 20
109.2481008271
 30
0.0
 11
231.8213561716
 21
110.7453927869
 31
0.0
  0
LINE
  5
271
330
1F
100
AcDbEntity
  8
0
  6
HIDDEN
 62
     7
370
     0
100
AcDbLine
 10
227.2213528099
 20
110.7453927869
 30
0.0
 11
227.2213528099
 21
109.2453925411
 31
0.0
  0
LINE
  5
272
330
1F
100
AcDbEntity
  8
0
  6
HIDDEN
 62
     7
370
     0
100
AcDbLine
 10
225.3713438454
 20
120.2434185433
 30
0.0
 11
225.3713438454
 21
121.7440353247
 31
0.0
  0
LINE
  5
273
330
1F
100
AcDbEntity
  8
0
  6
HIDDEN
 62
     7
370
     0
100
AcDbLine
 10
222.0713475885
 20
121.7453927273
 30
0.0
 11
222.0713475885
 21
120.2443051623
 31
0.0
  0
ARC
  5
274
330
1F
100
AcDbEntity
  8
0
  6
HIDDEN
 62
     7
370
     0
100
AcDbCircle
 10
45.3213488283
 20
149.6453926342
 30
0.0
 40
1.900000000000034
100
AcDbArc
 50
270.0
 51
310.9212832533
  0
ARC
  5
275
330
1F
100
AcDbEntity
  8
0
  6
HIDDEN
 62
     7
370
     0
100
AcDbCircle
 10
50.3213488283
 20
81.3453926342
 30
0.0
 40
1.900000000000006
100
AcDbArc
 50
35.6630613694
 51
90.0
  0
LINE
  5
276
330
1F
100
AcDbEntity
  8
0
  6
HIDDEN
 62
     7
370
     0
100
AcDbLine
 10
91.0213490183
 20
163.0422636407
 30
0.0
 11
91.0213490183
 21
161.1669450539
 31
0.0
  0
LINE
  5
277
330
1F
100
AcDbEntity
  8
0
  6
HIDDEN
 62
     7
370
     0
100
AcDbLine
 10
101.0213492605
 20
161.1724547582
 30
0.0
 11
101.0213492605
 21
163.0479968624
 31
0.0
  0
LINE
  5
278
330
1F
100
AcDbEntity
  8
0
  6
HIDDEN
 62
     7
370
     0
100
AcDbLine
 10
45.3213470223
 20
147.7453909355
 30
0.0
 11
38.7713479044
 21
147.7453909355
 31
0.0
  0
LINE
  5
279
330
1F
100
AcDbEntity
  8
0
  6
HIDDEN
 62
     7
370
     0
100
AcDbLine
 10
37.1728705409
 20
84.8438716965
 30
0.0
 11
38.7713479044
 21
83.2453943329
 31
0.0
  0
LINE
  5
27A
330
1F
100
AcDbEntity
  8
0
  6
HIDDEN
 62
     7
370
     0
100
AcDbLine
 10
38.7713479044
 20
147.7453909355
 30
0.0
 11
37.1720323505
 21
146.1460772442
 31
0.0
  0
LINE
  5
27B
330
1F
100
AcDbEntity
  8
0
  6
HIDDEN
 62
     7
370
     0
100
AcDbLine
 10
38.7713479044
 20
83.2453943329
 30
0.0
 11
50.3213497045
 21
83.2453943329
 31
0.0
  0
DIMENSION
  5
27C
330
1F
100
AcDbEntity
  8
VERMASSUNG
100
AcDbDimension
  2
*D1
 10
29.9765042916
 20
65.4953926342
 30
0.0
 11
29.9765042916
 21
115.4953926342
 31
0.0
 70
   160
  1
HSK A %%c<>
 71
     2
 42
-1.0
  3
SLDDIMSTYLE0
100
AcDbAlignedDimension
 13
87.5213488283
 23
165.4953926342
 33
0.0
 14
87.5213488283
 24
65.4953926342
 34
0.0
 50
90.0
100
AcDbRotatedDimension
  0
DIMENSION
  5
289
330
1F
100
AcDbEntity
  8
VERMASSUNG
100
AcDbDimension
  2
*D2
 10
259.8009034311
 20
99.4953926342
 30
0.0
 11
259.8009034311
 21
115.4953926342
 31
0.0
 70
   160
  1
%%c<>
 71
     2
 42
-1.0
  3
SLDDIMSTYLE0
100
AcDbAlignedDimension
 13
245.4713488283
 23
131.4953926342
 33
0.0
 14
245.4713488283
 24
99.4953926342
 34
0.0
 50
90.0
100
AcDbRotatedDimension
  0
DIMENSION
  5
294
330
1F
100
AcDbEntity
  8
VERMASSUNG
100
AcDbDimension
  2
*D3
 10
253.8009034311
 20
105.9953926342
 30
0.0
 11
253.8009034311
 21
115.4953926342
 31
0.0
 70
   160
  1
%%c<>
 71
     2
 42
-1.0
  3
SLDDIMSTYLE0
100
AcDbAlignedDimension
 13
246.3213488283
 23
124.9953926342
 33
0.0
 14
246.3213488283
 24
105.9953926342
 34
0.0
 50
90.0
100
AcDbRotatedDimension
  0
DIMENSION
  5
29F
330
1F
100
AcDbEntity
  8
VERMASSUNG
100
AcDbDimension
  2
*D4
 10
247.0213488283
 20
170.0424244175
 30
0.0
 11
179.8024201009
 21
170.0424244175
 31
0.0
 70
   160
 71
     2
 42
-1.0
  3
SLDDIMSTYLE0
100
AcDbAlignedDimension
 13
115.9713488283
 23
163.464132455
 33
0.0
 14
247.0213488283
 24
127.2953926342
 34
0.0
100
AcDbRotatedDimension
  0
DIMENSION
  5
2A9
330
1F
100
AcDbEntity
  8
VERMASSUNG
100
AcDbDimension
  2
*D5
 10
247.0213488283
 20
182.0424244175
 30
0.0
 11
143.3042611925
 21
182.0424244175
 31
0.0
 70
   160
 71
     2
 42
-1.0
  3
SLDDIMSTYLE0
100
AcDbAlignedDimension
 13
37.1213488283
 23
145.9980623768
 33
0.0
 14
247.0213488283
 24
127.2953926342
 34
0.0
100
AcDbRotatedDimension
  0
DIMENSION
  5
2B3
330
1F
100
AcDbEntity
  8
VERMASSUNG
100
AcDbDimension
  2
*D6
 10
87.0213488283
 20
176.0424244175
 30
0.0
 11
166.7119411359
 21
176.0424244175
 31
0.0
 70
   160
 71
     2
 42
-1.0
  3
SLDDIMSTYLE0
100
AcDbAlignedDimension
 13
247.0213488283
 23
127.2953926342
 33
0.0
 14
87.0213488283
 24
164.9953926342
 34
0.0
100
AcDbRotatedDimension
  0
DIMENSION
  5
2BD
330
1F
100
AcDbEntity
  8
VERMASSUNG
100
AcDbDimension
  2
*D7
 10
265.8009034311
 20
98.4953926342
 30
0.0
 11
265.8009034311
 21
115.4953926342
 31
0.0
 70
   160
  1
%%c<>
 71
     2
 42
-1.0
  3
SLDDIMSTYLE0
100
AcDbAlignedDimension
 13
163.9713488283
 23
132.4953926342
 33
0.0
 14
163.9713488283
 24
98.4953926342
 34
0.0
 50
90.0
100
AcDbRotatedDimension
  0
DIMENSION
  5
2C8
330
1F
100
AcDbEntity
  8
VERMASSUNG
100
AcDbDimension
  2
*D8
 10
272.0324699278
 20
94.3715824172
 30
0.0
 11
272.0324699278
 21
115.4953926342
 31
0.0
 70
   160
  1
%%c<>
 71
     2
 42
-1.0
  3
SLDDIMSTYLE1
100
AcDbAlignedDimension
 13
119.5502961967
 23
136.6192028512
 33
0.0
 14
119.5502961967
 24
94.3715824172
 34
0.0
 50
90.0
100
AcDbRotatedDimension
  0
LINE
  5
2D4
330
1F
100
AcDbEntity
  8
VERMASSUNG
  6
CENTERX2
 62
     7
370
     0
100
AcDbLine
 10
34.8708794673
 20
115.4953926342
 30
0.0
 11
249.0213488283
 21
115.4953926342
 31
0.0
  0
OLE2FRAME
  5
2D5
330
1F
100
AcDbEntity
  8
0
100
AcDbOle2Frame
 70
     2
  3
Bitmap Image
 10
13.8511154363
 20
38.264191557
 30
0.0
 11
51.6290888628
 21
31.9806341108
 31
0.0
 71
     2
 72
     0
 73
     1
 90
    12928
310
80552BED0767C5B32B40DDAF6807D121434000000000000000006FFBDDFB85D0
310
4940DDAF6807D121434000000000000000006FFBDDFB85D04940416F4BD60AFB
310
3F4000000000000000002BED0767C5B32B40416F4BD60AFB3F40000000000000
310
0000000000000100000000010000010000000100000000000100000000320000
310
D0CF11E0A1B11AE1000000000000000000000000000000003E000300FEFF0900
310
0600000000000000000000000100000001000000000000000010000002000000
310
01000000FEFFFFFF0000000000000000FFFFFFFFFFFFFFFFFFFFFFFFFFFFFFFF
310
FFFFFFFFFFFFFFFFFFFFFFFFFFFFFFFFFFFFFFFFFFFFFFFFFFFFFFFFFFFFFFFF
310
FFFFFFFFFFFFFFFFFFFFFFFFFFFFFFFFFFFFFFFFFFFFFFFFFFFFFFFFFFFFFFFF
310
FFFFFFFFFFFFFFFFFFFFFFFFFFFFFFFFFFFFFFFFFFFFFFFFFFFFFFFFFFFFFFFF
310
FFFFFFFFFFFFFFFFFFFFFFFFFFFFFFFFFFFFFFFFFFFFFFFFFFFFFFFFFFFFFFFF
310
FFFFFFFFFFFFFFFFFFFFFFFFFFFFFFFFFFFFFFFFFFFFFFFFFFFFFFFFFFFFFFFF
310
FFFFFFFFFFFFFFFFFFFFFFFFFFFFFFFFFFFFFFFFFFFFFFFFFFFFFFFFFFFFFFFF
310
FFFFFFFFFFFFFFFFFFFFFFFFFFFFFFFFFFFFFFFFFFFFFFFFFFFFFFFFFFFFFFFF
310
FFFFFFFFFFFFFFFFFFFFFFFFFFFFFFFFFFFFFFFFFFFFFFFFFFFFFFFFFFFFFFFF
310
FFFFFFFFFFFFFFFFFFFFFFFFFFFFFFFFFFFFFFFFFFFFFFFFFFFFFFFFFFFFFFFF
310
FFFFFFFFFFFFFFFFFFFFFFFFFFFFFFFFFFFFFFFFFFFFFFFFFFFFFFFFFFFFFFFF
310
FFFFFFFFFFFFFFFFFFFFFFFFFFFFFFFFFFFFFFFFFFFFFFFFFFFFFFFFFFFFFFFF
310
FFFFFFFFFFFFFFFFFFFFFFFFFFFFFFFFFFFFFFFFFFFFFFFFFFFFFFFFFFFFFFFF
310
FFFFFFFFFFFFFFFFFFFFFFFFFFFFFFFFFFFFFFFFFFFFFFFFFFFFFFFFFFFFFFFF
310
FDFFFFFFFEFFFFFFFEFFFFFFFEFFFFFF05000000060000000700000008000000
310
090000000A0000000B0000000C0000000D0000000E0000000F00000010000000
310
11000000120000001300000014000000150000001600000017000000FEFFFFFF
310
FFFFFFFFFFFFFFFFFFFFFFFFFFFFFFFFFFFFFFFFFFFFFFFFFFFFFFFFFFFFFFFF
310
FFFFFFFFFFFFFFFFFFFFFFFFFFFFFFFFFFFFFFFFFFFFFFFFFFFFFFFFFFFFFFFF
310
FFFFFFFFFFFFFFFFFFFFFFFFFFFFFFFFFFFFFFFFFFFFFFFFFFFFFFFFFFFFFFFF
310
FFFFFFFFFFFFFFFFFFFFFFFFFFFFFFFFFFFFFFFFFFFFFFFFFFFFFFFFFFFFFFFF
310
FFFFFFFFFFFFFFFFFFFFFFFFFFFFFFFFFFFFFFFFFFFFFFFFFFFFFFFFFFFFFFFF
310
FFFFFFFFFFFFFFFFFFFFFFFFFFFFFFFFFFFFFFFFFFFFFFFFFFFFFFFFFFFFFFFF
310
FFFFFFFFFFFFFFFFFFFFFFFFFFFFFFFFFFFFFFFFFFFFFFFFFFFFFFFFFFFFFFFF
310
FFFFFFFFFFFFFFFFFFFFFFFFFFFFFFFFFFFFFFFFFFFFFFFFFFFFFFFFFFFFFFFF
310
FFFFFFFFFFFFFFFFFFFFFFFFFFFFFFFFFFFFFFFFFFFFFFFFFFFFFFFFFFFFFFFF
310
FFFFFFFFFFFFFFFFFFFFFFFFFFFFFFFFFFFFFFFFFFFFFFFFFFFFFFFFFFFFFFFF
310
FFFFFFFFFFFFFFFFFFFFFFFFFFFFFFFFFFFFFFFFFFFFFFFFFFFFFFFFFFFFFFFF
310
FFFFFFFFFFFFFFFFFFFFFFFFFFFFFFFFFFFFFFFFFFFFFFFFFFFFFFFFFFFFFFFF
310
FFFFFFFFFFFFFFFFFFFFFFFFFFFFFFFFFFFFFFFFFFFFFFFFFFFFFFFFFFFFFFFF
310
52006F006F007400200045006E00740072007900000000000000000000000000
310
0000000000000000000000000000000000000000000000000000000000000000
310
16000500FFFFFFFFFFFFFFFF020000000A00030000000000C000000000000046
310
000000000000000000000000B0911BDDA6E7CB0103000000C000000000000000
310
01004F006C006500000000000000000000000000000000000000000000000000
310
0000000000000000000000000000000000000000000000000000000000000000
310
0A000200FFFFFFFFFFFFFFFFFFFFFFFF00000000000000000000000000000000
310
0000000000000000000000000000000000000000000000001400000000000000
310
010043006F006D0070004F0062006A0000000000000000000000000000000000
310
0000000000000000000000000000000000000000000000000000000000000000
310
120002010100000003000000FFFFFFFF00000000000000000000000000000000
310
0000000000000000000000000000000000000000010000004D00000000000000
310
01004F006C006500310030004E00610074006900760065000000000000000000
310
0000000000000000000000000000000000000000000000000000000000000000
310
1A000200FFFFFFFFFFFFFFFFFFFFFFFF00000000000000000000000000000000
310
0000000000000000000000000000000000000000040000002426000000000000
310
FEFFFFFF02000000FEFFFFFFFFFFFFFFFFFFFFFFFFFFFFFFFFFFFFFFFFFFFFFF
310
FFFFFFFFFFFFFFFFFFFFFFFFFFFFFFFFFFFFFFFFFFFFFFFFFFFFFFFFFFFFFFFF
310
FFFFFFFFFFFFFFFFFFFFFFFFFFFFFFFFFFFFFFFFFFFFFFFFFFFFFFFFFFFFFFFF
310
FFFFFFFFFFFFFFFFFFFFFFFFFFFFFFFFFFFFFFFFFFFFFFFFFFFFFFFFFFFFFFFF
310
FFFFFFFFFFFFFFFFFFFFFFFFFFFFFFFFFFFFFFFFFFFFFFFFFFFFFFFFFFFFFFFF
310
FFFFFFFFFFFFFFFFFFFFFFFFFFFFFFFFFFFFFFFFFFFFFFFFFFFFFFFFFFFFFFFF
310
FFFFFFFFFFFFFFFFFFFFFFFFFFFFFFFFFFFFFFFFFFFFFFFFFFFFFFFFFFFFFFFF
310
FFFFFFFFFFFFFFFFFFFFFFFFFFFFFFFFFFFFFFFFFFFFFFFFFFFFFFFFFFFFFFFF
310
FFFFFFFFFFFFFFFFFFFFFFFFFFFFFFFFFFFFFFFFFFFFFFFFFFFFFFFFFFFFFFFF
310
FFFFFFFFFFFFFFFFFFFFFFFFFFFFFFFFFFFFFFFFFFFFFFFFFFFFFFFFFFFFFFFF
310
FFFFFFFFFFFFFFFFFFFFFFFFFFFFFFFFFFFFFFFFFFFFFFFFFFFFFFFFFFFFFFFF
310
FFFFFFFFFFFFFFFFFFFFFFFFFFFFFFFFFFFFFFFFFFFFFFFFFFFFFFFFFFFFFFFF
310
FFFFFFFFFFFFFFFFFFFFFFFFFFFFFFFFFFFFFFFFFFFFFFFFFFFFFFFFFFFFFFFF
310
FFFFFFFFFFFFFFFFFFFFFFFFFFFFFFFFFFFFFFFFFFFFFFFFFFFFFFFFFFFFFFFF
310
FFFFFFFFFFFFFFFFFFFFFFFFFFFFFFFFFFFFFFFFFFFFFFFFFFFFFFFFFFFFFFFF
310
FFFFFFFFFFFFFFFFFFFFFFFFFFFFFFFFFFFFFFFFFFFFFFFFFFFFFFFFFFFFFFFF
310
010000020000000000000000000000000000000061007200430082005C003104
310
F806250000000000E06D183600000000680061007200650064005C003B004300
310
0100FEFF030A0000FFFFFFFF0A00030000000000C00000000000004607000000
310
5042727573680007000000504272757368000700000050427275736800F439B2
310
71000000000000000000000000004100540049002E004100430045005C004300
310
6F00720065002D005300740061007400690063003B0043003A005C0050007200
310
6F006700720061006D002000460069006C006500730020002800780038003600
310
29005C0043006F006D006D006F006E002000460069006C00650073005C004100
310
750074006F006400650073006B0020005300680061007200650064005C003B00
310
43003A005C00500072006F006700720061006D002000460069006C0065007300
310
5C004E006F0072006D0061006E005C004E0070006D005C00420069006E000000
310
43003A005C00500072006F006700720061006D002000460069006C0065007300
310
5C0053006F006C006900640057006F0072006B007300200043006F0072007000
310
5C0053006F006C006900640057006F0072006B00730020002800320029005C00
310
730065007400750070005C0069003300380036005C0073007700610063007400
310
770069007A002E006500780065000000220043003A005C00500072006F006700
310
20260000424D0E260000000000003E00000028000000B40200006E0000000100
310
01000000000000000000130B0000130B00000200000002000000000000FFFFFF
310
FFFFFFFFFFFFFFFFFFFFFFFFFFFFFFFFFFFFFFFFFFFFFFFFFFFFFFFFFFFFFFFF
310
FFFFFFFFFFFFFFFFFFFFFFFFFFFFFFFFFFFFFFFFFFFFFFFFFFFFFFFFFFFFFFFF
310
FFFFFFFFFFFFFFFFFFFFFFFFFFFFFFFFFFFFFFFFFFFFFFFFF000FFFFFFFFFFFF
310
FFFFFFFFFFFFFFFFFFFFFFFFFFFFFFFFFFFFFFFFFFFFFFFFFFFFFFFFFFFFFFFF
310
FFFFFFFFFFFFFFFFFFFFFFFFFFFFFFFFFFFFFFFFFFFFFFFFFFFFFFFFFFFFFFFF
310
FFFFFFFFFFFFFFFFFFFFFFFFFFFFFFFFF000FFFFFFFFFFFFFFFFFFFFFFFFFFFF
310
FFFFFFFFFFFFFFFFFFFFFFFFFFFFFFFFFFFFFFFFFFFFFFFFFFFFFFFFFFFFFFFF
310
FFFFFFFFFFFFFFFFFFFFFFFFFFFFFFFFFFFFFFFFFFFFFFFFFFFFFFFFFFFFFFFF
310
FFFFFFFFFFFFFFFFF000FFFFFFFFFFFFFFFFFFFFFFFFFFFFFFFFFFFFFFFFFFFF
310
FFFFFFFFFFFFFFFFFFFFFFFFFFFFFFFFFFFFFFFFFFFFFFFFFFFFFFFFFFFFFFFF
310
FFFFFFFFFFFFFFFFFFFFFFFFFFFFFFFFFFFFFFFFFFFFFFFFFFFFFFFFFFFFFFFF
310
F000FFFFFFFFFFFFFFFFFFFFFFFFFFFFFFFFFFFFFFFFFFFFFFFFFFFFFFFFFFFF
310
FFFFFFFFFFFFFFFFFFFFFFFFFFFFFFFFFFFFFFFFFFFFFFFFFFFFFFFFFFFFFFFF
310
FFFFFFFFFFFFFFFFFFFFFFFFFFFFFFFFFFFFFFFFFFFFFFFFF000FFFFFFFFFFFF
310
FFFFFFFFFFFFFFFFFFFFFFFFFFFFFFFFFFFFFFFFFFFFFFFFFFFFFFFFFFFFFFFF
310
FFFFFFFFFFFFFFFFFFFFFFFFFFFFFFFFFFFFFFFFFFFFFFFFFFFFFFFFFFFFFFFF
310
FFFFFFFFFFFFFFFFFFFFFFFFFFFFFFFFF000FFFFFFFFFFFFFFFFFFFFFFFFFFFF
310
FFFFFFFFFFFFFFFFFFFFFFFFFFFFFFFFFFFFFFFFFFFFFFFFFFFFFFFFFFFFFFFF
310
FFFFFFFFFFFFFFFFFFFFFFFFFFFFFFFFFFFFFFFFFFFFFFFFFFFFFFFFFFFFFFFF
310
FFFFFFFFFFFFFFFFF000FFFFFFFFFFFFFFFFFFFFFFFFFFFFFFFFFFFFFFFFFFFF
310
FFFFFFFFFFFFFFFFFFFFFFFFFFFFFFFFFFFFFFFFFFFFFFFFFFFFFFFFFFFFFFFF
310
FFFFFFFFFFFFFFFFFFFFFFFFFFFFFFFFFFFFFFFFFFFFFFFFFFFFFFFFFFFFFFFF
310
F000FFFFFFFFFFFFFFFFFFFFFFFFFFFFFFFFFFFFFFFFFFFFFFFFFFFFFFFFFFFF
310
FFFFFFFFFFFFFFFFFFFFFFFFFFFFFFFFFFFFFFFFFFFFFFFFFFFFFFFFFFFFFFFF
310
FFFFFFFFFFFFFFFFFFFFFFFFFFFFFFFFFFFFFFFFFFFFFFFFF000FFFFFFFFFFFF
310
FFFFFFFFFFFFFFFFFFFFFFFFFFFFFFFFFFFFFFFFFFFFFFFFFFFFFFFFFFFFFFFF
310
FFFFFFFFFFFFFFFFFFFFFFFFFFFFFFFFFFFFFFFFFFFFFFFFFFFFFFFFFFFFFFFF
310
FFFFFFFFFFFFFFFFFFFFFFFFFFFFFFFFF000FFFFFFFFFFFFFFFFFFFFFFFFFFFF
310
FFFFFFFFFFFFFFFFFFFFFFFFFFFFFFFFFFFFFFFFFFFFFFFFFFFFFFFFFFFFFFFF
310
FFFFFFFFFFFFFFFFFFFFFFFFFFFFFFFFFFFFFFFFFFFFFFFFFFFFFFFFFFFFFFFF
310
FFFFFFFFFFFFFFFFF000FFFFFFFFFFFFFFFFFFFFFFFFFFFFFFFFFFFFFFFFFFFF
310
FFFFFFFFFFFFFFFFFFFFFFFFFFFFFFFFFFFFFFFFFFFFFFFFFFFFFFFFFFFFFFFF
310
FFFFFFFFFFFFFFFFFFFFFFFFFFFFFFFFFFFFFFFFFFFFFFFFFFFFFFFFFFFFFFFF
310
F000FFFFFFFFFFFFFFFFFFFFFFFFFFFFFFFFFFFFFFFFFFFFFFFFFFFFFFFFFFFF
310
FFFFFFFFFFFFFFFFFFFFFFFFFFFFFFFFFFFFFFFFFFFFFFFFFFFFFFFFFFFFFFFF
310
FFFFFFFFFFFFFFFFFFFFFFFFFFFFFFFFFFFFFFFFFFFFFFFFF000FFFFFFFFFFFF
310
FFFFFFFFFFFFFFFFFFFFFFFFFFFFFFFFFFFFFFFFFFFFFFFFFFFFFFFFFFFFFFFF
310
FFFFFFFFFFFFFFFFFFFFFFFFFFFFFFFFFFFFFFFFFFFFFFFFFFFFFFFFFFFFFFFF
310
FFFFFFFFFFFFFFFFFFFFFFFFFFFFFFFFF000FFFFFFFFFFFFFFFFFFFFFFFFFFFF
310
FFFFFFFFFFFFFFFFFFFFFFFFFFFFFFFFFFFFFFFFFFFFFFFFFFFFFFFFFFFFFFFF
310
FFFFFFFFFFFFFFFFFFFFFFFFFFFFFFFFFFFFFFFFFFFFFFFFFFFFFFFFFFFFFFFF
310
FFFFFFFFFFFFFFFFF000FFFFFFFFFFFFFFFFFFFFFFFFFFFFFFFFFFFFFFFFFFFF
310
FFFFFFFFFFFFFFFFFFFFFFFFFFFFFFFFFFFFFFFFFFFFFFFFFFFFFFFFFFFFFFFF
310
FFFFFFFFFFFFFFFFFFFFFFFFFFFFFFFFFFFFFFFFFFFFFFFFFFFFFFFFFFFFFFFF
310
F000FFFFFFFFFFFFFFFFFFFFFFFFFFFFFFFFFFFFFFFFFFFFFFFFFFFFFFFFFFFF
310
FFFFFFFFFFFFFFFFFFFFFFFFFFFFFFFFFFFFFFFFFFFFFFFFFFFFFFFFFFFFFFFF
310
FFFFFFFFFFFFFFFFFFFFFFFFFFFFFFFFFFFFFFFFFFFFFFFFF000FFFFFFFFFFFF
310
FFFFFFFFFFFFFFFFFFFFFFFFFFFFFFFFFFFFFFFFFFFFFFFFFFFFFFFFFFFFFFFF
310
FFFFFFFFFFFFFFFFFFFFFFFFFFFFFFFFFFFFFFFFFFFFFFFFFFFFFFFFFFFFFFFF
310
FFFFFFFFFFFFFFFFFFFFFFFFFFFFFFFFF000FFFFFFFFFFFFFFFFFFFFFFFFFFFF
310
FFFFFFFFFFFFFFFFFFFFFFFFFFFFFFFFFFFFFFFFFFFFFFFFFFFFFFFFFFFFFFFF
310
FFFFFFFFFFFFFFFFFFFFFFFFFFFFFFFFFFFFFFFFFFFFFFFFFFFFFFFFFFFFFFFF
310
FFFFFFFFFFFFFFFFF000FFFFF80003FFFFFFFFFFFFFFFFFFFFFFFFFFFFFFFFFF
310
FFFFF00007FFFFFFFFFF00007FFFFFF800000000000000007FFFFFFFFFFFFFFF
310
FFFFFFFC001FFFFFFFFFFFFFFC001FFFFFFFFFFFFFFFFFFFFFFFFFFE0007FFFF
310
F000FFFF8000007FFFFFFFF8000FFFFFC0007FFFFF80007FFFFF0000007FFFFF
310
FFF8000007FFFFF800000000000000007FFFFFF0001FFFFFFFFFFFC00001FFFF
310
FFFFFFFFC00001FFFFFFFF000000000003FFFFE000007FFFF000FFFE0000000F
310
FFFFFFF0000FFFFF80007FFFFF80007FFFFC0000001FFFFFFFC0000001FFFFF8
310
00000000000000007FFFFFF0001FFFFFFFFFFE0000003FFFFFFFFFFE0000003F
310
FFFFFF000000000003FFFF0000000FFFF000FFF800000003FFFFFFF00007FFFF
310
80007FFFFF80007FFFF000000007FFFFFF000000003FFFF80000000000000000
310
7FFFFFF0001FFFFFFFFFF80000000FFFFFFFFFF80000000FFFFFFF0000000000
310
03FFFC00000003FFF000FFE000000000FFFFFFF00007FFFF80003FFFFF80007F
310
FFC000000001FFFFFC000000001FFFF800000000000000007FFFFFF0001FFFFF
310
FFFFE000000003FFFFFFFFE000000003FFFFFF000000000003FFF000000000FF
310
F000FF80000000007FFFFFF00007FFFF80003FFFFF80007FFF8000000000FFFF
310
F80000000007FFF800000000000000007FFFFFF0001FFFFFFFFFC000000001FF
310
FFFFFFC000000001FFFFFF000000000003FFC0000000007FF000FF0000000000
310
3FFFFFE00007FFFF00003FFFFF80007FFE00000000003FFFF00000000003FFF8
310
00000000000000007FFFFFF0001FFFFFFFFF8000000000FFFFFFFF8000000000
310
FFFFFF000000000003FF80000000003FF000FE00000000001FFFFFE00003FFFF
310
00003FFFFF80007FFC00000000001FFFE00000000001FFF8000001FFFE000000
310
7FFFFFF0001FFFFFFFFE00000000003FFFFFFE00000000003FFFFF0000000000
310
03FF00000000001FF000FC00000000000FFFFFE00003FFFF00001FFFFF80007F
310
F800000000001FFFC00000000000FFF8000001FFFE0000007FFFFFF0001FFFFF
310
FFFC00000000001FFFFFFC00000000001FFFFF000000000003FE00000000000F
310
F000F8000000000007FFFFE00003FFFF00001FFFFF80007FF800000000000FFF
310
800000000000FFF8000001FFFE0000007FFFFFF0001FFFFFFFF800000000000F
310
FFFFF800000000000FFFFF000000000003FC000000000007F000F80000000000
310
03FFFFC00003FFFE00001FFFFF80007FF0000000000007FF0000000000007FF8
310
000001FFFE0000007FFFFFF0001FFFFFFFF0000000000007FFFFF00000000000
310
07FFFF000000000003F8000000000003F000F0000000000003FFFFC00001FFFE
310
00001FFFFF80007FE0000000000007FE0000000000003FF8000001FFFE000000
310
7FFFFFF0001FFFFFFFF0000000000007FFFFF0000000000007FFFF0000000000
310
03F800001F800003F000E00001FFF00001FFFFC00001FFFE00000FFFFF80007F
310
E00001FFE00003FE00001FFF00003FF8000001FFFE0000007FFFFFF0001FFFFF
310
FFE000003E000003FFFFE000003E000003FFFF000000000003F00001FFF80001
310
F000E00007FFFC0001FFFFC00001FFFE00000FFFFF80007FC0000FFFFC0003FC
310
0000FFFFC0001FF8000001FFFE0000007FFFFFF0001FFFFFFFC00003FFE00001
310
FFFFC00003FFE00001FFFF0001FFFFFFFFF00007FFFE0001F000E0000FFFFF00
310
00FFFF800001FFFC00000FFFFF80007FC0001FFFFE0001FC0001FFFFE0001FF8
310
000001FFFE0000007FFFFFF0001FFFFFFF80000FFFF80000FFFF80000FFFF800
310
00FFFF0003FFFFFFFFE0000FFFFF8000F000C0003FFFFF8000FFFF800000FFFC
310
000007FFFF80007F80003FFFFF0001FC0003FFFFF0001FF8000001FFFE000000
310
7FFFFFF0001FFFFFFF80003FFFFE0000FFFF80003FFFFE0000FFFF0003FFFFFF
310
FFE0003FFFFF8000F000C0003FFFFF8000FFFF800000FFFC000007FFFF80007F
310
80007FFFFF8001F80007FFFFF8000FF8000001FFFE0000007FFFFFF0001FFFFF
310
FF00007FFFFF00007FFF00007FFFFF00007FFF0003FFFFFFFFE0003FFFFFC000
310
F000C0007FFFFFC000FFFF000000FFFC000007FFFF80007F8000FFFFFF8000F8
310
000FFFFFF8000FF8000001FFFE0000007FFFFFF0001FFFFFFF0000FFFFFF8000
310
7FFF0000FFFFFF80007FFF0003FFFFFFFFC0007FFFFFC00070008000FFFFFFC0
310
00FFFF000000FFF8000007FFFF80007F8000FFFFFF8000F8000FFFFFF8000FF8
310
000001FFFE0000007FFFFFF0001FFFFFFE0001FFFFFFC0003FFE0001FFFFFFC0
310
003FFF0003FFFFFFFFC0007FFFFFE00070008000FFFFFFC0007FFF0000007FF8
310
000003FFFF80007F0001FFFFFF8000F8000FFFFFF8000FF8000001FFFE000000
310
7FFFFFF0001FFFFFFE0001FFFFFFC0003FFE0001FFFFFFC0003FFF0003FFFFFF
310
FFC000FFFFFFE00070008000FFFFFFC0007FFF0000007FF8000003FFFF80007F
310
0001FFFFFF8000F8001FFFFFF8000FF8000001FFFE0000007FFFFFF0001FFFFF
310
FE0003FFFFFFE0003FFE0003FFFFFFE0003FFF0003FFFFFFFFC000FFFFFFE000
310
70008000FFFFFFC0007FFE0000007FF8000003FFFF80007F0001FFFFFF8000F0
310
001FFFFFF8000FF8000001FFFE0000007FFFFFF0001FFFFFFC0003FFFFFFE000
310
1FFC0003FFFFFFE0001FFF0003FFFFFFFFC000FFFFFFC00070008000FFFFFF80
310
007FFE0000007FF0000003FFFF80007F0001FFFFFF0000F0001FFFFFF8000FF8
310
000001FFFE0000007FFFFFF0001FFFFFFC0007FFFFFFF0001FFC0007FFFFFFF0
310
001FFF0003FFFFFFFFC000FFFFFFC00070008001FFFFFF0000FFFE0000003FF0
310
000001FFFF80007F0001FFFFFF0000F8001FFFFFF0000FF8000001FFFE000000
310
7FFFFFF0001FFFFFFC0007FFFFFFF0001FFC0007FFFFFFF0001FFF0003FFFFFF
310
FFC001FFFFFF80007000FFFFFFFFFE0000FFFE0008003FF0008001FFFF80007F
310
FFFFFFFFFC0000FFFFFFFFFFE0000FF8000001FFFE0000007FFFFFF0001FFFFF
310
F8000FFFFFFFF8000FF8000FFFFFFFF8000FFF0003FFFFFFFFFFFFFFFFFF0000
310
7000FFFFFFFFFC0000FFFC0008003FF0008001FFFF80007FFFFFFFFFF80001FF
310
FFFFFFFF80000FF8000001FFFE0000007FFFFFF0001FFFFFF8000FFFFFFFF800
310
0FF8000FFFFFFFF8000FFF0003FFFFFFFFFFFFFFFFFE0000F000FFFFFFFFE000
310
00FFFC000C003FE000C001FFFF80007FFFFFFFFFC00001FFFFFFFFFE00001FF8
310
000001FFFE0000007FFFFFF0001FFFFFF8000FFFFFFFF8000FF8000FFFFFFFF8
310
000FFF0003FFFFFFFFFFFFFFFFF00000F000FFFFFFFE000001FFFC000C001FE0
310
00C000FFFF80007FFFFFFFFE000001FFFFFFFFE000001FF80FFFFFFFFFFFFFC0
310
7FFFFFF0001FFFFFF8000FFFFFFFF8000FF8000FFFFFFFF8000FFF0003FFFFFF
310
FFFFFFFFFF800000F000FFFFFFC0000001FFFC001C001FE001C000FFFF80007F
310
FFFFFF80000003FFFFFFF80000001FF80FFFFFFFFFFFFFC07FFFFFF0001FFFFF
310
F8001FFFFFFFFC000FF8001FFFFFFFFC000FFF0003FFFFFFFFFFFFFFF0000001
310
F000FFFFF800000001FFF8001C001FE001C000FFFF80007FFFFFF800000003FF
310
FFFF800000003FF80FFFFFFFFFFFFFC07FFFFFF0001FFFFFF8001FFFFFFFFC00
310
0FF8001FFFFFFFFC000FFF0003FFFFFFFFFFFFFE00000001F000FFFFC0000000
310
03FFF8001E001FC001E000FFFF80007FFFFF8000000007FFFFFC000000003FF8
310
0FFFFFFFFFFFFFC07FFFFFF0001FFFFFF8001FFFFFFFFC000FF8001FFFFFFFFC
310
000FFF0003FFFFFFFFFFFFE000000003F000FFFE0000000007FFF8001E000FC0
310
01E0007FFF80007FFFFE0000000007FFFFE0000000007FF80FFFFFFFFFFFFFC0
310
7FFFFFF0001FFFFFF0001FFFFFFFFC0007F0001FFFFFFFFC0007FF0003FFFFFF
310
FFFFFF0000000003F000FFF80000000007FFF8001E000FC003E0007FFF80007F
310
FFF0000000000FFFFF8000000000FFF80FFFFFFFFFFFFFC07FFFFFF0001FFFFF
310
F0001FFFFFFFFC0007F0001FFFFFFFFC0007FF0003FFFFFFFFFFFC0000000007
310
F000FFE0000000000FFFF0003E000FC003E0007FFF80007FFFC0000000001FFF
310
FE0000000001FFF80FFFFFFFFFFFFFC07FFFFFF0001FFFFFF0001FFFFFFFFC00
310
07F0001FFFFFFFFC0007FF0003FFFFFFFFFFF0000000000FF000FFC000000000
310
1FFFF0003F000F8003F0003FFF80007FFF80000000003FFFF80000000003FFF8
310
0FFFFFFFFFFFFFC07FFFFFF0001FFFFFF0001FFFFFFFFC0007F0001FFFFFFFFC
310
0007FF0003FFFFFFFFFFE0000000001FF000FF00000000007FFFF0003F000780
310
03F0003FFF80007FFF00000000007FFFF00000000007FFF80FFFFFFFFFFFFFC0
310
7FFFFFF0001FFFFFF0001FFFFFFFFC0007F0001FFFFFFFFC0007FF0003FFFFFF
310
FFFF80000000007FF000FE0000000000FFFFE0003F00078007F0003FFF80007F
310
FE0000000001FFFFE0000000001FFFF80FFFFFFFFFFFFFC07FFFFFF0001FFFFF
310
F0001FFFFFFFFC0007F0001FFFFFFFFC0007FF0003FFFFFFFFFF0000000000FF
310
F000FC0000000003FFFFE0007F00078007F0003FFF80007FFC0000000007FFFF
310
C0000000007FFFF80FFFFFFFFFFFFFC07FFFFFF0001FFFFFF8001FFFFFFFFC00
310
0FF8001FFFFFFFFC000FFF0003FFFFFFFFFE0000000003FFF000FC000000000F
310
FFFFE0007F80070007F8001FFF80007FF8000000001FFFFF8000000001FFFFF8
310
0FFFFFFFFFFFFFC07FFFFFF0001FFFFFF8001FFFFFFFFC000FF8001FFFFFFFFC
310
000FFF0003FFFFFFFFFC000000000FFFF000F8000000007FFFFFE0007F800700
310
07F8001FFF80007FF000000000FFFFFF800000000FFFFFF80FFFFFFFFFFFFFC0
310
7FFFFFF0001FFFFFF8000FFFFFFFF8000FF8000FFFFFFFF8000FFF0003FFFFFF
310
FFFC000000007FFFF000F800000007FFFFFFC0007F8003000FF8001FFF80007F
310
F000000007FFFFFF000000007FFFFFF80FFFFFFFFFFFFFC07FFFFFF0001FFFFF
310
F8000FFFFFFFF8000FF8000FFFFFFFF8000FFF0003FFFFFFFFF80000000FFFFF
310
F000F0000000FFFFFFFFC000FF8003000FF8001FFF80007FE0000000FFFFFFFF
310
0000000FFFFFFFF8000001FFFE0000007FFFFFF0001FFFFFF8000FFFFFFFF800
310
0FF8000FFFFFFFF8000FFF0003FFFFFFFFF8000000FFFFFFF000F000000FFFFF
310
FFFFC000FFC002000FF8000FFF80007FE000001FFFFFFFFE000001FFFFFFFFF8
310
000001FFFE0000007FFFFFF0001FFFFFF8000FFFFFFFF8000FF8000FFFFFFFF8
310
000FFF0003FFFFFFFFF000001FFFFFFFF000E00000FFFFFFFFFFC000FFC00200
310
0FFC000FFF80007FE00001FFFFFFFFFE00001FFFFFFFFFF8000001FFFE000000
310
7FFFFFF0001FFFFFFC000FFFFFFFF8001FFC000FFFFFFFF8001FFF0003FFFFFF
310
FFF00001FFFFFFFFF000E00007FFFFFFFFFF8000FFC000001FFC000FFF80007F
310
C0000FFFFFFFFFFE0000FFFFFFFFFFF8000001FFFE0000007FFFFFF0001FFFFF
310
FC0007FFFFFFF0001FFC0007FFFFFFF0001FFF0003FFFFFFFFF00007FFFFFFFF
310
F000E0001FFFFFFFFFFF8000FFC000001FFC000FFF80007FC0003FFFFFFFFFFE
310
0001FFFFFFFFFFF8000001FFFE0000007FFFFFF0001FFFFFFC0007FFFFFFF000
310
1FFC0007FFFFFFF0001FFF0003FFFFFFFFF0001FFFFFFFFFF000E0003FFFFF00
310
03FF8001FFE000001FFC0007FF80007FC0007FFFFF0007FC0003FFFFF0003FF8
310
000001FFFE0000007FFFFFF0001FFFFFFC0003FFFFFFE0001FFC0003FFFFFFE0
310
001FFF0003FFFFFFFFF0003FFFFFFFFFF000E0003FFFFF0001FF8001FFE00000
310
1FFE0007FF80007FC0007FFFFE0003FC0007FFFFE0003FF8000001FFFE000000
310
7FFFFFF0001FFFFFFE0003FFFFFFE0003FFE0003FFFFFFE0003FFF0003FFFFFF
310
FFF0003FFFFF8001F000E0003FFFFF0001FF0001FFE000001FFE0007FF80007F
310
C0007FFFFE0003FC0007FFFFE0003FF8000001FFFE0000007FFFFFF0001FFFFF
310
FE0001FFFFFFC0003FFE0001FFFFFFC0003FFF0003FFFFFFFFF0003FFFFF0001
310
F000E0003FFFFF0003FF0001FFE000003FFE0007FF80007FC0007FFFFE0003FC
310
0007FFFFE0003FF8000001FFFE0000007FFFFFF0001FFFFFFF0001FFFFFFC000
310
7FFF0001FFFFFFC0007FFF0003FFFFFFFFF0003FFFFF0001F000E0003FFFFE00
310
03FF0003FFF000003FFE0003FF80007FC0007FFFFC0003FE0007FFFFE0003FF8
310
000001FFFE0000007FFFFFF0001FFFFFFF0000FFFFFF80007FFF0000FFFFFF80
310
007FFF0003FFFFFFFFF0003FFFFF0001F000E0003FFFFE0003FF0003FFF00000
310
3FFF0003FF80007FC0007FFFFC0007FE0007FFFFC0003FF8000001FFFE000000
310
7FFFFFF0001FFFFFFF80007FFFFF0000FFFF80007FFFFF0000FFFF0003FFFFFF
310
FFF0003FFFFF0003F000E0003FFFFC0003FE0003FFF000003FFF0003FF80007F
310
E0003FFFF80007FE0003FFFFC0007FF8000001FFFE0000007FFFFFF0001FFFFF
310
FF80003FFFFE0000FFFF80003FFFFE0000FFFF0003FFFFFFFFF0001FFFFE0003
310
F000F0001FFFF80003FE0003FFF000007FFF0001FF80007FE0003FFFF00007FE
310
0001FFFF80007FF8000001FFFE0000007FFFFFF0001FFFFFFFC0000FFFF80001
310
FFFFC0000FFFF80001FFFF0003FFFFFFFFF0001FFFFC0003F000F0000FFFF000
310
07FE0007FFF800007FFF0001FF80007FE0001FFFE00007FF0000FFFE00007FF8
310
000001FFFE0000007FFFFFF0001FFFFFFFC00003FFE00001FFFFC00003FFE000
310
01FFFF0003FFFFFFFFF8000FFFF80003F000F00003FFC00007FC0007FFF80000
310
7FFF8001FF80007FF00007FF80000FFF00007FF80000FFF8000001FFFE000000
310
7F80000000000001FFE000003E000003FFFFE000003E000003FFFF0003FFFFFF
310
FFF80003FFE00007F000F800000000000FFC0007FFF800007FFF8001FF80007F
310
F000000000000FFF000000000000FFF8000001FFFE0000007F80000000000001
310
FFF0000000000007FFFFF0000000000007FFFF0003FFFFFFFFFC00007E000007
310
F000F800000000000FFC0007FFF80000FFFF8000FF80007FF800000000001FFF
310
800000000001FFF8000001FFFE0000007F80000000000001FFF800000000000F
310
FFFFF800000000000FFFFF0003FFFFFFFFFC00000000000FF000FC0000000000
310
1FFC0007FFFC0000FFFF8000FF80007FF800000000003FFFC00000000001FFF8
310
000001FFFE0000007F80000000000001FFF800000000000FFFFFF80000000000
310
0FFFFF0003FFFFFFFFFE00000000001FF000FE00000000003FF8000FFFFC0000
310
FFFF8000FF80007FFC00000000003FFFC00000000003FFF8000001FFFE000000
310
7F80000000000001FFFC00000000001FFFFFFC00000000001FFFFF0003FFFFFF
310
FFFF00000000001FF000FF00000000003FF8000FFFFC0000FFFFC000FF80007F
310
FE00000000007FFFE00000000007FFF8000001FFFE0000007F80000000000001
310
FFFE00000000003FFFFFFE00000000003FFFFF0003FFFFFFFFFF80000000003F
310
F000FF80000000007FF8000FFFFC0001FFFFC0007F80007FFF0000000000FFFF
310
F0000000000FFFF800000000000000007F80000000000001FFFF8000000000FF
310
FFFFFF8000000000FFFFFF0003FFFFFFFFFFC0000000007FF000FFC000000000
310
FFF8000FFFFE0001FFFFC0007F80007FFF8000000001FFFFF8000000001FFFF8
310
00000000000000007F80000000000001FFFFC000000001FFFFFFFFC000000001
310
FFFFFF0003FFFFFFFFFFE000000000FFF000FFE000000003FFF0001FFFFE0001
310
FFFFC0007F80007FFFC000000007FFFFFE000000003FFFF80000000000000000
310
7F80000000000001FFFFE000000003FFFFFFFFE000000003FFFFFF0003FFFFFF
310
FFFFF000000003FFF000FFF80000000FFFF0001FFFFE0001FFFFE0007F80007F
310
FFF00000000FFFFFFF00000000FFFFF800000000000000007F80000000000001
310
FFFFF80000000FFFFFFFFFF80000000FFFFFFF0003FFFFFFFFFFFC0000000FFF
310
F000FFFE0000003FFFF0001FFFFE0003FFFFE0003F80007FFFFC0000003FFFFF
310
FFC0000003FFFFF800000000000000007F80000000000001FFFFFE0000003FFF
310
FFFFFFFE0000003FFFFFFF0003FFFFFFFFFFFF0000003FFFF000FFFF800000FF
310
FFF0001FFFFF0003FFFFE0003F80007FFFFF000001FFFFFFFFF800001FFFFFF8
310
00000000000000007F80000000000001FFFFFFC00001FFFFFFFFFFFFC00001FF
310
FFFFFF0003FFFFFFFFFFFFC00000FFFFF000FFFFF8000FFFFFFFFFFFFFFFFFFF
310
FFFFFFFFFFFFFFFFFFFFF0001FFFFFFFFFFF0000FFFFFFF80000000000000000
310
7FFFFFFFFFFFFFFFFFFFFFFC001FFFFFFFFFFFFFFC001FFFFFFFFFFFFFFFFFFF
310
FFFFFFFC001FFFFFF000FFFFFFFFFFFFFFFFFFFFFFFFFFFFFFFFFFFFFFFFFFFF
310
FFFFFFFFFFFFFFFFFFFFFFFFFFFFFFFFFFFFFFFFFFFFFFFFFFFFFFFFFFFFFFFF
310
FFFFFFFFFFFFFFFFFFFFFFFFFFFFFFFFFFFFFFFFFFFFFFFFFFFFFFFFFFFFFFFF
310
F000FFFFFFFFFFFFFFFFFFFFFFFFFFFFFFFFFFFFFFFFFFFFFFFFFFFFFFFFFFFF
310
FFFFFFFFFFFFFFFFFFFFFFFFFFFFFFFFFFFFFFFFFFFFFFFFFFFFFFFFFFFFFFFF
310
FFFFFFFFFFFFFFFFFFFFFFFFFFFFFFFFFFFFFFFFFFFFFFFFF000FFFFFFFFFFFF
310
FFFFFFFFFFFFFFFFFFFFFFFFFFFFFFFFFFFFFFFFFFFFFFFFFFFFFFFFFFFFFFFF
310
FFFFFFFFFFFFFFFFFFFFFFFFFFFFFFFFFFFFFFFFFFFFFFFFFFFFFFFFFFFFFFFF
310
FFFFFFFFFFFFFFFFFFFFFFFFFFFFFFFFF000FFFFFFFFFFFFFFFFFFFFFFFFFFFF
310
FFFFFFFFFFFFFFFFFFFFFFFFFFFFFFFFFFFFFFFFFFFFFFFFFFFFFFFFFFFFFFFF
310
FFFFFFFFFFFFFFFFFFFFFFFFFFFFFFFFFFFFFFFFFFFFFFFFFFFFFFFFFFFFFFFF
310
FFFFFFFFFFFFFFFFF000FFFFFFFFFFFFFFFFFFFFFFFFFFFFFFFFFFFFFFFFFFFF
310
FFFFFFFFFFFFFFFFFFFFFFFFFFFFFFFFFFFFFFFFFFFFFFFFFFFFFFFFFFFFFFFF
310
FFFFFFFFFFFFFFFFFFFFFFFFFFFFFFFFFFFFFFFFFFFFFFFFFFFFFFFFFFFFFFFF
310
F000FFFFFFFFFFFFFFFFFFFFFFFFFFFFFFFFFFFFFFFFFFFFFFFFFFFFFFFFFFFF
310
FFFFFFFFFFFFFFFFFFFFFFFFFFFFFFFFFFFFFFFFFFFFFFFFFFFFFFFFFFFFFFFF
310
FFFFFFFFFFFFFFFFFFFFFFFFFFFFFFFFFFFFFFFFFFFFFFFFF000FFFFFFFFFFFF
310
FFFFFFFFFFFFFFFFFFFFFFFFFFFFFFFFFFFFFFFFFFFFFFFFFFFFFFFFFFFFFFFF
310
FFFFFFFFFFFFFFFFFFFFFFFFFFFFFFFFFFFFFFFFFFFFFFFFFFFFFFFFFFFFFFFF
310
FFFFFFFFFFFFFFFFFFFFFFFFFFFFFFFFF000FFFFFFFFFFFFFFFFFFFFFFFFFFFF
310
FFFFFFFFFFFFFFFFFFFFFFFFFFFFFFFFFFFFFFFFFFFFFFFFFFFFFFFFFFFFFFFF
310
FFFFFFFFFFFFFFFFFFFFFFFFFFFFFFFFFFFFFFFFFFFFFFFFFFFFFFFFFFFFFFFF
310
FFFFFFFFFFFFFFFFF000FFFFFFFFFFFFFFFFFFFFFFFFFFFFFFFFFFFFFFFFFFFF
310
FFFFFFFFFFFFFFFFFFFFFFFFFFFFFFFFFFFFFFFFFFFFFFFFFFFFFFFFFFFFFFFF
310
FFFFFFFFFFFFFFFFFFFFFFFFFFFFFFFFFFFFFFFFFFFFFFFFFFFFFFFFFFFFFFFF
310
F000FFFFFFFFFFFFFFFFFFFFFFFFFFFFFFFFFFFFFFFFFFFFFFFFFFFFFFFFFFFF
310
FFFFFFFFFFFFFFFFFFFFFFFFFFFFFFFFFFFFFFFFFFFFFFFFFFFFFFFFFFFFFFFF
310
FFFFFFFFFFFFFFFFFFFFFFFFFFFFFFFFFFFFFFFFFFFFFFFFF000FFFFFFFFFFFF
310
FFFFFFFFFFFFFFFFFFFFFFFFFFFFFFFFFFFFFFFFFFFFFFFFFFFFFFFFFFFFFFFF
310
FFFFFFFFFFFFFFFFFFFFFFFFFFFFFFFFFFFFFFFFFFFFFFFFFFFFFFFFFFFFFFFF
310
FFFFFFFFFFFFFFFFFFFFFFFFFFFFFFFFF000FFFFFFFFFFFFFFFFFFFFFFFFFFFF
310
FFFFFFFFFFFFFFFFFFFFFFFFFFFFFFFFFFFFFFFFFFFFFFFFFFFFFFFFFFFFFFFF
310
FFFFFFFFFFFFFFFFFFFFFFFFFFFFFFFFFFFFFFFFFFFFFFFFFFFFFFFFFFFFFFFF
310
FFFFFFFFFFFFFFFFF000FFFFFFFFFFFFFFFFFFFFFFFFFFFFFFFFFFFFFFFFFFFF
310
FFFFFFFFFFFFFFFFFFFFFFFFFFFFFFFFFFFFFFFFFFFFFFFFFFFFFFFFFFFFFFFF
310
FFFFFFFFFFFFFFFFFFFFFFFFFFFFFFFFFFFFFFFFFFFFFFFFFFFFFFFFFFFFFFFF
310
F000FFFFFFFFFFFFFFFFFFFFFFFFFFFFFFFFFFFFFFFFFFFFFFFFFFFFFFFFFFFF
310
FFFFFFFFFFFFFFFFFFFFFFFFFFFFFFFFFFFFFFFFFFFFFFFFFFFFFFFFFFFFFFFF
310
FFFFFFFFFFFFFFFFFFFFFFFFFFFFFFFFFFFFFFFFFFFFFFFFF000FFFFFFFFFFFF
310
FFFFFFFFFFFFFFFFFFFFFFFFFFFFFFFFFFFFFFFFFFFFFFFFFFFFFFFFFFFFFFFF
310
FFFFFFFFFFFFFFFFFFFFFFFFFFFFFFFFFFFFFFFFFFFFFFFFFFFFFFFFFFFFFFFF
310
FFFFFFFFFFFFFFFFFFFFFFFFFFFFFFFFF000FFFFFFFFFFFFFFFFFFFFFFFFFFFF
310
FFFFFFFFFFFFFFFFFFFFFFFFFFFFFFFFFFFFFFFFFFFFFFFFFFFFFFFFFFFFFFFF
310
FFFFFFFFFFFFFFFFFFFFFFFFFFFFFFFFFFFFFFFFFFFFFFFFFFFFFFFFFFFFFFFF
310
FFFFFFFFFFFFFFFFF000FFFFFFFFFFFFFFFFFFFFFFFFFFFFFFFFFFFFFFFFFFFF
310
FFFFFFFFFFFFFFFFFFFFFFFFFFFFFFFFFFFFFFFFFFFFFFFFFFFFFFFFFFFFFFFF
310
FFFFFFFFFFFFFFFFFFFFFFFFFFFFFFFFFFFFFFFFFFFFFFFFFFFFFFFFFFFFFFFF
310
F000FFFFFFFFFFFFFFFFFFFFFFFFFFFFFFFFFFFFFFFFFFFFFFFFFFFFFFFFFFFF
310
FFFFFFFFFFFFFFFFFFFFFFFFFFFFFFFFFFFFFFFFFFFFFFFFFFFFFFFFFFFFFFFF
310
FFFFFFFFFFFFFFFFFFFFFFFFFFFFFFFFFFFFFFFFFFFFFFFFF000FFFFFFFFFFFF
310
FFFFFFFFFFFFFFFFFFFFFFFFFFFFFFFFFFFFFFFFFFFFFFFFFFFFFFFFFFFFFFFF
310
FFFFFFFFFFFFFFFFFFFFFFFFFFFFFFFFFFFFFFFFFFFFFFFFFFFFFFFFFFFFFFFF
310
FFFFFFFFFFFFFFFFFFFFFFFFFFFFFFFFF000FFFFFFFFFFFFFFFFFFFFFFFFFFFF
310
FFFFFFFFFFFFFFFFFFFFFFFFFFFFFFFFFFFFFFFFFFFFFFFFFFFFFFFFFFFFFFFF
310
FFFFFFFFFFFFFFFFFFFFFFFFFFFFFFFFFFFFFFFFFFFFFFFFFFFFFFFFFFFFFFFF
310
FFFFFFFFFFFFFFFFF000FFFFFFFFFFFFFFFFFFFFFFFFFFFFFFFFFFFFFFFFFFFF
310
FFFFFFFFFFFFFFFFFFFFFFFFFFFFFFFFFFFFFFFFFFFFFFFFFFFFFFFFFFFFFFFF
310
FFFFFFFFFFFFFFFFFFFFFFFFFFFFFFFFFFFFFFFFFFFFFFFFFFFFFFFFFFFFFFFF
310
F000FFFFFFFFFFFFFFFFFFFFFFFFFFFFFFFFFFFFFFFFFFFFFFFFFFFFFFFFFFFF
310
FFFFFFFFFFFFFFFFFFFFFFFFFFFFFFFFFFFFFFFFFFFFFFFFFFFFFFFFFFFFFFFF
310
FFFFFFFFFFFFFFFFFFFFFFFFFFFFFFFFFFFFFFFFFFFFFFFFF000FFFFFFFFFFFF
310
FFFFFFFFFFFFFFFFFFFFFFFFFFFFFFFFFFFFFFFFFFFFFFFFFFFFFFFFFFFFFFFF
310
FFFFFFFFFFFFFFFFFFFFFFFFFFFFFFFFFFFFFFFFFFFFFFFFFFFFFFFFFFFFFFFF
310
FFFFFFFFFFFFFFFFFFFFFFFFFFFFFFFFF0000000000000000000000000000000
310
00000000000000000000000042006C00610063006B0000000000000000000000
310
0000000000000000000000000000000000000000000000000000000000000000
310
0000000000000000000000000000FFFFFFFFFFFFFFFFFFFFFFFFFFFFFFFFFFFF
310
FFFFFFFFFFFFFFFFFFFFFFFFFFFFFFFFFFFFFFFFFFFFFFFFFFFFFFFFFFFFFFFF
310
FFFFFFFFFFFFFFFFFFFFFFFF6476000800000000FFFFFFFF20FF202026000000
310
1E00000008000000060000000000000011000000200000008403000000000000
310
6000000060000000200002FB200020000000002B00FFFFFF40002200E8030000
310
A80400001C020000AF0000804A20004000000000000000000100000000000000
310
616C000800000000E40100007001000002000000270000001100000000000000
310
00000000BC0200000000000003020122420065006C006C00200047006F007400
310
680069006300200053007400640020004C006900670068007400000000000000
310
00000000000000000000000000000000420065006C006C0047006F0074006800
310
690063005300740064002D0042006F006C006400000000000000000000000000
310
0000000000000000000000000000000000000000000000000000000000000000
310
0000000000000000000000000000000000000000000000000000000000000000
  1
OLE
  0
ENDSEC
  0
SECTION
  2
OBJECTS
  0
DICTIONARY
  5
C
330
0
100
AcDbDictionary
281
     1
  3
ACAD_GROUP
350
D
  3
ACAD_LAYOUT
350
1A
  3
ACAD_MLEADERSTYLE
350
2D7
  3
ACAD_MLINESTYLE
350
17
  3
ACAD_PLOTSETTINGS
350
19
  3
ACAD_PLOTSTYLENAME
350
E
  3
ACAD_TABLESTYLE
350
2D6
  3
ACAD_VISUALSTYLE
350
2A
  3
AcDbVariableDictionary
350
2D8
  0
DICTIONARY
  5
D
102
{ACAD_REACTORS
330
C
102
}
330
C
100
AcDbDictionary
281
     1
  0
DICTIONARY
  5
1A
102
{ACAD_REACTORS
330
C
102
}
330
C
100
AcDbDictionary
281
     1
  3
Layout1
350
1E
  3
Layout2
350
26
  3
Model
350
22
  0
DICTIONARY
  5
2D7
102
{ACAD_REACTORS
330
C
102
}
330
C
100
AcDbDictionary
281
     1
  0
DICTIONARY
  5
17
102
{ACAD_REACTORS
330
C
102
}
330
C
100
AcDbDictionary
281
     1
  3
Standard
350
18
  0
DICTIONARY
  5
19
102
{ACAD_REACTORS
330
C
102
}
330
C
100
AcDbDictionary
281
     1
  0
ACDBDICTIONARYWDFLT
  5
E
102
{ACAD_REACTORS
330
C
102
}
330
C
100
AcDbDictionary
281
     1
  3
Normal
350
F
100
AcDbDictionaryWithDefault
340
F
  0
DICTIONARY
  5
2D6
102
{ACAD_REACTORS
330
C
102
}
330
C
100
AcDbDictionary
281
     1
  0
DICTIONARY
  5
2A
102
{ACAD_REACTORS
330
C
102
}
330
C
100
AcDbDictionary
281
     1
  3
2dWireframe
350
2F
  3
3D Hidden
350
31
  3
3dWireframe
350
30
  3
Basic
350
32
  3
Brighten
350
36
  3
ColorChange
350
3A
  3
Conceptual
350
34
  3
Dim
350
35
  3
Facepattern
350
39
  3
Flat
350
2B
  3
FlatWithEdges
350
2C
  3
Gouraud
350
2D
  3
GouraudWithEdges
350
2E
  3
Linepattern
350
38
  3
Realistic
350
33
  3
Thicken
350
37
  0
DICTIONARY
  5
2D8
102
{ACAD_REACTORS
330
C
102
}
330
C
100
AcDbDictionary
281
     1
  3
PSOLHEIGHT
350
2DA
  3
PSOLWIDTH
350
2D9
  0
LAYOUT
  5
1E
102
{ACAD_REACTORS
330
1A
102
}
330
1A
100
AcDbPlotSettings
  1

  2
none_device
  4

  6

 40
0.0
 41
0.0
 42
0.0
 43
0.0
 44
0.0
 45
0.0
 46
0.0
 47
0.0
 48
0.0
 49
0.0
140
0.0
141
0.0
142
1.0
143
1.0
 70
   688
 72
     0
 73
     0
 74
     5
  7

 75
    16
147
1.0
148
0.0
149
0.0
100
AcDbLayout
  1
Layout1
 70
     1
 71
     1
 10
0.0
 20
0.0
 11
420.0
 21
297.0
 12
0.0
 22
0.0
 32
0.0
 14
1.0000000000E+20
 24
1.0000000000E+20
 34
1.0000000000E+20
 15
-1.0000000000E+20
 25
-1.0000000000E+20
 35
-1.0000000000E+20
146
0.0
 13
0.0
 23
0.0
 33
0.0
 16
1.0
 26
0.0
 36
0.0
 17
0.0
 27
1.0
 37
0.0
 76
     0
330
1B
  0
LAYOUT
  5
26
102
{ACAD_REACTORS
330
1A
102
}
330
1A
100
AcDbPlotSettings
  1

  2
none_device
  4

  6

 40
0.0
 41
0.0
 42
0.0
 43
0.0
 44
0.0
 45
0.0
 46
0.0
 47
0.0
 48
0.0
 49
0.0
140
0.0
141
0.0
142
1.0
143
1.0
 70
   688
 72
     0
 73
     0
 74
     5
  7

 75
    16
147
1.0
148
0.0
149
0.0
100
AcDbLayout
  1
Layout2
 70
     1
 71
     2
 10
0.0
 20
0.0
 11
0.0
 21
0.0
 12
0.0
 22
0.0
 32
0.0
 14
0.0
 24
0.0
 34
0.0
 15
0.0
 25
0.0
 35
0.0
146
0.0
 13
0.0
 23
0.0
 33
0.0
 16
1.0
 26
0.0
 36
0.0
 17
0.0
 27
1.0
 37
0.0
 76
     0
330
23
  0
LAYOUT
  5
22
102
{ACAD_REACTORS
330
1A
102
}
330
1A
100
AcDbPlotSettings
  1

  2
none_device
  4

  6

 40
0.0
 41
0.0
 42
0.0
 43
0.0
 44
0.0
 45
0.0
 46
0.0
 47
0.0
 48
0.0
 49
0.0
140
0.0
141
0.0
142
1.0
143
1.0
 70
  1712
 72
     0
 73
     0
 74
     0
  7

 75
     0
147
1.0
148
0.0
149
0.0
100
AcDbLayout
  1
Model
 70
     1
 71
     0
 10
0.0
 20
0.0
 11
297.0
 21
210.0
 12
0.0
 22
0.0
 32
0.0
 14
0.0
 24
0.0
 34
0.0
 15
297.0
 25
210.0
 35
0.0
146
0.0
 13
0.0
 23
0.0
 33
0.0
 16
1.0
 26
0.0
 36
0.0
 17
0.0
 27
1.0
 37
0.0
 76
     0
330
1F
331
29
  0
MLINESTYLE
  5
18
102
{ACAD_REACTORS
330
17
102
}
330
17
100
AcDbMlineStyle
  2
Standard
 70
     0
  3

 62
   256
 51
90.0
 52
90.0
 71
     2
 49
0.5
 62
   256
  6
BYLAYER
 49
-0.5
 62
   256
  6
BYLAYER
  0
ACDBPLACEHOLDER
  5
F
102
{ACAD_REACTORS
330
E
102
}
330
E
  0
VISUALSTYLE
  5
2F
102
{ACAD_REACTORS
330
2A
102
}
330
2A
100
AcDbVisualStyle
  2
2dWireframe
 70
     4
 71
     0
 72
     2
 73
     0
 90
        0
 40
-0.6
 41
-30.0
 62
     5
 63
     7
 74
     1
 91
        4
 64
     7
 65
   257
 75
     1
175
     1
 42
1.0
 92
        0
 66
   257
 43
1.0
 76
     1
 77
     6
 78
     2
 67
     7
 79
     5
170
     0
171
     0
290
     0
174
     0
 93
        1
 44
0.0
173
     0
291
     0
 45
0.0
1001
ACAD
1000
AcDbSavedByObjectVersion
1070
     0
  0
VISUALSTYLE
  5
31
102
{ACAD_REACTORS
330
2A
102
}
330
2A
100
AcDbVisualStyle
  2
3D Hidden
 70
     6
 71
     1
 72
     2
 73
     2
 90
        0
 40
-0.6
 41
-30.0
 62
     5
 63
     7
 74
     2
 91
        2
 64
     7
 65
   257
 75
     2
175
     1
 42
40.0
 92
        0
 66
   257
 43
1.0
 76
     1
 77
     6
 78
     2
 67
     7
 79
     3
170
     0
171
     0
290
     0
174
     0
 93
        1
 44
0.0
173
     0
291
     0
 45
0.0
1001
ACAD
1000
AcDbSavedByObjectVersion
1070
     0
  0
VISUALSTYLE
  5
30
102
{ACAD_REACTORS
330
2A
102
}
330
2A
100
AcDbVisualStyle
  2
3dWireframe
 70
     5
 71
     0
 72
     2
 73
     0
 90
        0
 40
-0.6
 41
-30.0
 62
     5
 63
     7
 74
     1
 91
        4
 64
     7
 65
   257
 75
     1
175
     1
 42
1.0
 92
        0
 66
   257
 43
1.0
 76
     1
 77
     6
 78
     2
 67
     7
 79
     5
170
     0
171
     0
290
     0
174
     0
 93
        1
 44
0.0
173
     0
291
     0
 45
0.0
1001
ACAD
1000
AcDbSavedByObjectVersion
1070
     0
  0
VISUALSTYLE
  5
32
102
{ACAD_REACTORS
330
2A
102
}
330
2A
100
AcDbVisualStyle
  2
Basic
 70
     7
 71
     1
 72
     0
 73
     1
 90
        0
 40
-0.6
 41
-30.0
 62
     5
 63
     7
 74
     0
 91
        4
 64
     7
 65
   257
 75
     1
175
     1
 42
1.0
 92
        8
 66
     7
 43
1.0
 76
     1
 77
     6
 78
     2
 67
     7
 79
     5
170
     0
171
     0
290
     0
174
     0
 93
        1
 44
0.0
173
     0
291
     1
 45
0.0
1001
ACAD
1000
AcDbSavedByObjectVersion
1070
     0
  0
VISUALSTYLE
  5
36
102
{ACAD_REACTORS
330
2A
102
}
330
2A
100
AcDbVisualStyle
  2
Brighten
 70
    12
 71
     2
 72
     2
 73
     0
 90
        0
 40
-0.6
 41
-30.0
 62
     5
 63
     7
 74
     1
 91
        4
 64
     7
 65
   257
 75
     1
175
     1
 42
1.0
 92
        8
 66
     7
 43
1.0
 76
     1
 77
     6
 78
     2
 67
     7
 79
     5
170
     0
171
     0
290
     0
174
     0
 93
        1
 44
50.0
173
     0
291
     1
 45
0.0
1001
ACAD
1000
AcDbSavedByObjectVersion
1070
     0
  0
VISUALSTYLE
  5
3A
102
{ACAD_REACTORS
330
2A
102
}
330
2A
100
AcDbVisualStyle
  2
ColorChange
 70
    16
 71
     2
 72
     2
 73
     3
 90
        0
 40
-0.6
 41
-30.0
 62
     5
 63
     8
 74
     1
 91
        4
 64
     7
 65
   257
 75
     1
175
     1
 42
1.0
 92
        8
 66
     8
 43
1.0
 76
     1
 77
     6
 78
     2
 67
     7
 79
     5
170
     0
171
     0
290
     0
174
     0
 93
        1
 44
0.0
173
     0
291
     1
 45
0.0
1001
ACAD
1000
AcDbSavedByObjectVersion
1070
     0
  0
VISUALSTYLE
  5
34
102
{ACAD_REACTORS
330
2A
102
}
330
2A
100
AcDbVisualStyle
  2
Conceptual
 70
     9
 71
     3
 72
     2
 73
     0
 90
        0
 40
-0.6
 41
-30.0
 62
     5
 63
     7
 74
     2
 91
        2
 64
     7
 65
   257
 75
     1
175
     1
 42
40.0
 92
        8
 66
     7
 43
1.0
 76
     1
 77
     6
 78
     2
 67
     7
 79
     3
170
     0
171
     0
290
     0
174
     0
 93
        1
 44
0.0
173
     0
291
     0
 45
0.0
1001
ACAD
1000
AcDbSavedByObjectVersion
1070
     0
  0
VISUALSTYLE
  5
35
102
{ACAD_REACTORS
330
2A
102
}
330
2A
100
AcDbVisualStyle
  2
Dim
 70
    11
 71
     2
 72
     2
 73
     0
 90
        0
 40
-0.6
 41
-30.0
 62
     5
 63
     7
 74
     1
 91
        4
 64
     7
 65
   257
 75
     1
175
     1
 42
1.0
 92
        8
 66
     7
 43
1.0
 76
     1
 77
     6
 78
     2
 67
     7
 79
     5
170
     0
171
     0
290
     0
174
     0
 93
        1
 44
-50.0
173
     0
291
     1
 45
0.0
1001
ACAD
1000
AcDbSavedByObjectVersion
1070
     0
  0
VISUALSTYLE
  5
39
102
{ACAD_REACTORS
330
2A
102
}
330
2A
100
AcDbVisualStyle
  2
Facepattern
 70
    15
 71
     2
 72
     2
 73
     0
 90
        0
 40
-0.6
 41
-30.0
 62
     5
 63
     7
 74
     1
 91
        4
 64
     7
 65
   257
 75
     1
175
     1
 42
1.0
 92
        8
 66
     7
 43
1.0
 76
     1
 77
     6
 78
     2
 67
     7
 79
     5
170
     0
171
     0
290
     0
174
     0
 93
        1
 44
0.0
173
     0
291
     1
 45
0.0
1001
ACAD
1000
AcDbSavedByObjectVersion
1070
     0
  0
VISUALSTYLE
  5
2B
102
{ACAD_REACTORS
330
2A
102
}
330
2A
100
AcDbVisualStyle
  2
Flat
 70
     0
 71
     2
 72
     1
 73
     1
 90
        2
 40
-0.6
 41
30.0
 62
     5
 63
     7
 74
     0
 91
        4
 64
     7
 65
   257
 75
     1
175
     1
 42
1.0
 92
        8
 66
     7
 43
1.0
 76
     1
 77
     6
 78
     2
 67
     7
 79
     5
170
     0
171
     0
290
     0
174
     0
 93
       13
 44
0.0
173
     0
291
     1
 45
0.0
1001
ACAD
1000
AcDbSavedByObjectVersion
1070
     0
  0
VISUALSTYLE
  5
2C
102
{ACAD_REACTORS
330
2A
102
}
330
2A
100
AcDbVisualStyle
  2
FlatWithEdges
 70
     1
 71
     2
 72
     1
 73
     1
 90
        2
 40
-0.6
 41
30.0
 62
     5
 63
     7
 74
     1
 91
        4
 64
     7
 65
   257
 75
     1
175
     1
 42
1.0
 92
        0
 66
   257
 43
1.0
 76
     1
 77
     6
 78
     2
 67
     7
 79
     5
170
     0
171
     0
290
     0
174
     0
 93
       13
 44
0.0
173
     0
291
     1
 45
0.0
1001
ACAD
1000
AcDbSavedByObjectVersion
1070
     0
  0
VISUALSTYLE
  5
2D
102
{ACAD_REACTORS
330
2A
102
}
330
2A
100
AcDbVisualStyle
  2
Gouraud
 70
     2
 71
     2
 72
     2
 73
     1
 90
        2
 40
-0.6
 41
30.0
 62
     5
 63
     7
 74
     0
 91
        4
 64
     7
 65
   257
 75
     1
175
     1
 42
1.0
 92
        0
 66
     7
 43
1.0
 76
     1
 77
     6
 78
     2
 67
     7
 79
     5
170
     0
171
     0
290
     0
174
     0
 93
       13
 44
0.0
173
     0
291
     1
 45
0.0
1001
ACAD
1000
AcDbSavedByObjectVersion
1070
     0
  0
VISUALSTYLE
  5
2E
102
{ACAD_REACTORS
330
2A
102
}
330
2A
100
AcDbVisualStyle
  2
GouraudWithEdges
 70
     3
 71
     2
 72
     2
 73
     1
 90
        2
 40
-0.6
 41
30.0
 62
     5
 63
     7
 74
     1
 91
        4
 64
     7
 65
   257
 75
     1
175
     1
 42
1.0
 92
        0
 66
   257
 43
1.0
 76
     1
 77
     6
 78
     2
 67
     7
 79
     5
170
     0
171
     0
290
     0
174
     0
 93
       13
 44
0.0
173
     0
291
     1
 45
0.0
1001
ACAD
1000
AcDbSavedByObjectVersion
1070
     0
  0
VISUALSTYLE
  5
38
102
{ACAD_REACTORS
330
2A
102
}
330
2A
100
AcDbVisualStyle
  2
Linepattern
 70
    14
 71
     2
 72
     2
 73
     0
 90
        0
 40
-0.6
 41
-30.0
 62
     5
 63
     7
 74
     1
 91
        4
 64
     7
 65
   257
 75
     7
175
     7
 42
1.0
 92
        8
 66
     7
 43
1.0
 76
     1
 77
     6
 78
     2
 67
     7
 79
     5
170
     0
171
     0
290
     0
174
     0
 93
        1
 44
0.0
173
     0
291
     1
 45
0.0
1001
ACAD
1000
AcDbSavedByObjectVersion
1070
     0
  0
VISUALSTYLE
  5
33
102
{ACAD_REACTORS
330
2A
102
}
330
2A
100
AcDbVisualStyle
  2
Realistic
 70
     8
 71
     2
 72
     2
 73
     0
 90
        0
 40
-0.6
 41
-30.0
 62
     5
 63
     7
 74
     1
 91
        0
 64
     7
 65
   257
 75
     1
175
     1
 42
1.0
 92
        8
 66
     8
 43
1.0
 76
     1
 77
     6
 78
     2
 67
     7
 79
     5
170
     0
171
     0
290
     0
174
     0
 93
       13
 44
0.0
173
     0
291
     0
 45
0.0
1001
ACAD
1000
AcDbSavedByObjectVersion
1070
     0
  0
VISUALSTYLE
  5
37
102
{ACAD_REACTORS
330
2A
102
}
330
2A
100
AcDbVisualStyle
  2
Thicken
 70
    13
 71
     2
 72
     2
 73
     0
 90
        0
 40
-0.6
 41
-30.0
 62
     5
 63
     7
 74
     1
 91
        4
 64
     7
 65
   257
 75
     1
175
     1
 42
1.0
 92
       12
 66
     7
 43
1.0
 76
     1
 77
     6
 78
     2
 67
     7
 79
     5
170
     0
171
     0
290
     0
174
     0
 93
        1
 44
0.0
173
     0
291
     1
 45
0.0
1001
ACAD
1000
AcDbSavedByObjectVersion
1070
     0
  0
DICTIONARYVAR
  5
2DA
102
{ACAD_REACTORS
330
2D8
102
}
330
2D8
100
DictionaryVariables
280
     0
  1
80.000000
  0
DICTIONARYVAR
  5
2D9
102
{ACAD_REACTORS
330
2D8
102
}
330
2D8
100
DictionaryVariables
280
     0
  1
5.000000
  0
ENDSEC
  0
EOF
