  0
SECTION
  2
HEADER
  9
$ACADVER
  1
AC1015
  9
$ACADMAINTVER
 70
     6
  9
$DWGCODEPAGE
  3
ANSI_1252
  9
$INSBASE
 10
0.0
 20
0.0
 30
0.0
  9
$EXTMIN
 10
0.0
 20
0.0
 30
0.0
  9
$EXTMAX
 10
297.0
 20
210.0
 30
0.0
  9
$LIMMIN
 10
0.0
 20
0.0
  9
$LIMMAX
 10
297.0
 20
210.0
  9
$ORTHOMODE
 70
     0
  9
$REGENMODE
 70
     1
  9
$FILLMODE
 70
     1
  9
$QTEXTMODE
 70
     0
  9
$MIRRTEXT
 70
     1
  9
$LTSCALE
 40
1.0
  9
$ATTMODE
 70
     1
  9
$TEXTSIZE
 40
2.0
  9
$TRACEWID
 40
1.0
  9
$TEXTSTYLE
  7
Standard
  9
$CLAYER
  8
0
  9
$CELTYPE
  6
ByLayer
  9
$CECOLOR
 62
   256
  9
$CELTSCALE
 40
1.0
  9
$DISPSILH
 70
     0
  9
$DIMSCALE
 40
1.0
  9
$DIMASZ
 40
3.0
  9
$DIMEXO
 40
0.0
  9
$DIMDLI
 40
3.75
  9
$DIMRND
 40
0.0
  9
$DIMDLE
 40
0.0
  9
$DIMEXE
 40
1.0
  9
$DIMTP
 40
0.0
  9
$DIMTM
 40
0.0
  9
$DIMTXT
 40
2.0
  9
$DIMCEN
 40
2.5
  9
$DIMTSZ
 40
0.0
  9
$DIMTOL
 70
     0
  9
$DIMLIM
 70
     0
  9
$DIMTIH
 70
     1
  9
$DIMTOH
 70
     1
  9
$DIMSE1
 70
     0
  9
$DIMSE2
 70
     0
  9
$DIMTAD
 70
     1
  9
$DIMZIN
 70
     0
  9
$DIMBLK
  1

  9
$DIMASO
 70
     1
  9
$DIMSHO
 70
     1
  9
$DIMPOST
  1

  9
$DIMAPOST
  1

  9
$DIMALT
 70
     0
  9
$DIMALTD
 70
     3
  9
$DIMALTF
 40
0.0393700787
  9
$DIMLFAC
 40
1.0
  9
$DIMTOFL
 70
     1
  9
$DIMTVP
 40
0.0
  9
$DIMTIX
 70
     0
  9
$DIMSOXD
 70
     0
  9
$DIMSAH
 70
     0
  9
$DIMBLK1
  1

  9
$DIMBLK2
  1

  9
$DIMSTYLE
  2
ISO-25
  9
$DIMCLRD
 70
     0
  9
$DIMCLRE
 70
     0
  9
$DIMCLRT
 70
     0
  9
$DIMTFAC
 40
1.0
  9
$DIMGAP
 40
1.524
  9
$DIMJUST
 70
     0
  9
$DIMSD1
 70
     0
  9
$DIMSD2
 70
     0
  9
$DIMTOLJ
 70
     0
  9
$DIMTZIN
 70
     0
  9
$DIMALTZ
 70
     0
  9
$DIMALTTZ
 70
     0
  9
$DIMUPT
 70
     0
  9
$DIMDEC
 70
     2
  9
$DIMTDEC
 70
     3
  9
$DIMALTU
 70
     2
  9
$DIMALTTD
 70
     3
  9
$DIMTXSTY
  7
Standard
  9
$DIMAUNIT
 70
     0
  9
$DIMADEC
 70
     2
  9
$DIMALTRND
 40
0.0
  9
$DIMAZIN
 70
     0
  9
$DIMDSEP
 70
    44
  9
$DIMATFIT
 70
     3
  9
$DIMFRAC
 70
     0
  9
$DIMLDRBLK
  1

  9
$DIMLUNIT
 70
     2
  9
$DIMLWD
 70
    -2
  9
$DIMLWE
 70
    -2
  9
$DIMTMOVE
 70
     0
  9
$LUNITS
 70
     2
  9
$LUPREC
 70
     2
  9
$SKETCHINC
 40
1.0
  9
$FILLETRAD
 40
10.0
  9
$AUNITS
 70
     0
  9
$AUPREC
 70
     2
  9
$MENU
  1
.
  9
$ELEVATION
 40
0.0
  9
$PELEVATION
 40
0.0
  9
$THICKNESS
 40
0.0
  9
$LIMCHECK
 70
     0
  9
$CHAMFERA
 40
10.0
  9
$CHAMFERB
 40
10.0
  9
$CHAMFERC
 40
20.0
  9
$CHAMFERD
 40
0.0
  9
$SKPOLY
 70
     0
  9
$TDCREATE
 40
2455629.488289259
  9
$TDUCREATE
 40
2455629.446622592
  9
$TDUPDATE
 40
2455629.488289271
  9
$TDUUPDATE
 40
2455629.446622604
  9
$TDINDWG
 40
0.0000000116
  9
$TDUSRTIMER
 40
0.0000000116
  9
$USRTIMER
 70
     1
  9
$ANGBASE
 50
0.0
  9
$ANGDIR
 70
     0
  9
$PDMODE
 70
     0
  9
$PDSIZE
 40
-1.0
  9
$PLINEWID
 40
0.0
  9
$SPLFRAME
 70
     0
  9
$SPLINETYPE
 70
     6
  9
$SPLINESEGS
 70
     8
  9
$HANDSEED
  5
2CB
  9
$SURFTAB1
 70
     6
  9
$SURFTAB2
 70
     6
  9
$SURFTYPE
 70
     6
  9
$SURFU
 70
     6
  9
$SURFV
 70
     6
  9
$UCSBASE
  2

  9
$UCSNAME
  2

  9
$UCSORG
 10
0.0
 20
0.0
 30
0.0
  9
$UCSXDIR
 10
1.0
 20
0.0
 30
0.0
  9
$UCSYDIR
 10
0.0
 20
1.0
 30
0.0
  9
$UCSORTHOREF
  2

  9
$UCSORTHOVIEW
 70
     0
  9
$UCSORGTOP
 10
0.0
 20
0.0
 30
0.0
  9
$UCSORGBOTTOM
 10
0.0
 20
0.0
 30
0.0
  9
$UCSORGLEFT
 10
0.0
 20
0.0
 30
0.0
  9
$UCSORGRIGHT
 10
0.0
 20
0.0
 30
0.0
  9
$UCSORGFRONT
 10
0.0
 20
0.0
 30
0.0
  9
$UCSORGBACK
 10
0.0
 20
0.0
 30
0.0
  9
$PUCSBASE
  2

  9
$PUCSNAME
  2

  9
$PUCSORG
 10
0.0
 20
0.0
 30
0.0
  9
$PUCSXDIR
 10
1.0
 20
0.0
 30
0.0
  9
$PUCSYDIR
 10
0.0
 20
1.0
 30
0.0
  9
$PUCSORTHOREF
  2

  9
$PUCSORTHOVIEW
 70
     0
  9
$PUCSORGTOP
 10
0.0
 20
0.0
 30
0.0
  9
$PUCSORGBOTTOM
 10
0.0
 20
0.0
 30
0.0
  9
$PUCSORGLEFT
 10
0.0
 20
0.0
 30
0.0
  9
$PUCSORGRIGHT
 10
0.0
 20
0.0
 30
0.0
  9
$PUCSORGFRONT
 10
0.0
 20
0.0
 30
0.0
  9
$PUCSORGBACK
 10
0.0
 20
0.0
 30
0.0
  9
$USERI1
 70
     0
  9
$USERI2
 70
     0
  9
$USERI3
 70
     0
  9
$USERI4
 70
     0
  9
$USERI5
 70
     0
  9
$USERR1
 40
0.0
  9
$USERR2
 40
0.0
  9
$USERR3
 40
0.0
  9
$USERR4
 40
0.0
  9
$USERR5
 40
0.0
  9
$WORLDVIEW
 70
     1
  9
$SHADEDGE
 70
     3
  9
$SHADEDIF
 70
    70
  9
$TILEMODE
 70
     1
  9
$MAXACTVP
 70
    64
  9
$PINSBASE
 10
0.0
 20
0.0
 30
0.0
  9
$PLIMCHECK
 70
     0
  9
$PEXTMIN
 10
1.0000000000E+20
 20
1.0000000000E+20
 30
1.0000000000E+20
  9
$PEXTMAX
 10
-1.0000000000E+20
 20
-1.0000000000E+20
 30
-1.0000000000E+20
  9
$PLIMMIN
 10
0.0
 20
0.0
  9
$PLIMMAX
 10
420.0
 20
297.0
  9
$UNITMODE
 70
     0
  9
$VISRETAIN
 70
     1
  9
$PLINEGEN
 70
     0
  9
$PSLTSCALE
 70
     1
  9
$TREEDEPTH
 70
  3020
  9
$CMLSTYLE
  2
Standard
  9
$CMLJUST
 70
     0
  9
$CMLSCALE
 40
20.0
  9
$PROXYGRAPHICS
 70
     1
  9
$MEASUREMENT
 70
     1
  9
$CELWEIGHT
370
    -1
  9
$ENDCAPS
280
     0
  9
$JOINSTYLE
280
     0
  9
$LWDISPLAY
290
     1
  9
$INSUNITS
 70
     4
  9
$HYPERLINKBASE
  1

  9
$STYLESHEET
  1

  9
$XEDIT
290
     1
  9
$CEPSNTYPE
380
     0
  9
$PSTYLEMODE
290
     1
  9
$FINGERPRINTGUID
  2
{2AB883C0-4B32-4892-9F27-26B8D7571D5D}
  9
$VERSIONGUID
  2
{FAEB1C32-E019-11D5-929B-00C0DF256EC4}
  9
$EXTNAMES
290
     1
  9
$PSVPSCALE
 40
0.0
  9
$OLESTARTUP
290
     0
  0
ENDSEC
  0
SECTION
  2
CLASSES
  0
CLASS
  1
ACDBDICTIONARYWDFLT
  2
AcDbDictionaryWithDefault
  3
ObjectDBX Classes
 90
        0
280
     0
281
     0
  0
CLASS
  1
VISUALSTYLE
  2
AcDbVisualStyle
  3
ObjectDBX Classes
 90
     4095
280
     0
281
     0
  0
CLASS
  1
DICTIONARYVAR
  2
AcDbDictionaryVar
  3
ObjectDBX Classes
 90
        0
280
     0
281
     0
  0
CLASS
  1
ACDBPLACEHOLDER
  2
AcDbPlaceHolder
  3
ObjectDBX Classes
 90
        0
280
     0
281
     0
  0
CLASS
  1
LAYOUT
  2
AcDbLayout
  3
ObjectDBX Classes
 90
        0
280
     0
281
     0
  0
ENDSEC
  0
SECTION
  2
TABLES
  0
TABLE
  2
VPORT
  5
8
330
0
100
AcDbSymbolTable
 70
     1
  0
VPORT
  5
29
330
8
100
AcDbSymbolTableRecord
100
AcDbViewportTableRecord
  2
*Active
 70
     0
 10
0.0
 20
0.0
 11
1.0
 21
1.0
 12
148.5
 22
105.0
 13
0.0
 23
0.0
 14
10.0
 24
10.0
 15
10.0
 25
10.0
 16
0.0
 26
0.0
 36
1.0
 17
0.0
 27
0.0
 37
0.0
 40
210.0
 41
1.4142857143
 42
50.0
 43
0.0
 44
0.0
 50
0.0
 51
0.0
 71
     0
 72
  2000
 73
     1
 74
     3
 75
     0
 76
     0
 77
     0
 78
     0
281
     0
 65
     1
110
0.0
120
0.0
130
0.0
111
1.0
121
0.0
131
0.0
112
0.0
122
1.0
132
0.0
 79
     0
146
0.0
  0
ENDTAB
  0
TABLE
  2
LTYPE
  5
5
330
0
100
AcDbSymbolTable
 70
     6
  0
LTYPE
  5
14
330
5
100
AcDbSymbolTableRecord
100
AcDbLinetypeTableRecord
  2
ByBlock
 70
     0
  3

 72
    65
 73
     0
 40
0.0
  0
LTYPE
  5
15
330
5
100
AcDbSymbolTableRecord
100
AcDbLinetypeTableRecord
  2
ByLayer
 70
     0
  3

 72
    65
 73
     0
 40
0.0
  0
LTYPE
  5
16
330
5
100
AcDbSymbolTableRecord
100
AcDbLinetypeTableRecord
  2
Continuous
 70
     0
  3
Solid line
 72
    65
 73
     0
 40
0.0
  0
LTYPE
  5
3B
330
5
100
AcDbSymbolTableRecord
100
AcDbLinetypeTableRecord
  2
HIDDEN
 70
     0
  3
Hidden __ __ __ __ __ __ __ __ __ __ __ __ __ __
 72
    65
 73
     2
 40
1.905
 49
1.27
 74
     0
 49
-0.635
 74
     0
  0
LTYPE
  5
3C
330
5
100
AcDbSymbolTableRecord
100
AcDbLinetypeTableRecord
  2
PHANTOM
 70
     0
  3
Phantom ______  __  __  ______  __  __  ______
 72
    65
 73
     6
 40
12.7
 49
6.35
 74
     0
 49
-1.27
 74
     0
 49
1.27
 74
     0
 49
-1.27
 74
     0
 49
1.27
 74
     0
 49
-1.27
 74
     0
  0
LTYPE
  5
3D
330
5
100
AcDbSymbolTableRecord
100
AcDbLinetypeTableRecord
  2
CENTER
 70
     0
  3
Center ____ _ ____ _ ____ _ ____ _ ____ _ ____
 72
    65
 73
     4
 40
10.16
 49
6.35
 74
     0
 49
-1.27
 74
     0
 49
1.27
 74
     0
 49
-1.27
 74
     0
  0
LTYPE
  5
3E
330
5
100
AcDbSymbolTableRecord
100
AcDbLinetypeTableRecord
  2
CENTERX2
 70
     0
  3
Center (2x) ________  __  ________  __  _____
 72
    65
 73
     4
 40
20.32
 49
12.7
 74
     0
 49
-2.54
 74
     0
 49
2.54
 74
     0
 49
-2.54
 74
     0
  0
LTYPE
  5
3F
330
5
100
AcDbSymbolTableRecord
100
AcDbLinetypeTableRecord
  2
DOT2
 70
     0
  3
Dot (.5x) ........................................
 72
    65
 73
     2
 40
0.635
 49
0.0
 74
     0
 49
-0.635
 74
     0
  0
ENDTAB
  0
TABLE
  2
LAYER
  5
2
330
0
100
AcDbSymbolTable
 70
     5
  0
LAYER
  5
10
330
2
100
AcDbSymbolTableRecord
100
AcDbLayerTableRecord
  2
0
 70
     0
 62
     7
  6
Continuous
370
    -3
390
F
  0
LAYER
  5
40
330
2
100
AcDbSymbolTableRecord
100
AcDbLayerTableRecord
  2
FORMAT
 70
     0
 62
     7
  6
Continuous
370
    -3
390
F
  0
LAYER
  5
41
330
2
100
AcDbSymbolTableRecord
100
AcDbLayerTableRecord
  2
VERMASSUNG
 70
     0
 62
     7
  6
Continuous
370
    -3
390
F
  0
LAYER
  5
42
330
2
100
AcDbSymbolTableRecord
100
AcDbLayerTableRecord
  2
KOPF_DÜNN
 70
     0
 62
     7
  6
Continuous
370
    -3
390
F
  0
LAYER
  5
43
330
2
100
AcDbSymbolTableRecord
100
AcDbLayerTableRecord
  2
KOPF_DICK
 70
     0
 62
     7
  6
Continuous
370
    15
390
F
  0
ENDTAB
  0
TABLE
  2
STYLE
  5
3
330
0
100
AcDbSymbolTable
 70
     3
  0
STYLE
  5
11
330
3
100
AcDbSymbolTableRecord
100
AcDbTextStyleTableRecord
  2
Standard
 70
     0
 40
0.0
 41
1.0
 50
0.0
 71
     0
 42
2.5
  3
txt
  4

  0
STYLE
  5
44
330
3
100
AcDbSymbolTableRecord
100
AcDbTextStyleTableRecord
  2
SLDTEXTSTYLE0
 70
     0
 40
0.0
 41
0.7
 50
0.0
 71
     0
 42
0.2
  3
TXT
  4

  0
STYLE
  5
48
330
3
100
AcDbSymbolTableRecord
100
AcDbTextStyleTableRecord
  2
SLDTEXTSTYLE1
 70
     0
 40
0.0
 41
0.65
 50
0.0
 71
     0
 42
0.2
  3
TXT
  4

  0
ENDTAB
  0
TABLE
  2
VIEW
  5
6
330
0
100
AcDbSymbolTable
 70
     0
  0
ENDTAB
  0
TABLE
  2
UCS
  5
7
330
0
100
AcDbSymbolTable
 70
     0
  0
ENDTAB
  0
TABLE
  2
APPID
  5
9
330
0
100
AcDbSymbolTable
 70
     1
  0
APPID
  5
12
330
9
100
AcDbSymbolTableRecord
100
AcDbRegAppTableRecord
  2
ACAD
 70
     0
  0
ENDTAB
  0
TABLE
  2
DIMSTYLE
  5
A
330
0
100
AcDbSymbolTable
 70
     2
100
AcDbDimStyleTable
  0
DIMSTYLE
105
27
330
A
100
AcDbSymbolTableRecord
100
AcDbDimStyleTableRecord
  2
ISO-25
 70
     0
 41
2.5
 42
0.625
 43
3.75
 44
1.25
 73
     0
 74
     0
 77
     1
 78
     8
140
2.5
141
2.5
143
0.0393700787
147
0.625
171
     3
172
     1
271
     2
272
     2
274
     3
278
    44
283
     0
284
     8
340
11
  0
DIMSTYLE
105
279
102
{ACAD_REACTORS
330
278
330
285
330
290
330
29B
330
2A5
330
2AF
330
2B9
102
}
330
A
100
AcDbSymbolTableRecord
100
AcDbDimStyleTableRecord
  2
SLDDIMSTYLE0
 70
     0
 41
3.0
 44
0.0
 45
0.000000001
 73
     0
 74
     0
 77
     1
 78
    12
140
2.0
147
0.5
173
     1
271
     2
272
     3
284
    12
340
44
  0
ENDTAB
  0
TABLE
  2
BLOCK_RECORD
  5
1
330
0
100
AcDbSymbolTable
 70
     8
  0
BLOCK_RECORD
  5
1F
330
1
100
AcDbSymbolTableRecord
100
AcDbBlockTableRecord
  2
*Model_Space
340
22
  0
BLOCK_RECORD
  5
1B
330
1
100
AcDbSymbolTableRecord
100
AcDbBlockTableRecord
  2
*Paper_Space
340
1E
  0
BLOCK_RECORD
  5
23
330
1
100
AcDbSymbolTableRecord
100
AcDbBlockTableRecord
  2
*Paper_Space0
340
26
  0
BLOCK_RECORD
  5
27A
330
1
100
AcDbSymbolTableRecord
100
AcDbBlockTableRecord
  2
*D1
340
0
  0
BLOCK_RECORD
  5
286
330
1
100
AcDbSymbolTableRecord
100
AcDbBlockTableRecord
  2
*D2
340
0
  0
BLOCK_RECORD
  5
291
330
1
100
AcDbSymbolTableRecord
100
AcDbBlockTableRecord
  2
*D3
340
0
  0
BLOCK_RECORD
  5
29C
330
1
100
AcDbSymbolTableRecord
100
AcDbBlockTableRecord
  2
*D4
340
0
  0
BLOCK_RECORD
  5
2A6
330
1
100
AcDbSymbolTableRecord
100
AcDbBlockTableRecord
  2
*D5
340
0
  0
BLOCK_RECORD
  5
2B0
330
1
100
AcDbSymbolTableRecord
100
AcDbBlockTableRecord
  2
*D6
340
0
  0
BLOCK_RECORD
  5
2BA
330
1
100
AcDbSymbolTableRecord
100
AcDbBlockTableRecord
  2
*D7
340
0
  0
ENDTAB
  0
ENDSEC
  0
SECTION
  2
BLOCKS
  0
BLOCK
  5
20
330
1F
100
AcDbEntity
  8
0
100
AcDbBlockBegin
  2
*Model_Space
 70
     0
 10
0.0
 20
0.0
 30
0.0
  3
*Model_Space
  1

  0
ENDBLK
  5
21
330
1F
100
AcDbEntity
  8
0
100
AcDbBlockEnd
  0
BLOCK
  5
1C
330
1B
100
AcDbEntity
 67
     1
  8
0
100
AcDbBlockBegin
  2
*Paper_Space
 70
     0
 10
0.0
 20
0.0
 30
0.0
  3
*Paper_Space
  1

  0
ENDBLK
  5
1D
330
1B
100
AcDbEntity
 67
     1
  8
0
100
AcDbBlockEnd
  0
BLOCK
  5
24
330
23
100
AcDbEntity
  8
0
100
AcDbBlockBegin
  2
*Paper_Space0
 70
     0
 10
0.0
 20
0.0
 30
0.0
  3
*Paper_Space0
  1

  0
ENDBLK
  5
25
330
23
100
AcDbEntity
  8
0
100
AcDbBlockEnd
  0
BLOCK
  5
27B
330
27A
100
AcDbEntity
  8
0
100
AcDbBlockBegin
  2
*D1
 70
     1
 10
0.0
 20
0.0
 30
0.0
  3
*D1
  1

  0
SOLID
  5
27D
330
27A
100
AcDbEntity
  8
VERMASSUNG
100
AcDbTrace
 10
56.4360985626
 20
158.7323203285
 30
0.0
 11
55.9860985626
 21
155.7323203285
 31
0.0
 12
56.8860985626
 22
155.7323203285
 32
0.0
 13
56.8860985626
 23
155.7323203285
 33
0.0
  0
SOLID
  5
27E
330
27A
100
AcDbEntity
  8
VERMASSUNG
100
AcDbTrace
 10
56.4360985626
 20
58.7323203285
 30
0.0
 11
56.8860985626
 21
61.7323203285
 31
0.0
 12
55.9860985626
 22
61.7323203285
 32
0.0
 13
55.9860985626
 23
61.7323203285
 33
0.0
  0
LINE
  5
27F
330
27A
100
AcDbEntity
  8
VERMASSUNG
100
AcDbLine
 10
114.4098342698
 20
158.7323203285
 30
0.0
 11
55.4360985626
 21
158.7323203285
 31
0.0
  0
LINE
  5
280
330
27A
100
AcDbEntity
  8
VERMASSUNG
100
AcDbLine
 10
114.4098342698
 20
58.7323203285
 30
0.0
 11
55.4360985626
 21
58.7323203285
 31
0.0
  0
LINE
  5
281
330
27A
100
AcDbEntity
  8
VERMASSUNG
100
AcDbLine
 10
56.4360985626
 20
158.7323203285
 30
0.0
 11
56.4360985626
 21
58.7323203285
 31
0.0
  0
MTEXT
  5
282
330
27A
100
AcDbEntity
  8
VERMASSUNG
100
AcDbMText
 10
53.6579630736
 20
98.3293281861
 30
0.0
 40
2.0
 41
0.0
 71
     1
 72
     1
  1
HSK A
  7
SLDTEXTSTYLE0
 11
-7.044195017643634E-15
 21
1.0
 31
0.0
 73
     1
 44
1.0
  0
MTEXT
  5
283
330
27A
100
AcDbEntity
  8
VERMASSUNG
100
AcDbMText
 10
53.8579630831
 20
106.1293284402
 30
0.0
 40
2.0
 41
0.0
 71
     1
 72
     1
  1
%%c
  7
SLDTEXTSTYLE0
 11
-7.044195017643634E-15
 21
1.0
 31
0.0
 73
     1
 44
1.0
  0
MTEXT
  5
284
330
27A
100
AcDbEntity
  8
VERMASSUNG
100
AcDbMText
 10
53.8579631995
 20
109.7378568969
 30
0.0
 40
2.0
 41
0.0
 71
     1
 72
     1
  1
100
  7
SLDTEXTSTYLE0
 11
-7.044195017643634E-15
 21
1.0
 31
0.0
 73
     1
 44
1.0
  0
ENDBLK
  5
27C
330
27A
100
AcDbEntity
  8
0
100
AcDbBlockEnd
  0
BLOCK
  5
287
330
286
100
AcDbEntity
  8
0
100
AcDbBlockBegin
  2
*D2
 70
     1
 10
0.0
 20
0.0
 30
0.0
  3
*D2
  1

  0
SOLID
  5
289
330
286
100
AcDbEntity
  8
VERMASSUNG
100
AcDbTrace
 10
231.6388826369
 20
124.2323203285
 30
0.0
 11
231.1888826369
 21
121.2323203285
 31
0.0
 12
232.0888826369
 22
121.2323203285
 32
0.0
 13
232.0888826369
 23
121.2323203285
 33
0.0
  0
SOLID
  5
28A
330
286
100
AcDbEntity
  8
VERMASSUNG
100
AcDbTrace
 10
231.6388826369
 20
93.2323203285
 30
0.0
 11
232.0888826369
 21
96.2323203285
 31
0.0
 12
231.1888826369
 22
96.2323203285
 32
0.0
 13
231.1888826369
 23
96.2323203285
 33
0.0
  0
LINE
  5
28B
330
286
100
AcDbEntity
  8
VERMASSUNG
100
AcDbLine
 10
223.1098342698
 20
124.2323203285
 30
0.0
 11
232.6388826369
 21
124.2323203285
 31
0.0
  0
LINE
  5
28C
330
286
100
AcDbEntity
  8
VERMASSUNG
100
AcDbLine
 10
223.1098342698
 20
93.2323203285
 30
0.0
 11
232.6388826369
 21
93.2323203285
 31
0.0
  0
LINE
  5
28D
330
286
100
AcDbEntity
  8
VERMASSUNG
100
AcDbLine
 10
231.6388826369
 20
124.2323203285
 30
0.0
 11
231.6388826369
 21
93.2323203285
 31
0.0
  0
MTEXT
  5
28E
330
286
100
AcDbEntity
  8
VERMASSUNG
100
AcDbMText
 10
229.0607471574
 20
105.7281827337
 30
0.0
 40
2.0
 41
0.0
 71
     1
 72
     1
  1
%%c
  7
SLDTEXTSTYLE0
 11
-7.044195017643634E-15
 21
1.0
 31
0.0
 73
     1
 44
1.0
  0
MTEXT
  5
28F
330
286
100
AcDbEntity
  8
VERMASSUNG
100
AcDbMText
 10
229.0607472738
 20
109.3368609569
 30
0.0
 40
2.0
 41
0.0
 71
     1
 72
     1
  1
31
  7
SLDTEXTSTYLE0
 11
-7.044195017643634E-15
 21
1.0
 31
0.0
 73
     1
 44
1.0
  0
ENDBLK
  5
288
330
286
100
AcDbEntity
  8
0
100
AcDbBlockEnd
  0
BLOCK
  5
292
330
291
100
AcDbEntity
  8
0
100
AcDbBlockBegin
  2
*D3
 70
     1
 10
0.0
 20
0.0
 30
0.0
  3
*D3
  1

  0
SOLID
  5
294
330
291
100
AcDbEntity
  8
VERMASSUNG
100
AcDbTrace
 10
237.6388826369
 20
133.7323203285
 30
0.0
 11
237.1888826369
 21
130.7323203285
 31
0.0
 12
238.0888826369
 22
130.7323203285
 32
0.0
 13
238.0888826369
 23
130.7323203285
 33
0.0
  0
SOLID
  5
295
330
291
100
AcDbEntity
  8
VERMASSUNG
100
AcDbTrace
 10
237.6388826369
 20
83.7323203285
 30
0.0
 11
238.0888826369
 21
86.7323203285
 31
0.0
 12
237.1888826369
 22
86.7323203285
 32
0.0
 13
237.1888826369
 23
86.7323203285
 33
0.0
  0
LINE
  5
296
330
291
100
AcDbEntity
  8
VERMASSUNG
100
AcDbLine
 10
222.5598342698
 20
133.7323203285
 30
0.0
 11
238.6388826369
 21
133.7323203285
 31
0.0
  0
LINE
  5
297
330
291
100
AcDbEntity
  8
VERMASSUNG
100
AcDbLine
 10
222.5598342698
 20
83.7323203285
 30
0.0
 11
238.6388826369
 21
83.7323203285
 31
0.0
  0
LINE
  5
298
330
291
100
AcDbEntity
  8
VERMASSUNG
100
AcDbLine
 10
237.6388826369
 20
133.7323203285
 30
0.0
 11
237.6388826369
 21
83.7323203285
 31
0.0
  0
MTEXT
  5
299
330
291
100
AcDbEntity
  8
VERMASSUNG
100
AcDbMText
 10
235.0607471574
 20
105.5286031021
 30
0.0
 40
2.0
 41
0.0
 71
     1
 72
     1
  1
%%c
  7
SLDTEXTSTYLE0
 11
-7.044195017643634E-15
 21
1.0
 31
0.0
 73
     1
 44
1.0
  0
MTEXT
  5
29A
330
291
100
AcDbEntity
  8
VERMASSUNG
100
AcDbMText
 10
235.0607472738
 20
109.1372813253
 30
0.0
 40
2.0
 41
0.0
 71
     1
 72
     1
  1
50
  7
SLDTEXTSTYLE0
 11
-7.044195017643634E-15
 21
1.0
 31
0.0
 73
     1
 44
1.0
  0
ENDBLK
  5
293
330
291
100
AcDbEntity
  8
0
100
AcDbBlockEnd
  0
BLOCK
  5
29D
330
29C
100
AcDbEntity
  8
0
100
AcDbBlockBegin
  2
*D4
 70
     1
 10
0.0
 20
0.0
 30
0.0
  3
*D4
  1

  0
SOLID
  5
29F
330
29C
100
AcDbEntity
  8
VERMASSUNG
100
AcDbTrace
 10
113.9098342698
 20
171.6437077372
 30
0.0
 11
116.9098342698
 21
171.1937077372
 31
0.0
 12
116.9098342698
 22
172.0937077372
 32
0.0
 13
116.9098342698
 23
172.0937077372
 33
0.0
  0
SOLID
  5
2A0
330
29C
100
AcDbEntity
  8
VERMASSUNG
100
AcDbTrace
 10
223.9098342698
 20
171.6437077372
 30
0.0
 11
220.9098342698
 21
172.0937077372
 31
0.0
 12
220.9098342698
 22
171.1937077372
 32
0.0
 13
220.9098342698
 23
171.1937077372
 33
0.0
  0
LINE
  5
2A1
330
29C
100
AcDbEntity
  8
VERMASSUNG
100
AcDbLine
 10
113.9098342698
 20
158.2323203285
 30
0.0
 11
113.9098342698
 21
172.6437077372
 31
0.0
  0
LINE
  5
2A2
330
29C
100
AcDbEntity
  8
VERMASSUNG
100
AcDbLine
 10
223.9098342698
 20
127.9323203285
 30
0.0
 11
223.9098342698
 21
172.6437077372
 31
0.0
  0
LINE
  5
2A3
330
29C
100
AcDbEntity
  8
VERMASSUNG
100
AcDbLine
 10
113.9098342698
 20
171.6437077372
 30
0.0
 11
223.9098342698
 21
171.6437077372
 31
0.0
  0
MTEXT
  5
2A4
330
29C
100
AcDbEntity
  8
VERMASSUNG
100
AcDbMText
 10
163.9528225472
 20
174.2218431004
 30
0.0
 40
2.0
 41
0.0
 71
     1
 72
     1
  1
110
  7
SLDTEXTSTYLE0
 73
     1
 44
1.0
  0
ENDBLK
  5
29E
330
29C
100
AcDbEntity
  8
0
100
AcDbBlockEnd
  0
BLOCK
  5
2A7
330
2A6
100
AcDbEntity
  8
0
100
AcDbBlockBegin
  2
*D5
 70
     1
 10
0.0
 20
0.0
 30
0.0
  3
*D5
  1

  0
SOLID
  5
2A9
330
2A6
100
AcDbEntity
  8
VERMASSUNG
100
AcDbTrace
 10
142.8598342698
 20
165.6437077372
 30
0.0
 11
145.8598342698
 21
165.1937077372
 31
0.0
 12
145.8598342698
 22
166.0937077372
 32
0.0
 13
145.8598342698
 23
166.0937077372
 33
0.0
  0
SOLID
  5
2AA
330
2A6
100
AcDbEntity
  8
VERMASSUNG
100
AcDbTrace
 10
223.9098342698
 20
165.6437077372
 30
0.0
 11
220.9098342698
 21
166.0937077372
 31
0.0
 12
220.9098342698
 22
165.1937077372
 32
0.0
 13
220.9098342698
 23
165.1937077372
 33
0.0
  0
LINE
  5
2AB
330
2A6
100
AcDbEntity
  8
VERMASSUNG
100
AcDbLine
 10
142.8598342698
 20
156.7010601494
 30
0.0
 11
142.8598342698
 21
166.6437077372
 31
0.0
  0
LINE
  5
2AC
330
2A6
100
AcDbEntity
  8
VERMASSUNG
100
AcDbLine
 10
223.9098342698
 20
127.9323203285
 30
0.0
 11
223.9098342698
 21
166.6437077372
 31
0.0
  0
LINE
  5
2AD
330
2A6
100
AcDbEntity
  8
VERMASSUNG
100
AcDbLine
 10
142.8598342698
 20
165.6437077372
 30
0.0
 11
223.9098342698
 21
165.6437077372
 31
0.0
  0
MTEXT
  5
2AE
330
2A6
100
AcDbEntity
  8
VERMASSUNG
100
AcDbMText
 10
178.7308729711
 20
168.2218431004
 30
0.0
 40
2.0
 41
0.0
 71
     1
 72
     1
  1
81.05
  7
SLDTEXTSTYLE0
 73
     1
 44
1.0
  0
ENDBLK
  5
2A8
330
2A6
100
AcDbEntity
  8
0
100
AcDbBlockEnd
  0
BLOCK
  5
2B1
330
2B0
100
AcDbEntity
  8
0
100
AcDbBlockBegin
  2
*D6
 70
     1
 10
0.0
 20
0.0
 30
0.0
  3
*D6
  1

  0
SOLID
  5
2B3
330
2B0
100
AcDbEntity
  8
VERMASSUNG
100
AcDbTrace
 10
223.9098342698
 20
177.6437077372
 30
0.0
 11
220.9098342698
 21
178.0937077372
 31
0.0
 12
220.9098342698
 22
177.1937077372
 32
0.0
 13
220.9098342698
 23
177.1937077372
 33
0.0
  0
SOLID
  5
2B4
330
2B0
100
AcDbEntity
  8
VERMASSUNG
100
AcDbTrace
 10
64.0098342698
 20
177.6437077372
 30
0.0
 11
67.0098342698
 21
177.1937077372
 31
0.0
 12
67.0098342698
 22
178.0937077372
 32
0.0
 13
67.0098342698
 23
178.0937077372
 33
0.0
  0
LINE
  5
2B5
330
2B0
100
AcDbEntity
  8
VERMASSUNG
100
AcDbLine
 10
223.9098342698
 20
127.9323203285
 30
0.0
 11
223.9098342698
 21
178.6437077372
 31
0.0
  0
LINE
  5
2B6
330
2B0
100
AcDbEntity
  8
VERMASSUNG
100
AcDbLine
 10
64.0098342698
 20
139.2349900711
 30
0.0
 11
64.0098342698
 21
178.6437077372
 31
0.0
  0
LINE
  5
2B7
330
2B0
100
AcDbEntity
  8
VERMASSUNG
100
AcDbLine
 10
223.9098342698
 20
177.6437077372
 30
0.0
 11
64.0098342698
 21
177.6437077372
 31
0.0
  0
MTEXT
  5
2B8
330
2B0
100
AcDbEntity
  8
VERMASSUNG
100
AcDbMText
 10
149.5168673557
 20
180.2218431004
 30
0.0
 40
2.0
 41
0.0
 71
     1
 72
     1
  1
159.9
  7
SLDTEXTSTYLE0
 73
     1
 44
1.0
  0
ENDBLK
  5
2B2
330
2B0
100
AcDbEntity
  8
0
100
AcDbBlockEnd
  0
BLOCK
  5
2BB
330
2BA
100
AcDbEntity
  8
0
100
AcDbBlockBegin
  2
*D7
 70
     1
 10
0.0
 20
0.0
 30
0.0
  3
*D7
  1

  0
SOLID
  5
2BD
330
2BA
100
AcDbEntity
  8
VERMASSUNG
100
AcDbTrace
 10
243.6388826369
 20
134.7323203285
 30
0.0
 11
243.1888826369
 21
131.7323203285
 31
0.0
 12
244.0888826369
 22
131.7323203285
 32
0.0
 13
244.0888826369
 23
131.7323203285
 33
0.0
  0
SOLID
  5
2BE
330
2BA
100
AcDbEntity
  8
VERMASSUNG
100
AcDbTrace
 10
243.6388826369
 20
82.7323203285
 30
0.0
 11
244.0888826369
 21
85.7323203285
 31
0.0
 12
243.1888826369
 22
85.7323203285
 32
0.0
 13
243.1888826369
 23
85.7323203285
 33
0.0
  0
LINE
  5
2BF
330
2BA
100
AcDbEntity
  8
VERMASSUNG
100
AcDbLine
 10
166.9098342698
 20
134.7323203285
 30
0.0
 11
244.6388826369
 21
134.7323203285
 31
0.0
  0
LINE
  5
2C0
330
2BA
100
AcDbEntity
  8
VERMASSUNG
100
AcDbLine
 10
166.9098342698
 20
82.7323203285
 30
0.0
 11
244.6388826369
 21
82.7323203285
 31
0.0
  0
LINE
  5
2C1
330
2BA
100
AcDbEntity
  8
VERMASSUNG
100
AcDbLine
 10
243.6388826369
 20
134.7323203285
 30
0.0
 11
243.6388826369
 21
82.7323203285
 31
0.0
  0
MTEXT
  5
2C2
330
2BA
100
AcDbEntity
  8
VERMASSUNG
100
AcDbMText
 10
241.0607471574
 20
105.5286031021
 30
0.0
 40
2.0
 41
0.0
 71
     1
 72
     1
  1
%%c
  7
SLDTEXTSTYLE0
 11
-7.044195017643634E-15
 21
1.0
 31
0.0
 73
     1
 44
1.0
  0
MTEXT
  5
2C3
330
2BA
100
AcDbEntity
  8
VERMASSUNG
100
AcDbMText
 10
241.0607472738
 20
109.1372813253
 30
0.0
 40
2.0
 41
0.0
 71
     1
 72
     1
  1
52
  7
SLDTEXTSTYLE0
 11
-7.044195017643634E-15
 21
1.0
 31
0.0
 73
     1
 44
1.0
  0
ENDBLK
  5
2BC
330
2BA
100
AcDbEntity
  8
0
100
AcDbBlockEnd
  0
ENDSEC
  0
SECTION
  2
ENTITIES
  0
MTEXT
  5
45
330
1F
100
AcDbEntity
  8
KOPF_DÜNN
100
AcDbMText
 10
13.8892156294
 20
23.8442973028
 30
0.0
 40
3.0
 41
0.0
 71
     1
 72
     1
  1
HA0.Go2.K01.110
  7
SLDTEXTSTYLE0
 73
     1
 44
1.0
  0
MTEXT
  5
46
330
1F
100
AcDbEntity
  8
VERMASSUNG
100
AcDbMText
 10
13.9329988022
 20
28.8834360957
 30
0.0
 40
3.0
 41
0.0
 71
     1
 72
     1
  1
Gewindeschneidfutter_Tapping chuck
  7
SLDTEXTSTYLE0
 73
     1
 44
1.0
  0
MTEXT
  5
47
330
1F
100
AcDbEntity
  8
VERMASSUNG
100
AcDbMText
 10
98.8601118557
 20
13.8365368179
 30
0.0
 40
2.0
 41
0.0
 71
     1
 72
     1
  1
Datum: 11.10.2006
  7
SLDTEXTSTYLE0
 73
     1
 44
1.0
  0
MTEXT
  5
49
330
1F
100
AcDbEntity
  8
VERMASSUNG
100
AcDbMText
 10
13.933048693
 20
18.0482802738
 30
0.0
 40
2.0
 41
0.0
 71
     1
 72
     1
  1
DIN 69 893 HSK A 100
  7
SLDTEXTSTYLE1
 73
     1
 44
1.0
  0
MTEXT
  5
4A
330
1F
100
AcDbEntity
  8
VERMASSUNG
100
AcDbMText
 10
13.9808475933
 20
13.9090973692
 30
0.0
 40
2.0
 41
0.0
 71
     1
 72
     1
  1
Gewicht: 2931g
  7
SLDTEXTSTYLE0
 73
     1
 44
1.0
  0
LINE
  5
4B
330
1F
100
AcDbEntity
  8
0
  6
Continuous
 62
     7
370
    15
100
AcDbLine
 10
206.5598342698
 20
133.7323203285
 30
0.0
 11
191.4598342698
 21
133.7323203285
 31
0.0
  0
LINE
  5
4C
330
1F
100
AcDbEntity
  8
0
  6
Continuous
 62
     7
370
    15
100
AcDbLine
 10
191.4598342698
 20
83.7323203285
 30
0.0
 11
206.5598342698
 21
83.7323203285
 31
0.0
  0
ARC
  5
4D
330
1F
100
AcDbEntity
  8
0
  6
Continuous
 62
     7
370
    15
100
AcDbCircle
 10
214.6725359352
 20
133.8323203285
 30
0.0
 40
0.4000000000000341
100
AcDbArc
 50
270.0
 51
345.5224878141
  0
ARC
  5
4E
330
1F
100
AcDbEntity
  8
0
  6
Continuous
 62
     7
370
    15
100
AcDbCircle
 10
214.6725359352
 20
83.6323203285
 30
0.0
 40
0.4000000000000341
100
AcDbArc
 50
14.4775121859
 51
90.0
  0
LINE
  5
4F
330
1F
100
AcDbEntity
  8
0
  6
Continuous
 62
     7
370
    15
100
AcDbLine
 10
182.9598342698
 20
133.7323203285
 30
0.0
 11
175.4598342698
 21
133.7323203285
 31
0.0
  0
LINE
  5
50
330
1F
100
AcDbEntity
  8
0
  6
Continuous
 62
     7
370
    15
100
AcDbLine
 10
175.4598342698
 20
83.7323203285
 30
0.0
 11
182.9598342698
 21
83.7323203285
 31
0.0
  0
LINE
  5
51
330
1F
100
AcDbEntity
  8
0
  6
Continuous
 62
     7
370
    15
100
AcDbLine
 10
222.5598342698
 20
133.7323203285
 30
0.0
 11
215.0598342698
 21
133.7323203285
 31
0.0
  0
LINE
  5
52
330
1F
100
AcDbEntity
  8
0
  6
Continuous
 62
     7
370
    15
100
AcDbLine
 10
215.0598342698
 20
83.7323203285
 30
0.0
 11
222.5598342698
 21
83.7323203285
 31
0.0
  0
ARC
  5
53
330
1F
100
AcDbEntity
  8
0
  6
Continuous
 62
     7
370
    15
100
AcDbCircle
 10
222.5598342698
 20
132.7323203285
 30
0.0
 40
1.0
100
AcDbArc
 50
360.0
 51
90.0
  0
ARC
  5
54
330
1F
100
AcDbEntity
  8
0
  6
Continuous
 62
     7
370
    15
100
AcDbCircle
 10
222.5598342698
 20
84.7323203285
 30
0.0
 40
1.0
100
AcDbArc
 50
270.0
 51
0.0
  0
ARC
  5
55
330
1F
100
AcDbEntity
  8
0
  6
Continuous
 62
     7
370
    15
100
AcDbCircle
 10
191.0725359352
 20
133.8323203285
 30
0.0
 40
0.4000000000000341
100
AcDbArc
 50
270.0
 51
345.5224878141
  0
ARC
  5
56
330
1F
100
AcDbEntity
  8
0
  6
Continuous
 62
     7
370
    15
100
AcDbCircle
 10
191.0725359352
 20
83.6323203285
 30
0.0
 40
0.4000000000000199
100
AcDbArc
 50
14.4775121859
 51
90.0
  0
ARC
  5
57
330
1F
100
AcDbEntity
  8
0
  6
Continuous
 62
     7
370
    15
100
AcDbCircle
 10
206.9471326044
 20
133.8323203285
 30
0.0
 40
0.4000000000000341
100
AcDbArc
 50
194.4775121859
 51
270.0
  0
ARC
  5
58
330
1F
100
AcDbEntity
  8
0
  6
Continuous
 62
     7
370
    15
100
AcDbCircle
 10
206.9471326044
 20
83.6323203285
 30
0.0
 40
0.4000000000000199
100
AcDbArc
 50
90.0
 51
165.5224878141
  0
ARC
  5
59
330
1F
100
AcDbEntity
  8
0
  6
Continuous
 62
     7
370
    15
100
AcDbCircle
 10
175.4598342698
 20
132.7323203285
 30
0.0
 40
1.0
100
AcDbArc
 50
90.0
 51
180.0
  0
ARC
  5
5A
330
1F
100
AcDbEntity
  8
0
  6
Continuous
 62
     7
370
    15
100
AcDbCircle
 10
175.4598342698
 20
84.7323203285
 30
0.0
 40
1.0
100
AcDbArc
 50
180.0
 51
270.0
  0
ARC
  5
5B
330
1F
100
AcDbEntity
  8
0
  6
Continuous
 62
     7
370
    15
100
AcDbCircle
 10
183.3471326044
 20
133.8323203285
 30
0.0
 40
0.4000000000000341
100
AcDbArc
 50
194.4775121859
 51
270.0
  0
ARC
  5
5C
330
1F
100
AcDbEntity
  8
0
  6
Continuous
 62
     7
370
    15
100
AcDbCircle
 10
183.3471326044
 20
83.6323203285
 30
0.0
 40
0.4000000000000341
100
AcDbArc
 50
90.0
 51
165.5224878141
  0
LINE
  5
5D
330
1F
100
AcDbEntity
  8
0
  6
Continuous
 62
     7
370
    15
100
AcDbLine
 10
214.6725359352
 20
133.4323203285
 30
0.0
 11
206.9471326044
 21
133.4323203285
 31
0.0
  0
LINE
  5
5E
330
1F
100
AcDbEntity
  8
0
  6
Continuous
 62
     7
370
    15
100
AcDbLine
 10
206.9471326044
 20
84.0323203285
 30
0.0
 11
214.6725359352
 21
84.0323203285
 31
0.0
  0
LINE
  5
5F
330
1F
100
AcDbEntity
  8
0
  6
Continuous
 62
     7
370
    15
100
AcDbLine
 10
191.0725359352
 20
133.4323203285
 30
0.0
 11
183.3471326044
 21
133.4323203285
 31
0.0
  0
LINE
  5
60
330
1F
100
AcDbEntity
  8
0
  6
Continuous
 62
     7
370
    15
100
AcDbLine
 10
183.3471326044
 20
84.0323203285
 30
0.0
 11
191.0725359352
 21
84.0323203285
 31
0.0
  0
ARC
  5
61
330
1F
100
AcDbEntity
  8
0
  6
Continuous
 62
     7
370
    15
100
AcDbCircle
 10
114.4098342698
 20
59.2323203285
 30
0.0
 40
0.5
100
AcDbArc
 50
180.0
 51
270.0
  0
ARC
  5
62
330
1F
100
AcDbEntity
  8
0
  6
Continuous
 62
     7
370
    15
100
AcDbCircle
 10
114.4098342698
 20
158.2323203285
 30
0.0
 40
0.5
100
AcDbArc
 50
90.0
 51
180.0
  0
LINE
  5
63
330
1F
100
AcDbEntity
  8
0
  6
Continuous
 62
     7
370
    15
100
AcDbLine
 10
114.4098342698
 20
58.7323203285
 30
0.0
 11
118.8598342698
 21
58.7323203285
 31
0.0
  0
LINE
  5
64
330
1F
100
AcDbEntity
  8
0
  6
Continuous
 62
     7
370
    15
100
AcDbLine
 10
118.8939071023
 20
158.7323203285
 30
0.0
 11
114.4098342698
 21
158.7323203285
 31
0.0
  0
ARC
  5
65
330
1F
100
AcDbEntity
  8
0
  6
Continuous
 62
     7
370
    15
100
AcDbCircle
 10
113.0128973514
 20
70.1038350041
 30
0.0
 40
0.9962338214386932
100
AcDbArc
 50
25.7988228126
 51
90.0
  0
ARC
  5
66
330
1F
100
AcDbEntity
  8
0
  6
Continuous
 62
     7
370
    15
100
AcDbCircle
 10
113.0128973514
 20
147.360805653
 30
0.0
 40
0.9962338214386932
100
AcDbArc
 50
270.0
 51
334.2011771874
  0
LINE
  5
67
330
1F
100
AcDbEntity
  8
0
  6
Continuous
 62
     7
370
    15
100
AcDbLine
 10
111.4098342698
 20
70.8500688255
 30
0.0
 11
112.2156804242
 21
71.0659946518
 31
0.0
  0
LINE
  5
68
330
1F
100
AcDbEntity
  8
0
  6
Continuous
 62
     7
370
    15
100
AcDbLine
 10
112.2156804242
 20
146.3986460053
 30
0.0
 11
111.4098342698
 21
146.6145718315
 31
0.0
  0
LINE
  5
69
330
1F
100
AcDbEntity
  8
0
  6
Continuous
 62
     7
370
    15
100
AcDbLine
 10
92.4291553512
 20
145.663636014
 30
0.0
 11
74.1098342698
 21
144.7458343566
 31
0.0
  0
LINE
  5
6A
330
1F
100
AcDbEntity
  8
0
  6
Continuous
 62
     7
370
    15
100
AcDbLine
 10
111.4098342698
 20
146.6145718315
 30
0.0
 11
105.3417951153
 21
146.3105618539
 31
0.0
  0
LINE
  5
6B
330
1F
100
AcDbEntity
  8
0
  6
Continuous
 62
     7
370
    15
100
AcDbLine
 10
105.3419183918
 20
71.154072627
 30
0.0
 11
111.4098342698
 21
70.8500688255
 31
0.0
  0
LINE
  5
6C
330
1F
100
AcDbEntity
  8
0
  6
Continuous
 62
     7
370
    15
100
AcDbLine
 10
79.1098342698
 20
72.4683052985
 30
0.0
 11
92.4297854237
 21
71.8009730763
 31
0.0
  0
ARC
  5
6D
330
1F
100
AcDbEntity
  8
0
  6
Continuous
 62
     7
370
    15
100
AcDbCircle
 10
112.4744994693
 20
70.1000688255
 30
0.0
 40
1.0
100
AcDbArc
 50
90.0
 51
105.0
  0
ARC
  5
6E
330
1F
100
AcDbEntity
  8
0
  6
Continuous
 62
     7
370
    15
100
AcDbCircle
 10
112.4744994693
 20
147.3645718315
 30
0.0
 40
1.000000000000027
100
AcDbArc
 50
255.0
 51
270.0
  0
LINE
  5
6F
330
1F
100
AcDbEntity
  8
0
  6
Continuous
 62
     7
370
    15
100
AcDbLine
 10
112.4744994693
 20
71.1000688255
 30
0.0
 11
113.0128973514
 21
71.1000688255
 31
0.0
  0
LINE
  5
70
330
1F
100
AcDbEntity
  8
0
  6
Continuous
 62
     7
370
    15
100
AcDbLine
 10
113.0128973514
 20
146.3645718315
 30
0.0
 11
112.4744994693
 21
146.3645718315
 31
0.0
  0
ARC
  5
71
330
1F
100
AcDbEntity
  8
0
  6
Continuous
 62
     7
370
    15
100
AcDbCircle
 10
147.8598342698
 20
77.7323203285
 30
0.0
 40
5.0
100
AcDbArc
 50
90.0
 51
180.0
  0
ARC
  5
72
330
1F
100
AcDbEntity
  8
0
  6
Continuous
 62
     7
370
    15
100
AcDbCircle
 10
147.8598342698
 20
139.7323203285
 30
0.0
 40
5.0
100
AcDbArc
 50
180.0
 51
270.0
  0
LINE
  5
73
330
1F
100
AcDbEntity
  8
0
  6
Continuous
 62
     7
370
    15
100
AcDbLine
 10
147.8598342698
 20
82.7323203285
 30
0.0
 11
166.9098342698
 21
82.7323203285
 31
0.0
  0
LINE
  5
74
330
1F
100
AcDbEntity
  8
0
  6
Continuous
 62
     7
370
    15
100
AcDbLine
 10
166.9098342698
 20
134.7323203285
 30
0.0
 11
147.8598342698
 21
134.7323203285
 31
0.0
  0
ARC
  5
75
330
1F
100
AcDbEntity
  8
0
  6
Continuous
 62
     7
370
    15
100
AcDbCircle
 10
166.9098342698
 20
133.7323203285
 30
0.0
 40
1.0
100
AcDbArc
 50
0.0
 51
90.0
  0
ARC
  5
76
330
1F
100
AcDbEntity
  8
0
  6
Continuous
 62
     7
370
    15
100
AcDbCircle
 10
166.9098342698
 20
83.7323203285
 30
0.0
 40
1.000000000000014
100
AcDbArc
 50
270.0
 51
0.0
  0
ARC
  5
77
330
1F
100
AcDbEntity
  8
0
  6
Continuous
 62
     7
370
    15
100
AcDbCircle
 10
168.7098342698
 20
131.9073203285
 30
0.0
 40
0.8000000000000114
100
AcDbArc
 50
180.0
 51
270.0
  0
ARC
  5
78
330
1F
100
AcDbEntity
  8
0
  6
Continuous
 62
     7
370
    15
100
AcDbCircle
 10
168.7098342698
 20
85.5573203285
 30
0.0
 40
0.7999999999999972
100
AcDbArc
 50
90.0
 51
180.0
  0
LINE
  5
79
330
1F
100
AcDbEntity
  8
0
  6
Continuous
 62
     7
370
    15
100
AcDbLine
 10
174.4598342698
 20
131.1073203285
 30
0.0
 11
168.7098342698
 21
131.1073203285
 31
0.0
  0
LINE
  5
7A
330
1F
100
AcDbEntity
  8
0
  6
Continuous
 62
     7
370
    15
100
AcDbLine
 10
168.7098342698
 20
86.3573203285
 30
0.0
 11
174.4598342698
 21
86.3573203285
 31
0.0
  0
LINE
  5
7B
330
1F
100
AcDbEntity
  8
0
  6
Continuous
 62
     7
370
    15
100
AcDbLine
 10
223.9098342698
 20
127.9323203285
 30
0.0
 11
223.5598342698
 21
128.2823203285
 31
0.0
  0
LINE
  5
7C
330
1F
100
AcDbEntity
  8
0
  6
Continuous
 62
     7
370
    15
100
AcDbLine
 10
223.5598342698
 20
89.1823203285
 30
0.0
 11
223.9098342698
 21
89.5323203285
 31
0.0
  0
LINE
  5
7D
330
1F
100
AcDbEntity
  8
0
  6
Continuous
 62
     7
370
    15
100
AcDbLine
 10
65.6598342698
 20
76.4823203285
 30
0.0
 11
77.2098342698
 21
76.4823203285
 31
0.0
  0
ARC
  5
7E
330
1F
100
AcDbEntity
  8
0
  6
Continuous
 62
     7
370
    15
100
AcDbCircle
 10
77.2098342698
 20
74.5823203285
 30
0.0
 40
1.899999999999999
100
AcDbArc
 50
35.6630613694
 51
90.0
  0
ARC
  5
7F
330
1F
100
AcDbEntity
  8
0
  6
Continuous
 62
     7
370
    15
100
AcDbCircle
 10
72.2098342698
 20
142.8823203285
 30
0.0
 40
1.899999999999996
100
AcDbArc
 50
270.0
 51
310.9212832533
  0
LINE
  5
80
330
1F
100
AcDbEntity
  8
0
  6
Continuous
 62
     7
370
    15
100
AcDbLine
 10
65.6598342698
 20
140.9823203285
 30
0.0
 11
64.0666179079
 21
139.3891039666
 31
0.0
  0
LINE
  5
81
330
1F
100
AcDbEntity
  8
0
  6
Continuous
 62
     7
370
    15
100
AcDbLine
 10
64.0673571703
 20
78.0747974281
 30
0.0
 11
65.6598342698
 21
76.4823203285
 31
0.0
  0
LINE
  5
82
330
1F
100
AcDbEntity
  8
0
  6
Continuous
 62
     7
370
    15
100
AcDbLine
 10
72.2098342698
 20
140.9823203285
 30
0.0
 11
65.6598342698
 21
140.9823203285
 31
0.0
  0
LINE
  5
83
330
1F
100
AcDbEntity
  8
0
  6
Continuous
 62
     7
370
    15
100
AcDbLine
 10
206.5598342698
 20
92.8169103093
 30
0.0
 11
206.5598342698
 21
83.7323203285
 31
0.0
  0
LINE
  5
84
330
1F
100
AcDbEntity
  8
0
  6
Continuous
 62
     7
370
    15
100
AcDbLine
 10
206.5598342698
 20
133.7323203285
 30
0.0
 11
206.5598342698
 21
92.8169103093
 31
0.0
  0
LINE
  5
85
330
1F
100
AcDbEntity
  8
0
  6
Continuous
 62
     7
370
    15
100
AcDbLine
 10
191.4598342698
 20
92.8169103093
 30
0.0
 11
191.4598342698
 21
83.7323203285
 31
0.0
  0
LINE
  5
86
330
1F
100
AcDbEntity
  8
0
  6
Continuous
 62
     7
370
    15
100
AcDbLine
 10
191.4598342698
 20
133.7323203285
 30
0.0
 11
191.4598342698
 21
92.8169103093
 31
0.0
  0
LINE
  5
87
330
1F
100
AcDbEntity
  8
0
  6
Continuous
 62
     7
370
    15
100
AcDbLine
 10
215.0598342698
 20
92.8169103093
 30
0.0
 11
215.0598342698
 21
83.7323203285
 31
0.0
  0
LINE
  5
88
330
1F
100
AcDbEntity
  8
0
  6
Continuous
 62
     7
370
    15
100
AcDbLine
 10
215.0598342698
 20
133.7323203285
 30
0.0
 11
215.0598342698
 21
92.8169103093
 31
0.0
  0
LINE
  5
89
330
1F
100
AcDbEntity
  8
0
  6
Continuous
 62
     7
370
    15
100
AcDbLine
 10
182.9598342698
 20
92.8169103093
 30
0.0
 11
182.9598342698
 21
83.7323203285
 31
0.0
  0
LINE
  5
8A
330
1F
100
AcDbEntity
  8
0
  6
Continuous
 62
     7
370
    15
100
AcDbLine
 10
182.9598342698
 20
133.7323203285
 30
0.0
 11
182.9598342698
 21
92.8169103093
 31
0.0
  0
LINE
  5
8B
330
1F
100
AcDbEntity
  8
0
  6
Continuous
 62
     7
370
    15
100
AcDbLine
 10
223.5598342698
 20
93.4535267101
 30
0.0
 11
223.5598342698
 21
84.7323203285
 31
0.0
  0
LINE
  5
8C
330
1F
100
AcDbEntity
  8
0
  6
Continuous
 62
     7
370
    15
100
AcDbLine
 10
223.5598342698
 20
132.7323203285
 30
0.0
 11
223.5598342698
 21
93.4535267101
 31
0.0
  0
LINE
  5
8D
330
1F
100
AcDbEntity
  8
0
  6
Continuous
 62
     7
370
    15
100
AcDbLine
 10
174.4598342698
 20
93.4535267101
 30
0.0
 11
174.4598342698
 21
84.7323203285
 31
0.0
  0
LINE
  5
8E
330
1F
100
AcDbEntity
  8
0
  6
Continuous
 62
     7
370
    15
100
AcDbLine
 10
174.4598342698
 20
132.7323203285
 30
0.0
 11
174.4598342698
 21
93.4535267101
 31
0.0
  0
LINE
  5
8F
330
1F
100
AcDbEntity
  8
0
  6
Continuous
 62
     7
370
    15
100
AcDbLine
 10
113.9098342698
 20
59.2323203285
 30
0.0
 11
113.9098342698
 21
158.2323203242
 31
0.0
  0
LINE
  5
90
330
1F
100
AcDbEntity
  8
0
  6
Continuous
 62
     7
370
    15
100
AcDbLine
 10
118.8598342698
 20
140.0823203285
 30
0.0
 11
130.6478052489
 21
140.0823203285
 31
0.0
  0
LINE
  5
91
330
1F
100
AcDbEntity
  8
0
  6
Continuous
 62
     7
370
    15
100
AcDbLine
 10
130.6478052489
 20
59.9573267355
 30
0.0
 11
130.6478052489
 21
140.0823203285
 31
0.0
  0
LINE
  5
92
330
1F
100
AcDbEntity
  8
0
  6
Continuous
 62
     7
370
    15
100
AcDbLine
 10
130.6478052489
 20
59.9573267355
 30
0.0
 11
128.8598342698
 21
59.9573267355
 31
0.0
  0
SPLINE
  5
93
330
1F
100
AcDbEntity
  8
0
  6
Continuous
 62
     7
370
    15
100
AcDbSpline
210
0.0
220
0.0
230
1.0
 70
     8
 71
     3
 72
    30
 73
    26
 74
     0
 42
0.00000001
 43
0.00000001
 40
0.0
 40
0.0
 40
0.0
 40
0.0
 40
0.1250000000000002
 40
0.1250000000000002
 40
0.1875000000000003
 40
0.1875000000000003
 40
0.2500000000000004
 40
0.2500000000000004
 40
0.3750000000000001
 40
0.3750000000000001
 40
0.4374999999999998
 40
0.4374999999999998
 40
0.4999999999999996
 40
0.4999999999999996
 40
0.6249999999999996
 40
0.6249999999999996
 40
0.6874999999999997
 40
0.6874999999999997
 40
0.7499999999999997
 40
0.7499999999999997
 40
0.8124999999999998
 40
0.8124999999999998
 40
0.8749999999999999
 40
0.8749999999999999
 40
1.0
 40
1.0
 40
1.0
 40
1.0
 10
128.8598342698082
 20
59.9573267355133
 30
0.0
 10
128.1970895759632
 20
59.95732673551331
 30
0.0
 10
127.5458337168474
 20
59.94248665892449
 30
0.0
 10
126.5853831785892
 20
59.90011709469487
 30
0.0
 10
126.2679917353562
 20
59.88263899191571
 30
0.0
 10
125.6388282338013
 20
59.8413107053634
 30
0.0
 10
125.3266800473596
 20
59.8173854319057
 30
0.0
 10
124.4193727455114
 20
59.73857891543879
 30
0.0
 10
123.8459477878701
 20
59.67627289546233
 30
0.0
 10
123.0320709182954
 20
59.57314357522296
 30
0.0
 10
122.7672647217256
 20
59.53695965617646
 30
0.0
 10
122.2603573109112
 20
59.46316487197595
 30
0.0
 10
122.0189631595578
 20
59.4256910132043
 30
0.0
 10
121.3298216874254
 20
59.31297906986457
 30
0.0
 10
120.9167668725612
 20
59.23744297239079
 30
0.0
 10
120.3686120531861
 20
59.12904971537329
 30
0.0
 10
120.1991494458405
 20
59.09397748371003
 30
0.0
 10
119.8911321978252
 20
59.02774202311018
 30
0.0
 10
119.7517521772168
 20
58.99641532635546
 30
0.0
 10
119.5019666645901
 20
58.93800655477452
 30
0.0
 10
119.3915605519361
 20
58.91092331959167
 30
0.0
 10
119.2003026982984
 20
58.86166356497809
 30
0.0
 10
119.1191831800141
 20
58.83940158517045
 30
0.0
 10
118.9250362599057
 20
58.78183467800217
 30
0.0
 10
118.8598342698082
 20
58.75557507321618
 30
0.0
 10
118.8598342698082
 20
58.74232132874215
 30
0.0
  0
LINE
  5
94
330
1F
100
AcDbEntity
  8
0
  6
Continuous
 62
     7
370
    15
100
AcDbLine
 10
118.8598342698
 20
58.7423213287
 30
0.0
 11
118.8598342698
 21
58.7323203285
 31
0.0
  0
SPLINE
  5
95
330
1F
100
AcDbEntity
  8
0
  6
Continuous
 62
     7
370
    15
100
AcDbSpline
210
0.0
220
0.0
230
1.0
 70
     8
 71
     3
 72
    17
 73
    13
 74
     0
 42
0.00000001
 43
0.00000001
 40
0.0
 40
0.0
 40
0.0
 40
0.0
 40
0.104384384054747
 40
0.2118345768143993
 40
0.316208200519045
 40
0.4235375806108392
 40
0.5292276236193852
 40
0.6379275864803491
 40
0.7444714844189683
 40
0.8541836219421859
 40
0.9593080534965217
 40
1.0
 40
1.0
 40
1.0
 40
1.0
 10
128.8598342698081
 20
157.7221151842057
 30
0.0
 10
128.3118958219488
 20
157.7274833879544
 30
0.0
 10
127.1999257674841
 20
157.7383774616194
 30
0.0
 10
125.5870698542691
 20
157.8235548358783
 30
0.0
 10
124.0535566372922
 20
157.9499295421709
 30
0.0
 10
122.6625357879556
 20
158.1068323627477
 30
0.0
 10
121.4270192707252
 20
158.2785311922682
 30
0.0
 10
120.4036635035699
 20
158.4438674683693
 30
0.0
 10
119.6033215053048
 20
158.5875809479559
 30
0.0
 10
119.0929894033913
 20
158.6857357551351
 30
0.0
 10
118.8530809745667
 20
158.7336641520049
 30
0.0
 10
118.8849997539866
 20
158.7272967527653
 30
0.0
 10
118.8939071022687
 20
158.7255198476421
 30
0.0
  0
LINE
  5
96
330
1F
100
AcDbEntity
  8
0
  6
Continuous
 62
     7
370
    15
100
AcDbLine
 10
130.6478052489
 20
157.7221151842
 30
0.0
 11
128.8598342698
 21
157.7221151842
 31
0.0
  0
LINE
  5
97
330
1F
100
AcDbEntity
  8
0
  6
Continuous
 62
     7
370
    15
100
AcDbLine
 10
130.6478052489
 20
147.6832830894
 30
0.0
 11
130.6478052489
 21
157.7221151842
 31
0.0
  0
LINE
  5
98
330
1F
100
AcDbEntity
  8
0
  6
Continuous
 62
     7
370
    15
100
AcDbLine
 10
128.567801118
 20
147.6832830894
 30
0.0
 11
130.6478052489
 21
147.6832830894
 31
0.0
  0
SPLINE
  5
99
330
1F
100
AcDbEntity
  8
0
  6
Continuous
 62
     7
370
    15
100
AcDbSpline
210
0.0
220
0.0
230
1.0
 70
     8
 71
     3
 72
    22
 73
    18
 74
     0
 42
0.00000001
 43
0.00000001
 40
0.0
 40
0.0
 40
0.0
 40
0.0
 40
0.2500000000000002
 40
0.2500000000000002
 40
0.3750000000000003
 40
0.3750000000000003
 40
0.5000000000000004
 40
0.5000000000000004
 40
0.6250000000000004
 40
0.6250000000000004
 40
0.7500000000000004
 40
0.7500000000000004
 40
0.8750000000000004
 40
0.8750000000000004
 40
0.9375000000000002
 40
0.9375000000000002
 40
1.0
 40
1.0
 40
1.0
 40
1.0
 10
118.8598342698082
 20
140.0823203285421
 30
0.0
 10
119.0625592257273
 20
141.1015666704068
 30
0.0
 10
119.3773029475226
 20
142.060674820346
 30
0.0
 10
120.0853584171936
 20
143.4031538978553
 30
0.0
 10
120.3638210474112
 20
143.8373624805953
 30
0.0
 10
121.0025884540484
 20
144.6489901960974
 30
0.0
 10
121.3630021338386
 20
145.0282704890343
 30
0.0
 10
122.1805343658279
 20
145.7312290680553
 30
0.0
 10
122.6417023491151
 20
146.0562578857559
 30
0.0
 10
123.6396925955988
 20
146.6212732091468
 30
0.0
 10
124.1794517895911
 20
146.8649768033533
 30
0.0
 10
125.3540447536224
 20
147.2691767309982
 30
0.0
 10
125.9657809396143
 20
147.4216139240437
 30
0.0
 10
126.917690164476
 20
147.5769414716524
 30
0.0
 10
127.2409233287367
 20
147.6164462517025
 30
0.0
 10
127.8999865000119
 20
147.6697553723712
 30
0.0
 10
128.2340505105859
 20
147.683283089429
 30
0.0
 10
128.5678011179875
 20
147.683283089429
 30
0.0
  0
SPLINE
  5
9A
330
1F
100
AcDbEntity
  8
0
  6
Continuous
 62
     7
370
    15
100
AcDbSpline
210
0.0
220
0.0
230
1.0
 70
     8
 71
     3
 72
    80
 73
    76
 74
     0
 42
0.00000001
 43
0.00000001
 40
-0.0312499999999993
 40
-0.0312499999999993
 40
0.0
 40
0.0
 40
0.03125
 40
0.03125
 40
0.046875
 40
0.046875
 40
0.0625
 40
0.0625
 40
0.09375
 40
0.09375
 40
0.1250000000000001
 40
0.1250000000000001
 40
0.1562500000000001
 40
0.1562500000000001
 40
0.1875000000000001
 40
0.1875000000000001
 40
0.2187500000000002
 40
0.2187500000000002
 40
0.2500000000000002
 40
0.2500000000000002
 40
0.2812500000000003
 40
0.2812500000000003
 40
0.3125000000000003
 40
0.3125000000000003
 40
0.3281250000000004
 40
0.3281250000000004
 40
0.3437500000000006
 40
0.3437500000000006
 40
0.3750000000000011
 40
0.3750000000000011
 40
0.4062500000000016
 40
0.4062500000000016
 40
0.4218750000000018
 40
0.4218750000000018
 40
0.437500000000002
 40
0.437500000000002
 40
0.4687500000000023
 40
0.4687500000000023
 40
0.5000000000000027
 40
0.5000000000000027
 40
0.531250000000003
 40
0.531250000000003
 40
0.5625000000000033
 40
0.5625000000000033
 40
0.5937500000000037
 40
0.5937500000000037
 40
0.6250000000000039
 40
0.6250000000000039
 40
0.6562500000000042
 40
0.6562500000000042
 40
0.6875000000000046
 40
0.6875000000000046
 40
0.7031250000000047
 40
0.7031250000000047
 40
0.7187500000000048
 40
0.7187500000000048
 40
0.7500000000000048
 40
0.7500000000000048
 40
0.7812500000000048
 40
0.7812500000000048
 40
0.7968750000000044
 40
0.7968750000000044
 40
0.8125000000000041
 40
0.8125000000000041
 40
0.8437500000000034
 40
0.8437500000000034
 40
0.8750000000000027
 40
0.8750000000000027
 40
0.906250000000002
 40
0.906250000000002
 40
0.9375000000000013
 40
0.9375000000000013
 40
0.9687500000000007
 40
0.9687500000000007
 40
1.0
 40
1.0
 40
1.03125
 40
1.03125
 10
123.2403795825845
 20
152.1469497921734
 30
0.0
 10
122.5792889570319
 20
152.1469497921734
 30
0.0
 10
122.2543088277802
 20
152.1631580235556
 30
0.0
 10
121.7748354165338
 20
152.2105226555751
 30
0.0
 10
121.616353598693
 20
152.2301768674658
 30
0.0
 10
121.3021340661887
 20
152.2772880236584
 30
0.0
 10
121.1460137825083
 20
152.3048693431531
 30
0.0
 10
120.6919597535518
 20
152.3974051299469
 30
0.0
 10
120.4048563706119
 20
152.4724755635434
 30
0.0
 10
119.8615018145849
 20
152.647713872154
 30
0.0
 10
119.6043982033793
 20
152.7487151699922
 30
0.0
 10
119.1434919484405
 20
152.9660713684531
 30
0.0
 10
118.9365942392256
 20
153.0832357002254
 30
0.0
 10
118.5710689252334
 20
153.333305624454
 30
0.0
 10
118.4158634031074
 20
153.464251713213
 30
0.0
 10
118.1664330165077
 20
153.7299866569253
 30
0.0
 10
118.0703430607225
 20
153.8667402502363
 30
0.0
 10
117.941824211529
 20
154.1408058250753
 30
0.0
 10
117.9100133413512
 20
154.2757459155441
 30
0.0
 10
117.9096566915779
 20
154.5412175526129
 30
0.0
 10
117.942153943775
 20
154.6730420297541
 30
0.0
 10
118.0697794174895
 20
154.9224916293745
 30
0.0
 10
118.1642078185413
 20
155.0409243213025
 30
0.0
 10
118.3520686385269
 20
155.2097935183966
 30
0.0
 10
118.4228966373301
 20
155.2648795135168
 30
0.0
 10
118.5776185292954
 20
155.3701323420052
 30
0.0
 10
118.6615949994788
 20
155.4204675707655
 30
0.0
 10
118.9329186691232
 20
155.5650434033036
 30
0.0
 10
119.1394678877255
 20
155.6529049897206
 30
0.0
 10
119.6060780279145
 20
155.8126260827201
 30
0.0
 10
119.85844359754
 20
155.8818643791873
 30
0.0
 10
120.2643449392187
 20
155.9716517684171
 30
0.0
 10
120.4042455566962
 20
155.9992177305033
 30
0.0
 10
120.6934694919431
 20
156.0497085314297
 30
0.0
 10
120.8433089482324
 20
156.0726719702803
 30
0.0
 10
121.2974255178432
 20
156.1333024866992
 30
0.0
 10
121.6090767365801
 20
156.163376515495
 30
0.0
 10
122.2500732014924
 20
156.2039661027537
 30
0.0
 10
122.5816008294446
 20
156.2142783329697
 30
0.0
 10
123.2343918745161
 20
156.2143539001355
 30
0.0
 10
123.5589280795479
 20
156.2044522946678
 30
0.0
 10
124.2041975289643
 20
156.1639657641425
 30
0.0
 10
124.519940535127
 20
156.1335044642578
 30
0.0
 10
125.1218298301107
 20
156.0533537928212
 30
0.0
 10
125.4125790609222
 20
156.0030715610141
 30
0.0
 10
125.9594908526067
 20
155.8824013782411
 30
0.0
 10
126.2112682164436
 20
155.8131775190711
 30
0.0
 10
126.6726562090648
 20
155.6557257914304
 30
0.0
 10
126.8839254886628
 20
155.5663773167566
 30
0.0
 10
127.247229841039
 20
155.3731294460558
 30
0.0
 10
127.4010364894818
 20
155.2690014541766
 30
0.0
 10
127.5896559590792
 20
155.1003770679931
 30
0.0
 10
127.6456864452883
 20
155.0417486663181
 30
0.0
 10
127.7412602070245
 20
154.9222937514919
 30
0.0
 10
127.7810231240495
 20
154.8613739626537
 30
0.0
 10
127.8767948743617
 20
154.6749692364798
 30
0.0
 10
127.9095177134878
 20
154.5458564186848
 30
0.0
 10
127.9101462998168
 20
154.2771994957289
 30
0.0
 10
127.8779601550821
 20
154.1418287549721
 30
0.0
 10
127.7830494532265
 20
153.9382784467362
 30
0.0
 10
127.7435826698275
 20
153.8703065226728
 30
0.0
 10
127.6486526711066
 20
153.7342142995419
 30
0.0
 10
127.5928958433433
 20
153.6658641993324
 30
0.0
 10
127.4049557253734
 20
153.4651611862903
 30
0.0
 10
127.2515942556572
 20
153.3357729124776
 30
0.0
 10
126.8893300207769
 20
153.0871074804278
 30
0.0
 10
126.6784815473109
 20
152.9672978380596
 30
0.0
 10
126.217811576992
 20
152.7497755504869
 30
0.0
 10
125.9664371974082
 20
152.650690450651
 30
0.0
 10
125.4205293105101
 20
152.4740179767342
 30
0.0
 10
125.1297067358588
 20
152.3979608886001
 30
0.0
 10
124.5283801210788
 20
152.2751159112472
 30
0.0
 10
124.2138615364664
 20
152.227409786194
 30
0.0
 10
123.5672800803465
 20
152.1631612510744
 30
0.0
 10
123.2403795825845
 20
152.1469497921734
 30
0.0
 10
122.5792889570319
 20
152.1469497921734
 30
0.0
  0
LINE
  5
9B
330
1F
100
AcDbEntity
  8
0
  6
Continuous
 62
     7
370
    15
100
AcDbLine
 10
141.8598342698
 20
59.9573267355
 30
0.0
 11
137.1718632907
 21
59.9573267355
 31
0.0
  0
LINE
  5
9C
330
1F
100
AcDbEntity
  8
0
  6
Continuous
 62
     7
370
    15
100
AcDbLine
 10
137.1718632907
 20
59.9573267355
 30
0.0
 11
137.1718632907
 21
140.0823203285
 31
0.0
  0
LINE
  5
9D
330
1F
100
AcDbEntity
  8
0
  6
Continuous
 62
     7
370
    15
100
AcDbLine
 10
137.1718632907
 20
140.0823203285
 30
0.0
 11
141.8598342698
 21
140.0823203285
 31
0.0
  0
SPLINE
  5
9E
330
1F
100
AcDbEntity
  8
0
  6
Continuous
 62
     7
370
    15
100
AcDbSpline
210
0.0
220
0.0
230
1.0
 70
     8
 71
     3
 72
     8
 73
     4
 74
     0
 42
0.00000001
 43
0.00000001
 40
0.0
 40
0.0
 40
0.0
 40
0.0
 40
1.0
 40
1.0
 40
1.0
 40
1.0
 10
137.1718632907296
 20
59.9573267355133
 30
0.0
 10
136.7207585613293
 20
60.75828666733322
 30
0.0
 10
136.2700607340859
 20
61.55947667889388
 30
0.0
 10
135.8198342698082
 20
62.36093204151864
 30
0.0
  0
LINE
  5
9F
330
1F
100
AcDbEntity
  8
0
  6
Continuous
 62
     7
370
    15
100
AcDbLine
 10
135.8198342698
 20
62.3609320415
 30
0.0
 11
135.8198342698
 21
140.0823203285
 31
0.0
  0
SPLINE
  5
A0
330
1F
100
AcDbEntity
  8
0
  6
Continuous
 62
     7
370
    15
100
AcDbSpline
210
0.0
220
0.0
230
1.0
 70
    24
 71
     3
 72
     8
 73
     4
 74
     0
 42
0.00000001
 43
0.00000001
 40
0.0
 40
0.0
 40
0.0
 40
0.0
 40
1.0
 40
1.0
 40
1.0
 40
1.0
 10
135.8198342698082
 20
140.0823203285421
 30
0.0
 10
136.2640471521621
 20
140.0823203285421
 30
0.0
 10
136.7150617184013
 20
140.0823203285421
 30
0.0
 10
137.1718632907296
 20
140.0823203285421
 30
0.0
  0
LINE
  5
A1
330
1F
100
AcDbEntity
  8
0
  6
Continuous
 62
     7
370
    15
100
AcDbLine
 10
131.9998342698
 20
62.3609320415
 30
0.0
 11
131.9998342698
 21
140.0823203285
 31
0.0
  0
SPLINE
  5
A2
330
1F
100
AcDbEntity
  8
0
  6
Continuous
 62
     7
370
    15
100
AcDbSpline
210
0.0
220
0.0
230
1.0
 70
     8
 71
     3
 72
     8
 73
     4
 74
     0
 42
0.00000001
 43
0.00000001
 40
0.0
 40
0.0
 40
0.0
 40
0.0
 40
1.0
 40
1.0
 40
1.0
 40
1.0
 10
131.9998342698082
 20
62.36093204151864
 30
0.0
 10
131.5496078055304
 20
61.55947667889388
 30
0.0
 10
131.098909978287
 20
60.75828666733322
 30
0.0
 10
130.6478052488868
 20
59.9573267355133
 30
0.0
  0
SPLINE
  5
A3
330
1F
100
AcDbEntity
  8
0
  6
Continuous
 62
     7
370
    15
100
AcDbSpline
210
0.0
220
0.0
230
1.0
 70
    24
 71
     3
 72
     8
 73
     4
 74
     0
 42
0.00000001
 43
0.00000001
 40
0.0
 40
0.0
 40
0.0
 40
0.0
 40
1.0
 40
1.0
 40
1.0
 40
1.0
 10
130.6478052488868
 20
140.0823203285421
 30
0.0
 10
131.104606821215
 20
140.0823203285421
 30
0.0
 10
131.5556213874542
 20
140.0823203285421
 30
0.0
 10
131.9998342698082
 20
140.0823203285421
 30
0.0
  0
LINE
  5
A4
330
1F
100
AcDbEntity
  8
0
  6
Continuous
 62
     7
370
    15
100
AcDbLine
 10
142.8598342698
 20
60.9829747833
 30
0.0
 11
142.8598342698
 21
140.0823203285
 31
0.0
  0
SPLINE
  5
A5
330
1F
100
AcDbEntity
  8
0
  6
Continuous
 62
     7
370
    15
100
AcDbSpline
210
0.0
220
0.0
230
1.0
 70
     8
 71
     3
 72
    14
 73
    10
 74
     0
 42
0.00000001
 43
0.00000001
 40
0.0
 40
0.0
 40
0.0
 40
0.0
 40
0.25
 40
0.25
 40
0.5
 40
0.5
 40
0.75
 40
0.75
 40
1.0
 40
1.0
 40
1.0
 40
1.0
 10
142.8598342698082
 20
60.98297478328881
 30
0.0
 10
142.8598342698082
 20
60.84954908723427
 30
0.0
 10
142.8345231698973
 20
60.71770127938992
 30
0.0
 10
142.7361884060526
 20
60.47117873069582
 30
0.0
 10
142.6630444017965
 20
60.35737354245527
 30
0.0
 10
142.4796063407008
 20
60.166916365508
 30
0.0
 10
142.3679200063622
 20
60.08928150165809
 30
0.0
 10
142.1254165760559
 20
59.98499009154561
 30
0.0
 10
141.9920421473617
 20
59.95732673551326
 30
0.0
 10
141.8598342698082
 20
59.95732673551327
 30
0.0
  0
SPLINE
  5
A6
330
1F
100
AcDbEntity
  8
0
  6
Continuous
 62
     7
370
    15
100
AcDbSpline
210
0.0
220
0.0
230
1.0
 70
    24
 71
     3
 72
    12
 73
     8
 74
     0
 42
0.00000001
 43
0.00000001
 40
0.0
 40
0.0
 40
0.0
 40
0.0
 40
0.2500000000000032
 40
0.2500000000000032
 40
0.5000000000000064
 40
0.5000000000000064
 40
1.0
 40
1.0
 40
1.0
 40
1.0
 10
141.8598342698082
 20
140.0823203285421
 30
0.0
 10
142.0119245067532
 20
140.0823203285421
 30
0.0
 10
142.1603837678286
 20
140.0823203285421
 30
0.0
 10
142.4177874000943
 20
140.0823203285421
 30
0.0
 10
142.5268921479362
 20
140.0823203285421
 30
0.0
 10
142.7809516243438
 20
140.0823203285421
 30
0.0
 10
142.8598342698082
 20
140.0823203285421
 30
0.0
 10
142.8598342698082
 20
140.0823203285421
 30
0.0
  0
SPLINE
  5
A7
330
1F
100
AcDbEntity
  8
0
  6
Continuous
 62
     7
370
    15
100
AcDbSpline
210
0.0
220
0.0
230
1.0
 70
     8
 71
     3
 72
    12
 73
     8
 74
     0
 42
0.00000001
 43
0.00000001
 40
0.0
 40
0.0
 40
0.0
 40
0.0
 40
0.25
 40
0.25
 40
0.5
 40
0.5
 40
1.0
 40
1.0
 40
1.0
 40
1.0
 10
132.7998342698082
 20
64.09264487049246
 30
0.0
 10
132.6940736164592
 20
64.09264487049246
 30
0.0
 10
132.5860859882763
 20
64.07010536449206
 30
0.0
 10
132.3914913230107
 20
63.98553473249674
 30
0.0
 10
132.3026194101718
 20
63.92305307973798
 30
0.0
 10
132.083427117846
 20
63.69366412826579
 30
0.0
 10
131.9998342698082
 20
63.48108079074341
 30
0.0
 10
131.9998342698082
 20
63.26914154614721
 30
0.0
  0
SPLINE
  5
A8
330
1F
100
AcDbEntity
  8
0
  6
Continuous
 62
     7
370
    15
100
AcDbSpline
210
0.0
220
0.0
230
1.0
 70
    24
 71
     3
 72
    14
 73
    10
 74
     0
 42
0.00000001
 43
0.00000001
 40
0.0
 40
0.0
 40
0.0
 40
0.0
 40
0.25
 40
0.25
 40
0.5
 40
0.5
 40
0.75
 40
0.75
 40
1.0
 40
1.0
 40
1.0
 40
1.0
 10
131.9998342698082
 20
140.0823203285421
 30
0.0
 10
131.9998342698082
 20
140.0823203285421
 30
0.0
 10
132.0155485902741
 20
140.0823203285421
 30
0.0
 10
132.0792325687425
 20
140.0823203285421
 30
0.0
 10
132.1278357631529
 20
140.0823203285421
 30
0.0
 10
132.2605192855785
 20
140.0823203285421
 30
0.0
 10
132.3456213898892
 20
140.0823203285421
 30
0.0
 10
132.5520636247992
 20
140.0823203285421
 30
0.0
 10
132.6761445664223
 20
140.0823203285421
 30
0.0
 10
132.7998342698082
 20
140.0823203285421
 30
0.0
  0
SPLINE
  5
A9
330
1F
100
AcDbEntity
  8
0
  6
Continuous
 62
     7
370
    15
100
AcDbSpline
210
0.0
220
0.0
230
1.0
 70
     8
 71
     3
 72
    14
 73
    10
 74
     0
 42
0.00000001
 43
0.00000001
 40
0.0
 40
0.0
 40
0.0
 40
0.0
 40
0.25
 40
0.25
 40
0.5
 40
0.5
 40
0.75
 40
0.75
 40
1.0
 40
1.0
 40
1.0
 40
1.0
 10
135.8198342698082
 20
63.26914154614721
 30
0.0
 10
135.8198342698082
 20
63.3761856271416
 30
0.0
 10
135.79971658265
 20
63.48142076738406
 30
0.0
 10
135.7212253933844
 20
63.67927125423173
 30
0.0
 10
135.6630687685832
 20
63.77032301779666
 30
0.0
 10
135.5165535129651
 20
63.92348911172144
 30
0.0
 10
135.427910964324
 20
63.98578355793084
 30
0.0
 10
135.2321876415237
 20
64.07057734346682
 30
0.0
 10
135.1269564504528
 20
64.09264487049246
 30
0.0
 10
135.0198342698082
 20
64.09264487049246
 30
0.0
  0
SPLINE
  5
AA
330
1F
100
AcDbEntity
  8
0
  6
Continuous
 62
     7
370
    15
100
AcDbSpline
210
0.0
220
0.0
230
1.0
 70
    24
 71
     3
 72
    14
 73
    10
 74
     0
 42
0.00000001
 43
0.00000001
 40
0.0
 40
0.0
 40
0.0
 40
0.0
 40
0.25
 40
0.25
 40
0.5
 40
0.5
 40
0.75
 40
0.75
 40
1.0
 40
1.0
 40
1.0
 40
1.0
 10
135.0198342698082
 20
140.0823203285421
 30
0.0
 10
135.1436040345733
 20
140.0823203285421
 30
0.0
 10
135.2679711385802
 20
140.0823203285421
 30
0.0
 10
135.4743276073063
 20
140.0823203285421
 30
0.0
 10
135.5596557507246
 20
140.0823203285421
 30
0.0
 10
135.6918478094398
 20
140.0823203285421
 30
0.0
 10
135.7404930531904
 20
140.0823203285421
 30
0.0
 10
135.8040288449191
 20
140.0823203285421
 30
0.0
 10
135.8198342698082
 20
140.0823203285421
 30
0.0
 10
135.8198342698082
 20
140.0823203285421
 30
0.0
  0
LINE
  5
AB
330
1F
100
AcDbEntity
  8
0
  6
Continuous
 62
     7
370
    15
100
AcDbLine
 10
135.0198342698
 20
64.0926448705
 30
0.0
 11
132.7998342698
 21
64.0926448705
 31
0.0
  0
LINE
  5
AC
330
1F
100
AcDbEntity
  8
0
  6
Continuous
 62
     7
370
    15
100
AcDbLine
 10
132.7998342698
 20
140.0823203285
 30
0.0
 11
135.0198342698
 21
140.0823203285
 31
0.0
  0
LINE
  5
AD
330
1F
100
AcDbEntity
  8
0
  6
Continuous
 62
     7
370
    15
100
AcDbLine
 10
111.4098342698
 20
70.8500688255
 30
0.0
 11
111.4098342698
 21
146.6145718315
 31
0.0
  0
LINE
  5
AE
330
1F
100
AcDbEntity
  8
0
  6
Continuous
 62
     7
370
    15
100
AcDbLine
 10
79.1098342698
 20
72.4683052985
 30
0.0
 11
79.1098342698
 21
74.8629870632
 31
0.0
  0
SPLINE
  5
AF
330
1F
100
AcDbEntity
  8
0
  6
Continuous
 62
     7
370
    15
100
AcDbSpline
210
0.0
220
0.0
230
1.0
 70
     8
 71
     3
 72
    14
 73
    10
 74
     0
 42
0.00000001
 43
0.00000001
 40
0.0
 40
0.0
 40
0.0
 40
0.0
 40
0.25
 40
0.25
 40
0.5
 40
0.5
 40
0.75
 40
0.75
 40
1.0
 40
1.0
 40
1.0
 40
1.0
 10
78.10541179847121
 20
76.56583898479857
 30
0.0
 10
78.19418037641654
 20
76.40730485349061
 30
0.0
 10
78.31589821509546
 20
76.25486217660207
 30
0.0
 10
78.55094782495229
 20
75.95772755277315
 30
0.0
 10
78.66657801116918
 20
75.81304490915579
 30
0.0
 10
78.86698294459698
 20
75.52975570665238
 30
0.0
 10
78.95238323658133
 20
75.39120171361552
 30
0.0
 10
79.07408887029854
 20
75.119817683582
 30
0.0
 10
79.10983426981119
 20
74.98768181494738
 30
0.0
 10
79.10983426981117
 20
74.8629870631766
 30
0.0
  0
SPLINE
  5
B0
330
1F
100
AcDbEntity
  8
0
  6
Continuous
 62
     7
370
    15
100
AcDbSpline
210
0.0
220
0.0
230
1.0
 70
     8
 71
     3
 72
    14
 73
    10
 74
     0
 42
0.00000001
 43
0.00000001
 40
0.0
 40
0.0
 40
0.0
 40
0.0
 40
0.124999999999999
 40
0.124999999999999
 40
0.2499999999999981
 40
0.2499999999999981
 40
0.4999999999999952
 40
0.4999999999999952
 40
1.0
 40
1.0
 40
1.0
 40
1.0
 10
77.20983426980818
 20
77.19466892389867
 30
0.0
 10
77.27741656959266
 20
77.20182480900006
 30
0.0
 10
77.34990414734058
 20
77.19740033896106
 30
0.0
 10
77.4821952566065
 20
77.16769418119074
 30
0.0
 10
77.5394726359967
 20
77.1444098996125
 30
0.0
 10
77.68912306319696
 20
77.06692465976217
 30
0.0
 10
77.76283635871847
 20
77.0050728328608
 30
0.0
 10
77.9506443420447
 20
76.82039538021246
 30
0.0
 10
78.03468464840613
 20
76.69215245692126
 30
0.0
 10
78.10541179847243
 20
76.56583898479869
 30
0.0
  0
SPLINE
  5
B1
330
1F
100
AcDbEntity
  8
0
  6
Continuous
 62
     7
370
    15
100
AcDbSpline
210
0.0
220
0.0
230
1.0
 70
     8
 71
     3
 72
     8
 73
     4
 74
     0
 42
0.00000001
 43
0.00000001
 40
0.0
 40
0.0
 40
0.0
 40
0.0
 40
1.0
 40
1.0
 40
1.0
 40
1.0
 10
73.66519388172726
 20
76.7766203391069
 30
0.0
 10
74.83049219243618
 20
76.93180781099352
 30
0.0
 10
76.01510740647605
 20
77.06816644930383
 30
0.0
 10
77.20983426980818
 20
77.19466892389869
 30
0.0
  0
SPLINE
  5
B2
330
1F
100
AcDbEntity
  8
0
  6
Continuous
 62
     7
370
    15
100
AcDbSpline
210
0.0
220
0.0
230
1.0
 70
     8
 71
     3
 72
    14
 73
    10
 74
     0
 42
0.00000001
 43
0.00000001
 40
0.0
 40
0.0
 40
0.0
 40
0.0
 40
0.5000000000000002
 40
0.5000000000000002
 40
0.7500000000000003
 40
0.7500000000000003
 40
0.8750000000000001
 40
0.8750000000000001
 40
1.0
 40
1.0
 40
1.0
 40
1.0
 10
65.90975938577948
 20
76.48648815997699
 30
0.0
 10
67.21806094831321
 20
76.49350288371811
 30
0.0
 10
68.52312032297
 20
76.5089114601626
 30
0.0
 10
70.46899637445827
 20
76.56280801562926
 30
0.0
 10
71.11569387819726
 20
76.58583958023195
 30
0.0
 10
72.07953624205159
 20
76.6367821051027
 30
0.0
 10
72.39977493398567
 20
76.65651702733591
 30
0.0
 10
73.03647016032808
 20
76.70600415580745
 30
0.0
 10
73.35318556861098
 20
76.73506893473669
 30
0.0
 10
73.6651938817273
 20
76.77662033910684
 30
0.0
  0
SPLINE
  5
B3
330
1F
100
AcDbEntity
  8
0
  6
Continuous
 62
     7
370
    15
100
AcDbSpline
210
0.0
220
0.0
230
1.0
 70
     8
 71
     3
 72
    12
 73
     8
 74
     0
 42
0.00000001
 43
0.00000001
 40
0.0
 40
0.0
 40
0.0
 40
0.0
 40
0.2499999999999992
 40
0.2499999999999992
 40
0.4999999999999984
 40
0.4999999999999984
 40
1.0
 40
1.0
 40
1.0
 40
1.0
 10
72.20983426980817
 20
140.8188432200385
 30
0.0
 10
71.69113544797997
 20
140.8513659948868
 30
0.0
 10
71.16942387477498
 20
140.8746627360572
 30
0.0
 10
70.1231318582794
 20
140.9125082504794
 30
0.0
 10
69.59846023260916
 20
140.9267767249755
 30
0.0
 10
68.02161421006991
 20
140.9609862124338
 30
0.0
 10
66.96665889552303
 20
140.9724857163777
 30
0.0
 10
65.90975938577779
 20
140.9781524971072
 30
0.0
  0
SPLINE
  5
B4
330
1F
100
AcDbEntity
  8
0
  6
Continuous
 62
     7
370
    15
100
AcDbSpline
210
0.0
220
0.0
230
1.0
 70
     8
 71
     3
 72
    20
 73
    16
 74
     0
 42
0.00000001
 43
0.00000001
 40
0.0
 40
0.0
 40
0.0
 40
0.0
 40
0.2499999999999999
 40
0.2499999999999999
 40
0.4999999999999998
 40
0.4999999999999998
 40
0.7499999999999997
 40
0.7499999999999997
 40
0.8749999999999996
 40
0.8749999999999996
 40
0.9375000000000002
 40
0.9375000000000002
 40
0.9687500000000001
 40
0.9687500000000001
 40
1.0
 40
1.0
 40
1.0
 40
1.0
 10
74.10983426980818
 20
142.4769290655267
 30
0.0
 10
74.10983426980818
 20
142.3412467457799
 30
0.0
 10
74.06112248059155
 20
142.2001597596398
 30
0.0
 10
73.89196105736637
 20
141.9080880409093
 30
0.0
 10
73.77018064344803
 20
141.7564392988189
 30
0.0
 10
73.47263354869854
 20
141.4540308586658
 30
0.0
 10
73.29872094299574
 20
141.3014422225424
 30
0.0
 10
72.97930610911396
 20
141.0761714587002
 30
0.0
 10
72.8642653336667
 20
141.0014483641895
 30
0.0
 10
72.65718100965027
 20
140.9020379549324
 30
0.0
 10
72.58107317484388
 20
140.8704728625879
 30
0.0
 10
72.44967863529054
 20
140.8360294783949
 30
0.0
 10
72.40312541628907
 20
140.8269779066273
 30
0.0
 10
72.30679206520834
 20
140.8168022577888
 30
0.0
 10
72.25753264185292
 20
140.8158524991138
 30
0.0
 10
72.20983426980618
 20
140.8188432200284
 30
0.0
  0
LINE
  5
B5
330
1F
100
AcDbEntity
  8
0
  6
Continuous
 62
     7
370
    15
100
AcDbLine
 10
74.1098342698
 20
142.4769290655
 30
0.0
 11
74.1098342698
 21
144.7458343566
 31
0.0
  0
SPLINE
  5
B6
330
1F
100
AcDbEntity
  8
0
  6
Continuous
 62
     7
370
    15
100
AcDbSpline
210
0.0
220
0.0
230
1.0
 70
     8
 71
     3
 72
    24
 73
    20
 74
     0
 42
0.00000001
 43
0.00000001
 40
0.0
 40
0.0
 40
0.0
 40
0.0
 40
0.0002934293894791
 40
0.0628080051759335
 40
0.1260453927228735
 40
0.1890746766613218
 40
0.251320054086014
 40
0.3133304633785417
 40
0.3759158453762868
 40
0.4383740564598514
 40
0.5000631094857222
 40
0.5616593988027264
 40
0.6245050380643616
 40
0.6872231506498157
 40
0.7494953263230503
 40
0.8117583797537838
 40
0.8747365508229915
 40
0.9378980306236063
 40
1.0
 40
1.0
 40
1.0
 40
1.0
 10
92.4297905336476
 20
71.80107507022973
 30
0.0
 10
92.42959568076283
 20
71.80105076283574
 30
0.0
 10
92.38788778975155
 20
71.7958478111822
 30
0.0
 10
92.53300618128038
 20
71.81448243451189
 30
0.0
 10
92.88808512282291
 20
71.85700221306105
 30
0.0
 10
93.49266076036717
 20
71.92513849666254
 30
0.0
 10
94.29909606918122
 20
71.99839403367864
 30
0.0
 10
95.28457349309956
 20
72.06291337449619
 30
0.0
 10
96.41624308977774
 20
72.10147760255745
 30
0.0
 10
97.63853555994048
 20
72.10517210855888
 30
0.0
 10
98.90586424138361
 20
72.06274612851057
 30
0.0
 10
100.172349771809
 20
71.97449898772825
 30
0.0
 10
101.3884871356234
 20
71.84610571746427
 30
0.0
 10
102.5138976314789
 20
71.69346472887162
 30
0.0
 10
103.4913146930287
 20
71.531690113766
 30
0.0
 10
104.2945801715786
 20
71.37916122066429
 30
0.0
 10
104.8830736945793
 20
71.25514747739686
 30
0.0
 10
105.2719798062296
 20
71.17022355112077
 30
0.0
 10
105.3187409369682
 20
71.15949723984197
 30
0.0
 10
105.3419237435107
 20
71.15417944715038
 30
0.0
  0
SPLINE
  5
B7
330
1F
100
AcDbEntity
  8
0
  6
Continuous
 62
     7
370
    15
100
AcDbSpline
210
0.0
220
0.0
230
1.0
 70
     8
 71
     3
 72
    41
 73
    37
 74
     0
 42
0.00000001
 43
0.00000001
 40
0.0
 40
0.0
 40
0.0
 40
0.0
 40
0.0619930061484378
 40
0.1254347783466322
 40
0.1886508898237652
 40
0.2510246408607262
 40
0.313165818897716
 40
0.3756581641417481
 40
0.438222714672822
 40
0.4998044922940693
 40
0.5615164197177447
 40
0.6240683094121975
 40
0.6867257232408516
 40
0.7488365305144536
 40
0.8110685944253998
 40
0.8741742884451369
 40
0.9373212787645215
 40
0.9685511709617414
 40
0.9842086872487195
 40
0.9920641182531791
 40
0.996000486125535
 40
0.9979710794120144
 40
0.9989570090489597
 40
0.9994501359395066
 40
0.9996967403802177
 40
0.9998200529090742
 40
0.9998817117580818
 40
0.999912541829664
 40
0.9999279570273361
 40
0.9999356646666603
 40
0.9999395184964466
 40
0.9999414454138695
 40
0.9999424088732151
 40
0.9999433723329807
 40
0.9999501697010514
 40
1.0
 40
1.0
 40
1.0
 40
1.0
 10
105.3418024130328
 20
146.3104161919823
 30
0.0
 10
105.31823076769
 20
146.3051067123325
 30
0.0
 10
105.2705366116466
 20
146.294363671393
 30
0.0
 10
104.8784946222173
 20
146.2091345349372
 30
0.0
 10
104.2879805729455
 20
146.0845657562965
 30
0.0
 10
103.4839431269018
 20
145.9316188101446
 30
0.0
 10
102.5078677267217
 20
145.7698622561911
 30
0.0
 10
101.3860589914407
 20
145.617629488259
 30
0.0
 10
100.1725280716536
 20
145.4898495470578
 30
0.0
 10
98.90769736525537
 20
145.4020009953751
 30
0.0
 10
97.63965432781293
 20
145.3596155115046
 30
0.0
 10
96.41614697011228
 20
145.3633513194761
 30
0.0
 10
95.28264842969708
 20
145.4019467899242
 30
0.0
 10
94.29654261872318
 20
145.4663861612154
 30
0.0
 10
93.48791480993549
 20
145.5398959684965
 30
0.0
 10
92.89129611482633
 20
145.6072096533083
 30
0.0
 10
92.5759048253682
 20
145.6451742045763
 30
0.0
 10
92.46583825657032
 20
145.6589732639081
 30
0.0
 10
92.4384188687561
 20
145.6624593378288
 30
0.0
 10
92.43149681792659
 20
145.6633385635222
 30
0.0
 10
92.42972857774318
 20
145.6635593381285
 30
0.0
 10
92.42926819856982
 20
145.6636145408392
 30
0.0
 10
92.429144039885
 20
145.6636282806263
 30
0.0
 10
92.42910848539185
 20
145.6636316764573
 30
0.0
 10
92.42909734132174
 20
145.6636325047776
 30
0.0
 10
92.42909342812565
 20
145.6636327013664
 30
0.0
 10
92.4290918859208
 20
145.6636327452964
 30
0.0
 10
92.42909121891931
 20
145.6636327536032
 30
0.0
 10
92.42909091074155
 20
145.6636327544335
 30
0.0
 10
92.4290907639755
 20
145.6636327538883
 30
0.0
 10
92.42909069102303
 20
145.6636327535584
 30
0.0
 10
92.42909065663068
 20
145.6636327531211
 30
0.0
 10
92.4290906343855
 20
145.6636327532096
 30
0.0
 10
92.42909060727608
 20
145.6636327503746
 30
0.0
 10
92.42908808771469
 20
145.6636330372298
 30
0.0
 10
92.42912417763274
 20
145.6636284171291
 30
0.0
 10
92.4291559354554
 20
145.6636243516076
 30
0.0
  0
SPLINE
  5
B8
330
1F
100
AcDbEntity
  8
0
  6
Continuous
 62
     7
370
    15
100
AcDbSpline
210
0.0
220
0.0
230
1.0
 70
     8
 71
     3
 72
    20
 73
    16
 74
     0
 42
0.00000001
 43
0.00000001
 40
0.0
 40
0.0
 40
0.0
 40
0.0
 40
0.249999999999986
 40
0.249999999999986
 40
0.3749999999999789
 40
0.3749999999999789
 40
0.4374999999999789
 40
0.4374999999999789
 40
0.4999999999999789
 40
0.4999999999999789
 40
0.6249999999999835
 40
0.6249999999999835
 40
0.7499999999999879
 40
0.7499999999999879
 40
1.0
 40
1.0
 40
1.0
 40
1.0
 10
64.30064850152418
 20
78.05383717584141
 30
0.0
 10
64.3269207187376
 20
78.07315511692387
 30
0.0
 10
64.35760086099243
 20
78.08754382802564
 30
0.0
 10
64.42907173137435
 20
78.08063946618962
 30
0.0
 10
64.45709876841867
 20
78.0734734628412
 30
0.0
 10
64.5121823579162
 20
78.04377443613762
 30
0.0
 10
64.53307368646863
 20
78.03030079357629
 30
0.0
 10
64.57828233391407
 20
77.99510252806027
 30
0.0
 10
64.60268654630966
 20
77.97319429933302
 30
0.0
 10
64.67401886436112
 20
77.90106943933748
 30
0.0
 10
64.71591564918135
 20
77.8487288983874
 30
0.0
 10
64.78749160803724
 20
77.75124550648667
 30
0.0
 10
64.81831959785455
 20
77.70449173660825
 30
0.0
 10
64.90141953069012
 20
77.57119852076913
 30
0.0
 10
64.94627443606042
 20
77.48856112285392
 30
0.0
 10
64.986386511513
 20
77.40945422806314
 30
0.0
  0
SPLINE
  5
B9
330
1F
100
AcDbEntity
  8
0
  6
Continuous
 62
     7
370
    15
100
AcDbSpline
210
0.0
220
0.0
230
1.0
 70
     8
 71
     3
 72
    14
 73
    10
 74
     0
 42
0.00000001
 43
0.00000001
 40
0.0
 40
0.0
 40
0.0
 40
0.0
 40
0.25
 40
0.25
 40
0.5
 40
0.5
 40
0.75
 40
0.75
 40
1.0
 40
1.0
 40
1.0
 40
1.0
 10
64.0098342698082
 20
78.22965058597418
 30
0.0
 10
64.0098342698082
 20
78.18840365494984
 30
0.0
 10
64.01844398618944
 20
78.15149668266736
 30
0.0
 10
64.04953016575978
 20
78.09059662276795
 30
0.0
 10
64.07191971924384
 20
78.06641570322826
 30
0.0
 10
64.12666365041996
 20
78.032448112345
 30
0.0
 10
64.15911389000514
 20
78.02252802837681
 30
0.0
 10
64.22911540473321
 20
78.02117681947196
 30
0.0
 10
64.26732590485577
 20
78.02933509616813
 30
0.0
 10
64.30064850152884
 20
78.05383717583621
 30
0.0
  0
LINE
  5
BA
330
1F
100
AcDbEntity
  8
0
  6
Continuous
 62
     7
370
    15
100
AcDbLine
 10
64.0098342698
 20
78.229650586
 30
0.0
 11
64.0098342698
 21
139.2349900711
 31
0.0
  0
SPLINE
  5
BB
330
1F
100
AcDbEntity
  8
0
  6
Continuous
 62
     7
370
    15
100
AcDbSpline
210
0.0
220
0.0
230
1.0
 70
     8
 71
     3
 72
    10
 73
     6
 74
     0
 42
0.00000001
 43
0.00000001
 40
0.0
 40
0.0
 40
0.0
 40
0.0
 40
0.0592402688376383
 40
0.6438088530391344
 40
1.0
 40
1.0
 40
1.0
 40
1.0
 10
64.30064850152883
 20
139.410803481248
 30
0.0
 10
64.29581624390762
 20
139.4140523878796
 30
0.0
 10
64.24330044177289
 20
139.4493607160353
 30
0.0
 10
64.14435024409411
 20
139.4556150125939
 30
0.0
 10
64.09492171920276
 20
139.400414774905
 30
0.0
 10
64.07620705445846
 20
139.3795148199817
 30
0.0
  0
SPLINE
  5
BC
330
1F
100
AcDbEntity
  8
0
  6
Continuous
 62
     7
370
    15
100
AcDbSpline
210
0.0
220
0.0
230
1.0
 70
     8
 71
     3
 72
     8
 73
     4
 74
     0
 42
0.00000001
 43
0.00000001
 40
0.0
 40
0.0
 40
0.0
 40
0.0
 40
1.0
 40
1.0
 40
1.0
 40
1.0
 10
64.03346793874438
 20
139.3425695721797
 30
0.0
 10
64.01811890010833
 20
139.3120595171838
 30
0.0
 10
64.0098342698082
 20
139.2757479616714
 30
0.0
 10
64.0098342698082
 20
139.23499007111
 30
0.0
  0
SPLINE
  5
BD
330
1F
100
AcDbEntity
  8
0
  6
Continuous
 62
     7
370
    15
100
AcDbSpline
210
0.0
220
0.0
230
1.0
 70
     8
 71
     3
 72
    20
 73
    16
 74
     0
 42
0.00000001
 43
0.00000001
 40
0.0
 40
0.0
 40
0.0
 40
0.0
 40
0.2500000000000037
 40
0.2500000000000037
 40
0.3750000000000055
 40
0.3750000000000055
 40
0.5000000000000073
 40
0.5000000000000073
 40
0.5625000000000057
 40
0.5625000000000057
 40
0.625000000000004
 40
0.625000000000004
 40
0.7500000000000027
 40
0.7500000000000027
 40
1.0
 40
1.0
 40
1.0
 40
1.0
 10
64.98638651151059
 20
140.0551864290203
 30
0.0
 10
64.94639029368676
 20
139.9763080224628
 30
0.0
 10
64.90127666584911
 20
139.8931783757713
 30
0.0
 10
64.81802245148258
 20
139.7596897114204
 30
0.0
 10
64.78780312286209
 20
139.7138246555384
 30
0.0
 10
64.71571488772065
 20
139.6156331031335
 30
0.0
 10
64.67379757030959
 20
139.5633232836099
 30
0.0
 10
64.60254696575811
 20
139.4913173808754
 30
0.0
 10
64.57831115337879
 20
139.4695471685739
 30
0.0
 10
64.53271296319416
 20
139.4340725102448
 30
0.0
 10
64.51191047359443
 20
139.4207023260673
 30
0.0
 10
64.45696947517531
 20
139.3911324139321
 30
0.0
 10
64.4289004870885
 20
139.3840058916301
 30
0.0
 10
64.35839765702566
 20
139.3771315201474
 30
0.0
 10
64.3269735692348
 20
139.3914466792345
 30
0.0
 10
64.3006485015262
 20
139.4108034812451
 30
0.0
  0
SPLINE
  5
BE
330
1F
100
AcDbEntity
  8
0
  6
Continuous
 62
     7
370
    15
100
AcDbSpline
210
0.0
220
0.0
230
1.0
 70
     8
 71
     3
 72
    10
 73
     6
 74
     0
 42
0.00000001
 43
0.00000001
 40
0.0
 40
0.0
 40
0.0
 40
0.0
 40
0.4999999999999989
 40
0.4999999999999989
 40
1.0
 40
1.0
 40
1.0
 40
1.0
 10
65.65983426980817
 20
140.9806055303621
 30
0.0
 10
65.53494599905798
 20
140.8496092522906
 30
0.0
 10
65.41349588099754
 20
140.7058964156256
 30
0.0
 10
65.18391190604011
 20
140.3953261229364
 30
0.0
 10
65.07363693064414
 20
140.2272570498733
 30
0.0
 10
64.9863865115106
 20
140.0551864290203
 30
0.0
  0
SPLINE
  5
BF
330
1F
100
AcDbEntity
  8
0
  6
Continuous
 62
     7
370
    15
100
AcDbSpline
210
0.0
220
0.0
230
1.0
 70
     8
 71
     3
 72
     8
 73
     4
 74
     0
 42
0.00000001
 43
0.00000001
 40
0.0
 40
0.0
 40
0.0
 40
0.0
 40
1.0
 40
1.0
 40
1.0
 40
1.0
 10
65.90975938577392
 20
140.9781524971067
 30
0.0
 10
65.82274135592556
 20
140.9786190618938
 30
0.0
 10
65.73978732954562
 20
140.9796590814699
 30
0.0
 10
65.65983426980587
 20
140.9806055303622
 30
0.0
  0
SPLINE
  5
C0
330
1F
100
AcDbEntity
  8
0
  6
Continuous
 62
     7
370
    15
100
AcDbSpline
210
0.0
220
0.0
230
1.0
 70
     8
 71
     3
 72
     8
 73
     4
 74
     0
 42
0.00000001
 43
0.00000001
 40
0.0
 40
0.0
 40
0.0
 40
0.0
 40
1.0
 40
1.0
 40
1.0
 40
1.0
 10
65.65983426980587
 20
76.48403512672203
 30
0.0
 10
65.73978732954613
 20
76.4849815756143
 30
0.0
 10
65.82274135592664
 20
76.48602159519042
 30
0.0
 10
65.90975938577562
 20
76.4864881599775
 30
0.0
  0
SPLINE
  5
C1
330
1F
100
AcDbEntity
  8
0
  6
Continuous
 62
     7
370
    15
100
AcDbSpline
210
0.0
220
0.0
230
1.0
 70
     8
 71
     3
 72
    10
 73
     6
 74
     0
 42
0.00000001
 43
0.00000001
 40
0.0
 40
0.0
 40
0.0
 40
0.0
 40
0.4999999999999989
 40
0.4999999999999989
 40
1.0
 40
1.0
 40
1.0
 40
1.0
 10
64.98638651150968
 20
77.40945422806571
 30
0.0
 10
65.07363693064316
 20
77.23738360721232
 30
0.0
 10
65.18391190603931
 20
77.06931453414889
 30
0.0
 10
65.41349588099715
 20
76.7587442414591
 30
0.0
 10
65.5349459990578
 20
76.61503140479381
 30
0.0
 10
65.65983426980817
 20
76.4840351267221
 30
0.0
  0
SPLINE
  5
C2
330
1F
100
AcDbEntity
  8
0
  6
Continuous
 62
     7
370
    15
100
AcDbSpline
210
0.0
220
0.0
230
1.0
 70
     8
 71
     3
 72
     8
 73
     4
 74
     0
 42
0.00000001
 43
0.00000001
 40
0.0
 40
0.0
 40
0.0
 40
0.0
 40
1.0
 40
1.0
 40
1.0
 40
1.0
 10
131.9998342698082
 20
155.329591189247
 30
0.0
 10
131.5495260341236
 20
156.1273063143606
 30
0.0
 10
131.0988322176
 20
156.9248046140178
 30
0.0
 10
130.6478052488868
 20
157.7221151842057
 30
0.0
  0
LINE
  5
C3
330
1F
100
AcDbEntity
  8
0
  6
Continuous
 62
     7
370
    15
100
AcDbLine
 10
131.9998342698
 20
144.6277678347
 30
0.0
 11
131.9998342698
 21
155.3295911892
 31
0.0
  0
SPLINE
  5
C4
330
1F
100
AcDbEntity
  8
0
  6
Continuous
 62
     7
370
    15
100
AcDbSpline
210
0.0
220
0.0
230
1.0
 70
     8
 71
     3
 72
     8
 73
     4
 74
     0
 42
0.00000001
 43
0.00000001
 40
0.0
 40
0.0
 40
0.0
 40
0.0
 40
1.0
 40
1.0
 40
1.0
 40
1.0
 10
130.6478052488868
 20
147.683283089429
 30
0.0
 10
131.1047316026863
 20
146.6673651197547
 30
0.0
 10
131.5559372444894
 20
145.6485692906636
 30
0.0
 10
131.9998342698082
 20
144.62776783468
 30
0.0
  0
SPLINE
  5
C5
330
1F
100
AcDbEntity
  8
0
  6
Continuous
 62
     7
370
    15
100
AcDbSpline
210
0.0
220
0.0
230
1.0
 70
     8
 71
     3
 72
    14
 73
    10
 74
     0
 42
0.00000001
 43
0.00000001
 40
0.0
 40
0.0
 40
0.0
 40
0.0
 40
0.25
 40
0.25
 40
0.5
 40
0.5
 40
0.75
 40
0.75
 40
1.0
 40
1.0
 40
1.0
 40
1.0
 10
135.8198342698082
 20
154.4258715693901
 30
0.0
 10
135.8198342698082
 20
154.3195148756377
 30
0.0
 10
135.799446713667
 20
154.2136743878776
 30
0.0
 10
135.7208123682054
 20
154.0171094743412
 30
0.0
 10
135.6620810085668
 20
153.9259387320541
 30
0.0
 10
135.5154721029642
 20
153.7740276430224
 30
0.0
 10
135.4260667829377
 20
153.7119588062029
 30
0.0
 10
135.2321760503374
 20
153.6286907584442
 30
0.0
 10
135.1256710604475
 20
153.6065960887145
 30
0.0
 10
135.0198342698082
 20
153.6065960887145
 30
0.0
  0
SPLINE
  5
C6
330
1F
100
AcDbEntity
  8
0
  6
Continuous
 62
     7
370
    15
100
AcDbSpline
210
0.0
220
0.0
230
1.0
 70
     8
 71
     3
 72
    12
 73
     8
 74
     0
 42
0.00000001
 43
0.00000001
 40
0.0
 40
0.0
 40
0.0
 40
0.0
 40
0.250000000000002
 40
0.250000000000002
 40
0.500000000000004
 40
0.500000000000004
 40
1.0
 40
1.0
 40
1.0
 40
1.0
 10
135.0198342698082
 20
142.3608517416146
 30
0.0
 10
135.1435352197881
 20
142.3608517416146
 30
0.0
 10
135.2676318320583
 20
142.4028453533471
 30
0.0
 10
135.4742869951453
 20
142.5406406799915
 30
0.0
 10
135.5593277618722
 20
142.6346142784564
 30
0.0
 10
135.7588063303458
 20
142.9494024846773
 30
0.0
 10
135.8198342698082
 20
143.1996414769049
 30
0.0
 10
135.8198342698082
 20
143.4465555210392
 30
0.0
  0
SPLINE
  5
C7
330
1F
100
AcDbEntity
  8
0
  6
Continuous
 62
     7
370
    15
100
AcDbSpline
210
0.0
220
0.0
230
1.0
 70
     8
 71
     3
 72
    10
 73
     6
 74
     0
 42
0.00000001
 43
0.00000001
 40
0.0
 40
0.0
 40
0.0
 40
0.0
 40
0.5
 40
0.5
 40
1.0
 40
1.0
 40
1.0
 40
1.0
 10
132.7998342698082
 20
153.6065960887146
 30
0.0
 10
132.5872979559518
 20
153.6065960887146
 30
0.0
 10
132.3773617842978
 20
153.6980086753447
 30
0.0
 10
132.0836546432866
 20
154.0027535412489
 30
0.0
 10
131.9998342698082
 20
154.2149085111575
 30
0.0
 10
131.9998342698082
 20
154.4258715693901
 30
0.0
  0
SPLINE
  5
C8
330
1F
100
AcDbEntity
  8
0
  6
Continuous
 62
     7
370
    15
100
AcDbSpline
210
0.0
220
0.0
230
1.0
 70
     8
 71
     3
 72
    14
 73
    10
 74
     0
 42
0.00000001
 43
0.00000001
 40
0.0
 40
0.0
 40
0.0
 40
0.0
 40
0.25
 40
0.25
 40
0.5
 40
0.5
 40
0.75
 40
0.75
 40
1.0
 40
1.0
 40
1.0
 40
1.0
 10
131.9998342698082
 20
143.4465555210392
 30
0.0
 10
131.9998342698082
 20
143.32268864425
 30
0.0
 10
132.0156933974358
 20
143.1984289674124
 30
0.0
 10
132.0790550429556
 20
142.9608206050066
 30
0.0
 10
132.127644751005
 20
142.8440402202541
 30
0.0
 10
132.2599303557799
 20
142.6352376916451
 30
0.0
 10
132.3452551470405
 20
142.5407269880525
 30
0.0
 10
132.5521463953466
 20
142.4027701872502
 30
0.0
 10
132.6761143412366
 20
142.3608517416145
 30
0.0
 10
132.7998342698082
 20
142.3608517416145
 30
0.0
  0
SPLINE
  5
C9
330
1F
100
AcDbEntity
  8
0
  6
Continuous
 62
     7
370
    15
100
AcDbSpline
210
0.0
220
0.0
230
1.0
 70
     8
 71
     3
 72
    12
 73
     8
 74
     0
 42
0.00000001
 43
0.00000001
 40
0.0
 40
0.0
 40
0.0
 40
0.0
 40
0.4999999999999953
 40
0.4999999999999953
 40
0.7499999999999977
 40
0.7499999999999977
 40
1.0
 40
1.0
 40
1.0
 40
1.0
 10
142.8598342698082
 20
156.701060149388
 30
0.0
 10
142.8598342698082
 20
156.9663295821543
 30
0.0
 10
142.7552275263217
 20
157.2288446878067
 30
0.0
 10
142.4785591745764
 20
157.514382293844
 30
0.0
 10
142.3681939152244
 20
157.5907039107054
 30
0.0
 10
142.1241218666087
 20
157.6950460755455
 30
0.0
 10
141.9923694052769
 20
157.7221151842057
 30
0.0
 10
141.8598342698082
 20
157.7221151842057
 30
0.0
  0
SPLINE
  5
CA
330
1F
100
AcDbEntity
  8
0
  6
Continuous
 62
     7
370
    15
100
AcDbSpline
210
0.0
220
0.0
230
1.0
 70
     8
 71
     3
 72
    16
 73
    12
 74
     0
 42
0.00000001
 43
0.00000001
 40
0.0
 40
0.0
 40
0.0
 40
0.0
 40
0.1249999999999978
 40
0.1249999999999978
 40
0.2499999999999955
 40
0.2499999999999955
 40
0.499999999999997
 40
0.499999999999997
 40
0.7499999999999984
 40
0.7499999999999984
 40
1.0
 40
1.0
 40
1.0
 40
1.0
 10
141.8598342698082
 20
147.683283089429
 30
0.0
 10
141.9354719762194
 20
147.683283089429
 30
0.0
 10
142.0117876406376
 20
147.6719380892941
 30
0.0
 10
142.1561983785295
 20
147.6292855386556
 30
0.0
 10
142.224644827638
 20
147.5983512139727
 30
0.0
 10
142.4195760802511
 20
147.4790948422051
 30
0.0
 10
142.527417254032
 20
147.3689428285846
 30
0.0
 10
142.696130002244
 20
147.1208067429265
 30
0.0
 10
142.7584944149675
 20
146.9804644189228
 30
0.0
 10
142.839798339476
 20
146.6921927274342
 30
0.0
 10
142.8598342698082
 20
146.5413877544543
 30
0.0
 10
142.8598342698082
 20
146.3910178631091
 30
0.0
  0
LINE
  5
CB
330
1F
100
AcDbEntity
  8
0
  6
Continuous
 62
     7
370
    15
100
AcDbLine
 10
142.8598342698
 20
146.3910178631
 30
0.0
 11
142.8598342698
 21
156.7010601494
 31
0.0
  0
LINE
  5
CC
330
1F
100
AcDbEntity
  8
0
  6
Continuous
 62
     7
370
    15
100
AcDbLine
 10
141.8598342698
 20
157.7221151842
 30
0.0
 11
137.1718632907
 21
157.7221151842
 31
0.0
  0
LINE
  5
CD
330
1F
100
AcDbEntity
  8
0
  6
Continuous
 62
     7
370
    15
100
AcDbLine
 10
137.1718632907
 20
147.6832830894
 30
0.0
 11
141.8598342698
 21
147.6832830894
 31
0.0
  0
LINE
  5
CE
330
1F
100
AcDbEntity
  8
0
  6
Continuous
 62
     7
370
    15
100
AcDbLine
 10
137.1718632907
 20
147.6832830894
 30
0.0
 11
137.1718632907
 21
157.7221151842
 31
0.0
  0
SPLINE
  5
CF
330
1F
100
AcDbEntity
  8
0
  6
Continuous
 62
     7
370
    15
100
AcDbSpline
210
0.0
220
0.0
230
1.0
 70
     8
 71
     3
 72
     8
 73
     4
 74
     0
 42
0.00000001
 43
0.00000001
 40
0.0
 40
0.0
 40
0.0
 40
0.0
 40
1.0
 40
1.0
 40
1.0
 40
1.0
 10
137.1718632907296
 20
157.7221151842057
 30
0.0
 10
136.7208363220163
 20
156.9248046140178
 30
0.0
 10
136.2701425054927
 20
156.1273063143606
 30
0.0
 10
135.8198342698082
 20
155.329591189247
 30
0.0
  0
SPLINE
  5
D0
330
1F
100
AcDbEntity
  8
0
  6
Continuous
 62
     7
370
    15
100
AcDbSpline
210
0.0
220
0.0
230
1.0
 70
     8
 71
     3
 72
     8
 73
     4
 74
     0
 42
0.00000001
 43
0.00000001
 40
0.0
 40
0.0
 40
0.0
 40
0.0
 40
1.0
 40
1.0
 40
1.0
 40
1.0
 10
135.8198342698082
 20
144.6277678346799
 30
0.0
 10
136.2639842808337
 20
145.6491510656316
 30
0.0
 10
136.7150585910916
 20
146.6676356023999
 30
0.0
 10
137.1718632907296
 20
147.683283089429
 30
0.0
  0
LINE
  5
D1
330
1F
100
AcDbEntity
  8
0
  6
Continuous
 62
     7
370
    15
100
AcDbLine
 10
135.8198342698
 20
144.6277678347
 30
0.0
 11
135.8198342698
 21
155.3295911892
 31
0.0
  0
LINE
  5
D2
330
1F
100
AcDbEntity
  8
0
  6
Continuous
 62
     7
370
    15
100
AcDbLine
 10
131.9998342698
 20
144.6277678347
 30
0.0
 11
131.9998342698
 21
143.446555521
 31
0.0
  0
LINE
  5
D3
330
1F
100
AcDbEntity
  8
0
  6
Continuous
 62
     7
370
    15
100
AcDbLine
 10
132.7998342698
 20
142.3608517416
 30
0.0
 11
135.0198342698
 21
142.3608517416
 31
0.0
  0
LINE
  5
D4
330
1F
100
AcDbEntity
  8
0
  6
Continuous
 62
     7
370
    15
100
AcDbLine
 10
135.8198342698
 20
143.446555521
 30
0.0
 11
135.8198342698
 21
144.6277678347
 31
0.0
  0
LINE
  5
D5
330
1F
100
AcDbEntity
  8
0
  6
Continuous
 62
     7
370
    15
100
AcDbLine
 10
142.8598342698
 20
146.3910178631
 30
0.0
 11
142.8598342698
 21
140.0823203285
 31
0.0
  0
LINE
  5
D6
330
1F
100
AcDbEntity
  8
0
  6
Continuous
 62
     7
370
    15
100
AcDbLine
 10
135.0198342698
 20
153.6065960887
 30
0.0
 11
132.7998342698
 21
153.6065960887
 31
0.0
  0
LINE
  5
D7
330
1F
100
AcDbEntity
  8
0
  6
Continuous
 62
     7
370
    15
100
AcDbLine
 10
167.9098342698
 20
133.7323203285
 30
0.0
 11
167.9098342698
 21
83.7323203292
 31
0.0
  0
ARC
  5
D8
330
1F
100
AcDbEntity
  8
0
  6
Continuous
 62
     7
370
    15
100
AcDbCircle
 10
122.9098883249
 20
141.3756672615
 30
0.0
 40
11.37423968197724
100
AcDbArc
 50
77.8281974113
 51
102.1903534332
  0
LINE
  5
D9
330
1F
100
AcDbEntity
  8
0
  6
Continuous
 62
     7
370
    15
100
AcDbLine
 10
223.9098342698
 20
127.9323203285
 30
0.0
 11
223.9098342698
 21
117.8073203285
 31
0.0
  0
LINE
  5
DA
330
1F
100
AcDbEntity
  8
0
  6
Continuous
 62
     7
370
    15
100
AcDbLine
 10
223.9098342698
 20
117.8073203285
 30
0.0
 11
223.5598342698
 21
117.4573203285
 31
0.0
  0
LINE
  5
DB
330
1F
100
AcDbEntity
  8
0
  6
Continuous
 62
     7
370
    15
100
AcDbLine
 10
223.5598342698
 20
100.0073203285
 30
0.0
 11
223.9098342698
 21
99.6573203285
 31
0.0
  0
LINE
  5
DC
330
1F
100
AcDbEntity
  8
0
  6
Continuous
 62
     7
370
    15
100
AcDbLine
 10
223.9098342698
 20
99.6573203285
 30
0.0
 11
223.9098342698
 21
89.5323203285
 31
0.0
  0
LINE
  5
DD
330
1F
100
AcDbEntity
  8
0
  6
Continuous
 62
     7
370
    15
100
AcDbLine
 10
65.6598342698
 20
76.4823203285
 30
0.0
 11
65.6598342698
 21
76.4840351267
 31
0.0
  0
LINE
  5
DE
330
1F
100
AcDbEntity
  8
0
  6
Continuous
 62
     7
370
    15
100
AcDbLine
 10
65.6598342698
 20
140.9823203285
 30
0.0
 11
65.6598342698
 21
140.9806055304
 31
0.0
  0
LINE
  5
DF
330
1F
100
AcDbEntity
  8
0
  6
HIDDEN
 62
     7
370
     0
100
AcDbLine
 10
113.9098342698
 20
158.2323203242
 30
0.0
 11
113.9098342698
 21
59.2323203285
 31
0.0
  0
LINE
  5
E0
330
1F
100
AcDbEntity
  8
0
  6
HIDDEN
 62
     7
370
     0
100
AcDbLine
 10
118.8598342698
 20
58.7323203285
 30
0.0
 11
118.8598342698
 21
58.7423213287
 31
0.0
  0
SPLINE
  5
E1
330
1F
100
AcDbEntity
  8
0
  6
HIDDEN
 62
     7
370
     0
100
AcDbSpline
210
0.0
220
0.0
230
1.0
 70
     8
 71
     3
 72
    30
 73
    26
 74
     0
 42
0.00000001
 43
0.00000001
 40
0.0
 40
0.0
 40
0.0
 40
0.0
 40
0.1249999999999996
 40
0.1249999999999996
 40
0.1874999999999994
 40
0.1874999999999994
 40
0.2499999999999993
 40
0.2499999999999993
 40
0.3749999999999992
 40
0.3749999999999992
 40
0.4374999999999993
 40
0.4374999999999993
 40
0.4999999999999994
 40
0.4999999999999994
 40
0.6249999999999992
 40
0.6249999999999992
 40
0.6874999999999993
 40
0.6874999999999993
 40
0.7499999999999994
 40
0.7499999999999994
 40
0.8124999999999997
 40
0.8124999999999997
 40
0.8749999999999998
 40
0.8749999999999998
 40
1.0
 40
1.0
 40
1.0
 40
1.0
 10
118.8598342698082
 20
58.74232132874215
 30
0.0
 10
118.8598342698082
 20
58.75557603590507
 30
0.0
 10
118.9250345226807
 20
58.78176090668965
 30
0.0
 10
119.1161822913872
 20
58.83854755949013
 30
0.0
 10
119.1955739455626
 20
58.86039711036562
 30
0.0
 10
119.3863625143334
 20
58.90963060646604
 30
0.0
 10
119.4981976509046
 20
58.93710299521955
 30
0.0
 10
119.8745639276337
 20
59.02517671691287
 30
0.0
 10
120.181317825921
 20
59.0919235728929
 30
0.0
 10
120.7244626799101
 20
59.19945998413765
 30
0.0
 10
120.9204430812665
 20
59.23672027764628
 30
0.0
 10
121.3365797904005
 20
59.31202768937763
 30
0.0
 10
121.5555580506943
 20
59.34987511439641
 30
0.0
 10
122.2443863563598
 20
59.46260742099316
 30
0.0
 10
122.7458107481236
 20
59.53671102607752
 30
0.0
 10
123.5637385590794
 20
59.64059020642768
 30
0.0
 10
123.8465329937269
 20
59.67384595948618
 30
0.0
 10
124.4220259687851
 20
59.73560922388678
 30
0.0
 10
124.7161225689124
 20
59.76430021543708
 30
0.0
 10
125.3169423387595
 20
59.81659194927805
 30
0.0
 10
125.6236652231209
 20
59.84019376018487
 30
0.0
 10
126.250028703871
 20
59.88157373417475
 30
0.0
 10
126.5712523945939
 20
59.89941446081922
 30
0.0
 10
127.5421325544438
 20
59.94247806364187
 30
0.0
 10
128.1970799384548
 20
59.95732673551329
 30
0.0
 10
128.8598342698082
 20
59.95732673551331
 30
0.0
  0
LINE
  5
E2
330
1F
100
AcDbEntity
  8
0
  6
HIDDEN
 62
     7
370
     0
100
AcDbLine
 10
128.8598342698
 20
59.9573267355
 30
0.0
 11
130.6478052489
 21
59.9573267355
 31
0.0
  0
LINE
  5
E3
330
1F
100
AcDbEntity
  8
0
  6
HIDDEN
 62
     7
370
     0
100
AcDbLine
 10
130.6478052489
 20
157.7221151842
 30
0.0
 11
130.6478052489
 21
59.9573267355
 31
0.0
  0
LINE
  5
E4
330
1F
100
AcDbEntity
  8
0
  6
HIDDEN
 62
     7
370
     0
100
AcDbLine
 10
128.8598342698
 20
157.7221151842
 30
0.0
 11
130.6478052489
 21
157.7221151842
 31
0.0
  0
SPLINE
  5
E5
330
1F
100
AcDbEntity
  8
0
  6
HIDDEN
 62
     7
370
     0
100
AcDbSpline
210
0.0
220
0.0
230
1.0
 70
     8
 71
     3
 72
    17
 73
    13
 74
     0
 42
0.00000001
 43
0.00000001
 40
0.0
 40
0.0
 40
0.0
 40
0.0
 40
0.0675713835403045
 40
0.171257585940554
 40
0.2779172497219738
 40
0.3822981543720018
 40
0.4896051157883323
 40
0.5957700740380902
 40
0.7049969930015989
 40
0.8113234717900902
 40
0.9208377487614552
 40
1.0
 40
1.0
 40
1.0
 40
1.0
 10
118.8939071022687
 20
158.7255198476421
 30
0.0
 10
118.891374478329
 20
158.7260170011079
 30
0.0
 10
118.8849556211252
 20
158.7272770212222
 30
0.0
 10
119.1887151732566
 20
158.6669536204095
 30
0.0
 10
119.7522685362676
 20
158.5599622209446
 30
0.0
 10
120.58353736882
 20
158.4134148247124
 30
0.0
 10
121.6371682833539
 20
158.2472015001634
 30
0.0
 10
122.910299969017
 20
158.0759234432388
 30
0.0
 10
124.3496952161623
 20
157.9213698273015
 30
0.0
 10
125.9354478833685
 20
157.8009221316373
 30
0.0
 10
127.4547660192231
 20
157.7327065543871
 30
0.0
 10
128.4445532336223
 20
157.7252455625213
 30
0.0
 10
128.8598342698081
 20
157.7221151842057
 30
0.0
  0
SPLINE
  5
E6
330
1F
100
AcDbEntity
  8
0
  6
HIDDEN
 62
     7
370
     0
100
AcDbSpline
210
0.0
220
0.0
230
1.0
 70
     8
 71
     3
 72
    80
 73
    76
 74
     0
 42
0.00000001
 43
0.00000001
 40
-0.0312500000000001
 40
-0.0312500000000001
 40
0.0
 40
0.0
 40
0.0312499999999999
 40
0.0312499999999999
 40
0.0468749999999998
 40
0.0468749999999998
 40
0.0624999999999998
 40
0.0624999999999998
 40
0.0937499999999996
 40
0.0937499999999996
 40
0.1249999999999995
 40
0.1249999999999995
 40
0.1562499999999993
 40
0.1562499999999993
 40
0.1874999999999992
 40
0.1874999999999992
 40
0.218749999999999
 40
0.218749999999999
 40
0.2499999999999988
 40
0.2499999999999988
 40
0.2812499999999987
 40
0.2812499999999987
 40
0.3124999999999985
 40
0.3124999999999985
 40
0.3281249999999984
 40
0.3281249999999984
 40
0.3437499999999984
 40
0.3437499999999984
 40
0.3749999999999983
 40
0.3749999999999983
 40
0.4062499999999983
 40
0.4062499999999983
 40
0.4218749999999983
 40
0.4218749999999983
 40
0.4374999999999983
 40
0.4374999999999983
 40
0.4687499999999983
 40
0.4687499999999983
 40
0.4999999999999984
 40
0.4999999999999984
 40
0.5312499999999986
 40
0.5312499999999986
 40
0.5624999999999987
 40
0.5624999999999987
 40
0.5937499999999987
 40
0.5937499999999987
 40
0.6249999999999987
 40
0.6249999999999987
 40
0.6562499999999987
 40
0.6562499999999987
 40
0.6874999999999987
 40
0.6874999999999987
 40
0.7031249999999987
 40
0.7031249999999987
 40
0.7187499999999988
 40
0.7187499999999988
 40
0.749999999999999
 40
0.749999999999999
 40
0.7812499999999992
 40
0.7812499999999992
 40
0.7968749999999992
 40
0.7968749999999992
 40
0.8124999999999993
 40
0.8124999999999993
 40
0.8437499999999994
 40
0.8437499999999994
 40
0.8749999999999996
 40
0.8749999999999996
 40
0.9062499999999997
 40
0.9062499999999997
 40
0.9374999999999998
 40
0.9374999999999998
 40
0.9687499999999999
 40
0.9687499999999999
 40
1.0
 40
1.0
 40
1.03125
 40
1.03125
 10
115.9098342698082
 20
109.0628654716021
 30
0.0
 10
115.9098342698082
 20
108.4017751854821
 30
0.0
 10
115.9422893639887
 20
108.0767947833809
 30
0.0
 10
116.037634618223
 20
107.5973205100328
 30
0.0
 10
116.0772514763768
 20
107.4388383309318
 30
0.0
 10
116.1725095722018
 20
107.1246179795483
 30
0.0
 10
116.2284056833458
 20
106.9684970440605
 30
0.0
 10
116.4166843440829
 20
106.5144410484502
 30
0.0
 10
116.5702746922655
 20
106.2273365874885
 30
0.0
 10
116.9331083830425
 20
105.683981093563
 30
0.0
 10
117.1441626051703
 20
105.4268769739436
 30
0.0
 10
117.605162895445
 20
104.965971172691
 30
0.0
 10
117.856741197766
 20
104.7590744979625
 30
0.0
 10
118.4032136001606
 20
104.3935517756845
 30
0.0
 10
118.6939318922412
 20
104.2383472670126
 30
0.0
 10
119.2954750392233
 20
103.9889184375692
 30
0.0
 10
119.6107498849847
 20
103.8928289833944
 30
0.0
 10
120.2562495521036
 20
103.764310290767
 30
0.0
 10
120.5807980181871
 20
103.7324994579752
 30
0.0
 10
121.2334037515875
 20
103.7321426933877
 30
0.0
 10
121.5648727780992
 20
103.7646398169017
 30
0.0
 10
122.2062870420974
 20
103.8922650269676
 30
0.0
 10
122.5180614575487
 20
103.9866931239981
 30
0.0
 10
122.9722599294744
 20
104.1745529517089
 30
0.0
 10
123.1221410552666
 20
104.245380475941
 30
0.0
 10
123.4115952251269
 20
104.4001011886222
 30
0.0
 10
123.5516030575795
 20
104.4840770574097
 30
0.0
 10
123.9578090666662
 20
104.755399093117
 30
0.0
 10
124.2103259578124
 20
104.9619474465675
 30
0.0
 10
124.6773411969539
 20
105.4285575335425
 30
0.0
 10
124.8841250357835
 20
105.6809221534422
 30
0.0
 10
125.1557565283622
 20
106.0868244103454
 30
0.0
 10
125.2398352373252
 20
106.226725514347
 30
0.0
 10
125.3947667729006
 20
106.5159507306805
 30
0.0
 10
125.4657435607362
 20
106.6657908684167
 30
0.0
 10
125.6540459445542
 20
107.1199092481638
 30
0.0
 10
125.7487238918785
 20
107.4315617254225
 30
0.0
 10
125.8768798863177
 20
108.0725600980925
 30
0.0
 10
125.9097139879194
 20
108.4040874113372
 30
0.0
 10
125.9099538764841
 20
109.0568784318957
 30
0.0
 10
125.8784211629863
 20
109.3814150648996
 30
0.0
 10
125.7505776773237
 20
110.0266861788425
 30
0.0
 10
125.6546852630103
 20
110.3424294374888
 30
0.0
 10
125.405734433822
 20
110.9443203298136
 30
0.0
 10
125.2508423523508
 20
111.2350701052811
 30
0.0
 10
124.8857186985283
 20
111.7819843472709
 30
0.0
 10
124.6790142870011
 20
112.0337619506779
 30
0.0
 10
124.2185131893575
 20
112.4951488648571
 30
0.0
 10
123.9616005717081
 20
112.7064169005678
 30
0.0
 10
123.4185573872221
 20
113.0697192547825
 30
0.0
 10
123.1316331536277
 20
113.2235248129378
 30
0.0
 10
122.6779083964815
 20
113.4121430690727
 30
0.0
 10
122.521872378688
 20
113.4681732392353
 30
0.0
 10
122.2076362268739
 20
113.5637465917111
 30
0.0
 10
122.0491636910356
 20
113.6035093601306
 30
0.0
 10
121.5697736285296
 20
113.6992808165047
 30
0.0
 10
121.2449223351691
 20
113.7320036659227
 30
0.0
 10
120.5842639157658
 20
113.7326324618191
 30
0.0
 10
120.2587366816485
 20
113.7004462866782
 30
0.0
 10
119.7792055339604
 20
113.6055358545555
 30
0.0
 10
119.6207255794703
 20
113.5660692128614
 30
0.0
 10
119.3065499109909
 20
113.4711396706288
 30
0.0
 10
119.1503485273012
 20
113.4153831717377
 30
0.0
 10
118.6959390377668
 20
113.2274441963751
 30
0.0
 10
118.408682089551
 20
113.0740837289001
 30
0.0
 10
117.8651266766784
 20
112.7118212175772
 30
0.0
 10
117.6077856830666
 20
112.5009739872723
 30
0.0
 10
117.1463904211385
 20
112.040305465536
 30
0.0
 10
116.9393052918262
 20
111.7889310553345
 30
0.0
 10
116.5734359084971
 20
111.2430211773404
 30
0.0
 10
116.417823071742
 20
110.9521975712801
 30
0.0
 10
116.1678598401979
 20
110.3508684697169
 30
0.0
 10
116.0716310397872
 20
110.0363481872845
 30
0.0
 10
115.9422932136645
 20
109.3897661490392
 30
0.0
 10
115.9098342698082
 20
109.0628654716021
 30
0.0
 10
115.9098342698082
 20
108.4017751854821
 30
0.0
  0
SPLINE
  5
E7
330
1F
100
AcDbEntity
  8
0
  6
HIDDEN
 62
     7
370
     0
100
AcDbSpline
210
0.0
220
0.0
230
1.0
 70
     8
 71
     3
 72
    80
 73
    76
 74
     0
 42
0.00000001
 43
0.00000001
 40
-0.0312500000000003
 40
-0.0312500000000003
 40
0.0
 40
0.0
 40
0.03125
 40
0.03125
 40
0.046875
 40
0.046875
 40
0.0624999999999999
 40
0.0624999999999999
 40
0.0937499999999998
 40
0.0937499999999998
 40
0.1249999999999996
 40
0.1249999999999996
 40
0.1562499999999995
 40
0.1562499999999995
 40
0.1874999999999994
 40
0.1874999999999994
 40
0.2187499999999993
 40
0.2187499999999993
 40
0.2499999999999992
 40
0.2499999999999992
 40
0.2812499999999991
 40
0.2812499999999991
 40
0.3124999999999989
 40
0.3124999999999989
 40
0.3281249999999988
 40
0.3281249999999988
 40
0.3437499999999986
 40
0.3437499999999986
 40
0.3749999999999983
 40
0.3749999999999983
 40
0.4062499999999981
 40
0.4062499999999981
 40
0.4218749999999979
 40
0.4218749999999979
 40
0.4374999999999978
 40
0.4374999999999978
 40
0.4687499999999977
 40
0.4687499999999977
 40
0.4999999999999975
 40
0.4999999999999975
 40
0.5312499999999972
 40
0.5312499999999972
 40
0.562499999999997
 40
0.562499999999997
 40
0.5937499999999968
 40
0.5937499999999968
 40
0.6249999999999966
 40
0.6249999999999966
 40
0.6562499999999964
 40
0.6562499999999964
 40
0.6874999999999962
 40
0.6874999999999962
 40
0.7031249999999962
 40
0.7031249999999962
 40
0.7187499999999963
 40
0.7187499999999963
 40
0.7499999999999968
 40
0.7499999999999968
 40
0.7812499999999972
 40
0.7812499999999972
 40
0.7968749999999976
 40
0.7968749999999976
 40
0.8124999999999978
 40
0.8124999999999978
 40
0.8437499999999981
 40
0.8437499999999981
 40
0.8749999999999984
 40
0.8749999999999984
 40
0.9062499999999989
 40
0.9062499999999989
 40
0.9374999999999992
 40
0.9374999999999992
 40
0.9687499999999997
 40
0.9687499999999997
 40
1.0
 40
1.0
 40
1.03125
 40
1.03125
 10
123.2403795825845
 20
157.5918695850201
 30
0.0
 10
122.5792889570319
 20
157.5918695850201
 30
0.0
 10
122.2543088277802
 20
157.5849714391933
 30
0.0
 10
121.7748354165338
 20
157.5644450112127
 30
0.0
 10
121.616353598693
 20
157.5558887841252
 30
0.0
 10
121.3021340661887
 20
157.5351624089076
 30
0.0
 10
121.1460137825083
 20
157.5229351087012
 30
0.0
 10
120.6919597535518
 20
157.481365814872
 30
0.0
 10
120.4048563706119
 20
157.4470215297742
 30
0.0
 10
119.8615018145849
 20
157.3636974054519
 30
0.0
 10
119.6043982033793
 20
157.3142591826774
 30
0.0
 10
119.1434919484405
 20
157.2028794529175
 30
0.0
 10
118.9365942392256
 20
157.1405849394053
 30
0.0
 10
118.5710689252334
 20
157.0006552965343
 30
0.0
 10
118.4158634031074
 20
156.9240393987853
 30
0.0
 10
118.1664330165077
 20
156.7600807789296
 30
0.0
 10
118.0703430607225
 20
156.6715239248338
 30
0.0
 10
117.941824211529
 20
156.4840432427281
 30
0.0
 10
117.9100133413512
 20
156.3868067812736
 30
0.0
 10
117.9096566915779
 20
156.1851741419466
 30
0.0
 10
117.942153943775
 20
156.0796253501084
 30
0.0
 10
118.0697794174895
 20
155.8695105674199
 30
0.0
 10
118.1642078185414
 20
155.764445059451
 30
0.0
 10
118.3520686385269
 20
155.6075673521999
 30
0.0
 10
118.4228966373301
 20
155.5551336184942
 30
0.0
 10
118.5776185292954
 20
155.4526951728644
 30
0.0
 10
118.6615949994788
 20
155.4025474442126
 30
0.0
 10
118.9329186691232
 20
155.2555314877791
 30
0.0
 10
119.1394678877255
 20
155.1620436673446
 30
0.0
 10
119.6060780279146
 20
154.9862568097303
 30
0.0
 10
119.85844359754
 20
154.9068783346466
 30
0.0
 10
120.2643449392188
 20
154.8013958971525
 30
0.0
 10
120.4042455566962
 20
154.7685103323124
 30
0.0
 10
120.6934694919431
 20
154.7075948530837
 30
0.0
 10
120.8433089482324
 20
154.6795142814413
 30
0.0
 10
121.2974255178432
 20
154.6047122393985
 30
0.0
 10
121.6090767365801
 20
154.5666741811524
 30
0.0
 10
122.2500732014924
 20
154.5150622546283
 30
0.0
 10
122.5816008294446
 20
154.5017483211068
 30
0.0
 10
123.2343918745161
 20
154.5016512347787
 30
0.0
 10
123.5589280795479
 20
154.5144393199398
 30
0.0
 10
124.2041975289643
 20
154.5659295095357
 30
0.0
 10
124.519940535127
 20
154.6044540888558
 30
0.0
 10
125.1218298301107
 20
154.7033566517138
 30
0.0
 10
125.4125790609222
 20
154.7644607496389
 30
0.0
 10
125.9594908526067
 20
154.9062701827495
 30
0.0
 10
126.2112682164436
 20
154.9856046673287
 30
0.0
 10
126.6726562090648
 20
155.1589834119902
 30
0.0
 10
126.8839254886628
 20
155.2541433567442
 30
0.0
 10
127.247229841039
 20
155.4507158801201
 30
0.0
 10
127.4010364894818
 20
155.5524721085265
 30
0.0
 10
127.5896559590792
 20
155.709258071312
 30
0.0
 10
127.6456864452883
 20
155.762512105062
 30
0.0
 10
127.7412602070245
 20
155.8683166666148
 30
0.0
 10
127.7810231240495
 20
155.9209697309703
 30
0.0
 10
127.8767948743616
 20
156.0780434504295
 30
0.0
 10
127.9095177134877
 20
156.1815684857566
 30
0.0
 10
127.9101462998168
 20
156.3857832199837
 30
0.0
 10
127.8779601550821
 20
156.4832870575684
 30
0.0
 10
127.7830494532265
 20
156.6226141079201
 30
0.0
 10
127.7435826698275
 20
156.6679308394246
 30
0.0
 10
127.6486526711066
 20
156.7563706604134
 30
0.0
 10
127.5928958433433
 20
156.7996249108733
 30
0.0
 10
127.4049557253734
 20
156.9235163854633
 30
0.0
 10
127.2515942556572
 20
156.9992186762374
 30
0.0
 10
126.8893300207769
 20
157.1384730476956
 30
0.0
 10
126.6784815473109
 20
157.2022348892243
 30
0.0
 10
126.217811576992
 20
157.3137317286922
 30
0.0
 10
125.9664371974082
 20
157.3622578010088
 30
0.0
 10
125.4205293105101
 20
157.4463117843893
 30
0.0
 10
125.1297067358588
 20
157.4811103380559
 30
0.0
 10
124.5283801210788
 20
157.5363068028198
 30
0.0
 10
124.2138615364664
 20
157.5571246515737
 30
0.0
 10
123.5672800803465
 20
157.5849719844844
 30
0.0
 10
123.2403795825845
 20
157.5918695850201
 30
0.0
 10
122.5792889570319
 20
157.5918695850201
 30
0.0
  0
LINE
  5
E8
330
1F
100
AcDbEntity
  8
0
  6
HIDDEN
 62
     7
370
     0
100
AcDbLine
 10
131.9998342698
 20
63.2691415461
 30
0.0
 11
131.9998342698
 21
140.0823203285
 31
0.0
  0
LINE
  5
E9
330
1F
100
AcDbEntity
  8
0
  6
HIDDEN
 62
     7
370
     0
100
AcDbLine
 10
135.8198342698
 20
63.2691415461
 30
0.0
 11
135.8198342698
 21
140.0823203285
 31
0.0
  0
LINE
  5
EA
330
1F
100
AcDbEntity
  8
0
  6
HIDDEN
 62
     7
370
     0
100
AcDbLine
 10
118.8598342698
 20
140.0823203285
 30
0.0
 11
128.567801118
 21
140.0823203285
 31
0.0
  0
LINE
  5
EB
330
1F
100
AcDbEntity
  8
0
  6
HIDDEN
 62
     7
370
     0
100
AcDbLine
 10
113.9098342698
 20
69.327637372
 30
0.0
 11
113.9098342698
 21
148.1100922566
 31
0.0
  0
LWPOLYLINE
  5
EC
330
1F
100
AcDbEntity
  8
0
  6
HIDDEN
 62
     7
370
     0
100
AcDbPolyline
 90
        2
 70
   128
 43
0.0
 10
135.8198342698
 20
140.0823203285
 10
135.8198342698
 20
140.0823203285
  0
LWPOLYLINE
  5
ED
330
1F
100
AcDbEntity
  8
0
  6
HIDDEN
 62
     7
370
     0
100
AcDbPolyline
 90
        2
 70
   128
 43
0.0
 10
131.9998342698
 20
140.0823203285
 10
131.9998342698
 20
140.0823203285
  0
LWPOLYLINE
  5
EE
330
1F
100
AcDbEntity
  8
0
  6
HIDDEN
 62
     7
370
     0
100
AcDbPolyline
 90
        2
 70
   128
 43
0.0
 10
142.8598342698
 20
140.0823203285
 10
142.8598342698
 20
140.0823203285
  0
LINE
  5
EF
330
1F
100
AcDbEntity
  8
0
  6
HIDDEN
 62
     7
370
     0
100
AcDbLine
 10
111.4098342698
 20
146.6145718315
 30
0.0
 11
111.4098342698
 21
70.8500688255
 31
0.0
  0
SPLINE
  5
F0
330
1F
100
AcDbEntity
  8
0
  6
HIDDEN
 62
     7
370
     0
100
AcDbSpline
210
0.0
220
0.0
230
1.0
 70
     8
 71
     3
 72
     8
 73
     4
 74
     0
 42
0.00000001
 43
0.00000001
 40
0.0
 40
0.0
 40
0.0
 40
0.0
 40
1.0
 40
1.0
 40
1.0
 40
1.0
 10
73.66519388172726
 20
76.7766203391069
 30
0.0
 10
74.83049219243618
 20
76.93180781099352
 30
0.0
 10
76.01510740647605
 20
77.06816644930383
 30
0.0
 10
77.20983426980818
 20
77.19466892389869
 30
0.0
  0
SPLINE
  5
F1
330
1F
100
AcDbEntity
  8
0
  6
HIDDEN
 62
     7
370
     0
100
AcDbSpline
210
0.0
220
0.0
230
1.0
 70
     8
 71
     3
 72
    14
 73
    10
 74
     0
 42
0.00000001
 43
0.00000001
 40
0.0
 40
0.0
 40
0.0
 40
0.0
 40
0.124999999999998
 40
0.124999999999998
 40
0.249999999999996
 40
0.249999999999996
 40
0.4999999999999973
 40
0.4999999999999973
 40
1.0
 40
1.0
 40
1.0
 40
1.0
 10
77.20983426980817
 20
77.19466892389869
 30
0.0
 10
77.27741656959266
 20
77.20182480900007
 30
0.0
 10
77.34990414734058
 20
77.19740033896105
 30
0.0
 10
77.48219525660653
 20
77.16769418119074
 30
0.0
 10
77.5394726359967
 20
77.1444098996125
 30
0.0
 10
77.68912306319696
 20
77.06692465976217
 30
0.0
 10
77.76283635871847
 20
77.0050728328608
 30
0.0
 10
77.95064434204468
 20
76.82039538021249
 30
0.0
 10
78.03468464840616
 20
76.69215245692126
 30
0.0
 10
78.10541179847245
 20
76.56583898479869
 30
0.0
  0
SPLINE
  5
F2
330
1F
100
AcDbEntity
  8
0
  6
HIDDEN
 62
     7
370
     0
100
AcDbSpline
210
0.0
220
0.0
230
1.0
 70
     8
 71
     3
 72
    14
 73
    10
 74
     0
 42
0.00000001
 43
0.00000001
 40
0.0
 40
0.0
 40
0.0
 40
0.0
 40
0.25
 40
0.25
 40
0.5
 40
0.5
 40
0.75
 40
0.75
 40
1.0
 40
1.0
 40
1.0
 40
1.0
 10
78.10541179847121
 20
76.56583898479857
 30
0.0
 10
78.19418037641654
 20
76.40730485349061
 30
0.0
 10
78.31589821509546
 20
76.25486217660207
 30
0.0
 10
78.55094782495229
 20
75.95772755277315
 30
0.0
 10
78.66657801116918
 20
75.81304490915579
 30
0.0
 10
78.86698294459698
 20
75.52975570665238
 30
0.0
 10
78.95238323658133
 20
75.39120171361552
 30
0.0
 10
79.07408887029854
 20
75.119817683582
 30
0.0
 10
79.10983426981119
 20
74.98768181494738
 30
0.0
 10
79.10983426981117
 20
74.8629870631766
 30
0.0
  0
LINE
  5
F3
330
1F
100
AcDbEntity
  8
0
  6
HIDDEN
 62
     7
370
     0
100
AcDbLine
 10
79.1098342698
 20
74.8629870632
 30
0.0
 11
79.1098342698
 21
72.4683052985
 31
0.0
  0
LINE
  5
F4
330
1F
100
AcDbEntity
  8
0
  6
HIDDEN
 62
     7
370
     0
100
AcDbLine
 10
74.1098342698
 20
144.7458343566
 30
0.0
 11
74.1098342698
 21
142.4769290655
 31
0.0
  0
SPLINE
  5
F5
330
1F
100
AcDbEntity
  8
0
  6
HIDDEN
 62
     7
370
     0
100
AcDbSpline
210
0.0
220
0.0
230
1.0
 70
     8
 71
     3
 72
    20
 73
    16
 74
     0
 42
0.00000001
 43
0.00000001
 40
0.0
 40
0.0
 40
0.0
 40
0.0
 40
0.249999999999999
 40
0.249999999999999
 40
0.499999999999998
 40
0.499999999999998
 40
0.749999999999997
 40
0.749999999999997
 40
0.8749999999999973
 40
0.8749999999999973
 40
0.9374999999999982
 40
0.9374999999999982
 40
0.9687499999999991
 40
0.9687499999999991
 40
1.0
 40
1.0
 40
1.0
 40
1.0
 10
74.10983426980818
 20
142.4769290655267
 30
0.0
 10
74.10983426980818
 20
142.3412467457799
 30
0.0
 10
74.06112248059155
 20
142.2001597596398
 30
0.0
 10
73.89196105736636
 20
141.9080880409093
 30
0.0
 10
73.77018064344803
 20
141.7564392988189
 30
0.0
 10
73.47263354869855
 20
141.4540308586658
 30
0.0
 10
73.29872094299574
 20
141.3014422225424
 30
0.0
 10
72.97930610911396
 20
141.0761714587002
 30
0.0
 10
72.86426533366671
 20
141.0014483641894
 30
0.0
 10
72.65718100965027
 20
140.9020379549324
 30
0.0
 10
72.58107317484391
 20
140.8704728625879
 30
0.0
 10
72.44967863529054
 20
140.8360294783949
 30
0.0
 10
72.40312541628907
 20
140.8269779066273
 30
0.0
 10
72.30679206520834
 20
140.8168022577888
 30
0.0
 10
72.2575326418529
 20
140.8158524991138
 30
0.0
 10
72.20983426980618
 20
140.8188432200284
 30
0.0
  0
SPLINE
  5
F6
330
1F
100
AcDbEntity
  8
0
  6
HIDDEN
 62
     7
370
     0
100
AcDbSpline
210
0.0
220
0.0
230
1.0
 70
     8
 71
     3
 72
    12
 73
     8
 74
     0
 42
0.00000001
 43
0.00000001
 40
0.0
 40
0.0
 40
0.0
 40
0.0
 40
0.2499999999999992
 40
0.2499999999999992
 40
0.4999999999999984
 40
0.4999999999999984
 40
1.0
 40
1.0
 40
1.0
 40
1.0
 10
72.20983426980817
 20
140.8188432200385
 30
0.0
 10
71.69113544797997
 20
140.8513659948868
 30
0.0
 10
71.16942387477498
 20
140.8746627360572
 30
0.0
 10
70.1231318582794
 20
140.9125082504794
 30
0.0
 10
69.59846023260916
 20
140.9267767249755
 30
0.0
 10
68.02161421006991
 20
140.9609862124338
 30
0.0
 10
66.96665889552303
 20
140.9724857163777
 30
0.0
 10
65.90975938577779
 20
140.9781524971072
 30
0.0
  0
SPLINE
  5
F7
330
1F
100
AcDbEntity
  8
0
  6
HIDDEN
 62
     7
370
     0
100
AcDbSpline
210
0.0
220
0.0
230
1.0
 70
     8
 71
     3
 72
    14
 73
    10
 74
     0
 42
0.00000001
 43
0.00000001
 40
0.0
 40
0.0
 40
0.0
 40
0.0
 40
0.5000000000000014
 40
0.5000000000000014
 40
0.7500000000000008
 40
0.7500000000000008
 40
0.8750000000000004
 40
0.8750000000000004
 40
1.0
 40
1.0
 40
1.0
 40
1.0
 10
65.90975938577948
 20
76.48648815997699
 30
0.0
 10
67.21806094831321
 20
76.49350288371811
 30
0.0
 10
68.52312032297002
 20
76.50891146016261
 30
0.0
 10
70.46899637445826
 20
76.56280801562926
 30
0.0
 10
71.11569387819728
 20
76.58583958023196
 30
0.0
 10
72.0795362420516
 20
76.63678210510271
 30
0.0
 10
72.39977493398567
 20
76.6565170273359
 30
0.0
 10
73.03647016032807
 20
76.70600415580746
 30
0.0
 10
73.35318556861098
 20
76.73506893473669
 30
0.0
 10
73.6651938817273
 20
76.77662033910684
 30
0.0
  0
SPLINE
  5
F8
330
1F
100
AcDbEntity
  8
0
  6
HIDDEN
 62
     7
370
     0
100
AcDbSpline
210
0.0
220
0.0
230
1.0
 70
     8
 71
     3
 72
    12
 73
     8
 74
     0
 42
0.00000001
 43
0.00000001
 40
0.0
 40
0.0
 40
0.0
 40
0.0
 40
0.0839235973271068
 40
0.2482590032420621
 40
0.499693066313536
 40
0.7517604277933819
 40
1.0
 40
1.0
 40
1.0
 40
1.0
 10
94.32325901923552
 20
71.99651396626798
 30
0.0
 10
94.23400287344477
 20
71.9885524015064
 30
0.0
 10
93.96996936567137
 20
71.9650008594502
 30
0.0
 10
93.40000066379372
 20
71.91686728946134
 30
0.0
 10
92.89877210008909
 20
71.85746892773312
 30
0.0
 10
92.49980464609754
 20
71.81032611201685
 30
0.0
 10
92.45300922906087
 20
71.80414298202629
 30
0.0
 10
92.42979053364759
 20
71.80107507022973
 30
0.0
  0
SPLINE
  5
F9
330
1F
100
AcDbEntity
  8
0
  6
HIDDEN
 62
     7
370
     0
100
AcDbSpline
210
0.0
220
0.0
230
1.0
 70
     8
 71
     3
 72
    20
 73
    16
 74
     0
 42
0.00000001
 43
0.00000001
 40
0.0
 40
0.0
 40
0.0
 40
0.0
 40
0.0004183574979397
 40
0.0837682350831503
 40
0.1682468091625428
 40
0.2524475490809401
 40
0.3356320744899855
 40
0.4186123924917607
 40
0.5021246713316947
 40
0.5856818093412248
 40
0.6679084328578917
 40
0.75021721568009
 40
0.8336315884330447
 40
0.9171894590287211
 40
1.0
 40
1.0
 40
1.0
 40
1.0
 10
105.3419237435107
 20
71.15417944715038
 30
0.0
 10
105.342129363771
 20
71.15413346499935
 30
0.0
 10
105.3833009607522
 20
71.14492640248002
 30
0.0
 10
105.2374771854369
 20
71.17765405693771
 30
0.0
 10
104.8831038070363
 20
71.25465587430328
 30
0.0
 10
104.2811320014225
 20
71.38166343114915
 30
0.0
 10
103.4785451917445
 20
71.53394408778837
 30
0.0
 10
102.4998864079709
 20
71.69580798905706
 30
0.0
 10
101.3763940167457
 20
71.84786075436304
 30
0.0
 10
100.1615198379004
 20
71.9754743328854
 30
0.0
 10
98.89690362202472
 20
72.06316679685575
 30
0.0
 10
97.62885887653276
 20
72.1054375735514
 30
0.0
 10
96.40968711271034
 20
72.10130730473922
 30
0.0
 10
95.26806242464535
 20
72.0629748492951
 30
0.0
 10
94.63724894621977
 20
72.01860115148503
 30
0.0
 10
94.32325901923552
 20
71.99651396626798
 30
0.0
  0
SPLINE
  5
FA
330
1F
100
AcDbEntity
  8
0
  6
HIDDEN
 62
     7
370
     0
100
AcDbSpline
210
0.0
220
0.0
230
1.0
 70
     8
 71
     3
 72
    20
 73
    16
 74
     0
 42
0.00000001
 43
0.00000001
 40
0.0
 40
0.0
 40
0.0
 40
0.0
 40
0.0828827642348905
 40
0.1664508420281924
 40
0.249927990654472
 40
0.3323672247190337
 40
0.4145715539044851
 40
0.4982798010780708
 40
0.5816916838212347
 40
0.6646901799535067
 40
0.7477267886324838
 40
0.8318096998609612
 40
0.9161489651159787
 40
0.9994284456270259
 40
1.0
 40
1.0
 40
1.0
 40
1.0
 10
94.32316780727915
 20
145.4681106229332
 30
0.0
 10
94.63788505007652
 20
145.4461001741446
 30
0.0
 10
95.26992176540558
 20
145.401897283856
 30
0.0
 10
96.41215357372042
 20
145.3635866374643
 30
0.0
 10
97.63232667697811
 20
145.3594732145273
 30
0.0
 10
98.90116662384844
 20
145.4016408128227
 30
0.0
 10
100.1671821107655
 20
145.48945001113
 30
0.0
 10
101.3817241618044
 20
145.6173424482761
 30
0.0
 10
102.5046169202303
 20
145.7695757058516
 30
0.0
 10
103.4817593840742
 20
145.9312700981806
 30
0.0
 10
104.2833915829234
 20
146.0833120890898
 30
0.0
 10
104.8843445736869
 20
146.2100657997485
 30
0.0
 10
105.2380264622398
 20
146.2869815382016
 30
0.0
 10
105.3838005614217
 20
146.3197057252106
 30
0.0
 10
105.3420867471853
 20
146.3104790836016
 30
0.0
 10
105.3418024130328
 20
146.3104161919823
 30
0.0
  0
SPLINE
  5
FB
330
1F
100
AcDbEntity
  8
0
  6
HIDDEN
 62
     7
370
     0
100
AcDbSpline
210
0.0
220
0.0
230
1.0
 70
     8
 71
     3
 72
    12
 73
     8
 74
     0
 42
0.00000001
 43
0.00000001
 40
0.0
 40
0.0
 40
0.0
 40
0.0
 40
0.1661348616746358
 40
0.3322013257404253
 40
0.5008932044678792
 40
0.752137078265245
 40
1.0
 40
1.0
 40
1.0
 40
1.0
 10
92.4291559354554
 20
145.6636243516076
 30
0.0
 10
92.4395485595634
 20
145.6622462275462
 30
0.0
 10
92.46032952914318
 20
145.659490546796
 30
0.0
 10
92.63362901858947
 20
145.6378871718338
 30
0.0
 10
92.95558060783593
 20
145.6000222198921
 30
0.0
 10
93.47674644375587
 20
145.5396384531761
 30
0.0
 10
94.04230438359279
 20
145.4918453160265
 30
0.0
 10
94.32316780727915
 20
145.4681106229332
 30
0.0
  0
LINE
  5
FC
330
1F
100
AcDbEntity
  8
0
  6
HIDDEN
 62
     7
370
     0
100
AcDbLine
 10
64.0762070545
 20
139.37951482
 30
0.0
 11
64.0334679387
 21
139.3425695722
 31
0.0
  0
SPLINE
  5
FD
330
1F
100
AcDbEntity
  8
0
  6
HIDDEN
 62
     7
370
     0
100
AcDbSpline
210
0.0
220
0.0
230
1.0
 70
    11
 71
     3
 72
    66
 73
    62
 74
     0
 42
0.00000001
 43
0.00000001
 40
0.0
 40
0.0
 40
0.0
 40
0.0
 40
0.0625000000000002
 40
0.0625000000000002
 40
0.1250000000000004
 40
0.1250000000000004
 40
0.1562500000000005
 40
0.1562500000000005
 40
0.1875000000000005
 40
0.1875000000000005
 40
0.2187500000000006
 40
0.2187500000000006
 40
0.2500000000000006
 40
0.2500000000000006
 40
0.2812500000000007
 40
0.2812500000000007
 40
0.3125000000000007
 40
0.3125000000000007
 40
0.3437500000000008
 40
0.3437500000000008
 40
0.3750000000000008
 40
0.3750000000000008
 40
0.4062500000000008
 40
0.4062500000000008
 40
0.4375000000000009
 40
0.4375000000000009
 40
0.4687500000000009
 40
0.4687500000000009
 40
0.500000000000001
 40
0.500000000000001
 40
0.531250000000001
 40
0.531250000000001
 40
0.562500000000001
 40
0.562500000000001
 40
0.593750000000001
 40
0.593750000000001
 40
0.625000000000001
 40
0.625000000000001
 40
0.656250000000001
 40
0.656250000000001
 40
0.687500000000001
 40
0.687500000000001
 40
0.718750000000001
 40
0.718750000000001
 40
0.7500000000000009
 40
0.7500000000000009
 40
0.7812500000000009
 40
0.7812500000000009
 40
0.8125000000000008
 40
0.8125000000000008
 40
0.8437500000000007
 40
0.8437500000000007
 40
0.8750000000000006
 40
0.8750000000000006
 40
0.9062500000000004
 40
0.9062500000000004
 40
0.9375000000000003
 40
0.9375000000000003
 40
0.9687500000000002
 40
0.9687500000000002
 40
1.0
 40
1.0
 40
1.0
 40
1.0
 10
104.1630399249992
 20
77.36599810779504
 30
0.0
 10
103.8417532205227
 20
77.4198069388405
 30
0.0
 10
103.4356740966308
 20
77.48337655338126
 30
0.0
 10
102.4543074273522
 20
77.61035781186173
 30
0.0
 10
101.902343171325
 20
77.67050165057825
 30
0.0
 10
100.9890419175075
 20
77.74069287923714
 30
0.0
 10
100.6746148885173
 20
77.76034842169885
 30
0.0
 10
100.0370301825506
 20
77.7901296531581
 30
0.0
 10
99.71220306948045
 20
77.80039174391128
 30
0.0
 10
99.05003940161649
 20
77.81048228884919
 30
0.0
 10
98.71668690533387
 20
77.8101609101486
 30
0.0
 10
98.06126866614241
 20
77.79912293842636
 30
0.0
 10
97.7367723082618
 20
77.78844958206619
 30
0.0
 10
97.0943458085822
 20
77.7574424310939
 30
0.0
 10
96.77989220965422
 20
77.73720616579747
 30
0.0
 10
96.17954479433223
 20
77.69017269984454
 30
0.0
 10
95.89118868972984
 20
77.66325681598265
 30
0.0
 10
95.33848279158589
 20
77.60469533416891
 30
0.0
 10
95.07702435436931
 20
77.57331591674834
 30
0.0
 10
94.59593065039496
 20
77.51048680576703
 30
0.0
 10
94.37416370196688
 20
77.47880534597518
 30
0.0
 10
93.96894560538472
 20
77.41743134486883
 30
0.0
 10
93.7872792698374
 20
77.38799168057012
 30
0.0
 10
93.47538255415111
 20
77.33551103023667
 30
0.0
 10
93.34337137102332
 20
77.31219419695991
 30
0.0
 10
93.12834040310541
 20
77.27338696690848
 30
0.0
 10
93.04621742739867
 20
77.25805841702609
 30
0.0
 10
92.93770759520281
 20
77.23766272732898
 30
0.0
 10
92.91017546520735
 20
77.23238531810942
 30
0.0
 10
92.90949933474353
 20
77.23225653141915
 30
0.0
 10
92.93704819484464
 20
77.23753724144586
 30
0.0
 10
93.04502604323538
 20
77.25783600011441
 30
0.0
 10
93.12529595041302
 20
77.2728250335096
 30
0.0
 10
93.33894520742321
 20
77.31140745836882
 30
0.0
 10
93.47300077233724
 20
77.33509857219329
 30
0.0
 10
93.78485614263779
 20
77.38759547184418
 30
0.0
 10
93.96352722049637
 20
77.416570031466
 30
0.0
 10
94.36687431474205
 20
77.4777406897742
 30
0.0
 10
94.59232116875107
 20
77.50998868203857
 30
0.0
 10
95.0736334332912
 20
77.57289942691831
 30
0.0
 10
95.33125253653402
 20
77.60385192739611
 30
0.0
 10
95.88099742499494
 20
77.66225192803935
 30
0.0
 10
96.17451189948902
 20
77.6897322530212
 30
0.0
 10
96.77541207879797
 20
77.73690060164728
 30
0.0
 10
97.08520429174692
 20
77.75688523803754
 30
0.0
 10
97.72375422987558
 20
77.78793327126874
 30
0.0
 10
98.05465245634
 20
77.79894941159718
 30
0.0
 10
98.71170936551695
 20
77.81013809913098
 30
0.0
 10
99.04050181122005
 20
77.81050247417151
 30
0.0
 10
99.69861582418561
 20
77.80071963033996
 30
0.0
 10
100.0301564532028
 20
77.79039279428065
 30
0.0
 10
100.6703567297292
 20
77.76060424640086
 30
0.0
 10
100.9815883123547
 20
77.74117271453842
 30
0.0
 10
101.586469821964
 20
77.69486805714548
 30
0.0
 10
101.8818937382205
 20
77.66775005135403
 30
0.0
 10
102.4348690032723
 20
77.6099769255349
 30
0.0
 10
102.6947830124896
 20
77.57918975295927
 30
0.0
 10
103.1817392176225
 20
77.5162847128886
 30
0.0
 10
103.4099369243206
 20
77.48396128017548
 30
0.0
 10
103.8194699689585
 20
77.42236117793225
 30
0.0
 10
104.0023974470385
 20
77.3929023768945
 30
0.0
 10
104.1630399249992
 20
77.36599810779504
 30
0.0
  0
SPLINE
  5
FE
330
1F
100
AcDbEntity
  8
0
  6
HIDDEN
 62
     7
370
     0
100
AcDbSpline
210
0.0
220
0.0
230
1.0
 70
    11
 71
     3
 72
    66
 73
    62
 74
     0
 42
0.00000001
 43
0.00000001
 40
0.0
 40
0.0
 40
0.0
 40
0.0
 40
0.0625000000000002
 40
0.0625000000000002
 40
0.1250000000000004
 40
0.1250000000000004
 40
0.1562500000000005
 40
0.1562500000000005
 40
0.1875000000000005
 40
0.1875000000000005
 40
0.2187500000000006
 40
0.2187500000000006
 40
0.2500000000000006
 40
0.2500000000000006
 40
0.2812500000000007
 40
0.2812500000000007
 40
0.3125000000000007
 40
0.3125000000000007
 40
0.3437500000000008
 40
0.3437500000000008
 40
0.3750000000000008
 40
0.3750000000000008
 40
0.4062500000000008
 40
0.4062500000000008
 40
0.4375000000000009
 40
0.4375000000000009
 40
0.4687500000000009
 40
0.4687500000000009
 40
0.500000000000001
 40
0.500000000000001
 40
0.531250000000001
 40
0.531250000000001
 40
0.562500000000001
 40
0.562500000000001
 40
0.593750000000001
 40
0.593750000000001
 40
0.625000000000001
 40
0.625000000000001
 40
0.656250000000001
 40
0.656250000000001
 40
0.687500000000001
 40
0.687500000000001
 40
0.718750000000001
 40
0.718750000000001
 40
0.7500000000000009
 40
0.7500000000000009
 40
0.7812500000000009
 40
0.7812500000000009
 40
0.8125000000000008
 40
0.8125000000000008
 40
0.8437500000000007
 40
0.8437500000000007
 40
0.8750000000000006
 40
0.8750000000000006
 40
0.9062500000000004
 40
0.9062500000000004
 40
0.9375000000000003
 40
0.9375000000000003
 40
0.9687500000000002
 40
0.9687500000000002
 40
1.0
 40
1.0
 40
1.0
 40
1.0
 10
104.1630399249992
 20
140.0986425492892
 30
0.0
 10
103.8417532205227
 20
140.0448337182437
 30
0.0
 10
103.4356740966308
 20
139.9812641037029
 30
0.0
 10
102.4543074273522
 20
139.8542828452225
 30
0.0
 10
101.902343171325
 20
139.794139006506
 30
0.0
 10
100.9890419175075
 20
139.7239477778471
 30
0.0
 10
100.6746148885173
 20
139.7042922353854
 30
0.0
 10
100.0370301825506
 20
139.6745110039261
 30
0.0
 10
99.71220306948045
 20
139.6642489131729
 30
0.0
 10
99.05003940161649
 20
139.654158368235
 30
0.0
 10
98.71668690533387
 20
139.6544797469356
 30
0.0
 10
98.06126866614241
 20
139.6655177186578
 30
0.0
 10
97.7367723082618
 20
139.676191075018
 30
0.0
 10
97.0943458085822
 20
139.7071982259903
 30
0.0
 10
96.77989220965422
 20
139.7274344912867
 30
0.0
 10
96.17954479433223
 20
139.7744679572397
 30
0.0
 10
95.89118868972984
 20
139.8013838411016
 30
0.0
 10
95.33848279158589
 20
139.8599453229153
 30
0.0
 10
95.07702435436931
 20
139.8913247403358
 30
0.0
 10
94.59593065039496
 20
139.9541538513172
 30
0.0
 10
94.37416370196688
 20
139.985835311109
 30
0.0
 10
93.96894560538472
 20
140.0472093122154
 30
0.0
 10
93.7872792698374
 20
140.0766489765141
 30
0.0
 10
93.47538255415111
 20
140.1291296268475
 30
0.0
 10
93.34337137102332
 20
140.1524464601243
 30
0.0
 10
93.12834040310541
 20
140.1912536901757
 30
0.0
 10
93.04621742739867
 20
140.2065822400581
 30
0.0
 10
92.93770759520281
 20
140.2269779297552
 30
0.0
 10
92.91017546520735
 20
140.2322553389748
 30
0.0
 10
92.90949933474353
 20
140.232384125665
 30
0.0
 10
92.93704819484464
 20
140.2271034156383
 30
0.0
 10
93.04502604323538
 20
140.2068046569698
 30
0.0
 10
93.12529595041302
 20
140.1918156235746
 30
0.0
 10
93.33894520742321
 20
140.1532331987154
 30
0.0
 10
93.47300077233724
 20
140.1295420848909
 30
0.0
 10
93.78485614263779
 20
140.07704518524
 30
0.0
 10
93.96352722049637
 20
140.0480706256182
 30
0.0
 10
94.36687431474205
 20
139.98689996731
 30
0.0
 10
94.59232116875107
 20
139.9546519750456
 30
0.0
 10
95.0736334332912
 20
139.8917412301659
 30
0.0
 10
95.33125253653402
 20
139.8607887296881
 30
0.0
 10
95.88099742499494
 20
139.8023887290448
 30
0.0
 10
96.17451189948902
 20
139.774908404063
 30
0.0
 10
96.77541207879797
 20
139.7277400554369
 30
0.0
 10
97.08520429174692
 20
139.7077554190467
 30
0.0
 10
97.72375422987558
 20
139.6767073858154
 30
0.0
 10
98.05465245634
 20
139.665691245487
 30
0.0
 10
98.71170936551695
 20
139.6545025579532
 30
0.0
 10
99.04050181122005
 20
139.6541381829127
 30
0.0
 10
99.69861582418561
 20
139.6639210267442
 30
0.0
 10
100.0301564532028
 20
139.6742478628036
 30
0.0
 10
100.6703567297292
 20
139.7040364106834
 30
0.0
 10
100.9815883123547
 20
139.7234679425458
 30
0.0
 10
101.586469821964
 20
139.7697725999387
 30
0.0
 10
101.8818937382205
 20
139.7968906057302
 30
0.0
 10
102.4348690032723
 20
139.8546637315493
 30
0.0
 10
102.6947830124896
 20
139.8854509041249
 30
0.0
 10
103.1817392176225
 20
139.9483559441956
 30
0.0
 10
103.4099369243206
 20
139.9806793769087
 30
0.0
 10
103.8194699689585
 20
140.042279479152
 30
0.0
 10
104.0023974470385
 20
140.0717382801897
 30
0.0
 10
104.1630399249992
 20
140.0986425492892
 30
0.0
  0
SPLINE
  5
FF
330
1F
100
AcDbEntity
  8
0
  6
HIDDEN
 62
     7
370
     0
100
AcDbSpline
210
0.0
220
0.0
230
1.0
 70
    11
 71
     3
 72
    17
 73
    13
 74
     0
 42
0.00000001
 43
0.00000001
 40
0.0
 40
0.0
 40
0.0
 40
0.0
 40
0.25
 40
0.25
 40
0.3750000000000001
 40
0.3750000000000001
 40
0.5
 40
0.625
 40
0.625
 40
0.75
 40
0.75
 40
1.0
 40
1.0
 40
1.0
 40
1.0
 10
104.1630399249992
 20
140.0986425492892
 30
0.0
 10
104.4084895165758
 20
140.1397502435053
 30
0.0
 10
104.5935202665175
 20
140.1662811450529
 30
0.0
 10
104.7824374865001
 20
140.1923982837528
 30
0.0
 10
104.8306175505325
 20
140.1987615236856
 30
0.0
 10
104.8941510902858
 20
140.2070686469029
 30
0.0
 10
104.9255486393062
 20
140.211055687303
 30
0.0
 10
104.8940882435745
 20
140.2070606738432
 30
0.0
 10
104.8303872543471
 20
140.1987311666634
 30
0.0
 10
104.7821977500916
 20
140.1923658142181
 30
0.0
 10
104.5933868632965
 20
140.1662613528909
 30
0.0
 10
104.4084903652711
 20
140.1397503856441
 30
0.0
 10
104.1630399249992
 20
140.0986425492892
 30
0.0
  0
SPLINE
  5
100
330
1F
100
AcDbEntity
  8
0
  6
HIDDEN
 62
     7
370
     0
100
AcDbSpline
210
0.0
220
0.0
230
1.0
 70
    11
 71
     3
 72
    17
 73
    13
 74
     0
 42
0.00000001
 43
0.00000001
 40
0.0
 40
0.0
 40
0.0
 40
0.0
 40
0.2500000000000001
 40
0.2500000000000001
 40
0.3749999999999999
 40
0.3749999999999999
 40
0.4999999999999999
 40
0.6249999999999999
 40
0.6249999999999999
 40
0.7499999999999999
 40
0.7499999999999999
 40
1.0
 40
1.0
 40
1.0
 40
1.0
 10
104.1630399249992
 20
77.36599810779504
 30
0.0
 10
104.4084895165758
 20
77.3248904135789
 30
0.0
 10
104.5935202665175
 20
77.29835951203127
 30
0.0
 10
104.7824374865001
 20
77.27224237333141
 30
0.0
 10
104.8306175505325
 20
77.26587913339864
 30
0.0
 10
104.8941510902859
 20
77.25757201018129
 30
0.0
 10
104.9255486393062
 20
77.25358496978119
 30
0.0
 10
104.8940882435745
 20
77.25757998324102
 30
0.0
 10
104.8303872543471
 20
77.26590949042087
 30
0.0
 10
104.7821977500916
 20
77.27227484286614
 30
0.0
 10
104.5933868632965
 20
77.29837930419336
 30
0.0
 10
104.4084903652711
 20
77.32489027144013
 30
0.0
 10
104.1630399249992
 20
77.36599810779504
 30
0.0
  0
LINE
  5
101
330
1F
100
AcDbEntity
  8
0
  6
HIDDEN
 62
     7
370
     0
100
AcDbLine
 10
113.9098342698
 20
82.2323203285
 30
0.0
 11
113.9098342698
 21
135.2048576802
 31
0.0
  0
LINE
  5
102
330
1F
100
AcDbEntity
  8
0
  6
HIDDEN
 62
     7
370
     0
100
AcDbLine
 10
135.8198342698
 20
143.446555521
 30
0.0
 11
135.8198342698
 21
154.4258715694
 31
0.0
  0
LINE
  5
103
330
1F
100
AcDbEntity
  8
0
  6
HIDDEN
 62
     7
370
     0
100
AcDbLine
 10
131.9998342698
 20
143.446555521
 30
0.0
 11
131.9998342698
 21
154.4258715694
 31
0.0
  0
LINE
  5
104
330
1F
100
AcDbEntity
  8
0
  6
HIDDEN
 62
     7
370
     0
100
AcDbLine
 10
128.567801118
 20
140.0823203285
 30
0.0
 11
142.8598342698
 21
140.0823203285
 31
0.0
  0
LINE
  5
105
330
1F
100
AcDbEntity
  8
0
  6
HIDDEN
 62
     7
370
     0
100
AcDbLine
 10
142.8598342698
 20
77.7323203285
 30
0.0
 11
142.8598342698
 21
139.7051280616
 31
0.0
  0
LINE
  5
106
330
1F
100
AcDbEntity
  8
0
  6
HIDDEN
 62
     7
370
     0
100
AcDbLine
 10
83.9064585968
 20
135.2323203285
 30
0.0
 11
83.9064585968
 21
82.2323203285
 31
0.0
  0
LWPOLYLINE
  5
107
330
1F
100
AcDbEntity
  8
0
  6
HIDDEN
 62
     7
370
     0
100
AcDbPolyline
 90
        2
 70
   128
 43
0.0
 10
83.9064585968
 20
82.2323203285
 10
83.9064585968
 20
82.2323203285
  0
LINE
  5
108
330
1F
100
AcDbEntity
  8
0
  6
HIDDEN
 62
     7
370
     0
100
AcDbLine
 10
64.0098342698
 20
83.8789265756
 30
0.0
 11
64.0098342698
 21
133.5857140815
 31
0.0
  0
LINE
  5
109
330
1F
100
AcDbEntity
  8
0
  6
HIDDEN
 62
     7
370
     0
100
AcDbLine
 10
123.1939118882
 20
135.2323203285
 30
0.0
 11
123.1939118882
 21
82.2323203285
 31
0.0
  0
LWPOLYLINE
  5
10A
330
1F
100
AcDbEntity
  8
0
  6
HIDDEN
 62
     7
370
     0
100
AcDbPolyline
 90
        2
 70
   128
 43
0.0
 10
123.1939118882
 20
82.2323203285
 10
123.1939118882
 20
82.2323203285
  0
LINE
  5
10B
330
1F
100
AcDbEntity
  8
0
  6
HIDDEN
 62
     7
370
     0
100
AcDbLine
 10
126.3598342698
 20
133.6073203206
 30
0.0
 11
126.3598342698
 21
83.8573203285
 31
0.0
  0
LINE
  5
10C
330
1F
100
AcDbEntity
  8
0
  6
HIDDEN
 62
     7
370
     0
100
AcDbLine
 10
65.6598342698
 20
84.1956151708
 30
0.0
 11
77.2098342698
 21
84.1956151708
 31
0.0
  0
LINE
  5
10D
330
1F
100
AcDbEntity
  8
0
  6
HIDDEN
 62
     7
370
     0
100
AcDbLine
 10
65.6598342698
 20
133.2690254863
 30
0.0
 11
65.6598342698
 21
84.1956151708
 31
0.0
  0
LINE
  5
10E
330
1F
100
AcDbEntity
  8
0
  6
HIDDEN
 62
     7
370
     0
100
AcDbLine
 10
72.2098342698
 20
133.2690254863
 30
0.0
 11
65.6598342698
 21
133.2690254863
 31
0.0
  0
SPLINE
  5
10F
330
1F
100
AcDbEntity
  8
0
  6
HIDDEN
 62
     7
370
     0
100
AcDbSpline
210
0.0
220
0.0
230
1.0
 70
     8
 71
     3
 72
    20
 73
    16
 74
     0
 42
0.00000001
 43
0.00000001
 40
0.0
 40
0.0
 40
0.0
 40
0.0
 40
0.2499999999999978
 40
0.2499999999999978
 40
0.3749999999999982
 40
0.3749999999999982
 40
0.4999999999999986
 40
0.4999999999999986
 40
0.6249999999999989
 40
0.6249999999999989
 40
0.7499999999999992
 40
0.7499999999999992
 40
0.8749999999999997
 40
0.8749999999999997
 40
1.0
 40
1.0
 40
1.0
 40
1.0
 10
74.10983426980818
 20
133.9608339589564
 30
0.0
 10
74.10983426980819
 20
133.8816309724241
 30
0.0
 10
74.06285177459544
 20
133.8005347540212
 30
0.0
 10
73.92503018381787
 20
133.6803380622703
 30
0.0
 10
73.86874789990789
 20
133.6414113582682
 30
0.0
 10
73.73566304844066
 20
133.5662226258438
 30
0.0
 10
73.65782310620762
 20
133.5295804205018
 30
0.0
 10
73.48519075009325
 20
133.46198988767
 30
0.0
 10
73.39079775300218
 20
133.4310317058944
 30
0.0
 10
73.18536044668703
 20
133.3755072845247
 30
0.0
 10
73.07301420669985
 20
133.3507987706915
 30
0.0
 10
72.84077334280023
 20
133.3110025435832
 30
0.0
 10
72.72006270037751
 20
133.2955827061862
 30
0.0
 10
72.46899184110848
 20
133.2745027313466
 30
0.0
 10
72.3394698446927
 20
133.2690254863256
 30
0.0
 10
72.20983426980817
 20
133.2690254863256
 30
0.0
  0
LINE
  5
110
330
1F
100
AcDbEntity
  8
0
  6
HIDDEN
 62
     7
370
     0
100
AcDbLine
 10
74.1098342698
 20
133.960833959
 30
0.0
 11
74.1098342698
 21
135.2323203285
 31
0.0
  0
SPLINE
  5
111
330
1F
100
AcDbEntity
  8
0
  6
HIDDEN
 62
     7
370
     0
100
AcDbSpline
210
0.0
220
0.0
230
1.0
 70
     8
 71
     3
 72
    20
 73
    16
 74
     0
 42
0.00000001
 43
0.00000001
 40
0.0
 40
0.0
 40
0.0
 40
0.0
 40
0.2499999999999978
 40
0.2499999999999978
 40
0.3749999999999982
 40
0.3749999999999982
 40
0.4999999999999986
 40
0.4999999999999986
 40
0.6249999999999989
 40
0.6249999999999989
 40
0.7499999999999992
 40
0.7499999999999992
 40
0.8749999999999997
 40
0.8749999999999997
 40
1.0
 40
1.0
 40
1.0
 40
1.0
 10
74.10983426980818
 20
133.9608339589564
 30
0.0
 10
74.10983426980819
 20
133.8816309724241
 30
0.0
 10
74.06285177459544
 20
133.8005347540212
 30
0.0
 10
73.92503018381787
 20
133.6803380622703
 30
0.0
 10
73.86874789990789
 20
133.6414113582682
 30
0.0
 10
73.73566304844066
 20
133.5662226258438
 30
0.0
 10
73.65782310620762
 20
133.5295804205018
 30
0.0
 10
73.48519075009325
 20
133.46198988767
 30
0.0
 10
73.39079775300218
 20
133.4310317058944
 30
0.0
 10
73.18536044668703
 20
133.3755072845247
 30
0.0
 10
73.07301420669985
 20
133.3507987706915
 30
0.0
 10
72.84077334280023
 20
133.3110025435832
 30
0.0
 10
72.72006270037751
 20
133.2955827061862
 30
0.0
 10
72.46899184110848
 20
133.2745027313466
 30
0.0
 10
72.3394698446927
 20
133.2690254863256
 30
0.0
 10
72.20983426980817
 20
133.2690254863256
 30
0.0
  0
LINE
  5
112
330
1F
100
AcDbEntity
  8
0
  6
HIDDEN
 62
     7
370
     0
100
AcDbLine
 10
72.2098342698
 20
133.2690254863
 30
0.0
 11
65.6598342698
 21
133.2690254863
 31
0.0
  0
LINE
  5
113
330
1F
100
AcDbEntity
  8
0
  6
HIDDEN
 62
     7
370
     0
100
AcDbLine
 10
65.6598342698
 20
84.1956151708
 30
0.0
 11
77.2098342698
 21
84.1956151708
 31
0.0
  0
SPLINE
  5
114
330
1F
100
AcDbEntity
  8
0
  6
HIDDEN
 62
     7
370
     0
100
AcDbSpline
210
0.0
220
0.0
230
1.0
 70
     8
 71
     3
 72
    18
 73
    14
 74
     0
 42
0.00000001
 43
0.00000001
 40
0.0
 40
0.0
 40
0.0
 40
0.0
 40
0.1249999999999982
 40
0.1249999999999982
 40
0.2499999999999964
 40
0.2499999999999964
 40
0.4999999999999988
 40
0.4999999999999988
 40
0.7500000000000011
 40
0.7500000000000011
 40
0.8750000000000006
 40
0.8750000000000006
 40
1.0
 40
1.0
 40
1.0
 40
1.0
 10
77.20983426980818
 20
84.1956151707586
 30
0.0
 10
77.33930158276539
 20
84.19561517075859
 30
0.0
 10
77.46631233166202
 20
84.19026217216594
 30
0.0
 10
77.71567565285928
 20
84.16952419947717
 30
0.0
 10
77.83929930748772
 20
84.15385229522288
 30
0.0
 10
78.18833164442177
 20
84.09415756682078
 30
0.0
 10
78.39884340922855
 20
84.03639238713981
 30
0.0
 10
78.74276008692807
 20
83.90187054586231
 30
0.0
 10
78.87911048844587
 20
83.8242014323569
 30
0.0
 10
79.0161485450084
 20
83.70491029826957
 30
0.0
 10
79.05136756372131
 20
83.66399128913451
 30
0.0
 10
79.09799114065989
 20
83.58333529584448
 30
0.0
 10
79.10983426980819
 20
83.54336677565163
 30
0.0
 10
79.10983426980818
 20
83.5038066981278
 30
0.0
  0
LINE
  5
115
330
1F
100
AcDbEntity
  8
0
  6
HIDDEN
 62
     7
370
     0
100
AcDbLine
 10
79.1098342698
 20
83.5038066981
 30
0.0
 11
79.1098342698
 21
82.2323203285
 31
0.0
  0
SPLINE
  5
116
330
1F
100
AcDbEntity
  8
0
  6
HIDDEN
 62
     7
370
     0
100
AcDbSpline
210
0.0
220
0.0
230
1.0
 70
     8
 71
     3
 72
    18
 73
    14
 74
     0
 42
0.00000001
 43
0.00000001
 40
0.0
 40
0.0
 40
0.0
 40
0.0
 40
0.1249999999999982
 40
0.1249999999999982
 40
0.2499999999999964
 40
0.2499999999999964
 40
0.4999999999999988
 40
0.4999999999999988
 40
0.7500000000000011
 40
0.7500000000000011
 40
0.8750000000000006
 40
0.8750000000000006
 40
1.0
 40
1.0
 40
1.0
 40
1.0
 10
77.20983426980818
 20
84.1956151707586
 30
0.0
 10
77.33930158276539
 20
84.19561517075859
 30
0.0
 10
77.46631233166202
 20
84.19026217216594
 30
0.0
 10
77.71567565285928
 20
84.16952419947717
 30
0.0
 10
77.83929930748772
 20
84.15385229522288
 30
0.0
 10
78.18833164442177
 20
84.09415756682078
 30
0.0
 10
78.39884340922855
 20
84.03639238713981
 30
0.0
 10
78.74276008692807
 20
83.90187054586231
 30
0.0
 10
78.87911048844587
 20
83.8242014323569
 30
0.0
 10
79.0161485450084
 20
83.70491029826957
 30
0.0
 10
79.05136756372131
 20
83.66399128913451
 30
0.0
 10
79.09799114065989
 20
83.58333529584448
 30
0.0
 10
79.10983426980819
 20
83.54336677565163
 30
0.0
 10
79.10983426980818
 20
83.5038066981278
 30
0.0
  0
LINE
  5
117
330
1F
100
AcDbEntity
  8
0
  6
HIDDEN
 62
     7
370
     0
100
AcDbLine
 10
65.6598342698
 20
84.1956151708
 30
0.0
 11
65.6598342698
 21
133.2690254863
 31
0.0
  0
LINE
  5
118
330
1F
100
AcDbEntity
  8
0
  6
HIDDEN
 62
     7
370
     0
100
AcDbLine
 10
167.9098342698
 20
83.7323203292
 30
0.0
 11
167.9098342698
 21
133.7323203285
 31
0.0
  0
LWPOLYLINE
  5
119
330
1F
100
AcDbEntity
  8
0
  6
HIDDEN
 62
     7
370
     0
100
AcDbPolyline
 90
       14
 70
   128
 43
0.0
 10
122.9098342698
 20
148.6760508918
 10
123.9493927239
 20
148.7204917494
 10
124.9435174852
 20
148.8518720435
 10
125.8487605313
 20
149.0644498248
 10
126.6255583972
 20
149.3489344242
 10
127.2399612887
 20
149.6928924995
 10
127.6651168513
 20
150.0812914325
 10
127.8824437466
 20
150.4971563259
 10
127.8824437466
 20
150.9223118885
 10
127.6651168513
 20
151.3381767819
 10
127.2399612887
 20
151.7265757149
 10
126.6255583972
 20
152.0705337903
 10
125.8487605313
 20
152.3550183896
 10
125.3080756468
 20
152.4942114968
  0
LWPOLYLINE
  5
11A
330
1F
100
AcDbEntity
  8
0
  6
HIDDEN
 62
     7
370
     0
100
AcDbPolyline
 90
       14
 70
   128
 43
0.0
 10
120.5081012409
 20
152.493434445
 10
119.9709080083
 20
152.3550183896
 10
119.1941101424
 20
152.0705337903
 10
118.5797072509
 20
151.7265757149
 10
118.1545516883
 20
151.3381767819
 10
117.937224793
 20
150.9223118885
 10
117.937224793
 20
150.4971563259
 10
118.1545516883
 20
150.0812914325
 10
118.5797072509
 20
149.6928924995
 10
119.1941101424
 20
149.3489344242
 10
119.9709080083
 20
149.0644498248
 10
120.8761510544
 20
148.8518720435
 10
121.8702758157
 20
148.7204917494
 10
122.9098342698
 20
148.6760508918
  0
LINE
  5
11B
330
1F
100
AcDbEntity
  8
0
  6
HIDDEN
 62
     7
370
     0
100
AcDbLine
 10
167.9098342698
 20
131.9073203285
 30
0.0
 11
167.9098342698
 21
85.5843834717
 31
0.0
  0
LINE
  5
11C
330
1F
100
AcDbEntity
  8
0
  6
HIDDEN
 62
     7
370
     0
100
AcDbLine
 10
175.8598342698
 20
86.6573203341
 30
0.0
 11
175.8598342698
 21
130.8073203285
 31
0.0
  0
LINE
  5
11D
330
1F
100
AcDbEntity
  8
0
  6
HIDDEN
 62
     7
370
     0
100
AcDbLine
 10
175.8598342698
 20
128.7823203285
 30
0.0
 11
175.8598342698
 21
88.6823203285
 31
0.0
  0
LINE
  5
11E
330
1F
100
AcDbEntity
  8
0
  6
HIDDEN
 62
     7
370
     0
100
AcDbLine
 10
177.8598342698
 20
88.7323203285
 30
0.0
 11
177.8598342698
 21
128.7323203285
 31
0.0
  0
SPLINE
  5
11F
330
1F
100
AcDbEntity
  8
0
  6
HIDDEN
 62
     7
370
     0
100
AcDbSpline
210
0.0
220
0.0
230
1.0
 70
     8
 71
     3
 72
    58
 73
    54
 74
     0
 42
0.00000001
 43
0.00000001
 40
-0.0625000000000011
 40
-0.0625000000000011
 40
0.0
 40
0.0
 40
0.0312499999999986
 40
0.0312499999999986
 40
0.0624999999999973
 40
0.0624999999999973
 40
0.0937499999999959
 40
0.0937499999999959
 40
0.1249999999999945
 40
0.1249999999999945
 40
0.1874999999999918
 40
0.1874999999999918
 40
0.2499999999999891
 40
0.2499999999999891
 40
0.2812499999999893
 40
0.2812499999999893
 40
0.3124999999999896
 40
0.3124999999999896
 40
0.3437499999999898
 40
0.3437499999999898
 40
0.37499999999999
 40
0.37499999999999
 40
0.4062499999999903
 40
0.4062499999999903
 40
0.4374999999999905
 40
0.4374999999999905
 40
0.4687499999999908
 40
0.4687499999999908
 40
0.499999999999991
 40
0.499999999999991
 40
0.5624999999999918
 40
0.5624999999999918
 40
0.6249999999999927
 40
0.6249999999999927
 40
0.6562499999999932
 40
0.6562499999999932
 40
0.6874999999999939
 40
0.6874999999999939
 40
0.7187499999999946
 40
0.7187499999999946
 40
0.7499999999999951
 40
0.7499999999999951
 40
0.7812499999999958
 40
0.7812499999999958
 40
0.8124999999999964
 40
0.8124999999999964
 40
0.8437499999999971
 40
0.8437499999999971
 40
0.8749999999999977
 40
0.8749999999999977
 40
0.9374999999999989
 40
0.9374999999999989
 40
1.0
 40
1.0
 40
1.031249999999999
 40
1.031249999999999
 10
183.8098342698082
 20
118.9727956745789
 30
0.0
 10
183.8098342698082
 20
118.6120826555235
 30
0.0
 10
183.8234672503049
 20
118.4931484691189
 30
0.0
 10
183.8768661378311
 20
118.257855172169
 30
0.0
 10
183.917287075772
 20
118.1402523050262
 30
0.0
 10
184.0227262366598
 20
117.9149332192834
 30
0.0
 10
184.0872347630892
 20
117.8074749514111
 30
0.0
 10
184.2396246934491
 20
117.6031811299766
 30
0.0
 10
184.3282613777523
 20
117.5060178658054
 30
0.0
 10
184.6186701284958
 20
117.2437591616584
 30
0.0
 10
184.8528047384872
 20
117.1010569961621
 30
0.0
 10
185.3580921566285
 20
116.9093928843103
 30
0.0
 10
185.6345689356759
 20
116.8585275865061
 30
0.0
 10
186.0457397623975
 20
116.8583204402249
 30
0.0
 10
186.1849683240894
 20
116.8708701277603
 30
0.0
 10
186.4543687899719
 20
116.920069925999
 30
0.0
 10
186.5853182222645
 20
116.9564510153977
 30
0.0
 10
186.8396802355
 20
117.0526949828371
 30
0.0
 10
186.9625335600928
 20
117.1127008439647
 30
0.0
 10
187.1899961458819
 20
117.2509391332659
 30
0.0
 10
187.2960580900171
 20
117.3296604040211
 30
0.0
 10
187.4921944565174
 20
117.5066731821128
 30
0.0
 10
187.5790244837533
 20
117.602030111918
 30
0.0
 10
187.7311357612219
 20
117.8055225559394
 30
0.0
 10
187.7969452508671
 20
117.9149371069484
 30
0.0
 10
187.9023909437649
 20
118.1402749754016
 30
0.0
 10
187.9421593524993
 20
118.2556593416305
 30
0.0
 10
187.9959922902679
 20
118.4915999299411
 30
0.0
 10
188.009783553752
 20
118.6129229150617
 30
0.0
 10
188.0099352732377
 20
118.9691024103038
 30
0.0
 10
187.954944527378
 20
119.2055466445653
 30
0.0
 10
187.7458164265778
 20
119.6332471233361
 30
0.0
 10
187.5895908885836
 20
119.8289088952394
 30
0.0
 10
187.2994780941184
 20
120.0698264681668
 30
0.0
 10
187.1915757171241
 20
120.1430084049953
 30
0.0
 10
186.963527002069
 20
120.2684550039611
 30
0.0
 10
186.8430237842411
 20
120.3213552213616
 30
0.0
 10
186.5889173987453
 20
120.407695408815
 30
0.0
 10
186.4554948224246
 20
120.4407409000005
 30
0.0
 10
186.1870342687862
 20
120.4844149940606
 30
0.0
 10
186.0505829497531
 20
120.4955886310427
 30
0.0
 10
185.7730493838403
 20
120.4958016375196
 30
0.0
 10
185.6363642242945
 20
120.4848153064222
 30
0.0
 10
185.3678081823927
 20
120.4415330699499
 30
0.0
 10
185.2344143564207
 20
120.4087154719747
 30
0.0
 10
184.9799744082994
 20
120.3227051007687
 30
0.0
 10
184.8593303746625
 20
120.2699640527059
 30
0.0
 10
184.6310272608445
 20
120.1448611991821
 30
0.0
 10
184.5229599260213
 20
120.0718356349115
 30
0.0
 10
184.2323179823184
 20
119.8313391714642
 30
0.0
 10
184.0756988826927
 20
119.6359238953605
 30
0.0
 10
183.8657236982991
 20
119.2086764854872
 30
0.0
 10
183.8098342698082
 20
118.9727956745789
 30
0.0
 10
183.8098342698082
 20
118.6120826555235
 30
0.0
  0
SPLINE
  5
120
330
1F
100
AcDbEntity
  8
0
  6
HIDDEN
 62
     7
370
     0
100
AcDbSpline
210
0.0
220
0.0
230
1.0
 70
     8
 71
     3
 72
    58
 73
    54
 74
     0
 42
0.00000001
 43
0.00000001
 40
-0.0624999999999992
 40
-0.0624999999999992
 40
0.0
 40
0.0
 40
0.031249999999999
 40
0.031249999999999
 40
0.0624999999999981
 40
0.0624999999999981
 40
0.0937499999999971
 40
0.0937499999999971
 40
0.1249999999999962
 40
0.1249999999999962
 40
0.1874999999999948
 40
0.1874999999999948
 40
0.2499999999999935
 40
0.2499999999999935
 40
0.2812499999999944
 40
0.2812499999999944
 40
0.3124999999999954
 40
0.3124999999999954
 40
0.3437499999999963
 40
0.3437499999999963
 40
0.3749999999999972
 40
0.3749999999999972
 40
0.4062499999999982
 40
0.4062499999999982
 40
0.4374999999999991
 40
0.4374999999999991
 40
0.4687500000000001
 40
0.4687500000000001
 40
0.500000000000001
 40
0.500000000000001
 40
0.5625000000000024
 40
0.5625000000000024
 40
0.6250000000000039
 40
0.6250000000000039
 40
0.6562500000000036
 40
0.6562500000000036
 40
0.6875000000000033
 40
0.6875000000000033
 40
0.718750000000003
 40
0.718750000000003
 40
0.7500000000000027
 40
0.7500000000000027
 40
0.7812500000000024
 40
0.7812500000000024
 40
0.8125000000000021
 40
0.8125000000000021
 40
0.8437500000000019
 40
0.8437500000000019
 40
0.8750000000000016
 40
0.8750000000000016
 40
0.9375000000000008
 40
0.9375000000000008
 40
1.0
 40
1.0
 40
1.031249999999999
 40
1.031249999999999
 10
183.8098342698082
 20
118.4918449825052
 30
0.0
 10
183.8098342698082
 20
118.8525580015607
 30
0.0
 10
183.8234672503048
 20
118.9700476868817
 30
0.0
 10
183.8768661378311
 20
119.1998406323608
 30
0.0
 10
183.917287075772
 20
119.3133225696434
 30
0.0
 10
184.0227262366598
 20
119.5284066838295
 30
0.0
 10
184.0872347630892
 20
119.6297996758689
 30
0.0
 10
184.2396246934491
 20
119.820764093512
 30
0.0
 10
184.3282613777523
 20
119.9106165247463
 30
0.0
 10
184.6186701284958
 20
120.1512560365521
 30
0.0
 10
184.8528047384872
 20
120.2794965653276
 30
0.0
 10
185.3580921566285
 20
120.4507421055427
 30
0.0
 10
185.6345689356758
 20
120.4955734097316
 30
0.0
 10
186.0457397623975
 20
120.4957567523059
 30
0.0
 10
186.1849683240894
 20
120.484661969771
 30
0.0
 10
186.4543687899719
 20
120.4410121564124
 30
0.0
 10
186.5853182222644
 20
120.408695410684
 30
0.0
 10
186.8396802355
 20
120.3227082114226
 30
0.0
 10
186.9625335600929
 20
120.2688995540848
 30
0.0
 10
187.1899961458819
 20
120.1439780887939
 30
0.0
 10
187.2960580900171
 20
120.0724337608615
 30
0.0
 10
187.4921944565174
 20
119.910017486346
 30
0.0
 10
187.5790244837533
 20
119.8218303622794
 30
0.0
 10
187.7311357612219
 20
119.631634188512
 30
0.0
 10
187.7969452508671
 20
119.5284030660793
 30
0.0
 10
187.9023909437649
 20
119.3133008357237
 30
0.0
 10
187.9421593524992
 20
119.2019707975
 30
0.0
 10
187.9959922902679
 20
118.971574135216
 30
0.0
 10
188.009783553752
 20
118.8517124168369
 30
0.0
 10
188.0099352732377
 20
118.4955488521397
 30
0.0
 10
187.954944527378
 20
118.2531342601427
 30
0.0
 10
187.7458164265778
 20
117.8051262829855
 30
0.0
 10
187.5895908885834
 20
117.5950499662054
 30
0.0
 10
187.2994780941185
 20
117.3325124056021
 30
0.0
 10
187.1915757171241
 20
117.2520086721393
 30
0.0
 10
186.963527002069
 20
117.1131962591642
 30
0.0
 10
186.8430237842411
 20
117.0542052193663
 30
0.0
 10
186.5889173987453
 20
116.9575743302066
 30
0.0
 10
186.4554948224246
 20
116.9203752082298
 30
0.0
 10
186.1870342687861
 20
116.8711489643389
 30
0.0
 10
186.0505829497531
 20
116.8585103889795
 30
0.0
 10
185.7730493838403
 20
116.858269727485
 30
0.0
 10
185.6363642242945
 20
116.8706966954168
 30
0.0
 10
185.3678081823927
 20
116.9194833693524
 30
0.0
 10
185.2344143564207
 20
116.9564285318191
 30
0.0
 10
184.9799744082994
 20
117.0526984938587
 30
0.0
 10
184.8593303746625
 20
117.1115180302446
 30
0.0
 10
184.6310272608445
 20
117.2499666450703
 30
0.0
 10
184.5229599260213
 20
117.3303095433111
 30
0.0
 10
184.2323179823184
 20
117.5924278501342
 30
0.0
 10
184.0756988826926
 20
117.8022776362476
 30
0.0
 10
183.8657236982991
 20
118.2498999877038
 30
0.0
 10
183.8098342698082
 20
118.4918449825052
 30
0.0
 10
183.8098342698082
 20
118.8525580015607
 30
0.0
  0
SPLINE
  5
121
330
1F
100
AcDbEntity
  8
0
  6
HIDDEN
 62
     7
370
     0
100
AcDbSpline
210
0.0
220
0.0
230
1.0
 70
    11
 71
     3
 72
    58
 73
    54
 74
     0
 42
0.00000001
 43
0.00000001
 40
-0.0624999999999993
 40
-0.0624999999999993
 40
0.0
 40
0.0
 40
0.0312499999999992
 40
0.0312499999999992
 40
0.0624999999999985
 40
0.0624999999999985
 40
0.0937499999999977
 40
0.0937499999999977
 40
0.124999999999997
 40
0.124999999999997
 40
0.1874999999999954
 40
0.1874999999999954
 40
0.2499999999999939
 40
0.2499999999999939
 40
0.2812499999999948
 40
0.2812499999999948
 40
0.3124999999999957
 40
0.3124999999999957
 40
0.3437499999999964
 40
0.3437499999999964
 40
0.3749999999999972
 40
0.3749999999999972
 40
0.4062499999999981
 40
0.4062499999999981
 40
0.4374999999999988
 40
0.4374999999999988
 40
0.4687499999999997
 40
0.4687499999999997
 40
0.5000000000000004
 40
0.5000000000000004
 40
0.562500000000002
 40
0.562500000000002
 40
0.6250000000000037
 40
0.6250000000000037
 40
0.6562500000000033
 40
0.6562500000000033
 40
0.687500000000003
 40
0.687500000000003
 40
0.7187500000000027
 40
0.7187500000000027
 40
0.7500000000000023
 40
0.7500000000000023
 40
0.7812500000000021
 40
0.7812500000000021
 40
0.8125000000000018
 40
0.8125000000000018
 40
0.8437500000000014
 40
0.8437500000000014
 40
0.8750000000000011
 40
0.8750000000000011
 40
0.9375000000000007
 40
0.9375000000000007
 40
1.0
 40
1.0
 40
1.031249999999999
 40
1.031249999999999
 10
183.8098342698082
 20
88.73232032854213
 30
0.0
 10
183.8098342698082
 20
88.73232032854212
 30
0.0
 10
183.8234672503049
 20
88.73376482962568
 30
0.0
 10
183.8768661378311
 20
88.73926518109644
 30
0.0
 10
183.9172870757719
 20
88.7433861109566
 30
0.0
 10
184.0227262366598
 20
88.7536210825133
 30
0.0
 10
184.0872347630892
 20
88.75968635834616
 30
0.0
 10
184.2396246934491
 20
88.77301576213765
 30
0.0
 10
184.3282613777523
 20
88.78032659507461
 30
0.0
 10
184.6186701284958
 20
88.80194578741583
 30
0.0
 10
184.8528047384873
 20
88.81640742413654
 30
0.0
 10
185.3580921566285
 20
88.8368259957732
 30
0.0
 10
185.6345689356758
 20
88.84285998938857
 30
0.0
 10
186.0457397623975
 20
88.84288379309541
 30
0.0
 10
186.1849683240895
 20
88.84142888809495
 30
0.0
 10
186.454368789972
 20
88.83587890321486
 30
0.0
 10
186.5853182222645
 20
88.83181455954457
 30
0.0
 10
186.8396802354999
 20
88.8215577913666
 30
0.0
 10
186.9625335600928
 20
88.8153605875768
 30
0.0
 10
187.1899961458819
 20
88.80204376356642
 30
0.0
 10
187.2960580900171
 20
88.79486682074358
 30
0.0
 10
187.4921944565174
 20
88.78027031716745
 30
0.0
 10
187.5790244837533
 20
88.77310051142884
 30
0.0
 10
187.7311357612219
 20
88.75980424117488
 30
0.0
 10
187.7969452508671
 20
88.75362081259847
 30
0.0
 10
187.9023909437649
 20
88.74338517450092
 30
0.0
 10
187.9421593524992
 20
88.73933084649575
 30
0.0
 10
187.9959922902679
 20
88.73378692046916
 30
0.0
 10
188.009783553752
 20
88.73232565372766
 30
0.0
 10
188.0099352732376
 20
88.73230972318275
 30
0.0
 10
187.954944527378
 20
88.73828008091823
 30
0.0
 10
187.7458164265778
 20
88.7585875793046
 30
0.0
 10
187.5895908885835
 20
88.77300212418146
 30
0.0
 10
187.2994780941185
 20
88.79462211185738
 30
0.0
 10
187.1915757171241
 20
88.80194390849164
 30
0.0
 10
186.963527002069
 20
88.81530972250097
 30
0.0
 10
186.8430237842411
 20
88.82140054489838
 30
0.0
 10
186.5889173987453
 20
88.83169124660465
 30
0.0
 10
186.4554948224246
 20
88.83584487739604
 30
0.0
 10
186.1870342687861
 20
88.84139702722675
 30
0.0
 10
186.0505829497532
 20
88.84286196560409
 30
0.0
 10
185.7730493838403
 20
88.84288962062168
 30
0.0
 10
185.6363642242945
 20
88.84144898378723
 30
0.0
 10
185.3678081823927
 20
88.83594454632399
 30
0.0
 10
185.2344143564207
 20
88.83181698183249
 30
0.0
 10
184.9799744082995
 20
88.82155739099885
 30
0.0
 10
184.8593303746625
 20
88.81547890267572
 30
0.0
 10
184.6310272608445
 20
88.80213314137384
 30
0.0
 10
184.5229599260213
 20
88.79481580740362
 30
0.0
 10
184.2323179823184
 20
88.77319396402787
 30
0.0
 10
184.0756988826927
 20
88.75875945401812
 30
0.0
 10
183.8657236982991
 20
88.73838451243523
 30
0.0
 10
183.8098342698082
 20
88.73232032854213
 30
0.0
 10
183.8098342698082
 20
88.73232032854212
 30
0.0
  0
LINE
  5
122
330
1F
100
AcDbEntity
  8
0
  6
HIDDEN
 62
     7
370
     0
100
AcDbLine
 10
215.4098342698
 20
88.7323203285
 30
0.0
 11
215.4098342698
 21
128.7323203285
 31
0.0
  0
SPLINE
  5
123
330
1F
100
AcDbEntity
  8
0
  6
HIDDEN
 62
     7
370
     0
100
AcDbSpline
210
0.0
220
0.0
230
1.0
 70
    11
 71
     3
 72
    70
 73
    66
 74
     0
 42
0.00000001
 43
0.00000001
 40
-0.0312499999999999
 40
-0.0312499999999999
 40
0.0
 40
0.0
 40
0.03125
 40
0.03125
 40
0.0625
 40
0.0625
 40
0.09375
 40
0.09375
 40
0.125
 40
0.125
 40
0.15625
 40
0.15625
 40
0.1874999999999999
 40
0.1874999999999999
 40
0.2187499999999999
 40
0.2187499999999999
 40
0.2499999999999999
 40
0.2499999999999999
 40
0.2812499999999999
 40
0.2812499999999999
 40
0.3124999999999999
 40
0.3124999999999999
 40
0.3437499999999999
 40
0.3437499999999999
 40
0.3749999999999999
 40
0.3749999999999999
 40
0.4062499999999999
 40
0.4062499999999999
 40
0.4374999999999999
 40
0.4374999999999999
 40
0.4687499999999999
 40
0.4687499999999999
 40
0.4999999999999999
 40
0.4999999999999999
 40
0.53125
 40
0.53125
 40
0.5625
 40
0.5625
 40
0.59375
 40
0.59375
 40
0.625
 40
0.625
 40
0.65625
 40
0.65625
 40
0.6875
 40
0.6875
 40
0.71875
 40
0.71875
 40
0.75
 40
0.75
 40
0.7812500000000001
 40
0.7812500000000001
 40
0.8125000000000001
 40
0.8125000000000001
 40
0.8437500000000001
 40
0.8437500000000001
 40
0.8750000000000001
 40
0.8750000000000001
 40
0.9062500000000001
 40
0.9062500000000001
 40
0.9375000000000001
 40
0.9375000000000001
 40
0.9687500000000001
 40
0.9687500000000001
 40
1.0
 40
1.0
 40
1.03125
 40
1.03125
 10
191.6098342698082
 20
128.7323203285421
 30
0.0
 10
191.6098342698082
 20
128.7323203285421
 30
0.0
 10
191.6313035937
 20
128.7287460972809
 30
0.0
 10
191.7153552189978
 20
128.7151373605966
 30
0.0
 10
191.7789845094077
 20
128.70493934864
 30
0.0
 10
191.9447541791358
 20
128.6796256664538
 30
0.0
 10
192.0461403733247
 20
128.66462272628
 30
0.0
 10
192.2856064050268
 20
128.6316295634982
 30
0.0
 10
192.4247378195002
 20
128.6135410209909
 30
0.0
 10
192.728623780168
 20
128.577846551211
 30
0.0
 10
192.8945044114523
 20
128.5600617343018
 30
0.0
 10
193.2550820730502
 20
128.5266624405793
 30
0.0
 10
193.4465780649482
 20
128.5113975890824
 30
0.0
 10
193.8434795249474
 20
128.4860007704053
 30
0.0
 10
194.0518260436622
 20
128.4756946295941
 30
0.0
 10
194.4779612425622
 20
128.4617695095752
 30
0.0
 10
194.6923185082017
 20
128.4582124789256
 30
0.0
 10
195.123558480447
 20
128.4581710341575
 30
0.0
 10
195.3426292561131
 20
128.4618038191155
 30
0.0
 10
195.7661408602694
 20
128.4756348497036
 30
0.0
 10
195.9720248972423
 20
128.4857609126113
 30
0.0
 10
196.372010449046
 20
128.5113022325349
 30
0.0
 10
196.5646960260323
 20
128.5266870626014
 30
0.0
 10
196.9218297814173
 20
128.5597385394176
 30
0.0
 10
197.0888788252578
 20
128.5775952925723
 30
0.0
 10
197.3962716079453
 20
128.6136953780656
 30
0.0
 10
197.5325444991004
 20
128.6314308915509
 30
0.0
 10
197.7715294543733
 20
128.6643370750076
 30
0.0
 10
197.875070776306
 20
128.6796492264958
 30
0.0
 10
198.0406882409065
 20
128.704940317217
 30
0.0
 10
198.1032756866147
 20
128.7149707574167
 30
0.0
 10
198.1880579678302
 20
128.7286950173275
 30
0.0
 10
198.2097498620079
 20
128.7323064012561
 30
0.0
 10
198.2099181745592
 20
128.732334172825
 30
0.0
 10
198.1890889275585
 20
128.7288641704419
 30
0.0
 10
198.1044133007327
 20
128.7151527027444
 30
0.0
 10
198.0411900617075
 20
128.7050213536029
 30
0.0
 10
197.8767440268704
 20
128.6799003985043
 30
0.0
 10
197.774095242012
 20
128.6647012002214
 30
0.0
 10
197.5336109721264
 20
128.6315670600248
 30
0.0
 10
197.3973872884681
 20
128.6138481580966
 30
0.0
 10
197.0934766607972
 20
128.5781139107708
 30
0.0
 10
196.9240096425773
 20
128.55995749563
 30
0.0
 10
196.5663434027205
 20
128.526822487092
 30
0.0
 10
196.3770869057111
 20
128.5116788045492
 30
0.0
 10
195.9772224780296
 20
128.486041725076
 30
0.0
 10
195.7679914598571
 20
128.4757235412033
 30
0.0
 10
195.3460378796219
 20
128.4618872331678
 30
0.0
 10
195.1305657769984
 20
128.4582213541082
 30
0.0
 10
194.6944413511301
 20
128.4581623379869
 30
0.0
 10
194.4798457423818
 20
128.4617477396735
 30
0.0
 10
194.0573234211702
 20
128.475475866207
 30
0.0
 10
193.8471761754259
 20
128.4857901751829
 30
0.0
 10
193.4480086328337
 20
128.5112804364321
 30
0.0
 10
193.2584968195932
 20
128.5263841296486
 30
0.0
 10
192.8994487336978
 20
128.5595666424304
 30
0.0
 10
192.7301378373426
 20
128.5776800380712
 30
0.0
 10
192.426211909611
 20
128.6133566569373
 30
0.0
 10
192.2894854888936
 20
128.6311109291155
 30
0.0
 10
192.0475126694604
 20
128.6644181753731
 30
0.0
 10
191.9455133490901
 20
128.6795142251763
 30
0.0
 10
191.7804324486422
 20
128.7047138152334
 30
0.0
 10
191.7165825227955
 20
128.7149399357654
 30
0.0
 10
191.6313066608782
 20
128.7287443320908
 30
0.0
 10
191.6098342698082
 20
128.7323203285421
 30
0.0
 10
191.6098342698082
 20
128.7323203285421
 30
0.0
  0
SPLINE
  5
124
330
1F
100
AcDbEntity
  8
0
  6
HIDDEN
 62
     7
370
     0
100
AcDbSpline
210
0.0
220
0.0
230
1.0
 70
     8
 71
     3
 72
    70
 73
    66
 74
     0
 42
0.00000001
 43
0.00000001
 40
-0.03125
 40
-0.03125
 40
0.0
 40
0.0
 40
0.0312499999999999
 40
0.0312499999999999
 40
0.0624999999999999
 40
0.0624999999999999
 40
0.0937499999999998
 40
0.0937499999999998
 40
0.1249999999999998
 40
0.1249999999999998
 40
0.1562499999999997
 40
0.1562499999999997
 40
0.1874999999999996
 40
0.1874999999999996
 40
0.2187499999999996
 40
0.2187499999999996
 40
0.2499999999999995
 40
0.2499999999999995
 40
0.2812499999999994
 40
0.2812499999999994
 40
0.3124999999999994
 40
0.3124999999999994
 40
0.3437499999999993
 40
0.3437499999999993
 40
0.3749999999999992
 40
0.3749999999999992
 40
0.4062499999999992
 40
0.4062499999999992
 40
0.4374999999999992
 40
0.4374999999999992
 40
0.4687499999999992
 40
0.4687499999999992
 40
0.4999999999999992
 40
0.4999999999999992
 40
0.5312499999999992
 40
0.5312499999999992
 40
0.5624999999999993
 40
0.5624999999999993
 40
0.5937499999999993
 40
0.5937499999999993
 40
0.6249999999999994
 40
0.6249999999999994
 40
0.6562499999999994
 40
0.6562499999999994
 40
0.6874999999999996
 40
0.6874999999999996
 40
0.7187499999999996
 40
0.7187499999999996
 40
0.7499999999999996
 40
0.7499999999999996
 40
0.7812499999999997
 40
0.7812499999999997
 40
0.8124999999999997
 40
0.8124999999999997
 40
0.8437499999999998
 40
0.8437499999999998
 40
0.8749999999999998
 40
0.8749999999999998
 40
0.9062499999999999
 40
0.9062499999999999
 40
0.9374999999999999
 40
0.9374999999999999
 40
0.96875
 40
0.96875
 40
1.0
 40
1.0
 40
1.03125
 40
1.03125
 10
191.6098342698082
 20
98.54316867057426
 30
0.0
 10
191.6098342698082
 20
98.92147198650976
 30
0.0
 10
191.6313035937
 20
99.10918596675309
 30
0.0
 10
191.7153552189978
 20
99.48167772640956
 30
0.0
 10
191.7789845094077
 20
99.66845619988638
 30
0.0
 10
191.9447541791358
 20
100.02705076032
 30
0.0
 10
192.0461403733248
 20
100.1985740657752
 30
0.0
 10
192.2856064050267
 20
100.525482980836
 30
0.0
 10
192.4247378195002
 20
100.6812450730898
 30
0.0
 10
192.728623780168
 20
100.9621978594589
 30
0.0
 10
192.8945044114522
 20
101.0892698824654
 30
0.0
 10
193.2550820730503
 20
101.3148945906332
 30
0.0
 10
193.4465780649483
 20
101.4111049042949
 30
0.0
 10
193.8434795249473
 20
101.5664372817423
 30
0.0
 10
194.0518260436622
 20
101.6266351487005
 30
0.0
 10
194.4779612425622
 20
101.7071405528125
 30
0.0
 10
194.6923185082017
 20
101.7271503406967
 30
0.0
 10
195.1235584804469
 20
101.727385610194
 30
0.0
 10
195.3426292561131
 20
101.7069412979942
 30
0.0
 10
195.7661408602694
 20
101.6269816537946
 30
0.0
 10
195.9720248972423
 20
101.567877960462
 30
0.0
 10
196.372010449046
 20
101.4117141246766
 30
0.0
 10
196.5646960260323
 20
101.3146866763386
 30
0.0
 10
196.9218297814173
 20
101.0914943939697
 30
0.0
 10
197.0888788252579
 20
100.9641516674068
 30
0.0
 10
197.3962716079453
 20
100.6800539177688
 30
0.0
 10
197.5325444991004
 20
100.5272263051765
 30
0.0
 10
197.7715294543733
 20
100.2016263091185
 30
0.0
 10
197.875070776306
 20
100.0267435488785
 30
0.0
 10
198.0406882409065
 20
99.66841591224939
 30
0.0
 10
198.1032756866147
 20
99.48527017379116
 30
0.0
 10
198.1880579678302
 20
99.1115365687875
 30
0.0
 10
198.2097498620078
 20
98.9201106454006
 30
0.0
 10
198.2099181745592
 20
98.54676168671253
 30
0.0
 10
198.1890889275585
 20
98.36274095646372
 30
0.0
 10
198.1044133007327
 20
97.99995801153058
 30
0.0
 10
198.0411900617075
 20
97.82503263706047
 30
0.0
 10
197.8767440268704
 20
97.49351962986769
 30
0.0
 10
197.774095242012
 20
97.33447071033642
 30
0.0
 10
197.5336109721263
 20
97.03928419916741
 30
0.0
 10
197.3973872884681
 20
96.90442646491299
 30
0.0
 10
197.0934766607972
 20
96.65861464527953
 30
0.0
 10
196.9240096425773
 20
96.54703720548447
 30
0.0
 10
196.5663434027205
 20
96.35631732583795
 30
0.0
 10
196.3770869057111
 20
96.27592268303131
 30
0.0
 10
195.9772224780296
 20
96.14470735160383
 30
0.0
 10
195.767991459857
 20
96.09477465460449
 30
0.0
 10
195.3460378796219
 20
96.0286086389308
 30
0.0
 10
195.1305657769984
 20
96.01163967259184
 30
0.0
 10
194.6944413511301
 20
96.011363671872
 30
0.0
 10
194.4798457423817
 20
96.02795534182553
 30
0.0
 10
194.0573234211702
 20
96.09357687284762
 30
0.0
 10
193.8471761754259
 20
96.14347118478932
 30
0.0
 10
193.4480086328337
 20
96.27383374109974
 30
0.0
 10
193.2584968195931
 20
96.35391097962199
 30
0.0
 10
192.8994487336979
 20
96.54467362966305
 30
0.0
 10
192.7301378373426
 20
96.65585808452258
 30
0.0
 10
192.426211909611
 20
96.90082332721049
 30
0.0
 10
192.2894854888936
 20
97.03556942416259
 30
0.0
 10
192.0475126694604
 20
97.33160813469627
 30
0.0
 10
191.9455133490901
 20
97.48918199600203
 30
0.0
 10
191.7804324486422
 20
97.82023622796962
 30
0.0
 10
191.7165825227955
 20
97.9958301518693
 30
0.0
 10
191.6313066608782
 20
98.35810451514065
 30
0.0
 10
191.6098342698082
 20
98.54316867057426
 30
0.0
 10
191.6098342698082
 20
98.92147198650976
 30
0.0
  0
SPLINE
  5
125
330
1F
100
AcDbEntity
  8
0
  6
HIDDEN
 62
     7
370
     0
100
AcDbSpline
210
0.0
220
0.0
230
1.0
 70
     8
 71
     3
 72
    70
 73
    66
 74
     0
 42
0.00000001
 43
0.00000001
 40
-0.0312499999999999
 40
-0.0312499999999999
 40
0.0
 40
0.0
 40
0.0312500000000001
 40
0.0312500000000001
 40
0.0625000000000001
 40
0.0625000000000001
 40
0.0937500000000002
 40
0.0937500000000002
 40
0.1250000000000003
 40
0.1250000000000003
 40
0.1562500000000003
 40
0.1562500000000003
 40
0.1875000000000004
 40
0.1875000000000004
 40
0.2187500000000005
 40
0.2187500000000005
 40
0.2500000000000006
 40
0.2500000000000006
 40
0.2812500000000006
 40
0.2812500000000006
 40
0.3125000000000007
 40
0.3125000000000007
 40
0.3437500000000007
 40
0.3437500000000007
 40
0.3750000000000007
 40
0.3750000000000007
 40
0.4062500000000007
 40
0.4062500000000007
 40
0.4375000000000007
 40
0.4375000000000007
 40
0.4687500000000008
 40
0.4687500000000008
 40
0.5000000000000008
 40
0.5000000000000008
 40
0.5312500000000008
 40
0.5312500000000008
 40
0.5625000000000007
 40
0.5625000000000007
 40
0.5937500000000007
 40
0.5937500000000007
 40
0.6250000000000006
 40
0.6250000000000006
 40
0.6562500000000006
 40
0.6562500000000006
 40
0.6875000000000006
 40
0.6875000000000006
 40
0.7187500000000004
 40
0.7187500000000004
 40
0.7500000000000004
 40
0.7500000000000004
 40
0.7812500000000004
 40
0.7812500000000004
 40
0.8125000000000003
 40
0.8125000000000003
 40
0.8437500000000003
 40
0.8437500000000003
 40
0.8750000000000002
 40
0.8750000000000002
 40
0.9062500000000002
 40
0.9062500000000002
 40
0.9375000000000002
 40
0.9375000000000002
 40
0.9687500000000001
 40
0.9687500000000001
 40
1.0
 40
1.0
 40
1.03125
 40
1.03125
 10
191.6098342698082
 20
98.92147198651001
 30
0.0
 10
191.6098342698082
 20
98.54316867057452
 30
0.0
 10
191.6313035937
 20
98.3590289215924
 30
0.0
 10
191.7153552189978
 20
98.00014589862027
 30
0.0
 10
191.7789845094077
 20
97.82356543710006
 30
0.0
 10
191.9447541791358
 20
97.49028455885266
 30
0.0
 10
192.0461403733247
 20
97.33376419357116
 30
0.0
 10
192.2856064050267
 20
97.03984844129221
 30
0.0
 10
192.4247378195002
 20
96.90217489154574
 30
0.0
 10
192.728623780168
 20
96.65691657495651
 30
0.0
 10
192.8945044114522
 20
96.54762936885922
 30
0.0
 10
193.2550820730502
 20
96.3554039544139
 30
0.0
 10
193.4465780649482
 20
96.27445849224901
 30
0.0
 10
193.8434795249474
 20
96.14452293347875
 30
0.0
 10
194.0518260436622
 20
96.09463120733174
 30
0.0
 10
194.4779612425622
 20
96.0280509232386
 30
0.0
 10
194.6923185082017
 20
96.01159816600412
 30
0.0
 10
195.123558480447
 20
96.01140434127485
 30
0.0
 10
195.3426292561131
 20
96.0282158685167
 30
0.0
 10
195.7661408602694
 20
96.09434448212821
 30
0.0
 10
195.9720248972423
 20
96.14332211255311
 30
0.0
 10
196.372010449046
 20
96.27394462841488
 30
0.0
 10
196.5646960260323
 20
96.35558724668631
 30
0.0
 10
196.9218297814173
 20
96.54572805223907
 30
0.0
 10
197.0888788252578
 20
96.65521402564724
 30
0.0
 10
197.3962716079453
 20
96.90321168979199
 30
0.0
 10
197.5325444991004
 20
97.03830378889897
 30
0.0
 10
197.7715294543733
 20
97.33099760150033
 30
0.0
 10
197.875070776306
 20
97.49056821025208
 30
0.0
 10
198.0406882409065
 20
97.82360475616004
 30
0.0
 10
198.1032756866147
 20
97.99672005441855
 30
0.0
 10
198.1880579678302
 20
98.35672939951135
 30
0.0
 10
198.2097498620078
 20
98.5445439389697
 30
0.0
 10
198.2099181745592
 20
98.91786512608886
 30
0.0
 10
198.1890889275585
 20
99.1053558587208
 30
0.0
 10
198.1044133007327
 20
99.48185027135146
 30
0.0
 10
198.0411900617076
 20
99.66690699496301
 30
0.0
 10
197.8767440268704
 20
100.0235409572544
 30
0.0
 10
197.774095242012
 20
100.1977890750686
 30
0.0
 10
197.5336109721264
 20
100.5261097264342
 30
0.0
 10
197.3973872884682
 20
100.6786863626168
 30
0.0
 10
197.0934766607972
 20
100.9602324295761
 30
0.0
 10
196.9240096425773
 20
101.089966284512
 30
0.0
 10
196.5663434027205
 20
101.3138211726965
 30
0.0
 10
196.3770869057111
 20
101.4093594980459
 30
0.0
 10
195.9772224780296
 20
101.5662119089466
 30
0.0
 10
195.7679914598571
 20
101.6264627898187
 30
0.0
 10
195.3460378796219
 20
101.7064651135278
 30
0.0
 10
195.1305657769985
 20
101.7270999589264
 30
0.0
 10
194.6944413511302
 20
101.7274349757675
 30
0.0
 10
194.4798457423818
 20
101.7072579041274
 30
0.0
 10
194.0573234211703
 20
101.6279082465717
 30
0.0
 10
193.8471761754259
 20
101.5676996256542
 30
0.0
 10
193.4480086328338
 20
101.4118468080946
 30
0.0
 10
193.2584968195932
 20
101.3166658763558
 30
0.0
 10
192.8994487336979
 20
101.0927207135331
 30
0.0
 10
192.7301378373426
 20
100.9634228630327
 30
0.0
 10
192.4262119096111
 20
100.6827810014787
 30
0.0
 10
192.2894854888936
 20
100.5302806323484
 30
0.0
 10
192.0475126694604
 20
100.2009346755571
 30
0.0
 10
191.9455133490902
 20
100.0282647644482
 30
0.0
 10
191.7804324486422
 20
99.67201094242343
 30
0.0
 10
191.7165825227955
 20
99.48619089799176
 30
0.0
 10
191.6313066608782
 20
99.11011213839492
 30
0.0
 10
191.6098342698082
 20
98.92147198651001
 30
0.0
 10
191.6098342698082
 20
98.54316867057452
 30
0.0
  0
LINE
  5
126
330
1F
100
AcDbEntity
  8
0
  6
HIDDEN
 62
     7
370
     0
100
AcDbLine
 10
217.0098342698
 20
88.7323203285
 30
0.0
 11
217.0098342698
 21
128.7323203285
 31
0.0
  0
LINE
  5
127
330
1F
100
AcDbEntity
  8
0
  6
HIDDEN
 62
     7
370
     0
100
AcDbLine
 10
223.1098342698
 20
100.4573203285
 30
0.0
 11
223.1098342698
 21
88.7323203285
 31
0.0
  0
LINE
  5
128
330
1F
100
AcDbEntity
  8
0
  6
HIDDEN
 62
     7
370
     0
100
AcDbLine
 10
223.1098342698
 20
100.4573203285
 30
0.0
 11
218.8098342698
 21
100.4573203285
 31
0.0
  0
SPLINE
  5
129
330
1F
100
AcDbEntity
  8
0
  6
HIDDEN
 62
     7
370
     0
100
AcDbSpline
210
0.0
220
0.0
230
1.0
 70
     8
 71
     3
 72
    10
 73
     6
 74
     0
 42
0.00000001
 43
0.00000001
 40
0.0
 40
0.0
 40
0.0
 40
0.0
 40
0.5
 40
0.5
 40
1.0
 40
1.0
 40
1.0
 40
1.0
 10
218.8098342698082
 20
100.4573203285421
 30
0.0
 10
218.6716089347352
 20
100.4573203285421
 30
0.0
 10
218.5389770122067
 20
100.5174154964719
 30
0.0
 10
218.3590850907279
 20
100.7049216501926
 30
0.0
 10
218.3098342698082
 20
100.8302474121237
 30
0.0
 10
218.3098342698082
 20
100.9573203285421
 30
0.0
  0
LINE
  5
12A
330
1F
100
AcDbEntity
  8
0
  6
HIDDEN
 62
     7
370
     0
100
AcDbLine
 10
218.3098342698
 20
100.9573203285
 30
0.0
 11
218.3098342698
 21
116.5073203285
 31
0.0
  0
SPLINE
  5
12B
330
1F
100
AcDbEntity
  8
0
  6
HIDDEN
 62
     7
370
     0
100
AcDbSpline
210
0.0
220
0.0
230
1.0
 70
     8
 71
     3
 72
    10
 73
     6
 74
     0
 42
0.00000001
 43
0.00000001
 40
0.0
 40
0.0
 40
0.0
 40
0.0
 40
0.5
 40
0.5
 40
1.0
 40
1.0
 40
1.0
 40
1.0
 10
218.3098342698082
 20
116.5073203285421
 30
0.0
 10
218.3098342698082
 20
116.6345669264818
 30
0.0
 10
218.3582152685107
 20
116.7586914928315
 30
0.0
 10
218.5394051010222
 20
116.9477919499195
 30
0.0
 10
218.6713334408842
 20
117.0073203285421
 30
0.0
 10
218.8098342698082
 20
117.0073203285421
 30
0.0
  0
LINE
  5
12C
330
1F
100
AcDbEntity
  8
0
  6
HIDDEN
 62
     7
370
     0
100
AcDbLine
 10
218.8098342698
 20
117.0073203285
 30
0.0
 11
223.1098342698
 21
117.0073203285
 31
0.0
  0
LINE
  5
12D
330
1F
100
AcDbEntity
  8
0
  6
HIDDEN
 62
     7
370
     0
100
AcDbLine
 10
223.1098342698
 20
117.0073203285
 30
0.0
 11
223.1098342698
 21
128.7323203285
 31
0.0
  0
LINE
  5
12E
330
1F
100
AcDbEntity
  8
0
  6
HIDDEN
 62
     7
370
     0
100
AcDbLine
 10
223.1098342698
 20
117.0073203285
 30
0.0
 11
218.8098342698
 21
117.0073203285
 31
0.0
  0
SPLINE
  5
12F
330
1F
100
AcDbEntity
  8
0
  6
HIDDEN
 62
     7
370
     0
100
AcDbSpline
210
0.0
220
0.0
230
1.0
 70
     8
 71
     3
 72
    10
 73
     6
 74
     0
 42
0.00000001
 43
0.00000001
 40
0.0
 40
0.0
 40
0.0
 40
0.0
 40
0.5
 40
0.5
 40
1.0
 40
1.0
 40
1.0
 40
1.0
 10
218.8098342698082
 20
117.0073203285421
 30
0.0
 10
218.6716089347352
 20
117.0073203285421
 30
0.0
 10
218.5389770122067
 20
116.9472251606123
 30
0.0
 10
218.3590850907279
 20
116.7597190068916
 30
0.0
 10
218.3098342698082
 20
116.6343932449605
 30
0.0
 10
218.3098342698082
 20
116.5073203285421
 30
0.0
  0
LINE
  5
130
330
1F
100
AcDbEntity
  8
0
  6
HIDDEN
 62
     7
370
     0
100
AcDbLine
 10
218.3098342698
 20
116.5073203285
 30
0.0
 11
218.3098342698
 21
100.9573203285
 31
0.0
  0
SPLINE
  5
131
330
1F
100
AcDbEntity
  8
0
  6
HIDDEN
 62
     7
370
     0
100
AcDbSpline
210
0.0
220
0.0
230
1.0
 70
     8
 71
     3
 72
    10
 73
     6
 74
     0
 42
0.00000001
 43
0.00000001
 40
0.0
 40
0.0
 40
0.0
 40
0.0
 40
0.5
 40
0.5
 40
1.0
 40
1.0
 40
1.0
 40
1.0
 10
218.3098342698082
 20
100.9573203285421
 30
0.0
 10
218.3098342698082
 20
100.8300737306024
 30
0.0
 10
218.3582152685107
 20
100.7059491642528
 30
0.0
 10
218.5394051010222
 20
100.5168487071648
 30
0.0
 10
218.6713334408842
 20
100.4573203285421
 30
0.0
 10
218.8098342698082
 20
100.4573203285421
 30
0.0
  0
LINE
  5
132
330
1F
100
AcDbEntity
  8
0
  6
HIDDEN
 62
     7
370
     0
100
AcDbLine
 10
218.8098342698
 20
100.4573203285
 30
0.0
 11
223.1098342698
 21
100.4573203285
 31
0.0
  0
LINE
  5
133
330
1F
100
AcDbEntity
  8
0
  6
HIDDEN
 62
     7
370
     0
100
AcDbLine
 10
215.4098342698
 20
128.1573203285
 30
0.0
 11
215.4098342698
 21
89.334851465
 31
0.0
  0
LINE
  5
134
330
1F
100
AcDbEntity
  8
0
  6
HIDDEN
 62
     7
370
     0
100
AcDbLine
 10
217.0098342698
 20
128.1573203285
 30
0.0
 11
217.0098342698
 21
89.334851465
 31
0.0
  0
LWPOLYLINE
  5
135
330
1F
100
AcDbEntity
  8
0
  6
HIDDEN
 62
     7
370
     0
100
AcDbPolyline
 90
       25
 70
   128
 43
0.0
 10
191.6098342698
 20
100.9573203285
 10
191.7222790431
 20
100.217645564
 10
192.0519504373
 20
99.5283784123
 10
192.5763818919
 20
98.9364912907
 10
193.2598342698
 20
98.4823203285
 10
194.055731421
 20
98.1968165262
 10
194.9098342698
 20
98.0994364961
 10
195.7639371186
 20
98.1968165262
 10
196.5598342698
 20
98.4823203285
 10
197.2432866477
 20
98.9364912907
 10
197.7677181023
 20
99.5283784123
 10
198.0973894966
 20
100.217645564
 10
198.2098342698
 20
100.9573203285
 10
198.0973894966
 20
101.6969950931
 10
197.7677181023
 20
102.3862622448
 10
197.2432866477
 20
102.9781493663
 10
196.5598342698
 20
103.4323203285
 10
195.7639371186
 20
103.7178241309
 10
194.9098342698
 20
103.815204161
 10
194.055731421
 20
103.7178241309
 10
193.2598342698
 20
103.4323203285
 10
192.5763818919
 20
102.9781493663
 10
192.0519504373
 20
102.3862622448
 10
191.7222790431
 20
101.6969950931
 10
191.6098342698
 20
100.9573203285
  0
LWPOLYLINE
  5
136
330
1F
100
AcDbEntity
  8
0
  6
HIDDEN
 62
     7
370
     0
100
AcDbPolyline
 90
        2
 70
   128
 43
0.0
 10
218.3098342698
 20
100.9573203285
 10
218.3098342698
 20
100.9573203285
  0
LWPOLYLINE
  5
137
330
1F
100
AcDbEntity
  8
0
  6
HIDDEN
 62
     7
370
     0
100
AcDbPolyline
 90
        2
 70
   128
 43
0.0
 10
218.3098342698
 20
116.5073203285
 10
218.3098342698
 20
116.5073203285
  0
SPLINE
  5
138
330
1F
100
AcDbEntity
  8
0
  6
HIDDEN
 62
     7
370
     0
100
AcDbSpline
210
0.0
220
0.0
230
1.0
 70
     8
 71
     3
 72
    24
 73
    20
 74
     0
 42
0.00000001
 43
0.00000001
 40
0.0
 40
0.0
 40
0.0
 40
0.0
 40
0.125000000000001
 40
0.125000000000001
 40
0.250000000000002
 40
0.250000000000002
 40
0.3125000000000025
 40
0.3125000000000025
 40
0.375000000000003
 40
0.375000000000003
 40
0.5000000000000023
 40
0.5000000000000023
 40
0.6250000000000018
 40
0.6250000000000018
 40
0.7500000000000011
 40
0.7500000000000011
 40
0.8750000000000006
 40
0.8750000000000006
 40
1.0
 40
1.0
 40
1.0
 40
1.0
 10
185.1598342698082
 20
118.1187261634841
 30
0.0
 10
184.9608453137392
 20
118.0576876030039
 30
0.0
 10
184.7783817046019
 20
117.974258225021
 30
0.0
 10
184.4456697059736
 20
117.7617652397771
 30
0.0
 10
184.3005176729312
 20
117.6352154049143
 30
0.0
 10
184.1210731459522
 20
117.4198374101329
 30
0.0
 10
184.0671159480321
 20
117.3429038626645
 30
0.0
 10
183.9749904845972
 20
117.1843524039524
 30
0.0
 10
183.9363236295603
 20
117.1022749586478
 30
0.0
 10
183.8423865251342
 20
116.8474210001076
 30
0.0
 10
183.809923724723
 20
116.6651822942811
 30
0.0
 10
183.8097451933786
 20
116.3010025058044
 30
0.0
 10
183.8421338487209
 20
116.113927042917
 30
0.0
 10
183.9668933339011
 20
115.7583243951489
 30
0.0
 10
184.0610081987138
 20
115.5846209870198
 30
0.0
 10
184.2992213033814
 20
115.2716338469859
 30
0.0
 10
184.4459185293201
 20
115.1286374549501
 30
0.0
 10
184.7766311001559
 20
114.8893537213787
 30
0.0
 10
184.9608476922382
 20
114.7920449170277
 30
0.0
 10
185.1598342698082
 20
114.7213006676123
 30
0.0
  0
LINE
  5
139
330
1F
100
AcDbEntity
  8
0
  6
HIDDEN
 62
     7
370
     0
100
AcDbLine
 10
185.1598342698
 20
114.7213006676
 30
0.0
 11
185.1598342698
 21
114.9606676441
 31
0.0
  0
SPLINE
  5
13A
330
1F
100
AcDbEntity
  8
0
  6
HIDDEN
 62
     7
370
     0
100
AcDbSpline
210
0.0
220
0.0
230
1.0
 70
     8
 71
     3
 72
    10
 73
     6
 74
     0
 42
0.00000001
 43
0.00000001
 40
0.0
 40
0.0
 40
0.0
 40
0.0
 40
0.5
 40
0.5
 40
1.0
 40
1.0
 40
1.0
 40
1.0
 10
185.1598342698082
 20
114.9606676440838
 30
0.0
 10
185.1598342698082
 20
114.9870683657251
 30
0.0
 10
185.1820099703903
 20
115.0057842264933
 30
0.0
 10
185.2572320493266
 20
115.0187503324038
 30
0.0
 10
185.308118820787
 20
115.0139533143214
 30
0.0
 10
185.3598342698082
 20
115.0009129307237
 30
0.0
  0
SPLINE
  5
13B
330
1F
100
AcDbEntity
  8
0
  6
HIDDEN
 62
     7
370
     0
100
AcDbSpline
210
0.0
220
0.0
230
1.0
 70
     8
 71
     3
 72
    10
 73
     6
 74
     0
 42
0.00000001
 43
0.00000001
 40
0.0
 40
0.0
 40
0.0
 40
0.0
 40
0.5
 40
0.5
 40
1.0
 40
1.0
 40
1.0
 40
1.0
 10
185.3598342698082
 20
115.0009129307235
 30
0.0
 10
185.5570836899536
 20
114.9511752188444
 30
0.0
 10
185.757261973931
 20
114.9287334523624
 30
0.0
 10
186.1633779044194
 20
114.9378304004015
 30
0.0
 10
186.3655235964107
 20
114.9699004038519
 30
0.0
 10
186.5598342698082
 20
115.0286107312057
 30
0.0
  0
SPLINE
  5
13C
330
1F
100
AcDbEntity
  8
0
  6
HIDDEN
 62
     7
370
     0
100
AcDbSpline
210
0.0
220
0.0
230
1.0
 70
     8
 71
     3
 72
    10
 73
     6
 74
     0
 42
0.00000001
 43
0.00000001
 40
0.0
 40
0.0
 40
0.0
 40
0.0
 40
0.5
 40
0.5
 40
1.0
 40
1.0
 40
1.0
 40
1.0
 10
186.5598342698082
 20
115.0286107312057
 30
0.0
 10
186.6112113795909
 20
115.044134155015
 30
0.0
 10
186.6617834392342
 20
115.0515928506125
 30
0.0
 10
186.7369502735042
 20
115.0429905341291
 30
0.0
 10
186.7598342698082
 20
115.0256145222429
 30
0.0
 10
186.7598342698082
 20
114.9988861571489
 30
0.0
  0
LINE
  5
13D
330
1F
100
AcDbEntity
  8
0
  6
HIDDEN
 62
     7
370
     0
100
AcDbLine
 10
186.7598342698
 20
114.9988861571
 30
0.0
 11
186.7598342698
 21
114.7595976992
 31
0.0
  0
SPLINE
  5
13E
330
1F
100
AcDbEntity
  8
0
  6
HIDDEN
 62
     7
370
     0
100
AcDbSpline
210
0.0
220
0.0
230
1.0
 70
     8
 71
     3
 72
    22
 73
    18
 74
     0
 42
0.00000001
 43
0.00000001
 40
0.0
 40
0.0
 40
0.0
 40
0.0
 40
0.125
 40
0.125
 40
0.25
 40
0.25
 40
0.375
 40
0.375
 40
0.5
 40
0.5
 40
0.625
 40
0.625
 40
0.75
 40
0.75
 40
0.875
 40
0.875
 40
1.0
 40
1.0
 40
1.0
 40
1.0
 10
186.7598342698082
 20
114.759597699222
 30
0.0
 10
186.9462516621821
 20
114.8362099731992
 30
0.0
 10
187.1162334144478
 20
114.9352658490359
 30
0.0
 10
187.4242883690017
 20
115.1757280859604
 30
0.0
 10
187.5588728122098
 20
115.3153364195042
 30
0.0
 10
187.7788109602571
 20
115.619921723395
 30
0.0
 10
187.8652170175525
 20
115.7871017525465
 30
0.0
 10
187.9799420873348
 20
116.1283799982995
 30
0.0
 10
188.0097724046266
 20
116.3074328651843
 30
0.0
 10
188.0098959372638
 20
116.6560916813045
 30
0.0
 10
187.9803799142905
 20
116.8304832362954
 30
0.0
 10
187.8655712456172
 20
117.1578996242139
 30
0.0
 10
187.7801327801958
 20
117.3127970928697
 30
0.0
 10
187.5593489385006
 20
117.593925899913
 30
0.0
 10
187.4269067775948
 20
117.7176823388969
 30
0.0
 10
187.1169131643007
 20
117.9327648487001
 30
0.0
 10
186.9462491072513
 20
118.0193222655401
 30
0.0
 10
186.7598342698082
 20
118.0856313731344
 30
0.0
  0
LINE
  5
13F
330
1F
100
AcDbEntity
  8
0
  6
HIDDEN
 62
     7
370
     0
100
AcDbLine
 10
186.7598342698
 20
118.0856313731
 30
0.0
 11
186.7598342698
 21
118.3249198311
 31
0.0
  0
SPLINE
  5
140
330
1F
100
AcDbEntity
  8
0
  6
HIDDEN
 62
     7
370
     0
100
AcDbSpline
210
0.0
220
0.0
230
1.0
 70
     8
 71
     3
 72
    10
 73
     6
 74
     0
 42
0.00000001
 43
0.00000001
 40
0.0
 40
0.0
 40
0.0
 40
0.0
 40
0.5
 40
0.5
 40
1.0
 40
1.0
 40
1.0
 40
1.0
 10
186.7598342698082
 20
118.3249198310622
 30
0.0
 10
186.7598342698082
 20
118.3515307516986
 30
0.0
 10
186.7371831161305
 20
118.3868132953603
 30
0.0
 10
186.6617116051872
 20
118.4485330310367
 30
0.0
 10
186.6111436237582
 20
118.4738702857842
 30
0.0
 10
186.5598342698082
 20
118.4872954523102
 30
0.0
  0
SPLINE
  5
141
330
1F
100
AcDbEntity
  8
0
  6
HIDDEN
 62
     7
370
     0
100
AcDbSpline
210
0.0
220
0.0
230
1.0
 70
     8
 71
     3
 72
    10
 73
     6
 74
     0
 42
0.00000001
 43
0.00000001
 40
0.0
 40
0.0
 40
0.0
 40
0.0
 40
0.5
 40
0.5
 40
1.0
 40
1.0
 40
1.0
 40
1.0
 10
186.5598342698082
 20
118.4872954523099
 30
0.0
 10
186.3655278863448
 20
118.5381359980242
 30
0.0
 10
186.1668155323478
 20
118.5652926488713
 30
0.0
 10
185.7607157570256
 20
118.573644870419
 30
0.0
 10
185.5570863380746
 20
118.5542327157381
 30
0.0
 10
185.3598342698082
 20
118.5112547944171
 30
0.0
  0
SPLINE
  5
142
330
1F
100
AcDbEntity
  8
0
  6
HIDDEN
 62
     7
370
     0
100
AcDbSpline
210
0.0
220
0.0
230
1.0
 70
     8
 71
     3
 72
    10
 73
     6
 74
     0
 42
0.00000001
 43
0.00000001
 40
0.0
 40
0.0
 40
0.0
 40
0.0
 40
0.5
 40
0.5
 40
1.0
 40
1.0
 40
1.0
 40
1.0
 10
185.3598342698082
 20
118.5112547944171
 30
0.0
 10
185.3080594475152
 20
118.4999739279681
 30
0.0
 10
185.2570898547995
 20
118.4765227117562
 30
0.0
 10
185.1822948960282
 20
118.4185858847806
 30
0.0
 10
185.1598342698081
 20
118.3846265492043
 30
0.0
 10
185.1598342698082
 20
118.3580931399567
 30
0.0
  0
LINE
  5
143
330
1F
100
AcDbEntity
  8
0
  6
HIDDEN
 62
     7
370
     0
100
AcDbLine
 10
185.1598342698
 20
118.35809314
 30
0.0
 11
185.1598342698
 21
118.1187261635
 31
0.0
  0
LWPOLYLINE
  5
144
330
1F
100
AcDbEntity
  8
0
  6
HIDDEN
 62
     7
370
     0
100
AcDbPolyline
 90
        2
 70
   128
 43
0.0
 10
218.8098342698
 20
100.4573203285
 10
218.8098342698
 20
100.4573203285
  0
SPLINE
  5
145
330
1F
100
AcDbEntity
  8
0
  6
HIDDEN
 62
     7
370
     0
100
AcDbSpline
210
0.0
220
0.0
230
1.0
 70
    24
 71
     3
 72
     8
 73
     4
 74
     0
 42
0.00000001
 43
0.00000001
 40
0.0
 40
0.0
 40
0.0
 40
0.0
 40
1.0
 40
1.0
 40
1.0
 40
1.0
 10
223.1098342698082
 20
117.0073203285421
 30
0.0
 10
223.3819323459452
 20
117.2794184046791
 30
0.0
 10
223.6487753009511
 20
117.546261359685
 30
0.0
 10
223.9098342698082
 20
117.8073203285421
 30
0.0
  0
LINE
  5
146
330
1F
100
AcDbEntity
  8
0
  6
HIDDEN
 62
     7
370
     0
100
AcDbLine
 10
223.9098342698
 20
117.8073203285
 30
0.0
 11
223.9098342698
 21
127.9323203285
 31
0.0
  0
LINE
  5
147
330
1F
100
AcDbEntity
  8
0
  6
HIDDEN
 62
     7
370
     0
100
AcDbLine
 10
223.5598342698
 20
117.4573203285
 30
0.0
 11
223.1098342698
 21
117.0073203285
 31
0.0
  0
LWPOLYLINE
  5
148
330
1F
100
AcDbEntity
  8
0
  6
HIDDEN
 62
     7
370
     0
100
AcDbPolyline
 90
        2
 70
   128
 43
0.0
 10
223.1098342698
 20
117.0073203285
 10
223.1098342698
 20
117.0073203285
  0
LWPOLYLINE
  5
149
330
1F
100
AcDbEntity
  8
0
  6
HIDDEN
 62
     7
370
     0
100
AcDbPolyline
 90
        2
 70
   128
 43
0.0
 10
218.8098342698
 20
117.0073203285
 10
218.8098342698
 20
117.0073203285
  0
LINE
  5
14A
330
1F
100
AcDbEntity
  8
0
  6
HIDDEN
 62
     7
370
     0
100
AcDbLine
 10
223.1098342698
 20
100.4573203285
 30
0.0
 11
223.5598342698
 21
100.0073203285
 31
0.0
  0
LINE
  5
14B
330
1F
100
AcDbEntity
  8
0
  6
HIDDEN
 62
     7
370
     0
100
AcDbLine
 10
223.9098342698
 20
89.5323203285
 30
0.0
 11
223.9098342698
 21
99.6573203285
 31
0.0
  0
SPLINE
  5
14C
330
1F
100
AcDbEntity
  8
0
  6
HIDDEN
 62
     7
370
     0
100
AcDbSpline
210
0.0
220
0.0
230
1.0
 70
    24
 71
     3
 72
     8
 73
     4
 74
     0
 42
0.00000001
 43
0.00000001
 40
0.0
 40
0.0
 40
0.0
 40
0.0
 40
1.0
 40
1.0
 40
1.0
 40
1.0
 10
223.9098342698082
 20
99.6573203285421
 30
0.0
 10
223.6487753009511
 20
99.9183792973992
 30
0.0
 10
223.3819323459452
 20
100.1852222524051
 30
0.0
 10
223.1098342698082
 20
100.4573203285421
 30
0.0
  0
LWPOLYLINE
  5
14D
330
1F
100
AcDbEntity
  8
0
  6
HIDDEN
 62
     7
370
     0
100
AcDbPolyline
 90
        2
 70
   128
 43
0.0
 10
223.1098342698
 20
100.4573203285
 10
223.1098342698
 20
100.4573203285
  0
LINE
  5
14E
330
1F
100
AcDbEntity
  8
0
  6
HIDDEN
 62
     7
370
     0
100
AcDbLine
 10
65.6598342698
 20
81.3623203285
 30
0.0
 11
65.6598342698
 21
76.4823203285
 31
0.0
  0
LWPOLYLINE
  5
14F
330
1F
100
AcDbEntity
  8
0
  6
HIDDEN
 62
     7
370
     0
100
AcDbPolyline
 90
        2
 70
   128
 43
0.0
 10
223.9098342698
 20
99.6573203285
 10
223.9098342698
 20
99.6573203285
  0
LWPOLYLINE
  5
150
330
1F
100
AcDbEntity
  8
0
  6
HIDDEN
 62
     7
370
     0
100
AcDbPolyline
 90
        2
 70
   128
 43
0.0
 10
223.9098342698
 20
117.8073203285
 10
223.9098342698
 20
117.8073203285
  0
LINE
  5
151
330
1F
100
AcDbEntity
  8
0
  6
HIDDEN
 62
     7
370
     0
100
AcDbLine
 10
79.1098342698
 20
81.3623203285
 30
0.0
 11
79.1098342698
 21
74.8629870632
 31
0.0
  0
LINE
  5
152
330
1F
100
AcDbEntity
  8
0
  6
HIDDEN
 62
     7
370
     0
100
AcDbLine
 10
74.1098342698
 20
136.1023203285
 30
0.0
 11
74.1098342698
 21
142.4769290655
 31
0.0
  0
LINE
  5
153
330
1F
100
AcDbEntity
  8
0
  6
HIDDEN
 62
     7
370
     0
100
AcDbLine
 10
65.6598342698
 20
136.1023203285
 30
0.0
 11
65.6598342698
 21
140.9823203285
 31
0.0
  0
LINE
  5
154
330
1F
100
AcDbEntity
  8
0
  6
HIDDEN
 62
     7
370
     0
100
AcDbLine
 10
64.0098342698
 20
136.1023203285
 30
0.0
 11
64.0098342698
 21
139.2349900711
 31
0.0
  0
LINE
  5
155
330
1F
100
AcDbEntity
  8
0
  6
HIDDEN
 62
     7
370
     0
100
AcDbLine
 10
64.0098342698
 20
81.3623203285
 30
0.0
 11
64.0098342698
 21
78.229650586
 31
0.0
  0
SPLINE
  5
156
330
1F
100
AcDbEntity
  8
0
  6
HIDDEN
 62
     7
370
     0
100
AcDbSpline
210
0.0
220
0.0
230
1.0
 70
     8
 71
     3
 72
    10
 73
     6
 74
     0
 42
0.00000001
 43
0.00000001
 40
0.0
 40
0.0
 40
0.0
 40
0.0
 40
0.5
 40
0.5
 40
1.0
 40
1.0
 40
1.0
 40
1.0
 10
185.3598342698082
 20
92.68479326048578
 30
0.0
 10
185.3080594475152
 20
92.6830187719842
 30
0.0
 10
185.2570898547995
 20
92.70172960000662
 30
0.0
 10
185.1822948960282
 20
92.77252464580806
 30
0.0
 10
185.1598342698081
 20
92.82513338308995
 30
0.0
 10
185.1598342698082
 20
92.87820020158513
 30
0.0
  0
LINE
  5
157
330
1F
100
AcDbEntity
  8
0
  6
HIDDEN
 62
     7
370
     0
100
AcDbLine
 10
185.1598342698
 20
114.9606676441
 30
0.0
 11
185.1598342698
 21
92.8782002016
 31
0.0
  0
SPLINE
  5
158
330
1F
100
AcDbEntity
  8
0
  6
HIDDEN
 62
     7
370
     0
100
AcDbSpline
210
0.0
220
0.0
230
1.0
 70
     8
 71
     3
 72
    10
 73
     6
 74
     0
 42
0.00000001
 43
0.00000001
 40
0.0
 40
0.0
 40
0.0
 40
0.0
 40
0.5
 40
0.5
 40
1.0
 40
1.0
 40
1.0
 40
1.0
 10
186.7598342698082
 20
92.87315499741577
 30
0.0
 10
186.7598342698081
 20
92.81993315614294
 30
0.0
 10
186.7371831161304
 20
92.76720296955959
 30
0.0
 10
186.6617116051872
 20
92.6968077576892
 30
0.0
 10
186.6111436237582
 20
92.67897701702785
 30
0.0
 10
186.5598342698082
 20
92.68105480211044
 30
0.0
  0
LINE
  5
159
330
1F
100
AcDbEntity
  8
0
  6
HIDDEN
 62
     7
370
     0
100
AcDbLine
 10
186.7598342698
 20
114.9988861571
 30
0.0
 11
186.7598342698
 21
92.8731549974
 31
0.0
  0
LINE
  5
15A
330
1F
100
AcDbEntity
  8
0
  6
HIDDEN
 62
     7
370
     0
100
AcDbLine
 10
175.9098342698
 20
93.2823203712
 30
0.0
 11
175.9098342698
 21
124.1823203285
 31
0.0
  0
LWPOLYLINE
  5
15B
330
1F
100
AcDbEntity
  8
0
  6
HIDDEN
 62
     7
370
     0
100
AcDbPolyline
 90
        2
 70
   128
 43
0.0
 10
175.9098342698
 20
124.1823203285
 10
175.9098342698
 20
124.1823203285
  0
LINE
  5
15C
330
1F
100
AcDbEntity
  8
0
  6
HIDDEN
 62
     7
370
     0
100
AcDbLine
 10
177.9098342698
 20
93.2323203285
 30
0.0
 11
177.9098342698
 21
124.2323203285
 31
0.0
  0
SPLINE
  5
15D
330
1F
100
AcDbEntity
  8
0
  6
HIDDEN
 62
     7
370
     0
100
AcDbSpline
210
0.0
220
0.0
230
1.0
 70
    11
 71
     3
 72
    24
 73
    20
 74
     0
 42
0.00000001
 43
0.00000001
 40
0.0
 40
0.0
 40
0.0
 40
0.0
 40
0.1250000000000015
 40
0.1250000000000015
 40
0.2500000000000031
 40
0.2500000000000031
 40
0.3125000000000039
 40
0.3125000000000039
 40
0.3750000000000047
 40
0.3750000000000047
 40
0.5000000000000037
 40
0.5000000000000037
 40
0.6250000000000028
 40
0.6250000000000028
 40
0.7500000000000018
 40
0.7500000000000018
 40
0.8750000000000009
 40
0.8750000000000009
 40
1.0
 40
1.0
 40
1.0
 40
1.0
 10
185.1598342698082
 20
93.35693415453008
 30
0.0
 10
184.9608453137392
 20
93.34722761998438
 30
0.0
 10
184.7783817046019
 20
93.33450532673149
 30
0.0
 10
184.4456697059736
 20
93.30648810487712
 30
0.0
 10
184.3005176729312
 20
93.29160247698566
 30
0.0
 10
184.1210731459522
 20
93.27152690375902
 30
0.0
 10
184.0671159480321
 20
93.26514474101279
 30
0.0
 10
183.9749904845972
 20
93.25389888721861
 30
0.0
 10
183.9363236295603
 20
93.24898153445815
 30
0.0
 10
183.8423865251342
 20
93.23682149701648
 30
0.0
 10
183.809923724723
 20
93.23233244823916
 30
0.0
 10
183.8097451933786
 20
93.23230826012369
 30
0.0
 10
183.8421338487209
 20
93.23678680961561
 30
0.0
 10
183.9668933339011
 20
93.2529407064373
 30
0.0
 10
184.0610081987138
 20
93.26480116133597
 30
0.0
 10
184.2992213033814
 20
93.29146330976388
 30
0.0
 10
184.4459185293201
 20
93.30650104052351
 30
0.0
 10
184.7766311001559
 20
93.33436589182983
 30
0.0
 10
184.9608476922382
 20
93.3472277360058
 30
0.0
 10
185.1598342698082
 20
93.35693415453008
 30
0.0
  0
LINE
  5
15E
330
1F
100
AcDbEntity
  8
0
  6
HIDDEN
 62
     7
370
     0
100
AcDbLine
 10
185.1598342698
 20
118.1187261635
 30
0.0
 11
185.1598342698
 21
124.2031561366
 31
0.0
  0
SPLINE
  5
15F
330
1F
100
AcDbEntity
  8
0
  6
HIDDEN
 62
     7
370
     0
100
AcDbSpline
210
0.0
220
0.0
230
1.0
 70
     8
 71
     3
 72
    24
 73
    20
 74
     0
 42
0.00000001
 43
0.00000001
 40
0.0
 40
0.0
 40
0.0
 40
0.0
 40
0.1250000000000013
 40
0.1250000000000013
 40
0.2500000000000026
 40
0.2500000000000026
 40
0.3125000000000033
 40
0.3125000000000033
 40
0.3750000000000039
 40
0.3750000000000039
 40
0.5000000000000028
 40
0.5000000000000028
 40
0.6250000000000021
 40
0.6250000000000021
 40
0.7500000000000013
 40
0.7500000000000013
 40
0.8750000000000007
 40
0.8750000000000007
 40
1.0
 40
1.0
 40
1.0
 40
1.0
 10
185.1598342698082
 20
114.7213006676121
 30
0.0
 10
184.9608453137392
 20
114.7920457626379
 30
0.0
 10
184.7783817046019
 20
114.8881974338737
 30
0.0
 10
184.4456697059736
 20
115.128707640972
 30
0.0
 10
184.3005176729312
 20
115.2701431037262
 30
0.0
 10
184.1210731459522
 20
115.5055966717343
 30
0.0
 10
184.0671159480321
 20
115.588912381949
 30
0.0
 10
183.9749904845972
 20
115.7587096944553
 30
0.0
 10
183.9363236295603
 20
115.8457044925203
 30
0.0
 10
183.8423865251342
 20
116.1127184885022
 30
0.0
 10
183.809923724723
 20
116.299446243106
 30
0.0
 10
183.8097451933786
 20
116.6636502196982
 30
0.0
 10
183.8421338487209
 20
116.8462471330937
 30
0.0
 10
183.9668933339011
 20
117.1856958840401
 30
0.0
 10
184.0610081987138
 20
117.3475388372705
 30
0.0
 10
184.2992213033814
 20
117.6338638288764
 30
0.0
 10
184.4459185293201
 20
117.7618224901526
 30
0.0
 10
184.7766311001559
 20
117.9732413724177
 30
0.0
 10
184.9608476922382
 20
118.0576883325928
 30
0.0
 10
185.1598342698082
 20
118.1187261634839
 30
0.0
  0
LINE
  5
160
330
1F
100
AcDbEntity
  8
0
  6
HIDDEN
 62
     7
370
     0
100
AcDbLine
 10
185.1598342698
 20
93.3569341545
 30
0.0
 11
185.1598342698
 21
114.7213006676
 31
0.0
  0
LINE
  5
161
330
1F
100
AcDbEntity
  8
0
  6
HIDDEN
 62
     7
370
     0
100
AcDbLine
 10
185.1598342698
 20
114.7213006676
 30
0.0
 11
185.1598342698
 21
93.3569341545
 31
0.0
  0
SPLINE
  5
162
330
1F
100
AcDbEntity
  8
0
  6
HIDDEN
 62
     7
370
     0
100
AcDbSpline
210
0.0
220
0.0
230
1.0
 70
    11
 71
     3
 72
    22
 73
    18
 74
     0
 42
0.00000001
 43
0.00000001
 40
0.0
 40
0.0
 40
0.0
 40
0.0
 40
0.125
 40
0.125
 40
0.2500000000000001
 40
0.2500000000000001
 40
0.3750000000000001
 40
0.3750000000000001
 40
0.5000000000000001
 40
0.5000000000000001
 40
0.6250000000000001
 40
0.6250000000000001
 40
0.7500000000000002
 40
0.7500000000000002
 40
0.8750000000000001
 40
0.8750000000000001
 40
1.0
 40
1.0
 40
1.0
 40
1.0
 10
186.7598342698082
 20
93.35173191327009
 30
0.0
 10
186.9462516621821
 20
93.34142965569453
 30
0.0
 10
187.1162334144478
 20
93.32868896573939
 30
0.0
 10
187.4242883690017
 20
93.30150597921184
 30
0.0
 10
187.5588728122098
 20
93.28734083617991
 30
0.0
 10
187.7788109602571
 20
93.26231265968156
 30
0.0
 10
187.8652170175525
 20
93.25135502281364
 30
0.0
 10
187.9799420873347
 20
93.23644631372201
 30
0.0
 10
188.0097724046266
 20
93.232328710276
 30
0.0
 10
188.0098959372638
 20
93.2323119735969
 30
0.0
 10
187.9803799142905
 20
93.23638796942835
 30
0.0
 10
187.8655712456173
 20
93.25131042831624
 30
0.0
 10
187.7801327801958
 20
93.26215587854162
 30
0.0
 10
187.5593489385006
 20
93.2872929658492
 30
0.0
 10
187.4269067775948
 20
93.30125839181429
 30
0.0
 10
187.1169131643008
 20
93.32864534629266
 30
0.0
 10
186.9462491072513
 20
93.34142979689142
 30
0.0
 10
186.7598342698082
 20
93.35173191327009
 30
0.0
  0
LINE
  5
163
330
1F
100
AcDbEntity
  8
0
  6
HIDDEN
 62
     7
370
     0
100
AcDbLine
 10
186.7598342698
 20
93.3517319133
 30
0.0
 11
186.7598342698
 21
114.7595976992
 31
0.0
  0
SPLINE
  5
164
330
1F
100
AcDbEntity
  8
0
  6
HIDDEN
 62
     7
370
     0
100
AcDbSpline
210
0.0
220
0.0
230
1.0
 70
     8
 71
     3
 72
    22
 73
    18
 74
     0
 42
0.00000001
 43
0.00000001
 40
0.0
 40
0.0
 40
0.0
 40
0.0
 40
0.1250000000000004
 40
0.1250000000000004
 40
0.2500000000000009
 40
0.2500000000000009
 40
0.3750000000000013
 40
0.3750000000000013
 40
0.5000000000000018
 40
0.5000000000000018
 40
0.6250000000000013
 40
0.6250000000000013
 40
0.7500000000000009
 40
0.7500000000000009
 40
0.8750000000000004
 40
0.8750000000000004
 40
1.0
 40
1.0
 40
1.0
 40
1.0
 10
186.7598342698082
 20
118.0856313731342
 30
0.0
 10
186.9462516621821
 20
118.0193213567325
 30
0.0
 10
187.1162334144478
 20
117.933006170851
 30
0.0
 10
187.4242883690017
 20
117.719726920454
 30
0.0
 10
187.5588728122097
 20
117.5942837299422
 30
0.0
 10
187.7788109602571
 20
117.3147266025497
 30
0.0
 10
187.8652170175525
 20
117.1585042102661
 30
0.0
 10
187.9799420873347
 20
116.8321346736048
 30
0.0
 10
188.0097724046266
 20
116.6571994101659
 30
0.0
 10
188.0098959372639
 20
116.3085573307249
 30
0.0
 10
187.9803799142905
 20
116.1300897799025
 30
0.0
 10
187.8655712456173
 20
115.7877509330961
 30
0.0
 10
187.7801327801958
 20
115.6220080142149
 30
0.0
 10
187.5593489385006
 20
115.315742119864
 30
0.0
 10
187.4269067775948
 20
115.1780202549151
 30
0.0
 10
187.1169131643007
 20
114.9355507906335
 30
0.0
 10
186.9462491072513
 20
114.8362089231948
 30
0.0
 10
186.7598342698082
 20
114.7595976992217
 30
0.0
  0
LINE
  5
165
330
1F
100
AcDbEntity
  8
0
  6
HIDDEN
 62
     7
370
     0
100
AcDbLine
 10
186.7598342698
 20
118.0856313731
 30
0.0
 11
186.7598342698
 21
124.2029860659
 31
0.0
  0
SPLINE
  5
166
330
1F
100
AcDbEntity
  8
0
  6
HIDDEN
 62
     7
370
     0
100
AcDbSpline
210
0.0
220
0.0
230
1.0
 70
    11
 71
     3
 72
    18
 73
    14
 74
     0
 42
0.00000001
 43
0.00000001
 40
0.0
 40
0.0
 40
0.0
 40
0.0
 40
0.2500000000000001
 40
0.2500000000000001
 40
0.5
 40
0.5
 40
0.6249999999999999
 40
0.6249999999999999
 40
0.7499999999999999
 40
0.7499999999999999
 40
0.875
 40
0.875
 40
1.0
 40
1.0
 40
1.0
 40
1.0
 10
192.1822734017452
 20
124.1621482047366
 30
0.0
 10
192.0281399780762
 20
124.1825671842855
 30
0.0
 10
191.9057814178876
 20
124.2003404230868
 30
0.0
 10
191.7365951311603
 20
124.2254869435555
 30
0.0
 10
191.693281359544
 20
124.2322843691991
 30
0.0
 10
191.6929330669441
 20
124.2323380952135
 30
0.0
 10
191.7039455421218
 20
124.2306319041509
 30
0.0
 10
191.746816202262
 20
124.2240794599242
 30
0.0
 10
191.7786569456456
 20
124.2192360005745
 30
0.0
 10
191.8628682422485
 20
124.2067179136947
 30
0.0
 10
191.9151879395304
 20
124.19905611727
 30
0.0
 10
192.0361743348668
 20
124.1819033176597
 30
0.0
 10
192.105156821666
 20
124.1723643008567
 30
0.0
 10
192.1822734017452
 20
124.1621482047366
 30
0.0
  0
SPLINE
  5
167
330
1F
100
AcDbEntity
  8
0
  6
HIDDEN
 62
     7
370
     0
100
AcDbSpline
210
0.0
220
0.0
230
1.0
 70
     8
 71
     3
 72
    28
 73
    24
 74
     0
 42
0.00000001
 43
0.00000001
 40
0.0
 40
0.0
 40
0.0
 40
0.0
 40
0.1249999999999986
 40
0.1249999999999986
 40
0.1875000000000001
 40
0.1875000000000001
 40
0.2500000000000016
 40
0.2500000000000016
 40
0.3750000000000045
 40
0.3750000000000045
 40
0.4375000000000059
 40
0.4375000000000059
 40
0.5000000000000073
 40
0.5000000000000073
 40
0.6250000000000039
 40
0.6250000000000039
 40
0.7500000000000004
 40
0.7500000000000004
 40
0.8125000000000014
 40
0.8125000000000014
 40
0.8750000000000024
 40
0.8750000000000024
 40
1.0
 40
1.0
 40
1.0
 40
1.0
 10
192.1822734017452
 20
124.1621482047366
 30
0.0
 10
192.3154580836005
 20
124.138604887898
 30
0.0
 10
192.4782581200946
 20
124.111417554301
 30
0.0
 10
192.7656667197414
 20
124.0694801604547
 30
0.0
 10
192.8695232360947
 20
124.0552211582377
 30
0.0
 10
193.086471546005
 20
124.0278449140197
 30
0.0
 10
193.1999900119292
 20
124.0146523420315
 30
0.0
 10
193.5555650886762
 20
123.9775970578195
 30
0.0
 10
193.8162285391855
 20
123.9561475401434
 30
0.0
 10
194.2166725159468
 20
123.9343829710152
 30
0.0
 10
194.352321930992
 20
123.9287617095688
 30
0.0
 10
194.6280309145106
 20
123.9211459503638
 30
0.0
 10
194.7691179527739
 20
123.91916831212
 30
0.0
 10
195.18750133123
 20
123.9191337327655
 30
0.0
 10
195.4622935354914
 20
123.9267995988253
 30
0.0
 10
196.0034973454767
 20
123.9560875357056
 30
0.0
 10
196.2582974576898
 20
123.9770596460596
 30
0.0
 10
196.6160737944122
 20
124.0142437771077
 30
0.0
 10
196.7318440026928
 20
124.027683555624
 30
0.0
 10
196.9488268380774
 20
124.0550455259441
 30
0.0
 10
197.0508108967831
 20
124.069035670902
 30
0.0
 10
197.337580046026
 20
124.1108175195957
 30
0.0
 10
197.5042158631656
 20
124.1386058437305
 30
0.0
 10
197.6373951378712
 20
124.1621482047366
 30
0.0
  0
SPLINE
  5
168
330
1F
100
AcDbEntity
  8
0
  6
HIDDEN
 62
     7
370
     0
100
AcDbSpline
210
0.0
220
0.0
230
1.0
 70
    11
 71
     3
 72
    18
 73
    14
 74
     0
 42
0.00000001
 43
0.00000001
 40
0.0
 40
0.0
 40
0.0
 40
0.0
 40
0.25
 40
0.25
 40
0.5
 40
0.5
 40
0.625
 40
0.625
 40
0.75
 40
0.75
 40
0.875
 40
0.875
 40
1.0
 40
1.0
 40
1.0
 40
1.0
 10
197.6373951378712
 20
124.1621482047366
 30
0.0
 10
197.7915285615402
 20
124.1825671842855
 30
0.0
 10
197.9138871217288
 20
124.2003404230868
 30
0.0
 10
198.083073408456
 20
124.2254869435555
 30
0.0
 10
198.1263871800724
 20
124.2322843691992
 30
0.0
 10
198.1267354726724
 20
124.2323380952135
 30
0.0
 10
198.1157229974946
 20
124.2306319041509
 30
0.0
 10
198.0728523373544
 20
124.2240794599242
 30
0.0
 10
198.0410115939708
 20
124.2192360005745
 30
0.0
 10
197.9568002973679
 20
124.2067179136947
 30
0.0
 10
197.904480600086
 20
124.19905611727
 30
0.0
 10
197.7834942047497
 20
124.1819033176597
 30
0.0
 10
197.7145117179504
 20
124.1723643008567
 30
0.0
 10
197.6373951378712
 20
124.1621482047366
 30
0.0
  0
SPLINE
  5
169
330
1F
100
AcDbEntity
  8
0
  6
HIDDEN
 62
     7
370
     0
100
AcDbSpline
210
0.0
220
0.0
230
1.0
 70
     8
 71
     3
 72
    28
 73
    24
 74
     0
 42
0.00000001
 43
0.00000001
 40
0.0
 40
0.0
 40
0.0
 40
0.0
 40
0.1249999999999985
 40
0.1249999999999985
 40
0.1875
 40
0.1875
 40
0.2500000000000015
 40
0.2500000000000015
 40
0.3750000000000043
 40
0.3750000000000043
 40
0.4375000000000058
 40
0.4375000000000058
 40
0.5000000000000072
 40
0.5000000000000072
 40
0.6250000000000039
 40
0.6250000000000039
 40
0.7500000000000004
 40
0.7500000000000004
 40
0.8125000000000014
 40
0.8125000000000014
 40
0.8750000000000023
 40
0.8750000000000023
 40
1.0
 40
1.0
 40
1.0
 40
1.0
 10
197.6373951378712
 20
124.1621482047366
 30
0.0
 10
197.5042104560158
 20
124.138604887898
 30
0.0
 10
197.3414104195218
 20
124.111417554301
 30
0.0
 10
197.0540018198749
 20
124.0694801604547
 30
0.0
 10
196.9501453035217
 20
124.0552211582377
 30
0.0
 10
196.7331969936114
 20
124.0278449140197
 30
0.0
 10
196.6196785276873
 20
124.0146523420315
 30
0.0
 10
196.2641034509402
 20
123.9775970578195
 30
0.0
 10
196.003440000431
 20
123.9561475401434
 30
0.0
 10
195.6029960236696
 20
123.9343829710152
 30
0.0
 10
195.4673466086244
 20
123.9287617095688
 30
0.0
 10
195.1916376251058
 20
123.9211459503638
 30
0.0
 10
195.0505505868425
 20
123.91916831212
 30
0.0
 10
194.6321672083864
 20
123.9191337327655
 30
0.0
 10
194.357375004125
 20
123.9267995988253
 30
0.0
 10
193.8161711941397
 20
123.9560875357056
 30
0.0
 10
193.5613710819266
 20
123.9770596460596
 30
0.0
 10
193.2035947452042
 20
124.0142437771077
 30
0.0
 10
193.0878245369236
 20
124.027683555624
 30
0.0
 10
192.870841701539
 20
124.0550455259441
 30
0.0
 10
192.7688576428332
 20
124.069035670902
 30
0.0
 10
192.4820884935905
 20
124.1108175195957
 30
0.0
 10
192.3154526764508
 20
124.1386058437305
 30
0.0
 10
192.1822734017452
 20
124.1621482047366
 30
0.0
  0
SPLINE
  5
16A
330
1F
100
AcDbEntity
  8
0
  6
HIDDEN
 62
     7
370
     0
100
AcDbSpline
210
0.0
220
0.0
230
1.0
 70
     8
 71
     3
 72
    16
 73
    12
 74
     0
 42
0.00000001
 43
0.00000001
 40
0.0
 40
0.0
 40
0.0
 40
0.0
 40
0.1250000000000019
 40
0.1250000000000019
 40
0.2500000000000039
 40
0.2500000000000039
 40
0.5000000000000036
 40
0.5000000000000036
 40
0.7500000000000018
 40
0.7500000000000018
 40
1.0
 40
1.0
 40
1.0
 40
1.0
 10
197.6373951378714
 20
99.74155029226681
 30
0.0
 10
197.7141734269981
 20
99.82872100660586
 30
0.0
 10
197.7842134922343
 20
99.92207141915122
 30
0.0
 10
197.9046391830706
 20
100.1145372804338
 30
0.0
 10
197.95582275736
 20
100.2144546746107
 30
0.0
 10
198.0811517786836
 20
100.5260550472296
 30
0.0
 10
198.1263254889712
 20
100.7532102036689
 30
0.0
 10
198.1269121036648
 20
101.2067928372851
 30
0.0
 10
198.0826337520354
 20
101.4405976367281
 30
0.0
 10
197.9152556060144
 20
101.8840059497419
 30
0.0
 10
197.7907411158941
 20
102.0988455043448
 30
0.0
 10
197.6373951378714
 20
102.2932624886227
 30
0.0
  0
SPLINE
  5
16B
330
1F
100
AcDbEntity
  8
0
  6
HIDDEN
 62
     7
370
     0
100
AcDbSpline
210
0.0
220
0.0
230
1.0
 70
     8
 71
     3
 72
    28
 73
    24
 74
     0
 42
0.00000001
 43
0.00000001
 40
0.0
 40
0.0
 40
0.0
 40
0.0
 40
0.1250000000000121
 40
0.1250000000000121
 40
0.1875000000000162
 40
0.1875000000000162
 40
0.2500000000000202
 40
0.2500000000000202
 40
0.3750000000000229
 40
0.3750000000000229
 40
0.4375000000000242
 40
0.4375000000000242
 40
0.5000000000000255
 40
0.5000000000000255
 40
0.625000000000022
 40
0.625000000000022
 40
0.7500000000000184
 40
0.7500000000000184
 40
0.8125000000000139
 40
0.8125000000000139
 40
0.8750000000000094
 40
0.8750000000000094
 40
1.0
 40
1.0
 40
1.0
 40
1.0
 10
197.6373951378714
 20
102.2932624886227
 30
0.0
 10
197.5042104560161
 20
102.5185786018043
 30
0.0
 10
197.341410419522
 20
102.7252386269397
 30
0.0
 10
197.0540018198751
 20
103.0063709351089
 30
0.0
 10
196.9501453035219
 20
103.0956603221741
 30
0.0
 10
196.7331969936115
 20
103.259055521908
 30
0.0
 10
196.6196785276874
 20
103.3337265657756
 30
0.0
 10
196.2641034509403
 20
103.5364471926043
 30
0.0
 10
196.0034400004311
 20
103.643908936768
 30
0.0
 10
195.6029960236696
 20
103.7507414259269
 30
0.0
 10
195.4673466086245
 20
103.7777531637656
 30
0.0
 10
195.1916376251058
 20
103.8141846187173
 30
0.0
 10
195.0505505868425
 20
103.8235259658197
 30
0.0
 10
194.6321672083863
 20
103.8236899632859
 30
0.0
 10
194.357375004125
 20
103.7879424636805
 30
0.0
 10
193.8161711941396
 20
103.6442255057583
 30
0.0
 10
193.5613710819265
 20
103.5392626212674
 30
0.0
 10
193.2035947452041
 20
103.3360223507068
 30
0.0
 10
193.0878245369235
 20
103.2599847496192
 30
0.0
 10
192.8708417015388
 20
103.0967420101336
 30
0.0
 10
192.7688576428331
 20
103.0092022499022
 30
0.0
 10
192.4820884935903
 20
102.7295499794939
 30
0.0
 10
192.3154526764505
 20
102.518569454221
 30
0.0
 10
192.1822734017451
 20
102.2932624886227
 30
0.0
  0
SPLINE
  5
16C
330
1F
100
AcDbEntity
  8
0
  6
HIDDEN
 62
     7
370
     0
100
AcDbSpline
210
0.0
220
0.0
230
1.0
 70
     8
 71
     3
 72
    20
 73
    16
 74
     0
 42
0.00000001
 43
0.00000001
 40
0.0
 40
0.0
 40
0.0
 40
0.0
 40
0.1250000000000005
 40
0.1250000000000005
 40
0.2500000000000011
 40
0.2500000000000011
 40
0.3750000000000016
 40
0.3750000000000016
 40
0.5000000000000021
 40
0.5000000000000021
 40
0.625000000000002
 40
0.625000000000002
 40
0.7500000000000018
 40
0.7500000000000018
 40
1.0
 40
1.0
 40
1.0
 40
1.0
 10
192.1822734017451
 20
102.2932624886228
 30
0.0
 10
192.1056851243179
 20
102.1961613965666
 30
0.0
 10
192.0366804455849
 20
102.094887084492
 30
0.0
 10
191.9150654813287
 20
101.8835359944564
 30
0.0
 10
191.8628839446095
 20
101.7738055509982
 30
0.0
 10
191.7793864906092
 20
101.5529757130114
 30
0.0
 10
191.7475194280544
 20
101.4409899416658
 30
0.0
 10
191.7043438341001
 20
101.2138737453444
 30
0.0
 10
191.6931118810035
 20
101.0975370656474
 30
0.0
 10
191.6929851586938
 20
100.8690931871583
 30
0.0
 10
191.703781870096
 20
100.7567980511562
 30
0.0
 10
191.7464878424515
 20
100.5359076064695
 30
0.0
 10
191.778797876195
 20
100.426416656162
 30
0.0
 10
191.9052145827649
 20
100.1105996487883
 30
0.0
 10
192.0280471503889
 20
99.91665203852148
 30
0.0
 10
192.1822734017451
 20
99.74155029226681
 30
0.0
  0
SPLINE
  5
16D
330
1F
100
AcDbEntity
  8
0
  6
HIDDEN
 62
     7
370
     0
100
AcDbSpline
210
0.0
220
0.0
230
1.0
 70
     8
 71
     3
 72
    28
 73
    24
 74
     0
 42
0.00000001
 43
0.00000001
 40
0.0
 40
0.0
 40
0.0
 40
0.0
 40
0.1249999999999891
 40
0.1249999999999891
 40
0.1874999999999857
 40
0.1874999999999857
 40
0.2499999999999823
 40
0.2499999999999823
 40
0.374999999999981
 40
0.374999999999981
 40
0.4374999999999802
 40
0.4374999999999802
 40
0.4999999999999796
 40
0.4999999999999796
 40
0.6249999999999843
 40
0.6249999999999843
 40
0.7499999999999892
 40
0.7499999999999892
 40
0.812499999999992
 40
0.812499999999992
 40
0.8749999999999947
 40
0.8749999999999947
 40
1.0
 40
1.0
 40
1.0
 40
1.0
 10
192.1822734017451
 20
99.74155029226685
 30
0.0
 10
192.3154580836004
 20
99.53977749592389
 30
0.0
 10
192.4782581200944
 20
99.36030480438538
 30
0.0
 10
192.7656667197413
 20
99.12110989006257
 30
0.0
 10
192.8695232360945
 20
99.04607950521432
 30
0.0
 10
193.0864715460049
 20
98.91006054969849
 30
0.0
 10
193.199990011929
 20
98.84858207781906
 30
0.0
 10
193.5555650886761
 20
98.68291673520245
 30
0.0
 10
193.8162285391853
 20
98.59690450871477
 30
0.0
 10
194.2166725159467
 20
98.51183658868406
 30
0.0
 10
194.3523219309919
 20
98.49044611229172
 30
0.0
 10
194.6280309145106
 20
98.46163041654509
 30
0.0
 10
194.7691179527739
 20
98.45426670768647
 30
0.0
 10
195.18750133123
 20
98.45413728957477
 30
0.0
 10
195.4622935354914
 20
98.48221892312046
 30
0.0
 10
196.0034973454768
 20
98.59664794416229
 30
0.0
 10
196.2582974576899
 20
98.68063871829918
 30
0.0
 10
196.6160737944123
 20
98.84669485781171
 30
0.0
 10
196.731844002693
 20
98.909292680383
 30
0.0
 10
196.9488268380776
 20
99.04517344954844
 30
0.0
 10
197.0508108967833
 20
99.118723064822
 30
0.0
 10
197.3375800460261
 20
99.35659348653661
 30
0.0
 10
197.5042158631659
 20
99.53978568767475
 30
0.0
 10
197.6373951378714
 20
99.74155029226685
 30
0.0
  0
SPLINE
  5
16E
330
1F
100
AcDbEntity
  8
0
  6
HIDDEN
 62
     7
370
     0
100
AcDbSpline
210
0.0
220
0.0
230
1.0
 70
     8
 71
     3
 72
    18
 73
    14
 74
     0
 42
0.00000001
 43
0.00000001
 40
0.0
 40
0.0
 40
0.0
 40
0.0
 40
0.1249999999999986
 40
0.1249999999999986
 40
0.2499999999999973
 40
0.2499999999999973
 40
0.5000000000000001
 40
0.5000000000000001
 40
0.7500000000000022
 40
0.7500000000000022
 40
0.8750000000000011
 40
0.8750000000000011
 40
1.0
 40
1.0
 40
1.0
 40
1.0
 10
192.1822734017451
 20
99.74155029226694
 30
0.0
 10
192.1057538087597
 20
99.82842729431187
 30
0.0
 10
192.0354986185636
 20
99.92194732618775
 30
0.0
 10
191.9144473652033
 20
100.1155221260057
 30
0.0
 10
191.8632154936984
 20
100.2157794171219
 30
0.0
 10
191.7381103193543
 20
100.5275550725679
 30
0.0
 10
191.692843372407
 20
100.7538267183733
 30
0.0
 10
191.6932545471973
 20
101.2140186999705
 30
0.0
 10
191.7376227792841
 20
101.4427360303513
 30
0.0
 10
191.8632537598901
 20
101.7746757210207
 30
0.0
 10
191.9156743052885
 20
101.8846705101243
 30
0.0
 10
192.0368212759437
 20
102.0950548964029
 30
0.0
 10
192.1056665457151
 20
102.1961378420141
 30
0.0
 10
192.1822734017451
 20
102.293262488623
 30
0.0
  0
SPLINE
  5
16F
330
1F
100
AcDbEntity
  8
0
  6
HIDDEN
 62
     7
370
     0
100
AcDbSpline
210
0.0
220
0.0
230
1.0
 70
     8
 71
     3
 72
    28
 73
    24
 74
     0
 42
0.00000001
 43
0.00000001
 40
0.0
 40
0.0
 40
0.0
 40
0.0
 40
0.1249999999999942
 40
0.1249999999999942
 40
0.1874999999999935
 40
0.1874999999999935
 40
0.2499999999999929
 40
0.2499999999999929
 40
0.3749999999999917
 40
0.3749999999999917
 40
0.4374999999999912
 40
0.4374999999999912
 40
0.4999999999999907
 40
0.4999999999999907
 40
0.6249999999999958
 40
0.6249999999999958
 40
0.750000000000001
 40
0.750000000000001
 40
0.8125000000000009
 40
0.8125000000000009
 40
0.8750000000000007
 40
0.8750000000000007
 40
1.0
 40
1.0
 40
1.0
 40
1.0
 10
192.1822734017451
 20
102.293262488623
 30
0.0
 10
192.3154580836004
 20
102.5185786018046
 30
0.0
 10
192.4782581200944
 20
102.72523862694
 30
0.0
 10
192.7656667197413
 20
103.0063709351092
 30
0.0
 10
192.8695232360946
 20
103.0956603221744
 30
0.0
 10
193.0864715460049
 20
103.2590555219083
 30
0.0
 10
193.1999900119291
 20
103.3337265657759
 30
0.0
 10
193.5555650886761
 20
103.5364471926045
 30
0.0
 10
193.8162285391853
 20
103.6439089367682
 30
0.0
 10
194.2166725159468
 20
103.7507414259271
 30
0.0
 10
194.3523219309919
 20
103.7777531637659
 30
0.0
 10
194.6280309145106
 20
103.8141846187175
 30
0.0
 10
194.7691179527739
 20
103.8235259658199
 30
0.0
 10
195.18750133123
 20
103.8236899632861
 30
0.0
 10
195.4622935354914
 20
103.7879424636807
 30
0.0
 10
196.0034973454768
 20
103.6442255057585
 30
0.0
 10
196.2582974576898
 20
103.5392626212676
 30
0.0
 10
196.6160737944123
 20
103.336022350707
 30
0.0
 10
196.7318440026929
 20
103.2599847496194
 30
0.0
 10
196.9488268380775
 20
103.0967420101338
 30
0.0
 10
197.0508108967833
 20
103.0092022499024
 30
0.0
 10
197.3375800460261
 20
102.7295499794942
 30
0.0
 10
197.5042158631657
 20
102.5185694542213
 30
0.0
 10
197.6373951378713
 20
102.293262488623
 30
0.0
  0
SPLINE
  5
170
330
1F
100
AcDbEntity
  8
0
  6
HIDDEN
 62
     7
370
     0
100
AcDbSpline
210
0.0
220
0.0
230
1.0
 70
     8
 71
     3
 72
    16
 73
    12
 74
     0
 42
0.00000001
 43
0.00000001
 40
0.0
 40
0.0
 40
0.0
 40
0.0
 40
0.1249999999999984
 40
0.1249999999999984
 40
0.2499999999999968
 40
0.2499999999999968
 40
0.4999999999999979
 40
0.4999999999999979
 40
0.7499999999999989
 40
0.7499999999999989
 40
1.0
 40
1.0
 40
1.0
 40
1.0
 10
197.6373951378713
 20
102.293262488623
 30
0.0
 10
197.713351732346
 20
102.1969622646184
 30
0.0
 10
197.7819856783916
 20
102.0963868486054
 30
0.0
 10
197.9032575329549
 20
101.886111997504
 30
0.0
 10
197.9559514574373
 20
101.7757362003155
 30
0.0
 10
198.0818733325688
 20
101.4435168835488
 30
0.0
 10
198.1262759756967
 20
101.2147324593854
 30
0.0
 10
198.1269606332574
 20
100.7552531709277
 30
0.0
 10
198.0836388952482
 20
100.5335397444098
 30
0.0
 10
197.9144418287289
 20
100.1102918164238
 30
0.0
 10
197.7923328548462
 20
99.9174598054948
 30
0.0
 10
197.6373951378713
 20
99.74155029226694
 30
0.0
  0
SPLINE
  5
171
330
1F
100
AcDbEntity
  8
0
  6
HIDDEN
 62
     7
370
     0
100
AcDbSpline
210
0.0
220
0.0
230
1.0
 70
     8
 71
     3
 72
    28
 73
    24
 74
     0
 42
0.00000001
 43
0.00000001
 40
0.0
 40
0.0
 40
0.0
 40
0.0
 40
0.1249999999999948
 40
0.1249999999999948
 40
0.1874999999999903
 40
0.1874999999999903
 40
0.2499999999999857
 40
0.2499999999999857
 40
0.3749999999999822
 40
0.3749999999999822
 40
0.4374999999999804
 40
0.4374999999999804
 40
0.4999999999999786
 40
0.4999999999999786
 40
0.6249999999999813
 40
0.6249999999999813
 40
0.749999999999984
 40
0.749999999999984
 40
0.812499999999988
 40
0.812499999999988
 40
0.874999999999992
 40
0.874999999999992
 40
1.0
 40
1.0
 40
1.0
 40
1.0
 10
197.6373951378713
 20
99.74155029226694
 30
0.0
 10
197.504210456016
 20
99.53977749592399
 30
0.0
 10
197.341410419522
 20
99.3603048043855
 30
0.0
 10
197.0540018198751
 20
99.1211098900627
 30
0.0
 10
196.9501453035219
 20
99.04607950521446
 30
0.0
 10
196.7331969936115
 20
98.91006054969863
 30
0.0
 10
196.6196785276874
 20
98.84858207781922
 30
0.0
 10
196.2641034509403
 20
98.6829167352026
 30
0.0
 10
196.0034400004311
 20
98.59690450871493
 30
0.0
 10
195.6029960236696
 20
98.51183658868422
 30
0.0
 10
195.4673466086244
 20
98.49044611229189
 30
0.0
 10
195.1916376251058
 20
98.46163041654525
 30
0.0
 10
195.0505505868425
 20
98.45426670768664
 30
0.0
 10
194.6321672083864
 20
98.45413728957493
 30
0.0
 10
194.357375004125
 20
98.4822189231206
 30
0.0
 10
193.8161711941396
 20
98.59664794416244
 30
0.0
 10
193.5613710819266
 20
98.68063871829933
 30
0.0
 10
193.2035947452041
 20
98.84669485781187
 30
0.0
 10
193.0878245369235
 20
98.90929268038315
 30
0.0
 10
192.8708417015389
 20
99.04517344954859
 30
0.0
 10
192.7688576428331
 20
99.11872306482213
 30
0.0
 10
192.4820884935903
 20
99.35659348653674
 30
0.0
 10
192.3154526764506
 20
99.53978568767485
 30
0.0
 10
192.1822734017451
 20
99.74155029226694
 30
0.0
  0
LINE
  5
172
330
1F
100
AcDbEntity
  8
0
  6
HIDDEN
 62
     7
370
     0
100
AcDbLine
 10
223.1098342698
 20
117.0073203285
 30
0.0
 11
223.1098342698
 21
124.2051012107
 31
0.0
  0
LINE
  5
173
330
1F
100
AcDbEntity
  8
0
  6
HIDDEN
 62
     7
370
     0
100
AcDbLine
 10
223.1098342698
 20
117.0073203285
 30
0.0
 11
218.8098342698
 21
117.0073203285
 31
0.0
  0
SPLINE
  5
174
330
1F
100
AcDbEntity
  8
0
  6
HIDDEN
 62
     7
370
     0
100
AcDbSpline
210
0.0
220
0.0
230
1.0
 70
     8
 71
     3
 72
    10
 73
     6
 74
     0
 42
0.00000001
 43
0.00000001
 40
0.0
 40
0.0
 40
0.0
 40
0.0
 40
0.5
 40
0.5
 40
1.0
 40
1.0
 40
1.0
 40
1.0
 10
218.8098342698082
 20
117.0073203285421
 30
0.0
 10
218.6662857182515
 20
117.0073203285421
 30
0.0
 10
218.5317045280489
 20
116.9425982198358
 30
0.0
 10
218.3551863406731
 20
116.7525105739298
 30
0.0
 10
218.3098342698082
 20
116.6310469764985
 30
0.0
 10
218.3098342698082
 20
116.5073203285421
 30
0.0
  0
LINE
  5
175
330
1F
100
AcDbEntity
  8
0
  6
HIDDEN
 62
     7
370
     0
100
AcDbLine
 10
218.3098342698
 20
116.5073203285
 30
0.0
 11
218.3098342698
 21
100.9573203285
 31
0.0
  0
SPLINE
  5
176
330
1F
100
AcDbEntity
  8
0
  6
HIDDEN
 62
     7
370
     0
100
AcDbSpline
210
0.0
220
0.0
230
1.0
 70
     8
 71
     3
 72
    12
 73
     8
 74
     0
 42
0.00000001
 43
0.00000001
 40
0.0
 40
0.0
 40
0.0
 40
0.0
 40
0.2499999999999925
 40
0.2499999999999925
 40
0.4999999999999849
 40
0.4999999999999849
 40
1.0
 40
1.0
 40
1.0
 40
1.0
 10
218.3098342698082
 20
100.9573203285421
 30
0.0
 10
218.3098342698082
 20
100.8953239072502
 30
0.0
 10
218.320974685267
 20
100.8354577824906
 30
0.0
 10
218.365470504669
 20
100.7198860897322
 30
0.0
 10
218.3988593056069
 20
100.6653168622439
 30
0.0
 10
218.5303057603596
 20
100.5231203809069
 30
0.0
 10
218.6657646969725
 20
100.4573203285421
 30
0.0
 10
218.8098342698082
 20
100.4573203285421
 30
0.0
  0
LINE
  5
177
330
1F
100
AcDbEntity
  8
0
  6
HIDDEN
 62
     7
370
     0
100
AcDbLine
 10
218.8098342698
 20
100.4573203285
 30
0.0
 11
223.1098342698
 21
100.4573203285
 31
0.0
  0
LINE
  5
178
330
1F
100
AcDbEntity
  8
0
  6
HIDDEN
 62
     7
370
     0
100
AcDbLine
 10
223.1098342698
 20
100.4573203285
 30
0.0
 11
223.1098342698
 21
93.2595394464
 31
0.0
  0
LINE
  5
179
330
1F
100
AcDbEntity
  8
0
  6
HIDDEN
 62
     7
370
     0
100
AcDbLine
 10
186.7598342698
 20
114.7595976992
 30
0.0
 11
186.7598342698
 21
93.3517319133
 31
0.0
  0
LINE
  5
17A
330
1F
100
AcDbEntity
  8
0
  6
HIDDEN
 62
     7
370
     0
100
AcDbLine
 10
218.8098342698
 20
117.0073203285
 30
0.0
 11
223.1098342698
 21
117.0073203285
 31
0.0
  0
LINE
  5
17B
330
1F
100
AcDbEntity
  8
0
  6
HIDDEN
 62
     7
370
     0
100
AcDbLine
 10
223.1098342698
 20
100.4573203285
 30
0.0
 11
218.8098342698
 21
100.4573203285
 31
0.0
  0
SPLINE
  5
17C
330
1F
100
AcDbEntity
  8
0
  6
HIDDEN
 62
     7
370
     0
100
AcDbSpline
210
0.0
220
0.0
230
1.0
 70
     8
 71
     3
 72
    12
 73
     8
 74
     0
 42
0.00000001
 43
0.00000001
 40
0.0
 40
0.0
 40
0.0
 40
0.0
 40
0.2499999999999925
 40
0.2499999999999925
 40
0.4999999999999849
 40
0.4999999999999849
 40
1.0
 40
1.0
 40
1.0
 40
1.0
 10
218.3098342698082
 20
116.5073203285421
 30
0.0
 10
218.3098342698082
 20
116.5693167498341
 30
0.0
 10
218.320974685267
 20
116.6291828745936
 30
0.0
 10
218.365470504669
 20
116.744754567352
 30
0.0
 10
218.3988593056069
 20
116.7993237948404
 30
0.0
 10
218.5303057603596
 20
116.9415202761774
 30
0.0
 10
218.6657646969725
 20
117.0073203285421
 30
0.0
 10
218.8098342698082
 20
117.0073203285421
 30
0.0
  0
SPLINE
  5
17D
330
1F
100
AcDbEntity
  8
0
  6
HIDDEN
 62
     7
370
     0
100
AcDbSpline
210
0.0
220
0.0
230
1.0
 70
     8
 71
     3
 72
    10
 73
     6
 74
     0
 42
0.00000001
 43
0.00000001
 40
0.0
 40
0.0
 40
0.0
 40
0.0
 40
0.5
 40
0.5
 40
1.0
 40
1.0
 40
1.0
 40
1.0
 10
218.8098342698082
 20
100.4573203285421
 30
0.0
 10
218.6662857182515
 20
100.4573203285421
 30
0.0
 10
218.5317045280489
 20
100.5220424372485
 30
0.0
 10
218.3551863406731
 20
100.7121300831544
 30
0.0
 10
218.3098342698082
 20
100.8335936805857
 30
0.0
 10
218.3098342698082
 20
100.9573203285421
 30
0.0
  0
LINE
  5
17E
330
1F
100
AcDbEntity
  8
0
  6
HIDDEN
 62
     7
370
     0
100
AcDbLine
 10
218.3098342698
 20
100.9573203285
 30
0.0
 11
218.3098342698
 21
116.5073203285
 31
0.0
  0
ARC
  5
17F
330
1F
100
AcDbEntity
  8
0
  6
HIDDEN
 62
     7
370
     0
100
AcDbCircle
 10
194.9098342698
 20
100.3994228814
 30
0.0
 40
3.32057476152236
100
AcDbArc
 50
34.7735812365
 51
145.2264187635
  0
ARC
  5
180
330
1F
100
AcDbEntity
  8
0
  6
HIDDEN
 62
     7
370
     0
100
AcDbCircle
 10
194.9098342698
 20
101.6353898995
 30
0.0
 40
3.320574761522368
100
AcDbArc
 50
214.7735812365
 51
325.2264187635
  0
LINE
  5
181
330
1F
100
AcDbEntity
  8
0
  6
HIDDEN
 62
     7
370
     0
100
AcDbLine
 10
223.1098342698
 20
100.4573203285
 30
0.0
 11
223.9098342698
 21
99.6573203285
 31
0.0
  0
LINE
  5
182
330
1F
100
AcDbEntity
  8
0
  6
HIDDEN
 62
     7
370
     0
100
AcDbLine
 10
223.9098342698
 20
99.6573203285
 30
0.0
 11
223.9098342698
 21
92.7704401132
 31
0.0
  0
LINE
  5
183
330
1F
100
AcDbEntity
  8
0
  6
HIDDEN
 62
     7
370
     0
100
AcDbLine
 10
223.9098342698
 20
99.6573203285
 30
0.0
 11
223.1098342698
 21
100.4573203285
 31
0.0
  0
LINE
  5
184
330
1F
100
AcDbEntity
  8
0
  6
HIDDEN
 62
     7
370
     0
100
AcDbLine
 10
223.9098342698
 20
117.8073203285
 30
0.0
 11
223.1098342698
 21
117.0073203285
 31
0.0
  0
LINE
  5
185
330
1F
100
AcDbEntity
  8
0
  6
HIDDEN
 62
     7
370
     0
100
AcDbLine
 10
223.9098342698
 20
117.8073203285
 30
0.0
 11
223.9098342698
 21
124.6942005439
 31
0.0
  0
LINE
  5
186
330
1F
100
AcDbEntity
  8
0
  6
HIDDEN
 62
     7
370
     0
100
AcDbLine
 10
223.1098342698
 20
117.0073203285
 30
0.0
 11
223.9098342698
 21
117.8073203285
 31
0.0
  0
SPLINE
  5
187
330
1F
100
AcDbEntity
  8
0
  6
HIDDEN
 62
     7
370
     0
100
AcDbSpline
210
0.0
220
0.0
230
1.0
 70
     8
 71
     3
 72
    10
 73
     6
 74
     0
 42
0.00000001
 43
0.00000001
 40
0.0
 40
0.0
 40
0.0
 40
0.0
 40
0.5
 40
0.5
 40
1.0
 40
1.0
 40
1.0
 40
1.0
 10
185.3598342698082
 20
118.511254794417
 30
0.0
 10
185.5570836899536
 20
118.5542321387566
 30
0.0
 10
185.757261973931
 20
118.5734466412061
 30
0.0
 10
186.1633779044194
 20
118.565628082382
 30
0.0
 10
186.3655235964107
 20
118.5381371204914
 30
0.0
 10
186.5598342698082
 20
118.4872954523097
 30
0.0
  0
LINE
  5
188
330
1F
100
AcDbEntity
  8
0
  6
HIDDEN
 62
     7
370
     0
100
AcDbLine
 10
138.2098342698
 20
121.7323203285
 30
0.0
 11
138.2098342698
 21
95.7323203285
 31
0.0
  0
LWPOLYLINE
  5
189
330
1F
100
AcDbEntity
  8
0
  6
HIDDEN
 62
     7
370
     0
100
AcDbPolyline
 90
        2
 70
   128
 43
0.0
 10
138.2098342698
 20
95.7323203285
 10
138.2098342698
 20
95.7323203285
  0
LINE
  5
18A
330
1F
100
AcDbEntity
  8
0
  6
HIDDEN
 62
     7
370
     0
100
AcDbLine
 10
142.2098342698
 20
121.7323203285
 30
0.0
 11
142.2098342698
 21
95.7323203285
 31
0.0
  0
LWPOLYLINE
  5
18B
330
1F
100
AcDbEntity
  8
0
  6
HIDDEN
 62
     7
370
     0
100
AcDbPolyline
 90
        2
 70
   128
 43
0.0
 10
142.2098342698
 20
95.7323203285
 10
142.2098342698
 20
95.7323203285
  0
LINE
  5
18C
330
1F
100
AcDbEntity
  8
0
  6
HIDDEN
 62
     7
370
     0
100
AcDbLine
 10
186.7598342698
 20
118.3249198311
 30
0.0
 11
186.7598342698
 21
124.7073203285
 31
0.0
  0
SPLINE
  5
18D
330
1F
100
AcDbEntity
  8
0
  6
HIDDEN
 62
     7
370
     0
100
AcDbSpline
210
0.0
220
0.0
230
1.0
 70
     8
 71
     3
 72
    10
 73
     6
 74
     0
 42
0.00000001
 43
0.00000001
 40
0.0
 40
0.0
 40
0.0
 40
0.0
 40
0.5
 40
0.5
 40
1.0
 40
1.0
 40
1.0
 40
1.0
 10
186.5598342698082
 20
118.4872954523097
 30
0.0
 10
186.6112113795909
 20
118.4738525573723
 30
0.0
 10
186.6617834392342
 20
118.4484520571826
 30
0.0
 10
186.7369502735042
 20
118.3870258926071
 30
0.0
 10
186.7598342698082
 20
118.3516481961557
 30
0.0
 10
186.7598342698082
 20
118.3249198310616
 30
0.0
  0
SPLINE
  5
18E
330
1F
100
AcDbEntity
  8
0
  6
HIDDEN
 62
     7
370
     0
100
AcDbSpline
210
0.0
220
0.0
230
1.0
 70
     8
 71
     3
 72
    10
 73
     6
 74
     0
 42
0.00000001
 43
0.00000001
 40
0.0
 40
0.0
 40
0.0
 40
0.0
 40
0.5
 40
0.5
 40
1.0
 40
1.0
 40
1.0
 40
1.0
 10
185.1598342698082
 20
118.3580931399579
 30
0.0
 10
185.1598342698082
 20
118.3844938615991
 30
0.0
 10
185.1820099703903
 20
118.418345302355
 30
0.0
 10
185.2572320493267
 20
118.4766526957483
 30
0.0
 10
185.308118820787
 20
118.4999868644095
 30
0.0
 10
185.3598342698082
 20
118.5112547944173
 30
0.0
  0
LINE
  5
18F
330
1F
100
AcDbEntity
  8
0
  6
HIDDEN
 62
     7
370
     0
100
AcDbLine
 10
185.1598342698
 20
118.35809314
 30
0.0
 11
185.1598342698
 21
124.7073203285
 31
0.0
  0
LINE
  5
190
330
1F
100
AcDbEntity
  8
0
  6
HIDDEN
 62
     7
370
     0
100
AcDbLine
 10
127.1098342698
 20
119.9823203285
 30
0.0
 11
127.1098342698
 21
97.4823203285
 31
0.0
  0
LINE
  5
191
330
1F
100
AcDbEntity
  8
0
  6
HIDDEN
 62
     7
370
     0
100
AcDbLine
 10
126.3598342698
 20
96.7323203285
 30
0.0
 11
126.3598342698
 21
120.705522872
 31
0.0
  0
ELLIPSE
  5
192
330
1F
100
AcDbEntity
  8
0
  6
HIDDEN
 62
     7
370
     0
100
AcDbEllipse
 10
57.7251610695
 20
108.7323203285
 30
0.0
 11
31.08108570811662
 21
1.421085471520200E-14
 31
0.0
210
0.0
220
0.0
230
1.0
 40
0.8164965809
 41
1.312649268214811
 42
1.367189972061496
  0
LINE
  5
193
330
1F
100
AcDbEntity
  8
0
  6
HIDDEN
 62
     7
370
     0
100
AcDbLine
 10
64.0098342698
 20
136.1023203285
 30
0.0
 11
64.0098342698
 21
133.5857140815
 31
0.0
  0
ELLIPSE
  5
194
330
1F
100
AcDbEntity
  8
0
  6
HIDDEN
 62
     7
370
     0
100
AcDbEllipse
 10
57.7251610695
 20
108.7323203285
 30
0.0
 11
31.08108570811662
 21
-1.421085471520200E-14
 31
0.0
210
0.0
220
0.0
230
1.0
 40
0.8164965809
 41
4.915995335118102
 42
4.970536038964787
  0
LINE
  5
195
330
1F
100
AcDbEntity
  8
0
  6
HIDDEN
 62
     7
370
     0
100
AcDbLine
 10
64.0098342698
 20
81.3623203285
 30
0.0
 11
64.0098342698
 21
83.8789265756
 31
0.0
  0
LINE
  5
196
330
1F
100
AcDbEntity
  8
0
  6
HIDDEN
 62
     7
370
     0
100
AcDbLine
 10
138.2098342698
 20
97.4823203285
 30
0.0
 11
138.2098342698
 21
119.954915894
 31
0.0
  0
LWPOLYLINE
  5
197
330
1F
100
AcDbEntity
  8
0
  6
HIDDEN
 62
     7
370
     0
100
AcDbPolyline
 90
        2
 70
   128
 43
0.0
 10
142.8598342698
 20
64.8323203285
 10
142.8598342698
 20
64.8323203285
  0
LINE
  5
198
330
1F
100
AcDbEntity
  8
0
  6
HIDDEN
 62
     7
370
     0
100
AcDbLine
 10
142.8598342698
 20
64.8323203285
 30
0.0
 11
128.8598342698
 21
64.8323203285
 31
0.0
  0
LINE
  5
199
330
1F
100
AcDbEntity
  8
0
  6
HIDDEN
 62
     7
370
     0
100
AcDbLine
 10
135.8198342698
 20
62.3609320415
 30
0.0
 11
135.8198342698
 21
63.2691415461
 31
0.0
  0
LINE
  5
19A
330
1F
100
AcDbEntity
  8
0
  6
HIDDEN
 62
     7
370
     0
100
AcDbLine
 10
131.9998342698
 20
63.2691415461
 30
0.0
 11
131.9998342698
 21
62.3609320415
 31
0.0
  0
LINE
  5
19B
330
1F
100
AcDbEntity
  8
0
  6
HIDDEN
 62
     7
370
     0
100
AcDbLine
 10
142.8598342698
 20
64.8323203285
 30
0.0
 11
142.8598342698
 21
60.9829747833
 31
0.0
  0
LINE
  5
19C
330
1F
100
AcDbEntity
  8
0
  6
HIDDEN
 62
     7
370
     0
100
AcDbLine
 10
118.8598342698
 20
58.7423213287
 30
0.0
 11
118.8598342698
 21
64.8323203285
 31
0.0
  0
LINE
  5
19D
330
1F
100
AcDbEntity
  8
0
  6
HIDDEN
 62
     7
370
     0
100
AcDbLine
 10
128.8598342698
 20
64.8323203285
 30
0.0
 11
118.8598342698
 21
64.8323203285
 31
0.0
  0
LINE
  5
19E
330
1F
100
AcDbEntity
  8
0
  6
HIDDEN
 62
     7
370
     0
100
AcDbLine
 10
79.1098342698
 20
81.3623203285
 30
0.0
 11
79.1098342698
 21
83.5038066981
 31
0.0
  0
LINE
  5
19F
330
1F
100
AcDbEntity
  8
0
  6
HIDDEN
 62
     7
370
     0
100
AcDbLine
 10
65.6598342698
 20
81.3623203285
 30
0.0
 11
65.6598342698
 21
84.1956151708
 31
0.0
  0
LINE
  5
1A0
330
1F
100
AcDbEntity
  8
0
  6
HIDDEN
 62
     7
370
     0
100
AcDbLine
 10
65.6598342698
 20
136.1023203285
 30
0.0
 11
65.6598342698
 21
133.2690254863
 31
0.0
  0
LINE
  5
1A1
330
1F
100
AcDbEntity
  8
0
  6
HIDDEN
 62
     7
370
     0
100
AcDbLine
 10
74.1098342698
 20
136.1023203285
 30
0.0
 11
74.1098342698
 21
133.960833959
 31
0.0
  0
LINE
  5
1A2
330
1F
100
AcDbEntity
  8
0
  6
HIDDEN
 62
     7
370
     0
100
AcDbLine
 10
131.9998342698
 20
154.4258715694
 30
0.0
 11
131.9998342698
 21
155.3295911892
 31
0.0
  0
LINE
  5
1A3
330
1F
100
AcDbEntity
  8
0
  6
HIDDEN
 62
     7
370
     0
100
AcDbLine
 10
135.8198342698
 20
155.3295911892
 30
0.0
 11
135.8198342698
 21
154.4258715694
 31
0.0
  0
LINE
  5
1A4
330
1F
100
AcDbEntity
  8
0
  6
HIDDEN
 62
     7
370
     0
100
AcDbLine
 10
142.8598342698
 20
152.6323203285
 30
0.0
 11
142.8598342698
 21
156.7010601494
 31
0.0
  0
LINE
  5
1A5
330
1F
100
AcDbEntity
  8
0
  6
HIDDEN
 62
     7
370
     0
100
AcDbLine
 10
128.8598342698
 20
152.6323203285
 30
0.0
 11
118.8598342698
 21
152.6323203285
 31
0.0
  0
LINE
  5
1A6
330
1F
100
AcDbEntity
  8
0
  6
HIDDEN
 62
     7
370
     0
100
AcDbLine
 10
142.8598342698
 20
152.6323203285
 30
0.0
 11
128.8598342698
 21
152.6323203285
 31
0.0
  0
LWPOLYLINE
  5
1A7
330
1F
100
AcDbEntity
  8
0
  6
HIDDEN
 62
     7
370
     0
100
AcDbPolyline
 90
        2
 70
   128
 43
0.0
 10
142.8598342698
 20
152.6323203285
 10
142.8598342698
 20
152.6323203285
  0
SPLINE
  5
1A8
330
1F
100
AcDbEntity
  8
0
  6
HIDDEN
 62
     7
370
     0
100
AcDbSpline
210
0.0
220
0.0
230
1.0
 70
     8
 71
     3
 72
    43
 73
    39
 74
     0
 42
0.00000001
 43
0.00000001
 40
-0.0956093829368836
 40
-0.0624935963491509
 40
-0.037861364880722
 40
0.0
 40
0.0284105698899409
 40
0.0550998574881715
 40
0.0800772929339295
 40
0.10335460392899
 40
0.124946507221774
 40
0.1542906652266545
 40
0.1874273443296489
 40
0.2118955233627836
 40
0.2499806198006242
 40
0.2742598702191721
 40
0.2971733732821188
 40
0.3187280787703353
 40
0.3389324365446529
 40
0.3577968097559039
 40
0.3753340366442203
 40
0.4115607085053306
 40
0.4530653289827803
 40
0.4999157535593026
 40
0.5208052877038862
 40
0.5382319773333737
 40
0.5521939656699134
 40
0.5626899286748406
 40
0.5959292802566456
 40
0.6252973741913724
 40
0.6621940257273792
 40
0.7037412342763472
 40
0.749988376153883
 40
0.7768708436792399
 40
0.7977153901925103
 40
0.8125147914969697
 40
0.8456185013137799
 40
0.8750030524642495
 40
0.9043906170631164
 40
0.9375064036508491
 40
0.962138635119278
 40
1.0
 40
1.028410569889941
 40
1.055099857488171
 40
1.08007729293393
 10
93.84224260513531
 20
72.39646074881514
 30
0.0
 10
94.55580448650903
 20
72.46570969857768
 30
0.0
 10
95.45712821277897
 20
72.52824520793399
 30
0.0
 10
96.33422599223664
 20
72.56119418433042
 30
0.0
 10
97.2205553226789
 20
72.57310234960407
 30
0.0
 10
98.0837026366952
 20
72.56329626322001
 30
0.0
 10
99.0175559723284
 20
72.52692125016469
 30
0.0
 10
100.0738680588502
 20
72.44616817959792
 30
0.0
 10
101.1244934116346
 20
72.33132096745665
 30
0.0
 10
102.1926002418719
 20
72.1792317962028
 30
0.0
 10
103.0532729384129
 20
72.03184042657682
 30
0.0
 10
103.7493754432269
 20
71.89405940352503
 30
0.0
 10
104.2099055244324
 20
71.79957286794217
 30
0.0
 10
104.5439715542869
 20
71.72544254621077
 30
0.0
 10
104.7640286294723
 20
71.67235846348392
 30
0.0
 10
104.8844921538955
 20
71.64012902547351
 30
0.0
 10
104.9351269696844
 20
71.62452113942777
 30
0.0
 10
104.7973209251094
 20
71.66613595716495
 30
0.0
 10
104.2423002719659
 20
71.79471903335504
 30
0.0
 10
103.4176325944289
 20
71.96277866560955
 30
0.0
 10
102.6192277596407
 20
72.10725856680291
 30
0.0
 10
102.0810029519086
 20
72.19282209017054
 30
0.0
 10
101.6229681008774
 20
72.26013017887806
 30
0.0
 10
100.967407905743
 20
72.34847489403334
 30
0.0
 10
100.0840117336992
 20
72.44512462133198
 30
0.0
 10
98.8347876801537
 20
72.5412436103962
 30
0.0
 10
97.47426746873721
 20
72.57884599036848
 30
0.0
 10
95.98949120429887
 20
72.55820276005251
 30
0.0
 10
94.81352963074946
 20
72.4877711941529
 30
0.0
 10
94.04754230497201
 20
72.41606798851473
 30
0.0
 10
93.63365614007319
 20
72.37234798778765
 30
0.0
 10
93.26447606603827
 20
72.32780780176456
 30
0.0
 10
92.9838465877889
 20
72.29157284741983
 30
0.0
 10
92.87552288068704
 20
72.27349152428519
 30
0.0
 10
92.98177838950818
 20
72.29127665911241
 30
0.0
 10
93.29620515133273
 20
72.33225097218985
 30
0.0
 10
93.84224260513531
 20
72.39646074881514
 30
0.0
 10
94.55580448650903
 20
72.46570969857768
 30
0.0
 10
95.45712821277897
 20
72.52824520793399
 30
0.0
  0
SPLINE
  5
1A9
330
1F
100
AcDbEntity
  8
0
  6
HIDDEN
 62
     7
370
     0
100
AcDbSpline
210
0.0
220
0.0
230
1.0
 70
     8
 71
     3
 72
    43
 73
    39
 74
     0
 42
0.00000001
 43
0.00000001
 40
-0.0937902222074294
 40
-0.0655984205436123
 40
-0.0343403538267918
 40
0.0
 40
0.0273365738688141
 40
0.0520717403686518
 40
0.0742047603666143
 40
0.0937354293115707
 40
0.110664300342266
 40
0.1249931095774906
 40
0.1543513865379304
 40
0.1874527833689601
 40
0.2119177690105729
 40
0.2499503115778943
 40
0.2783738631985146
 40
0.3050847229534546
 40
0.3300923654951012
 40
0.3534085554422672
 40
0.3750480314723709
 40
0.4043774817961634
 40
0.4374963616384963
 40
0.4617853790319541
 40
0.499994824845829
 40
0.5242323768331801
 40
0.5471082899820217
 40
0.5686295237820199
 40
0.5888045366189072
 40
0.6076436979386154
 40
0.6251598482956278
 40
0.6689986353814409
 40
0.718681920120706
 40
0.7374501607104872
 40
0.7656131886438604
 40
0.791950520093971
 40
0.8125718764315244
 40
0.8617921544209775
 40
0.9062097777925705
 40
0.9344015794563876
 40
0.9656596461732081
 40
0.9999999999999999
 40
1.027336573868814
 40
1.052071740368652
 40
1.074204760366614
 10
95.62344836016435
 20
144.9257847158215
 30
0.0
 10
94.70570822167224
 20
144.9873794089237
 30
0.0
 10
94.00321075106206
 20
145.0517326996916
 30
0.0
 10
93.52476906991082
 20
145.0994675994567
 30
0.0
 10
93.20725683009609
 20
145.1372607197937
 30
0.0
 10
93.01885016456227
 20
145.1642620665443
 30
0.0
 10
92.92748643536892
 20
145.1810388084401
 30
0.0
 10
92.89317565784926
 20
145.1888945182465
 30
0.0
 10
92.98289900167539
 20
145.1728029215219
 30
0.0
 10
93.29747154154832
 20
145.1321907812795
 30
0.0
 10
93.8436911101742
 20
145.0677957924694
 30
0.0
 10
94.55771566556754
 20
144.9986499843635
 30
0.0
 10
95.46167615570553
 20
144.9361432485699
 30
0.0
 10
96.33997121234378
 20
144.903351728574
 30
0.0
 10
97.22774498379458
 20
144.8916197180159
 30
0.0
 10
98.0925702200248
 20
144.9016333110993
 30
0.0
 10
99.02741608639337
 20
144.9381999109794
 30
0.0
 10
100.0837015770122
 20
145.0191355453487
 30
0.0
 10
101.131224759281
 20
145.1339043148238
 30
0.0
 10
102.197864601367
 20
145.2861722914598
 30
0.0
 10
103.0570950886538
 20
145.4334429010272
 30
0.0
 10
103.7526775545097
 20
145.5712666654831
 30
0.0
 10
104.2118509643799
 20
145.6655556802775
 30
0.0
 10
104.5449563620326
 20
145.7395200186047
 30
0.0
 10
104.7644066765066
 20
145.7924349346145
 30
0.0
 10
104.8845552547082
 20
145.8246160141594
 30
0.0
 10
104.9403991082058
 20
145.8413430435936
 30
0.0
 10
104.7460506559283
 20
145.7861813120489
 30
0.0
 10
104.143264193074
 20
145.6538690110111
 30
0.0
 10
103.4142498187475
 20
145.5022130883648
 30
0.0
 10
102.7590157952841
 20
145.3793642367562
 30
0.0
 10
101.9854942900237
 20
145.2543827512454
 30
0.0
 10
100.907523928485
 20
145.104260167336
 30
0.0
 10
99.49336125584895
 20
144.9624763306613
 30
0.0
 10
97.94315954668606
 20
144.8897442997863
 30
0.0
 10
96.68208492532023
 20
144.8931476381482
 30
0.0
 10
95.62344836016435
 20
144.9257847158215
 30
0.0
 10
94.70570822167224
 20
144.9873794089237
 30
0.0
 10
94.00321075106206
 20
145.0517326996916
 30
0.0
  0
LINE
  5
1AA
330
1F
100
AcDbEntity
  8
0
  6
HIDDEN
 62
     7
370
     0
100
AcDbLine
 10
174.9098342698
 20
103.6823203285
 30
0.0
 11
174.9098342698
 21
113.7823203285
 31
0.0
  0
LINE
  5
1AB
330
1F
100
AcDbEntity
  8
0
  6
HIDDEN
 62
     7
370
     0
100
AcDbLine
 10
175.9098342698
 20
114.7823203285
 30
0.0
 11
175.9098342698
 21
102.709715197
 31
0.0
  0
LINE
  5
1AC
330
1F
100
AcDbEntity
  8
0
  6
HIDDEN
 62
     7
370
     0
100
AcDbLine
 10
170.8098342698
 20
103.6823203285
 30
0.0
 11
170.8098342698
 21
113.7823203285
 31
0.0
  0
LINE
  5
1AD
330
1F
100
AcDbEntity
  8
0
  6
HIDDEN
 62
     7
370
     0
100
AcDbLine
 10
169.8184142484
 20
105.3323203285
 30
0.0
 11
169.8184142484
 21
112.1323203285
 31
0.0
  0
LINE
  5
1AE
330
1F
100
AcDbEntity
  8
0
  6
HIDDEN
 62
     7
370
     0
100
AcDbLine
 10
142.2098342698
 20
105.3323203285
 30
0.0
 11
142.2098342698
 21
112.1323203285
 31
0.0
  0
LINE
  5
1AF
330
1F
100
AcDbEntity
  8
0
  6
HIDDEN
 62
     7
370
     0
100
AcDbLine
 10
198.2098342698
 20
124.2823203285
 30
0.0
 11
191.6098342698
 21
124.2823203285
 31
0.0
  0
LINE
  5
1B0
330
1F
100
AcDbEntity
  8
0
  6
HIDDEN
 62
     7
370
     0
100
AcDbLine
 10
197.6373951379
 20
124.1621482047
 30
0.0
 11
192.1822734017
 21
124.1621482047
 31
0.0
  0
LINE
  5
1B1
330
1F
100
AcDbEntity
  8
0
  6
HIDDEN
 62
     7
370
     0
100
AcDbLine
 10
192.1822734017
 20
124.1621482047
 30
0.0
 11
197.6373951379
 21
124.1621482047
 31
0.0
  0
LINE
  5
1B2
330
1F
100
AcDbEntity
  8
0
  6
HIDDEN
 62
     7
370
     0
100
AcDbLine
 10
185.1598342698
 20
93.3569341545
 30
0.0
 11
185.1598342698
 21
92.8782002016
 31
0.0
  0
SPLINE
  5
1B3
330
1F
100
AcDbEntity
  8
0
  6
HIDDEN
 62
     7
370
     0
100
AcDbSpline
210
0.0
220
0.0
230
1.0
 70
     8
 71
     3
 72
    10
 73
     6
 74
     0
 42
0.00000001
 43
0.00000001
 40
0.0
 40
0.0
 40
0.0
 40
0.0
 40
0.5
 40
0.5
 40
1.0
 40
1.0
 40
1.0
 40
1.0
 10
185.1598342698082
 20
92.87820020158458
 30
0.0
 10
185.1598342698082
 20
92.82539875830209
 30
0.0
 10
185.1820099703903
 20
92.77283145677795
 30
0.0
 10
185.2572320493266
 20
92.70155795747426
 30
0.0
 10
185.308118820787
 20
92.6830208068953
 30
0.0
 10
185.3598342698082
 20
92.68479326048526
 30
0.0
  0
SPLINE
  5
1B4
330
1F
100
AcDbEntity
  8
0
  6
HIDDEN
 62
     7
370
     0
100
AcDbSpline
210
0.0
220
0.0
230
1.0
 70
     8
 71
     3
 72
    10
 73
     6
 74
     0
 42
0.00000001
 43
0.00000001
 40
0.0
 40
0.0
 40
0.0
 40
0.0
 40
0.5
 40
0.5
 40
1.0
 40
1.0
 40
1.0
 40
1.0
 10
185.3598342698082
 20
92.68479326048579
 30
0.0
 10
185.5570836899536
 20
92.69155362802528
 30
0.0
 10
185.757261973931
 20
92.69478089205778
 30
0.0
 10
186.1633779044194
 20
92.6935025028427
 30
0.0
 10
186.3655235964107
 20
92.68892346128297
 30
0.0
 10
186.5598342698082
 20
92.68105480211086
 30
0.0
  0
SPLINE
  5
1B5
330
1F
100
AcDbEntity
  8
0
  6
HIDDEN
 62
     7
370
     0
100
AcDbSpline
210
0.0
220
0.0
230
1.0
 70
     8
 71
     3
 72
    10
 73
     6
 74
     0
 42
0.00000001
 43
0.00000001
 40
0.0
 40
0.0
 40
0.0
 40
0.0
 40
0.5
 40
0.5
 40
1.0
 40
1.0
 40
1.0
 40
1.0
 10
186.5598342698082
 20
92.68105480211086
 30
0.0
 10
186.6112113795909
 20
92.67897427323894
 30
0.0
 10
186.6617834392342
 20
92.6969160778312
 30
0.0
 10
186.7369502735042
 20
92.76694455889012
 30
0.0
 10
186.7598342698082
 20
92.8196982672277
 30
0.0
 10
186.7598342698082
 20
92.87315499741577
 30
0.0
  0
LINE
  5
1B6
330
1F
100
AcDbEntity
  8
0
  6
HIDDEN
 62
     7
370
     0
100
AcDbLine
 10
186.7598342698
 20
92.8731549974
 30
0.0
 11
186.7598342698
 21
93.3517319133
 31
0.0
  0
LINE
  5
1B7
330
1F
100
AcDbEntity
  8
0
  6
HIDDEN
 62
     7
370
     0
100
AcDbLine
 10
186.7598342698
 20
93.3517319133
 30
0.0
 11
186.7598342698
 21
92.8731549974
 31
0.0
  0
LINE
  5
1B8
330
1F
100
AcDbEntity
  8
0
  6
HIDDEN
 62
     7
370
     0
100
AcDbLine
 10
185.1598342698
 20
92.8782002016
 30
0.0
 11
185.1598342698
 21
93.3569341545
 31
0.0
  0
SPLINE
  5
1B9
330
1F
100
AcDbEntity
  8
0
  6
HIDDEN
 62
     7
370
     0
100
AcDbSpline
210
0.0
220
0.0
230
1.0
 70
     8
 71
     3
 72
    10
 73
     6
 74
     0
 42
0.00000001
 43
0.00000001
 40
0.0
 40
0.0
 40
0.0
 40
0.0
 40
0.5
 40
0.5
 40
1.0
 40
1.0
 40
1.0
 40
1.0
 10
186.5598342698082
 20
92.68105480211086
 30
0.0
 10
186.3655278863448
 20
92.68892328756101
 30
0.0
 10
186.1668155323478
 20
92.69344768802829
 30
0.0
 10
185.7607157570256
 20
92.69481327351075
 30
0.0
 10
185.5570863380746
 20
92.69155371878485
 30
0.0
 10
185.3598342698082
 20
92.68479326048579
 30
0.0
  0
LWPOLYLINE
  5
1BA
330
1F
100
AcDbEntity
  8
0
  6
HIDDEN
 62
     7
370
     0
100
AcDbPolyline
 90
        2
 70
   128
 43
0.0
 10
118.8598342698
 20
64.8323203285
 10
118.8598342698
 20
64.8323203285
  0
LINE
  5
1BB
330
1F
100
AcDbEntity
  8
0
  6
HIDDEN
 62
     7
370
     0
100
AcDbLine
 10
118.8598342698
 20
58.7423213287
 30
0.0
 11
118.8598342698
 21
64.8323203285
 31
0.0
  0
LINE
  5
1BC
330
1F
100
AcDbEntity
  8
0
  6
HIDDEN
 62
     7
370
     0
100
AcDbLine
 10
118.8598342698
 20
64.8323203285
 30
0.0
 11
128.8598342698
 21
64.8323203285
 31
0.0
  0
SPLINE
  5
1BD
330
1F
100
AcDbEntity
  8
0
  6
HIDDEN
 62
     7
370
     0
100
AcDbSpline
210
0.0
220
0.0
230
1.0
 70
     8
 71
     3
 72
    10
 73
     6
 74
     0
 42
0.00000001
 43
0.00000001
 40
0.0
 40
0.0
 40
0.0
 40
0.0
 40
0.5
 40
0.5
 40
1.0
 40
1.0
 40
1.0
 40
1.0
 10
186.5598342698082
 20
115.0286107312055
 30
0.0
 10
186.3655278863448
 20
114.9699017000411
 30
0.0
 10
186.1668155323478
 20
114.9382206487267
 30
0.0
 10
185.7607157570256
 20
114.9285028416965
 30
0.0
 10
185.5570863380746
 20
114.9511745511034
 30
0.0
 10
185.3598342698082
 20
115.0009129307233
 30
0.0
  0
SPLINE
  5
1BE
330
1F
100
AcDbEntity
  8
0
  6
HIDDEN
 62
     7
370
     0
100
AcDbSpline
210
0.0
220
0.0
230
1.0
 70
     8
 71
     3
 72
    10
 73
     6
 74
     0
 42
0.00000001
 43
0.00000001
 40
0.0
 40
0.0
 40
0.0
 40
0.0
 40
0.5
 40
0.5
 40
1.0
 40
1.0
 40
1.0
 40
1.0
 10
186.7598342698082
 20
114.9988861571483
 30
0.0
 10
186.7598342698082
 20
115.0254970777847
 30
0.0
 10
186.7371831161304
 20
115.0429447207064
 30
0.0
 10
186.6617116051872
 20
115.0516201969003
 30
0.0
 10
186.6111436237582
 20
115.0441136828143
 30
0.0
 10
186.5598342698082
 20
115.0286107312057
 30
0.0
  0
LINE
  5
1BF
330
1F
100
AcDbEntity
  8
0
  6
HIDDEN
 62
     7
370
     0
100
AcDbLine
 10
186.7598342698
 20
92.8731549974
 30
0.0
 11
186.7598342698
 21
114.9988861571
 31
0.0
  0
LINE
  5
1C0
330
1F
100
AcDbEntity
  8
0
  6
HIDDEN
 62
     7
370
     0
100
AcDbLine
 10
185.1598342698
 20
92.8782002016
 30
0.0
 11
185.1598342698
 21
114.9606676441
 31
0.0
  0
SPLINE
  5
1C1
330
1F
100
AcDbEntity
  8
0
  6
HIDDEN
 62
     7
370
     0
100
AcDbSpline
210
0.0
220
0.0
230
1.0
 70
     8
 71
     3
 72
    10
 73
     6
 74
     0
 42
0.00000001
 43
0.00000001
 40
0.0
 40
0.0
 40
0.0
 40
0.0
 40
0.5
 40
0.5
 40
1.0
 40
1.0
 40
1.0
 40
1.0
 10
185.3598342698082
 20
115.0009129307233
 30
0.0
 10
185.3080594475152
 20
115.013968285674
 30
0.0
 10
185.2570898547995
 20
115.0187086738634
 30
0.0
 10
185.1822948960282
 20
115.0058504550376
 30
0.0
 10
185.1598342698081
 20
114.987201053332
 30
0.0
 10
185.1598342698082
 20
114.9606676440844
 30
0.0
  0
LINE
  5
1C2
330
1F
100
AcDbEntity
  8
0
  6
HIDDEN
 62
     7
370
     0
100
AcDbLine
 10
74.1098342698
 20
136.1023203285
 30
0.0
 11
74.1098342698
 21
133.960833959
 31
0.0
  0
LINE
  5
1C3
330
1F
100
AcDbEntity
  8
0
  6
HIDDEN
 62
     7
370
     0
100
AcDbLine
 10
79.1098342698
 20
81.3623203285
 30
0.0
 11
79.1098342698
 21
83.5038066981
 31
0.0
  0
LINE
  5
1C4
330
1F
100
AcDbEntity
  8
0
  6
HIDDEN
 62
     7
370
     0
100
AcDbLine
 10
74.1098342698
 20
136.1023203285
 30
0.0
 11
74.1098342698
 21
142.4769290655
 31
0.0
  0
LINE
  5
1C5
330
1F
100
AcDbEntity
  8
0
  6
HIDDEN
 62
     7
370
     0
100
AcDbLine
 10
79.1098342698
 20
81.3623203285
 30
0.0
 11
79.1098342698
 21
74.8629870632
 31
0.0
  0
LWPOLYLINE
  5
1C6
330
1F
100
AcDbEntity
  8
0
  6
HIDDEN
 62
     7
370
     0
100
AcDbPolyline
 90
       31
 70
   128
 43
0.0
 10
122.9098342698
 20
154.0450261803
 10
123.9493927239
 20
154.0112623666
 10
124.9435174852
 20
153.9114465662
 10
125.8487605313
 20
153.7499412084
 10
126.6255583972
 20
153.5338048526
 10
127.2399612887
 20
153.2724836944
 10
127.6651168513
 20
152.9773987225
 10
127.8824437466
 20
152.6614465662
 10
127.8824437466
 20
152.3384358507
 10
127.6651168513
 20
152.0224836944
 10
127.2399612887
 20
151.7273987225
 10
126.6255583972
 20
151.4660775643
 10
125.8487605313
 20
151.2499412084
 10
124.9435174852
 20
151.0884358507
 10
123.9493927239
 20
150.9886200503
 10
122.9098342698
 20
150.9548562366
 10
121.8702758157
 20
150.9886200503
 10
120.8761510544
 20
151.0884358507
 10
119.9709080083
 20
151.2499412084
 10
119.1941101424
 20
151.4660775643
 10
118.5797072509
 20
151.7273987225
 10
118.1545516883
 20
152.0224836944
 10
117.937224793
 20
152.3384358507
 10
117.937224793
 20
152.6614465662
 10
118.1545516883
 20
152.9773987225
 10
118.5797072509
 20
153.2724836944
 10
119.1941101424
 20
153.5338048526
 10
119.9709080083
 20
153.7499412084
 10
120.8761510544
 20
153.9114465662
 10
121.8702758157
 20
154.0112623666
 10
122.9098342698
 20
154.0450261803
  0
SPLINE
  5
1C7
330
1F
100
AcDbEntity
  8
0
  6
HIDDEN
 62
     7
370
     0
100
AcDbSpline
210
0.0
220
0.0
230
1.0
 70
     8
 71
     3
 72
    14
 73
    10
 74
     0
 42
0.00000001
 43
0.00000001
 40
0.0
 40
0.0
 40
0.0
 40
0.0
 40
0.25
 40
0.25
 40
0.5
 40
0.5
 40
0.75
 40
0.75
 40
1.0
 40
1.0
 40
1.0
 40
1.0
 10
141.8598342698082
 20
157.7221151842057
 30
0.0
 10
141.9918710076268
 20
157.7221151842057
 30
0.0
 10
142.1262712980669
 20
157.6943087367573
 30
0.0
 10
142.3683597236663
 20
157.5904497272932
 30
0.0
 10
142.4797781805444
 20
157.5132587187208
 30
0.0
 10
142.6627886700844
 20
157.3241116410078
 30
0.0
 10
142.7362149163301
 20
157.2104074213051
 30
0.0
 10
142.8343556566879
 20
156.9656086542698
 30
0.0
 10
142.8598342698082
 20
156.83347984034
 30
0.0
 10
142.8598342698082
 20
156.701060149388
 30
0.0
  0
SPLINE
  5
1C8
330
1F
100
AcDbEntity
  8
0
  6
HIDDEN
 62
     7
370
     0
100
AcDbSpline
210
0.0
220
0.0
230
1.0
 70
     8
 71
     3
 72
    14
 73
    10
 74
     0
 42
0.00000001
 43
0.00000001
 40
0.0
 40
0.0
 40
0.0
 40
0.0
 40
0.25
 40
0.25
 40
0.5
 40
0.5
 40
0.75
 40
0.75
 40
1.0
 40
1.0
 40
1.0
 40
1.0
 10
141.8598342698082
 20
59.95732673551331
 30
0.0
 10
141.9933958892976
 20
59.95732673551331
 30
0.0
 10
142.1251329098349
 20
59.98479271211578
 30
0.0
 10
142.3691502691484
 20
60.08988626888245
 30
0.0
 10
142.4801769144914
 20
60.16738369156803
 30
0.0
 10
142.663398886951
 20
60.3578673049042
 30
0.0
 10
142.7366904397232
 20
60.47226835457973
 30
0.0
 10
142.834387300381
 20
60.71753025304257
 30
0.0
 10
142.8598342698083
 20
60.85078944786133
 30
0.0
 10
142.8598342698082
 20
60.9829747832897
 30
0.0
  0
LINE
  5
1C9
330
1F
100
AcDbEntity
  8
0
  6
HIDDEN
 62
     7
370
     0
100
AcDbLine
 10
142.8598342698
 20
156.7010601494
 30
0.0
 11
142.8598342698
 21
60.9829747833
 31
0.0
  0
LINE
  5
1CA
330
1F
100
AcDbEntity
  8
0
  6
HIDDEN
 62
     7
370
     0
100
AcDbLine
 10
137.1718632907
 20
157.7221151842
 30
0.0
 11
137.1718632907
 21
59.9573267355
 31
0.0
  0
SPLINE
  5
1CB
330
1F
100
AcDbEntity
  8
0
  6
HIDDEN
 62
     7
370
     0
100
AcDbSpline
210
0.0
220
0.0
230
1.0
 70
     8
 71
     3
 72
     8
 73
     4
 74
     0
 42
0.00000001
 43
0.00000001
 40
0.0
 40
0.0
 40
0.0
 40
0.0
 40
1.0
 40
1.0
 40
1.0
 40
1.0
 10
130.6478052488868
 20
157.7221151842057
 30
0.0
 10
131.0988322176
 20
156.9248046140178
 30
0.0
 10
131.5495260341236
 20
156.1273063143606
 30
0.0
 10
131.9998342698082
 20
155.329591189247
 30
0.0
  0
LINE
  5
1CC
330
1F
100
AcDbEntity
  8
0
  6
HIDDEN
 62
     7
370
     0
100
AcDbLine
 10
131.9998342698
 20
155.3295911892
 30
0.0
 11
131.9998342698
 21
154.4258715694
 31
0.0
  0
SPLINE
  5
1CD
330
1F
100
AcDbEntity
  8
0
  6
HIDDEN
 62
     7
370
     0
100
AcDbSpline
210
0.0
220
0.0
230
1.0
 70
     8
 71
     3
 72
    14
 73
    10
 74
     0
 42
0.00000001
 43
0.00000001
 40
0.0
 40
0.0
 40
0.0
 40
0.0
 40
0.25
 40
0.25
 40
0.5
 40
0.5
 40
0.75
 40
0.75
 40
1.0
 40
1.0
 40
1.0
 40
1.0
 10
131.9998342698082
 20
154.4258715693901
 30
0.0
 10
131.9998342698082
 20
154.3195148756377
 30
0.0
 10
132.0202218259494
 20
154.2136743878776
 30
0.0
 10
132.0988561714109
 20
154.0171094743411
 30
0.0
 10
132.1575875310496
 20
153.925938732054
 30
0.0
 10
132.3041964366523
 20
153.7740276430224
 30
0.0
 10
132.3936017566788
 20
153.7119588062027
 30
0.0
 10
132.5874924892792
 20
153.6286907584441
 30
0.0
 10
132.6939974791691
 20
153.6065960887145
 30
0.0
 10
132.7998342698085
 20
153.6065960887145
 30
0.0
  0
LINE
  5
1CE
330
1F
100
AcDbEntity
  8
0
  6
HIDDEN
 62
     7
370
     0
100
AcDbLine
 10
132.7998342698
 20
153.6065960887
 30
0.0
 11
135.0198342698
 21
153.6065960887
 31
0.0
  0
SPLINE
  5
1CF
330
1F
100
AcDbEntity
  8
0
  6
HIDDEN
 62
     7
370
     0
100
AcDbSpline
210
0.0
220
0.0
230
1.0
 70
     8
 71
     3
 72
    10
 73
     6
 74
     0
 42
0.00000001
 43
0.00000001
 40
0.0
 40
0.0
 40
0.0
 40
0.0
 40
0.5
 40
0.5
 40
1.0
 40
1.0
 40
1.0
 40
1.0
 10
135.0198342698082
 20
153.6065960887146
 30
0.0
 10
135.2323705836645
 20
153.6065960887146
 30
0.0
 10
135.4423067553186
 20
153.6980086753447
 30
0.0
 10
135.7360138963298
 20
154.0027535412489
 30
0.0
 10
135.8198342698082
 20
154.2149085111575
 30
0.0
 10
135.8198342698082
 20
154.4258715693901
 30
0.0
  0
LINE
  5
1D0
330
1F
100
AcDbEntity
  8
0
  6
HIDDEN
 62
     7
370
     0
100
AcDbLine
 10
135.8198342698
 20
154.4258715694
 30
0.0
 11
135.8198342698
 21
155.3295911892
 31
0.0
  0
SPLINE
  5
1D1
330
1F
100
AcDbEntity
  8
0
  6
HIDDEN
 62
     7
370
     0
100
AcDbSpline
210
0.0
220
0.0
230
1.0
 70
     8
 71
     3
 72
     8
 73
     4
 74
     0
 42
0.00000001
 43
0.00000001
 40
0.0
 40
0.0
 40
0.0
 40
0.0
 40
1.0
 40
1.0
 40
1.0
 40
1.0
 10
135.8198342698082
 20
155.329591189247
 30
0.0
 10
136.2701425054927
 20
156.1273063143606
 30
0.0
 10
136.7208363220163
 20
156.9248046140178
 30
0.0
 10
137.1718632907296
 20
157.7221151842057
 30
0.0
  0
LINE
  5
1D2
330
1F
100
AcDbEntity
  8
0
  6
HIDDEN
 62
     7
370
     0
100
AcDbLine
 10
137.1718632907
 20
157.7221151842
 30
0.0
 11
141.8598342698
 21
157.7221151842
 31
0.0
  0
LINE
  5
1D3
330
1F
100
AcDbEntity
  8
0
  6
HIDDEN
 62
     7
370
     0
100
AcDbLine
 10
128.8598342698
 20
152.6323203285
 30
0.0
 11
142.8598342698
 21
152.6323203285
 31
0.0
  0
LINE
  5
1D4
330
1F
100
AcDbEntity
  8
0
  6
HIDDEN
 62
     7
370
     0
100
AcDbLine
 10
142.8598342698
 20
156.7010601494
 30
0.0
 11
142.8598342698
 21
152.6323203285
 31
0.0
  0
LINE
  5
1D5
330
1F
100
AcDbEntity
  8
0
  6
HIDDEN
 62
     7
370
     0
100
AcDbLine
 10
135.8198342698
 20
154.4258715694
 30
0.0
 11
135.8198342698
 21
63.2691415461
 31
0.0
  0
SPLINE
  5
1D6
330
1F
100
AcDbEntity
  8
0
  6
HIDDEN
 62
     7
370
     0
100
AcDbSpline
210
0.0
220
0.0
230
1.0
 70
     8
 71
     3
 72
    12
 73
     8
 74
     0
 42
0.00000001
 43
0.00000001
 40
0.0
 40
0.0
 40
0.0
 40
0.0
 40
0.250000000000003
 40
0.250000000000003
 40
0.500000000000006
 40
0.500000000000006
 40
1.0
 40
1.0
 40
1.0
 40
1.0
 10
135.0198342698082
 20
64.09264487049246
 30
0.0
 10
135.1255949231571
 20
64.09264487049246
 30
0.0
 10
135.23358255134
 20
64.07010536449206
 30
0.0
 10
135.4281772166057
 20
63.98553473249674
 30
0.0
 10
135.5170491294445
 20
63.9230530797379
 30
0.0
 10
135.7362414217704
 20
63.69366412826569
 30
0.0
 10
135.8198342698082
 20
63.48108079074327
 30
0.0
 10
135.8198342698082
 20
63.26914154614708
 30
0.0
  0
LINE
  5
1D7
330
1F
100
AcDbEntity
  8
0
  6
HIDDEN
 62
     7
370
     0
100
AcDbLine
 10
131.9998342698
 20
154.4258715694
 30
0.0
 11
131.9998342698
 21
63.2691415461
 31
0.0
  0
SPLINE
  5
1D8
330
1F
100
AcDbEntity
  8
0
  6
HIDDEN
 62
     7
370
     0
100
AcDbSpline
210
0.0
220
0.0
230
1.0
 70
     8
 71
     3
 72
    14
 73
    10
 74
     0
 42
0.00000001
 43
0.00000001
 40
0.0
 40
0.0
 40
0.0
 40
0.0
 40
0.25
 40
0.25
 40
0.5
 40
0.5
 40
0.75
 40
0.75
 40
1.0
 40
1.0
 40
1.0
 40
1.0
 10
131.9998342698082
 20
63.26914154614721
 30
0.0
 10
131.9998342698082
 20
63.3761856271416
 30
0.0
 10
132.0199519569663
 20
63.48142076738406
 30
0.0
 10
132.0984431462319
 20
63.67927125423173
 30
0.0
 10
132.1565997710332
 20
63.77032301779666
 30
0.0
 10
132.3031150266512
 20
63.92348911172144
 30
0.0
 10
132.3917575752923
 20
63.98578355793086
 30
0.0
 10
132.5874808980926
 20
64.07057734346682
 30
0.0
 10
132.6927120891636
 20
64.09264487049246
 30
0.0
 10
132.7998342698082
 20
64.09264487049246
 30
0.0
  0
LINE
  5
1D9
330
1F
100
AcDbEntity
  8
0
  6
HIDDEN
 62
     7
370
     0
100
AcDbLine
 10
131.9998342698
 20
155.3295911892
 30
0.0
 11
131.9998342698
 21
62.3609320415
 31
0.0
  0
LINE
  5
1DA
330
1F
100
AcDbEntity
  8
0
  6
HIDDEN
 62
     7
370
     0
100
AcDbLine
 10
135.8198342698
 20
155.3295911892
 30
0.0
 11
135.8198342698
 21
62.3609320415
 31
0.0
  0
LINE
  5
1DB
330
1F
100
AcDbEntity
  8
0
  6
HIDDEN
 62
     7
370
     0
100
AcDbLine
 10
65.6598342698
 20
136.1023203285
 30
0.0
 11
65.6598342698
 21
133.2690254863
 31
0.0
  0
LINE
  5
1DC
330
1F
100
AcDbEntity
  8
0
  6
HIDDEN
 62
     7
370
     0
100
AcDbLine
 10
65.6598342698
 20
81.3623203285
 30
0.0
 11
65.6598342698
 21
84.1956151708
 31
0.0
  0
LINE
  5
1DD
330
1F
100
AcDbEntity
  8
0
  6
HIDDEN
 62
     7
370
     0
100
AcDbLine
 10
65.6598342698
 20
136.1023203285
 30
0.0
 11
65.6598342698
 21
140.9806055304
 31
0.0
  0
SPLINE
  5
1DE
330
1F
100
AcDbEntity
  8
0
  6
HIDDEN
 62
     7
370
     0
100
AcDbSpline
210
0.0
220
0.0
230
1.0
 70
     8
 71
     3
 72
     8
 73
     4
 74
     0
 42
0.00000001
 43
0.00000001
 40
0.0
 40
0.0
 40
0.0
 40
0.0
 40
1.0
 40
1.0
 40
1.0
 40
1.0
 10
65.90975938577392
 20
140.9781524971067
 30
0.0
 10
65.82274135592556
 20
140.9786190618938
 30
0.0
 10
65.73978732954562
 20
140.9796590814699
 30
0.0
 10
65.65983426980587
 20
140.9806055303622
 30
0.0
  0
SPLINE
  5
1DF
330
1F
100
AcDbEntity
  8
0
  6
HIDDEN
 62
     7
370
     0
100
AcDbSpline
210
0.0
220
0.0
230
1.0
 70
     8
 71
     3
 72
    10
 73
     6
 74
     0
 42
0.00000001
 43
0.00000001
 40
0.0
 40
0.0
 40
0.0
 40
0.0
 40
0.4999999999999989
 40
0.4999999999999989
 40
1.0
 40
1.0
 40
1.0
 40
1.0
 10
65.65983426980817
 20
140.9806055303621
 30
0.0
 10
65.53494599905797
 20
140.8496092522906
 30
0.0
 10
65.41349588099754
 20
140.7058964156256
 30
0.0
 10
65.18391190604011
 20
140.3953261229364
 30
0.0
 10
65.07363693064414
 20
140.2272570498733
 30
0.0
 10
64.9863865115106
 20
140.0551864290203
 30
0.0
  0
LINE
  5
1E0
330
1F
100
AcDbEntity
  8
0
  6
HIDDEN
 62
     7
370
     0
100
AcDbLine
 10
64.0098342698
 20
136.1023203285
 30
0.0
 11
64.0098342698
 21
139.2349900711
 31
0.0
  0
SPLINE
  5
1E1
330
1F
100
AcDbEntity
  8
0
  6
HIDDEN
 62
     7
370
     0
100
AcDbSpline
210
0.0
220
0.0
230
1.0
 70
     8
 71
     3
 72
    12
 73
     8
 74
     0
 42
0.00000001
 43
0.00000001
 40
0.0
 40
0.0
 40
0.0
 40
0.0
 40
0.249999999999997
 40
0.249999999999997
 40
0.4999999999999964
 40
0.4999999999999964
 40
1.0
 40
1.0
 40
1.0
 40
1.0
 10
64.30064850152795
 20
139.4108034812471
 30
0.0
 10
64.26714710219106
 20
139.4354370343764
 30
0.0
 10
64.22905623422734
 20
139.44345519554
 30
0.0
 10
64.15925582351068
 20
139.4421228594305
 30
0.0
 10
64.12680322362802
 20
139.4322571940285
 30
0.0
 10
64.0445297129108
 20
139.3812737666854
 30
0.0
 10
64.0098342698082
 20
139.3172046195126
 30
0.0
 10
64.0098342698082
 20
139.23499007111
 30
0.0
  0
SPLINE
  5
1E2
330
1F
100
AcDbEntity
  8
0
  6
HIDDEN
 62
     7
370
     0
100
AcDbSpline
210
0.0
220
0.0
230
1.0
 70
     8
 71
     3
 72
    14
 73
    10
 74
     0
 42
0.00000001
 43
0.00000001
 40
0.0
 40
0.0
 40
0.0
 40
0.0
 40
0.25
 40
0.25
 40
0.5
 40
0.5
 40
0.75
 40
0.75
 40
1.0
 40
1.0
 40
1.0
 40
1.0
 10
64.0098342698082
 20
78.22965058597418
 30
0.0
 10
64.0098342698082
 20
78.18840365494984
 30
0.0
 10
64.01844398618944
 20
78.15149668266736
 30
0.0
 10
64.04953016575978
 20
78.09059662276795
 30
0.0
 10
64.07191971924384
 20
78.06641570322826
 30
0.0
 10
64.12666365041996
 20
78.032448112345
 30
0.0
 10
64.15911389000514
 20
78.02252802837681
 30
0.0
 10
64.22911540473321
 20
78.02117681947196
 30
0.0
 10
64.26732590485577
 20
78.02933509616813
 30
0.0
 10
64.30064850152884
 20
78.05383717583621
 30
0.0
  0
LINE
  5
1E3
330
1F
100
AcDbEntity
  8
0
  6
HIDDEN
 62
     7
370
     0
100
AcDbLine
 10
64.0098342698
 20
81.3623203285
 30
0.0
 11
64.0098342698
 21
78.229650586
 31
0.0
  0
LINE
  5
1E4
330
1F
100
AcDbEntity
  8
0
  6
HIDDEN
 62
     7
370
     0
100
AcDbLine
 10
65.6598342698
 20
81.3623203285
 30
0.0
 11
65.6598342698
 21
76.4840351267
 31
0.0
  0
SPLINE
  5
1E5
330
1F
100
AcDbEntity
  8
0
  6
HIDDEN
 62
     7
370
     0
100
AcDbSpline
210
0.0
220
0.0
230
1.0
 70
     8
 71
     3
 72
    10
 73
     6
 74
     0
 42
0.00000001
 43
0.00000001
 40
0.0
 40
0.0
 40
0.0
 40
0.0
 40
0.5
 40
0.5
 40
1.0
 40
1.0
 40
1.0
 40
1.0
 10
64.98638651150968
 20
77.40945422806571
 30
0.0
 10
65.07363693064286
 20
77.2373836072129
 30
0.0
 10
65.18391190603859
 20
77.06931453415001
 30
0.0
 10
65.41349588099555
 20
76.75874424146109
 30
0.0
 10
65.53494599905574
 20
76.61503140479616
 30
0.0
 10
65.65983426980567
 20
76.48403512672472
 30
0.0
  0
ELLIPSE
  5
1E6
330
1F
100
AcDbEntity
  8
0
  6
HIDDEN
 62
     7
370
     0
100
AcDbEllipse
 10
57.7251610695
 20
108.7323203285
 30
0.0
 11
31.08108570811662
 21
-1.421085471520200E-14
 31
0.0
210
0.0
220
0.0
230
1.0
 40
0.8164965809
 41
4.915995335118102
 42
4.970536038964787
  0
LINE
  5
1E7
330
1F
100
AcDbEntity
  8
0
  6
HIDDEN
 62
     7
370
     0
100
AcDbLine
 10
64.0098342698
 20
81.3623203285
 30
0.0
 11
64.0098342698
 21
83.8789265756
 31
0.0
  0
ELLIPSE
  5
1E8
330
1F
100
AcDbEntity
  8
0
  6
HIDDEN
 62
     7
370
     0
100
AcDbEllipse
 10
57.7251610695
 20
108.7323203285
 30
0.0
 11
31.08108570811662
 21
1.421085471520200E-14
 31
0.0
210
0.0
220
0.0
230
1.0
 40
0.8164965809
 41
1.312649268214811
 42
1.367189972061496
  0
LINE
  5
1E9
330
1F
100
AcDbEntity
  8
0
  6
HIDDEN
 62
     7
370
     0
100
AcDbLine
 10
64.0098342698
 20
136.1023203285
 30
0.0
 11
64.0098342698
 21
133.5857140815
 31
0.0
  0
SPLINE
  5
1EA
330
1F
100
AcDbEntity
  8
0
  6
HIDDEN
 62
     7
370
     0
100
AcDbSpline
210
0.0
220
0.0
230
1.0
 70
     8
 71
     3
 72
     8
 73
     4
 74
     0
 42
0.00000001
 43
0.00000001
 40
0.0
 40
0.0
 40
0.0
 40
0.0
 40
1.0
 40
1.0
 40
1.0
 40
1.0
 10
65.65983426980782
 20
76.48403512672205
 30
0.0
 10
65.73978732954748
 20
76.48498157561431
 30
0.0
 10
65.82274135592733
 20
76.48602159519044
 30
0.0
 10
65.90975938577562
 20
76.4864881599775
 30
0.0
  0
LINE
  5
1EB
330
1F
100
AcDbEntity
  8
0
  6
HIDDEN
 62
     7
370
     0
100
AcDbLine
 10
64.0098342698
 20
133.5857140815
 30
0.0
 11
64.0098342698
 21
83.8789265756
 31
0.0
  0
LINE
  5
1EC
330
1F
100
AcDbEntity
  8
0
  6
HIDDEN
 62
     7
370
     0
100
AcDbLine
 10
135.8198342698
 20
63.2691415461
 30
0.0
 11
135.8198342698
 21
62.3609320415
 31
0.0
  0
SPLINE
  5
1ED
330
1F
100
AcDbEntity
  8
0
  6
HIDDEN
 62
     7
370
     0
100
AcDbSpline
210
0.0
220
0.0
230
1.0
 70
     8
 71
     3
 72
     8
 73
     4
 74
     0
 42
0.00000001
 43
0.00000001
 40
0.0
 40
0.0
 40
0.0
 40
0.0
 40
1.0
 40
1.0
 40
1.0
 40
1.0
 10
130.6478052488868
 20
59.9573267355133
 30
0.0
 10
131.098909978287
 20
60.75828666733321
 30
0.0
 10
131.5496078055304
 20
61.55947667889389
 30
0.0
 10
131.9998342698082
 20
62.36093204151864
 30
0.0
  0
LINE
  5
1EE
330
1F
100
AcDbEntity
  8
0
  6
HIDDEN
 62
     7
370
     0
100
AcDbLine
 10
132.7998342698
 20
64.0926448705
 30
0.0
 11
135.0198342698
 21
64.0926448705
 31
0.0
  0
LINE
  5
1EF
330
1F
100
AcDbEntity
  8
0
  6
HIDDEN
 62
     7
370
     0
100
AcDbLine
 10
131.9998342698
 20
62.3609320415
 30
0.0
 11
131.9998342698
 21
63.2691415461
 31
0.0
  0
SPLINE
  5
1F0
330
1F
100
AcDbEntity
  8
0
  6
HIDDEN
 62
     7
370
     0
100
AcDbSpline
210
0.0
220
0.0
230
1.0
 70
     8
 71
     3
 72
     8
 73
     4
 74
     0
 42
0.00000001
 43
0.00000001
 40
0.0
 40
0.0
 40
0.0
 40
0.0
 40
1.0
 40
1.0
 40
1.0
 40
1.0
 10
135.8198342698082
 20
62.36093204151864
 30
0.0
 10
136.2700607340859
 20
61.55947667889389
 30
0.0
 10
136.7207585613293
 20
60.75828666733321
 30
0.0
 10
137.1718632907296
 20
59.9573267355133
 30
0.0
  0
LINE
  5
1F1
330
1F
100
AcDbEntity
  8
0
  6
HIDDEN
 62
     7
370
     0
100
AcDbLine
 10
137.1718632907
 20
59.9573267355
 30
0.0
 11
141.8598342698
 21
59.9573267355
 31
0.0
  0
LINE
  5
1F2
330
1F
100
AcDbEntity
  8
0
  6
HIDDEN
 62
     7
370
     0
100
AcDbLine
 10
128.8598342698
 20
64.8323203285
 30
0.0
 11
142.8598342698
 21
64.8323203285
 31
0.0
  0
LINE
  5
1F3
330
1F
100
AcDbEntity
  8
0
  6
HIDDEN
 62
     7
370
     0
100
AcDbLine
 10
142.8598342698
 20
60.9829747833
 30
0.0
 11
142.8598342698
 21
64.8323203285
 31
0.0
  0
ARC
  5
1F4
330
1F
100
AcDbEntity
  8
0
  6
HIDDEN
 62
     7
370
     0
100
AcDbCircle
 10
194.9098342698
 20
101.6353898995
 30
0.0
 40
3.320574761522398
100
AcDbArc
 50
214.7735812365
 51
325.2264187635
  0
LWPOLYLINE
  5
1F5
330
1F
100
AcDbEntity
  8
0
  6
HIDDEN
 62
     7
370
     0
100
AcDbPolyline
 90
       25
 70
   128
 43
0.0
 10
191.6098342698
 20
100.9573203285
 10
191.7222790431
 20
101.6969950931
 10
192.0519504373
 20
102.3862622448
 10
192.5763818919
 20
102.9781493663
 10
193.2598342698
 20
103.4323203285
 10
194.055731421
 20
103.7178241309
 10
194.9098342698
 20
103.815204161
 10
195.7639371186
 20
103.7178241309
 10
196.5598342698
 20
103.4323203285
 10
197.2432866477
 20
102.9781493663
 10
197.7677181023
 20
102.3862622448
 10
198.0973894966
 20
101.6969950931
 10
198.2098342698
 20
100.9573203285
 10
198.0973894966
 20
100.217645564
 10
197.7677181023
 20
99.5283784123
 10
197.2432866477
 20
98.9364912907
 10
196.5598342698
 20
98.4823203285
 10
195.7639371186
 20
98.1968165262
 10
194.9098342698
 20
98.0994364961
 10
194.055731421
 20
98.1968165262
 10
193.2598342698
 20
98.4823203285
 10
192.5763818919
 20
98.9364912907
 10
192.0519504373
 20
99.5283784123
 10
191.7222790431
 20
100.217645564
 10
191.6098342698
 20
100.9573203285
  0
LINE
  5
1F6
330
1F
100
AcDbEntity
  8
0
  6
HIDDEN
 62
     7
370
     0
100
AcDbLine
 10
185.1598342698
 20
114.9606676441
 30
0.0
 11
185.1598342698
 21
114.7213006676
 31
0.0
  0
LINE
  5
1F7
330
1F
100
AcDbEntity
  8
0
  6
HIDDEN
 62
     7
370
     0
100
AcDbLine
 10
186.7598342698
 20
114.7595976992
 30
0.0
 11
186.7598342698
 21
114.9988861571
 31
0.0
  0
LINE
  5
1F8
330
1F
100
AcDbEntity
  8
0
  6
HIDDEN
 62
     7
370
     0
100
AcDbLine
 10
185.1598342698
 20
118.1187261635
 30
0.0
 11
185.1598342698
 21
118.35809314
 31
0.0
  0
LINE
  5
1F9
330
1F
100
AcDbEntity
  8
0
  6
HIDDEN
 62
     7
370
     0
100
AcDbLine
 10
186.7598342698
 20
118.3249198311
 30
0.0
 11
186.7598342698
 21
118.0856313731
 31
0.0
  0
LWPOLYLINE
  5
1FA
330
1F
100
AcDbEntity
  8
0
  6
HIDDEN
 62
     7
370
     0
100
AcDbPolyline
 90
        2
 70
   128
 43
0.0
 10
218.8098342698
 20
100.4573203285
 10
218.8098342698
 20
100.4573203285
  0
LWPOLYLINE
  5
1FB
330
1F
100
AcDbEntity
  8
0
  6
HIDDEN
 62
     7
370
     0
100
AcDbPolyline
 90
        2
 70
   128
 43
0.0
 10
223.1098342698
 20
100.4573203285
 10
223.1098342698
 20
100.4573203285
  0
LWPOLYLINE
  5
1FC
330
1F
100
AcDbEntity
  8
0
  6
HIDDEN
 62
     7
370
     0
100
AcDbPolyline
 90
        2
 70
   128
 43
0.0
 10
223.9098342698
 20
99.6573203285
 10
223.9098342698
 20
99.6573203285
  0
LWPOLYLINE
  5
1FD
330
1F
100
AcDbEntity
  8
0
  6
HIDDEN
 62
     7
370
     0
100
AcDbPolyline
 90
        2
 70
   128
 43
0.0
 10
223.9098342698
 20
117.8073203285
 10
223.9098342698
 20
117.8073203285
  0
LWPOLYLINE
  5
1FE
330
1F
100
AcDbEntity
  8
0
  6
HIDDEN
 62
     7
370
     0
100
AcDbPolyline
 90
        2
 70
   128
 43
0.0
 10
223.1098342698
 20
117.0073203285
 10
223.1098342698
 20
117.0073203285
  0
LWPOLYLINE
  5
1FF
330
1F
100
AcDbEntity
  8
0
  6
HIDDEN
 62
     7
370
     0
100
AcDbPolyline
 90
        2
 70
   128
 43
0.0
 10
218.8098342698
 20
117.0073203285
 10
218.8098342698
 20
117.0073203285
  0
LWPOLYLINE
  5
200
330
1F
100
AcDbEntity
  8
0
  6
HIDDEN
 62
     7
370
     0
100
AcDbPolyline
 90
        2
 70
   128
 43
0.0
 10
218.3098342698
 20
116.5073203285
 10
218.3098342698
 20
116.5073203285
  0
LWPOLYLINE
  5
201
330
1F
100
AcDbEntity
  8
0
  6
HIDDEN
 62
     7
370
     0
100
AcDbPolyline
 90
        2
 70
   128
 43
0.0
 10
218.3098342698
 20
100.9573203285
 10
218.3098342698
 20
100.9573203285
  0
ARC
  5
202
330
1F
100
AcDbEntity
  8
0
  6
HIDDEN
 62
     7
370
     0
100
AcDbCircle
 10
194.9098342698
 20
100.3994228814
 30
0.0
 40
3.320574761522389
100
AcDbArc
 50
34.7735812365
 51
145.2264187635
  0
SPLINE
  5
203
330
1F
100
AcDbEntity
  8
0
  6
HIDDEN
 62
     7
370
     0
100
AcDbSpline
210
0.0
220
0.0
230
1.0
 70
     8
 71
     3
 72
    20
 73
    16
 74
     0
 42
0.00000001
 43
0.00000001
 40
0.0
 40
0.0
 40
0.0
 40
0.0
 40
0.249999999999986
 40
0.249999999999986
 40
0.3749999999999789
 40
0.3749999999999789
 40
0.4374999999999789
 40
0.4374999999999789
 40
0.4999999999999789
 40
0.4999999999999789
 40
0.6249999999999835
 40
0.6249999999999835
 40
0.7499999999999879
 40
0.7499999999999879
 40
1.0
 40
1.0
 40
1.0
 40
1.0
 10
64.30064850152418
 20
78.05383717584141
 30
0.0
 10
64.3269207187376
 20
78.07315511692387
 30
0.0
 10
64.35760086099243
 20
78.08754382802564
 30
0.0
 10
64.42907173137435
 20
78.08063946618962
 30
0.0
 10
64.45709876841867
 20
78.0734734628412
 30
0.0
 10
64.5121823579162
 20
78.04377443613762
 30
0.0
 10
64.53307368646863
 20
78.03030079357629
 30
0.0
 10
64.57828233391407
 20
77.99510252806027
 30
0.0
 10
64.60268654630966
 20
77.97319429933302
 30
0.0
 10
64.67401886436112
 20
77.90106943933748
 30
0.0
 10
64.71591564918135
 20
77.8487288983874
 30
0.0
 10
64.78749160803724
 20
77.75124550648667
 30
0.0
 10
64.81831959785455
 20
77.70449173660825
 30
0.0
 10
64.90141953069012
 20
77.57119852076913
 30
0.0
 10
64.94627443606042
 20
77.48856112285392
 30
0.0
 10
64.986386511513
 20
77.40945422806314
 30
0.0
  0
SPLINE
  5
204
330
1F
100
AcDbEntity
  8
0
  6
HIDDEN
 62
     7
370
     0
100
AcDbSpline
210
0.0
220
0.0
230
1.0
 70
     8
 71
     3
 72
    20
 73
    16
 74
     0
 42
0.00000001
 43
0.00000001
 40
0.0
 40
0.0
 40
0.0
 40
0.0
 40
0.2500000000000037
 40
0.2500000000000037
 40
0.3750000000000055
 40
0.3750000000000055
 40
0.5000000000000073
 40
0.5000000000000073
 40
0.5625000000000057
 40
0.5625000000000057
 40
0.625000000000004
 40
0.625000000000004
 40
0.7500000000000027
 40
0.7500000000000027
 40
1.0
 40
1.0
 40
1.0
 40
1.0
 10
64.98638651151059
 20
140.0551864290203
 30
0.0
 10
64.94639029368676
 20
139.9763080224628
 30
0.0
 10
64.90127666584911
 20
139.8931783757713
 30
0.0
 10
64.81802245148258
 20
139.7596897114204
 30
0.0
 10
64.78780312286209
 20
139.7138246555384
 30
0.0
 10
64.71571488772065
 20
139.6156331031335
 30
0.0
 10
64.67379757030959
 20
139.5633232836099
 30
0.0
 10
64.60254696575811
 20
139.4913173808754
 30
0.0
 10
64.57831115337879
 20
139.4695471685739
 30
0.0
 10
64.53271296319416
 20
139.4340725102448
 30
0.0
 10
64.51191047359443
 20
139.4207023260673
 30
0.0
 10
64.45696947517531
 20
139.3911324139321
 30
0.0
 10
64.4289004870885
 20
139.3840058916301
 30
0.0
 10
64.35839765702566
 20
139.3771315201474
 30
0.0
 10
64.3269735692348
 20
139.3914466792345
 30
0.0
 10
64.3006485015262
 20
139.4108034812451
 30
0.0
  0
LINE
  5
205
330
1F
100
AcDbEntity
  8
0
  6
HIDDEN
 62
     7
370
     0
100
AcDbLine
 10
64.0098342698
 20
139.2349900711
 30
0.0
 11
64.0098342698
 21
78.229650586
 31
0.0
  0
CIRCLE
  5
206
330
1F
100
AcDbEntity
  8
0
  6
HIDDEN
 62
     7
370
     0
100
AcDbCircle
 10
120.9098342698
 20
108.7323203285
 30
0.0
 40
5.0
  0
LINE
  5
207
330
1F
100
AcDbEntity
  8
0
  6
HIDDEN
 62
     7
370
     0
100
AcDbLine
 10
113.9098342698
 20
69.327637372
 30
0.0
 11
113.9994358937
 21
69.9651860539
 31
0.0
  0
LINE
  5
208
330
1F
100
AcDbEntity
  8
0
  6
HIDDEN
 62
     7
370
     0
100
AcDbLine
 10
113.9994358937
 20
147.4994546032
 30
0.0
 11
113.9098342698
 21
148.1370032851
 31
0.0
  0
ARC
  5
209
330
1F
100
AcDbEntity
  8
0
  6
HIDDEN
 62
     7
370
     0
100
AcDbCircle
 10
113.0128973514
 20
70.1038350041
 30
0.0
 40
0.996233821438679
100
AcDbArc
 50
352.0
 51
0.0
  0
ARC
  5
20A
330
1F
100
AcDbEntity
  8
0
  6
HIDDEN
 62
     7
370
     0
100
AcDbCircle
 10
113.0128973514
 20
70.1038350041
 30
0.0
 40
0.996233821438679
100
AcDbArc
 50
0.0
 51
25.7988228126
  0
ARC
  5
20B
330
1F
100
AcDbEntity
  8
0
  6
HIDDEN
 62
     7
370
     0
100
AcDbCircle
 10
113.0128973514
 20
147.360805653
 30
0.0
 40
0.9962338214386799
100
AcDbArc
 50
348.75
 51
8.0
  0
LWPOLYLINE
  5
20C
330
1F
100
AcDbEntity
  8
0
  6
HIDDEN
 62
     7
370
     0
100
AcDbPolyline
 90
        3
 70
   128
 43
0.0
 10
113.9899888193
 20
147.166450076
 10
113.9332973886
 20
146.9795634748
 10
113.9098342698
 20
146.9272321398
  0
LINE
  5
20D
330
1F
100
AcDbEntity
  8
0
  6
HIDDEN
 62
     7
370
     0
100
AcDbLine
 10
114.0091311728
 20
70.1038350041
 30
0.0
 11
114.0091311728
 21
147.360805653
 31
0.0
  0
LINE
  5
20E
330
1F
100
AcDbEntity
  8
0
  6
HIDDEN
 62
     7
370
     0
100
AcDbLine
 10
114.0091311728
 20
70.1038350041
 30
0.0
 11
114.0091311728
 21
147.360805653
 31
0.0
  0
LINE
  5
20F
330
1F
100
AcDbEntity
  8
0
  6
HIDDEN
 62
     7
370
     0
100
AcDbLine
 10
87.370560212
 20
77.2323203285
 30
0.0
 11
92.9150046438
 21
77.2323203285
 31
0.0
  0
LINE
  5
210
330
1F
100
AcDbEntity
  8
0
  6
HIDDEN
 62
     7
370
     0
100
AcDbLine
 10
92.9150046438
 20
140.2323203285
 30
0.0
 11
87.370560212
 21
140.2323203285
 31
0.0
  0
ARC
  5
211
330
1F
100
AcDbEntity
  8
0
  6
HIDDEN
 62
     7
370
     0
100
AcDbCircle
 10
104.163039925
 20
89.2323203285
 30
0.0
 40
12.0
100
AcDbArc
 50
273.4648621894
 51
324.3146652873
  0
ARC
  5
212
330
1F
100
AcDbEntity
  8
0
  6
HIDDEN
 62
     7
370
     0
100
AcDbCircle
 10
104.163039925
 20
128.2323203285
 30
0.0
 40
12.0
100
AcDbArc
 50
35.6853347127
 51
86.535814644
  0
ARC
  5
213
330
1F
100
AcDbEntity
  8
0
  6
HIDDEN
 62
     7
370
     0
100
AcDbCircle
 10
87.370560212
 20
78.2323203285
 30
0.0
 40
1.000000000000008
100
AcDbArc
 50
210.0
 51
270.0
  0
ARC
  5
214
330
1F
100
AcDbEntity
  8
0
  6
HIDDEN
 62
     7
370
     0
100
AcDbCircle
 10
87.370560212
 20
139.2323203285
 30
0.0
 40
1.000000000000008
100
AcDbArc
 50
90.0
 51
150.0
  0
LINE
  5
215
330
1F
100
AcDbEntity
  8
0
  6
HIDDEN
 62
     7
370
     0
100
AcDbLine
 10
86.5045348082
 20
139.7323203285
 30
0.0
 11
83.9064585968
 21
135.2323203285
 31
0.0
  0
LINE
  5
216
330
1F
100
AcDbEntity
  8
0
  6
HIDDEN
 62
     7
370
     0
100
AcDbLine
 10
83.9064585968
 20
82.2323203285
 30
0.0
 11
86.5045348082
 21
77.7323203285
 31
0.0
  0
ARC
  5
217
330
1F
100
AcDbEntity
  8
0
  6
HIDDEN
 62
     7
370
     0
100
AcDbCircle
 10
124.3598342698
 20
83.8573203285
 30
0.0
 40
2.0
100
AcDbArc
 50
234.3409123039
 51
0.0
  0
ARC
  5
218
330
1F
100
AcDbEntity
  8
0
  6
HIDDEN
 62
     7
370
     0
100
AcDbCircle
 10
124.3598342698
 20
133.6073203285
 30
0.0
 40
2.0
100
AcDbArc
 50
0.0
 51
125.6590876961
  0
LINE
  5
219
330
1F
100
AcDbEntity
  8
0
  6
HIDDEN
 62
     7
370
     0
100
AcDbLine
 10
113.9098342698
 20
82.2323203285
 30
0.0
 11
123.1939118882
 21
82.2323203285
 31
0.0
  0
LINE
  5
21A
330
1F
100
AcDbEntity
  8
0
  6
HIDDEN
 62
     7
370
     0
100
AcDbLine
 10
123.1939118882
 20
135.2323203285
 30
0.0
 11
113.9098342698
 21
135.2323203285
 31
0.0
  0
LINE
  5
21B
330
1F
100
AcDbEntity
  8
0
  6
HIDDEN
 62
     7
370
     0
100
AcDbLine
 10
79.1098342698
 20
82.2323203285
 30
0.0
 11
83.9064585968
 21
82.2323203285
 31
0.0
  0
LINE
  5
21C
330
1F
100
AcDbEntity
  8
0
  6
HIDDEN
 62
     7
370
     0
100
AcDbLine
 10
83.9064585968
 20
135.2323203285
 30
0.0
 11
74.1098342698
 21
135.2323203285
 31
0.0
  0
LINE
  5
21D
330
1F
100
AcDbEntity
  8
0
  6
HIDDEN
 62
     7
370
     0
100
AcDbLine
 10
117.9098342698
 20
154.4038737077
 30
0.0
 11
117.9098342698
 21
150.7097341072
 31
0.0
  0
LINE
  5
21E
330
1F
100
AcDbEntity
  8
0
  6
HIDDEN
 62
     7
370
     0
100
AcDbLine
 10
127.9098342698
 20
150.7097341072
 30
0.0
 11
127.9098342698
 21
154.4093819661
 31
0.0
  0
LINE
  5
21F
330
1F
100
AcDbEntity
  8
0
  6
HIDDEN
 62
     7
370
     0
100
AcDbLine
 10
175.5598342698
 20
131.1073203285
 30
0.0
 11
174.4598342698
 21
131.1073203285
 31
0.0
  0
LINE
  5
220
330
1F
100
AcDbEntity
  8
0
  6
HIDDEN
 62
     7
370
     0
100
AcDbLine
 10
174.4598342698
 20
86.3573203285
 30
0.0
 11
175.5598342698
 21
86.3573203285
 31
0.0
  0
ARC
  5
221
330
1F
100
AcDbEntity
  8
0
  6
HIDDEN
 62
     7
370
     0
100
AcDbCircle
 10
175.5598342698
 20
130.8073203285
 30
0.0
 40
0.2999999999999829
100
AcDbArc
 50
0.0
 51
90.0
  0
ARC
  5
222
330
1F
100
AcDbEntity
  8
0
  6
HIDDEN
 62
     7
370
     0
100
AcDbCircle
 10
175.5598342698
 20
86.6573203285
 30
0.0
 40
0.2999999999999829
100
AcDbArc
 50
270.0
 51
0.0
  0
ARC
  5
223
330
1F
100
AcDbEntity
  8
0
  6
HIDDEN
 62
     7
370
     0
100
AcDbCircle
 10
176.0598342698
 20
128.7823203285
 30
0.0
 40
0.2000000000000171
100
AcDbArc
 50
180.0
 51
270.0
  0
ARC
  5
224
330
1F
100
AcDbEntity
  8
0
  6
HIDDEN
 62
     7
370
     0
100
AcDbCircle
 10
176.0598342698
 20
88.6823203285
 30
0.0
 40
0.1999999999999886
100
AcDbArc
 50
90.0
 51
180.0
  0
LINE
  5
225
330
1F
100
AcDbEntity
  8
0
  6
HIDDEN
 62
     7
370
     0
100
AcDbLine
 10
177.8598342698
 20
128.7323203285
 30
0.0
 11
177.3254599582
 21
128.5891351633
 31
0.0
  0
LINE
  5
226
330
1F
100
AcDbEntity
  8
0
  6
HIDDEN
 62
     7
370
     0
100
AcDbLine
 10
177.3254599582
 20
88.8755054938
 30
0.0
 11
177.8598342698
 21
88.7323203285
 31
0.0
  0
LINE
  5
227
330
1F
100
AcDbEntity
  8
0
  6
HIDDEN
 62
     7
370
     0
100
AcDbLine
 10
191.6098342698
 20
128.7323203285
 30
0.0
 11
177.8598342698
 21
128.7323203285
 31
0.0
  0
LINE
  5
228
330
1F
100
AcDbEntity
  8
0
  6
HIDDEN
 62
     7
370
     0
100
AcDbLine
 10
215.4098342698
 20
128.7323203285
 30
0.0
 11
198.2007278915
 21
128.7323203285
 31
0.0
  0
LINE
  5
229
330
1F
100
AcDbEntity
  8
0
  6
HIDDEN
 62
     7
370
     0
100
AcDbLine
 10
188.0034314852
 20
88.7323203285
 30
0.0
 11
215.4098342698
 21
88.7323203285
 31
0.0
  0
LINE
  5
22A
330
1F
100
AcDbEntity
  8
0
  6
HIDDEN
 62
     7
370
     0
100
AcDbLine
 10
177.8598342698
 20
88.7323203285
 30
0.0
 11
183.8098342698
 21
88.7323203285
 31
0.0
  0
LINE
  5
22B
330
1F
100
AcDbEntity
  8
0
  6
HIDDEN
 62
     7
370
     0
100
AcDbLine
 10
223.1098342698
 20
128.7323203285
 30
0.0
 11
217.0098342698
 21
128.7323203285
 31
0.0
  0
LINE
  5
22C
330
1F
100
AcDbEntity
  8
0
  6
HIDDEN
 62
     7
370
     0
100
AcDbLine
 10
217.0098342698
 20
88.7323203285
 30
0.0
 11
223.1098342698
 21
88.7323203285
 31
0.0
  0
ARC
  5
22D
330
1F
100
AcDbEntity
  8
0
  6
HIDDEN
 62
     7
370
     0
100
AcDbCircle
 10
177.2736961492
 20
128.7823203285
 30
0.0
 40
0.2000000000000171
100
AcDbArc
 50
270.0
 51
285.0
  0
ARC
  5
22E
330
1F
100
AcDbEntity
  8
0
  6
HIDDEN
 62
     7
370
     0
100
AcDbCircle
 10
177.2736961492
 20
88.6823203285
 30
0.0
 40
0.2000000000000171
100
AcDbArc
 50
75.0
 51
90.0
  0
LINE
  5
22F
330
1F
100
AcDbEntity
  8
0
  6
HIDDEN
 62
     7
370
     0
100
AcDbLine
 10
177.2736961492
 20
128.5823203285
 30
0.0
 11
176.0598342698
 21
128.5823203285
 31
0.0
  0
LINE
  5
230
330
1F
100
AcDbEntity
  8
0
  6
HIDDEN
 62
     7
370
     0
100
AcDbLine
 10
176.0598342698
 20
88.8823203285
 30
0.0
 11
177.2736961492
 21
88.8823203285
 31
0.0
  0
ARC
  5
231
330
1F
100
AcDbEntity
  8
0
  6
HIDDEN
 62
     7
370
     0
100
AcDbCircle
 10
215.6098342698
 20
128.1573203285
 30
0.0
 40
0.1999999999999886
100
AcDbArc
 50
180.0
 51
270.0
  0
ARC
  5
232
330
1F
100
AcDbEntity
  8
0
  6
HIDDEN
 62
     7
370
     0
100
AcDbCircle
 10
215.6098342698
 20
89.3073203285
 30
0.0
 40
0.1999999999999886
100
AcDbArc
 50
90.0
 51
180.0
  0
ARC
  5
233
330
1F
100
AcDbEntity
  8
0
  6
HIDDEN
 62
     7
370
     0
100
AcDbCircle
 10
216.8098342698
 20
128.1573203285
 30
0.0
 40
0.2000000000000171
100
AcDbArc
 50
270.0
 51
0.0
  0
ARC
  5
234
330
1F
100
AcDbEntity
  8
0
  6
HIDDEN
 62
     7
370
     0
100
AcDbCircle
 10
216.8098342698
 20
89.3073203285
 30
0.0
 40
0.2000000000000171
100
AcDbArc
 50
0.0
 51
90.0
  0
LINE
  5
235
330
1F
100
AcDbEntity
  8
0
  6
HIDDEN
 62
     7
370
     0
100
AcDbLine
 10
216.8098342698
 20
127.9573203285
 30
0.0
 11
215.6098342698
 21
127.9573203285
 31
0.0
  0
LINE
  5
236
330
1F
100
AcDbEntity
  8
0
  6
HIDDEN
 62
     7
370
     0
100
AcDbLine
 10
215.6098342698
 20
89.5073203285
 30
0.0
 11
216.8098342698
 21
89.5073203285
 31
0.0
  0
LINE
  5
237
330
1F
100
AcDbEntity
  8
0
  6
HIDDEN
 62
     7
370
     0
100
AcDbLine
 10
198.2098342698
 20
98.7330687094
 30
0.0
 11
198.2098342698
 21
100.9573203285
 31
0.0
  0
LINE
  5
238
330
1F
100
AcDbEntity
  8
0
  6
HIDDEN
 62
     7
370
     0
100
AcDbLine
 10
191.6098342698
 20
100.9573203285
 30
0.0
 11
191.6098342698
 21
98.7323203285
 31
0.0
  0
LINE
  5
239
330
1F
100
AcDbEntity
  8
0
  6
HIDDEN
 62
     7
370
     0
100
AcDbLine
 10
188.0098342698
 20
116.4803880145
 30
0.0
 11
188.0098342698
 21
118.7309623741
 31
0.0
  0
LINE
  5
23A
330
1F
100
AcDbEntity
  8
0
  6
HIDDEN
 62
     7
370
     0
100
AcDbLine
 10
183.8098342698
 20
118.7323203285
 30
0.0
 11
183.8098342698
 21
116.4803681341
 31
0.0
  0
LINE
  5
23B
330
1F
100
AcDbEntity
  8
0
  6
HIDDEN
 62
     7
370
     0
100
AcDbLine
 10
223.5598342698
 20
128.2823203285
 30
0.0
 11
223.1098342698
 21
128.7323203285
 31
0.0
  0
LINE
  5
23C
330
1F
100
AcDbEntity
  8
0
  6
HIDDEN
 62
     7
370
     0
100
AcDbLine
 10
223.1098342698
 20
88.7323203285
 30
0.0
 11
223.5598342698
 21
89.1823203285
 31
0.0
  0
LINE
  5
23D
330
1F
100
AcDbEntity
  8
0
  6
HIDDEN
 62
     7
370
     0
100
AcDbLine
 10
177.3236961492
 20
124.3823203285
 30
0.0
 11
176.1098342698
 21
124.3823203285
 31
0.0
  0
LINE
  5
23E
330
1F
100
AcDbEntity
  8
0
  6
HIDDEN
 62
     7
370
     0
100
AcDbLine
 10
176.1098342698
 20
93.0823203285
 30
0.0
 11
177.3236961492
 21
93.0823203285
 31
0.0
  0
ARC
  5
23F
330
1F
100
AcDbEntity
  8
0
  6
HIDDEN
 62
     7
370
     0
100
AcDbCircle
 10
176.1098342698
 20
124.1823203285
 30
0.0
 40
0.2000000000000171
100
AcDbArc
 50
90.0
 51
180.0
  0
ARC
  5
240
330
1F
100
AcDbEntity
  8
0
  6
HIDDEN
 62
     7
370
     0
100
AcDbCircle
 10
176.1098342698
 20
93.2823203285
 30
0.0
 40
0.2000000000000171
100
AcDbArc
 50
180.0
 51
270.0
  0
ARC
  5
241
330
1F
100
AcDbEntity
  8
0
  6
HIDDEN
 62
     7
370
     0
100
AcDbCircle
 10
177.3236961492
 20
124.1823203285
 30
0.0
 40
0.2000000000000048
100
AcDbArc
 50
75.0
 51
90.0
  0
ARC
  5
242
330
1F
100
AcDbEntity
  8
0
  6
HIDDEN
 62
     7
370
     0
100
AcDbCircle
 10
177.3236961492
 20
93.2823203285
 30
0.0
 40
0.2000000000000048
100
AcDbArc
 50
270.0
 51
285.0
  0
LINE
  5
243
330
1F
100
AcDbEntity
  8
0
  6
HIDDEN
 62
     7
370
     0
100
AcDbLine
 10
177.3754599582
 20
93.0891351633
 30
0.0
 11
177.9098342698
 21
93.2323203285
 31
0.0
  0
LINE
  5
244
330
1F
100
AcDbEntity
  8
0
  6
HIDDEN
 62
     7
370
     0
100
AcDbLine
 10
177.9098342698
 20
124.2323203285
 30
0.0
 11
177.3754599582
 21
124.3755054938
 31
0.0
  0
LINE
  5
245
330
1F
100
AcDbEntity
  8
0
  6
HIDDEN
 62
     7
370
     0
100
AcDbLine
 10
185.1598342698
 20
124.2323203285
 30
0.0
 11
177.9098342698
 21
124.2323203285
 31
0.0
  0
LINE
  5
246
330
1F
100
AcDbEntity
  8
0
  6
HIDDEN
 62
     7
370
     0
100
AcDbLine
 10
177.9098342698
 20
93.2323203285
 30
0.0
 11
183.813822758
 21
93.2323203285
 31
0.0
  0
LINE
  5
247
330
1F
100
AcDbEntity
  8
0
  6
HIDDEN
 62
     7
370
     0
100
AcDbLine
 10
191.6954558546
 20
124.2323203285
 30
0.0
 11
186.7598342698
 21
124.2323203285
 31
0.0
  0
LINE
  5
248
330
1F
100
AcDbEntity
  8
0
  6
HIDDEN
 62
     7
370
     0
100
AcDbLine
 10
223.1098342698
 20
124.2323203285
 30
0.0
 11
198.1242126851
 21
124.2323203285
 31
0.0
  0
LINE
  5
249
330
1F
100
AcDbEntity
  8
0
  6
HIDDEN
 62
     7
370
     0
100
AcDbLine
 10
188.0031529064
 20
93.2323203285
 30
0.0
 11
223.1098342698
 21
93.2323203285
 31
0.0
  0
LINE
  5
24A
330
1F
100
AcDbEntity
  8
0
  6
HIDDEN
 62
     7
370
     0
100
AcDbLine
 10
223.1098342698
 20
93.2323203285
 30
0.0
 11
223.9098342698
 21
92.7704401132
 31
0.0
  0
LINE
  5
24B
330
1F
100
AcDbEntity
  8
0
  6
HIDDEN
 62
     7
370
     0
100
AcDbLine
 10
223.9098342698
 20
124.6942005439
 30
0.0
 11
223.1098342698
 21
124.2323203285
 31
0.0
  0
LINE
  5
24C
330
1F
100
AcDbEntity
  8
0
  6
HIDDEN
 62
     7
370
     0
100
AcDbLine
 10
186.5598342698
 20
124.9073203285
 30
0.0
 11
185.3598342698
 21
124.9073203285
 31
0.0
  0
LINE
  5
24D
330
1F
100
AcDbEntity
  8
0
  6
HIDDEN
 62
     7
370
     0
100
AcDbLine
 10
138.2098342698
 20
95.7323203285
 30
0.0
 11
142.2098342698
 21
95.7323203285
 31
0.0
  0
LINE
  5
24E
330
1F
100
AcDbEntity
  8
0
  6
HIDDEN
 62
     7
370
     0
100
AcDbLine
 10
142.2098342698
 20
121.7323203285
 30
0.0
 11
138.2098342698
 21
121.7323203285
 31
0.0
  0
ARC
  5
24F
330
1F
100
AcDbEntity
  8
0
  6
HIDDEN
 62
     7
370
     0
100
AcDbCircle
 10
186.5598342698
 20
124.7073203285
 30
0.0
 40
0.1999999999999886
100
AcDbArc
 50
0.0
 51
90.0
  0
ARC
  5
250
330
1F
100
AcDbEntity
  8
0
  6
HIDDEN
 62
     7
370
     0
100
AcDbCircle
 10
185.3598342698
 20
124.7073203285
 30
0.0
 40
0.2000000000000455
100
AcDbArc
 50
90.0
 51
180.0
  0
LINE
  5
251
330
1F
100
AcDbEntity
  8
0
  6
HIDDEN
 62
     7
370
     0
100
AcDbLine
 10
126.3598342698
 20
96.7323203285
 30
0.0
 11
127.1098342698
 21
97.4823203285
 31
0.0
  0
LINE
  5
252
330
1F
100
AcDbEntity
  8
0
  6
HIDDEN
 62
     7
370
     0
100
AcDbLine
 10
127.1098342698
 20
119.9823203285
 30
0.0
 11
126.3598342698
 21
120.7323203285
 31
0.0
  0
LINE
  5
253
330
1F
100
AcDbEntity
  8
0
  6
HIDDEN
 62
     7
370
     0
100
AcDbLine
 10
127.1098342698
 20
97.4823203285
 30
0.0
 11
138.2098342698
 21
97.4823203285
 31
0.0
  0
LINE
  5
254
330
1F
100
AcDbEntity
  8
0
  6
HIDDEN
 62
     7
370
     0
100
AcDbLine
 10
138.2098342698
 20
119.9823203285
 30
0.0
 11
127.1098342698
 21
119.9823203285
 31
0.0
  0
LINE
  5
255
330
1F
100
AcDbEntity
  8
0
  6
HIDDEN
 62
     7
370
     0
100
AcDbLine
 10
118.8598342698
 20
158.7323203285
 30
0.0
 11
118.8598342698
 21
152.6323203285
 31
0.0
  0
LINE
  5
256
330
1F
100
AcDbEntity
  8
0
  6
HIDDEN
 62
     7
370
     0
100
AcDbLine
 10
105.3425468859
 20
71.1540407579
 30
0.0
 11
104.9098375994
 21
71.6322654753
 31
0.0
  0
LINE
  5
257
330
1F
100
AcDbEntity
  8
0
  6
HIDDEN
 62
     7
370
     0
100
AcDbLine
 10
92.9098347278
 20
72.279226832
 30
0.0
 11
92.4292074226
 21
71.8010021212
 31
0.0
  0
LINE
  5
258
330
1F
100
AcDbEntity
  8
0
  6
HIDDEN
 62
     7
370
     0
100
AcDbLine
 10
92.4290890811
 20
145.6636326198
 30
0.0
 11
92.9098345452
 21
145.1853529479
 31
0.0
  0
LINE
  5
259
330
1F
100
AcDbEntity
  8
0
  6
HIDDEN
 62
     7
370
     0
100
AcDbLine
 10
104.9098342719
 20
145.8323253353
 30
0.0
 11
105.3426559417
 21
146.3106050081
 31
0.0
  0
LINE
  5
25A
330
1F
100
AcDbEntity
  8
0
  6
HIDDEN
 62
     7
370
     0
100
AcDbLine
 10
104.9098342698
 20
71.5321366328
 30
0.0
 11
104.9098342698
 21
77.2582554346
 31
0.0
  0
LINE
  5
25B
330
1F
100
AcDbEntity
  8
0
  6
HIDDEN
 62
     7
370
     0
100
AcDbLine
 10
92.9098342698
 20
77.2333045279
 30
0.0
 11
92.9098342698
 21
72.2792652465
 31
0.0
  0
LINE
  5
25C
330
1F
100
AcDbEntity
  8
0
  6
HIDDEN
 62
     7
370
     0
100
AcDbLine
 10
104.9098342698
 20
140.2063852225
 30
0.0
 11
104.9098342698
 21
145.9323291613
 31
0.0
  0
LINE
  5
25D
330
1F
100
AcDbEntity
  8
0
  6
HIDDEN
 62
     7
370
     0
100
AcDbLine
 10
92.9098342698
 20
145.1853424486
 30
0.0
 11
92.9098342698
 21
140.2313361292
 31
0.0
  0
LINE
  5
25E
330
1F
100
AcDbEntity
  8
0
  6
HIDDEN
 62
     7
370
     0
100
AcDbLine
 10
175.9098342698
 20
114.7823203285
 30
0.0
 11
174.9098342698
 21
113.7823203285
 31
0.0
  0
LINE
  5
25F
330
1F
100
AcDbEntity
  8
0
  6
HIDDEN
 62
     7
370
     0
100
AcDbLine
 10
174.9098342698
 20
103.6823203285
 30
0.0
 11
175.9098342698
 21
102.6823203285
 31
0.0
  0
LINE
  5
260
330
1F
100
AcDbEntity
  8
0
  6
HIDDEN
 62
     7
370
     0
100
AcDbLine
 10
174.9098342698
 20
113.7823203285
 30
0.0
 11
170.8098342698
 21
113.7823203285
 31
0.0
  0
LINE
  5
261
330
1F
100
AcDbEntity
  8
0
  6
HIDDEN
 62
     7
370
     0
100
AcDbLine
 10
170.8098342698
 20
103.6823203285
 30
0.0
 11
174.9098342698
 21
103.6823203285
 31
0.0
  0
LINE
  5
262
330
1F
100
AcDbEntity
  8
0
  6
HIDDEN
 62
     7
370
     0
100
AcDbLine
 10
170.8098342698
 20
113.7823203285
 30
0.0
 11
169.8184142484
 21
112.1323203285
 31
0.0
  0
LINE
  5
263
330
1F
100
AcDbEntity
  8
0
  6
HIDDEN
 62
     7
370
     0
100
AcDbLine
 10
169.8184142484
 20
105.3323203285
 30
0.0
 11
170.8098342698
 21
103.6823203285
 31
0.0
  0
LINE
  5
264
330
1F
100
AcDbEntity
  8
0
  6
HIDDEN
 62
     7
370
     0
100
AcDbLine
 10
142.2098342698
 20
105.3323203285
 30
0.0
 11
169.8184142484
 21
105.3323203285
 31
0.0
  0
LINE
  5
265
330
1F
100
AcDbEntity
  8
0
  6
HIDDEN
 62
     7
370
     0
100
AcDbLine
 10
169.8184142484
 20
112.1323203285
 30
0.0
 11
142.2098342698
 21
112.1323203285
 31
0.0
  0
LINE
  5
266
330
1F
100
AcDbEntity
  8
0
  6
HIDDEN
 62
     7
370
     0
100
AcDbLine
 10
191.6098342698
 20
128.7323203285
 30
0.0
 11
191.6098342698
 21
124.2823203285
 31
0.0
  0
LINE
  5
267
330
1F
100
AcDbEntity
  8
0
  6
HIDDEN
 62
     7
370
     0
100
AcDbLine
 10
198.2098342698
 20
124.2823203285
 30
0.0
 11
198.2098342698
 21
128.7323203285
 31
0.0
  0
LINE
  5
268
330
1F
100
AcDbEntity
  8
0
  6
HIDDEN
 62
     7
370
     0
100
AcDbLine
 10
191.6098342698
 20
124.2823203285
 30
0.0
 11
191.6949809979
 21
124.2311590128
 31
0.0
  0
LINE
  5
269
330
1F
100
AcDbEntity
  8
0
  6
HIDDEN
 62
     7
370
     0
100
AcDbLine
 10
198.1246875417
 20
124.2311590128
 30
0.0
 11
198.2098342698
 21
124.2823203285
 31
0.0
  0
LINE
  5
26A
330
1F
100
AcDbEntity
  8
0
  6
HIDDEN
 62
     7
370
     0
100
AcDbLine
 10
183.8098342698
 20
93.2328565189
 30
0.0
 11
183.8098342698
 21
88.7323203285
 31
0.0
  0
LINE
  5
26B
330
1F
100
AcDbEntity
  8
0
  6
HIDDEN
 62
     7
370
     0
100
AcDbLine
 10
188.0098342698
 20
88.7323203285
 30
0.0
 11
188.0098342698
 21
93.233222913
 31
0.0
  0
ARC
  5
26C
330
1F
100
AcDbEntity
  8
0
  6
HIDDEN
 62
     7
370
     0
100
AcDbCircle
 10
72.2098342698
 20
142.8823203285
 30
0.0
 40
1.899999999999996
100
AcDbArc
 50
270.0
 51
310.9212832533
  0
ARC
  5
26D
330
1F
100
AcDbEntity
  8
0
  6
HIDDEN
 62
     7
370
     0
100
AcDbCircle
 10
77.2098342698
 20
74.5823203285
 30
0.0
 40
1.899999999999999
100
AcDbArc
 50
35.6630613694
 51
90.0
  0
LINE
  5
26E
330
1F
100
AcDbEntity
  8
0
  6
HIDDEN
 62
     7
370
     0
100
AcDbLine
 10
117.9098342698
 20
156.279191792
 30
0.0
 11
117.9098342698
 21
154.4038737077
 31
0.0
  0
LINE
  5
26F
330
1F
100
AcDbEntity
  8
0
  6
HIDDEN
 62
     7
370
     0
100
AcDbLine
 10
127.9098342698
 20
154.4093819661
 30
0.0
 11
127.9098342698
 21
156.2849262248
 31
0.0
  0
LINE
  5
270
330
1F
100
AcDbEntity
  8
0
  6
HIDDEN
 62
     7
370
     0
100
AcDbLine
 10
72.2098342698
 20
140.9823203285
 30
0.0
 11
65.6598342698
 21
140.9823203285
 31
0.0
  0
LINE
  5
271
330
1F
100
AcDbEntity
  8
0
  6
HIDDEN
 62
     7
370
     0
100
AcDbLine
 10
65.6598342698
 20
140.9823203285
 30
0.0
 11
64.0675478049
 21
139.3900338636
 31
0.0
  0
LINE
  5
272
330
1F
100
AcDbEntity
  8
0
  6
HIDDEN
 62
     7
370
     0
100
AcDbLine
 10
64.0674011649
 20
78.0747534335
 30
0.0
 11
65.6598342698
 21
76.4823203285
 31
0.0
  0
LINE
  5
273
330
1F
100
AcDbEntity
  8
0
  6
HIDDEN
 62
     7
370
     0
100
AcDbLine
 10
65.6598342698
 20
76.4823203285
 30
0.0
 11
77.2098342698
 21
76.4823203285
 31
0.0
  0
LINE
  5
274
330
1F
100
AcDbEntity
  8
0
  6
HIDDEN
 62
     7
370
     0
100
AcDbLine
 10
198.2098342698
 20
98.7330687094
 30
0.0
 11
198.2098342698
 21
100.9573203285
 31
0.0
  0
LINE
  5
275
330
1F
100
AcDbEntity
  8
0
  6
HIDDEN
 62
     7
370
     0
100
AcDbLine
 10
191.6098342698
 20
100.9573203285
 30
0.0
 11
191.6098342698
 21
98.7323203285
 31
0.0
  0
LINE
  5
276
330
1F
100
AcDbEntity
  8
0
  6
HIDDEN
 62
     7
370
     0
100
AcDbLine
 10
188.0098342698
 20
118.7309623741
 30
0.0
 11
188.0098342698
 21
118.7319852
 31
0.0
  0
LINE
  5
277
330
1F
100
AcDbEntity
  8
0
  6
HIDDEN
 62
     7
370
     0
100
AcDbLine
 10
183.8098342698
 20
118.7323203285
 30
0.0
 11
183.8098342698
 21
116.4820522334
 31
0.0
  0
DIMENSION
  5
278
330
1F
100
AcDbEntity
  8
VERMASSUNG
100
AcDbDimension
  2
*D1
 10
56.4360985626
 20
58.7323203285
 30
0.0
 11
56.4360985626
 21
105.9330800821
 31
0.0
 70
   160
  1
HSK A%%c<>
 71
     2
 42
-1.0
  3
SLDDIMSTYLE0
100
AcDbAlignedDimension
 13
114.4098342698
 23
158.7323203285
 33
0.0
 14
114.4098342698
 24
58.7323203285
 34
0.0
 50
90.0
100
AcDbRotatedDimension
  0
DIMENSION
  5
285
330
1F
100
AcDbEntity
  8
VERMASSUNG
100
AcDbDimension
  2
*D2
 10
231.6388826369
 20
93.2323203285
 30
0.0
 11
231.6388826369
 21
108.7323203285
 31
0.0
 70
   160
  1
%%c<>
 71
     2
 42
-1.0
  3
SLDDIMSTYLE0
100
AcDbAlignedDimension
 13
223.1098342698
 23
124.2323203285
 33
0.0
 14
223.1098342698
 24
93.2323203285
 34
0.0
 50
90.0
100
AcDbRotatedDimension
  0
DIMENSION
  5
290
330
1F
100
AcDbEntity
  8
VERMASSUNG
100
AcDbDimension
  2
*D3
 10
237.6388826369
 20
83.7323203285
 30
0.0
 11
237.6388826369
 21
108.7323203285
 31
0.0
 70
   160
  1
%%c<>
 71
     2
 42
-1.0
  3
SLDDIMSTYLE0
100
AcDbAlignedDimension
 13
222.5598342698
 23
133.7323203285
 33
0.0
 14
222.5598342698
 24
83.7323203285
 34
0.0
 50
90.0
100
AcDbRotatedDimension
  0
DIMENSION
  5
29B
330
1F
100
AcDbEntity
  8
VERMASSUNG
100
AcDbDimension
  2
*D4
 10
223.9098342698
 20
171.6437077372
 30
0.0
 11
165.6527304562
 21
171.6437077372
 31
0.0
 70
   160
 71
     2
 42
-1.0
  3
SLDDIMSTYLE0
100
AcDbAlignedDimension
 13
113.9098342698
 23
158.2323203285
 33
0.0
 14
223.9098342698
 24
127.9323203285
 34
0.0
100
AcDbRotatedDimension
  0
DIMENSION
  5
2A5
330
1F
100
AcDbEntity
  8
VERMASSUNG
100
AcDbDimension
  2
*D5
 10
223.9098342698
 20
165.6437077372
 30
0.0
 11
181.6305793633
 21
165.6437077372
 31
0.0
 70
   160
 71
     2
 42
-1.0
  3
SLDDIMSTYLE0
100
AcDbAlignedDimension
 13
142.8598342698
 23
156.7010601494
 33
0.0
 14
223.9098342698
 24
127.9323203285
 34
0.0
100
AcDbRotatedDimension
  0
DIMENSION
  5
2AF
330
1F
100
AcDbEntity
  8
VERMASSUNG
100
AcDbDimension
  2
*D6
 10
64.0098342698
 20
177.6437077372
 30
0.0
 11
152.4165737479
 21
177.6437077372
 31
0.0
 70
   160
 71
     2
 42
-1.0
  3
SLDDIMSTYLE0
100
AcDbAlignedDimension
 13
223.9098342698
 23
127.9323203285
 33
0.0
 14
64.0098342698
 24
139.2349900711
 34
0.0
100
AcDbRotatedDimension
  0
DIMENSION
  5
2B9
330
1F
100
AcDbEntity
  8
VERMASSUNG
100
AcDbDimension
  2
*D7
 10
243.6388826369
 20
82.7323203285
 30
0.0
 11
243.6388826369
 21
108.7323203285
 31
0.0
 70
   160
  1
%%c<>
 71
     2
 42
-1.0
  3
SLDDIMSTYLE0
100
AcDbAlignedDimension
 13
166.9098342698
 23
134.7323203285
 33
0.0
 14
166.9098342698
 24
82.7323203285
 34
0.0
 50
90.0
100
AcDbRotatedDimension
  0
LINE
  5
2C4
330
1F
100
AcDbEntity
  8
VERMASSUNG
  6
CENTERX2
370
     0
100
AcDbLine
 10
59.2326598634
 20
108.7323203285
 30
0.0
 11
224.9301679891
 21
108.7323203285
 31
0.0
  0
OLE2FRAME
  5
2C5
330
1F
100
AcDbEntity
  8
0
100
AcDbOle2Frame
 70
     2
  3
Bitmap Image
 10
13.8511154363
 20
38.264191557
 30
0.0
 11
51.6290888628
 21
31.9806341108
 31
0.0
 71
     2
 72
     0
 73
     1
 90
    12928
310
80552BED0767C5B32B40DDAF6807D121434000000000000000006FFBDDFB85D0
310
4940DDAF6807D121434000000000000000006FFBDDFB85D04940416F4BD60AFB
310
3F4000000000000000002BED0767C5B32B40416F4BD60AFB3F40000000000000
310
0000000000000100000000010000010000000100000000000100000000320000
310
D0CF11E0A1B11AE1000000000000000000000000000000003E000300FEFF0900
310
0600000000000000000000000100000001000000000000000010000002000000
310
01000000FEFFFFFF0000000000000000FFFFFFFFFFFFFFFFFFFFFFFFFFFFFFFF
310
FFFFFFFFFFFFFFFFFFFFFFFFFFFFFFFFFFFFFFFFFFFFFFFFFFFFFFFFFFFFFFFF
310
FFFFFFFFFFFFFFFFFFFFFFFFFFFFFFFFFFFFFFFFFFFFFFFFFFFFFFFFFFFFFFFF
310
FFFFFFFFFFFFFFFFFFFFFFFFFFFFFFFFFFFFFFFFFFFFFFFFFFFFFFFFFFFFFFFF
310
FFFFFFFFFFFFFFFFFFFFFFFFFFFFFFFFFFFFFFFFFFFFFFFFFFFFFFFFFFFFFFFF
310
FFFFFFFFFFFFFFFFFFFFFFFFFFFFFFFFFFFFFFFFFFFFFFFFFFFFFFFFFFFFFFFF
310
FFFFFFFFFFFFFFFFFFFFFFFFFFFFFFFFFFFFFFFFFFFFFFFFFFFFFFFFFFFFFFFF
310
FFFFFFFFFFFFFFFFFFFFFFFFFFFFFFFFFFFFFFFFFFFFFFFFFFFFFFFFFFFFFFFF
310
FFFFFFFFFFFFFFFFFFFFFFFFFFFFFFFFFFFFFFFFFFFFFFFFFFFFFFFFFFFFFFFF
310
FFFFFFFFFFFFFFFFFFFFFFFFFFFFFFFFFFFFFFFFFFFFFFFFFFFFFFFFFFFFFFFF
310
FFFFFFFFFFFFFFFFFFFFFFFFFFFFFFFFFFFFFFFFFFFFFFFFFFFFFFFFFFFFFFFF
310
FFFFFFFFFFFFFFFFFFFFFFFFFFFFFFFFFFFFFFFFFFFFFFFFFFFFFFFFFFFFFFFF
310
FFFFFFFFFFFFFFFFFFFFFFFFFFFFFFFFFFFFFFFFFFFFFFFFFFFFFFFFFFFFFFFF
310
FFFFFFFFFFFFFFFFFFFFFFFFFFFFFFFFFFFFFFFFFFFFFFFFFFFFFFFFFFFFFFFF
310
FDFFFFFFFEFFFFFFFEFFFFFFFEFFFFFF05000000060000000700000008000000
310
090000000A0000000B0000000C0000000D0000000E0000000F00000010000000
310
11000000120000001300000014000000150000001600000017000000FEFFFFFF
310
FFFFFFFFFFFFFFFFFFFFFFFFFFFFFFFFFFFFFFFFFFFFFFFFFFFFFFFFFFFFFFFF
310
FFFFFFFFFFFFFFFFFFFFFFFFFFFFFFFFFFFFFFFFFFFFFFFFFFFFFFFFFFFFFFFF
310
FFFFFFFFFFFFFFFFFFFFFFFFFFFFFFFFFFFFFFFFFFFFFFFFFFFFFFFFFFFFFFFF
310
FFFFFFFFFFFFFFFFFFFFFFFFFFFFFFFFFFFFFFFFFFFFFFFFFFFFFFFFFFFFFFFF
310
FFFFFFFFFFFFFFFFFFFFFFFFFFFFFFFFFFFFFFFFFFFFFFFFFFFFFFFFFFFFFFFF
310
FFFFFFFFFFFFFFFFFFFFFFFFFFFFFFFFFFFFFFFFFFFFFFFFFFFFFFFFFFFFFFFF
310
FFFFFFFFFFFFFFFFFFFFFFFFFFFFFFFFFFFFFFFFFFFFFFFFFFFFFFFFFFFFFFFF
310
FFFFFFFFFFFFFFFFFFFFFFFFFFFFFFFFFFFFFFFFFFFFFFFFFFFFFFFFFFFFFFFF
310
FFFFFFFFFFFFFFFFFFFFFFFFFFFFFFFFFFFFFFFFFFFFFFFFFFFFFFFFFFFFFFFF
310
FFFFFFFFFFFFFFFFFFFFFFFFFFFFFFFFFFFFFFFFFFFFFFFFFFFFFFFFFFFFFFFF
310
FFFFFFFFFFFFFFFFFFFFFFFFFFFFFFFFFFFFFFFFFFFFFFFFFFFFFFFFFFFFFFFF
310
FFFFFFFFFFFFFFFFFFFFFFFFFFFFFFFFFFFFFFFFFFFFFFFFFFFFFFFFFFFFFFFF
310
FFFFFFFFFFFFFFFFFFFFFFFFFFFFFFFFFFFFFFFFFFFFFFFFFFFFFFFFFFFFFFFF
310
52006F006F007400200045006E00740072007900000000000000000000000000
310
0000000000000000000000000000000000000000000000000000000000000000
310
16000500FFFFFFFFFFFFFFFF020000000A00030000000000C000000000000046
310
000000000000000000000000C0C1EF9C7DDDCB0103000000C000000000000000
310
01004F006C006500000000000000000000000000000000000000000000000000
310
0000000000000000000000000000000000000000000000000000000000000000
310
0A000200FFFFFFFFFFFFFFFFFFFFFFFF00000000000000000000000000000000
310
0000000000000000000000000000000000000000000000001400000000000000
310
010043006F006D0070004F0062006A0000000000000000000000000000000000
310
0000000000000000000000000000000000000000000000000000000000000000
310
120002010100000003000000FFFFFFFF00000000000000000000000000000000
310
0000000000000000000000000000000000000000010000004D00000000000000
310
01004F006C006500310030004E00610074006900760065000000000000000000
310
0000000000000000000000000000000000000000000000000000000000000000
310
1A000200FFFFFFFFFFFFFFFFFFFFFFFF00000000000000000000000000000000
310
0000000000000000000000000000000000000000040000002426000000000000
310
FEFFFFFF02000000FEFFFFFFFFFFFFFFFFFFFFFFFFFFFFFFFFFFFFFFFFFFFFFF
310
FFFFFFFFFFFFFFFFFFFFFFFFFFFFFFFFFFFFFFFFFFFFFFFFFFFFFFFFFFFFFFFF
310
FFFFFFFFFFFFFFFFFFFFFFFFFFFFFFFFFFFFFFFFFFFFFFFFFFFFFFFFFFFFFFFF
310
FFFFFFFFFFFFFFFFFFFFFFFFFFFFFFFFFFFFFFFFFFFFFFFFFFFFFFFFFFFFFFFF
310
FFFFFFFFFFFFFFFFFFFFFFFFFFFFFFFFFFFFFFFFFFFFFFFFFFFFFFFFFFFFFFFF
310
FFFFFFFFFFFFFFFFFFFFFFFFFFFFFFFFFFFFFFFFFFFFFFFFFFFFFFFFFFFFFFFF
310
FFFFFFFFFFFFFFFFFFFFFFFFFFFFFFFFFFFFFFFFFFFFFFFFFFFFFFFFFFFFFFFF
310
FFFFFFFFFFFFFFFFFFFFFFFFFFFFFFFFFFFFFFFFFFFFFFFFFFFFFFFFFFFFFFFF
310
FFFFFFFFFFFFFFFFFFFFFFFFFFFFFFFFFFFFFFFFFFFFFFFFFFFFFFFFFFFFFFFF
310
FFFFFFFFFFFFFFFFFFFFFFFFFFFFFFFFFFFFFFFFFFFFFFFFFFFFFFFFFFFFFFFF
310
FFFFFFFFFFFFFFFFFFFFFFFFFFFFFFFFFFFFFFFFFFFFFFFFFFFFFFFFFFFFFFFF
310
FFFFFFFFFFFFFFFFFFFFFFFFFFFFFFFFFFFFFFFFFFFFFFFFFFFFFFFFFFFFFFFF
310
FFFFFFFFFFFFFFFFFFFFFFFFFFFFFFFFFFFFFFFFFFFFFFFFFFFFFFFFFFFFFFFF
310
FFFFFFFFFFFFFFFFFFFFFFFFFFFFFFFFFFFFFFFFFFFFFFFFFFFFFFFFFFFFFFFF
310
FFFFFFFFFFFFFFFFFFFFFFFFFFFFFFFFFFFFFFFFFFFFFFFFFFFFFFFFFFFFFFFF
310
FFFFFFFFFFFFFFFFFFFFFFFFFFFFFFFFFFFFFFFFFFFFFFFFFFFFFFFFFFFFFFFF
310
010000020000000000000000000000000000000061007200650064005C003100
310
30002E0030005C0044004C004C005300680061007200650064005C003B004300
310
0100FEFF030A0000FFFFFFFF0A00030000000000C00000000000004607000000
310
5042727573680007000000504272757368000700000050427275736800F439B2
310
71000000000000000000000000004100540049002E004100430045005C004300
310
6F00720065002D005300740061007400690063003B0043003A005C0050007200
310
6F006700720061006D002000460069006C006500730020002800780038003600
310
29005C0043006F006D006D006F006E002000460069006C00650073005C004100
310
750074006F006400650073006B0020005300680061007200650064005C003B00
310
43003A005C00500072006F006700720061006D002000460069006C0065007300
310
5C004E006F0072006D0061006E005C004E0070006D005C00420069006E000000
310
43003A005C00500072006F006700720061006D002000460069006C0065007300
310
5C0053006F006C006900640057006F0072006B007300200043006F0072007000
310
5C0053006F006C006900640057006F0072006B00730020002800320029005C00
310
730065007400750070005C0069003300380036005C0073007700610063007400
310
770069007A002E006500780065000000220043003A005C00500072006F006700
310
20260000424D0E260000000000003E00000028000000B40200006E0000000100
310
01000000000000000000130B0000130B00000200000002000000000000FFFFFF
310
FFFFFFFFFFFFFFFFFFFFFFFFFFFFFFFFFFFFFFFFFFFFFFFFFFFFFFFFFFFFFFFF
310
FFFFFFFFFFFFFFFFFFFFFFFFFFFFFFFFFFFFFFFFFFFFFFFFFFFFFFFFFFFFFFFF
310
FFFFFFFFFFFFFFFFFFFFFFFFFFFFFFFFFFFFFFFFFFFFFFFFF000FFFFFFFFFFFF
310
FFFFFFFFFFFFFFFFFFFFFFFFFFFFFFFFFFFFFFFFFFFFFFFFFFFFFFFFFFFFFFFF
310
FFFFFFFFFFFFFFFFFFFFFFFFFFFFFFFFFFFFFFFFFFFFFFFFFFFFFFFFFFFFFFFF
310
FFFFFFFFFFFFFFFFFFFFFFFFFFFFFFFFF000FFFFFFFFFFFFFFFFFFFFFFFFFFFF
310
FFFFFFFFFFFFFFFFFFFFFFFFFFFFFFFFFFFFFFFFFFFFFFFFFFFFFFFFFFFFFFFF
310
FFFFFFFFFFFFFFFFFFFFFFFFFFFFFFFFFFFFFFFFFFFFFFFFFFFFFFFFFFFFFFFF
310
FFFFFFFFFFFFFFFFF000FFFFFFFFFFFFFFFFFFFFFFFFFFFFFFFFFFFFFFFFFFFF
310
FFFFFFFFFFFFFFFFFFFFFFFFFFFFFFFFFFFFFFFFFFFFFFFFFFFFFFFFFFFFFFFF
310
FFFFFFFFFFFFFFFFFFFFFFFFFFFFFFFFFFFFFFFFFFFFFFFFFFFFFFFFFFFFFFFF
310
F000FFFFFFFFFFFFFFFFFFFFFFFFFFFFFFFFFFFFFFFFFFFFFFFFFFFFFFFFFFFF
310
FFFFFFFFFFFFFFFFFFFFFFFFFFFFFFFFFFFFFFFFFFFFFFFFFFFFFFFFFFFFFFFF
310
FFFFFFFFFFFFFFFFFFFFFFFFFFFFFFFFFFFFFFFFFFFFFFFFF000FFFFFFFFFFFF
310
FFFFFFFFFFFFFFFFFFFFFFFFFFFFFFFFFFFFFFFFFFFFFFFFFFFFFFFFFFFFFFFF
310
FFFFFFFFFFFFFFFFFFFFFFFFFFFFFFFFFFFFFFFFFFFFFFFFFFFFFFFFFFFFFFFF
310
FFFFFFFFFFFFFFFFFFFFFFFFFFFFFFFFF000FFFFFFFFFFFFFFFFFFFFFFFFFFFF
310
FFFFFFFFFFFFFFFFFFFFFFFFFFFFFFFFFFFFFFFFFFFFFFFFFFFFFFFFFFFFFFFF
310
FFFFFFFFFFFFFFFFFFFFFFFFFFFFFFFFFFFFFFFFFFFFFFFFFFFFFFFFFFFFFFFF
310
FFFFFFFFFFFFFFFFF000FFFFFFFFFFFFFFFFFFFFFFFFFFFFFFFFFFFFFFFFFFFF
310
FFFFFFFFFFFFFFFFFFFFFFFFFFFFFFFFFFFFFFFFFFFFFFFFFFFFFFFFFFFFFFFF
310
FFFFFFFFFFFFFFFFFFFFFFFFFFFFFFFFFFFFFFFFFFFFFFFFFFFFFFFFFFFFFFFF
310
F000FFFFFFFFFFFFFFFFFFFFFFFFFFFFFFFFFFFFFFFFFFFFFFFFFFFFFFFFFFFF
310
FFFFFFFFFFFFFFFFFFFFFFFFFFFFFFFFFFFFFFFFFFFFFFFFFFFFFFFFFFFFFFFF
310
FFFFFFFFFFFFFFFFFFFFFFFFFFFFFFFFFFFFFFFFFFFFFFFFF000FFFFFFFFFFFF
310
FFFFFFFFFFFFFFFFFFFFFFFFFFFFFFFFFFFFFFFFFFFFFFFFFFFFFFFFFFFFFFFF
310
FFFFFFFFFFFFFFFFFFFFFFFFFFFFFFFFFFFFFFFFFFFFFFFFFFFFFFFFFFFFFFFF
310
FFFFFFFFFFFFFFFFFFFFFFFFFFFFFFFFF000FFFFFFFFFFFFFFFFFFFFFFFFFFFF
310
FFFFFFFFFFFFFFFFFFFFFFFFFFFFFFFFFFFFFFFFFFFFFFFFFFFFFFFFFFFFFFFF
310
FFFFFFFFFFFFFFFFFFFFFFFFFFFFFFFFFFFFFFFFFFFFFFFFFFFFFFFFFFFFFFFF
310
FFFFFFFFFFFFFFFFF000FFFFFFFFFFFFFFFFFFFFFFFFFFFFFFFFFFFFFFFFFFFF
310
FFFFFFFFFFFFFFFFFFFFFFFFFFFFFFFFFFFFFFFFFFFFFFFFFFFFFFFFFFFFFFFF
310
FFFFFFFFFFFFFFFFFFFFFFFFFFFFFFFFFFFFFFFFFFFFFFFFFFFFFFFFFFFFFFFF
310
F000FFFFFFFFFFFFFFFFFFFFFFFFFFFFFFFFFFFFFFFFFFFFFFFFFFFFFFFFFFFF
310
FFFFFFFFFFFFFFFFFFFFFFFFFFFFFFFFFFFFFFFFFFFFFFFFFFFFFFFFFFFFFFFF
310
FFFFFFFFFFFFFFFFFFFFFFFFFFFFFFFFFFFFFFFFFFFFFFFFF000FFFFFFFFFFFF
310
FFFFFFFFFFFFFFFFFFFFFFFFFFFFFFFFFFFFFFFFFFFFFFFFFFFFFFFFFFFFFFFF
310
FFFFFFFFFFFFFFFFFFFFFFFFFFFFFFFFFFFFFFFFFFFFFFFFFFFFFFFFFFFFFFFF
310
FFFFFFFFFFFFFFFFFFFFFFFFFFFFFFFFF000FFFFFFFFFFFFFFFFFFFFFFFFFFFF
310
FFFFFFFFFFFFFFFFFFFFFFFFFFFFFFFFFFFFFFFFFFFFFFFFFFFFFFFFFFFFFFFF
310
FFFFFFFFFFFFFFFFFFFFFFFFFFFFFFFFFFFFFFFFFFFFFFFFFFFFFFFFFFFFFFFF
310
FFFFFFFFFFFFFFFFF000FFFFFFFFFFFFFFFFFFFFFFFFFFFFFFFFFFFFFFFFFFFF
310
FFFFFFFFFFFFFFFFFFFFFFFFFFFFFFFFFFFFFFFFFFFFFFFFFFFFFFFFFFFFFFFF
310
FFFFFFFFFFFFFFFFFFFFFFFFFFFFFFFFFFFFFFFFFFFFFFFFFFFFFFFFFFFFFFFF
310
F000FFFFFFFFFFFFFFFFFFFFFFFFFFFFFFFFFFFFFFFFFFFFFFFFFFFFFFFFFFFF
310
FFFFFFFFFFFFFFFFFFFFFFFFFFFFFFFFFFFFFFFFFFFFFFFFFFFFFFFFFFFFFFFF
310
FFFFFFFFFFFFFFFFFFFFFFFFFFFFFFFFFFFFFFFFFFFFFFFFF000FFFFFFFFFFFF
310
FFFFFFFFFFFFFFFFFFFFFFFFFFFFFFFFFFFFFFFFFFFFFFFFFFFFFFFFFFFFFFFF
310
FFFFFFFFFFFFFFFFFFFFFFFFFFFFFFFFFFFFFFFFFFFFFFFFFFFFFFFFFFFFFFFF
310
FFFFFFFFFFFFFFFFFFFFFFFFFFFFFFFFF000FFFFFFFFFFFFFFFFFFFFFFFFFFFF
310
FFFFFFFFFFFFFFFFFFFFFFFFFFFFFFFFFFFFFFFFFFFFFFFFFFFFFFFFFFFFFFFF
310
FFFFFFFFFFFFFFFFFFFFFFFFFFFFFFFFFFFFFFFFFFFFFFFFFFFFFFFFFFFFFFFF
310
FFFFFFFFFFFFFFFFF000FFFFF80003FFFFFFFFFFFFFFFFFFFFFFFFFFFFFFFFFF
310
FFFFF00007FFFFFFFFFF00007FFFFFF800000000000000007FFFFFFFFFFFFFFF
310
FFFFFFFC001FFFFFFFFFFFFFFC001FFFFFFFFFFFFFFFFFFFFFFFFFFE0007FFFF
310
F000FFFF8000007FFFFFFFF8000FFFFFC0007FFFFF80007FFFFF0000007FFFFF
310
FFF8000007FFFFF800000000000000007FFFFFF0001FFFFFFFFFFFC00001FFFF
310
FFFFFFFFC00001FFFFFFFF000000000003FFFFE000007FFFF000FFFE0000000F
310
FFFFFFF0000FFFFF80007FFFFF80007FFFFC0000001FFFFFFFC0000001FFFFF8
310
00000000000000007FFFFFF0001FFFFFFFFFFE0000003FFFFFFFFFFE0000003F
310
FFFFFF000000000003FFFF0000000FFFF000FFF800000003FFFFFFF00007FFFF
310
80007FFFFF80007FFFF000000007FFFFFF000000003FFFF80000000000000000
310
7FFFFFF0001FFFFFFFFFF80000000FFFFFFFFFF80000000FFFFFFF0000000000
310
03FFFC00000003FFF000FFE000000000FFFFFFF00007FFFF80003FFFFF80007F
310
FFC000000001FFFFFC000000001FFFF800000000000000007FFFFFF0001FFFFF
310
FFFFE000000003FFFFFFFFE000000003FFFFFF000000000003FFF000000000FF
310
F000FF80000000007FFFFFF00007FFFF80003FFFFF80007FFF8000000000FFFF
310
F80000000007FFF800000000000000007FFFFFF0001FFFFFFFFFC000000001FF
310
FFFFFFC000000001FFFFFF000000000003FFC0000000007FF000FF0000000000
310
3FFFFFE00007FFFF00003FFFFF80007FFE00000000003FFFF00000000003FFF8
310
00000000000000007FFFFFF0001FFFFFFFFF8000000000FFFFFFFF8000000000
310
FFFFFF000000000003FF80000000003FF000FE00000000001FFFFFE00003FFFF
310
00003FFFFF80007FFC00000000001FFFE00000000001FFF8000001FFFE000000
310
7FFFFFF0001FFFFFFFFE00000000003FFFFFFE00000000003FFFFF0000000000
310
03FF00000000001FF000FC00000000000FFFFFE00003FFFF00001FFFFF80007F
310
F800000000001FFFC00000000000FFF8000001FFFE0000007FFFFFF0001FFFFF
310
FFFC00000000001FFFFFFC00000000001FFFFF000000000003FE00000000000F
310
F000F8000000000007FFFFE00003FFFF00001FFFFF80007FF800000000000FFF
310
800000000000FFF8000001FFFE0000007FFFFFF0001FFFFFFFF800000000000F
310
FFFFF800000000000FFFFF000000000003FC000000000007F000F80000000000
310
03FFFFC00003FFFE00001FFFFF80007FF0000000000007FF0000000000007FF8
310
000001FFFE0000007FFFFFF0001FFFFFFFF0000000000007FFFFF00000000000
310
07FFFF000000000003F8000000000003F000F0000000000003FFFFC00001FFFE
310
00001FFFFF80007FE0000000000007FE0000000000003FF8000001FFFE000000
310
7FFFFFF0001FFFFFFFF0000000000007FFFFF0000000000007FFFF0000000000
310
03F800001F800003F000E00001FFF00001FFFFC00001FFFE00000FFFFF80007F
310
E00001FFE00003FE00001FFF00003FF8000001FFFE0000007FFFFFF0001FFFFF
310
FFE000003E000003FFFFE000003E000003FFFF000000000003F00001FFF80001
310
F000E00007FFFC0001FFFFC00001FFFE00000FFFFF80007FC0000FFFFC0003FC
310
0000FFFFC0001FF8000001FFFE0000007FFFFFF0001FFFFFFFC00003FFE00001
310
FFFFC00003FFE00001FFFF0001FFFFFFFFF00007FFFE0001F000E0000FFFFF00
310
00FFFF800001FFFC00000FFFFF80007FC0001FFFFE0001FC0001FFFFE0001FF8
310
000001FFFE0000007FFFFFF0001FFFFFFF80000FFFF80000FFFF80000FFFF800
310
00FFFF0003FFFFFFFFE0000FFFFF8000F000C0003FFFFF8000FFFF800000FFFC
310
000007FFFF80007F80003FFFFF0001FC0003FFFFF0001FF8000001FFFE000000
310
7FFFFFF0001FFFFFFF80003FFFFE0000FFFF80003FFFFE0000FFFF0003FFFFFF
310
FFE0003FFFFF8000F000C0003FFFFF8000FFFF800000FFFC000007FFFF80007F
310
80007FFFFF8001F80007FFFFF8000FF8000001FFFE0000007FFFFFF0001FFFFF
310
FF00007FFFFF00007FFF00007FFFFF00007FFF0003FFFFFFFFE0003FFFFFC000
310
F000C0007FFFFFC000FFFF000000FFFC000007FFFF80007F8000FFFFFF8000F8
310
000FFFFFF8000FF8000001FFFE0000007FFFFFF0001FFFFFFF0000FFFFFF8000
310
7FFF0000FFFFFF80007FFF0003FFFFFFFFC0007FFFFFC00070008000FFFFFFC0
310
00FFFF000000FFF8000007FFFF80007F8000FFFFFF8000F8000FFFFFF8000FF8
310
000001FFFE0000007FFFFFF0001FFFFFFE0001FFFFFFC0003FFE0001FFFFFFC0
310
003FFF0003FFFFFFFFC0007FFFFFE00070008000FFFFFFC0007FFF0000007FF8
310
000003FFFF80007F0001FFFFFF8000F8000FFFFFF8000FF8000001FFFE000000
310
7FFFFFF0001FFFFFFE0001FFFFFFC0003FFE0001FFFFFFC0003FFF0003FFFFFF
310
FFC000FFFFFFE00070008000FFFFFFC0007FFF0000007FF8000003FFFF80007F
310
0001FFFFFF8000F8001FFFFFF8000FF8000001FFFE0000007FFFFFF0001FFFFF
310
FE0003FFFFFFE0003FFE0003FFFFFFE0003FFF0003FFFFFFFFC000FFFFFFE000
310
70008000FFFFFFC0007FFE0000007FF8000003FFFF80007F0001FFFFFF8000F0
310
001FFFFFF8000FF8000001FFFE0000007FFFFFF0001FFFFFFC0003FFFFFFE000
310
1FFC0003FFFFFFE0001FFF0003FFFFFFFFC000FFFFFFC00070008000FFFFFF80
310
007FFE0000007FF0000003FFFF80007F0001FFFFFF0000F0001FFFFFF8000FF8
310
000001FFFE0000007FFFFFF0001FFFFFFC0007FFFFFFF0001FFC0007FFFFFFF0
310
001FFF0003FFFFFFFFC000FFFFFFC00070008001FFFFFF0000FFFE0000003FF0
310
000001FFFF80007F0001FFFFFF0000F8001FFFFFF0000FF8000001FFFE000000
310
7FFFFFF0001FFFFFFC0007FFFFFFF0001FFC0007FFFFFFF0001FFF0003FFFFFF
310
FFC001FFFFFF80007000FFFFFFFFFE0000FFFE0008003FF0008001FFFF80007F
310
FFFFFFFFFC0000FFFFFFFFFFE0000FF8000001FFFE0000007FFFFFF0001FFFFF
310
F8000FFFFFFFF8000FF8000FFFFFFFF8000FFF0003FFFFFFFFFFFFFFFFFF0000
310
7000FFFFFFFFFC0000FFFC0008003FF0008001FFFF80007FFFFFFFFFF80001FF
310
FFFFFFFF80000FF8000001FFFE0000007FFFFFF0001FFFFFF8000FFFFFFFF800
310
0FF8000FFFFFFFF8000FFF0003FFFFFFFFFFFFFFFFFE0000F000FFFFFFFFE000
310
00FFFC000C003FE000C001FFFF80007FFFFFFFFFC00001FFFFFFFFFE00001FF8
310
000001FFFE0000007FFFFFF0001FFFFFF8000FFFFFFFF8000FF8000FFFFFFFF8
310
000FFF0003FFFFFFFFFFFFFFFFF00000F000FFFFFFFE000001FFFC000C001FE0
310
00C000FFFF80007FFFFFFFFE000001FFFFFFFFE000001FF80FFFFFFFFFFFFFC0
310
7FFFFFF0001FFFFFF8000FFFFFFFF8000FF8000FFFFFFFF8000FFF0003FFFFFF
310
FFFFFFFFFF800000F000FFFFFFC0000001FFFC001C001FE001C000FFFF80007F
310
FFFFFF80000003FFFFFFF80000001FF80FFFFFFFFFFFFFC07FFFFFF0001FFFFF
310
F8001FFFFFFFFC000FF8001FFFFFFFFC000FFF0003FFFFFFFFFFFFFFF0000001
310
F000FFFFF800000001FFF8001C001FE001C000FFFF80007FFFFFF800000003FF
310
FFFF800000003FF80FFFFFFFFFFFFFC07FFFFFF0001FFFFFF8001FFFFFFFFC00
310
0FF8001FFFFFFFFC000FFF0003FFFFFFFFFFFFFE00000001F000FFFFC0000000
310
03FFF8001E001FC001E000FFFF80007FFFFF8000000007FFFFFC000000003FF8
310
0FFFFFFFFFFFFFC07FFFFFF0001FFFFFF8001FFFFFFFFC000FF8001FFFFFFFFC
310
000FFF0003FFFFFFFFFFFFE000000003F000FFFE0000000007FFF8001E000FC0
310
01E0007FFF80007FFFFE0000000007FFFFE0000000007FF80FFFFFFFFFFFFFC0
310
7FFFFFF0001FFFFFF0001FFFFFFFFC0007F0001FFFFFFFFC0007FF0003FFFFFF
310
FFFFFF0000000003F000FFF80000000007FFF8001E000FC003E0007FFF80007F
310
FFF0000000000FFFFF8000000000FFF80FFFFFFFFFFFFFC07FFFFFF0001FFFFF
310
F0001FFFFFFFFC0007F0001FFFFFFFFC0007FF0003FFFFFFFFFFFC0000000007
310
F000FFE0000000000FFFF0003E000FC003E0007FFF80007FFFC0000000001FFF
310
FE0000000001FFF80FFFFFFFFFFFFFC07FFFFFF0001FFFFFF0001FFFFFFFFC00
310
07F0001FFFFFFFFC0007FF0003FFFFFFFFFFF0000000000FF000FFC000000000
310
1FFFF0003F000F8003F0003FFF80007FFF80000000003FFFF80000000003FFF8
310
0FFFFFFFFFFFFFC07FFFFFF0001FFFFFF0001FFFFFFFFC0007F0001FFFFFFFFC
310
0007FF0003FFFFFFFFFFE0000000001FF000FF00000000007FFFF0003F000780
310
03F0003FFF80007FFF00000000007FFFF00000000007FFF80FFFFFFFFFFFFFC0
310
7FFFFFF0001FFFFFF0001FFFFFFFFC0007F0001FFFFFFFFC0007FF0003FFFFFF
310
FFFF80000000007FF000FE0000000000FFFFE0003F00078007F0003FFF80007F
310
FE0000000001FFFFE0000000001FFFF80FFFFFFFFFFFFFC07FFFFFF0001FFFFF
310
F0001FFFFFFFFC0007F0001FFFFFFFFC0007FF0003FFFFFFFFFF0000000000FF
310
F000FC0000000003FFFFE0007F00078007F0003FFF80007FFC0000000007FFFF
310
C0000000007FFFF80FFFFFFFFFFFFFC07FFFFFF0001FFFFFF8001FFFFFFFFC00
310
0FF8001FFFFFFFFC000FFF0003FFFFFFFFFE0000000003FFF000FC000000000F
310
FFFFE0007F80070007F8001FFF80007FF8000000001FFFFF8000000001FFFFF8
310
0FFFFFFFFFFFFFC07FFFFFF0001FFFFFF8001FFFFFFFFC000FF8001FFFFFFFFC
310
000FFF0003FFFFFFFFFC000000000FFFF000F8000000007FFFFFE0007F800700
310
07F8001FFF80007FF000000000FFFFFF800000000FFFFFF80FFFFFFFFFFFFFC0
310
7FFFFFF0001FFFFFF8000FFFFFFFF8000FF8000FFFFFFFF8000FFF0003FFFFFF
310
FFFC000000007FFFF000F800000007FFFFFFC0007F8003000FF8001FFF80007F
310
F000000007FFFFFF000000007FFFFFF80FFFFFFFFFFFFFC07FFFFFF0001FFFFF
310
F8000FFFFFFFF8000FF8000FFFFFFFF8000FFF0003FFFFFFFFF80000000FFFFF
310
F000F0000000FFFFFFFFC000FF8003000FF8001FFF80007FE0000000FFFFFFFF
310
0000000FFFFFFFF8000001FFFE0000007FFFFFF0001FFFFFF8000FFFFFFFF800
310
0FF8000FFFFFFFF8000FFF0003FFFFFFFFF8000000FFFFFFF000F000000FFFFF
310
FFFFC000FFC002000FF8000FFF80007FE000001FFFFFFFFE000001FFFFFFFFF8
310
000001FFFE0000007FFFFFF0001FFFFFF8000FFFFFFFF8000FF8000FFFFFFFF8
310
000FFF0003FFFFFFFFF000001FFFFFFFF000E00000FFFFFFFFFFC000FFC00200
310
0FFC000FFF80007FE00001FFFFFFFFFE00001FFFFFFFFFF8000001FFFE000000
310
7FFFFFF0001FFFFFFC000FFFFFFFF8001FFC000FFFFFFFF8001FFF0003FFFFFF
310
FFF00001FFFFFFFFF000E00007FFFFFFFFFF8000FFC000001FFC000FFF80007F
310
C0000FFFFFFFFFFE0000FFFFFFFFFFF8000001FFFE0000007FFFFFF0001FFFFF
310
FC0007FFFFFFF0001FFC0007FFFFFFF0001FFF0003FFFFFFFFF00007FFFFFFFF
310
F000E0001FFFFFFFFFFF8000FFC000001FFC000FFF80007FC0003FFFFFFFFFFE
310
0001FFFFFFFFFFF8000001FFFE0000007FFFFFF0001FFFFFFC0007FFFFFFF000
310
1FFC0007FFFFFFF0001FFF0003FFFFFFFFF0001FFFFFFFFFF000E0003FFFFF00
310
03FF8001FFE000001FFC0007FF80007FC0007FFFFF0007FC0003FFFFF0003FF8
310
000001FFFE0000007FFFFFF0001FFFFFFC0003FFFFFFE0001FFC0003FFFFFFE0
310
001FFF0003FFFFFFFFF0003FFFFFFFFFF000E0003FFFFF0001FF8001FFE00000
310
1FFE0007FF80007FC0007FFFFE0003FC0007FFFFE0003FF8000001FFFE000000
310
7FFFFFF0001FFFFFFE0003FFFFFFE0003FFE0003FFFFFFE0003FFF0003FFFFFF
310
FFF0003FFFFF8001F000E0003FFFFF0001FF0001FFE000001FFE0007FF80007F
310
C0007FFFFE0003FC0007FFFFE0003FF8000001FFFE0000007FFFFFF0001FFFFF
310
FE0001FFFFFFC0003FFE0001FFFFFFC0003FFF0003FFFFFFFFF0003FFFFF0001
310
F000E0003FFFFF0003FF0001FFE000003FFE0007FF80007FC0007FFFFE0003FC
310
0007FFFFE0003FF8000001FFFE0000007FFFFFF0001FFFFFFF0001FFFFFFC000
310
7FFF0001FFFFFFC0007FFF0003FFFFFFFFF0003FFFFF0001F000E0003FFFFE00
310
03FF0003FFF000003FFE0003FF80007FC0007FFFFC0003FE0007FFFFE0003FF8
310
000001FFFE0000007FFFFFF0001FFFFFFF0000FFFFFF80007FFF0000FFFFFF80
310
007FFF0003FFFFFFFFF0003FFFFF0001F000E0003FFFFE0003FF0003FFF00000
310
3FFF0003FF80007FC0007FFFFC0007FE0007FFFFC0003FF8000001FFFE000000
310
7FFFFFF0001FFFFFFF80007FFFFF0000FFFF80007FFFFF0000FFFF0003FFFFFF
310
FFF0003FFFFF0003F000E0003FFFFC0003FE0003FFF000003FFF0003FF80007F
310
E0003FFFF80007FE0003FFFFC0007FF8000001FFFE0000007FFFFFF0001FFFFF
310
FF80003FFFFE0000FFFF80003FFFFE0000FFFF0003FFFFFFFFF0001FFFFE0003
310
F000F0001FFFF80003FE0003FFF000007FFF0001FF80007FE0003FFFF00007FE
310
0001FFFF80007FF8000001FFFE0000007FFFFFF0001FFFFFFFC0000FFFF80001
310
FFFFC0000FFFF80001FFFF0003FFFFFFFFF0001FFFFC0003F000F0000FFFF000
310
07FE0007FFF800007FFF0001FF80007FE0001FFFE00007FF0000FFFE00007FF8
310
000001FFFE0000007FFFFFF0001FFFFFFFC00003FFE00001FFFFC00003FFE000
310
01FFFF0003FFFFFFFFF8000FFFF80003F000F00003FFC00007FC0007FFF80000
310
7FFF8001FF80007FF00007FF80000FFF00007FF80000FFF8000001FFFE000000
310
7F80000000000001FFE000003E000003FFFFE000003E000003FFFF0003FFFFFF
310
FFF80003FFE00007F000F800000000000FFC0007FFF800007FFF8001FF80007F
310
F000000000000FFF000000000000FFF8000001FFFE0000007F80000000000001
310
FFF0000000000007FFFFF0000000000007FFFF0003FFFFFFFFFC00007E000007
310
F000F800000000000FFC0007FFF80000FFFF8000FF80007FF800000000001FFF
310
800000000001FFF8000001FFFE0000007F80000000000001FFF800000000000F
310
FFFFF800000000000FFFFF0003FFFFFFFFFC00000000000FF000FC0000000000
310
1FFC0007FFFC0000FFFF8000FF80007FF800000000003FFFC00000000001FFF8
310
000001FFFE0000007F80000000000001FFF800000000000FFFFFF80000000000
310
0FFFFF0003FFFFFFFFFE00000000001FF000FE00000000003FF8000FFFFC0000
310
FFFF8000FF80007FFC00000000003FFFC00000000003FFF8000001FFFE000000
310
7F80000000000001FFFC00000000001FFFFFFC00000000001FFFFF0003FFFFFF
310
FFFF00000000001FF000FF00000000003FF8000FFFFC0000FFFFC000FF80007F
310
FE00000000007FFFE00000000007FFF8000001FFFE0000007F80000000000001
310
FFFE00000000003FFFFFFE00000000003FFFFF0003FFFFFFFFFF80000000003F
310
F000FF80000000007FF8000FFFFC0001FFFFC0007F80007FFF0000000000FFFF
310
F0000000000FFFF800000000000000007F80000000000001FFFF8000000000FF
310
FFFFFF8000000000FFFFFF0003FFFFFFFFFFC0000000007FF000FFC000000000
310
FFF8000FFFFE0001FFFFC0007F80007FFF8000000001FFFFF8000000001FFFF8
310
00000000000000007F80000000000001FFFFC000000001FFFFFFFFC000000001
310
FFFFFF0003FFFFFFFFFFE000000000FFF000FFE000000003FFF0001FFFFE0001
310
FFFFC0007F80007FFFC000000007FFFFFE000000003FFFF80000000000000000
310
7F80000000000001FFFFE000000003FFFFFFFFE000000003FFFFFF0003FFFFFF
310
FFFFF000000003FFF000FFF80000000FFFF0001FFFFE0001FFFFE0007F80007F
310
FFF00000000FFFFFFF00000000FFFFF800000000000000007F80000000000001
310
FFFFF80000000FFFFFFFFFF80000000FFFFFFF0003FFFFFFFFFFFC0000000FFF
310
F000FFFE0000003FFFF0001FFFFE0003FFFFE0003F80007FFFFC0000003FFFFF
310
FFC0000003FFFFF800000000000000007F80000000000001FFFFFE0000003FFF
310
FFFFFFFE0000003FFFFFFF0003FFFFFFFFFFFF0000003FFFF000FFFF800000FF
310
FFF0001FFFFF0003FFFFE0003F80007FFFFF000001FFFFFFFFF800001FFFFFF8
310
00000000000000007F80000000000001FFFFFFC00001FFFFFFFFFFFFC00001FF
310
FFFFFF0003FFFFFFFFFFFFC00000FFFFF000FFFFF8000FFFFFFFFFFFFFFFFFFF
310
FFFFFFFFFFFFFFFFFFFFF0001FFFFFFFFFFF0000FFFFFFF80000000000000000
310
7FFFFFFFFFFFFFFFFFFFFFFC001FFFFFFFFFFFFFFC001FFFFFFFFFFFFFFFFFFF
310
FFFFFFFC001FFFFFF000FFFFFFFFFFFFFFFFFFFFFFFFFFFFFFFFFFFFFFFFFFFF
310
FFFFFFFFFFFFFFFFFFFFFFFFFFFFFFFFFFFFFFFFFFFFFFFFFFFFFFFFFFFFFFFF
310
FFFFFFFFFFFFFFFFFFFFFFFFFFFFFFFFFFFFFFFFFFFFFFFFFFFFFFFFFFFFFFFF
310
F000FFFFFFFFFFFFFFFFFFFFFFFFFFFFFFFFFFFFFFFFFFFFFFFFFFFFFFFFFFFF
310
FFFFFFFFFFFFFFFFFFFFFFFFFFFFFFFFFFFFFFFFFFFFFFFFFFFFFFFFFFFFFFFF
310
FFFFFFFFFFFFFFFFFFFFFFFFFFFFFFFFFFFFFFFFFFFFFFFFF000FFFFFFFFFFFF
310
FFFFFFFFFFFFFFFFFFFFFFFFFFFFFFFFFFFFFFFFFFFFFFFFFFFFFFFFFFFFFFFF
310
FFFFFFFFFFFFFFFFFFFFFFFFFFFFFFFFFFFFFFFFFFFFFFFFFFFFFFFFFFFFFFFF
310
FFFFFFFFFFFFFFFFFFFFFFFFFFFFFFFFF000FFFFFFFFFFFFFFFFFFFFFFFFFFFF
310
FFFFFFFFFFFFFFFFFFFFFFFFFFFFFFFFFFFFFFFFFFFFFFFFFFFFFFFFFFFFFFFF
310
FFFFFFFFFFFFFFFFFFFFFFFFFFFFFFFFFFFFFFFFFFFFFFFFFFFFFFFFFFFFFFFF
310
FFFFFFFFFFFFFFFFF000FFFFFFFFFFFFFFFFFFFFFFFFFFFFFFFFFFFFFFFFFFFF
310
FFFFFFFFFFFFFFFFFFFFFFFFFFFFFFFFFFFFFFFFFFFFFFFFFFFFFFFFFFFFFFFF
310
FFFFFFFFFFFFFFFFFFFFFFFFFFFFFFFFFFFFFFFFFFFFFFFFFFFFFFFFFFFFFFFF
310
F000FFFFFFFFFFFFFFFFFFFFFFFFFFFFFFFFFFFFFFFFFFFFFFFFFFFFFFFFFFFF
310
FFFFFFFFFFFFFFFFFFFFFFFFFFFFFFFFFFFFFFFFFFFFFFFFFFFFFFFFFFFFFFFF
310
FFFFFFFFFFFFFFFFFFFFFFFFFFFFFFFFFFFFFFFFFFFFFFFFF000FFFFFFFFFFFF
310
FFFFFFFFFFFFFFFFFFFFFFFFFFFFFFFFFFFFFFFFFFFFFFFFFFFFFFFFFFFFFFFF
310
FFFFFFFFFFFFFFFFFFFFFFFFFFFFFFFFFFFFFFFFFFFFFFFFFFFFFFFFFFFFFFFF
310
FFFFFFFFFFFFFFFFFFFFFFFFFFFFFFFFF000FFFFFFFFFFFFFFFFFFFFFFFFFFFF
310
FFFFFFFFFFFFFFFFFFFFFFFFFFFFFFFFFFFFFFFFFFFFFFFFFFFFFFFFFFFFFFFF
310
FFFFFFFFFFFFFFFFFFFFFFFFFFFFFFFFFFFFFFFFFFFFFFFFFFFFFFFFFFFFFFFF
310
FFFFFFFFFFFFFFFFF000FFFFFFFFFFFFFFFFFFFFFFFFFFFFFFFFFFFFFFFFFFFF
310
FFFFFFFFFFFFFFFFFFFFFFFFFFFFFFFFFFFFFFFFFFFFFFFFFFFFFFFFFFFFFFFF
310
FFFFFFFFFFFFFFFFFFFFFFFFFFFFFFFFFFFFFFFFFFFFFFFFFFFFFFFFFFFFFFFF
310
F000FFFFFFFFFFFFFFFFFFFFFFFFFFFFFFFFFFFFFFFFFFFFFFFFFFFFFFFFFFFF
310
FFFFFFFFFFFFFFFFFFFFFFFFFFFFFFFFFFFFFFFFFFFFFFFFFFFFFFFFFFFFFFFF
310
FFFFFFFFFFFFFFFFFFFFFFFFFFFFFFFFFFFFFFFFFFFFFFFFF000FFFFFFFFFFFF
310
FFFFFFFFFFFFFFFFFFFFFFFFFFFFFFFFFFFFFFFFFFFFFFFFFFFFFFFFFFFFFFFF
310
FFFFFFFFFFFFFFFFFFFFFFFFFFFFFFFFFFFFFFFFFFFFFFFFFFFFFFFFFFFFFFFF
310
FFFFFFFFFFFFFFFFFFFFFFFFFFFFFFFFF000FFFFFFFFFFFFFFFFFFFFFFFFFFFF
310
FFFFFFFFFFFFFFFFFFFFFFFFFFFFFFFFFFFFFFFFFFFFFFFFFFFFFFFFFFFFFFFF
310
FFFFFFFFFFFFFFFFFFFFFFFFFFFFFFFFFFFFFFFFFFFFFFFFFFFFFFFFFFFFFFFF
310
FFFFFFFFFFFFFFFFF000FFFFFFFFFFFFFFFFFFFFFFFFFFFFFFFFFFFFFFFFFFFF
310
FFFFFFFFFFFFFFFFFFFFFFFFFFFFFFFFFFFFFFFFFFFFFFFFFFFFFFFFFFFFFFFF
310
FFFFFFFFFFFFFFFFFFFFFFFFFFFFFFFFFFFFFFFFFFFFFFFFFFFFFFFFFFFFFFFF
310
F000FFFFFFFFFFFFFFFFFFFFFFFFFFFFFFFFFFFFFFFFFFFFFFFFFFFFFFFFFFFF
310
FFFFFFFFFFFFFFFFFFFFFFFFFFFFFFFFFFFFFFFFFFFFFFFFFFFFFFFFFFFFFFFF
310
FFFFFFFFFFFFFFFFFFFFFFFFFFFFFFFFFFFFFFFFFFFFFFFFF000FFFFFFFFFFFF
310
FFFFFFFFFFFFFFFFFFFFFFFFFFFFFFFFFFFFFFFFFFFFFFFFFFFFFFFFFFFFFFFF
310
FFFFFFFFFFFFFFFFFFFFFFFFFFFFFFFFFFFFFFFFFFFFFFFFFFFFFFFFFFFFFFFF
310
FFFFFFFFFFFFFFFFFFFFFFFFFFFFFFFFF000FFFFFFFFFFFFFFFFFFFFFFFFFFFF
310
FFFFFFFFFFFFFFFFFFFFFFFFFFFFFFFFFFFFFFFFFFFFFFFFFFFFFFFFFFFFFFFF
310
FFFFFFFFFFFFFFFFFFFFFFFFFFFFFFFFFFFFFFFFFFFFFFFFFFFFFFFFFFFFFFFF
310
FFFFFFFFFFFFFFFFF000FFFFFFFFFFFFFFFFFFFFFFFFFFFFFFFFFFFFFFFFFFFF
310
FFFFFFFFFFFFFFFFFFFFFFFFFFFFFFFFFFFFFFFFFFFFFFFFFFFFFFFFFFFFFFFF
310
FFFFFFFFFFFFFFFFFFFFFFFFFFFFFFFFFFFFFFFFFFFFFFFFFFFFFFFFFFFFFFFF
310
F000FFFFFFFFFFFFFFFFFFFFFFFFFFFFFFFFFFFFFFFFFFFFFFFFFFFFFFFFFFFF
310
FFFFFFFFFFFFFFFFFFFFFFFFFFFFFFFFFFFFFFFFFFFFFFFFFFFFFFFFFFFFFFFF
310
FFFFFFFFFFFFFFFFFFFFFFFFFFFFFFFFFFFFFFFFFFFFFFFFF000FFFFFFFFFFFF
310
FFFFFFFFFFFFFFFFFFFFFFFFFFFFFFFFFFFFFFFFFFFFFFFFFFFFFFFFFFFFFFFF
310
FFFFFFFFFFFFFFFFFFFFFFFFFFFFFFFFFFFFFFFFFFFFFFFFFFFFFFFFFFFFFFFF
310
FFFFFFFFFFFFFFFFFFFFFFFFFFFFFFFFF000FFFFFFFFFFFFFFFFFFFFFFFFFFFF
310
FFFFFFFFFFFFFFFFFFFFFFFFFFFFFFFFFFFFFFFFFFFFFFFFFFFFFFFFFFFFFFFF
310
FFFFFFFFFFFFFFFFFFFFFFFFFFFFFFFFFFFFFFFFFFFFFFFFFFFFFFFFFFFFFFFF
310
FFFFFFFFFFFFFFFFF000FFFFFFFFFFFFFFFFFFFFFFFFFFFFFFFFFFFFFFFFFFFF
310
FFFFFFFFFFFFFFFFFFFFFFFFFFFFFFFFFFFFFFFFFFFFFFFFFFFFFFFFFFFFFFFF
310
FFFFFFFFFFFFFFFFFFFFFFFFFFFFFFFFFFFFFFFFFFFFFFFFFFFFFFFFFFFFFFFF
310
F000FFFFFFFFFFFFFFFFFFFFFFFFFFFFFFFFFFFFFFFFFFFFFFFFFFFFFFFFFFFF
310
FFFFFFFFFFFFFFFFFFFFFFFFFFFFFFFFFFFFFFFFFFFFFFFFFFFFFFFFFFFFFFFF
310
FFFFFFFFFFFFFFFFFFFFFFFFFFFFFFFFFFFFFFFFFFFFFFFFF000FFFFFFFFFFFF
310
FFFFFFFFFFFFFFFFFFFFFFFFFFFFFFFFFFFFFFFFFFFFFFFFFFFFFFFFFFFFFFFF
310
FFFFFFFFFFFFFFFFFFFFFFFFFFFFFFFFFFFFFFFFFFFFFFFFFFFFFFFFFFFFFFFF
310
FFFFFFFFFFFFFFFFFFFFFFFFFFFFFFFFF0000000000000000000000000000000
310
00000000000000000000000042006C00610063006B0000000000000000000000
310
0000000000000000000000000000000000000000000000000000000000000000
310
0000000000000000000000000000FFFFFFFFFFFFFFFFFFFFFFFFFFFFFFFFFFFF
310
FFFFFFFFFFFFFFFFFFFFFFFFFFFFFFFFFFFFFFFFFFFFFFFFFFFFFFFFFFFFFFFF
310
FFFFFFFFFFFFFFFFFFFFFFFF6476000800000000FFFFFFFF20FF202026000000
310
1E00000008000000060000000000000011000000200000008403000000000000
310
6000000060000000200002FB200020000000002B00FFFFFF40002200E8030000
310
A80400001C020000AF0000804A20004000000000000000000100000000000000
310
616C000800000000E40100007001000002000000270000001100000000000000
310
00000000BC0200000000000003020122420065006C006C00200047006F007400
310
680069006300200053007400640020004C006900670068007400000000000000
310
00000000000000000000000000000000420065006C006C0047006F0074006800
310
690063005300740064002D0042006F006C006400000000000000000000000000
310
0000000000000000000000000000000000000000000000000000000000000000
310
0000000000000000000000000000000000000000000000000000000000000000
  1
OLE
  0
ENDSEC
  0
SECTION
  2
OBJECTS
  0
DICTIONARY
  5
C
330
0
100
AcDbDictionary
281
     1
  3
ACAD_GROUP
350
D
  3
ACAD_LAYOUT
350
1A
  3
ACAD_MLEADERSTYLE
350
2C7
  3
ACAD_MLINESTYLE
350
17
  3
ACAD_PLOTSETTINGS
350
19
  3
ACAD_PLOTSTYLENAME
350
E
  3
ACAD_TABLESTYLE
350
2C6
  3
ACAD_VISUALSTYLE
350
2A
  3
AcDbVariableDictionary
350
2C8
  0
DICTIONARY
  5
D
102
{ACAD_REACTORS
330
C
102
}
330
C
100
AcDbDictionary
281
     1
  0
DICTIONARY
  5
1A
102
{ACAD_REACTORS
330
C
102
}
330
C
100
AcDbDictionary
281
     1
  3
Layout1
350
1E
  3
Layout2
350
26
  3
Model
350
22
  0
DICTIONARY
  5
2C7
102
{ACAD_REACTORS
330
C
102
}
330
C
100
AcDbDictionary
281
     1
  0
DICTIONARY
  5
17
102
{ACAD_REACTORS
330
C
102
}
330
C
100
AcDbDictionary
281
     1
  3
Standard
350
18
  0
DICTIONARY
  5
19
102
{ACAD_REACTORS
330
C
102
}
330
C
100
AcDbDictionary
281
     1
  0
ACDBDICTIONARYWDFLT
  5
E
102
{ACAD_REACTORS
330
C
102
}
330
C
100
AcDbDictionary
281
     1
  3
Normal
350
F
100
AcDbDictionaryWithDefault
340
F
  0
DICTIONARY
  5
2C6
102
{ACAD_REACTORS
330
C
102
}
330
C
100
AcDbDictionary
281
     1
  0
DICTIONARY
  5
2A
102
{ACAD_REACTORS
330
C
102
}
330
C
100
AcDbDictionary
281
     1
  3
2dWireframe
350
2F
  3
3D Hidden
350
31
  3
3dWireframe
350
30
  3
Basic
350
32
  3
Brighten
350
36
  3
ColorChange
350
3A
  3
Conceptual
350
34
  3
Dim
350
35
  3
Facepattern
350
39
  3
Flat
350
2B
  3
FlatWithEdges
350
2C
  3
Gouraud
350
2D
  3
GouraudWithEdges
350
2E
  3
Linepattern
350
38
  3
Realistic
350
33
  3
Thicken
350
37
  0
DICTIONARY
  5
2C8
102
{ACAD_REACTORS
330
C
102
}
330
C
100
AcDbDictionary
281
     1
  3
PSOLHEIGHT
350
2CA
  3
PSOLWIDTH
350
2C9
  0
LAYOUT
  5
1E
102
{ACAD_REACTORS
330
1A
102
}
330
1A
100
AcDbPlotSettings
  1

  2
none_device
  4

  6

 40
0.0
 41
0.0
 42
0.0
 43
0.0
 44
0.0
 45
0.0
 46
0.0
 47
0.0
 48
0.0
 49
0.0
140
0.0
141
0.0
142
1.0
143
1.0
 70
   688
 72
     0
 73
     0
 74
     5
  7

 75
    16
147
1.0
148
0.0
149
0.0
100
AcDbLayout
  1
Layout1
 70
     1
 71
     1
 10
0.0
 20
0.0
 11
420.0
 21
297.0
 12
0.0
 22
0.0
 32
0.0
 14
1.0000000000E+20
 24
1.0000000000E+20
 34
1.0000000000E+20
 15
-1.0000000000E+20
 25
-1.0000000000E+20
 35
-1.0000000000E+20
146
0.0
 13
0.0
 23
0.0
 33
0.0
 16
1.0
 26
0.0
 36
0.0
 17
0.0
 27
1.0
 37
0.0
 76
     0
330
1B
  0
LAYOUT
  5
26
102
{ACAD_REACTORS
330
1A
102
}
330
1A
100
AcDbPlotSettings
  1

  2
none_device
  4

  6

 40
0.0
 41
0.0
 42
0.0
 43
0.0
 44
0.0
 45
0.0
 46
0.0
 47
0.0
 48
0.0
 49
0.0
140
0.0
141
0.0
142
1.0
143
1.0
 70
   688
 72
     0
 73
     0
 74
     5
  7

 75
    16
147
1.0
148
0.0
149
0.0
100
AcDbLayout
  1
Layout2
 70
     1
 71
     2
 10
0.0
 20
0.0
 11
0.0
 21
0.0
 12
0.0
 22
0.0
 32
0.0
 14
0.0
 24
0.0
 34
0.0
 15
0.0
 25
0.0
 35
0.0
146
0.0
 13
0.0
 23
0.0
 33
0.0
 16
1.0
 26
0.0
 36
0.0
 17
0.0
 27
1.0
 37
0.0
 76
     0
330
23
  0
LAYOUT
  5
22
102
{ACAD_REACTORS
330
1A
102
}
330
1A
100
AcDbPlotSettings
  1

  2
none_device
  4

  6

 40
0.0
 41
0.0
 42
0.0
 43
0.0
 44
0.0
 45
0.0
 46
0.0
 47
0.0
 48
0.0
 49
0.0
140
0.0
141
0.0
142
1.0
143
1.0
 70
  1712
 72
     0
 73
     0
 74
     0
  7

 75
     0
147
1.0
148
0.0
149
0.0
100
AcDbLayout
  1
Model
 70
     1
 71
     0
 10
0.0
 20
0.0
 11
297.0
 21
210.0
 12
0.0
 22
0.0
 32
0.0
 14
0.0
 24
0.0
 34
0.0
 15
297.0
 25
210.0
 35
0.0
146
0.0
 13
0.0
 23
0.0
 33
0.0
 16
1.0
 26
0.0
 36
0.0
 17
0.0
 27
1.0
 37
0.0
 76
     0
330
1F
331
29
  0
MLINESTYLE
  5
18
102
{ACAD_REACTORS
330
17
102
}
330
17
100
AcDbMlineStyle
  2
Standard
 70
     0
  3

 62
   256
 51
90.0
 52
90.0
 71
     2
 49
0.5
 62
   256
  6
BYLAYER
 49
-0.5
 62
   256
  6
BYLAYER
  0
ACDBPLACEHOLDER
  5
F
102
{ACAD_REACTORS
330
E
102
}
330
E
  0
VISUALSTYLE
  5
2F
102
{ACAD_REACTORS
330
2A
102
}
330
2A
100
AcDbVisualStyle
  2
2dWireframe
 70
     4
 71
     0
 72
     2
 73
     0
 90
        0
 40
-0.6
 41
-30.0
 62
     5
 63
     7
 74
     1
 91
        4
 64
     7
 65
   257
 75
     1
175
     1
 42
1.0
 92
        0
 66
   257
 43
1.0
 76
     1
 77
     6
 78
     2
 67
     7
 79
     5
170
     0
171
     0
290
     0
174
     0
 93
        1
 44
0.0
173
     0
291
     0
 45
0.0
1001
ACAD
1000
AcDbSavedByObjectVersion
1070
     0
  0
VISUALSTYLE
  5
31
102
{ACAD_REACTORS
330
2A
102
}
330
2A
100
AcDbVisualStyle
  2
3D Hidden
 70
     6
 71
     1
 72
     2
 73
     2
 90
        0
 40
-0.6
 41
-30.0
 62
     5
 63
     7
 74
     2
 91
        2
 64
     7
 65
   257
 75
     2
175
     1
 42
40.0
 92
        0
 66
   257
 43
1.0
 76
     1
 77
     6
 78
     2
 67
     7
 79
     3
170
     0
171
     0
290
     0
174
     0
 93
        1
 44
0.0
173
     0
291
     0
 45
0.0
1001
ACAD
1000
AcDbSavedByObjectVersion
1070
     0
  0
VISUALSTYLE
  5
30
102
{ACAD_REACTORS
330
2A
102
}
330
2A
100
AcDbVisualStyle
  2
3dWireframe
 70
     5
 71
     0
 72
     2
 73
     0
 90
        0
 40
-0.6
 41
-30.0
 62
     5
 63
     7
 74
     1
 91
        4
 64
     7
 65
   257
 75
     1
175
     1
 42
1.0
 92
        0
 66
   257
 43
1.0
 76
     1
 77
     6
 78
     2
 67
     7
 79
     5
170
     0
171
     0
290
     0
174
     0
 93
        1
 44
0.0
173
     0
291
     0
 45
0.0
1001
ACAD
1000
AcDbSavedByObjectVersion
1070
     0
  0
VISUALSTYLE
  5
32
102
{ACAD_REACTORS
330
2A
102
}
330
2A
100
AcDbVisualStyle
  2
Basic
 70
     7
 71
     1
 72
     0
 73
     1
 90
        0
 40
-0.6
 41
-30.0
 62
     5
 63
     7
 74
     0
 91
        4
 64
     7
 65
   257
 75
     1
175
     1
 42
1.0
 92
        8
 66
     7
 43
1.0
 76
     1
 77
     6
 78
     2
 67
     7
 79
     5
170
     0
171
     0
290
     0
174
     0
 93
        1
 44
0.0
173
     0
291
     1
 45
0.0
1001
ACAD
1000
AcDbSavedByObjectVersion
1070
     0
  0
VISUALSTYLE
  5
36
102
{ACAD_REACTORS
330
2A
102
}
330
2A
100
AcDbVisualStyle
  2
Brighten
 70
    12
 71
     2
 72
     2
 73
     0
 90
        0
 40
-0.6
 41
-30.0
 62
     5
 63
     7
 74
     1
 91
        4
 64
     7
 65
   257
 75
     1
175
     1
 42
1.0
 92
        8
 66
     7
 43
1.0
 76
     1
 77
     6
 78
     2
 67
     7
 79
     5
170
     0
171
     0
290
     0
174
     0
 93
        1
 44
50.0
173
     0
291
     1
 45
0.0
1001
ACAD
1000
AcDbSavedByObjectVersion
1070
     0
  0
VISUALSTYLE
  5
3A
102
{ACAD_REACTORS
330
2A
102
}
330
2A
100
AcDbVisualStyle
  2
ColorChange
 70
    16
 71
     2
 72
     2
 73
     3
 90
        0
 40
-0.6
 41
-30.0
 62
     5
 63
     8
 74
     1
 91
        4
 64
     7
 65
   257
 75
     1
175
     1
 42
1.0
 92
        8
 66
     8
 43
1.0
 76
     1
 77
     6
 78
     2
 67
     7
 79
     5
170
     0
171
     0
290
     0
174
     0
 93
        1
 44
0.0
173
     0
291
     1
 45
0.0
1001
ACAD
1000
AcDbSavedByObjectVersion
1070
     0
  0
VISUALSTYLE
  5
34
102
{ACAD_REACTORS
330
2A
102
}
330
2A
100
AcDbVisualStyle
  2
Conceptual
 70
     9
 71
     3
 72
     2
 73
     0
 90
        0
 40
-0.6
 41
-30.0
 62
     5
 63
     7
 74
     2
 91
        2
 64
     7
 65
   257
 75
     1
175
     1
 42
40.0
 92
        8
 66
     7
 43
1.0
 76
     1
 77
     6
 78
     2
 67
     7
 79
     3
170
     0
171
     0
290
     0
174
     0
 93
        1
 44
0.0
173
     0
291
     0
 45
0.0
1001
ACAD
1000
AcDbSavedByObjectVersion
1070
     0
  0
VISUALSTYLE
  5
35
102
{ACAD_REACTORS
330
2A
102
}
330
2A
100
AcDbVisualStyle
  2
Dim
 70
    11
 71
     2
 72
     2
 73
     0
 90
        0
 40
-0.6
 41
-30.0
 62
     5
 63
     7
 74
     1
 91
        4
 64
     7
 65
   257
 75
     1
175
     1
 42
1.0
 92
        8
 66
     7
 43
1.0
 76
     1
 77
     6
 78
     2
 67
     7
 79
     5
170
     0
171
     0
290
     0
174
     0
 93
        1
 44
-50.0
173
     0
291
     1
 45
0.0
1001
ACAD
1000
AcDbSavedByObjectVersion
1070
     0
  0
VISUALSTYLE
  5
39
102
{ACAD_REACTORS
330
2A
102
}
330
2A
100
AcDbVisualStyle
  2
Facepattern
 70
    15
 71
     2
 72
     2
 73
     0
 90
        0
 40
-0.6
 41
-30.0
 62
     5
 63
     7
 74
     1
 91
        4
 64
     7
 65
   257
 75
     1
175
     1
 42
1.0
 92
        8
 66
     7
 43
1.0
 76
     1
 77
     6
 78
     2
 67
     7
 79
     5
170
     0
171
     0
290
     0
174
     0
 93
        1
 44
0.0
173
     0
291
     1
 45
0.0
1001
ACAD
1000
AcDbSavedByObjectVersion
1070
     0
  0
VISUALSTYLE
  5
2B
102
{ACAD_REACTORS
330
2A
102
}
330
2A
100
AcDbVisualStyle
  2
Flat
 70
     0
 71
     2
 72
     1
 73
     1
 90
        2
 40
-0.6
 41
30.0
 62
     5
 63
     7
 74
     0
 91
        4
 64
     7
 65
   257
 75
     1
175
     1
 42
1.0
 92
        8
 66
     7
 43
1.0
 76
     1
 77
     6
 78
     2
 67
     7
 79
     5
170
     0
171
     0
290
     0
174
     0
 93
       13
 44
0.0
173
     0
291
     1
 45
0.0
1001
ACAD
1000
AcDbSavedByObjectVersion
1070
     0
  0
VISUALSTYLE
  5
2C
102
{ACAD_REACTORS
330
2A
102
}
330
2A
100
AcDbVisualStyle
  2
FlatWithEdges
 70
     1
 71
     2
 72
     1
 73
     1
 90
        2
 40
-0.6
 41
30.0
 62
     5
 63
     7
 74
     1
 91
        4
 64
     7
 65
   257
 75
     1
175
     1
 42
1.0
 92
        0
 66
   257
 43
1.0
 76
     1
 77
     6
 78
     2
 67
     7
 79
     5
170
     0
171
     0
290
     0
174
     0
 93
       13
 44
0.0
173
     0
291
     1
 45
0.0
1001
ACAD
1000
AcDbSavedByObjectVersion
1070
     0
  0
VISUALSTYLE
  5
2D
102
{ACAD_REACTORS
330
2A
102
}
330
2A
100
AcDbVisualStyle
  2
Gouraud
 70
     2
 71
     2
 72
     2
 73
     1
 90
        2
 40
-0.6
 41
30.0
 62
     5
 63
     7
 74
     0
 91
        4
 64
     7
 65
   257
 75
     1
175
     1
 42
1.0
 92
        0
 66
     7
 43
1.0
 76
     1
 77
     6
 78
     2
 67
     7
 79
     5
170
     0
171
     0
290
     0
174
     0
 93
       13
 44
0.0
173
     0
291
     1
 45
0.0
1001
ACAD
1000
AcDbSavedByObjectVersion
1070
     0
  0
VISUALSTYLE
  5
2E
102
{ACAD_REACTORS
330
2A
102
}
330
2A
100
AcDbVisualStyle
  2
GouraudWithEdges
 70
     3
 71
     2
 72
     2
 73
     1
 90
        2
 40
-0.6
 41
30.0
 62
     5
 63
     7
 74
     1
 91
        4
 64
     7
 65
   257
 75
     1
175
     1
 42
1.0
 92
        0
 66
   257
 43
1.0
 76
     1
 77
     6
 78
     2
 67
     7
 79
     5
170
     0
171
     0
290
     0
174
     0
 93
       13
 44
0.0
173
     0
291
     1
 45
0.0
1001
ACAD
1000
AcDbSavedByObjectVersion
1070
     0
  0
VISUALSTYLE
  5
38
102
{ACAD_REACTORS
330
2A
102
}
330
2A
100
AcDbVisualStyle
  2
Linepattern
 70
    14
 71
     2
 72
     2
 73
     0
 90
        0
 40
-0.6
 41
-30.0
 62
     5
 63
     7
 74
     1
 91
        4
 64
     7
 65
   257
 75
     7
175
     7
 42
1.0
 92
        8
 66
     7
 43
1.0
 76
     1
 77
     6
 78
     2
 67
     7
 79
     5
170
     0
171
     0
290
     0
174
     0
 93
        1
 44
0.0
173
     0
291
     1
 45
0.0
1001
ACAD
1000
AcDbSavedByObjectVersion
1070
     0
  0
VISUALSTYLE
  5
33
102
{ACAD_REACTORS
330
2A
102
}
330
2A
100
AcDbVisualStyle
  2
Realistic
 70
     8
 71
     2
 72
     2
 73
     0
 90
        0
 40
-0.6
 41
-30.0
 62
     5
 63
     7
 74
     1
 91
        0
 64
     7
 65
   257
 75
     1
175
     1
 42
1.0
 92
        8
 66
     8
 43
1.0
 76
     1
 77
     6
 78
     2
 67
     7
 79
     5
170
     0
171
     0
290
     0
174
     0
 93
       13
 44
0.0
173
     0
291
     0
 45
0.0
1001
ACAD
1000
AcDbSavedByObjectVersion
1070
     0
  0
VISUALSTYLE
  5
37
102
{ACAD_REACTORS
330
2A
102
}
330
2A
100
AcDbVisualStyle
  2
Thicken
 70
    13
 71
     2
 72
     2
 73
     0
 90
        0
 40
-0.6
 41
-30.0
 62
     5
 63
     7
 74
     1
 91
        4
 64
     7
 65
   257
 75
     1
175
     1
 42
1.0
 92
       12
 66
     7
 43
1.0
 76
     1
 77
     6
 78
     2
 67
     7
 79
     5
170
     0
171
     0
290
     0
174
     0
 93
        1
 44
0.0
173
     0
291
     1
 45
0.0
1001
ACAD
1000
AcDbSavedByObjectVersion
1070
     0
  0
DICTIONARYVAR
  5
2CA
102
{ACAD_REACTORS
330
2C8
102
}
330
2C8
100
DictionaryVariables
280
     0
  1
80.000000
  0
DICTIONARYVAR
  5
2C9
102
{ACAD_REACTORS
330
2C8
102
}
330
2C8
100
DictionaryVariables
280
     0
  1
5.000000
  0
ENDSEC
  0
EOF
