  0
SECTION
  2
HEADER
  9
$ACADVER
  1
AC1015
  9
$ACADMAINTVER
 70
     6
  9
$DWGCODEPAGE
  3
ANSI_1252
  9
$INSBASE
 10
0.0
 20
0.0
 30
0.0
  9
$EXTMIN
 10
0.0
 20
0.0
 30
0.0
  9
$EXTMAX
 10
297.0
 20
210.0
 30
0.0
  9
$LIMMIN
 10
0.0
 20
0.0
  9
$LIMMAX
 10
297.0
 20
210.0
  9
$ORTHOMODE
 70
     0
  9
$REGENMODE
 70
     1
  9
$FILLMODE
 70
     1
  9
$QTEXTMODE
 70
     0
  9
$MIRRTEXT
 70
     1
  9
$LTSCALE
 40
1.0
  9
$ATTMODE
 70
     1
  9
$TEXTSIZE
 40
2.0
  9
$TRACEWID
 40
1.0
  9
$TEXTSTYLE
  7
Standard
  9
$CLAYER
  8
0
  9
$CELTYPE
  6
ByLayer
  9
$CECOLOR
 62
   256
  9
$CELTSCALE
 40
1.0
  9
$DISPSILH
 70
     0
  9
$DIMSCALE
 40
1.0
  9
$DIMASZ
 40
3.0
  9
$DIMEXO
 40
0.0
  9
$DIMDLI
 40
3.75
  9
$DIMRND
 40
0.0
  9
$DIMDLE
 40
0.0
  9
$DIMEXE
 40
1.0
  9
$DIMTP
 40
0.0
  9
$DIMTM
 40
0.0
  9
$DIMTXT
 40
2.0
  9
$DIMCEN
 40
2.5
  9
$DIMTSZ
 40
0.0
  9
$DIMTOL
 70
     0
  9
$DIMLIM
 70
     0
  9
$DIMTIH
 70
     1
  9
$DIMTOH
 70
     1
  9
$DIMSE1
 70
     0
  9
$DIMSE2
 70
     0
  9
$DIMTAD
 70
     1
  9
$DIMZIN
 70
     0
  9
$DIMBLK
  1

  9
$DIMASO
 70
     1
  9
$DIMSHO
 70
     1
  9
$DIMPOST
  1

  9
$DIMAPOST
  1

  9
$DIMALT
 70
     0
  9
$DIMALTD
 70
     3
  9
$DIMALTF
 40
0.0393700787
  9
$DIMLFAC
 40
1.0
  9
$DIMTOFL
 70
     1
  9
$DIMTVP
 40
0.0
  9
$DIMTIX
 70
     0
  9
$DIMSOXD
 70
     0
  9
$DIMSAH
 70
     0
  9
$DIMBLK1
  1

  9
$DIMBLK2
  1

  9
$DIMSTYLE
  2
ISO-25
  9
$DIMCLRD
 70
     0
  9
$DIMCLRE
 70
     0
  9
$DIMCLRT
 70
     0
  9
$DIMTFAC
 40
1.0
  9
$DIMGAP
 40
1.524
  9
$DIMJUST
 70
     0
  9
$DIMSD1
 70
     0
  9
$DIMSD2
 70
     0
  9
$DIMTOLJ
 70
     0
  9
$DIMTZIN
 70
     0
  9
$DIMALTZ
 70
     0
  9
$DIMALTTZ
 70
     0
  9
$DIMUPT
 70
     0
  9
$DIMDEC
 70
     2
  9
$DIMTDEC
 70
     3
  9
$DIMALTU
 70
     2
  9
$DIMALTTD
 70
     3
  9
$DIMTXSTY
  7
Standard
  9
$DIMAUNIT
 70
     0
  9
$DIMADEC
 70
     2
  9
$DIMALTRND
 40
0.0
  9
$DIMAZIN
 70
     0
  9
$DIMDSEP
 70
    44
  9
$DIMATFIT
 70
     3
  9
$DIMFRAC
 70
     0
  9
$DIMLDRBLK
  1

  9
$DIMLUNIT
 70
     2
  9
$DIMLWD
 70
    -2
  9
$DIMLWE
 70
    -2
  9
$DIMTMOVE
 70
     0
  9
$LUNITS
 70
     2
  9
$LUPREC
 70
     2
  9
$SKETCHINC
 40
1.0
  9
$FILLETRAD
 40
10.0
  9
$AUNITS
 70
     0
  9
$AUPREC
 70
     2
  9
$MENU
  1
.
  9
$ELEVATION
 40
0.0
  9
$PELEVATION
 40
0.0
  9
$THICKNESS
 40
0.0
  9
$LIMCHECK
 70
     0
  9
$CHAMFERA
 40
10.0
  9
$CHAMFERB
 40
10.0
  9
$CHAMFERC
 40
20.0
  9
$CHAMFERD
 40
0.0
  9
$SKPOLY
 70
     0
  9
$TDCREATE
 40
2455642.39805463
  9
$TDUCREATE
 40
2455642.356387963
  9
$TDUPDATE
 40
2455642.398054641
  9
$TDUUPDATE
 40
2455642.356387975
  9
$TDINDWG
 40
0.0000000116
  9
$TDUSRTIMER
 40
0.0000000116
  9
$USRTIMER
 70
     1
  9
$ANGBASE
 50
0.0
  9
$ANGDIR
 70
     0
  9
$PDMODE
 70
     0
  9
$PDSIZE
 40
-1.0
  9
$PLINEWID
 40
0.0
  9
$SPLFRAME
 70
     0
  9
$SPLINETYPE
 70
     6
  9
$SPLINESEGS
 70
     8
  9
$HANDSEED
  5
2D7
  9
$SURFTAB1
 70
     6
  9
$SURFTAB2
 70
     6
  9
$SURFTYPE
 70
     6
  9
$SURFU
 70
     6
  9
$SURFV
 70
     6
  9
$UCSBASE
  2

  9
$UCSNAME
  2

  9
$UCSORG
 10
0.0
 20
0.0
 30
0.0
  9
$UCSXDIR
 10
1.0
 20
0.0
 30
0.0
  9
$UCSYDIR
 10
0.0
 20
1.0
 30
0.0
  9
$UCSORTHOREF
  2

  9
$UCSORTHOVIEW
 70
     0
  9
$UCSORGTOP
 10
0.0
 20
0.0
 30
0.0
  9
$UCSORGBOTTOM
 10
0.0
 20
0.0
 30
0.0
  9
$UCSORGLEFT
 10
0.0
 20
0.0
 30
0.0
  9
$UCSORGRIGHT
 10
0.0
 20
0.0
 30
0.0
  9
$UCSORGFRONT
 10
0.0
 20
0.0
 30
0.0
  9
$UCSORGBACK
 10
0.0
 20
0.0
 30
0.0
  9
$PUCSBASE
  2

  9
$PUCSNAME
  2

  9
$PUCSORG
 10
0.0
 20
0.0
 30
0.0
  9
$PUCSXDIR
 10
1.0
 20
0.0
 30
0.0
  9
$PUCSYDIR
 10
0.0
 20
1.0
 30
0.0
  9
$PUCSORTHOREF
  2

  9
$PUCSORTHOVIEW
 70
     0
  9
$PUCSORGTOP
 10
0.0
 20
0.0
 30
0.0
  9
$PUCSORGBOTTOM
 10
0.0
 20
0.0
 30
0.0
  9
$PUCSORGLEFT
 10
0.0
 20
0.0
 30
0.0
  9
$PUCSORGRIGHT
 10
0.0
 20
0.0
 30
0.0
  9
$PUCSORGFRONT
 10
0.0
 20
0.0
 30
0.0
  9
$PUCSORGBACK
 10
0.0
 20
0.0
 30
0.0
  9
$USERI1
 70
     0
  9
$USERI2
 70
     0
  9
$USERI3
 70
     0
  9
$USERI4
 70
     0
  9
$USERI5
 70
     0
  9
$USERR1
 40
0.0
  9
$USERR2
 40
0.0
  9
$USERR3
 40
0.0
  9
$USERR4
 40
0.0
  9
$USERR5
 40
0.0
  9
$WORLDVIEW
 70
     1
  9
$SHADEDGE
 70
     3
  9
$SHADEDIF
 70
    70
  9
$TILEMODE
 70
     1
  9
$MAXACTVP
 70
    64
  9
$PINSBASE
 10
0.0
 20
0.0
 30
0.0
  9
$PLIMCHECK
 70
     0
  9
$PEXTMIN
 10
1.0000000000E+20
 20
1.0000000000E+20
 30
1.0000000000E+20
  9
$PEXTMAX
 10
-1.0000000000E+20
 20
-1.0000000000E+20
 30
-1.0000000000E+20
  9
$PLIMMIN
 10
0.0
 20
0.0
  9
$PLIMMAX
 10
420.0
 20
297.0
  9
$UNITMODE
 70
     0
  9
$VISRETAIN
 70
     1
  9
$PLINEGEN
 70
     0
  9
$PSLTSCALE
 70
     1
  9
$TREEDEPTH
 70
  3020
  9
$CMLSTYLE
  2
Standard
  9
$CMLJUST
 70
     0
  9
$CMLSCALE
 40
20.0
  9
$PROXYGRAPHICS
 70
     1
  9
$MEASUREMENT
 70
     1
  9
$CELWEIGHT
370
    -1
  9
$ENDCAPS
280
     0
  9
$JOINSTYLE
280
     0
  9
$LWDISPLAY
290
     1
  9
$INSUNITS
 70
     4
  9
$HYPERLINKBASE
  1

  9
$STYLESHEET
  1

  9
$XEDIT
290
     1
  9
$CEPSNTYPE
380
     0
  9
$PSTYLEMODE
290
     1
  9
$FINGERPRINTGUID
  2
{E3DCD83D-33CE-4BB4-B934-80595CB80715}
  9
$VERSIONGUID
  2
{FAEB1C32-E019-11D5-929B-00C0DF256EC4}
  9
$EXTNAMES
290
     1
  9
$PSVPSCALE
 40
0.0
  9
$OLESTARTUP
290
     0
  0
ENDSEC
  0
SECTION
  2
CLASSES
  0
CLASS
  1
ACDBDICTIONARYWDFLT
  2
AcDbDictionaryWithDefault
  3
ObjectDBX Classes
 90
        0
280
     0
281
     0
  0
CLASS
  1
VISUALSTYLE
  2
AcDbVisualStyle
  3
ObjectDBX Classes
 90
     4095
280
     0
281
     0
  0
CLASS
  1
DICTIONARYVAR
  2
AcDbDictionaryVar
  3
ObjectDBX Classes
 90
        0
280
     0
281
     0
  0
CLASS
  1
ACDBPLACEHOLDER
  2
AcDbPlaceHolder
  3
ObjectDBX Classes
 90
        0
280
     0
281
     0
  0
CLASS
  1
LAYOUT
  2
AcDbLayout
  3
ObjectDBX Classes
 90
        0
280
     0
281
     0
  0
ENDSEC
  0
SECTION
  2
TABLES
  0
TABLE
  2
VPORT
  5
8
330
0
100
AcDbSymbolTable
 70
     1
  0
VPORT
  5
29
330
8
100
AcDbSymbolTableRecord
100
AcDbViewportTableRecord
  2
*Active
 70
     0
 10
0.0
 20
0.0
 11
1.0
 21
1.0
 12
148.5
 22
105.0
 13
0.0
 23
0.0
 14
10.0
 24
10.0
 15
10.0
 25
10.0
 16
0.0
 26
0.0
 36
1.0
 17
0.0
 27
0.0
 37
0.0
 40
210.0
 41
1.4142857143
 42
50.0
 43
0.0
 44
0.0
 50
0.0
 51
0.0
 71
     0
 72
  2000
 73
     1
 74
     3
 75
     0
 76
     0
 77
     0
 78
     0
281
     0
 65
     1
110
0.0
120
0.0
130
0.0
111
1.0
121
0.0
131
0.0
112
0.0
122
1.0
132
0.0
 79
     0
146
0.0
  0
ENDTAB
  0
TABLE
  2
LTYPE
  5
5
330
0
100
AcDbSymbolTable
 70
     6
  0
LTYPE
  5
14
330
5
100
AcDbSymbolTableRecord
100
AcDbLinetypeTableRecord
  2
ByBlock
 70
     0
  3

 72
    65
 73
     0
 40
0.0
  0
LTYPE
  5
15
330
5
100
AcDbSymbolTableRecord
100
AcDbLinetypeTableRecord
  2
ByLayer
 70
     0
  3

 72
    65
 73
     0
 40
0.0
  0
LTYPE
  5
16
330
5
100
AcDbSymbolTableRecord
100
AcDbLinetypeTableRecord
  2
Continuous
 70
     0
  3
Solid line
 72
    65
 73
     0
 40
0.0
  0
LTYPE
  5
3B
330
5
100
AcDbSymbolTableRecord
100
AcDbLinetypeTableRecord
  2
HIDDEN
 70
     0
  3
Hidden __ __ __ __ __ __ __ __ __ __ __ __ __ __
 72
    65
 73
     2
 40
1.905
 49
1.27
 74
     0
 49
-0.635
 74
     0
  0
LTYPE
  5
3C
330
5
100
AcDbSymbolTableRecord
100
AcDbLinetypeTableRecord
  2
PHANTOM
 70
     0
  3
Phantom ______  __  __  ______  __  __  ______
 72
    65
 73
     6
 40
12.7
 49
6.35
 74
     0
 49
-1.27
 74
     0
 49
1.27
 74
     0
 49
-1.27
 74
     0
 49
1.27
 74
     0
 49
-1.27
 74
     0
  0
LTYPE
  5
3D
330
5
100
AcDbSymbolTableRecord
100
AcDbLinetypeTableRecord
  2
CENTER
 70
     0
  3
Center ____ _ ____ _ ____ _ ____ _ ____ _ ____
 72
    65
 73
     4
 40
10.16
 49
6.35
 74
     0
 49
-1.27
 74
     0
 49
1.27
 74
     0
 49
-1.27
 74
     0
  0
LTYPE
  5
3E
330
5
100
AcDbSymbolTableRecord
100
AcDbLinetypeTableRecord
  2
CENTERX2
 70
     0
  3
Center (2x) ________  __  ________  __  _____
 72
    65
 73
     4
 40
20.32
 49
12.7
 74
     0
 49
-2.54
 74
     0
 49
2.54
 74
     0
 49
-2.54
 74
     0
  0
LTYPE
  5
3F
330
5
100
AcDbSymbolTableRecord
100
AcDbLinetypeTableRecord
  2
DOT2
 70
     0
  3
Dot (.5x) ........................................
 72
    65
 73
     2
 40
0.635
 49
0.0
 74
     0
 49
-0.635
 74
     0
  0
ENDTAB
  0
TABLE
  2
LAYER
  5
2
330
0
100
AcDbSymbolTable
 70
     5
  0
LAYER
  5
10
330
2
100
AcDbSymbolTableRecord
100
AcDbLayerTableRecord
  2
0
 70
     0
 62
     7
  6
Continuous
370
    -3
390
F
  0
LAYER
  5
40
330
2
100
AcDbSymbolTableRecord
100
AcDbLayerTableRecord
  2
FORMAT
 70
     0
 62
     7
  6
Continuous
370
    -3
390
F
  0
LAYER
  5
41
330
2
100
AcDbSymbolTableRecord
100
AcDbLayerTableRecord
  2
VERMASSUNG
 70
     0
 62
     7
  6
Continuous
370
    -3
390
F
  0
LAYER
  5
42
330
2
100
AcDbSymbolTableRecord
100
AcDbLayerTableRecord
  2
KOPF_DÜNN
 70
     0
 62
     7
  6
Continuous
370
    -3
390
F
  0
LAYER
  5
43
330
2
100
AcDbSymbolTableRecord
100
AcDbLayerTableRecord
  2
KOPF_DICK
 70
     0
 62
     7
  6
Continuous
370
    15
390
F
  0
ENDTAB
  0
TABLE
  2
STYLE
  5
3
330
0
100
AcDbSymbolTable
 70
     3
  0
STYLE
  5
11
330
3
100
AcDbSymbolTableRecord
100
AcDbTextStyleTableRecord
  2
Standard
 70
     0
 40
0.0
 41
1.0
 50
0.0
 71
     0
 42
2.5
  3
txt
  4

  0
STYLE
  5
44
330
3
100
AcDbSymbolTableRecord
100
AcDbTextStyleTableRecord
  2
SLDTEXTSTYLE0
 70
     0
 40
0.0
 41
0.7
 50
0.0
 71
     0
 42
0.2
  3
TXT
  4

  0
STYLE
  5
48
330
3
100
AcDbSymbolTableRecord
100
AcDbTextStyleTableRecord
  2
SLDTEXTSTYLE1
 70
     0
 40
0.0
 41
0.65
 50
0.0
 71
     0
 42
0.2
  3
TXT
  4

  0
ENDTAB
  0
TABLE
  2
VIEW
  5
6
330
0
100
AcDbSymbolTable
 70
     0
  0
ENDTAB
  0
TABLE
  2
UCS
  5
7
330
0
100
AcDbSymbolTable
 70
     0
  0
ENDTAB
  0
TABLE
  2
APPID
  5
9
330
0
100
AcDbSymbolTable
 70
     1
  0
APPID
  5
12
330
9
100
AcDbSymbolTableRecord
100
AcDbRegAppTableRecord
  2
ACAD
 70
     0
  0
ENDTAB
  0
TABLE
  2
DIMSTYLE
  5
A
330
0
100
AcDbSymbolTable
 70
     3
100
AcDbDimStyleTable
  0
DIMSTYLE
105
27
330
A
100
AcDbSymbolTableRecord
100
AcDbDimStyleTableRecord
  2
ISO-25
 70
     0
 41
2.5
 42
0.625
 43
3.75
 44
1.25
 73
     0
 74
     0
 77
     1
 78
     8
140
2.5
141
2.5
143
0.0393700787
147
0.625
171
     3
172
     1
271
     2
272
     2
274
     3
278
    44
283
     0
284
     8
340
11
  0
DIMSTYLE
105
279
102
{ACAD_REACTORS
330
278
330
284
330
28F
330
29B
330
2A5
330
2AF
330
2B9
102
}
330
A
100
AcDbSymbolTableRecord
100
AcDbDimStyleTableRecord
  2
SLDDIMSTYLE0
 70
     0
 41
3.0
 44
0.0
 45
0.000000001
 73
     0
 74
     0
 77
     1
 78
    12
140
2.0
147
0.5
173
     1
271
     2
272
     3
284
    12
340
44
  0
DIMSTYLE
105
2C5
102
{ACAD_REACTORS
330
2C4
102
}
330
A
100
AcDbSymbolTableRecord
100
AcDbDimStyleTableRecord
  2
SLDDIMSTYLE1
 70
     0
 41
3.0
 44
0.0
 45
0.000000001
 73
     0
 74
     0
 77
     1
 78
    12
140
2.0
147
0.5
173
     1
271
     0
272
     3
284
    12
340
44
  0
ENDTAB
  0
TABLE
  2
BLOCK_RECORD
  5
1
330
0
100
AcDbSymbolTable
 70
     9
  0
BLOCK_RECORD
  5
1F
330
1
100
AcDbSymbolTableRecord
100
AcDbBlockTableRecord
  2
*Model_Space
340
22
  0
BLOCK_RECORD
  5
1B
330
1
100
AcDbSymbolTableRecord
100
AcDbBlockTableRecord
  2
*Paper_Space
340
1E
  0
BLOCK_RECORD
  5
23
330
1
100
AcDbSymbolTableRecord
100
AcDbBlockTableRecord
  2
*Paper_Space0
340
26
  0
BLOCK_RECORD
  5
27A
330
1
100
AcDbSymbolTableRecord
100
AcDbBlockTableRecord
  2
*D1
340
0
  0
BLOCK_RECORD
  5
285
330
1
100
AcDbSymbolTableRecord
100
AcDbBlockTableRecord
  2
*D2
340
0
  0
BLOCK_RECORD
  5
290
330
1
100
AcDbSymbolTableRecord
100
AcDbBlockTableRecord
  2
*D3
340
0
  0
BLOCK_RECORD
  5
29C
330
1
100
AcDbSymbolTableRecord
100
AcDbBlockTableRecord
  2
*D4
340
0
  0
BLOCK_RECORD
  5
2A6
330
1
100
AcDbSymbolTableRecord
100
AcDbBlockTableRecord
  2
*D5
340
0
  0
BLOCK_RECORD
  5
2B0
330
1
100
AcDbSymbolTableRecord
100
AcDbBlockTableRecord
  2
*D6
340
0
  0
BLOCK_RECORD
  5
2BA
330
1
100
AcDbSymbolTableRecord
100
AcDbBlockTableRecord
  2
*D7
340
0
  0
BLOCK_RECORD
  5
2C6
330
1
100
AcDbSymbolTableRecord
100
AcDbBlockTableRecord
  2
*D8
340
0
  0
ENDTAB
  0
ENDSEC
  0
SECTION
  2
BLOCKS
  0
BLOCK
  5
20
330
1F
100
AcDbEntity
  8
0
100
AcDbBlockBegin
  2
*Model_Space
 70
     0
 10
0.0
 20
0.0
 30
0.0
  3
*Model_Space
  1

  0
ENDBLK
  5
21
330
1F
100
AcDbEntity
  8
0
100
AcDbBlockEnd
  0
BLOCK
  5
1C
330
1B
100
AcDbEntity
 67
     1
  8
0
100
AcDbBlockBegin
  2
*Paper_Space
 70
     0
 10
0.0
 20
0.0
 30
0.0
  3
*Paper_Space
  1

  0
ENDBLK
  5
1D
330
1B
100
AcDbEntity
 67
     1
  8
0
100
AcDbBlockEnd
  0
BLOCK
  5
24
330
23
100
AcDbEntity
  8
0
100
AcDbBlockBegin
  2
*Paper_Space0
 70
     0
 10
0.0
 20
0.0
 30
0.0
  3
*Paper_Space0
  1

  0
ENDBLK
  5
25
330
23
100
AcDbEntity
  8
0
100
AcDbBlockEnd
  0
BLOCK
  5
27B
330
27A
100
AcDbEntity
  8
0
100
AcDbBlockBegin
  2
*D1
 70
     1
 10
0.0
 20
0.0
 30
0.0
  3
*D1
  1

  0
SOLID
  5
27D
330
27A
100
AcDbEntity
  8
VERMASSUNG
100
AcDbTrace
 10
265.9911860111
 20
137.6798900853
 30
0.0
 11
265.5411860111
 21
134.6798900853
 31
0.0
 12
266.4411860111
 22
134.6798900853
 32
0.0
 13
266.4411860111
 23
134.6798900853
 33
0.0
  0
SOLID
  5
27E
330
27A
100
AcDbEntity
  8
VERMASSUNG
100
AcDbTrace
 10
265.9911860111
 20
87.6798900853
 30
0.0
 11
266.4411860111
 21
90.6798900853
 31
0.0
 12
265.5411860111
 22
90.6798900853
 32
0.0
 13
265.5411860111
 23
90.6798900853
 33
0.0
  0
LINE
  5
27F
330
27A
100
AcDbEntity
  8
VERMASSUNG
100
AcDbLine
 10
251.8057103025
 20
137.6798900853
 30
0.0
 11
266.9911860111
 21
137.6798900853
 31
0.0
  0
LINE
  5
280
330
27A
100
AcDbEntity
  8
VERMASSUNG
100
AcDbLine
 10
251.8057103025
 20
87.6798900853
 30
0.0
 11
266.9911860111
 21
87.6798900853
 31
0.0
  0
LINE
  5
281
330
27A
100
AcDbEntity
  8
VERMASSUNG
100
AcDbLine
 10
265.9911860111
 20
137.6798900853
 30
0.0
 11
265.9911860111
 21
87.6798900853
 31
0.0
  0
MTEXT
  5
282
330
27A
100
AcDbEntity
  8
VERMASSUNG
100
AcDbMText
 10
263.4130505315
 20
109.4767915287
 30
0.0
 40
2.0
 41
0.0
 71
     1
 72
     1
  1
%%c
  7
SLDTEXTSTYLE0
 11
-7.044195017643634E-15
 21
1.0
 31
0.0
 73
     1
 44
1.0
  0
MTEXT
  5
283
330
27A
100
AcDbEntity
  8
VERMASSUNG
100
AcDbMText
 10
263.4130506479
 20
113.0843769337
 30
0.0
 40
2.0
 41
0.0
 71
     1
 72
     1
  1
50
  7
SLDTEXTSTYLE0
 11
-7.044195017643634E-15
 21
1.0
 31
0.0
 73
     1
 44
1.0
  0
ENDBLK
  5
27C
330
27A
100
AcDbEntity
  8
0
100
AcDbBlockEnd
  0
BLOCK
  5
286
330
285
100
AcDbEntity
  8
0
100
AcDbBlockBegin
  2
*D2
 70
     1
 10
0.0
 20
0.0
 30
0.0
  3
*D2
  1

  0
SOLID
  5
288
330
285
100
AcDbEntity
  8
VERMASSUNG
100
AcDbTrace
 10
259.9911860111
 20
128.1798900853
 30
0.0
 11
259.5411860111
 21
125.1798900853
 31
0.0
 12
260.4411860111
 22
125.1798900853
 32
0.0
 13
260.4411860111
 23
125.1798900853
 33
0.0
  0
SOLID
  5
289
330
285
100
AcDbEntity
  8
VERMASSUNG
100
AcDbTrace
 10
259.9911860111
 20
97.1798900853
 30
0.0
 11
260.4411860111
 21
100.1798900853
 31
0.0
 12
259.5411860111
 22
100.1798900853
 32
0.0
 13
259.5411860111
 23
100.1798900853
 33
0.0
  0
LINE
  5
28A
330
285
100
AcDbEntity
  8
VERMASSUNG
100
AcDbLine
 10
252.3557103025
 20
128.1798900853
 30
0.0
 11
260.9911860111
 21
128.1798900853
 31
0.0
  0
LINE
  5
28B
330
285
100
AcDbEntity
  8
VERMASSUNG
100
AcDbLine
 10
252.3557103025
 20
97.1798900853
 30
0.0
 11
260.9911860111
 21
97.1798900853
 31
0.0
  0
LINE
  5
28C
330
285
100
AcDbEntity
  8
VERMASSUNG
100
AcDbLine
 10
259.9911860111
 20
128.1798900853
 30
0.0
 11
259.9911860111
 21
97.1798900853
 31
0.0
  0
MTEXT
  5
28D
330
285
100
AcDbEntity
  8
VERMASSUNG
100
AcDbMText
 10
257.4130505315
 20
109.6772129401
 30
0.0
 40
2.0
 41
0.0
 71
     1
 72
     1
  1
%%c
  7
SLDTEXTSTYLE0
 11
-7.044195017643634E-15
 21
1.0
 31
0.0
 73
     1
 44
1.0
  0
MTEXT
  5
28E
330
285
100
AcDbEntity
  8
VERMASSUNG
100
AcDbMText
 10
257.4130506479
 20
113.2847983451
 30
0.0
 40
2.0
 41
0.0
 71
     1
 72
     1
  1
31
  7
SLDTEXTSTYLE0
 11
-7.044195017643634E-15
 21
1.0
 31
0.0
 73
     1
 44
1.0
  0
ENDBLK
  5
287
330
285
100
AcDbEntity
  8
0
100
AcDbBlockEnd
  0
BLOCK
  5
291
330
290
100
AcDbEntity
  8
0
100
AcDbBlockBegin
  2
*D3
 70
     1
 10
0.0
 20
0.0
 30
0.0
  3
*D3
  1

  0
SOLID
  5
293
330
290
100
AcDbEntity
  8
VERMASSUNG
100
AcDbTrace
 10
36.3189229664
 20
162.6798900853
 30
0.0
 11
35.8689229664
 21
159.6798900853
 31
0.0
 12
36.7689229664
 22
159.6798900853
 32
0.0
 13
36.7689229664
 23
159.6798900853
 33
0.0
  0
SOLID
  5
294
330
290
100
AcDbEntity
  8
VERMASSUNG
100
AcDbTrace
 10
36.3189229664
 20
62.6798900853
 30
0.0
 11
36.7689229664
 21
65.6798900853
 31
0.0
 12
35.8689229664
 22
65.6798900853
 32
0.0
 13
35.8689229664
 23
65.6798900853
 33
0.0
  0
LINE
  5
295
330
290
100
AcDbEntity
  8
VERMASSUNG
100
AcDbLine
 10
93.6557103025
 20
162.6798900853
 30
0.0
 11
35.3189229664
 21
162.6798900853
 31
0.0
  0
LINE
  5
296
330
290
100
AcDbEntity
  8
VERMASSUNG
100
AcDbLine
 10
93.6557103025
 20
62.6798900853
 30
0.0
 11
35.3189229664
 21
62.6798900853
 31
0.0
  0
LINE
  5
297
330
290
100
AcDbEntity
  8
VERMASSUNG
100
AcDbLine
 10
36.3189229664
 20
162.6798900853
 30
0.0
 11
36.3189229664
 21
62.6798900853
 31
0.0
  0
MTEXT
  5
298
330
290
100
AcDbEntity
  8
VERMASSUNG
100
AcDbMText
 10
33.5407874773
 20
103.8524504457
 30
0.0
 40
2.0
 41
0.0
 71
     1
 72
     1
  1
HSK A 
  7
SLDTEXTSTYLE0
 11
-7.044195017643634E-15
 21
1.0
 31
0.0
 73
     1
 44
1.0
  0
MTEXT
  5
299
330
290
100
AcDbEntity
  8
VERMASSUNG
100
AcDbMText
 10
33.7407874868
 20
112.8524509896
 30
0.0
 40
2.0
 41
0.0
 71
     1
 72
     1
  1
%%c
  7
SLDTEXTSTYLE0
 11
-7.044195017643634E-15
 21
1.0
 31
0.0
 73
     1
 44
1.0
  0
MTEXT
  5
29A
330
290
100
AcDbEntity
  8
VERMASSUNG
100
AcDbMText
 10
33.7407876032
 20
116.4607792348
 30
0.0
 40
2.0
 41
0.0
 71
     1
 72
     1
  1
100
  7
SLDTEXTSTYLE0
 11
-7.044195017643634E-15
 21
1.0
 31
0.0
 73
     1
 44
1.0
  0
ENDBLK
  5
292
330
290
100
AcDbEntity
  8
0
100
AcDbBlockEnd
  0
BLOCK
  5
29D
330
29C
100
AcDbEntity
  8
0
100
AcDbBlockBegin
  2
*D4
 70
     1
 10
0.0
 20
0.0
 30
0.0
  3
*D4
  1

  0
SOLID
  5
29F
330
29C
100
AcDbEntity
  8
VERMASSUNG
100
AcDbTrace
 10
43.2557103025
 20
181.4974393048
 30
0.0
 11
46.2557103025
 21
181.0474393048
 31
0.0
 12
46.2557103025
 22
181.9474393048
 32
0.0
 13
46.2557103025
 23
181.9474393048
 33
0.0
  0
SOLID
  5
2A0
330
29C
100
AcDbEntity
  8
VERMASSUNG
100
AcDbTrace
 10
253.1557103025
 20
181.4974393048
 30
0.0
 11
250.1557103025
 21
181.9474393048
 31
0.0
 12
250.1557103025
 22
181.0474393048
 32
0.0
 13
250.1557103025
 23
181.0474393048
 33
0.0
  0
LINE
  5
2A1
330
29C
100
AcDbEntity
  8
VERMASSUNG
100
AcDbLine
 10
43.2557103025
 20
143.1825598278
 30
0.0
 11
43.2557103025
 21
182.4974393048
 31
0.0
  0
LINE
  5
2A2
330
29C
100
AcDbEntity
  8
VERMASSUNG
100
AcDbLine
 10
253.1557103025
 20
131.8798900853
 30
0.0
 11
253.1557103025
 21
182.4974393048
 31
0.0
  0
LINE
  5
2A3
330
29C
100
AcDbEntity
  8
VERMASSUNG
100
AcDbLine
 10
43.2557103025
 20
181.4974393048
 30
0.0
 11
253.1557103025
 21
181.4974393048
 31
0.0
  0
MTEXT
  5
2A4
330
29C
100
AcDbEntity
  8
VERMASSUNG
100
AcDbMText
 10
153.739281991
 20
184.0755746679
 30
0.0
 40
2.0
 41
0.0
 71
     1
 72
     1
  1
209.9
  7
SLDTEXTSTYLE0
 73
     1
 44
1.0
  0
ENDBLK
  5
29E
330
29C
100
AcDbEntity
  8
0
100
AcDbBlockEnd
  0
BLOCK
  5
2A7
330
2A6
100
AcDbEntity
  8
0
100
AcDbBlockBegin
  2
*D5
 70
     1
 10
0.0
 20
0.0
 30
0.0
  3
*D5
  1

  0
SOLID
  5
2A9
330
2A6
100
AcDbEntity
  8
VERMASSUNG
100
AcDbTrace
 10
253.1557103025
 20
175.4974393048
 30
0.0
 11
250.1557103025
 21
175.9474393048
 31
0.0
 12
250.1557103025
 22
175.0474393048
 32
0.0
 13
250.1557103025
 23
175.0474393048
 33
0.0
  0
SOLID
  5
2AA
330
2A6
100
AcDbEntity
  8
VERMASSUNG
100
AcDbTrace
 10
93.1557103025
 20
175.4974393048
 30
0.0
 11
96.1557103025
 21
175.0474393048
 31
0.0
 12
96.1557103025
 22
175.9474393048
 32
0.0
 13
96.1557103025
 23
175.9474393048
 33
0.0
  0
LINE
  5
2AB
330
2A6
100
AcDbEntity
  8
VERMASSUNG
100
AcDbLine
 10
253.1557103025
 20
131.8798900853
 30
0.0
 11
253.1557103025
 21
176.4974393048
 31
0.0
  0
LINE
  5
2AC
330
2A6
100
AcDbEntity
  8
VERMASSUNG
100
AcDbLine
 10
93.1557103025
 20
162.1798900853
 30
0.0
 11
93.1557103025
 21
176.4974393048
 31
0.0
  0
LINE
  5
2AD
330
2A6
100
AcDbEntity
  8
VERMASSUNG
100
AcDbLine
 10
253.1557103025
 20
175.4974393048
 30
0.0
 11
93.1557103025
 21
175.4974393048
 31
0.0
  0
MTEXT
  5
2AE
330
2A6
100
AcDbEntity
  8
VERMASSUNG
100
AcDbMText
 10
171.7105419277
 20
178.0755746679
 30
0.0
 40
2.0
 41
0.0
 71
     1
 72
     1
  1
160
  7
SLDTEXTSTYLE0
 73
     1
 44
1.0
  0
ENDBLK
  5
2A8
330
2A6
100
AcDbEntity
  8
0
100
AcDbBlockEnd
  0
BLOCK
  5
2B1
330
2B0
100
AcDbEntity
  8
0
100
AcDbBlockBegin
  2
*D6
 70
     1
 10
0.0
 20
0.0
 30
0.0
  3
*D6
  1

  0
SOLID
  5
2B3
330
2B0
100
AcDbEntity
  8
VERMASSUNG
100
AcDbTrace
 10
122.1057103025
 20
169.4974393048
 30
0.0
 11
125.1057103025
 21
169.0474393048
 31
0.0
 12
125.1057103025
 22
169.9474393048
 32
0.0
 13
125.1057103025
 23
169.9474393048
 33
0.0
  0
SOLID
  5
2B4
330
2B0
100
AcDbEntity
  8
VERMASSUNG
100
AcDbTrace
 10
253.1557103025
 20
169.4974393048
 30
0.0
 11
250.1557103025
 21
169.9474393048
 31
0.0
 12
250.1557103025
 22
169.0474393048
 32
0.0
 13
250.1557103025
 23
169.0474393048
 33
0.0
  0
LINE
  5
2B5
330
2B0
100
AcDbEntity
  8
VERMASSUNG
100
AcDbLine
 10
122.1057103025
 20
160.6486299061
 30
0.0
 11
122.1057103025
 21
170.4974393048
 31
0.0
  0
LINE
  5
2B6
330
2B0
100
AcDbEntity
  8
VERMASSUNG
100
AcDbLine
 10
253.1557103025
 20
131.8798900853
 30
0.0
 11
253.1557103025
 21
170.4974393048
 31
0.0
  0
LINE
  5
2B7
330
2B0
100
AcDbEntity
  8
VERMASSUNG
100
AcDbLine
 10
122.1057103025
 20
169.4974393048
 30
0.0
 11
253.1557103025
 21
169.4974393048
 31
0.0
  0
MTEXT
  5
2B8
330
2B0
100
AcDbEntity
  8
VERMASSUNG
100
AcDbMText
 10
181.71446508
 20
172.0755746679
 30
0.0
 40
2.0
 41
0.0
 71
     1
 72
     1
  1
131.05
  7
SLDTEXTSTYLE0
 73
     1
 44
1.0
  0
ENDBLK
  5
2B2
330
2B0
100
AcDbEntity
  8
0
100
AcDbBlockEnd
  0
BLOCK
  5
2BB
330
2BA
100
AcDbEntity
  8
0
100
AcDbBlockBegin
  2
*D7
 70
     1
 10
0.0
 20
0.0
 30
0.0
  3
*D7
  1

  0
SOLID
  5
2BD
330
2BA
100
AcDbEntity
  8
VERMASSUNG
100
AcDbTrace
 10
271.9911860111
 20
138.6798900853
 30
0.0
 11
271.5411860111
 21
135.6798900853
 31
0.0
 12
272.4411860111
 22
135.6798900853
 32
0.0
 13
272.4411860111
 23
135.6798900853
 33
0.0
  0
SOLID
  5
2BE
330
2BA
100
AcDbEntity
  8
VERMASSUNG
100
AcDbTrace
 10
271.9911860111
 20
86.6798900853
 30
0.0
 11
272.4411860111
 21
89.6798900853
 31
0.0
 12
271.5411860111
 22
89.6798900853
 32
0.0
 13
271.5411860111
 23
89.6798900853
 33
0.0
  0
LINE
  5
2BF
330
2BA
100
AcDbEntity
  8
VERMASSUNG
100
AcDbLine
 10
170.1057103025
 20
138.6798900853
 30
0.0
 11
272.9911860111
 21
138.6798900853
 31
0.0
  0
LINE
  5
2C0
330
2BA
100
AcDbEntity
  8
VERMASSUNG
100
AcDbLine
 10
170.1057103025
 20
86.6798900853
 30
0.0
 11
272.9911860111
 21
86.6798900853
 31
0.0
  0
LINE
  5
2C1
330
2BA
100
AcDbEntity
  8
VERMASSUNG
100
AcDbLine
 10
271.9911860111
 20
138.6798900853
 30
0.0
 11
271.9911860111
 21
86.6798900853
 31
0.0
  0
MTEXT
  5
2C2
330
2BA
100
AcDbEntity
  8
VERMASSUNG
100
AcDbMText
 10
269.4130505315
 20
109.4767915287
 30
0.0
 40
2.0
 41
0.0
 71
     1
 72
     1
  1
%%c
  7
SLDTEXTSTYLE0
 11
-7.044195017643634E-15
 21
1.0
 31
0.0
 73
     1
 44
1.0
  0
MTEXT
  5
2C3
330
2BA
100
AcDbEntity
  8
VERMASSUNG
100
AcDbMText
 10
269.4130506479
 20
113.0843769337
 30
0.0
 40
2.0
 41
0.0
 71
     1
 72
     1
  1
52
  7
SLDTEXTSTYLE0
 11
-7.044195017643634E-15
 21
1.0
 31
0.0
 73
     1
 44
1.0
  0
ENDBLK
  5
2BC
330
2BA
100
AcDbEntity
  8
0
100
AcDbBlockEnd
  0
BLOCK
  5
2C7
330
2C6
100
AcDbEntity
  8
0
100
AcDbBlockBegin
  2
*D8
 70
     1
 10
0.0
 20
0.0
 30
0.0
  3
*D8
  1

  0
SOLID
  5
2C9
330
2C6
100
AcDbEntity
  8
VERMASSUNG
100
AcDbTrace
 10
277.9911860111
 20
142.8037003022
 30
0.0
 11
277.5411860111
 21
139.8037003022
 31
0.0
 12
278.4411860111
 22
139.8037003022
 32
0.0
 13
278.4411860111
 23
139.8037003022
 33
0.0
  0
SOLID
  5
2CA
330
2C6
100
AcDbEntity
  8
VERMASSUNG
100
AcDbTrace
 10
277.9911860111
 20
82.5560798683
 30
0.0
 11
278.4411860111
 21
85.5560798683
 31
0.0
 12
277.5411860111
 22
85.5560798683
 32
0.0
 13
277.5411860111
 23
85.5560798683
 33
0.0
  0
LINE
  5
2CB
330
2C6
100
AcDbEntity
  8
VERMASSUNG
100
AcDbLine
 10
125.6846576709
 20
142.8037003022
 30
0.0
 11
278.9911860111
 21
142.8037003022
 31
0.0
  0
LINE
  5
2CC
330
2C6
100
AcDbEntity
  8
VERMASSUNG
100
AcDbLine
 10
125.6846576709
 20
82.5560798683
 30
0.0
 11
278.9911860111
 21
82.5560798683
 31
0.0
  0
LINE
  5
2CD
330
2C6
100
AcDbEntity
  8
VERMASSUNG
100
AcDbLine
 10
277.9911860111
 20
142.8037003022
 30
0.0
 11
277.9911860111
 21
82.5560798683
 31
0.0
  0
MTEXT
  5
2CE
330
2C6
100
AcDbEntity
  8
VERMASSUNG
100
AcDbMText
 10
275.4130505315
 20
109.4767915287
 30
0.0
 40
2.0
 41
0.0
 71
     1
 72
     1
  1
%%c
  7
SLDTEXTSTYLE0
 11
-5.267838178243384E-15
 21
1.0
 31
0.0
 73
     1
 44
1.0
  0
MTEXT
  5
2CF
330
2C6
100
AcDbEntity
  8
VERMASSUNG
100
AcDbMText
 10
275.4130506479
 20
113.0843769337
 30
0.0
 40
2.0
 41
0.0
 71
     1
 72
     1
  1
60
  7
SLDTEXTSTYLE0
 11
-5.267838178243384E-15
 21
1.0
 31
0.0
 73
     1
 44
1.0
  0
ENDBLK
  5
2C8
330
2C6
100
AcDbEntity
  8
0
100
AcDbBlockEnd
  0
ENDSEC
  0
SECTION
  2
ENTITIES
  0
MTEXT
  5
45
330
1F
100
AcDbEntity
  8
KOPF_DÜNN
100
AcDbMText
 10
13.8892156294
 20
23.8442973028
 30
0.0
 40
3.0
 41
0.0
 71
     1
 72
     1
  1
HA0.Go2.K01.160
  7
SLDTEXTSTYLE0
 73
     1
 44
1.0
  0
MTEXT
  5
46
330
1F
100
AcDbEntity
  8
VERMASSUNG
100
AcDbMText
 10
13.9329988022
 20
28.8834360957
 30
0.0
 40
3.0
 41
0.0
 71
     1
 72
     1
  1
Gewindeschneidfutter_Tapping chuck
  7
SLDTEXTSTYLE0
 73
     1
 44
1.0
  0
MTEXT
  5
47
330
1F
100
AcDbEntity
  8
VERMASSUNG
100
AcDbMText
 10
98.8601118557
 20
13.8365368179
 30
0.0
 40
2.0
 41
0.0
 71
     1
 72
     1
  1
Datum: 12.10.2006
  7
SLDTEXTSTYLE0
 73
     1
 44
1.0
  0
MTEXT
  5
49
330
1F
100
AcDbEntity
  8
VERMASSUNG
100
AcDbMText
 10
13.933048693
 20
18.0482802738
 30
0.0
 40
2.0
 41
0.0
 71
     1
 72
     1
  1
DIN 69 893 HSK A 100
  7
SLDTEXTSTYLE1
 73
     1
 44
1.0
  0
MTEXT
  5
4A
330
1F
100
AcDbEntity
  8
VERMASSUNG
100
AcDbMText
 10
13.9808475933
 20
13.9090973692
 30
0.0
 40
2.0
 41
0.0
 71
     1
 72
     1
  1
Gewicht: 3739g
  7
SLDTEXTSTYLE0
 73
     1
 44
1.0
  0
ARC
  5
4B
330
1F
100
AcDbEntity
  8
0
  6
Continuous
 62
     7
370
    15
100
AcDbCircle
 10
93.6557103025
 20
63.1798900853
 30
0.0
 40
0.5000000000000142
100
AcDbArc
 50
180.0
 51
270.0
  0
ARC
  5
4C
330
1F
100
AcDbEntity
  8
0
  6
Continuous
 62
     7
370
    15
100
AcDbCircle
 10
93.6557103025
 20
162.1798900853
 30
0.0
 40
0.5000000000000142
100
AcDbArc
 50
90.0
 51
180.0
  0
LINE
  5
4D
330
1F
100
AcDbEntity
  8
0
  6
Continuous
 62
     7
370
    15
100
AcDbLine
 10
93.6557103262
 20
62.6798893402
 30
0.0
 11
98.1057102756
 21
62.6798893402
 31
0.0
  0
LINE
  5
4E
330
1F
100
AcDbEntity
  8
0
  6
Continuous
 62
     7
370
    15
100
AcDbLine
 10
98.1397831777
 20
162.6798908303
 30
0.0
 11
93.6557103262
 21
162.6798908303
 31
0.0
  0
ARC
  5
4F
330
1F
100
AcDbEntity
  8
0
  6
Continuous
 62
     7
370
    15
100
AcDbCircle
 10
92.258773384
 20
74.0514047608
 30
0.0
 40
0.996233821438679
100
AcDbArc
 50
25.7988228126
 51
90.0
  0
ARC
  5
50
330
1F
100
AcDbEntity
  8
0
  6
Continuous
 62
     7
370
    15
100
AcDbCircle
 10
92.258773384
 20
151.3083754097
 30
0.0
 40
0.9962338214386665
100
AcDbArc
 50
270.0
 51
334.2011771874
  0
LINE
  5
51
330
1F
100
AcDbEntity
  8
0
  6
Continuous
 62
     7
370
    15
100
AcDbLine
 10
90.6557103584
 20
74.7976402829
 30
0.0
 11
91.4615564246
 21
75.0135655592
 31
0.0
  0
LINE
  5
52
330
1F
100
AcDbEntity
  8
0
  6
Continuous
 62
     7
370
    15
100
AcDbLine
 10
91.4615564246
 20
150.3462146114
 30
0.0
 11
90.6557103584
 21
150.5621398876
 31
0.0
  0
LINE
  5
53
330
1F
100
AcDbEntity
  8
0
  6
Continuous
 62
     7
370
    15
100
AcDbLine
 10
71.6750307904
 20
149.6112073849
 30
0.0
 11
53.3557108568
 21
148.6934038888
 31
0.0
  0
LINE
  5
54
330
1F
100
AcDbEntity
  8
0
  6
Continuous
 62
     7
370
    15
100
AcDbLine
 10
90.6557103584
 20
150.5621398876
 30
0.0
 11
84.5876711385
 21
150.2581301222
 31
0.0
  0
LINE
  5
55
330
1F
100
AcDbEntity
  8
0
  6
Continuous
 62
     7
370
    15
100
AcDbLine
 10
84.5877940731
 20
75.1016425977
 30
0.0
 11
90.6557103584
 21
74.7976402829
 31
0.0
  0
LINE
  5
56
330
1F
100
AcDbEntity
  8
0
  6
Continuous
 62
     7
370
    15
100
AcDbLine
 10
58.3557098137
 20
76.4158765863
 30
0.0
 11
71.6756622272
 21
75.7485429834
 31
0.0
  0
ARC
  5
57
330
1F
100
AcDbEntity
  8
0
  6
Continuous
 62
     7
370
    15
100
AcDbCircle
 10
91.720375502
 20
74.0476385823
 30
0.0
 40
0.9999999999999858
100
AcDbArc
 50
90.0
 51
105.0
  0
ARC
  5
58
330
1F
100
AcDbEntity
  8
0
  6
Continuous
 62
     7
370
    15
100
AcDbCircle
 10
91.720375502
 20
151.3121415883
 30
0.0
 40
1.000000000000027
100
AcDbArc
 50
255.0
 51
270.0
  0
LINE
  5
59
330
1F
100
AcDbEntity
  8
0
  6
Continuous
 62
     7
370
    15
100
AcDbLine
 10
91.7203755082
 20
75.0476370643
 30
0.0
 11
92.2587733797
 21
75.0476370643
 31
0.0
  0
LINE
  5
5A
330
1F
100
AcDbEntity
  8
0
  6
Continuous
 62
     7
370
    15
100
AcDbLine
 10
92.2587733797
 20
150.3121431063
 30
0.0
 11
91.7203755082
 21
150.3121431063
 31
0.0
  0
ARC
  5
5B
330
1F
100
AcDbEntity
  8
0
  6
Continuous
 62
     7
370
    15
100
AcDbCircle
 10
127.1057103025
 20
77.7622703792
 30
0.0
 40
5.000000000000014
100
AcDbArc
 50
106.5116637356
 51
180.0
  0
ARC
  5
5C
330
1F
100
AcDbEntity
  8
0
  6
Continuous
 62
     7
370
    15
100
AcDbCircle
 10
127.1057103025
 20
147.5975097914
 30
0.0
 40
5.000000000000014
100
AcDbArc
 50
180.0
 51
253.4883362644
  0
ARC
  5
5D
330
1F
100
AcDbEntity
  8
0
  6
Continuous
 62
     7
370
    15
100
AcDbCircle
 10
154.1057103025
 20
-13.3201099147
 30
0.0
 40
100.0
100
AcDbArc
 50
90.0
 51
106.5116637356
  0
ARC
  5
5E
330
1F
100
AcDbEntity
  8
0
  6
Continuous
 62
     7
370
    15
100
AcDbCircle
 10
154.1057103025
 20
238.6798900853
 30
0.0
 40
99.99999999999997
100
AcDbArc
 50
253.4883362644
 51
270.0
  0
LINE
  5
5F
330
1F
100
AcDbEntity
  8
0
  6
Continuous
 62
     7
370
    15
100
AcDbLine
 10
154.1057101415
 20
86.6798895488
 30
0.0
 11
170.1057090389
 21
86.6798895488
 31
0.0
  0
LINE
  5
60
330
1F
100
AcDbEntity
  8
0
  6
Continuous
 62
     7
370
    15
100
AcDbLine
 10
170.1057090389
 20
138.6798906217
 30
0.0
 11
154.1057101415
 21
138.6798906217
 31
0.0
  0
ARC
  5
61
330
1F
100
AcDbEntity
  8
0
  6
Continuous
 62
     7
370
    15
100
AcDbCircle
 10
193.9145190715
 20
215.0548900853
 30
0.0
 40
80.0
100
AcDbArc
 50
252.6858828298
 51
270.0
  0
ARC
  5
62
330
1F
100
AcDbEntity
  8
0
  6
Continuous
 62
     7
370
    15
100
AcDbCircle
 10
193.9145190715
 20
10.3048900853
 30
0.0
 40
80.0
100
AcDbArc
 50
90.0
 51
107.3141171702
  0
LINE
  5
63
330
1F
100
AcDbEntity
  8
0
  6
Continuous
 62
     7
370
    15
100
AcDbLine
 10
203.7057115661
 20
135.054890726
 30
0.0
 11
193.9145161735
 21
135.054890726
 31
0.0
  0
LINE
  5
64
330
1F
100
AcDbEntity
  8
0
  6
Continuous
 62
     7
370
    15
100
AcDbLine
 10
193.9145161735
 20
90.3048894445
 30
0.0
 11
203.7057115661
 21
90.3048894445
 31
0.0
  0
LINE
  5
65
330
1F
100
AcDbEntity
  8
0
  6
Continuous
 62
     7
370
    15
100
AcDbLine
 10
253.1557067262
 20
131.8798909972
 30
0.0
 11
252.8057082521
 21
132.2298894714
 31
0.0
  0
LINE
  5
66
330
1F
100
AcDbEntity
  8
0
  6
Continuous
 62
     7
370
    15
100
AcDbLine
 10
252.8057082521
 20
93.1298906992
 30
0.0
 11
253.1557067262
 21
93.4798891733
 31
0.0
  0
LINE
  5
67
330
1F
100
AcDbEntity
  8
0
  6
Continuous
 62
     7
370
    15
100
AcDbLine
 10
44.9057093786
 20
80.429891784
 30
0.0
 11
56.4557111787
 21
80.429891784
 31
0.0
  0
ARC
  5
68
330
1F
100
AcDbEntity
  8
0
  6
Continuous
 62
     7
370
    15
100
AcDbCircle
 10
56.4557103025
 20
78.5298900853
 30
0.0
 40
1.900000000000001
100
AcDbArc
 50
35.6630613694
 51
90.0
  0
ARC
  5
69
330
1F
100
AcDbEntity
  8
0
  6
Continuous
 62
     7
370
    15
100
AcDbCircle
 10
51.4557103025
 20
146.8298900853
 30
0.0
 40
1.900000000000006
100
AcDbArc
 50
270.0
 51
310.9212832533
  0
LINE
  5
6A
330
1F
100
AcDbEntity
  8
0
  6
Continuous
 62
     7
370
    15
100
AcDbLine
 10
44.9057093786
 20
144.9298883865
 30
0.0
 11
43.3063938247
 21
143.3305746953
 31
0.0
  0
LINE
  5
6B
330
1F
100
AcDbEntity
  8
0
  6
Continuous
 62
     7
370
    15
100
AcDbLine
 10
43.307232015
 20
82.0283691476
 30
0.0
 11
44.9057093786
 21
80.429891784
 31
0.0
  0
LINE
  5
6C
330
1F
100
AcDbEntity
  8
0
  6
Continuous
 62
     7
370
    15
100
AcDbLine
 10
51.4557084965
 20
144.9298883865
 30
0.0
 11
44.9057093786
 21
144.9298883865
 31
0.0
  0
LINE
  5
6D
330
1F
100
AcDbEntity
  8
0
  6
Continuous
 62
     7
370
    15
100
AcDbLine
 10
212.2057138907
 20
137.6798904578
 30
0.0
 11
204.7057135926
 21
137.6798904578
 31
0.0
  0
LINE
  5
6E
330
1F
100
AcDbEntity
  8
0
  6
Continuous
 62
     7
370
    15
100
AcDbLine
 10
204.7057135926
 20
87.6798897128
 30
0.0
 11
212.2057138907
 21
87.6798897128
 31
0.0
  0
ARC
  5
6F
330
1F
100
AcDbEntity
  8
0
  6
Continuous
 62
     7
370
    15
100
AcDbCircle
 10
243.9184119679
 20
137.7798900853
 30
0.0
 40
0.4000000000000341
100
AcDbArc
 50
270.0
 51
345.5224878141
  0
ARC
  5
70
330
1F
100
AcDbEntity
  8
0
  6
Continuous
 62
     7
370
    15
100
AcDbCircle
 10
243.9184119679
 20
87.5798900853
 30
0.0
 40
0.4000000000000199
100
AcDbArc
 50
14.4775121859
 51
90.0
  0
ARC
  5
71
330
1F
100
AcDbEntity
  8
0
  6
Continuous
 62
     7
370
    15
100
AcDbCircle
 10
236.1930086371
 20
137.7798900853
 30
0.0
 40
0.4000000000000222
100
AcDbArc
 50
194.4775121859
 51
270.0
  0
ARC
  5
72
330
1F
100
AcDbEntity
  8
0
  6
Continuous
 62
     7
370
    15
100
AcDbCircle
 10
236.1930086371
 20
87.5798900853
 30
0.0
 40
0.4000000000000258
100
AcDbArc
 50
90.0
 51
165.5224878141
  0
ARC
  5
73
330
1F
100
AcDbEntity
  8
0
  6
Continuous
 62
     7
370
    15
100
AcDbCircle
 10
212.5930086371
 20
137.7798900853
 30
0.0
 40
0.4000000000000364
100
AcDbArc
 50
194.4775121859
 51
270.0
  0
ARC
  5
74
330
1F
100
AcDbEntity
  8
0
  6
Continuous
 62
     7
370
    15
100
AcDbCircle
 10
212.5930086371
 20
87.5798900853
 30
0.0
 40
0.4000000000000329
100
AcDbArc
 50
90.0
 51
165.5224878141
  0
ARC
  5
75
330
1F
100
AcDbEntity
  8
0
  6
Continuous
 62
     7
370
    15
100
AcDbCircle
 10
251.8057103025
 20
136.6798900853
 30
0.0
 40
1.0
100
AcDbArc
 50
0.0
 51
90.0
  0
ARC
  5
76
330
1F
100
AcDbEntity
  8
0
  6
Continuous
 62
     7
370
    15
100
AcDbCircle
 10
251.8057103025
 20
88.6798900853
 30
0.0
 40
1.0
100
AcDbArc
 50
270.0
 51
0.0
  0
LINE
  5
77
330
1F
100
AcDbEntity
  8
0
  6
Continuous
 62
     7
370
    15
100
AcDbLine
 10
235.8057036029
 20
137.6798904578
 30
0.0
 11
220.7057162153
 21
137.6798904578
 31
0.0
  0
LINE
  5
78
330
1F
100
AcDbEntity
  8
0
  6
Continuous
 62
     7
370
    15
100
AcDbLine
 10
220.7057162153
 20
87.6798897128
 30
0.0
 11
235.8057036029
 21
87.6798897128
 31
0.0
  0
LINE
  5
79
330
1F
100
AcDbEntity
  8
0
  6
Continuous
 62
     7
370
    15
100
AcDbLine
 10
251.8057062255
 20
137.6798904578
 30
0.0
 11
244.3057133781
 21
137.6798904578
 31
0.0
  0
LINE
  5
7A
330
1F
100
AcDbEntity
  8
0
  6
Continuous
 62
     7
370
    15
100
AcDbLine
 10
244.3057133781
 20
87.6798897128
 30
0.0
 11
251.8057062255
 21
87.6798897128
 31
0.0
  0
ARC
  5
7B
330
1F
100
AcDbEntity
  8
0
  6
Continuous
 62
     7
370
    15
100
AcDbCircle
 10
220.3184119679
 20
137.7798900853
 30
0.0
 40
0.4000000000000057
100
AcDbArc
 50
270.0
 51
345.5224878141
  0
ARC
  5
7C
330
1F
100
AcDbEntity
  8
0
  6
Continuous
 62
     7
370
    15
100
AcDbCircle
 10
220.3184119679
 20
87.5798900853
 30
0.0
 40
0.4000000000000057
100
AcDbArc
 50
14.4775121859
 51
90.0
  0
ARC
  5
7D
330
1F
100
AcDbEntity
  8
0
  6
Continuous
 62
     7
370
    15
100
AcDbCircle
 10
204.7057103025
 20
136.6798900853
 30
0.0
 40
1.0
100
AcDbArc
 50
90.0
 51
180.0
  0
ARC
  5
7E
330
1F
100
AcDbEntity
  8
0
  6
Continuous
 62
     7
370
    15
100
AcDbCircle
 10
204.7057103025
 20
88.6798900853
 30
0.0
 40
1.0
100
AcDbArc
 50
180.0
 51
270.0
  0
LINE
  5
7F
330
1F
100
AcDbEntity
  8
0
  6
Continuous
 62
     7
370
    15
100
AcDbLine
 10
243.9184172975
 20
137.3798909674
 30
0.0
 11
236.1930145847
 21
137.3798909674
 31
0.0
  0
LINE
  5
80
330
1F
100
AcDbEntity
  8
0
  6
Continuous
 62
     7
370
    15
100
AcDbLine
 10
236.1930145847
 20
87.9798892031
 30
0.0
 11
243.9184172975
 21
87.9798892031
 31
0.0
  0
LINE
  5
81
330
1F
100
AcDbEntity
  8
0
  6
Continuous
 62
     7
370
    15
100
AcDbLine
 10
220.3184052335
 20
137.3798909674
 30
0.0
 11
212.5930099713
 21
137.3798909674
 31
0.0
  0
LINE
  5
82
330
1F
100
AcDbEntity
  8
0
  6
Continuous
 62
     7
370
    15
100
AcDbLine
 10
212.5930099713
 20
87.9798892031
 30
0.0
 11
220.3184052335
 21
87.9798892031
 31
0.0
  0
LINE
  5
83
330
1F
100
AcDbEntity
  8
0
  6
Continuous
 62
     7
370
    15
100
AcDbLine
 10
121.1057103204
 20
63.9048951755
 30
0.0
 11
116.4177398162
 21
63.9048951755
 31
0.0
  0
LINE
  5
84
330
1F
100
AcDbEntity
  8
0
  6
Continuous
 62
     7
370
    15
100
AcDbLine
 10
116.4177398162
 20
63.9048951755
 30
0.0
 11
116.4177398162
 21
144.0298917781
 31
0.0
  0
LINE
  5
85
330
1F
100
AcDbEntity
  8
0
  6
Continuous
 62
     7
370
    15
100
AcDbLine
 10
116.4177398162
 20
144.0298917781
 30
0.0
 11
121.1057103204
 21
144.0298917781
 31
0.0
  0
LINE
  5
86
330
1F
100
AcDbEntity
  8
0
  6
Continuous
 62
     7
370
    15
100
AcDbLine
 10
93.1557103025
 20
63.1798903535
 30
0.0
 11
93.1557103025
 21
162.1798898171
 31
0.0
  0
LINE
  5
87
330
1F
100
AcDbEntity
  8
0
  6
Continuous
 62
     7
370
    15
100
AcDbLine
 10
98.1057102756
 20
144.0298917781
 30
0.0
 11
109.8936817573
 21
144.0298917781
 31
0.0
  0
LINE
  5
88
330
1F
100
AcDbEntity
  8
0
  6
Continuous
 62
     7
370
    15
100
AcDbLine
 10
109.8936817573
 20
63.9048951755
 30
0.0
 11
109.8936817573
 21
144.0298917781
 31
0.0
  0
LINE
  5
89
330
1F
100
AcDbEntity
  8
0
  6
Continuous
 62
     7
370
    15
100
AcDbLine
 10
109.8936817573
 20
63.9048951755
 30
0.0
 11
108.1057100521
 21
63.9048951755
 31
0.0
  0
SPLINE
  5
8A
330
1F
100
AcDbEntity
  8
0
  6
Continuous
 62
     7
370
    15
100
AcDbSpline
210
0.0
220
0.0
230
1.0
 70
     8
 71
     3
 72
    30
 73
    26
 74
     0
 42
0.00000001
 43
0.00000001
 40
0.0
 40
0.0
 40
0.0
 40
0.0
 40
0.1250000000000002
 40
0.1250000000000002
 40
0.1875000000000003
 40
0.1875000000000003
 40
0.2500000000000004
 40
0.2500000000000004
 40
0.3750000000000001
 40
0.3750000000000001
 40
0.4374999999999998
 40
0.4374999999999998
 40
0.4999999999999996
 40
0.4999999999999996
 40
0.6249999999999996
 40
0.6249999999999996
 40
0.6874999999999997
 40
0.6874999999999997
 40
0.7499999999999997
 40
0.7499999999999997
 40
0.8124999999999998
 40
0.8124999999999998
 40
0.8749999999999999
 40
0.8749999999999999
 40
1.0
 40
1.0
 40
1.0
 40
1.0
 10
108.1057103024714
 20
63.90489649225184
 30
0.0
 10
107.4429656086264
 20
63.90489649225184
 30
0.0
 10
106.7917097495106
 20
63.89005641566303
 30
0.0
 10
105.8312592112524
 20
63.84768685143341
 30
0.0
 10
105.5138677680194
 20
63.83020874865424
 30
0.0
 10
104.8847042664645
 20
63.78888046210193
 30
0.0
 10
104.5725560800228
 20
63.76495518864422
 30
0.0
 10
103.6652487781746
 20
63.68614867217731
 30
0.0
 10
103.0918238205333
 20
63.62384265220086
 30
0.0
 10
102.2779469509587
 20
63.5207133319615
 30
0.0
 10
102.0131407543888
 20
63.48452941291499
 30
0.0
 10
101.5062333435745
 20
63.41073462871448
 30
0.0
 10
101.264839192221
 20
63.37326076994283
 30
0.0
 10
100.5756977200886
 20
63.26054882660309
 30
0.0
 10
100.1626429052244
 20
63.18501272912933
 30
0.0
 10
99.61448808584933
 20
63.07661947211182
 30
0.0
 10
99.44502547850375
 20
63.04154724044855
 30
0.0
 10
99.13700823048838
 20
62.97531177984872
 30
0.0
 10
98.99762820988
 20
62.94398508309398
 30
0.0
 10
98.74784269725328
 20
62.88557631151306
 30
0.0
 10
98.63743658459936
 20
62.85849307633021
 30
0.0
 10
98.44617873096162
 20
62.80923332171662
 30
0.0
 10
98.36505921267732
 20
62.78697134190897
 30
0.0
 10
98.17091229256894
 20
62.7294044347407
 30
0.0
 10
98.1057103024714
 20
62.7031448299547
 30
0.0
 10
98.1057103024714
 20
62.68989108548067
 30
0.0
  0
LINE
  5
8B
330
1F
100
AcDbEntity
  8
0
  6
Continuous
 62
     7
370
    15
100
AcDbLine
 10
98.1057102756
 20
62.6898917447
 30
0.0
 11
98.1057102756
 21
62.6798893402
 31
0.0
  0
SPLINE
  5
8C
330
1F
100
AcDbEntity
  8
0
  6
Continuous
 62
     7
370
    15
100
AcDbSpline
210
0.0
220
0.0
230
1.0
 70
     8
 71
     3
 72
    17
 73
    13
 74
     0
 42
0.00000001
 43
0.00000001
 40
0.0
 40
0.0
 40
0.0
 40
0.0
 40
0.1043843958185158
 40
0.2118345569819801
 40
0.3162081801235555
 40
0.4235375330682647
 40
0.5292275935501746
 40
0.6379275752951962
 40
0.7444714855043735
 40
0.8541836194561564
 40
0.959308052615968
 40
1.0
 40
1.0
 40
1.0
 40
1.0
 10
108.1057100521319
 20
161.6696852336533
 30
0.0
 10
107.5577715116182
 20
161.6750526739861
 30
0.0
 10
106.445801498544
 20
161.6859451961501
 30
0.0
 10
104.8329461660214
 20
161.771127379968
 30
0.0
 10
103.2994330152837
 20
161.8974978832995
 30
0.0
 10
101.9084121269095
 20
162.0544017548084
 30
0.0
 10
100.6728950106114
 20
162.2260971522441
 30
0.0
 10
99.64953986475497
 20
162.3914420064541
 30
0.0
 10
98.849197191896
 20
162.5351463042862
 30
0.0
 10
98.33886563913593
 20
162.633310300218
 30
0.0
 10
98.09895688067652
 20
162.6812316146908
 30
0.0
 10
98.13087579244595
 20
162.674865106677
 30
0.0
 10
98.1397831777029
 20
162.6730884502537
 30
0.0
  0
LINE
  5
8D
330
1F
100
AcDbEntity
  8
0
  6
Continuous
 62
     7
370
    15
100
AcDbLine
 10
109.8936817573
 20
161.6696852337
 30
0.0
 11
108.1057100521
 21
161.6696852337
 31
0.0
  0
LINE
  5
8E
330
1F
100
AcDbEntity
  8
0
  6
Continuous
 62
     7
370
    15
100
AcDbLine
 10
109.8936817573
 20
151.6308511685
 30
0.0
 11
109.8936817573
 21
161.6696852337
 31
0.0
  0
LINE
  5
8F
330
1F
100
AcDbEntity
  8
0
  6
Continuous
 62
     7
370
    15
100
AcDbLine
 10
107.8136770951
 20
151.6308511685
 30
0.0
 11
109.8936817573
 21
151.6308511685
 31
0.0
  0
SPLINE
  5
90
330
1F
100
AcDbEntity
  8
0
  6
Continuous
 62
     7
370
    15
100
AcDbSpline
210
0.0
220
0.0
230
1.0
 70
     8
 71
     3
 72
    22
 73
    18
 74
     0
 42
0.00000001
 43
0.00000001
 40
0.0
 40
0.0
 40
0.0
 40
0.0
 40
0.2500000000000002
 40
0.2500000000000002
 40
0.3750000000000003
 40
0.3750000000000003
 40
0.5000000000000004
 40
0.5000000000000004
 40
0.6250000000000004
 40
0.6250000000000004
 40
0.7500000000000004
 40
0.7500000000000004
 40
0.8750000000000004
 40
0.8750000000000004
 40
0.9375000000000002
 40
0.9375000000000002
 40
1.0
 40
1.0
 40
1.0
 40
1.0
 10
98.10571030247138
 20
144.0298900852806
 30
0.0
 10
98.30843525839047
 20
145.0491364271453
 30
0.0
 10
98.62317898018586
 20
146.0082445770846
 30
0.0
 10
99.33123444985684
 20
147.3507236545938
 30
0.0
 10
99.60969708007447
 20
147.7849322373339
 30
0.0
 10
100.2484644867117
 20
148.596559952836
 30
0.0
 10
100.6088781665019
 20
148.9758402457728
 30
0.0
 10
101.4264103984912
 20
149.6787988247938
 30
0.0
 10
101.8875783817783
 20
150.0038276424944
 30
0.0
 10
102.8855686282621
 20
150.5688429658853
 30
0.0
 10
103.4253278222544
 20
150.8125465600918
 30
0.0
 10
104.5999207862857
 20
151.2167464877367
 30
0.0
 10
105.2116569722776
 20
151.3691836807823
 30
0.0
 10
106.1635661971393
 20
151.524511228391
 30
0.0
 10
106.4867993613999
 20
151.564016008441
 30
0.0
 10
107.1458625326752
 20
151.6173251291097
 30
0.0
 10
107.4799265432492
 20
151.6308528461676
 30
0.0
 10
107.8136771506507
 20
151.6308528461676
 30
0.0
  0
SPLINE
  5
91
330
1F
100
AcDbEntity
  8
0
  6
Continuous
 62
     7
370
    15
100
AcDbSpline
210
0.0
220
0.0
230
1.0
 70
     8
 71
     3
 72
    80
 73
    76
 74
     0
 42
0.00000001
 43
0.00000001
 40
-0.0312499999999993
 40
-0.0312499999999993
 40
0.0
 40
0.0
 40
0.03125
 40
0.03125
 40
0.046875
 40
0.046875
 40
0.0625
 40
0.0625
 40
0.09375
 40
0.09375
 40
0.1250000000000001
 40
0.1250000000000001
 40
0.1562500000000001
 40
0.1562500000000001
 40
0.1875000000000001
 40
0.1875000000000001
 40
0.2187500000000002
 40
0.2187500000000002
 40
0.2500000000000002
 40
0.2500000000000002
 40
0.2812500000000003
 40
0.2812500000000003
 40
0.3125000000000003
 40
0.3125000000000003
 40
0.3281250000000004
 40
0.3281250000000004
 40
0.3437500000000006
 40
0.3437500000000006
 40
0.3750000000000011
 40
0.3750000000000011
 40
0.4062500000000016
 40
0.4062500000000016
 40
0.4218750000000018
 40
0.4218750000000018
 40
0.437500000000002
 40
0.437500000000002
 40
0.4687500000000023
 40
0.4687500000000023
 40
0.5000000000000027
 40
0.5000000000000027
 40
0.531250000000003
 40
0.531250000000003
 40
0.5625000000000033
 40
0.5625000000000033
 40
0.5937500000000037
 40
0.5937500000000037
 40
0.6250000000000039
 40
0.6250000000000039
 40
0.6562500000000042
 40
0.6562500000000042
 40
0.6875000000000046
 40
0.6875000000000046
 40
0.7031250000000047
 40
0.7031250000000047
 40
0.7187500000000048
 40
0.7187500000000048
 40
0.7500000000000048
 40
0.7500000000000048
 40
0.7812500000000048
 40
0.7812500000000048
 40
0.7968750000000044
 40
0.7968750000000044
 40
0.8125000000000041
 40
0.8125000000000041
 40
0.8437500000000034
 40
0.8437500000000034
 40
0.8750000000000027
 40
0.8750000000000027
 40
0.906250000000002
 40
0.906250000000002
 40
0.9375000000000013
 40
0.9375000000000013
 40
0.9687500000000007
 40
0.9687500000000007
 40
1.0
 40
1.0
 40
1.03125
 40
1.03125
 10
102.4862556152477
 20
156.0945195489119
 30
0.0
 10
101.8251649896951
 20
156.0945195489119
 30
0.0
 10
101.5001848604435
 20
156.1107277802941
 30
0.0
 10
101.020711449197
 20
156.1580924123137
 30
0.0
 10
100.8622296313562
 20
156.1777466242043
 30
0.0
 10
100.5480100988519
 20
156.2248577803969
 30
0.0
 10
100.3918898151715
 20
156.2524390998916
 30
0.0
 10
99.93783578621498
 20
156.3449748866854
 30
0.0
 10
99.65073240327513
 20
156.420045320282
 30
0.0
 10
99.10737784724813
 20
156.5952836288925
 30
0.0
 10
98.85027423604254
 20
156.6962849267308
 30
0.0
 10
98.38936798110376
 20
156.9136411251916
 30
0.0
 10
98.18247027188879
 20
157.0308054569639
 30
0.0
 10
97.81694495789658
 20
157.2808753811925
 30
0.0
 10
97.66173943577063
 20
157.4118214699515
 30
0.0
 10
97.41230904917091
 20
157.6775564136639
 30
0.0
 10
97.31621909338575
 20
157.8143100069748
 30
0.0
 10
97.18770024419219
 20
158.0883755818138
 30
0.0
 10
97.1558893740144
 20
158.2233156722826
 30
0.0
 10
97.15553272424111
 20
158.4887873093514
 30
0.0
 10
97.18802997643819
 20
158.6206117864926
 30
0.0
 10
97.31565545015268
 20
158.870061386113
 30
0.0
 10
97.41008385120456
 20
158.988494078041
 30
0.0
 10
97.59794467119012
 20
159.1573632751351
 30
0.0
 10
97.66877266999332
 20
159.2124492702553
 30
0.0
 10
97.82349456195858
 20
159.3177020987438
 30
0.0
 10
97.90747103214198
 20
159.3680373275041
 30
0.0
 10
98.1787947017864
 20
159.5126131600422
 30
0.0
 10
98.38534392038875
 20
159.6004747464592
 30
0.0
 10
98.85195406057777
 20
159.7601958394587
 30
0.0
 10
99.10431963020322
 20
159.8294341359259
 30
0.0
 10
99.51022097188195
 20
159.9192215251556
 30
0.0
 10
99.65012158935943
 20
159.9467874872419
 30
0.0
 10
99.93934552460635
 20
159.9972782881682
 30
0.0
 10
100.0891849808956
 20
160.0202417270189
 30
0.0
 10
100.5433015505064
 20
160.0808722434377
 30
0.0
 10
100.8549527692433
 20
160.1109462722335
 30
0.0
 10
101.4959492341556
 20
160.1515358594922
 30
0.0
 10
101.8274768621078
 20
160.1618480897083
 30
0.0
 10
102.4802679071793
 20
160.1619236568741
 30
0.0
 10
102.8048041122111
 20
160.1520220514063
 30
0.0
 10
103.4500735616275
 20
160.111535520881
 30
0.0
 10
103.7658165677903
 20
160.0810742209964
 30
0.0
 10
104.367705862774
 20
160.0009235495598
 30
0.0
 10
104.6584550935854
 20
159.9506413177526
 30
0.0
 10
105.2053668852699
 20
159.8299711349796
 30
0.0
 10
105.4571442491068
 20
159.7607472758096
 30
0.0
 10
105.918532241728
 20
159.6032955481689
 30
0.0
 10
106.1298015213261
 20
159.5139470734952
 30
0.0
 10
106.4931058737022
 20
159.3206992027943
 30
0.0
 10
106.6469125221451
 20
159.2165712109151
 30
0.0
 10
106.8355319917425
 20
159.0479468247316
 30
0.0
 10
106.8915624779516
 20
158.9893184230567
 30
0.0
 10
106.9871362396877
 20
158.8698635082305
 30
0.0
 10
107.0268991567127
 20
158.8089437193923
 30
0.0
 10
107.1226709070249
 20
158.6225389932184
 30
0.0
 10
107.155393746151
 20
158.4934261754233
 30
0.0
 10
107.1560223324801
 20
158.2247692524675
 30
0.0
 10
107.1238361877453
 20
158.0893985117107
 30
0.0
 10
107.0289254858897
 20
157.8858482034747
 30
0.0
 10
106.9894587024908
 20
157.8178762794113
 30
0.0
 10
106.8945287037699
 20
157.6817840562804
 30
0.0
 10
106.8387718760065
 20
157.6134339560709
 30
0.0
 10
106.6508317580366
 20
157.4127309430289
 30
0.0
 10
106.4974702883204
 20
157.2833426692162
 30
0.0
 10
106.1352060534401
 20
157.0346772371663
 30
0.0
 10
105.9243575799742
 20
156.9148675947981
 30
0.0
 10
105.4636876096552
 20
156.6973453072254
 30
0.0
 10
105.2123132300714
 20
156.5982602073895
 30
0.0
 10
104.6664053431733
 20
156.4215877334727
 30
0.0
 10
104.3755827685221
 20
156.3455306453386
 30
0.0
 10
103.774256153742
 20
156.2226856679857
 30
0.0
 10
103.4597375691296
 20
156.1749795429326
 30
0.0
 10
102.8131561130097
 20
156.1107310078129
 30
0.0
 10
102.4862556152477
 20
156.0945195489119
 30
0.0
 10
101.8251649896951
 20
156.0945195489119
 30
0.0
  0
SPLINE
  5
92
330
1F
100
AcDbEntity
  8
0
  6
Continuous
 62
     7
370
    15
100
AcDbSpline
210
0.0
220
0.0
230
1.0
 70
     8
 71
     3
 72
     8
 73
     4
 74
     0
 42
0.00000001
 43
0.00000001
 40
0.0
 40
0.0
 40
0.0
 40
0.0
 40
1.0
 40
1.0
 40
1.0
 40
1.0
 10
116.4177393233928
 20
63.90489649225184
 30
0.0
 10
115.9666345939926
 20
64.70585642407175
 30
0.0
 10
115.5159367667492
 20
65.5070464356324
 30
0.0
 10
115.0657103024714
 20
66.30850179825717
 30
0.0
  0
LINE
  5
93
330
1F
100
AcDbEntity
  8
0
  6
Continuous
 62
     7
370
    15
100
AcDbLine
 10
115.0657108949
 20
66.3085009049
 30
0.0
 11
115.0657108949
 21
144.0298917781
 31
0.0
  0
SPLINE
  5
94
330
1F
100
AcDbEntity
  8
0
  6
Continuous
 62
     7
370
    15
100
AcDbSpline
210
0.0
220
0.0
230
1.0
 70
    24
 71
     3
 72
     8
 73
     4
 74
     0
 42
0.00000001
 43
0.00000001
 40
0.0
 40
0.0
 40
0.0
 40
0.0
 40
1.0
 40
1.0
 40
1.0
 40
1.0
 10
115.0657103024714
 20
144.0298900852806
 30
0.0
 10
115.5099231848253
 20
144.0298900852806
 30
0.0
 10
115.9609377510645
 20
144.0298900852806
 30
0.0
 10
116.4177393233928
 20
144.0298900852806
 30
0.0
  0
LINE
  5
95
330
1F
100
AcDbEntity
  8
0
  6
Continuous
 62
     7
370
    15
100
AcDbLine
 10
122.1057104843
 20
64.9305458258
 30
0.0
 11
122.1057104843
 21
144.0298917781
 31
0.0
  0
SPLINE
  5
96
330
1F
100
AcDbEntity
  8
0
  6
Continuous
 62
     7
370
    15
100
AcDbSpline
210
0.0
220
0.0
230
1.0
 70
     8
 71
     3
 72
    14
 73
    10
 74
     0
 42
0.00000001
 43
0.00000001
 40
0.0
 40
0.0
 40
0.0
 40
0.0
 40
0.25
 40
0.25
 40
0.5
 40
0.5
 40
0.75
 40
0.75
 40
1.0
 40
1.0
 40
1.0
 40
1.0
 10
122.1057103024714
 20
64.93054454002734
 30
0.0
 10
122.1057103024714
 20
64.7971188439728
 30
0.0
 10
122.0803992025605
 20
64.66527103612846
 30
0.0
 10
121.9820644387158
 20
64.41874848743434
 30
0.0
 10
121.9089204344597
 20
64.30494329919381
 30
0.0
 10
121.725482373364
 20
64.11448612224653
 30
0.0
 10
121.6137960390254
 20
64.03685125839661
 30
0.0
 10
121.3712926087191
 20
63.93255984828414
 30
0.0
 10
121.2379181800249
 20
63.90489649225179
 30
0.0
 10
121.1057103024714
 20
63.9048964922518
 30
0.0
  0
SPLINE
  5
97
330
1F
100
AcDbEntity
  8
0
  6
Continuous
 62
     7
370
    15
100
AcDbSpline
210
0.0
220
0.0
230
1.0
 70
    24
 71
     3
 72
    12
 73
     8
 74
     0
 42
0.00000001
 43
0.00000001
 40
0.0
 40
0.0
 40
0.0
 40
0.0
 40
0.2500000000000032
 40
0.2500000000000032
 40
0.5000000000000064
 40
0.5000000000000064
 40
1.0
 40
1.0
 40
1.0
 40
1.0
 10
121.1057103024714
 20
144.0298900852806
 30
0.0
 10
121.2578005394164
 20
144.0298900852807
 30
0.0
 10
121.4062598004918
 20
144.0298900852806
 30
0.0
 10
121.6636634327575
 20
144.0298900852806
 30
0.0
 10
121.7727681805994
 20
144.0298900852806
 30
0.0
 10
122.026827657007
 20
144.0298900852807
 30
0.0
 10
122.1057103024714
 20
144.0298900852806
 30
0.0
 10
122.1057103024714
 20
144.0298900852806
 30
0.0
  0
LINE
  5
98
330
1F
100
AcDbEntity
  8
0
  6
Continuous
 62
     7
370
    15
100
AcDbLine
 10
111.2457106786
 20
66.3085009049
 30
0.0
 11
111.2457106786
 21
144.0298917781
 31
0.0
  0
SPLINE
  5
99
330
1F
100
AcDbEntity
  8
0
  6
Continuous
 62
     7
370
    15
100
AcDbSpline
210
0.0
220
0.0
230
1.0
 70
     8
 71
     3
 72
     8
 73
     4
 74
     0
 42
0.00000001
 43
0.00000001
 40
0.0
 40
0.0
 40
0.0
 40
0.0
 40
1.0
 40
1.0
 40
1.0
 40
1.0
 10
111.2457103024714
 20
66.30850179825717
 30
0.0
 10
110.7954838381936
 20
65.5070464356324
 30
0.0
 10
110.3447860109502
 20
64.70585642407175
 30
0.0
 10
109.89368128155
 20
63.90489649225184
 30
0.0
  0
SPLINE
  5
9A
330
1F
100
AcDbEntity
  8
0
  6
Continuous
 62
     7
370
    15
100
AcDbSpline
210
0.0
220
0.0
230
1.0
 70
    24
 71
     3
 72
     8
 73
     4
 74
     0
 42
0.00000001
 43
0.00000001
 40
0.0
 40
0.0
 40
0.0
 40
0.0
 40
1.0
 40
1.0
 40
1.0
 40
1.0
 10
109.89368128155
 20
144.0298900852806
 30
0.0
 10
110.3504828538782
 20
144.0298900852806
 30
0.0
 10
110.8014974201175
 20
144.0298900852806
 30
0.0
 10
111.2457103024714
 20
144.0298900852806
 30
0.0
  0
SPLINE
  5
9B
330
1F
100
AcDbEntity
  8
0
  6
Continuous
 62
     7
370
    15
100
AcDbSpline
210
0.0
220
0.0
230
1.0
 70
     8
 71
     3
 72
    12
 73
     8
 74
     0
 42
0.00000001
 43
0.00000001
 40
0.0
 40
0.0
 40
0.0
 40
0.0
 40
0.250000000000003
 40
0.250000000000003
 40
0.500000000000006
 40
0.500000000000006
 40
1.0
 40
1.0
 40
1.0
 40
1.0
 10
112.0457103024714
 20
68.04021462723101
 30
0.0
 10
111.9399496491225
 20
68.040214627231
 30
0.0
 10
111.8319620209395
 20
68.0176751212306
 30
0.0
 10
111.6373673556739
 20
67.93310448923526
 30
0.0
 10
111.548495442835
 20
67.87062283647643
 30
0.0
 10
111.3293031505091
 20
67.64123388500423
 30
0.0
 10
111.2457103024713
 20
67.42865054748182
 30
0.0
 10
111.2457103024714
 20
67.21671130288559
 30
0.0
  0
SPLINE
  5
9C
330
1F
100
AcDbEntity
  8
0
  6
Continuous
 62
     7
370
    15
100
AcDbSpline
210
0.0
220
0.0
230
1.0
 70
    24
 71
     3
 72
    14
 73
    10
 74
     0
 42
0.00000001
 43
0.00000001
 40
0.0
 40
0.0
 40
0.0
 40
0.0
 40
0.25
 40
0.25
 40
0.5
 40
0.5
 40
0.75
 40
0.75
 40
1.0
 40
1.0
 40
1.0
 40
1.0
 10
111.2457103024714
 20
144.0298900852806
 30
0.0
 10
111.2457103024714
 20
144.0298900852806
 30
0.0
 10
111.2614246229373
 20
144.0298900852806
 30
0.0
 10
111.3251086014057
 20
144.0298900852806
 30
0.0
 10
111.3737117958162
 20
144.0298900852806
 30
0.0
 10
111.5063953182417
 20
144.0298900852807
 30
0.0
 10
111.5914974225524
 20
144.0298900852806
 30
0.0
 10
111.7979396574625
 20
144.0298900852806
 30
0.0
 10
111.9220205990855
 20
144.0298900852806
 30
0.0
 10
112.0457103024714
 20
144.0298900852806
 30
0.0
  0
SPLINE
  5
9D
330
1F
100
AcDbEntity
  8
0
  6
Continuous
 62
     7
370
    15
100
AcDbSpline
210
0.0
220
0.0
230
1.0
 70
     8
 71
     3
 72
    14
 73
    10
 74
     0
 42
0.00000001
 43
0.00000001
 40
0.0
 40
0.0
 40
0.0
 40
0.0
 40
0.25
 40
0.25
 40
0.5
 40
0.5
 40
0.75
 40
0.75
 40
1.0
 40
1.0
 40
1.0
 40
1.0
 10
115.0657103024714
 20
67.21671130288576
 30
0.0
 10
115.0657103024714
 20
67.32375538388014
 30
0.0
 10
115.0455926153132
 20
67.42899052412257
 30
0.0
 10
114.9671014260476
 20
67.62684101097027
 30
0.0
 10
114.9089448012464
 20
67.71789277453519
 30
0.0
 10
114.7624295456284
 20
67.87105886845997
 30
0.0
 10
114.6737869969873
 20
67.93335331466938
 30
0.0
 10
114.4780636741869
 20
68.01814710020537
 30
0.0
 10
114.372832483116
 20
68.040214627231
 30
0.0
 10
114.2657103024714
 20
68.04021462723101
 30
0.0
  0
SPLINE
  5
9E
330
1F
100
AcDbEntity
  8
0
  6
Continuous
 62
     7
370
    15
100
AcDbSpline
210
0.0
220
0.0
230
1.0
 70
    24
 71
     3
 72
    14
 73
    10
 74
     0
 42
0.00000001
 43
0.00000001
 40
0.0
 40
0.0
 40
0.0
 40
0.0
 40
0.25
 40
0.25
 40
0.5
 40
0.5
 40
0.75
 40
0.75
 40
1.0
 40
1.0
 40
1.0
 40
1.0
 10
114.2657103024714
 20
144.0298900852806
 30
0.0
 10
114.3894800672365
 20
144.0298900852806
 30
0.0
 10
114.5138471712434
 20
144.0298900852806
 30
0.0
 10
114.7202036399695
 20
144.0298900852806
 30
0.0
 10
114.8055317833878
 20
144.0298900852806
 30
0.0
 10
114.9377238421031
 20
144.0298900852807
 30
0.0
 10
114.9863690858537
 20
144.0298900852806
 30
0.0
 10
115.0499048775824
 20
144.0298900852806
 30
0.0
 10
115.0657103024714
 20
144.0298900852806
 30
0.0
 10
115.0657103024714
 20
144.0298900852806
 30
0.0
  0
LINE
  5
9F
330
1F
100
AcDbEntity
  8
0
  6
Continuous
 62
     7
370
    15
100
AcDbLine
 10
114.2657103913
 20
68.040213276
 30
0.0
 11
112.0457111822
 21
68.040213276
 31
0.0
  0
LINE
  5
A0
330
1F
100
AcDbEntity
  8
0
  6
Continuous
 62
     7
370
    15
100
AcDbLine
 10
112.0457111822
 20
144.0298917781
 30
0.0
 11
114.2657103913
 21
144.0298917781
 31
0.0
  0
LINE
  5
A1
330
1F
100
AcDbEntity
  8
0
  6
Continuous
 62
     7
370
    15
100
AcDbLine
 10
90.6557103584
 20
74.7976402829
 30
0.0
 11
90.6557103584
 21
150.5621398876
 31
0.0
  0
LINE
  5
A2
330
1F
100
AcDbEntity
  8
0
  6
Continuous
 62
     7
370
    15
100
AcDbLine
 10
58.3557098137
 20
76.4158765863
 30
0.0
 11
58.3557098137
 21
78.81055652
 31
0.0
  0
SPLINE
  5
A3
330
1F
100
AcDbEntity
  8
0
  6
Continuous
 62
     7
370
    15
100
AcDbSpline
210
0.0
220
0.0
230
1.0
 70
     8
 71
     3
 72
    14
 73
    10
 74
     0
 42
0.00000001
 43
0.00000001
 40
0.0
 40
0.0
 40
0.0
 40
0.0
 40
0.25
 40
0.25
 40
0.5
 40
0.5
 40
0.75
 40
0.75
 40
1.0
 40
1.0
 40
1.0
 40
1.0
 10
57.35128783113444
 20
80.51340874153712
 30
0.0
 10
57.44005640907976
 20
80.35487461022916
 30
0.0
 10
57.56177424775867
 20
80.2024319333406
 30
0.0
 10
57.7968238576155
 20
79.90529730951168
 30
0.0
 10
57.9124540438324
 20
79.76061466589432
 30
0.0
 10
58.11285897726021
 20
79.47732546339091
 30
0.0
 10
58.19825926924455
 20
79.33877147035406
 30
0.0
 10
58.31996490296176
 20
79.06738744032052
 30
0.0
 10
58.35571030247441
 20
78.93525157168591
 30
0.0
 10
58.3557103024744
 20
78.81055681991513
 30
0.0
  0
SPLINE
  5
A4
330
1F
100
AcDbEntity
  8
0
  6
Continuous
 62
     7
370
    15
100
AcDbSpline
210
0.0
220
0.0
230
1.0
 70
     8
 71
     3
 72
    14
 73
    10
 74
     0
 42
0.00000001
 43
0.00000001
 40
0.0
 40
0.0
 40
0.0
 40
0.0
 40
0.1249999999999969
 40
0.1249999999999969
 40
0.2499999999999938
 40
0.2499999999999938
 40
0.4999999999999958
 40
0.4999999999999958
 40
1.0
 40
1.0
 40
1.0
 40
1.0
 10
56.4557103024714
 20
81.14223868063722
 30
0.0
 10
56.52329260225587
 20
81.1493945657386
 30
0.0
 10
56.5957801800038
 20
81.14497009569959
 30
0.0
 10
56.72807128926971
 20
81.11526393792924
 30
0.0
 10
56.78534866865992
 20
81.09197965635103
 30
0.0
 10
56.93499909586019
 20
81.01449441650068
 30
0.0
 10
57.00871239138169
 20
80.95264258959934
 30
0.0
 10
57.19652037470793
 20
80.767965136951
 30
0.0
 10
57.28056068106936
 20
80.63972221365981
 30
0.0
 10
57.35128783113565
 20
80.51340874153723
 30
0.0
  0
SPLINE
  5
A5
330
1F
100
AcDbEntity
  8
0
  6
Continuous
 62
     7
370
    15
100
AcDbSpline
210
0.0
220
0.0
230
1.0
 70
     8
 71
     3
 72
     8
 73
     4
 74
     0
 42
0.00000001
 43
0.00000001
 40
0.0
 40
0.0
 40
0.0
 40
0.0
 40
1.0
 40
1.0
 40
1.0
 40
1.0
 10
52.91106991439059
 20
80.72419009584544
 30
0.0
 10
54.07636822509945
 20
80.87937756773206
 30
0.0
 10
55.2609834391393
 20
81.01573620604238
 30
0.0
 10
56.45571030247139
 20
81.14223868063722
 30
0.0
  0
SPLINE
  5
A6
330
1F
100
AcDbEntity
  8
0
  6
Continuous
 62
     7
370
    15
100
AcDbSpline
210
0.0
220
0.0
230
1.0
 70
     8
 71
     3
 72
    14
 73
    10
 74
     0
 42
0.00000001
 43
0.00000001
 40
0.0
 40
0.0
 40
0.0
 40
0.0
 40
0.4999999999999986
 40
0.4999999999999986
 40
0.749999999999998
 40
0.749999999999998
 40
0.874999999999999
 40
0.874999999999999
 40
1.0
 40
1.0
 40
1.0
 40
1.0
 10
45.15563541844106
 20
80.43405791671552
 30
0.0
 10
46.46393698097509
 20
80.44107264045664
 30
0.0
 10
47.76899635563215
 20
80.45648121690111
 30
0.0
 10
49.71487240712086
 20
80.51037777236776
 30
0.0
 10
50.36156991086002
 20
80.53340933697046
 30
0.0
 10
51.32541227471454
 20
80.58435186184121
 30
0.0
 10
51.64565096664872
 20
80.60408678407443
 30
0.0
 10
52.28234619299126
 20
80.65357391254601
 30
0.0
 10
52.59906160127426
 20
80.6826386914752
 30
0.0
 10
52.91106991439065
 20
80.72419009584539
 30
0.0
  0
SPLINE
  5
A7
330
1F
100
AcDbEntity
  8
0
  6
Continuous
 62
     7
370
    15
100
AcDbSpline
210
0.0
220
0.0
230
1.0
 70
     8
 71
     3
 72
    12
 73
     8
 74
     0
 42
0.00000001
 43
0.00000001
 40
0.0
 40
0.0
 40
0.0
 40
0.0
 40
0.25
 40
0.25
 40
0.5
 40
0.5
 40
1.0
 40
1.0
 40
1.0
 40
1.0
 10
51.4557103024714
 20
144.766412976777
 30
0.0
 10
50.93701148064319
 20
144.7989357516253
 30
0.0
 10
50.4152999074382
 20
144.8222324927958
 30
0.0
 10
49.36900789094265
 20
144.8600780072179
 30
0.0
 10
48.84433626527237
 20
144.874346481714
 30
0.0
 10
47.26749024273316
 20
144.9085559691723
 30
0.0
 10
46.21253492818628
 20
144.9200554731162
 30
0.0
 10
45.15563541844104
 20
144.9257222538457
 30
0.0
  0
SPLINE
  5
A8
330
1F
100
AcDbEntity
  8
0
  6
Continuous
 62
     7
370
    15
100
AcDbSpline
210
0.0
220
0.0
230
1.0
 70
     8
 71
     3
 72
    20
 73
    16
 74
     0
 42
0.00000001
 43
0.00000001
 40
0.0
 40
0.0
 40
0.0
 40
0.0
 40
0.2499999999999989
 40
0.2499999999999989
 40
0.4999999999999979
 40
0.4999999999999979
 40
0.7499999999999969
 40
0.7499999999999969
 40
0.8749999999999972
 40
0.8749999999999972
 40
0.9374999999999981
 40
0.9374999999999981
 40
0.968749999999999
 40
0.968749999999999
 40
1.0
 40
1.0
 40
1.0
 40
1.0
 10
53.35571030247139
 20
146.4244988222652
 30
0.0
 10
53.35571030247139
 20
146.2888165025184
 30
0.0
 10
53.30699851325477
 20
146.1477295163783
 30
0.0
 10
53.13783709002958
 20
145.8556577976478
 30
0.0
 10
53.01605667611125
 20
145.7040090555574
 30
0.0
 10
52.71850958136176
 20
145.4016006154043
 30
0.0
 10
52.54459697565897
 20
145.249011979281
 30
0.0
 10
52.22518214177718
 20
145.0237412154387
 30
0.0
 10
52.11014136632991
 20
144.949018120928
 30
0.0
 10
51.90305704231351
 20
144.849607711671
 30
0.0
 10
51.82694920750712
 20
144.8180426193264
 30
0.0
 10
51.69555466795375
 20
144.7835992351335
 30
0.0
 10
51.64900144895229
 20
144.7745476633658
 30
0.0
 10
51.5526680978716
 20
144.7643720145273
 30
0.0
 10
51.50340867451614
 20
144.7634222558523
 30
0.0
 10
51.4557103024694
 20
144.7664129767669
 30
0.0
  0
LINE
  5
A9
330
1F
100
AcDbEntity
  8
0
  6
Continuous
 62
     7
370
    15
100
AcDbLine
 10
53.3557108568
 20
146.424497206
 30
0.0
 11
53.3557108568
 21
148.6934038888
 31
0.0
  0
SPLINE
  5
AA
330
1F
100
AcDbEntity
  8
0
  6
Continuous
 62
     7
370
    15
100
AcDbSpline
210
0.0
220
0.0
230
1.0
 70
     8
 71
     3
 72
    22
 73
    18
 74
     0
 42
0.00000001
 43
0.00000001
 40
0.0
 40
0.0
 40
0.0
 40
0.0
 40
0.0002937795809534
 40
0.0628841226670476
 40
0.1261981634441474
 40
0.2510182376743836
 40
0.3131038035109783
 40
0.3757650301263917
 40
0.438298947461237
 40
0.5000628179552256
 40
0.5617337540173512
 40
0.6246555751056264
 40
0.7491916931696805
 40
0.8115302283016316
 40
0.874584730621348
 40
0.9378227612722644
 40
1.0
 40
1.0
 40
1.0
 40
1.0
 10
71.67566595244335
 20
75.74864356619189
 30
0.0
 10
71.67547140813271
 20
75.748619868999
 30
0.0
 10
71.63382879888472
 20
75.74354743619254
 30
0.0
 10
71.77899739810806
 20
75.76197007446962
 30
0.0
 10
72.24919028509456
 20
75.81859491336004
 30
0.0
 10
73.21762576684135
 20
75.92477477822635
 30
0.0
 10
74.53008916751828
 20
76.0104129984037
 30
0.0
 10
75.66221161074625
 20
76.0490696393063
 30
0.0
 10
76.88439905323779
 20
76.05272634006619
 30
0.0
 10
78.15169782559711
 20
76.01034820331147
 30
0.0
 10
79.41840929187238
 20
75.92196401471796
 30
0.0
 10
81.03406786011759
 20
75.7519226616759
 30
0.0
 10
82.47403054454503
 20
75.52973708349214
 30
0.0
 10
83.5398990880531
 20
75.32673865987047
 30
0.0
 10
84.12909926444125
 20
75.20271284324382
 30
0.0
 10
84.51781942915909
 20
75.1177944667945
 30
0.0
 10
84.56460482438125
 20
75.10706833498361
 30
0.0
 10
84.58779966103958
 20
75.10175063115427
 30
0.0
  0
SPLINE
  5
AB
330
1F
100
AcDbEntity
  8
0
  6
Continuous
 62
     7
370
    15
100
AcDbSpline
210
0.0
220
0.0
230
1.0
 70
     8
 71
     3
 72
    41
 73
    37
 74
     0
 42
0.00000001
 43
0.00000001
 40
0.0
 40
0.0
 40
0.0
 40
0.0
 40
0.0619930057521234
 40
0.1254347800038064
 40
0.1886508796717357
 40
0.2510246486109871
 40
0.3131658162995096
 40
0.3756581562437836
 40
0.4382226967008007
 40
0.4998044866844488
 40
0.5615163978929836
 40
0.624068334530221
 40
0.6867257381925814
 40
0.7488365438331015
 40
0.8110686224406509
 40
0.874174288746562
 40
0.9373212795039373
 40
0.9685511676011631
 40
0.9842086839263173
 40
0.9920641174372686
 40
0.9960004855111776
 40
0.9979710789827829
 40
0.9989570084930213
 40
0.9994501352406154
 40
0.9996967397140323
 40
0.9998200522691628
 40
0.9998817111565016
 40
0.9999125412175226
 40
0.9999279564094052
 40
0.9999356640470808
 40
0.9999395178742654
 40
0.99994144479064
 40
0.9999424082488272
 40
0.9999433717070145
 40
0.9999501690725197
 40
1.0
 40
1.0
 40
1.0
 40
1.0
 10
84.58767858910488
 20
150.2579848359234
 30
0.0
 10
84.5641069981459
 20
150.25267525088
 30
0.0
 10
84.5164129512061
 20
150.2419319964797
 30
0.0
 10
84.12436985782685
 20
150.1567051113041
 30
0.0
 10
83.53385721264091
 20
150.0321364303445
 30
0.0
 10
82.7298187645708
 20
149.8791875201877
 30
0.0
 10
81.75374399818283
 20
149.7174303175319
 30
0.0
 10
80.63193568524055
 20
149.5651968997814
 30
0.0
 10
79.41840404963476
 20
149.4374215452896
 30
0.0
 10
78.15357361817814
 20
149.3495730298141
 30
0.0
 10
76.88553024883304
 20
149.3071849906448
 30
0.0
 10
75.66202293902798
 20
149.310924062094
 30
0.0
 10
74.52852362651002
 20
149.3495125415817
 30
0.0
 10
73.54241888106897
 20
149.413958971489
 30
0.0
 10
72.73378949912033
 20
149.4874658436333
 30
0.0
 10
72.13717298172442
 20
149.5547793736637
 30
0.0
 10
71.82178075124109
 20
149.5927424674555
 30
0.0
 10
71.71171443667677
 20
149.6065417958053
 30
0.0
 10
71.68429608022292
 20
149.6100264103257
 30
0.0
 10
71.67737226632661
 20
149.6109076922545
 30
0.0
 10
71.67560381096212
 20
149.6111308000752
 30
0.0
 10
71.6751437792087
 20
149.61118384518
 30
0.0
 10
71.67501932034818
 20
149.611203394718
 30
0.0
 10
71.67498495464454
 20
149.6111967551252
 30
0.0
 10
71.67497384894192
 20
149.6112042711992
 30
0.0
 10
71.67497035887926
 20
149.6112036054095
 30
0.0
 10
71.67496720369215
 20
149.6112036644147
 30
0.0
 10
71.67496748343002
 20
149.6112036591383
 30
0.0
 10
71.67496745823924
 20
149.6112036596769
 30
0.0
 10
71.67496746105742
 20
149.6112036595285
 30
0.0
 10
71.67496745997902
 20
149.6112036596838
 30
0.0
 10
71.67496746124432
 20
149.6112036594695
 30
0.0
 10
71.67496745922928
 20
149.6112036598147
 30
0.0
 10
71.67496747790528
 20
149.6112036566132
 30
0.0
 10
71.6749652397434
 20
149.6112040402977
 30
0.0
 10
71.67500109857154
 20
149.6111978930702
 30
0.0
 10
71.67503265309261
 20
149.6111924837238
 30
0.0
  0
SPLINE
  5
AC
330
1F
100
AcDbEntity
  8
0
  6
Continuous
 62
     7
370
    15
100
AcDbSpline
210
0.0
220
0.0
230
1.0
 70
     8
 71
     3
 72
    20
 73
    16
 74
     0
 42
0.00000001
 43
0.00000001
 40
0.0
 40
0.0
 40
0.0
 40
0.0
 40
0.249999999999986
 40
0.249999999999986
 40
0.3749999999999789
 40
0.3749999999999789
 40
0.4374999999999789
 40
0.4374999999999789
 40
0.4999999999999789
 40
0.4999999999999789
 40
0.6249999999999835
 40
0.6249999999999835
 40
0.7499999999999879
 40
0.7499999999999879
 40
1.0
 40
1.0
 40
1.0
 40
1.0
 10
43.54652453418741
 20
82.00140693257993
 30
0.0
 10
43.57279675140082
 20
82.0207248736624
 30
0.0
 10
43.60347689365565
 20
82.03511358476418
 30
0.0
 10
43.67494776403758
 20
82.02820922292817
 30
0.0
 10
43.7029748010819
 20
82.02104321957974
 30
0.0
 10
43.75805839057942
 20
81.99134419287616
 30
0.0
 10
43.77894971913185
 20
81.97787055031482
 30
0.0
 10
43.8241583665773
 20
81.9426722847988
 30
0.0
 10
43.84856257897287
 20
81.92076405607155
 30
0.0
 10
43.91989489702433
 20
81.848639196076
 30
0.0
 10
43.96179168184458
 20
81.79629865512594
 30
0.0
 10
44.03336764070047
 20
81.6988152632252
 30
0.0
 10
44.06419563051778
 20
81.65206149334678
 30
0.0
 10
44.14729556335334
 20
81.51876827750766
 30
0.0
 10
44.19215046872364
 20
81.43613087959245
 30
0.0
 10
44.23226254417622
 20
81.35702398480167
 30
0.0
  0
SPLINE
  5
AD
330
1F
100
AcDbEntity
  8
0
  6
Continuous
 62
     7
370
    15
100
AcDbSpline
210
0.0
220
0.0
230
1.0
 70
     8
 71
     3
 72
     8
 73
     4
 74
     0
 42
0.00000001
 43
0.00000001
 40
0.0
 40
0.0
 40
0.0
 40
0.0
 40
1.0
 40
1.0
 40
1.0
 40
1.0
 10
43.25571030247141
 20
82.17722034271272
 30
0.0
 10
43.25571030247141
 20
82.15194028548537
 30
0.0
 10
43.25889710690564
 20
82.12834071624731
 30
0.0
 10
43.26500010385306
 20
82.10676327455528
 30
0.0
  0
SPLINE
  5
AE
330
1F
100
AcDbEntity
  8
0
  6
Continuous
 62
     7
370
    15
100
AcDbSpline
210
0.0
220
0.0
230
1.0
 70
     8
 71
     3
 72
     9
 73
     5
 74
     0
 42
0.00000001
 43
0.00000001
 40
0.0
 40
0.0
 40
0.0
 40
0.0
 40
0.7766522094856231
 40
1.0
 40
1.0
 40
1.0
 40
1.0
 10
43.34104274976182
 20
82.06217801970313
 30
0.0
 10
43.38422941428427
 20
82.00997910964234
 30
0.0
 10
43.43983559681358
 20
81.94276896149204
 30
0.0
 10
43.527047460315
 20
81.99070169004801
 30
0.0
 10
43.54652603733468
 20
82.00140735906432
 30
0.0
  0
LINE
  5
AF
330
1F
100
AcDbEntity
  8
0
  6
Continuous
 62
     7
370
    15
100
AcDbLine
 10
43.2557112502
 20
82.1772205721
 30
0.0
 11
43.2557112502
 21
143.1825595985
 31
0.0
  0
SPLINE
  5
B0
330
1F
100
AcDbEntity
  8
0
  6
Continuous
 62
     7
370
    15
100
AcDbSpline
210
0.0
220
0.0
230
1.0
 70
     8
 71
     3
 72
     9
 73
     5
 74
     0
 42
0.00000001
 43
0.00000001
 40
0.0
 40
0.0
 40
0.0
 40
0.0
 40
0.0592942499244465
 40
1.0
 40
1.0
 40
1.0
 40
1.0
 10
43.54652603733467
 20
143.358372811497
 30
0.0
 10
43.54164303963592
 20
143.3616659511947
 30
0.0
 10
43.45929107962331
 20
143.4172048896578
 30
0.0
 10
43.39316042520801
 20
143.359912686545
 30
0.0
 10
43.33095093834329
 20
143.3060175816424
 30
0.0
  0
SPLINE
  5
B1
330
1F
100
AcDbEntity
  8
0
  6
Continuous
 62
     7
370
    15
100
AcDbSpline
210
0.0
220
0.0
230
1.0
 70
     8
 71
     3
 72
     8
 73
     4
 74
     0
 42
0.00000001
 43
0.00000001
 40
0.0
 40
0.0
 40
0.0
 40
0.0
 40
1.0
 40
1.0
 40
1.0
 40
1.0
 10
43.27934397140761
 20
143.2901393289182
 30
0.0
 10
43.26399493277157
 20
143.2596292739223
 30
0.0
 10
43.25571030247141
 20
143.22331771841
 30
0.0
 10
43.25571030247141
 20
143.1825598278486
 30
0.0
  0
SPLINE
  5
B2
330
1F
100
AcDbEntity
  8
0
  6
Continuous
 62
     7
370
    15
100
AcDbSpline
210
0.0
220
0.0
230
1.0
 70
     8
 71
     3
 72
    20
 73
    16
 74
     0
 42
0.00000001
 43
0.00000001
 40
0.0
 40
0.0
 40
0.0
 40
0.0
 40
0.2500000000000037
 40
0.2500000000000037
 40
0.3750000000000055
 40
0.3750000000000055
 40
0.5000000000000073
 40
0.5000000000000073
 40
0.5625000000000057
 40
0.5625000000000057
 40
0.625000000000004
 40
0.625000000000004
 40
0.7500000000000027
 40
0.7500000000000027
 40
1.0
 40
1.0
 40
1.0
 40
1.0
 10
44.23226254417381
 20
144.0027561857588
 30
0.0
 10
44.19226632634998
 20
143.9238777792013
 30
0.0
 10
44.14715269851233
 20
143.8407481325098
 30
0.0
 10
44.0638984841458
 20
143.7072594681589
 30
0.0
 10
44.03367915552531
 20
143.6613944122769
 30
0.0
 10
43.96159092038388
 20
143.563202859872
 30
0.0
 10
43.9196736029728
 20
143.5108930403484
 30
0.0
 10
43.84842299842133
 20
143.4388871376139
 30
0.0
 10
43.82418718604202
 20
143.4171169253124
 30
0.0
 10
43.77858899585738
 20
143.3816422669834
 30
0.0
 10
43.75778650625765
 20
143.3682720828058
 30
0.0
 10
43.70284550783854
 20
143.3387021706706
 30
0.0
 10
43.67477651975171
 20
143.3315756483686
 30
0.0
 10
43.60427368968889
 20
143.3247012768859
 30
0.0
 10
43.57284960189801
 20
143.3390164359731
 30
0.0
 10
43.54652453418942
 20
143.3583732379836
 30
0.0
  0
SPLINE
  5
B3
330
1F
100
AcDbEntity
  8
0
  6
Continuous
 62
     7
370
    15
100
AcDbSpline
210
0.0
220
0.0
230
1.0
 70
     8
 71
     3
 72
    10
 73
     6
 74
     0
 42
0.00000001
 43
0.00000001
 40
0.0
 40
0.0
 40
0.0
 40
0.0
 40
0.4999999999999989
 40
0.4999999999999989
 40
1.0
 40
1.0
 40
1.0
 40
1.0
 10
44.9057103024714
 20
144.9281752871006
 30
0.0
 10
44.78082203172121
 20
144.7971790090292
 30
0.0
 10
44.65937191366076
 20
144.6534661723641
 30
0.0
 10
44.42978793870333
 20
144.342895879675
 30
0.0
 10
44.31951296330735
 20
144.1748268066119
 30
0.0
 10
44.23226254417383
 20
144.0027561857588
 30
0.0
  0
SPLINE
  5
B4
330
1F
100
AcDbEntity
  8
0
  6
Continuous
 62
     7
370
    15
100
AcDbSpline
210
0.0
220
0.0
230
1.0
 70
     8
 71
     3
 72
     8
 73
     4
 74
     0
 42
0.00000001
 43
0.00000001
 40
0.0
 40
0.0
 40
0.0
 40
0.0
 40
1.0
 40
1.0
 40
1.0
 40
1.0
 10
45.15563541843717
 20
144.9257222538453
 30
0.0
 10
45.06861738858881
 20
144.9261888186323
 30
0.0
 10
44.98566336220885
 20
144.9272288382084
 30
0.0
 10
44.9057103024691
 20
144.9281752871007
 30
0.0
  0
SPLINE
  5
B5
330
1F
100
AcDbEntity
  8
0
  6
Continuous
 62
     7
370
    15
100
AcDbSpline
210
0.0
220
0.0
230
1.0
 70
     8
 71
     3
 72
     8
 73
     4
 74
     0
 42
0.00000001
 43
0.00000001
 40
0.0
 40
0.0
 40
0.0
 40
0.0
 40
1.0
 40
1.0
 40
1.0
 40
1.0
 10
44.9057103024691
 20
80.43160488346057
 30
0.0
 10
44.98566336220885
 20
80.43255133235283
 30
0.0
 10
45.06861738858881
 20
80.43359135192895
 30
0.0
 10
45.15563541843719
 20
80.43405791671601
 30
0.0
  0
SPLINE
  5
B6
330
1F
100
AcDbEntity
  8
0
  6
Continuous
 62
     7
370
    15
100
AcDbSpline
210
0.0
220
0.0
230
1.0
 70
     8
 71
     3
 72
    10
 73
     6
 74
     0
 42
0.00000001
 43
0.00000001
 40
0.0
 40
0.0
 40
0.0
 40
0.0
 40
0.4999999999999989
 40
0.4999999999999989
 40
1.0
 40
1.0
 40
1.0
 40
1.0
 10
44.2322625441729
 20
81.35702398480424
 30
0.0
 10
44.31951296330639
 20
81.18495336395087
 30
0.0
 10
44.42978793870253
 20
81.01688429088743
 30
0.0
 10
44.65937191366037
 20
80.70631399819761
 30
0.0
 10
44.78082203172102
 20
80.56260116153234
 30
0.0
 10
44.9057103024714
 20
80.43160488346062
 30
0.0
  0
SPLINE
  5
B7
330
1F
100
AcDbEntity
  8
0
  6
Continuous
 62
     7
370
    15
100
AcDbSpline
210
0.0
220
0.0
230
1.0
 70
     8
 71
     3
 72
     8
 73
     4
 74
     0
 42
0.00000001
 43
0.00000001
 40
0.0
 40
0.0
 40
0.0
 40
0.0
 40
1.0
 40
1.0
 40
1.0
 40
1.0
 10
109.89368128155
 20
151.6308528461676
 30
0.0
 10
110.3506076353495
 20
150.6149348764932
 30
0.0
 10
110.8018132771526
 20
149.5961390474021
 30
0.0
 10
111.2457103024714
 20
148.5753375914185
 30
0.0
  0
LINE
  5
B8
330
1F
100
AcDbEntity
  8
0
  6
Continuous
 62
     7
370
    15
100
AcDbLine
 10
111.2457106786
 20
148.5753382633
 30
0.0
 11
111.2457106786
 21
147.3941269408
 31
0.0
  0
SPLINE
  5
B9
330
1F
100
AcDbEntity
  8
0
  6
Continuous
 62
     7
370
    15
100
AcDbSpline
210
0.0
220
0.0
230
1.0
 70
     8
 71
     3
 72
    14
 73
    10
 74
     0
 42
0.00000001
 43
0.00000001
 40
0.0
 40
0.0
 40
0.0
 40
0.0
 40
0.25
 40
0.25
 40
0.5
 40
0.5
 40
0.75
 40
0.75
 40
1.0
 40
1.0
 40
1.0
 40
1.0
 10
111.2457103024714
 20
147.3941252777777
 30
0.0
 10
111.2457103024714
 20
147.2702584009884
 30
0.0
 10
111.261569430099
 20
147.145998724151
 30
0.0
 10
111.3249310756189
 20
146.9083903617451
 30
0.0
 10
111.3735207836682
 20
146.7916099769926
 30
0.0
 10
111.5058063884431
 20
146.5828074483836
 30
0.0
 10
111.5911311797037
 20
146.488296744791
 30
0.0
 10
111.7980224280099
 20
146.3503399439887
 30
0.0
 10
111.9219903738999
 20
146.3084214983531
 30
0.0
 10
112.0457103024714
 20
146.3084214983531
 30
0.0
  0
LINE
  5
BA
330
1F
100
AcDbEntity
  8
0
  6
Continuous
 62
     7
370
    15
100
AcDbLine
 10
112.0457111822
 20
146.3084208856
 30
0.0
 11
114.2657103913
 21
146.3084208856
 31
0.0
  0
SPLINE
  5
BB
330
1F
100
AcDbEntity
  8
0
  6
Continuous
 62
     7
370
    15
100
AcDbSpline
210
0.0
220
0.0
230
1.0
 70
     8
 71
     3
 72
    12
 73
     8
 74
     0
 42
0.00000001
 43
0.00000001
 40
0.0
 40
0.0
 40
0.0
 40
0.0
 40
0.250000000000002
 40
0.250000000000002
 40
0.500000000000004
 40
0.500000000000004
 40
1.0
 40
1.0
 40
1.0
 40
1.0
 10
114.2657103024734
 20
146.3084214983531
 30
0.0
 10
114.3894112524533
 20
146.3084214983536
 30
0.0
 10
114.5135078647232
 20
146.3504151100864
 30
0.0
 10
114.7201630278096
 20
146.488210436731
 30
0.0
 10
114.8052037945362
 20
146.5821840351958
 30
0.0
 10
115.0046823630092
 20
146.8969722414166
 30
0.0
 10
115.0657103024714
 20
147.1472112336438
 30
0.0
 10
115.0657103024714
 20
147.3941252777777
 30
0.0
  0
LINE
  5
BC
330
1F
100
AcDbEntity
  8
0
  6
Continuous
 62
     7
370
    15
100
AcDbLine
 10
115.0657108949
 20
147.3941269408
 30
0.0
 11
115.0657108949
 21
148.5753382633
 31
0.0
  0
SPLINE
  5
BD
330
1F
100
AcDbEntity
  8
0
  6
Continuous
 62
     7
370
    15
100
AcDbSpline
210
0.0
220
0.0
230
1.0
 70
     8
 71
     3
 72
     8
 73
     4
 74
     0
 42
0.00000001
 43
0.00000001
 40
0.0
 40
0.0
 40
0.0
 40
0.0
 40
1.0
 40
1.0
 40
1.0
 40
1.0
 10
115.0657103024714
 20
148.5753375914185
 30
0.0
 10
115.5098603134969
 20
149.5967208223701
 30
0.0
 10
115.9609346237548
 20
150.6152053591385
 30
0.0
 10
116.4177393233928
 20
151.6308528461676
 30
0.0
  0
LINE
  5
BE
330
1F
100
AcDbEntity
  8
0
  6
Continuous
 62
     7
370
    15
100
AcDbLine
 10
116.4177398162
 20
151.6308511685
 30
0.0
 11
121.1057103204
 21
151.6308511685
 31
0.0
  0
SPLINE
  5
BF
330
1F
100
AcDbEntity
  8
0
  6
Continuous
 62
     7
370
    15
100
AcDbSpline
210
0.0
220
0.0
230
1.0
 70
     8
 71
     3
 72
    16
 73
    12
 74
     0
 42
0.00000001
 43
0.00000001
 40
0.0
 40
0.0
 40
0.0
 40
0.0
 40
0.125
 40
0.125
 40
0.25
 40
0.25
 40
0.5
 40
0.5
 40
0.75
 40
0.75
 40
1.0
 40
1.0
 40
1.0
 40
1.0
 10
121.1057103024704
 20
151.6308528461676
 30
0.0
 10
121.1813480088817
 20
151.6308528461677
 30
0.0
 10
121.2576636732999
 20
151.6195078460328
 30
0.0
 10
121.402074411192
 20
151.5768552953944
 30
0.0
 10
121.4705208603005
 20
151.5459209707116
 30
0.0
 10
121.6654521129138
 20
151.4266645989441
 30
0.0
 10
121.7732932866948
 20
151.3165125853235
 30
0.0
 10
121.9420060349071
 20
151.0683764996654
 30
0.0
 10
122.0043704476307
 20
150.9280341756617
 30
0.0
 10
122.0856743721392
 20
150.6397624841729
 30
0.0
 10
122.1057103024714
 20
150.488957511193
 30
0.0
 10
122.1057103024714
 20
150.3385876198476
 30
0.0
  0
LINE
  5
C0
330
1F
100
AcDbEntity
  8
0
  6
Continuous
 62
     7
370
    15
100
AcDbLine
 10
122.1057104843
 20
150.3385889421
 30
0.0
 11
122.1057104843
 21
144.0298917781
 31
0.0
  0
SPLINE
  5
C1
330
1F
100
AcDbEntity
  8
0
  6
Continuous
 62
     7
370
    15
100
AcDbSpline
210
0.0
220
0.0
230
1.0
 70
     8
 71
     3
 72
    10
 73
     6
 74
     0
 42
0.00000001
 43
0.00000001
 40
0.0
 40
0.0
 40
0.0
 40
0.0
 40
0.5
 40
0.5
 40
1.0
 40
1.0
 40
1.0
 40
1.0
 10
112.0457103024714
 20
157.5541658454531
 30
0.0
 10
111.8331739886151
 20
157.5541658454531
 30
0.0
 10
111.623237816961
 20
157.6455784320833
 30
0.0
 10
111.3295306759498
 20
157.9503232979875
 30
0.0
 10
111.2457103024714
 20
158.1624782678961
 30
0.0
 10
111.2457103024714
 20
158.3734413261286
 30
0.0
  0
SPLINE
  5
C2
330
1F
100
AcDbEntity
  8
0
  6
Continuous
 62
     7
370
    15
100
AcDbSpline
210
0.0
220
0.0
230
1.0
 70
     8
 71
     3
 72
     8
 73
     4
 74
     0
 42
0.00000001
 43
0.00000001
 40
0.0
 40
0.0
 40
0.0
 40
0.0
 40
1.0
 40
1.0
 40
1.0
 40
1.0
 10
116.4177393233928
 20
161.6696849409442
 30
0.0
 10
115.9667123546795
 20
160.8723743707563
 30
0.0
 10
115.5160185381559
 20
160.0748760710992
 30
0.0
 10
115.0657103024714
 20
159.2771609459855
 30
0.0
  0
LINE
  5
C3
330
1F
100
AcDbEntity
  8
0
  6
Continuous
 62
     7
370
    15
100
AcDbLine
 10
116.4177398162
 20
151.6308511685
 30
0.0
 11
116.4177398162
 21
161.6696852337
 31
0.0
  0
LINE
  5
C4
330
1F
100
AcDbEntity
  8
0
  6
Continuous
 62
     7
370
    15
100
AcDbLine
 10
115.0657108949
 20
148.5753382633
 30
0.0
 11
115.0657108949
 21
159.2771622429
 31
0.0
  0
LINE
  5
C5
330
1F
100
AcDbEntity
  8
0
  6
Continuous
 62
     7
370
    15
100
AcDbLine
 10
121.1057103204
 20
161.6696852337
 30
0.0
 11
116.4177398162
 21
161.6696852337
 31
0.0
  0
SPLINE
  5
C6
330
1F
100
AcDbEntity
  8
0
  6
Continuous
 62
     7
370
    15
100
AcDbSpline
210
0.0
220
0.0
230
1.0
 70
     8
 71
     3
 72
    12
 73
     8
 74
     0
 42
0.00000001
 43
0.00000001
 40
0.0
 40
0.0
 40
0.0
 40
0.0
 40
0.5
 40
0.5
 40
0.75
 40
0.75
 40
1.0
 40
1.0
 40
1.0
 40
1.0
 10
122.1057103024714
 20
160.6486299061265
 30
0.0
 10
122.1057103024714
 20
160.9138993388929
 30
0.0
 10
122.0011035589849
 20
161.1764144445453
 30
0.0
 10
121.7244352072396
 20
161.4619520505825
 30
0.0
 10
121.6140699478876
 20
161.5382736674439
 30
0.0
 10
121.3699978992719
 20
161.6426158322841
 30
0.0
 10
121.2382454379402
 20
161.6696849409442
 30
0.0
 10
121.1057103024714
 20
161.6696849409442
 30
0.0
  0
LINE
  5
C7
330
1F
100
AcDbEntity
  8
0
  6
Continuous
 62
     7
370
    15
100
AcDbLine
 10
122.1057104843
 20
150.3385889421
 30
0.0
 11
122.1057104843
 21
160.6486315916
 31
0.0
  0
SPLINE
  5
C8
330
1F
100
AcDbEntity
  8
0
  6
Continuous
 62
     7
370
    15
100
AcDbSpline
210
0.0
220
0.0
230
1.0
 70
     8
 71
     3
 72
     8
 73
     4
 74
     0
 42
0.00000001
 43
0.00000001
 40
0.0
 40
0.0
 40
0.0
 40
0.0
 40
1.0
 40
1.0
 40
1.0
 40
1.0
 10
111.2457103024714
 20
159.2771609459855
 30
0.0
 10
110.7954020667868
 20
160.0748760710992
 30
0.0
 10
110.3447082502632
 20
160.8723743707563
 30
0.0
 10
109.89368128155
 20
161.6696849409442
 30
0.0
  0
LINE
  5
C9
330
1F
100
AcDbEntity
  8
0
  6
Continuous
 62
     7
370
    15
100
AcDbLine
 10
111.2457106786
 20
148.5753382633
 30
0.0
 11
111.2457106786
 21
159.2771622429
 31
0.0
  0
SPLINE
  5
CA
330
1F
100
AcDbEntity
  8
0
  6
Continuous
 62
     7
370
    15
100
AcDbSpline
210
0.0
220
0.0
230
1.0
 70
     8
 71
     3
 72
    14
 73
    10
 74
     0
 42
0.00000001
 43
0.00000001
 40
0.0
 40
0.0
 40
0.0
 40
0.0
 40
0.25
 40
0.25
 40
0.5
 40
0.5
 40
0.75
 40
0.75
 40
1.0
 40
1.0
 40
1.0
 40
1.0
 10
115.0657103024714
 20
158.3734413261286
 30
0.0
 10
115.0657103024714
 20
158.2670846323762
 30
0.0
 10
115.0453227463302
 20
158.1612441446161
 30
0.0
 10
114.9666884008686
 20
157.9646792310796
 30
0.0
 10
114.9079570412299
 20
157.8735084887925
 30
0.0
 10
114.7613481356273
 20
157.7215973997609
 30
0.0
 10
114.6719428156007
 20
157.6595285629413
 30
0.0
 10
114.4780520830003
 20
157.5762605151826
 30
0.0
 10
114.3715470931105
 20
157.554165845453
 30
0.0
 10
114.2657103024711
 20
157.554165845453
 30
0.0
  0
LINE
  5
CB
330
1F
100
AcDbEntity
  8
0
  6
Continuous
 62
     7
370
    15
100
AcDbLine
 10
114.2657103913
 20
157.5541670511
 30
0.0
 11
112.0457111822
 21
157.5541670511
 31
0.0
  0
LINE
  5
CC
330
1F
100
AcDbEntity
  8
0
  6
Continuous
 62
     7
370
    15
100
AcDbLine
 10
170.1057090389
 20
138.6798906217
 30
0.0
 11
170.1057090389
 21
86.6798895488
 31
0.0
  0
ARC
  5
CD
330
1F
100
AcDbEntity
  8
0
  6
Continuous
 62
     7
370
    15
100
AcDbCircle
 10
102.1557715237
 20
145.245385156
 30
0.0
 40
11.45035081746
100
AcDbArc
 50
77.9103698821
 51
102.1081286463
  0
LINE
  5
CE
330
1F
100
AcDbEntity
  8
0
  6
Continuous
 62
     7
370
    15
100
AcDbLine
 10
253.1557067262
 20
131.8798909972
 30
0.0
 11
253.1557067262
 21
121.7548900361
 31
0.0
  0
LINE
  5
CF
330
1F
100
AcDbEntity
  8
0
  6
Continuous
 62
     7
370
    15
100
AcDbLine
 10
253.1557067262
 20
121.7548900361
 30
0.0
 11
252.8057082521
 21
121.4048896993
 31
0.0
  0
LINE
  5
D0
330
1F
100
AcDbEntity
  8
0
  6
Continuous
 62
     7
370
    15
100
AcDbLine
 10
253.1557067262
 20
103.6048901345
 30
0.0
 11
253.1557067262
 21
93.4798891733
 31
0.0
  0
LINE
  5
D1
330
1F
100
AcDbEntity
  8
0
  6
Continuous
 62
     7
370
    15
100
AcDbLine
 10
252.8057082521
 20
103.9548904712
 30
0.0
 11
253.1557067262
 21
103.6048901345
 31
0.0
  0
LINE
  5
D2
330
1F
100
AcDbEntity
  8
0
  6
Continuous
 62
     7
370
    15
100
AcDbLine
 10
44.9057093786
 20
80.429891784
 30
0.0
 11
44.9057093786
 21
80.4316054176
 31
0.0
  0
LINE
  5
D3
330
1F
100
AcDbEntity
  8
0
  6
Continuous
 62
     7
370
    15
100
AcDbLine
 10
44.9057093786
 20
144.9298883865
 30
0.0
 11
44.9057093786
 21
144.928174753
 31
0.0
  0
LINE
  5
D4
330
1F
100
AcDbEntity
  8
0
  6
Continuous
 62
     7
370
    15
100
AcDbLine
 10
212.2057138907
 20
96.7644794921
 30
0.0
 11
212.2057138907
 21
87.6798897128
 31
0.0
  0
LINE
  5
D5
330
1F
100
AcDbEntity
  8
0
  6
Continuous
 62
     7
370
    15
100
AcDbLine
 10
212.2057138907
 20
137.6798904578
 30
0.0
 11
212.2057138907
 21
96.7644794921
 31
0.0
  0
LINE
  5
D6
330
1F
100
AcDbEntity
  8
0
  6
Continuous
 62
     7
370
    15
100
AcDbLine
 10
244.3057133781
 20
96.7644794921
 30
0.0
 11
244.3057133781
 21
87.6798897128
 31
0.0
  0
LINE
  5
D7
330
1F
100
AcDbEntity
  8
0
  6
Continuous
 62
     7
370
    15
100
AcDbLine
 10
244.3057133781
 20
137.6798904578
 30
0.0
 11
244.3057133781
 21
96.7644794921
 31
0.0
  0
LINE
  5
D8
330
1F
100
AcDbEntity
  8
0
  6
Continuous
 62
     7
370
    15
100
AcDbLine
 10
235.8057036029
 20
96.7644794921
 30
0.0
 11
235.8057036029
 21
87.6798897128
 31
0.0
  0
LINE
  5
D9
330
1F
100
AcDbEntity
  8
0
  6
Continuous
 62
     7
370
    15
100
AcDbLine
 10
235.8057036029
 20
137.6798904578
 30
0.0
 11
235.8057036029
 21
96.7644794921
 31
0.0
  0
LINE
  5
DA
330
1F
100
AcDbEntity
  8
0
  6
Continuous
 62
     7
370
    15
100
AcDbLine
 10
252.8057082521
 20
97.4010962139
 30
0.0
 11
252.8057082521
 21
88.6798898767
 31
0.0
  0
LINE
  5
DB
330
1F
100
AcDbEntity
  8
0
  6
Continuous
 62
     7
370
    15
100
AcDbLine
 10
252.8057082521
 20
136.6798902939
 30
0.0
 11
252.8057082521
 21
97.4010962139
 31
0.0
  0
LINE
  5
DC
330
1F
100
AcDbEntity
  8
0
  6
Continuous
 62
     7
370
    15
100
AcDbLine
 10
220.7057162153
 20
96.7644794921
 30
0.0
 11
220.7057162153
 21
87.6798897128
 31
0.0
  0
LINE
  5
DD
330
1F
100
AcDbEntity
  8
0
  6
Continuous
 62
     7
370
    15
100
AcDbLine
 10
220.7057162153
 20
137.6798904578
 30
0.0
 11
220.7057162153
 21
96.7644794921
 31
0.0
  0
LINE
  5
DE
330
1F
100
AcDbEntity
  8
0
  6
Continuous
 62
     7
370
    15
100
AcDbLine
 10
203.7057115661
 20
97.4010962139
 30
0.0
 11
203.7057115661
 21
88.6798898767
 31
0.0
  0
LINE
  5
DF
330
1F
100
AcDbEntity
  8
0
  6
Continuous
 62
     7
370
    15
100
AcDbLine
 10
203.7057115661
 20
136.6798902939
 30
0.0
 11
203.7057115661
 21
97.4010962139
 31
0.0
  0
LINE
  5
E0
330
1F
100
AcDbEntity
  8
0
  6
HIDDEN
 62
     7
370
     0
100
AcDbLine
 10
93.1557103025
 20
162.1798898171
 30
0.0
 11
93.1557103025
 21
63.1798903535
 31
0.0
  0
LINE
  5
E1
330
1F
100
AcDbEntity
  8
0
  6
HIDDEN
 62
     7
370
     0
100
AcDbLine
 10
98.1057102756
 20
62.6798893402
 30
0.0
 11
98.1057102756
 21
62.6898917447
 31
0.0
  0
SPLINE
  5
E2
330
1F
100
AcDbEntity
  8
0
  6
HIDDEN
 62
     7
370
     0
100
AcDbSpline
210
0.0
220
0.0
230
1.0
 70
     8
 71
     3
 72
    30
 73
    26
 74
     0
 42
0.00000001
 43
0.00000001
 40
0.0
 40
0.0
 40
0.0
 40
0.0
 40
0.1249999999999996
 40
0.1249999999999996
 40
0.1874999999999994
 40
0.1874999999999994
 40
0.2499999999999993
 40
0.2499999999999993
 40
0.3749999999999992
 40
0.3749999999999992
 40
0.4374999999999993
 40
0.4374999999999993
 40
0.4999999999999994
 40
0.4999999999999994
 40
0.6249999999999992
 40
0.6249999999999992
 40
0.6874999999999993
 40
0.6874999999999993
 40
0.7499999999999994
 40
0.7499999999999994
 40
0.8124999999999997
 40
0.8124999999999997
 40
0.8749999999999998
 40
0.8749999999999998
 40
1.0
 40
1.0
 40
1.0
 40
1.0
 10
98.1057103024714
 20
62.68989108548067
 30
0.0
 10
98.1057103024714
 20
62.7031457926436
 30
0.0
 10
98.17091055534392
 20
62.72933066342817
 30
0.0
 10
98.36205832405044
 20
62.78611731622865
 30
0.0
 10
98.44144997822579
 20
62.80796686710416
 30
0.0
 10
98.63223854699667
 20
62.85720036320456
 30
0.0
 10
98.74407368356779
 20
62.88467275195808
 30
0.0
 10
99.12043996029688
 20
62.97274647365141
 30
0.0
 10
99.42719385858425
 20
63.03949332963143
 30
0.0
 10
99.97033871257332
 20
63.14702974087619
 30
0.0
 10
100.1663191139297
 20
63.18429003438482
 30
0.0
 10
100.5824558230638
 20
63.25959744611616
 30
0.0
 10
100.8014340833575
 20
63.29744487113495
 30
0.0
 10
101.490262389023
 20
63.41017717773169
 30
0.0
 10
101.9916867807868
 20
63.48428078281605
 30
0.0
 10
102.8096145917426
 20
63.58815996316622
 30
0.0
 10
103.0924090263901
 20
63.6214157162247
 30
0.0
 10
103.6679020014483
 20
63.68317898062531
 30
0.0
 10
103.9619986015756
 20
63.71186997217562
 30
0.0
 10
104.5628183714228
 20
63.76416170601658
 30
0.0
 10
104.8695412557841
 20
63.78776351692341
 30
0.0
 10
105.4959047365343
 20
63.82914349091329
 30
0.0
 10
105.8171284272571
 20
63.84698421755775
 30
0.0
 10
106.788008587107
 20
63.89004782038041
 30
0.0
 10
107.442955971118
 20
63.90489649225182
 30
0.0
 10
108.1057103024714
 20
63.90489649225184
 30
0.0
  0
LINE
  5
E3
330
1F
100
AcDbEntity
  8
0
  6
HIDDEN
 62
     7
370
     0
100
AcDbLine
 10
108.1057100521
 20
63.9048951755
 30
0.0
 11
109.8936817573
 21
63.9048951755
 31
0.0
  0
LINE
  5
E4
330
1F
100
AcDbEntity
  8
0
  6
HIDDEN
 62
     7
370
     0
100
AcDbLine
 10
109.8936817573
 20
161.6696852337
 30
0.0
 11
109.8936817573
 21
63.9048951755
 31
0.0
  0
LINE
  5
E5
330
1F
100
AcDbEntity
  8
0
  6
HIDDEN
 62
     7
370
     0
100
AcDbLine
 10
108.1057100521
 20
161.6696852337
 30
0.0
 11
109.8936817573
 21
161.6696852337
 31
0.0
  0
SPLINE
  5
E6
330
1F
100
AcDbEntity
  8
0
  6
HIDDEN
 62
     7
370
     0
100
AcDbSpline
210
0.0
220
0.0
230
1.0
 70
     8
 71
     3
 72
    17
 73
    13
 74
     0
 42
0.00000001
 43
0.00000001
 40
0.0
 40
0.0
 40
0.0
 40
0.0
 40
0.0675713803268669
 40
0.1712576030248766
 40
0.2779172511717157
 40
0.3822981657295449
 40
0.4896051291308794
 40
0.5957700724795216
 40
0.7049970045876547
 40
0.81132349772151
 40
0.9208377748585306
 40
1.0
 40
1.0
 40
1.0
 40
1.0
 10
98.1397831777029
 20
162.6730884502537
 30
0.0
 10
98.13725046190034
 20
162.6735868285887
 30
0.0
 10
98.13083137092734
 20
162.6748499532821
 30
0.0
 10
98.4345915933017
 20
162.6145206212267
 30
0.0
 10
98.99814447450426
 20
162.5075342180715
 30
0.0
 10
99.82941342665004
 20
162.360982943867
 30
0.0
 10
100.8830443289842
 20
162.1947730636537
 30
0.0
 10
102.1561759955301
 20
162.0234909823487
 30
0.0
 10
103.5955712699434
 20
161.8689386206227
 30
0.0
 10
105.1813242342281
 20
161.7484916739573
 30
0.0
 10
106.7006420173673
 20
161.6802766840457
 30
0.0
 10
107.690429135968
 20
161.6728156352521
 30
0.0
 10
108.1057100521319
 20
161.6696852336533
 30
0.0
  0
SPLINE
  5
E7
330
1F
100
AcDbEntity
  8
0
  6
HIDDEN
 62
     7
370
     0
100
AcDbSpline
210
0.0
220
0.0
230
1.0
 70
     8
 71
     3
 72
    80
 73
    76
 74
     0
 42
0.00000001
 43
0.00000001
 40
-0.0312500000000001
 40
-0.0312500000000001
 40
0.0
 40
0.0
 40
0.0312499999999999
 40
0.0312499999999999
 40
0.0468749999999998
 40
0.0468749999999998
 40
0.0624999999999998
 40
0.0624999999999998
 40
0.0937499999999996
 40
0.0937499999999996
 40
0.1249999999999995
 40
0.1249999999999995
 40
0.1562499999999993
 40
0.1562499999999993
 40
0.1874999999999992
 40
0.1874999999999992
 40
0.218749999999999
 40
0.218749999999999
 40
0.2499999999999988
 40
0.2499999999999988
 40
0.2812499999999987
 40
0.2812499999999987
 40
0.3124999999999985
 40
0.3124999999999985
 40
0.3281249999999984
 40
0.3281249999999984
 40
0.3437499999999984
 40
0.3437499999999984
 40
0.3749999999999983
 40
0.3749999999999983
 40
0.4062499999999983
 40
0.4062499999999983
 40
0.4218749999999983
 40
0.4218749999999983
 40
0.4374999999999983
 40
0.4374999999999983
 40
0.4687499999999983
 40
0.4687499999999983
 40
0.4999999999999984
 40
0.4999999999999984
 40
0.5312499999999986
 40
0.5312499999999986
 40
0.5624999999999987
 40
0.5624999999999987
 40
0.5937499999999987
 40
0.5937499999999987
 40
0.6249999999999987
 40
0.6249999999999987
 40
0.6562499999999987
 40
0.6562499999999987
 40
0.6874999999999987
 40
0.6874999999999987
 40
0.7031249999999987
 40
0.7031249999999987
 40
0.7187499999999988
 40
0.7187499999999988
 40
0.749999999999999
 40
0.749999999999999
 40
0.7812499999999992
 40
0.7812499999999992
 40
0.7968749999999992
 40
0.7968749999999992
 40
0.8124999999999993
 40
0.8124999999999993
 40
0.8437499999999994
 40
0.8437499999999994
 40
0.8749999999999996
 40
0.8749999999999996
 40
0.9062499999999997
 40
0.9062499999999997
 40
0.9374999999999998
 40
0.9374999999999998
 40
0.9687499999999999
 40
0.9687499999999999
 40
1.0
 40
1.0
 40
1.03125
 40
1.03125
 10
95.15571030247139
 20
113.0104352283407
 30
0.0
 10
95.15571030247139
 20
112.3493449422206
 30
0.0
 10
95.1881653966519
 20
112.0243645401194
 30
0.0
 10
95.2835106508862
 20
111.5448902667714
 30
0.0
 10
95.32312750904
 20
111.3864080876704
 30
0.0
 10
95.41838560486507
 20
111.0721877362868
 30
0.0
 10
95.474281716009
 20
110.916066800799
 30
0.0
 10
95.66256037674609
 20
110.4620108051888
 30
0.0
 10
95.81615072492872
 20
110.174906344227
 30
0.0
 10
96.17898441570571
 20
109.6315508503015
 30
0.0
 10
96.39003863783354
 20
109.3744467306822
 30
0.0
 10
96.85103892810827
 20
108.9135409294295
 30
0.0
 10
97.10261723042919
 20
108.7066442547011
 30
0.0
 10
97.64908963282382
 20
108.3411215324231
 30
0.0
 10
97.9398079249044
 20
108.1859170237512
 30
0.0
 10
98.54135107188652
 20
107.9364881943078
 30
0.0
 10
98.85662591764796
 20
107.840398740133
 30
0.0
 10
99.50212558476679
 20
107.7118800475055
 30
0.0
 10
99.82667405085033
 20
107.6800692147138
 30
0.0
 10
100.4792797842507
 20
107.6797124501262
 30
0.0
 10
100.8107488107624
 20
107.7122095736402
 30
0.0
 10
101.4521630747606
 20
107.8398347837061
 30
0.0
 10
101.763937490212
 20
107.9342628807366
 30
0.0
 10
102.2181359621376
 20
108.1221227084475
 30
0.0
 10
102.3680170879299
 20
108.1929502326795
 30
0.0
 10
102.6574712577901
 20
108.3476709453607
 30
0.0
 10
102.7974790902427
 20
108.4316468141482
 30
0.0
 10
103.2036850993294
 20
108.7029688498555
 30
0.0
 10
103.4562019904756
 20
108.909517203306
 30
0.0
 10
103.9232172296171
 20
109.3761272902811
 30
0.0
 10
104.1300010684467
 20
109.6284919101808
 30
0.0
 10
104.4016325610254
 20
110.034394167084
 30
0.0
 10
104.4857112699884
 20
110.1742952710855
 30
0.0
 10
104.6406428055638
 20
110.463520487419
 30
0.0
 10
104.7116195933994
 20
110.6133606251552
 30
0.0
 10
104.8999219772174
 20
111.0674790049024
 30
0.0
 10
104.9945999245417
 20
111.379131482161
 30
0.0
 10
105.1227559189809
 20
112.020129854831
 30
0.0
 10
105.1555900205826
 20
112.3516571680757
 30
0.0
 10
105.1558299091473
 20
113.0044481886342
 30
0.0
 10
105.1242971956496
 20
113.3289848216382
 30
0.0
 10
104.9964537099869
 20
113.9742559355811
 30
0.0
 10
104.9005612956735
 20
114.2899991942273
 30
0.0
 10
104.6516104664852
 20
114.8918900865521
 30
0.0
 10
104.4967183850141
 20
115.1826398620197
 30
0.0
 10
104.1315947311915
 20
115.7295541040094
 30
0.0
 10
103.9248903196643
 20
115.9813317074164
 30
0.0
 10
103.4643892220207
 20
116.4427186215956
 30
0.0
 10
103.2074766043714
 20
116.6539866573063
 30
0.0
 10
102.6644334198853
 20
117.0172890115211
 30
0.0
 10
102.3775091862909
 20
117.1710945696763
 30
0.0
 10
101.9237844291447
 20
117.3597128258113
 30
0.0
 10
101.7677484113512
 20
117.4157429959739
 30
0.0
 10
101.4535122595371
 20
117.5113163484496
 30
0.0
 10
101.2950397236988
 20
117.5510791168692
 30
0.0
 10
100.8156496611928
 20
117.6468505732432
 30
0.0
 10
100.4907983678323
 20
117.6795734226612
 30
0.0
 10
99.83013994842901
 20
117.6802022185576
 30
0.0
 10
99.50461271431168
 20
117.6480160434167
 30
0.0
 10
99.0250815666236
 20
117.5531056112941
 30
0.0
 10
98.86660161213351
 20
117.5136389696
 30
0.0
 10
98.55242594365409
 20
117.4187094273673
 30
0.0
 10
98.39622455996444
 20
117.3629529284762
 30
0.0
 10
97.94181507042998
 20
117.1750139531136
 30
0.0
 10
97.65455812221418
 20
117.0216534856386
 30
0.0
 10
97.11100270934165
 20
116.6593909743158
 30
0.0
 10
96.85366171572987
 20
116.4485437440108
 30
0.0
 10
96.39226645380171
 20
115.9878752222745
 30
0.0
 10
96.18518132448938
 20
115.736500812073
 30
0.0
 10
95.81931194116036
 20
115.1905909340789
 30
0.0
 10
95.66369910440523
 20
114.8997673280186
 30
0.0
 10
95.41373587286114
 20
114.2984382264554
 30
0.0
 10
95.3175070724504
 20
113.9839179440231
 30
0.0
 10
95.18816924632775
 20
113.3373359057777
 30
0.0
 10
95.15571030247139
 20
113.0104352283407
 30
0.0
 10
95.15571030247139
 20
112.3493449422206
 30
0.0
  0
SPLINE
  5
E8
330
1F
100
AcDbEntity
  8
0
  6
HIDDEN
 62
     7
370
     0
100
AcDbSpline
210
0.0
220
0.0
230
1.0
 70
     8
 71
     3
 72
    80
 73
    76
 74
     0
 42
0.00000001
 43
0.00000001
 40
-0.0312500000000003
 40
-0.0312500000000003
 40
0.0
 40
0.0
 40
0.03125
 40
0.03125
 40
0.046875
 40
0.046875
 40
0.0624999999999999
 40
0.0624999999999999
 40
0.0937499999999998
 40
0.0937499999999998
 40
0.1249999999999996
 40
0.1249999999999996
 40
0.1562499999999995
 40
0.1562499999999995
 40
0.1874999999999994
 40
0.1874999999999994
 40
0.2187499999999993
 40
0.2187499999999993
 40
0.2499999999999992
 40
0.2499999999999992
 40
0.2812499999999991
 40
0.2812499999999991
 40
0.3124999999999989
 40
0.3124999999999989
 40
0.3281249999999988
 40
0.3281249999999988
 40
0.3437499999999986
 40
0.3437499999999986
 40
0.3749999999999983
 40
0.3749999999999983
 40
0.4062499999999981
 40
0.4062499999999981
 40
0.4218749999999979
 40
0.4218749999999979
 40
0.4374999999999978
 40
0.4374999999999978
 40
0.4687499999999977
 40
0.4687499999999977
 40
0.4999999999999975
 40
0.4999999999999975
 40
0.5312499999999972
 40
0.5312499999999972
 40
0.562499999999997
 40
0.562499999999997
 40
0.5937499999999968
 40
0.5937499999999968
 40
0.6249999999999966
 40
0.6249999999999966
 40
0.6562499999999964
 40
0.6562499999999964
 40
0.6874999999999962
 40
0.6874999999999962
 40
0.7031249999999962
 40
0.7031249999999962
 40
0.7187499999999963
 40
0.7187499999999963
 40
0.7499999999999968
 40
0.7499999999999968
 40
0.7812499999999972
 40
0.7812499999999972
 40
0.7968749999999976
 40
0.7968749999999976
 40
0.8124999999999978
 40
0.8124999999999978
 40
0.8437499999999981
 40
0.8437499999999981
 40
0.8749999999999984
 40
0.8749999999999984
 40
0.9062499999999989
 40
0.9062499999999989
 40
0.9374999999999992
 40
0.9374999999999992
 40
0.9687499999999997
 40
0.9687499999999997
 40
1.0
 40
1.0
 40
1.03125
 40
1.03125
 10
102.4862556152477
 20
161.5394393417586
 30
0.0
 10
101.8251649896951
 20
161.5394393417586
 30
0.0
 10
101.5001848604435
 20
161.5325411959318
 30
0.0
 10
101.020711449197
 20
161.5120147679513
 30
0.0
 10
100.8622296313562
 20
161.5034585408638
 30
0.0
 10
100.5480100988519
 20
161.4827321656461
 30
0.0
 10
100.3918898151715
 20
161.4705048654397
 30
0.0
 10
99.93783578621499
 20
161.4289355716105
 30
0.0
 10
99.65073240327513
 20
161.3945912865127
 30
0.0
 10
99.10737784724813
 20
161.3112671621904
 30
0.0
 10
98.85027423604255
 20
161.2618289394159
 30
0.0
 10
98.38936798110376
 20
161.150449209656
 30
0.0
 10
98.1824702718888
 20
161.0881546961439
 30
0.0
 10
97.8169449578966
 20
160.9482250532729
 30
0.0
 10
97.66173943577064
 20
160.8716091555239
 30
0.0
 10
97.41230904917091
 20
160.7076505356681
 30
0.0
 10
97.31621909338575
 20
160.6190936815724
 30
0.0
 10
97.18770024419219
 20
160.4316129994666
 30
0.0
 10
97.1558893740144
 20
160.3343765380122
 30
0.0
 10
97.15553272424113
 20
160.1327438986851
 30
0.0
 10
97.1880299764382
 20
160.0271951068469
 30
0.0
 10
97.31565545015269
 20
159.8170803241584
 30
0.0
 10
97.41008385120459
 20
159.7120148161895
 30
0.0
 10
97.59794467119013
 20
159.5551371089384
 30
0.0
 10
97.66877266999333
 20
159.5027033752327
 30
0.0
 10
97.8234945619586
 20
159.400264929603
 30
0.0
 10
97.90747103214201
 20
159.3501172009511
 30
0.0
 10
98.17879470178643
 20
159.2031012445176
 30
0.0
 10
98.38534392038876
 20
159.1096134240831
 30
0.0
 10
98.85195406057778
 20
158.9338265664688
 30
0.0
 10
99.10431963020324
 20
158.8544480913852
 30
0.0
 10
99.51022097188198
 20
158.7489656538911
 30
0.0
 10
99.65012158935944
 20
158.7160800890509
 30
0.0
 10
99.93934552460637
 20
158.6551646098223
 30
0.0
 10
100.0891849808956
 20
158.6270840381798
 30
0.0
 10
100.5433015505064
 20
158.552281996137
 30
0.0
 10
100.8549527692433
 20
158.5142439378909
 30
0.0
 10
101.4959492341557
 20
158.4626320113668
 30
0.0
 10
101.8274768621078
 20
158.4493180778453
 30
0.0
 10
102.4802679071793
 20
158.4492209915173
 30
0.0
 10
102.8048041122111
 20
158.4620090766783
 30
0.0
 10
103.4500735616275
 20
158.5134992662742
 30
0.0
 10
103.7658165677903
 20
158.5520238455943
 30
0.0
 10
104.367705862774
 20
158.6509264084524
 30
0.0
 10
104.6584550935854
 20
158.7120305063774
 30
0.0
 10
105.2053668852699
 20
158.853839939488
 30
0.0
 10
105.4571442491068
 20
158.9331744240672
 30
0.0
 10
105.918532241728
 20
159.1065531687287
 30
0.0
 10
106.1298015213261
 20
159.2017131134828
 30
0.0
 10
106.4931058737022
 20
159.3982856368586
 30
0.0
 10
106.646912522145
 20
159.500041865265
 30
0.0
 10
106.8355319917424
 20
159.6568278280505
 30
0.0
 10
106.8915624779516
 20
159.7100818618005
 30
0.0
 10
106.9871362396877
 20
159.8158864233533
 30
0.0
 10
107.0268991567127
 20
159.8685394877088
 30
0.0
 10
107.1226709070249
 20
160.025613207168
 30
0.0
 10
107.155393746151
 20
160.1291382424951
 30
0.0
 10
107.15602233248
 20
160.3333529767222
 30
0.0
 10
107.1238361877453
 20
160.430856814307
 30
0.0
 10
107.0289254858897
 20
160.5701838646586
 30
0.0
 10
106.9894587024907
 20
160.6155005961631
 30
0.0
 10
106.8945287037699
 20
160.7039404171519
 30
0.0
 10
106.8387718760065
 20
160.7471946676119
 30
0.0
 10
106.6508317580366
 20
160.8710861422018
 30
0.0
 10
106.4974702883204
 20
160.9467884329759
 30
0.0
 10
106.1352060534401
 20
161.0860428044341
 30
0.0
 10
105.9243575799741
 20
161.1498046459629
 30
0.0
 10
105.4636876096552
 20
161.2613014854307
 30
0.0
 10
105.2123132300714
 20
161.3098275577473
 30
0.0
 10
104.6664053431733
 20
161.3938815411278
 30
0.0
 10
104.3755827685221
 20
161.4286800947945
 30
0.0
 10
103.774256153742
 20
161.4838765595583
 30
0.0
 10
103.4597375691296
 20
161.5046944083122
 30
0.0
 10
102.8131561130097
 20
161.5325417412229
 30
0.0
 10
102.4862556152477
 20
161.5394393417586
 30
0.0
 10
101.8251649896951
 20
161.5394393417586
 30
0.0
  0
LINE
  5
E9
330
1F
100
AcDbEntity
  8
0
  6
HIDDEN
 62
     7
370
     0
100
AcDbLine
 10
111.2457106786
 20
67.2167117785
 30
0.0
 11
111.2457106786
 21
144.0298917781
 31
0.0
  0
LINE
  5
EA
330
1F
100
AcDbEntity
  8
0
  6
HIDDEN
 62
     7
370
     0
100
AcDbLine
 10
115.0657108949
 20
67.2167117785
 30
0.0
 11
115.0657108949
 21
144.0298917781
 31
0.0
  0
LINE
  5
EB
330
1F
100
AcDbEntity
  8
0
  6
HIDDEN
 62
     7
370
     0
100
AcDbLine
 10
98.1057102756
 20
144.0298917781
 30
0.0
 11
107.8136770951
 21
144.0298917781
 31
0.0
  0
LINE
  5
EC
330
1F
100
AcDbEntity
  8
0
  6
HIDDEN
 62
     7
370
     0
100
AcDbLine
 10
93.1557103025
 20
73.2752072702
 30
0.0
 11
93.1557103025
 21
152.0845729004
 31
0.0
  0
LWPOLYLINE
  5
ED
330
1F
100
AcDbEntity
  8
0
  6
HIDDEN
 62
     7
370
     0
100
AcDbPolyline
 90
        2
 70
   128
 43
0.0
 10
111.2457106786
 20
144.0298917781
 10
111.2457106786
 20
144.0298917781
  0
LWPOLYLINE
  5
EE
330
1F
100
AcDbEntity
  8
0
  6
HIDDEN
 62
     7
370
     0
100
AcDbPolyline
 90
        2
 70
   128
 43
0.0
 10
115.0657108949
 20
144.0298917781
 10
115.0657108949
 20
144.0298917781
  0
LWPOLYLINE
  5
EF
330
1F
100
AcDbEntity
  8
0
  6
HIDDEN
 62
     7
370
     0
100
AcDbPolyline
 90
        2
 70
   128
 43
0.0
 10
122.1057104843
 20
144.0298917781
 10
122.1057104843
 20
144.0298917781
  0
LINE
  5
F0
330
1F
100
AcDbEntity
  8
0
  6
HIDDEN
 62
     7
370
     0
100
AcDbLine
 10
90.6557103584
 20
150.5621398876
 30
0.0
 11
90.6557103584
 21
74.7976402829
 31
0.0
  0
SPLINE
  5
F1
330
1F
100
AcDbEntity
  8
0
  6
HIDDEN
 62
     7
370
     0
100
AcDbSpline
210
0.0
220
0.0
230
1.0
 70
     8
 71
     3
 72
     8
 73
     4
 74
     0
 42
0.00000001
 43
0.00000001
 40
0.0
 40
0.0
 40
0.0
 40
0.0
 40
1.0
 40
1.0
 40
1.0
 40
1.0
 10
52.91106991439059
 20
80.72419009584544
 30
0.0
 10
54.07636822509945
 20
80.87937756773206
 30
0.0
 10
55.2609834391393
 20
81.01573620604238
 30
0.0
 10
56.4557103024714
 20
81.14223868063722
 30
0.0
  0
SPLINE
  5
F2
330
1F
100
AcDbEntity
  8
0
  6
HIDDEN
 62
     7
370
     0
100
AcDbSpline
210
0.0
220
0.0
230
1.0
 70
     8
 71
     3
 72
    14
 73
    10
 74
     0
 42
0.00000001
 43
0.00000001
 40
0.0
 40
0.0
 40
0.0
 40
0.0
 40
0.1249999999999994
 40
0.1249999999999994
 40
0.2499999999999988
 40
0.2499999999999988
 40
0.5000000000000014
 40
0.5000000000000014
 40
1.0
 40
1.0
 40
1.0
 40
1.0
 10
56.4557103024714
 20
81.14223868063722
 30
0.0
 10
56.52329260225589
 20
81.1493945657386
 30
0.0
 10
56.5957801800038
 20
81.14497009569959
 30
0.0
 10
56.72807128926974
 20
81.11526393792926
 30
0.0
 10
56.78534866865991
 20
81.09197965635101
 30
0.0
 10
56.93499909586018
 20
81.01449441650068
 30
0.0
 10
57.00871239138168
 20
80.95264258959934
 30
0.0
 10
57.19652037470793
 20
80.76796513695102
 30
0.0
 10
57.28056068106937
 20
80.63972221365981
 30
0.0
 10
57.35128783113566
 20
80.51340874153722
 30
0.0
  0
SPLINE
  5
F3
330
1F
100
AcDbEntity
  8
0
  6
HIDDEN
 62
     7
370
     0
100
AcDbSpline
210
0.0
220
0.0
230
1.0
 70
     8
 71
     3
 72
    14
 73
    10
 74
     0
 42
0.00000001
 43
0.00000001
 40
0.0
 40
0.0
 40
0.0
 40
0.0
 40
0.25
 40
0.25
 40
0.5
 40
0.5
 40
0.75
 40
0.75
 40
1.0
 40
1.0
 40
1.0
 40
1.0
 10
57.35128783113444
 20
80.51340874153712
 30
0.0
 10
57.44005640907976
 20
80.35487461022916
 30
0.0
 10
57.56177424775867
 20
80.2024319333406
 30
0.0
 10
57.7968238576155
 20
79.90529730951168
 30
0.0
 10
57.9124540438324
 20
79.76061466589432
 30
0.0
 10
58.11285897726021
 20
79.47732546339091
 30
0.0
 10
58.19825926924455
 20
79.33877147035406
 30
0.0
 10
58.31996490296176
 20
79.06738744032052
 30
0.0
 10
58.35571030247441
 20
78.93525157168591
 30
0.0
 10
58.3557103024744
 20
78.81055681991513
 30
0.0
  0
LINE
  5
F4
330
1F
100
AcDbEntity
  8
0
  6
HIDDEN
 62
     7
370
     0
100
AcDbLine
 10
58.3557098137
 20
78.81055652
 30
0.0
 11
58.3557098137
 21
76.4158765863
 31
0.0
  0
LINE
  5
F5
330
1F
100
AcDbEntity
  8
0
  6
HIDDEN
 62
     7
370
     0
100
AcDbLine
 10
53.3557108568
 20
148.6934038888
 30
0.0
 11
53.3557108568
 21
146.424497206
 31
0.0
  0
SPLINE
  5
F6
330
1F
100
AcDbEntity
  8
0
  6
HIDDEN
 62
     7
370
     0
100
AcDbSpline
210
0.0
220
0.0
230
1.0
 70
     8
 71
     3
 72
    20
 73
    16
 74
     0
 42
0.00000001
 43
0.00000001
 40
0.0
 40
0.0
 40
0.0
 40
0.0
 40
0.2499999999999986
 40
0.2499999999999986
 40
0.4999999999999972
 40
0.4999999999999972
 40
0.7499999999999958
 40
0.7499999999999958
 40
0.8749999999999968
 40
0.8749999999999968
 40
0.937499999999998
 40
0.937499999999998
 40
0.9687499999999991
 40
0.9687499999999991
 40
1.0
 40
1.0
 40
1.0
 40
1.0
 10
53.35571030247139
 20
146.4244988222652
 30
0.0
 10
53.35571030247138
 20
146.2888165025184
 30
0.0
 10
53.30699851325477
 20
146.1477295163784
 30
0.0
 10
53.13783709002956
 20
145.8556577976478
 30
0.0
 10
53.01605667611125
 20
145.7040090555574
 30
0.0
 10
52.71850958136176
 20
145.4016006154043
 30
0.0
 10
52.54459697565897
 20
145.249011979281
 30
0.0
 10
52.22518214177715
 20
145.0237412154387
 30
0.0
 10
52.11014136632991
 20
144.949018120928
 30
0.0
 10
51.9030570423135
 20
144.849607711671
 30
0.0
 10
51.82694920750712
 20
144.8180426193264
 30
0.0
 10
51.69555466795375
 20
144.7835992351335
 30
0.0
 10
51.6490014489523
 20
144.7745476633658
 30
0.0
 10
51.55266809787158
 20
144.7643720145273
 30
0.0
 10
51.50340867451614
 20
144.7634222558523
 30
0.0
 10
51.4557103024694
 20
144.7664129767669
 30
0.0
  0
SPLINE
  5
F7
330
1F
100
AcDbEntity
  8
0
  6
HIDDEN
 62
     7
370
     0
100
AcDbSpline
210
0.0
220
0.0
230
1.0
 70
     8
 71
     3
 72
    12
 73
     8
 74
     0
 42
0.00000001
 43
0.00000001
 40
0.0
 40
0.0
 40
0.0
 40
0.0
 40
0.25
 40
0.25
 40
0.5
 40
0.5
 40
1.0
 40
1.0
 40
1.0
 40
1.0
 10
51.4557103024714
 20
144.766412976777
 30
0.0
 10
50.93701148064319
 20
144.7989357516253
 30
0.0
 10
50.4152999074382
 20
144.8222324927958
 30
0.0
 10
49.36900789094265
 20
144.8600780072179
 30
0.0
 10
48.84433626527237
 20
144.874346481714
 30
0.0
 10
47.26749024273316
 20
144.9085559691723
 30
0.0
 10
46.21253492818628
 20
144.9200554731162
 30
0.0
 10
45.15563541844104
 20
144.9257222538457
 30
0.0
  0
SPLINE
  5
F8
330
1F
100
AcDbEntity
  8
0
  6
HIDDEN
 62
     7
370
     0
100
AcDbSpline
210
0.0
220
0.0
230
1.0
 70
     8
 71
     3
 72
    14
 73
    10
 74
     0
 42
0.00000001
 43
0.00000001
 40
0.0
 40
0.0
 40
0.0
 40
0.0
 40
0.4999999999999986
 40
0.4999999999999986
 40
0.749999999999998
 40
0.749999999999998
 40
0.874999999999999
 40
0.874999999999999
 40
1.0
 40
1.0
 40
1.0
 40
1.0
 10
45.15563541844106
 20
80.43405791671552
 30
0.0
 10
46.46393698097509
 20
80.44107264045664
 30
0.0
 10
47.76899635563215
 20
80.45648121690111
 30
0.0
 10
49.71487240712086
 20
80.51037777236776
 30
0.0
 10
50.36156991086002
 20
80.53340933697046
 30
0.0
 10
51.32541227471454
 20
80.58435186184121
 30
0.0
 10
51.64565096664872
 20
80.60408678407443
 30
0.0
 10
52.28234619299126
 20
80.65357391254601
 30
0.0
 10
52.59906160127426
 20
80.6826386914752
 30
0.0
 10
52.91106991439065
 20
80.72419009584539
 30
0.0
  0
SPLINE
  5
F9
330
1F
100
AcDbEntity
  8
0
  6
HIDDEN
 62
     7
370
     0
100
AcDbSpline
210
0.0
220
0.0
230
1.0
 70
     8
 71
     3
 72
    12
 73
     8
 74
     0
 42
0.00000001
 43
0.00000001
 40
0.0
 40
0.0
 40
0.0
 40
0.0
 40
0.2482589358280065
 40
0.49275692651338
 40
0.4996929268905924
 40
0.7517603429469285
 40
1.0
 40
1.0
 40
1.0
 40
1.0
 10
73.56913415360378
 20
75.94408347112008
 30
0.0
 10
73.28294187091896
 20
75.91984877751963
 30
0.0
 10
72.71489291373933
 20
75.87174652857651
 30
0.0
 10
72.37858071805375
 20
75.83066688836087
 30
0.0
 10
71.9772771580432
 20
75.78724310606411
 30
0.0
 10
71.76122645933157
 20
75.75891551123831
 30
0.0
 10
71.70404028103418
 20
75.752050039045
 30
0.0
 10
71.67566595244335
 20
75.74864356619187
 30
0.0
  0
SPLINE
  5
FA
330
1F
100
AcDbEntity
  8
0
  6
HIDDEN
 62
     7
370
     0
100
AcDbSpline
210
0.0
220
0.0
230
1.0
 70
     8
 71
     3
 72
    20
 73
    16
 74
     0
 42
0.00000001
 43
0.00000001
 40
0.0
 40
0.0
 40
0.0
 40
0.0
 40
0.000418356455708
 40
0.0837682262268331
 40
0.1682467902922527
 40
0.2524475361374566
 40
0.3356320373710427
 40
0.4186123827497615
 40
0.5021246419430109
 40
0.5856817837477536
 40
0.6679083590237711
 40
0.7502171307502373
 40
0.8336315605145959
 40
0.9171894258508728
 40
0.9999999999999999
 40
0.9999999999999999
 40
0.9999999999999999
 40
0.9999999999999999
 10
84.58779966103958
 20
75.10175063115426
 30
0.0
 10
84.58800518723179
 20
75.10170447337246
 30
0.0
 10
84.62915804701875
 20
75.09246222204571
 30
0.0
 10
84.4833620435119
 20
75.12524272501062
 30
0.0
 10
84.12897725451559
 20
75.20222047549966
 30
0.0
 10
83.52700865944507
 20
75.32923472099176
 30
0.0
 10
82.72442074141254
 20
75.4815131704197
 30
0.0
 10
81.74576227954654
 20
75.64337771063906
 30
0.0
 10
80.6222698360608
 20
75.79543068186925
 30
0.0
 10
79.40739570311834
 20
75.92304312960229
 30
0.0
 10
78.14277994095858
 20
76.0107379527581
 30
0.0
 10
76.87473515294684
 20
76.05300753209299
 30
0.0
 10
75.6555629382048
 20
76.04887893564785
 30
0.0
 10
74.51393813227234
 20
76.01054492343081
 30
0.0
 10
73.88312431991321
 20
75.96617084896288
 30
0.0
 10
73.56913415360378
 20
75.9440834711201
 30
0.0
  0
SPLINE
  5
FB
330
1F
100
AcDbEntity
  8
0
  6
HIDDEN
 62
     7
370
     0
100
AcDbSpline
210
0.0
220
0.0
230
1.0
 70
     8
 71
     3
 72
    19
 73
    15
 74
     0
 42
0.00000001
 43
0.00000001
 40
0.0
 40
0.0
 40
0.0
 40
0.0
 40
0.0829493191956388
 40
0.1665845664378629
 40
0.2501287840155585
 40
0.3326342426237724
 40
0.414904590195398
 40
0.4986801461362106
 40
0.6644207758073458
 40
0.7475240743916562
 40
0.8316745465975424
 40
0.9160815921644417
 40
0.9994279840344213
 40
1.0
 40
1.0
 40
1.0
 40
1.0
 10
73.56904474663662
 20
149.41568179828
 30
0.0
 10
73.88376211471031
 20
149.3936704354034
 30
0.0
 10
74.51579932513475
 20
149.3494656923501
 30
0.0
 10
75.65802561037363
 20
149.3111534986708
 30
0.0
 10
76.87822020530541
 20
149.3070524694282
 30
0.0
 10
78.14697995482858
 20
149.3491802381279
 30
0.0
 10
79.41329437269532
 20
149.4371300662954
 30
0.0
 10
81.02673078626707
 20
149.6064896202099
 30
0.0
 10
82.46550657435316
 20
149.8286285812142
 30
0.0
 10
83.52876311537264
 20
150.0308774613775
 30
0.0
 10
84.13035675148704
 20
150.1576486733304
 30
0.0
 10
84.4838682924503
 20
150.234495195744
 30
0.0
 10
84.62966750838234
 20
150.267397985849
 30
0.0
 10
84.5879628619387
 20
150.2580485647083
 30
0.0
 10
84.58767858910488
 20
150.2579848359234
 30
0.0
  0
SPLINE
  5
FC
330
1F
100
AcDbEntity
  8
0
  6
HIDDEN
 62
     7
370
     0
100
AcDbSpline
210
0.0
220
0.0
230
1.0
 70
     8
 71
     3
 72
    12
 73
     8
 74
     0
 42
0.00000001
 43
0.00000001
 40
0.0
 40
0.0
 40
0.0
 40
0.0
 40
0.1661348483723765
 40
0.3322012848936254
 40
0.5008930844532482
 40
0.7521368938593876
 40
0.9999999999999999
 40
0.9999999999999999
 40
0.9999999999999999
 40
0.9999999999999999
 10
71.67503265309261
 20
149.6111924837238
 30
0.0
 10
71.68542539466674
 20
149.6098155906904
 30
0.0
 10
71.70620659823912
 20
149.6070623716075
 30
0.0
 10
71.87950563213212
 20
149.5854566169048
 30
0.0
 10
72.20145644764862
 20
149.5475933301704
 30
0.0
 10
72.72262158117663
 20
149.4872072319104
 30
0.0
 10
73.28818063052877
 20
149.4394157041035
 30
0.0
 10
73.56904474663662
 20
149.41568179828
 30
0.0
  0
LINE
  5
FD
330
1F
100
AcDbEntity
  8
0
  6
HIDDEN
 62
     7
370
     0
100
AcDbLine
 10
43.2649983989
 20
82.1067641566
 30
0.0
 11
43.3410427498
 21
82.0621780197
 31
0.0
  0
LINE
  5
FE
330
1F
100
AcDbEntity
  8
0
  6
HIDDEN
 62
     7
370
     0
100
AcDbLine
 10
43.3309509383
 20
143.3060175816
 30
0.0
 11
43.2793444918
 21
143.2901385317
 31
0.0
  0
LINE
  5
FF
330
1F
100
AcDbEntity
  8
0
  6
HIDDEN
 62
     7
370
     0
100
AcDbLine
 10
122.1057104843
 20
77.7622710059
 30
0.0
 11
122.1057104843
 21
147.5651810954
 31
0.0
  0
SPLINE
  5
100
330
1F
100
AcDbEntity
  8
0
  6
HIDDEN
 62
     7
370
     0
100
AcDbSpline
210
0.0
220
0.0
230
1.0
 70
    11
 71
     3
 72
    66
 73
    62
 74
     0
 42
0.00000001
 43
0.00000001
 40
0.0
 40
0.0
 40
0.0
 40
0.0
 40
0.0625000000000002
 40
0.0625000000000002
 40
0.1250000000000004
 40
0.1250000000000004
 40
0.1562500000000005
 40
0.1562500000000005
 40
0.1875000000000005
 40
0.1875000000000005
 40
0.2187500000000006
 40
0.2187500000000006
 40
0.2500000000000006
 40
0.2500000000000006
 40
0.2812500000000007
 40
0.2812500000000007
 40
0.3125000000000007
 40
0.3125000000000007
 40
0.3437500000000008
 40
0.3437500000000008
 40
0.3750000000000008
 40
0.3750000000000008
 40
0.4062500000000008
 40
0.4062500000000008
 40
0.4375000000000009
 40
0.4375000000000009
 40
0.4687500000000009
 40
0.4687500000000009
 40
0.500000000000001
 40
0.500000000000001
 40
0.531250000000001
 40
0.531250000000001
 40
0.562500000000001
 40
0.562500000000001
 40
0.593750000000001
 40
0.593750000000001
 40
0.625000000000001
 40
0.625000000000001
 40
0.656250000000001
 40
0.656250000000001
 40
0.687500000000001
 40
0.687500000000001
 40
0.718750000000001
 40
0.718750000000001
 40
0.7500000000000009
 40
0.7500000000000009
 40
0.7812500000000009
 40
0.7812500000000009
 40
0.8125000000000008
 40
0.8125000000000008
 40
0.8437500000000007
 40
0.8437500000000007
 40
0.8750000000000006
 40
0.8750000000000006
 40
0.9062500000000004
 40
0.9062500000000004
 40
0.9375000000000003
 40
0.9375000000000003
 40
0.9687500000000002
 40
0.9687500000000002
 40
1.0
 40
1.0
 40
1.0
 40
1.0
 10
83.40891595766243
 20
81.31356786453355
 30
0.0
 10
83.08762925318595
 20
81.36737669557903
 30
0.0
 10
82.68155012929407
 20
81.4309463101198
 30
0.0
 10
81.70018346001541
 20
81.55792756860025
 30
0.0
 10
81.14821920398818
 20
81.61807140731678
 30
0.0
 10
80.23491795017073
 20
81.68826263597568
 30
0.0
 10
79.9204909211805
 20
81.70791817843738
 30
0.0
 10
79.28290621521386
 20
81.73769940989663
 30
0.0
 10
78.95807910214367
 20
81.74796150064981
 30
0.0
 10
78.2959154342797
 20
81.75805204558772
 30
0.0
 10
77.96256293799709
 20
81.75773066688713
 30
0.0
 10
77.30714469880563
 20
81.74669269516488
 30
0.0
 10
76.98264834092502
 20
81.73601933880472
 30
0.0
 10
76.34022184124542
 20
81.70501218783244
 30
0.0
 10
76.02576824231744
 20
81.684775922536
 30
0.0
 10
75.42542082699545
 20
81.63774245658306
 30
0.0
 10
75.13706472239306
 20
81.61082657272118
 30
0.0
 10
74.58435882424911
 20
81.55226509090744
 30
0.0
 10
74.32290038703253
 20
81.52088567348687
 30
0.0
 10
73.8418066830582
 20
81.45805656250556
 30
0.0
 10
73.62003973463011
 20
81.42637510271369
 30
0.0
 10
73.21482163804794
 20
81.36500110160736
 30
0.0
 10
73.03315530250062
 20
81.33556143730866
 30
0.0
 10
72.72125858681433
 20
81.28308078697519
 30
0.0
 10
72.58924740368654
 20
81.25976395369844
 30
0.0
 10
72.37421643576863
 20
81.22095672364699
 30
0.0
 10
72.29209346006189
 20
81.20562817376461
 30
0.0
 10
72.18358362786603
 20
81.1852324840675
 30
0.0
 10
72.15605149787056
 20
81.17995507484795
 30
0.0
 10
72.15537536740675
 20
81.17982628815768
 30
0.0
 10
72.18292422750785
 20
81.1851069981844
 30
0.0
 10
72.2909020758986
 20
81.20540575685294
 30
0.0
 10
72.37117198307624
 20
81.22039479024812
 30
0.0
 10
72.58482124008643
 20
81.25897721510734
 30
0.0
 10
72.71887680500048
 20
81.28266832893182
 30
0.0
 10
73.03073217530101
 20
81.33516522858271
 30
0.0
 10
73.20940325315959
 20
81.36413978820453
 30
0.0
 10
73.61275034740528
 20
81.42531044651274
 30
0.0
 10
73.8381972014143
 20
81.45755843877711
 30
0.0
 10
74.31950946595444
 20
81.52046918365684
 30
0.0
 10
74.57712856919724
 20
81.55142168413464
 30
0.0
 10
75.12687345765818
 20
81.60982168477788
 30
0.0
 10
75.42038793215224
 20
81.63730200975972
 30
0.0
 10
76.02128811146119
 20
81.68447035838581
 30
0.0
 10
76.33108032441014
 20
81.70445499477607
 30
0.0
 10
76.96963026253881
 20
81.73550302800727
 30
0.0
 10
77.30052848900323
 20
81.7465191683357
 30
0.0
 10
77.95758539818019
 20
81.75770785586953
 30
0.0
 10
78.28637784388327
 20
81.75807223091005
 30
0.0
 10
78.94449185684883
 20
81.74828938707849
 30
0.0
 10
79.27603248586601
 20
81.73796255101918
 30
0.0
 10
79.9162327623924
 20
81.7081740031394
 30
0.0
 10
80.2274643450179
 20
81.68874247127695
 30
0.0
 10
80.83234585462726
 20
81.64243781388403
 30
0.0
 10
81.1277697708837
 20
81.61531980809256
 30
0.0
 10
81.68074503593553
 20
81.55754668227343
 30
0.0
 10
81.94065904515286
 20
81.52675950969781
 30
0.0
 10
82.4276152502857
 20
81.46385446962714
 30
0.0
 10
82.6558129569838
 20
81.43153103691401
 30
0.0
 10
83.06534600162176
 20
81.36993093467079
 30
0.0
 10
83.24827347970177
 20
81.34047213363301
 30
0.0
 10
83.40891595766243
 20
81.31356786453357
 30
0.0
  0
SPLINE
  5
101
330
1F
100
AcDbEntity
  8
0
  6
HIDDEN
 62
     7
370
     0
100
AcDbSpline
210
0.0
220
0.0
230
1.0
 70
    11
 71
     3
 72
    66
 73
    62
 74
     0
 42
0.00000001
 43
0.00000001
 40
0.0
 40
0.0
 40
0.0
 40
0.0
 40
0.0625000000000002
 40
0.0625000000000002
 40
0.1250000000000004
 40
0.1250000000000004
 40
0.1562500000000005
 40
0.1562500000000005
 40
0.1875000000000005
 40
0.1875000000000005
 40
0.2187500000000006
 40
0.2187500000000006
 40
0.2500000000000006
 40
0.2500000000000006
 40
0.2812500000000007
 40
0.2812500000000007
 40
0.3125000000000007
 40
0.3125000000000007
 40
0.3437500000000008
 40
0.3437500000000008
 40
0.3750000000000008
 40
0.3750000000000008
 40
0.4062500000000008
 40
0.4062500000000008
 40
0.4375000000000009
 40
0.4375000000000009
 40
0.4687500000000009
 40
0.4687500000000009
 40
0.500000000000001
 40
0.500000000000001
 40
0.531250000000001
 40
0.531250000000001
 40
0.562500000000001
 40
0.562500000000001
 40
0.593750000000001
 40
0.593750000000001
 40
0.625000000000001
 40
0.625000000000001
 40
0.656250000000001
 40
0.656250000000001
 40
0.687500000000001
 40
0.687500000000001
 40
0.718750000000001
 40
0.718750000000001
 40
0.7500000000000009
 40
0.7500000000000009
 40
0.7812500000000009
 40
0.7812500000000009
 40
0.8125000000000008
 40
0.8125000000000008
 40
0.8437500000000007
 40
0.8437500000000007
 40
0.8750000000000006
 40
0.8750000000000006
 40
0.9062500000000004
 40
0.9062500000000004
 40
0.9375000000000003
 40
0.9375000000000003
 40
0.9687500000000002
 40
0.9687500000000002
 40
1.0
 40
1.0
 40
1.0
 40
1.0
 10
83.40891595766243
 20
144.0462123060277
 30
0.0
 10
83.08762925318595
 20
143.9924034749822
 30
0.0
 10
82.68155012929407
 20
143.9288338604415
 30
0.0
 10
81.70018346001541
 20
143.801852601961
 30
0.0
 10
81.14821920398818
 20
143.7417087632445
 30
0.0
 10
80.23491795017073
 20
143.6715175345856
 30
0.0
 10
79.9204909211805
 20
143.6518619921239
 30
0.0
 10
79.28290621521386
 20
143.6220807606646
 30
0.0
 10
78.95807910214367
 20
143.6118186699115
 30
0.0
 10
78.2959154342797
 20
143.6017281249736
 30
0.0
 10
77.96256293799709
 20
143.6020495036742
 30
0.0
 10
77.30714469880563
 20
143.6130874753964
 30
0.0
 10
76.98264834092502
 20
143.6237608317566
 30
0.0
 10
76.34022184124542
 20
143.6547679827288
 30
0.0
 10
76.02576824231744
 20
143.6750042480253
 30
0.0
 10
75.42542082699545
 20
143.7220377139782
 30
0.0
 10
75.13706472239306
 20
143.7489535978401
 30
0.0
 10
74.58435882424911
 20
143.8075150796538
 30
0.0
 10
74.32290038703253
 20
143.8388944970744
 30
0.0
 10
73.8418066830582
 20
143.9017236080557
 30
0.0
 10
73.62003973463011
 20
143.9334050678476
 30
0.0
 10
73.21482163804794
 20
143.9947790689539
 30
0.0
 10
73.03315530250062
 20
144.0242187332526
 30
0.0
 10
72.72125858681433
 20
144.0766993835861
 30
0.0
 10
72.58924740368654
 20
144.1000162168628
 30
0.0
 10
72.37421643576863
 20
144.1388234469143
 30
0.0
 10
72.29209346006189
 20
144.1541519967967
 30
0.0
 10
72.18358362786603
 20
144.1745476864938
 30
0.0
 10
72.15605149787056
 20
144.1798250957133
 30
0.0
 10
72.15537536740675
 20
144.1799538824036
 30
0.0
 10
72.18292422750785
 20
144.1746731723769
 30
0.0
 10
72.2909020758986
 20
144.1543744137083
 30
0.0
 10
72.37117198307624
 20
144.1393853803131
 30
0.0
 10
72.58482124008643
 20
144.1008029554539
 30
0.0
 10
72.71887680500048
 20
144.0771118416295
 30
0.0
 10
73.03073217530101
 20
144.0246149419785
 30
0.0
 10
73.20940325315959
 20
143.9956403823567
 30
0.0
 10
73.61275034740528
 20
143.9344697240485
 30
0.0
 10
73.8381972014143
 20
143.9022217317842
 30
0.0
 10
74.31950946595444
 20
143.8393109869045
 30
0.0
 10
74.57712856919724
 20
143.8083584864266
 30
0.0
 10
75.12687345765818
 20
143.7499584857834
 30
0.0
 10
75.42038793215224
 20
143.7224781608016
 30
0.0
 10
76.02128811146119
 20
143.6753098121755
 30
0.0
 10
76.33108032441014
 20
143.6553251757852
 30
0.0
 10
76.96963026253881
 20
143.624277142554
 30
0.0
 10
77.30052848900323
 20
143.6132610022256
 30
0.0
 10
77.95758539818019
 20
143.6020723146918
 30
0.0
 10
78.28637784388327
 20
143.6017079396512
 30
0.0
 10
78.94449185684883
 20
143.6114907834828
 30
0.0
 10
79.27603248586601
 20
143.6218176195421
 30
0.0
 10
79.9162327623924
 20
143.6516061674219
 30
0.0
 10
80.2274643450179
 20
143.6710376992843
 30
0.0
 10
80.83234585462726
 20
143.7173423566772
 30
0.0
 10
81.1277697708837
 20
143.7444603624687
 30
0.0
 10
81.68074503593553
 20
143.8022334882879
 30
0.0
 10
81.94065904515286
 20
143.8330206608634
 30
0.0
 10
82.4276152502857
 20
143.8959257009342
 30
0.0
 10
82.6558129569838
 20
143.9282491336472
 30
0.0
 10
83.06534600162176
 20
143.9898492358905
 30
0.0
 10
83.24827347970177
 20
144.0193080369282
 30
0.0
 10
83.40891595766243
 20
144.0462123060277
 30
0.0
  0
SPLINE
  5
102
330
1F
100
AcDbEntity
  8
0
  6
HIDDEN
 62
     7
370
     0
100
AcDbSpline
210
0.0
220
0.0
230
1.0
 70
    11
 71
     3
 72
    17
 73
    13
 74
     0
 42
0.00000001
 43
0.00000001
 40
0.0
 40
0.0
 40
0.0
 40
0.0
 40
0.25
 40
0.25
 40
0.3750000000000001
 40
0.3750000000000001
 40
0.5
 40
0.625
 40
0.625
 40
0.75
 40
0.75
 40
1.0
 40
1.0
 40
1.0
 40
1.0
 10
83.40891595766243
 20
144.0462123060277
 30
0.0
 10
83.65436554923902
 20
144.0873200002438
 30
0.0
 10
83.83939629918073
 20
144.1138509017915
 30
0.0
 10
84.02831351916333
 20
144.1399680404913
 30
0.0
 10
84.07649358319573
 20
144.1463312804241
 30
0.0
 10
84.14002712294906
 20
144.1546384036415
 30
0.0
 10
84.1714246719694
 20
144.1586254440416
 30
0.0
 10
84.13996427623773
 20
144.1546304305817
 30
0.0
 10
84.07626328701028
 20
144.1463009234019
 30
0.0
 10
84.02807378275484
 20
144.1399355709566
 30
0.0
 10
83.83926289595972
 20
144.1138311096294
 30
0.0
 10
83.65436639793435
 20
144.0873201423826
 30
0.0
 10
83.40891595766243
 20
144.0462123060277
 30
0.0
  0
SPLINE
  5
103
330
1F
100
AcDbEntity
  8
0
  6
HIDDEN
 62
     7
370
     0
100
AcDbSpline
210
0.0
220
0.0
230
1.0
 70
    11
 71
     3
 72
    17
 73
    13
 74
     0
 42
0.00000001
 43
0.00000001
 40
0.0
 40
0.0
 40
0.0
 40
0.0
 40
0.2500000000000001
 40
0.2500000000000001
 40
0.3749999999999999
 40
0.3749999999999999
 40
0.4999999999999999
 40
0.6249999999999999
 40
0.6249999999999999
 40
0.7499999999999999
 40
0.7499999999999999
 40
1.0
 40
1.0
 40
1.0
 40
1.0
 10
83.40891595766243
 20
81.31356786453355
 30
0.0
 10
83.65436554923905
 20
81.27246017031744
 30
0.0
 10
83.83939629918075
 20
81.2459292687698
 30
0.0
 10
84.02831351916333
 20
81.21981213006994
 30
0.0
 10
84.07649358319573
 20
81.21344889013717
 30
0.0
 10
84.14002712294906
 20
81.20514176691981
 30
0.0
 10
84.1714246719694
 20
81.20115472651972
 30
0.0
 10
84.13996427623773
 20
81.20514973997955
 30
0.0
 10
84.07626328701028
 20
81.2134792471594
 30
0.0
 10
84.02807378275484
 20
81.21984459960466
 30
0.0
 10
83.8392628959597
 20
81.2459490609319
 30
0.0
 10
83.65436639793433
 20
81.27246002817867
 30
0.0
 10
83.40891595766243
 20
81.31356786453355
 30
0.0
  0
LINE
  5
104
330
1F
100
AcDbEntity
  8
0
  6
HIDDEN
 62
     7
370
     0
100
AcDbLine
 10
93.1557103025
 20
86.1798903982
 30
0.0
 11
93.1557103025
 21
139.1798897724
 31
0.0
  0
LINE
  5
105
330
1F
100
AcDbEntity
  8
0
  6
HIDDEN
 62
     7
370
     0
100
AcDbLine
 10
107.8136770951
 20
144.0298917781
 30
0.0
 11
122.1057104843
 21
144.0298917781
 31
0.0
  0
LINE
  5
106
330
1F
100
AcDbEntity
  8
0
  6
HIDDEN
 62
     7
370
     0
100
AcDbLine
 10
111.2457106786
 20
147.3941269408
 30
0.0
 11
111.2457106786
 21
158.3734403442
 31
0.0
  0
LINE
  5
107
330
1F
100
AcDbEntity
  8
0
  6
HIDDEN
 62
     7
370
     0
100
AcDbLine
 10
115.0657108949
 20
147.3941269408
 30
0.0
 11
115.0657108949
 21
158.3734403442
 31
0.0
  0
LINE
  5
108
330
1F
100
AcDbEntity
  8
0
  6
HIDDEN
 62
     7
370
     0
100
AcDbLine
 10
63.1523339974
 20
139.1798897724
 30
0.0
 11
63.1523339974
 21
86.1798903982
 31
0.0
  0
LINE
  5
109
330
1F
100
AcDbEntity
  8
0
  6
HIDDEN
 62
     7
370
     0
100
AcDbLine
 10
43.2557112502
 20
87.8264966498
 30
0.0
 11
43.2557112502
 21
137.5332835208
 31
0.0
  0
LINE
  5
10A
330
1F
100
AcDbEntity
  8
0
  6
HIDDEN
 62
     7
370
     0
100
AcDbLine
 10
102.4397875147
 20
139.1798897724
 30
0.0
 11
102.4397875147
 21
86.1798903982
 31
0.0
  0
LINE
  5
10B
330
1F
100
AcDbEntity
  8
0
  6
HIDDEN
 62
     7
370
     0
100
AcDbLine
 10
105.6057105737
 20
137.5548902045
 30
0.0
 11
105.6057105737
 21
87.8048899661
 31
0.0
  0
LINE
  5
10C
330
1F
100
AcDbEntity
  8
0
  6
HIDDEN
 62
     7
370
     0
100
AcDbLine
 10
44.9057093786
 20
88.1431854407
 30
0.0
 11
56.4557111787
 21
88.1431854407
 31
0.0
  0
LINE
  5
10D
330
1F
100
AcDbEntity
  8
0
  6
HIDDEN
 62
     7
370
     0
100
AcDbLine
 10
44.9057093786
 20
137.2165947298
 30
0.0
 11
44.9057093786
 21
88.1431854407
 31
0.0
  0
LINE
  5
10E
330
1F
100
AcDbEntity
  8
0
  6
HIDDEN
 62
     7
370
     0
100
AcDbLine
 10
51.4557084965
 20
137.2165947298
 30
0.0
 11
44.9057093786
 21
137.2165947298
 31
0.0
  0
SPLINE
  5
10F
330
1F
100
AcDbEntity
  8
0
  6
HIDDEN
 62
     7
370
     0
100
AcDbSpline
210
0.0
220
0.0
230
1.0
 70
     8
 71
     3
 72
    20
 73
    16
 74
     0
 42
0.00000001
 43
0.00000001
 40
0.0
 40
0.0
 40
0.0
 40
0.0
 40
0.2499999999999978
 40
0.2499999999999978
 40
0.3749999999999982
 40
0.3749999999999982
 40
0.4999999999999986
 40
0.4999999999999986
 40
0.6249999999999989
 40
0.6249999999999989
 40
0.7499999999999992
 40
0.7499999999999992
 40
0.8749999999999997
 40
0.8749999999999997
 40
1.0
 40
1.0
 40
1.0
 40
1.0
 10
53.35571030247139
 20
137.9084037156949
 30
0.0
 10
53.35571030247141
 20
137.8292007291627
 30
0.0
 10
53.30872780725866
 20
137.7481045107597
 30
0.0
 10
53.17090621648109
 20
137.6279078190088
 30
0.0
 10
53.11462393257111
 20
137.5889811150067
 30
0.0
 10
52.98153908110388
 20
137.5137923825824
 30
0.0
 10
52.90369913887083
 20
137.4771501772404
 30
0.0
 10
52.73106678275648
 20
137.4095596444085
 30
0.0
 10
52.63667378566539
 20
137.3786014626329
 30
0.0
 10
52.43123647935025
 20
137.3230770412632
 30
0.0
 10
52.31889023936308
 20
137.29836852743
 30
0.0
 10
52.08664937546345
 20
137.2585723003218
 30
0.0
 10
51.96593873304073
 20
137.2431524629247
 30
0.0
 10
51.71486787377169
 20
137.2220724880851
 30
0.0
 10
51.58534587735591
 20
137.2165952430641
 30
0.0
 10
51.4557103024714
 20
137.2165952430641
 30
0.0
  0
LINE
  5
110
330
1F
100
AcDbEntity
  8
0
  6
HIDDEN
 62
     7
370
     0
100
AcDbLine
 10
53.3557108568
 20
137.90840349
 30
0.0
 11
53.3557108568
 21
139.1798897724
 31
0.0
  0
SPLINE
  5
111
330
1F
100
AcDbEntity
  8
0
  6
HIDDEN
 62
     7
370
     0
100
AcDbSpline
210
0.0
220
0.0
230
1.0
 70
     8
 71
     3
 72
    20
 73
    16
 74
     0
 42
0.00000001
 43
0.00000001
 40
0.0
 40
0.0
 40
0.0
 40
0.0
 40
0.2499999999999978
 40
0.2499999999999978
 40
0.3749999999999982
 40
0.3749999999999982
 40
0.4999999999999986
 40
0.4999999999999986
 40
0.6249999999999989
 40
0.6249999999999989
 40
0.7499999999999992
 40
0.7499999999999992
 40
0.8749999999999997
 40
0.8749999999999997
 40
1.0
 40
1.0
 40
1.0
 40
1.0
 10
53.35571030247139
 20
137.9084037156949
 30
0.0
 10
53.35571030247141
 20
137.8292007291627
 30
0.0
 10
53.30872780725866
 20
137.7481045107597
 30
0.0
 10
53.17090621648109
 20
137.6279078190088
 30
0.0
 10
53.11462393257111
 20
137.5889811150067
 30
0.0
 10
52.98153908110388
 20
137.5137923825824
 30
0.0
 10
52.90369913887083
 20
137.4771501772404
 30
0.0
 10
52.73106678275648
 20
137.4095596444085
 30
0.0
 10
52.63667378566539
 20
137.3786014626329
 30
0.0
 10
52.43123647935025
 20
137.3230770412632
 30
0.0
 10
52.31889023936308
 20
137.29836852743
 30
0.0
 10
52.08664937546345
 20
137.2585723003218
 30
0.0
 10
51.96593873304073
 20
137.2431524629247
 30
0.0
 10
51.71486787377169
 20
137.2220724880851
 30
0.0
 10
51.58534587735591
 20
137.2165952430641
 30
0.0
 10
51.4557103024714
 20
137.2165952430641
 30
0.0
  0
LINE
  5
112
330
1F
100
AcDbEntity
  8
0
  6
HIDDEN
 62
     7
370
     0
100
AcDbLine
 10
51.4557084965
 20
137.2165947298
 30
0.0
 11
44.9057093786
 21
137.2165947298
 31
0.0
  0
LINE
  5
113
330
1F
100
AcDbEntity
  8
0
  6
HIDDEN
 62
     7
370
     0
100
AcDbLine
 10
44.9057093786
 20
88.1431854407
 30
0.0
 11
56.4557111787
 21
88.1431854407
 31
0.0
  0
SPLINE
  5
114
330
1F
100
AcDbEntity
  8
0
  6
HIDDEN
 62
     7
370
     0
100
AcDbSpline
210
0.0
220
0.0
230
1.0
 70
     8
 71
     3
 72
    18
 73
    14
 74
     0
 42
0.00000001
 43
0.00000001
 40
0.0
 40
0.0
 40
0.0
 40
0.0
 40
0.1249999999999982
 40
0.1249999999999982
 40
0.2499999999999964
 40
0.2499999999999964
 40
0.4999999999999988
 40
0.4999999999999988
 40
0.7500000000000011
 40
0.7500000000000011
 40
0.8750000000000006
 40
0.8750000000000006
 40
1.0
 40
1.0
 40
1.0
 40
1.0
 10
56.4557103024714
 20
88.14318492749712
 30
0.0
 10
56.58517761542861
 20
88.14318492749712
 30
0.0
 10
56.71218836432525
 20
88.13783192890448
 30
0.0
 10
56.9615516855225
 20
88.1170939562157
 30
0.0
 10
57.08517534015094
 20
88.1014220519614
 30
0.0
 10
57.43420767708498
 20
88.04172732355931
 30
0.0
 10
57.64471944189177
 20
87.98396214387833
 30
0.0
 10
57.98863611959129
 20
87.84944030260084
 30
0.0
 10
58.12498652110909
 20
87.77177118909543
 30
0.0
 10
58.26202457767163
 20
87.65248005500808
 30
0.0
 10
58.29724359638454
 20
87.61156104587305
 30
0.0
 10
58.3438671733231
 20
87.53090505258301
 30
0.0
 10
58.35571030247142
 20
87.49093653239015
 30
0.0
 10
58.3557103024714
 20
87.45137645486633
 30
0.0
  0
LINE
  5
115
330
1F
100
AcDbEntity
  8
0
  6
HIDDEN
 62
     7
370
     0
100
AcDbLine
 10
58.3557098137
 20
87.4513766806
 30
0.0
 11
58.3557098137
 21
86.1798903982
 31
0.0
  0
SPLINE
  5
116
330
1F
100
AcDbEntity
  8
0
  6
HIDDEN
 62
     7
370
     0
100
AcDbSpline
210
0.0
220
0.0
230
1.0
 70
     8
 71
     3
 72
    18
 73
    14
 74
     0
 42
0.00000001
 43
0.00000001
 40
0.0
 40
0.0
 40
0.0
 40
0.0
 40
0.1249999999999982
 40
0.1249999999999982
 40
0.2499999999999964
 40
0.2499999999999964
 40
0.4999999999999988
 40
0.4999999999999988
 40
0.7500000000000011
 40
0.7500000000000011
 40
0.8750000000000006
 40
0.8750000000000006
 40
1.0
 40
1.0
 40
1.0
 40
1.0
 10
56.4557103024714
 20
88.14318492749712
 30
0.0
 10
56.58517761542861
 20
88.14318492749712
 30
0.0
 10
56.71218836432525
 20
88.13783192890448
 30
0.0
 10
56.9615516855225
 20
88.1170939562157
 30
0.0
 10
57.08517534015094
 20
88.1014220519614
 30
0.0
 10
57.43420767708498
 20
88.04172732355931
 30
0.0
 10
57.64471944189177
 20
87.98396214387833
 30
0.0
 10
57.98863611959129
 20
87.84944030260084
 30
0.0
 10
58.12498652110909
 20
87.77177118909543
 30
0.0
 10
58.26202457767163
 20
87.65248005500808
 30
0.0
 10
58.29724359638454
 20
87.61156104587305
 30
0.0
 10
58.3438671733231
 20
87.53090505258301
 30
0.0
 10
58.35571030247142
 20
87.49093653239015
 30
0.0
 10
58.3557103024714
 20
87.45137645486633
 30
0.0
  0
LINE
  5
117
330
1F
100
AcDbEntity
  8
0
  6
HIDDEN
 62
     7
370
     0
100
AcDbLine
 10
44.9057093786
 20
88.1431854407
 30
0.0
 11
44.9057093786
 21
137.2165947298
 31
0.0
  0
LINE
  5
118
330
1F
100
AcDbEntity
  8
0
  6
HIDDEN
 62
     7
370
     0
100
AcDbLine
 10
170.1057090389
 20
86.6798895488
 30
0.0
 11
170.1057090389
 21
138.6798906217
 31
0.0
  0
LWPOLYLINE
  5
119
330
1F
100
AcDbEntity
  8
0
  6
HIDDEN
 62
     7
370
     0
100
AcDbPolyline
 90
       13
 70
   128
 43
0.0
 10
102.155709915
 20
152.6236224065
 10
103.3087897079
 20
152.6784400533
 10
104.3997065129
 20
152.8399388383
 10
105.3696482407
 20
153.0994127582
 10
106.1663267167
 20
153.4428733478
 10
106.7467912065
 20
153.8518021892
 10
107.0797492715
 20
154.3041567395
 10
107.1472515317
 20
154.7755512486
 10
106.9456574472
 20
155.240571786
 10
106.485837415
 20
155.674147148
 10
105.7925785856
 20
156.0529011379
 10
104.9032549338
 20
156.3564228902
 10
104.5539512264
 20
156.4417804669
  0
LWPOLYLINE
  5
11A
330
1F
100
AcDbEntity
  8
0
  6
HIDDEN
 62
     7
370
     0
100
AcDbPolyline
 90
       13
 70
   128
 43
0.0
 10
99.7539770754
 20
156.4410056065
 10
99.4081653619
 20
156.3564228902
 10
98.5188421758
 20
156.0529011379
 10
97.8255833464
 20
155.674147148
 10
97.3657628486
 20
155.240571786
 10
97.1641696954
 20
154.7755512486
 10
97.23167149
 20
154.3041567395
 10
97.5646295549
 20
153.8518021892
 10
98.1450945103
 20
153.4428733478
 10
98.9417720551
 20
153.0994127582
 10
99.9117142485
 20
152.8399388383
 10
101.0026310535
 20
152.6784400533
 10
102.155709915
 20
152.6236224065
  0
LINE
  5
11B
330
1F
100
AcDbEntity
  8
0
  6
HIDDEN
 62
     7
370
     0
100
AcDbLine
 10
205.1057129132
 20
90.6048907976
 30
0.0
 11
205.1057129132
 21
134.754889373
 31
0.0
  0
LINE
  5
11C
330
1F
100
AcDbEntity
  8
0
  6
HIDDEN
 62
     7
370
     0
100
AcDbLine
 10
205.1057129132
 20
132.7298904846
 30
0.0
 11
205.1057129132
 21
92.6625902842
 31
0.0
  0
LINE
  5
11D
330
1F
100
AcDbEntity
  8
0
  6
HIDDEN
 62
     7
370
     0
100
AcDbLine
 10
246.2557091342
 20
92.6798905323
 30
0.0
 11
246.2557091342
 21
132.6798896382
 31
0.0
  0
LWPOLYLINE
  5
11E
330
1F
100
AcDbEntity
  8
0
  6
HIDDEN
 62
     7
370
     0
100
AcDbPolyline
 90
        2
 70
   128
 43
0.0
 10
246.2557091342
 20
132.6798896382
 10
246.2557091342
 20
132.6798896382
  0
LINE
  5
11F
330
1F
100
AcDbEntity
  8
0
  6
HIDDEN
 62
     7
370
     0
100
AcDbLine
 10
252.3557080852
 20
104.4048897068
 30
0.0
 11
252.3557080852
 21
92.6798905323
 31
0.0
  0
LINE
  5
120
330
1F
100
AcDbEntity
  8
0
  6
HIDDEN
 62
     7
370
     0
100
AcDbLine
 10
252.3557080852
 20
104.4048897068
 30
0.0
 11
248.0557098018
 21
104.4048897068
 31
0.0
  0
SPLINE
  5
121
330
1F
100
AcDbEntity
  8
0
  6
HIDDEN
 62
     7
370
     0
100
AcDbSpline
210
0.0
220
0.0
230
1.0
 70
     8
 71
     3
 72
    10
 73
     6
 74
     0
 42
0.00000001
 43
0.00000001
 40
0.0
 40
0.0
 40
0.0
 40
0.0
 40
0.5
 40
0.5
 40
1.0
 40
1.0
 40
1.0
 40
1.0
 10
248.0557103024714
 20
104.4048900852806
 30
0.0
 10
247.9174849673983
 20
104.4048900852806
 30
0.0
 10
247.7848530448699
 20
104.4649852532104
 30
0.0
 10
247.6049611233911
 20
104.6524914069311
 30
0.0
 10
247.5557103024714
 20
104.7778171688622
 30
0.0
 10
247.5557103024714
 20
104.9048900852806
 30
0.0
  0
LINE
  5
122
330
1F
100
AcDbEntity
  8
0
  6
HIDDEN
 62
     7
370
     0
100
AcDbLine
 10
247.5557162391
 20
104.9048902544
 30
0.0
 11
247.5557162391
 21
120.4548899162
 31
0.0
  0
SPLINE
  5
123
330
1F
100
AcDbEntity
  8
0
  6
HIDDEN
 62
     7
370
     0
100
AcDbSpline
210
0.0
220
0.0
230
1.0
 70
     8
 71
     3
 72
    10
 73
     6
 74
     0
 42
0.00000001
 43
0.00000001
 40
0.0
 40
0.0
 40
0.0
 40
0.0
 40
0.5
 40
0.5
 40
1.0
 40
1.0
 40
1.0
 40
1.0
 10
247.5557103024714
 20
120.4548900852807
 30
0.0
 10
247.5557103024714
 20
120.5821366832204
 30
0.0
 10
247.604091301174
 20
120.70626124957
 30
0.0
 10
247.7852811336854
 20
120.895361706658
 30
0.0
 10
247.9172094735474
 20
120.9548900852807
 30
0.0
 10
248.0557103024714
 20
120.9548900852807
 30
0.0
  0
LINE
  5
124
330
1F
100
AcDbEntity
  8
0
  6
HIDDEN
 62
     7
370
     0
100
AcDbLine
 10
248.0557098018
 20
120.9548904638
 30
0.0
 11
252.3557080852
 21
120.9548904638
 31
0.0
  0
LINE
  5
125
330
1F
100
AcDbEntity
  8
0
  6
HIDDEN
 62
     7
370
     0
100
AcDbLine
 10
252.3557080852
 20
120.9548904638
 30
0.0
 11
252.3557080852
 21
132.6798896382
 31
0.0
  0
LINE
  5
126
330
1F
100
AcDbEntity
  8
0
  6
HIDDEN
 62
     7
370
     0
100
AcDbLine
 10
252.3557080852
 20
120.9548904638
 30
0.0
 11
248.0557098018
 21
120.9548904638
 31
0.0
  0
SPLINE
  5
127
330
1F
100
AcDbEntity
  8
0
  6
HIDDEN
 62
     7
370
     0
100
AcDbSpline
210
0.0
220
0.0
230
1.0
 70
     8
 71
     3
 72
    10
 73
     6
 74
     0
 42
0.00000001
 43
0.00000001
 40
0.0
 40
0.0
 40
0.0
 40
0.0
 40
0.5
 40
0.5
 40
1.0
 40
1.0
 40
1.0
 40
1.0
 10
248.0557103024714
 20
120.9548900852807
 30
0.0
 10
247.9174849673983
 20
120.9548900852807
 30
0.0
 10
247.7848530448699
 20
120.8947949173509
 30
0.0
 10
247.6049611233911
 20
120.7072887636302
 30
0.0
 10
247.5557103024714
 20
120.5819630016991
 30
0.0
 10
247.5557103024714
 20
120.4548900852807
 30
0.0
  0
SPLINE
  5
128
330
1F
100
AcDbEntity
  8
0
  6
HIDDEN
 62
     7
370
     0
100
AcDbSpline
210
0.0
220
0.0
230
1.0
 70
     8
 71
     3
 72
    10
 73
     6
 74
     0
 42
0.00000001
 43
0.00000001
 40
0.0
 40
0.0
 40
0.0
 40
0.0
 40
0.5
 40
0.5
 40
1.0
 40
1.0
 40
1.0
 40
1.0
 10
247.5557103024714
 20
104.9048900852806
 30
0.0
 10
247.5557103024714
 20
104.777643487341
 30
0.0
 10
247.604091301174
 20
104.6535189209913
 30
0.0
 10
247.7852811336854
 20
104.4644184639033
 30
0.0
 10
247.9172094735474
 20
104.4048900852806
 30
0.0
 10
248.0557103024714
 20
104.4048900852806
 30
0.0
  0
LINE
  5
129
330
1F
100
AcDbEntity
  8
0
  6
HIDDEN
 62
     7
370
     0
100
AcDbLine
 10
248.0557098018
 20
104.4048897068
 30
0.0
 11
252.3557080852
 21
104.4048897068
 31
0.0
  0
LINE
  5
12A
330
1F
100
AcDbEntity
  8
0
  6
HIDDEN
 62
     7
370
     0
100
AcDbLine
 10
247.5557162391
 20
120.4548899162
 30
0.0
 11
247.5557162391
 21
104.9048902544
 31
0.0
  0
LINE
  5
12B
330
1F
100
AcDbEntity
  8
0
  6
HIDDEN
 62
     7
370
     0
100
AcDbLine
 10
207.1057095157
 20
92.6798905323
 30
0.0
 11
207.1057095157
 21
132.6798896382
 31
0.0
  0
LWPOLYLINE
  5
12C
330
1F
100
AcDbEntity
  8
0
  6
HIDDEN
 62
     7
370
     0
100
AcDbPolyline
 90
        2
 70
   128
 43
0.0
 10
207.1057095157
 20
132.6798896382
 10
207.1057095157
 20
132.6798896382
  0
SPLINE
  5
12D
330
1F
100
AcDbEntity
  8
0
  6
HIDDEN
 62
     7
370
     0
100
AcDbSpline
210
0.0
220
0.0
230
1.0
 70
     8
 71
     3
 72
    58
 73
    54
 74
     0
 42
0.00000001
 43
0.00000001
 40
-0.0624999999999977
 40
-0.0624999999999977
 40
0.0
 40
0.0
 40
0.0312500000000006
 40
0.0312500000000006
 40
0.0625000000000013
 40
0.0625000000000013
 40
0.0937500000000019
 40
0.0937500000000019
 40
0.1250000000000025
 40
0.1250000000000025
 40
0.1875000000000038
 40
0.1875000000000038
 40
0.2500000000000051
 40
0.2500000000000051
 40
0.2812500000000057
 40
0.2812500000000057
 40
0.3125000000000063
 40
0.3125000000000063
 40
0.3437500000000069
 40
0.3437500000000069
 40
0.3750000000000075
 40
0.3750000000000075
 40
0.4062500000000082
 40
0.4062500000000082
 40
0.4375000000000088
 40
0.4375000000000088
 40
0.4687500000000095
 40
0.4687500000000095
 40
0.5000000000000101
 40
0.5000000000000101
 40
0.5625000000000105
 40
0.5625000000000105
 40
0.6250000000000111
 40
0.6250000000000111
 40
0.6562500000000102
 40
0.6562500000000102
 40
0.6875000000000094
 40
0.6875000000000094
 40
0.7187500000000087
 40
0.7187500000000087
 40
0.7500000000000078
 40
0.7500000000000078
 40
0.781250000000007
 40
0.781250000000007
 40
0.8125000000000062
 40
0.8125000000000062
 40
0.8437500000000054
 40
0.8437500000000054
 40
0.8750000000000046
 40
0.8750000000000046
 40
0.9375000000000023
 40
0.9375000000000023
 40
1.0
 40
1.0
 40
1.031250000000001
 40
1.031250000000001
 10
213.0557103024715
 20
122.9203654313174
 30
0.0
 10
213.0557103024715
 20
122.559652412262
 30
0.0
 10
213.0693432829682
 20
122.4407182258574
 30
0.0
 10
213.1227421704943
 20
122.2054249289075
 30
0.0
 10
213.1631631084352
 20
122.0878220617647
 30
0.0
 10
213.268602269323
 20
121.8625029760219
 30
0.0
 10
213.3331107957525
 20
121.7550447081497
 30
0.0
 10
213.4855007261124
 20
121.5507508867152
 30
0.0
 10
213.5741374104155
 20
121.4535876225439
 30
0.0
 10
213.864546161159
 20
121.1913289183969
 30
0.0
 10
214.0986807711505
 20
121.0486267529006
 30
0.0
 10
214.6039681892918
 20
120.8569626410489
 30
0.0
 10
214.8804449683391
 20
120.8060973432446
 30
0.0
 10
215.2916157950606
 20
120.8058901969635
 30
0.0
 10
215.4308443567526
 20
120.8184398844989
 30
0.0
 10
215.7002448226352
 20
120.8676396827375
 30
0.0
 10
215.8311942549277
 20
120.9040207721362
 30
0.0
 10
216.0855562681632
 20
121.0002647395756
 30
0.0
 10
216.2084095927561
 20
121.0602706007032
 30
0.0
 10
216.4358721785451
 20
121.1985088900044
 30
0.0
 10
216.5419341226803
 20
121.2772301607596
 30
0.0
 10
216.7380704891806
 20
121.4542429388514
 30
0.0
 10
216.8249005164165
 20
121.5495998686565
 30
0.0
 10
216.9770117938851
 20
121.7530923126779
 30
0.0
 10
217.0428212835302
 20
121.862506863687
 30
0.0
 10
217.1482669764281
 20
122.0878447321401
 30
0.0
 10
217.1880353851624
 20
122.2032290983691
 30
0.0
 10
217.2418683229311
 20
122.4391696866797
 30
0.0
 10
217.2556595864152
 20
122.5604926718002
 30
0.0
 10
217.2558113059009
 20
122.9166721670423
 30
0.0
 10
217.2008205600413
 20
123.1531164013039
 30
0.0
 10
216.991692459241
 20
123.5808168800747
 30
0.0
 10
216.8354669212468
 20
123.7764786519779
 30
0.0
 10
216.5453541267817
 20
124.0173962249053
 30
0.0
 10
216.4374517497872
 20
124.0905781617338
 30
0.0
 10
216.2094030347322
 20
124.2160247606996
 30
0.0
 10
216.0888998169043
 20
124.2689249781001
 30
0.0
 10
215.8347934314085
 20
124.3552651655536
 30
0.0
 10
215.7013708550878
 20
124.388310656739
 30
0.0
 10
215.4329103014493
 20
124.4319847507991
 30
0.0
 10
215.2964589824164
 20
124.4431583877812
 30
0.0
 10
215.0189254165035
 20
124.4433713942581
 30
0.0
 10
214.8822402569576
 20
124.4323850631607
 30
0.0
 10
214.613684215056
 20
124.3891028266884
 30
0.0
 10
214.480290389084
 20
124.3562852287132
 30
0.0
 10
214.2258504409626
 20
124.2702748575072
 30
0.0
 10
214.1052064073258
 20
124.2175338094444
 30
0.0
 10
213.8769032935077
 20
124.0924309559206
 30
0.0
 10
213.7688359586845
 20
124.01940539165
 30
0.0
 10
213.4781940149817
 20
123.7789089282027
 30
0.0
 10
213.321574915356
 20
123.5834936520991
 30
0.0
 10
213.1115997309623
 20
123.1562462422257
 30
0.0
 10
213.0557103024715
 20
122.9203654313174
 30
0.0
 10
213.0557103024715
 20
122.559652412262
 30
0.0
  0
SPLINE
  5
12E
330
1F
100
AcDbEntity
  8
0
  6
HIDDEN
 62
     7
370
     0
100
AcDbSpline
210
0.0
220
0.0
230
1.0
 70
     8
 71
     3
 72
    58
 73
    54
 74
     0
 42
0.00000001
 43
0.00000001
 40
-0.0624999999999982
 40
-0.0624999999999982
 40
0.0
 40
0.0
 40
0.0312500000000003
 40
0.0312500000000003
 40
0.0625000000000006
 40
0.0625000000000006
 40
0.0937500000000009
 40
0.0937500000000009
 40
0.1250000000000011
 40
0.1250000000000011
 40
0.1875000000000023
 40
0.1875000000000023
 40
0.2500000000000034
 40
0.2500000000000034
 40
0.2812500000000039
 40
0.2812500000000039
 40
0.3125000000000045
 40
0.3125000000000045
 40
0.3437500000000051
 40
0.3437500000000051
 40
0.3750000000000057
 40
0.3750000000000057
 40
0.4062500000000062
 40
0.4062500000000062
 40
0.4375000000000068
 40
0.4375000000000068
 40
0.4687500000000073
 40
0.4687500000000073
 40
0.5000000000000079
 40
0.5000000000000079
 40
0.5625000000000085
 40
0.5625000000000085
 40
0.6250000000000092
 40
0.6250000000000092
 40
0.6562500000000085
 40
0.6562500000000085
 40
0.6875000000000078
 40
0.6875000000000078
 40
0.7187500000000071
 40
0.7187500000000071
 40
0.7500000000000063
 40
0.7500000000000063
 40
0.7812500000000057
 40
0.7812500000000057
 40
0.812500000000005
 40
0.812500000000005
 40
0.8437500000000042
 40
0.8437500000000042
 40
0.8750000000000036
 40
0.8750000000000036
 40
0.9375000000000018
 40
0.9375000000000018
 40
1.0
 40
1.0
 40
1.03125
 40
1.03125
 10
213.0557103024715
 20
122.4394147392438
 30
0.0
 10
213.0557103024714
 20
122.8001277582992
 30
0.0
 10
213.0693432829682
 20
122.9176174436202
 30
0.0
 10
213.1227421704943
 20
123.1474103890994
 30
0.0
 10
213.1631631084352
 20
123.2608923263819
 30
0.0
 10
213.268602269323
 20
123.4759764405681
 30
0.0
 10
213.3331107957524
 20
123.5773694326075
 30
0.0
 10
213.4855007261123
 20
123.7683338502505
 30
0.0
 10
213.5741374104156
 20
123.8581862814848
 30
0.0
 10
213.864546161159
 20
124.0988257932906
 30
0.0
 10
214.0986807711505
 20
124.2270663220662
 30
0.0
 10
214.6039681892918
 20
124.3983118622813
 30
0.0
 10
214.880444968339
 20
124.4431431664701
 30
0.0
 10
215.2916157950606
 20
124.4433265090444
 30
0.0
 10
215.4308443567527
 20
124.4322317265095
 30
0.0
 10
215.7002448226352
 20
124.3885819131509
 30
0.0
 10
215.8311942549277
 20
124.3562651674225
 30
0.0
 10
216.0855562681632
 20
124.2702779681611
 30
0.0
 10
216.2084095927559
 20
124.2164693108233
 30
0.0
 10
216.4358721785451
 20
124.0915478455325
 30
0.0
 10
216.5419341226803
 20
124.0200035176001
 30
0.0
 10
216.7380704891806
 20
123.8575872430845
 30
0.0
 10
216.8249005164165
 20
123.7694001190179
 30
0.0
 10
216.9770117938851
 20
123.5792039452505
 30
0.0
 10
217.0428212835303
 20
123.4759728228179
 30
0.0
 10
217.1482669764281
 20
123.2608705924623
 30
0.0
 10
217.1880353851625
 20
123.1495405542385
 30
0.0
 10
217.2418683229311
 20
122.9191438919545
 30
0.0
 10
217.2556595864152
 20
122.7992821735754
 30
0.0
 10
217.2558113059009
 20
122.4431186088783
 30
0.0
 10
217.2008205600412
 20
122.2007040168812
 30
0.0
 10
216.991692459241
 20
121.7526960397241
 30
0.0
 10
216.8354669212467
 20
121.5426197229439
 30
0.0
 10
216.5453541267816
 20
121.2800821623407
 30
0.0
 10
216.4374517497873
 20
121.1995784288779
 30
0.0
 10
216.2094030347322
 20
121.0607660159028
 30
0.0
 10
216.0888998169043
 20
121.0017749761049
 30
0.0
 10
215.8347934314086
 20
120.9051440869451
 30
0.0
 10
215.7013708550878
 20
120.8679449649683
 30
0.0
 10
215.4329103014493
 20
120.8187187210774
 30
0.0
 10
215.2964589824164
 20
120.806080145718
 30
0.0
 10
215.0189254165035
 20
120.8058394842235
 30
0.0
 10
214.8822402569577
 20
120.8182664521553
 30
0.0
 10
214.6136842150559
 20
120.867053126091
 30
0.0
 10
214.4802903890839
 20
120.9039982885576
 30
0.0
 10
214.2258504409627
 20
121.0002682505972
 30
0.0
 10
214.1052064073258
 20
121.0590877869832
 30
0.0
 10
213.8769032935077
 20
121.1975364018089
 30
0.0
 10
213.7688359586845
 20
121.2778793000497
 30
0.0
 10
213.4781940149816
 20
121.5399976068728
 30
0.0
 10
213.3215749153559
 20
121.7498473929861
 30
0.0
 10
213.1115997309623
 20
122.1974697444424
 30
0.0
 10
213.0557103024715
 20
122.4394147392438
 30
0.0
 10
213.0557103024714
 20
122.8001277582992
 30
0.0
  0
SPLINE
  5
12F
330
1F
100
AcDbEntity
  8
0
  6
HIDDEN
 62
     7
370
     0
100
AcDbSpline
210
0.0
220
0.0
230
1.0
 70
    11
 71
     3
 72
    58
 73
    54
 74
     0
 42
0.00000001
 43
0.00000001
 40
-0.0624999999999986
 40
-0.0624999999999986
 40
0.0
 40
0.0
 40
0.0312500000000004
 40
0.0312500000000004
 40
0.0625000000000008
 40
0.0625000000000008
 40
0.0937500000000013
 40
0.0937500000000013
 40
0.1250000000000017
 40
0.1250000000000017
 40
0.1875000000000026
 40
0.1875000000000026
 40
0.2500000000000034
 40
0.2500000000000034
 40
0.2812500000000038
 40
0.2812500000000038
 40
0.3125000000000042
 40
0.3125000000000042
 40
0.3437500000000047
 40
0.3437500000000047
 40
0.3750000000000051
 40
0.3750000000000051
 40
0.4062500000000055
 40
0.4062500000000055
 40
0.4375000000000059
 40
0.4375000000000059
 40
0.4687500000000063
 40
0.4687500000000063
 40
0.5000000000000068
 40
0.5000000000000068
 40
0.5625000000000077
 40
0.5625000000000077
 40
0.6250000000000084
 40
0.6250000000000084
 40
0.6562500000000078
 40
0.6562500000000078
 40
0.6875000000000071
 40
0.6875000000000071
 40
0.7187500000000064
 40
0.7187500000000064
 40
0.7500000000000057
 40
0.7500000000000057
 40
0.781250000000005
 40
0.781250000000005
 40
0.8125000000000043
 40
0.8125000000000043
 40
0.8437500000000037
 40
0.8437500000000037
 40
0.875000000000003
 40
0.875000000000003
 40
0.9375000000000014
 40
0.9375000000000014
 40
1.0
 40
1.0
 40
1.03125
 40
1.03125
 10
213.0557103024715
 20
92.67989008528065
 30
0.0
 10
213.0557103024715
 20
92.67989008528066
 30
0.0
 10
213.0693432829681
 20
92.68133458636423
 30
0.0
 10
213.1227421704943
 20
92.68683493783499
 30
0.0
 10
213.1631631084351
 20
92.69095586769515
 30
0.0
 10
213.268602269323
 20
92.70119083925185
 30
0.0
 10
213.3331107957525
 20
92.7072561150847
 30
0.0
 10
213.4855007261123
 20
92.72058551887619
 30
0.0
 10
213.5741374104155
 20
92.72789635181314
 30
0.0
 10
213.864546161159
 20
92.74951554415435
 30
0.0
 10
214.0986807711505
 20
92.76397718087506
 30
0.0
 10
214.6039681892917
 20
92.78439575251174
 30
0.0
 10
214.8804449683391
 20
92.79042974612712
 30
0.0
 10
215.2916157950607
 20
92.79045354983394
 30
0.0
 10
215.4308443567527
 20
92.78899864483348
 30
0.0
 10
215.7002448226352
 20
92.78344865995341
 30
0.0
 10
215.8311942549277
 20
92.77938431628309
 30
0.0
 10
216.0855562681631
 20
92.76912754810512
 30
0.0
 10
216.2084095927561
 20
92.76293034431535
 30
0.0
 10
216.4358721785451
 20
92.74961352030495
 30
0.0
 10
216.5419341226803
 20
92.74243657748212
 30
0.0
 10
216.7380704891806
 20
92.72784007390598
 30
0.0
 10
216.8249005164166
 20
92.72067026816735
 30
0.0
 10
216.9770117938851
 20
92.70737399791341
 30
0.0
 10
217.0428212835303
 20
92.70119056933699
 30
0.0
 10
217.1482669764282
 20
92.69095493123945
 30
0.0
 10
217.1880353851625
 20
92.68690060323428
 30
0.0
 10
217.2418683229311
 20
92.6813566772077
 30
0.0
 10
217.2556595864152
 20
92.67989541046619
 30
0.0
 10
217.2558113059009
 20
92.67987947992128
 30
0.0
 10
217.2008205600413
 20
92.68584983765676
 30
0.0
 10
216.991692459241
 20
92.70615733604313
 30
0.0
 10
216.8354669212468
 20
92.72057188092003
 30
0.0
 10
216.5453541267816
 20
92.74219186859591
 30
0.0
 10
216.4374517497873
 20
92.74951366523018
 30
0.0
 10
216.2094030347322
 20
92.7628794792395
 30
0.0
 10
216.0888998169043
 20
92.76897030163691
 30
0.0
 10
215.8347934314086
 20
92.7792610033432
 30
0.0
 10
215.7013708550878
 20
92.78341463413456
 30
0.0
 10
215.4329103014494
 20
92.78896678396528
 30
0.0
 10
215.2964589824164
 20
92.79043172234262
 30
0.0
 10
215.0189254165036
 20
92.79045937736022
 30
0.0
 10
214.8822402569577
 20
92.78901874052578
 30
0.0
 10
214.6136842150559
 20
92.78351430306252
 30
0.0
 10
214.4802903890839
 20
92.77938673857102
 30
0.0
 10
214.2258504409626
 20
92.7691271477374
 30
0.0
 10
214.1052064073258
 20
92.76304865941427
 30
0.0
 10
213.8769032935077
 20
92.74970289811237
 30
0.0
 10
213.7688359586845
 20
92.74238556414215
 30
0.0
 10
213.4781940149817
 20
92.7207637207664
 30
0.0
 10
213.3215749153559
 20
92.70632921075666
 30
0.0
 10
213.1115997309622
 20
92.68595426917378
 30
0.0
 10
213.0557103024715
 20
92.67989008528065
 30
0.0
 10
213.0557103024715
 20
92.67989008528066
 30
0.0
  0
SPLINE
  5
130
330
1F
100
AcDbEntity
  8
0
  6
HIDDEN
 62
     7
370
     0
100
AcDbSpline
210
0.0
220
0.0
230
1.0
 70
    11
 71
     3
 72
    58
 73
    54
 74
     0
 42
0.00000001
 43
0.00000001
 40
-0.0624999999999986
 40
-0.0624999999999986
 40
0.0
 40
0.0
 40
0.0312500000000004
 40
0.0312500000000004
 40
0.0625000000000008
 40
0.0625000000000008
 40
0.0937500000000013
 40
0.0937500000000013
 40
0.1250000000000017
 40
0.1250000000000017
 40
0.1875000000000026
 40
0.1875000000000026
 40
0.2500000000000034
 40
0.2500000000000034
 40
0.2812500000000038
 40
0.2812500000000038
 40
0.3125000000000042
 40
0.3125000000000042
 40
0.3437500000000047
 40
0.3437500000000047
 40
0.3750000000000051
 40
0.3750000000000051
 40
0.4062500000000055
 40
0.4062500000000055
 40
0.4375000000000059
 40
0.4375000000000059
 40
0.4687500000000063
 40
0.4687500000000063
 40
0.5000000000000068
 40
0.5000000000000068
 40
0.5625000000000077
 40
0.5625000000000077
 40
0.6250000000000084
 40
0.6250000000000084
 40
0.6562500000000078
 40
0.6562500000000078
 40
0.6875000000000071
 40
0.6875000000000071
 40
0.7187500000000064
 40
0.7187500000000064
 40
0.7500000000000057
 40
0.7500000000000057
 40
0.781250000000005
 40
0.781250000000005
 40
0.8125000000000043
 40
0.8125000000000043
 40
0.8437500000000037
 40
0.8437500000000037
 40
0.875000000000003
 40
0.875000000000003
 40
0.9375000000000014
 40
0.9375000000000014
 40
1.0
 40
1.0
 40
1.03125
 40
1.03125
 10
213.0557103024715
 20
92.67989008528065
 30
0.0
 10
213.0557103024715
 20
92.67989008528066
 30
0.0
 10
213.0693432829681
 20
92.68133458636423
 30
0.0
 10
213.1227421704943
 20
92.68683493783499
 30
0.0
 10
213.1631631084351
 20
92.69095586769515
 30
0.0
 10
213.268602269323
 20
92.70119083925185
 30
0.0
 10
213.3331107957525
 20
92.7072561150847
 30
0.0
 10
213.4855007261123
 20
92.72058551887619
 30
0.0
 10
213.5741374104155
 20
92.72789635181314
 30
0.0
 10
213.864546161159
 20
92.74951554415435
 30
0.0
 10
214.0986807711505
 20
92.76397718087506
 30
0.0
 10
214.6039681892917
 20
92.78439575251174
 30
0.0
 10
214.8804449683391
 20
92.79042974612712
 30
0.0
 10
215.2916157950607
 20
92.79045354983394
 30
0.0
 10
215.4308443567527
 20
92.78899864483348
 30
0.0
 10
215.7002448226352
 20
92.78344865995341
 30
0.0
 10
215.8311942549277
 20
92.77938431628309
 30
0.0
 10
216.0855562681631
 20
92.76912754810512
 30
0.0
 10
216.2084095927561
 20
92.76293034431535
 30
0.0
 10
216.4358721785451
 20
92.74961352030495
 30
0.0
 10
216.5419341226803
 20
92.74243657748212
 30
0.0
 10
216.7380704891806
 20
92.72784007390598
 30
0.0
 10
216.8249005164166
 20
92.72067026816735
 30
0.0
 10
216.9770117938851
 20
92.70737399791341
 30
0.0
 10
217.0428212835303
 20
92.70119056933699
 30
0.0
 10
217.1482669764282
 20
92.69095493123945
 30
0.0
 10
217.1880353851625
 20
92.68690060323428
 30
0.0
 10
217.2418683229311
 20
92.6813566772077
 30
0.0
 10
217.2556595864152
 20
92.67989541046619
 30
0.0
 10
217.2558113059009
 20
92.67987947992128
 30
0.0
 10
217.2008205600413
 20
92.68584983765676
 30
0.0
 10
216.991692459241
 20
92.70615733604313
 30
0.0
 10
216.8354669212468
 20
92.72057188092003
 30
0.0
 10
216.5453541267816
 20
92.74219186859591
 30
0.0
 10
216.4374517497873
 20
92.74951366523018
 30
0.0
 10
216.2094030347322
 20
92.7628794792395
 30
0.0
 10
216.0888998169043
 20
92.76897030163691
 30
0.0
 10
215.8347934314086
 20
92.7792610033432
 30
0.0
 10
215.7013708550878
 20
92.78341463413456
 30
0.0
 10
215.4329103014494
 20
92.78896678396528
 30
0.0
 10
215.2964589824164
 20
92.79043172234262
 30
0.0
 10
215.0189254165036
 20
92.79045937736022
 30
0.0
 10
214.8822402569577
 20
92.78901874052578
 30
0.0
 10
214.6136842150559
 20
92.78351430306252
 30
0.0
 10
214.4802903890839
 20
92.77938673857102
 30
0.0
 10
214.2258504409626
 20
92.7691271477374
 30
0.0
 10
214.1052064073258
 20
92.76304865941427
 30
0.0
 10
213.8769032935077
 20
92.74970289811237
 30
0.0
 10
213.7688359586845
 20
92.74238556414215
 30
0.0
 10
213.4781940149817
 20
92.7207637207664
 30
0.0
 10
213.3215749153559
 20
92.70632921075666
 30
0.0
 10
213.1115997309622
 20
92.68595426917378
 30
0.0
 10
213.0557103024715
 20
92.67989008528065
 30
0.0
 10
213.0557103024715
 20
92.67989008528066
 30
0.0
  0
SPLINE
  5
131
330
1F
100
AcDbEntity
  8
0
  6
HIDDEN
 62
     7
370
     0
100
AcDbSpline
210
0.0
220
0.0
230
1.0
 70
    11
 71
     3
 72
    70
 73
    66
 74
     0
 42
0.00000001
 43
0.00000001
 40
-0.03125
 40
-0.03125
 40
0.0
 40
0.0
 40
0.03125
 40
0.03125
 40
0.0625
 40
0.0625
 40
0.0937500000000001
 40
0.0937500000000001
 40
0.1250000000000001
 40
0.1250000000000001
 40
0.1562500000000001
 40
0.1562500000000001
 40
0.1875
 40
0.1875
 40
0.21875
 40
0.21875
 40
0.25
 40
0.25
 40
0.28125
 40
0.28125
 40
0.3125000000000001
 40
0.3125000000000001
 40
0.3437500000000001
 40
0.3437500000000001
 40
0.3750000000000001
 40
0.3750000000000001
 40
0.4062500000000001
 40
0.4062500000000001
 40
0.4375000000000001
 40
0.4375000000000001
 40
0.4687500000000001
 40
0.4687500000000001
 40
0.5
 40
0.5
 40
0.5312499999999999
 40
0.5312499999999999
 40
0.5624999999999998
 40
0.5624999999999998
 40
0.5937499999999998
 40
0.5937499999999998
 40
0.6249999999999998
 40
0.6249999999999998
 40
0.6562499999999998
 40
0.6562499999999998
 40
0.6874999999999998
 40
0.6874999999999998
 40
0.7187499999999998
 40
0.7187499999999998
 40
0.7499999999999998
 40
0.7499999999999998
 40
0.7812499999999999
 40
0.7812499999999999
 40
0.8124999999999999
 40
0.8124999999999999
 40
0.8437499999999999
 40
0.8437499999999999
 40
0.8749999999999999
 40
0.8749999999999999
 40
0.9062499999999999
 40
0.9062499999999999
 40
0.9375
 40
0.9375
 40
0.96875
 40
0.96875
 40
1.0
 40
1.0
 40
1.03125
 40
1.03125
 10
220.8557103024715
 20
132.6798900852806
 30
0.0
 10
220.8557103024714
 20
132.6798900852806
 30
0.0
 10
220.8771796263632
 20
132.6763158540195
 30
0.0
 10
220.961231251661
 20
132.6627071173351
 30
0.0
 10
221.024860542071
 20
132.6525091053785
 30
0.0
 10
221.190630211799
 20
132.6271954231923
 30
0.0
 10
221.2920164059879
 20
132.6121924830186
 30
0.0
 10
221.53148243769
 20
132.5791993202367
 30
0.0
 10
221.6706138521633
 20
132.5611107777295
 30
0.0
 10
221.9744998128312
 20
132.5254163079495
 30
0.0
 10
222.1403804441154
 20
132.5076314910403
 30
0.0
 10
222.5009581057135
 20
132.4742321973179
 30
0.0
 10
222.6924540976113
 20
132.458967345821
 30
0.0
 10
223.0893555576106
 20
132.4335705271439
 30
0.0
 10
223.2977020763254
 20
132.4232643863326
 30
0.0
 10
223.7238372752254
 20
132.4093392663138
 30
0.0
 10
223.9381945408649
 20
132.4057822356642
 30
0.0
 10
224.3694345131102
 20
132.405740790896
 30
0.0
 10
224.5885052887763
 20
132.4093735758541
 30
0.0
 10
225.0120168929326
 20
132.4232046064421
 30
0.0
 10
225.2179009299056
 20
132.4333306693498
 30
0.0
 10
225.6178864817092
 20
132.4588719892734
 30
0.0
 10
225.8105720586955
 20
132.47425681934
 30
0.0
 10
226.1677058140806
 20
132.5073082961561
 30
0.0
 10
226.334754857921
 20
132.5251650493109
 30
0.0
 10
226.6421476406085
 20
132.5612651348041
 30
0.0
 10
226.7784205317636
 20
132.5790006482895
 30
0.0
 10
227.0174054870364
 20
132.6119068317461
 30
0.0
 10
227.1209468089692
 20
132.6272189832344
 30
0.0
 10
227.2865642735698
 20
132.6525100739555
 30
0.0
 10
227.3491517192779
 20
132.6625405141552
 30
0.0
 10
227.4339340004934
 20
132.6762647740661
 30
0.0
 10
227.4556258946711
 20
132.6798761579946
 30
0.0
 10
227.4557942072223
 20
132.6799039295635
 30
0.0
 10
227.4349649602217
 20
132.6764339271804
 30
0.0
 10
227.350289333396
 20
132.6627224594829
 30
0.0
 10
227.2870660943707
 20
132.6525911103414
 30
0.0
 10
227.1226200595337
 20
132.6274701552428
 30
0.0
 10
227.0199712746752
 20
132.6122709569599
 30
0.0
 10
226.7794870047895
 20
132.5791368167633
 30
0.0
 10
226.6432633211314
 20
132.5614179148351
 30
0.0
 10
226.3393526934604
 20
132.5256836675093
 30
0.0
 10
226.1698856752406
 20
132.5075272523685
 30
0.0
 10
225.8122194353838
 20
132.4743922438305
 30
0.0
 10
225.6229629383743
 20
132.4592485612878
 30
0.0
 10
225.2230985106928
 20
132.4336114818145
 30
0.0
 10
225.0138674925202
 20
132.4232932979418
 30
0.0
 10
224.5919139122852
 20
132.4094569899063
 30
0.0
 10
224.3764418096616
 20
132.4057911108467
 30
0.0
 10
223.9403173837934
 20
132.4057320947254
 30
0.0
 10
223.7257217750451
 20
132.409317496412
 30
0.0
 10
223.3031994538335
 20
132.4230456229456
 30
0.0
 10
223.0930522080891
 20
132.4333599319214
 30
0.0
 10
222.693884665497
 20
132.4588501931707
 30
0.0
 10
222.5043728522564
 20
132.4739538863872
 30
0.0
 10
222.1453247663611
 20
132.5071363991689
 30
0.0
 10
221.9760138700058
 20
132.5252497948097
 30
0.0
 10
221.6720879422743
 20
132.5609264136758
 30
0.0
 10
221.5353615215568
 20
132.578680685854
 30
0.0
 10
221.2933887021236
 20
132.6119879321116
 30
0.0
 10
221.1913893817533
 20
132.6270839819148
 30
0.0
 10
221.0263084813054
 20
132.6522835719719
 30
0.0
 10
220.9624585554587
 20
132.6625096925039
 30
0.0
 10
220.8771826935414
 20
132.6763140888294
 30
0.0
 10
220.8557103024715
 20
132.6798900852806
 30
0.0
 10
220.8557103024714
 20
132.6798900852806
 30
0.0
  0
SPLINE
  5
132
330
1F
100
AcDbEntity
  8
0
  6
HIDDEN
 62
     7
370
     0
100
AcDbSpline
210
0.0
220
0.0
230
1.0
 70
    11
 71
     3
 72
    70
 73
    66
 74
     0
 42
0.00000001
 43
0.00000001
 40
-0.03125
 40
-0.03125
 40
0.0
 40
0.0
 40
0.03125
 40
0.03125
 40
0.0625
 40
0.0625
 40
0.0937500000000001
 40
0.0937500000000001
 40
0.1250000000000001
 40
0.1250000000000001
 40
0.1562500000000001
 40
0.1562500000000001
 40
0.1875
 40
0.1875
 40
0.21875
 40
0.21875
 40
0.25
 40
0.25
 40
0.28125
 40
0.28125
 40
0.3125000000000001
 40
0.3125000000000001
 40
0.3437500000000001
 40
0.3437500000000001
 40
0.3750000000000001
 40
0.3750000000000001
 40
0.4062500000000001
 40
0.4062500000000001
 40
0.4375000000000001
 40
0.4375000000000001
 40
0.4687500000000001
 40
0.4687500000000001
 40
0.5
 40
0.5
 40
0.5312499999999999
 40
0.5312499999999999
 40
0.5624999999999998
 40
0.5624999999999998
 40
0.5937499999999998
 40
0.5937499999999998
 40
0.6249999999999998
 40
0.6249999999999998
 40
0.6562499999999998
 40
0.6562499999999998
 40
0.6874999999999998
 40
0.6874999999999998
 40
0.7187499999999998
 40
0.7187499999999998
 40
0.7499999999999998
 40
0.7499999999999998
 40
0.7812499999999999
 40
0.7812499999999999
 40
0.8124999999999999
 40
0.8124999999999999
 40
0.8437499999999999
 40
0.8437499999999999
 40
0.8749999999999999
 40
0.8749999999999999
 40
0.9062499999999999
 40
0.9062499999999999
 40
0.9375
 40
0.9375
 40
0.96875
 40
0.96875
 40
1.0
 40
1.0
 40
1.03125
 40
1.03125
 10
220.8557103024715
 20
132.6798900852806
 30
0.0
 10
220.8557103024714
 20
132.6798900852806
 30
0.0
 10
220.8771796263632
 20
132.6763158540195
 30
0.0
 10
220.961231251661
 20
132.6627071173351
 30
0.0
 10
221.024860542071
 20
132.6525091053785
 30
0.0
 10
221.190630211799
 20
132.6271954231923
 30
0.0
 10
221.2920164059879
 20
132.6121924830186
 30
0.0
 10
221.53148243769
 20
132.5791993202367
 30
0.0
 10
221.6706138521633
 20
132.5611107777295
 30
0.0
 10
221.9744998128312
 20
132.5254163079495
 30
0.0
 10
222.1403804441154
 20
132.5076314910403
 30
0.0
 10
222.5009581057135
 20
132.4742321973179
 30
0.0
 10
222.6924540976113
 20
132.458967345821
 30
0.0
 10
223.0893555576106
 20
132.4335705271439
 30
0.0
 10
223.2977020763254
 20
132.4232643863326
 30
0.0
 10
223.7238372752254
 20
132.4093392663138
 30
0.0
 10
223.9381945408649
 20
132.4057822356642
 30
0.0
 10
224.3694345131102
 20
132.405740790896
 30
0.0
 10
224.5885052887763
 20
132.4093735758541
 30
0.0
 10
225.0120168929326
 20
132.4232046064421
 30
0.0
 10
225.2179009299056
 20
132.4333306693498
 30
0.0
 10
225.6178864817092
 20
132.4588719892734
 30
0.0
 10
225.8105720586955
 20
132.47425681934
 30
0.0
 10
226.1677058140806
 20
132.5073082961561
 30
0.0
 10
226.334754857921
 20
132.5251650493109
 30
0.0
 10
226.6421476406085
 20
132.5612651348041
 30
0.0
 10
226.7784205317636
 20
132.5790006482895
 30
0.0
 10
227.0174054870364
 20
132.6119068317461
 30
0.0
 10
227.1209468089692
 20
132.6272189832344
 30
0.0
 10
227.2865642735698
 20
132.6525100739555
 30
0.0
 10
227.3491517192779
 20
132.6625405141552
 30
0.0
 10
227.4339340004934
 20
132.6762647740661
 30
0.0
 10
227.4556258946711
 20
132.6798761579946
 30
0.0
 10
227.4557942072223
 20
132.6799039295635
 30
0.0
 10
227.4349649602217
 20
132.6764339271804
 30
0.0
 10
227.350289333396
 20
132.6627224594829
 30
0.0
 10
227.2870660943707
 20
132.6525911103414
 30
0.0
 10
227.1226200595337
 20
132.6274701552428
 30
0.0
 10
227.0199712746752
 20
132.6122709569599
 30
0.0
 10
226.7794870047895
 20
132.5791368167633
 30
0.0
 10
226.6432633211314
 20
132.5614179148351
 30
0.0
 10
226.3393526934604
 20
132.5256836675093
 30
0.0
 10
226.1698856752406
 20
132.5075272523685
 30
0.0
 10
225.8122194353838
 20
132.4743922438305
 30
0.0
 10
225.6229629383743
 20
132.4592485612878
 30
0.0
 10
225.2230985106928
 20
132.4336114818145
 30
0.0
 10
225.0138674925202
 20
132.4232932979418
 30
0.0
 10
224.5919139122852
 20
132.4094569899063
 30
0.0
 10
224.3764418096616
 20
132.4057911108467
 30
0.0
 10
223.9403173837934
 20
132.4057320947254
 30
0.0
 10
223.7257217750451
 20
132.409317496412
 30
0.0
 10
223.3031994538335
 20
132.4230456229456
 30
0.0
 10
223.0930522080891
 20
132.4333599319214
 30
0.0
 10
222.693884665497
 20
132.4588501931707
 30
0.0
 10
222.5043728522564
 20
132.4739538863872
 30
0.0
 10
222.1453247663611
 20
132.5071363991689
 30
0.0
 10
221.9760138700058
 20
132.5252497948097
 30
0.0
 10
221.6720879422743
 20
132.5609264136758
 30
0.0
 10
221.5353615215568
 20
132.578680685854
 30
0.0
 10
221.2933887021236
 20
132.6119879321116
 30
0.0
 10
221.1913893817533
 20
132.6270839819148
 30
0.0
 10
221.0263084813054
 20
132.6522835719719
 30
0.0
 10
220.9624585554587
 20
132.6625096925039
 30
0.0
 10
220.8771826935414
 20
132.6763140888294
 30
0.0
 10
220.8557103024715
 20
132.6798900852806
 30
0.0
 10
220.8557103024714
 20
132.6798900852806
 30
0.0
  0
SPLINE
  5
133
330
1F
100
AcDbEntity
  8
0
  6
HIDDEN
 62
     7
370
     0
100
AcDbSpline
210
0.0
220
0.0
230
1.0
 70
     8
 71
     3
 72
    70
 73
    66
 74
     0
 42
0.00000001
 43
0.00000001
 40
-0.03125
 40
-0.03125
 40
0.0
 40
0.0
 40
0.0312499999999999
 40
0.0312499999999999
 40
0.0624999999999998
 40
0.0624999999999998
 40
0.0937499999999998
 40
0.0937499999999998
 40
0.1249999999999997
 40
0.1249999999999997
 40
0.1562499999999996
 40
0.1562499999999996
 40
0.1874999999999996
 40
0.1874999999999996
 40
0.2187499999999995
 40
0.2187499999999995
 40
0.2499999999999994
 40
0.2499999999999994
 40
0.2812499999999993
 40
0.2812499999999993
 40
0.3124999999999992
 40
0.3124999999999992
 40
0.3437499999999992
 40
0.3437499999999992
 40
0.3749999999999991
 40
0.3749999999999991
 40
0.4062499999999992
 40
0.4062499999999992
 40
0.4374999999999993
 40
0.4374999999999993
 40
0.4687499999999993
 40
0.4687499999999993
 40
0.4999999999999994
 40
0.4999999999999994
 40
0.5312499999999994
 40
0.5312499999999994
 40
0.5624999999999996
 40
0.5624999999999996
 40
0.5937499999999996
 40
0.5937499999999996
 40
0.6249999999999996
 40
0.6249999999999996
 40
0.6562499999999997
 40
0.6562499999999997
 40
0.6874999999999997
 40
0.6874999999999997
 40
0.7187499999999997
 40
0.7187499999999997
 40
0.7499999999999997
 40
0.7499999999999997
 40
0.7812499999999998
 40
0.7812499999999998
 40
0.8124999999999998
 40
0.8124999999999998
 40
0.8437499999999998
 40
0.8437499999999998
 40
0.8749999999999999
 40
0.8749999999999999
 40
0.9062499999999999
 40
0.9062499999999999
 40
0.9374999999999999
 40
0.9374999999999999
 40
0.96875
 40
0.96875
 40
1.0
 40
1.0
 40
1.03125
 40
1.03125
 10
220.8557103024714
 20
102.4907384273128
 30
0.0
 10
220.8557103024714
 20
102.8690417432483
 30
0.0
 10
220.8771796263632
 20
103.0567557234916
 30
0.0
 10
220.961231251661
 20
103.4292474831481
 30
0.0
 10
221.0248605420709
 20
103.6160259566249
 30
0.0
 10
221.190630211799
 20
103.9746205170585
 30
0.0
 10
221.292016405988
 20
104.1461438225137
 30
0.0
 10
221.53148243769
 20
104.4730527375745
 30
0.0
 10
221.6706138521634
 20
104.6288148298283
 30
0.0
 10
221.9744998128313
 20
104.9097676161975
 30
0.0
 10
222.1403804441154
 20
105.036839639204
 30
0.0
 10
222.5009581057135
 20
105.2624643473717
 30
0.0
 10
222.6924540976113
 20
105.3586746610334
 30
0.0
 10
223.0893555576105
 20
105.5140070384808
 30
0.0
 10
223.2977020763253
 20
105.574204905439
 30
0.0
 10
223.7238372752254
 20
105.6547103095511
 30
0.0
 10
223.9381945408649
 20
105.6747200974352
 30
0.0
 10
224.3694345131101
 20
105.6749553669326
 30
0.0
 10
224.5885052887763
 20
105.6545110547327
 30
0.0
 10
225.0120168929325
 20
105.5745514105331
 30
0.0
 10
225.2179009299055
 20
105.5154477172005
 30
0.0
 10
225.6178864817091
 20
105.3592838814152
 30
0.0
 10
225.8105720586955
 20
105.2622564330772
 30
0.0
 10
226.1677058140805
 20
105.0390641507083
 30
0.0
 10
226.334754857921
 20
104.9117214241453
 30
0.0
 10
226.6421476406086
 20
104.6276236745074
 30
0.0
 10
226.7784205317636
 20
104.474796061915
 30
0.0
 10
227.0174054870365
 20
104.149196065857
 30
0.0
 10
227.1209468089692
 20
103.974313305617
 30
0.0
 10
227.2865642735698
 20
103.6159856689879
 30
0.0
 10
227.3491517192779
 20
103.4328399305297
 30
0.0
 10
227.4339340004933
 20
103.059106325526
 30
0.0
 10
227.455625894671
 20
102.8676804021391
 30
0.0
 10
227.4557942072224
 20
102.4943314434511
 30
0.0
 10
227.4349649602217
 20
102.3103107132023
 30
0.0
 10
227.3502893333959
 20
101.9475277682691
 30
0.0
 10
227.2870660943707
 20
101.772602393799
 30
0.0
 10
227.1226200595336
 20
101.4410893866062
 30
0.0
 10
227.0199712746752
 20
101.282040467075
 30
0.0
 10
226.7794870047895
 20
100.9868539559059
 30
0.0
 10
226.6432633211313
 20
100.8519962216515
 30
0.0
 10
226.3393526934603
 20
100.6061844020181
 30
0.0
 10
226.1698856752405
 20
100.494606962223
 30
0.0
 10
225.8122194353838
 20
100.3038870825765
 30
0.0
 10
225.6229629383742
 20
100.2234924397698
 30
0.0
 10
225.2230985106928
 20
100.0922771083424
 30
0.0
 10
225.0138674925203
 20
100.042344411343
 30
0.0
 10
224.5919139122852
 20
99.97617839566934
 30
0.0
 10
224.3764418096616
 20
99.95920942933037
 30
0.0
 10
223.9403173837933
 20
99.95893342861054
 30
0.0
 10
223.7257217750451
 20
99.97552509856405
 30
0.0
 10
223.3031994538334
 20
100.0411466295862
 30
0.0
 10
223.0930522080891
 20
100.0910409415279
 30
0.0
 10
222.6938846654969
 20
100.2214034978383
 30
0.0
 10
222.5043728522563
 20
100.3014807363605
 30
0.0
 10
222.145324766361
 20
100.4922433864016
 30
0.0
 10
221.9760138700059
 20
100.6034278412611
 30
0.0
 10
221.6720879422743
 20
100.848393083949
 30
0.0
 10
221.5353615215568
 20
100.9831391809011
 30
0.0
 10
221.2933887021236
 20
101.2791778914348
 30
0.0
 10
221.1913893817534
 20
101.4367517527405
 30
0.0
 10
221.0263084813054
 20
101.7678059847081
 30
0.0
 10
220.9624585554587
 20
101.9433999086078
 30
0.0
 10
220.8771826935413
 20
102.3056742718792
 30
0.0
 10
220.8557103024714
 20
102.4907384273128
 30
0.0
 10
220.8557103024714
 20
102.8690417432483
 30
0.0
  0
SPLINE
  5
134
330
1F
100
AcDbEntity
  8
0
  6
HIDDEN
 62
     7
370
     0
100
AcDbSpline
210
0.0
220
0.0
230
1.0
 70
     8
 71
     3
 72
    70
 73
    66
 74
     0
 42
0.00000001
 43
0.00000001
 40
-0.0312499999999999
 40
-0.0312499999999999
 40
0.0
 40
0.0
 40
0.03125
 40
0.03125
 40
0.0625
 40
0.0625
 40
0.09375
 40
0.09375
 40
0.1250000000000001
 40
0.1250000000000001
 40
0.1562500000000001
 40
0.1562500000000001
 40
0.1875000000000001
 40
0.1875000000000001
 40
0.2187500000000001
 40
0.2187500000000001
 40
0.2500000000000001
 40
0.2500000000000001
 40
0.2812500000000001
 40
0.2812500000000001
 40
0.3125000000000001
 40
0.3125000000000001
 40
0.3437500000000002
 40
0.3437500000000002
 40
0.3750000000000002
 40
0.3750000000000002
 40
0.4062500000000002
 40
0.4062500000000002
 40
0.4375000000000002
 40
0.4375000000000002
 40
0.4687500000000002
 40
0.4687500000000002
 40
0.5000000000000002
 40
0.5000000000000002
 40
0.5312500000000002
 40
0.5312500000000002
 40
0.5625000000000002
 40
0.5625000000000002
 40
0.5937500000000002
 40
0.5937500000000002
 40
0.6250000000000002
 40
0.6250000000000002
 40
0.6562500000000003
 40
0.6562500000000003
 40
0.6875000000000003
 40
0.6875000000000003
 40
0.7187500000000003
 40
0.7187500000000003
 40
0.7500000000000003
 40
0.7500000000000003
 40
0.7812500000000003
 40
0.7812500000000003
 40
0.8125000000000003
 40
0.8125000000000003
 40
0.8437500000000003
 40
0.8437500000000003
 40
0.8750000000000004
 40
0.8750000000000004
 40
0.9062500000000003
 40
0.9062500000000003
 40
0.9375000000000002
 40
0.9375000000000002
 40
0.9687500000000001
 40
0.9687500000000001
 40
1.0
 40
1.0
 40
1.03125
 40
1.03125
 10
220.8557103024715
 20
102.8690417432485
 30
0.0
 10
220.8557103024714
 20
102.490738427313
 30
0.0
 10
220.8771796263632
 20
102.3065986783309
 30
0.0
 10
220.961231251661
 20
101.9477156553588
 30
0.0
 10
221.024860542071
 20
101.7711351938386
 30
0.0
 10
221.190630211799
 20
101.4378543155912
 30
0.0
 10
221.292016405988
 20
101.2813339503097
 30
0.0
 10
221.5314824376899
 20
100.9874181980307
 30
0.0
 10
221.6706138521634
 20
100.8497446482843
 30
0.0
 10
221.9744998128312
 20
100.6044863316951
 30
0.0
 10
222.1403804441154
 20
100.4951991255978
 30
0.0
 10
222.5009581057134
 20
100.3029737111524
 30
0.0
 10
222.6924540976113
 20
100.2220282489875
 30
0.0
 10
223.0893555576105
 20
100.0920926902173
 30
0.0
 10
223.2977020763253
 20
100.0422009640703
 30
0.0
 10
223.7238372752254
 20
99.97562067997713
 30
0.0
 10
223.9381945408649
 20
99.95916792274265
 30
0.0
 10
224.3694345131102
 20
99.95897409801339
 30
0.0
 10
224.5885052887763
 20
99.97578562525521
 30
0.0
 10
225.0120168929326
 20
100.0419142388667
 30
0.0
 10
225.2179009299055
 20
100.0908918692916
 30
0.0
 10
225.6178864817092
 20
100.2215143851534
 30
0.0
 10
225.8105720586955
 20
100.3031570034248
 30
0.0
 10
226.1677058140805
 20
100.4932978089776
 30
0.0
 10
226.3347548579209
 20
100.6027837823858
 30
0.0
 10
226.6421476406085
 20
100.8507814465305
 30
0.0
 10
226.7784205317636
 20
100.9858735456375
 30
0.0
 10
227.0174054870364
 20
101.2785673582389
 30
0.0
 10
227.1209468089692
 20
101.4381379669906
 30
0.0
 10
227.2865642735697
 20
101.7711745128986
 30
0.0
 10
227.3491517192779
 20
101.9442898111571
 30
0.0
 10
227.4339340004933
 20
102.3042991562499
 30
0.0
 10
227.4556258946711
 20
102.4921136957082
 30
0.0
 10
227.4557942072224
 20
102.8654348828274
 30
0.0
 10
227.4349649602217
 20
103.0529256154593
 30
0.0
 10
227.350289333396
 20
103.42942002809
 30
0.0
 10
227.2870660943707
 20
103.6144767517015
 30
0.0
 10
227.1226200595336
 20
103.9711107139929
 30
0.0
 10
227.0199712746752
 20
104.1453588318071
 30
0.0
 10
226.7794870047896
 20
104.4736794831728
 30
0.0
 10
226.6432633211314
 20
104.6262561193554
 30
0.0
 10
226.3393526934603
 20
104.9078021863146
 30
0.0
 10
226.1698856752406
 20
105.0375360412505
 30
0.0
 10
225.8122194353838
 20
105.261390929435
 30
0.0
 10
225.6229629383743
 20
105.3569292547844
 30
0.0
 10
225.2230985106928
 20
105.5137816656851
 30
0.0
 10
225.0138674925202
 20
105.5740325465572
 30
0.0
 10
224.5919139122852
 20
105.6540348702664
 30
0.0
 10
224.3764418096617
 20
105.674669715665
 30
0.0
 10
223.9403173837934
 20
105.675004732506
 30
0.0
 10
223.7257217750451
 20
105.6548276608659
 30
0.0
 10
223.3031994538335
 20
105.5754780033103
 30
0.0
 10
223.0930522080891
 20
105.5152693823928
 30
0.0
 10
222.693884665497
 20
105.3594165648331
 30
0.0
 10
222.5043728522564
 20
105.2642356330944
 30
0.0
 10
222.1453247663611
 20
105.0402904702716
 30
0.0
 10
221.9760138700059
 20
104.9109926197712
 30
0.0
 10
221.6720879422743
 20
104.6303507582172
 30
0.0
 10
221.5353615215569
 20
104.4778503890869
 30
0.0
 10
221.2933887021237
 20
104.1485044322956
 30
0.0
 10
221.1913893817533
 20
103.9758345211867
 30
0.0
 10
221.0263084813055
 20
103.619580699162
 30
0.0
 10
220.9624585554587
 20
103.4337606547303
 30
0.0
 10
220.8771826935414
 20
103.0576818951335
 30
0.0
 10
220.8557103024715
 20
102.8690417432485
 30
0.0
 10
220.8557103024714
 20
102.490738427313
 30
0.0
  0
LINE
  5
135
330
1F
100
AcDbEntity
  8
0
  6
HIDDEN
 62
     7
370
     0
100
AcDbLine
 10
244.6557118522
 20
92.6798905323
 30
0.0
 11
244.6557118522
 21
132.6798896382
 31
0.0
  0
LWPOLYLINE
  5
136
330
1F
100
AcDbEntity
  8
0
  6
HIDDEN
 62
     7
370
     0
100
AcDbPolyline
 90
        2
 70
   128
 43
0.0
 10
244.6557118522
 20
132.6798896382
 10
244.6557118522
 20
132.6798896382
  0
LINE
  5
137
330
1F
100
AcDbEntity
  8
0
  6
HIDDEN
 62
     7
370
     0
100
AcDbLine
 10
246.2557091342
 20
132.104889218
 30
0.0
 11
246.2557091342
 21
93.2548909525
 31
0.0
  0
LINE
  5
138
330
1F
100
AcDbEntity
  8
0
  6
HIDDEN
 62
     7
370
     0
100
AcDbLine
 10
244.6557118522
 20
132.104889218
 30
0.0
 11
244.6557118522
 21
93.2548909525
 31
0.0
  0
LWPOLYLINE
  5
139
330
1F
100
AcDbEntity
  8
0
  6
HIDDEN
 62
     7
370
     0
100
AcDbPolyline
 90
       23
 70
   128
 43
0.0
 10
220.8557113038
 20
104.9048902544
 10
220.9893896209
 20
104.0997316207
 10
221.3795765268
 20
103.3598014231
 10
221.9946666585
 20
102.7450456361
 10
222.7848454343
 20
102.3052676658
 10
223.6860676633
 20
102.0760952572
 10
224.625347458
 20
102.0760952572
 10
225.5265845882
 20
102.3052676658
 10
226.3167484628
 20
102.7450456361
 10
226.9318534957
 20
103.3598014231
 10
227.3220404016
 20
104.0997316207
 10
227.4557038175
 20
104.9048902544
 10
227.3220404016
 20
105.7100488881
 10
226.9318534957
 20
106.4499786201
 10
226.3167484628
 20
107.064734407
 10
225.5265845882
 20
107.504512843
 10
224.625347458
 20
107.7336847859
 10
223.6860676633
 20
107.7336847859
 10
222.7848454343
 20
107.504512843
 10
221.9946666585
 20
107.064734407
 10
221.3795765268
 20
106.4499786201
 10
220.9893896209
 20
105.7100488881
 10
220.8557113038
 20
104.9048902544
  0
LWPOLYLINE
  5
13A
330
1F
100
AcDbEntity
  8
0
  6
HIDDEN
 62
     7
370
     0
100
AcDbPolyline
 90
        2
 70
   128
 43
0.0
 10
247.5557162391
 20
104.9048902544
 10
247.5557162391
 20
104.9048902544
  0
LWPOLYLINE
  5
13B
330
1F
100
AcDbEntity
  8
0
  6
HIDDEN
 62
     7
370
     0
100
AcDbPolyline
 90
        2
 70
   128
 43
0.0
 10
247.5557162391
 20
120.4548899162
 10
247.5557162391
 20
120.4548899162
  0
SPLINE
  5
13C
330
1F
100
AcDbEntity
  8
0
  6
HIDDEN
 62
     7
370
     0
100
AcDbSpline
210
0.0
220
0.0
230
1.0
 70
     8
 71
     3
 72
    24
 73
    20
 74
     0
 42
0.00000001
 43
0.00000001
 40
0.0
 40
0.0
 40
0.0
 40
0.0
 40
0.1250000000000016
 40
0.1250000000000016
 40
0.2500000000000033
 40
0.2500000000000033
 40
0.3125000000000024
 40
0.3125000000000024
 40
0.3750000000000014
 40
0.3750000000000014
 40
0.5000000000000016
 40
0.5000000000000016
 40
0.6250000000000012
 40
0.6250000000000012
 40
0.7500000000000008
 40
0.7500000000000008
 40
0.8750000000000004
 40
0.8750000000000004
 40
1.0
 40
1.0
 40
1.0
 40
1.0
 10
214.4057103024715
 20
122.0662959202226
 30
0.0
 10
214.2067213464025
 20
122.0052573597425
 30
0.0
 10
214.0242577372651
 20
121.9218279817596
 30
0.0
 10
213.6915457386368
 20
121.7093349965157
 30
0.0
 10
213.5463937055944
 20
121.5827851616529
 30
0.0
 10
213.3669491786155
 20
121.3674071668714
 30
0.0
 10
213.3129919806954
 20
121.290473619403
 30
0.0
 10
213.2208665172605
 20
121.1319221606909
 30
0.0
 10
213.1821996622236
 20
121.0498447153864
 30
0.0
 10
213.0882625577974
 20
120.7949907568461
 30
0.0
 10
213.0557997573862
 20
120.6127520510196
 30
0.0
 10
213.0556212260419
 20
120.2485722625429
 30
0.0
 10
213.0880098813842
 20
120.0614967996555
 30
0.0
 10
213.2127693665643
 20
119.7058941518874
 30
0.0
 10
213.306884231377
 20
119.5321907437583
 30
0.0
 10
213.5450973360447
 20
119.2192036037245
 30
0.0
 10
213.6917945619834
 20
119.0762072116886
 30
0.0
 10
214.0225071328192
 20
118.8369234781172
 30
0.0
 10
214.2067237249015
 20
118.7396146737662
 30
0.0
 10
214.4057103024715
 20
118.6688704243508
 30
0.0
  0
LINE
  5
13D
330
1F
100
AcDbEntity
  8
0
  6
HIDDEN
 62
     7
370
     0
100
AcDbLine
 10
214.4057138788
 20
118.6688702631
 30
0.0
 11
214.4057138788
 21
118.9082373942
 31
0.0
  0
SPLINE
  5
13E
330
1F
100
AcDbEntity
  8
0
  6
HIDDEN
 62
     7
370
     0
100
AcDbSpline
210
0.0
220
0.0
230
1.0
 70
     8
 71
     3
 72
    10
 73
     6
 74
     0
 42
0.00000001
 43
0.00000001
 40
0.0
 40
0.0
 40
0.0
 40
0.0
 40
0.5
 40
0.5
 40
1.0
 40
1.0
 40
1.0
 40
1.0
 10
214.4057103024715
 20
118.9082374008223
 30
0.0
 10
214.4057103024715
 20
118.9346381224636
 30
0.0
 10
214.4278860030536
 20
118.9533539832318
 30
0.0
 10
214.5031080819898
 20
118.9663200891423
 30
0.0
 10
214.5539948534502
 20
118.96152307106
 30
0.0
 10
214.6057103024714
 20
118.9484826874623
 30
0.0
  0
SPLINE
  5
13F
330
1F
100
AcDbEntity
  8
0
  6
HIDDEN
 62
     7
370
     0
100
AcDbSpline
210
0.0
220
0.0
230
1.0
 70
     8
 71
     3
 72
    10
 73
     6
 74
     0
 42
0.00000001
 43
0.00000001
 40
0.0
 40
0.0
 40
0.0
 40
0.0
 40
0.5
 40
0.5
 40
1.0
 40
1.0
 40
1.0
 40
1.0
 10
214.6057103024715
 20
118.948482687462
 30
0.0
 10
214.8029597226168
 20
118.8987449755829
 30
0.0
 10
215.0031380065942
 20
118.8763032091009
 30
0.0
 10
215.4092539370828
 20
118.8854001571401
 30
0.0
 10
215.611399629074
 20
118.9174701605904
 30
0.0
 10
215.8057103024715
 20
118.9761804879442
 30
0.0
  0
SPLINE
  5
140
330
1F
100
AcDbEntity
  8
0
  6
HIDDEN
 62
     7
370
     0
100
AcDbSpline
210
0.0
220
0.0
230
1.0
 70
     8
 71
     3
 72
    10
 73
     6
 74
     0
 42
0.00000001
 43
0.00000001
 40
0.0
 40
0.0
 40
0.0
 40
0.0
 40
0.5
 40
0.5
 40
1.0
 40
1.0
 40
1.0
 40
1.0
 10
215.8057103024715
 20
118.9761804879442
 30
0.0
 10
215.8570874122541
 20
118.9917039117536
 30
0.0
 10
215.9076594718974
 20
118.999162607351
 30
0.0
 10
215.9828263061675
 20
118.9905602908676
 30
0.0
 10
216.0057103024714
 20
118.9731842789815
 30
0.0
 10
216.0057103024714
 20
118.9464559138874
 30
0.0
  0
LINE
  5
141
330
1F
100
AcDbEntity
  8
0
  6
HIDDEN
 62
     7
370
     0
100
AcDbLine
 10
216.0057111608
 20
118.9464560787
 30
0.0
 11
216.0057111608
 21
118.7071676443
 31
0.0
  0
SPLINE
  5
142
330
1F
100
AcDbEntity
  8
0
  6
HIDDEN
 62
     7
370
     0
100
AcDbSpline
210
0.0
220
0.0
230
1.0
 70
     8
 71
     3
 72
    22
 73
    18
 74
     0
 42
0.00000001
 43
0.00000001
 40
0.0
 40
0.0
 40
0.0
 40
0.0
 40
0.1249999999999998
 40
0.1249999999999998
 40
0.2499999999999996
 40
0.2499999999999996
 40
0.3749999999999993
 40
0.3749999999999993
 40
0.4999999999999991
 40
0.4999999999999991
 40
0.6249999999999993
 40
0.6249999999999993
 40
0.7499999999999996
 40
0.7499999999999996
 40
0.8749999999999998
 40
0.8749999999999998
 40
1.0
 40
1.0
 40
1.0
 40
1.0
 10
216.0057103024714
 20
118.7071674559605
 30
0.0
 10
216.1921276948454
 20
118.7837797299378
 30
0.0
 10
216.362109447111
 20
118.8828356057745
 30
0.0
 10
216.670164401665
 20
119.123297842699
 30
0.0
 10
216.8047488448729
 20
119.2629061762428
 30
0.0
 10
217.0246869929203
 20
119.5674914801335
 30
0.0
 10
217.1110930502157
 20
119.734671509285
 30
0.0
 10
217.225818119998
 20
120.075949755038
 30
0.0
 10
217.2556484372898
 20
120.2550026219229
 30
0.0
 10
217.2557719699271
 20
120.603661438043
 30
0.0
 10
217.2262559469538
 20
120.7780529930339
 30
0.0
 10
217.1114472782805
 20
121.1054693809525
 30
0.0
 10
217.026008812859
 20
121.2603668496082
 30
0.0
 10
216.8052249711638
 20
121.5414956566515
 30
0.0
 10
216.6727828102581
 20
121.6652520956354
 30
0.0
 10
216.362789196964
 20
121.8803346054386
 30
0.0
 10
216.1921251399146
 20
121.9668920222786
 30
0.0
 10
216.0057103024714
 20
122.0332011298729
 30
0.0
  0
LINE
  5
143
330
1F
100
AcDbEntity
  8
0
  6
HIDDEN
 62
     7
370
     0
100
AcDbLine
 10
216.0057111608
 20
122.0332008864
 30
0.0
 11
216.0057111608
 21
122.2724893208
 31
0.0
  0
SPLINE
  5
144
330
1F
100
AcDbEntity
  8
0
  6
HIDDEN
 62
     7
370
     0
100
AcDbSpline
210
0.0
220
0.0
230
1.0
 70
     8
 71
     3
 72
    10
 73
     6
 74
     0
 42
0.00000001
 43
0.00000001
 40
0.0
 40
0.0
 40
0.0
 40
0.0
 40
0.5
 40
0.5
 40
1.0
 40
1.0
 40
1.0
 40
1.0
 10
216.0057103024714
 20
122.2724895878007
 30
0.0
 10
216.0057103024714
 20
122.2991005084371
 30
0.0
 10
215.9830591487937
 20
122.3343830520988
 30
0.0
 10
215.9075876378504
 20
122.3961027877752
 30
0.0
 10
215.8570196564214
 20
122.4214400425226
 30
0.0
 10
215.8057103024715
 20
122.4348652090487
 30
0.0
  0
SPLINE
  5
145
330
1F
100
AcDbEntity
  8
0
  6
HIDDEN
 62
     7
370
     0
100
AcDbSpline
210
0.0
220
0.0
230
1.0
 70
     8
 71
     3
 72
    10
 73
     6
 74
     0
 42
0.00000001
 43
0.00000001
 40
0.0
 40
0.0
 40
0.0
 40
0.0
 40
0.5
 40
0.5
 40
1.0
 40
1.0
 40
1.0
 40
1.0
 10
215.8057103024715
 20
122.4348652090484
 30
0.0
 10
215.611403919008
 20
122.4857057547627
 30
0.0
 10
215.412691565011
 20
122.5128624056098
 30
0.0
 10
215.0065917896888
 20
122.5212146271575
 30
0.0
 10
214.8029623707379
 20
122.5018024724766
 30
0.0
 10
214.6057103024715
 20
122.4588245511557
 30
0.0
  0
SPLINE
  5
146
330
1F
100
AcDbEntity
  8
0
  6
HIDDEN
 62
     7
370
     0
100
AcDbSpline
210
0.0
220
0.0
230
1.0
 70
     8
 71
     3
 72
    10
 73
     6
 74
     0
 42
0.00000001
 43
0.00000001
 40
0.0
 40
0.0
 40
0.0
 40
0.0
 40
0.5
 40
0.5
 40
1.0
 40
1.0
 40
1.0
 40
1.0
 10
214.6057103024715
 20
122.4588245511557
 30
0.0
 10
214.5539354801784
 20
122.4475436847066
 30
0.0
 10
214.5029658874628
 20
122.4240924684947
 30
0.0
 10
214.4281709286915
 20
122.3661556415191
 30
0.0
 10
214.4057103024713
 20
122.3321963059428
 30
0.0
 10
214.4057103024715
 20
122.3056628966953
 30
0.0
  0
LINE
  5
147
330
1F
100
AcDbEntity
  8
0
  6
HIDDEN
 62
     7
370
     0
100
AcDbLine
 10
214.4057138788
 20
122.3056630309
 30
0.0
 11
214.4057138788
 21
122.0662963654
 31
0.0
  0
LWPOLYLINE
  5
148
330
1F
100
AcDbEntity
  8
0
  6
HIDDEN
 62
     7
370
     0
100
AcDbPolyline
 90
        2
 70
   128
 43
0.0
 10
248.0557098018
 20
104.4048897068
 10
248.0557098018
 20
104.4048897068
  0
SPLINE
  5
149
330
1F
100
AcDbEntity
  8
0
  6
HIDDEN
 62
     7
370
     0
100
AcDbSpline
210
0.0
220
0.0
230
1.0
 70
    24
 71
     3
 72
     8
 73
     4
 74
     0
 42
0.00000001
 43
0.00000001
 40
0.0
 40
0.0
 40
0.0
 40
0.0
 40
1.0
 40
1.0
 40
1.0
 40
1.0
 10
252.3557103024714
 20
120.9548900852807
 30
0.0
 10
252.6278083786084
 20
121.2269881614177
 30
0.0
 10
252.8946513336143
 20
121.4938311164236
 30
0.0
 10
253.1557103024714
 20
121.7548900852806
 30
0.0
  0
LINE
  5
14A
330
1F
100
AcDbEntity
  8
0
  6
HIDDEN
 62
     7
370
     0
100
AcDbLine
 10
253.1557067262
 20
121.7548900361
 30
0.0
 11
253.1557067262
 21
131.8798909972
 31
0.0
  0
LINE
  5
14B
330
1F
100
AcDbEntity
  8
0
  6
HIDDEN
 62
     7
370
     0
100
AcDbLine
 10
252.8057082521
 20
121.4048896993
 30
0.0
 11
252.3557080852
 21
120.9548904638
 31
0.0
  0
LWPOLYLINE
  5
14C
330
1F
100
AcDbEntity
  8
0
  6
HIDDEN
 62
     7
370
     0
100
AcDbPolyline
 90
        2
 70
   128
 43
0.0
 10
248.0557098018
 20
120.9548904638
 10
248.0557098018
 20
120.9548904638
  0
LWPOLYLINE
  5
14D
330
1F
100
AcDbEntity
  8
0
  6
HIDDEN
 62
     7
370
     0
100
AcDbPolyline
 90
        2
 70
   128
 43
0.0
 10
252.3557080852
 20
120.9548904638
 10
252.3557080852
 20
120.9548904638
  0
LWPOLYLINE
  5
14E
330
1F
100
AcDbEntity
  8
0
  6
HIDDEN
 62
     7
370
     0
100
AcDbPolyline
 90
        2
 70
   128
 43
0.0
 10
252.3557080852
 20
104.4048897068
 10
252.3557080852
 20
104.4048897068
  0
LINE
  5
14F
330
1F
100
AcDbEntity
  8
0
  6
HIDDEN
 62
     7
370
     0
100
AcDbLine
 10
253.1557067262
 20
93.4798891733
 30
0.0
 11
253.1557067262
 21
103.6048901345
 31
0.0
  0
SPLINE
  5
150
330
1F
100
AcDbEntity
  8
0
  6
HIDDEN
 62
     7
370
     0
100
AcDbSpline
210
0.0
220
0.0
230
1.0
 70
    24
 71
     3
 72
     8
 73
     4
 74
     0
 42
0.00000001
 43
0.00000001
 40
0.0
 40
0.0
 40
0.0
 40
0.0
 40
1.0
 40
1.0
 40
1.0
 40
1.0
 10
253.1557103024714
 20
103.6048900852807
 30
0.0
 10
252.8946513336143
 20
103.8659490541378
 30
0.0
 10
252.6278083786084
 20
104.1327920091436
 30
0.0
 10
252.3557103024714
 20
104.4048900852806
 30
0.0
  0
LINE
  5
151
330
1F
100
AcDbEntity
  8
0
  6
HIDDEN
 62
     7
370
     0
100
AcDbLine
 10
252.3557080852
 20
104.4048897068
 30
0.0
 11
252.8057082521
 21
103.9548904712
 31
0.0
  0
LINE
  5
152
330
1F
100
AcDbEntity
  8
0
  6
HIDDEN
 62
     7
370
     0
100
AcDbLine
 10
44.9057093786
 20
85.3098898272
 30
0.0
 11
44.9057093786
 21
80.429891784
 31
0.0
  0
LWPOLYLINE
  5
153
330
1F
100
AcDbEntity
  8
0
  6
HIDDEN
 62
     7
370
     0
100
AcDbPolyline
 90
        2
 70
   128
 43
0.0
 10
253.1557067262
 20
103.6048901345
 10
253.1557067262
 20
103.6048901345
  0
LWPOLYLINE
  5
154
330
1F
100
AcDbEntity
  8
0
  6
HIDDEN
 62
     7
370
     0
100
AcDbPolyline
 90
        2
 70
   128
 43
0.0
 10
253.1557067262
 20
121.7548900361
 10
253.1557067262
 20
121.7548900361
  0
LINE
  5
155
330
1F
100
AcDbEntity
  8
0
  6
HIDDEN
 62
     7
370
     0
100
AcDbLine
 10
58.3557098137
 20
85.3098898272
 30
0.0
 11
58.3557098137
 21
78.81055652
 31
0.0
  0
LINE
  5
156
330
1F
100
AcDbEntity
  8
0
  6
HIDDEN
 62
     7
370
     0
100
AcDbLine
 10
53.3557108568
 20
140.0498903434
 30
0.0
 11
53.3557108568
 21
146.424497206
 31
0.0
  0
LINE
  5
157
330
1F
100
AcDbEntity
  8
0
  6
HIDDEN
 62
     7
370
     0
100
AcDbLine
 10
44.9057093786
 20
140.0498903434
 30
0.0
 11
44.9057093786
 21
144.9298883865
 31
0.0
  0
LINE
  5
158
330
1F
100
AcDbEntity
  8
0
  6
HIDDEN
 62
     7
370
     0
100
AcDbLine
 10
43.2557112502
 20
140.0498903434
 30
0.0
 11
43.2557112502
 21
143.1825595985
 31
0.0
  0
LINE
  5
159
330
1F
100
AcDbEntity
  8
0
  6
HIDDEN
 62
     7
370
     0
100
AcDbLine
 10
43.2557112502
 20
85.3098898272
 30
0.0
 11
43.2557112502
 21
82.1772205721
 31
0.0
  0
SPLINE
  5
15A
330
1F
100
AcDbEntity
  8
0
  6
HIDDEN
 62
     7
370
     0
100
AcDbSpline
210
0.0
220
0.0
230
1.0
 70
     8
 71
     3
 72
    10
 73
     6
 74
     0
 42
0.00000001
 43
0.00000001
 40
0.0
 40
0.0
 40
0.0
 40
0.0
 40
0.5
 40
0.5
 40
1.0
 40
1.0
 40
1.0
 40
1.0
 10
214.6057103024715
 20
96.63236301722434
 30
0.0
 10
214.5539354801784
 20
96.63058852872275
 30
0.0
 10
214.5029658874627
 20
96.64929935674519
 30
0.0
 10
214.4281709286915
 20
96.72009440254662
 30
0.0
 10
214.4057103024713
 20
96.7727031398285
 30
0.0
 10
214.4057103024715
 20
96.82576995832368
 30
0.0
  0
LINE
  5
15B
330
1F
100
AcDbEntity
  8
0
  6
HIDDEN
 62
     7
370
     0
100
AcDbLine
 10
214.4057138788
 20
118.9082373942
 30
0.0
 11
214.4057138788
 21
96.8257698308
 31
0.0
  0
SPLINE
  5
15C
330
1F
100
AcDbEntity
  8
0
  6
HIDDEN
 62
     7
370
     0
100
AcDbSpline
210
0.0
220
0.0
230
1.0
 70
     8
 71
     3
 72
    10
 73
     6
 74
     0
 42
0.00000001
 43
0.00000001
 40
0.0
 40
0.0
 40
0.0
 40
0.0
 40
0.5
 40
0.5
 40
1.0
 40
1.0
 40
1.0
 40
1.0
 10
216.0057103024714
 20
96.8207247541543
 30
0.0
 10
216.0057103024714
 20
96.76750291288147
 30
0.0
 10
215.9830591487937
 20
96.71477272629814
 30
0.0
 10
215.9075876378504
 20
96.64437751442776
 30
0.0
 10
215.8570196564215
 20
96.62654677376639
 30
0.0
 10
215.8057103024715
 20
96.628624558849
 30
0.0
  0
LINE
  5
15D
330
1F
100
AcDbEntity
  8
0
  6
HIDDEN
 62
     7
370
     0
100
AcDbLine
 10
216.0057111608
 20
118.9464560787
 30
0.0
 11
216.0057111608
 21
96.8207239251
 31
0.0
  0
LINE
  5
15E
330
1F
100
AcDbEntity
  8
0
  6
HIDDEN
 62
     7
370
     0
100
AcDbLine
 10
205.1557137595
 20
128.1298899169
 30
0.0
 11
205.1557137595
 21
97.2616334523
 31
0.0
  0
LINE
  5
15F
330
1F
100
AcDbEntity
  8
0
  6
HIDDEN
 62
     7
370
     0
100
AcDbLine
 10
207.1557103621
 20
97.1798903386
 30
0.0
 11
207.1557103621
 21
128.179889832
 31
0.0
  0
SPLINE
  5
160
330
1F
100
AcDbEntity
  8
0
  6
HIDDEN
 62
     7
370
     0
100
AcDbSpline
210
0.0
220
0.0
230
1.0
 70
    11
 71
     3
 72
    24
 73
    20
 74
     0
 42
0.00000001
 43
0.00000001
 40
0.0
 40
0.0
 40
0.0
 40
0.0
 40
0.1250000000000018
 40
0.1250000000000018
 40
0.2500000000000037
 40
0.2500000000000037
 40
0.3125000000000023
 40
0.3125000000000023
 40
0.3750000000000009
 40
0.3750000000000009
 40
0.5000000000000007
 40
0.5000000000000007
 40
0.6250000000000004
 40
0.6250000000000004
 40
0.7500000000000003
 40
0.7500000000000003
 40
0.8750000000000001
 40
0.8750000000000001
 40
1.0
 40
1.0
 40
1.0
 40
1.0
 10
214.4057103024715
 20
97.30450391126863
 30
0.0
 10
214.2067213464024
 20
97.29479737672293
 30
0.0
 10
214.0242577372651
 20
97.28207508347003
 30
0.0
 10
213.6915457386368
 20
97.25405786161566
 30
0.0
 10
213.5463937055944
 20
97.2391722337242
 30
0.0
 10
213.3669491786155
 20
97.21909666049757
 30
0.0
 10
213.3129919806954
 20
97.21271449775134
 30
0.0
 10
213.2208665172605
 20
97.20146864395716
 30
0.0
 10
213.1821996622236
 20
97.1965512911967
 30
0.0
 10
213.0882625577975
 20
97.18439125375502
 30
0.0
 10
213.0557997573862
 20
97.17990220497771
 30
0.0
 10
213.0556212260419
 20
97.17987801686223
 30
0.0
 10
213.0880098813841
 20
97.18435656635415
 30
0.0
 10
213.2127693665643
 20
97.20051046317585
 30
0.0
 10
213.306884231377
 20
97.21237091807451
 30
0.0
 10
213.5450973360446
 20
97.23903306650243
 30
0.0
 10
213.6917945619833
 20
97.25407079726207
 30
0.0
 10
214.0225071328192
 20
97.28193564856838
 30
0.0
 10
214.2067237249016
 20
97.29479749274435
 30
0.0
 10
214.4057103024715
 20
97.30450391126863
 30
0.0
  0
LINE
  5
161
330
1F
100
AcDbEntity
  8
0
  6
HIDDEN
 62
     7
370
     0
100
AcDbLine
 10
214.4057138788
 20
122.0662963654
 30
0.0
 11
214.4057138788
 21
128.179889832
 31
0.0
  0
SPLINE
  5
162
330
1F
100
AcDbEntity
  8
0
  6
HIDDEN
 62
     7
370
     0
100
AcDbSpline
210
0.0
220
0.0
230
1.0
 70
     8
 71
     3
 72
    24
 73
    20
 74
     0
 42
0.00000001
 43
0.00000001
 40
0.0
 40
0.0
 40
0.0
 40
0.0
 40
0.1249999999999978
 40
0.1249999999999978
 40
0.2499999999999956
 40
0.2499999999999956
 40
0.3124999999999969
 40
0.3124999999999969
 40
0.3749999999999983
 40
0.3749999999999983
 40
0.4999999999999987
 40
0.4999999999999987
 40
0.624999999999999
 40
0.624999999999999
 40
0.7499999999999993
 40
0.7499999999999993
 40
0.8749999999999997
 40
0.8749999999999997
 40
1.0
 40
1.0
 40
1.0
 40
1.0
 10
214.4057103024715
 20
118.6688704243506
 30
0.0
 10
214.2067213464025
 20
118.7396155193765
 30
0.0
 10
214.0242577372651
 20
118.8357671906122
 30
0.0
 10
213.6915457386368
 20
119.0762773977105
 30
0.0
 10
213.5463937055945
 20
119.2177128604648
 30
0.0
 10
213.3669491786155
 20
119.4531664284728
 30
0.0
 10
213.3129919806954
 20
119.5364821386875
 30
0.0
 10
213.2208665172605
 20
119.7062794511938
 30
0.0
 10
213.1821996622236
 20
119.7932742492588
 30
0.0
 10
213.0882625577974
 20
120.0602882452407
 30
0.0
 10
213.0557997573863
 20
120.2470159998446
 30
0.0
 10
213.0556212260419
 20
120.6112199764367
 30
0.0
 10
213.0880098813842
 20
120.7938168898322
 30
0.0
 10
213.2127693665643
 20
121.1332656407786
 30
0.0
 10
213.306884231377
 20
121.2951085940091
 30
0.0
 10
213.5450973360447
 20
121.581433585615
 30
0.0
 10
213.6917945619833
 20
121.7093922468912
 30
0.0
 10
214.0225071328192
 20
121.9208111291563
 30
0.0
 10
214.2067237249016
 20
122.0052580893313
 30
0.0
 10
214.4057103024715
 20
122.0662959202224
 30
0.0
  0
LINE
  5
163
330
1F
100
AcDbEntity
  8
0
  6
HIDDEN
 62
     7
370
     0
100
AcDbLine
 10
214.4057138788
 20
97.3045040931
 30
0.0
 11
214.4057138788
 21
118.6688702631
 31
0.0
  0
LINE
  5
164
330
1F
100
AcDbEntity
  8
0
  6
HIDDEN
 62
     7
370
     0
100
AcDbLine
 10
214.4057138788
 20
118.6688702631
 30
0.0
 11
214.4057138788
 21
97.3045040931
 31
0.0
  0
SPLINE
  5
165
330
1F
100
AcDbEntity
  8
0
  6
HIDDEN
 62
     7
370
     0
100
AcDbSpline
210
0.0
220
0.0
230
1.0
 70
    11
 71
     3
 72
    22
 73
    18
 74
     0
 42
0.00000001
 43
0.00000001
 40
0.0
 40
0.0
 40
0.0
 40
0.0
 40
0.125
 40
0.125
 40
0.25
 40
0.25
 40
0.375
 40
0.375
 40
0.5
 40
0.5
 40
0.625
 40
0.625
 40
0.75
 40
0.75
 40
0.875
 40
0.875
 40
1.0
 40
1.0
 40
1.0
 40
1.0
 10
216.0057103024714
 20
97.29930167000862
 30
0.0
 10
216.1921276948454
 20
97.28899941243307
 30
0.0
 10
216.362109447111
 20
97.27625872247792
 30
0.0
 10
216.670164401665
 20
97.24907573595037
 30
0.0
 10
216.804748844873
 20
97.23491059291844
 30
0.0
 10
217.0246869929203
 20
97.2098824164201
 30
0.0
 10
217.1110930502157
 20
97.19892477955217
 30
0.0
 10
217.225818119998
 20
97.18401607046054
 30
0.0
 10
217.2556484372898
 20
97.17989846701454
 30
0.0
 10
217.2557719699271
 20
97.17988173033542
 30
0.0
 10
217.2262559469538
 20
97.1839577261669
 30
0.0
 10
217.1114472782805
 20
97.19888018505479
 30
0.0
 10
217.026008812859
 20
97.20972563528017
 30
0.0
 10
216.8052249711638
 20
97.23486272258775
 30
0.0
 10
216.672782810258
 20
97.24882814855283
 30
0.0
 10
216.362789196964
 20
97.27621510303119
 30
0.0
 10
216.1921251399145
 20
97.28899955362995
 30
0.0
 10
216.0057103024714
 20
97.29930167000862
 30
0.0
  0
LINE
  5
166
330
1F
100
AcDbEntity
  8
0
  6
HIDDEN
 62
     7
370
     0
100
AcDbLine
 10
216.0057111608
 20
97.2993017251
 30
0.0
 11
216.0057111608
 21
118.7071676443
 31
0.0
  0
SPLINE
  5
167
330
1F
100
AcDbEntity
  8
0
  6
HIDDEN
 62
     7
370
     0
100
AcDbSpline
210
0.0
220
0.0
230
1.0
 70
     8
 71
     3
 72
    22
 73
    18
 74
     0
 42
0.00000001
 43
0.00000001
 40
0.0
 40
0.0
 40
0.0
 40
0.0
 40
0.1249999999999998
 40
0.1249999999999998
 40
0.2499999999999996
 40
0.2499999999999996
 40
0.3749999999999993
 40
0.3749999999999993
 40
0.4999999999999991
 40
0.4999999999999991
 40
0.6249999999999993
 40
0.6249999999999993
 40
0.7499999999999996
 40
0.7499999999999996
 40
0.8749999999999998
 40
0.8749999999999998
 40
1.0
 40
1.0
 40
1.0
 40
1.0
 10
216.0057103024714
 20
122.0332011298728
 30
0.0
 10
216.1921276948454
 20
121.966891113471
 30
0.0
 10
216.362109447111
 20
121.8805759275895
 30
0.0
 10
216.670164401665
 20
121.6672966771925
 30
0.0
 10
216.8047488448729
 20
121.5418534866807
 30
0.0
 10
217.0246869929203
 20
121.2622963592882
 30
0.0
 10
217.1110930502157
 20
121.1060739670046
 30
0.0
 10
217.225818119998
 20
120.7797044303433
 30
0.0
 10
217.2556484372898
 20
120.6047691669045
 30
0.0
 10
217.2557719699271
 20
120.2561270874634
 30
0.0
 10
217.2262559469538
 20
120.0776595366411
 30
0.0
 10
217.1114472782805
 20
119.7353206898346
 30
0.0
 10
217.026008812859
 20
119.5695777709534
 30
0.0
 10
216.8052249711638
 20
119.2633118766026
 30
0.0
 10
216.6727828102581
 20
119.1255900116537
 30
0.0
 10
216.362789196964
 20
118.883120547372
 30
0.0
 10
216.1921251399146
 20
118.7837786799333
 30
0.0
 10
216.0057103024714
 20
118.7071674559603
 30
0.0
  0
LINE
  5
168
330
1F
100
AcDbEntity
  8
0
  6
HIDDEN
 62
     7
370
     0
100
AcDbLine
 10
216.0057111608
 20
122.0332008864
 30
0.0
 11
216.0057111608
 21
128.179889832
 31
0.0
  0
SPLINE
  5
169
330
1F
100
AcDbEntity
  8
0
  6
HIDDEN
 62
     7
370
     0
100
AcDbSpline
210
0.0
220
0.0
230
1.0
 70
    11
 71
     3
 72
    18
 73
    14
 74
     0
 42
0.00000001
 43
0.00000001
 40
0.0
 40
0.0
 40
0.0
 40
0.0
 40
0.25
 40
0.25
 40
0.5
 40
0.5
 40
0.625
 40
0.625
 40
0.75
 40
0.75
 40
0.875
 40
0.875
 40
1.0
 40
1.0
 40
1.0
 40
1.0
 10
221.4281494344084
 20
128.1097179614752
 30
0.0
 10
221.2740160107394
 20
128.1301369410241
 30
0.0
 10
221.1516574505508
 20
128.1479101798253
 30
0.0
 10
220.9824711638235
 20
128.173056700294
 30
0.0
 10
220.9391573922072
 20
128.1798541259377
 30
0.0
 10
220.9388090996072
 20
128.179907851952
 30
0.0
 10
220.949821574785
 20
128.1782016608894
 30
0.0
 10
220.9926922349252
 20
128.1716492166627
 30
0.0
 10
221.0245329783088
 20
128.1668057573131
 30
0.0
 10
221.1087442749117
 20
128.1542876704332
 30
0.0
 10
221.1610639721936
 20
128.1466258740085
 30
0.0
 10
221.28205036753
 20
128.1294730743982
 30
0.0
 10
221.3510328543292
 20
128.1199340575952
 30
0.0
 10
221.4281494344084
 20
128.1097179614751
 30
0.0
  0
SPLINE
  5
16A
330
1F
100
AcDbEntity
  8
0
  6
HIDDEN
 62
     7
370
     0
100
AcDbSpline
210
0.0
220
0.0
230
1.0
 70
     8
 71
     3
 72
    28
 73
    24
 74
     0
 42
0.00000001
 43
0.00000001
 40
0.0
 40
0.0
 40
0.0
 40
0.0
 40
0.1249999999999891
 40
0.1249999999999891
 40
0.1874999999999837
 40
0.1874999999999837
 40
0.2499999999999784
 40
0.2499999999999784
 40
0.3749999999999784
 40
0.3749999999999784
 40
0.4374999999999784
 40
0.4374999999999784
 40
0.4999999999999784
 40
0.4999999999999784
 40
0.6249999999999784
 40
0.6249999999999784
 40
0.7499999999999784
 40
0.7499999999999784
 40
0.8124999999999837
 40
0.8124999999999837
 40
0.8749999999999891
 40
0.8749999999999891
 40
1.0
 40
1.0
 40
1.0
 40
1.0
 10
221.4281494344085
 20
128.1097179614751
 30
0.0
 10
221.5613341162638
 20
128.0861746446366
 30
0.0
 10
221.7241341527578
 20
128.0589873110396
 30
0.0
 10
222.0115427524046
 20
128.0170499171932
 30
0.0
 10
222.1153992687579
 20
128.0027909149763
 30
0.0
 10
222.3323475786683
 20
127.9754146707582
 30
0.0
 10
222.4458660445924
 20
127.96222209877
 30
0.0
 10
222.8014411213395
 20
127.925166814558
 30
0.0
 10
223.0621045718487
 20
127.903717296882
 30
0.0
 10
223.46254854861
 20
127.8819527277538
 30
0.0
 10
223.5981979636552
 20
127.8763314663074
 30
0.0
 10
223.8739069471739
 20
127.8687157071023
 30
0.0
 10
224.0149939854371
 20
127.8667380688586
 30
0.0
 10
224.4333773638932
 20
127.866703489504
 30
0.0
 10
224.7081695681545
 20
127.8743693555638
 30
0.0
 10
225.2493733781399
 20
127.9036572924442
 30
0.0
 10
225.504173490353
 20
127.9246294027982
 30
0.0
 10
225.8619498270754
 20
127.9618135338462
 30
0.0
 10
225.9777200353559
 20
127.9752533123625
 30
0.0
 10
226.1947028707406
 20
128.0026152826827
 30
0.0
 10
226.2966869294464
 20
128.0166054276406
 30
0.0
 10
226.5834560786891
 20
128.0583872763342
 30
0.0
 10
226.7500918958288
 20
128.086175600469
 30
0.0
 10
226.8832711705344
 20
128.1097179614751
 30
0.0
  0
SPLINE
  5
16B
330
1F
100
AcDbEntity
  8
0
  6
HIDDEN
 62
     7
370
     0
100
AcDbSpline
210
0.0
220
0.0
230
1.0
 70
    11
 71
     3
 72
    18
 73
    14
 74
     0
 42
0.00000001
 43
0.00000001
 40
0.0
 40
0.0
 40
0.0
 40
0.0
 40
0.25
 40
0.25
 40
0.5
 40
0.5
 40
0.625
 40
0.625
 40
0.75
 40
0.75
 40
0.875
 40
0.875
 40
1.0
 40
1.0
 40
1.0
 40
1.0
 10
226.8832711705344
 20
128.1097179614752
 30
0.0
 10
227.0374045942034
 20
128.1301369410241
 30
0.0
 10
227.159763154392
 20
128.1479101798253
 30
0.0
 10
227.3289494411192
 20
128.173056700294
 30
0.0
 10
227.3722632127356
 20
128.1798541259377
 30
0.0
 10
227.3726115053356
 20
128.179907851952
 30
0.0
 10
227.3615990301578
 20
128.1782016608894
 30
0.0
 10
227.3187283700177
 20
128.1716492166627
 30
0.0
 10
227.286887626634
 20
128.1668057573131
 30
0.0
 10
227.2026763300311
 20
128.1542876704332
 30
0.0
 10
227.1503566327492
 20
128.1466258740085
 30
0.0
 10
227.0293702374129
 20
128.1294730743982
 30
0.0
 10
226.9603877506136
 20
128.1199340575952
 30
0.0
 10
226.8832711705344
 20
128.1097179614751
 30
0.0
  0
SPLINE
  5
16C
330
1F
100
AcDbEntity
  8
0
  6
HIDDEN
 62
     7
370
     0
100
AcDbSpline
210
0.0
220
0.0
230
1.0
 70
     8
 71
     3
 72
    28
 73
    24
 74
     0
 42
0.00000001
 43
0.00000001
 40
0.0
 40
0.0
 40
0.0
 40
0.0
 40
0.1249999999999891
 40
0.1249999999999891
 40
0.1874999999999837
 40
0.1874999999999837
 40
0.2499999999999784
 40
0.2499999999999784
 40
0.3749999999999784
 40
0.3749999999999784
 40
0.4374999999999784
 40
0.4374999999999784
 40
0.4999999999999784
 40
0.4999999999999784
 40
0.6249999999999784
 40
0.6249999999999784
 40
0.7499999999999784
 40
0.7499999999999784
 40
0.8124999999999837
 40
0.8124999999999837
 40
0.8749999999999891
 40
0.8749999999999891
 40
1.0
 40
1.0
 40
1.0
 40
1.0
 10
226.8832711705344
 20
128.1097179614751
 30
0.0
 10
226.750086488679
 20
128.0861746446366
 30
0.0
 10
226.587286452185
 20
128.0589873110396
 30
0.0
 10
226.2998778525382
 20
128.0170499171932
 30
0.0
 10
226.1960213361849
 20
128.0027909149763
 30
0.0
 10
225.9790730262745
 20
127.9754146707582
 30
0.0
 10
225.8655545603504
 20
127.96222209877
 30
0.0
 10
225.5099794836034
 20
127.925166814558
 30
0.0
 10
225.2493160330942
 20
127.903717296882
 30
0.0
 10
224.8488720563327
 20
127.8819527277538
 30
0.0
 10
224.7132226412876
 20
127.8763314663074
 30
0.0
 10
224.4375136577689
 20
127.8687157071023
 30
0.0
 10
224.2964266195058
 20
127.8667380688586
 30
0.0
 10
223.8780432410497
 20
127.866703489504
 30
0.0
 10
223.6032510367882
 20
127.8743693555638
 30
0.0
 10
223.0620472268029
 20
127.9036572924442
 30
0.0
 10
222.8072471145898
 20
127.9246294027982
 30
0.0
 10
222.4494707778674
 20
127.9618135338462
 30
0.0
 10
222.3337005695869
 20
127.9752533123625
 30
0.0
 10
222.1167177342023
 20
128.0026152826827
 30
0.0
 10
222.0147336754965
 20
128.0166054276406
 30
0.0
 10
221.7279645262537
 20
128.0583872763342
 30
0.0
 10
221.561328709114
 20
128.086175600469
 30
0.0
 10
221.4281494344085
 20
128.1097179614751
 30
0.0
  0
SPLINE
  5
16D
330
1F
100
AcDbEntity
  8
0
  6
HIDDEN
 62
     7
370
     0
100
AcDbSpline
210
0.0
220
0.0
230
1.0
 70
     8
 71
     3
 72
    16
 73
    12
 74
     0
 42
0.00000001
 43
0.00000001
 40
0.0
 40
0.0
 40
0.0
 40
0.0
 40
0.125
 40
0.125
 40
0.25
 40
0.25
 40
0.5
 40
0.5
 40
0.75
 40
0.75
 40
1.0
 40
1.0
 40
1.0
 40
1.0
 10
226.8832711705345
 20
103.6891200490054
 30
0.0
 10
226.9600494596613
 20
103.7762907633444
 30
0.0
 10
227.0300895248975
 20
103.8696411758898
 30
0.0
 10
227.1505152157337
 20
104.0621070371723
 30
0.0
 10
227.2016987900233
 20
104.1620244313492
 30
0.0
 10
227.3270278113468
 20
104.4736248039681
 30
0.0
 10
227.3722015216344
 20
104.7007799604074
 30
0.0
 10
227.372788136328
 20
105.1543625940236
 30
0.0
 10
227.3285097846986
 20
105.3881673934667
 30
0.0
 10
227.1611316386777
 20
105.8315757064805
 30
0.0
 10
227.0366171485573
 20
106.0464152610833
 30
0.0
 10
226.8832711705346
 20
106.2408322453612
 30
0.0
  0
SPLINE
  5
16E
330
1F
100
AcDbEntity
  8
0
  6
HIDDEN
 62
     7
370
     0
100
AcDbSpline
210
0.0
220
0.0
230
1.0
 70
     8
 71
     3
 72
    28
 73
    24
 74
     0
 42
0.00000001
 43
0.00000001
 40
0.0
 40
0.0
 40
0.0
 40
0.0
 40
0.1250000000000037
 40
0.1250000000000037
 40
0.1875000000000011
 40
0.1875000000000011
 40
0.2499999999999986
 40
0.2499999999999986
 40
0.3749999999999936
 40
0.3749999999999936
 40
0.4374999999999972
 40
0.4374999999999972
 40
0.5000000000000007
 40
0.5000000000000007
 40
0.6249999999999952
 40
0.6249999999999952
 40
0.7499999999999898
 40
0.7499999999999898
 40
0.8124999999999923
 40
0.8124999999999923
 40
0.8749999999999949
 40
0.8749999999999949
 40
1.0
 40
1.0
 40
1.0
 40
1.0
 10
226.8832711705346
 20
106.2408322453613
 30
0.0
 10
226.7500864886792
 20
106.4661483585428
 30
0.0
 10
226.5872864521852
 20
106.6728083836783
 30
0.0
 10
226.2998778525383
 20
106.9539406918475
 30
0.0
 10
226.1960213361852
 20
107.0432300789126
 30
0.0
 10
225.9790730262748
 20
107.2066252786465
 30
0.0
 10
225.8655545603506
 20
107.2812963225141
 30
0.0
 10
225.5099794836035
 20
107.4840169493428
 30
0.0
 10
225.2493160330943
 20
107.5914786935065
 30
0.0
 10
224.8488720563329
 20
107.6983111826654
 30
0.0
 10
224.7132226412877
 20
107.7253229205042
 30
0.0
 10
224.437513657769
 20
107.7617543754559
 30
0.0
 10
224.2964266195058
 20
107.7710957225582
 30
0.0
 10
223.8780432410497
 20
107.7712597200244
 30
0.0
 10
223.6032510367882
 20
107.735512220419
 30
0.0
 10
223.0620472268028
 20
107.5917952624968
 30
0.0
 10
222.8072471145896
 20
107.4868323780059
 30
0.0
 10
222.4494707778672
 20
107.2835921074453
 30
0.0
 10
222.3337005695866
 20
107.2075545063578
 30
0.0
 10
222.116717734202
 20
107.0443117668722
 30
0.0
 10
222.0147336754963
 20
106.9567720066407
 30
0.0
 10
221.7279645262535
 20
106.6771197362325
 30
0.0
 10
221.5613287091138
 20
106.4661392109595
 30
0.0
 10
221.4281494344083
 20
106.2408322453613
 30
0.0
  0
SPLINE
  5
16F
330
1F
100
AcDbEntity
  8
0
  6
HIDDEN
 62
     7
370
     0
100
AcDbSpline
210
0.0
220
0.0
230
1.0
 70
     8
 71
     3
 72
    20
 73
    16
 74
     0
 42
0.00000001
 43
0.00000001
 40
0.0
 40
0.0
 40
0.0
 40
0.0
 40
0.1250000000000004
 40
0.1250000000000004
 40
0.2500000000000007
 40
0.2500000000000007
 40
0.3750000000000011
 40
0.3750000000000011
 40
0.5000000000000014
 40
0.5000000000000014
 40
0.6250000000000011
 40
0.6250000000000011
 40
0.7500000000000008
 40
0.7500000000000008
 40
1.0
 40
1.0
 40
1.0
 40
1.0
 10
221.4281494344083
 20
106.2408322453613
 30
0.0
 10
221.3515611569811
 20
106.1437311533051
 30
0.0
 10
221.2825564782481
 20
106.0424568412305
 30
0.0
 10
221.1609415139919
 20
105.8311057511949
 30
0.0
 10
221.1087599772727
 20
105.7213753077367
 30
0.0
 10
221.0252625232724
 20
105.5005454697499
 30
0.0
 10
220.9933954607176
 20
105.3885596984044
 30
0.0
 10
220.9502198667633
 20
105.1614435020829
 30
0.0
 10
220.9389879136667
 20
105.045106822386
 30
0.0
 10
220.938861191357
 20
104.8166629438968
 30
0.0
 10
220.9496579027592
 20
104.7043678078947
 30
0.0
 10
220.9923638751147
 20
104.4834773632081
 30
0.0
 10
221.0246739088583
 20
104.3739864129006
 30
0.0
 10
221.151090615428
 20
104.0581694055269
 30
0.0
 10
221.2739231830522
 20
103.86422179526
 30
0.0
 10
221.4281494344083
 20
103.6891200490054
 30
0.0
  0
SPLINE
  5
170
330
1F
100
AcDbEntity
  8
0
  6
HIDDEN
 62
     7
370
     0
100
AcDbSpline
210
0.0
220
0.0
230
1.0
 70
     8
 71
     3
 72
    28
 73
    24
 74
     0
 42
0.00000001
 43
0.00000001
 40
0.0
 40
0.0
 40
0.0
 40
0.0
 40
0.125000000000006
 40
0.125000000000006
 40
0.1875000000000132
 40
0.1875000000000132
 40
0.2500000000000204
 40
0.2500000000000204
 40
0.3750000000000239
 40
0.3750000000000239
 40
0.4375000000000194
 40
0.4375000000000194
 40
0.500000000000015
 40
0.500000000000015
 40
0.6250000000000061
 40
0.6250000000000061
 40
0.7499999999999972
 40
0.7499999999999972
 40
0.8124999999999981
 40
0.8124999999999981
 40
0.874999999999999
 40
0.874999999999999
 40
1.0
 40
1.0
 40
1.0
 40
1.0
 10
221.4281494344083
 20
103.6891200490054
 30
0.0
 10
221.5613341162636
 20
103.4873472526624
 30
0.0
 10
221.7241341527576
 20
103.3078745611239
 30
0.0
 10
222.0115427524045
 20
103.0686796468011
 30
0.0
 10
222.1153992687577
 20
102.9936492619529
 30
0.0
 10
222.3323475786681
 20
102.857630306437
 30
0.0
 10
222.4458660445922
 20
102.7961518345576
 30
0.0
 10
222.8014411213393
 20
102.630486491941
 30
0.0
 10
223.0621045718485
 20
102.5444742654533
 30
0.0
 10
223.4625485486099
 20
102.4594063454226
 30
0.0
 10
223.5981979636552
 20
102.4380158690303
 30
0.0
 10
223.8739069471739
 20
102.4092001732836
 30
0.0
 10
224.014993985437
 20
102.401836464425
 30
0.0
 10
224.4333773638932
 20
102.4017070463133
 30
0.0
 10
224.7081695681547
 20
102.429788679859
 30
0.0
 10
225.24937337814
 20
102.5442177009008
 30
0.0
 10
225.5041734903531
 20
102.6282084750377
 30
0.0
 10
225.8619498270755
 20
102.7942646145503
 30
0.0
 10
225.9777200353562
 20
102.8568624371215
 30
0.0
 10
226.1947028707407
 20
102.992743206287
 30
0.0
 10
226.2966869294465
 20
103.0662928215605
 30
0.0
 10
226.5834560786894
 20
103.3041632432751
 30
0.0
 10
226.7500918958291
 20
103.4873554444133
 30
0.0
 10
226.8832711705346
 20
103.6891200490054
 30
0.0
  0
SPLINE
  5
171
330
1F
100
AcDbEntity
  8
0
  6
HIDDEN
 62
     7
370
     0
100
AcDbSpline
210
0.0
220
0.0
230
1.0
 70
     8
 71
     3
 72
    18
 73
    14
 74
     0
 42
0.00000001
 43
0.00000001
 40
0.0
 40
0.0
 40
0.0
 40
0.0
 40
0.1250000000000009
 40
0.1250000000000009
 40
0.2500000000000018
 40
0.2500000000000018
 40
0.500000000000004
 40
0.500000000000004
 40
0.7500000000000056
 40
0.7500000000000056
 40
0.8750000000000028
 40
0.8750000000000028
 40
1.0
 40
1.0
 40
1.0
 40
1.0
 10
221.4281494344083
 20
103.6891200490055
 30
0.0
 10
221.3516298414229
 20
103.7759970510505
 30
0.0
 10
221.2813746512267
 20
103.8695170829263
 30
0.0
 10
221.1603233978664
 20
104.0630918827442
 30
0.0
 10
221.1090915263615
 20
104.1633491738605
 30
0.0
 10
220.9839863520174
 20
104.4751248293065
 30
0.0
 10
220.9387194050702
 20
104.7013964751118
 30
0.0
 10
220.9391305798605
 20
105.1615884567091
 30
0.0
 10
220.9834988119474
 20
105.3903057870898
 30
0.0
 10
221.1091297925533
 20
105.7222454777592
 30
0.0
 10
221.1615503379517
 20
105.8322402668628
 30
0.0
 10
221.2826973086069
 20
106.0426246531414
 30
0.0
 10
221.3515425783784
 20
106.1437075987526
 30
0.0
 10
221.4281494344083
 20
106.2408322453616
 30
0.0
  0
SPLINE
  5
172
330
1F
100
AcDbEntity
  8
0
  6
HIDDEN
 62
     7
370
     0
100
AcDbSpline
210
0.0
220
0.0
230
1.0
 70
     8
 71
     3
 72
    28
 73
    24
 74
     0
 42
0.00000001
 43
0.00000001
 40
0.0
 40
0.0
 40
0.0
 40
0.0
 40
0.1249999999999884
 40
0.1249999999999884
 40
0.187499999999987
 40
0.187499999999987
 40
0.2499999999999856
 40
0.2499999999999856
 40
0.3749999999999827
 40
0.3749999999999827
 40
0.4374999999999872
 40
0.4374999999999872
 40
0.4999999999999918
 40
0.4999999999999918
 40
0.6249999999999885
 40
0.6249999999999885
 40
0.749999999999985
 40
0.749999999999985
 40
0.8124999999999888
 40
0.8124999999999888
 40
0.8749999999999926
 40
0.8749999999999926
 40
1.0
 40
1.0
 40
1.0
 40
1.0
 10
221.4281494344083
 20
106.2408322453616
 30
0.0
 10
221.5613341162636
 20
106.4661483585431
 30
0.0
 10
221.7241341527576
 20
106.6728083836786
 30
0.0
 10
222.0115427524046
 20
106.9539406918478
 30
0.0
 10
222.1153992687578
 20
107.0432300789129
 30
0.0
 10
222.3323475786681
 20
107.2066252786468
 30
0.0
 10
222.4458660445923
 20
107.2812963225144
 30
0.0
 10
222.8014411213394
 20
107.484016949343
 30
0.0
 10
223.0621045718486
 20
107.5914786935067
 30
0.0
 10
223.46254854861
 20
107.6983111826656
 30
0.0
 10
223.5981979636552
 20
107.7253229205044
 30
0.0
 10
223.8739069471739
 20
107.7617543754561
 30
0.0
 10
224.0149939854371
 20
107.7710957225584
 30
0.0
 10
224.4333773638932
 20
107.7712597200246
 30
0.0
 10
224.7081695681547
 20
107.7355122204192
 30
0.0
 10
225.2493733781401
 20
107.591795262497
 30
0.0
 10
225.5041734903531
 20
107.4868323780061
 30
0.0
 10
225.8619498270755
 20
107.2835921074455
 30
0.0
 10
225.9777200353562
 20
107.207554506358
 30
0.0
 10
226.1947028707407
 20
107.0443117668724
 30
0.0
 10
226.2966869294465
 20
106.9567720066409
 30
0.0
 10
226.5834560786894
 20
106.6771197362327
 30
0.0
 10
226.7500918958289
 20
106.4661392109598
 30
0.0
 10
226.8832711705345
 20
106.2408322453616
 30
0.0
  0
SPLINE
  5
173
330
1F
100
AcDbEntity
  8
0
  6
HIDDEN
 62
     7
370
     0
100
AcDbSpline
210
0.0
220
0.0
230
1.0
 70
     8
 71
     3
 72
    16
 73
    12
 74
     0
 42
0.00000001
 43
0.00000001
 40
0.0
 40
0.0
 40
0.0
 40
0.0
 40
0.1250000000000001
 40
0.1250000000000001
 40
0.2500000000000002
 40
0.2500000000000002
 40
0.4999999999999997
 40
0.4999999999999997
 40
0.7499999999999998
 40
0.7499999999999998
 40
1.0
 40
1.0
 40
1.0
 40
1.0
 10
226.8832711705345
 20
106.2408322453615
 30
0.0
 10
226.9592277650093
 20
106.1445320213569
 30
0.0
 10
227.0278617110548
 20
106.0439566053439
 30
0.0
 10
227.149133565618
 20
105.8336817542425
 30
0.0
 10
227.2018274901005
 20
105.7233059570541
 30
0.0
 10
227.327749365232
 20
105.3910866402873
 30
0.0
 10
227.3721520083599
 20
105.1623022161239
 30
0.0
 10
227.3728366659206
 20
104.7028229276663
 30
0.0
 10
227.3295149279114
 20
104.4811095011483
 30
0.0
 10
227.1603178613921
 20
104.0578615731624
 30
0.0
 10
227.0382088875094
 20
103.8650295622334
 30
0.0
 10
226.8832711705345
 20
103.6891200490055
 30
0.0
  0
SPLINE
  5
174
330
1F
100
AcDbEntity
  8
0
  6
HIDDEN
 62
     7
370
     0
100
AcDbSpline
210
0.0
220
0.0
230
1.0
 70
     8
 71
     3
 72
    28
 73
    24
 74
     0
 42
0.00000001
 43
0.00000001
 40
0.0
 40
0.0
 40
0.0
 40
0.0
 40
0.1249999999999943
 40
0.1249999999999943
 40
0.1874999999999953
 40
0.1874999999999953
 40
0.2499999999999964
 40
0.2499999999999964
 40
0.3749999999999984
 40
0.3749999999999984
 40
0.4374999999999935
 40
0.4374999999999935
 40
0.4999999999999886
 40
0.4999999999999886
 40
0.6249999999999911
 40
0.6249999999999911
 40
0.7499999999999936
 40
0.7499999999999936
 40
0.8124999999999951
 40
0.8124999999999951
 40
0.8749999999999966
 40
0.8749999999999966
 40
1.0
 40
1.0
 40
1.0
 40
1.0
 10
226.8832711705345
 20
103.6891200490055
 30
0.0
 10
226.7500864886793
 20
103.4873472526625
 30
0.0
 10
226.5872864521852
 20
103.307874561124
 30
0.0
 10
226.2998778525383
 20
103.0686796468012
 30
0.0
 10
226.1960213361851
 20
102.993649261953
 30
0.0
 10
225.9790730262747
 20
102.8576303064371
 30
0.0
 10
225.8655545603505
 20
102.7961518345577
 30
0.0
 10
225.5099794836034
 20
102.6304864919411
 30
0.0
 10
225.2493160330942
 20
102.5444742654535
 30
0.0
 10
224.8488720563328
 20
102.4594063454227
 30
0.0
 10
224.7132226412876
 20
102.4380158690304
 30
0.0
 10
224.4375136577689
 20
102.4092001732838
 30
0.0
 10
224.2964266195057
 20
102.4018364644252
 30
0.0
 10
223.8780432410495
 20
102.4017070463135
 30
0.0
 10
223.6032510367881
 20
102.4297886798591
 30
0.0
 10
223.0620472268028
 20
102.544217700901
 30
0.0
 10
222.8072471145896
 20
102.6282084750379
 30
0.0
 10
222.4494707778672
 20
102.7942646145504
 30
0.0
 10
222.3337005695866
 20
102.8568624371217
 30
0.0
 10
222.1167177342021
 20
102.9927432062871
 30
0.0
 10
222.0147336754963
 20
103.0662928215607
 30
0.0
 10
221.7279645262535
 20
103.3041632432753
 30
0.0
 10
221.5613287091138
 20
103.4873554444134
 30
0.0
 10
221.4281494344083
 20
103.6891200490055
 30
0.0
  0
LINE
  5
175
330
1F
100
AcDbEntity
  8
0
  6
HIDDEN
 62
     7
370
     0
100
AcDbLine
 10
252.3557080852
 20
120.9548904638
 30
0.0
 11
252.3557080852
 21
128.1449317078
 31
0.0
  0
LINE
  5
176
330
1F
100
AcDbEntity
  8
0
  6
HIDDEN
 62
     7
370
     0
100
AcDbLine
 10
252.3557080852
 20
120.9548904638
 30
0.0
 11
248.0557098018
 21
120.9548904638
 31
0.0
  0
SPLINE
  5
177
330
1F
100
AcDbEntity
  8
0
  6
HIDDEN
 62
     7
370
     0
100
AcDbSpline
210
0.0
220
0.0
230
1.0
 70
     8
 71
     3
 72
    10
 73
     6
 74
     0
 42
0.00000001
 43
0.00000001
 40
0.0
 40
0.0
 40
0.0
 40
0.0
 40
0.5
 40
0.5
 40
1.0
 40
1.0
 40
1.0
 40
1.0
 10
248.0557103024714
 20
120.9548900852807
 30
0.0
 10
247.9121617509147
 20
120.9548900852807
 30
0.0
 10
247.7775805607122
 20
120.8901679765743
 30
0.0
 10
247.6010623733363
 20
120.7000803306684
 30
0.0
 10
247.5557103024714
 20
120.5786167332371
 30
0.0
 10
247.5557103024714
 20
120.4548900852807
 30
0.0
  0
LINE
  5
178
330
1F
100
AcDbEntity
  8
0
  6
HIDDEN
 62
     7
370
     0
100
AcDbLine
 10
247.5557162391
 20
120.4548899162
 30
0.0
 11
247.5557162391
 21
104.9048902544
 31
0.0
  0
SPLINE
  5
179
330
1F
100
AcDbEntity
  8
0
  6
HIDDEN
 62
     7
370
     0
100
AcDbSpline
210
0.0
220
0.0
230
1.0
 70
     8
 71
     3
 72
    12
 73
     8
 74
     0
 42
0.00000001
 43
0.00000001
 40
0.0
 40
0.0
 40
0.0
 40
0.0
 40
0.2499999999999859
 40
0.2499999999999859
 40
0.4999999999999718
 40
0.4999999999999718
 40
1.0
 40
1.0
 40
1.0
 40
1.0
 10
247.5557103024714
 20
104.9048900852806
 30
0.0
 10
247.5557103024714
 20
104.8428936639887
 30
0.0
 10
247.5668507179302
 20
104.7830275392291
 30
0.0
 10
247.6113465373322
 20
104.6674558464707
 30
0.0
 10
247.6447353382701
 20
104.6128866189824
 30
0.0
 10
247.7761817930228
 20
104.4706901376454
 30
0.0
 10
247.9116407296357
 20
104.4048900852806
 30
0.0
 10
248.0557103024714
 20
104.4048900852806
 30
0.0
  0
LINE
  5
17A
330
1F
100
AcDbEntity
  8
0
  6
HIDDEN
 62
     7
370
     0
100
AcDbLine
 10
248.0557098018
 20
104.4048897068
 30
0.0
 11
252.3557080852
 21
104.4048897068
 31
0.0
  0
LINE
  5
17B
330
1F
100
AcDbEntity
  8
0
  6
HIDDEN
 62
     7
370
     0
100
AcDbLine
 10
252.3557080852
 20
104.4048897068
 30
0.0
 11
252.3557080852
 21
97.2148484628
 31
0.0
  0
LINE
  5
17C
330
1F
100
AcDbEntity
  8
0
  6
HIDDEN
 62
     7
370
     0
100
AcDbLine
 10
216.0057111608
 20
118.7071676443
 30
0.0
 11
216.0057111608
 21
97.2993017251
 31
0.0
  0
LINE
  5
17D
330
1F
100
AcDbEntity
  8
0
  6
HIDDEN
 62
     7
370
     0
100
AcDbLine
 10
248.0557098018
 20
120.9548904638
 30
0.0
 11
252.3557080852
 21
120.9548904638
 31
0.0
  0
LINE
  5
17E
330
1F
100
AcDbEntity
  8
0
  6
HIDDEN
 62
     7
370
     0
100
AcDbLine
 10
252.3557080852
 20
104.4048897068
 30
0.0
 11
248.0557098018
 21
104.4048897068
 31
0.0
  0
SPLINE
  5
17F
330
1F
100
AcDbEntity
  8
0
  6
HIDDEN
 62
     7
370
     0
100
AcDbSpline
210
0.0
220
0.0
230
1.0
 70
     8
 71
     3
 72
    12
 73
     8
 74
     0
 42
0.00000001
 43
0.00000001
 40
0.0
 40
0.0
 40
0.0
 40
0.0
 40
0.2499999999999859
 40
0.2499999999999859
 40
0.4999999999999718
 40
0.4999999999999718
 40
1.0
 40
1.0
 40
1.0
 40
1.0
 10
247.5557103024714
 20
120.4548900852807
 30
0.0
 10
247.5557103024714
 20
120.5168865065726
 30
0.0
 10
247.5668507179302
 20
120.5767526313322
 30
0.0
 10
247.6113465373322
 20
120.6923243240906
 30
0.0
 10
247.6447353382701
 20
120.7468935515789
 30
0.0
 10
247.7761817930228
 20
120.8890900329159
 30
0.0
 10
247.9116407296357
 20
120.9548900852807
 30
0.0
 10
248.0557103024714
 20
120.9548900852807
 30
0.0
  0
SPLINE
  5
180
330
1F
100
AcDbEntity
  8
0
  6
HIDDEN
 62
     7
370
     0
100
AcDbSpline
210
0.0
220
0.0
230
1.0
 70
     8
 71
     3
 72
    10
 73
     6
 74
     0
 42
0.00000001
 43
0.00000001
 40
0.0
 40
0.0
 40
0.0
 40
0.0
 40
0.5
 40
0.5
 40
1.0
 40
1.0
 40
1.0
 40
1.0
 10
248.0557103024714
 20
104.4048900852806
 30
0.0
 10
247.9121617509147
 20
104.4048900852806
 30
0.0
 10
247.7775805607122
 20
104.469612193987
 30
0.0
 10
247.6010623733363
 20
104.6596998398929
 30
0.0
 10
247.5557103024714
 20
104.7811634373242
 30
0.0
 10
247.5557103024714
 20
104.9048900852806
 30
0.0
  0
LINE
  5
181
330
1F
100
AcDbEntity
  8
0
  6
HIDDEN
 62
     7
370
     0
100
AcDbLine
 10
247.5557162391
 20
104.9048902544
 30
0.0
 11
247.5557162391
 21
120.4548899162
 31
0.0
  0
ARC
  5
182
330
1F
100
AcDbEntity
  8
0
  6
HIDDEN
 62
     7
370
     0
100
AcDbCircle
 10
224.1557150112
 20
104.3469924422
 30
0.0
 40
3.320574845864225
100
AcDbArc
 50
34.7735884477
 51
145.2264115523
  0
ARC
  5
183
330
1F
100
AcDbEntity
  8
0
  6
HIDDEN
 62
     7
370
     0
100
AcDbCircle
 10
224.1557150112
 20
105.5829603845
 30
0.0
 40
3.32057513471014
100
AcDbArc
 50
214.7735956258
 51
325.2264043742
  0
LWPOLYLINE
  5
184
330
1F
100
AcDbEntity
  8
0
  6
HIDDEN
 62
     7
370
     0
100
AcDbPolyline
 90
        3
 70
   128
 43
0.0
 10
253.1557067262
 20
121.7548900361
 10
252.7555211412
 20
121.3547007258
 10
252.3557080852
 20
120.9548904638
  0
LINE
  5
185
330
1F
100
AcDbEntity
  8
0
  6
HIDDEN
 62
     7
370
     0
100
AcDbLine
 10
253.1557067262
 20
121.7548900361
 30
0.0
 11
253.1557067262
 21
128.6086781959
 31
0.0
  0
LWPOLYLINE
  5
186
330
1F
100
AcDbEntity
  8
0
  6
HIDDEN
 62
     7
370
     0
100
AcDbPolyline
 90
        3
 70
   128
 43
0.0
 10
252.3557080852
 20
120.9548904638
 10
252.7555211412
 20
121.3547007258
 10
253.1557067262
 20
121.7548900361
  0
LWPOLYLINE
  5
187
330
1F
100
AcDbEntity
  8
0
  6
HIDDEN
 62
     7
370
     0
100
AcDbPolyline
 90
        3
 70
   128
 43
0.0
 10
252.3557080852
 20
104.4048897068
 10
252.7555211412
 20
104.0050794448
 10
253.1557067262
 20
103.6048901345
  0
LINE
  5
188
330
1F
100
AcDbEntity
  8
0
  6
HIDDEN
 62
     7
370
     0
100
AcDbLine
 10
253.1557067262
 20
103.6048901345
 30
0.0
 11
253.1557067262
 21
96.7511019747
 31
0.0
  0
LWPOLYLINE
  5
189
330
1F
100
AcDbEntity
  8
0
  6
HIDDEN
 62
     7
370
     0
100
AcDbPolyline
 90
        3
 70
   128
 43
0.0
 10
253.1557067262
 20
103.6048901345
 10
252.7555211412
 20
104.0050794448
 10
252.3557080852
 20
104.4048897068
  0
SPLINE
  5
18A
330
1F
100
AcDbEntity
  8
0
  6
HIDDEN
 62
     7
370
     0
100
AcDbSpline
210
0.0
220
0.0
230
1.0
 70
     8
 71
     3
 72
    10
 73
     6
 74
     0
 42
0.00000001
 43
0.00000001
 40
0.0
 40
0.0
 40
0.0
 40
0.0
 40
0.5
 40
0.5
 40
1.0
 40
1.0
 40
1.0
 40
1.0
 10
214.6057103024715
 20
122.4588245511555
 30
0.0
 10
214.8029597226168
 20
122.5018018954952
 30
0.0
 10
215.0031380065942
 20
122.5210163979446
 30
0.0
 10
215.4092539370828
 20
122.5131978391206
 30
0.0
 10
215.611399629074
 20
122.4857068772299
 30
0.0
 10
215.8057103024715
 20
122.4348652090482
 30
0.0
  0
LINE
  5
18B
330
1F
100
AcDbEntity
  8
0
  6
HIDDEN
 62
     7
370
     0
100
AcDbLine
 10
117.4557100015
 20
125.6798903535
 30
0.0
 11
117.4557100015
 21
99.6798898171
 31
0.0
  0
LINE
  5
18C
330
1F
100
AcDbEntity
  8
0
  6
HIDDEN
 62
     7
370
     0
100
AcDbLine
 10
121.4557106571
 20
125.6798903535
 30
0.0
 11
121.4557106571
 21
99.6798898171
 31
0.0
  0
LINE
  5
18D
330
1F
100
AcDbEntity
  8
0
  6
HIDDEN
 62
     7
370
     0
100
AcDbLine
 10
216.0057111608
 20
122.2724893208
 30
0.0
 11
216.0057111608
 21
128.654890422
 31
0.0
  0
SPLINE
  5
18E
330
1F
100
AcDbEntity
  8
0
  6
HIDDEN
 62
     7
370
     0
100
AcDbSpline
210
0.0
220
0.0
230
1.0
 70
     8
 71
     3
 72
    10
 73
     6
 74
     0
 42
0.00000001
 43
0.00000001
 40
0.0
 40
0.0
 40
0.0
 40
0.0
 40
0.5
 40
0.5
 40
1.0
 40
1.0
 40
1.0
 40
1.0
 10
215.8057103024715
 20
122.4348652090482
 30
0.0
 10
215.8570874122541
 20
122.4214223141108
 30
0.0
 10
215.9076594718974
 20
122.3960218139211
 30
0.0
 10
215.9828263061675
 20
122.3345956493456
 30
0.0
 10
216.0057103024715
 20
122.2992179528942
 30
0.0
 10
216.0057103024714
 20
122.2724895878001
 30
0.0
  0
SPLINE
  5
18F
330
1F
100
AcDbEntity
  8
0
  6
HIDDEN
 62
     7
370
     0
100
AcDbSpline
210
0.0
220
0.0
230
1.0
 70
     8
 71
     3
 72
    10
 73
     6
 74
     0
 42
0.00000001
 43
0.00000001
 40
0.0
 40
0.0
 40
0.0
 40
0.0
 40
0.5
 40
0.5
 40
1.0
 40
1.0
 40
1.0
 40
1.0
 10
214.4057103024715
 20
122.3056628966964
 30
0.0
 10
214.4057103024715
 20
122.3320636183377
 30
0.0
 10
214.4278860030535
 20
122.3659150590935
 30
0.0
 10
214.5031080819899
 20
122.4242224524868
 30
0.0
 10
214.5539948534503
 20
122.447556621148
 30
0.0
 10
214.6057103024714
 20
122.4588245511558
 30
0.0
  0
LINE
  5
190
330
1F
100
AcDbEntity
  8
0
  6
HIDDEN
 62
     7
370
     0
100
AcDbLine
 10
214.4057138788
 20
122.3056630309
 30
0.0
 11
214.4057138788
 21
128.654890422
 31
0.0
  0
LINE
  5
191
330
1F
100
AcDbEntity
  8
0
  6
HIDDEN
 62
     7
370
     0
100
AcDbLine
 10
106.3557102309
 20
123.9298905323
 30
0.0
 11
106.3557102309
 21
101.4298896382
 31
0.0
  0
LWPOLYLINE
  5
192
330
1F
100
AcDbEntity
  8
0
  6
HIDDEN
 62
     7
370
     0
100
AcDbPolyline
 90
        2
 70
   128
 43
0.0
 10
106.3557102309
 20
101.4298896382
 10
106.3557102309
 20
101.4298896382
  0
LINE
  5
193
330
1F
100
AcDbEntity
  8
0
  6
HIDDEN
 62
     7
370
     0
100
AcDbLine
 10
105.6057105737
 20
100.679889981
 30
0.0
 11
105.6057105737
 21
124.6478778387
 31
0.0
  0
ELLIPSE
  5
194
330
1F
100
AcDbEntity
  8
0
  6
HIDDEN
 62
     7
370
     0
100
AcDbEllipse
 10
36.9710371022
 20
112.6798900853
 30
0.0
 11
31.08108570811661
 21
1.421085471520200E-14
 31
0.0
210
0.0
220
0.0
230
1.0
 40
0.8164965809
 41
1.312649268214811
 42
1.367189972061496
  0
LINE
  5
195
330
1F
100
AcDbEntity
  8
0
  6
HIDDEN
 62
     7
370
     0
100
AcDbLine
 10
43.2557112502
 20
140.0498903434
 30
0.0
 11
43.2557112502
 21
137.5332835208
 31
0.0
  0
ELLIPSE
  5
196
330
1F
100
AcDbEntity
  8
0
  6
HIDDEN
 62
     7
370
     0
100
AcDbEllipse
 10
36.9710371022
 20
112.6798900853
 30
0.0
 11
31.08108570811661
 21
-1.421085471520200E-14
 31
0.0
210
0.0
220
0.0
230
1.0
 40
0.8164965809
 41
4.915995335118103
 42
4.970536038964787
  0
LINE
  5
197
330
1F
100
AcDbEntity
  8
0
  6
HIDDEN
 62
     7
370
     0
100
AcDbLine
 10
43.2557112502
 20
85.3098898272
 30
0.0
 11
43.2557112502
 21
87.8264966498
 31
0.0
  0
LINE
  5
198
330
1F
100
AcDbEntity
  8
0
  6
HIDDEN
 62
     7
370
     0
100
AcDbLine
 10
117.4557100015
 20
101.4298896382
 30
0.0
 11
117.4557100015
 21
123.896880735
 31
0.0
  0
LWPOLYLINE
  5
199
330
1F
100
AcDbEntity
  8
0
  6
HIDDEN
 62
     7
370
     0
100
AcDbPolyline
 90
        2
 70
   128
 43
0.0
 10
122.1057104843
 20
68.7798882912
 10
122.1057104843
 20
68.7798882912
  0
LINE
  5
19A
330
1F
100
AcDbEntity
  8
0
  6
HIDDEN
 62
     7
370
     0
100
AcDbLine
 10
122.1057104843
 20
68.7798882912
 30
0.0
 11
108.1057100521
 21
68.7798882912
 31
0.0
  0
LINE
  5
19B
330
1F
100
AcDbEntity
  8
0
  6
HIDDEN
 62
     7
370
     0
100
AcDbLine
 10
111.2457106786
 20
67.2167117785
 30
0.0
 11
111.2457106786
 21
66.3085009049
 31
0.0
  0
LINE
  5
19C
330
1F
100
AcDbEntity
  8
0
  6
HIDDEN
 62
     7
370
     0
100
AcDbLine
 10
115.0657108949
 20
66.3085009049
 30
0.0
 11
115.0657108949
 21
67.2167117785
 31
0.0
  0
LINE
  5
19D
330
1F
100
AcDbEntity
  8
0
  6
HIDDEN
 62
     7
370
     0
100
AcDbLine
 10
122.1057104843
 20
68.7798882912
 30
0.0
 11
122.1057104843
 21
64.9305458258
 31
0.0
  0
LINE
  5
19E
330
1F
100
AcDbEntity
  8
0
  6
HIDDEN
 62
     7
370
     0
100
AcDbLine
 10
98.1057102756
 20
62.6898917447
 30
0.0
 11
98.1057102756
 21
68.7798882912
 31
0.0
  0
LINE
  5
19F
330
1F
100
AcDbEntity
  8
0
  6
HIDDEN
 62
     7
370
     0
100
AcDbLine
 10
108.1057100521
 20
68.7798882912
 30
0.0
 11
98.1057102756
 21
68.7798882912
 31
0.0
  0
LINE
  5
1A0
330
1F
100
AcDbEntity
  8
0
  6
HIDDEN
 62
     7
370
     0
100
AcDbLine
 10
58.3557098137
 20
85.3098898272
 30
0.0
 11
58.3557098137
 21
87.4513766806
 31
0.0
  0
LINE
  5
1A1
330
1F
100
AcDbEntity
  8
0
  6
HIDDEN
 62
     7
370
     0
100
AcDbLine
 10
44.9057093786
 20
85.3098898272
 30
0.0
 11
44.9057093786
 21
88.1431854407
 31
0.0
  0
LINE
  5
1A2
330
1F
100
AcDbEntity
  8
0
  6
HIDDEN
 62
     7
370
     0
100
AcDbLine
 10
53.3557108568
 20
140.0498903434
 30
0.0
 11
53.3557108568
 21
137.90840349
 31
0.0
  0
LINE
  5
1A3
330
1F
100
AcDbEntity
  8
0
  6
HIDDEN
 62
     7
370
     0
100
AcDbLine
 10
44.9057093786
 20
140.0498903434
 30
0.0
 11
44.9057093786
 21
137.2165947298
 31
0.0
  0
LINE
  5
1A4
330
1F
100
AcDbEntity
  8
0
  6
HIDDEN
 62
     7
370
     0
100
AcDbLine
 10
111.2457106786
 20
158.3734403442
 30
0.0
 11
111.2457106786
 21
159.2771622429
 31
0.0
  0
LINE
  5
1A5
330
1F
100
AcDbEntity
  8
0
  6
HIDDEN
 62
     7
370
     0
100
AcDbLine
 10
115.0657108949
 20
159.2771622429
 30
0.0
 11
115.0657108949
 21
158.3734403442
 31
0.0
  0
LINE
  5
1A6
330
1F
100
AcDbEntity
  8
0
  6
HIDDEN
 62
     7
370
     0
100
AcDbLine
 10
122.1057104843
 20
156.5798918794
 30
0.0
 11
122.1057104843
 21
160.6486315916
 31
0.0
  0
LINE
  5
1A7
330
1F
100
AcDbEntity
  8
0
  6
HIDDEN
 62
     7
370
     0
100
AcDbLine
 10
122.1057104843
 20
156.5798918794
 30
0.0
 11
108.1057100521
 21
156.5798918794
 31
0.0
  0
LWPOLYLINE
  5
1A8
330
1F
100
AcDbEntity
  8
0
  6
HIDDEN
 62
     7
370
     0
100
AcDbPolyline
 90
        2
 70
   128
 43
0.0
 10
122.1057104843
 20
156.5798918794
 10
122.1057104843
 20
156.5798918794
  0
LINE
  5
1A9
330
1F
100
AcDbEntity
  8
0
  6
HIDDEN
 62
     7
370
     0
100
AcDbLine
 10
108.1057100521
 20
156.5798918794
 30
0.0
 11
98.1057102756
 21
156.5798918794
 31
0.0
  0
SPLINE
  5
1AA
330
1F
100
AcDbEntity
  8
0
  6
HIDDEN
 62
     7
370
     0
100
AcDbSpline
210
0.0
220
0.0
230
1.0
 70
     8
 71
     3
 72
    43
 73
    39
 74
     0
 42
0.00000001
 43
0.00000001
 40
-0.0956093829312326
 40
-0.062493596349093
 40
-0.0378613648958572
 40
0.0
 40
0.028410569892983
 40
0.0550998574927393
 40
0.0800772929384997
 40
0.1033546039320336
 40
0.1249465072217584
 40
0.1542906652268324
 40
0.1874273443296399
 40
0.2118955233631198
 40
0.2499806198006226
 40
0.2742598702191726
 40
0.2971733732821218
 40
0.3187280787703404
 40
0.3389324365446602
 40
0.3577968097559129
 40
0.3753340366442312
 40
0.4115607085053921
 40
0.4530653289828458
 40
0.499915753559326
 40
0.520805287709664
 40
0.5382319773410718
 40
0.5521939656756932
 40
0.5626899286748609
 40
0.595929280261042
 40
0.6252973741913893
 40
0.6621940257273996
 40
0.7037412342763718
 40
0.7499883761539121
 40
0.7768708436791787
 40
0.7977153901924507
 40
0.8125147914970051
 40
0.8456185013137725
 40
0.8750030524642911
 40
0.9043906170687674
 40
0.937506403650907
 40
0.9621386351041428
 40
1.0
 40
1.028410569892983
 40
1.055099857492739
 40
1.0800772929385
 10
73.0881186376885
 20
76.34403050555916
 30
0.0
 10
73.80168051904954
 20
76.41327945530948
 30
0.0
 10
74.70300424551895
 20
76.47581496466441
 30
0.0
 10
75.58010202503944
 20
76.50876394105832
 30
0.0
 10
76.46643135549121
 20
76.52067210633226
 30
0.0
 10
77.3295786694548
 20
76.51086601995249
 30
0.0
 10
78.26343200503244
 20
76.4744910069012
 30
0.0
 10
79.31974409151594
 20
76.39373793633631
 30
0.0
 10
80.37036944430402
 20
76.27889072419444
 30
0.0
 10
81.43847627453877
 20
76.1268015529406
 30
0.0
 10
82.29914897107889
 20
75.97941018331483
 30
0.0
 10
82.99525147589009
 20
75.84162916026355
 30
0.0
 10
83.4557815570956
 20
75.74714262468072
 30
0.0
 10
83.78984758695013
 20
75.6730123029493
 30
0.0
 10
84.00990466213548
 20
75.61992822022245
 30
0.0
 10
84.13036818655867
 20
75.58769878221206
 30
0.0
 10
84.18100300234767
 20
75.57209089616629
 30
0.0
 10
84.04319695777245
 20
75.61370571390346
 30
0.0
 10
83.48817630462834
 20
75.74228879009343
 30
0.0
 10
82.66350862704849
 20
75.91034842235703
 30
0.0
 10
81.86510379217495
 20
76.05482832356445
 30
0.0
 10
81.32687898436797
 20
76.14039184694157
 30
0.0
 10
80.86884413338935
 20
76.20769993564058
 30
0.0
 10
80.21328393828699
 20
76.29604465078425
 30
0.0
 10
79.32988776630579
 20
76.3926943780667
 30
0.0
 10
78.08066371276215
 20
76.48881336713934
 30
0.0
 10
76.72014350140023
 20
76.52641574710599
 30
0.0
 10
75.23536723696215
 20
76.50577251679134
 30
0.0
 10
74.05940566341363
 20
76.43534095089144
 30
0.0
 10
73.29341833763671
 20
76.36363774525343
 30
0.0
 10
72.87953217273748
 20
76.31991774452631
 30
0.0
 10
72.51035209870207
 20
76.27537755850325
 30
0.0
 10
72.22972262045225
 20
76.23914260415762
 30
0.0
 10
72.12139891334354
 20
76.22106128102472
 30
0.0
 10
72.2276544221855
 20
76.23884641584505
 30
0.0
 10
72.54208118397368
 20
76.27982072892124
 30
0.0
 10
73.0881186376885
 20
76.34403050555916
 30
0.0
 10
73.80168051904954
 20
76.41327945530948
 30
0.0
 10
74.70300424551895
 20
76.47581496466441
 30
0.0
  0
SPLINE
  5
1AB
330
1F
100
AcDbEntity
  8
0
  6
HIDDEN
 62
     7
370
     0
100
AcDbSpline
210
0.0
220
0.0
230
1.0
 70
     8
 71
     3
 72
    43
 73
    39
 74
     0
 42
0.00000001
 43
0.00000001
 40
-0.0937902222074375
 40
-0.0655984205388693
 40
-0.0343403538220524
 40
0.0
 40
0.0273365738600528
 40
0.052071740354628
 40
0.0742047603508334
 40
0.0937354292975432
 40
0.1106643003335071
 40
0.1249931095775178
 40
0.1543513865334387
 40
0.1874527833689768
 40
0.2119177690231776
 40
0.2499503115779569
 40
0.2783738631992952
 40
0.3050847229545913
 40
0.3300923654962351
 40
0.3534085554430435
 40
0.3750480314724411
 40
0.4043774817974953
 40
0.4374963616385556
 40
0.4617853790283366
 40
0.4999948248458658
 40
0.5242323768355621
 40
0.5471082899858097
 40
0.5686295237862747
 40
0.5888045366226906
 40
0.6076436979409919
 40
0.6251598482956675
 40
0.6689986353871581
 40
0.7186819201207442
 40
0.737450160713281
 40
0.7656131886438986
 40
0.791950520102111
 40
0.8125718764315472
 40
0.8617921544249162
 40
0.9062097777925625
 40
0.9344015794611307
 40
0.9656596461779476
 40
1.0
 40
1.027336573860053
 40
1.052071740354628
 40
1.074204760350833
 10
74.86932439272861
 20
148.8733544725525
 30
0.0
 10
73.95158425438329
 20
148.934949165658
 30
0.0
 10
73.24908678390537
 20
148.999302456427
 30
0.0
 10
72.77064510279885
 20
149.047037356188
 30
0.0
 10
72.45313286293654
 20
149.0848304765234
 30
0.0
 10
72.26472619731848
 20
149.1118318232752
 30
0.0
 10
72.17336246805098
 20
149.1286085651725
 30
0.0
 10
72.13905169050477
 20
149.1364642749868
 30
0.0
 10
72.22877503432726
 20
149.1203726782684
 30
0.0
 10
72.54334757423088
 20
149.0797605380115
 30
0.0
 10
73.08956714292856
 20
149.0153655492063
 30
0.0
 10
73.80359169835779
 20
148.946219741094
 30
0.0
 10
74.70755218838661
 20
148.8837130053001
 30
0.0
 10
75.58584724503947
 20
148.8509214853
 30
0.0
 10
76.47362101649259
 20
148.8391894747417
 30
0.0
 10
77.33844625271071
 20
148.8492030678281
 30
0.0
 10
78.27329211908128
 20
148.8857696677213
 30
0.0
 10
79.32957760969065
 20
148.9667053020984
 30
0.0
 10
80.37710079191423
 20
149.0814740715579
 30
0.0
 10
81.44374063399086
 20
149.2337420481915
 30
0.0
 10
82.30297112131056
 20
149.3810126577636
 30
0.0
 10
82.99855358722125
 20
149.5188364222322
 30
0.0
 10
83.45772699710595
 20
149.6131254370341
 30
0.0
 10
83.79083239474748
 20
149.6870897753642
 30
0.0
 10
84.01028270919811
 20
149.7400046913717
 30
0.0
 10
84.13043128737735
 20
149.7721857709114
 30
0.0
 10
84.18627514086897
 20
149.7889128003243
 30
0.0
 10
83.9919266885691
 20
149.7337510687784
 30
0.0
 10
83.3891402256797
 20
149.6014387677386
 30
0.0
 10
82.66012585138728
 20
149.4497828450974
 30
0.0
 10
82.00489182784679
 20
149.3269339934779
 30
0.0
 10
81.23137032259875
 20
149.2019525079673
 30
0.0
 10
80.15339996100457
 20
149.0518299240589
 30
0.0
 10
78.7392372884575
 20
148.9100460874094
 30
0.0
 10
77.1890355792416
 20
148.8373140565224
 30
0.0
 10
75.92796095786845
 20
148.8407173948829
 30
0.0
 10
74.86932439272861
 20
148.8733544725525
 30
0.0
 10
73.95158425438329
 20
148.934949165658
 30
0.0
 10
73.24908678390537
 20
148.999302456427
 30
0.0
  0
LINE
  5
1AC
330
1F
100
AcDbEntity
  8
0
  6
HIDDEN
 62
     7
370
     0
100
AcDbLine
 10
204.155711733
 20
107.629890282
 30
0.0
 11
204.155711733
 21
117.7298898886
 31
0.0
  0
LINE
  5
1AD
330
1F
100
AcDbEntity
  8
0
  6
HIDDEN
 62
     7
370
     0
100
AcDbLine
 10
205.1557137595
 20
118.7298900525
 30
0.0
 11
205.1557137595
 21
106.6298901181
 31
0.0
  0
LINE
  5
1AE
330
1F
100
AcDbEntity
  8
0
  6
HIDDEN
 62
     7
370
     0
100
AcDbLine
 10
199.0642904268
 20
109.2798900402
 30
0.0
 11
199.0642904268
 21
116.0798901304
 31
0.0
  0
LINE
  5
1AF
330
1F
100
AcDbEntity
  8
0
  6
HIDDEN
 62
     7
370
     0
100
AcDbLine
 10
200.0557093846
 20
107.629890282
 30
0.0
 11
200.0557093846
 21
117.7298898886
 31
0.0
  0
LINE
  5
1B0
330
1F
100
AcDbEntity
  8
0
  6
HIDDEN
 62
     7
370
     0
100
AcDbLine
 10
121.4557106571
 20
109.2798900402
 30
0.0
 11
121.4557106571
 21
116.0798901304
 31
0.0
  0
LINE
  5
1B1
330
1F
100
AcDbEntity
  8
0
  6
HIDDEN
 62
     7
370
     0
100
AcDbLine
 10
227.4557038175
 20
128.229889747
 30
0.0
 11
220.8557113038
 21
128.229889747
 31
0.0
  0
LINE
  5
1B2
330
1F
100
AcDbEntity
  8
0
  6
HIDDEN
 62
     7
370
     0
100
AcDbLine
 10
226.8832757102
 20
128.1097184013
 30
0.0
 11
221.4281543123
 21
128.1097184013
 31
0.0
  0
LINE
  5
1B3
330
1F
100
AcDbEntity
  8
0
  6
HIDDEN
 62
     7
370
     0
100
AcDbLine
 10
221.4281543123
 20
128.1097184013
 30
0.0
 11
226.8832757102
 21
128.1097184013
 31
0.0
  0
LINE
  5
1B4
330
1F
100
AcDbEntity
  8
0
  6
HIDDEN
 62
     7
370
     0
100
AcDbLine
 10
214.4057138788
 20
97.3045040931
 30
0.0
 11
214.4057138788
 21
96.8257698308
 31
0.0
  0
SPLINE
  5
1B5
330
1F
100
AcDbEntity
  8
0
  6
HIDDEN
 62
     7
370
     0
100
AcDbSpline
210
0.0
220
0.0
230
1.0
 70
     8
 71
     3
 72
    10
 73
     6
 74
     0
 42
0.00000001
 43
0.00000001
 40
0.0
 40
0.0
 40
0.0
 40
0.0
 40
0.5
 40
0.5
 40
1.0
 40
1.0
 40
1.0
 40
1.0
 10
214.4057103024715
 20
96.82576995832312
 30
0.0
 10
214.4057103024715
 20
96.77296851504063
 30
0.0
 10
214.4278860030536
 20
96.72040121351652
 30
0.0
 10
214.5031080819898
 20
96.64912771421282
 30
0.0
 10
214.5539948534502
 20
96.63059056363387
 30
0.0
 10
214.6057103024714
 20
96.63236301722382
 30
0.0
  0
SPLINE
  5
1B6
330
1F
100
AcDbEntity
  8
0
  6
HIDDEN
 62
     7
370
     0
100
AcDbSpline
210
0.0
220
0.0
230
1.0
 70
     8
 71
     3
 72
    10
 73
     6
 74
     0
 42
0.00000001
 43
0.00000001
 40
0.0
 40
0.0
 40
0.0
 40
0.0
 40
0.5
 40
0.5
 40
1.0
 40
1.0
 40
1.0
 40
1.0
 10
214.6057103024715
 20
96.63236301722434
 30
0.0
 10
214.8029597226168
 20
96.63912338476382
 30
0.0
 10
215.0031380065942
 20
96.64235064879632
 30
0.0
 10
215.4092539370828
 20
96.64107225958125
 30
0.0
 10
215.611399629074
 20
96.63649321802151
 30
0.0
 10
215.8057103024715
 20
96.62862455884941
 30
0.0
  0
SPLINE
  5
1B7
330
1F
100
AcDbEntity
  8
0
  6
HIDDEN
 62
     7
370
     0
100
AcDbSpline
210
0.0
220
0.0
230
1.0
 70
     8
 71
     3
 72
    10
 73
     6
 74
     0
 42
0.00000001
 43
0.00000001
 40
0.0
 40
0.0
 40
0.0
 40
0.0
 40
0.5
 40
0.5
 40
1.0
 40
1.0
 40
1.0
 40
1.0
 10
215.8057103024715
 20
96.62862455884942
 30
0.0
 10
215.8570874122541
 20
96.6265440299775
 30
0.0
 10
215.9076594718974
 20
96.64448583456975
 30
0.0
 10
215.9828263061675
 20
96.71451431562865
 30
0.0
 10
216.0057103024714
 20
96.76726802396624
 30
0.0
 10
216.0057103024714
 20
96.8207247541543
 30
0.0
  0
LINE
  5
1B8
330
1F
100
AcDbEntity
  8
0
  6
HIDDEN
 62
     7
370
     0
100
AcDbLine
 10
216.0057111608
 20
96.8207239251
 30
0.0
 11
216.0057111608
 21
97.2993017251
 31
0.0
  0
LINE
  5
1B9
330
1F
100
AcDbEntity
  8
0
  6
HIDDEN
 62
     7
370
     0
100
AcDbLine
 10
216.0057111608
 20
97.2993017251
 30
0.0
 11
216.0057111608
 21
96.8207239251
 31
0.0
  0
LINE
  5
1BA
330
1F
100
AcDbEntity
  8
0
  6
HIDDEN
 62
     7
370
     0
100
AcDbLine
 10
214.4057138788
 20
96.8257698308
 30
0.0
 11
214.4057138788
 21
97.3045040931
 31
0.0
  0
SPLINE
  5
1BB
330
1F
100
AcDbEntity
  8
0
  6
HIDDEN
 62
     7
370
     0
100
AcDbSpline
210
0.0
220
0.0
230
1.0
 70
     8
 71
     3
 72
    10
 73
     6
 74
     0
 42
0.00000001
 43
0.00000001
 40
0.0
 40
0.0
 40
0.0
 40
0.0
 40
0.5
 40
0.5
 40
1.0
 40
1.0
 40
1.0
 40
1.0
 10
215.8057103024715
 20
96.62862455884941
 30
0.0
 10
215.611403919008
 20
96.63649304429956
 30
0.0
 10
215.412691565011
 20
96.6410174447668
 30
0.0
 10
215.0065917896888
 20
96.64238303024928
 30
0.0
 10
214.8029623707379
 20
96.63912347552339
 30
0.0
 10
214.6057103024715
 20
96.63236301722434
 30
0.0
  0
LWPOLYLINE
  5
1BC
330
1F
100
AcDbEntity
  8
0
  6
HIDDEN
 62
     7
370
     0
100
AcDbPolyline
 90
        2
 70
   128
 43
0.0
 10
98.1057102756
 20
68.7798882912
 10
98.1057102756
 20
68.7798882912
  0
LINE
  5
1BD
330
1F
100
AcDbEntity
  8
0
  6
HIDDEN
 62
     7
370
     0
100
AcDbLine
 10
98.1057102756
 20
62.6898917447
 30
0.0
 11
98.1057102756
 21
68.7798882912
 31
0.0
  0
LINE
  5
1BE
330
1F
100
AcDbEntity
  8
0
  6
HIDDEN
 62
     7
370
     0
100
AcDbLine
 10
98.1057102756
 20
68.7798882912
 30
0.0
 11
108.1057100521
 21
68.7798882912
 31
0.0
  0
SPLINE
  5
1BF
330
1F
100
AcDbEntity
  8
0
  6
HIDDEN
 62
     7
370
     0
100
AcDbSpline
210
0.0
220
0.0
230
1.0
 70
     8
 71
     3
 72
    10
 73
     6
 74
     0
 42
0.00000001
 43
0.00000001
 40
0.0
 40
0.0
 40
0.0
 40
0.0
 40
0.5
 40
0.5
 40
1.0
 40
1.0
 40
1.0
 40
1.0
 10
215.8057103024715
 20
118.976180487944
 30
0.0
 10
215.611403919008
 20
118.9174714567796
 30
0.0
 10
215.412691565011
 20
118.8857904054652
 30
0.0
 10
215.0065917896888
 20
118.8760725984351
 30
0.0
 10
214.8029623707379
 20
118.8987443078419
 30
0.0
 10
214.6057103024715
 20
118.9484826874618
 30
0.0
  0
SPLINE
  5
1C0
330
1F
100
AcDbEntity
  8
0
  6
HIDDEN
 62
     7
370
     0
100
AcDbSpline
210
0.0
220
0.0
230
1.0
 70
     8
 71
     3
 72
    10
 73
     6
 74
     0
 42
0.00000001
 43
0.00000001
 40
0.0
 40
0.0
 40
0.0
 40
0.0
 40
0.5
 40
0.5
 40
1.0
 40
1.0
 40
1.0
 40
1.0
 10
216.0057103024714
 20
118.9464559138869
 30
0.0
 10
216.0057103024714
 20
118.9730668345233
 30
0.0
 10
215.9830591487937
 20
118.9905144774449
 30
0.0
 10
215.9075876378504
 20
118.9991899536389
 30
0.0
 10
215.8570196564215
 20
118.9916834395528
 30
0.0
 10
215.8057103024715
 20
118.9761804879442
 30
0.0
  0
LINE
  5
1C1
330
1F
100
AcDbEntity
  8
0
  6
HIDDEN
 62
     7
370
     0
100
AcDbLine
 10
216.0057111608
 20
96.8207239251
 30
0.0
 11
216.0057111608
 21
118.9464560787
 31
0.0
  0
LINE
  5
1C2
330
1F
100
AcDbEntity
  8
0
  6
HIDDEN
 62
     7
370
     0
100
AcDbLine
 10
214.4057138788
 20
96.8257698308
 30
0.0
 11
214.4057138788
 21
118.9082373942
 31
0.0
  0
SPLINE
  5
1C3
330
1F
100
AcDbEntity
  8
0
  6
HIDDEN
 62
     7
370
     0
100
AcDbSpline
210
0.0
220
0.0
230
1.0
 70
     8
 71
     3
 72
    10
 73
     6
 74
     0
 42
0.00000001
 43
0.00000001
 40
0.0
 40
0.0
 40
0.0
 40
0.0
 40
0.5
 40
0.5
 40
1.0
 40
1.0
 40
1.0
 40
1.0
 10
214.6057103024715
 20
118.9484826874619
 30
0.0
 10
214.5539354801784
 20
118.9615380424125
 30
0.0
 10
214.5029658874627
 20
118.966278430602
 30
0.0
 10
214.4281709286915
 20
118.9534202117761
 30
0.0
 10
214.4057103024713
 20
118.9347708100706
 30
0.0
 10
214.4057103024715
 20
118.9082374008229
 30
0.0
  0
LINE
  5
1C4
330
1F
100
AcDbEntity
  8
0
  6
HIDDEN
 62
     7
370
     0
100
AcDbLine
 10
53.3557108568
 20
140.0498903434
 30
0.0
 11
53.3557108568
 21
137.90840349
 31
0.0
  0
LINE
  5
1C5
330
1F
100
AcDbEntity
  8
0
  6
HIDDEN
 62
     7
370
     0
100
AcDbLine
 10
58.3557098137
 20
85.3098898272
 30
0.0
 11
58.3557098137
 21
87.4513766806
 31
0.0
  0
LINE
  5
1C6
330
1F
100
AcDbEntity
  8
0
  6
HIDDEN
 62
     7
370
     0
100
AcDbLine
 10
53.3557108568
 20
140.0498903434
 30
0.0
 11
53.3557108568
 21
146.424497206
 31
0.0
  0
LINE
  5
1C7
330
1F
100
AcDbEntity
  8
0
  6
HIDDEN
 62
     7
370
     0
100
AcDbLine
 10
58.3557098137
 20
85.3098898272
 30
0.0
 11
58.3557098137
 21
78.81055652
 31
0.0
  0
LWPOLYLINE
  5
1C8
330
1F
100
AcDbEntity
  8
0
  6
HIDDEN
 62
     7
370
     0
100
AcDbPolyline
 90
       28
 70
   128
 43
0.0
 10
102.155709915
 20
157.9925964664
 10
103.3087897079
 20
157.9509477208
 10
104.3997065129
 20
157.8282478343
 10
105.3696482407
 20
157.6311129223
 10
106.1663267167
 20
157.370171238
 10
106.7467912065
 20
157.0594894777
 10
107.0797492715
 20
156.7158128212
 10
107.1472515317
 20
156.3576708625
 10
106.9456574472
 20
156.0043755065
 10
106.485837415
 20
155.6749667118
 10
105.7925785856
 20
155.387210388
 10
104.9032549338
 20
155.1566111932
 10
103.8658109458
 20
154.9956078718
 10
102.7361753361
 20
154.9128728996
 10
101.5752454253
 20
154.9128728996
 10
100.4456098156
 20
154.9956078718
 10
99.4081653619
 20
155.1566111932
 10
98.5188421758
 20
155.387210388
 10
97.8255833464
 20
155.6749667118
 10
97.3657628486
 20
156.0043755065
 10
97.1641696954
 20
156.3576708625
 10
97.23167149
 20
156.7158128212
 10
97.5646295549
 20
157.0594894777
 10
98.1450945103
 20
157.370171238
 10
98.9417720551
 20
157.6311129223
 10
99.9117142485
 20
157.8282478343
 10
101.0026310535
 20
157.9509477208
 10
102.155709915
 20
157.9925964664
  0
SPLINE
  5
1C9
330
1F
100
AcDbEntity
  8
0
  6
HIDDEN
 62
     7
370
     0
100
AcDbSpline
210
0.0
220
0.0
230
1.0
 70
     8
 71
     3
 72
     8
 73
     4
 74
     0
 42
0.00000001
 43
0.00000001
 40
0.0
 40
0.0
 40
0.0
 40
0.0
 40
1.0
 40
1.0
 40
1.0
 40
1.0
 10
109.89368128155
 20
161.6696849409442
 30
0.0
 10
110.3447082502632
 20
160.8723743707563
 30
0.0
 10
110.7954020667868
 20
160.0748760710992
 30
0.0
 10
111.2457103024714
 20
159.2771609459855
 30
0.0
  0
LINE
  5
1CA
330
1F
100
AcDbEntity
  8
0
  6
HIDDEN
 62
     7
370
     0
100
AcDbLine
 10
111.2457106786
 20
159.2771622429
 30
0.0
 11
111.2457106786
 21
158.3734403442
 31
0.0
  0
SPLINE
  5
1CB
330
1F
100
AcDbEntity
  8
0
  6
HIDDEN
 62
     7
370
     0
100
AcDbSpline
210
0.0
220
0.0
230
1.0
 70
     8
 71
     3
 72
    14
 73
    10
 74
     0
 42
0.00000001
 43
0.00000001
 40
0.0
 40
0.0
 40
0.0
 40
0.0
 40
0.25
 40
0.25
 40
0.5
 40
0.5
 40
0.75
 40
0.75
 40
1.0
 40
1.0
 40
1.0
 40
1.0
 10
111.2457103024714
 20
158.3734413261286
 30
0.0
 10
111.2457103024714
 20
158.2670846323763
 30
0.0
 10
111.2660978586126
 20
158.1612441446161
 30
0.0
 10
111.3447322040741
 20
157.9646792310797
 30
0.0
 10
111.4034635637128
 20
157.8735084887926
 30
0.0
 10
111.5500724693154
 20
157.721597399761
 30
0.0
 10
111.6394777893419
 20
157.6595285629414
 30
0.0
 10
111.8333685219422
 20
157.5762605151827
 30
0.0
 10
111.939873511832
 20
157.5541658454531
 30
0.0
 10
112.0457103024714
 20
157.554165845453
 30
0.0
  0
LINE
  5
1CC
330
1F
100
AcDbEntity
  8
0
  6
HIDDEN
 62
     7
370
     0
100
AcDbLine
 10
112.0457111822
 20
157.5541670511
 30
0.0
 11
114.2657103913
 21
157.5541670511
 31
0.0
  0
SPLINE
  5
1CD
330
1F
100
AcDbEntity
  8
0
  6
HIDDEN
 62
     7
370
     0
100
AcDbSpline
210
0.0
220
0.0
230
1.0
 70
     8
 71
     3
 72
    10
 73
     6
 74
     0
 42
0.00000001
 43
0.00000001
 40
0.0
 40
0.0
 40
0.0
 40
0.0
 40
0.5
 40
0.5
 40
1.0
 40
1.0
 40
1.0
 40
1.0
 10
114.2657103024714
 20
157.5541658454531
 30
0.0
 10
114.4782466163277
 20
157.5541658454531
 30
0.0
 10
114.6881827879817
 20
157.6455784320833
 30
0.0
 10
114.981889928993
 20
157.9503232979875
 30
0.0
 10
115.0657103024714
 20
158.1624782678961
 30
0.0
 10
115.0657103024714
 20
158.3734413261286
 30
0.0
  0
LINE
  5
1CE
330
1F
100
AcDbEntity
  8
0
  6
HIDDEN
 62
     7
370
     0
100
AcDbLine
 10
115.0657108949
 20
158.3734403442
 30
0.0
 11
115.0657108949
 21
159.2771622429
 31
0.0
  0
SPLINE
  5
1CF
330
1F
100
AcDbEntity
  8
0
  6
HIDDEN
 62
     7
370
     0
100
AcDbSpline
210
0.0
220
0.0
230
1.0
 70
     8
 71
     3
 72
     8
 73
     4
 74
     0
 42
0.00000001
 43
0.00000001
 40
0.0
 40
0.0
 40
0.0
 40
0.0
 40
1.0
 40
1.0
 40
1.0
 40
1.0
 10
115.0657103024714
 20
159.2771609459855
 30
0.0
 10
115.5160185381559
 20
160.0748760710992
 30
0.0
 10
115.9667123546795
 20
160.8723743707563
 30
0.0
 10
116.4177393233928
 20
161.6696849409442
 30
0.0
  0
SPLINE
  5
1D0
330
1F
100
AcDbEntity
  8
0
  6
HIDDEN
 62
     7
370
     0
100
AcDbSpline
210
0.0
220
0.0
230
1.0
 70
     8
 71
     3
 72
    14
 73
    10
 74
     0
 42
0.00000001
 43
0.00000001
 40
0.0
 40
0.0
 40
0.0
 40
0.0
 40
0.25
 40
0.25
 40
0.5
 40
0.5
 40
0.75
 40
0.75
 40
1.0
 40
1.0
 40
1.0
 40
1.0
 10
121.1057103024715
 20
161.6696849409442
 30
0.0
 10
121.2377470402901
 20
161.6696849409442
 30
0.0
 10
121.3721473307302
 20
161.6418784934957
 30
0.0
 10
121.6142357563296
 20
161.5380194840317
 30
0.0
 10
121.7256542132077
 20
161.4608284754593
 30
0.0
 10
121.9086647027477
 20
161.2716813977463
 30
0.0
 10
121.9820909489934
 20
161.1579771780436
 30
0.0
 10
122.0802316893512
 20
160.9131784110083
 30
0.0
 10
122.1057103024714
 20
160.7810495970785
 30
0.0
 10
122.1057103024714
 20
160.6486299061265
 30
0.0
  0
LINE
  5
1D1
330
1F
100
AcDbEntity
  8
0
  6
HIDDEN
 62
     7
370
     0
100
AcDbLine
 10
116.4177398162
 20
161.6696852337
 30
0.0
 11
121.1057103204
 21
161.6696852337
 31
0.0
  0
LINE
  5
1D2
330
1F
100
AcDbEntity
  8
0
  6
HIDDEN
 62
     7
370
     0
100
AcDbLine
 10
108.1057100521
 20
156.5798918794
 30
0.0
 11
122.1057104843
 21
156.5798918794
 31
0.0
  0
LINE
  5
1D3
330
1F
100
AcDbEntity
  8
0
  6
HIDDEN
 62
     7
370
     0
100
AcDbLine
 10
122.1057104843
 20
160.6486315916
 30
0.0
 11
122.1057104843
 21
156.5798918794
 31
0.0
  0
SPLINE
  5
1D4
330
1F
100
AcDbEntity
  8
0
  6
HIDDEN
 62
     7
370
     0
100
AcDbSpline
210
0.0
220
0.0
230
1.0
 70
     8
 71
     3
 72
    14
 73
    10
 74
     0
 42
0.00000001
 43
0.00000001
 40
0.0
 40
0.0
 40
0.0
 40
0.0
 40
0.25
 40
0.25
 40
0.5
 40
0.5
 40
0.75
 40
0.75
 40
1.0
 40
1.0
 40
1.0
 40
1.0
 10
121.1057103024714
 20
63.90489649225184
 30
0.0
 10
121.2392719219607
 20
63.90489649225184
 30
0.0
 10
121.371008942498
 20
63.93236246885428
 30
0.0
 10
121.6150263018114
 20
64.03745602562083
 30
0.0
 10
121.7260529471544
 20
64.11495344830634
 30
0.0
 10
121.9092749196139
 20
64.3054370616423
 30
0.0
 10
121.9825664723861
 20
64.41983811131774
 30
0.0
 10
122.080263333044
 20
64.66510000978039
 30
0.0
 10
122.1057103024714
 20
64.79835920459905
 30
0.0
 10
122.1057103024714
 20
64.93054454002734
 30
0.0
  0
LINE
  5
1D5
330
1F
100
AcDbEntity
  8
0
  6
HIDDEN
 62
     7
370
     0
100
AcDbLine
 10
122.1057104843
 20
160.6486315916
 30
0.0
 11
122.1057104843
 21
64.9305458258
 31
0.0
  0
LINE
  5
1D6
330
1F
100
AcDbEntity
  8
0
  6
HIDDEN
 62
     7
370
     0
100
AcDbLine
 10
111.2457106786
 20
158.3734403442
 30
0.0
 11
111.2457106786
 21
67.2167117785
 31
0.0
  0
SPLINE
  5
1D7
330
1F
100
AcDbEntity
  8
0
  6
HIDDEN
 62
     7
370
     0
100
AcDbSpline
210
0.0
220
0.0
230
1.0
 70
     8
 71
     3
 72
    14
 73
    10
 74
     0
 42
0.00000001
 43
0.00000001
 40
0.0
 40
0.0
 40
0.0
 40
0.0
 40
0.25
 40
0.25
 40
0.5
 40
0.5
 40
0.75
 40
0.75
 40
1.0
 40
1.0
 40
1.0
 40
1.0
 10
111.2457103024714
 20
67.21671130288576
 30
0.0
 10
111.2457103024714
 20
67.32375538388014
 30
0.0
 10
111.2658279896296
 20
67.42899052412257
 30
0.0
 10
111.3443191788952
 20
67.62684101097027
 30
0.0
 10
111.4024758036964
 20
67.71789277453519
 30
0.0
 10
111.5489910593145
 20
67.87105886845997
 30
0.0
 10
111.6376336079555
 20
67.93335331466938
 30
0.0
 10
111.8333569307559
 20
68.01814710020537
 30
0.0
 10
111.9385881218268
 20
68.040214627231
 30
0.0
 10
112.0457103024714
 20
68.04021462723101
 30
0.0
  0
LINE
  5
1D8
330
1F
100
AcDbEntity
  8
0
  6
HIDDEN
 62
     7
370
     0
100
AcDbLine
 10
116.4177398162
 20
161.6696852337
 30
0.0
 11
116.4177398162
 21
63.9048951755
 31
0.0
  0
LINE
  5
1D9
330
1F
100
AcDbEntity
  8
0
  6
HIDDEN
 62
     7
370
     0
100
AcDbLine
 10
115.0657108949
 20
159.2771622429
 30
0.0
 11
115.0657108949
 21
66.3085009049
 31
0.0
  0
SPLINE
  5
1DA
330
1F
100
AcDbEntity
  8
0
  6
HIDDEN
 62
     7
370
     0
100
AcDbSpline
210
0.0
220
0.0
230
1.0
 70
     8
 71
     3
 72
    12
 73
     8
 74
     0
 42
0.00000001
 43
0.00000001
 40
0.0
 40
0.0
 40
0.0
 40
0.0
 40
0.2500000000000014
 40
0.2500000000000014
 40
0.5000000000000029
 40
0.5000000000000029
 40
1.0
 40
1.0
 40
1.0
 40
1.0
 10
114.2657103024714
 20
68.04021462723101
 30
0.0
 10
114.3714709558203
 20
68.04021462723098
 30
0.0
 10
114.4794585840033
 20
68.0176751212306
 30
0.0
 10
114.6740532492689
 20
67.93310448923529
 30
0.0
 10
114.7629251621077
 20
67.87062283647649
 30
0.0
 10
114.9821174544336
 20
67.64123388500433
 30
0.0
 10
115.0657103024714
 20
67.42865054748192
 30
0.0
 10
115.0657103024714
 20
67.21671130288576
 30
0.0
  0
LINE
  5
1DB
330
1F
100
AcDbEntity
  8
0
  6
HIDDEN
 62
     7
370
     0
100
AcDbLine
 10
115.0657108949
 20
158.3734403442
 30
0.0
 11
115.0657108949
 21
67.2167117785
 31
0.0
  0
LINE
  5
1DC
330
1F
100
AcDbEntity
  8
0
  6
HIDDEN
 62
     7
370
     0
100
AcDbLine
 10
111.2457106786
 20
159.2771622429
 30
0.0
 11
111.2457106786
 21
66.3085009049
 31
0.0
  0
LINE
  5
1DD
330
1F
100
AcDbEntity
  8
0
  6
HIDDEN
 62
     7
370
     0
100
AcDbLine
 10
44.9057093786
 20
140.0498903434
 30
0.0
 11
44.9057093786
 21
144.928174753
 31
0.0
  0
SPLINE
  5
1DE
330
1F
100
AcDbEntity
  8
0
  6
HIDDEN
 62
     7
370
     0
100
AcDbSpline
210
0.0
220
0.0
230
1.0
 70
     8
 71
     3
 72
     8
 73
     4
 74
     0
 42
0.00000001
 43
0.00000001
 40
0.0
 40
0.0
 40
0.0
 40
0.0
 40
1.0
 40
1.0
 40
1.0
 40
1.0
 10
45.15563541843717
 20
144.9257222538453
 30
0.0
 10
45.06861738858881
 20
144.9261888186323
 30
0.0
 10
44.98566336220885
 20
144.9272288382084
 30
0.0
 10
44.9057103024691
 20
144.9281752871007
 30
0.0
  0
ELLIPSE
  5
1DF
330
1F
100
AcDbEntity
  8
0
  6
HIDDEN
 62
     7
370
     0
100
AcDbEllipse
 10
36.9710371022
 20
112.6798900853
 30
0.0
 11
31.08108570811661
 21
1.421085471520200E-14
 31
0.0
210
0.0
220
0.0
230
1.0
 40
0.8164965809
 41
1.312649268214811
 42
1.367189972061496
  0
LINE
  5
1E0
330
1F
100
AcDbEntity
  8
0
  6
HIDDEN
 62
     7
370
     0
100
AcDbLine
 10
43.2557112502
 20
140.0498903434
 30
0.0
 11
43.2557112502
 21
137.5332835208
 31
0.0
  0
LINE
  5
1E1
330
1F
100
AcDbEntity
  8
0
  6
HIDDEN
 62
     7
370
     0
100
AcDbLine
 10
44.9057093786
 20
140.0498903434
 30
0.0
 11
44.9057093786
 21
137.2165947298
 31
0.0
  0
ELLIPSE
  5
1E2
330
1F
100
AcDbEntity
  8
0
  6
HIDDEN
 62
     7
370
     0
100
AcDbEllipse
 10
36.9710371022
 20
112.6798900853
 30
0.0
 11
31.08108570811661
 21
-1.421085471520200E-14
 31
0.0
210
0.0
220
0.0
230
1.0
 40
0.8164965809
 41
4.915995335118103
 42
4.970536038964787
  0
LINE
  5
1E3
330
1F
100
AcDbEntity
  8
0
  6
HIDDEN
 62
     7
370
     0
100
AcDbLine
 10
43.2557112502
 20
137.5332835208
 30
0.0
 11
43.2557112502
 21
87.8264966498
 31
0.0
  0
SPLINE
  5
1E4
330
1F
100
AcDbEntity
  8
0
  6
HIDDEN
 62
     7
370
     0
100
AcDbSpline
210
0.0
220
0.0
230
1.0
 70
     8
 71
     3
 72
    14
 73
    10
 74
     0
 42
0.00000001
 43
0.00000001
 40
0.0
 40
0.0
 40
0.0
 40
0.0
 40
0.2499999999999994
 40
0.2499999999999994
 40
0.4999999999999988
 40
0.4999999999999988
 40
0.7499999999999982
 40
0.7499999999999982
 40
1.0
 40
1.0
 40
1.0
 40
1.0
 10
43.25571030247141
 20
82.17722034271272
 30
0.0
 10
43.2557103024714
 20
82.13597341168838
 30
0.0
 10
43.26432001885265
 20
82.0990664394059
 30
0.0
 10
43.29540619842301
 20
82.03816637950648
 30
0.0
 10
43.31779575190706
 20
82.01398545996679
 30
0.0
 10
43.37253968308316
 20
81.98001786908351
 30
0.0
 10
43.40498992266836
 20
81.97009778511534
 30
0.0
 10
43.47499143739644
 20
81.96874657621049
 30
0.0
 10
43.51320193751895
 20
81.97690485290664
 30
0.0
 10
43.54652453419205
 20
82.00140693257474
 30
0.0
  0
LINE
  5
1E5
330
1F
100
AcDbEntity
  8
0
  6
HIDDEN
 62
     7
370
     0
100
AcDbLine
 10
43.2557112502
 20
85.3098898272
 30
0.0
 11
43.2557112502
 21
82.1772205721
 31
0.0
  0
LINE
  5
1E6
330
1F
100
AcDbEntity
  8
0
  6
HIDDEN
 62
     7
370
     0
100
AcDbLine
 10
44.9057093786
 20
85.3098898272
 30
0.0
 11
44.9057093786
 21
80.4316054176
 31
0.0
  0
SPLINE
  5
1E7
330
1F
100
AcDbEntity
  8
0
  6
HIDDEN
 62
     7
370
     0
100
AcDbSpline
210
0.0
220
0.0
230
1.0
 70
     8
 71
     3
 72
    10
 73
     6
 74
     0
 42
0.00000001
 43
0.00000001
 40
0.0
 40
0.0
 40
0.0
 40
0.0
 40
0.5
 40
0.5
 40
1.0
 40
1.0
 40
1.0
 40
1.0
 10
44.2322625441729
 20
81.35702398480424
 30
0.0
 10
44.31951296330608
 20
81.18495336395144
 30
0.0
 10
44.42978793870181
 20
81.01688429088854
 30
0.0
 10
44.65937191365877
 20
80.7063139981996
 30
0.0
 10
44.78082203171896
 20
80.56260116153469
 30
0.0
 10
44.9057103024689
 20
80.43160488346327
 30
0.0
  0
LINE
  5
1E8
330
1F
100
AcDbEntity
  8
0
  6
HIDDEN
 62
     7
370
     0
100
AcDbLine
 10
44.9057093786
 20
85.3098898272
 30
0.0
 11
44.9057093786
 21
88.1431854407
 31
0.0
  0
SPLINE
  5
1E9
330
1F
100
AcDbEntity
  8
0
  6
HIDDEN
 62
     7
370
     0
100
AcDbSpline
210
0.0
220
0.0
230
1.0
 70
     8
 71
     3
 72
    10
 73
     6
 74
     0
 42
0.00000001
 43
0.00000001
 40
0.0
 40
0.0
 40
0.0
 40
0.0
 40
0.4999999999999989
 40
0.4999999999999989
 40
1.0
 40
1.0
 40
1.0
 40
1.0
 10
44.9057103024714
 20
144.9281752871006
 30
0.0
 10
44.78082203172119
 20
144.7971790090292
 30
0.0
 10
44.65937191366076
 20
144.6534661723641
 30
0.0
 10
44.42978793870333
 20
144.3428958796749
 30
0.0
 10
44.31951296330735
 20
144.1748268066119
 30
0.0
 10
44.23226254417383
 20
144.0027561857588
 30
0.0
  0
LINE
  5
1EA
330
1F
100
AcDbEntity
  8
0
  6
HIDDEN
 62
     7
370
     0
100
AcDbLine
 10
43.2557112502
 20
140.0498903434
 30
0.0
 11
43.2557112502
 21
143.1825595985
 31
0.0
  0
SPLINE
  5
1EB
330
1F
100
AcDbEntity
  8
0
  6
HIDDEN
 62
     7
370
     0
100
AcDbSpline
210
0.0
220
0.0
230
1.0
 70
     8
 71
     3
 72
    12
 73
     8
 74
     0
 42
0.00000001
 43
0.00000001
 40
0.0
 40
0.0
 40
0.0
 40
0.0
 40
0.2500000000000004
 40
0.2500000000000004
 40
0.5000000000000008
 40
0.5000000000000008
 40
1.0
 40
1.0
 40
1.0
 40
1.0
 10
43.54652453419116
 20
143.3583732379856
 30
0.0
 10
43.51302313485425
 20
143.3830067911149
 30
0.0
 10
43.47493226689056
 20
143.3910249522785
 30
0.0
 10
43.4051318561739
 20
143.389692616169
 30
0.0
 10
43.37267925629124
 20
143.379826950767
 30
0.0
 10
43.29040574557405
 20
143.328843523424
 30
0.0
 10
43.2557103024714
 20
143.2647743762511
 30
0.0
 10
43.25571030247141
 20
143.1825598278486
 30
0.0
  0
LINE
  5
1EC
330
1F
100
AcDbEntity
  8
0
  6
HIDDEN
 62
     7
370
     0
100
AcDbLine
 10
43.2557112502
 20
85.3098898272
 30
0.0
 11
43.2557112502
 21
87.8264966498
 31
0.0
  0
SPLINE
  5
1ED
330
1F
100
AcDbEntity
  8
0
  6
HIDDEN
 62
     7
370
     0
100
AcDbSpline
210
0.0
220
0.0
230
1.0
 70
     8
 71
     3
 72
     8
 73
     4
 74
     0
 42
0.00000001
 43
0.00000001
 40
0.0
 40
0.0
 40
0.0
 40
0.0
 40
1.0
 40
1.0
 40
1.0
 40
1.0
 10
44.90571030247104
 20
80.43160488346058
 30
0.0
 10
44.98566336221019
 20
80.43255133235283
 30
0.0
 10
45.06861738858952
 20
80.43359135192895
 30
0.0
 10
45.15563541843719
 20
80.43405791671601
 30
0.0
  0
SPLINE
  5
1EE
330
1F
100
AcDbEntity
  8
0
  6
HIDDEN
 62
     7
370
     0
100
AcDbSpline
210
0.0
220
0.0
230
1.0
 70
     8
 71
     3
 72
     8
 73
     4
 74
     0
 42
0.00000001
 43
0.00000001
 40
0.0
 40
0.0
 40
0.0
 40
0.0
 40
1.0
 40
1.0
 40
1.0
 40
1.0
 10
109.89368128155
 20
63.90489649225184
 30
0.0
 10
110.3447860109502
 20
64.70585642407174
 30
0.0
 10
110.7954838381936
 20
65.50704643563242
 30
0.0
 10
111.2457103024714
 20
66.30850179825717
 30
0.0
  0
LINE
  5
1EF
330
1F
100
AcDbEntity
  8
0
  6
HIDDEN
 62
     7
370
     0
100
AcDbLine
 10
115.0657108949
 20
67.2167117785
 30
0.0
 11
115.0657108949
 21
66.3085009049
 31
0.0
  0
SPLINE
  5
1F0
330
1F
100
AcDbEntity
  8
0
  6
HIDDEN
 62
     7
370
     0
100
AcDbSpline
210
0.0
220
0.0
230
1.0
 70
     8
 71
     3
 72
     8
 73
     4
 74
     0
 42
0.00000001
 43
0.00000001
 40
0.0
 40
0.0
 40
0.0
 40
0.0
 40
1.0
 40
1.0
 40
1.0
 40
1.0
 10
115.0657103024714
 20
66.30850179825717
 30
0.0
 10
115.5159367667492
 20
65.50704643563242
 30
0.0
 10
115.9666345939926
 20
64.70585642407174
 30
0.0
 10
116.4177393233928
 20
63.90489649225184
 30
0.0
  0
LINE
  5
1F1
330
1F
100
AcDbEntity
  8
0
  6
HIDDEN
 62
     7
370
     0
100
AcDbLine
 10
111.2457106786
 20
66.3085009049
 30
0.0
 11
111.2457106786
 21
67.2167117785
 31
0.0
  0
LINE
  5
1F2
330
1F
100
AcDbEntity
  8
0
  6
HIDDEN
 62
     7
370
     0
100
AcDbLine
 10
112.0457111822
 20
68.040213276
 30
0.0
 11
114.2657103913
 21
68.040213276
 31
0.0
  0
LINE
  5
1F3
330
1F
100
AcDbEntity
  8
0
  6
HIDDEN
 62
     7
370
     0
100
AcDbLine
 10
116.4177398162
 20
63.9048951755
 30
0.0
 11
121.1057103204
 21
63.9048951755
 31
0.0
  0
LINE
  5
1F4
330
1F
100
AcDbEntity
  8
0
  6
HIDDEN
 62
     7
370
     0
100
AcDbLine
 10
108.1057100521
 20
68.7798882912
 30
0.0
 11
122.1057104843
 21
68.7798882912
 31
0.0
  0
LINE
  5
1F5
330
1F
100
AcDbEntity
  8
0
  6
HIDDEN
 62
     7
370
     0
100
AcDbLine
 10
122.1057104843
 20
64.9305458258
 30
0.0
 11
122.1057104843
 21
68.7798882912
 31
0.0
  0
ARC
  5
1F6
330
1F
100
AcDbEntity
  8
0
  6
HIDDEN
 62
     7
370
     0
100
AcDbCircle
 10
224.1557150112
 20
105.5829603845
 30
0.0
 40
3.32057513471014
100
AcDbArc
 50
214.7735956258
 51
325.2264043742
  0
LWPOLYLINE
  5
1F7
330
1F
100
AcDbEntity
  8
0
  6
HIDDEN
 62
     7
370
     0
100
AcDbPolyline
 90
       23
 70
   128
 43
0.0
 10
220.8557113038
 20
104.9048902544
 10
220.9893896209
 20
105.7100488881
 10
221.3795765268
 20
106.4499786201
 10
221.9946666585
 20
107.064734407
 10
222.7848454343
 20
107.504512843
 10
223.6860676633
 20
107.7336847859
 10
224.625347458
 20
107.7336847859
 10
225.5265845882
 20
107.504512843
 10
226.3167484628
 20
107.064734407
 10
226.9318534957
 20
106.4499786201
 10
227.3220404016
 20
105.7100488881
 10
227.4557038175
 20
104.9048902544
 10
227.3220404016
 20
104.0997316207
 10
226.9318534957
 20
103.3598014231
 10
226.3167484628
 20
102.7450456361
 10
225.5265845882
 20
102.3052676658
 10
224.625347458
 20
102.0760952572
 10
223.6860676633
 20
102.0760952572
 10
222.7848454343
 20
102.3052676658
 10
221.9946666585
 20
102.7450456361
 10
221.3795765268
 20
103.3598014231
 10
220.9893896209
 20
104.0997316207
 10
220.8557113038
 20
104.9048902544
  0
LINE
  5
1F8
330
1F
100
AcDbEntity
  8
0
  6
HIDDEN
 62
     7
370
     0
100
AcDbLine
 10
214.4057138788
 20
118.9082373942
 30
0.0
 11
214.4057138788
 21
118.6688702631
 31
0.0
  0
LINE
  5
1F9
330
1F
100
AcDbEntity
  8
0
  6
HIDDEN
 62
     7
370
     0
100
AcDbLine
 10
216.0057111608
 20
118.7071676443
 30
0.0
 11
216.0057111608
 21
118.9464560787
 31
0.0
  0
LINE
  5
1FA
330
1F
100
AcDbEntity
  8
0
  6
HIDDEN
 62
     7
370
     0
100
AcDbLine
 10
214.4057138788
 20
122.0662963654
 30
0.0
 11
214.4057138788
 21
122.3056630309
 31
0.0
  0
LINE
  5
1FB
330
1F
100
AcDbEntity
  8
0
  6
HIDDEN
 62
     7
370
     0
100
AcDbLine
 10
216.0057111608
 20
122.2724893208
 30
0.0
 11
216.0057111608
 21
122.0332008864
 31
0.0
  0
LWPOLYLINE
  5
1FC
330
1F
100
AcDbEntity
  8
0
  6
HIDDEN
 62
     7
370
     0
100
AcDbPolyline
 90
        2
 70
   128
 43
0.0
 10
248.0557098018
 20
104.4048897068
 10
248.0557098018
 20
104.4048897068
  0
LWPOLYLINE
  5
1FD
330
1F
100
AcDbEntity
  8
0
  6
HIDDEN
 62
     7
370
     0
100
AcDbPolyline
 90
        2
 70
   128
 43
0.0
 10
252.3557080852
 20
104.4048897068
 10
252.3557080852
 20
104.4048897068
  0
LWPOLYLINE
  5
1FE
330
1F
100
AcDbEntity
  8
0
  6
HIDDEN
 62
     7
370
     0
100
AcDbPolyline
 90
        2
 70
   128
 43
0.0
 10
253.1557067262
 20
103.6048901345
 10
253.1557067262
 20
103.6048901345
  0
LWPOLYLINE
  5
1FF
330
1F
100
AcDbEntity
  8
0
  6
HIDDEN
 62
     7
370
     0
100
AcDbPolyline
 90
        2
 70
   128
 43
0.0
 10
253.1557067262
 20
121.7548900361
 10
253.1557067262
 20
121.7548900361
  0
LWPOLYLINE
  5
200
330
1F
100
AcDbEntity
  8
0
  6
HIDDEN
 62
     7
370
     0
100
AcDbPolyline
 90
        2
 70
   128
 43
0.0
 10
252.3557080852
 20
120.9548904638
 10
252.3557080852
 20
120.9548904638
  0
LWPOLYLINE
  5
201
330
1F
100
AcDbEntity
  8
0
  6
HIDDEN
 62
     7
370
     0
100
AcDbPolyline
 90
        2
 70
   128
 43
0.0
 10
248.0557098018
 20
120.9548904638
 10
248.0557098018
 20
120.9548904638
  0
LWPOLYLINE
  5
202
330
1F
100
AcDbEntity
  8
0
  6
HIDDEN
 62
     7
370
     0
100
AcDbPolyline
 90
        2
 70
   128
 43
0.0
 10
247.5557162391
 20
120.4548899162
 10
247.5557162391
 20
120.4548899162
  0
LWPOLYLINE
  5
203
330
1F
100
AcDbEntity
  8
0
  6
HIDDEN
 62
     7
370
     0
100
AcDbPolyline
 90
        2
 70
   128
 43
0.0
 10
247.5557162391
 20
104.9048902544
 10
247.5557162391
 20
104.9048902544
  0
ARC
  5
204
330
1F
100
AcDbEntity
  8
0
  6
HIDDEN
 62
     7
370
     0
100
AcDbCircle
 10
224.1557150112
 20
104.3469924422
 30
0.0
 40
3.320574845864225
100
AcDbArc
 50
34.7735884477
 51
145.2264115523
  0
SPLINE
  5
205
330
1F
100
AcDbEntity
  8
0
  6
HIDDEN
 62
     7
370
     0
100
AcDbSpline
210
0.0
220
0.0
230
1.0
 70
     8
 71
     3
 72
    20
 73
    16
 74
     0
 42
0.00000001
 43
0.00000001
 40
0.0
 40
0.0
 40
0.0
 40
0.0
 40
0.249999999999986
 40
0.249999999999986
 40
0.3749999999999789
 40
0.3749999999999789
 40
0.4374999999999789
 40
0.4374999999999789
 40
0.4999999999999789
 40
0.4999999999999789
 40
0.6249999999999835
 40
0.6249999999999835
 40
0.7499999999999879
 40
0.7499999999999879
 40
1.0
 40
1.0
 40
1.0
 40
1.0
 10
43.54652453418741
 20
82.00140693257993
 30
0.0
 10
43.57279675140082
 20
82.0207248736624
 30
0.0
 10
43.60347689365565
 20
82.03511358476418
 30
0.0
 10
43.67494776403758
 20
82.02820922292817
 30
0.0
 10
43.7029748010819
 20
82.02104321957974
 30
0.0
 10
43.75805839057942
 20
81.99134419287616
 30
0.0
 10
43.77894971913185
 20
81.97787055031482
 30
0.0
 10
43.8241583665773
 20
81.9426722847988
 30
0.0
 10
43.84856257897287
 20
81.92076405607155
 30
0.0
 10
43.91989489702433
 20
81.848639196076
 30
0.0
 10
43.96179168184458
 20
81.79629865512594
 30
0.0
 10
44.03336764070047
 20
81.6988152632252
 30
0.0
 10
44.06419563051778
 20
81.65206149334678
 30
0.0
 10
44.14729556335334
 20
81.51876827750766
 30
0.0
 10
44.19215046872364
 20
81.43613087959245
 30
0.0
 10
44.23226254417622
 20
81.35702398480167
 30
0.0
  0
SPLINE
  5
206
330
1F
100
AcDbEntity
  8
0
  6
HIDDEN
 62
     7
370
     0
100
AcDbSpline
210
0.0
220
0.0
230
1.0
 70
     8
 71
     3
 72
    20
 73
    16
 74
     0
 42
0.00000001
 43
0.00000001
 40
0.0
 40
0.0
 40
0.0
 40
0.0
 40
0.2500000000000037
 40
0.2500000000000037
 40
0.3750000000000055
 40
0.3750000000000055
 40
0.5000000000000073
 40
0.5000000000000073
 40
0.5625000000000057
 40
0.5625000000000057
 40
0.625000000000004
 40
0.625000000000004
 40
0.7500000000000027
 40
0.7500000000000027
 40
1.0
 40
1.0
 40
1.0
 40
1.0
 10
44.23226254417381
 20
144.0027561857588
 30
0.0
 10
44.19226632634998
 20
143.9238777792013
 30
0.0
 10
44.14715269851233
 20
143.8407481325098
 30
0.0
 10
44.0638984841458
 20
143.7072594681589
 30
0.0
 10
44.03367915552531
 20
143.6613944122769
 30
0.0
 10
43.96159092038388
 20
143.563202859872
 30
0.0
 10
43.9196736029728
 20
143.5108930403484
 30
0.0
 10
43.84842299842133
 20
143.4388871376139
 30
0.0
 10
43.82418718604202
 20
143.4171169253124
 30
0.0
 10
43.77858899585738
 20
143.3816422669834
 30
0.0
 10
43.75778650625765
 20
143.3682720828058
 30
0.0
 10
43.70284550783854
 20
143.3387021706706
 30
0.0
 10
43.67477651975171
 20
143.3315756483686
 30
0.0
 10
43.60427368968889
 20
143.3247012768859
 30
0.0
 10
43.57284960189801
 20
143.3390164359731
 30
0.0
 10
43.54652453418942
 20
143.3583732379836
 30
0.0
  0
LINE
  5
207
330
1F
100
AcDbEntity
  8
0
  6
HIDDEN
 62
     7
370
     0
100
AcDbLine
 10
43.2557112502
 20
143.1825595985
 30
0.0
 11
43.2557112502
 21
82.1772205721
 31
0.0
  0
CIRCLE
  5
208
330
1F
100
AcDbEntity
  8
0
  6
HIDDEN
 62
     7
370
     0
100
AcDbCircle
 10
100.1557103025
 20
112.6798900853
 30
0.0
 40
5.0
  0
LINE
  5
209
330
1F
100
AcDbEntity
  8
0
  6
HIDDEN
 62
     7
370
     0
100
AcDbLine
 10
93.1557103025
 20
73.2752072702
 30
0.0
 11
93.2453119233
 21
73.9127571772
 31
0.0
  0
LINE
  5
20A
330
1F
100
AcDbEntity
  8
0
  6
HIDDEN
 62
     7
370
     0
100
AcDbLine
 10
93.2453119233
 20
151.4470229934
 30
0.0
 11
93.1557103025
 21
152.0845729004
 31
0.0
  0
ARC
  5
20B
330
1F
100
AcDbEntity
  8
0
  6
HIDDEN
 62
     7
370
     0
100
AcDbCircle
 10
92.258773384
 20
74.0514047608
 30
0.0
 40
0.996233821438679
100
AcDbArc
 50
352.0
 51
0.0
  0
ARC
  5
20C
330
1F
100
AcDbEntity
  8
0
  6
HIDDEN
 62
     7
370
     0
100
AcDbCircle
 10
92.258773384
 20
74.0514047608
 30
0.0
 40
0.996233821438679
100
AcDbArc
 50
0.0
 51
25.7988228126
  0
ARC
  5
20D
330
1F
100
AcDbEntity
  8
0
  6
HIDDEN
 62
     7
370
     0
100
AcDbCircle
 10
92.258773384
 20
151.3083754097
 30
0.0
 40
0.9962338214386743
100
AcDbArc
 50
348.75
 51
8.0
  0
LWPOLYLINE
  5
20E
330
1F
100
AcDbEntity
  8
0
  6
HIDDEN
 62
     7
370
     0
100
AcDbPolyline
 90
        3
 70
   128
 43
0.0
 10
93.2358648491
 20
151.1140192936
 10
93.1791734213
 20
150.9271326552
 10
93.1557103025
 20
150.8748035024
  0
LINE
  5
20F
330
1F
100
AcDbEntity
  8
0
  6
HIDDEN
 62
     7
370
     0
100
AcDbLine
 10
93.2550072023
 20
74.0514050315
 30
0.0
 11
93.2550072023
 21
151.3083751391
 31
0.0
  0
LINE
  5
210
330
1F
100
AcDbEntity
  8
0
  6
HIDDEN
 62
     7
370
     0
100
AcDbLine
 10
93.2550072023
 20
74.0514050315
 30
0.0
 11
93.2550072023
 21
151.3083751391
 31
0.0
  0
LINE
  5
211
330
1F
100
AcDbEntity
  8
0
  6
HIDDEN
 62
     7
370
     0
100
AcDbLine
 10
66.6164367424
 20
81.1798895786
 30
0.0
 11
72.2015409695
 21
81.1798895786
 31
0.0
  0
LINE
  5
212
330
1F
100
AcDbEntity
  8
0
  6
HIDDEN
 62
     7
370
     0
100
AcDbLine
 10
72.2015409695
 20
144.1798905919
 30
0.0
 11
66.6164367424
 21
144.1798905919
 31
0.0
  0
ARC
  5
213
330
1F
100
AcDbEntity
  8
0
  6
HIDDEN
 62
     7
370
     0
100
AcDbCircle
 10
83.4089159577
 20
93.1798900853
 30
0.0
 40
12.0
100
AcDbArc
 50
273.1770991538
 51
324.3146652873
  0
ARC
  5
214
330
1F
100
AcDbEntity
  8
0
  6
HIDDEN
 62
     7
370
     0
100
AcDbCircle
 10
83.4089159577
 20
132.1798900853
 30
0.0
 40
12.0
100
AcDbArc
 50
35.6853347127
 51
86.8211145725
  0
ARC
  5
215
330
1F
100
AcDbEntity
  8
0
  6
HIDDEN
 62
     7
370
     0
100
AcDbCircle
 10
66.6164362446
 20
82.1798900853
 30
0.0
 40
1.000000000000008
100
AcDbArc
 50
210.0
 51
270.0
  0
ARC
  5
216
330
1F
100
AcDbEntity
  8
0
  6
HIDDEN
 62
     7
370
     0
100
AcDbCircle
 10
66.6164362446
 20
143.1798900853
 30
0.0
 40
1.0
100
AcDbArc
 50
90.0
 51
150.0
  0
LINE
  5
217
330
1F
100
AcDbEntity
  8
0
  6
HIDDEN
 62
     7
370
     0
100
AcDbLine
 10
65.7504110562
 20
143.6798895786
 30
0.0
 11
63.1523339974
 21
139.1798897724
 31
0.0
  0
LINE
  5
218
330
1F
100
AcDbEntity
  8
0
  6
HIDDEN
 62
     7
370
     0
100
AcDbLine
 10
63.1523339974
 20
86.1798903982
 30
0.0
 11
65.7504110562
 21
81.6798905919
 31
0.0
  0
ARC
  5
219
330
1F
100
AcDbEntity
  8
0
  6
HIDDEN
 62
     7
370
     0
100
AcDbCircle
 10
103.6057103025
 20
87.8048900853
 30
0.0
 40
2.000000000000018
100
AcDbArc
 50
234.3409123039
 51
0.0
  0
ARC
  5
21A
330
1F
100
AcDbEntity
  8
0
  6
HIDDEN
 62
     7
370
     0
100
AcDbCircle
 10
103.6057103025
 20
137.5548900853
 30
0.0
 40
2.000000000000018
100
AcDbArc
 50
0.0
 51
125.6590876961
  0
LINE
  5
21B
330
1F
100
AcDbEntity
  8
0
  6
HIDDEN
 62
     7
370
     0
100
AcDbLine
 10
58.3557098137
 20
86.1798903982
 30
0.0
 11
63.1523339974
 21
86.1798903982
 31
0.0
  0
LINE
  5
21C
330
1F
100
AcDbEntity
  8
0
  6
HIDDEN
 62
     7
370
     0
100
AcDbLine
 10
63.1523339974
 20
139.1798897724
 30
0.0
 11
53.3557108568
 21
139.1798897724
 31
0.0
  0
LINE
  5
21D
330
1F
100
AcDbEntity
  8
0
  6
HIDDEN
 62
     7
370
     0
100
AcDbLine
 10
93.1557103025
 20
86.1798903982
 30
0.0
 11
102.4397875147
 21
86.1798903982
 31
0.0
  0
LINE
  5
21E
330
1F
100
AcDbEntity
  8
0
  6
HIDDEN
 62
     7
370
     0
100
AcDbLine
 10
102.4397875147
 20
139.1798897724
 30
0.0
 11
93.1557103025
 21
139.1798897724
 31
0.0
  0
LINE
  5
21F
330
1F
100
AcDbEntity
  8
0
  6
HIDDEN
 62
     7
370
     0
100
AcDbLine
 10
97.1557104925
 20
158.3514425049
 30
0.0
 11
97.1557104925
 21
154.657303084
 31
0.0
  0
LINE
  5
220
330
1F
100
AcDbEntity
  8
0
  6
HIDDEN
 62
     7
370
     0
100
AcDbLine
 10
107.1557107346
 20
154.657303084
 30
0.0
 11
107.1557107346
 21
158.3569522093
 31
0.0
  0
LINE
  5
221
330
1F
100
AcDbEntity
  8
0
  6
HIDDEN
 62
     7
370
     0
100
AcDbLine
 10
204.8057078348
 20
135.054890726
 30
0.0
 11
203.7057115661
 21
135.054890726
 31
0.0
  0
LINE
  5
222
330
1F
100
AcDbEntity
  8
0
  6
HIDDEN
 62
     7
370
     0
100
AcDbLine
 10
203.7057115661
 20
90.3048894445
 30
0.0
 11
204.8057078348
 21
90.3048894445
 31
0.0
  0
ARC
  5
223
330
1F
100
AcDbEntity
  8
0
  6
HIDDEN
 62
     7
370
     0
100
AcDbCircle
 10
204.8057103025
 20
134.7548900853
 30
0.0
 40
0.3000000000000114
100
AcDbArc
 50
0.0
 51
90.0
  0
ARC
  5
224
330
1F
100
AcDbEntity
  8
0
  6
HIDDEN
 62
     7
370
     0
100
AcDbCircle
 10
204.8057103025
 20
90.6048900853
 30
0.0
 40
0.3000000000000114
100
AcDbArc
 50
270.0
 51
0.0
  0
ARC
  5
225
330
1F
100
AcDbEntity
  8
0
  6
HIDDEN
 62
     7
370
     0
100
AcDbCircle
 10
205.3057103025
 20
132.7298900853
 30
0.0
 40
0.1999999999999886
100
AcDbArc
 50
180.0
 51
270.0
  0
ARC
  5
226
330
1F
100
AcDbEntity
  8
0
  6
HIDDEN
 62
     7
370
     0
100
AcDbCircle
 10
205.3057103025
 20
92.6298900853
 30
0.0
 40
0.1999999999999886
100
AcDbArc
 50
90.0
 51
180.0
  0
LINE
  5
227
330
1F
100
AcDbEntity
  8
0
  6
HIDDEN
 62
     7
370
     0
100
AcDbLine
 10
252.3557080852
 20
132.6798896382
 30
0.0
 11
246.2557091342
 21
132.6798896382
 31
0.0
  0
LINE
  5
228
330
1F
100
AcDbEntity
  8
0
  6
HIDDEN
 62
     7
370
     0
100
AcDbLine
 10
246.2557091342
 20
92.6798905323
 30
0.0
 11
252.3557080852
 21
92.6798905323
 31
0.0
  0
LINE
  5
229
330
1F
100
AcDbEntity
  8
0
  6
HIDDEN
 62
     7
370
     0
100
AcDbLine
 10
207.1057095157
 20
132.6798896382
 30
0.0
 11
206.5713389741
 21
132.5367043803
 31
0.0
  0
LINE
  5
22A
330
1F
100
AcDbEntity
  8
0
  6
HIDDEN
 62
     7
370
     0
100
AcDbLine
 10
206.5713389741
 20
92.8230757902
 30
0.0
 11
207.1057095157
 21
92.6798905323
 31
0.0
  0
LINE
  5
22B
330
1F
100
AcDbEntity
  8
0
  6
HIDDEN
 62
     7
370
     0
100
AcDbLine
 10
220.8557113038
 20
132.6798896382
 30
0.0
 11
207.1057095157
 21
132.6798896382
 31
0.0
  0
LINE
  5
22C
330
1F
100
AcDbEntity
  8
0
  6
HIDDEN
 62
     7
370
     0
100
AcDbLine
 10
244.6557118522
 20
132.6798896382
 30
0.0
 11
227.4134292232
 21
132.6798896382
 31
0.0
  0
LINE
  5
22D
330
1F
100
AcDbEntity
  8
0
  6
HIDDEN
 62
     7
370
     0
100
AcDbLine
 10
217.2295137273
 20
92.6798905323
 30
0.0
 11
244.6557118522
 21
92.6798905323
 31
0.0
  0
LINE
  5
22E
330
1F
100
AcDbEntity
  8
0
  6
HIDDEN
 62
     7
370
     0
100
AcDbLine
 10
207.1057095157
 20
92.6798905323
 30
0.0
 11
213.0557133781
 21
92.6798905323
 31
0.0
  0
ARC
  5
22F
330
1F
100
AcDbEntity
  8
0
  6
HIDDEN
 62
     7
370
     0
100
AcDbCircle
 10
206.5195721818
 20
132.7298900853
 30
0.0
 40
0.1999999999999911
100
AcDbArc
 50
270.0
 51
285.0
  0
ARC
  5
230
330
1F
100
AcDbEntity
  8
0
  6
HIDDEN
 62
     7
370
     0
100
AcDbCircle
 10
206.5195721818
 20
92.6298900853
 30
0.0
 40
0.1999999999999911
100
AcDbArc
 50
75.0
 51
90.0
  0
LINE
  5
231
330
1F
100
AcDbEntity
  8
0
  6
HIDDEN
 62
     7
370
     0
100
AcDbLine
 10
206.5195723401
 20
132.5298908244
 30
0.0
 11
205.3057088481
 21
132.5298908244
 31
0.0
  0
LINE
  5
232
330
1F
100
AcDbEntity
  8
0
  6
HIDDEN
 62
     7
370
     0
100
AcDbLine
 10
205.3057088481
 20
92.8298893462
 30
0.0
 11
206.5195723401
 21
92.8298893462
 31
0.0
  0
ARC
  5
233
330
1F
100
AcDbEntity
  8
0
  6
HIDDEN
 62
     7
370
     0
100
AcDbCircle
 10
246.0557103025
 20
132.1048900853
 30
0.0
 40
0.2000000000000171
100
AcDbArc
 50
270.0
 51
0.0
  0
ARC
  5
234
330
1F
100
AcDbEntity
  8
0
  6
HIDDEN
 62
     7
370
     0
100
AcDbCircle
 10
246.0557103025
 20
93.2548900853
 30
0.0
 40
0.2000000000000171
100
AcDbArc
 50
0.0
 51
90.0
  0
ARC
  5
235
330
1F
100
AcDbEntity
  8
0
  6
HIDDEN
 62
     7
370
     0
100
AcDbCircle
 10
244.8557103025
 20
132.1048900853
 30
0.0
 40
0.2000000000000171
100
AcDbArc
 50
180.0
 51
270.0
  0
ARC
  5
236
330
1F
100
AcDbEntity
  8
0
  6
HIDDEN
 62
     7
370
     0
100
AcDbCircle
 10
244.8557103025
 20
93.2548900853
 30
0.0
 40
0.1999999999999886
100
AcDbArc
 50
90.0
 51
180.0
  0
LINE
  5
237
330
1F
100
AcDbEntity
  8
0
  6
HIDDEN
 62
     7
370
     0
100
AcDbLine
 10
246.0557057487
 20
131.9048895578
 30
0.0
 11
244.8557152377
 21
131.9048895578
 31
0.0
  0
LINE
  5
238
330
1F
100
AcDbEntity
  8
0
  6
HIDDEN
 62
     7
370
     0
100
AcDbLine
 10
244.8557152377
 20
93.4548906128
 30
0.0
 11
246.0557057487
 21
93.4548906128
 31
0.0
  0
LINE
  5
239
330
1F
100
AcDbEntity
  8
0
  6
HIDDEN
 62
     7
370
     0
100
AcDbLine
 10
227.4557038175
 20
102.6833399276
 30
0.0
 11
227.4557038175
 21
104.9048902544
 31
0.0
  0
LINE
  5
23A
330
1F
100
AcDbEntity
  8
0
  6
HIDDEN
 62
     7
370
     0
100
AcDbLine
 10
220.8557113038
 20
104.9048902544
 30
0.0
 11
220.8557113038
 21
102.6798903088
 31
0.0
  0
LINE
  5
23B
330
1F
100
AcDbEntity
  8
0
  6
HIDDEN
 62
     7
370
     0
100
AcDbLine
 10
217.2557099687
 20
120.4279579299
 30
0.0
 11
217.2557099687
 21
122.6785319934
 31
0.0
  0
LINE
  5
23C
330
1F
100
AcDbEntity
  8
0
  6
HIDDEN
 62
     7
370
     0
100
AcDbLine
 10
213.0557133781
 20
122.6798898618
 30
0.0
 11
213.0557133781
 21
120.4279379065
 31
0.0
  0
LINE
  5
23D
330
1F
100
AcDbEntity
  8
0
  6
HIDDEN
 62
     7
370
     0
100
AcDbLine
 10
252.8057082521
 20
132.2298894714
 30
0.0
 11
252.3557080852
 21
132.6798896382
 31
0.0
  0
LINE
  5
23E
330
1F
100
AcDbEntity
  8
0
  6
HIDDEN
 62
     7
370
     0
100
AcDbLine
 10
252.3557080852
 20
92.6798905323
 30
0.0
 11
252.8057082521
 21
93.1298906992
 31
0.0
  0
ARC
  5
23F
330
1F
100
AcDbEntity
  8
0
  6
HIDDEN
 62
     7
370
     0
100
AcDbCircle
 10
206.5695721818
 20
128.1298900853
 30
0.0
 40
0.2000000000000259
100
AcDbArc
 50
75.0
 51
90.0
  0
ARC
  5
240
330
1F
100
AcDbEntity
  8
0
  6
HIDDEN
 62
     7
370
     0
100
AcDbCircle
 10
206.5695721818
 20
97.2298900853
 30
0.0
 40
0.2000000000000122
100
AcDbArc
 50
270.0
 51
285.0
  0
ARC
  5
241
330
1F
100
AcDbEntity
  8
0
  6
HIDDEN
 62
     7
370
     0
100
AcDbCircle
 10
205.3557103025
 20
128.1298900853
 30
0.0
 40
0.2000000000000171
100
AcDbArc
 50
90.0
 51
180.0
  0
ARC
  5
242
330
1F
100
AcDbEntity
  8
0
  6
HIDDEN
 62
     7
370
     0
100
AcDbCircle
 10
205.3557103025
 20
97.2298900853
 30
0.0
 40
0.2000000000000028
100
AcDbArc
 50
180.0
 51
270.0
  0
LINE
  5
243
330
1F
100
AcDbEntity
  8
0
  6
HIDDEN
 62
     7
370
     0
100
AcDbLine
 10
206.5695731865
 20
128.3298905085
 30
0.0
 11
205.3557096945
 21
128.3298905085
 31
0.0
  0
LINE
  5
244
330
1F
100
AcDbEntity
  8
0
  6
HIDDEN
 62
     7
370
     0
100
AcDbLine
 10
205.3557096945
 20
97.0298896621
 30
0.0
 11
206.5695731865
 21
97.0298896621
 31
0.0
  0
LINE
  5
245
330
1F
100
AcDbEntity
  8
0
  6
HIDDEN
 62
     7
370
     0
100
AcDbLine
 10
206.6213323699
 20
97.0367050807
 30
0.0
 11
207.1557103621
 21
97.1798903386
 31
0.0
  0
LINE
  5
246
330
1F
100
AcDbEntity
  8
0
  6
HIDDEN
 62
     7
370
     0
100
AcDbLine
 10
207.1557103621
 20
128.179889832
 30
0.0
 11
206.6213323699
 21
128.3230750899
 31
0.0
  0
LINE
  5
247
330
1F
100
AcDbEntity
  8
0
  6
HIDDEN
 62
     7
370
     0
100
AcDbLine
 10
214.4057138788
 20
128.179889832
 30
0.0
 11
207.1557103621
 21
128.179889832
 31
0.0
  0
LINE
  5
248
330
1F
100
AcDbEntity
  8
0
  6
HIDDEN
 62
     7
370
     0
100
AcDbLine
 10
207.1557103621
 20
97.1798903386
 30
0.0
 11
213.0847557412
 21
97.1798903386
 31
0.0
  0
LINE
  5
249
330
1F
100
AcDbEntity
  8
0
  6
HIDDEN
 62
     7
370
     0
100
AcDbLine
 10
220.9516151773
 20
128.179889832
 30
0.0
 11
216.0057111608
 21
128.179889832
 31
0.0
  0
LINE
  5
24A
330
1F
100
AcDbEntity
  8
0
  6
HIDDEN
 62
     7
370
     0
100
AcDbLine
 10
252.3557080852
 20
128.179889832
 30
0.0
 11
227.359799944
 21
128.179889832
 31
0.0
  0
LINE
  5
24B
330
1F
100
AcDbEntity
  8
0
  6
HIDDEN
 62
     7
370
     0
100
AcDbLine
 10
217.2269507276
 20
97.1798903386
 30
0.0
 11
252.3557080852
 21
97.1798903386
 31
0.0
  0
LINE
  5
24C
330
1F
100
AcDbEntity
  8
0
  6
HIDDEN
 62
     7
370
     0
100
AcDbLine
 10
253.1557067262
 20
128.6417699496
 30
0.0
 11
252.3557080852
 21
128.179889832
 31
0.0
  0
LINE
  5
24D
330
1F
100
AcDbEntity
  8
0
  6
HIDDEN
 62
     7
370
     0
100
AcDbLine
 10
252.3557080852
 20
97.1798903386
 30
0.0
 11
253.1557067262
 21
96.7180102209
 31
0.0
  0
LINE
  5
24E
330
1F
100
AcDbEntity
  8
0
  6
HIDDEN
 62
     7
370
     0
100
AcDbLine
 10
215.8057077752
 20
128.8548900823
 30
0.0
 11
214.6057098137
 21
128.8548900823
 31
0.0
  0
LINE
  5
24F
330
1F
100
AcDbEntity
  8
0
  6
HIDDEN
 62
     7
370
     0
100
AcDbLine
 10
117.4557100015
 20
99.6798898171
 30
0.0
 11
121.4557106571
 21
99.6798898171
 31
0.0
  0
LINE
  5
250
330
1F
100
AcDbEntity
  8
0
  6
HIDDEN
 62
     7
370
     0
100
AcDbLine
 10
121.4557106571
 20
125.6798903535
 30
0.0
 11
117.4557100015
 21
125.6798903535
 31
0.0
  0
ARC
  5
251
330
1F
100
AcDbEntity
  8
0
  6
HIDDEN
 62
     7
370
     0
100
AcDbCircle
 10
215.8057103025
 20
128.6548900853
 30
0.0
 40
0.1999999999999886
100
AcDbArc
 50
0.0
 51
90.0
  0
ARC
  5
252
330
1F
100
AcDbEntity
  8
0
  6
HIDDEN
 62
     7
370
     0
100
AcDbCircle
 10
214.6057103025
 20
128.6548900853
 30
0.0
 40
0.1999999999999886
100
AcDbArc
 50
90.0
 51
180.0
  0
LINE
  5
253
330
1F
100
AcDbEntity
  8
0
  6
HIDDEN
 62
     7
370
     0
100
AcDbLine
 10
105.6057105737
 20
100.679889981
 30
0.0
 11
106.3557102309
 21
101.4298896382
 31
0.0
  0
LINE
  5
254
330
1F
100
AcDbEntity
  8
0
  6
HIDDEN
 62
     7
370
     0
100
AcDbLine
 10
106.3557102309
 20
123.9298905323
 30
0.0
 11
105.6057105737
 21
124.6798901896
 31
0.0
  0
LINE
  5
255
330
1F
100
AcDbEntity
  8
0
  6
HIDDEN
 62
     7
370
     0
100
AcDbLine
 10
106.3557102309
 20
101.4298896382
 30
0.0
 11
117.4557100015
 21
101.4298896382
 31
0.0
  0
LINE
  5
256
330
1F
100
AcDbEntity
  8
0
  6
HIDDEN
 62
     7
370
     0
100
AcDbLine
 10
117.4557100015
 20
123.9298905323
 30
0.0
 11
106.3557102309
 21
123.9298905323
 31
0.0
  0
LINE
  5
257
330
1F
100
AcDbEntity
  8
0
  6
HIDDEN
 62
     7
370
     0
100
AcDbLine
 10
98.1057102756
 20
162.6798908303
 30
0.0
 11
98.1057102756
 21
156.5798918794
 31
0.0
  0
LINE
  5
258
330
1F
100
AcDbEntity
  8
0
  6
HIDDEN
 62
     7
370
     0
100
AcDbLine
 10
84.5884227158
 20
75.1016090701
 30
0.0
 11
84.1557134839
 21
75.5798357616
 31
0.0
  0
LINE
  5
259
330
1F
100
AcDbEntity
  8
0
  6
HIDDEN
 62
     7
370
     0
100
AcDbLine
 10
72.1557105856
 20
76.2267957519
 30
0.0
 11
71.6750829445
 21
75.7485727857
 31
0.0
  0
LINE
  5
25A
330
1F
100
AcDbEntity
  8
0
  6
HIDDEN
 62
     7
370
     0
100
AcDbLine
 10
71.6749655979
 20
149.6112036596
 30
0.0
 11
72.1557105856
 21
149.1329210888
 31
0.0
  0
LINE
  5
25B
330
1F
100
AcDbEntity
  8
0
  6
HIDDEN
 62
     7
370
     0
100
AcDbLine
 10
84.1557106899
 20
149.7798959802
 30
0.0
 11
84.5885316806
 21
150.2581748257
 31
0.0
  0
LINE
  5
25C
330
1F
100
AcDbEntity
  8
0
  6
HIDDEN
 62
     7
370
     0
100
AcDbLine
 10
84.1557106899
 20
75.479707409
 30
0.0
 11
84.1557106899
 21
81.2140132378
 31
0.0
  0
LINE
  5
25D
330
1F
100
AcDbEntity
  8
0
  6
HIDDEN
 62
     7
370
     0
100
AcDbLine
 10
72.1557105856
 20
81.1883683394
 30
0.0
 11
72.1557105856
 21
76.2268367301
 31
0.0
  0
LINE
  5
25E
330
1F
100
AcDbEntity
  8
0
  6
HIDDEN
 62
     7
370
     0
100
AcDbLine
 10
84.1557106899
 20
144.1457669328
 30
0.0
 11
84.1557106899
 21
149.879897673
 31
0.0
  0
LINE
  5
25F
330
1F
100
AcDbEntity
  8
0
  6
HIDDEN
 62
     7
370
     0
100
AcDbLine
 10
72.1557105856
 20
149.1329136382
 30
0.0
 11
72.1557105856
 21
144.1714118312
 31
0.0
  0
LINE
  5
260
330
1F
100
AcDbEntity
  8
0
  6
HIDDEN
 62
     7
370
     0
100
AcDbLine
 10
205.1557137595
 20
118.7298900525
 30
0.0
 11
204.155711733
 21
117.7298898886
 31
0.0
  0
LINE
  5
261
330
1F
100
AcDbEntity
  8
0
  6
HIDDEN
 62
     7
370
     0
100
AcDbLine
 10
204.155711733
 20
107.629890282
 30
0.0
 11
205.1557137595
 21
106.6298901181
 31
0.0
  0
LINE
  5
262
330
1F
100
AcDbEntity
  8
0
  6
HIDDEN
 62
     7
370
     0
100
AcDbLine
 10
200.0557093846
 20
117.7298898886
 30
0.0
 11
199.0642904268
 21
116.0798901304
 31
0.0
  0
LINE
  5
263
330
1F
100
AcDbEntity
  8
0
  6
HIDDEN
 62
     7
370
     0
100
AcDbLine
 10
199.0642904268
 20
109.2798900402
 30
0.0
 11
200.0557093846
 21
107.629890282
 31
0.0
  0
LINE
  5
264
330
1F
100
AcDbEntity
  8
0
  6
HIDDEN
 62
     7
370
     0
100
AcDbLine
 10
204.155711733
 20
117.7298898886
 30
0.0
 11
200.0557093846
 21
117.7298898886
 31
0.0
  0
LINE
  5
265
330
1F
100
AcDbEntity
  8
0
  6
HIDDEN
 62
     7
370
     0
100
AcDbLine
 10
200.0557093846
 20
107.629890282
 30
0.0
 11
204.155711733
 21
107.629890282
 31
0.0
  0
LINE
  5
266
330
1F
100
AcDbEntity
  8
0
  6
HIDDEN
 62
     7
370
     0
100
AcDbLine
 10
121.4557106571
 20
109.2798900402
 30
0.0
 11
199.0642904268
 21
109.2798900402
 31
0.0
  0
LINE
  5
267
330
1F
100
AcDbEntity
  8
0
  6
HIDDEN
 62
     7
370
     0
100
AcDbLine
 10
199.0642904268
 20
116.0798901304
 30
0.0
 11
121.4557106571
 21
116.0798901304
 31
0.0
  0
LINE
  5
268
330
1F
100
AcDbEntity
  8
0
  6
HIDDEN
 62
     7
370
     0
100
AcDbLine
 10
220.8557113038
 20
132.6798896382
 30
0.0
 11
220.8557113038
 21
128.229889747
 31
0.0
  0
LINE
  5
269
330
1F
100
AcDbEntity
  8
0
  6
HIDDEN
 62
     7
370
     0
100
AcDbLine
 10
227.4557038175
 20
128.229889747
 30
0.0
 11
227.4557038175
 21
132.6798896382
 31
0.0
  0
LINE
  5
26A
330
1F
100
AcDbEntity
  8
0
  6
HIDDEN
 62
     7
370
     0
100
AcDbLine
 10
213.0557133781
 20
97.1837944428
 30
0.0
 11
213.0557133781
 21
92.6798905323
 31
0.0
  0
LINE
  5
26B
330
1F
100
AcDbEntity
  8
0
  6
HIDDEN
 62
     7
370
     0
100
AcDbLine
 10
217.2557099687
 20
92.6798905323
 30
0.0
 11
217.2557099687
 21
97.183754396
 31
0.0
  0
ARC
  5
26C
330
1F
100
AcDbEntity
  8
0
  6
HIDDEN
 62
     7
370
     0
100
AcDbCircle
 10
51.4557103025
 20
146.8298900853
 30
0.0
 40
1.900000000000006
100
AcDbArc
 50
270.0
 51
310.9212832533
  0
ARC
  5
26D
330
1F
100
AcDbEntity
  8
0
  6
HIDDEN
 62
     7
370
     0
100
AcDbCircle
 10
56.4557103025
 20
78.5298900853
 30
0.0
 40
1.900000000000001
100
AcDbArc
 50
35.6630613694
 51
90.0
  0
LINE
  5
26E
330
1F
100
AcDbEntity
  8
0
  6
HIDDEN
 62
     7
370
     0
100
AcDbLine
 10
97.1557104925
 20
160.2267610918
 30
0.0
 11
97.1557104925
 21
158.3514425049
 31
0.0
  0
LINE
  5
26F
330
1F
100
AcDbEntity
  8
0
  6
HIDDEN
 62
     7
370
     0
100
AcDbLine
 10
107.1557107346
 20
158.3569522093
 30
0.0
 11
107.1557107346
 21
160.2324943135
 31
0.0
  0
LINE
  5
270
330
1F
100
AcDbEntity
  8
0
  6
HIDDEN
 62
     7
370
     0
100
AcDbLine
 10
51.4557084965
 20
144.9298883865
 30
0.0
 11
44.9057093786
 21
144.9298883865
 31
0.0
  0
LINE
  5
271
330
1F
100
AcDbEntity
  8
0
  6
HIDDEN
 62
     7
370
     0
100
AcDbLine
 10
43.307232015
 20
82.0283691476
 30
0.0
 11
44.9057093786
 21
80.429891784
 31
0.0
  0
LINE
  5
272
330
1F
100
AcDbEntity
  8
0
  6
HIDDEN
 62
     7
370
     0
100
AcDbLine
 10
44.9057093786
 20
144.9298883865
 30
0.0
 11
43.3063938247
 21
143.3305746953
 31
0.0
  0
LINE
  5
273
330
1F
100
AcDbEntity
  8
0
  6
HIDDEN
 62
     7
370
     0
100
AcDbLine
 10
44.9057093786
 20
80.429891784
 30
0.0
 11
56.4557111787
 21
80.429891784
 31
0.0
  0
LINE
  5
274
330
1F
100
AcDbEntity
  8
0
  6
HIDDEN
 62
     7
370
     0
100
AcDbLine
 10
227.4557038175
 20
102.6833399276
 30
0.0
 11
227.4557038175
 21
104.9048902544
 31
0.0
  0
LINE
  5
275
330
1F
100
AcDbEntity
  8
0
  6
HIDDEN
 62
     7
370
     0
100
AcDbLine
 10
220.8557113038
 20
104.9048902544
 30
0.0
 11
220.8557113038
 21
102.6798903088
 31
0.0
  0
LINE
  5
276
330
1F
100
AcDbEntity
  8
0
  6
HIDDEN
 62
     7
370
     0
100
AcDbLine
 10
217.2557099687
 20
120.4279579299
 30
0.0
 11
217.2557099687
 21
122.6785319934
 31
0.0
  0
LINE
  5
277
330
1F
100
AcDbEntity
  8
0
  6
HIDDEN
 62
     7
370
     0
100
AcDbLine
 10
213.0557133781
 20
122.6798898618
 30
0.0
 11
213.0557133781
 21
120.4279379065
 31
0.0
  0
DIMENSION
  5
278
330
1F
100
AcDbEntity
  8
VERMASSUNG
100
AcDbDimension
  2
*D1
 10
265.9911860111
 20
87.6798900853
 30
0.0
 11
265.9911860111
 21
112.6798900853
 31
0.0
 70
   160
  1
%%c<>
 71
     2
 42
-1.0
  3
SLDDIMSTYLE0
100
AcDbAlignedDimension
 13
251.8057103025
 23
137.6798900853
 33
0.0
 14
251.8057103025
 24
87.6798900853
 34
0.0
 50
90.0
100
AcDbRotatedDimension
  0
DIMENSION
  5
284
330
1F
100
AcDbEntity
  8
VERMASSUNG
100
AcDbDimension
  2
*D2
 10
259.9911860111
 20
97.1798900853
 30
0.0
 11
259.9911860111
 21
112.6798900853
 31
0.0
 70
   160
  1
%%c<>
 71
     2
 42
-1.0
  3
SLDDIMSTYLE0
100
AcDbAlignedDimension
 13
252.3557103025
 23
128.1798900853
 33
0.0
 14
252.3557103025
 24
97.1798900853
 34
0.0
 50
90.0
100
AcDbRotatedDimension
  0
DIMENSION
  5
28F
330
1F
100
AcDbEntity
  8
VERMASSUNG
100
AcDbDimension
  2
*D3
 10
36.3189229664
 20
62.6798900853
 30
0.0
 11
36.3189229664
 21
112.0563668852
 31
0.0
 70
   160
  1
HSK A %%c<>
 71
     2
 42
-1.0
  3
SLDDIMSTYLE0
100
AcDbAlignedDimension
 13
93.6557103025
 23
162.6798900853
 33
0.0
 14
93.6557103025
 24
62.6798900853
 34
0.0
 50
90.0
100
AcDbRotatedDimension
  0
DIMENSION
  5
29B
330
1F
100
AcDbEntity
  8
VERMASSUNG
100
AcDbDimension
  2
*D4
 10
253.1557103025
 20
181.4974393048
 30
0.0
 11
156.8391331538
 21
181.4974393048
 31
0.0
 70
   160
 71
     2
 42
-1.0
  3
SLDDIMSTYLE0
100
AcDbAlignedDimension
 13
43.2557103025
 23
143.1825598278
 33
0.0
 14
253.1557103025
 24
131.8798900853
 34
0.0
100
AcDbRotatedDimension
  0
DIMENSION
  5
2A5
330
1F
100
AcDbEntity
  8
VERMASSUNG
100
AcDbDimension
  2
*D5
 10
93.1557103025
 20
175.4974393048
 30
0.0
 11
173.6102939726
 21
175.4974393048
 31
0.0
 70
   160
 71
     2
 42
-1.0
  3
SLDDIMSTYLE0
100
AcDbAlignedDimension
 13
253.1557103025
 23
131.8798900853
 33
0.0
 14
93.1557103025
 24
162.1798900853
 34
0.0
100
AcDbRotatedDimension
  0
DIMENSION
  5
2AF
330
1F
100
AcDbEntity
  8
VERMASSUNG
100
AcDbDimension
  2
*D6
 10
253.1557103025
 20
169.4974393048
 30
0.0
 11
185.1143410223
 21
169.4974393048
 31
0.0
 70
   160
 71
     2
 42
-1.0
  3
SLDDIMSTYLE0
100
AcDbAlignedDimension
 13
122.1057103025
 23
160.6486299061
 33
0.0
 14
253.1557103025
 24
131.8798900853
 34
0.0
100
AcDbRotatedDimension
  0
DIMENSION
  5
2B9
330
1F
100
AcDbEntity
  8
VERMASSUNG
100
AcDbDimension
  2
*D7
 10
271.9911860111
 20
86.6798900853
 30
0.0
 11
271.9911860111
 21
112.6798900853
 31
0.0
 70
   160
  1
%%c<>
 71
     2
 42
-1.0
  3
SLDDIMSTYLE0
100
AcDbAlignedDimension
 13
170.1057103025
 23
138.6798900853
 33
0.0
 14
170.1057103025
 24
86.6798900853
 34
0.0
 50
90.0
100
AcDbRotatedDimension
  0
DIMENSION
  5
2C4
330
1F
100
AcDbEntity
  8
VERMASSUNG
100
AcDbDimension
  2
*D8
 10
277.9911860111
 20
82.5560798683
 30
0.0
 11
277.9911860111
 21
112.6798900853
 31
0.0
 70
   160
  1
%%c<>
 71
     2
 42
-1.0
  3
SLDDIMSTYLE1
100
AcDbAlignedDimension
 13
125.6846576709
 23
142.8037003022
 33
0.0
 14
125.6846576709
 24
82.5560798683
 34
0.0
 50
90.0
100
AcDbRotatedDimension
  0
LINE
  5
2D0
330
1F
100
AcDbEntity
  8
VERMASSUNG
  6
CENTERX2
 62
     7
370
     0
100
AcDbLine
 10
41.0052409415
 20
112.6798900853
 30
0.0
 11
255.1557103025
 21
112.6798900853
 31
0.0
  0
OLE2FRAME
  5
2D1
330
1F
100
AcDbEntity
  8
0
100
AcDbOle2Frame
 70
     2
  3
Bitmap Image
 10
13.8511154363
 20
38.264191557
 30
0.0
 11
51.6290888628
 21
31.9806341108
 31
0.0
 71
     2
 72
     0
 73
     1
 90
    12928
310
80552BED0767C5B32B40DDAF6807D121434000000000000000006FFBDDFB85D0
310
4940DDAF6807D121434000000000000000006FFBDDFB85D04940416F4BD60AFB
310
3F4000000000000000002BED0767C5B32B40416F4BD60AFB3F40000000000000
310
0000000000000100000000010000010000000100000000000100000000320000
310
D0CF11E0A1B11AE1000000000000000000000000000000003E000300FEFF0900
310
0600000000000000000000000100000001000000000000000010000002000000
310
01000000FEFFFFFF0000000000000000FFFFFFFFFFFFFFFFFFFFFFFFFFFFFFFF
310
FFFFFFFFFFFFFFFFFFFFFFFFFFFFFFFFFFFFFFFFFFFFFFFFFFFFFFFFFFFFFFFF
310
FFFFFFFFFFFFFFFFFFFFFFFFFFFFFFFFFFFFFFFFFFFFFFFFFFFFFFFFFFFFFFFF
310
FFFFFFFFFFFFFFFFFFFFFFFFFFFFFFFFFFFFFFFFFFFFFFFFFFFFFFFFFFFFFFFF
310
FFFFFFFFFFFFFFFFFFFFFFFFFFFFFFFFFFFFFFFFFFFFFFFFFFFFFFFFFFFFFFFF
310
FFFFFFFFFFFFFFFFFFFFFFFFFFFFFFFFFFFFFFFFFFFFFFFFFFFFFFFFFFFFFFFF
310
FFFFFFFFFFFFFFFFFFFFFFFFFFFFFFFFFFFFFFFFFFFFFFFFFFFFFFFFFFFFFFFF
310
FFFFFFFFFFFFFFFFFFFFFFFFFFFFFFFFFFFFFFFFFFFFFFFFFFFFFFFFFFFFFFFF
310
FFFFFFFFFFFFFFFFFFFFFFFFFFFFFFFFFFFFFFFFFFFFFFFFFFFFFFFFFFFFFFFF
310
FFFFFFFFFFFFFFFFFFFFFFFFFFFFFFFFFFFFFFFFFFFFFFFFFFFFFFFFFFFFFFFF
310
FFFFFFFFFFFFFFFFFFFFFFFFFFFFFFFFFFFFFFFFFFFFFFFFFFFFFFFFFFFFFFFF
310
FFFFFFFFFFFFFFFFFFFFFFFFFFFFFFFFFFFFFFFFFFFFFFFFFFFFFFFFFFFFFFFF
310
FFFFFFFFFFFFFFFFFFFFFFFFFFFFFFFFFFFFFFFFFFFFFFFFFFFFFFFFFFFFFFFF
310
FFFFFFFFFFFFFFFFFFFFFFFFFFFFFFFFFFFFFFFFFFFFFFFFFFFFFFFFFFFFFFFF
310
FDFFFFFFFEFFFFFFFEFFFFFFFEFFFFFF05000000060000000700000008000000
310
090000000A0000000B0000000C0000000D0000000E0000000F00000010000000
310
11000000120000001300000014000000150000001600000017000000FEFFFFFF
310
FFFFFFFFFFFFFFFFFFFFFFFFFFFFFFFFFFFFFFFFFFFFFFFFFFFFFFFFFFFFFFFF
310
FFFFFFFFFFFFFFFFFFFFFFFFFFFFFFFFFFFFFFFFFFFFFFFFFFFFFFFFFFFFFFFF
310
FFFFFFFFFFFFFFFFFFFFFFFFFFFFFFFFFFFFFFFFFFFFFFFFFFFFFFFFFFFFFFFF
310
FFFFFFFFFFFFFFFFFFFFFFFFFFFFFFFFFFFFFFFFFFFFFFFFFFFFFFFFFFFFFFFF
310
FFFFFFFFFFFFFFFFFFFFFFFFFFFFFFFFFFFFFFFFFFFFFFFFFFFFFFFFFFFFFFFF
310
FFFFFFFFFFFFFFFFFFFFFFFFFFFFFFFFFFFFFFFFFFFFFFFFFFFFFFFFFFFFFFFF
310
FFFFFFFFFFFFFFFFFFFFFFFFFFFFFFFFFFFFFFFFFFFFFFFFFFFFFFFFFFFFFFFF
310
FFFFFFFFFFFFFFFFFFFFFFFFFFFFFFFFFFFFFFFFFFFFFFFFFFFFFFFFFFFFFFFF
310
FFFFFFFFFFFFFFFFFFFFFFFFFFFFFFFFFFFFFFFFFFFFFFFFFFFFFFFFFFFFFFFF
310
FFFFFFFFFFFFFFFFFFFFFFFFFFFFFFFFFFFFFFFFFFFFFFFFFFFFFFFFFFFFFFFF
310
FFFFFFFFFFFFFFFFFFFFFFFFFFFFFFFFFFFFFFFFFFFFFFFFFFFFFFFFFFFFFFFF
310
FFFFFFFFFFFFFFFFFFFFFFFFFFFFFFFFFFFFFFFFFFFFFFFFFFFFFFFFFFFFFFFF
310
FFFFFFFFFFFFFFFFFFFFFFFFFFFFFFFFFFFFFFFFFFFFFFFFFFFFFFFFFFFFFFFF
310
52006F006F007400200045006E00740072007900000000000000000000000000
310
0000000000000000000000000000000000000000000000000000000000000000
310
16000500FFFFFFFFFFFFFFFF020000000A00030000000000C000000000000046
310
000000000000000000000000B018609DA2E7CB0103000000C000000000000000
310
01004F006C006500000000000000000000000000000000000000000000000000
310
0000000000000000000000000000000000000000000000000000000000000000
310
0A000200FFFFFFFFFFFFFFFFFFFFFFFF00000000000000000000000000000000
310
0000000000000000000000000000000000000000000000001400000000000000
310
010043006F006D0070004F0062006A0000000000000000000000000000000000
310
0000000000000000000000000000000000000000000000000000000000000000
310
120002010100000003000000FFFFFFFF00000000000000000000000000000000
310
0000000000000000000000000000000000000000010000004D00000000000000
310
01004F006C006500310030004E00610074006900760065000000000000000000
310
0000000000000000000000000000000000000000000000000000000000000000
310
1A000200FFFFFFFFFFFFFFFFFFFFFFFF00000000000000000000000000000000
310
0000000000000000000000000000000000000000040000002426000000000000
310
FEFFFFFF02000000FEFFFFFFFFFFFFFFFFFFFFFFFFFFFFFFFFFFFFFFFFFFFFFF
310
FFFFFFFFFFFFFFFFFFFFFFFFFFFFFFFFFFFFFFFFFFFFFFFFFFFFFFFFFFFFFFFF
310
FFFFFFFFFFFFFFFFFFFFFFFFFFFFFFFFFFFFFFFFFFFFFFFFFFFFFFFFFFFFFFFF
310
FFFFFFFFFFFFFFFFFFFFFFFFFFFFFFFFFFFFFFFFFFFFFFFFFFFFFFFFFFFFFFFF
310
FFFFFFFFFFFFFFFFFFFFFFFFFFFFFFFFFFFFFFFFFFFFFFFFFFFFFFFFFFFFFFFF
310
FFFFFFFFFFFFFFFFFFFFFFFFFFFFFFFFFFFFFFFFFFFFFFFFFFFFFFFFFFFFFFFF
310
FFFFFFFFFFFFFFFFFFFFFFFFFFFFFFFFFFFFFFFFFFFFFFFFFFFFFFFFFFFFFFFF
310
FFFFFFFFFFFFFFFFFFFFFFFFFFFFFFFFFFFFFFFFFFFFFFFFFFFFFFFFFFFFFFFF
310
FFFFFFFFFFFFFFFFFFFFFFFFFFFFFFFFFFFFFFFFFFFFFFFFFFFFFFFFFFFFFFFF
310
FFFFFFFFFFFFFFFFFFFFFFFFFFFFFFFFFFFFFFFFFFFFFFFFFFFFFFFFFFFFFFFF
310
FFFFFFFFFFFFFFFFFFFFFFFFFFFFFFFFFFFFFFFFFFFFFFFFFFFFFFFFFFFFFFFF
310
FFFFFFFFFFFFFFFFFFFFFFFFFFFFFFFFFFFFFFFFFFFFFFFFFFFFFFFFFFFFFFFF
310
FFFFFFFFFFFFFFFFFFFFFFFFFFFFFFFFFFFFFFFFFFFFFFFFFFFFFFFFFFFFFFFF
310
FFFFFFFFFFFFFFFFFFFFFFFFFFFFFFFFFFFFFFFFFFFFFFFFFFFFFFFFFFFFFFFF
310
FFFFFFFFFFFFFFFFFFFFFFFFFFFFFFFFFFFFFFFFFFFFFFFFFFFFFFFFFFFFFFFF
310
FFFFFFFFFFFFFFFFFFFFFFFFFFFFFFFFFFFFFFFFFFFFFFFFFFFFFFFFFFFFFFFF
310
010000020000000000000000000000000000000061007200410082005C003104
310
D806250000000000D806250000000000680061007200650064005C003B004300
310
0100FEFF030A0000FFFFFFFF0A00030000000000C00000000000004607000000
310
5042727573680007000000504272757368000700000050427275736800F439B2
310
71000000000000000000000000004100540049002E004100430045005C004300
310
6F00720065002D005300740061007400690063003B0043003A005C0050007200
310
6F006700720061006D002000460069006C006500730020002800780038003600
310
29005C0043006F006D006D006F006E002000460069006C00650073005C004100
310
750074006F006400650073006B0020005300680061007200650064005C003B00
310
43003A005C00500072006F006700720061006D002000460069006C0065007300
310
5C004E006F0072006D0061006E005C004E0070006D005C00420069006E000000
310
43003A005C00500072006F006700720061006D002000460069006C0065007300
310
5C0053006F006C006900640057006F0072006B007300200043006F0072007000
310
5C0053006F006C006900640057006F0072006B00730020002800320029005C00
310
730065007400750070005C0069003300380036005C0073007700610063007400
310
770069007A002E006500780065000000220043003A005C00500072006F006700
310
20260000424D0E260000000000003E00000028000000B40200006E0000000100
310
01000000000000000000130B0000130B00000200000002000000000000FFFFFF
310
FFFFFFFFFFFFFFFFFFFFFFFFFFFFFFFFFFFFFFFFFFFFFFFFFFFFFFFFFFFFFFFF
310
FFFFFFFFFFFFFFFFFFFFFFFFFFFFFFFFFFFFFFFFFFFFFFFFFFFFFFFFFFFFFFFF
310
FFFFFFFFFFFFFFFFFFFFFFFFFFFFFFFFFFFFFFFFFFFFFFFFF000FFFFFFFFFFFF
310
FFFFFFFFFFFFFFFFFFFFFFFFFFFFFFFFFFFFFFFFFFFFFFFFFFFFFFFFFFFFFFFF
310
FFFFFFFFFFFFFFFFFFFFFFFFFFFFFFFFFFFFFFFFFFFFFFFFFFFFFFFFFFFFFFFF
310
FFFFFFFFFFFFFFFFFFFFFFFFFFFFFFFFF000FFFFFFFFFFFFFFFFFFFFFFFFFFFF
310
FFFFFFFFFFFFFFFFFFFFFFFFFFFFFFFFFFFFFFFFFFFFFFFFFFFFFFFFFFFFFFFF
310
FFFFFFFFFFFFFFFFFFFFFFFFFFFFFFFFFFFFFFFFFFFFFFFFFFFFFFFFFFFFFFFF
310
FFFFFFFFFFFFFFFFF000FFFFFFFFFFFFFFFFFFFFFFFFFFFFFFFFFFFFFFFFFFFF
310
FFFFFFFFFFFFFFFFFFFFFFFFFFFFFFFFFFFFFFFFFFFFFFFFFFFFFFFFFFFFFFFF
310
FFFFFFFFFFFFFFFFFFFFFFFFFFFFFFFFFFFFFFFFFFFFFFFFFFFFFFFFFFFFFFFF
310
F000FFFFFFFFFFFFFFFFFFFFFFFFFFFFFFFFFFFFFFFFFFFFFFFFFFFFFFFFFFFF
310
FFFFFFFFFFFFFFFFFFFFFFFFFFFFFFFFFFFFFFFFFFFFFFFFFFFFFFFFFFFFFFFF
310
FFFFFFFFFFFFFFFFFFFFFFFFFFFFFFFFFFFFFFFFFFFFFFFFF000FFFFFFFFFFFF
310
FFFFFFFFFFFFFFFFFFFFFFFFFFFFFFFFFFFFFFFFFFFFFFFFFFFFFFFFFFFFFFFF
310
FFFFFFFFFFFFFFFFFFFFFFFFFFFFFFFFFFFFFFFFFFFFFFFFFFFFFFFFFFFFFFFF
310
FFFFFFFFFFFFFFFFFFFFFFFFFFFFFFFFF000FFFFFFFFFFFFFFFFFFFFFFFFFFFF
310
FFFFFFFFFFFFFFFFFFFFFFFFFFFFFFFFFFFFFFFFFFFFFFFFFFFFFFFFFFFFFFFF
310
FFFFFFFFFFFFFFFFFFFFFFFFFFFFFFFFFFFFFFFFFFFFFFFFFFFFFFFFFFFFFFFF
310
FFFFFFFFFFFFFFFFF000FFFFFFFFFFFFFFFFFFFFFFFFFFFFFFFFFFFFFFFFFFFF
310
FFFFFFFFFFFFFFFFFFFFFFFFFFFFFFFFFFFFFFFFFFFFFFFFFFFFFFFFFFFFFFFF
310
FFFFFFFFFFFFFFFFFFFFFFFFFFFFFFFFFFFFFFFFFFFFFFFFFFFFFFFFFFFFFFFF
310
F000FFFFFFFFFFFFFFFFFFFFFFFFFFFFFFFFFFFFFFFFFFFFFFFFFFFFFFFFFFFF
310
FFFFFFFFFFFFFFFFFFFFFFFFFFFFFFFFFFFFFFFFFFFFFFFFFFFFFFFFFFFFFFFF
310
FFFFFFFFFFFFFFFFFFFFFFFFFFFFFFFFFFFFFFFFFFFFFFFFF000FFFFFFFFFFFF
310
FFFFFFFFFFFFFFFFFFFFFFFFFFFFFFFFFFFFFFFFFFFFFFFFFFFFFFFFFFFFFFFF
310
FFFFFFFFFFFFFFFFFFFFFFFFFFFFFFFFFFFFFFFFFFFFFFFFFFFFFFFFFFFFFFFF
310
FFFFFFFFFFFFFFFFFFFFFFFFFFFFFFFFF000FFFFFFFFFFFFFFFFFFFFFFFFFFFF
310
FFFFFFFFFFFFFFFFFFFFFFFFFFFFFFFFFFFFFFFFFFFFFFFFFFFFFFFFFFFFFFFF
310
FFFFFFFFFFFFFFFFFFFFFFFFFFFFFFFFFFFFFFFFFFFFFFFFFFFFFFFFFFFFFFFF
310
FFFFFFFFFFFFFFFFF000FFFFFFFFFFFFFFFFFFFFFFFFFFFFFFFFFFFFFFFFFFFF
310
FFFFFFFFFFFFFFFFFFFFFFFFFFFFFFFFFFFFFFFFFFFFFFFFFFFFFFFFFFFFFFFF
310
FFFFFFFFFFFFFFFFFFFFFFFFFFFFFFFFFFFFFFFFFFFFFFFFFFFFFFFFFFFFFFFF
310
F000FFFFFFFFFFFFFFFFFFFFFFFFFFFFFFFFFFFFFFFFFFFFFFFFFFFFFFFFFFFF
310
FFFFFFFFFFFFFFFFFFFFFFFFFFFFFFFFFFFFFFFFFFFFFFFFFFFFFFFFFFFFFFFF
310
FFFFFFFFFFFFFFFFFFFFFFFFFFFFFFFFFFFFFFFFFFFFFFFFF000FFFFFFFFFFFF
310
FFFFFFFFFFFFFFFFFFFFFFFFFFFFFFFFFFFFFFFFFFFFFFFFFFFFFFFFFFFFFFFF
310
FFFFFFFFFFFFFFFFFFFFFFFFFFFFFFFFFFFFFFFFFFFFFFFFFFFFFFFFFFFFFFFF
310
FFFFFFFFFFFFFFFFFFFFFFFFFFFFFFFFF000FFFFFFFFFFFFFFFFFFFFFFFFFFFF
310
FFFFFFFFFFFFFFFFFFFFFFFFFFFFFFFFFFFFFFFFFFFFFFFFFFFFFFFFFFFFFFFF
310
FFFFFFFFFFFFFFFFFFFFFFFFFFFFFFFFFFFFFFFFFFFFFFFFFFFFFFFFFFFFFFFF
310
FFFFFFFFFFFFFFFFF000FFFFFFFFFFFFFFFFFFFFFFFFFFFFFFFFFFFFFFFFFFFF
310
FFFFFFFFFFFFFFFFFFFFFFFFFFFFFFFFFFFFFFFFFFFFFFFFFFFFFFFFFFFFFFFF
310
FFFFFFFFFFFFFFFFFFFFFFFFFFFFFFFFFFFFFFFFFFFFFFFFFFFFFFFFFFFFFFFF
310
F000FFFFFFFFFFFFFFFFFFFFFFFFFFFFFFFFFFFFFFFFFFFFFFFFFFFFFFFFFFFF
310
FFFFFFFFFFFFFFFFFFFFFFFFFFFFFFFFFFFFFFFFFFFFFFFFFFFFFFFFFFFFFFFF
310
FFFFFFFFFFFFFFFFFFFFFFFFFFFFFFFFFFFFFFFFFFFFFFFFF000FFFFFFFFFFFF
310
FFFFFFFFFFFFFFFFFFFFFFFFFFFFFFFFFFFFFFFFFFFFFFFFFFFFFFFFFFFFFFFF
310
FFFFFFFFFFFFFFFFFFFFFFFFFFFFFFFFFFFFFFFFFFFFFFFFFFFFFFFFFFFFFFFF
310
FFFFFFFFFFFFFFFFFFFFFFFFFFFFFFFFF000FFFFFFFFFFFFFFFFFFFFFFFFFFFF
310
FFFFFFFFFFFFFFFFFFFFFFFFFFFFFFFFFFFFFFFFFFFFFFFFFFFFFFFFFFFFFFFF
310
FFFFFFFFFFFFFFFFFFFFFFFFFFFFFFFFFFFFFFFFFFFFFFFFFFFFFFFFFFFFFFFF
310
FFFFFFFFFFFFFFFFF000FFFFF80003FFFFFFFFFFFFFFFFFFFFFFFFFFFFFFFFFF
310
FFFFF00007FFFFFFFFFF00007FFFFFF800000000000000007FFFFFFFFFFFFFFF
310
FFFFFFFC001FFFFFFFFFFFFFFC001FFFFFFFFFFFFFFFFFFFFFFFFFFE0007FFFF
310
F000FFFF8000007FFFFFFFF8000FFFFFC0007FFFFF80007FFFFF0000007FFFFF
310
FFF8000007FFFFF800000000000000007FFFFFF0001FFFFFFFFFFFC00001FFFF
310
FFFFFFFFC00001FFFFFFFF000000000003FFFFE000007FFFF000FFFE0000000F
310
FFFFFFF0000FFFFF80007FFFFF80007FFFFC0000001FFFFFFFC0000001FFFFF8
310
00000000000000007FFFFFF0001FFFFFFFFFFE0000003FFFFFFFFFFE0000003F
310
FFFFFF000000000003FFFF0000000FFFF000FFF800000003FFFFFFF00007FFFF
310
80007FFFFF80007FFFF000000007FFFFFF000000003FFFF80000000000000000
310
7FFFFFF0001FFFFFFFFFF80000000FFFFFFFFFF80000000FFFFFFF0000000000
310
03FFFC00000003FFF000FFE000000000FFFFFFF00007FFFF80003FFFFF80007F
310
FFC000000001FFFFFC000000001FFFF800000000000000007FFFFFF0001FFFFF
310
FFFFE000000003FFFFFFFFE000000003FFFFFF000000000003FFF000000000FF
310
F000FF80000000007FFFFFF00007FFFF80003FFFFF80007FFF8000000000FFFF
310
F80000000007FFF800000000000000007FFFFFF0001FFFFFFFFFC000000001FF
310
FFFFFFC000000001FFFFFF000000000003FFC0000000007FF000FF0000000000
310
3FFFFFE00007FFFF00003FFFFF80007FFE00000000003FFFF00000000003FFF8
310
00000000000000007FFFFFF0001FFFFFFFFF8000000000FFFFFFFF8000000000
310
FFFFFF000000000003FF80000000003FF000FE00000000001FFFFFE00003FFFF
310
00003FFFFF80007FFC00000000001FFFE00000000001FFF8000001FFFE000000
310
7FFFFFF0001FFFFFFFFE00000000003FFFFFFE00000000003FFFFF0000000000
310
03FF00000000001FF000FC00000000000FFFFFE00003FFFF00001FFFFF80007F
310
F800000000001FFFC00000000000FFF8000001FFFE0000007FFFFFF0001FFFFF
310
FFFC00000000001FFFFFFC00000000001FFFFF000000000003FE00000000000F
310
F000F8000000000007FFFFE00003FFFF00001FFFFF80007FF800000000000FFF
310
800000000000FFF8000001FFFE0000007FFFFFF0001FFFFFFFF800000000000F
310
FFFFF800000000000FFFFF000000000003FC000000000007F000F80000000000
310
03FFFFC00003FFFE00001FFFFF80007FF0000000000007FF0000000000007FF8
310
000001FFFE0000007FFFFFF0001FFFFFFFF0000000000007FFFFF00000000000
310
07FFFF000000000003F8000000000003F000F0000000000003FFFFC00001FFFE
310
00001FFFFF80007FE0000000000007FE0000000000003FF8000001FFFE000000
310
7FFFFFF0001FFFFFFFF0000000000007FFFFF0000000000007FFFF0000000000
310
03F800001F800003F000E00001FFF00001FFFFC00001FFFE00000FFFFF80007F
310
E00001FFE00003FE00001FFF00003FF8000001FFFE0000007FFFFFF0001FFFFF
310
FFE000003E000003FFFFE000003E000003FFFF000000000003F00001FFF80001
310
F000E00007FFFC0001FFFFC00001FFFE00000FFFFF80007FC0000FFFFC0003FC
310
0000FFFFC0001FF8000001FFFE0000007FFFFFF0001FFFFFFFC00003FFE00001
310
FFFFC00003FFE00001FFFF0001FFFFFFFFF00007FFFE0001F000E0000FFFFF00
310
00FFFF800001FFFC00000FFFFF80007FC0001FFFFE0001FC0001FFFFE0001FF8
310
000001FFFE0000007FFFFFF0001FFFFFFF80000FFFF80000FFFF80000FFFF800
310
00FFFF0003FFFFFFFFE0000FFFFF8000F000C0003FFFFF8000FFFF800000FFFC
310
000007FFFF80007F80003FFFFF0001FC0003FFFFF0001FF8000001FFFE000000
310
7FFFFFF0001FFFFFFF80003FFFFE0000FFFF80003FFFFE0000FFFF0003FFFFFF
310
FFE0003FFFFF8000F000C0003FFFFF8000FFFF800000FFFC000007FFFF80007F
310
80007FFFFF8001F80007FFFFF8000FF8000001FFFE0000007FFFFFF0001FFFFF
310
FF00007FFFFF00007FFF00007FFFFF00007FFF0003FFFFFFFFE0003FFFFFC000
310
F000C0007FFFFFC000FFFF000000FFFC000007FFFF80007F8000FFFFFF8000F8
310
000FFFFFF8000FF8000001FFFE0000007FFFFFF0001FFFFFFF0000FFFFFF8000
310
7FFF0000FFFFFF80007FFF0003FFFFFFFFC0007FFFFFC00070008000FFFFFFC0
310
00FFFF000000FFF8000007FFFF80007F8000FFFFFF8000F8000FFFFFF8000FF8
310
000001FFFE0000007FFFFFF0001FFFFFFE0001FFFFFFC0003FFE0001FFFFFFC0
310
003FFF0003FFFFFFFFC0007FFFFFE00070008000FFFFFFC0007FFF0000007FF8
310
000003FFFF80007F0001FFFFFF8000F8000FFFFFF8000FF8000001FFFE000000
310
7FFFFFF0001FFFFFFE0001FFFFFFC0003FFE0001FFFFFFC0003FFF0003FFFFFF
310
FFC000FFFFFFE00070008000FFFFFFC0007FFF0000007FF8000003FFFF80007F
310
0001FFFFFF8000F8001FFFFFF8000FF8000001FFFE0000007FFFFFF0001FFFFF
310
FE0003FFFFFFE0003FFE0003FFFFFFE0003FFF0003FFFFFFFFC000FFFFFFE000
310
70008000FFFFFFC0007FFE0000007FF8000003FFFF80007F0001FFFFFF8000F0
310
001FFFFFF8000FF8000001FFFE0000007FFFFFF0001FFFFFFC0003FFFFFFE000
310
1FFC0003FFFFFFE0001FFF0003FFFFFFFFC000FFFFFFC00070008000FFFFFF80
310
007FFE0000007FF0000003FFFF80007F0001FFFFFF0000F0001FFFFFF8000FF8
310
000001FFFE0000007FFFFFF0001FFFFFFC0007FFFFFFF0001FFC0007FFFFFFF0
310
001FFF0003FFFFFFFFC000FFFFFFC00070008001FFFFFF0000FFFE0000003FF0
310
000001FFFF80007F0001FFFFFF0000F8001FFFFFF0000FF8000001FFFE000000
310
7FFFFFF0001FFFFFFC0007FFFFFFF0001FFC0007FFFFFFF0001FFF0003FFFFFF
310
FFC001FFFFFF80007000FFFFFFFFFE0000FFFE0008003FF0008001FFFF80007F
310
FFFFFFFFFC0000FFFFFFFFFFE0000FF8000001FFFE0000007FFFFFF0001FFFFF
310
F8000FFFFFFFF8000FF8000FFFFFFFF8000FFF0003FFFFFFFFFFFFFFFFFF0000
310
7000FFFFFFFFFC0000FFFC0008003FF0008001FFFF80007FFFFFFFFFF80001FF
310
FFFFFFFF80000FF8000001FFFE0000007FFFFFF0001FFFFFF8000FFFFFFFF800
310
0FF8000FFFFFFFF8000FFF0003FFFFFFFFFFFFFFFFFE0000F000FFFFFFFFE000
310
00FFFC000C003FE000C001FFFF80007FFFFFFFFFC00001FFFFFFFFFE00001FF8
310
000001FFFE0000007FFFFFF0001FFFFFF8000FFFFFFFF8000FF8000FFFFFFFF8
310
000FFF0003FFFFFFFFFFFFFFFFF00000F000FFFFFFFE000001FFFC000C001FE0
310
00C000FFFF80007FFFFFFFFE000001FFFFFFFFE000001FF80FFFFFFFFFFFFFC0
310
7FFFFFF0001FFFFFF8000FFFFFFFF8000FF8000FFFFFFFF8000FFF0003FFFFFF
310
FFFFFFFFFF800000F000FFFFFFC0000001FFFC001C001FE001C000FFFF80007F
310
FFFFFF80000003FFFFFFF80000001FF80FFFFFFFFFFFFFC07FFFFFF0001FFFFF
310
F8001FFFFFFFFC000FF8001FFFFFFFFC000FFF0003FFFFFFFFFFFFFFF0000001
310
F000FFFFF800000001FFF8001C001FE001C000FFFF80007FFFFFF800000003FF
310
FFFF800000003FF80FFFFFFFFFFFFFC07FFFFFF0001FFFFFF8001FFFFFFFFC00
310
0FF8001FFFFFFFFC000FFF0003FFFFFFFFFFFFFE00000001F000FFFFC0000000
310
03FFF8001E001FC001E000FFFF80007FFFFF8000000007FFFFFC000000003FF8
310
0FFFFFFFFFFFFFC07FFFFFF0001FFFFFF8001FFFFFFFFC000FF8001FFFFFFFFC
310
000FFF0003FFFFFFFFFFFFE000000003F000FFFE0000000007FFF8001E000FC0
310
01E0007FFF80007FFFFE0000000007FFFFE0000000007FF80FFFFFFFFFFFFFC0
310
7FFFFFF0001FFFFFF0001FFFFFFFFC0007F0001FFFFFFFFC0007FF0003FFFFFF
310
FFFFFF0000000003F000FFF80000000007FFF8001E000FC003E0007FFF80007F
310
FFF0000000000FFFFF8000000000FFF80FFFFFFFFFFFFFC07FFFFFF0001FFFFF
310
F0001FFFFFFFFC0007F0001FFFFFFFFC0007FF0003FFFFFFFFFFFC0000000007
310
F000FFE0000000000FFFF0003E000FC003E0007FFF80007FFFC0000000001FFF
310
FE0000000001FFF80FFFFFFFFFFFFFC07FFFFFF0001FFFFFF0001FFFFFFFFC00
310
07F0001FFFFFFFFC0007FF0003FFFFFFFFFFF0000000000FF000FFC000000000
310
1FFFF0003F000F8003F0003FFF80007FFF80000000003FFFF80000000003FFF8
310
0FFFFFFFFFFFFFC07FFFFFF0001FFFFFF0001FFFFFFFFC0007F0001FFFFFFFFC
310
0007FF0003FFFFFFFFFFE0000000001FF000FF00000000007FFFF0003F000780
310
03F0003FFF80007FFF00000000007FFFF00000000007FFF80FFFFFFFFFFFFFC0
310
7FFFFFF0001FFFFFF0001FFFFFFFFC0007F0001FFFFFFFFC0007FF0003FFFFFF
310
FFFF80000000007FF000FE0000000000FFFFE0003F00078007F0003FFF80007F
310
FE0000000001FFFFE0000000001FFFF80FFFFFFFFFFFFFC07FFFFFF0001FFFFF
310
F0001FFFFFFFFC0007F0001FFFFFFFFC0007FF0003FFFFFFFFFF0000000000FF
310
F000FC0000000003FFFFE0007F00078007F0003FFF80007FFC0000000007FFFF
310
C0000000007FFFF80FFFFFFFFFFFFFC07FFFFFF0001FFFFFF8001FFFFFFFFC00
310
0FF8001FFFFFFFFC000FFF0003FFFFFFFFFE0000000003FFF000FC000000000F
310
FFFFE0007F80070007F8001FFF80007FF8000000001FFFFF8000000001FFFFF8
310
0FFFFFFFFFFFFFC07FFFFFF0001FFFFFF8001FFFFFFFFC000FF8001FFFFFFFFC
310
000FFF0003FFFFFFFFFC000000000FFFF000F8000000007FFFFFE0007F800700
310
07F8001FFF80007FF000000000FFFFFF800000000FFFFFF80FFFFFFFFFFFFFC0
310
7FFFFFF0001FFFFFF8000FFFFFFFF8000FF8000FFFFFFFF8000FFF0003FFFFFF
310
FFFC000000007FFFF000F800000007FFFFFFC0007F8003000FF8001FFF80007F
310
F000000007FFFFFF000000007FFFFFF80FFFFFFFFFFFFFC07FFFFFF0001FFFFF
310
F8000FFFFFFFF8000FF8000FFFFFFFF8000FFF0003FFFFFFFFF80000000FFFFF
310
F000F0000000FFFFFFFFC000FF8003000FF8001FFF80007FE0000000FFFFFFFF
310
0000000FFFFFFFF8000001FFFE0000007FFFFFF0001FFFFFF8000FFFFFFFF800
310
0FF8000FFFFFFFF8000FFF0003FFFFFFFFF8000000FFFFFFF000F000000FFFFF
310
FFFFC000FFC002000FF8000FFF80007FE000001FFFFFFFFE000001FFFFFFFFF8
310
000001FFFE0000007FFFFFF0001FFFFFF8000FFFFFFFF8000FF8000FFFFFFFF8
310
000FFF0003FFFFFFFFF000001FFFFFFFF000E00000FFFFFFFFFFC000FFC00200
310
0FFC000FFF80007FE00001FFFFFFFFFE00001FFFFFFFFFF8000001FFFE000000
310
7FFFFFF0001FFFFFFC000FFFFFFFF8001FFC000FFFFFFFF8001FFF0003FFFFFF
310
FFF00001FFFFFFFFF000E00007FFFFFFFFFF8000FFC000001FFC000FFF80007F
310
C0000FFFFFFFFFFE0000FFFFFFFFFFF8000001FFFE0000007FFFFFF0001FFFFF
310
FC0007FFFFFFF0001FFC0007FFFFFFF0001FFF0003FFFFFFFFF00007FFFFFFFF
310
F000E0001FFFFFFFFFFF8000FFC000001FFC000FFF80007FC0003FFFFFFFFFFE
310
0001FFFFFFFFFFF8000001FFFE0000007FFFFFF0001FFFFFFC0007FFFFFFF000
310
1FFC0007FFFFFFF0001FFF0003FFFFFFFFF0001FFFFFFFFFF000E0003FFFFF00
310
03FF8001FFE000001FFC0007FF80007FC0007FFFFF0007FC0003FFFFF0003FF8
310
000001FFFE0000007FFFFFF0001FFFFFFC0003FFFFFFE0001FFC0003FFFFFFE0
310
001FFF0003FFFFFFFFF0003FFFFFFFFFF000E0003FFFFF0001FF8001FFE00000
310
1FFE0007FF80007FC0007FFFFE0003FC0007FFFFE0003FF8000001FFFE000000
310
7FFFFFF0001FFFFFFE0003FFFFFFE0003FFE0003FFFFFFE0003FFF0003FFFFFF
310
FFF0003FFFFF8001F000E0003FFFFF0001FF0001FFE000001FFE0007FF80007F
310
C0007FFFFE0003FC0007FFFFE0003FF8000001FFFE0000007FFFFFF0001FFFFF
310
FE0001FFFFFFC0003FFE0001FFFFFFC0003FFF0003FFFFFFFFF0003FFFFF0001
310
F000E0003FFFFF0003FF0001FFE000003FFE0007FF80007FC0007FFFFE0003FC
310
0007FFFFE0003FF8000001FFFE0000007FFFFFF0001FFFFFFF0001FFFFFFC000
310
7FFF0001FFFFFFC0007FFF0003FFFFFFFFF0003FFFFF0001F000E0003FFFFE00
310
03FF0003FFF000003FFE0003FF80007FC0007FFFFC0003FE0007FFFFE0003FF8
310
000001FFFE0000007FFFFFF0001FFFFFFF0000FFFFFF80007FFF0000FFFFFF80
310
007FFF0003FFFFFFFFF0003FFFFF0001F000E0003FFFFE0003FF0003FFF00000
310
3FFF0003FF80007FC0007FFFFC0007FE0007FFFFC0003FF8000001FFFE000000
310
7FFFFFF0001FFFFFFF80007FFFFF0000FFFF80007FFFFF0000FFFF0003FFFFFF
310
FFF0003FFFFF0003F000E0003FFFFC0003FE0003FFF000003FFF0003FF80007F
310
E0003FFFF80007FE0003FFFFC0007FF8000001FFFE0000007FFFFFF0001FFFFF
310
FF80003FFFFE0000FFFF80003FFFFE0000FFFF0003FFFFFFFFF0001FFFFE0003
310
F000F0001FFFF80003FE0003FFF000007FFF0001FF80007FE0003FFFF00007FE
310
0001FFFF80007FF8000001FFFE0000007FFFFFF0001FFFFFFFC0000FFFF80001
310
FFFFC0000FFFF80001FFFF0003FFFFFFFFF0001FFFFC0003F000F0000FFFF000
310
07FE0007FFF800007FFF0001FF80007FE0001FFFE00007FF0000FFFE00007FF8
310
000001FFFE0000007FFFFFF0001FFFFFFFC00003FFE00001FFFFC00003FFE000
310
01FFFF0003FFFFFFFFF8000FFFF80003F000F00003FFC00007FC0007FFF80000
310
7FFF8001FF80007FF00007FF80000FFF00007FF80000FFF8000001FFFE000000
310
7F80000000000001FFE000003E000003FFFFE000003E000003FFFF0003FFFFFF
310
FFF80003FFE00007F000F800000000000FFC0007FFF800007FFF8001FF80007F
310
F000000000000FFF000000000000FFF8000001FFFE0000007F80000000000001
310
FFF0000000000007FFFFF0000000000007FFFF0003FFFFFFFFFC00007E000007
310
F000F800000000000FFC0007FFF80000FFFF8000FF80007FF800000000001FFF
310
800000000001FFF8000001FFFE0000007F80000000000001FFF800000000000F
310
FFFFF800000000000FFFFF0003FFFFFFFFFC00000000000FF000FC0000000000
310
1FFC0007FFFC0000FFFF8000FF80007FF800000000003FFFC00000000001FFF8
310
000001FFFE0000007F80000000000001FFF800000000000FFFFFF80000000000
310
0FFFFF0003FFFFFFFFFE00000000001FF000FE00000000003FF8000FFFFC0000
310
FFFF8000FF80007FFC00000000003FFFC00000000003FFF8000001FFFE000000
310
7F80000000000001FFFC00000000001FFFFFFC00000000001FFFFF0003FFFFFF
310
FFFF00000000001FF000FF00000000003FF8000FFFFC0000FFFFC000FF80007F
310
FE00000000007FFFE00000000007FFF8000001FFFE0000007F80000000000001
310
FFFE00000000003FFFFFFE00000000003FFFFF0003FFFFFFFFFF80000000003F
310
F000FF80000000007FF8000FFFFC0001FFFFC0007F80007FFF0000000000FFFF
310
F0000000000FFFF800000000000000007F80000000000001FFFF8000000000FF
310
FFFFFF8000000000FFFFFF0003FFFFFFFFFFC0000000007FF000FFC000000000
310
FFF8000FFFFE0001FFFFC0007F80007FFF8000000001FFFFF8000000001FFFF8
310
00000000000000007F80000000000001FFFFC000000001FFFFFFFFC000000001
310
FFFFFF0003FFFFFFFFFFE000000000FFF000FFE000000003FFF0001FFFFE0001
310
FFFFC0007F80007FFFC000000007FFFFFE000000003FFFF80000000000000000
310
7F80000000000001FFFFE000000003FFFFFFFFE000000003FFFFFF0003FFFFFF
310
FFFFF000000003FFF000FFF80000000FFFF0001FFFFE0001FFFFE0007F80007F
310
FFF00000000FFFFFFF00000000FFFFF800000000000000007F80000000000001
310
FFFFF80000000FFFFFFFFFF80000000FFFFFFF0003FFFFFFFFFFFC0000000FFF
310
F000FFFE0000003FFFF0001FFFFE0003FFFFE0003F80007FFFFC0000003FFFFF
310
FFC0000003FFFFF800000000000000007F80000000000001FFFFFE0000003FFF
310
FFFFFFFE0000003FFFFFFF0003FFFFFFFFFFFF0000003FFFF000FFFF800000FF
310
FFF0001FFFFF0003FFFFE0003F80007FFFFF000001FFFFFFFFF800001FFFFFF8
310
00000000000000007F80000000000001FFFFFFC00001FFFFFFFFFFFFC00001FF
310
FFFFFF0003FFFFFFFFFFFFC00000FFFFF000FFFFF8000FFFFFFFFFFFFFFFFFFF
310
FFFFFFFFFFFFFFFFFFFFF0001FFFFFFFFFFF0000FFFFFFF80000000000000000
310
7FFFFFFFFFFFFFFFFFFFFFFC001FFFFFFFFFFFFFFC001FFFFFFFFFFFFFFFFFFF
310
FFFFFFFC001FFFFFF000FFFFFFFFFFFFFFFFFFFFFFFFFFFFFFFFFFFFFFFFFFFF
310
FFFFFFFFFFFFFFFFFFFFFFFFFFFFFFFFFFFFFFFFFFFFFFFFFFFFFFFFFFFFFFFF
310
FFFFFFFFFFFFFFFFFFFFFFFFFFFFFFFFFFFFFFFFFFFFFFFFFFFFFFFFFFFFFFFF
310
F000FFFFFFFFFFFFFFFFFFFFFFFFFFFFFFFFFFFFFFFFFFFFFFFFFFFFFFFFFFFF
310
FFFFFFFFFFFFFFFFFFFFFFFFFFFFFFFFFFFFFFFFFFFFFFFFFFFFFFFFFFFFFFFF
310
FFFFFFFFFFFFFFFFFFFFFFFFFFFFFFFFFFFFFFFFFFFFFFFFF000FFFFFFFFFFFF
310
FFFFFFFFFFFFFFFFFFFFFFFFFFFFFFFFFFFFFFFFFFFFFFFFFFFFFFFFFFFFFFFF
310
FFFFFFFFFFFFFFFFFFFFFFFFFFFFFFFFFFFFFFFFFFFFFFFFFFFFFFFFFFFFFFFF
310
FFFFFFFFFFFFFFFFFFFFFFFFFFFFFFFFF000FFFFFFFFFFFFFFFFFFFFFFFFFFFF
310
FFFFFFFFFFFFFFFFFFFFFFFFFFFFFFFFFFFFFFFFFFFFFFFFFFFFFFFFFFFFFFFF
310
FFFFFFFFFFFFFFFFFFFFFFFFFFFFFFFFFFFFFFFFFFFFFFFFFFFFFFFFFFFFFFFF
310
FFFFFFFFFFFFFFFFF000FFFFFFFFFFFFFFFFFFFFFFFFFFFFFFFFFFFFFFFFFFFF
310
FFFFFFFFFFFFFFFFFFFFFFFFFFFFFFFFFFFFFFFFFFFFFFFFFFFFFFFFFFFFFFFF
310
FFFFFFFFFFFFFFFFFFFFFFFFFFFFFFFFFFFFFFFFFFFFFFFFFFFFFFFFFFFFFFFF
310
F000FFFFFFFFFFFFFFFFFFFFFFFFFFFFFFFFFFFFFFFFFFFFFFFFFFFFFFFFFFFF
310
FFFFFFFFFFFFFFFFFFFFFFFFFFFFFFFFFFFFFFFFFFFFFFFFFFFFFFFFFFFFFFFF
310
FFFFFFFFFFFFFFFFFFFFFFFFFFFFFFFFFFFFFFFFFFFFFFFFF000FFFFFFFFFFFF
310
FFFFFFFFFFFFFFFFFFFFFFFFFFFFFFFFFFFFFFFFFFFFFFFFFFFFFFFFFFFFFFFF
310
FFFFFFFFFFFFFFFFFFFFFFFFFFFFFFFFFFFFFFFFFFFFFFFFFFFFFFFFFFFFFFFF
310
FFFFFFFFFFFFFFFFFFFFFFFFFFFFFFFFF000FFFFFFFFFFFFFFFFFFFFFFFFFFFF
310
FFFFFFFFFFFFFFFFFFFFFFFFFFFFFFFFFFFFFFFFFFFFFFFFFFFFFFFFFFFFFFFF
310
FFFFFFFFFFFFFFFFFFFFFFFFFFFFFFFFFFFFFFFFFFFFFFFFFFFFFFFFFFFFFFFF
310
FFFFFFFFFFFFFFFFF000FFFFFFFFFFFFFFFFFFFFFFFFFFFFFFFFFFFFFFFFFFFF
310
FFFFFFFFFFFFFFFFFFFFFFFFFFFFFFFFFFFFFFFFFFFFFFFFFFFFFFFFFFFFFFFF
310
FFFFFFFFFFFFFFFFFFFFFFFFFFFFFFFFFFFFFFFFFFFFFFFFFFFFFFFFFFFFFFFF
310
F000FFFFFFFFFFFFFFFFFFFFFFFFFFFFFFFFFFFFFFFFFFFFFFFFFFFFFFFFFFFF
310
FFFFFFFFFFFFFFFFFFFFFFFFFFFFFFFFFFFFFFFFFFFFFFFFFFFFFFFFFFFFFFFF
310
FFFFFFFFFFFFFFFFFFFFFFFFFFFFFFFFFFFFFFFFFFFFFFFFF000FFFFFFFFFFFF
310
FFFFFFFFFFFFFFFFFFFFFFFFFFFFFFFFFFFFFFFFFFFFFFFFFFFFFFFFFFFFFFFF
310
FFFFFFFFFFFFFFFFFFFFFFFFFFFFFFFFFFFFFFFFFFFFFFFFFFFFFFFFFFFFFFFF
310
FFFFFFFFFFFFFFFFFFFFFFFFFFFFFFFFF000FFFFFFFFFFFFFFFFFFFFFFFFFFFF
310
FFFFFFFFFFFFFFFFFFFFFFFFFFFFFFFFFFFFFFFFFFFFFFFFFFFFFFFFFFFFFFFF
310
FFFFFFFFFFFFFFFFFFFFFFFFFFFFFFFFFFFFFFFFFFFFFFFFFFFFFFFFFFFFFFFF
310
FFFFFFFFFFFFFFFFF000FFFFFFFFFFFFFFFFFFFFFFFFFFFFFFFFFFFFFFFFFFFF
310
FFFFFFFFFFFFFFFFFFFFFFFFFFFFFFFFFFFFFFFFFFFFFFFFFFFFFFFFFFFFFFFF
310
FFFFFFFFFFFFFFFFFFFFFFFFFFFFFFFFFFFFFFFFFFFFFFFFFFFFFFFFFFFFFFFF
310
F000FFFFFFFFFFFFFFFFFFFFFFFFFFFFFFFFFFFFFFFFFFFFFFFFFFFFFFFFFFFF
310
FFFFFFFFFFFFFFFFFFFFFFFFFFFFFFFFFFFFFFFFFFFFFFFFFFFFFFFFFFFFFFFF
310
FFFFFFFFFFFFFFFFFFFFFFFFFFFFFFFFFFFFFFFFFFFFFFFFF000FFFFFFFFFFFF
310
FFFFFFFFFFFFFFFFFFFFFFFFFFFFFFFFFFFFFFFFFFFFFFFFFFFFFFFFFFFFFFFF
310
FFFFFFFFFFFFFFFFFFFFFFFFFFFFFFFFFFFFFFFFFFFFFFFFFFFFFFFFFFFFFFFF
310
FFFFFFFFFFFFFFFFFFFFFFFFFFFFFFFFF000FFFFFFFFFFFFFFFFFFFFFFFFFFFF
310
FFFFFFFFFFFFFFFFFFFFFFFFFFFFFFFFFFFFFFFFFFFFFFFFFFFFFFFFFFFFFFFF
310
FFFFFFFFFFFFFFFFFFFFFFFFFFFFFFFFFFFFFFFFFFFFFFFFFFFFFFFFFFFFFFFF
310
FFFFFFFFFFFFFFFFF000FFFFFFFFFFFFFFFFFFFFFFFFFFFFFFFFFFFFFFFFFFFF
310
FFFFFFFFFFFFFFFFFFFFFFFFFFFFFFFFFFFFFFFFFFFFFFFFFFFFFFFFFFFFFFFF
310
FFFFFFFFFFFFFFFFFFFFFFFFFFFFFFFFFFFFFFFFFFFFFFFFFFFFFFFFFFFFFFFF
310
F000FFFFFFFFFFFFFFFFFFFFFFFFFFFFFFFFFFFFFFFFFFFFFFFFFFFFFFFFFFFF
310
FFFFFFFFFFFFFFFFFFFFFFFFFFFFFFFFFFFFFFFFFFFFFFFFFFFFFFFFFFFFFFFF
310
FFFFFFFFFFFFFFFFFFFFFFFFFFFFFFFFFFFFFFFFFFFFFFFFF000FFFFFFFFFFFF
310
FFFFFFFFFFFFFFFFFFFFFFFFFFFFFFFFFFFFFFFFFFFFFFFFFFFFFFFFFFFFFFFF
310
FFFFFFFFFFFFFFFFFFFFFFFFFFFFFFFFFFFFFFFFFFFFFFFFFFFFFFFFFFFFFFFF
310
FFFFFFFFFFFFFFFFFFFFFFFFFFFFFFFFF000FFFFFFFFFFFFFFFFFFFFFFFFFFFF
310
FFFFFFFFFFFFFFFFFFFFFFFFFFFFFFFFFFFFFFFFFFFFFFFFFFFFFFFFFFFFFFFF
310
FFFFFFFFFFFFFFFFFFFFFFFFFFFFFFFFFFFFFFFFFFFFFFFFFFFFFFFFFFFFFFFF
310
FFFFFFFFFFFFFFFFF000FFFFFFFFFFFFFFFFFFFFFFFFFFFFFFFFFFFFFFFFFFFF
310
FFFFFFFFFFFFFFFFFFFFFFFFFFFFFFFFFFFFFFFFFFFFFFFFFFFFFFFFFFFFFFFF
310
FFFFFFFFFFFFFFFFFFFFFFFFFFFFFFFFFFFFFFFFFFFFFFFFFFFFFFFFFFFFFFFF
310
F000FFFFFFFFFFFFFFFFFFFFFFFFFFFFFFFFFFFFFFFFFFFFFFFFFFFFFFFFFFFF
310
FFFFFFFFFFFFFFFFFFFFFFFFFFFFFFFFFFFFFFFFFFFFFFFFFFFFFFFFFFFFFFFF
310
FFFFFFFFFFFFFFFFFFFFFFFFFFFFFFFFFFFFFFFFFFFFFFFFF000FFFFFFFFFFFF
310
FFFFFFFFFFFFFFFFFFFFFFFFFFFFFFFFFFFFFFFFFFFFFFFFFFFFFFFFFFFFFFFF
310
FFFFFFFFFFFFFFFFFFFFFFFFFFFFFFFFFFFFFFFFFFFFFFFFFFFFFFFFFFFFFFFF
310
FFFFFFFFFFFFFFFFFFFFFFFFFFFFFFFFF0000000000000000000000000000000
310
00000000000000000000000042006C00610063006B0000000000000000000000
310
0000000000000000000000000000000000000000000000000000000000000000
310
0000000000000000000000000000FFFFFFFFFFFFFFFFFFFFFFFFFFFFFFFFFFFF
310
FFFFFFFFFFFFFFFFFFFFFFFFFFFFFFFFFFFFFFFFFFFFFFFFFFFFFFFFFFFFFFFF
310
FFFFFFFFFFFFFFFFFFFFFFFF6476000800000000FFFFFFFF20FF202026000000
310
1E00000008000000060000000000000011000000200000008403000000000000
310
6000000060000000200002FB200020000000002B00FFFFFF40002200E8030000
310
A80400001C020000AF0000804A20004000000000000000000100000000000000
310
616C000800000000E40100007001000002000000270000001100000000000000
310
00000000BC0200000000000003020122420065006C006C00200047006F007400
310
680069006300200053007400640020004C006900670068007400000000000000
310
00000000000000000000000000000000420065006C006C0047006F0074006800
310
690063005300740064002D0042006F006C006400000000000000000000000000
310
0000000000000000000000000000000000000000000000000000000000000000
310
0000000000000000000000000000000000000000000000000000000000000000
  1
OLE
  0
ENDSEC
  0
SECTION
  2
OBJECTS
  0
DICTIONARY
  5
C
330
0
100
AcDbDictionary
281
     1
  3
ACAD_GROUP
350
D
  3
ACAD_LAYOUT
350
1A
  3
ACAD_MLEADERSTYLE
350
2D3
  3
ACAD_MLINESTYLE
350
17
  3
ACAD_PLOTSETTINGS
350
19
  3
ACAD_PLOTSTYLENAME
350
E
  3
ACAD_TABLESTYLE
350
2D2
  3
ACAD_VISUALSTYLE
350
2A
  3
AcDbVariableDictionary
350
2D4
  0
DICTIONARY
  5
D
102
{ACAD_REACTORS
330
C
102
}
330
C
100
AcDbDictionary
281
     1
  0
DICTIONARY
  5
1A
102
{ACAD_REACTORS
330
C
102
}
330
C
100
AcDbDictionary
281
     1
  3
Layout1
350
1E
  3
Layout2
350
26
  3
Model
350
22
  0
DICTIONARY
  5
2D3
102
{ACAD_REACTORS
330
C
102
}
330
C
100
AcDbDictionary
281
     1
  0
DICTIONARY
  5
17
102
{ACAD_REACTORS
330
C
102
}
330
C
100
AcDbDictionary
281
     1
  3
Standard
350
18
  0
DICTIONARY
  5
19
102
{ACAD_REACTORS
330
C
102
}
330
C
100
AcDbDictionary
281
     1
  0
ACDBDICTIONARYWDFLT
  5
E
102
{ACAD_REACTORS
330
C
102
}
330
C
100
AcDbDictionary
281
     1
  3
Normal
350
F
100
AcDbDictionaryWithDefault
340
F
  0
DICTIONARY
  5
2D2
102
{ACAD_REACTORS
330
C
102
}
330
C
100
AcDbDictionary
281
     1
  0
DICTIONARY
  5
2A
102
{ACAD_REACTORS
330
C
102
}
330
C
100
AcDbDictionary
281
     1
  3
2dWireframe
350
2F
  3
3D Hidden
350
31
  3
3dWireframe
350
30
  3
Basic
350
32
  3
Brighten
350
36
  3
ColorChange
350
3A
  3
Conceptual
350
34
  3
Dim
350
35
  3
Facepattern
350
39
  3
Flat
350
2B
  3
FlatWithEdges
350
2C
  3
Gouraud
350
2D
  3
GouraudWithEdges
350
2E
  3
Linepattern
350
38
  3
Realistic
350
33
  3
Thicken
350
37
  0
DICTIONARY
  5
2D4
102
{ACAD_REACTORS
330
C
102
}
330
C
100
AcDbDictionary
281
     1
  3
PSOLHEIGHT
350
2D6
  3
PSOLWIDTH
350
2D5
  0
LAYOUT
  5
1E
102
{ACAD_REACTORS
330
1A
102
}
330
1A
100
AcDbPlotSettings
  1

  2
none_device
  4

  6

 40
0.0
 41
0.0
 42
0.0
 43
0.0
 44
0.0
 45
0.0
 46
0.0
 47
0.0
 48
0.0
 49
0.0
140
0.0
141
0.0
142
1.0
143
1.0
 70
   688
 72
     0
 73
     0
 74
     5
  7

 75
    16
147
1.0
148
0.0
149
0.0
100
AcDbLayout
  1
Layout1
 70
     1
 71
     1
 10
0.0
 20
0.0
 11
420.0
 21
297.0
 12
0.0
 22
0.0
 32
0.0
 14
1.0000000000E+20
 24
1.0000000000E+20
 34
1.0000000000E+20
 15
-1.0000000000E+20
 25
-1.0000000000E+20
 35
-1.0000000000E+20
146
0.0
 13
0.0
 23
0.0
 33
0.0
 16
1.0
 26
0.0
 36
0.0
 17
0.0
 27
1.0
 37
0.0
 76
     0
330
1B
  0
LAYOUT
  5
26
102
{ACAD_REACTORS
330
1A
102
}
330
1A
100
AcDbPlotSettings
  1

  2
none_device
  4

  6

 40
0.0
 41
0.0
 42
0.0
 43
0.0
 44
0.0
 45
0.0
 46
0.0
 47
0.0
 48
0.0
 49
0.0
140
0.0
141
0.0
142
1.0
143
1.0
 70
   688
 72
     0
 73
     0
 74
     5
  7

 75
    16
147
1.0
148
0.0
149
0.0
100
AcDbLayout
  1
Layout2
 70
     1
 71
     2
 10
0.0
 20
0.0
 11
0.0
 21
0.0
 12
0.0
 22
0.0
 32
0.0
 14
0.0
 24
0.0
 34
0.0
 15
0.0
 25
0.0
 35
0.0
146
0.0
 13
0.0
 23
0.0
 33
0.0
 16
1.0
 26
0.0
 36
0.0
 17
0.0
 27
1.0
 37
0.0
 76
     0
330
23
  0
LAYOUT
  5
22
102
{ACAD_REACTORS
330
1A
102
}
330
1A
100
AcDbPlotSettings
  1

  2
none_device
  4

  6

 40
0.0
 41
0.0
 42
0.0
 43
0.0
 44
0.0
 45
0.0
 46
0.0
 47
0.0
 48
0.0
 49
0.0
140
0.0
141
0.0
142
1.0
143
1.0
 70
  1712
 72
     0
 73
     0
 74
     0
  7

 75
     0
147
1.0
148
0.0
149
0.0
100
AcDbLayout
  1
Model
 70
     1
 71
     0
 10
0.0
 20
0.0
 11
297.0
 21
210.0
 12
0.0
 22
0.0
 32
0.0
 14
0.0
 24
0.0
 34
0.0
 15
297.0
 25
210.0
 35
0.0
146
0.0
 13
0.0
 23
0.0
 33
0.0
 16
1.0
 26
0.0
 36
0.0
 17
0.0
 27
1.0
 37
0.0
 76
     0
330
1F
331
29
  0
MLINESTYLE
  5
18
102
{ACAD_REACTORS
330
17
102
}
330
17
100
AcDbMlineStyle
  2
Standard
 70
     0
  3

 62
   256
 51
90.0
 52
90.0
 71
     2
 49
0.5
 62
   256
  6
BYLAYER
 49
-0.5
 62
   256
  6
BYLAYER
  0
ACDBPLACEHOLDER
  5
F
102
{ACAD_REACTORS
330
E
102
}
330
E
  0
VISUALSTYLE
  5
2F
102
{ACAD_REACTORS
330
2A
102
}
330
2A
100
AcDbVisualStyle
  2
2dWireframe
 70
     4
 71
     0
 72
     2
 73
     0
 90
        0
 40
-0.6
 41
-30.0
 62
     5
 63
     7
 74
     1
 91
        4
 64
     7
 65
   257
 75
     1
175
     1
 42
1.0
 92
        0
 66
   257
 43
1.0
 76
     1
 77
     6
 78
     2
 67
     7
 79
     5
170
     0
171
     0
290
     0
174
     0
 93
        1
 44
0.0
173
     0
291
     0
 45
0.0
1001
ACAD
1000
AcDbSavedByObjectVersion
1070
     0
  0
VISUALSTYLE
  5
31
102
{ACAD_REACTORS
330
2A
102
}
330
2A
100
AcDbVisualStyle
  2
3D Hidden
 70
     6
 71
     1
 72
     2
 73
     2
 90
        0
 40
-0.6
 41
-30.0
 62
     5
 63
     7
 74
     2
 91
        2
 64
     7
 65
   257
 75
     2
175
     1
 42
40.0
 92
        0
 66
   257
 43
1.0
 76
     1
 77
     6
 78
     2
 67
     7
 79
     3
170
     0
171
     0
290
     0
174
     0
 93
        1
 44
0.0
173
     0
291
     0
 45
0.0
1001
ACAD
1000
AcDbSavedByObjectVersion
1070
     0
  0
VISUALSTYLE
  5
30
102
{ACAD_REACTORS
330
2A
102
}
330
2A
100
AcDbVisualStyle
  2
3dWireframe
 70
     5
 71
     0
 72
     2
 73
     0
 90
        0
 40
-0.6
 41
-30.0
 62
     5
 63
     7
 74
     1
 91
        4
 64
     7
 65
   257
 75
     1
175
     1
 42
1.0
 92
        0
 66
   257
 43
1.0
 76
     1
 77
     6
 78
     2
 67
     7
 79
     5
170
     0
171
     0
290
     0
174
     0
 93
        1
 44
0.0
173
     0
291
     0
 45
0.0
1001
ACAD
1000
AcDbSavedByObjectVersion
1070
     0
  0
VISUALSTYLE
  5
32
102
{ACAD_REACTORS
330
2A
102
}
330
2A
100
AcDbVisualStyle
  2
Basic
 70
     7
 71
     1
 72
     0
 73
     1
 90
        0
 40
-0.6
 41
-30.0
 62
     5
 63
     7
 74
     0
 91
        4
 64
     7
 65
   257
 75
     1
175
     1
 42
1.0
 92
        8
 66
     7
 43
1.0
 76
     1
 77
     6
 78
     2
 67
     7
 79
     5
170
     0
171
     0
290
     0
174
     0
 93
        1
 44
0.0
173
     0
291
     1
 45
0.0
1001
ACAD
1000
AcDbSavedByObjectVersion
1070
     0
  0
VISUALSTYLE
  5
36
102
{ACAD_REACTORS
330
2A
102
}
330
2A
100
AcDbVisualStyle
  2
Brighten
 70
    12
 71
     2
 72
     2
 73
     0
 90
        0
 40
-0.6
 41
-30.0
 62
     5
 63
     7
 74
     1
 91
        4
 64
     7
 65
   257
 75
     1
175
     1
 42
1.0
 92
        8
 66
     7
 43
1.0
 76
     1
 77
     6
 78
     2
 67
     7
 79
     5
170
     0
171
     0
290
     0
174
     0
 93
        1
 44
50.0
173
     0
291
     1
 45
0.0
1001
ACAD
1000
AcDbSavedByObjectVersion
1070
     0
  0
VISUALSTYLE
  5
3A
102
{ACAD_REACTORS
330
2A
102
}
330
2A
100
AcDbVisualStyle
  2
ColorChange
 70
    16
 71
     2
 72
     2
 73
     3
 90
        0
 40
-0.6
 41
-30.0
 62
     5
 63
     8
 74
     1
 91
        4
 64
     7
 65
   257
 75
     1
175
     1
 42
1.0
 92
        8
 66
     8
 43
1.0
 76
     1
 77
     6
 78
     2
 67
     7
 79
     5
170
     0
171
     0
290
     0
174
     0
 93
        1
 44
0.0
173
     0
291
     1
 45
0.0
1001
ACAD
1000
AcDbSavedByObjectVersion
1070
     0
  0
VISUALSTYLE
  5
34
102
{ACAD_REACTORS
330
2A
102
}
330
2A
100
AcDbVisualStyle
  2
Conceptual
 70
     9
 71
     3
 72
     2
 73
     0
 90
        0
 40
-0.6
 41
-30.0
 62
     5
 63
     7
 74
     2
 91
        2
 64
     7
 65
   257
 75
     1
175
     1
 42
40.0
 92
        8
 66
     7
 43
1.0
 76
     1
 77
     6
 78
     2
 67
     7
 79
     3
170
     0
171
     0
290
     0
174
     0
 93
        1
 44
0.0
173
     0
291
     0
 45
0.0
1001
ACAD
1000
AcDbSavedByObjectVersion
1070
     0
  0
VISUALSTYLE
  5
35
102
{ACAD_REACTORS
330
2A
102
}
330
2A
100
AcDbVisualStyle
  2
Dim
 70
    11
 71
     2
 72
     2
 73
     0
 90
        0
 40
-0.6
 41
-30.0
 62
     5
 63
     7
 74
     1
 91
        4
 64
     7
 65
   257
 75
     1
175
     1
 42
1.0
 92
        8
 66
     7
 43
1.0
 76
     1
 77
     6
 78
     2
 67
     7
 79
     5
170
     0
171
     0
290
     0
174
     0
 93
        1
 44
-50.0
173
     0
291
     1
 45
0.0
1001
ACAD
1000
AcDbSavedByObjectVersion
1070
     0
  0
VISUALSTYLE
  5
39
102
{ACAD_REACTORS
330
2A
102
}
330
2A
100
AcDbVisualStyle
  2
Facepattern
 70
    15
 71
     2
 72
     2
 73
     0
 90
        0
 40
-0.6
 41
-30.0
 62
     5
 63
     7
 74
     1
 91
        4
 64
     7
 65
   257
 75
     1
175
     1
 42
1.0
 92
        8
 66
     7
 43
1.0
 76
     1
 77
     6
 78
     2
 67
     7
 79
     5
170
     0
171
     0
290
     0
174
     0
 93
        1
 44
0.0
173
     0
291
     1
 45
0.0
1001
ACAD
1000
AcDbSavedByObjectVersion
1070
     0
  0
VISUALSTYLE
  5
2B
102
{ACAD_REACTORS
330
2A
102
}
330
2A
100
AcDbVisualStyle
  2
Flat
 70
     0
 71
     2
 72
     1
 73
     1
 90
        2
 40
-0.6
 41
30.0
 62
     5
 63
     7
 74
     0
 91
        4
 64
     7
 65
   257
 75
     1
175
     1
 42
1.0
 92
        8
 66
     7
 43
1.0
 76
     1
 77
     6
 78
     2
 67
     7
 79
     5
170
     0
171
     0
290
     0
174
     0
 93
       13
 44
0.0
173
     0
291
     1
 45
0.0
1001
ACAD
1000
AcDbSavedByObjectVersion
1070
     0
  0
VISUALSTYLE
  5
2C
102
{ACAD_REACTORS
330
2A
102
}
330
2A
100
AcDbVisualStyle
  2
FlatWithEdges
 70
     1
 71
     2
 72
     1
 73
     1
 90
        2
 40
-0.6
 41
30.0
 62
     5
 63
     7
 74
     1
 91
        4
 64
     7
 65
   257
 75
     1
175
     1
 42
1.0
 92
        0
 66
   257
 43
1.0
 76
     1
 77
     6
 78
     2
 67
     7
 79
     5
170
     0
171
     0
290
     0
174
     0
 93
       13
 44
0.0
173
     0
291
     1
 45
0.0
1001
ACAD
1000
AcDbSavedByObjectVersion
1070
     0
  0
VISUALSTYLE
  5
2D
102
{ACAD_REACTORS
330
2A
102
}
330
2A
100
AcDbVisualStyle
  2
Gouraud
 70
     2
 71
     2
 72
     2
 73
     1
 90
        2
 40
-0.6
 41
30.0
 62
     5
 63
     7
 74
     0
 91
        4
 64
     7
 65
   257
 75
     1
175
     1
 42
1.0
 92
        0
 66
     7
 43
1.0
 76
     1
 77
     6
 78
     2
 67
     7
 79
     5
170
     0
171
     0
290
     0
174
     0
 93
       13
 44
0.0
173
     0
291
     1
 45
0.0
1001
ACAD
1000
AcDbSavedByObjectVersion
1070
     0
  0
VISUALSTYLE
  5
2E
102
{ACAD_REACTORS
330
2A
102
}
330
2A
100
AcDbVisualStyle
  2
GouraudWithEdges
 70
     3
 71
     2
 72
     2
 73
     1
 90
        2
 40
-0.6
 41
30.0
 62
     5
 63
     7
 74
     1
 91
        4
 64
     7
 65
   257
 75
     1
175
     1
 42
1.0
 92
        0
 66
   257
 43
1.0
 76
     1
 77
     6
 78
     2
 67
     7
 79
     5
170
     0
171
     0
290
     0
174
     0
 93
       13
 44
0.0
173
     0
291
     1
 45
0.0
1001
ACAD
1000
AcDbSavedByObjectVersion
1070
     0
  0
VISUALSTYLE
  5
38
102
{ACAD_REACTORS
330
2A
102
}
330
2A
100
AcDbVisualStyle
  2
Linepattern
 70
    14
 71
     2
 72
     2
 73
     0
 90
        0
 40
-0.6
 41
-30.0
 62
     5
 63
     7
 74
     1
 91
        4
 64
     7
 65
   257
 75
     7
175
     7
 42
1.0
 92
        8
 66
     7
 43
1.0
 76
     1
 77
     6
 78
     2
 67
     7
 79
     5
170
     0
171
     0
290
     0
174
     0
 93
        1
 44
0.0
173
     0
291
     1
 45
0.0
1001
ACAD
1000
AcDbSavedByObjectVersion
1070
     0
  0
VISUALSTYLE
  5
33
102
{ACAD_REACTORS
330
2A
102
}
330
2A
100
AcDbVisualStyle
  2
Realistic
 70
     8
 71
     2
 72
     2
 73
     0
 90
        0
 40
-0.6
 41
-30.0
 62
     5
 63
     7
 74
     1
 91
        0
 64
     7
 65
   257
 75
     1
175
     1
 42
1.0
 92
        8
 66
     8
 43
1.0
 76
     1
 77
     6
 78
     2
 67
     7
 79
     5
170
     0
171
     0
290
     0
174
     0
 93
       13
 44
0.0
173
     0
291
     0
 45
0.0
1001
ACAD
1000
AcDbSavedByObjectVersion
1070
     0
  0
VISUALSTYLE
  5
37
102
{ACAD_REACTORS
330
2A
102
}
330
2A
100
AcDbVisualStyle
  2
Thicken
 70
    13
 71
     2
 72
     2
 73
     0
 90
        0
 40
-0.6
 41
-30.0
 62
     5
 63
     7
 74
     1
 91
        4
 64
     7
 65
   257
 75
     1
175
     1
 42
1.0
 92
       12
 66
     7
 43
1.0
 76
     1
 77
     6
 78
     2
 67
     7
 79
     5
170
     0
171
     0
290
     0
174
     0
 93
        1
 44
0.0
173
     0
291
     1
 45
0.0
1001
ACAD
1000
AcDbSavedByObjectVersion
1070
     0
  0
DICTIONARYVAR
  5
2D6
102
{ACAD_REACTORS
330
2D4
102
}
330
2D4
100
DictionaryVariables
280
     0
  1
80.000000
  0
DICTIONARYVAR
  5
2D5
102
{ACAD_REACTORS
330
2D4
102
}
330
2D4
100
DictionaryVariables
280
     0
  1
5.000000
  0
ENDSEC
  0
EOF
