  0
SECTION
  2
HEADER
  9
$ACADVER
  1
AC1015
  9
$ACADMAINTVER
 70
     6
  9
$DWGCODEPAGE
  3
ANSI_1252
  9
$INSBASE
 10
0.0
 20
0.0
 30
0.0
  9
$EXTMIN
 10
0.0
 20
0.0
 30
0.0
  9
$EXTMAX
 10
297.0
 20
210.0
 30
0.0
  9
$LIMMIN
 10
0.0
 20
0.0
  9
$LIMMAX
 10
297.0
 20
210.0
  9
$ORTHOMODE
 70
     0
  9
$REGENMODE
 70
     1
  9
$FILLMODE
 70
     1
  9
$QTEXTMODE
 70
     0
  9
$MIRRTEXT
 70
     1
  9
$LTSCALE
 40
1.0
  9
$ATTMODE
 70
     1
  9
$TEXTSIZE
 40
2.0
  9
$TRACEWID
 40
1.0
  9
$TEXTSTYLE
  7
Standard
  9
$CLAYER
  8
0
  9
$CELTYPE
  6
ByLayer
  9
$CECOLOR
 62
   256
  9
$CELTSCALE
 40
1.0
  9
$DISPSILH
 70
     0
  9
$DIMSCALE
 40
1.0
  9
$DIMASZ
 40
3.0
  9
$DIMEXO
 40
0.0
  9
$DIMDLI
 40
3.75
  9
$DIMRND
 40
0.0
  9
$DIMDLE
 40
0.0
  9
$DIMEXE
 40
1.0
  9
$DIMTP
 40
0.0
  9
$DIMTM
 40
0.0
  9
$DIMTXT
 40
2.0
  9
$DIMCEN
 40
2.5
  9
$DIMTSZ
 40
0.0
  9
$DIMTOL
 70
     0
  9
$DIMLIM
 70
     0
  9
$DIMTIH
 70
     1
  9
$DIMTOH
 70
     1
  9
$DIMSE1
 70
     0
  9
$DIMSE2
 70
     0
  9
$DIMTAD
 70
     1
  9
$DIMZIN
 70
     0
  9
$DIMBLK
  1

  9
$DIMASO
 70
     1
  9
$DIMSHO
 70
     1
  9
$DIMPOST
  1

  9
$DIMAPOST
  1

  9
$DIMALT
 70
     0
  9
$DIMALTD
 70
     3
  9
$DIMALTF
 40
0.0393700787
  9
$DIMLFAC
 40
1.0
  9
$DIMTOFL
 70
     1
  9
$DIMTVP
 40
0.0
  9
$DIMTIX
 70
     0
  9
$DIMSOXD
 70
     0
  9
$DIMSAH
 70
     0
  9
$DIMBLK1
  1

  9
$DIMBLK2
  1

  9
$DIMSTYLE
  2
ISO-25
  9
$DIMCLRD
 70
     0
  9
$DIMCLRE
 70
     0
  9
$DIMCLRT
 70
     0
  9
$DIMTFAC
 40
1.0
  9
$DIMGAP
 40
1.524
  9
$DIMJUST
 70
     0
  9
$DIMSD1
 70
     0
  9
$DIMSD2
 70
     0
  9
$DIMTOLJ
 70
     0
  9
$DIMTZIN
 70
     0
  9
$DIMALTZ
 70
     0
  9
$DIMALTTZ
 70
     0
  9
$DIMUPT
 70
     0
  9
$DIMDEC
 70
     2
  9
$DIMTDEC
 70
     3
  9
$DIMALTU
 70
     2
  9
$DIMALTTD
 70
     3
  9
$DIMTXSTY
  7
Standard
  9
$DIMAUNIT
 70
     0
  9
$DIMADEC
 70
     2
  9
$DIMALTRND
 40
0.0
  9
$DIMAZIN
 70
     0
  9
$DIMDSEP
 70
    44
  9
$DIMATFIT
 70
     3
  9
$DIMFRAC
 70
     0
  9
$DIMLDRBLK
  1

  9
$DIMLUNIT
 70
     2
  9
$DIMLWD
 70
    -2
  9
$DIMLWE
 70
    -2
  9
$DIMTMOVE
 70
     0
  9
$LUNITS
 70
     2
  9
$LUPREC
 70
     2
  9
$SKETCHINC
 40
1.0
  9
$FILLETRAD
 40
10.0
  9
$AUNITS
 70
     0
  9
$AUPREC
 70
     2
  9
$MENU
  1
.
  9
$ELEVATION
 40
0.0
  9
$PELEVATION
 40
0.0
  9
$THICKNESS
 40
0.0
  9
$LIMCHECK
 70
     0
  9
$CHAMFERA
 40
10.0
  9
$CHAMFERB
 40
10.0
  9
$CHAMFERC
 40
20.0
  9
$CHAMFERD
 40
0.0
  9
$SKPOLY
 70
     0
  9
$TDCREATE
 40
2455629.492156273
  9
$TDUCREATE
 40
2455629.450489607
  9
$TDUPDATE
 40
2455629.492156285
  9
$TDUUPDATE
 40
2455629.450489618
  9
$TDINDWG
 40
0.0000000116
  9
$TDUSRTIMER
 40
0.0000000116
  9
$USRTIMER
 70
     1
  9
$ANGBASE
 50
0.0
  9
$ANGDIR
 70
     0
  9
$PDMODE
 70
     0
  9
$PDSIZE
 40
-1.0
  9
$PLINEWID
 40
0.0
  9
$SPLFRAME
 70
     0
  9
$SPLINETYPE
 70
     6
  9
$SPLINESEGS
 70
     8
  9
$HANDSEED
  5
2CB
  9
$SURFTAB1
 70
     6
  9
$SURFTAB2
 70
     6
  9
$SURFTYPE
 70
     6
  9
$SURFU
 70
     6
  9
$SURFV
 70
     6
  9
$UCSBASE
  2

  9
$UCSNAME
  2

  9
$UCSORG
 10
0.0
 20
0.0
 30
0.0
  9
$UCSXDIR
 10
1.0
 20
0.0
 30
0.0
  9
$UCSYDIR
 10
0.0
 20
1.0
 30
0.0
  9
$UCSORTHOREF
  2

  9
$UCSORTHOVIEW
 70
     0
  9
$UCSORGTOP
 10
0.0
 20
0.0
 30
0.0
  9
$UCSORGBOTTOM
 10
0.0
 20
0.0
 30
0.0
  9
$UCSORGLEFT
 10
0.0
 20
0.0
 30
0.0
  9
$UCSORGRIGHT
 10
0.0
 20
0.0
 30
0.0
  9
$UCSORGFRONT
 10
0.0
 20
0.0
 30
0.0
  9
$UCSORGBACK
 10
0.0
 20
0.0
 30
0.0
  9
$PUCSBASE
  2

  9
$PUCSNAME
  2

  9
$PUCSORG
 10
0.0
 20
0.0
 30
0.0
  9
$PUCSXDIR
 10
1.0
 20
0.0
 30
0.0
  9
$PUCSYDIR
 10
0.0
 20
1.0
 30
0.0
  9
$PUCSORTHOREF
  2

  9
$PUCSORTHOVIEW
 70
     0
  9
$PUCSORGTOP
 10
0.0
 20
0.0
 30
0.0
  9
$PUCSORGBOTTOM
 10
0.0
 20
0.0
 30
0.0
  9
$PUCSORGLEFT
 10
0.0
 20
0.0
 30
0.0
  9
$PUCSORGRIGHT
 10
0.0
 20
0.0
 30
0.0
  9
$PUCSORGFRONT
 10
0.0
 20
0.0
 30
0.0
  9
$PUCSORGBACK
 10
0.0
 20
0.0
 30
0.0
  9
$USERI1
 70
     0
  9
$USERI2
 70
     0
  9
$USERI3
 70
     0
  9
$USERI4
 70
     0
  9
$USERI5
 70
     0
  9
$USERR1
 40
0.0
  9
$USERR2
 40
0.0
  9
$USERR3
 40
0.0
  9
$USERR4
 40
0.0
  9
$USERR5
 40
0.0
  9
$WORLDVIEW
 70
     1
  9
$SHADEDGE
 70
     3
  9
$SHADEDIF
 70
    70
  9
$TILEMODE
 70
     1
  9
$MAXACTVP
 70
    64
  9
$PINSBASE
 10
0.0
 20
0.0
 30
0.0
  9
$PLIMCHECK
 70
     0
  9
$PEXTMIN
 10
1.0000000000E+20
 20
1.0000000000E+20
 30
1.0000000000E+20
  9
$PEXTMAX
 10
-1.0000000000E+20
 20
-1.0000000000E+20
 30
-1.0000000000E+20
  9
$PLIMMIN
 10
0.0
 20
0.0
  9
$PLIMMAX
 10
420.0
 20
297.0
  9
$UNITMODE
 70
     0
  9
$VISRETAIN
 70
     1
  9
$PLINEGEN
 70
     0
  9
$PSLTSCALE
 70
     1
  9
$TREEDEPTH
 70
  3020
  9
$CMLSTYLE
  2
Standard
  9
$CMLJUST
 70
     0
  9
$CMLSCALE
 40
20.0
  9
$PROXYGRAPHICS
 70
     1
  9
$MEASUREMENT
 70
     1
  9
$CELWEIGHT
370
    -1
  9
$ENDCAPS
280
     0
  9
$JOINSTYLE
280
     0
  9
$LWDISPLAY
290
     1
  9
$INSUNITS
 70
     4
  9
$HYPERLINKBASE
  1

  9
$STYLESHEET
  1

  9
$XEDIT
290
     1
  9
$CEPSNTYPE
380
     0
  9
$PSTYLEMODE
290
     1
  9
$FINGERPRINTGUID
  2
{38BF71EE-C1F0-4B01-9125-E50A1EB6EC5B}
  9
$VERSIONGUID
  2
{FAEB1C32-E019-11D5-929B-00C0DF256EC4}
  9
$EXTNAMES
290
     1
  9
$PSVPSCALE
 40
0.0
  9
$OLESTARTUP
290
     0
  0
ENDSEC
  0
SECTION
  2
CLASSES
  0
CLASS
  1
ACDBDICTIONARYWDFLT
  2
AcDbDictionaryWithDefault
  3
ObjectDBX Classes
 90
        0
280
     0
281
     0
  0
CLASS
  1
VISUALSTYLE
  2
AcDbVisualStyle
  3
ObjectDBX Classes
 90
     4095
280
     0
281
     0
  0
CLASS
  1
DICTIONARYVAR
  2
AcDbDictionaryVar
  3
ObjectDBX Classes
 90
        0
280
     0
281
     0
  0
CLASS
  1
ACDBPLACEHOLDER
  2
AcDbPlaceHolder
  3
ObjectDBX Classes
 90
        0
280
     0
281
     0
  0
CLASS
  1
LAYOUT
  2
AcDbLayout
  3
ObjectDBX Classes
 90
        0
280
     0
281
     0
  0
ENDSEC
  0
SECTION
  2
TABLES
  0
TABLE
  2
VPORT
  5
8
330
0
100
AcDbSymbolTable
 70
     1
  0
VPORT
  5
29
330
8
100
AcDbSymbolTableRecord
100
AcDbViewportTableRecord
  2
*Active
 70
     0
 10
0.0
 20
0.0
 11
1.0
 21
1.0
 12
148.5
 22
105.0
 13
0.0
 23
0.0
 14
10.0
 24
10.0
 15
10.0
 25
10.0
 16
0.0
 26
0.0
 36
1.0
 17
0.0
 27
0.0
 37
0.0
 40
210.0
 41
1.4142857143
 42
50.0
 43
0.0
 44
0.0
 50
0.0
 51
0.0
 71
     0
 72
  2000
 73
     1
 74
     3
 75
     0
 76
     0
 77
     0
 78
     0
281
     0
 65
     1
110
0.0
120
0.0
130
0.0
111
1.0
121
0.0
131
0.0
112
0.0
122
1.0
132
0.0
 79
     0
146
0.0
  0
ENDTAB
  0
TABLE
  2
LTYPE
  5
5
330
0
100
AcDbSymbolTable
 70
     6
  0
LTYPE
  5
14
330
5
100
AcDbSymbolTableRecord
100
AcDbLinetypeTableRecord
  2
ByBlock
 70
     0
  3

 72
    65
 73
     0
 40
0.0
  0
LTYPE
  5
15
330
5
100
AcDbSymbolTableRecord
100
AcDbLinetypeTableRecord
  2
ByLayer
 70
     0
  3

 72
    65
 73
     0
 40
0.0
  0
LTYPE
  5
16
330
5
100
AcDbSymbolTableRecord
100
AcDbLinetypeTableRecord
  2
Continuous
 70
     0
  3
Solid line
 72
    65
 73
     0
 40
0.0
  0
LTYPE
  5
3B
330
5
100
AcDbSymbolTableRecord
100
AcDbLinetypeTableRecord
  2
HIDDEN
 70
     0
  3
Hidden __ __ __ __ __ __ __ __ __ __ __ __ __ __
 72
    65
 73
     2
 40
1.905
 49
1.27
 74
     0
 49
-0.635
 74
     0
  0
LTYPE
  5
3C
330
5
100
AcDbSymbolTableRecord
100
AcDbLinetypeTableRecord
  2
PHANTOM
 70
     0
  3
Phantom ______  __  __  ______  __  __  ______
 72
    65
 73
     6
 40
12.7
 49
6.35
 74
     0
 49
-1.27
 74
     0
 49
1.27
 74
     0
 49
-1.27
 74
     0
 49
1.27
 74
     0
 49
-1.27
 74
     0
  0
LTYPE
  5
3D
330
5
100
AcDbSymbolTableRecord
100
AcDbLinetypeTableRecord
  2
CENTER
 70
     0
  3
Center ____ _ ____ _ ____ _ ____ _ ____ _ ____
 72
    65
 73
     4
 40
10.16
 49
6.35
 74
     0
 49
-1.27
 74
     0
 49
1.27
 74
     0
 49
-1.27
 74
     0
  0
LTYPE
  5
3E
330
5
100
AcDbSymbolTableRecord
100
AcDbLinetypeTableRecord
  2
CENTERX2
 70
     0
  3
Center (2x) ________  __  ________  __  _____
 72
    65
 73
     4
 40
20.32
 49
12.7
 74
     0
 49
-2.54
 74
     0
 49
2.54
 74
     0
 49
-2.54
 74
     0
  0
LTYPE
  5
3F
330
5
100
AcDbSymbolTableRecord
100
AcDbLinetypeTableRecord
  2
DOT2
 70
     0
  3
Dot (.5x) ........................................
 72
    65
 73
     2
 40
0.635
 49
0.0
 74
     0
 49
-0.635
 74
     0
  0
ENDTAB
  0
TABLE
  2
LAYER
  5
2
330
0
100
AcDbSymbolTable
 70
     5
  0
LAYER
  5
10
330
2
100
AcDbSymbolTableRecord
100
AcDbLayerTableRecord
  2
0
 70
     0
 62
     7
  6
Continuous
370
    -3
390
F
  0
LAYER
  5
40
330
2
100
AcDbSymbolTableRecord
100
AcDbLayerTableRecord
  2
FORMAT
 70
     0
 62
     7
  6
Continuous
370
    -3
390
F
  0
LAYER
  5
41
330
2
100
AcDbSymbolTableRecord
100
AcDbLayerTableRecord
  2
VERMASSUNG
 70
     0
 62
     7
  6
Continuous
370
    -3
390
F
  0
LAYER
  5
42
330
2
100
AcDbSymbolTableRecord
100
AcDbLayerTableRecord
  2
KOPF_DÜNN
 70
     0
 62
     7
  6
Continuous
370
    -3
390
F
  0
LAYER
  5
43
330
2
100
AcDbSymbolTableRecord
100
AcDbLayerTableRecord
  2
KOPF_DICK
 70
     0
 62
     7
  6
Continuous
370
    15
390
F
  0
ENDTAB
  0
TABLE
  2
STYLE
  5
3
330
0
100
AcDbSymbolTable
 70
     3
  0
STYLE
  5
11
330
3
100
AcDbSymbolTableRecord
100
AcDbTextStyleTableRecord
  2
Standard
 70
     0
 40
0.0
 41
1.0
 50
0.0
 71
     0
 42
2.5
  3
txt
  4

  0
STYLE
  5
44
330
3
100
AcDbSymbolTableRecord
100
AcDbTextStyleTableRecord
  2
SLDTEXTSTYLE0
 70
     0
 40
0.0
 41
0.7
 50
0.0
 71
     0
 42
0.2
  3
TXT
  4

  0
STYLE
  5
48
330
3
100
AcDbSymbolTableRecord
100
AcDbTextStyleTableRecord
  2
SLDTEXTSTYLE1
 70
     0
 40
0.0
 41
0.65
 50
0.0
 71
     0
 42
0.2
  3
TXT
  4

  0
ENDTAB
  0
TABLE
  2
VIEW
  5
6
330
0
100
AcDbSymbolTable
 70
     0
  0
ENDTAB
  0
TABLE
  2
UCS
  5
7
330
0
100
AcDbSymbolTable
 70
     0
  0
ENDTAB
  0
TABLE
  2
APPID
  5
9
330
0
100
AcDbSymbolTable
 70
     1
  0
APPID
  5
12
330
9
100
AcDbSymbolTableRecord
100
AcDbRegAppTableRecord
  2
ACAD
 70
     0
  0
ENDTAB
  0
TABLE
  2
DIMSTYLE
  5
A
330
0
100
AcDbSymbolTable
 70
     2
100
AcDbDimStyleTable
  0
DIMSTYLE
105
27
330
A
100
AcDbSymbolTableRecord
100
AcDbDimStyleTableRecord
  2
ISO-25
 70
     0
 41
2.5
 42
0.625
 43
3.75
 44
1.25
 73
     0
 74
     0
 77
     1
 78
     8
140
2.5
141
2.5
143
0.0393700787
147
0.625
171
     3
172
     1
271
     2
272
     2
274
     3
278
    44
283
     0
284
     8
340
11
  0
DIMSTYLE
105
282
102
{ACAD_REACTORS
330
281
330
28C
330
296
330
2A0
330
2AC
330
2B7
102
}
330
A
100
AcDbSymbolTableRecord
100
AcDbDimStyleTableRecord
  2
SLDDIMSTYLE0
 70
     0
 41
3.0
 44
0.0
 45
0.000000001
 73
     0
 74
     0
 77
     1
 78
    12
140
2.0
147
0.5
173
     1
271
     2
272
     3
284
    12
340
44
  0
ENDTAB
  0
TABLE
  2
BLOCK_RECORD
  5
1
330
0
100
AcDbSymbolTable
 70
     7
  0
BLOCK_RECORD
  5
1F
330
1
100
AcDbSymbolTableRecord
100
AcDbBlockTableRecord
  2
*Model_Space
340
22
  0
BLOCK_RECORD
  5
1B
330
1
100
AcDbSymbolTableRecord
100
AcDbBlockTableRecord
  2
*Paper_Space
340
1E
  0
BLOCK_RECORD
  5
23
330
1
100
AcDbSymbolTableRecord
100
AcDbBlockTableRecord
  2
*Paper_Space0
340
26
  0
BLOCK_RECORD
  5
283
330
1
100
AcDbSymbolTableRecord
100
AcDbBlockTableRecord
  2
*D1
340
0
  0
BLOCK_RECORD
  5
28D
330
1
100
AcDbSymbolTableRecord
100
AcDbBlockTableRecord
  2
*D2
340
0
  0
BLOCK_RECORD
  5
297
330
1
100
AcDbSymbolTableRecord
100
AcDbBlockTableRecord
  2
*D3
340
0
  0
BLOCK_RECORD
  5
2A1
330
1
100
AcDbSymbolTableRecord
100
AcDbBlockTableRecord
  2
*D4
340
0
  0
BLOCK_RECORD
  5
2AD
330
1
100
AcDbSymbolTableRecord
100
AcDbBlockTableRecord
  2
*D5
340
0
  0
BLOCK_RECORD
  5
2B8
330
1
100
AcDbSymbolTableRecord
100
AcDbBlockTableRecord
  2
*D6
340
0
  0
ENDTAB
  0
ENDSEC
  0
SECTION
  2
BLOCKS
  0
BLOCK
  5
20
330
1F
100
AcDbEntity
  8
0
100
AcDbBlockBegin
  2
*Model_Space
 70
     0
 10
0.0
 20
0.0
 30
0.0
  3
*Model_Space
  1

  0
ENDBLK
  5
21
330
1F
100
AcDbEntity
  8
0
100
AcDbBlockEnd
  0
BLOCK
  5
1C
330
1B
100
AcDbEntity
 67
     1
  8
0
100
AcDbBlockBegin
  2
*Paper_Space
 70
     0
 10
0.0
 20
0.0
 30
0.0
  3
*Paper_Space
  1

  0
ENDBLK
  5
1D
330
1B
100
AcDbEntity
 67
     1
  8
0
100
AcDbBlockEnd
  0
BLOCK
  5
24
330
23
100
AcDbEntity
  8
0
100
AcDbBlockBegin
  2
*Paper_Space0
 70
     0
 10
0.0
 20
0.0
 30
0.0
  3
*Paper_Space0
  1

  0
ENDBLK
  5
25
330
23
100
AcDbEntity
  8
0
100
AcDbBlockEnd
  0
BLOCK
  5
284
330
283
100
AcDbEntity
  8
0
100
AcDbBlockBegin
  2
*D1
 70
     1
 10
0.0
 20
0.0
 30
0.0
  3
*D1
  1

  0
SOLID
  5
286
330
283
100
AcDbEntity
  8
VERMASSUNG
100
AcDbTrace
 10
59.3807377903
 20
179.736899384
 30
0.0
 11
62.3807377903
 21
179.286899384
 31
0.0
 12
62.3807377903
 22
180.186899384
 32
0.0
 13
62.3807377903
 23
180.186899384
 33
0.0
  0
SOLID
  5
287
330
283
100
AcDbEntity
  8
VERMASSUNG
100
AcDbTrace
 10
239.2807377903
 20
179.736899384
 30
0.0
 11
236.2807377903
 21
180.186899384
 31
0.0
 12
236.2807377903
 22
179.286899384
 32
0.0
 13
236.2807377903
 23
179.286899384
 33
0.0
  0
LINE
  5
288
330
283
100
AcDbEntity
  8
VERMASSUNG
100
AcDbLine
 10
59.3807377903
 20
143.9249316753
 30
0.0
 11
59.3807377903
 21
180.736899384
 31
0.0
  0
LINE
  5
289
330
283
100
AcDbEntity
  8
VERMASSUNG
100
AcDbLine
 10
239.2807377903
 20
142.2222619327
 30
0.0
 11
239.2807377903
 21
180.736899384
 31
0.0
  0
LINE
  5
28A
330
283
100
AcDbEntity
  8
VERMASSUNG
100
AcDbLine
 10
59.3807377903
 20
179.736899384
 30
0.0
 11
239.2807377903
 21
179.736899384
 31
0.0
  0
MTEXT
  5
28B
330
283
100
AcDbEntity
  8
VERMASSUNG
100
AcDbMText
 10
146.4310313981
 20
182.3150347471
 30
0.0
 40
2.0
 41
0.0
 71
     1
 72
     1
  1
179.9
  7
SLDTEXTSTYLE0
 73
     1
 44
1.0
  0
ENDBLK
  5
285
330
283
100
AcDbEntity
  8
0
100
AcDbBlockEnd
  0
BLOCK
  5
28E
330
28D
100
AcDbEntity
  8
0
100
AcDbBlockBegin
  2
*D2
 70
     1
 10
0.0
 20
0.0
 30
0.0
  3
*D2
  1

  0
SOLID
  5
290
330
28D
100
AcDbEntity
  8
VERMASSUNG
100
AcDbTrace
 10
109.2807377903
 20
173.736899384
 30
0.0
 11
112.2807377903
 21
173.286899384
 31
0.0
 12
112.2807377903
 22
174.186899384
 32
0.0
 13
112.2807377903
 23
174.186899384
 33
0.0
  0
SOLID
  5
291
330
28D
100
AcDbEntity
  8
VERMASSUNG
100
AcDbTrace
 10
239.2807377903
 20
173.736899384
 30
0.0
 11
236.2807377903
 21
174.186899384
 31
0.0
 12
236.2807377903
 22
173.286899384
 32
0.0
 13
236.2807377903
 23
173.286899384
 33
0.0
  0
LINE
  5
292
330
28D
100
AcDbEntity
  8
VERMASSUNG
100
AcDbLine
 10
109.2807377903
 20
162.9222619327
 30
0.0
 11
109.2807377903
 21
174.736899384
 31
0.0
  0
LINE
  5
293
330
28D
100
AcDbEntity
  8
VERMASSUNG
100
AcDbLine
 10
239.2807377903
 20
142.2222619327
 30
0.0
 11
239.2807377903
 21
174.736899384
 31
0.0
  0
LINE
  5
294
330
28D
100
AcDbEntity
  8
VERMASSUNG
100
AcDbLine
 10
109.2807377903
 20
173.736899384
 30
0.0
 11
239.2807377903
 21
173.736899384
 31
0.0
  0
MTEXT
  5
295
330
28D
100
AcDbEntity
  8
VERMASSUNG
100
AcDbMText
 10
172.3812502497
 20
176.3150347471
 30
0.0
 40
2.0
 41
0.0
 71
     1
 72
     1
  1
130
  7
SLDTEXTSTYLE0
 73
     1
 44
1.0
  0
ENDBLK
  5
28F
330
28D
100
AcDbEntity
  8
0
100
AcDbBlockEnd
  0
BLOCK
  5
298
330
297
100
AcDbEntity
  8
0
100
AcDbBlockBegin
  2
*D3
 70
     1
 10
0.0
 20
0.0
 30
0.0
  3
*D3
  1

  0
SOLID
  5
29A
330
297
100
AcDbEntity
  8
VERMASSUNG
100
AcDbTrace
 10
138.2307377903
 20
167.736899384
 30
0.0
 11
141.2307377903
 21
167.286899384
 31
0.0
 12
141.2307377903
 22
168.186899384
 32
0.0
 13
141.2307377903
 23
168.186899384
 33
0.0
  0
SOLID
  5
29B
330
297
100
AcDbEntity
  8
VERMASSUNG
100
AcDbTrace
 10
239.2807377903
 20
167.736899384
 30
0.0
 11
236.2807377903
 21
168.186899384
 31
0.0
 12
236.2807377903
 22
167.286899384
 32
0.0
 13
236.2807377903
 23
167.286899384
 33
0.0
  0
LINE
  5
29C
330
297
100
AcDbEntity
  8
VERMASSUNG
100
AcDbLine
 10
138.2307377903
 20
161.3910017536
 30
0.0
 11
138.2307377903
 21
168.736899384
 31
0.0
  0
LINE
  5
29D
330
297
100
AcDbEntity
  8
VERMASSUNG
100
AcDbLine
 10
239.2807377903
 20
142.2222619327
 30
0.0
 11
239.2807377903
 21
168.736899384
 31
0.0
  0
LINE
  5
29E
330
297
100
AcDbEntity
  8
VERMASSUNG
100
AcDbLine
 10
138.2307377903
 20
167.736899384
 30
0.0
 11
239.2807377903
 21
167.736899384
 31
0.0
  0
MTEXT
  5
29F
330
297
100
AcDbEntity
  8
VERMASSUNG
100
AcDbMText
 10
185.3559219723
 20
170.3150347471
 30
0.0
 40
2.0
 41
0.0
 71
     1
 72
     1
  1
101.05
  7
SLDTEXTSTYLE0
 73
     1
 44
1.0
  0
ENDBLK
  5
299
330
297
100
AcDbEntity
  8
0
100
AcDbBlockEnd
  0
BLOCK
  5
2A2
330
2A1
100
AcDbEntity
  8
0
100
AcDbBlockBegin
  2
*D4
 70
     1
 10
0.0
 20
0.0
 30
0.0
  3
*D4
  1

  0
SOLID
  5
2A4
330
2A1
100
AcDbEntity
  8
VERMASSUNG
100
AcDbTrace
 10
53.6368583162
 20
163.4222619327
 30
0.0
 11
53.1868583162
 21
160.4222619327
 31
0.0
 12
54.0868583162
 22
160.4222619327
 32
0.0
 13
54.0868583162
 23
160.4222619327
 33
0.0
  0
SOLID
  5
2A5
330
2A1
100
AcDbEntity
  8
VERMASSUNG
100
AcDbTrace
 10
53.6368583162
 20
63.4222619327
 30
0.0
 11
54.0868583162
 21
66.4222619327
 31
0.0
 12
53.1868583162
 22
66.4222619327
 32
0.0
 13
53.1868583162
 23
66.4222619327
 33
0.0
  0
LINE
  5
2A6
330
2A1
100
AcDbEntity
  8
VERMASSUNG
100
AcDbLine
 10
109.7807377903
 20
163.4222619327
 30
0.0
 11
52.6368583162
 21
163.4222619327
 31
0.0
  0
LINE
  5
2A7
330
2A1
100
AcDbEntity
  8
VERMASSUNG
100
AcDbLine
 10
109.7807377903
 20
63.4222619327
 30
0.0
 11
52.6368583162
 21
63.4222619327
 31
0.0
  0
LINE
  5
2A8
330
2A1
100
AcDbEntity
  8
VERMASSUNG
100
AcDbLine
 10
53.6368583162
 20
163.4222619327
 30
0.0
 11
53.6368583162
 21
63.4222619327
 31
0.0
  0
MTEXT
  5
2A9
330
2A1
100
AcDbEntity
  8
VERMASSUNG
100
AcDbMText
 10
50.8587228272
 20
105.2186107952
 30
0.0
 40
2.0
 41
0.0
 71
     1
 72
     1
  1
HSK A 
  7
SLDTEXTSTYLE0
 11
-7.044195017643634E-15
 21
1.0
 31
0.0
 73
     1
 44
1.0
  0
MTEXT
  5
2AA
330
2A1
100
AcDbEntity
  8
VERMASSUNG
100
AcDbMText
 10
51.0587228367
 20
114.218611339
 30
0.0
 40
2.0
 41
0.0
 71
     1
 72
     1
  1
%%c
  7
SLDTEXTSTYLE0
 11
-7.044195017643634E-15
 21
1.0
 31
0.0
 73
     1
 44
1.0
  0
MTEXT
  5
2AB
330
2A1
100
AcDbEntity
  8
VERMASSUNG
100
AcDbMText
 10
51.0587229531
 20
117.8269379891
 30
0.0
 40
2.0
 41
0.0
 71
     1
 72
     1
  1
100
  7
SLDTEXTSTYLE0
 11
-7.044195017643634E-15
 21
1.0
 31
0.0
 73
     1
 44
1.0
  0
ENDBLK
  5
2A3
330
2A1
100
AcDbEntity
  8
0
100
AcDbBlockEnd
  0
BLOCK
  5
2AE
330
2AD
100
AcDbEntity
  8
0
100
AcDbBlockBegin
  2
*D5
 70
     1
 10
0.0
 20
0.0
 30
0.0
  3
*D5
  1

  0
SOLID
  5
2B0
330
2AD
100
AcDbEntity
  8
VERMASSUNG
100
AcDbTrace
 10
255.6321063723
 20
149.4222619327
 30
0.0
 11
255.1821063723
 21
146.4222619327
 31
0.0
 12
256.0821063723
 22
146.4222619327
 32
0.0
 13
256.0821063723
 23
146.4222619327
 33
0.0
  0
SOLID
  5
2B1
330
2AD
100
AcDbEntity
  8
VERMASSUNG
100
AcDbTrace
 10
255.6321063723
 20
77.4222619327
 30
0.0
 11
256.0821063723
 21
80.4222619327
 31
0.0
 12
255.1821063723
 22
80.4222619327
 32
0.0
 13
255.1821063723
 23
80.4222619327
 33
0.0
  0
LINE
  5
2B2
330
2AD
100
AcDbEntity
  8
VERMASSUNG
100
AcDbLine
 10
236.8307377903
 20
149.4222619327
 30
0.0
 11
256.6321063723
 21
149.4222619327
 31
0.0
  0
LINE
  5
2B3
330
2AD
100
AcDbEntity
  8
VERMASSUNG
100
AcDbLine
 10
236.8307377903
 20
77.4222619327
 30
0.0
 11
256.6321063723
 21
77.4222619327
 31
0.0
  0
LINE
  5
2B4
330
2AD
100
AcDbEntity
  8
VERMASSUNG
100
AcDbLine
 10
255.6321063723
 20
149.4222619327
 30
0.0
 11
255.6321063723
 21
77.4222619327
 31
0.0
  0
MTEXT
  5
2B5
330
2AD
100
AcDbEntity
  8
VERMASSUNG
100
AcDbMText
 10
253.0539708928
 20
110.2185447063
 30
0.0
 40
2.0
 41
0.0
 71
     1
 72
     1
  1
%%c
  7
SLDTEXTSTYLE0
 11
-7.044195017643634E-15
 21
1.0
 31
0.0
 73
     1
 44
1.0
  0
MTEXT
  5
2B6
330
2AD
100
AcDbEntity
  8
VERMASSUNG
100
AcDbMText
 10
253.0539710092
 20
113.8272229295
 30
0.0
 40
2.0
 41
0.0
 71
     1
 72
     1
  1
72
  7
SLDTEXTSTYLE0
 11
-7.044195017643634E-15
 21
1.0
 31
0.0
 73
     1
 44
1.0
  0
ENDBLK
  5
2AF
330
2AD
100
AcDbEntity
  8
0
100
AcDbBlockEnd
  0
BLOCK
  5
2B9
330
2B8
100
AcDbEntity
  8
0
100
AcDbBlockBegin
  2
*D6
 70
     1
 10
0.0
 20
0.0
 30
0.0
  3
*D6
  1

  0
SOLID
  5
2BB
330
2B8
100
AcDbEntity
  8
VERMASSUNG
100
AcDbTrace
 10
249.6321063723
 20
137.4222619327
 30
0.0
 11
249.1821063723
 21
134.4222619327
 31
0.0
 12
250.0821063723
 22
134.4222619327
 32
0.0
 13
250.0821063723
 23
134.4222619327
 33
0.0
  0
SOLID
  5
2BC
330
2B8
100
AcDbEntity
  8
VERMASSUNG
100
AcDbTrace
 10
249.6321063723
 20
89.4222619327
 30
0.0
 11
250.0821063723
 21
92.4222619327
 31
0.0
 12
249.1821063723
 22
92.4222619327
 32
0.0
 13
249.1821063723
 23
92.4222619327
 33
0.0
  0
LINE
  5
2BD
330
2B8
100
AcDbEntity
  8
VERMASSUNG
100
AcDbLine
 10
238.0807377903
 20
137.4222619327
 30
0.0
 11
250.6321063723
 21
137.4222619327
 31
0.0
  0
LINE
  5
2BE
330
2B8
100
AcDbEntity
  8
VERMASSUNG
100
AcDbLine
 10
238.0807377903
 20
89.4222619327
 30
0.0
 11
250.6321063723
 21
89.4222619327
 31
0.0
  0
LINE
  5
2BF
330
2B8
100
AcDbEntity
  8
VERMASSUNG
100
AcDbLine
 10
249.6321063723
 20
137.4222619327
 30
0.0
 11
249.6321063723
 21
89.4222619327
 31
0.0
  0
MTEXT
  5
2C0
330
2B8
100
AcDbEntity
  8
VERMASSUNG
100
AcDbMText
 10
247.0539708928
 20
110.1187548905
 30
0.0
 40
2.0
 41
0.0
 71
     1
 72
     1
  1
%%c
  7
SLDTEXTSTYLE0
 11
-7.044195017643634E-15
 21
1.0
 31
0.0
 73
     1
 44
1.0
  0
MTEXT
  5
2C1
330
2B8
100
AcDbEntity
  8
VERMASSUNG
100
AcDbMText
 10
247.0539710092
 20
113.7274331137
 30
0.0
 40
2.0
 41
0.0
 71
     1
 72
     1
  1
48
  7
SLDTEXTSTYLE0
 11
-7.044195017643634E-15
 21
1.0
 31
0.0
 73
     1
 44
1.0
  0
ENDBLK
  5
2BA
330
2B8
100
AcDbEntity
  8
0
100
AcDbBlockEnd
  0
ENDSEC
  0
SECTION
  2
ENTITIES
  0
MTEXT
  5
45
330
1F
100
AcDbEntity
  8
KOPF_DÜNN
100
AcDbMText
 10
13.8892156294
 20
23.8442973028
 30
0.0
 40
3.0
 41
0.0
 71
     1
 72
     1
  1
HA0.Go3.K01.130
  7
SLDTEXTSTYLE0
 73
     1
 44
1.0
  0
MTEXT
  5
46
330
1F
100
AcDbEntity
  8
VERMASSUNG
100
AcDbMText
 10
13.9329988022
 20
28.8834360957
 30
0.0
 40
3.0
 41
0.0
 71
     1
 72
     1
  1
Gewindeschneidfutter_Tapping chuck
  7
SLDTEXTSTYLE0
 73
     1
 44
1.0
  0
MTEXT
  5
47
330
1F
100
AcDbEntity
  8
VERMASSUNG
100
AcDbMText
 10
98.8601118557
 20
13.8365368179
 30
0.0
 40
2.0
 41
0.0
 71
     1
 72
     1
  1
Datum: 02.10.2007
  7
SLDTEXTSTYLE0
 73
     1
 44
1.0
  0
MTEXT
  5
49
330
1F
100
AcDbEntity
  8
VERMASSUNG
100
AcDbMText
 10
13.933048693
 20
18.0482802738
 30
0.0
 40
2.0
 41
0.0
 71
     1
 72
     1
  1
DIN 69 893 HSK A 100
  7
SLDTEXTSTYLE1
 73
     1
 44
1.0
  0
MTEXT
  5
4A
330
1F
100
AcDbEntity
  8
VERMASSUNG
100
AcDbMText
 10
13.9808475933
 20
13.9090973692
 30
0.0
 40
2.0
 41
0.0
 71
     1
 72
     1
  1
Gewicht: 4099g
  7
SLDTEXTSTYLE0
 73
     1
 44
1.0
  0
LINE
  5
4B
330
1F
100
AcDbEntity
  8
0
  6
Continuous
 62
     7
370
    15
100
AcDbLine
 10
211.8307377903
 20
149.4222619327
 30
0.0
 11
188.7307377903
 21
149.4222619327
 31
0.0
  0
LINE
  5
4C
330
1F
100
AcDbEntity
  8
0
  6
Continuous
 62
     7
370
    15
100
AcDbLine
 10
188.7307377903
 20
77.4222619327
 30
0.0
 11
211.8307377903
 21
77.4222619327
 31
0.0
  0
ARC
  5
4D
330
1F
100
AcDbEntity
  8
0
  6
Continuous
 62
     7
370
    15
100
AcDbCircle
 10
236.8307377903
 20
148.4222619327
 30
0.0
 40
1.0
100
AcDbArc
 50
0.0
 51
90.0
  0
ARC
  5
4E
330
1F
100
AcDbEntity
  8
0
  6
Continuous
 62
     7
370
    15
100
AcDbCircle
 10
236.8307377903
 20
78.4222619327
 30
0.0
 40
1.0
100
AcDbArc
 50
270.0
 51
0.0
  0
LINE
  5
4F
330
1F
100
AcDbEntity
  8
0
  6
Continuous
 62
     7
370
    15
100
AcDbLine
 10
236.8307377903
 20
149.4222619327
 30
0.0
 11
221.8307377903
 21
149.4222619327
 31
0.0
  0
LINE
  5
50
330
1F
100
AcDbEntity
  8
0
  6
Continuous
 62
     7
370
    15
100
AcDbLine
 10
221.8307377903
 20
77.4222619327
 30
0.0
 11
236.8307377903
 21
77.4222619327
 31
0.0
  0
ARC
  5
51
330
1F
100
AcDbEntity
  8
0
  6
Continuous
 62
     7
370
    15
100
AcDbCircle
 10
188.3599278659
 20
149.5722619327
 30
0.0
 40
0.3999999999999825
100
AcDbArc
 50
270.0
 51
337.975687163
  0
ARC
  5
52
330
1F
100
AcDbEntity
  8
0
  6
Continuous
 62
     7
370
    15
100
AcDbCircle
 10
188.3599278659
 20
77.2722619327
 30
0.0
 40
0.3999999999999825
100
AcDbArc
 50
22.024312837
 51
90.0
  0
LINE
  5
53
330
1F
100
AcDbEntity
  8
0
  6
Continuous
 62
     7
370
    15
100
AcDbLine
 10
178.7307377903
 20
149.4222619327
 30
0.0
 11
163.7307377903
 21
149.4222619327
 31
0.0
  0
LINE
  5
54
330
1F
100
AcDbEntity
  8
0
  6
Continuous
 62
     7
370
    15
100
AcDbLine
 10
163.7307377903
 20
77.4222619327
 30
0.0
 11
178.7307377903
 21
77.4222619327
 31
0.0
  0
ARC
  5
55
330
1F
100
AcDbEntity
  8
0
  6
Continuous
 62
     7
370
    15
100
AcDbCircle
 10
221.4599278659
 20
149.5722619327
 30
0.0
 40
0.4000000000000196
100
AcDbArc
 50
270.0
 51
337.975687163
  0
ARC
  5
56
330
1F
100
AcDbEntity
  8
0
  6
Continuous
 62
     7
370
    15
100
AcDbCircle
 10
221.4599278659
 20
77.2722619327
 30
0.0
 40
0.4000000000000196
100
AcDbArc
 50
22.024312837
 51
90.0
  0
ARC
  5
57
330
1F
100
AcDbEntity
  8
0
  6
Continuous
 62
     7
370
    15
100
AcDbCircle
 10
163.7307377903
 20
148.4222619327
 30
0.0
 40
1.0
100
AcDbArc
 50
90.0
 51
180.0
  0
ARC
  5
58
330
1F
100
AcDbEntity
  8
0
  6
Continuous
 62
     7
370
    15
100
AcDbCircle
 10
163.7307377903
 20
78.4222619327
 30
0.0
 40
1.0
100
AcDbArc
 50
180.0
 51
270.0
  0
ARC
  5
59
330
1F
100
AcDbEntity
  8
0
  6
Continuous
 62
     7
370
    15
100
AcDbCircle
 10
212.2015477146
 20
149.5722619327
 30
0.0
 40
0.4000000000000057
100
AcDbArc
 50
202.024312837
 51
270.0
  0
ARC
  5
5A
330
1F
100
AcDbEntity
  8
0
  6
Continuous
 62
     7
370
    15
100
AcDbCircle
 10
212.2015477146
 20
77.2722619327
 30
0.0
 40
0.4000000000000057
100
AcDbArc
 50
90.0
 51
157.975687163
  0
ARC
  5
5B
330
1F
100
AcDbEntity
  8
0
  6
Continuous
 62
     7
370
    15
100
AcDbCircle
 10
179.1015477146
 20
149.5722619327
 30
0.0
 40
0.3999999999999825
100
AcDbArc
 50
202.024312837
 51
270.0
  0
ARC
  5
5C
330
1F
100
AcDbEntity
  8
0
  6
Continuous
 62
     7
370
    15
100
AcDbCircle
 10
179.1015477146
 20
77.2722619327
 30
0.0
 40
0.3999999999999915
100
AcDbArc
 50
90.0
 51
157.975687163
  0
LINE
  5
5D
330
1F
100
AcDbEntity
  8
0
  6
Continuous
 62
     7
370
    15
100
AcDbLine
 10
221.4599278659
 20
149.1722619327
 30
0.0
 11
212.2015477146
 21
149.1722619327
 31
0.0
  0
LINE
  5
5E
330
1F
100
AcDbEntity
  8
0
  6
Continuous
 62
     7
370
    15
100
AcDbLine
 10
212.2015477146
 20
77.6722619327
 30
0.0
 11
221.4599278659
 21
77.6722619327
 31
0.0
  0
LINE
  5
5F
330
1F
100
AcDbEntity
  8
0
  6
Continuous
 62
     7
370
    15
100
AcDbLine
 10
188.3599278659
 20
149.1722619327
 30
0.0
 11
179.1015477146
 21
149.1722619327
 31
0.0
  0
LINE
  5
60
330
1F
100
AcDbEntity
  8
0
  6
Continuous
 62
     7
370
    15
100
AcDbLine
 10
179.1015477146
 20
77.6722619327
 30
0.0
 11
188.3599278659
 21
77.6722619327
 31
0.0
  0
ARC
  5
61
330
1F
100
AcDbEntity
  8
0
  6
Continuous
 62
     7
370
    15
100
AcDbCircle
 10
109.7807377903
 20
63.9222619327
 30
0.0
 40
0.5
100
AcDbArc
 50
180.0
 51
270.0
  0
ARC
  5
62
330
1F
100
AcDbEntity
  8
0
  6
Continuous
 62
     7
370
    15
100
AcDbCircle
 10
109.7807377903
 20
162.9222619327
 30
0.0
 40
0.5
100
AcDbArc
 50
90.0
 51
180.0
  0
LINE
  5
63
330
1F
100
AcDbEntity
  8
0
  6
Continuous
 62
     7
370
    15
100
AcDbLine
 10
109.7807377903
 20
63.4222619327
 30
0.0
 11
114.2307377903
 21
63.4222619327
 31
0.0
  0
LINE
  5
64
330
1F
100
AcDbEntity
  8
0
  6
Continuous
 62
     7
370
    15
100
AcDbLine
 10
114.2648106227
 20
163.4222619327
 30
0.0
 11
109.7807377903
 21
163.4222619327
 31
0.0
  0
ARC
  5
65
330
1F
100
AcDbEntity
  8
0
  6
Continuous
 62
     7
370
    15
100
AcDbCircle
 10
143.2307377903
 20
72.4222619327
 30
0.0
 40
4.999999999999986
100
AcDbArc
 50
90.0
 51
180.0
  0
ARC
  5
66
330
1F
100
AcDbEntity
  8
0
  6
Continuous
 62
     7
370
    15
100
AcDbCircle
 10
143.2307377903
 20
154.4222619327
 30
0.0
 40
5.0
100
AcDbArc
 50
180.0
 51
270.0
  0
ARC
  5
67
330
1F
100
AcDbEntity
  8
0
  6
Continuous
 62
     7
370
    15
100
AcDbCircle
 10
108.3838008718
 20
74.7937766083
 30
0.0
 40
0.9962338214387074
100
AcDbArc
 50
25.7988228126
 51
90.0
  0
ARC
  5
68
330
1F
100
AcDbEntity
  8
0
  6
Continuous
 62
     7
370
    15
100
AcDbCircle
 10
108.3838008718
 20
152.0507472572
 30
0.0
 40
0.9962338214386932
100
AcDbArc
 50
270.0
 51
334.2011771874
  0
LINE
  5
69
330
1F
100
AcDbEntity
  8
0
  6
Continuous
 62
     7
370
    15
100
AcDbLine
 10
87.8000588716
 20
150.3535776182
 30
0.0
 11
69.4807377903
 21
149.4357759608
 31
0.0
  0
LINE
  5
6A
330
1F
100
AcDbEntity
  8
0
  6
Continuous
 62
     7
370
    15
100
AcDbLine
 10
106.7807377903
 20
151.3045134358
 30
0.0
 11
100.7126986358
 21
151.0005034581
 31
0.0
  0
LINE
  5
6B
330
1F
100
AcDbEntity
  8
0
  6
Continuous
 62
     7
370
    15
100
AcDbLine
 10
100.7128219123
 20
75.8440142312
 30
0.0
 11
106.7807377903
 21
75.5400104297
 31
0.0
  0
LINE
  5
6C
330
1F
100
AcDbEntity
  8
0
  6
Continuous
 62
     7
370
    15
100
AcDbLine
 10
74.4807377903
 20
77.1582469027
 30
0.0
 11
87.8006889442
 21
76.4909146805
 31
0.0
  0
LINE
  5
6D
330
1F
100
AcDbEntity
  8
0
  6
Continuous
 62
     7
370
    15
100
AcDbLine
 10
106.7807377903
 20
75.5400104297
 30
0.0
 11
107.5865839447
 21
75.755936256
 31
0.0
  0
LINE
  5
6E
330
1F
100
AcDbEntity
  8
0
  6
Continuous
 62
     7
370
    15
100
AcDbLine
 10
107.5865839447
 20
151.0885876095
 30
0.0
 11
106.7807377903
 21
151.3045134358
 31
0.0
  0
ARC
  5
6F
330
1F
100
AcDbEntity
  8
0
  6
Continuous
 62
     7
370
    15
100
AcDbCircle
 10
107.8454029898
 20
74.7900104297
 30
0.0
 40
1.000000000000014
100
AcDbArc
 50
90.0
 51
105.0
  0
ARC
  5
70
330
1F
100
AcDbEntity
  8
0
  6
Continuous
 62
     7
370
    15
100
AcDbCircle
 10
107.8454029898
 20
152.0545134358
 30
0.0
 40
0.9999999999999716
100
AcDbArc
 50
255.0
 51
270.0
  0
LINE
  5
71
330
1F
100
AcDbEntity
  8
0
  6
Continuous
 62
     7
370
    15
100
AcDbLine
 10
107.8454029898
 20
75.7900104297
 30
0.0
 11
108.3838008718
 21
75.7900104297
 31
0.0
  0
LINE
  5
72
330
1F
100
AcDbEntity
  8
0
  6
Continuous
 62
     7
370
    15
100
AcDbLine
 10
108.3838008718
 20
151.0545134358
 30
0.0
 11
107.8454029898
 21
151.0545134358
 31
0.0
  0
ARC
  5
73
330
1F
100
AcDbEntity
  8
0
  6
Continuous
 62
     7
370
    15
100
AcDbCircle
 10
152.2807377903
 20
148.4222619327
 30
0.0
 40
1.0
100
AcDbArc
 50
0.0
 51
90.0
  0
ARC
  5
74
330
1F
100
AcDbEntity
  8
0
  6
Continuous
 62
     7
370
    15
100
AcDbCircle
 10
152.2807377903
 20
78.4222619327
 30
0.0
 40
1.0
100
AcDbArc
 50
270.0
 51
0.0
  0
LINE
  5
75
330
1F
100
AcDbEntity
  8
0
  6
Continuous
 62
     7
370
    15
100
AcDbLine
 10
143.2307377903
 20
77.4222619327
 30
0.0
 11
152.2807377903
 21
77.4222619327
 31
0.0
  0
LINE
  5
76
330
1F
100
AcDbEntity
  8
0
  6
Continuous
 62
     7
370
    15
100
AcDbLine
 10
152.2807377903
 20
149.4222619327
 30
0.0
 11
143.2307377903
 21
149.4222619327
 31
0.0
  0
ARC
  5
77
330
1F
100
AcDbEntity
  8
0
  6
Continuous
 62
     7
370
    15
100
AcDbCircle
 10
154.0807377903
 20
147.5472619327
 30
0.0
 40
0.8000000000000114
100
AcDbArc
 50
180.0
 51
270.0
  0
ARC
  5
78
330
1F
100
AcDbEntity
  8
0
  6
Continuous
 62
     7
370
    15
100
AcDbCircle
 10
154.0807377903
 20
79.2972619327
 30
0.0
 40
0.8000000000000114
100
AcDbArc
 50
90.0
 51
180.0
  0
LINE
  5
79
330
1F
100
AcDbEntity
  8
0
  6
Continuous
 62
     7
370
    15
100
AcDbLine
 10
162.7307377903
 20
146.7472619327
 30
0.0
 11
154.0807377903
 21
146.7472619327
 31
0.0
  0
LINE
  5
7A
330
1F
100
AcDbEntity
  8
0
  6
Continuous
 62
     7
370
    15
100
AcDbLine
 10
154.0807377903
 20
80.0972619327
 30
0.0
 11
162.7307377903
 21
80.0972619327
 31
0.0
  0
LINE
  5
7B
330
1F
100
AcDbEntity
  8
0
  6
Continuous
 62
     7
370
    15
100
AcDbLine
 10
238.0807377903
 20
143.4222619327
 30
0.0
 11
237.8307377903
 21
143.4222619327
 31
0.0
  0
LINE
  5
7C
330
1F
100
AcDbEntity
  8
0
  6
Continuous
 62
     7
370
    15
100
AcDbLine
 10
237.8307377903
 20
83.4222619327
 30
0.0
 11
238.0807377903
 21
83.4222619327
 31
0.0
  0
LINE
  5
7D
330
1F
100
AcDbEntity
  8
0
  6
Continuous
 62
     7
370
    15
100
AcDbLine
 10
238.0807377903
 20
83.4222619327
 30
0.0
 11
239.2807377903
 21
84.6222619327
 31
0.0
  0
LINE
  5
7E
330
1F
100
AcDbEntity
  8
0
  6
Continuous
 62
     7
370
    15
100
AcDbLine
 10
239.2807377903
 20
142.2222619327
 30
0.0
 11
238.0807377903
 21
143.4222619327
 31
0.0
  0
LINE
  5
7F
330
1F
100
AcDbEntity
  8
0
  6
Continuous
 62
     7
370
    15
100
AcDbLine
 10
61.0307377903
 20
81.1722619327
 30
0.0
 11
72.5807377903
 21
81.1722619327
 31
0.0
  0
ARC
  5
80
330
1F
100
AcDbEntity
  8
0
  6
Continuous
 62
     7
370
    15
100
AcDbCircle
 10
72.5807377903
 20
79.2722619327
 30
0.0
 40
1.899999999999991
100
AcDbArc
 50
35.6630613694
 51
90.0
  0
ARC
  5
81
330
1F
100
AcDbEntity
  8
0
  6
Continuous
 62
     7
370
    15
100
AcDbCircle
 10
67.5807377903
 20
147.5722619327
 30
0.0
 40
1.900000000000006
100
AcDbArc
 50
270.0
 51
310.9212832533
  0
LINE
  5
82
330
1F
100
AcDbEntity
  8
0
  6
Continuous
 62
     7
370
    15
100
AcDbLine
 10
61.0307377903
 20
145.6722619327
 30
0.0
 11
59.4314216714
 21
144.0729458139
 31
0.0
  0
LINE
  5
83
330
1F
100
AcDbEntity
  8
0
  6
Continuous
 62
     7
370
    15
100
AcDbLine
 10
59.4322590413
 20
82.7707406817
 30
0.0
 11
61.0307377903
 21
81.1722619327
 31
0.0
  0
LINE
  5
84
330
1F
100
AcDbEntity
  8
0
  6
Continuous
 62
     7
370
    15
100
AcDbLine
 10
67.5807377903
 20
145.6722619327
 30
0.0
 11
61.0307377903
 21
145.6722619327
 31
0.0
  0
LINE
  5
85
330
1F
100
AcDbEntity
  8
0
  6
Continuous
 62
     7
370
    15
100
AcDbLine
 10
211.8307377903
 20
90.5040715051
 30
0.0
 11
211.8307377903
 21
77.4222619327
 31
0.0
  0
LINE
  5
86
330
1F
100
AcDbEntity
  8
0
  6
Continuous
 62
     7
370
    15
100
AcDbLine
 10
211.8307377903
 20
149.4222619327
 30
0.0
 11
211.8307377903
 21
90.5040715051
 31
0.0
  0
LINE
  5
87
330
1F
100
AcDbEntity
  8
0
  6
Continuous
 62
     7
370
    15
100
AcDbLine
 10
188.7307377903
 20
90.5040715051
 30
0.0
 11
188.7307377903
 21
77.4222619327
 31
0.0
  0
LINE
  5
88
330
1F
100
AcDbEntity
  8
0
  6
Continuous
 62
     7
370
    15
100
AcDbLine
 10
188.7307377903
 20
149.4222619327
 30
0.0
 11
188.7307377903
 21
90.5040715051
 31
0.0
  0
LINE
  5
89
330
1F
100
AcDbEntity
  8
0
  6
Continuous
 62
     7
370
    15
100
AcDbLine
 10
237.8307377903
 20
91.1406879059
 30
0.0
 11
237.8307377903
 21
78.4222619327
 31
0.0
  0
LINE
  5
8A
330
1F
100
AcDbEntity
  8
0
  6
Continuous
 62
     7
370
    15
100
AcDbLine
 10
237.8307377903
 20
148.4222619327
 30
0.0
 11
237.8307377903
 21
91.1406879059
 31
0.0
  0
LINE
  5
8B
330
1F
100
AcDbEntity
  8
0
  6
Continuous
 62
     7
370
    15
100
AcDbLine
 10
221.8307377903
 20
90.5040715051
 30
0.0
 11
221.8307377903
 21
77.4222619327
 31
0.0
  0
LINE
  5
8C
330
1F
100
AcDbEntity
  8
0
  6
Continuous
 62
     7
370
    15
100
AcDbLine
 10
221.8307377903
 20
149.4222619327
 30
0.0
 11
221.8307377903
 21
90.5040715051
 31
0.0
  0
LINE
  5
8D
330
1F
100
AcDbEntity
  8
0
  6
Continuous
 62
     7
370
    15
100
AcDbLine
 10
178.7307377903
 20
90.5040715051
 30
0.0
 11
178.7307377903
 21
77.4222619327
 31
0.0
  0
LINE
  5
8E
330
1F
100
AcDbEntity
  8
0
  6
Continuous
 62
     7
370
    15
100
AcDbLine
 10
178.7307377903
 20
149.4222619327
 30
0.0
 11
178.7307377903
 21
90.5040715051
 31
0.0
  0
LINE
  5
8F
330
1F
100
AcDbEntity
  8
0
  6
Continuous
 62
     7
370
    15
100
AcDbLine
 10
162.7307377903
 20
91.1406879059
 30
0.0
 11
162.7307377903
 21
78.4222619327
 31
0.0
  0
LINE
  5
90
330
1F
100
AcDbEntity
  8
0
  6
Continuous
 62
     7
370
    15
100
AcDbLine
 10
162.7307377903
 20
148.4222619327
 30
0.0
 11
162.7307377903
 21
91.1406879059
 31
0.0
  0
LINE
  5
91
330
1F
100
AcDbEntity
  8
0
  6
Continuous
 62
     7
370
    15
100
AcDbLine
 10
109.2807377903
 20
63.9222619327
 30
0.0
 11
109.2807377903
 21
162.922261932
 31
0.0
  0
LINE
  5
92
330
1F
100
AcDbEntity
  8
0
  6
Continuous
 62
     7
370
    15
100
AcDbLine
 10
127.3707377903
 20
67.0508736457
 30
0.0
 11
127.3707377903
 21
144.7722619327
 31
0.0
  0
SPLINE
  5
93
330
1F
100
AcDbEntity
  8
0
  6
Continuous
 62
     7
370
    15
100
AcDbSpline
210
0.0
220
0.0
230
1.0
 70
     8
 71
     3
 72
     8
 73
     4
 74
     0
 42
0.00000001
 43
0.00000001
 40
0.0
 40
0.0
 40
0.0
 40
0.0
 40
1.0
 40
1.0
 40
1.0
 40
1.0
 10
127.3707377902881
 20
67.05087364572537
 30
0.0
 10
126.9205113260103
 20
66.24941828310061
 30
0.0
 10
126.4698134987669
 20
65.44822827153996
 30
0.0
 10
126.0187087693667
 20
64.64726833972006
 30
0.0
  0
LINE
  5
94
330
1F
100
AcDbEntity
  8
0
  6
Continuous
 62
     7
370
    15
100
AcDbLine
 10
126.0187087694
 20
64.6472683397
 30
0.0
 11
126.0187087694
 21
144.7722619327
 31
0.0
  0
SPLINE
  5
95
330
1F
100
AcDbEntity
  8
0
  6
Continuous
 62
     7
370
    15
100
AcDbSpline
210
0.0
220
0.0
230
1.0
 70
    24
 71
     3
 72
     8
 73
     4
 74
     0
 42
0.00000001
 43
0.00000001
 40
0.0
 40
0.0
 40
0.0
 40
0.0
 40
1.0
 40
1.0
 40
1.0
 40
1.0
 10
126.0187087693667
 20
144.7722619327489
 30
0.0
 10
126.4755103416949
 20
144.7722619327489
 30
0.0
 10
126.9265249079341
 20
144.7722619327489
 30
0.0
 10
127.3707377902881
 20
144.7722619327489
 30
0.0
  0
LINE
  5
96
330
1F
100
AcDbEntity
  8
0
  6
Continuous
 62
     7
370
    15
100
AcDbLine
 10
137.2307377903
 20
64.6472683397
 30
0.0
 11
132.5427668112
 21
64.6472683397
 31
0.0
  0
LINE
  5
97
330
1F
100
AcDbEntity
  8
0
  6
Continuous
 62
     7
370
    15
100
AcDbLine
 10
132.5427668112
 20
64.6472683397
 30
0.0
 11
132.5427668112
 21
144.7722619327
 31
0.0
  0
LINE
  5
98
330
1F
100
AcDbEntity
  8
0
  6
Continuous
 62
     7
370
    15
100
AcDbLine
 10
132.5427668112
 20
144.7722619327
 30
0.0
 11
137.2307377903
 21
144.7722619327
 31
0.0
  0
SPLINE
  5
99
330
1F
100
AcDbEntity
  8
0
  6
Continuous
 62
     7
370
    15
100
AcDbSpline
210
0.0
220
0.0
230
1.0
 70
     8
 71
     3
 72
     8
 73
     4
 74
     0
 42
0.00000001
 43
0.00000001
 40
0.0
 40
0.0
 40
0.0
 40
0.0
 40
1.0
 40
1.0
 40
1.0
 40
1.0
 10
132.5427668112095
 20
64.64726833972006
 30
0.0
 10
132.0916620818093
 20
65.44822827153997
 30
0.0
 10
131.6409642545659
 20
66.24941828310062
 30
0.0
 10
131.1907377902881
 20
67.0508736457254
 30
0.0
  0
LINE
  5
9A
330
1F
100
AcDbEntity
  8
0
  6
Continuous
 62
     7
370
    15
100
AcDbLine
 10
131.1907377903
 20
67.0508736457
 30
0.0
 11
131.1907377903
 21
144.7722619327
 31
0.0
  0
SPLINE
  5
9B
330
1F
100
AcDbEntity
  8
0
  6
Continuous
 62
     7
370
    15
100
AcDbSpline
210
0.0
220
0.0
230
1.0
 70
    24
 71
     3
 72
     8
 73
     4
 74
     0
 42
0.00000001
 43
0.00000001
 40
0.0
 40
0.0
 40
0.0
 40
0.0
 40
1.0
 40
1.0
 40
1.0
 40
1.0
 10
131.1907377902881
 20
144.7722619327489
 30
0.0
 10
131.634950672642
 20
144.7722619327489
 30
0.0
 10
132.0859652388812
 20
144.7722619327489
 30
0.0
 10
132.5427668112095
 20
144.7722619327489
 30
0.0
  0
LINE
  5
9C
330
1F
100
AcDbEntity
  8
0
  6
Continuous
 62
     7
370
    15
100
AcDbLine
 10
114.2307377903
 20
144.7722619327
 30
0.0
 11
126.0187087694
 21
144.7722619327
 31
0.0
  0
LINE
  5
9D
330
1F
100
AcDbEntity
  8
0
  6
Continuous
 62
     7
370
    15
100
AcDbLine
 10
126.0187087694
 20
64.6472683397
 30
0.0
 11
124.2307377903
 21
64.6472683397
 31
0.0
  0
SPLINE
  5
9E
330
1F
100
AcDbEntity
  8
0
  6
Continuous
 62
     7
370
    15
100
AcDbSpline
210
0.0
220
0.0
230
1.0
 70
     8
 71
     3
 72
    30
 73
    26
 74
     0
 42
0.00000001
 43
0.00000001
 40
0.0
 40
0.0
 40
0.0
 40
0.0
 40
0.1250000000000006
 40
0.1250000000000006
 40
0.187500000000001
 40
0.187500000000001
 40
0.2500000000000013
 40
0.2500000000000013
 40
0.3750000000000014
 40
0.3750000000000014
 40
0.4375000000000014
 40
0.4375000000000014
 40
0.5000000000000013
 40
0.5000000000000013
 40
0.625000000000001
 40
0.625000000000001
 40
0.6875000000000009
 40
0.6875000000000009
 40
0.7500000000000007
 40
0.7500000000000007
 40
0.8125000000000006
 40
0.8125000000000006
 40
0.8750000000000004
 40
0.8750000000000004
 40
1.0
 40
1.0
 40
1.0
 40
1.0
 10
124.2307377902881
 20
64.64726833972006
 30
0.0
 10
123.567993096443
 20
64.64726833972007
 30
0.0
 10
122.9167372373273
 20
64.63242826313125
 30
0.0
 10
121.9562866990691
 20
64.59005869890164
 30
0.0
 10
121.6388952558361
 20
64.57258059612245
 30
0.0
 10
121.0097317542812
 20
64.53125230957016
 30
0.0
 10
120.6975835678395
 20
64.50732703611244
 30
0.0
 10
119.7902762659913
 20
64.42852051964553
 30
0.0
 10
119.21685130835
 20
64.36621449966908
 30
0.0
 10
118.4029744387753
 20
64.26308517942972
 30
0.0
 10
118.1381682422055
 20
64.22690126038319
 30
0.0
 10
117.6312608313911
 20
64.15310647618267
 30
0.0
 10
117.3898666800376
 20
64.11563261741105
 30
0.0
 10
116.7007252079053
 20
64.00292067407132
 30
0.0
 10
116.2876703930411
 20
63.92738457659755
 30
0.0
 10
115.739515573666
 20
63.81899131958005
 30
0.0
 10
115.5700529663204
 20
63.78391908791678
 30
0.0
 10
115.2620357183051
 20
63.71768362731693
 30
0.0
 10
115.1226556976967
 20
63.68635693056221
 30
0.0
 10
114.8728701850699
 20
63.62794815898128
 30
0.0
 10
114.762464072416
 20
63.60086492379845
 30
0.0
 10
114.5712062187783
 20
63.55160516918485
 30
0.0
 10
114.490086700494
 20
63.52934318937719
 30
0.0
 10
114.2959397803856
 20
63.47177628220889
 30
0.0
 10
114.2307377902881
 20
63.44551667742292
 30
0.0
 10
114.2307377902881
 20
63.4322629329489
 30
0.0
  0
LINE
  5
9F
330
1F
100
AcDbEntity
  8
0
  6
Continuous
 62
     7
370
    15
100
AcDbLine
 10
114.2307377903
 20
63.4322629329
 30
0.0
 11
114.2307377903
 21
63.4222619327
 31
0.0
  0
SPLINE
  5
A0
330
1F
100
AcDbEntity
  8
0
  6
Continuous
 62
     7
370
    15
100
AcDbSpline
210
0.0
220
0.0
230
1.0
 70
     8
 71
     3
 72
    17
 73
    13
 74
     0
 42
0.00000001
 43
0.00000001
 40
0.0
 40
0.0
 40
0.0
 40
0.0
 40
0.1043843840547469
 40
0.2118345768143993
 40
0.3162082005190449
 40
0.4235375806108391
 40
0.5292276236193851
 40
0.637927586480349
 40
0.7444714844189682
 40
0.8541836219421858
 40
0.9593080534965216
 40
1.0
 40
1.0
 40
1.0
 40
1.0
 10
124.2307377902881
 20
162.4120567884124
 30
0.0
 10
123.6827993424287
 20
162.4174249921612
 30
0.0
 10
122.570829287964
 20
162.4283190658262
 30
0.0
 10
120.957973374749
 20
162.5134964400851
 30
0.0
 10
119.4244601577721
 20
162.6398711463776
 30
0.0
 10
118.0334393084355
 20
162.7967739669544
 30
0.0
 10
116.7979227912051
 20
162.968472796475
 30
0.0
 10
115.7745670240498
 20
163.1338090725761
 30
0.0
 10
114.9742250257847
 20
163.2775225521626
 30
0.0
 10
114.4638929238712
 20
163.3756773593418
 30
0.0
 10
114.2239844950466
 20
163.4236057562117
 30
0.0
 10
114.2559032744664
 20
163.4172383569721
 30
0.0
 10
114.2648106227486
 20
163.4154614518488
 30
0.0
  0
LINE
  5
A1
330
1F
100
AcDbEntity
  8
0
  6
Continuous
 62
     7
370
    15
100
AcDbLine
 10
126.0187087694
 20
162.4120567884
 30
0.0
 11
124.2307377903
 21
162.4120567884
 31
0.0
  0
LINE
  5
A2
330
1F
100
AcDbEntity
  8
0
  6
Continuous
 62
     7
370
    15
100
AcDbLine
 10
126.0187087694
 20
152.3732246936
 30
0.0
 11
126.0187087694
 21
162.4120567884
 31
0.0
  0
LINE
  5
A3
330
1F
100
AcDbEntity
  8
0
  6
Continuous
 62
     7
370
    15
100
AcDbLine
 10
123.9387046385
 20
152.3732246936
 30
0.0
 11
126.0187087694
 21
152.3732246936
 31
0.0
  0
SPLINE
  5
A4
330
1F
100
AcDbEntity
  8
0
  6
Continuous
 62
     7
370
    15
100
AcDbSpline
210
0.0
220
0.0
230
1.0
 70
     8
 71
     3
 72
    22
 73
    18
 74
     0
 42
0.00000001
 43
0.00000001
 40
0.0
 40
0.0
 40
0.0
 40
0.0
 40
0.2500000000000001
 40
0.2500000000000001
 40
0.3750000000000002
 40
0.3750000000000002
 40
0.5000000000000002
 40
0.5000000000000002
 40
0.6250000000000001
 40
0.6250000000000001
 40
0.7500000000000001
 40
0.7500000000000001
 40
0.875
 40
0.875
 40
0.9375
 40
0.9375
 40
1.0
 40
1.0
 40
1.0
 40
1.0
 10
114.2307377902881
 20
144.7722619327489
 30
0.0
 10
114.4334627462072
 20
145.7915082746135
 30
0.0
 10
114.7482064680025
 20
146.7506164245528
 30
0.0
 10
115.4562619376735
 20
148.0930955020621
 30
0.0
 10
115.7347245678911
 20
148.5273040848021
 30
0.0
 10
116.3734919745283
 20
149.3389318003042
 30
0.0
 10
116.7339056543185
 20
149.718212093241
 30
0.0
 10
117.5514378863078
 20
150.421170672262
 30
0.0
 10
118.012605869595
 20
150.7461994899626
 30
0.0
 10
119.0105961160788
 20
151.3112148133535
 30
0.0
 10
119.550355310071
 20
151.55491840756
 30
0.0
 10
120.7249482741023
 20
151.959118335205
 30
0.0
 10
121.3366844600942
 20
152.1115555282505
 30
0.0
 10
122.2885936849559
 20
152.2668830758592
 30
0.0
 10
122.6118268492166
 20
152.3063878559092
 30
0.0
 10
123.2708900204918
 20
152.3596969765779
 30
0.0
 10
123.6049540310658
 20
152.3732246936358
 30
0.0
 10
123.9387046384674
 20
152.3732246936358
 30
0.0
  0
SPLINE
  5
A5
330
1F
100
AcDbEntity
  8
0
  6
Continuous
 62
     7
370
    15
100
AcDbSpline
210
0.0
220
0.0
230
1.0
 70
     8
 71
     3
 72
    80
 73
    76
 74
     0
 42
0.00000001
 43
0.00000001
 40
-0.0312499999999999
 40
-0.0312499999999999
 40
0.0
 40
0.0
 40
0.0312499999999996
 40
0.0312499999999996
 40
0.0468749999999995
 40
0.0468749999999995
 40
0.0624999999999994
 40
0.0624999999999994
 40
0.093749999999999
 40
0.093749999999999
 40
0.1249999999999987
 40
0.1249999999999987
 40
0.1562499999999983
 40
0.1562499999999983
 40
0.187499999999998
 40
0.187499999999998
 40
0.2187499999999976
 40
0.2187499999999976
 40
0.2499999999999973
 40
0.2499999999999973
 40
0.2812499999999969
 40
0.2812499999999969
 40
0.3124999999999966
 40
0.3124999999999966
 40
0.3281249999999966
 40
0.3281249999999966
 40
0.3437499999999965
 40
0.3437499999999965
 40
0.3749999999999965
 40
0.3749999999999965
 40
0.4062499999999966
 40
0.4062499999999966
 40
0.4218749999999967
 40
0.4218749999999967
 40
0.4374999999999968
 40
0.4374999999999968
 40
0.4687499999999973
 40
0.4687499999999973
 40
0.4999999999999977
 40
0.4999999999999977
 40
0.5312499999999981
 40
0.5312499999999981
 40
0.5624999999999984
 40
0.5624999999999984
 40
0.5937499999999989
 40
0.5937499999999989
 40
0.6249999999999992
 40
0.6249999999999992
 40
0.6562499999999997
 40
0.6562499999999997
 40
0.6875000000000001
 40
0.6875000000000001
 40
0.7031250000000004
 40
0.7031250000000004
 40
0.7187500000000008
 40
0.7187500000000008
 40
0.7500000000000012
 40
0.7500000000000012
 40
0.7812500000000017
 40
0.7812500000000017
 40
0.7968750000000016
 40
0.7968750000000016
 40
0.8125000000000014
 40
0.8125000000000014
 40
0.8437500000000012
 40
0.8437500000000012
 40
0.8750000000000009
 40
0.8750000000000009
 40
0.9062500000000007
 40
0.9062500000000007
 40
0.9375000000000004
 40
0.9375000000000004
 40
0.9687500000000001
 40
0.9687500000000001
 40
1.0
 40
1.0
 40
1.03125
 40
1.03125
 10
118.6112831030644
 20
156.8368913963802
 30
0.0
 10
117.9501924775118
 20
156.8368913963801
 30
0.0
 10
117.6252123482601
 20
156.8530996277622
 30
0.0
 10
117.1457389370137
 20
156.9004642597819
 30
0.0
 10
116.9872571191729
 20
156.9201184716725
 30
0.0
 10
116.6730375866686
 20
156.9672296278652
 30
0.0
 10
116.5169173029882
 20
156.9948109473599
 30
0.0
 10
116.0628632740316
 20
157.0873467341536
 30
0.0
 10
115.7757598910918
 20
157.1624171677501
 30
0.0
 10
115.2324053350648
 20
157.3376554763607
 30
0.0
 10
114.9753017238592
 20
157.438656774199
 30
0.0
 10
114.5143954689204
 20
157.6560129726599
 30
0.0
 10
114.3074977597055
 20
157.7731773044321
 30
0.0
 10
113.9419724457133
 20
158.0232472286608
 30
0.0
 10
113.7867669235873
 20
158.1541933174198
 30
0.0
 10
113.5373365369876
 20
158.4199282611321
 30
0.0
 10
113.4412465812024
 20
158.556681854443
 30
0.0
 10
113.3127277320089
 20
158.830747429282
 30
0.0
 10
113.2809168618311
 20
158.9656875197509
 30
0.0
 10
113.2805602120578
 20
159.2311591568196
 30
0.0
 10
113.3130574642549
 20
159.3629836339609
 30
0.0
 10
113.4406829379694
 20
159.6124332335813
 30
0.0
 10
113.5351113390213
 20
159.7308659255092
 30
0.0
 10
113.7229721590068
 20
159.8997351226033
 30
0.0
 10
113.79380015781
 20
159.9548211177236
 30
0.0
 10
113.9485220497753
 20
160.060073946212
 30
0.0
 10
114.0324985199587
 20
160.1104091749723
 30
0.0
 10
114.3038221896031
 20
160.2549850075104
 30
0.0
 10
114.5103714082054
 20
160.3428465939273
 30
0.0
 10
114.9769815483944
 20
160.5025676869269
 30
0.0
 10
115.2293471180199
 20
160.5718059833941
 30
0.0
 10
115.6352484596986
 20
160.6615933726239
 30
0.0
 10
115.7751490771761
 20
160.6891593347102
 30
0.0
 10
116.064373012423
 20
160.7396501356364
 30
0.0
 10
116.2142124687123
 20
160.7626135744871
 30
0.0
 10
116.6683290383231
 20
160.8232440909059
 30
0.0
 10
116.97998025706
 20
160.8533181197018
 30
0.0
 10
117.6209767219723
 20
160.8939077069604
 30
0.0
 10
117.9525043499245
 20
160.9042199371765
 30
0.0
 10
118.605295394996
 20
160.9042955043422
 30
0.0
 10
118.9298316000278
 20
160.8943938988745
 30
0.0
 10
119.5751010494442
 20
160.8539073683492
 30
0.0
 10
119.8908440556069
 20
160.8234460684646
 30
0.0
 10
120.4927333505906
 20
160.743295397028
 30
0.0
 10
120.7834825814021
 20
160.6930131652208
 30
0.0
 10
121.3303943730866
 20
160.5723429824479
 30
0.0
 10
121.5821717369235
 20
160.5031191232778
 30
0.0
 10
122.0435597295447
 20
160.3456673956372
 30
0.0
 10
122.2548290091428
 20
160.2563189209634
 30
0.0
 10
122.6181333615189
 20
160.0630710502626
 30
0.0
 10
122.7719400099617
 20
159.9589430583833
 30
0.0
 10
122.9605594795591
 20
159.7903186721998
 30
0.0
 10
123.0165899657682
 20
159.7316902705249
 30
0.0
 10
123.1121637275044
 20
159.6122353556987
 30
0.0
 10
123.1519266445294
 20
159.5513155668605
 30
0.0
 10
123.2476983948415
 20
159.3649108406866
 30
0.0
 10
123.2804212339677
 20
159.2357980228916
 30
0.0
 10
123.2810498202967
 20
158.9671410999357
 30
0.0
 10
123.248863675562
 20
158.8317703591789
 30
0.0
 10
123.1539529737064
 20
158.6282200509429
 30
0.0
 10
123.1144861903074
 20
158.5602481268795
 30
0.0
 10
123.0195561915866
 20
158.4241559037486
 30
0.0
 10
122.9637993638232
 20
158.3558058035392
 30
0.0
 10
122.7758592458533
 20
158.155102790497
 30
0.0
 10
122.6224977761371
 20
158.0257145166843
 30
0.0
 10
122.2602335412567
 20
157.7770490846345
 30
0.0
 10
122.0493850677908
 20
157.6572394422663
 30
0.0
 10
121.5887150974719
 20
157.4397171546937
 30
0.0
 10
121.3373407178881
 20
157.3406320548577
 30
0.0
 10
120.79143283099
 20
157.1639595809409
 30
0.0
 10
120.5006102563387
 20
157.0879024928069
 30
0.0
 10
119.8992836415587
 20
156.9650575154539
 30
0.0
 10
119.5847650569463
 20
156.9173513904008
 30
0.0
 10
118.9381836008264
 20
156.8531028552812
 30
0.0
 10
118.6112831030644
 20
156.8368913963802
 30
0.0
 10
117.9501924775118
 20
156.8368913963801
 30
0.0
  0
LINE
  5
A6
330
1F
100
AcDbEntity
  8
0
  6
Continuous
 62
     7
370
    15
100
AcDbLine
 10
138.2307377903
 20
65.6729163875
 30
0.0
 11
138.2307377903
 21
144.7722619327
 31
0.0
  0
SPLINE
  5
A7
330
1F
100
AcDbEntity
  8
0
  6
Continuous
 62
     7
370
    15
100
AcDbSpline
210
0.0
220
0.0
230
1.0
 70
     8
 71
     3
 72
    14
 73
    10
 74
     0
 42
0.00000001
 43
0.00000001
 40
0.0
 40
0.0
 40
0.0
 40
0.0
 40
0.25
 40
0.25
 40
0.5
 40
0.5
 40
0.75
 40
0.75
 40
1.0
 40
1.0
 40
1.0
 40
1.0
 10
138.2307377902881
 20
65.67291638749556
 30
0.0
 10
138.2307377902881
 20
65.53949069144102
 30
0.0
 10
138.2054266903772
 20
65.40764288359667
 30
0.0
 10
138.1070919265325
 20
65.16112033490256
 30
0.0
 10
138.0339479222764
 20
65.04731514666203
 30
0.0
 10
137.8505098611807
 20
64.85685796971474
 30
0.0
 10
137.7388235268421
 20
64.77922310586484
 30
0.0
 10
137.4963200965358
 20
64.67493169575236
 30
0.0
 10
137.3629456678416
 20
64.64726833972001
 30
0.0
 10
137.2307377902881
 20
64.64726833972001
 30
0.0
  0
SPLINE
  5
A8
330
1F
100
AcDbEntity
  8
0
  6
Continuous
 62
     7
370
    15
100
AcDbSpline
210
0.0
220
0.0
230
1.0
 70
    24
 71
     3
 72
    12
 73
     8
 74
     0
 42
0.00000001
 43
0.00000001
 40
0.0
 40
0.0
 40
0.0
 40
0.0
 40
0.2500000000000016
 40
0.2500000000000016
 40
0.5000000000000032
 40
0.5000000000000032
 40
1.0
 40
1.0
 40
1.0
 40
1.0
 10
137.2307377902881
 20
144.7722619327489
 30
0.0
 10
137.3828280272331
 20
144.7722619327489
 30
0.0
 10
137.5312872883085
 20
144.7722619327488
 30
0.0
 10
137.7886909205742
 20
144.7722619327489
 30
0.0
 10
137.8977956684161
 20
144.7722619327489
 30
0.0
 10
138.1518551448237
 20
144.7722619327489
 30
0.0
 10
138.2307377902881
 20
144.7722619327488
 30
0.0
 10
138.2307377902881
 20
144.7722619327489
 30
0.0
  0
SPLINE
  5
A9
330
1F
100
AcDbEntity
  8
0
  6
Continuous
 62
     7
370
    15
100
AcDbSpline
210
0.0
220
0.0
230
1.0
 70
     8
 71
     3
 72
    12
 73
     8
 74
     0
 42
0.00000001
 43
0.00000001
 40
0.0
 40
0.0
 40
0.0
 40
0.0
 40
0.25
 40
0.25
 40
0.5
 40
0.5
 40
1.0
 40
1.0
 40
1.0
 40
1.0
 10
128.1707377902881
 20
68.78258647469922
 30
0.0
 10
128.0649771369391
 20
68.78258647469923
 30
0.0
 10
127.9569895087562
 20
68.7600469686988
 30
0.0
 10
127.7623948434906
 20
68.67547633670353
 30
0.0
 10
127.6735229306518
 20
68.61299468394472
 30
0.0
 10
127.4543306383258
 20
68.38360573247255
 30
0.0
 10
127.370737790288
 20
68.17102239495016
 30
0.0
 10
127.370737790288
 20
67.95908315035396
 30
0.0
  0
SPLINE
  5
AA
330
1F
100
AcDbEntity
  8
0
  6
Continuous
 62
     7
370
    15
100
AcDbSpline
210
0.0
220
0.0
230
1.0
 70
    24
 71
     3
 72
    14
 73
    10
 74
     0
 42
0.00000001
 43
0.00000001
 40
0.0
 40
0.0
 40
0.0
 40
0.0
 40
0.25
 40
0.25
 40
0.5
 40
0.5
 40
0.75
 40
0.75
 40
1.0
 40
1.0
 40
1.0
 40
1.0
 10
127.3707377902881
 20
144.7722619327489
 30
0.0
 10
127.3707377902881
 20
144.7722619327489
 30
0.0
 10
127.386452110754
 20
144.7722619327489
 30
0.0
 10
127.4501360892224
 20
144.7722619327488
 30
0.0
 10
127.4987392836328
 20
144.7722619327489
 30
0.0
 10
127.6314228060584
 20
144.7722619327489
 30
0.0
 10
127.7165249103691
 20
144.7722619327489
 30
0.0
 10
127.9229671452791
 20
144.7722619327489
 30
0.0
 10
128.0470480869022
 20
144.7722619327489
 30
0.0
 10
128.1707377902881
 20
144.7722619327489
 30
0.0
  0
SPLINE
  5
AB
330
1F
100
AcDbEntity
  8
0
  6
Continuous
 62
     7
370
    15
100
AcDbSpline
210
0.0
220
0.0
230
1.0
 70
     8
 71
     3
 72
    14
 73
    10
 74
     0
 42
0.00000001
 43
0.00000001
 40
0.0
 40
0.0
 40
0.0
 40
0.0
 40
0.25
 40
0.25
 40
0.5
 40
0.5
 40
0.75
 40
0.75
 40
1.0
 40
1.0
 40
1.0
 40
1.0
 10
131.1907377902881
 20
67.95908315035396
 30
0.0
 10
131.1907377902881
 20
68.06612723134836
 30
0.0
 10
131.1706201031299
 20
68.1713623715908
 30
0.0
 10
131.0921289138643
 20
68.36921285843849
 30
0.0
 10
131.0339722890631
 20
68.46026462200341
 30
0.0
 10
130.887457033445
 20
68.61343071592817
 30
0.0
 10
130.7988144848039
 20
68.6757251621376
 30
0.0
 10
130.6030911620036
 20
68.76051894767359
 30
0.0
 10
130.4978599709327
 20
68.7825864746992
 30
0.0
 10
130.3907377902881
 20
68.78258647469922
 30
0.0
  0
SPLINE
  5
AC
330
1F
100
AcDbEntity
  8
0
  6
Continuous
 62
     7
370
    15
100
AcDbSpline
210
0.0
220
0.0
230
1.0
 70
    24
 71
     3
 72
    14
 73
    10
 74
     0
 42
0.00000001
 43
0.00000001
 40
0.0
 40
0.0
 40
0.0
 40
0.0
 40
0.25
 40
0.25
 40
0.5
 40
0.5
 40
0.75
 40
0.75
 40
1.0
 40
1.0
 40
1.0
 40
1.0
 10
130.3907377902881
 20
144.7722619327489
 30
0.0
 10
130.5145075550532
 20
144.7722619327489
 30
0.0
 10
130.6388746590601
 20
144.7722619327489
 30
0.0
 10
130.8452311277861
 20
144.7722619327488
 30
0.0
 10
130.9305592712045
 20
144.7722619327489
 30
0.0
 10
131.0627513299197
 20
144.7722619327489
 30
0.0
 10
131.1113965736703
 20
144.7722619327489
 30
0.0
 10
131.1749323653991
 20
144.7722619327489
 30
0.0
 10
131.1907377902881
 20
144.7722619327489
 30
0.0
 10
131.1907377902881
 20
144.7722619327489
 30
0.0
  0
LINE
  5
AD
330
1F
100
AcDbEntity
  8
0
  6
Continuous
 62
     7
370
    15
100
AcDbLine
 10
130.3907377903
 20
68.7825864747
 30
0.0
 11
128.1707377903
 21
68.7825864747
 31
0.0
  0
LINE
  5
AE
330
1F
100
AcDbEntity
  8
0
  6
Continuous
 62
     7
370
    15
100
AcDbLine
 10
128.1707377903
 20
144.7722619327
 30
0.0
 11
130.3907377903
 21
144.7722619327
 31
0.0
  0
LINE
  5
AF
330
1F
100
AcDbEntity
  8
0
  6
Continuous
 62
     7
370
    15
100
AcDbLine
 10
74.4807377903
 20
77.1582469027
 30
0.0
 11
74.4807377903
 21
79.5529286674
 31
0.0
  0
SPLINE
  5
B0
330
1F
100
AcDbEntity
  8
0
  6
Continuous
 62
     7
370
    15
100
AcDbSpline
210
0.0
220
0.0
230
1.0
 70
     8
 71
     3
 72
    14
 73
    10
 74
     0
 42
0.00000001
 43
0.00000001
 40
0.0
 40
0.0
 40
0.0
 40
0.0
 40
0.25
 40
0.25
 40
0.5
 40
0.5
 40
0.75
 40
0.75
 40
1.0
 40
1.0
 40
1.0
 40
1.0
 10
73.47631531895111
 20
81.25578058900533
 30
0.0
 10
73.56508389689644
 20
81.09724645769738
 30
0.0
 10
73.68680173557534
 20
80.94480378080881
 30
0.0
 10
73.92185134543217
 20
80.6476691569799
 30
0.0
 10
74.03748153164908
 20
80.50298651336254
 30
0.0
 10
74.2378864650769
 20
80.21969731085912
 30
0.0
 10
74.32328675706121
 20
80.08114331782228
 30
0.0
 10
74.44499239077845
 20
79.80975928778875
 30
0.0
 10
74.48073779029109
 20
79.67762341915413
 30
0.0
 10
74.48073779029107
 20
79.55292866738337
 30
0.0
  0
SPLINE
  5
B1
330
1F
100
AcDbEntity
  8
0
  6
Continuous
 62
     7
370
    15
100
AcDbSpline
210
0.0
220
0.0
230
1.0
 70
     8
 71
     3
 72
    14
 73
    10
 74
     0
 42
0.00000001
 43
0.00000001
 40
0.0
 40
0.0
 40
0.0
 40
0.0
 40
0.124999999999999
 40
0.124999999999999
 40
0.2499999999999981
 40
0.2499999999999981
 40
0.4999999999999952
 40
0.4999999999999952
 40
1.0
 40
1.0
 40
1.0
 40
1.0
 10
72.58073779028808
 20
81.88461052810543
 30
0.0
 10
72.64832009007256
 20
81.89176641320682
 30
0.0
 10
72.72080766782047
 20
81.88734194316783
 30
0.0
 10
72.8530987770864
 20
81.85763578539748
 30
0.0
 10
72.91037615647659
 20
81.83435150381925
 30
0.0
 10
73.06002658367686
 20
81.75686626396892
 30
0.0
 10
73.13373987919839
 20
81.69501443706756
 30
0.0
 10
73.3215478625246
 20
81.5103369844192
 30
0.0
 10
73.40558816888604
 20
81.382094061128
 30
0.0
 10
73.47631531895232
 20
81.25578058900544
 30
0.0
  0
SPLINE
  5
B2
330
1F
100
AcDbEntity
  8
0
  6
Continuous
 62
     7
370
    15
100
AcDbSpline
210
0.0
220
0.0
230
1.0
 70
     8
 71
     3
 72
     8
 73
     4
 74
     0
 42
0.00000001
 43
0.00000001
 40
0.0
 40
0.0
 40
0.0
 40
0.0
 40
1.0
 40
1.0
 40
1.0
 40
1.0
 10
69.03609740220718
 20
81.46656194331364
 30
0.0
 10
70.20139571291607
 20
81.62174941520026
 30
0.0
 10
71.38601092695593
 20
81.75810805351058
 30
0.0
 10
72.58073779028807
 20
81.88461052810544
 30
0.0
  0
SPLINE
  5
B3
330
1F
100
AcDbEntity
  8
0
  6
Continuous
 62
     7
370
    15
100
AcDbSpline
210
0.0
220
0.0
230
1.0
 70
     8
 71
     3
 72
    14
 73
    10
 74
     0
 42
0.00000001
 43
0.00000001
 40
0.0
 40
0.0
 40
0.0
 40
0.0
 40
0.5000000000000002
 40
0.5000000000000002
 40
0.7500000000000003
 40
0.7500000000000003
 40
0.8750000000000001
 40
0.8750000000000001
 40
1.0
 40
1.0
 40
1.0
 40
1.0
 10
61.28066290625937
 20
81.17642976418374
 30
0.0
 10
62.5889644687931
 20
81.18344448792486
 30
0.0
 10
63.89402384344989
 20
81.19885306436935
 30
0.0
 10
65.83989989493816
 20
81.252749619836
 30
0.0
 10
66.48659739867716
 20
81.2757811844387
 30
0.0
 10
67.45043976253149
 20
81.32672370930945
 30
0.0
 10
67.77067845446558
 20
81.34645863154266
 30
0.0
 10
68.40737368080796
 20
81.3959457600142
 30
0.0
 10
68.72408908909088
 20
81.42501053894344
 30
0.0
 10
69.0360974022072
 20
81.46656194331361
 30
0.0
  0
SPLINE
  5
B4
330
1F
100
AcDbEntity
  8
0
  6
Continuous
 62
     7
370
    15
100
AcDbSpline
210
0.0
220
0.0
230
1.0
 70
     8
 71
     3
 72
    12
 73
     8
 74
     0
 42
0.00000001
 43
0.00000001
 40
0.0
 40
0.0
 40
0.0
 40
0.0
 40
0.2499999999999992
 40
0.2499999999999992
 40
0.4999999999999984
 40
0.4999999999999984
 40
1.0
 40
1.0
 40
1.0
 40
1.0
 10
67.58073779028807
 20
145.5087848242453
 30
0.0
 10
67.06203896845989
 20
145.5413075990935
 30
0.0
 10
66.54032739525489
 20
145.564604340264
 30
0.0
 10
65.4940353787593
 20
145.6024498546861
 30
0.0
 10
64.96936375308904
 20
145.6167183291822
 30
0.0
 10
63.39251773054981
 20
145.6509278166405
 30
0.0
 10
62.33756241600291
 20
145.6624273205844
 30
0.0
 10
61.28066290625768
 20
145.668094101314
 30
0.0
  0
SPLINE
  5
B5
330
1F
100
AcDbEntity
  8
0
  6
Continuous
 62
     7
370
    15
100
AcDbSpline
210
0.0
220
0.0
230
1.0
 70
     8
 71
     3
 72
    20
 73
    16
 74
     0
 42
0.00000001
 43
0.00000001
 40
0.0
 40
0.0
 40
0.0
 40
0.0
 40
0.2500000000000012
 40
0.2500000000000012
 40
0.5000000000000024
 40
0.5000000000000024
 40
0.7500000000000037
 40
0.7500000000000037
 40
0.8750000000000013
 40
0.8750000000000013
 40
0.9375000000000011
 40
0.9375000000000011
 40
0.9687500000000007
 40
0.9687500000000007
 40
1.0
 40
1.0
 40
1.0
 40
1.0
 10
69.48073779028807
 20
147.1668706697334
 30
0.0
 10
69.48073779028806
 20
147.0311883499866
 30
0.0
 10
69.43202600107145
 20
146.8901013638466
 30
0.0
 10
69.26286457784624
 20
146.598029645116
 30
0.0
 10
69.14108416392793
 20
146.4463809030256
 30
0.0
 10
68.84353706917844
 20
146.1439724628725
 30
0.0
 10
68.66962446347566
 20
145.9913838267492
 30
0.0
 10
68.35020962959382
 20
145.7661130629069
 30
0.0
 10
68.23516885414656
 20
145.6913899683962
 30
0.0
 10
68.02808453013014
 20
145.5919795591392
 30
0.0
 10
67.95197669532378
 20
145.5604144667946
 30
0.0
 10
67.82058215577041
 20
145.5259710826017
 30
0.0
 10
67.77402893676896
 20
145.516919510834
 30
0.0
 10
67.67769558568826
 20
145.5067438619955
 30
0.0
 10
67.6284361623328
 20
145.5057941033205
 30
0.0
 10
67.5807377902861
 20
145.5087848242351
 30
0.0
  0
LINE
  5
B6
330
1F
100
AcDbEntity
  8
0
  6
Continuous
 62
     7
370
    15
100
AcDbLine
 10
69.4807377903
 20
147.1668706697
 30
0.0
 11
69.4807377903
 21
149.4357759608
 31
0.0
  0
LINE
  5
B7
330
1F
100
AcDbEntity
  8
0
  6
Continuous
 62
     7
370
    15
100
AcDbLine
 10
106.7807377903
 20
75.5400104297
 30
0.0
 11
106.7807377903
 21
151.3045134358
 31
0.0
  0
SPLINE
  5
B8
330
1F
100
AcDbEntity
  8
0
  6
Continuous
 62
     7
370
    15
100
AcDbSpline
210
0.0
220
0.0
230
1.0
 70
     8
 71
     3
 72
    24
 73
    20
 74
     0
 42
0.00000001
 43
0.00000001
 40
0.0
 40
0.0
 40
0.0
 40
0.0
 40
0.0002934293894791
 40
0.0628080051750743
 40
0.1260453927228413
 40
0.1890746766604673
 40
0.2513200540860154
 40
0.3133304633786613
 40
0.3759158453762938
 40
0.4383740564599711
 40
0.5000631094857249
 40
0.5616593988027924
 40
0.6245050380643675
 40
0.6872231506497711
 40
0.7494953263230504
 40
0.8117583797533805
 40
0.8747365508229852
 40
0.9378980306231629
 40
1.0
 40
1.0
 40
1.0
 40
1.0
 10
87.80069405412749
 20
76.4910166744365
 30
0.0
 10
87.8004992012427
 20
76.4909923670425
 30
0.0
 10
87.75879131023306
 20
76.48578941538919
 30
0.0
 10
87.90390970176473
 20
76.5044240387181
 30
0.0
 10
88.25898864329844
 20
76.54694381726728
 30
0.0
 10
88.86356428083926
 20
76.61508010086948
 30
0.0
 10
89.66999958965839
 20
76.68833563788495
 30
0.0
 10
90.65547701357937
 20
76.75285497870313
 30
0.0
 10
91.7871466102592
 20
76.79141920676422
 30
0.0
 10
93.00943908042127
 20
76.7951137127655
 30
0.0
 10
94.2767677618647
 20
76.75268773271726
 30
0.0
 10
95.54325329228935
 20
76.66444059193503
 30
0.0
 10
96.75939065610342
 20
76.536047321671
 30
0.0
 10
97.8848011519578
 20
76.38340633307831
 30
0.0
 10
98.8622182135068
 20
76.22163171797317
 30
0.0
 10
99.66548369205593
 20
76.06910282487134
 30
0.0
 10
100.2539772150571
 20
75.94508908160408
 30
0.0
 10
100.6428833267097
 20
75.86016515532762
 30
0.0
 10
100.689644457448
 20
75.84943884404879
 30
0.0
 10
100.7128272639906
 20
75.84412105135712
 30
0.0
  0
SPLINE
  5
B9
330
1F
100
AcDbEntity
  8
0
  6
Continuous
 62
     7
370
    15
100
AcDbSpline
210
0.0
220
0.0
230
1.0
 70
     8
 71
     3
 72
    41
 73
    37
 74
     0
 42
0.00000001
 43
0.00000001
 40
0.0
 40
0.0
 40
0.0
 40
0.0
 40
0.0619930061482886
 40
0.125434778346637
 40
0.1886508898236713
 40
0.2510246408607265
 40
0.3131658188973415
 40
0.3756581641417395
 40
0.4382227146725979
 40
0.4998044922940719
 40
0.5615164197175876
 40
0.6240683094121892
 40
0.6867257232406875
 40
0.7488365305144532
 40
0.8110685944257437
 40
0.8741742884451472
 40
0.9373212787648313
 40
0.9685511709619763
 40
0.9842086872488534
 40
0.9920641182532473
 40
0.9960004861255679
 40
0.997971079412031
 40
0.9989570090489651
 40
0.9994501359395087
 40
0.9996967403802167
 40
0.99982005290907
 40
0.9998817117580776
 40
0.9999125418296597
 40
0.9999279570273318
 40
0.999935664666656
 40
0.9999395184964424
 40
0.9999414454138653
 40
0.9999424088732108
 40
0.9999433723329764
 40
0.9999501696997193
 40
1.0
 40
1.0
 40
1.0
 40
1.0
 10
100.7127059335127
 20
151.0003577961891
 30
0.0
 10
100.6891342881703
 20
150.9950483165393
 30
0.0
 10
100.6414401321276
 20
150.9843052755998
 30
0.0
 10
100.2493981426978
 20
150.8990761391441
 30
0.0
 10
99.65888409342524
 20
150.7745073605034
 30
0.0
 10
98.85484664738412
 20
150.6215604143517
 30
0.0
 10
97.87877124720306
 20
150.4598038603984
 30
0.0
 10
96.75696251192426
 20
150.3075710924662
 30
0.0
 10
95.54343159213543
 20
150.1797911512644
 30
0.0
 10
94.2786008857378
 20
150.091942599582
 30
0.0
 10
93.01055784829423
 20
150.0495571157116
 30
0.0
 10
91.78705049059424
 20
150.0532929236828
 30
0.0
 10
90.65355195017696
 20
150.0918883941306
 30
0.0
 10
89.66744613920258
 20
150.1563277654222
 30
0.0
 10
88.85881833041259
 20
150.2298375727032
 30
0.0
 10
88.26219963530447
 20
150.2971512575153
 30
0.0
 10
87.94680834584896
 20
150.3351158087833
 30
0.0
 10
87.83674177705028
 20
150.348914868115
 30
0.0
 10
87.809322389236
 20
150.3524009420356
 30
0.0
 10
87.80240033840649
 20
150.3532801677289
 30
0.0
 10
87.80063209822306
 20
150.3535009423352
 30
0.0
 10
87.8001717190497
 20
150.353556145046
 30
0.0
 10
87.80004756036492
 20
150.353569884833
 30
0.0
 10
87.80001200587174
 20
150.353573280664
 30
0.0
 10
87.80000086180165
 20
150.3535741089843
 30
0.0
 10
87.79999694860554
 20
150.3535743055731
 30
0.0
 10
87.7999954064007
 20
150.3535743495032
 30
0.0
 10
87.7999947393992
 20
150.3535743578099
 30
0.0
 10
87.79999443122144
 20
150.3535743586402
 30
0.0
 10
87.7999942844554
 20
150.353574358095
 30
0.0
 10
87.79999421150295
 20
150.3535743577652
 30
0.0
 10
87.79999417711056
 20
150.3535743573279
 30
0.0
 10
87.79999415486539
 20
150.3535743574164
 30
0.0
 10
87.79999412775597
 20
150.3535743545814
 30
0.0
 10
87.79999160819509
 20
150.3535746414364
 30
0.0
 10
87.80002769811338
 20
150.3535700213358
 30
0.0
 10
87.80005945593705
 20
150.3535659558142
 30
0.0
  0
LINE
  5
BA
330
1F
100
AcDbEntity
  8
0
  6
Continuous
 62
     7
370
    15
100
AcDbLine
 10
153.2807377903
 20
148.4222619327
 30
0.0
 11
153.2807377903
 21
78.4222619417
 31
0.0
  0
SPLINE
  5
BB
330
1F
100
AcDbEntity
  8
0
  6
Continuous
 62
     7
370
    15
100
AcDbSpline
210
0.0
220
0.0
230
1.0
 70
     8
 71
     3
 72
    20
 73
    16
 74
     0
 42
0.00000001
 43
0.00000001
 40
0.0
 40
0.0
 40
0.0
 40
0.0
 40
0.2499999999999887
 40
0.2499999999999887
 40
0.374999999999986
 40
0.374999999999986
 40
0.4374999999999881
 40
0.4374999999999881
 40
0.4999999999999901
 40
0.4999999999999901
 40
0.6249999999999891
 40
0.6249999999999891
 40
0.7499999999999881
 40
0.7499999999999881
 40
1.0
 40
1.0
 40
1.0
 40
1.0
 10
59.67155202200408
 20
82.74377878004816
 30
0.0
 10
59.69782423921752
 20
82.76309672113062
 30
0.0
 10
59.72850438147231
 20
82.77748543223237
 30
0.0
 10
59.79997525185426
 20
82.77058107039636
 30
0.0
 10
59.82800228889859
 20
82.76341506704794
 30
0.0
 10
59.88308587839614
 20
82.73371604034435
 30
0.0
 10
59.90397720694854
 20
82.72024239778303
 30
0.0
 10
59.94918585439399
 20
82.68504413226701
 30
0.0
 10
59.97359006678957
 20
82.66313590353975
 30
0.0
 10
60.04492238484102
 20
82.59101104354421
 30
0.0
 10
60.08681916966127
 20
82.53867050259414
 30
0.0
 10
60.15839512851713
 20
82.44118711069339
 30
0.0
 10
60.18922311833447
 20
82.39443334081497
 30
0.0
 10
60.27232305117005
 20
82.26114012497587
 30
0.0
 10
60.31717795654035
 20
82.17850272706067
 30
0.0
 10
60.35729003199289
 20
82.09939583226988
 30
0.0
  0
SPLINE
  5
BC
330
1F
100
AcDbEntity
  8
0
  6
Continuous
 62
     7
370
    15
100
AcDbSpline
210
0.0
220
0.0
230
1.0
 70
     8
 71
     3
 72
    14
 73
    10
 74
     0
 42
0.00000001
 43
0.00000001
 40
0.0
 40
0.0
 40
0.0
 40
0.0
 40
0.25
 40
0.25
 40
0.5
 40
0.5
 40
0.75
 40
0.75
 40
1.0
 40
1.0
 40
1.0
 40
1.0
 10
59.38073779028807
 20
82.91959219018094
 30
0.0
 10
59.38073779028809
 20
82.87834525915659
 30
0.0
 10
59.38934750666932
 20
82.8414382868741
 30
0.0
 10
59.42043368623967
 20
82.78053822697468
 30
0.0
 10
59.44282323972373
 20
82.756357307435
 30
0.0
 10
59.49756717089985
 20
82.72238971655175
 30
0.0
 10
59.53001741048504
 20
82.71246963258355
 30
0.0
 10
59.60001892521311
 20
82.71111842367871
 30
0.0
 10
59.63822942533564
 20
82.71927670037486
 30
0.0
 10
59.67155202200873
 20
82.74377878004296
 30
0.0
  0
LINE
  5
BD
330
1F
100
AcDbEntity
  8
0
  6
Continuous
 62
     7
370
    15
100
AcDbLine
 10
59.3807377903
 20
82.9195921902
 30
0.0
 11
59.3807377903
 21
143.9249316753
 31
0.0
  0
SPLINE
  5
BE
330
1F
100
AcDbEntity
  8
0
  6
Continuous
 62
     7
370
    15
100
AcDbSpline
210
0.0
220
0.0
230
1.0
 70
     8
 71
     3
 72
     9
 73
     5
 74
     0
 42
0.00000001
 43
0.00000001
 40
0.0
 40
0.0
 40
0.0
 40
0.0
 40
0.0592950272321235
 40
0.9999999999999999
 40
0.9999999999999999
 40
0.9999999999999999
 40
0.9999999999999999
 10
59.67155202200872
 20
144.1007450854547
 30
0.0
 10
59.66666918054653
 20
144.1040379308482
 30
0.0
 10
59.58432093500016
 20
144.1595711778538
 30
0.0
 10
59.51818888451865
 20
144.1022817753413
 30
0.0
 10
59.45597813577135
 20
144.0483893495109
 30
0.0
  0
SPLINE
  5
BF
330
1F
100
AcDbEntity
  8
0
  6
Continuous
 62
     7
370
    15
100
AcDbSpline
210
0.0
220
0.0
230
1.0
 70
     8
 71
     3
 72
     8
 73
     4
 74
     0
 42
0.00000001
 43
0.00000001
 40
0.0
 40
0.0
 40
0.0
 40
0.0
 40
1.0
 40
1.0
 40
1.0
 40
1.0
 10
59.40437145922428
 20
144.0325111763864
 30
0.0
 10
59.38902242058825
 20
144.0020011213905
 30
0.0
 10
59.38073779028807
 20
143.9656895658782
 30
0.0
 10
59.38073779028807
 20
143.9249316753167
 30
0.0
  0
SPLINE
  5
C0
330
1F
100
AcDbEntity
  8
0
  6
Continuous
 62
     7
370
    15
100
AcDbSpline
210
0.0
220
0.0
230
1.0
 70
     8
 71
     3
 72
    20
 73
    16
 74
     0
 42
0.00000001
 43
0.00000001
 40
0.0
 40
0.0
 40
0.0
 40
0.0
 40
0.2499999999999868
 40
0.2499999999999868
 40
0.3749999999999822
 40
0.3749999999999822
 40
0.4999999999999776
 40
0.4999999999999776
 40
0.5624999999999778
 40
0.5624999999999778
 40
0.624999999999978
 40
0.624999999999978
 40
0.7499999999999855
 40
0.7499999999999855
 40
1.0
 40
1.0
 40
1.0
 40
1.0
 10
60.35729003199047
 20
144.745128033227
 30
0.0
 10
60.31729381416665
 20
144.6662496266696
 30
0.0
 10
60.27218018632899
 20
144.5831199799781
 30
0.0
 10
60.18892597196249
 20
144.4496313156271
 30
0.0
 10
60.15870664334196
 20
144.4037662597451
 30
0.0
 10
60.08661840820051
 20
144.3055747073402
 30
0.0
 10
60.04470109078947
 20
144.2532648878166
 30
0.0
 10
59.97345048623801
 20
144.1812589850821
 30
0.0
 10
59.94921467385868
 20
144.1594887727806
 30
0.0
 10
59.90361648367404
 20
144.1240141144516
 30
0.0
 10
59.88281399407432
 20
144.110643930274
 30
0.0
 10
59.82787299565523
 20
144.0810740181388
 30
0.0
 10
59.79980400756842
 20
144.0739474958368
 30
0.0
 10
59.72930117750555
 20
144.0670731243542
 30
0.0
 10
59.69787708971472
 20
144.0813882834413
 30
0.0
 10
59.67155202200611
 20
144.1007450854519
 30
0.0
  0
SPLINE
  5
C1
330
1F
100
AcDbEntity
  8
0
  6
Continuous
 62
     7
370
    15
100
AcDbSpline
210
0.0
220
0.0
230
1.0
 70
     8
 71
     3
 72
    10
 73
     6
 74
     0
 42
0.00000001
 43
0.00000001
 40
0.0
 40
0.0
 40
0.0
 40
0.0
 40
0.4999999999999989
 40
0.4999999999999989
 40
1.0
 40
1.0
 40
1.0
 40
1.0
 10
61.03073779028809
 20
145.6705471345688
 30
0.0
 10
60.90584951953788
 20
145.5395508564974
 30
0.0
 10
60.78439940147744
 20
145.3958380198324
 30
0.0
 10
60.55481542652
 20
145.0852677271431
 30
0.0
 10
60.44454045112402
 20
144.9171986540801
 30
0.0
 10
60.3572900319905
 20
144.745128033227
 30
0.0
  0
SPLINE
  5
C2
330
1F
100
AcDbEntity
  8
0
  6
Continuous
 62
     7
370
    15
100
AcDbSpline
210
0.0
220
0.0
230
1.0
 70
     8
 71
     3
 72
     8
 73
     4
 74
     0
 42
0.00000001
 43
0.00000001
 40
0.0
 40
0.0
 40
0.0
 40
0.0
 40
1.0
 40
1.0
 40
1.0
 40
1.0
 10
61.28066290625381
 20
145.6680941013134
 30
0.0
 10
61.19364487640545
 20
145.6685606661005
 30
0.0
 10
61.11069085002552
 20
145.6696006856767
 30
0.0
 10
61.03073779028577
 20
145.6705471345689
 30
0.0
  0
SPLINE
  5
C3
330
1F
100
AcDbEntity
  8
0
  6
Continuous
 62
     7
370
    15
100
AcDbSpline
210
0.0
220
0.0
230
1.0
 70
     8
 71
     3
 72
     8
 73
     4
 74
     0
 42
0.00000001
 43
0.00000001
 40
0.0
 40
0.0
 40
0.0
 40
0.0
 40
1.0
 40
1.0
 40
1.0
 40
1.0
 10
61.03073779028577
 20
81.17397673092877
 30
0.0
 10
61.11069085002605
 20
81.17492317982105
 30
0.0
 10
61.19364487640652
 20
81.17596319939719
 30
0.0
 10
61.2806629062555
 20
81.17642976418423
 30
0.0
  0
SPLINE
  5
C4
330
1F
100
AcDbEntity
  8
0
  6
Continuous
 62
     7
370
    15
100
AcDbSpline
210
0.0
220
0.0
230
1.0
 70
     8
 71
     3
 72
    10
 73
     6
 74
     0
 42
0.00000001
 43
0.00000001
 40
0.0
 40
0.0
 40
0.0
 40
0.0
 40
0.4999999999999989
 40
0.4999999999999989
 40
1.0
 40
1.0
 40
1.0
 40
1.0
 10
60.35729003198957
 20
82.09939583227246
 30
0.0
 10
60.44454045112305
 20
81.92732521141909
 30
0.0
 10
60.55481542651921
 20
81.75925613835565
 30
0.0
 10
60.78439940147703
 20
81.44868584566584
 30
0.0
 10
60.90584951953768
 20
81.30497300900055
 30
0.0
 10
61.03073779028809
 20
81.17397673092886
 30
0.0
  0
SPLINE
  5
C5
330
1F
100
AcDbEntity
  8
0
  6
Continuous
 62
     7
370
    15
100
AcDbSpline
210
0.0
220
0.0
230
1.0
 70
     8
 71
     3
 72
    14
 73
    10
 74
     0
 42
0.00000001
 43
0.00000001
 40
0.0
 40
0.0
 40
0.0
 40
0.0
 40
0.25
 40
0.25
 40
0.5
 40
0.5
 40
0.75
 40
0.75
 40
1.0
 40
1.0
 40
1.0
 40
1.0
 10
131.1907377902881
 20
159.1158131735968
 30
0.0
 10
131.1907377902881
 20
159.0094564798445
 30
0.0
 10
131.1703502341468
 20
158.9036159920844
 30
0.0
 10
131.0917158886853
 20
158.7070510785479
 30
0.0
 10
131.0329845290467
 20
158.6158803362608
 30
0.0
 10
130.8863756234441
 20
158.4639692472292
 30
0.0
 10
130.7969703034176
 20
158.4019004104096
 30
0.0
 10
130.6030795708172
 20
158.3186323626509
 30
0.0
 10
130.4965745809274
 20
158.2965376929213
 30
0.0
 10
130.3907377902881
 20
158.2965376929213
 30
0.0
  0
SPLINE
  5
C6
330
1F
100
AcDbEntity
  8
0
  6
Continuous
 62
     7
370
    15
100
AcDbSpline
210
0.0
220
0.0
230
1.0
 70
     8
 71
     3
 72
    12
 73
     8
 74
     0
 42
0.00000001
 43
0.00000001
 40
0.0
 40
0.0
 40
0.0
 40
0.0
 40
0.2500000000000039
 40
0.2500000000000039
 40
0.5000000000000078
 40
0.5000000000000078
 40
1.0
 40
1.0
 40
1.0
 40
1.0
 10
130.3907377902881
 20
147.0507933458213
 30
0.0
 10
130.514438740268
 20
147.0507933458213
 30
0.0
 10
130.6385353525382
 20
147.0927869575538
 30
0.0
 10
130.8451905156253
 20
147.2305822841982
 30
0.0
 10
130.9302312823521
 20
147.3245558826631
 30
0.0
 10
131.1297098508257
 20
147.6393440888841
 30
0.0
 10
131.1907377902881
 20
147.8895830811117
 30
0.0
 10
131.1907377902881
 20
148.1364971252459
 30
0.0
  0
SPLINE
  5
C7
330
1F
100
AcDbEntity
  8
0
  6
Continuous
 62
     7
370
    15
100
AcDbSpline
210
0.0
220
0.0
230
1.0
 70
     8
 71
     3
 72
    10
 73
     6
 74
     0
 42
0.00000001
 43
0.00000001
 40
0.0
 40
0.0
 40
0.0
 40
0.0
 40
0.5
 40
0.5
 40
1.0
 40
1.0
 40
1.0
 40
1.0
 10
128.1707377902881
 20
158.2965376929213
 30
0.0
 10
127.9582014764317
 20
158.2965376929213
 30
0.0
 10
127.7482653047777
 20
158.3879502795515
 30
0.0
 10
127.4545581637664
 20
158.6926951454557
 30
0.0
 10
127.3707377902881
 20
158.9048501153643
 30
0.0
 10
127.3707377902881
 20
159.1158131735968
 30
0.0
  0
SPLINE
  5
C8
330
1F
100
AcDbEntity
  8
0
  6
Continuous
 62
     7
370
    15
100
AcDbSpline
210
0.0
220
0.0
230
1.0
 70
     8
 71
     3
 72
    14
 73
    10
 74
     0
 42
0.00000001
 43
0.00000001
 40
0.0
 40
0.0
 40
0.0
 40
0.0
 40
0.25
 40
0.25
 40
0.5
 40
0.5
 40
0.75
 40
0.75
 40
1.0
 40
1.0
 40
1.0
 40
1.0
 10
127.370737790288
 20
148.1364971252459
 30
0.0
 10
127.370737790288
 20
148.0126302484567
 30
0.0
 10
127.3865969179157
 20
147.8883705716192
 30
0.0
 10
127.4499585634355
 20
147.6507622092133
 30
0.0
 10
127.4985482714849
 20
147.5339818244609
 30
0.0
 10
127.6308338762598
 20
147.3251792958519
 30
0.0
 10
127.7161586675203
 20
147.2306685922593
 30
0.0
 10
127.9230499158265
 20
147.0927117914569
 30
0.0
 10
128.0470178617165
 20
147.0507933458213
 30
0.0
 10
128.1707377902881
 20
147.0507933458213
 30
0.0
  0
LINE
  5
C9
330
1F
100
AcDbEntity
  8
0
  6
Continuous
 62
     7
370
    15
100
AcDbLine
 10
137.2307377903
 20
162.4120567884
 30
0.0
 11
132.5427668112
 21
162.4120567884
 31
0.0
  0
LINE
  5
CA
330
1F
100
AcDbEntity
  8
0
  6
Continuous
 62
     7
370
    15
100
AcDbLine
 10
132.5427668112
 20
152.3732246936
 30
0.0
 11
137.2307377903
 21
152.3732246936
 31
0.0
  0
LINE
  5
CB
330
1F
100
AcDbEntity
  8
0
  6
Continuous
 62
     7
370
    15
100
AcDbLine
 10
132.5427668112
 20
152.3732246936
 30
0.0
 11
132.5427668112
 21
162.4120567884
 31
0.0
  0
SPLINE
  5
CC
330
1F
100
AcDbEntity
  8
0
  6
Continuous
 62
     7
370
    15
100
AcDbSpline
210
0.0
220
0.0
230
1.0
 70
     8
 71
     3
 72
     8
 73
     4
 74
     0
 42
0.00000001
 43
0.00000001
 40
0.0
 40
0.0
 40
0.0
 40
0.0
 40
1.0
 40
1.0
 40
1.0
 40
1.0
 10
132.5427668112095
 20
162.4120567884124
 30
0.0
 10
132.0917398424962
 20
161.6147462182246
 30
0.0
 10
131.6410460259726
 20
160.8172479185673
 30
0.0
 10
131.1907377902881
 20
160.0195327934537
 30
0.0
  0
SPLINE
  5
CD
330
1F
100
AcDbEntity
  8
0
  6
Continuous
 62
     7
370
    15
100
AcDbSpline
210
0.0
220
0.0
230
1.0
 70
     8
 71
     3
 72
     8
 73
     4
 74
     0
 42
0.00000001
 43
0.00000001
 40
0.0
 40
0.0
 40
0.0
 40
0.0
 40
1.0
 40
1.0
 40
1.0
 40
1.0
 10
131.1907377902881
 20
149.3177094388867
 30
0.0
 10
131.6348878013136
 20
150.3390926698383
 30
0.0
 10
132.0859621115715
 20
151.3575772066067
 30
0.0
 10
132.5427668112095
 20
152.3732246936358
 30
0.0
  0
LINE
  5
CE
330
1F
100
AcDbEntity
  8
0
  6
Continuous
 62
     7
370
    15
100
AcDbLine
 10
131.1907377903
 20
149.3177094389
 30
0.0
 11
131.1907377903
 21
160.0195327935
 31
0.0
  0
SPLINE
  5
CF
330
1F
100
AcDbEntity
  8
0
  6
Continuous
 62
     7
370
    15
100
AcDbSpline
210
0.0
220
0.0
230
1.0
 70
     8
 71
     3
 72
     8
 73
     4
 74
     0
 42
0.00000001
 43
0.00000001
 40
0.0
 40
0.0
 40
0.0
 40
0.0
 40
1.0
 40
1.0
 40
1.0
 40
1.0
 10
126.0187087693667
 20
152.3732246936358
 30
0.0
 10
126.4756351231662
 20
151.3573067239615
 30
0.0
 10
126.9268407649692
 20
150.3385108948703
 30
0.0
 10
127.3707377902881
 20
149.3177094388867
 30
0.0
  0
LINE
  5
D0
330
1F
100
AcDbEntity
  8
0
  6
Continuous
 62
     7
370
    15
100
AcDbLine
 10
127.3707377903
 20
149.3177094389
 30
0.0
 11
127.3707377903
 21
148.1364971252
 31
0.0
  0
LINE
  5
D1
330
1F
100
AcDbEntity
  8
0
  6
Continuous
 62
     7
370
    15
100
AcDbLine
 10
128.1707377903
 20
147.0507933458
 30
0.0
 11
130.3907377903
 21
147.0507933458
 31
0.0
  0
LINE
  5
D2
330
1F
100
AcDbEntity
  8
0
  6
Continuous
 62
     7
370
    15
100
AcDbLine
 10
131.1907377903
 20
148.1364971252
 30
0.0
 11
131.1907377903
 21
149.3177094389
 31
0.0
  0
SPLINE
  5
D3
330
1F
100
AcDbEntity
  8
0
  6
Continuous
 62
     7
370
    15
100
AcDbSpline
210
0.0
220
0.0
230
1.0
 70
     8
 71
     3
 72
    16
 73
    12
 74
     0
 42
0.00000001
 43
0.00000001
 40
0.0
 40
0.0
 40
0.0
 40
0.0
 40
0.1249999999999996
 40
0.1249999999999996
 40
0.2499999999999992
 40
0.2499999999999992
 40
0.4999999999999994
 40
0.4999999999999994
 40
0.7499999999999997
 40
0.7499999999999997
 40
1.0
 40
1.0
 40
1.0
 40
1.0
 10
137.2307377902881
 20
152.3732246936358
 30
0.0
 10
137.3063754966992
 20
152.3732246936358
 30
0.0
 10
137.3826911611175
 20
152.3618796935008
 30
0.0
 10
137.5271018990094
 20
152.3192271428623
 30
0.0
 10
137.5955483481179
 20
152.2882928181795
 30
0.0
 10
137.790479600731
 20
152.1690364464119
 30
0.0
 10
137.8983207745119
 20
152.0588844327913
 30
0.0
 10
138.0670335227239
 20
151.8107483471333
 30
0.0
 10
138.1293979354475
 20
151.6704060231295
 30
0.0
 10
138.2107018599559
 20
151.3821343316409
 30
0.0
 10
138.2307377902881
 20
151.2313293586611
 30
0.0
 10
138.2307377902881
 20
151.0809594673158
 30
0.0
  0
LINE
  5
D4
330
1F
100
AcDbEntity
  8
0
  6
Continuous
 62
     7
370
    15
100
AcDbLine
 10
138.2307377903
 20
151.0809594673
 30
0.0
 11
138.2307377903
 21
144.7722619327
 31
0.0
  0
SPLINE
  5
D5
330
1F
100
AcDbEntity
  8
0
  6
Continuous
 62
     7
370
    15
100
AcDbSpline
210
0.0
220
0.0
230
1.0
 70
     8
 71
     3
 72
    12
 73
     8
 74
     0
 42
0.00000001
 43
0.00000001
 40
0.0
 40
0.0
 40
0.0
 40
0.0
 40
0.4999999999999953
 40
0.4999999999999953
 40
0.7499999999999977
 40
0.7499999999999977
 40
1.0
 40
1.0
 40
1.0
 40
1.0
 10
138.2307377902881
 20
161.3910017535947
 30
0.0
 10
138.2307377902881
 20
161.6562711863611
 30
0.0
 10
138.1261310468016
 20
161.9187862920135
 30
0.0
 10
137.8494626950563
 20
162.2043238980507
 30
0.0
 10
137.7390974357043
 20
162.2806455149122
 30
0.0
 10
137.4950253870886
 20
162.3849876797523
 30
0.0
 10
137.3632729257568
 20
162.4120567884125
 30
0.0
 10
137.2307377902881
 20
162.4120567884124
 30
0.0
  0
LINE
  5
D6
330
1F
100
AcDbEntity
  8
0
  6
Continuous
 62
     7
370
    15
100
AcDbLine
 10
138.2307377903
 20
151.0809594673
 30
0.0
 11
138.2307377903
 21
161.3910017536
 31
0.0
  0
SPLINE
  5
D7
330
1F
100
AcDbEntity
  8
0
  6
Continuous
 62
     7
370
    15
100
AcDbSpline
210
0.0
220
0.0
230
1.0
 70
     8
 71
     3
 72
     8
 73
     4
 74
     0
 42
0.00000001
 43
0.00000001
 40
0.0
 40
0.0
 40
0.0
 40
0.0
 40
1.0
 40
1.0
 40
1.0
 40
1.0
 10
127.3707377902881
 20
160.0195327934538
 30
0.0
 10
126.9204295546035
 20
160.8172479185674
 30
0.0
 10
126.4697357380799
 20
161.6147462182246
 30
0.0
 10
126.0187087693667
 20
162.4120567884124
 30
0.0
  0
LINE
  5
D8
330
1F
100
AcDbEntity
  8
0
  6
Continuous
 62
     7
370
    15
100
AcDbLine
 10
127.3707377903
 20
149.3177094389
 30
0.0
 11
127.3707377903
 21
160.0195327935
 31
0.0
  0
LINE
  5
D9
330
1F
100
AcDbEntity
  8
0
  6
Continuous
 62
     7
370
    15
100
AcDbLine
 10
130.3907377903
 20
158.2965376929
 30
0.0
 11
128.1707377903
 21
158.2965376929
 31
0.0
  0
LINE
  5
DA
330
1F
100
AcDbEntity
  8
0
  6
Continuous
 62
     7
370
    15
100
AcDbLine
 10
238.0807377903
 20
100.8972619327
 30
0.0
 11
238.0807377903
 21
83.4222619327
 31
0.0
  0
LINE
  5
DB
330
1F
100
AcDbEntity
  8
0
  6
Continuous
 62
     7
370
    15
100
AcDbLine
 10
238.0807377903
 20
143.4222619327
 30
0.0
 11
238.0807377903
 21
125.9472619327
 31
0.0
  0
LINE
  5
DC
330
1F
100
AcDbEntity
  8
0
  6
Continuous
 62
     7
370
    15
100
AcDbLine
 10
238.0807377903
 20
125.9472619327
 30
0.0
 11
237.8307377903
 21
125.9472619327
 31
0.0
  0
LINE
  5
DD
330
1F
100
AcDbEntity
  8
0
  6
Continuous
 62
     7
370
    15
100
AcDbLine
 10
237.8307377903
 20
100.8972619327
 30
0.0
 11
238.0807377903
 21
100.8972619327
 31
0.0
  0
LINE
  5
DE
330
1F
100
AcDbEntity
  8
0
  6
Continuous
 62
     7
370
    15
100
AcDbLine
 10
239.2807377903
 20
99.6972619327
 30
0.0
 11
239.2807377903
 21
84.6222619327
 31
0.0
  0
SPLINE
  5
DF
330
1F
100
AcDbEntity
  8
0
  6
Continuous
 62
     7
370
    15
100
AcDbSpline
210
0.0
220
0.0
230
1.0
 70
    24
 71
     3
 72
     8
 73
     4
 74
     0
 42
0.00000001
 43
0.00000001
 40
0.0
 40
0.0
 40
0.0
 40
0.0
 40
1.0
 40
1.0
 40
1.0
 40
1.0
 10
238.0807377902881
 20
100.8972619327489
 30
0.0
 10
238.4889753052215
 20
100.4890244178154
 30
0.0
 10
238.889243080424
 20
100.0887566426129
 30
0.0
 10
239.2807377902881
 20
99.69726193274883
 30
0.0
  0
LINE
  5
E0
330
1F
100
AcDbEntity
  8
0
  6
Continuous
 62
     7
370
    15
100
AcDbLine
 10
239.2807377903
 20
142.2222619327
 30
0.0
 11
239.2807377903
 21
127.1472619327
 31
0.0
  0
SPLINE
  5
E1
330
1F
100
AcDbEntity
  8
0
  6
Continuous
 62
     7
370
    15
100
AcDbSpline
210
0.0
220
0.0
230
1.0
 70
    24
 71
     3
 72
     8
 73
     4
 74
     0
 42
0.00000001
 43
0.00000001
 40
0.0
 40
0.0
 40
0.0
 40
0.0
 40
1.0
 40
1.0
 40
1.0
 40
1.0
 10
239.2807377902881
 20
127.1472619327489
 30
0.0
 10
238.889243080424
 20
126.7557672228848
 30
0.0
 10
238.4889753052215
 20
126.3554994476824
 30
0.0
 10
238.0807377902881
 20
125.9472619327489
 30
0.0
  0
ARC
  5
E2
330
1F
100
AcDbEntity
  8
0
  6
Continuous
 62
     7
370
    15
100
AcDbCircle
 10
118.2808090934
 20
145.959065623
 30
0.0
 40
11.47840618698389
100
AcDbArc
 50
77.9404131554
 51
102.0781376891
  0
LINE
  5
E3
330
1F
100
AcDbEntity
  8
0
  6
Continuous
 62
     7
370
    15
100
AcDbLine
 10
61.0307377903
 20
81.1722619327
 30
0.0
 11
61.0307377903
 21
81.1739767309
 31
0.0
  0
LINE
  5
E4
330
1F
100
AcDbEntity
  8
0
  6
Continuous
 62
     7
370
    15
100
AcDbLine
 10
61.0307377903
 20
145.6722619327
 30
0.0
 11
61.0307377903
 21
145.6705471346
 31
0.0
  0
LINE
  5
E5
330
1F
100
AcDbEntity
  8
0
  6
HIDDEN
 62
     7
370
     0
100
AcDbLine
 10
109.2807377903
 20
63.9222619327
 30
0.0
 11
109.2807377903
 21
162.9222619327
 31
0.0
  0
LINE
  5
E6
330
1F
100
AcDbEntity
  8
0
  6
HIDDEN
 62
     7
370
     0
100
AcDbLine
 10
114.2307377903
 20
63.4222619327
 30
0.0
 11
114.2307377903
 21
63.4322629329
 31
0.0
  0
SPLINE
  5
E7
330
1F
100
AcDbEntity
  8
0
  6
HIDDEN
 62
     7
370
     0
100
AcDbSpline
210
0.0
220
0.0
230
1.0
 70
     8
 71
     3
 72
    30
 73
    26
 74
     0
 42
0.00000001
 43
0.00000001
 40
0.0
 40
0.0
 40
0.0
 40
0.0
 40
0.1249999999999998
 40
0.1249999999999998
 40
0.1874999999999997
 40
0.1874999999999997
 40
0.2499999999999996
 40
0.2499999999999996
 40
0.3749999999999996
 40
0.3749999999999996
 40
0.4374999999999998
 40
0.4374999999999998
 40
0.5
 40
0.5
 40
0.6250000000000002
 40
0.6250000000000002
 40
0.6875000000000002
 40
0.6875000000000002
 40
0.7500000000000001
 40
0.7500000000000001
 40
0.8125000000000001
 40
0.8125000000000001
 40
0.8750000000000001
 40
0.8750000000000001
 40
1.0
 40
1.0
 40
1.0
 40
1.0
 10
114.2307377902881
 20
63.4322629329489
 30
0.0
 10
114.2307377902881
 20
63.44551764011183
 30
0.0
 10
114.2959380431606
 20
63.4717025108964
 30
0.0
 10
114.4870858118671
 20
63.52848916369685
 30
0.0
 10
114.5664774660425
 20
63.55033871457238
 30
0.0
 10
114.7572660348133
 20
63.59957221067276
 30
0.0
 10
114.8691011713845
 20
63.62704459942629
 30
0.0
 10
115.2454674481135
 20
63.71511832111963
 30
0.0
 10
115.5522213464009
 20
63.78186517709966
 30
0.0
 10
116.09536620039
 20
63.88940158834441
 30
0.0
 10
116.2913466017463
 20
63.92666188185304
 30
0.0
 10
116.7074833108805
 20
64.00196929358437
 30
0.0
 10
116.9264615711742
 20
64.03981671860318
 30
0.0
 10
117.6152898768397
 20
64.1525490251999
 30
0.0
 10
118.1167142686035
 20
64.22665263028426
 30
0.0
 10
118.9346420795593
 20
64.33053181063443
 30
0.0
 10
119.2174365142067
 20
64.36378756369294
 30
0.0
 10
119.7929294892649
 20
64.42555082809353
 30
0.0
 10
120.0870260893923
 20
64.45424181964385
 30
0.0
 10
120.6878458592394
 20
64.50653355348479
 30
0.0
 10
120.9945687436007
 20
64.53013536439161
 30
0.0
 10
121.6209322243509
 20
64.57151533838149
 30
0.0
 10
121.9421559150738
 20
64.58935606502595
 30
0.0
 10
122.9130360749237
 20
64.63241966784862
 30
0.0
 10
123.5679834589347
 20
64.64726833972006
 30
0.0
 10
124.2307377902881
 20
64.64726833972007
 30
0.0
  0
LINE
  5
E8
330
1F
100
AcDbEntity
  8
0
  6
HIDDEN
 62
     7
370
     0
100
AcDbLine
 10
124.2307377903
 20
64.6472683397
 30
0.0
 11
126.0187087694
 21
64.6472683397
 31
0.0
  0
LINE
  5
E9
330
1F
100
AcDbEntity
  8
0
  6
HIDDEN
 62
     7
370
     0
100
AcDbLine
 10
126.0187087694
 20
162.4120567884
 30
0.0
 11
126.0187087694
 21
64.6472683397
 31
0.0
  0
LINE
  5
EA
330
1F
100
AcDbEntity
  8
0
  6
HIDDEN
 62
     7
370
     0
100
AcDbLine
 10
124.2307377903
 20
162.4120567884
 30
0.0
 11
126.0187087694
 21
162.4120567884
 31
0.0
  0
SPLINE
  5
EB
330
1F
100
AcDbEntity
  8
0
  6
HIDDEN
 62
     7
370
     0
100
AcDbSpline
210
0.0
220
0.0
230
1.0
 70
     8
 71
     3
 72
    17
 73
    13
 74
     0
 42
0.00000001
 43
0.00000001
 40
0.0
 40
0.0
 40
0.0
 40
0.0
 40
0.0675713835403045
 40
0.1712575859405542
 40
0.2779172497219739
 40
0.3822981543720018
 40
0.4896051157883324
 40
0.5957700740380902
 40
0.704996993001599
 40
0.8113234717900902
 40
0.9208377487614551
 40
1.0
 40
1.0
 40
1.0
 40
1.0
 10
114.2648106227486
 20
163.4154614518488
 30
0.0
 10
114.2622779988089
 20
163.4159586053147
 30
0.0
 10
114.2558591416051
 20
163.417218625429
 30
0.0
 10
114.5596186937365
 20
163.3568952246162
 30
0.0
 10
115.1231720567475
 20
163.2499038251513
 30
0.0
 10
115.9544408892999
 20
163.1033564289191
 30
0.0
 10
117.0080718038338
 20
162.9371431043702
 30
0.0
 10
118.2812034894969
 20
162.7658650474455
 30
0.0
 10
119.7205987366422
 20
162.6113114315083
 30
0.0
 10
121.3063514038484
 20
162.4908637358441
 30
0.0
 10
122.825669539703
 20
162.4226481585939
 30
0.0
 10
123.8154567541022
 20
162.415187166728
 30
0.0
 10
124.2307377902881
 20
162.4120567884124
 30
0.0
  0
SPLINE
  5
EC
330
1F
100
AcDbEntity
  8
0
  6
HIDDEN
 62
     7
370
     0
100
AcDbSpline
210
0.0
220
0.0
230
1.0
 70
     8
 71
     3
 72
    80
 73
    76
 74
     0
 42
0.00000001
 43
0.00000001
 40
-0.0312500000000003
 40
-0.0312500000000003
 40
0.0
 40
0.0
 40
0.0312499999999999
 40
0.0312499999999999
 40
0.0468749999999999
 40
0.0468749999999999
 40
0.0624999999999998
 40
0.0624999999999998
 40
0.0937499999999997
 40
0.0937499999999997
 40
0.1249999999999996
 40
0.1249999999999996
 40
0.1562499999999995
 40
0.1562499999999995
 40
0.1874999999999994
 40
0.1874999999999994
 40
0.2187499999999993
 40
0.2187499999999993
 40
0.2499999999999992
 40
0.2499999999999992
 40
0.2812499999999991
 40
0.2812499999999991
 40
0.3124999999999989
 40
0.3124999999999989
 40
0.3281249999999989
 40
0.3281249999999989
 40
0.3437499999999989
 40
0.3437499999999989
 40
0.3749999999999987
 40
0.3749999999999987
 40
0.4062499999999986
 40
0.4062499999999986
 40
0.4218749999999986
 40
0.4218749999999986
 40
0.4374999999999985
 40
0.4374999999999985
 40
0.4687499999999984
 40
0.4687499999999984
 40
0.4999999999999983
 40
0.4999999999999983
 40
0.5312499999999982
 40
0.5312499999999982
 40
0.5624999999999982
 40
0.5624999999999982
 40
0.5937499999999981
 40
0.5937499999999981
 40
0.624999999999998
 40
0.624999999999998
 40
0.6562499999999979
 40
0.6562499999999979
 40
0.6874999999999979
 40
0.6874999999999979
 40
0.7031249999999979
 40
0.7031249999999979
 40
0.718749999999998
 40
0.718749999999998
 40
0.7499999999999981
 40
0.7499999999999981
 40
0.7812499999999982
 40
0.7812499999999982
 40
0.7968749999999983
 40
0.7968749999999983
 40
0.8124999999999983
 40
0.8124999999999983
 40
0.8437499999999987
 40
0.8437499999999987
 40
0.8749999999999989
 40
0.8749999999999989
 40
0.9062499999999991
 40
0.9062499999999991
 40
0.9374999999999993
 40
0.9374999999999993
 40
0.9687499999999997
 40
0.9687499999999997
 40
1.0
 40
1.0
 40
1.03125
 40
1.03125
 10
111.2807377902881
 20
113.7528070758089
 30
0.0
 10
111.2807377902881
 20
113.0917167896888
 30
0.0
 10
111.3131928844686
 20
112.7667363875876
 30
0.0
 10
111.4085381387029
 20
112.2872621142396
 30
0.0
 10
111.4481549968567
 20
112.1287799351386
 30
0.0
 10
111.5434130926817
 20
111.8145595837551
 30
0.0
 10
111.5993092038257
 20
111.6584386482673
 30
0.0
 10
111.7875878645628
 20
111.204382652657
 30
0.0
 10
111.9411782127454
 20
110.9172781916952
 30
0.0
 10
112.3040119035224
 20
110.3739226977697
 30
0.0
 10
112.5150661256502
 20
110.1168185781504
 30
0.0
 10
112.9760664159249
 20
109.6559127768978
 30
0.0
 10
113.2276447182459
 20
109.4490161021693
 30
0.0
 10
113.7741171206405
 20
109.0834933798913
 30
0.0
 10
114.0648354127211
 20
108.9282888712194
 30
0.0
 10
114.6663785597032
 20
108.678860041776
 30
0.0
 10
114.9816534054646
 20
108.5827705876012
 30
0.0
 10
115.6271530725835
 20
108.4542518949737
 30
0.0
 10
115.951701538667
 20
108.422441062182
 30
0.0
 10
116.6043072720674
 20
108.4220842975945
 30
0.0
 10
116.9357762985791
 20
108.4545814211084
 30
0.0
 10
117.5771905625773
 20
108.5822066311743
 30
0.0
 10
117.8889649780286
 20
108.6766347282048
 30
0.0
 10
118.3431634499543
 20
108.8644945559157
 30
0.0
 10
118.4930445757465
 20
108.9353220801478
 30
0.0
 10
118.7824987456068
 20
109.090042792829
 30
0.0
 10
118.9225065780593
 20
109.1740186616164
 30
0.0
 10
119.3287125871461
 20
109.4453406973237
 30
0.0
 10
119.5812294782923
 20
109.6518890507742
 30
0.0
 10
120.0482447174338
 20
110.1184991377493
 30
0.0
 10
120.2550285562634
 20
110.370863757649
 30
0.0
 10
120.5266600488421
 20
110.7767660145522
 30
0.0
 10
120.6107387578051
 20
110.9166671185537
 30
0.0
 10
120.7656702933805
 20
111.2058923348872
 30
0.0
 10
120.8366470812161
 20
111.3557324726234
 30
0.0
 10
121.024949465034
 20
111.8098508523706
 30
0.0
 10
121.1196274123584
 20
112.1215033296292
 30
0.0
 10
121.2477834067976
 20
112.7625017022993
 30
0.0
 10
121.2806175083993
 20
113.0940290155439
 30
0.0
 10
121.280857396964
 20
113.7468200361024
 30
0.0
 10
121.2493246834662
 20
114.0713566691064
 30
0.0
 10
121.1214811978036
 20
114.7166277830493
 30
0.0
 10
121.0255887834902
 20
115.0323710416955
 30
0.0
 10
120.7766379543019
 20
115.6342619340203
 30
0.0
 10
120.6217458728307
 20
115.9250117094879
 30
0.0
 10
120.2566222190082
 20
116.4719259514776
 30
0.0
 10
120.049917807481
 20
116.7237035548846
 30
0.0
 10
119.5894167098374
 20
117.1850904690639
 30
0.0
 10
119.332504092188
 20
117.3963585047746
 30
0.0
 10
118.789460907702
 20
117.7596608589893
 30
0.0
 10
118.5025366741076
 20
117.9134664171445
 30
0.0
 10
118.0488119169614
 20
118.1020846732795
 30
0.0
 10
117.8927758991679
 20
118.1581148434421
 30
0.0
 10
117.5785397473538
 20
118.2536881959178
 30
0.0
 10
117.4200672115155
 20
118.2934509643374
 30
0.0
 10
116.9406771490095
 20
118.3892224207114
 30
0.0
 10
116.615825855649
 20
118.4219452701294
 30
0.0
 10
115.9551674362457
 20
118.4225740660258
 30
0.0
 10
115.6296402021283
 20
118.3903878908849
 30
0.0
 10
115.1501090544403
 20
118.2954774587623
 30
0.0
 10
114.9916290999502
 20
118.2560108170682
 30
0.0
 10
114.6774534314708
 20
118.1610812748356
 30
0.0
 10
114.5212520477811
 20
118.1053247759444
 30
0.0
 10
114.0668425582466
 20
117.9173858005818
 30
0.0
 10
113.7795856100309
 20
117.7640253331068
 30
0.0
 10
113.2360301971583
 20
117.401762821784
 30
0.0
 10
112.9786892035465
 20
117.190915591479
 30
0.0
 10
112.5172939416184
 20
116.7302470697427
 30
0.0
 10
112.310208812306
 20
116.4788726595413
 30
0.0
 10
111.944339428977
 20
115.9329627815471
 30
0.0
 10
111.7887265922219
 20
115.6421391754868
 30
0.0
 10
111.5387633606778
 20
115.0408100739236
 30
0.0
 10
111.4425345602671
 20
114.7262897914913
 30
0.0
 10
111.3131967341444
 20
114.0797077532459
 30
0.0
 10
111.2807377902881
 20
113.7528070758089
 30
0.0
 10
111.2807377902881
 20
113.0917167896888
 30
0.0
  0
SPLINE
  5
ED
330
1F
100
AcDbEntity
  8
0
  6
HIDDEN
 62
     7
370
     0
100
AcDbSpline
210
0.0
220
0.0
230
1.0
 70
     8
 71
     3
 72
    80
 73
    76
 74
     0
 42
0.00000001
 43
0.00000001
 40
-0.0312500000000004
 40
-0.0312500000000004
 40
0.0
 40
0.0
 40
0.0312499999999999
 40
0.0312499999999999
 40
0.0468749999999997
 40
0.0468749999999997
 40
0.0624999999999996
 40
0.0624999999999996
 40
0.0937499999999991
 40
0.0937499999999991
 40
0.1249999999999987
 40
0.1249999999999987
 40
0.1562499999999982
 40
0.1562499999999982
 40
0.1874999999999978
 40
0.1874999999999978
 40
0.2187499999999973
 40
0.2187499999999973
 40
0.2499999999999968
 40
0.2499999999999968
 40
0.2812499999999965
 40
0.2812499999999965
 40
0.3124999999999962
 40
0.3124999999999962
 40
0.3281249999999962
 40
0.3281249999999962
 40
0.3437499999999961
 40
0.3437499999999961
 40
0.374999999999996
 40
0.374999999999996
 40
0.4062499999999959
 40
0.4062499999999959
 40
0.4218749999999959
 40
0.4218749999999959
 40
0.4374999999999959
 40
0.4374999999999959
 40
0.4687499999999959
 40
0.4687499999999959
 40
0.4999999999999958
 40
0.4999999999999958
 40
0.5312499999999957
 40
0.5312499999999957
 40
0.5624999999999956
 40
0.5624999999999956
 40
0.5937499999999954
 40
0.5937499999999954
 40
0.6249999999999954
 40
0.6249999999999954
 40
0.6562499999999953
 40
0.6562499999999953
 40
0.6874999999999952
 40
0.6874999999999952
 40
0.7031249999999952
 40
0.7031249999999952
 40
0.7187499999999953
 40
0.7187499999999953
 40
0.749999999999996
 40
0.749999999999996
 40
0.7812499999999967
 40
0.7812499999999967
 40
0.796874999999997
 40
0.796874999999997
 40
0.8124999999999972
 40
0.8124999999999972
 40
0.8437499999999977
 40
0.8437499999999977
 40
0.8749999999999981
 40
0.8749999999999981
 40
0.9062499999999987
 40
0.9062499999999987
 40
0.9374999999999991
 40
0.9374999999999991
 40
0.9687499999999996
 40
0.9687499999999996
 40
1.0
 40
1.0
 40
1.03125
 40
1.03125
 10
118.6112831030644
 20
162.2818111892268
 30
0.0
 10
117.9501924775118
 20
162.2818111892268
 30
0.0
 10
117.6252123482601
 20
162.2749130434
 30
0.0
 10
117.1457389370137
 20
162.2543866154195
 30
0.0
 10
116.9872571191729
 20
162.245830388332
 30
0.0
 10
116.6730375866686
 20
162.2251040131143
 30
0.0
 10
116.5169173029882
 20
162.212876712908
 30
0.0
 10
116.0628632740316
 20
162.1713074190787
 30
0.0
 10
115.7757598910918
 20
162.1369631339809
 30
0.0
 10
115.2324053350648
 20
162.0536390096586
 30
0.0
 10
114.9753017238592
 20
162.0042007868842
 30
0.0
 10
114.5143954689205
 20
161.8928210571242
 30
0.0
 10
114.3074977597055
 20
161.8305265436121
 30
0.0
 10
113.9419724457133
 20
161.6905969007411
 30
0.0
 10
113.7867669235873
 20
161.6139810029921
 30
0.0
 10
113.5373365369876
 20
161.4500223831363
 30
0.0
 10
113.4412465812024
 20
161.3614655290406
 30
0.0
 10
113.3127277320089
 20
161.1739848469348
 30
0.0
 10
113.2809168618311
 20
161.0767483854803
 30
0.0
 10
113.2805602120578
 20
160.8751157461533
 30
0.0
 10
113.3130574642549
 20
160.7695669543152
 30
0.0
 10
113.4406829379694
 20
160.5594521716267
 30
0.0
 10
113.5351113390213
 20
160.4543866636577
 30
0.0
 10
113.7229721590068
 20
160.2975089564066
 30
0.0
 10
113.79380015781
 20
160.2450752227009
 30
0.0
 10
113.9485220497753
 20
160.1426367770712
 30
0.0
 10
114.0324985199587
 20
160.0924890484194
 30
0.0
 10
114.3038221896031
 20
159.9454730919858
 30
0.0
 10
114.5103714082054
 20
159.8519852715514
 30
0.0
 10
114.9769815483945
 20
159.676198413937
 30
0.0
 10
115.2293471180199
 20
159.5968199388533
 30
0.0
 10
115.6352484596986
 20
159.4913375013593
 30
0.0
 10
115.7751490771761
 20
159.4584519365191
 30
0.0
 10
116.064373012423
 20
159.3975364572905
 30
0.0
 10
116.2142124687123
 20
159.3694558856481
 30
0.0
 10
116.6683290383231
 20
159.2946538436053
 30
0.0
 10
116.9799802570599
 20
159.2566157853591
 30
0.0
 10
117.6209767219723
 20
159.205003858835
 30
0.0
 10
117.9525043499245
 20
159.1916899253135
 30
0.0
 10
118.605295394996
 20
159.1915928389855
 30
0.0
 10
118.9298316000278
 20
159.2043809241465
 30
0.0
 10
119.5751010494442
 20
159.2558711137425
 30
0.0
 10
119.8908440556069
 20
159.2943956930625
 30
0.0
 10
120.4927333505906
 20
159.3932982559206
 30
0.0
 10
120.7834825814021
 20
159.4544023538456
 30
0.0
 10
121.3303943730866
 20
159.5962117869563
 30
0.0
 10
121.5821717369235
 20
159.6755462715355
 30
0.0
 10
122.0435597295446
 20
159.848925016197
 30
0.0
 10
122.2548290091427
 20
159.944084960951
 30
0.0
 10
122.6181333615189
 20
160.1406574843269
 30
0.0
 10
122.7719400099617
 20
160.2424137127333
 30
0.0
 10
122.9605594795591
 20
160.3991996755187
 30
0.0
 10
123.0165899657682
 20
160.4524537092688
 30
0.0
 10
123.1121637275044
 20
160.5582582708215
 30
0.0
 10
123.1519266445294
 20
160.610911335177
 30
0.0
 10
123.2476983948415
 20
160.7679850546362
 30
0.0
 10
123.2804212339677
 20
160.8715100899634
 30
0.0
 10
123.2810498202967
 20
161.0757248241904
 30
0.0
 10
123.2488636755619
 20
161.1732286617752
 30
0.0
 10
123.1539529737064
 20
161.3125557121268
 30
0.0
 10
123.1144861903074
 20
161.3578724436314
 30
0.0
 10
123.0195561915865
 20
161.4463122646201
 30
0.0
 10
122.9637993638232
 20
161.4895665150801
 30
0.0
 10
122.7758592458533
 20
161.6134579896701
 30
0.0
 10
122.6224977761371
 20
161.6891602804442
 30
0.0
 10
122.2602335412567
 20
161.8284146519023
 30
0.0
 10
122.0493850677908
 20
161.892176493431
 30
0.0
 10
121.5887150974719
 20
162.0036733328989
 30
0.0
 10
121.3373407178881
 20
162.0521994052155
 30
0.0
 10
120.79143283099
 20
162.136253388596
 30
0.0
 10
120.5006102563387
 20
162.1710519422627
 30
0.0
 10
119.8992836415587
 20
162.2262484070265
 30
0.0
 10
119.5847650569463
 20
162.2470662557805
 30
0.0
 10
118.9381836008264
 20
162.2749135886911
 30
0.0
 10
118.6112831030644
 20
162.2818111892268
 30
0.0
 10
117.9501924775118
 20
162.2818111892268
 30
0.0
  0
LINE
  5
EE
330
1F
100
AcDbEntity
  8
0
  6
HIDDEN
 62
     7
370
     0
100
AcDbLine
 10
127.3707377903
 20
67.9590831504
 30
0.0
 11
127.3707377903
 21
144.7722619327
 31
0.0
  0
LINE
  5
EF
330
1F
100
AcDbEntity
  8
0
  6
HIDDEN
 62
     7
370
     0
100
AcDbLine
 10
131.1907377903
 20
67.9590831504
 30
0.0
 11
131.1907377903
 21
144.7722619327
 31
0.0
  0
LINE
  5
F0
330
1F
100
AcDbEntity
  8
0
  6
HIDDEN
 62
     7
370
     0
100
AcDbLine
 10
138.2307377903
 20
72.4222619327
 30
0.0
 11
138.2307377903
 21
154.3928958802
 31
0.0
  0
LINE
  5
F1
330
1F
100
AcDbEntity
  8
0
  6
HIDDEN
 62
     7
370
     0
100
AcDbLine
 10
114.2307377903
 20
144.7722619327
 30
0.0
 11
123.9387046385
 21
144.7722619327
 31
0.0
  0
LINE
  5
F2
330
1F
100
AcDbEntity
  8
0
  6
HIDDEN
 62
     7
370
     0
100
AcDbLine
 10
109.2807377903
 20
74.0175789762
 30
0.0
 11
109.2807377903
 21
152.8269448893
 31
0.0
  0
LWPOLYLINE
  5
F3
330
1F
100
AcDbEntity
  8
0
  6
HIDDEN
 62
     7
370
     0
100
AcDbPolyline
 90
        2
 70
   128
 43
0.0
 10
131.1907377903
 20
144.7722619327
 10
131.1907377903
 20
144.7722619327
  0
LWPOLYLINE
  5
F4
330
1F
100
AcDbEntity
  8
0
  6
HIDDEN
 62
     7
370
     0
100
AcDbPolyline
 90
        2
 70
   128
 43
0.0
 10
127.3707377903
 20
144.7722619327
 10
127.3707377903
 20
144.7722619327
  0
LWPOLYLINE
  5
F5
330
1F
100
AcDbEntity
  8
0
  6
HIDDEN
 62
     7
370
     0
100
AcDbPolyline
 90
        2
 70
   128
 43
0.0
 10
138.2307377903
 20
144.7722619327
 10
138.2307377903
 20
144.7722619327
  0
SPLINE
  5
F6
330
1F
100
AcDbEntity
  8
0
  6
HIDDEN
 62
     7
370
     0
100
AcDbSpline
210
0.0
220
0.0
230
1.0
 70
     8
 71
     3
 72
     8
 73
     4
 74
     0
 42
0.00000001
 43
0.00000001
 40
0.0
 40
0.0
 40
0.0
 40
0.0
 40
1.0
 40
1.0
 40
1.0
 40
1.0
 10
69.03609740220718
 20
81.46656194331364
 30
0.0
 10
70.20139571291607
 20
81.62174941520026
 30
0.0
 10
71.38601092695596
 20
81.75810805351058
 30
0.0
 10
72.58073779028808
 20
81.88461052810544
 30
0.0
  0
SPLINE
  5
F7
330
1F
100
AcDbEntity
  8
0
  6
HIDDEN
 62
     7
370
     0
100
AcDbSpline
210
0.0
220
0.0
230
1.0
 70
     8
 71
     3
 72
    14
 73
    10
 74
     0
 42
0.00000001
 43
0.00000001
 40
0.0
 40
0.0
 40
0.0
 40
0.0
 40
0.1250000000000002
 40
0.1250000000000002
 40
0.2500000000000005
 40
0.2500000000000005
 40
0.5000000000000019
 40
0.5000000000000019
 40
1.0
 40
1.0
 40
1.0
 40
1.0
 10
72.58073779028807
 20
81.88461052810544
 30
0.0
 10
72.64832009007254
 20
81.89176641320684
 30
0.0
 10
72.72080766782047
 20
81.88734194316783
 30
0.0
 10
72.85309877708642
 20
81.85763578539746
 30
0.0
 10
72.91037615647659
 20
81.83435150381924
 30
0.0
 10
73.06002658367686
 20
81.75686626396892
 30
0.0
 10
73.13373987919839
 20
81.69501443706756
 30
0.0
 10
73.32154786252462
 20
81.51033698441924
 30
0.0
 10
73.40558816888607
 20
81.38209406112803
 30
0.0
 10
73.47631531895232
 20
81.25578058900544
 30
0.0
  0
SPLINE
  5
F8
330
1F
100
AcDbEntity
  8
0
  6
HIDDEN
 62
     7
370
     0
100
AcDbSpline
210
0.0
220
0.0
230
1.0
 70
     8
 71
     3
 72
    14
 73
    10
 74
     0
 42
0.00000001
 43
0.00000001
 40
0.0
 40
0.0
 40
0.0
 40
0.0
 40
0.25
 40
0.25
 40
0.5
 40
0.5
 40
0.75
 40
0.75
 40
1.0
 40
1.0
 40
1.0
 40
1.0
 10
73.47631531895111
 20
81.25578058900533
 30
0.0
 10
73.56508389689644
 20
81.09724645769738
 30
0.0
 10
73.68680173557534
 20
80.94480378080881
 30
0.0
 10
73.92185134543217
 20
80.6476691569799
 30
0.0
 10
74.03748153164908
 20
80.50298651336254
 30
0.0
 10
74.2378864650769
 20
80.21969731085912
 30
0.0
 10
74.32328675706121
 20
80.08114331782228
 30
0.0
 10
74.44499239077845
 20
79.80975928778875
 30
0.0
 10
74.48073779029109
 20
79.67762341915413
 30
0.0
 10
74.48073779029107
 20
79.55292866738337
 30
0.0
  0
LINE
  5
F9
330
1F
100
AcDbEntity
  8
0
  6
HIDDEN
 62
     7
370
     0
100
AcDbLine
 10
74.4807377903
 20
79.5529286674
 30
0.0
 11
74.4807377903
 21
77.1582469027
 31
0.0
  0
LINE
  5
FA
330
1F
100
AcDbEntity
  8
0
  6
HIDDEN
 62
     7
370
     0
100
AcDbLine
 10
69.4807377903
 20
149.4357759608
 30
0.0
 11
69.4807377903
 21
147.1668706697
 31
0.0
  0
SPLINE
  5
FB
330
1F
100
AcDbEntity
  8
0
  6
HIDDEN
 62
     7
370
     0
100
AcDbSpline
210
0.0
220
0.0
230
1.0
 70
     8
 71
     3
 72
    20
 73
    16
 74
     0
 42
0.00000001
 43
0.00000001
 40
0.0
 40
0.0
 40
0.0
 40
0.0
 40
0.2499999999999999
 40
0.2499999999999999
 40
0.4999999999999998
 40
0.4999999999999998
 40
0.7499999999999997
 40
0.7499999999999997
 40
0.8749999999999996
 40
0.8749999999999996
 40
0.9374999999999989
 40
0.9374999999999989
 40
0.9687499999999994
 40
0.9687499999999994
 40
1.0
 40
1.0
 40
1.0
 40
1.0
 10
69.48073779028807
 20
147.1668706697334
 30
0.0
 10
69.48073779028807
 20
147.0311883499866
 30
0.0
 10
69.43202600107145
 20
146.8901013638466
 30
0.0
 10
69.26286457784624
 20
146.598029645116
 30
0.0
 10
69.14108416392794
 20
146.4463809030257
 30
0.0
 10
68.84353706917845
 20
146.1439724628725
 30
0.0
 10
68.66962446347566
 20
145.9913838267492
 30
0.0
 10
68.35020962959386
 20
145.7661130629069
 30
0.0
 10
68.2351688541466
 20
145.6913899683962
 30
0.0
 10
68.02808453013017
 20
145.5919795591392
 30
0.0
 10
67.95197669532378
 20
145.5604144667946
 30
0.0
 10
67.82058215577041
 20
145.5259710826017
 30
0.0
 10
67.77402893676899
 20
145.516919510834
 30
0.0
 10
67.67769558568826
 20
145.5067438619955
 30
0.0
 10
67.6284361623328
 20
145.5057941033205
 30
0.0
 10
67.5807377902861
 20
145.5087848242351
 30
0.0
  0
SPLINE
  5
FC
330
1F
100
AcDbEntity
  8
0
  6
HIDDEN
 62
     7
370
     0
100
AcDbSpline
210
0.0
220
0.0
230
1.0
 70
     8
 71
     3
 72
    12
 73
     8
 74
     0
 42
0.00000001
 43
0.00000001
 40
0.0
 40
0.0
 40
0.0
 40
0.0
 40
0.2499999999999992
 40
0.2499999999999992
 40
0.4999999999999984
 40
0.4999999999999984
 40
1.0
 40
1.0
 40
1.0
 40
1.0
 10
67.58073779028807
 20
145.5087848242453
 30
0.0
 10
67.06203896845989
 20
145.5413075990935
 30
0.0
 10
66.54032739525489
 20
145.564604340264
 30
0.0
 10
65.4940353787593
 20
145.6024498546861
 30
0.0
 10
64.96936375308904
 20
145.6167183291822
 30
0.0
 10
63.39251773054981
 20
145.6509278166405
 30
0.0
 10
62.33756241600291
 20
145.6624273205844
 30
0.0
 10
61.28066290625768
 20
145.668094101314
 30
0.0
  0
SPLINE
  5
FD
330
1F
100
AcDbEntity
  8
0
  6
HIDDEN
 62
     7
370
     0
100
AcDbSpline
210
0.0
220
0.0
230
1.0
 70
     8
 71
     3
 72
    14
 73
    10
 74
     0
 42
0.00000001
 43
0.00000001
 40
0.0
 40
0.0
 40
0.0
 40
0.0
 40
0.5000000000000014
 40
0.5000000000000014
 40
0.7500000000000008
 40
0.7500000000000008
 40
0.8750000000000004
 40
0.8750000000000004
 40
1.0
 40
1.0
 40
1.0
 40
1.0
 10
61.28066290625939
 20
81.17642976418374
 30
0.0
 10
62.58896446879312
 20
81.18344448792486
 30
0.0
 10
63.89402384344992
 20
81.19885306436936
 30
0.0
 10
65.83989989493816
 20
81.252749619836
 30
0.0
 10
66.48659739867716
 20
81.2757811844387
 30
0.0
 10
67.45043976253149
 20
81.32672370930946
 30
0.0
 10
67.77067845446557
 20
81.34645863154263
 30
0.0
 10
68.40737368080796
 20
81.39594576001421
 30
0.0
 10
68.72408908909087
 20
81.42501053894344
 30
0.0
 10
69.0360974022072
 20
81.46656194331361
 30
0.0
  0
LINE
  5
FE
330
1F
100
AcDbEntity
  8
0
  6
HIDDEN
 62
     7
370
     0
100
AcDbLine
 10
106.7807377903
 20
151.3045134358
 30
0.0
 11
106.7807377903
 21
75.5400104297
 31
0.0
  0
SPLINE
  5
FF
330
1F
100
AcDbEntity
  8
0
  6
HIDDEN
 62
     7
370
     0
100
AcDbSpline
210
0.0
220
0.0
230
1.0
 70
     8
 71
     3
 72
    12
 73
     8
 74
     0
 42
0.00000001
 43
0.00000001
 40
0.0
 40
0.0
 40
0.0
 40
0.0
 40
0.0856798322457159
 40
0.2482354473969782
 40
0.499693521557547
 40
0.7517606536705235
 40
0.9999999999999999
 40
0.9999999999999999
 40
0.9999999999999999
 40
0.9999999999999999
 10
89.69416253971544
 20
76.68645557047473
 30
0.0
 10
89.60304537529908
 20
76.67832782245424
 30
0.0
 10
89.33905664561094
 20
76.65477974686499
 30
0.0
 10
88.76940856330415
 20
76.60665549104189
 30
0.0
 10
88.26975076688412
 20
76.54741193753905
 30
0.0
 10
87.87069285628728
 20
76.50026774437623
 30
0.0
 10
87.82390767220797
 20
76.49408459556929
 30
0.0
 10
87.80069405412749
 20
76.4910166744365
 30
0.0
  0
SPLINE
  5
100
330
1F
100
AcDbEntity
  8
0
  6
HIDDEN
 62
     7
370
     0
100
AcDbSpline
210
0.0
220
0.0
230
1.0
 70
     8
 71
     3
 72
    20
 73
    16
 74
     0
 42
0.00000001
 43
0.00000001
 40
0.0
 40
0.0
 40
0.0
 40
0.0
 40
0.0004183576298547
 40
0.0837682614965079
 40
0.1682468622136455
 40
0.2524476286818255
 40
0.3356321803205182
 40
0.4186125244871793
 40
0.5021248296601916
 40
0.585681994016636
 40
0.6679086434608453
 40
0.7502174522359422
 40
0.8336318512913232
 40
0.9171818365248138
 40
1.0
 40
1.0
 40
1.0
 40
1.0
 10
100.7128272639906
 20
75.84412105135712
 30
0.0
 10
100.7130328842509
 20
75.8440750692061
 30
0.0
 10
100.7542044812324
 20
75.83486800668857
 30
0.0
 10
100.6083807059575
 20
75.86759566113179
 30
0.0
 10
100.2540073273758
 20
75.9445974785519
 30
0.0
 10
99.65203552242126
 20
76.071605035202
 30
0.0
 10
98.84944871031735
 20
76.22388569256036
 30
0.0
 10
97.87078993557678
 20
76.38574959115257
 30
0.0
 10
96.74729751043792
 20
76.53780236650736
 30
0.0
 10
95.53242345772503
 20
76.66541590765593
 30
0.0
 10
94.26780677817408
 20
76.75310850901629
 30
0.0
 10
92.99976376669586
 20
76.79537877191414
 30
0.0
 10
91.78062413558227
 20
76.7912505783935
 30
0.0
 10
90.63902162044118
 20
76.75291252541317
 30
0.0
 10
90.00819059817003
 20
76.70854283084597
 30
0.0
 10
89.69416253971542
 20
76.68645557047472
 30
0.0
  0
SPLINE
  5
101
330
1F
100
AcDbEntity
  8
0
  6
HIDDEN
 62
     7
370
     0
100
AcDbSpline
210
0.0
220
0.0
230
1.0
 70
     8
 71
     3
 72
    20
 73
    16
 74
     0
 42
0.00000001
 43
0.00000001
 40
0.0
 40
0.0
 40
0.0
 40
0.0
 40
0.0828751080763533
 40
0.1664511033675674
 40
0.249928225821284
 40
0.3323674340393106
 40
0.4145717374516451
 40
0.498279958380434
 40
0.5816918149717315
 40
0.6646902850818699
 40
0.7477268677263621
 40
0.831809752592997
 40
0.9161489914052685
 40
0.9994284458062231
 40
1.0
 40
1.0
 40
1.0
 40
1.0
 10
89.69407132775903
 20
150.15805222714
 30
0.0
 10
90.00875028991354
 20
150.136041854132
 30
0.0
 10
90.64076950138681
 20
150.0918349630915
 30
0.0
 10
91.78302343125962
 20
150.0535299120421
 30
0.0
 10
93.00322882719446
 20
150.0494144121411
 30
0.0
 10
94.27207050816872
 20
150.0915825249908
 30
0.0
 10
95.53808553187429
 20
150.1793915858506
 30
0.0
 10
96.7526277090134
 20
150.3072840604141
 30
0.0
 10
97.87552043359769
 20
150.4595173079482
 30
0.0
 10
98.85266290645453
 20
150.6212117029513
 30
0.0
 10
99.65429510288516
 20
150.773253693143
 30
0.0
 10
100.2552480943061
 20
150.9000074039967
 30
0.0
 10
100.6089299826811
 20
150.9769231423968
 30
0.0
 10
100.7547040819015
 20
151.0096473294171
 30
0.0
 10
100.7129902676652
 20
151.0004206878083
 30
0.0
 10
100.7127059335127
 20
151.0003577961891
 30
0.0
  0
SPLINE
  5
102
330
1F
100
AcDbEntity
  8
0
  6
HIDDEN
 62
     7
370
     0
100
AcDbSpline
210
0.0
220
0.0
230
1.0
 70
     8
 71
     3
 72
    12
 73
     8
 74
     0
 42
0.00000001
 43
0.00000001
 40
0.0
 40
0.0
 40
0.0
 40
0.0
 40
0.1661350130386196
 40
0.3322016284081936
 40
0.5008936608336403
 40
0.7521137248333054
 40
1.0
 40
1.0
 40
1.0
 40
1.0
 10
87.80005945593705
 20
150.3535659558142
 30
0.0
 10
87.8104519788906
 20
150.3521878205884
 30
0.0
 10
87.8312327462032
 20
150.3494321175141
 30
0.0
 10
88.00453376013289
 20
150.3278289108127
 30
0.0
 10
88.32646529735187
 20
150.2899647566385
 30
0.0
 10
88.84765970974549
 20
150.2295862660737
 30
0.0
 10
89.41319328529735
 20
150.1817904892307
 30
0.0
 10
89.69407132775903
 20
150.15805222714
 30
0.0
  0
LINE
  5
103
330
1F
100
AcDbEntity
  8
0
  6
HIDDEN
 62
     7
370
     0
100
AcDbLine
 10
153.2807377903
 20
78.4222619417
 30
0.0
 11
153.2807377903
 21
148.4222619327
 31
0.0
  0
LINE
  5
104
330
1F
100
AcDbEntity
  8
0
  6
HIDDEN
 62
     7
370
     0
100
AcDbLine
 10
59.4559781358
 20
144.0483893495
 30
0.0
 11
59.4043714592
 21
144.0325111764
 31
0.0
  0
LINE
  5
105
330
1F
100
AcDbEntity
  8
0
  6
HIDDEN
 62
     7
370
     0
100
AcDbLine
 10
153.2807377903
 20
147.5472619327
 30
0.0
 11
153.2807377903
 21
79.2972619327
 31
0.0
  0
LINE
  5
106
330
1F
100
AcDbEntity
  8
0
  6
HIDDEN
 62
     7
370
     0
100
AcDbLine
 10
164.2307377903
 20
80.3972619555
 30
0.0
 11
164.2307377903
 21
146.4472619327
 31
0.0
  0
SPLINE
  5
107
330
1F
100
AcDbEntity
  8
0
  6
HIDDEN
 62
     7
370
     0
100
AcDbSpline
210
0.0
220
0.0
230
1.0
 70
    11
 71
     3
 72
    66
 73
    62
 74
     0
 42
0.00000001
 43
0.00000001
 40
0.0
 40
0.0
 40
0.0
 40
0.0
 40
0.0624999999999998
 40
0.0624999999999998
 40
0.1249999999999996
 40
0.1249999999999996
 40
0.1562499999999996
 40
0.1562499999999996
 40
0.1874999999999995
 40
0.1874999999999995
 40
0.2187499999999995
 40
0.2187499999999995
 40
0.2499999999999995
 40
0.2499999999999995
 40
0.2812499999999995
 40
0.2812499999999995
 40
0.3124999999999995
 40
0.3124999999999995
 40
0.3437499999999995
 40
0.3437499999999995
 40
0.3749999999999995
 40
0.3749999999999995
 40
0.4062499999999996
 40
0.4062499999999996
 40
0.4374999999999997
 40
0.4374999999999997
 40
0.4687499999999997
 40
0.4687499999999997
 40
0.4999999999999998
 40
0.4999999999999998
 40
0.5312499999999998
 40
0.5312499999999998
 40
0.5624999999999998
 40
0.5624999999999998
 40
0.5937499999999998
 40
0.5937499999999998
 40
0.6249999999999998
 40
0.6249999999999998
 40
0.6562499999999998
 40
0.6562499999999998
 40
0.6874999999999998
 40
0.6874999999999998
 40
0.7187499999999998
 40
0.7187499999999998
 40
0.7499999999999998
 40
0.7499999999999998
 40
0.7812499999999999
 40
0.7812499999999999
 40
0.8124999999999999
 40
0.8124999999999999
 40
0.8437499999999999
 40
0.8437499999999999
 40
0.8749999999999999
 40
0.8749999999999999
 40
0.9062499999999999
 40
0.9062499999999999
 40
0.9374999999999999
 40
0.9374999999999999
 40
0.9687499999999999
 40
0.9687499999999999
 40
1.0
 40
1.0
 40
1.0
 40
1.0
 10
99.53394344547911
 20
82.05593971200179
 30
0.0
 10
99.21265674100263
 20
82.10974854304726
 30
0.0
 10
98.80657761711076
 20
82.17331815758803
 30
0.0
 10
97.82521094783209
 20
82.30029941606848
 30
0.0
 10
97.27324669180486
 20
82.36044325478501
 30
0.0
 10
96.35994543798739
 20
82.4306344834439
 30
0.0
 10
96.04551840899718
 20
82.45029002590559
 30
0.0
 10
95.40793370303054
 20
82.48007125736487
 30
0.0
 10
95.08310658996034
 20
82.49033334811801
 30
0.0
 10
94.42094292209637
 20
82.50042389305594
 30
0.0
 10
94.08759042581377
 20
82.50010251435536
 30
0.0
 10
93.43217218662232
 20
82.4890645426331
 30
0.0
 10
93.10767582874172
 20
82.47839118627294
 30
0.0
 10
92.4652493290621
 20
82.44738403530066
 30
0.0
 10
92.1507957301341
 20
82.42714777000424
 30
0.0
 10
91.55044831481214
 20
82.38011430405129
 30
0.0
 10
91.26209221020974
 20
82.35319842018939
 30
0.0
 10
90.70938631206579
 20
82.29463693837563
 30
0.0
 10
90.4479278748492
 20
82.26325752095511
 30
0.0
 10
89.96683417087486
 20
82.20042840997377
 30
0.0
 10
89.74506722244679
 20
82.16874695018193
 30
0.0
 10
89.33984912586462
 20
82.10737294907558
 30
0.0
 10
89.15818279031731
 20
82.07793328477689
 30
0.0
 10
88.84628607463101
 20
82.02545263444341
 30
0.0
 10
88.71427489150321
 20
82.00213580116666
 30
0.0
 10
88.49924392358531
 20
81.9633285711152
 30
0.0
 10
88.41712094787857
 20
81.94800002123284
 30
0.0
 10
88.3086111156827
 20
81.92760433153572
 30
0.0
 10
88.28107898568724
 20
81.92232692231619
 30
0.0
 10
88.28040285522344
 20
81.9221981356259
 30
0.0
 10
88.30795171532453
 20
81.9274788456526
 30
0.0
 10
88.41592956371528
 20
81.94777760432115
 30
0.0
 10
88.49619947089292
 20
81.96276663771633
 30
0.0
 10
88.70984872790311
 20
82.00134906257554
 30
0.0
 10
88.84390429281714
 20
82.02504017640003
 30
0.0
 10
89.15575966311768
 20
82.07753707605092
 30
0.0
 10
89.33443074097627
 20
82.10651163567276
 30
0.0
 10
89.73777783522195
 20
82.16768229398097
 30
0.0
 10
89.96322468923096
 20
82.19993028624532
 30
0.0
 10
90.4445369537711
 20
82.26284103112508
 30
0.0
 10
90.70215605701392
 20
82.29379353160284
 30
0.0
 10
91.25190094547486
 20
82.35219353224612
 30
0.0
 10
91.54541541996892
 20
82.37967385722794
 30
0.0
 10
92.14631559927787
 20
82.42684220585403
 30
0.0
 10
92.4561078122268
 20
82.4468268422443
 30
0.0
 10
93.09465775035548
 20
82.4778748754755
 30
0.0
 10
93.4255559768199
 20
82.48889101580393
 30
0.0
 10
94.08261288599684
 20
82.50007970333773
 30
0.0
 10
94.41140533169995
 20
82.50044407837825
 30
0.0
 10
95.06951934466551
 20
82.4906612345467
 30
0.0
 10
95.40105997368268
 20
82.48033439848741
 30
0.0
 10
96.04126025020906
 20
82.45054585060761
 30
0.0
 10
96.35249183283457
 20
82.43111431874519
 30
0.0
 10
96.95737334244392
 20
82.38480966135225
 30
0.0
 10
97.25279725870037
 20
82.3576916555608
 30
0.0
 10
97.8057725237522
 20
82.29991852974166
 30
0.0
 10
98.06568653296952
 20
82.26913135716605
 30
0.0
 10
98.55264273810238
 20
82.20622631709537
 30
0.0
 10
98.78084044480046
 20
82.17390288438224
 30
0.0
 10
99.19037348943843
 20
82.11230278213901
 30
0.0
 10
99.37330096751843
 20
82.08284398110125
 30
0.0
 10
99.53394344547911
 20
82.05593971200179
 30
0.0
  0
SPLINE
  5
108
330
1F
100
AcDbEntity
  8
0
  6
HIDDEN
 62
     7
370
     0
100
AcDbSpline
210
0.0
220
0.0
230
1.0
 70
    11
 71
     3
 72
    66
 73
    62
 74
     0
 42
0.00000001
 43
0.00000001
 40
0.0
 40
0.0
 40
0.0
 40
0.0
 40
0.0624999999999998
 40
0.0624999999999998
 40
0.1249999999999996
 40
0.1249999999999996
 40
0.1562499999999996
 40
0.1562499999999996
 40
0.1874999999999995
 40
0.1874999999999995
 40
0.2187499999999995
 40
0.2187499999999995
 40
0.2499999999999995
 40
0.2499999999999995
 40
0.2812499999999995
 40
0.2812499999999995
 40
0.3124999999999995
 40
0.3124999999999995
 40
0.3437499999999995
 40
0.3437499999999995
 40
0.3749999999999995
 40
0.3749999999999995
 40
0.4062499999999996
 40
0.4062499999999996
 40
0.4374999999999997
 40
0.4374999999999997
 40
0.4687499999999997
 40
0.4687499999999997
 40
0.4999999999999998
 40
0.4999999999999998
 40
0.5312499999999998
 40
0.5312499999999998
 40
0.5624999999999998
 40
0.5624999999999998
 40
0.5937499999999998
 40
0.5937499999999998
 40
0.6249999999999998
 40
0.6249999999999998
 40
0.6562499999999998
 40
0.6562499999999998
 40
0.6874999999999998
 40
0.6874999999999998
 40
0.7187499999999998
 40
0.7187499999999998
 40
0.7499999999999998
 40
0.7499999999999998
 40
0.7812499999999999
 40
0.7812499999999999
 40
0.8124999999999999
 40
0.8124999999999999
 40
0.8437499999999999
 40
0.8437499999999999
 40
0.8749999999999999
 40
0.8749999999999999
 40
0.9062499999999999
 40
0.9062499999999999
 40
0.9374999999999999
 40
0.9374999999999999
 40
0.9687499999999999
 40
0.9687499999999999
 40
1.0
 40
1.0
 40
1.0
 40
1.0
 10
99.53394344547911
 20
144.7885841534959
 30
0.0
 10
99.21265674100263
 20
144.7347753224505
 30
0.0
 10
98.80657761711076
 20
144.6712057079097
 30
0.0
 10
97.82521094783209
 20
144.5442244494292
 30
0.0
 10
97.27324669180486
 20
144.4840806107127
 30
0.0
 10
96.35994543798739
 20
144.4138893820538
 30
0.0
 10
96.04551840899718
 20
144.3942338395921
 30
0.0
 10
95.40793370303054
 20
144.3644526081329
 30
0.0
 10
95.08310658996034
 20
144.3541905173797
 30
0.0
 10
94.42094292209637
 20
144.3440999724418
 30
0.0
 10
94.08759042581377
 20
144.3444213511424
 30
0.0
 10
93.43217218662232
 20
144.3554593228646
 30
0.0
 10
93.10767582874172
 20
144.3661326792248
 30
0.0
 10
92.4652493290621
 20
144.3971398301971
 30
0.0
 10
92.1507957301341
 20
144.4173760954935
 30
0.0
 10
91.55044831481214
 20
144.4644095614464
 30
0.0
 10
91.26209221020974
 20
144.4913254453083
 30
0.0
 10
90.70938631206579
 20
144.5498869271221
 30
0.0
 10
90.4479278748492
 20
144.5812663445426
 30
0.0
 10
89.96683417087486
 20
144.6440954555239
 30
0.0
 10
89.74506722244679
 20
144.6757769153158
 30
0.0
 10
89.33984912586462
 20
144.7371509164221
 30
0.0
 10
89.15818279031731
 20
144.7665905807208
 30
0.0
 10
88.84628607463101
 20
144.8190712310543
 30
0.0
 10
88.71427489150321
 20
144.842388064331
 30
0.0
 10
88.49924392358531
 20
144.8811952943825
 30
0.0
 10
88.41712094787857
 20
144.8965238442649
 30
0.0
 10
88.3086111156827
 20
144.916919533962
 30
0.0
 10
88.28107898568724
 20
144.9221969431815
 30
0.0
 10
88.28040285522344
 20
144.9223257298718
 30
0.0
 10
88.30795171532453
 20
144.9170450198451
 30
0.0
 10
88.41592956371528
 20
144.8967462611765
 30
0.0
 10
88.49619947089292
 20
144.8817572277814
 30
0.0
 10
88.70984872790311
 20
144.8431748029222
 30
0.0
 10
88.84390429281714
 20
144.8194836890977
 30
0.0
 10
89.15575966311768
 20
144.7669867894468
 30
0.0
 10
89.33443074097627
 20
144.738012229825
 30
0.0
 10
89.73777783522195
 20
144.6768415715167
 30
0.0
 10
89.96322468923096
 20
144.6445935792524
 30
0.0
 10
90.4445369537711
 20
144.5816828343727
 30
0.0
 10
90.70215605701392
 20
144.5507303338948
 30
0.0
 10
91.25190094547486
 20
144.4923303332516
 30
0.0
 10
91.54541541996892
 20
144.4648500082698
 30
0.0
 10
92.14631559927787
 20
144.4176816596437
 30
0.0
 10
92.4561078122268
 20
144.3976970232534
 30
0.0
 10
93.09465775035548
 20
144.3666489900222
 30
0.0
 10
93.4255559768199
 20
144.3556328496938
 30
0.0
 10
94.08261288599684
 20
144.34444416216
 30
0.0
 10
94.41140533169995
 20
144.3440797871194
 30
0.0
 10
95.06951934466551
 20
144.353862630951
 30
0.0
 10
95.40105997368268
 20
144.3641894670103
 30
0.0
 10
96.04126025020906
 20
144.3939780148901
 30
0.0
 10
96.35249183283457
 20
144.4134095467525
 30
0.0
 10
96.95737334244392
 20
144.4597142041455
 30
0.0
 10
97.25279725870037
 20
144.4868322099369
 30
0.0
 10
97.8057725237522
 20
144.544605335756
 30
0.0
 10
98.06568653296952
 20
144.5753925083317
 30
0.0
 10
98.55264273810238
 20
144.6382975484023
 30
0.0
 10
98.78084044480046
 20
144.6706209811155
 30
0.0
 10
99.19037348943843
 20
144.7322210833587
 30
0.0
 10
99.37330096751843
 20
144.7616798843964
 30
0.0
 10
99.53394344547911
 20
144.7885841534959
 30
0.0
  0
SPLINE
  5
109
330
1F
100
AcDbEntity
  8
0
  6
HIDDEN
 62
     7
370
     0
100
AcDbSpline
210
0.0
220
0.0
230
1.0
 70
    11
 71
     3
 72
    17
 73
    13
 74
     0
 42
0.00000001
 43
0.00000001
 40
0.0
 40
0.0
 40
0.0
 40
0.0
 40
0.2499999999999999
 40
0.2499999999999999
 40
0.3749999999999999
 40
0.3749999999999999
 40
0.5
 40
0.625
 40
0.625
 40
0.7499999999999999
 40
0.7499999999999999
 40
1.0
 40
1.0
 40
1.0
 40
1.0
 10
99.53394344547911
 20
144.7885841534959
 30
0.0
 10
99.7793930370557
 20
144.829691847712
 30
0.0
 10
99.96442378699741
 20
144.8562227492597
 30
0.0
 10
100.15334100698
 20
144.8823398879595
 30
0.0
 10
100.2015210710124
 20
144.8887031278923
 30
0.0
 10
100.2650546107657
 20
144.8970102511097
 30
0.0
 10
100.2964521597861
 20
144.9009972915098
 30
0.0
 10
100.2649917640544
 20
144.8970022780499
 30
0.0
 10
100.2012907748269
 20
144.8886727708701
 30
0.0
 10
100.1531012705715
 20
144.8823074184248
 30
0.0
 10
99.9642903837764
 20
144.8562029570976
 30
0.0
 10
99.77939388575102
 20
144.8296919898509
 30
0.0
 10
99.53394344547911
 20
144.7885841534959
 30
0.0
  0
SPLINE
  5
10A
330
1F
100
AcDbEntity
  8
0
  6
HIDDEN
 62
     7
370
     0
100
AcDbSpline
210
0.0
220
0.0
230
1.0
 70
    11
 71
     3
 72
    17
 73
    13
 74
     0
 42
0.00000001
 43
0.00000001
 40
0.0
 40
0.0
 40
0.0
 40
0.0
 40
0.2499999999999999
 40
0.2499999999999999
 40
0.3749999999999999
 40
0.3749999999999999
 40
0.4999999999999999
 40
0.6249999999999999
 40
0.6249999999999999
 40
0.75
 40
0.75
 40
1.0
 40
1.0
 40
1.0
 40
1.0
 10
99.53394344547911
 20
82.05593971200179
 30
0.0
 10
99.77939303705571
 20
82.01483201778566
 30
0.0
 10
99.96442378699743
 20
81.98830111623802
 30
0.0
 10
100.15334100698
 20
81.96218397753817
 30
0.0
 10
100.2015210710124
 20
81.95582073760538
 30
0.0
 10
100.2650546107657
 20
81.94751361438806
 30
0.0
 10
100.2964521597861
 20
81.94352657398792
 30
0.0
 10
100.2649917640544
 20
81.94752158744775
 30
0.0
 10
100.2012907748269
 20
81.9558510946276
 30
0.0
 10
100.1531012705715
 20
81.96221644707288
 30
0.0
 10
99.96429038377639
 20
81.98832090840011
 30
0.0
 10
99.779393885751
 20
82.01483187564688
 30
0.0
 10
99.53394344547911
 20
82.05593971200179
 30
0.0
  0
LINE
  5
10B
330
1F
100
AcDbEntity
  8
0
  6
HIDDEN
 62
     7
370
     0
100
AcDbLine
 10
109.2807377903
 20
86.9222619327
 30
0.0
 11
109.2807377903
 21
139.8931355571
 31
0.0
  0
LINE
  5
10C
330
1F
100
AcDbEntity
  8
0
  6
HIDDEN
 62
     7
370
     0
100
AcDbLine
 10
131.1907377903
 20
148.1364971252
 30
0.0
 11
131.1907377903
 21
159.1158131736
 31
0.0
  0
LINE
  5
10D
330
1F
100
AcDbEntity
  8
0
  6
HIDDEN
 62
     7
370
     0
100
AcDbLine
 10
127.3707377903
 20
148.1364971252
 30
0.0
 11
127.3707377903
 21
159.1158131736
 31
0.0
  0
LINE
  5
10E
330
1F
100
AcDbEntity
  8
0
  6
HIDDEN
 62
     7
370
     0
100
AcDbLine
 10
123.9387046385
 20
144.7722619327
 30
0.0
 11
138.2307377903
 21
144.7722619327
 31
0.0
  0
LINE
  5
10F
330
1F
100
AcDbEntity
  8
0
  6
HIDDEN
 62
     7
370
     0
100
AcDbLine
 10
79.2773621173
 20
139.9222619327
 30
0.0
 11
79.2773621173
 21
86.9222619327
 31
0.0
  0
LWPOLYLINE
  5
110
330
1F
100
AcDbEntity
  8
0
  6
HIDDEN
 62
     7
370
     0
100
AcDbPolyline
 90
        2
 70
   128
 43
0.0
 10
79.2773621173
 20
86.9222619327
 10
79.2773621173
 20
86.9222619327
  0
LINE
  5
111
330
1F
100
AcDbEntity
  8
0
  6
HIDDEN
 62
     7
370
     0
100
AcDbLine
 10
164.2307377903
 20
143.4722619327
 30
0.0
 11
164.2307377903
 21
83.4016740758
 31
0.0
  0
SPLINE
  5
112
330
1F
100
AcDbEntity
  8
0
  6
HIDDEN
 62
     7
370
     0
100
AcDbSpline
210
0.0
220
0.0
230
1.0
 70
     8
 71
     3
 72
    66
 73
    62
 74
     0
 42
0.00000001
 43
0.00000001
 40
-0.0625000000000001
 40
-0.0625000000000001
 40
0.0
 40
0.0
 40
0.0312499999999996
 40
0.0312499999999996
 40
0.0624999999999991
 40
0.0624999999999991
 40
0.0937499999999987
 40
0.0937499999999987
 40
0.1249999999999983
 40
0.1249999999999983
 40
0.1562499999999978
 40
0.1562499999999978
 40
0.1874999999999974
 40
0.1874999999999974
 40
0.2187499999999969
 40
0.2187499999999969
 40
0.2499999999999965
 40
0.2499999999999965
 40
0.2812499999999961
 40
0.2812499999999961
 40
0.3124999999999956
 40
0.3124999999999956
 40
0.3437499999999952
 40
0.3437499999999952
 40
0.3749999999999948
 40
0.3749999999999948
 40
0.4062499999999943
 40
0.4062499999999943
 40
0.4374999999999939
 40
0.4374999999999939
 40
0.4687499999999934
 40
0.4687499999999934
 40
0.499999999999993
 40
0.499999999999993
 40
0.5312499999999926
 40
0.5312499999999926
 40
0.5624999999999921
 40
0.5624999999999921
 40
0.6249999999999931
 40
0.6249999999999931
 40
0.6562499999999938
 40
0.6562499999999938
 40
0.6874999999999944
 40
0.6874999999999944
 40
0.7187499999999951
 40
0.7187499999999951
 40
0.7499999999999958
 40
0.7499999999999958
 40
0.7812499999999966
 40
0.7812499999999966
 40
0.8124999999999972
 40
0.8124999999999972
 40
0.8437499999999979
 40
0.8437499999999979
 40
0.8749999999999986
 40
0.8749999999999986
 40
0.9062499999999992
 40
0.9062499999999992
 40
0.9374999999999999
 40
0.9374999999999999
 40
1.0
 40
1.0
 40
1.03125
 40
1.03125
 10
176.7807377902881
 20
128.7084638424032
 30
0.0
 10
176.7807377902881
 20
128.2791609779213
 30
0.0
 10
176.7969588155829
 20
128.137781644812
 30
0.0
 10
176.8605026845682
 20
127.8583968843684
 30
0.0
 10
176.9086018259741
 20
127.718922260927
 30
0.0
 10
177.0341099691217
 20
127.4519259159797
 30
0.0
 10
177.1109031251902
 20
127.3247310372384
 30
0.0
 10
177.2923208018324
 20
127.0831368976952
 30
0.0
 10
177.397869395499
 20
126.9683244436695
 30
0.0
 10
177.6284203505078
 20
126.761896938659
 30
0.0
 10
177.7542312464995
 20
126.6689130268211
 30
0.0
 10
178.0274800003237
 20
126.5042924339779
 30
0.0
 10
178.1728882494534
 20
126.4341678220895
 30
0.0
 10
178.4736754644564
 20
126.3213566974952
 30
0.0
 10
178.6312767663375
 20
126.277817452039
 30
0.0
 10
178.954012610046
 20
126.2195441965697
 30
0.0
 10
179.1162662326296
 20
126.2051049221865
 30
0.0
 10
179.4425001757109
 20
126.2049444484598
 30
0.0
 10
179.6081934734451
 20
126.2196942858623
 30
0.0
 10
179.9288778718349
 20
126.2775607863213
 30
0.0
 10
180.0847503418321
 20
126.3203562300667
 30
0.0
 10
180.3875108832885
 20
126.4336226787607
 30
0.0
 10
180.5338313401593
 20
126.5043084695759
 30
0.0
 10
180.8046810425115
 20
126.6672549233546
 30
0.0
 10
180.9309471226356
 20
126.7600836115858
 30
0.0
 10
181.1644410277169
 20
126.9689981362303
 30
0.0
 10
181.2679251585694
 20
127.0817575692774
 30
0.0
 10
181.44902158366
 20
127.3224115176014
 30
0.0
 10
181.5273388159503
 20
127.4518715585088
 30
0.0
 10
181.652886919896
 20
127.7189476228266
 30
0.0
 10
181.7002129707575
 20
127.8558130491464
 30
0.0
 10
181.7642647535279
 20
128.1359281769603
 30
0.0
 10
181.7806783540871
 20
128.2801528440683
 30
0.0
 10
181.7807968966659
 20
128.5627982155783
 30
0.0
 10
181.7650326172737
 20
128.7026303274023
 30
0.0
 10
181.7011492850072
 20
128.9793236814506
 30
0.0
 10
181.6531957967438
 20
129.1141641946406
 30
0.0
 10
181.4665069891004
 20
129.4979080586839
 30
0.0
 10
181.280467980711
 20
129.732708795465
 30
0.0
 10
180.9350802969965
 20
130.0221974626017
 30
0.0
 10
180.8066231433067
 20
130.1102290855889
 30
0.0
 10
180.5349959724342
 20
130.2612883290644
 30
0.0
 10
180.391515666941
 20
130.3250092891687
 30
0.0
 10
180.0891038283712
 20
130.4290201650459
 30
0.0
 10
179.9302032172811
 20
130.4688870771374
 30
0.0
 10
179.610616216305
 20
130.5215515973881
 30
0.0
 10
179.4482387391172
 20
130.5350177986721
 30
0.0
 10
179.1181098806642
 20
130.5352829862814
 30
0.0
 10
178.9552204235063
 20
130.5220237196333
 30
0.0
 10
178.6355975165178
 20
130.4698397385273
 30
0.0
 10
178.4769202606552
 20
130.4303097278145
 30
0.0
 10
178.1738742030928
 20
130.3266228304522
 30
0.0
 10
178.030231081703
 20
130.2630768175005
 30
0.0
 10
177.7584868546027
 20
130.1125401010112
 30
0.0
 10
177.6297639634898
 20
130.0246711907532
 30
0.0
 10
177.3989766244468
 20
129.8319256678934
 30
0.0
 10
177.2954373350033
 20
129.726447695793
 30
0.0
 10
177.1125644175526
 20
129.4964762156986
 30
0.0
 10
177.0346770935901
 20
129.3733222156166
 30
0.0
 10
176.8472195366257
 20
128.9899371603883
 30
0.0
 10
176.7807377902881
 20
128.7084638424032
 30
0.0
 10
176.7807377902881
 20
128.2791609779213
 30
0.0
  0
SPLINE
  5
113
330
1F
100
AcDbEntity
  8
0
  6
HIDDEN
 62
     7
370
     0
100
AcDbSpline
210
0.0
220
0.0
230
1.0
 70
     8
 71
     3
 72
    66
 73
    62
 74
     0
 42
0.00000001
 43
0.00000001
 40
-0.0624999999999997
 40
-0.0624999999999997
 40
0.0
 40
0.0
 40
0.0312499999999998
 40
0.0312499999999998
 40
0.0624999999999996
 40
0.0624999999999996
 40
0.0937499999999994
 40
0.0937499999999994
 40
0.1249999999999992
 40
0.1249999999999992
 40
0.1562499999999989
 40
0.1562499999999989
 40
0.1874999999999988
 40
0.1874999999999988
 40
0.2187499999999986
 40
0.2187499999999986
 40
0.2499999999999983
 40
0.2499999999999983
 40
0.2812499999999981
 40
0.2812499999999981
 40
0.3124999999999979
 40
0.3124999999999979
 40
0.3437499999999977
 40
0.3437499999999977
 40
0.3749999999999975
 40
0.3749999999999975
 40
0.4062499999999973
 40
0.4062499999999973
 40
0.4374999999999971
 40
0.4374999999999971
 40
0.4687499999999969
 40
0.4687499999999969
 40
0.4999999999999967
 40
0.4999999999999967
 40
0.5312499999999964
 40
0.5312499999999964
 40
0.5624999999999962
 40
0.5624999999999962
 40
0.6249999999999968
 40
0.6249999999999968
 40
0.6562499999999972
 40
0.6562499999999972
 40
0.6874999999999976
 40
0.6874999999999976
 40
0.7187499999999979
 40
0.7187499999999979
 40
0.7499999999999982
 40
0.7499999999999982
 40
0.7812499999999986
 40
0.7812499999999986
 40
0.8124999999999989
 40
0.8124999999999989
 40
0.8437499999999992
 40
0.8437499999999992
 40
0.8749999999999996
 40
0.8749999999999996
 40
0.90625
 40
0.90625
 40
0.9375000000000003
 40
0.9375000000000003
 40
1.0
 40
1.0
 40
1.03125
 40
1.03125
 10
176.7807377902881
 20
128.1360600230944
 30
0.0
 10
176.7807377902881
 20
128.5653628875763
 30
0.0
 10
176.796958815583
 20
128.7053781110839
 30
0.0
 10
176.8605026845683
 20
128.979568518513
 30
0.0
 10
176.908601825974
 20
129.1151516898892
 30
0.0
 10
177.0341099691217
 20
129.3724815692633
 30
0.0
 10
177.1109031251902
 20
129.4939482623234
 30
0.0
 10
177.2923208018324
 20
129.7229559125615
 30
0.0
 10
177.397869395499
 20
129.8308643548309
 30
0.0
 10
177.6284203505078
 20
130.0236842023954
 30
0.0
 10
177.7542312464995
 20
130.1098988086025
 30
0.0
 10
178.0274800003237
 20
130.2618294691636
 30
0.0
 10
178.1728882494534
 20
130.3261501251932
 30
0.0
 10
178.4736754644564
 20
130.429332996079
 30
0.0
 10
178.6312767663374
 20
130.4689766776811
 30
0.0
 10
178.9540126100459
 20
130.5219814697168
 30
0.0
 10
179.1162662326295
 20
130.5350782226602
 30
0.0
 10
179.442500175711
 20
130.5352239145726
 30
0.0
 10
179.6081934734451
 20
130.5218448896382
 30
0.0
 10
179.9288778718348
 20
130.4692101985387
 30
0.0
 10
180.0847503418321
 20
130.4302463415501
 30
0.0
 10
180.3875108832885
 20
130.326650451513
 30
0.0
 10
180.5338313401592
 20
130.2618119948964
 30
0.0
 10
180.8046810425115
 20
130.1114317435818
 30
0.0
 10
180.9309471226356
 20
130.0253755839413
 30
0.0
 10
181.1644410277169
 20
129.8302374702129
 30
0.0
 10
181.2679251585693
 20
129.7242541442918
 30
0.0
 10
181.44902158366
 20
129.4961560364292
 30
0.0
 10
181.5273388159503
 20
129.3725338771649
 30
0.0
 10
181.652886919896
 20
129.1151273277802
 30
0.0
 10
181.7002129707574
 20
128.9820907749682
 30
0.0
 10
181.7642647535279
 20
128.707210446059
 30
0.0
 10
181.780678354087
 20
128.5643660684129
 30
0.0
 10
181.7807968966658
 20
128.2817305754505
 30
0.0
 10
181.7650326172738
 20
128.1405719646002
 30
0.0
 10
181.7011492850072
 20
127.858655776113
 30
0.0
 10
181.6531957967438
 20
127.7199363177024
 30
0.0
 10
181.4665069891004
 20
127.3218086977516
 30
0.0
 10
181.2804679807111
 20
127.0733919138553
 30
0.0
 10
180.9350802969965
 20
126.7634960637985
 30
0.0
 10
180.8066231433066
 20
126.6685547602988
 30
0.0
 10
180.5349959724342
 20
126.5048791752862
 30
0.0
 10
180.391515666941
 20
126.4354131553729
 30
0.0
 10
180.0891038283712
 20
126.3217006494438
 30
0.0
 10
179.9302032172811
 20
126.2779156016308
 30
0.0
 10
179.610616216305
 20
126.2200171498644
 30
0.0
 10
179.4482387391172
 20
126.2051714767515
 30
0.0
 10
179.1181098806642
 20
126.2048793833756
 30
0.0
 10
178.9552204235063
 20
126.2194971285801
 30
0.0
 10
178.6355975165178
 20
126.2768692143728
 30
0.0
 10
178.4769202606552
 20
126.3202868790877
 30
0.0
 10
178.1738742030928
 20
126.4336529258787
 30
0.0
 10
178.0302310817029
 20
126.5029333983343
 30
0.0
 10
177.7584868546027
 20
126.6660584336055
 30
0.0
 10
177.6297639634898
 20
126.7608353774013
 30
0.0
 10
177.3989766244468
 20
126.9671930990428
 30
0.0
 10
177.2954373350033
 20
127.0794362426827
 30
0.0
 10
177.1125644175526
 20
127.3220806667144
 30
0.0
 10
177.0346770935901
 20
127.4510433325139
 30
0.0
 10
176.8472195366257
 20
127.8488609210466
 30
0.0
 10
176.7807377902881
 20
128.1360600230944
 30
0.0
 10
176.7807377902881
 20
128.5653628875763
 30
0.0
  0
SPLINE
  5
114
330
1F
100
AcDbEntity
  8
0
  6
HIDDEN
 62
     7
370
     0
100
AcDbSpline
210
0.0
220
0.0
230
1.0
 70
    11
 71
     3
 72
    66
 73
    62
 74
     0
 42
0.00000001
 43
0.00000001
 40
-0.0624999999999996
 40
-0.0624999999999996
 40
0.0
 40
0.0
 40
0.0312499999999998
 40
0.0312499999999998
 40
0.0624999999999996
 40
0.0624999999999996
 40
0.0937499999999994
 40
0.0937499999999994
 40
0.1249999999999992
 40
0.1249999999999992
 40
0.1562499999999989
 40
0.1562499999999989
 40
0.1874999999999988
 40
0.1874999999999988
 40
0.2187499999999985
 40
0.2187499999999985
 40
0.2499999999999983
 40
0.2499999999999983
 40
0.2812499999999981
 40
0.2812499999999981
 40
0.3124999999999979
 40
0.3124999999999979
 40
0.3437499999999977
 40
0.3437499999999977
 40
0.3749999999999976
 40
0.3749999999999976
 40
0.4062499999999973
 40
0.4062499999999973
 40
0.4374999999999971
 40
0.4374999999999971
 40
0.4687499999999969
 40
0.4687499999999969
 40
0.4999999999999967
 40
0.4999999999999967
 40
0.5312499999999964
 40
0.5312499999999964
 40
0.5624999999999962
 40
0.5624999999999962
 40
0.6249999999999969
 40
0.6249999999999969
 40
0.6562499999999972
 40
0.6562499999999972
 40
0.6874999999999976
 40
0.6874999999999976
 40
0.7187499999999979
 40
0.7187499999999979
 40
0.7499999999999982
 40
0.7499999999999982
 40
0.7812499999999987
 40
0.7812499999999987
 40
0.812499999999999
 40
0.812499999999999
 40
0.8437499999999993
 40
0.8437499999999993
 40
0.8749999999999997
 40
0.8749999999999997
 40
0.90625
 40
0.90625
 40
0.9375000000000004
 40
0.9375000000000004
 40
1.0
 40
1.0
 40
1.03125
 40
1.03125
 10
176.7807377902881
 20
83.42226193274885
 30
0.0
 10
176.7807377902881
 20
83.42226193274887
 30
0.0
 10
176.796958815583
 20
83.42362604235058
 30
0.0
 10
176.8605026845683
 20
83.42882039536501
 30
0.0
 10
176.908601825974
 20
83.43271184743027
 30
0.0
 10
177.0341099691217
 20
83.44237831300346
 30
0.0
 10
177.1109031251902
 20
83.44810649868468
 30
0.0
 10
177.2923208018324
 20
83.46069298798967
 30
0.0
 10
177.397869395499
 20
83.46759699974606
 30
0.0
 10
177.6284203505079
 20
83.48120465719205
 30
0.0
 10
177.7542312464995
 20
83.48797396282282
 30
0.0
 10
178.0274800003237
 20
83.50066389510495
 30
0.0
 10
178.1728882494534
 20
83.50646785096377
 30
0.0
 10
178.4736754644564
 20
83.51609610467226
 30
0.0
 10
178.6312767663375
 20
83.51999166852636
 30
0.0
 10
178.9540126100459
 20
83.52526013195991
 30
0.0
 10
179.1162662326296
 20
83.5266026533998
 30
0.0
 10
179.4425001757109
 20
83.52661743521399
 30
0.0
 10
179.6081934734451
 20
83.525246622746
 30
0.0
 10
179.9288778718349
 20
83.52001481338637
 30
0.0
 10
180.0847503418321
 20
83.51618322662958
 30
0.0
 10
180.3875108832885
 20
83.50651266797281
 30
0.0
 10
180.5338313401592
 20
83.50066533377418
 30
0.0
 10
180.8046810425115
 20
83.48809913131005
 30
0.0
 10
180.9309471226355
 20
83.48132660271929
 30
0.0
 10
181.1644410277169
 20
83.46755019180321
 30
0.0
 10
181.2679251585693
 20
83.46077408467725
 30
0.0
 10
181.44902158366
 20
83.44821824421584
 30
0.0
 10
181.5273388159502
 20
83.44238036257276
 30
0.0
 10
181.652886919896
 20
83.43271084763958
 30
0.0
 10
181.7002129707575
 20
83.42888197413187
 30
0.0
 10
181.7642647535279
 20
83.42364717522715
 30
0.0
 10
181.7806783540871
 20
83.4222668857653
 30
0.0
 10
181.7807968966658
 20
83.4222570072177
 30
0.0
 10
181.7650326172738
 20
83.42358350624392
 30
0.0
 10
181.7011492850072
 20
83.4288063406829
 30
0.0
 10
181.6531957967438
 20
83.43268528590353
 30
0.0
 10
181.4665069891004
 20
83.44706904181093
 30
0.0
 10
181.2804679807111
 20
83.4606850889262
 30
0.0
 10
180.9350802969965
 20
83.4810922718463
 30
0.0
 10
180.8066231433066
 20
83.48800195235873
 30
0.0
 10
180.5349959724342
 20
83.5006182938959
 30
0.0
 10
180.391515666941
 20
83.50636335370496
 30
0.0
 10
180.0891038283712
 20
83.51606498375675
 30
0.0
 10
179.9302032172811
 20
83.51998311947828
 30
0.0
 10
179.610616216305
 20
83.52521705099403
 30
0.0
 10
179.4482387391172
 20
83.52659652282289
 30
0.0
 10
179.1181098806642
 20
83.52662342858952
 30
0.0
 10
178.9552204235063
 20
83.52526495003308
 30
0.0
 10
178.6355975165178
 20
83.52007684534632
 30
0.0
 10
178.4769202606552
 20
83.51618919134434
 30
0.0
 10
178.1738742030928
 20
83.50651004191565
 30
0.0
 10
178.030231081703
 20
83.5007755824116
 30
0.0
 10
177.7584868546027
 20
83.48818726362978
 30
0.0
 10
177.6297639634898
 20
83.48127923009201
 30
0.0
 10
177.3989766244468
 20
83.46766703131026
 30
0.0
 10
177.2954373350032
 20
83.46090185977076
 30
0.0
 10
177.1125644175526
 20
83.44822891583351
 30
0.0
 10
177.0346770935901
 20
83.44242025011592
 30
0.0
 10
176.8472195366257
 20
83.42798771681151
 30
0.0
 10
176.7807377902881
 20
83.42226193274885
 30
0.0
 10
176.7807377902881
 20
83.42226193274887
 30
0.0
  0
SPLINE
  5
115
330
1F
100
AcDbEntity
  8
0
  6
HIDDEN
 62
     7
370
     0
100
AcDbSpline
210
0.0
220
0.0
230
1.0
 70
    11
 71
     3
 72
    66
 73
    62
 74
     0
 42
0.00000001
 43
0.00000001
 40
-0.0624999999999996
 40
-0.0624999999999996
 40
0.0
 40
0.0
 40
0.0312499999999998
 40
0.0312499999999998
 40
0.0624999999999996
 40
0.0624999999999996
 40
0.0937499999999994
 40
0.0937499999999994
 40
0.1249999999999992
 40
0.1249999999999992
 40
0.1562499999999989
 40
0.1562499999999989
 40
0.1874999999999988
 40
0.1874999999999988
 40
0.2187499999999985
 40
0.2187499999999985
 40
0.2499999999999983
 40
0.2499999999999983
 40
0.2812499999999981
 40
0.2812499999999981
 40
0.3124999999999979
 40
0.3124999999999979
 40
0.3437499999999977
 40
0.3437499999999977
 40
0.3749999999999976
 40
0.3749999999999976
 40
0.4062499999999973
 40
0.4062499999999973
 40
0.4374999999999971
 40
0.4374999999999971
 40
0.4687499999999969
 40
0.4687499999999969
 40
0.4999999999999967
 40
0.4999999999999967
 40
0.5312499999999964
 40
0.5312499999999964
 40
0.5624999999999962
 40
0.5624999999999962
 40
0.6249999999999969
 40
0.6249999999999969
 40
0.6562499999999972
 40
0.6562499999999972
 40
0.6874999999999976
 40
0.6874999999999976
 40
0.7187499999999979
 40
0.7187499999999979
 40
0.7499999999999982
 40
0.7499999999999982
 40
0.7812499999999987
 40
0.7812499999999987
 40
0.812499999999999
 40
0.812499999999999
 40
0.8437499999999993
 40
0.8437499999999993
 40
0.8749999999999997
 40
0.8749999999999997
 40
0.90625
 40
0.90625
 40
0.9375000000000004
 40
0.9375000000000004
 40
1.0
 40
1.0
 40
1.03125
 40
1.03125
 10
176.7807377902881
 20
83.42226193274885
 30
0.0
 10
176.7807377902881
 20
83.42226193274887
 30
0.0
 10
176.796958815583
 20
83.42362604235058
 30
0.0
 10
176.8605026845683
 20
83.42882039536501
 30
0.0
 10
176.908601825974
 20
83.43271184743027
 30
0.0
 10
177.0341099691217
 20
83.44237831300346
 30
0.0
 10
177.1109031251902
 20
83.44810649868468
 30
0.0
 10
177.2923208018324
 20
83.46069298798967
 30
0.0
 10
177.397869395499
 20
83.46759699974606
 30
0.0
 10
177.6284203505079
 20
83.48120465719205
 30
0.0
 10
177.7542312464995
 20
83.48797396282282
 30
0.0
 10
178.0274800003237
 20
83.50066389510495
 30
0.0
 10
178.1728882494534
 20
83.50646785096377
 30
0.0
 10
178.4736754644564
 20
83.51609610467226
 30
0.0
 10
178.6312767663375
 20
83.51999166852636
 30
0.0
 10
178.9540126100459
 20
83.52526013195991
 30
0.0
 10
179.1162662326296
 20
83.5266026533998
 30
0.0
 10
179.4425001757109
 20
83.52661743521399
 30
0.0
 10
179.6081934734451
 20
83.525246622746
 30
0.0
 10
179.9288778718349
 20
83.52001481338637
 30
0.0
 10
180.0847503418321
 20
83.51618322662958
 30
0.0
 10
180.3875108832885
 20
83.50651266797281
 30
0.0
 10
180.5338313401592
 20
83.50066533377418
 30
0.0
 10
180.8046810425115
 20
83.48809913131005
 30
0.0
 10
180.9309471226355
 20
83.48132660271929
 30
0.0
 10
181.1644410277169
 20
83.46755019180321
 30
0.0
 10
181.2679251585693
 20
83.46077408467725
 30
0.0
 10
181.44902158366
 20
83.44821824421584
 30
0.0
 10
181.5273388159502
 20
83.44238036257276
 30
0.0
 10
181.652886919896
 20
83.43271084763958
 30
0.0
 10
181.7002129707575
 20
83.42888197413187
 30
0.0
 10
181.7642647535279
 20
83.42364717522715
 30
0.0
 10
181.7806783540871
 20
83.4222668857653
 30
0.0
 10
181.7807968966658
 20
83.4222570072177
 30
0.0
 10
181.7650326172738
 20
83.42358350624392
 30
0.0
 10
181.7011492850072
 20
83.4288063406829
 30
0.0
 10
181.6531957967438
 20
83.43268528590353
 30
0.0
 10
181.4665069891004
 20
83.44706904181093
 30
0.0
 10
181.2804679807111
 20
83.4606850889262
 30
0.0
 10
180.9350802969965
 20
83.4810922718463
 30
0.0
 10
180.8066231433066
 20
83.48800195235873
 30
0.0
 10
180.5349959724342
 20
83.5006182938959
 30
0.0
 10
180.391515666941
 20
83.50636335370496
 30
0.0
 10
180.0891038283712
 20
83.51606498375675
 30
0.0
 10
179.9302032172811
 20
83.51998311947828
 30
0.0
 10
179.610616216305
 20
83.52521705099403
 30
0.0
 10
179.4482387391172
 20
83.52659652282289
 30
0.0
 10
179.1181098806642
 20
83.52662342858952
 30
0.0
 10
178.9552204235063
 20
83.52526495003308
 30
0.0
 10
178.6355975165178
 20
83.52007684534632
 30
0.0
 10
178.4769202606552
 20
83.51618919134434
 30
0.0
 10
178.1738742030928
 20
83.50651004191565
 30
0.0
 10
178.030231081703
 20
83.5007755824116
 30
0.0
 10
177.7584868546027
 20
83.48818726362978
 30
0.0
 10
177.6297639634898
 20
83.48127923009201
 30
0.0
 10
177.3989766244468
 20
83.46766703131026
 30
0.0
 10
177.2954373350032
 20
83.46090185977076
 30
0.0
 10
177.1125644175526
 20
83.44822891583351
 30
0.0
 10
177.0346770935901
 20
83.44242025011592
 30
0.0
 10
176.8472195366257
 20
83.42798771681151
 30
0.0
 10
176.7807377902881
 20
83.42226193274885
 30
0.0
 10
176.7807377902881
 20
83.42226193274887
 30
0.0
  0
LINE
  5
116
330
1F
100
AcDbEntity
  8
0
  6
HIDDEN
 62
     7
370
     0
100
AcDbLine
 10
228.2807377903
 20
83.4222619327
 30
0.0
 11
228.2807377903
 21
143.4222619327
 31
0.0
  0
LINE
  5
117
330
1F
100
AcDbEntity
  8
0
  6
HIDDEN
 62
     7
370
     0
100
AcDbLine
 10
166.2307377903
 20
83.4222619327
 30
0.0
 11
166.2307377903
 21
143.4222619327
 31
0.0
  0
SPLINE
  5
118
330
1F
100
AcDbEntity
  8
0
  6
HIDDEN
 62
     7
370
     0
100
AcDbSpline
210
0.0
220
0.0
230
1.0
 70
    11
 71
     3
 72
    70
 73
    66
 74
     0
 42
0.00000001
 43
0.00000001
 40
-0.0312499999999999
 40
-0.0312499999999999
 40
0.0
 40
0.0
 40
0.03125
 40
0.03125
 40
0.0625
 40
0.0625
 40
0.09375
 40
0.09375
 40
0.125
 40
0.125
 40
0.1562499999999999
 40
0.1562499999999999
 40
0.1874999999999999
 40
0.1874999999999999
 40
0.2187499999999999
 40
0.2187499999999999
 40
0.2499999999999999
 40
0.2499999999999999
 40
0.2812499999999999
 40
0.2812499999999999
 40
0.3124999999999999
 40
0.3124999999999999
 40
0.3437499999999999
 40
0.3437499999999999
 40
0.3749999999999999
 40
0.3749999999999999
 40
0.4062499999999999
 40
0.4062499999999999
 40
0.4374999999999999
 40
0.4374999999999999
 40
0.4687499999999999
 40
0.4687499999999999
 40
0.4999999999999999
 40
0.4999999999999999
 40
0.53125
 40
0.53125
 40
0.5625
 40
0.5625
 40
0.59375
 40
0.59375
 40
0.625
 40
0.625
 40
0.65625
 40
0.65625
 40
0.6875
 40
0.6875
 40
0.71875
 40
0.71875
 40
0.75
 40
0.75
 40
0.7812500000000001
 40
0.7812500000000001
 40
0.8125000000000001
 40
0.8125000000000001
 40
0.8437500000000001
 40
0.8437500000000001
 40
0.8750000000000001
 40
0.8750000000000001
 40
0.9062500000000001
 40
0.9062500000000001
 40
0.9375000000000001
 40
0.9375000000000001
 40
0.9687500000000001
 40
0.9687500000000001
 40
1.0
 40
1.0
 40
1.03125
 40
1.03125
 10
187.7307377902881
 20
143.4222619327489
 30
0.0
 10
187.7307377902881
 20
143.4222619327489
 30
0.0
 10
187.760322790596
 20
143.4177344476356
 30
0.0
 10
187.8761618235088
 20
143.4004958545298
 30
0.0
 10
187.9638532331178
 20
143.387578427929
 30
0.0
 10
188.1923852717259
 20
143.3555097801244
 30
0.0
 10
188.3321693867623
 20
143.3365039475898
 30
0.0
 10
188.6623432223541
 20
143.2947151653578
 30
0.0
 10
188.8542324288436
 20
143.2718018698672
 30
0.0
 10
189.2733523469636
 20
143.2265982392385
 30
0.0
 10
189.5021208144363
 20
143.2040828801026
 30
0.0
 10
189.9993128947178
 20
143.1618154969145
 30
0.0
 10
190.2634757734467
 20
143.1424945107862
 30
0.0
 10
190.8107583679
 20
143.1103692814885
 30
0.0
 10
191.0979352050095
 20
143.0973408077617
 30
0.0
 10
191.6854493476631
 20
143.0797340538251
 30
0.0
 10
191.9809496523312
 20
143.0752388795776
 30
0.0
 10
192.575360685783
 20
143.0751871093996
 30
0.0
 10
192.8773121569484
 20
143.0797778643759
 30
0.0
 10
193.4611826536665
 20
143.097264887007
 30
0.0
 10
193.7450142027068
 20
143.1100684679259
 30
0.0
 10
194.2964100742984
 20
143.1423676898733
 30
0.0
 10
194.562219869061
 20
143.1618391666086
 30
0.0
 10
195.0547396003954
 20
143.2036718996297
 30
0.0
 10
195.2849373139993
 20
143.2262594542482
 30
0.0
 10
195.7090571043615
 20
143.2719926987461
 30
0.0
 10
195.8970094016721
 20
143.2944598468551
 30
0.0
 10
196.2265330089672
 20
143.3361397783238
 30
0.0
 10
196.3692528070351
 20
143.3555322608655
 30
0.0
 10
196.5976320730954
 20
143.387580114655
 30
0.0
 10
196.6838922609121
 20
143.4002860938352
 30
0.0
 10
196.8007207796838
 20
143.4176684066563
 30
0.0
 10
196.8306230369352
 20
143.4222445284916
 30
0.0
 10
196.8308518690454
 20
143.4222792346925
 30
0.0
 10
196.8021392252228
 20
143.4178823585131
 30
0.0
 10
196.6854934498606
 20
143.4005214921567
 30
0.0
 10
196.5982973203416
 20
143.3876791143818
 30
0.0
 10
196.371611842615
 20
143.3558577255324
 30
0.0
 10
196.2302120769731
 20
143.3366192795505
 30
0.0
 10
195.8984747253578
 20
143.2946312539515
 30
0.0
 10
195.7105872704722
 20
143.2721862758062
 30
0.0
 10
195.2915605419961
 20
143.2269456162193
 30
0.0
 10
195.0578501485538
 20
143.2039582454625
 30
0.0
 10
194.5644628835687
 20
143.1620077708348
 30
0.0
 10
194.3034847370562
 20
143.1428496662411
 30
0.0
 10
193.7523669974645
 20
143.1104333573577
 30
0.0
 10
193.4637054141297
 20
143.0973757864424
 30
0.0
 10
192.8819608794569
 20
143.0798821851151
 30
0.0
 10
192.5853145351421
 20
143.0752520604412
 30
0.0
 10
191.9838380784133
 20
143.0751742004912
 30
0.0
 10
191.6879714230458
 20
143.0797088356206
 30
0.0
 10
191.1055954262249
 20
143.097061753579
 30
0.0
 10
190.8160106457157
 20
143.110094421955
 30
0.0
 10
190.265419091246
 20
143.1423474265327
 30
0.0
 10
190.0041028466808
 20
143.1614577234193
 30
0.0
 10
189.5091647483617
 20
143.2034357970563
 30
0.0
 10
189.2755096862133
 20
143.2263802206259
 30
0.0
 10
188.8562746534037
 20
143.2715670961212
 30
0.0
 10
188.6677804025022
 20
143.2940480846717
 30
0.0
 10
188.3343282245149
 20
143.3362101054839
 30
0.0
 10
188.193432030855
 20
143.355368623898
 30
0.0
 10
187.9658627575705
 20
143.3872907890772
 30
0.0
 10
187.8779338181207
 20
143.4002338706688
 30
0.0
 10
187.7603267742271
 20
143.4177321648941
 30
0.0
 10
187.7307377902881
 20
143.4222619327489
 30
0.0
 10
187.7307377902881
 20
143.4222619327489
 30
0.0
  0
SPLINE
  5
119
330
1F
100
AcDbEntity
  8
0
  6
HIDDEN
 62
     7
370
     0
100
AcDbSpline
210
0.0
220
0.0
230
1.0
 70
     8
 71
     3
 72
    70
 73
    66
 74
     0
 42
0.00000001
 43
0.00000001
 40
-0.0312500000000002
 40
-0.0312500000000002
 40
0.0
 40
0.0
 40
0.0312499999999999
 40
0.0312499999999999
 40
0.0624999999999999
 40
0.0624999999999999
 40
0.0937499999999998
 40
0.0937499999999998
 40
0.1249999999999998
 40
0.1249999999999998
 40
0.1562499999999997
 40
0.1562499999999997
 40
0.1874999999999997
 40
0.1874999999999997
 40
0.2187499999999996
 40
0.2187499999999996
 40
0.2499999999999996
 40
0.2499999999999996
 40
0.2812499999999995
 40
0.2812499999999995
 40
0.3124999999999994
 40
0.3124999999999994
 40
0.3437499999999994
 40
0.3437499999999994
 40
0.3749999999999993
 40
0.3749999999999993
 40
0.4062499999999993
 40
0.4062499999999993
 40
0.4374999999999992
 40
0.4374999999999992
 40
0.4687499999999992
 40
0.4687499999999992
 40
0.4999999999999991
 40
0.4999999999999991
 40
0.5312499999999991
 40
0.5312499999999991
 40
0.5624999999999991
 40
0.5624999999999991
 40
0.5937499999999991
 40
0.5937499999999991
 40
0.6249999999999992
 40
0.6249999999999992
 40
0.6562499999999992
 40
0.6562499999999992
 40
0.6874999999999993
 40
0.6874999999999993
 40
0.7187499999999993
 40
0.7187499999999993
 40
0.7499999999999994
 40
0.7499999999999994
 40
0.7812499999999994
 40
0.7812499999999994
 40
0.8124999999999996
 40
0.8124999999999996
 40
0.8437499999999996
 40
0.8437499999999996
 40
0.8749999999999997
 40
0.8749999999999997
 40
0.9062499999999997
 40
0.9062499999999997
 40
0.9374999999999998
 40
0.9374999999999998
 40
0.9687499999999998
 40
0.9687499999999998
 40
1.0
 40
1.0
 40
1.03125
 40
1.03125
 10
187.7307377902881
 20
98.16153657674164
 30
0.0
 10
187.7307377902881
 20
98.68298728875581
 30
0.0
 10
187.7603227905961
 20
98.94154499473316
 30
0.0
 10
187.8761618235088
 20
99.4542746004534
 30
0.0
 10
187.9638532331178
 20
99.71119025935387
 30
0.0
 10
188.1923852717259
 20
100.2042322697743
 30
0.0
 10
188.3321693867623
 20
100.4399135102458
 30
0.0
 10
188.6623432223541
 20
100.8888537975604
 30
0.0
 10
188.8542324288436
 20
101.1026844401793
 30
0.0
 10
189.2733523469636
 20
101.4881666690097
 30
0.0
 10
189.5021208144363
 20
101.6623953609573
 30
0.0
 10
189.9993128947178
 20
101.971592559597
 30
0.0
 10
190.2634757734467
 20
102.103429579283
 30
0.0
 10
190.8107583679001
 20
102.3161317218764
 30
0.0
 10
191.0979352050095
 20
102.3984998188703
 30
0.0
 10
191.6854493476631
 20
102.5086743615509
 30
0.0
 10
191.9809496523311
 20
102.5360423162753
 30
0.0
 10
192.575360685783
 20
102.5363603923975
 30
0.0
 10
192.8773121569484
 20
102.5083989838537
 30
0.0
 10
193.4611826536665
 20
102.3989761244175
 30
0.0
 10
193.7450142027068
 20
102.3180869391315
 30
0.0
 10
194.2964100742984
 20
102.1043052633146
 30
0.0
 10
194.562219869061
 20
101.9713608009532
 30
0.0
 10
195.0547396003954
 20
101.6654598611693
 30
0.0
 10
195.2849373139992
 20
101.4910160927289
 30
0.0
 10
195.7090571043615
 20
101.1010966112564
 30
0.0
 10
195.8970094016721
 20
100.8912834312576
 30
0.0
 10
196.2265330089672
 20
100.4441344588938
 30
0.0
 10
196.369252807035
 20
100.2039150981457
 30
0.0
 10
196.5976320730954
 20
99.71113584484078
 30
0.0
 10
196.6838922609121
 20
99.45917957033748
 30
0.0
 10
196.8007207796838
 20
98.94482217458066
 30
0.0
 10
196.8306230369352
 20
98.68112446824438
 30
0.0
 10
196.8308518690454
 20
98.1664339548829
 30
0.0
 10
196.8021392252229
 20
97.91260443801627
 30
0.0
 10
196.6854934498605
 20
97.41191399495689
 30
0.0
 10
196.5982973203416
 20
97.16999458199358
 30
0.0
 10
196.371611842615
 20
96.71152258590547
 30
0.0
 10
196.2302120769731
 20
96.49150795994298
 30
0.0
 10
195.8984747253577
 20
96.08238336073
 30
0.0
 10
195.7105872704723
 20
95.89538868056225
 30
0.0
 10
195.2915605419961
 20
95.55444346279037
 30
0.0
 10
195.0578501485537
 20
95.39953068842792
 30
0.0
 10
194.5644628835687
 20
95.13458178709995
 30
0.0
 10
194.3034847370562
 20
95.02289397235623
 30
0.0
 10
193.7523669974645
 20
94.84060950455105
 30
0.0
 10
193.4637054141297
 20
94.77113613550863
 30
0.0
 10
192.8819608794569
 20
94.67914919609794
 30
0.0
 10
192.5853145351421
 20
94.65557240483764
 30
0.0
 10
191.9838380784133
 20
94.65517189294395
 30
0.0
 10
191.6879714230458
 20
94.67825647435963
 30
0.0
 10
191.1055954262248
 20
94.76946656619681
 30
0.0
 10
190.8160106457157
 20
94.83877574010063
 30
0.0
 10
190.265419091246
 20
95.01999947099924
 30
0.0
 10
190.0041028466808
 20
95.13127185907264
 30
0.0
 10
189.5091647483616
 20
95.39607113645617
 30
0.0
 10
189.2755096862133
 20
95.55049986502911
 30
0.0
 10
188.8562746534037
 20
95.89041323420744
 30
0.0
 10
188.6677804025022
 20
96.07721032004622
 30
0.0
 10
188.3343282245148
 20
96.48702362641447
 30
0.0
 10
188.193432030855
 20
96.70551955192325
 30
0.0
 10
187.9658627575705
 20
97.16338430139483
 30
0.0
 10
187.8779338181207
 20
97.40577174304124
 30
0.0
 10
187.7603267742271
 20
97.90617344197975
 30
0.0
 10
187.7307377902881
 20
98.16153657674164
 30
0.0
 10
187.7307377902881
 20
98.68298728875581
 30
0.0
  0
SPLINE
  5
11A
330
1F
100
AcDbEntity
  8
0
  6
HIDDEN
 62
     7
370
     0
100
AcDbSpline
210
0.0
220
0.0
230
1.0
 70
     8
 71
     3
 72
    70
 73
    66
 74
     0
 42
0.00000001
 43
0.00000001
 40
-0.03125
 40
-0.03125
 40
0.0
 40
0.0
 40
0.03125
 40
0.03125
 40
0.0625
 40
0.0625
 40
0.09375
 40
0.09375
 40
0.125
 40
0.125
 40
0.15625
 40
0.15625
 40
0.1875
 40
0.1875
 40
0.21875
 40
0.21875
 40
0.25
 40
0.25
 40
0.28125
 40
0.28125
 40
0.3125
 40
0.3125
 40
0.34375
 40
0.34375
 40
0.375
 40
0.375
 40
0.40625
 40
0.40625
 40
0.4375
 40
0.4375
 40
0.46875
 40
0.46875
 40
0.5
 40
0.5
 40
0.53125
 40
0.53125
 40
0.5625
 40
0.5625
 40
0.59375
 40
0.59375
 40
0.625
 40
0.625
 40
0.65625
 40
0.65625
 40
0.6875
 40
0.6875
 40
0.71875
 40
0.71875
 40
0.75
 40
0.75
 40
0.78125
 40
0.78125
 40
0.8125
 40
0.8125
 40
0.84375
 40
0.84375
 40
0.875
 40
0.875
 40
0.90625
 40
0.90625
 40
0.9375
 40
0.9375
 40
0.96875
 40
0.96875
 40
1.0
 40
1.0
 40
1.03125
 40
1.03125
 10
187.7307377902881
 20
98.68298728875617
 30
0.0
 10
187.730737790288
 20
98.16153657674201
 30
0.0
 10
187.760322790596
 20
97.9075063558779
 30
0.0
 10
187.8761618235087
 20
97.41201534326352
 30
0.0
 10
187.9638532331178
 20
97.16801711096389
 30
0.0
 10
188.1923852717258
 20
96.70704374834806
 30
0.0
 10
188.3321693867623
 20
96.49036834041102
 30
0.0
 10
188.6623432223541
 20
96.08321683532853
 30
0.0
 10
188.8542324288436
 20
95.89229948820017
 30
0.0
 10
189.2733523469636
 20
95.55202088999849
 30
0.0
 10
189.5021208144362
 20
95.40030755718674
 30
0.0
 10
189.9993128947178
 20
95.13337774173522
 30
0.0
 10
190.2634757734467
 20
95.02086170817749
 30
0.0
 10
190.8107583679
 20
94.84028479488175
 30
0.0
 10
191.0979352050095
 20
94.77094517161466
 30
0.0
 10
191.6854493476631
 20
94.67837738287072
 30
0.0
 10
191.9809496523311
 20
94.65550460239379
 30
0.0
 10
192.575360685783
 20
94.6552382964496
 30
0.0
 10
192.8773121569484
 20
94.67860895001706
 30
0.0
 10
193.4611826536665
 20
94.77054478682213
 30
0.0
 10
193.7450142027068
 20
94.83863039118923
 30
0.0
 10
194.2964100742984
 20
95.02011284505878
 30
0.0
 10
194.562219869061
 20
95.13358583068484
 30
0.0
 10
195.0547396003954
 20
95.39765403744767
 30
0.0
 10
195.2849373139992
 20
95.54951025126965
 30
0.0
 10
195.7090571043615
 20
95.89369648824425
 30
0.0
 10
195.8970094016721
 20
96.08104252013393
 30
0.0
 10
196.2265330089671
 20
96.48651156102906
 30
0.0
 10
196.3692528070351
 20
96.70733843923544
 30
0.0
 10
196.5976320730954
 20
97.16806983875085
 30
0.0
 10
196.6838922609121
 20
97.40732013407398
 30
0.0
 10
196.8007207796839
 20
97.90429521700973
 30
0.0
 10
196.8306230369352
 20
98.16341680151069
 30
0.0
 10
196.8308518690454
 20
98.67807260867131
 30
0.0
 10
196.8021392252228
 20
98.93629900171734
 30
0.0
 10
196.6854934498606
 20
99.45435031113308
 30
0.0
 10
196.5982973203416
 20
99.70911210187136
 30
0.0
 10
196.371611842615
 20
100.1994054868089
 30
0.0
 10
196.2302120769731
 20
100.4386585587532
 30
0.0
 10
195.8984747253577
 20
100.8897711835652
 30
0.0
 10
195.7105872704722
 20
101.0992108418783
 30
0.0
 10
195.2915605419961
 20
101.485396719237
 30
0.0
 10
195.0578501485537
 20
101.6632968643563
 30
0.0
 10
194.5644628835687
 20
101.970196240312
 30
0.0
 10
194.3034847370562
 20
102.1010421596494
 30
0.0
 10
193.7523669974645
 20
102.3157429363379
 30
0.0
 10
193.4637054141297
 20
102.3982738762957
 30
0.0
 10
192.8819608794569
 20
102.5077544170337
 30
0.0
 10
192.5853145351421
 20
102.5359613329678
 30
0.0
 10
191.9838380784133
 20
102.5364397048115
 30
0.0
 10
191.6879714230458
 20
102.5088204882665
 30
0.0
 10
191.1055954262249
 20
102.400257478471
 30
0.0
 10
190.8160106457157
 20
102.3179156361911
 30
0.0
 10
190.265419091246
 20
102.1044389007148
 30
0.0
 10
190.0041028466809
 20
101.9740562157548
 30
0.0
 10
189.5091647483617
 20
101.6672788647343
 30
0.0
 10
189.2755096862133
 20
101.4899057125917
 30
0.0
 10
188.8562746534037
 20
101.1048054679181
 30
0.0
 10
188.6677804025022
 20
100.8955273935289
 30
0.0
 10
188.3343282245149
 20
100.4435520663484
 30
0.0
 10
188.193432030855
 20
100.2058976224255
 30
0.0
 10
187.9658627575705
 20
99.71611070777467
 30
0.0
 10
187.8779338181207
 20
99.46078018453669
 30
0.0
 10
187.760326774227
 20
98.94288019137292
 30
0.0
 10
187.7307377902881
 20
98.68298728875617
 30
0.0
 10
187.730737790288
 20
98.16153657674201
 30
0.0
  0
LINE
  5
11B
330
1F
100
AcDbEntity
  8
0
  6
HIDDEN
 62
     7
370
     0
100
AcDbLine
 10
238.0807377903
 20
83.4222619327
 30
0.0
 11
238.0807377903
 21
100.8972619327
 31
0.0
  0
LINE
  5
11C
330
1F
100
AcDbEntity
  8
0
  6
HIDDEN
 62
     7
370
     0
100
AcDbLine
 10
238.0807377903
 20
100.8972619327
 30
0.0
 11
232.6807377903
 21
100.8972619327
 31
0.0
  0
SPLINE
  5
11D
330
1F
100
AcDbEntity
  8
0
  6
HIDDEN
 62
     7
370
     0
100
AcDbSpline
210
0.0
220
0.0
230
1.0
 70
     8
 71
     3
 72
    14
 73
    10
 74
     0
 42
0.00000001
 43
0.00000001
 40
0.0
 40
0.0
 40
0.0
 40
0.0
 40
0.25
 40
0.25
 40
0.5
 40
0.5
 40
0.75
 40
0.75
 40
1.0
 40
1.0
 40
1.0
 40
1.0
 10
232.6807377902881
 20
100.8972619327489
 30
0.0
 10
232.5425427724873
 20
100.8972619327489
 30
0.0
 10
232.4068795716375
 20
100.9261483386679
 30
0.0
 10
232.1602154378524
 20
101.0329029696172
 30
0.0
 10
232.0493202092254
 20
101.1110210027973
 30
0.0
 10
231.8694499843298
 20
101.2983670692631
 30
0.0
 10
231.7990800790094
 20
101.4086043035304
 30
0.0
 10
231.7049641661995
 20
101.6443342099037
 30
0.0
 10
231.6807377902881
 20
101.7699502208119
 30
0.0
 10
231.6807377902881
 20
101.8972619327489
 30
0.0
  0
LINE
  5
11E
330
1F
100
AcDbEntity
  8
0
  6
HIDDEN
 62
     7
370
     0
100
AcDbLine
 10
231.6807377903
 20
101.8972619327
 30
0.0
 11
231.6807377903
 21
124.9472619327
 31
0.0
  0
SPLINE
  5
11F
330
1F
100
AcDbEntity
  8
0
  6
HIDDEN
 62
     7
370
     0
100
AcDbSpline
210
0.0
220
0.0
230
1.0
 70
     8
 71
     3
 72
    14
 73
    10
 74
     0
 42
0.00000001
 43
0.00000001
 40
0.0
 40
0.0
 40
0.0
 40
0.0
 40
0.25
 40
0.25
 40
0.5
 40
0.5
 40
0.75
 40
0.75
 40
1.0
 40
1.0
 40
1.0
 40
1.0
 10
231.6807377902881
 20
124.9472619327489
 30
0.0
 10
231.6807377902881
 20
125.0747485795364
 30
0.0
 10
231.7044801937171
 20
125.1987862778113
 30
0.0
 10
231.7991540066573
 20
125.4362950844481
 30
0.0
 10
231.8683994693387
 20
125.5449478620514
 30
0.0
 10
232.0495316201638
 20
125.7338372874137
 30
0.0
 10
232.1592316097174
 20
125.8110865048509
 30
0.0
 10
232.4065099281981
 20
125.9183235514911
 30
0.0
 10
232.5422675721077
 20
125.9472619327489
 30
0.0
 10
232.6807377902881
 20
125.9472619327489
 30
0.0
  0
LINE
  5
120
330
1F
100
AcDbEntity
  8
0
  6
HIDDEN
 62
     7
370
     0
100
AcDbLine
 10
232.6807377903
 20
125.9472619327
 30
0.0
 11
238.0807377903
 21
125.9472619327
 31
0.0
  0
LINE
  5
121
330
1F
100
AcDbEntity
  8
0
  6
HIDDEN
 62
     7
370
     0
100
AcDbLine
 10
238.0807377903
 20
125.9472619327
 30
0.0
 11
238.0807377903
 21
143.4222619327
 31
0.0
  0
LINE
  5
122
330
1F
100
AcDbEntity
  8
0
  6
HIDDEN
 62
     7
370
     0
100
AcDbLine
 10
237.8307377903
 20
125.9472619327
 30
0.0
 11
232.6807377903
 21
125.9472619327
 31
0.0
  0
SPLINE
  5
123
330
1F
100
AcDbEntity
  8
0
  6
HIDDEN
 62
     7
370
     0
100
AcDbSpline
210
0.0
220
0.0
230
1.0
 70
     8
 71
     3
 72
    14
 73
    10
 74
     0
 42
0.00000001
 43
0.00000001
 40
0.0
 40
0.0
 40
0.0
 40
0.0
 40
0.25
 40
0.25
 40
0.5
 40
0.5
 40
0.75
 40
0.75
 40
1.0
 40
1.0
 40
1.0
 40
1.0
 10
232.6807377902881
 20
125.9472619327489
 30
0.0
 10
232.5425427724873
 20
125.9472619327489
 30
0.0
 10
232.4068795716375
 20
125.9183755268298
 30
0.0
 10
232.1602154378524
 20
125.8116208958806
 30
0.0
 10
232.0493202092254
 20
125.7335028627004
 30
0.0
 10
231.8694499843298
 20
125.5461567962347
 30
0.0
 10
231.7990800790094
 20
125.4359195619674
 30
0.0
 10
231.7049641661995
 20
125.200189655594
 30
0.0
 10
231.6807377902881
 20
125.0745736446859
 30
0.0
 10
231.6807377902881
 20
124.9472619327489
 30
0.0
  0
SPLINE
  5
124
330
1F
100
AcDbEntity
  8
0
  6
HIDDEN
 62
     7
370
     0
100
AcDbSpline
210
0.0
220
0.0
230
1.0
 70
     8
 71
     3
 72
    14
 73
    10
 74
     0
 42
0.00000001
 43
0.00000001
 40
0.0
 40
0.0
 40
0.0
 40
0.0
 40
0.25
 40
0.25
 40
0.5
 40
0.5
 40
0.75
 40
0.75
 40
1.0
 40
1.0
 40
1.0
 40
1.0
 10
231.6807377902881
 20
101.8972619327489
 30
0.0
 10
231.6807377902881
 20
101.7697752859614
 30
0.0
 10
231.7044801937171
 20
101.6457375876865
 30
0.0
 10
231.7991540066573
 20
101.4082287810496
 30
0.0
 10
231.8683994693387
 20
101.2995760034464
 30
0.0
 10
232.0495316201638
 20
101.110686578084
 30
0.0
 10
232.1592316097174
 20
101.0334373606468
 30
0.0
 10
232.4065099281981
 20
100.9262003140066
 30
0.0
 10
232.5422675721077
 20
100.8972619327489
 30
0.0
 10
232.6807377902881
 20
100.8972619327489
 30
0.0
  0
LINE
  5
125
330
1F
100
AcDbEntity
  8
0
  6
HIDDEN
 62
     7
370
     0
100
AcDbLine
 10
232.6807377903
 20
100.8972619327
 30
0.0
 11
237.8307377903
 21
100.8972619327
 31
0.0
  0
LINE
  5
126
330
1F
100
AcDbEntity
  8
0
  6
HIDDEN
 62
     7
370
     0
100
AcDbLine
 10
231.6807377903
 20
124.9472619327
 30
0.0
 11
231.6807377903
 21
101.8972619327
 31
0.0
  0
LINE
  5
127
330
1F
100
AcDbEntity
  8
0
  6
HIDDEN
 62
     7
370
     0
100
AcDbLine
 10
230.1807377903
 20
83.4222619327
 30
0.0
 11
230.1807377903
 21
143.4222619327
 31
0.0
  0
LINE
  5
128
330
1F
100
AcDbEntity
  8
0
  6
HIDDEN
 62
     7
370
     0
100
AcDbLine
 10
228.2807377903
 20
142.7972619327
 30
0.0
 11
228.2807377903
 21
84.0472619327
 31
0.0
  0
LINE
  5
129
330
1F
100
AcDbEntity
  8
0
  6
HIDDEN
 62
     7
370
     0
100
AcDbLine
 10
230.1807377903
 20
142.7972619327
 30
0.0
 11
230.1807377903
 21
84.0472619327
 31
0.0
  0
LWPOLYLINE
  5
12A
330
1F
100
AcDbEntity
  8
0
  6
HIDDEN
 62
     7
370
     0
100
AcDbPolyline
 90
       14
 70
   128
 43
0.0
 10
196.8307377903
 20
101.4222619327
 10
196.6985230596
 20
102.3652651066
 10
196.309562707
 20
103.2534643636
 10
195.6864616945
 20
104.0352407915
 10
194.8654323879
 20
104.6651603859
 10
193.8941900263
 20
105.1066145097
 10
192.8291796854
 20
105.3339474538
 10
191.7322958951
 20
105.3339474538
 10
190.6672855542
 20
105.1066145097
 10
189.6960431927
 20
104.6651603859
 10
188.8750138861
 20
104.0352407915
 10
188.2519128736
 20
103.2534643636
 10
187.862952521
 20
102.3652651066
 10
187.7307377903
 20
101.4222619327
  0
LWPOLYLINE
  5
12B
330
1F
100
AcDbEntity
  8
0
  6
HIDDEN
 62
     7
370
     0
100
AcDbPolyline
 90
       14
 70
   128
 43
0.0
 10
187.7307377903
 20
101.4222619327
 10
187.862952521
 20
100.4792587589
 10
188.2519128736
 20
99.5910595019
 10
188.8750138861
 20
98.809283074
 10
189.6960431927
 20
98.1793634796
 10
190.6672855542
 20
97.7379093558
 10
191.7322958951
 20
97.5105764117
 10
192.8291796854
 20
97.5105764117
 10
193.8941900263
 20
97.7379093558
 10
194.8654323879
 20
98.1793634796
 10
195.6864616945
 20
98.809283074
 10
196.309562707
 20
99.5910595019
 10
196.6985230596
 20
100.4792587589
 10
196.8307377903
 20
101.4222619327
  0
LWPOLYLINE
  5
12C
330
1F
100
AcDbEntity
  8
0
  6
HIDDEN
 62
     7
370
     0
100
AcDbPolyline
 90
        2
 70
   128
 43
0.0
 10
231.6807377903
 20
101.8972619327
 10
231.6807377903
 20
101.8972619327
  0
LWPOLYLINE
  5
12D
330
1F
100
AcDbEntity
  8
0
  6
HIDDEN
 62
     7
370
     0
100
AcDbPolyline
 90
        2
 70
   128
 43
0.0
 10
231.6807377903
 20
124.9472619327
 10
231.6807377903
 20
124.9472619327
  0
LINE
  5
12E
330
1F
100
AcDbEntity
  8
0
  6
HIDDEN
 62
     7
370
     0
100
AcDbLine
 10
59.3807377903
 20
88.5688681798
 30
0.0
 11
59.3807377903
 21
138.2756556857
 31
0.0
  0
SPLINE
  5
12F
330
1F
100
AcDbEntity
  8
0
  6
HIDDEN
 62
     7
370
     0
100
AcDbSpline
210
0.0
220
0.0
230
1.0
 70
     8
 71
     3
 72
    26
 73
    22
 74
     0
 42
0.00000001
 43
0.00000001
 40
0.0
 40
0.0
 40
0.0
 40
0.0
 40
0.1249999999999987
 40
0.1249999999999987
 40
0.2499999999999974
 40
0.2499999999999974
 40
0.3124999999999972
 40
0.3124999999999972
 40
0.3749999999999969
 40
0.3749999999999969
 40
0.4999999999999993
 40
0.4999999999999993
 40
0.6250000000000018
 40
0.6250000000000018
 40
0.7500000000000043
 40
0.7500000000000043
 40
0.8125000000000032
 40
0.8125000000000032
 40
0.8750000000000021
 40
0.8750000000000021
 40
1.0
 40
1.0
 40
1.0
 40
1.0
 10
178.3807377902881
 20
127.3853618218883
 30
0.0
 10
178.1447566219739
 20
127.3109485534117
 30
0.0
 10
177.9283639409271
 20
127.2096161121163
 30
0.0
 10
177.5338975339463
 20
126.9525549453709
 30
0.0
 10
177.3617988921905
 20
126.7998232436978
 30
0.0
 10
177.1492039423916
 20
126.5409371507659
 30
0.0
 10
177.0852863489521
 20
126.4485971572775
 30
0.0
 10
176.9761680872207
 20
126.2585961525642
 30
0.0
 10
176.9303900794729
 20
126.1604034290141
 30
0.0
 10
176.8192166673907
 20
125.8560794996408
 30
0.0
 10
176.7808254032041
 20
125.6391252374108
 30
0.0
 10
176.7806504844637
 20
125.2069162376173
 30
0.0
 10
176.8189837434838
 20
124.9854974113713
 30
0.0
 10
176.9667017223243
 20
124.5654724066288
 30
0.0
 10
177.0781247129513
 20
124.3607825932037
 30
0.0
 10
177.2898899846844
 20
124.0843788486452
 30
0.0
 10
177.3678677071452
 20
123.9969691492617
 30
0.0
 10
177.5387775072459
 20
123.8319029354537
 30
0.0
 10
177.6322998640538
 20
123.7539832520997
 30
0.0
 10
177.926589212258
 20
123.5429796010734
 30
0.0
 10
178.144758142107
 20
123.4288639588852
 30
0.0
 10
178.3807377902881
 20
123.3455598465434
 30
0.0
  0
LINE
  5
130
330
1F
100
AcDbEntity
  8
0
  6
HIDDEN
 62
     7
370
     0
100
AcDbLine
 10
178.3807377903
 20
123.3455598465
 30
0.0
 11
178.3807377903
 21
123.6595080948
 31
0.0
  0
SPLINE
  5
131
330
1F
100
AcDbEntity
  8
0
  6
HIDDEN
 62
     7
370
     0
100
AcDbSpline
210
0.0
220
0.0
230
1.0
 70
     8
 71
     3
 72
    10
 73
     6
 74
     0
 42
0.00000001
 43
0.00000001
 40
0.0
 40
0.0
 40
0.0
 40
0.0
 40
0.5
 40
0.5
 40
1.0
 40
1.0
 40
1.0
 40
1.0
 10
178.380737790288
 20
123.6595080947986
 30
0.0
 10
178.3807377902881
 20
123.6991015284001
 30
0.0
 10
178.4139625066131
 20
123.7268955657132
 30
0.0
 10
178.5266550172603
 20
123.7473106997298
 30
0.0
 10
178.6027054819891
 20
123.7414097505266
 30
0.0
 10
178.680737790288
 20
123.7237590527757
 30
0.0
  0
SPLINE
  5
132
330
1F
100
AcDbEntity
  8
0
  6
HIDDEN
 62
     7
370
     0
100
AcDbSpline
210
0.0
220
0.0
230
1.0
 70
     8
 71
     3
 72
    10
 73
     6
 74
     0
 42
0.00000001
 43
0.00000001
 40
0.0
 40
0.0
 40
0.0
 40
0.0
 40
0.5
 40
0.5
 40
1.0
 40
1.0
 40
1.0
 40
1.0
 10
178.6807377902881
 20
123.7237590527755
 30
0.0
 10
178.8950657173706
 20
123.6752786535286
 30
0.0
 10
179.1115813509671
 20
123.6533337478917
 30
0.0
 10
179.5488683390749
 20
123.6612678510654
 30
0.0
 10
179.7688059562871
 20
123.6918712217229
 30
0.0
 10
179.9807377902881
 20
123.7483931073041
 30
0.0
  0
SPLINE
  5
133
330
1F
100
AcDbEntity
  8
0
  6
HIDDEN
 62
     7
370
     0
100
AcDbSpline
210
0.0
220
0.0
230
1.0
 70
     8
 71
     3
 72
    10
 73
     6
 74
     0
 42
0.00000001
 43
0.00000001
 40
0.0
 40
0.0
 40
0.0
 40
0.0
 40
0.5
 40
0.5
 40
1.0
 40
1.0
 40
1.0
 40
1.0
 10
179.9807377902881
 20
123.7483931073041
 30
0.0
 10
180.058470826813
 20
123.7691243854391
 30
0.0
 10
180.1343513884063
 20
123.7782208066207
 30
0.0
 10
180.246522734539
 20
123.763170603534
 30
0.0
 10
180.2807377902881
 20
123.7370416539733
 30
0.0
 10
180.2807377902881
 20
123.6970330910536
 30
0.0
  0
LINE
  5
134
330
1F
100
AcDbEntity
  8
0
  6
HIDDEN
 62
     7
370
     0
100
AcDbLine
 10
180.2807377903
 20
123.6970330911
 30
0.0
 11
180.2807377903
 21
123.3831357649
 31
0.0
  0
SPLINE
  5
135
330
1F
100
AcDbEntity
  8
0
  6
HIDDEN
 62
     7
370
     0
100
AcDbSpline
210
0.0
220
0.0
230
1.0
 70
     8
 71
     3
 72
    28
 73
    24
 74
     0
 42
0.00000001
 43
0.00000001
 40
0.0
 40
0.0
 40
0.0
 40
0.0
 40
0.1250000000000037
 40
0.1250000000000037
 40
0.187500000000003
 40
0.187500000000003
 40
0.2500000000000023
 40
0.2500000000000023
 40
0.3125000000000017
 40
0.3125000000000017
 40
0.375000000000001
 40
0.375000000000001
 40
0.5000000000000004
 40
0.5000000000000004
 40
0.6249999999999999
 40
0.6249999999999999
 40
0.6874999999999988
 40
0.6874999999999988
 40
0.7499999999999978
 40
0.7499999999999978
 40
0.8749999999999989
 40
0.8749999999999989
 40
1.0
 40
1.0
 40
1.0
 40
1.0
 10
180.2807377902881
 20
123.3831357648508
 30
0.0
 10
180.5041752446465
 20
123.4722634915823
 30
0.0
 10
180.7080953297944
 20
123.5881429824673
 30
0.0
 10
180.9854477719796
 20
123.800170078329
 30
0.0
 10
181.0729352569503
 20
123.8774338307818
 30
0.0
 10
181.2325348503545
 20
124.0398248645488
 30
0.0
 10
181.305449202231
 20
124.1255159775611
 30
0.0
 10
181.4375075074843
 20
124.305721351268
 30
0.0
 10
181.4970401311057
 20
124.4010722598534
 30
0.0
 10
181.5990105952276
 20
124.5959865168973
 30
0.0
 10
181.641634094655
 20
124.6955047388767
 30
0.0
 10
181.7449105008999
 20
124.9999401778931
 30
0.0
 10
181.7806766890361
 20
125.2133810784696
 30
0.0
 10
181.7807987306756
 20
125.6300443782979
 30
0.0
 10
181.7453312902917
 20
125.839182563417
 30
0.0
 10
181.6420106964603
 20
126.1340291586254
 30
0.0
 10
181.5994420550611
 20
126.2292825033053
 30
0.0
 10
181.4980356722075
 20
126.4138637850371
 30
0.0
 10
181.4386039024302
 20
126.5038652191804
 30
0.0
 10
181.239916955777
 20
126.758025861444
 30
0.0
 10
181.0805168098374
 20
126.9079067930564
 30
0.0
 10
180.7087570423987
 20
127.1675128168654
 30
0.0
 10
180.5041735931074
 20
127.2719882084631
 30
0.0
 10
180.2807377902881
 20
127.3517627314477
 30
0.0
  0
LINE
  5
136
330
1F
100
AcDbEntity
  8
0
  6
HIDDEN
 62
     7
370
     0
100
AcDbLine
 10
180.2807377903
 20
127.3517627314
 30
0.0
 11
180.2807377903
 21
127.6656600577
 31
0.0
  0
SPLINE
  5
137
330
1F
100
AcDbEntity
  8
0
  6
HIDDEN
 62
     7
370
     0
100
AcDbSpline
210
0.0
220
0.0
230
1.0
 70
     8
 71
     3
 72
    10
 73
     6
 74
     0
 42
0.00000001
 43
0.00000001
 40
0.0
 40
0.0
 40
0.0
 40
0.0
 40
0.5
 40
0.5
 40
1.0
 40
1.0
 40
1.0
 40
1.0
 10
180.2807377902881
 20
127.6656600576524
 30
0.0
 10
180.2807377902881
 20
127.705499343381
 30
0.0
 10
180.2469613786091
 20
127.758129178257
 30
0.0
 10
180.1340189236288
 20
127.8497346754028
 30
0.0
 10
180.0583539246066
 20
127.8868049119338
 30
0.0
 10
179.9807377902881
 20
127.9053150454696
 30
0.0
  0
SPLINE
  5
138
330
1F
100
AcDbEntity
  8
0
  6
HIDDEN
 62
     7
370
     0
100
AcDbSpline
210
0.0
220
0.0
230
1.0
 70
     8
 71
     3
 72
    10
 73
     6
 74
     0
 42
0.00000001
 43
0.00000001
 40
0.0
 40
0.0
 40
0.0
 40
0.0
 40
0.5
 40
0.5
 40
1.0
 40
1.0
 40
1.0
 40
1.0
 10
179.9807377902881
 20
127.9053150454694
 30
0.0
 10
179.7688090874569
 20
127.9558564518913
 30
0.0
 10
179.5534816298735
 20
127.9826407747309
 30
0.0
 10
179.1162112164296
 20
127.990361765205
 30
0.0
 10
178.8950677146569
 20
127.9706257859312
 30
0.0
 10
178.6807377902881
 20
127.9273289641723
 30
0.0
  0
SPLINE
  5
139
330
1F
100
AcDbEntity
  8
0
  6
HIDDEN
 62
     7
370
     0
100
AcDbSpline
210
0.0
220
0.0
230
1.0
 70
     8
 71
     3
 72
    10
 73
     6
 74
     0
 42
0.00000001
 43
0.00000001
 40
0.0
 40
0.0
 40
0.0
 40
0.0
 40
0.5
 40
0.5
 40
1.0
 40
1.0
 40
1.0
 40
1.0
 10
178.6807377902881
 20
127.9273289641723
 30
0.0
 10
178.6025996718067
 20
127.9115442705583
 30
0.0
 10
178.5262545923334
 20
127.8767234310656
 30
0.0
 10
178.4144572485077
 20
127.7901414084057
 30
0.0
 10
178.3807377902881
 20
127.7390766830932
 30
0.0
 10
178.3807377902881
 20
127.6993100701462
 30
0.0
  0
LINE
  5
13A
330
1F
100
AcDbEntity
  8
0
  6
HIDDEN
 62
     7
370
     0
100
AcDbLine
 10
178.3807377903
 20
127.6993100701
 30
0.0
 11
178.3807377903
 21
127.3853618219
 31
0.0
  0
LINE
  5
13B
330
1F
100
AcDbEntity
  8
0
  6
HIDDEN
 62
     7
370
     0
100
AcDbLine
 10
239.2807377903
 20
84.6222619327
 30
0.0
 11
239.2807377903
 21
99.6972619327
 31
0.0
  0
SPLINE
  5
13C
330
1F
100
AcDbEntity
  8
0
  6
HIDDEN
 62
     7
370
     0
100
AcDbSpline
210
0.0
220
0.0
230
1.0
 70
    24
 71
     3
 72
     8
 73
     4
 74
     0
 42
0.00000001
 43
0.00000001
 40
0.0
 40
0.0
 40
0.0
 40
0.0
 40
1.0
 40
1.0
 40
1.0
 40
1.0
 10
239.2807377902881
 20
99.69726193274883
 30
0.0
 10
238.889243080424
 20
100.0887566426129
 30
0.0
 10
238.4889753052215
 20
100.4890244178154
 30
0.0
 10
238.0807377902881
 20
100.8972619327489
 30
0.0
  0
LWPOLYLINE
  5
13D
330
1F
100
AcDbEntity
  8
0
  6
HIDDEN
 62
     7
370
     0
100
AcDbPolyline
 90
        2
 70
   128
 43
0.0
 10
232.6807377903
 20
125.9472619327
 10
232.6807377903
 20
125.9472619327
  0
LWPOLYLINE
  5
13E
330
1F
100
AcDbEntity
  8
0
  6
HIDDEN
 62
     7
370
     0
100
AcDbPolyline
 90
        2
 70
   128
 43
0.0
 10
238.0807377903
 20
100.8972619327
 10
238.0807377903
 20
100.8972619327
  0
LWPOLYLINE
  5
13F
330
1F
100
AcDbEntity
  8
0
  6
HIDDEN
 62
     7
370
     0
100
AcDbPolyline
 90
        2
 70
   128
 43
0.0
 10
232.6807377903
 20
100.8972619327
 10
232.6807377903
 20
100.8972619327
  0
LWPOLYLINE
  5
140
330
1F
100
AcDbEntity
  8
0
  6
HIDDEN
 62
     7
370
     0
100
AcDbPolyline
 90
        2
 70
   128
 43
0.0
 10
238.0807377903
 20
125.9472619327
 10
238.0807377903
 20
125.9472619327
  0
SPLINE
  5
141
330
1F
100
AcDbEntity
  8
0
  6
HIDDEN
 62
     7
370
     0
100
AcDbSpline
210
0.0
220
0.0
230
1.0
 70
    24
 71
     3
 72
     8
 73
     4
 74
     0
 42
0.00000001
 43
0.00000001
 40
0.0
 40
0.0
 40
0.0
 40
0.0
 40
1.0
 40
1.0
 40
1.0
 40
1.0
 10
238.0807377902881
 20
125.9472619327489
 30
0.0
 10
238.4889753052215
 20
126.3554994476824
 30
0.0
 10
238.889243080424
 20
126.7557672228848
 30
0.0
 10
239.2807377902881
 20
127.1472619327489
 30
0.0
  0
LINE
  5
142
330
1F
100
AcDbEntity
  8
0
  6
HIDDEN
 62
     7
370
     0
100
AcDbLine
 10
239.2807377903
 20
127.1472619327
 30
0.0
 11
239.2807377903
 21
142.2222619327
 31
0.0
  0
LINE
  5
143
330
1F
100
AcDbEntity
  8
0
  6
HIDDEN
 62
     7
370
     0
100
AcDbLine
 10
118.5648154087
 20
139.9222619327
 30
0.0
 11
118.5648154087
 21
86.9222619327
 31
0.0
  0
LWPOLYLINE
  5
144
330
1F
100
AcDbEntity
  8
0
  6
HIDDEN
 62
     7
370
     0
100
AcDbPolyline
 90
        2
 70
   128
 43
0.0
 10
118.5648154087
 20
86.9222619327
 10
118.5648154087
 20
86.9222619327
  0
LINE
  5
145
330
1F
100
AcDbEntity
  8
0
  6
HIDDEN
 62
     7
370
     0
100
AcDbLine
 10
121.7307377903
 20
138.2972619061
 30
0.0
 11
121.7307377903
 21
88.5472619327
 31
0.0
  0
LWPOLYLINE
  5
146
330
1F
100
AcDbEntity
  8
0
  6
HIDDEN
 62
     7
370
     0
100
AcDbPolyline
 90
        2
 70
   128
 43
0.0
 10
121.7307377903
 20
88.5472619327
 10
121.7307377903
 20
88.5472619327
  0
LINE
  5
147
330
1F
100
AcDbEntity
  8
0
  6
HIDDEN
 62
     7
370
     0
100
AcDbLine
 10
61.0307377903
 20
88.885556775
 30
0.0
 11
72.5807377903
 21
88.885556775
 31
0.0
  0
LINE
  5
148
330
1F
100
AcDbEntity
  8
0
  6
HIDDEN
 62
     7
370
     0
100
AcDbLine
 10
61.0307377903
 20
137.9589670905
 30
0.0
 11
61.0307377903
 21
88.885556775
 31
0.0
  0
LINE
  5
149
330
1F
100
AcDbEntity
  8
0
  6
HIDDEN
 62
     7
370
     0
100
AcDbLine
 10
67.5807377903
 20
137.9589670905
 30
0.0
 11
61.0307377903
 21
137.9589670905
 31
0.0
  0
SPLINE
  5
14A
330
1F
100
AcDbEntity
  8
0
  6
HIDDEN
 62
     7
370
     0
100
AcDbSpline
210
0.0
220
0.0
230
1.0
 70
     8
 71
     3
 72
    20
 73
    16
 74
     0
 42
0.00000001
 43
0.00000001
 40
0.0
 40
0.0
 40
0.0
 40
0.0
 40
0.2499999999999978
 40
0.2499999999999978
 40
0.3749999999999982
 40
0.3749999999999982
 40
0.4999999999999986
 40
0.4999999999999986
 40
0.6249999999999989
 40
0.6249999999999989
 40
0.7499999999999992
 40
0.7499999999999992
 40
0.8749999999999997
 40
0.8749999999999997
 40
1.0
 40
1.0
 40
1.0
 40
1.0
 10
69.48073779028807
 20
138.6507755631632
 30
0.0
 10
69.48073779028807
 20
138.5715725766309
 30
0.0
 10
69.43375529507534
 20
138.4904763582279
 30
0.0
 10
69.29593370429777
 20
138.370279666477
 30
0.0
 10
69.23965142038777
 20
138.3313529624749
 30
0.0
 10
69.10656656892056
 20
138.2561642300506
 30
0.0
 10
69.02872662668749
 20
138.2195220247086
 30
0.0
 10
68.85609427057315
 20
138.1519314918768
 30
0.0
 10
68.76170127348207
 20
138.1209733101011
 30
0.0
 10
68.55626396716694
 20
138.0654488887315
 30
0.0
 10
68.44391772717975
 20
138.0407403748982
 30
0.0
 10
68.21167686328012
 20
138.00094414779
 30
0.0
 10
68.0909662208574
 20
137.9855243103929
 30
0.0
 10
67.83989536158836
 20
137.9644443355534
 30
0.0
 10
67.71037336517257
 20
137.9589670905324
 30
0.0
 10
67.58073779028808
 20
137.9589670905324
 30
0.0
  0
LINE
  5
14B
330
1F
100
AcDbEntity
  8
0
  6
HIDDEN
 62
     7
370
     0
100
AcDbLine
 10
69.4807377903
 20
138.6507755632
 30
0.0
 11
69.4807377903
 21
139.9222619327
 31
0.0
  0
SPLINE
  5
14C
330
1F
100
AcDbEntity
  8
0
  6
HIDDEN
 62
     7
370
     0
100
AcDbSpline
210
0.0
220
0.0
230
1.0
 70
     8
 71
     3
 72
    20
 73
    16
 74
     0
 42
0.00000001
 43
0.00000001
 40
0.0
 40
0.0
 40
0.0
 40
0.0
 40
0.2499999999999978
 40
0.2499999999999978
 40
0.3749999999999982
 40
0.3749999999999982
 40
0.4999999999999986
 40
0.4999999999999986
 40
0.6249999999999989
 40
0.6249999999999989
 40
0.7499999999999992
 40
0.7499999999999992
 40
0.8749999999999997
 40
0.8749999999999997
 40
1.0
 40
1.0
 40
1.0
 40
1.0
 10
69.48073779028807
 20
138.6507755631632
 30
0.0
 10
69.48073779028807
 20
138.5715725766309
 30
0.0
 10
69.43375529507534
 20
138.4904763582279
 30
0.0
 10
69.29593370429777
 20
138.370279666477
 30
0.0
 10
69.23965142038777
 20
138.3313529624749
 30
0.0
 10
69.10656656892056
 20
138.2561642300506
 30
0.0
 10
69.02872662668749
 20
138.2195220247086
 30
0.0
 10
68.85609427057315
 20
138.1519314918768
 30
0.0
 10
68.76170127348207
 20
138.1209733101011
 30
0.0
 10
68.55626396716694
 20
138.0654488887315
 30
0.0
 10
68.44391772717975
 20
138.0407403748982
 30
0.0
 10
68.21167686328012
 20
138.00094414779
 30
0.0
 10
68.0909662208574
 20
137.9855243103929
 30
0.0
 10
67.83989536158836
 20
137.9644443355534
 30
0.0
 10
67.71037336517257
 20
137.9589670905324
 30
0.0
 10
67.58073779028808
 20
137.9589670905324
 30
0.0
  0
LINE
  5
14D
330
1F
100
AcDbEntity
  8
0
  6
HIDDEN
 62
     7
370
     0
100
AcDbLine
 10
67.5807377903
 20
137.9589670905
 30
0.0
 11
61.0307377903
 21
137.9589670905
 31
0.0
  0
LINE
  5
14E
330
1F
100
AcDbEntity
  8
0
  6
HIDDEN
 62
     7
370
     0
100
AcDbLine
 10
61.0307377903
 20
88.885556775
 30
0.0
 11
72.5807377903
 21
88.885556775
 31
0.0
  0
SPLINE
  5
14F
330
1F
100
AcDbEntity
  8
0
  6
HIDDEN
 62
     7
370
     0
100
AcDbSpline
210
0.0
220
0.0
230
1.0
 70
     8
 71
     3
 72
    18
 73
    14
 74
     0
 42
0.00000001
 43
0.00000001
 40
0.0
 40
0.0
 40
0.0
 40
0.0
 40
0.1249999999999982
 40
0.1249999999999982
 40
0.2499999999999964
 40
0.2499999999999964
 40
0.4999999999999988
 40
0.4999999999999988
 40
0.7500000000000011
 40
0.7500000000000011
 40
0.8750000000000006
 40
0.8750000000000006
 40
1.0
 40
1.0
 40
1.0
 40
1.0
 10
72.58073779028807
 20
88.88555677496535
 30
0.0
 10
72.7102051032453
 20
88.88555677496535
 30
0.0
 10
72.83721585214192
 20
88.88020377637271
 30
0.0
 10
73.08657917333917
 20
88.85946580368392
 30
0.0
 10
73.2102028279676
 20
88.84379389942963
 30
0.0
 10
73.55923516490165
 20
88.78409917102753
 30
0.0
 10
73.76974692970845
 20
88.72633399134655
 30
0.0
 10
74.11366360740796
 20
88.59181215006906
 30
0.0
 10
74.25001400892577
 20
88.51414303656365
 30
0.0
 10
74.3870520654883
 20
88.39485190247632
 30
0.0
 10
74.42227108420121
 20
88.35393289334125
 30
0.0
 10
74.46889466113976
 20
88.27327690005124
 30
0.0
 10
74.48073779028809
 20
88.23330837985837
 30
0.0
 10
74.48073779028807
 20
88.19374830233457
 30
0.0
  0
LINE
  5
150
330
1F
100
AcDbEntity
  8
0
  6
HIDDEN
 62
     7
370
     0
100
AcDbLine
 10
74.4807377903
 20
88.1937483023
 30
0.0
 11
74.4807377903
 21
86.9222619327
 31
0.0
  0
SPLINE
  5
151
330
1F
100
AcDbEntity
  8
0
  6
HIDDEN
 62
     7
370
     0
100
AcDbSpline
210
0.0
220
0.0
230
1.0
 70
     8
 71
     3
 72
    18
 73
    14
 74
     0
 42
0.00000001
 43
0.00000001
 40
0.0
 40
0.0
 40
0.0
 40
0.0
 40
0.1249999999999982
 40
0.1249999999999982
 40
0.2499999999999964
 40
0.2499999999999964
 40
0.4999999999999988
 40
0.4999999999999988
 40
0.7500000000000011
 40
0.7500000000000011
 40
0.8750000000000006
 40
0.8750000000000006
 40
1.0
 40
1.0
 40
1.0
 40
1.0
 10
72.58073779028807
 20
88.88555677496535
 30
0.0
 10
72.7102051032453
 20
88.88555677496535
 30
0.0
 10
72.83721585214192
 20
88.88020377637271
 30
0.0
 10
73.08657917333917
 20
88.85946580368392
 30
0.0
 10
73.2102028279676
 20
88.84379389942963
 30
0.0
 10
73.55923516490165
 20
88.78409917102753
 30
0.0
 10
73.76974692970845
 20
88.72633399134655
 30
0.0
 10
74.11366360740796
 20
88.59181215006906
 30
0.0
 10
74.25001400892577
 20
88.51414303656365
 30
0.0
 10
74.3870520654883
 20
88.39485190247632
 30
0.0
 10
74.42227108420121
 20
88.35393289334125
 30
0.0
 10
74.46889466113976
 20
88.27327690005124
 30
0.0
 10
74.48073779028809
 20
88.23330837985837
 30
0.0
 10
74.48073779028807
 20
88.19374830233457
 30
0.0
  0
LINE
  5
152
330
1F
100
AcDbEntity
  8
0
  6
HIDDEN
 62
     7
370
     0
100
AcDbLine
 10
61.0307377903
 20
88.885556775
 30
0.0
 11
61.0307377903
 21
137.9589670905
 31
0.0
  0
LWPOLYLINE
  5
153
330
1F
100
AcDbEntity
  8
0
  6
HIDDEN
 62
     7
370
     0
100
AcDbPolyline
 90
        2
 70
   128
 43
0.0
 10
239.2807377903
 20
99.6972619327
 10
239.2807377903
 20
99.6972619327
  0
LWPOLYLINE
  5
154
330
1F
100
AcDbEntity
  8
0
  6
HIDDEN
 62
     7
370
     0
100
AcDbPolyline
 90
        2
 70
   128
 43
0.0
 10
239.2807377903
 20
127.1472619327
 10
239.2807377903
 20
127.1472619327
  0
LWPOLYLINE
  5
155
330
1F
100
AcDbEntity
  8
0
  6
HIDDEN
 62
     7
370
     0
100
AcDbPolyline
 90
       14
 70
   128
 43
0.0
 10
118.2807377903
 20
153.365992496
 10
119.3555899913
 20
153.4135388795
 10
120.3801832981
 20
153.5539548138
 10
121.3066088663
 20
153.7806746058
 10
122.0915480659
 20
154.0830970902
 10
122.6982980125
 20
154.4470813276
 10
123.0984877529
 20
154.8556078197
 10
123.2734048595
 20
155.2895743217
 10
123.214870403
 20
155.7286890424
 10
122.9256213894
 20
156.1524194653
 10
122.4191827811
 20
156.5409524269
 10
121.7192350846
 20
156.8761205578
 10
120.8585070762
 20
157.1422517686
 10
120.6789791673
 20
157.184153101
  0
LWPOLYLINE
  5
156
330
1F
100
AcDbEntity
  8
0
  6
HIDDEN
 62
     7
370
     0
100
AcDbPolyline
 90
       14
 70
   128
 43
0.0
 10
115.8790047614
 20
157.1833760492
 10
115.7029685044
 20
157.1422517686
 10
114.842240496
 20
156.8761205578
 10
114.1422927995
 20
156.5409524269
 10
113.6358541912
 20
156.1524194653
 10
113.3466051776
 20
155.7286890424
 10
113.288070721
 20
155.2895743217
 10
113.4629878277
 20
154.8556078197
 10
113.8631775681
 20
154.4470813276
 10
114.4699275146
 20
154.0830970902
 10
115.2548667143
 20
153.7806746058
 10
116.1812922825
 20
153.5539548138
 10
117.2058855892
 20
153.4135388795
 10
118.2807377903
 20
153.365992496
  0
SPLINE
  5
157
330
1F
100
AcDbEntity
  8
0
  6
HIDDEN
 62
     7
370
     0
100
AcDbSpline
210
0.0
220
0.0
230
1.0
 70
     8
 71
     3
 72
    10
 73
     6
 74
     0
 42
0.00000001
 43
0.00000001
 40
0.0
 40
0.0
 40
0.0
 40
0.0
 40
0.5
 40
0.5
 40
1.0
 40
1.0
 40
1.0
 40
1.0
 10
180.2807377902881
 20
88.90409264954177
 30
0.0
 10
180.280737790288
 20
88.82441407808473
 30
0.0
 10
180.2469613786091
 20
88.74555725453733
 30
0.0
 10
180.1340189236287
 20
88.6387733360174
 30
0.0
 10
180.0583539246066
 20
88.61088767850768
 30
0.0
 10
179.9807377902881
 20
88.61307764547288
 30
0.0
  0
LINE
  5
158
330
1F
100
AcDbEntity
  8
0
  6
HIDDEN
 62
     7
370
     0
100
AcDbLine
 10
180.2807377903
 20
123.6970330911
 30
0.0
 11
180.2807377903
 21
88.9040926495
 31
0.0
  0
SPLINE
  5
159
330
1F
100
AcDbEntity
  8
0
  6
HIDDEN
 62
     7
370
     0
100
AcDbSpline
210
0.0
220
0.0
230
1.0
 70
     8
 71
     3
 72
    10
 73
     6
 74
     0
 42
0.00000001
 43
0.00000001
 40
0.0
 40
0.0
 40
0.0
 40
0.0
 40
0.5
 40
0.5
 40
1.0
 40
1.0
 40
1.0
 40
1.0
 10
178.6807377902881
 20
88.61569778129895
 30
0.0
 10
178.6025996718066
 20
88.61380784318406
 30
0.0
 10
178.5262545923334
 20
88.6428352632227
 30
0.0
 10
178.4144572485077
 20
88.74964815142091
 30
0.0
 10
178.3807377902881
 20
88.82843440740598
 30
0.0
 10
178.3807377902881
 20
88.90796763329992
 30
0.0
  0
LINE
  5
15A
330
1F
100
AcDbEntity
  8
0
  6
HIDDEN
 62
     7
370
     0
100
AcDbLine
 10
178.3807377903
 20
123.6595080948
 30
0.0
 11
178.3807377903
 21
88.9079676333
 31
0.0
  0
LINE
  5
15B
330
1F
100
AcDbEntity
  8
0
  6
HIDDEN
 62
     7
370
     0
100
AcDbLine
 10
163.2807377903
 20
89.4722619327
 30
0.0
 11
163.2807377903
 21
137.3722619327
 31
0.0
  0
LWPOLYLINE
  5
15C
330
1F
100
AcDbEntity
  8
0
  6
HIDDEN
 62
     7
370
     0
100
AcDbPolyline
 90
        2
 70
   128
 43
0.0
 10
163.2807377903
 20
137.3722619327
 10
163.2807377903
 20
137.3722619327
  0
LINE
  5
15D
330
1F
100
AcDbEntity
  8
0
  6
HIDDEN
 62
     7
370
     0
100
AcDbLine
 10
165.2807377903
 20
89.4222619327
 30
0.0
 11
165.2807377903
 21
137.4222619327
 31
0.0
  0
SPLINE
  5
15E
330
1F
100
AcDbEntity
  8
0
  6
HIDDEN
 62
     7
370
     0
100
AcDbSpline
210
0.0
220
0.0
230
1.0
 70
    11
 71
     3
 72
    26
 73
    22
 74
     0
 42
0.00000001
 43
0.00000001
 40
0.0
 40
0.0
 40
0.0
 40
0.0
 40
0.1249999999999976
 40
0.1249999999999976
 40
0.2499999999999953
 40
0.2499999999999953
 40
0.3124999999999942
 40
0.3124999999999942
 40
0.374999999999993
 40
0.374999999999993
 40
0.4999999999999929
 40
0.4999999999999929
 40
0.6249999999999928
 40
0.6249999999999928
 40
0.7499999999999926
 40
0.7499999999999926
 40
0.8124999999999944
 40
0.8124999999999944
 40
0.8749999999999963
 40
0.8749999999999963
 40
1.0
 40
1.0
 40
1.0
 40
1.0
 10
178.3807377902881
 20
89.53586412981507
 30
0.0
 10
178.1447566219739
 20
89.52697274932166
 30
0.0
 10
177.928363940927
 20
89.51535545456565
 30
0.0
 10
177.5338975339463
 20
89.48980043775552
 30
0.0
 10
177.3617988921905
 20
89.47623120289154
 30
0.0
 10
177.1492039423916
 20
89.45794571363072
 30
0.0
 10
177.0852863489521
 20
89.45213351112399
 30
0.0
 10
176.9761680872207
 20
89.4418930649808
 30
0.0
 10
176.9303900794729
 20
89.43741724526036
 30
0.0
 10
176.8192166673907
 20
89.42635295802332
 30
0.0
 10
176.7808254032041
 20
89.42227105909372
 30
0.0
 10
176.7806504844637
 20
89.4222528383927
 30
0.0
 10
176.8189837434838
 20
89.42632827950948
 30
0.0
 10
176.9667017223243
 20
89.44103256835749
 30
0.0
 10
177.0781247129512
 20
89.45182762250867
 30
0.0
 10
177.2898899846844
 20
89.47004848287438
 30
0.0
 10
177.3678677071452
 20
89.47645202855833
 30
0.0
 10
177.5387775072459
 20
89.4894984976513
 30
0.0
 10
177.6322998640538
 20
89.49617230012943
 30
0.0
 10
177.926589212258
 20
89.51524646830103
 30
0.0
 10
178.144758142107
 20
89.52697280659777
 30
0.0
 10
178.3807377902881
 20
89.53586412981507
 30
0.0
  0
LINE
  5
15F
330
1F
100
AcDbEntity
  8
0
  6
HIDDEN
 62
     7
370
     0
100
AcDbLine
 10
178.3807377903
 20
127.3853618219
 30
0.0
 11
178.3807377903
 21
137.3922769321
 31
0.0
  0
SPLINE
  5
160
330
1F
100
AcDbEntity
  8
0
  6
HIDDEN
 62
     7
370
     0
100
AcDbSpline
210
0.0
220
0.0
230
1.0
 70
     8
 71
     3
 72
    26
 73
    22
 74
     0
 42
0.00000001
 43
0.00000001
 40
0.0
 40
0.0
 40
0.0
 40
0.0
 40
0.1249999999999983
 40
0.1249999999999983
 40
0.2499999999999967
 40
0.2499999999999967
 40
0.3124999999999952
 40
0.3124999999999952
 40
0.3749999999999937
 40
0.3749999999999937
 40
0.4999999999999936
 40
0.4999999999999936
 40
0.6249999999999934
 40
0.6249999999999934
 40
0.7499999999999933
 40
0.7499999999999933
 40
0.8124999999999948
 40
0.8124999999999948
 40
0.8749999999999963
 40
0.8749999999999963
 40
1.0
 40
1.0
 40
1.0
 40
1.0
 10
178.3807377902881
 20
123.3455598465431
 30
0.0
 10
178.1447566219739
 20
123.4288644955132
 30
0.0
 10
177.928363940927
 20
123.5418142315645
 30
0.0
 10
177.5338975339463
 20
123.82443041512
 30
0.0
 10
177.3617988921905
 20
123.9907313516572
 30
0.0
 10
177.1492039423916
 20
124.2679029338498
 30
0.0
 10
177.0852863489521
 20
124.366055129845
 30
0.0
 10
176.9761680872207
 20
124.5662965807014
 30
0.0
 10
176.9303900794728
 20
124.668965123972
 30
0.0
 10
176.8192166673907
 20
124.9843533405824
 30
0.0
 10
176.7808254032041
 20
125.2053895017419
 30
0.0
 10
176.7806504844637
 20
125.6376167222365
 30
0.0
 10
176.8189837434838
 20
125.8549601073657
 30
0.0
 10
176.9667017223243
 20
126.2602808232602
 30
0.0
 10
177.0781247129512
 20
126.4541755825341
 30
0.0
 10
177.2898899846844
 20
126.7123584667269
 30
0.0
 10
177.3678677071452
 20
126.7933646204264
 30
0.0
 10
177.5387775072459
 20
126.9453843651415
 30
0.0
 10
177.6322998640538
 20
127.0166302460174
 30
0.0
 10
177.926589212258
 20
127.2085597288721
 30
0.0
 10
178.144758142107
 20
127.3109490327635
 30
0.0
 10
178.3807377902881
 20
127.385361821888
 30
0.0
  0
LINE
  5
161
330
1F
100
AcDbEntity
  8
0
  6
HIDDEN
 62
     7
370
     0
100
AcDbLine
 10
178.3807377903
 20
89.5358641298
 30
0.0
 11
178.3807377903
 21
123.3455598465
 31
0.0
  0
LINE
  5
162
330
1F
100
AcDbEntity
  8
0
  6
HIDDEN
 62
     7
370
     0
100
AcDbLine
 10
178.3807377903
 20
123.3455598465
 30
0.0
 11
178.3807377903
 21
89.5358641298
 31
0.0
  0
SPLINE
  5
163
330
1F
100
AcDbEntity
  8
0
  6
HIDDEN
 62
     7
370
     0
100
AcDbSpline
210
0.0
220
0.0
230
1.0
 70
    11
 71
     3
 72
    28
 73
    24
 74
     0
 42
0.00000001
 43
0.00000001
 40
0.0
 40
0.0
 40
0.0
 40
0.0
 40
0.1250000000000057
 40
0.1250000000000057
 40
0.1875000000000058
 40
0.1875000000000058
 40
0.250000000000006
 40
0.250000000000006
 40
0.3125000000000062
 40
0.3125000000000062
 40
0.3750000000000063
 40
0.3750000000000063
 40
0.5000000000000067
 40
0.5000000000000067
 40
0.625000000000007
 40
0.625000000000007
 40
0.6875000000000072
 40
0.6875000000000072
 40
0.7500000000000073
 40
0.7500000000000073
 40
0.8750000000000038
 40
0.8750000000000038
 40
1.0
 40
1.0
 40
1.0
 40
1.0
 10
180.2807377902881
 20
89.53188730194829
 30
0.0
 10
180.5041752446465
 20
89.52253468785949
 30
0.0
 10
180.7080953297944
 20
89.51089818652216
 30
0.0
 10
180.9854477719796
 20
89.49220702712081
 30
0.0
 10
181.0729352569503
 20
89.48577007031501
 30
0.0
 10
181.2325348503545
 20
89.47329154392973
 30
0.0
 10
181.305449202231
 20
89.46719713118111
 30
0.0
 10
181.4375075074843
 20
89.45567417064404
 30
0.0
 10
181.4970401311057
 20
89.4502069558316
 30
0.0
 10
181.5990105952276
 20
89.44056448347409
 30
0.0
 10
181.641634094655
 20
89.43637737406395
 30
0.0
 10
181.7449105008999
 20
89.4260652766522
 30
0.0
 10
181.7806766890361
 20
89.42226829746241
 30
0.0
 10
181.7807987306756
 20
89.42225558479203
 30
0.0
 10
181.7453312902917
 20
89.42602214546112
 30
0.0
 10
181.6420106964603
 20
89.436340323613
 30
0.0
 10
181.5994420550611
 20
89.44052217817601
 30
0.0
 10
181.4980356722075
 20
89.45011430084597
 30
0.0
 10
181.4386039024302
 20
89.45557602701392
 30
0.0
 10
181.239916955777
 20
89.47292015500105
 30
0.0
 10
181.0805168098374
 20
89.48578745499499
 30
0.0
 10
180.7087570423987
 20
89.5108662208848
 30
0.0
 10
180.5041735931074
 20
89.52253475698939
 30
0.0
 10
180.2807377902881
 20
89.53188730194829
 30
0.0
  0
LINE
  5
164
330
1F
100
AcDbEntity
  8
0
  6
HIDDEN
 62
     7
370
     0
100
AcDbLine
 10
180.2807377903
 20
89.5318873019
 30
0.0
 11
180.2807377903
 21
123.3831357649
 31
0.0
  0
SPLINE
  5
165
330
1F
100
AcDbEntity
  8
0
  6
HIDDEN
 62
     7
370
     0
100
AcDbSpline
210
0.0
220
0.0
230
1.0
 70
     8
 71
     3
 72
    28
 73
    24
 74
     0
 42
0.00000001
 43
0.00000001
 40
0.0
 40
0.0
 40
0.0
 40
0.0
 40
0.1250000000000029
 40
0.1250000000000029
 40
0.187500000000002
 40
0.187500000000002
 40
0.2500000000000011
 40
0.2500000000000011
 40
0.3125000000000001
 40
0.3125000000000001
 40
0.3749999999999992
 40
0.3749999999999992
 40
0.4999999999999973
 40
0.4999999999999973
 40
0.6249999999999954
 40
0.6249999999999954
 40
0.687499999999995
 40
0.687499999999995
 40
0.7499999999999944
 40
0.7499999999999944
 40
0.8749999999999972
 40
0.8749999999999972
 40
1.0
 40
1.0
 40
1.0
 40
1.0
 10
180.2807377902881
 20
127.3517627314474
 30
0.0
 10
180.5041752446465
 20
127.2719876188047
 30
0.0
 10
180.7080953297944
 20
127.1677446292571
 30
0.0
 10
180.9854477719796
 20
126.9744086927967
 30
0.0
 10
181.0729352569503
 20
126.9035818971496
 30
0.0
 10
181.2325348503545
 20
126.7536693897679
 30
0.0
 10
181.305449202231
 20
126.6740726895043
 30
0.0
 10
181.4375075074843
 20
126.5053902763345
 30
0.0
 10
181.4970401311057
 20
126.4155065825615
 30
0.0
 10
181.5990105952276
 20
126.2302347978751
 30
0.0
 10
181.641634094655
 20
126.1349036853058
 30
0.0
 10
181.7449105008999
 20
125.8407803437012
 30
0.0
 10
181.7806766890361
 20
125.6311364223144
 30
0.0
 10
181.7807987306756
 20
125.2144858351565
 30
0.0
 10
181.7453312902917
 20
125.0015810893684
 30
0.0
 10
181.6420106964603
 20
124.6964163160081
 30
0.0
 10
181.5994420550611
 20
124.5969811167651
 30
0.0
 10
181.4980356722075
 20
124.4028077123634
 30
0.0
 10
181.4386039024302
 20
124.3073445520521
 30
0.0
 10
181.239916955777
 20
124.0358397818014
 30
0.0
 10
181.0805168098374
 20
123.873091550195
 30
0.0
 10
180.7087570423987
 20
123.5884067604962
 30
0.0
 10
180.5041735931074
 20
123.4722628327939
 30
0.0
 10
180.2807377902881
 20
123.3831357648505
 30
0.0
  0
LINE
  5
166
330
1F
100
AcDbEntity
  8
0
  6
HIDDEN
 62
     7
370
     0
100
AcDbLine
 10
180.2807377903
 20
127.3517627314
 30
0.0
 11
180.2807377903
 21
137.3921682504
 31
0.0
  0
SPLINE
  5
167
330
1F
100
AcDbEntity
  8
0
  6
HIDDEN
 62
     7
370
     0
100
AcDbSpline
210
0.0
220
0.0
230
1.0
 70
     8
 71
     3
 72
    16
 73
    12
 74
     0
 42
0.00000001
 43
0.00000001
 40
0.0
 40
0.0
 40
0.0
 40
0.0
 40
0.1249999999999988
 40
0.1249999999999988
 40
0.2499999999999977
 40
0.2499999999999977
 40
0.4999999999999984
 40
0.4999999999999984
 40
0.7499999999999992
 40
0.7499999999999992
 40
1.0
 40
1.0
 40
1.0
 40
1.0
 10
196.8307377902881
 20
137.4222619327489
 30
0.0
 10
196.8307377902881
 20
137.4222619327489
 30
0.0
 10
196.8218450582807
 20
137.4209770785236
 30
0.0
 10
196.786937148662
 20
137.4159732665213
 30
0.0
 10
196.7610105342882
 20
137.4122673272751
 30
0.0
 10
196.6586862105276
 20
137.3978320770739
 30
0.0
 10
196.5560740525497
 20
137.3835346839882
 30
0.0
 10
196.2961629601516
 20
137.3491797311502
 30
0.0
 10
196.1393685725354
 20
137.3291813752914
 30
0.0
 10
195.775062447641
 20
137.2861710445078
 30
0.0
 10
195.5731439975398
 20
137.2638396073807
 30
0.0
 10
195.3536191904594
 20
137.2420037470406
 30
0.0
  0
SPLINE
  5
168
330
1F
100
AcDbEntity
  8
0
  6
HIDDEN
 62
     7
370
     0
100
AcDbSpline
210
0.0
220
0.0
230
1.0
 70
     8
 71
     3
 72
    22
 73
    18
 74
     0
 42
0.00000001
 43
0.00000001
 40
0.0
 40
0.0
 40
0.0
 40
0.0
 40
0.125
 40
0.125
 40
0.25
 40
0.25
 40
0.375
 40
0.375
 40
0.5
 40
0.5
 40
0.625
 40
0.625
 40
0.75
 40
0.75
 40
0.875
 40
0.875
 40
1.0
 40
1.0
 40
1.0
 40
1.0
 10
195.3536191904594
 20
137.2420037470406
 30
0.0
 10
195.1544985067463
 20
137.2163160527683
 30
0.0
 10
194.9378001022552
 20
137.1908007449516
 30
0.0
 10
194.4704171515389
 20
137.1430998783738
 30
0.0
 10
194.2165344663609
 20
137.1206997765033
 30
0.0
 10
193.6904248452444
 20
137.0835354626354
 30
0.0
 10
193.4186356220256
 20
137.0686925222176
 30
0.0
 10
192.8574389241481
 20
137.0483376192628
 30
0.0
 10
192.5676421503756
 20
137.0429802551153
 30
0.0
 10
191.996747948019
 20
137.0429450342862
 30
0.0
 10
191.7122701788423
 20
137.048104951033
 30
0.0
 10
191.1455201370467
 20
137.0685306028705
 30
0.0
 10
190.8730580203724
 20
137.0834267560646
 30
0.0
 10
190.3489089987152
 20
137.1203867729432
 30
0.0
 10
190.0948647588473
 20
137.1427333186893
 30
0.0
 10
189.6243175753575
 20
137.1907135066299
 30
0.0
 10
189.4069818636282
 20
137.2163154348572
 30
0.0
 10
189.2078563901167
 20
137.2420037470406
 30
0.0
  0
SPLINE
  5
169
330
1F
100
AcDbEntity
  8
0
  6
HIDDEN
 62
     7
370
     0
100
AcDbSpline
210
0.0
220
0.0
230
1.0
 70
     8
 71
     3
 72
    18
 73
    14
 74
     0
 42
0.00000001
 43
0.00000001
 40
0.0
 40
0.0
 40
0.0
 40
0.0
 40
0.2500000000000028
 40
0.2500000000000028
 40
0.5000000000000056
 40
0.5000000000000056
 40
0.6250000000000041
 40
0.6250000000000041
 40
0.7500000000000028
 40
0.7500000000000028
 40
0.8750000000000013
 40
0.8750000000000013
 40
1.0
 40
1.0
 40
1.0
 40
1.0
 10
189.2078563901168
 20
137.2420037470406
 30
0.0
 10
188.9877376824232
 20
137.2638986819382
 30
0.0
 10
188.782330957783
 20
137.2866453125158
 30
0.0
 10
188.4233661248296
 20
137.3290404608819
 30
0.0
 10
188.2668471922224
 20
137.3489797309486
 30
0.0
 10
188.0707022954092
 20
137.3749018448474
 30
0.0
 10
188.0118257062592
 20
137.3828749798104
 30
0.0
 10
187.9112504352094
 20
137.3966875183047
 30
0.0
 10
187.8690146815748
 20
137.4025971199165
 30
0.0
 10
187.8007865311369
 20
137.4122216480072
 30
0.0
 10
187.7747921642427
 20
137.4159369880196
 30
0.0
 10
187.7397352386525
 20
137.4209619767772
 30
0.0
 10
187.7307377902881
 20
137.4222619327489
 30
0.0
 10
187.7307377902881
 20
137.4222619327489
 30
0.0
  0
SPLINE
  5
16A
330
1F
100
AcDbEntity
  8
0
  6
HIDDEN
 62
     7
370
     0
100
AcDbSpline
210
0.0
220
0.0
230
1.0
 70
     8
 71
     3
 72
    16
 73
    12
 74
     0
 42
0.00000001
 43
0.00000001
 40
0.0
 40
0.0
 40
0.0
 40
0.0
 40
0.2500000000000003
 40
0.2500000000000003
 40
0.3750000000000003
 40
0.3750000000000003
 40
0.5000000000000003
 40
0.5000000000000003
 40
0.7500000000000002
 40
0.7500000000000002
 40
1.0
 40
1.0
 40
1.0
 40
1.0
 10
187.7307377902881
 20
137.4222619327489
 30
0.0
 10
187.7307377902881
 20
137.4222619327489
 30
0.0
 10
187.7654204562035
 20
137.4172125387274
 30
0.0
 10
187.868147946077
 20
137.4027183994291
 30
0.0
 10
187.9111441921123
 20
137.3967023113188
 30
0.0
 10
188.0116600409907
 20
137.3828975299686
 30
0.0
 10
188.0693565869169
 20
137.3750834820845
 30
0.0
 10
188.2637319766143
 20
137.3493840167069
 30
0.0
 10
188.4235837872823
 20
137.3290077208005
 30
0.0
 10
188.7846832279395
 20
137.2863745837556
 30
0.0
 10
188.9862894159695
 20
137.2640427392065
 30
0.0
 10
189.2078563901167
 20
137.2420037470406
 30
0.0
  0
SPLINE
  5
16B
330
1F
100
AcDbEntity
  8
0
  6
HIDDEN
 62
     7
370
     0
100
AcDbSpline
210
0.0
220
0.0
230
1.0
 70
     8
 71
     3
 72
    22
 73
    18
 74
     0
 42
0.00000001
 43
0.00000001
 40
0.0
 40
0.0
 40
0.0
 40
0.0
 40
0.125
 40
0.125
 40
0.25
 40
0.25
 40
0.375
 40
0.375
 40
0.5
 40
0.5
 40
0.625
 40
0.625
 40
0.75
 40
0.75
 40
0.875
 40
0.875
 40
1.0
 40
1.0
 40
1.0
 40
1.0
 10
189.2078563901167
 20
137.2420037470406
 30
0.0
 10
189.4069770738298
 20
137.2163160527683
 30
0.0
 10
189.623675478321
 20
137.1908007449516
 30
0.0
 10
190.0910584290372
 20
137.1430998783738
 30
0.0
 10
190.3449411142153
 20
137.1206997765033
 30
0.0
 10
190.8710507353318
 20
137.0835354626354
 30
0.0
 10
191.1428399585506
 20
137.0686925222176
 30
0.0
 10
191.7040366564281
 20
137.0483376192628
 30
0.0
 10
191.9938334302005
 20
137.0429802551153
 30
0.0
 10
192.5647276325572
 20
137.0429450342862
 30
0.0
 10
192.8492054017338
 20
137.048104951033
 30
0.0
 10
193.4159554435295
 20
137.0685306028705
 30
0.0
 10
193.6884175602038
 20
137.0834267560646
 30
0.0
 10
194.212566581861
 20
137.1203867729432
 30
0.0
 10
194.4666108217288
 20
137.1427333186893
 30
0.0
 10
194.9371580052187
 20
137.1907135066299
 30
0.0
 10
195.154493716948
 20
137.2163154348572
 30
0.0
 10
195.3536191904594
 20
137.2420037470406
 30
0.0
  0
SPLINE
  5
16C
330
1F
100
AcDbEntity
  8
0
  6
HIDDEN
 62
     7
370
     0
100
AcDbSpline
210
0.0
220
0.0
230
1.0
 70
     8
 71
     3
 72
    16
 73
    12
 74
     0
 42
0.00000001
 43
0.00000001
 40
0.0
 40
0.0
 40
0.0
 40
0.0
 40
0.2499999999999992
 40
0.2499999999999992
 40
0.4999999999999984
 40
0.4999999999999984
 40
0.6249999999999981
 40
0.6249999999999981
 40
0.7499999999999979
 40
0.7499999999999979
 40
1.0
 40
1.0
 40
1.0
 40
1.0
 10
195.3536191904594
 20
137.2420037470406
 30
0.0
 10
195.572337759328
 20
137.2637594118655
 30
0.0
 10
195.7754884248774
 20
137.2862176590813
 30
0.0
 10
196.1402701438263
 20
137.3292915057765
 30
0.0
 10
196.2966230216565
 20
137.3492411618369
 30
0.0
 10
196.4906250170287
 20
137.3748833450996
 30
0.0
 10
196.5484861850304
 20
137.3827165004513
 30
0.0
 10
196.6496148890695
 20
137.3966023954903
 30
0.0
 10
196.6929010135033
 20
137.4026585510965
 30
0.0
 10
196.7958862816654
 20
137.4171880314108
 30
0.0
 10
196.8307377902881
 20
137.4222619327489
 30
0.0
 10
196.8307377902881
 20
137.4222619327489
 30
0.0
  0
SPLINE
  5
16D
330
1F
100
AcDbEntity
  8
0
  6
HIDDEN
 62
     7
370
     0
100
AcDbSpline
210
0.0
220
0.0
230
1.0
 70
     8
 71
     3
 72
    16
 73
    12
 74
     0
 42
0.00000001
 43
0.00000001
 40
0.0
 40
0.0
 40
0.0
 40
0.0
 40
0.125
 40
0.125
 40
0.25
 40
0.25
 40
0.5
 40
0.5
 40
0.75
 40
0.75
 40
1.0
 40
1.0
 40
1.0
 40
1.0
 10
196.830737790288
 20
101.4222619327488
 30
0.0
 10
196.830737790288
 20
101.5442296062227
 30
0.0
 10
196.822159484181
 20
101.6669176142947
 30
0.0
 10
196.7874774844083
 20
101.9137453605407
 30
0.0
 10
196.7611906687365
 20
102.0379908112189
 30
0.0
 10
196.6584696200409
 20
102.4024308212824
 30
0.0
 10
196.5581093397616
 20
102.6379851919764
 30
0.0
 10
196.2963886214302
 20
103.0941545499097
 30
0.0
 10
196.1388191284738
 20
103.3079118693108
 30
0.0
 10
195.778214478227
 20
103.7055395034554
 30
0.0
 10
195.5730851406656
 20
103.8907170895217
 30
0.0
 10
195.3536191904597
 20
104.0550126894293
 30
0.0
  0
SPLINE
  5
16E
330
1F
100
AcDbEntity
  8
0
  6
HIDDEN
 62
     7
370
     0
100
AcDbSpline
210
0.0
220
0.0
230
1.0
 70
     8
 71
     3
 72
    22
 73
    18
 74
     0
 42
0.00000001
 43
0.00000001
 40
0.0
 40
0.0
 40
0.0
 40
0.0
 40
0.125
 40
0.125
 40
0.25
 40
0.25
 40
0.375
 40
0.375
 40
0.5
 40
0.5
 40
0.625
 40
0.625
 40
0.75
 40
0.75
 40
0.875
 40
0.875
 40
1.0
 40
1.0
 40
1.0
 40
1.0
 10
195.3536191904597
 20
104.0550126894293
 30
0.0
 10
195.1544985067466
 20
104.2483417776681
 30
0.0
 10
194.9378001022554
 20
104.4211473249451
 30
0.0
 10
194.4704171515391
 20
104.725945504006
 30
0.0
 10
194.2165344663611
 20
104.8590443940203
 30
0.0
 10
193.6904248452446
 20
105.0726987771526
 30
0.0
 10
193.4186356220257
 20
105.1539478591156
 30
0.0
 10
192.8574389241481
 20
105.2642197324502
 30
0.0
 10
192.5676421503757
 20
105.2924257587217
 30
0.0
 10
191.9967479480189
 20
105.2926128942635
 30
0.0
 10
191.7122701788422
 20
105.2654661393398
 30
0.0
 10
191.1455201370465
 20
105.1548388455283
 30
0.0
 10
190.8730580203722
 20
105.0732909592632
 30
0.0
 10
190.348908998715
 20
104.860876214735
 30
0.0
 10
190.0948647588471
 20
104.7282236809626
 30
0.0
 10
189.6243175753573
 20
104.4217682155446
 30
0.0
 10
189.4069818636279
 20
104.2483464281511
 30
0.0
 10
189.2078563901164
 20
104.0550126894293
 30
0.0
  0
SPLINE
  5
16F
330
1F
100
AcDbEntity
  8
0
  6
HIDDEN
 62
     7
370
     0
100
AcDbSpline
210
0.0
220
0.0
230
1.0
 70
     8
 71
     3
 72
    16
 73
    12
 74
     0
 42
0.00000001
 43
0.00000001
 40
0.0
 40
0.0
 40
0.0
 40
0.0
 40
0.2500000000000008
 40
0.2500000000000008
 40
0.5000000000000016
 40
0.5000000000000016
 40
0.7500000000000023
 40
0.7500000000000023
 40
0.8750000000000011
 40
0.8750000000000011
 40
1.0
 40
1.0
 40
1.0
 40
1.0
 10
189.2078563901165
 20
104.0550126894293
 30
0.0
 10
188.9884674369872
 20
103.8907747307225
 30
0.0
 10
188.7833297481135
 20
103.7056889582162
 30
0.0
 10
188.4215999117051
 20
103.3066728918905
 30
0.0
 10
188.2646281432037
 20
103.093436122749
 30
0.0
 10
188.0033037883854
 20
102.6377949057412
 30
0.0
 10
187.9025090894334
 20
102.4006520062805
 30
0.0
 10
187.8005537070921
 20
102.0389524497183
 30
0.0
 10
187.7746075168372
 20
101.9169856595742
 30
0.0
 10
187.7396219029152
 20
101.6701624344971
 30
0.0
 10
187.7307377902881
 20
101.5450550090141
 30
0.0
 10
187.7307377902881
 20
101.4222619327488
 30
0.0
  0
SPLINE
  5
170
330
1F
100
AcDbEntity
  8
0
  6
HIDDEN
 62
     7
370
     0
100
AcDbSpline
210
0.0
220
0.0
230
1.0
 70
     8
 71
     3
 72
    14
 73
    10
 74
     0
 42
0.00000001
 43
0.00000001
 40
0.0
 40
0.0
 40
0.0
 40
0.0
 40
0.25
 40
0.25
 40
0.5
 40
0.5
 40
0.75
 40
0.75
 40
1.0
 40
1.0
 40
1.0
 40
1.0
 10
187.7307377902881
 20
101.4222619327488
 30
0.0
 10
187.7307377902881
 20
101.1767808967041
 30
0.0
 10
187.765206961572
 20
100.9367488745869
 30
0.0
 10
187.9026031849376
 20
100.4671887952738
 30
0.0
 10
188.0042117420674
 20
100.2437493217769
 30
0.0
 10
188.2634662189523
 20
99.82591829811564
 30
0.0
 10
188.4233633586229
 20
99.628953436217
 30
0.0
 10
188.7839626675377
 20
99.27412070991731
 30
0.0
 10
188.9864864265953
 20
99.11347093969536
 30
0.0
 10
189.2078563901164
 20
98.96976936177627
 30
0.0
  0
SPLINE
  5
171
330
1F
100
AcDbEntity
  8
0
  6
HIDDEN
 62
     7
370
     0
100
AcDbSpline
210
0.0
220
0.0
230
1.0
 70
     8
 71
     3
 72
    22
 73
    18
 74
     0
 42
0.00000001
 43
0.00000001
 40
0.0
 40
0.0
 40
0.0
 40
0.0
 40
0.125
 40
0.125
 40
0.25
 40
0.25
 40
0.375
 40
0.375
 40
0.5
 40
0.5
 40
0.625
 40
0.625
 40
0.75
 40
0.75
 40
0.875
 40
0.875
 40
1.0
 40
1.0
 40
1.0
 40
1.0
 10
189.2078563901164
 20
98.96976936177646
 30
0.0
 10
189.4069770738295
 20
98.80212796780997
 30
0.0
 10
189.6236754783208
 20
98.65483772834966
 30
0.0
 10
190.091058429037
 20
98.3977404158666
 30
0.0
 10
190.3449411142151
 20
98.2870416277228
 30
0.0
 10
190.8710507353316
 20
98.11055155845838
 30
0.0
 10
191.1428399585505
 20
98.04414541691312
 30
0.0
 10
191.704036656428
 20
97.9542284465333
 30
0.0
 10
191.9938334302005
 20
97.93137978440937
 30
0.0
 10
192.5647276325572
 20
97.93122786969671
 30
0.0
 10
192.8492054017339
 20
97.95321470787356
 30
0.0
 10
193.4159554435297
 20
98.04341634984756
 30
0.0
 10
193.688417560204
 20
98.11006808291859
 30
0.0
 10
194.2125665818612
 20
98.2855228105682
 30
0.0
 10
194.4666108217291
 20
98.39582879859452
 30
0.0
 10
194.9371580052189
 20
98.65430407607181
 30
0.0
 10
195.1544937169483
 20
98.80212393523807
 30
0.0
 10
195.3536191904597
 20
98.96976936177646
 30
0.0
  0
SPLINE
  5
172
330
1F
100
AcDbEntity
  8
0
  6
HIDDEN
 62
     7
370
     0
100
AcDbSpline
210
0.0
220
0.0
230
1.0
 70
     8
 71
     3
 72
    16
 73
    12
 74
     0
 42
0.00000001
 43
0.00000001
 40
0.0
 40
0.0
 40
0.0
 40
0.0
 40
0.2500000000000003
 40
0.2500000000000003
 40
0.5000000000000007
 40
0.5000000000000007
 40
0.750000000000001
 40
0.750000000000001
 40
0.8750000000000004
 40
0.8750000000000004
 40
1.0
 40
1.0
 40
1.0
 40
1.0
 10
195.3536191904597
 20
98.96976936177643
 30
0.0
 10
195.5736390226566
 20
99.11259450642244
 30
0.0
 10
195.7745546023189
 20
99.27161556621942
 30
0.0
 10
196.1354447664825
 20
99.62592906147108
 30
0.0
 10
196.2965866727216
 20
99.82401743466455
 30
0.0
 10
196.556134531502
 20
100.2415410648023
 30
0.0
 10
196.656942701564
 20
100.4623835261086
 30
0.0
 10
196.7606601448331
 20
100.8141885029294
 30
0.0
 10
196.7871930782952
 20
100.9354549461708
 30
0.0
 10
196.8220685557554
 20
101.177768202776
 30
0.0
 10
196.830737790288
 20
101.2996510849872
 30
0.0
 10
196.830737790288
 20
101.4222619327488
 30
0.0
  0
SPLINE
  5
173
330
1F
100
AcDbEntity
  8
0
  6
HIDDEN
 62
     7
370
     0
100
AcDbSpline
210
0.0
220
0.0
230
1.0
 70
     8
 71
     3
 72
    14
 73
    10
 74
     0
 42
0.00000001
 43
0.00000001
 40
0.0
 40
0.0
 40
0.0
 40
0.0
 40
0.25
 40
0.25
 40
0.5
 40
0.5
 40
0.75
 40
0.75
 40
1.0
 40
1.0
 40
1.0
 40
1.0
 10
196.830737790288
 20
101.4222619327491
 30
0.0
 10
196.830737790288
 20
101.1783226986992
 30
0.0
 10
196.7953811977032
 20
100.9329549955704
 30
0.0
 10
196.6584737783978
 20
100.4665947520046
 30
0.0
 10
196.5581258006977
 20
100.2449866084999
 30
0.0
 10
196.2961623616068
 20
99.8230940341488
 30
0.0
 10
196.138848306869
 20
99.62977580545832
 30
0.0
 10
195.7781409955525
 20
99.27464106287343
 30
0.0
 10
195.5730366660469
 20
99.11220348862653
 30
0.0
 10
195.3536191904596
 20
98.96976936177663
 30
0.0
  0
SPLINE
  5
174
330
1F
100
AcDbEntity
  8
0
  6
HIDDEN
 62
     7
370
     0
100
AcDbSpline
210
0.0
220
0.0
230
1.0
 70
     8
 71
     3
 72
    22
 73
    18
 74
     0
 42
0.00000001
 43
0.00000001
 40
0.0
 40
0.0
 40
0.0
 40
0.0
 40
0.125
 40
0.125
 40
0.25
 40
0.25
 40
0.375
 40
0.375
 40
0.5
 40
0.5
 40
0.625
 40
0.625
 40
0.75
 40
0.75
 40
0.875
 40
0.875
 40
1.0
 40
1.0
 40
1.0
 40
1.0
 10
195.3536191904596
 20
98.96976936177663
 30
0.0
 10
195.1544985067465
 20
98.80212796781014
 30
0.0
 10
194.9378001022553
 20
98.65483772834989
 30
0.0
 10
194.4704171515391
 20
98.3977404158668
 30
0.0
 10
194.216534466361
 20
98.28704162772303
 30
0.0
 10
193.6904248452445
 20
98.11055155845861
 30
0.0
 10
193.4186356220256
 20
98.04414541691338
 30
0.0
 10
192.8574389241481
 20
97.95422844653355
 30
0.0
 10
192.5676421503756
 20
97.93137978440963
 30
0.0
 10
191.9967479480189
 20
97.93122786969698
 30
0.0
 10
191.7122701788422
 20
97.95321470787381
 30
0.0
 10
191.1455201370466
 20
98.04341634984782
 30
0.0
 10
190.8730580203722
 20
98.11006808291881
 30
0.0
 10
190.348908998715
 20
98.28552281056844
 30
0.0
 10
190.0948647588472
 20
98.39582879859475
 30
0.0
 10
189.6243175753573
 20
98.65430407607202
 30
0.0
 10
189.406981863628
 20
98.80212393523824
 30
0.0
 10
189.2078563901165
 20
98.96976936177663
 30
0.0
  0
SPLINE
  5
175
330
1F
100
AcDbEntity
  8
0
  6
HIDDEN
 62
     7
370
     0
100
AcDbSpline
210
0.0
220
0.0
230
1.0
 70
     8
 71
     3
 72
    16
 73
    12
 74
     0
 42
0.00000001
 43
0.00000001
 40
0.0
 40
0.0
 40
0.0
 40
0.0
 40
0.2500000000000032
 40
0.2500000000000032
 40
0.5000000000000063
 40
0.5000000000000063
 40
0.6250000000000051
 40
0.6250000000000051
 40
0.7500000000000039
 40
0.7500000000000039
 40
1.0
 40
1.0
 40
1.0
 40
1.0
 10
189.2078563901165
 20
98.96976936177663
 30
0.0
 10
188.9891362657258
 20
99.11175080540919
 30
0.0
 10
188.7855998825968
 20
99.27247290069802
 30
0.0
 10
188.4212181872252
 20
99.63110113000769
 30
0.0
 10
188.2649102622055
 20
99.82411601312222
 30
0.0
 10
188.0708725163669
 20
100.1360572442866
 30
0.0
 10
188.012982024657
 20
100.2437999424749
 30
0.0
 10
187.9117845550867
 20
100.4675079899868
 30
0.0
 10
187.8685364703742
 20
100.5838110509995
 30
0.0
 10
187.7656278687961
 20
100.9349189098785
 30
0.0
 10
187.7307377902881
 20
101.175262776373
 30
0.0
 10
187.7307377902881
 20
101.422261932749
 30
0.0
  0
SPLINE
  5
176
330
1F
100
AcDbEntity
  8
0
  6
HIDDEN
 62
     7
370
     0
100
AcDbSpline
210
0.0
220
0.0
230
1.0
 70
     8
 71
     3
 72
    16
 73
    12
 74
     0
 42
0.00000001
 43
0.00000001
 40
0.0
 40
0.0
 40
0.0
 40
0.0
 40
0.1249999999999995
 40
0.1249999999999995
 40
0.249999999999999
 40
0.249999999999999
 40
0.4999999999999993
 40
0.4999999999999993
 40
0.7499999999999997
 40
0.7499999999999997
 40
1.0
 40
1.0
 40
1.0
 40
1.0
 10
187.7307377902881
 20
101.422261932749
 30
0.0
 10
187.7307377902881
 20
101.5449866746489
 30
0.0
 10
187.7396156124232
 20
101.6698863887509
 30
0.0
 10
187.7744154553615
 20
101.9158610183168
 30
0.0
 10
187.8002629630792
 20
102.0377682698369
 30
0.0
 10
187.9023174470426
 20
102.4002758606161
 30
0.0
 10
188.0047048703349
 20
102.6403431544165
 30
0.0
 10
188.2639085624357
 20
103.0920758519004
 30
0.0
 10
188.4204286973271
 20
103.3053351047583
 30
0.0
 10
188.7838915691462
 20
103.7063544604249
 30
0.0
 10
188.9886547245564
 20
103.8909149370897
 30
0.0
 10
189.2078563901166
 20
104.0550126894297
 30
0.0
  0
SPLINE
  5
177
330
1F
100
AcDbEntity
  8
0
  6
HIDDEN
 62
     7
370
     0
100
AcDbSpline
210
0.0
220
0.0
230
1.0
 70
     8
 71
     3
 72
    22
 73
    18
 74
     0
 42
0.00000001
 43
0.00000001
 40
0.0
 40
0.0
 40
0.0
 40
0.0
 40
0.125
 40
0.125
 40
0.25
 40
0.25
 40
0.375
 40
0.375
 40
0.5
 40
0.5
 40
0.625
 40
0.625
 40
0.75
 40
0.75
 40
0.875
 40
0.875
 40
1.0
 40
1.0
 40
1.0
 40
1.0
 10
189.2078563901166
 20
104.0550126894297
 30
0.0
 10
189.4069770738297
 20
104.2483417776685
 30
0.0
 10
189.6236754783209
 20
104.4211473249455
 30
0.0
 10
190.0910584290371
 20
104.7259455040063
 30
0.0
 10
190.3449411142152
 20
104.8590443940206
 30
0.0
 10
190.8710507353316
 20
105.0726987771529
 30
0.0
 10
191.1428399585505
 20
105.153947859116
 30
0.0
 10
191.704036656428
 20
105.2642197324506
 30
0.0
 10
191.9938334302005
 20
105.292425758722
 30
0.0
 10
192.5647276325572
 20
105.2926128942638
 30
0.0
 10
192.8492054017339
 20
105.2654661393401
 30
0.0
 10
193.4159554435296
 20
105.1548388455287
 30
0.0
 10
193.6884175602039
 20
105.0732909592635
 30
0.0
 10
194.2125665818611
 20
104.8608762147353
 30
0.0
 10
194.466610821729
 20
104.728223680963
 30
0.0
 10
194.9371580052188
 20
104.421768215545
 30
0.0
 10
195.1544937169481
 20
104.2483464281515
 30
0.0
 10
195.3536191904596
 20
104.0550126894297
 30
0.0
  0
SPLINE
  5
178
330
1F
100
AcDbEntity
  8
0
  6
HIDDEN
 62
     7
370
     0
100
AcDbSpline
210
0.0
220
0.0
230
1.0
 70
     8
 71
     3
 72
    16
 73
    12
 74
     0
 42
0.00000001
 43
0.00000001
 40
0.0
 40
0.0
 40
0.0
 40
0.0
 40
0.2500000000000011
 40
0.2500000000000011
 40
0.5000000000000021
 40
0.5000000000000021
 40
0.7500000000000031
 40
0.7500000000000031
 40
0.8750000000000016
 40
0.8750000000000016
 40
1.0
 40
1.0
 40
1.0
 40
1.0
 10
195.3536191904596
 20
104.0550126894297
 30
0.0
 10
195.5734970447233
 20
103.8904087317827
 30
0.0
 10
195.7744315285325
 20
103.7091809210118
 30
0.0
 10
196.1355498430683
 20
103.3120364763341
 30
0.0
 10
196.2966585090967
 20
103.093408144534
 30
0.0
 10
196.5560603584631
 20
102.6418306031153
 30
0.0
 10
196.6569287062891
 20
102.4069140071307
 30
0.0
 10
196.7607305494423
 20
102.0401064194051
 30
0.0
 10
196.7872281831044
 20
101.9151122081446
 30
0.0
 10
196.8220674356452
 20
101.6679761350179
 30
0.0
 10
196.830737790288
 20
101.5448801906656
 30
0.0
 10
196.830737790288
 20
101.4222619327491
 30
0.0
  0
LINE
  5
179
330
1F
100
AcDbEntity
  8
0
  6
HIDDEN
 62
     7
370
     0
100
AcDbLine
 10
238.0807377903
 20
125.9472619327
 30
0.0
 11
238.0807377903
 21
137.4222619327
 31
0.0
  0
LINE
  5
17A
330
1F
100
AcDbEntity
  8
0
  6
HIDDEN
 62
     7
370
     0
100
AcDbLine
 10
238.0807377903
 20
125.9472619327
 30
0.0
 11
232.6807377903
 21
125.9472619327
 31
0.0
  0
SPLINE
  5
17B
330
1F
100
AcDbEntity
  8
0
  6
HIDDEN
 62
     7
370
     0
100
AcDbSpline
210
0.0
220
0.0
230
1.0
 70
     8
 71
     3
 72
    14
 73
    10
 74
     0
 42
0.00000001
 43
0.00000001
 40
0.0
 40
0.0
 40
0.0
 40
0.0
 40
0.25
 40
0.25
 40
0.5
 40
0.5
 40
0.75
 40
0.75
 40
1.0
 40
1.0
 40
1.0
 40
1.0
 10
232.6807377902881
 20
125.9472619327489
 30
0.0
 10
232.538144806394
 20
125.9472619327489
 30
0.0
 10
232.3984633576248
 20
125.9162754463032
 30
0.0
 10
232.1488795056839
 20
125.8050455942185
 30
0.0
 10
232.0387414422111
 20
125.7248505817368
 30
0.0
 10
231.8616973339656
 20
125.5354593051385
 30
0.0
 10
231.7943031974736
 20
125.4267723209264
 30
0.0
 10
231.7034062393952
 20
125.1932691264193
 30
0.0
 10
231.6807377902881
 20
125.071912180306
 30
0.0
 10
231.6807377902881
 20
124.9472619327489
 30
0.0
  0
LINE
  5
17C
330
1F
100
AcDbEntity
  8
0
  6
HIDDEN
 62
     7
370
     0
100
AcDbLine
 10
231.6807377903
 20
124.9472619327
 30
0.0
 11
231.6807377903
 21
101.8972619327
 31
0.0
  0
SPLINE
  5
17D
330
1F
100
AcDbEntity
  8
0
  6
HIDDEN
 62
     7
370
     0
100
AcDbSpline
210
0.0
220
0.0
230
1.0
 70
     8
 71
     3
 72
    14
 73
    10
 74
     0
 42
0.00000001
 43
0.00000001
 40
0.0
 40
0.0
 40
0.0
 40
0.0
 40
0.25
 40
0.25
 40
0.5
 40
0.5
 40
0.75
 40
0.75
 40
1.0
 40
1.0
 40
1.0
 40
1.0
 10
231.6807377902881
 20
101.8972619327489
 30
0.0
 10
231.6807377902881
 20
101.7723156333328
 30
0.0
 10
231.7033511192149
 20
101.6519597093885
 30
0.0
 10
231.7931760049846
 20
101.4200911427313
 30
0.0
 10
231.860568882956
 20
101.3107268577354
 30
0.0
 10
232.0366191432849
 20
101.1214967625084
 30
0.0
 10
232.146028054779
 20
101.0409634681328
 30
0.0
 10
232.398744099693
 20
100.9279110570508
 30
0.0
 10
232.5376226852589
 20
100.8972619327489
 30
0.0
 10
232.6807377902881
 20
100.8972619327489
 30
0.0
  0
LINE
  5
17E
330
1F
100
AcDbEntity
  8
0
  6
HIDDEN
 62
     7
370
     0
100
AcDbLine
 10
232.6807377903
 20
100.8972619327
 30
0.0
 11
238.0807377903
 21
100.8972619327
 31
0.0
  0
LINE
  5
17F
330
1F
100
AcDbEntity
  8
0
  6
HIDDEN
 62
     7
370
     0
100
AcDbLine
 10
238.0807377903
 20
100.8972619327
 30
0.0
 11
238.0807377903
 21
89.4222619327
 31
0.0
  0
LINE
  5
180
330
1F
100
AcDbEntity
  8
0
  6
HIDDEN
 62
     7
370
     0
100
AcDbLine
 10
180.2807377903
 20
123.3831357649
 30
0.0
 11
180.2807377903
 21
89.5318873019
 31
0.0
  0
LINE
  5
181
330
1F
100
AcDbEntity
  8
0
  6
HIDDEN
 62
     7
370
     0
100
AcDbLine
 10
238.0807377903
 20
100.8972619327
 30
0.0
 11
232.6807377903
 21
100.8972619327
 31
0.0
  0
LINE
  5
182
330
1F
100
AcDbEntity
  8
0
  6
HIDDEN
 62
     7
370
     0
100
AcDbLine
 10
232.6807377903
 20
125.9472619327
 30
0.0
 11
238.0807377903
 21
125.9472619327
 31
0.0
  0
SPLINE
  5
183
330
1F
100
AcDbEntity
  8
0
  6
HIDDEN
 62
     7
370
     0
100
AcDbSpline
210
0.0
220
0.0
230
1.0
 70
     8
 71
     3
 72
    14
 73
    10
 74
     0
 42
0.00000001
 43
0.00000001
 40
0.0
 40
0.0
 40
0.0
 40
0.0
 40
0.25
 40
0.25
 40
0.5
 40
0.5
 40
0.75
 40
0.75
 40
1.0
 40
1.0
 40
1.0
 40
1.0
 10
231.6807377902881
 20
124.9472619327489
 30
0.0
 10
231.6807377902881
 20
125.072208232165
 30
0.0
 10
231.7033511192149
 20
125.1925641561092
 30
0.0
 10
231.7931760049846
 20
125.4244327227665
 30
0.0
 10
231.860568882956
 20
125.5337970077623
 30
0.0
 10
232.0366191432849
 20
125.7230271029893
 30
0.0
 10
232.146028054779
 20
125.803560397365
 30
0.0
 10
232.398744099693
 20
125.916612808447
 30
0.0
 10
232.5376226852589
 20
125.9472619327489
 30
0.0
 10
232.6807377902881
 20
125.9472619327489
 30
0.0
  0
SPLINE
  5
184
330
1F
100
AcDbEntity
  8
0
  6
HIDDEN
 62
     7
370
     0
100
AcDbSpline
210
0.0
220
0.0
230
1.0
 70
     8
 71
     3
 72
    14
 73
    10
 74
     0
 42
0.00000001
 43
0.00000001
 40
0.0
 40
0.0
 40
0.0
 40
0.0
 40
0.25
 40
0.25
 40
0.5
 40
0.5
 40
0.75
 40
0.75
 40
1.0
 40
1.0
 40
1.0
 40
1.0
 10
232.6807377902881
 20
100.8972619327489
 30
0.0
 10
232.538144806394
 20
100.8972619327489
 30
0.0
 10
232.3984633576248
 20
100.9282484191946
 30
0.0
 10
232.1488795056839
 20
101.0394782712793
 30
0.0
 10
232.0387414422111
 20
101.119673283761
 30
0.0
 10
231.8616973339656
 20
101.3090645603593
 30
0.0
 10
231.7943031974736
 20
101.4177515445714
 30
0.0
 10
231.7034062393952
 20
101.6512547390785
 30
0.0
 10
231.6807377902881
 20
101.7726116851917
 30
0.0
 10
231.6807377902881
 20
101.8972619327489
 30
0.0
  0
LINE
  5
185
330
1F
100
AcDbEntity
  8
0
  6
HIDDEN
 62
     7
370
     0
100
AcDbLine
 10
231.6807377903
 20
101.8972619327
 30
0.0
 11
231.6807377903
 21
124.9472619327
 31
0.0
  0
ARC
  5
186
330
1F
100
AcDbEntity
  8
0
  6
HIDDEN
 62
     7
370
     0
100
AcDbCircle
 10
192.2807377903
 20
100.5081231846
 30
0.0
 40
4.692869618820549
100
AcDbArc
 50
49.0956688647
 51
130.9043311353
  0
ARC
  5
187
330
1F
100
AcDbEntity
  8
0
  6
HIDDEN
 62
     7
370
     0
100
AcDbCircle
 10
192.2807377903
 20
102.5166588666
 30
0.0
 40
4.692869618820461
100
AcDbArc
 50
229.0956688647
 51
310.9043311353
  0
LINE
  5
188
330
1F
100
AcDbEntity
  8
0
  6
HIDDEN
 62
     7
370
     0
100
AcDbLine
 10
239.2807377903
 20
127.1472619327
 30
0.0
 11
238.0807377903
 21
125.9472619327
 31
0.0
  0
LINE
  5
189
330
1F
100
AcDbEntity
  8
0
  6
HIDDEN
 62
     7
370
     0
100
AcDbLine
 10
239.2807377903
 20
127.1472619327
 30
0.0
 11
239.2807377903
 21
138.1150822558
 31
0.0
  0
LINE
  5
18A
330
1F
100
AcDbEntity
  8
0
  6
HIDDEN
 62
     7
370
     0
100
AcDbLine
 10
238.0807377903
 20
125.9472619327
 30
0.0
 11
239.2807377903
 21
127.1472619327
 31
0.0
  0
LINE
  5
18B
330
1F
100
AcDbEntity
  8
0
  6
HIDDEN
 62
     7
370
     0
100
AcDbLine
 10
238.0807377903
 20
100.8972619327
 30
0.0
 11
239.2807377903
 21
99.6972619327
 31
0.0
  0
LINE
  5
18C
330
1F
100
AcDbEntity
  8
0
  6
HIDDEN
 62
     7
370
     0
100
AcDbLine
 10
239.2807377903
 20
99.6972619327
 30
0.0
 11
239.2807377903
 21
88.7294416097
 31
0.0
  0
LINE
  5
18D
330
1F
100
AcDbEntity
  8
0
  6
HIDDEN
 62
     7
370
     0
100
AcDbLine
 10
239.2807377903
 20
99.6972619327
 30
0.0
 11
238.0807377903
 21
100.8972619327
 31
0.0
  0
SPLINE
  5
18E
330
1F
100
AcDbEntity
  8
0
  6
HIDDEN
 62
     7
370
     0
100
AcDbSpline
210
0.0
220
0.0
230
1.0
 70
     8
 71
     3
 72
    10
 73
     6
 74
     0
 42
0.00000001
 43
0.00000001
 40
0.0
 40
0.0
 40
0.0
 40
0.0
 40
0.5
 40
0.5
 40
1.0
 40
1.0
 40
1.0
 40
1.0
 10
178.6807377902881
 20
127.927328964172
 30
0.0
 10
178.8950657173706
 20
127.9706253824588
 30
0.0
 10
179.1115813509671
 20
127.9901101367082
 30
0.0
 10
179.5488683390749
 20
127.9830486386471
 30
0.0
 10
179.7688059562871
 20
127.955857198622
 30
0.0
 10
179.9807377902881
 20
127.9053150454691
 30
0.0
  0
LINE
  5
18F
330
1F
100
AcDbEntity
  8
0
  6
HIDDEN
 62
     7
370
     0
100
AcDbLine
 10
180.2807377903
 20
127.6656600577
 30
0.0
 11
180.2807377903
 21
138.0472619327
 31
0.0
  0
SPLINE
  5
190
330
1F
100
AcDbEntity
  8
0
  6
HIDDEN
 62
     7
370
     0
100
AcDbSpline
210
0.0
220
0.0
230
1.0
 70
     8
 71
     3
 72
    10
 73
     6
 74
     0
 42
0.00000001
 43
0.00000001
 40
0.0
 40
0.0
 40
0.0
 40
0.0
 40
0.5
 40
0.5
 40
1.0
 40
1.0
 40
1.0
 40
1.0
 10
179.9807377902881
 20
127.9053150454691
 30
0.0
 10
180.058470826813
 20
127.8867770327368
 30
0.0
 10
180.1343513884063
 20
127.8494501654724
 30
0.0
 10
180.246522734539
 20
127.758499794155
 30
0.0
 10
180.2807377902881
 20
127.7056686205709
 30
0.0
 10
180.2807377902881
 20
127.6656600576512
 30
0.0
  0
SPLINE
  5
191
330
1F
100
AcDbEntity
  8
0
  6
HIDDEN
 62
     7
370
     0
100
AcDbSpline
210
0.0
220
0.0
230
1.0
 70
     8
 71
     3
 72
    10
 73
     6
 74
     0
 42
0.00000001
 43
0.00000001
 40
0.0
 40
0.0
 40
0.0
 40
0.0
 40
0.5
 40
0.5
 40
1.0
 40
1.0
 40
1.0
 40
1.0
 10
178.380737790288
 20
127.699310070148
 30
0.0
 10
178.3807377902881
 20
127.7389035037495
 30
0.0
 10
178.4139625066131
 20
127.7897449334275
 30
0.0
 10
178.5266550172603
 20
127.8770468506449
 30
0.0
 10
178.6027054819891
 20
127.9115656452899
 30
0.0
 10
178.680737790288
 20
127.9273289641723
 30
0.0
  0
LINE
  5
192
330
1F
100
AcDbEntity
  8
0
  6
HIDDEN
 62
     7
370
     0
100
AcDbLine
 10
178.3807377903
 20
127.6993100701
 30
0.0
 11
178.3807377903
 21
138.0472619327
 31
0.0
  0
LINE
  5
193
330
1F
100
AcDbEntity
  8
0
  6
HIDDEN
 62
     7
370
     0
100
AcDbLine
 10
61.0307377903
 20
86.0522619327
 30
0.0
 11
61.0307377903
 21
81.1722619327
 31
0.0
  0
LINE
  5
194
330
1F
100
AcDbEntity
  8
0
  6
HIDDEN
 62
     7
370
     0
100
AcDbLine
 10
74.4807377903
 20
86.0522619327
 30
0.0
 11
74.4807377903
 21
79.5529286674
 31
0.0
  0
LINE
  5
195
330
1F
100
AcDbEntity
  8
0
  6
HIDDEN
 62
     7
370
     0
100
AcDbLine
 10
69.4807377903
 20
140.7922619327
 30
0.0
 11
69.4807377903
 21
147.1668706697
 31
0.0
  0
LINE
  5
196
330
1F
100
AcDbEntity
  8
0
  6
HIDDEN
 62
     7
370
     0
100
AcDbLine
 10
61.0307377903
 20
140.7922619327
 30
0.0
 11
61.0307377903
 21
145.6722619327
 31
0.0
  0
LINE
  5
197
330
1F
100
AcDbEntity
  8
0
  6
HIDDEN
 62
     7
370
     0
100
AcDbLine
 10
59.3807377903
 20
140.7922619327
 30
0.0
 11
59.3807377903
 21
143.9249316753
 31
0.0
  0
LINE
  5
198
330
1F
100
AcDbEntity
  8
0
  6
HIDDEN
 62
     7
370
     0
100
AcDbLine
 10
59.3807377903
 20
86.0522619327
 30
0.0
 11
59.3807377903
 21
82.9195921902
 31
0.0
  0
LINE
  5
199
330
1F
100
AcDbEntity
  8
0
  6
HIDDEN
 62
     7
370
     0
100
AcDbLine
 10
133.5807377903
 20
126.4222619327
 30
0.0
 11
133.5807377903
 21
100.4222619327
 31
0.0
  0
LINE
  5
19A
330
1F
100
AcDbEntity
  8
0
  6
HIDDEN
 62
     7
370
     0
100
AcDbLine
 10
137.5807377903
 20
126.4222619327
 30
0.0
 11
137.5807377903
 21
100.4222619327
 31
0.0
  0
LINE
  5
19B
330
1F
100
AcDbEntity
  8
0
  6
HIDDEN
 62
     7
370
     0
100
AcDbLine
 10
122.4807377903
 20
124.6722619327
 30
0.0
 11
122.4807377903
 21
102.1722619327
 31
0.0
  0
LINE
  5
19C
330
1F
100
AcDbEntity
  8
0
  6
HIDDEN
 62
     7
370
     0
100
AcDbLine
 10
121.7307377903
 20
101.4222619327
 30
0.0
 11
121.7307377903
 21
125.3930305359
 31
0.0
  0
ELLIPSE
  5
19D
330
1F
100
AcDbEntity
  8
0
  6
HIDDEN
 62
     7
370
     0
100
AcDbEllipse
 10
53.09606459
 20
113.4222619327
 30
0.0
 11
31.08108570811662
 21
-2.842170943040401E-14
 31
0.0
210
0.0
220
0.0
230
1.0
 40
0.8164965809
 41
4.915995335118103
 42
4.970536038964788
  0
LINE
  5
19E
330
1F
100
AcDbEntity
  8
0
  6
HIDDEN
 62
     7
370
     0
100
AcDbLine
 10
59.3807377903
 20
86.0522619327
 30
0.0
 11
59.3807377903
 21
88.5688681798
 31
0.0
  0
ELLIPSE
  5
19F
330
1F
100
AcDbEntity
  8
0
  6
HIDDEN
 62
     7
370
     0
100
AcDbEllipse
 10
53.09606459
 20
113.4222619327
 30
0.0
 11
31.08108570811662
 21
2.842170943040401E-14
 31
0.0
210
0.0
220
0.0
230
1.0
 40
0.8164965809
 41
1.31264926821481
 42
1.367189972061495
  0
LINE
  5
1A0
330
1F
100
AcDbEntity
  8
0
  6
HIDDEN
 62
     7
370
     0
100
AcDbLine
 10
59.3807377903
 20
140.7922619327
 30
0.0
 11
59.3807377903
 21
138.2756556857
 31
0.0
  0
LINE
  5
1A1
330
1F
100
AcDbEntity
  8
0
  6
HIDDEN
 62
     7
370
     0
100
AcDbLine
 10
133.5807377903
 20
102.1722619327
 30
0.0
 11
133.5807377903
 21
124.642250124
 31
0.0
  0
LWPOLYLINE
  5
1A2
330
1F
100
AcDbEntity
  8
0
  6
HIDDEN
 62
     7
370
     0
100
AcDbPolyline
 90
        2
 70
   128
 43
0.0
 10
138.2307377903
 20
69.5222619327
 10
138.2307377903
 20
69.5222619327
  0
LINE
  5
1A3
330
1F
100
AcDbEntity
  8
0
  6
HIDDEN
 62
     7
370
     0
100
AcDbLine
 10
138.2307377903
 20
69.5222619327
 30
0.0
 11
124.2307377903
 21
69.5222619327
 31
0.0
  0
LINE
  5
1A4
330
1F
100
AcDbEntity
  8
0
  6
HIDDEN
 62
     7
370
     0
100
AcDbLine
 10
131.1907377903
 20
67.0508736457
 30
0.0
 11
131.1907377903
 21
67.9590831504
 31
0.0
  0
LINE
  5
1A5
330
1F
100
AcDbEntity
  8
0
  6
HIDDEN
 62
     7
370
     0
100
AcDbLine
 10
127.3707377903
 20
67.9590831504
 30
0.0
 11
127.3707377903
 21
67.0508736457
 31
0.0
  0
LINE
  5
1A6
330
1F
100
AcDbEntity
  8
0
  6
HIDDEN
 62
     7
370
     0
100
AcDbLine
 10
138.2307377903
 20
69.5222619327
 30
0.0
 11
138.2307377903
 21
65.6729163875
 31
0.0
  0
LINE
  5
1A7
330
1F
100
AcDbEntity
  8
0
  6
HIDDEN
 62
     7
370
     0
100
AcDbLine
 10
114.2307377903
 20
63.4322629329
 30
0.0
 11
114.2307377903
 21
69.5222619327
 31
0.0
  0
LINE
  5
1A8
330
1F
100
AcDbEntity
  8
0
  6
HIDDEN
 62
     7
370
     0
100
AcDbLine
 10
124.2307377903
 20
69.5222619327
 30
0.0
 11
114.2307377903
 21
69.5222619327
 31
0.0
  0
LINE
  5
1A9
330
1F
100
AcDbEntity
  8
0
  6
HIDDEN
 62
     7
370
     0
100
AcDbLine
 10
74.4807377903
 20
86.0522619327
 30
0.0
 11
74.4807377903
 21
88.1937483023
 31
0.0
  0
LINE
  5
1AA
330
1F
100
AcDbEntity
  8
0
  6
HIDDEN
 62
     7
370
     0
100
AcDbLine
 10
61.0307377903
 20
86.0522619327
 30
0.0
 11
61.0307377903
 21
88.885556775
 31
0.0
  0
LINE
  5
1AB
330
1F
100
AcDbEntity
  8
0
  6
HIDDEN
 62
     7
370
     0
100
AcDbLine
 10
61.0307377903
 20
140.7922619327
 30
0.0
 11
61.0307377903
 21
137.9589670905
 31
0.0
  0
LINE
  5
1AC
330
1F
100
AcDbEntity
  8
0
  6
HIDDEN
 62
     7
370
     0
100
AcDbLine
 10
69.4807377903
 20
140.7922619327
 30
0.0
 11
69.4807377903
 21
138.6507755632
 31
0.0
  0
LINE
  5
1AD
330
1F
100
AcDbEntity
  8
0
  6
HIDDEN
 62
     7
370
     0
100
AcDbLine
 10
124.2307377903
 20
157.3222619327
 30
0.0
 11
114.2307377903
 21
157.3222619327
 31
0.0
  0
LINE
  5
1AE
330
1F
100
AcDbEntity
  8
0
  6
HIDDEN
 62
     7
370
     0
100
AcDbLine
 10
127.3707377903
 20
159.1158131736
 30
0.0
 11
127.3707377903
 21
160.0195327935
 31
0.0
  0
LINE
  5
1AF
330
1F
100
AcDbEntity
  8
0
  6
HIDDEN
 62
     7
370
     0
100
AcDbLine
 10
131.1907377903
 20
160.0195327935
 30
0.0
 11
131.1907377903
 21
159.1158131736
 31
0.0
  0
LINE
  5
1B0
330
1F
100
AcDbEntity
  8
0
  6
HIDDEN
 62
     7
370
     0
100
AcDbLine
 10
138.2307377903
 20
157.3222619327
 30
0.0
 11
138.2307377903
 21
161.3910017536
 31
0.0
  0
LINE
  5
1B1
330
1F
100
AcDbEntity
  8
0
  6
HIDDEN
 62
     7
370
     0
100
AcDbLine
 10
138.2307377903
 20
157.3222619327
 30
0.0
 11
124.2307377903
 21
157.3222619327
 31
0.0
  0
LWPOLYLINE
  5
1B2
330
1F
100
AcDbEntity
  8
0
  6
HIDDEN
 62
     7
370
     0
100
AcDbPolyline
 90
        2
 70
   128
 43
0.0
 10
138.2307377903
 20
157.3222619327
 10
138.2307377903
 20
157.3222619327
  0
LINE
  5
1B3
330
1F
100
AcDbEntity
  8
0
  6
HIDDEN
 62
     7
370
     0
100
AcDbLine
 10
162.2807377903
 20
107.3722619327
 30
0.0
 11
162.2807377903
 21
119.4722619327
 31
0.0
  0
LINE
  5
1B4
330
1F
100
AcDbEntity
  8
0
  6
HIDDEN
 62
     7
370
     0
100
AcDbLine
 10
163.2807377903
 20
120.4722619327
 30
0.0
 11
163.2807377903
 21
106.3722619327
 31
0.0
  0
SPLINE
  5
1B5
330
1F
100
AcDbEntity
  8
0
  6
HIDDEN
 62
     7
370
     0
100
AcDbSpline
210
0.0
220
0.0
230
1.0
 70
     8
 71
     3
 72
    43
 73
    39
 74
     0
 42
0.00000001
 43
0.00000001
 40
-0.095609382929042
 40
-0.0624935963490051
 40
-0.0378613649468699
 40
0.0
 40
0.0284105698783331
 40
0.0550998574707339
 40
0.0800772929164799
 40
0.1033546039173843
 40
0.1249465072219031
 40
0.1542906652153685
 40
0.1874273443297963
 40
0.2118955233064154
 40
0.2499806198008307
 40
0.2742598702042369
 40
0.2971733732494132
 40
0.3187280787172334
 40
0.3389324364685376
 40
0.3577968096541754
 40
0.3753340365143091
 40
0.4115607084350961
 40
0.4530653289557423
 40
0.4999157535589651
 40
0.5208052876408023
 40
0.5382319772494047
 40
0.5521939656069758
 40
0.5626899286748923
 40
0.5959292802461217
 40
0.6252973741910604
 40
0.6621940257161862
 40
0.7037412342652166
 40
0.7499883761536104
 40
0.77687084357532
 40
0.7977153900885906
 40
0.8125147914969659
 40
0.8456185013216833
 40
0.8750030524645243
 40
0.904390617070958
 40
0.9375064036509949
 40
0.9621386350531301
 40
1.0
 40
1.028410569878333
 40
1.055099857470734
 40
1.08007729291648
 10
89.21314612782984
 20
77.08640235328973
 30
0.0
 10
89.9267080096964
 20
77.15565130303375
 30
0.0
 10
90.82803173702342
 20
77.21818681236702
 30
0.0
 10
91.70512951665867
 20
77.25113578866743
 30
0.0
 10
92.59145884733849
 20
77.26304395382735
 30
0.0
 10
93.45460616170365
 20
77.25323786730863
 30
0.0
 10
94.38845949746053
 20
77.2168628540997
 30
0.0
 10
95.44477158402984
 20
77.13610978334822
 30
0.0
 10
96.49539693588585
 20
77.02126257119151
 30
0.0
 10
97.56350376587203
 20
76.86917339984089
 30
0.0
 10
98.42417646186607
 20
76.72178203023512
 30
0.0
 10
99.12027896624608
 20
76.58400100716722
 30
0.0
 10
99.58080904660797
 20
76.48951447168041
 30
0.0
 10
99.91487507574075
 20
76.41538415005287
 30
0.0
 10
100.1349321503754
 20
76.36230006744042
 30
0.0
 10
100.2553956744536
 20
76.33007062954086
 30
0.0
 10
100.3060304901655
 20
76.31446274368245
 30
0.0
 10
100.1682244452524
 20
76.35607756163004
 30
0.0
 10
99.61320379076389
 20
76.48466063800227
 30
0.0
 10
98.78853611234152
 20
76.65272027032155
 30
0.0
 10
97.99013127766982
 20
76.7972001714462
 30
0.0
 10
97.45190647045187
 20
76.88276369470373
 30
0.0
 10
96.99387161863446
 20
76.9500717834799
 30
0.0
 10
96.33831142246797
 20
77.0384164986857
 30
0.0
 10
95.45491524945889
 20
77.13506622598746
 30
0.0
 10
94.20569119593797
 20
77.23118521484541
 30
0.0
 10
92.84517098465588
 20
77.26878759461815
 30
0.0
 10
91.36039472064344
 20
77.24814436410612
 30
0.0
 10
90.18443314872053
 20
77.17771279814845
 30
0.0
 10
89.41844582417785
 20
77.10600959254224
 30
0.0
 10
89.0045596593868
 20
77.06228959183633
 30
0.0
 10
88.63537958512795
 20
77.01774940581942
 30
0.0
 10
88.35475010729381
 20
76.98151445147647
 30
0.0
 10
88.24642640116241
 20
76.9634331284923
 30
0.0
 10
88.35268191095393
 20
76.98121826346468
 30
0.0
 10
88.66710867343356
 20
77.02219257658507
 30
0.0
 10
89.21314612782984
 20
77.08640235328973
 30
0.0
 10
89.9267080096964
 20
77.15565130303375
 30
0.0
 10
90.82803173702342
 20
77.21818681236702
 30
0.0
  0
SPLINE
  5
1B6
330
1F
100
AcDbEntity
  8
0
  6
HIDDEN
 62
     7
370
     0
100
AcDbSpline
210
0.0
220
0.0
230
1.0
 70
     8
 71
     3
 72
    43
 73
    39
 74
     0
 42
0.00000001
 43
0.00000001
 40
-0.0937902222072653
 40
-0.0655984205257892
 40
-0.0343403538090559
 40
0.0
 40
0.0273365738751961
 40
0.0520717403788638
 40
0.0742047603780971
 40
0.0937354293217574
 40
0.1106643003485812
 40
0.1249931095773494
 40
0.154351386539592
 40
0.1874527833688021
 40
0.2119177690886237
 40
0.2499503115778069
 40
0.2783738632037472
 40
0.3050847229613579
 40
0.3300923655030046
 40
0.353408555447479
 40
0.3750480314721791
 40
0.4043774817992351
 40
0.4374963616383775
 40
0.4617853790771651
 40
0.4999948248456062
 40
0.52423237684084
 40
0.5471082900005034
 40
0.568629523814264
 40
0.5888045366678502
 40
0.6076436980071829
 40
0.6251598483867227
 40
0.6689986354065358
 40
0.7186819201210631
 40
0.7374501607443312
 40
0.7656131886441717
 40
0.7919505201039643
 40
0.8125718764317261
 40
0.8617921544335025
 40
0.9062097777927347
 40
0.9344015794742108
 40
0.9656596461909441
 40
1.0
 40
1.027336573875196
 40
1.052071740378864
 40
1.074204760378097
 10
90.99435188319983
 20
149.615726319864
 30
0.0
 10
90.07661174444326
 20
149.6773210129362
 30
0.0
 10
89.37411427342775
 20
149.7416743037164
 30
0.0
 10
88.89567259178038
 20
149.789409203509
 30
0.0
 10
88.578160351554
 20
149.8272023238784
 30
0.0
 10
88.38975368567006
 20
149.8542036706645
 30
0.0
 10
88.29838995616558
 20
149.8709804125991
 30
0.0
 10
88.26407917822583
 20
149.8788361224696
 30
0.0
 10
88.35380252149247
 20
149.8627445258282
 30
0.0
 10
88.66837506104326
 20
149.8221323855947
 30
0.0
 10
89.21459462932576
 20
149.7577373968543
 30
0.0
 10
89.92861918442566
 20
149.688591588728
 30
0.0
 10
90.83257967346437
 20
149.6260848529268
 30
0.0
 10
91.71087472991965
 20
149.5932933328608
 30
0.0
 10
92.59864850119524
 20
149.5815613222228
 30
0.0
 10
93.46347373722996
 20
149.5915749152163
 30
0.0
 10
94.39831960350728
 20
149.6281415149891
 30
0.0
 10
95.45460509412958
 20
149.7090771492391
 30
0.0
 10
96.50212827712892
 20
149.8238459187007
 30
0.0
 10
97.56876811943904
 20
149.9761138952631
 30
0.0
 10
98.42799860706593
 20
150.1233845048521
 30
0.0
 10
99.12358107315131
 20
150.2612082692901
 30
0.0
 10
99.58275448359635
 20
150.3554972841484
 30
0.0
 10
99.91585988176855
 20
150.429461622547
 30
0.0
 10
100.1353101966562
 20
150.4823765386382
 30
0.0
 10
100.2554587751262
 20
150.5145576182619
 30
0.0
 10
100.3113026286786
 20
150.5312846478507
 30
0.0
 10
100.1169541768191
 20
150.4761229164517
 30
0.0
 10
99.5141677149305
 20
150.3438106154968
 30
0.0
 10
98.78515334122606
 20
150.1921546929813
 30
0.0
 10
98.12991931798658
 20
150.0693058413588
 30
0.0
 10
97.3563978133605
 20
149.9443243558777
 30
0.0
 10
96.27842745198242
 20
149.7942017719042
 30
0.0
 10
94.86426477964854
 20
149.6524179351258
 30
0.0
 10
93.31406307024032
 20
149.5796859040593
 30
0.0
 10
92.05298844860751
 20
149.5830892422875
 30
0.0
 10
90.99435188319983
 20
149.615726319864
 30
0.0
 10
90.07661174444326
 20
149.6773210129362
 30
0.0
 10
89.37411427342775
 20
149.7416743037164
 30
0.0
  0
LINE
  5
1B7
330
1F
100
AcDbEntity
  8
0
  6
HIDDEN
 62
     7
370
     0
100
AcDbLine
 10
158.7807377903
 20
107.3722619327
 30
0.0
 11
158.7807377903
 21
119.4722619327
 31
0.0
  0
LINE
  5
1B8
330
1F
100
AcDbEntity
  8
0
  6
HIDDEN
 62
     7
370
     0
100
AcDbLine
 10
157.699188676
 20
109.1722619327
 30
0.0
 11
157.699188676
 21
117.6722619327
 31
0.0
  0
LINE
  5
1B9
330
1F
100
AcDbEntity
  8
0
  6
HIDDEN
 62
     7
370
     0
100
AcDbLine
 10
196.8307377903
 20
137.4222619327
 30
0.0
 11
187.7307377903
 21
137.4222619327
 31
0.0
  0
LINE
  5
1BA
330
1F
100
AcDbEntity
  8
0
  6
HIDDEN
 62
     7
370
     0
100
AcDbLine
 10
187.7307377903
 20
137.4222619327
 30
0.0
 11
196.8307377903
 21
137.4222619327
 31
0.0
  0
LINE
  5
1BB
330
1F
100
AcDbEntity
  8
0
  6
HIDDEN
 62
     7
370
     0
100
AcDbLine
 10
189.2078563901
 20
137.242003747
 30
0.0
 11
195.3536191905
 21
137.242003747
 31
0.0
  0
LINE
  5
1BC
330
1F
100
AcDbEntity
  8
0
  6
HIDDEN
 62
     7
370
     0
100
AcDbLine
 10
137.5807377903
 20
109.1722619327
 30
0.0
 11
137.5807377903
 21
117.6722619327
 31
0.0
  0
LINE
  5
1BD
330
1F
100
AcDbEntity
  8
0
  6
HIDDEN
 62
     7
370
     0
100
AcDbLine
 10
178.3807377903
 20
89.5358641298
 30
0.0
 11
178.3807377903
 21
88.9079676333
 31
0.0
  0
SPLINE
  5
1BE
330
1F
100
AcDbEntity
  8
0
  6
HIDDEN
 62
     7
370
     0
100
AcDbSpline
210
0.0
220
0.0
230
1.0
 70
     8
 71
     3
 72
    10
 73
     6
 74
     0
 42
0.00000001
 43
0.00000001
 40
0.0
 40
0.0
 40
0.0
 40
0.0
 40
0.5
 40
0.5
 40
1.0
 40
1.0
 40
1.0
 40
1.0
 10
178.380737790288
 20
88.90796763329982
 30
0.0
 10
178.3807377902881
 20
88.8287807660969
 30
0.0
 10
178.413962506613
 20
88.75014529910585
 30
0.0
 10
178.5266550172603
 20
88.6424282478718
 30
0.0
 10
178.6027054819891
 20
88.61381040242999
 30
0.0
 10
178.680737790288
 20
88.61569778129846
 30
0.0
  0
SPLINE
  5
1BF
330
1F
100
AcDbEntity
  8
0
  6
HIDDEN
 62
     7
370
     0
100
AcDbSpline
210
0.0
220
0.0
230
1.0
 70
     8
 71
     3
 72
    10
 73
     6
 74
     0
 42
0.00000001
 43
0.00000001
 40
0.0
 40
0.0
 40
0.0
 40
0.0
 40
0.5
 40
0.5
 40
1.0
 40
1.0
 40
1.0
 40
1.0
 10
178.6807377902881
 20
88.61569778129895
 30
0.0
 10
178.8950657173706
 20
88.62088176225917
 30
0.0
 10
179.1115813509671
 20
88.62334191364658
 30
0.0
 10
179.5488683390749
 20
88.62246930853402
 30
0.0
 10
179.7688059562871
 20
88.61905737790154
 30
0.0
 10
179.9807377902881
 20
88.61307764547331
 30
0.0
  0
SPLINE
  5
1C0
330
1F
100
AcDbEntity
  8
0
  6
HIDDEN
 62
     7
370
     0
100
AcDbSpline
210
0.0
220
0.0
230
1.0
 70
     8
 71
     3
 72
    10
 73
     6
 74
     0
 42
0.00000001
 43
0.00000001
 40
0.0
 40
0.0
 40
0.0
 40
0.0
 40
0.5
 40
0.5
 40
1.0
 40
1.0
 40
1.0
 40
1.0
 10
179.9807377902881
 20
88.61307764547331
 30
0.0
 10
180.058470826813
 20
88.61088438007057
 30
0.0
 10
180.1343513884063
 20
88.63911482615329
 30
0.0
 10
180.246522734539
 20
88.74511540055747
 30
0.0
 10
180.2807377902881
 20
88.82407552370232
 30
0.0
 10
180.2807377902881
 20
88.90409264954177
 30
0.0
  0
LINE
  5
1C1
330
1F
100
AcDbEntity
  8
0
  6
HIDDEN
 62
     7
370
     0
100
AcDbLine
 10
180.2807377903
 20
88.9040926495
 30
0.0
 11
180.2807377903
 21
89.5318873019
 31
0.0
  0
LINE
  5
1C2
330
1F
100
AcDbEntity
  8
0
  6
HIDDEN
 62
     7
370
     0
100
AcDbLine
 10
178.3807377903
 20
88.9079676333
 30
0.0
 11
178.3807377903
 21
89.5358641298
 31
0.0
  0
LINE
  5
1C3
330
1F
100
AcDbEntity
  8
0
  6
HIDDEN
 62
     7
370
     0
100
AcDbLine
 10
180.2807377903
 20
89.5318873019
 30
0.0
 11
180.2807377903
 21
88.9040926495
 31
0.0
  0
SPLINE
  5
1C4
330
1F
100
AcDbEntity
  8
0
  6
HIDDEN
 62
     7
370
     0
100
AcDbSpline
210
0.0
220
0.0
230
1.0
 70
     8
 71
     3
 72
    10
 73
     6
 74
     0
 42
0.00000001
 43
0.00000001
 40
0.0
 40
0.0
 40
0.0
 40
0.0
 40
0.5
 40
0.5
 40
1.0
 40
1.0
 40
1.0
 40
1.0
 10
179.9807377902881
 20
88.61307764547331
 30
0.0
 10
179.7688090874569
 20
88.61905728955448
 30
0.0
 10
179.5534816298735
 20
88.62241892768185
 30
0.0
 10
179.1162112164296
 20
88.62337298853515
 30
0.0
 10
178.8950677146569
 20
88.62088181056782
 30
0.0
 10
178.6807377902881
 20
88.61569778129895
 30
0.0
  0
LWPOLYLINE
  5
1C5
330
1F
100
AcDbEntity
  8
0
  6
HIDDEN
 62
     7
370
     0
100
AcDbPolyline
 90
        2
 70
   128
 43
0.0
 10
114.2307377903
 20
69.5222619327
 10
114.2307377903
 20
69.5222619327
  0
LINE
  5
1C6
330
1F
100
AcDbEntity
  8
0
  6
HIDDEN
 62
     7
370
     0
100
AcDbLine
 10
195.3536191905
 20
137.242003747
 30
0.0
 11
189.2078563901
 21
137.242003747
 31
0.0
  0
LINE
  5
1C7
330
1F
100
AcDbEntity
  8
0
  6
HIDDEN
 62
     7
370
     0
100
AcDbLine
 10
114.2307377903
 20
63.4322629329
 30
0.0
 11
114.2307377903
 21
69.5222619327
 31
0.0
  0
LINE
  5
1C8
330
1F
100
AcDbEntity
  8
0
  6
HIDDEN
 62
     7
370
     0
100
AcDbLine
 10
114.2307377903
 20
69.5222619327
 30
0.0
 11
124.2307377903
 21
69.5222619327
 31
0.0
  0
SPLINE
  5
1C9
330
1F
100
AcDbEntity
  8
0
  6
HIDDEN
 62
     7
370
     0
100
AcDbSpline
210
0.0
220
0.0
230
1.0
 70
     8
 71
     3
 72
    10
 73
     6
 74
     0
 42
0.00000001
 43
0.00000001
 40
0.0
 40
0.0
 40
0.0
 40
0.0
 40
0.5
 40
0.5
 40
1.0
 40
1.0
 40
1.0
 40
1.0
 10
179.9807377902881
 20
123.7483931073037
 30
0.0
 10
179.7688090874569
 20
123.6918720568007
 30
0.0
 10
179.5534816298735
 20
123.6617260958337
 30
0.0
 10
179.1162112164296
 20
123.6530510445063
 30
0.0
 10
178.8950677146569
 20
123.6752782017475
 30
0.0
 10
178.6807377902881
 20
123.7237590527752
 30
0.0
  0
SPLINE
  5
1CA
330
1F
100
AcDbEntity
  8
0
  6
HIDDEN
 62
     7
370
     0
100
AcDbSpline
210
0.0
220
0.0
230
1.0
 70
     8
 71
     3
 72
    10
 73
     6
 74
     0
 42
0.00000001
 43
0.00000001
 40
0.0
 40
0.0
 40
0.0
 40
0.0
 40
0.5
 40
0.5
 40
1.0
 40
1.0
 40
1.0
 40
1.0
 10
180.2807377902881
 20
123.6970330910522
 30
0.0
 10
180.280737790288
 20
123.7368723767807
 30
0.0
 10
180.2469613786091
 20
123.7630993654521
 30
0.0
 10
180.1340189236287
 20
123.7782777868262
 30
0.0
 10
180.0583539246066
 20
123.769093207805
 30
0.0
 10
179.9807377902881
 20
123.7483931073039
 30
0.0
  0
LINE
  5
1CB
330
1F
100
AcDbEntity
  8
0
  6
HIDDEN
 62
     7
370
     0
100
AcDbLine
 10
180.2807377903
 20
88.9040926495
 30
0.0
 11
180.2807377903
 21
123.6970330911
 31
0.0
  0
LINE
  5
1CC
330
1F
100
AcDbEntity
  8
0
  6
HIDDEN
 62
     7
370
     0
100
AcDbLine
 10
178.3807377903
 20
88.9079676333
 30
0.0
 11
178.3807377903
 21
123.6595080948
 31
0.0
  0
SPLINE
  5
1CD
330
1F
100
AcDbEntity
  8
0
  6
HIDDEN
 62
     7
370
     0
100
AcDbSpline
210
0.0
220
0.0
230
1.0
 70
     8
 71
     3
 72
    10
 73
     6
 74
     0
 42
0.00000001
 43
0.00000001
 40
0.0
 40
0.0
 40
0.0
 40
0.0
 40
0.5
 40
0.5
 40
1.0
 40
1.0
 40
1.0
 40
1.0
 10
178.6807377902881
 20
123.7237590527752
 30
0.0
 10
178.6025996718066
 20
123.741433684504
 30
0.0
 10
178.5262545923334
 20
123.7472271039582
 30
0.0
 10
178.4144572485077
 20
123.7269962384198
 30
0.0
 10
178.3807377902881
 20
123.6992747077473
 30
0.0
 10
178.3807377902881
 20
123.6595080948003
 30
0.0
  0
LINE
  5
1CE
330
1F
100
AcDbEntity
  8
0
  6
HIDDEN
 62
     7
370
     0
100
AcDbLine
 10
69.4807377903
 20
140.7922619327
 30
0.0
 11
69.4807377903
 21
138.6507755632
 31
0.0
  0
LINE
  5
1CF
330
1F
100
AcDbEntity
  8
0
  6
HIDDEN
 62
     7
370
     0
100
AcDbLine
 10
74.4807377903
 20
86.0522619327
 30
0.0
 11
74.4807377903
 21
88.1937483023
 31
0.0
  0
LINE
  5
1D0
330
1F
100
AcDbEntity
  8
0
  6
HIDDEN
 62
     7
370
     0
100
AcDbLine
 10
69.4807377903
 20
140.7922619327
 30
0.0
 11
69.4807377903
 21
147.1668706697
 31
0.0
  0
LINE
  5
1D1
330
1F
100
AcDbEntity
  8
0
  6
HIDDEN
 62
     7
370
     0
100
AcDbLine
 10
74.4807377903
 20
86.0522619327
 30
0.0
 11
74.4807377903
 21
79.5529286674
 31
0.0
  0
LWPOLYLINE
  5
1D2
330
1F
100
AcDbEntity
  8
0
  6
HIDDEN
 62
     7
370
     0
100
AcDbPolyline
 90
       30
 70
   128
 43
0.0
 10
118.2807377903
 20
158.7349677845
 10
119.3555899913
 20
158.6988445565
 10
120.3801832981
 20
158.5921639544
 10
121.3066088663
 20
158.4199142447
 10
122.0915480659
 20
158.1901496323
 10
122.6982980125
 20
157.9136136551
 10
123.0984877529
 20
157.6032368281
 10
123.2734048595
 20
157.2735320267
 10
123.214870403
 20
156.9399158811
 10
122.9256213894
 20
156.6179879113
 10
122.4191827811
 20
156.3228011115
 10
121.7192350846
 20
156.0681580884
 10
120.8585070762
 20
155.8659656667
 10
119.877245441
 20
155.7256781393
 10
118.8213328824
 20
155.6538551951
 10
117.7401426982
 20
155.6538551951
 10
116.6842301396
 20
155.7256781393
 10
115.7029685044
 20
155.8659656667
 10
114.842240496
 20
156.0681580884
 10
114.1422927995
 20
156.3228011115
 10
113.6358541912
 20
156.6179879113
 10
113.3466051776
 20
156.9399158811
 10
113.288070721
 20
157.2735320267
 10
113.4629878277
 20
157.6032368281
 10
113.8631775681
 20
157.9136136551
 10
114.4699275146
 20
158.1901496323
 10
115.2548667143
 20
158.4199142447
 10
116.1812922825
 20
158.5921639544
 10
117.2058855892
 20
158.6988445565
 10
118.2807377903
 20
158.7349677845
  0
LINE
  5
1D3
330
1F
100
AcDbEntity
  8
0
  6
HIDDEN
 62
     7
370
     0
100
AcDbLine
 10
132.5427668112
 20
162.4120567884
 30
0.0
 11
132.5427668112
 21
64.6472683397
 31
0.0
  0
SPLINE
  5
1D4
330
1F
100
AcDbEntity
  8
0
  6
HIDDEN
 62
     7
370
     0
100
AcDbSpline
210
0.0
220
0.0
230
1.0
 70
     8
 71
     3
 72
    14
 73
    10
 74
     0
 42
0.00000001
 43
0.00000001
 40
0.0
 40
0.0
 40
0.0
 40
0.0
 40
0.25
 40
0.25
 40
0.5
 40
0.5
 40
0.75
 40
0.75
 40
1.0
 40
1.0
 40
1.0
 40
1.0
 10
137.2307377902881
 20
162.4120567884125
 30
0.0
 10
137.3627745281067
 20
162.4120567884124
 30
0.0
 10
137.4971748185468
 20
162.384250340964
 30
0.0
 10
137.7392632441463
 20
162.2803913315
 30
0.0
 10
137.8506817010243
 20
162.2032003229275
 30
0.0
 10
138.0336921905643
 20
162.0140532452146
 30
0.0
 10
138.10711843681
 20
161.9003490255119
 30
0.0
 10
138.2052591771678
 20
161.6555502584765
 30
0.0
 10
138.2307377902881
 20
161.5234214445468
 30
0.0
 10
138.2307377902881
 20
161.3910017535947
 30
0.0
  0
SPLINE
  5
1D5
330
1F
100
AcDbEntity
  8
0
  6
HIDDEN
 62
     7
370
     0
100
AcDbSpline
210
0.0
220
0.0
230
1.0
 70
     8
 71
     3
 72
    14
 73
    10
 74
     0
 42
0.00000001
 43
0.00000001
 40
0.0
 40
0.0
 40
0.0
 40
0.0
 40
0.25
 40
0.25
 40
0.5
 40
0.5
 40
0.75
 40
0.75
 40
1.0
 40
1.0
 40
1.0
 40
1.0
 10
137.2307377902881
 20
64.64726833972007
 30
0.0
 10
137.3642994097775
 20
64.64726833972007
 30
0.0
 10
137.4960364303148
 20
64.67473431632254
 30
0.0
 10
137.7400537896283
 20
64.77982787308922
 30
0.0
 10
137.8510804349713
 20
64.8573252957748
 30
0.0
 10
138.0343024074309
 20
65.04780890911094
 30
0.0
 10
138.1075939602031
 20
65.16220995878646
 30
0.0
 10
138.2052908208609
 20
65.40747185724932
 30
0.0
 10
138.2307377902882
 20
65.5407310520681
 30
0.0
 10
138.2307377902881
 20
65.67291638749644
 30
0.0
  0
LINE
  5
1D6
330
1F
100
AcDbEntity
  8
0
  6
HIDDEN
 62
     7
370
     0
100
AcDbLine
 10
138.2307377903
 20
161.3910017536
 30
0.0
 11
138.2307377903
 21
65.6729163875
 31
0.0
  0
SPLINE
  5
1D7
330
1F
100
AcDbEntity
  8
0
  6
HIDDEN
 62
     7
370
     0
100
AcDbSpline
210
0.0
220
0.0
230
1.0
 70
     8
 71
     3
 72
     8
 73
     4
 74
     0
 42
0.00000001
 43
0.00000001
 40
0.0
 40
0.0
 40
0.0
 40
0.0
 40
1.0
 40
1.0
 40
1.0
 40
1.0
 10
126.0187087693667
 20
162.4120567884124
 30
0.0
 10
126.4697357380799
 20
161.6147462182246
 30
0.0
 10
126.9204295546035
 20
160.8172479185674
 30
0.0
 10
127.3707377902881
 20
160.0195327934538
 30
0.0
  0
LINE
  5
1D8
330
1F
100
AcDbEntity
  8
0
  6
HIDDEN
 62
     7
370
     0
100
AcDbLine
 10
127.3707377903
 20
160.0195327935
 30
0.0
 11
127.3707377903
 21
159.1158131736
 31
0.0
  0
SPLINE
  5
1D9
330
1F
100
AcDbEntity
  8
0
  6
HIDDEN
 62
     7
370
     0
100
AcDbSpline
210
0.0
220
0.0
230
1.0
 70
     8
 71
     3
 72
    14
 73
    10
 74
     0
 42
0.00000001
 43
0.00000001
 40
0.0
 40
0.0
 40
0.0
 40
0.0
 40
0.25
 40
0.25
 40
0.5
 40
0.5
 40
0.75
 40
0.75
 40
1.0
 40
1.0
 40
1.0
 40
1.0
 10
127.370737790288
 20
159.1158131735968
 30
0.0
 10
127.370737790288
 20
159.0094564798445
 30
0.0
 10
127.3911253464293
 20
158.9036159920844
 30
0.0
 10
127.4697596918909
 20
158.7070510785479
 30
0.0
 10
127.5284910515295
 20
158.6158803362607
 30
0.0
 10
127.6750999571321
 20
158.4639692472291
 30
0.0
 10
127.7645052771587
 20
158.4019004104095
 30
0.0
 10
127.9583960097591
 20
158.3186323626508
 30
0.0
 10
128.064900999649
 20
158.2965376929212
 30
0.0
 10
128.1707377902883
 20
158.2965376929213
 30
0.0
  0
LINE
  5
1DA
330
1F
100
AcDbEntity
  8
0
  6
HIDDEN
 62
     7
370
     0
100
AcDbLine
 10
128.1707377903
 20
158.2965376929
 30
0.0
 11
130.3907377903
 21
158.2965376929
 31
0.0
  0
SPLINE
  5
1DB
330
1F
100
AcDbEntity
  8
0
  6
HIDDEN
 62
     7
370
     0
100
AcDbSpline
210
0.0
220
0.0
230
1.0
 70
     8
 71
     3
 72
    10
 73
     6
 74
     0
 42
0.00000001
 43
0.00000001
 40
0.0
 40
0.0
 40
0.0
 40
0.0
 40
0.5
 40
0.5
 40
1.0
 40
1.0
 40
1.0
 40
1.0
 10
130.3907377902881
 20
158.2965376929213
 30
0.0
 10
130.6032741041444
 20
158.2965376929213
 30
0.0
 10
130.8132102757984
 20
158.3879502795515
 30
0.0
 10
131.1069174168097
 20
158.6926951454557
 30
0.0
 10
131.1907377902881
 20
158.9048501153643
 30
0.0
 10
131.1907377902881
 20
159.1158131735968
 30
0.0
  0
LINE
  5
1DC
330
1F
100
AcDbEntity
  8
0
  6
HIDDEN
 62
     7
370
     0
100
AcDbLine
 10
131.1907377903
 20
159.1158131736
 30
0.0
 11
131.1907377903
 21
160.0195327935
 31
0.0
  0
LINE
  5
1DD
330
1F
100
AcDbEntity
  8
0
  6
HIDDEN
 62
     7
370
     0
100
AcDbLine
 10
132.5427668112
 20
162.4120567884
 30
0.0
 11
137.2307377903
 21
162.4120567884
 31
0.0
  0
SPLINE
  5
1DE
330
1F
100
AcDbEntity
  8
0
  6
HIDDEN
 62
     7
370
     0
100
AcDbSpline
210
0.0
220
0.0
230
1.0
 70
     8
 71
     3
 72
     8
 73
     4
 74
     0
 42
0.00000001
 43
0.00000001
 40
0.0
 40
0.0
 40
0.0
 40
0.0
 40
1.0
 40
1.0
 40
1.0
 40
1.0
 10
131.1907377902881
 20
160.0195327934537
 30
0.0
 10
131.6410460259726
 20
160.8172479185674
 30
0.0
 10
132.0917398424962
 20
161.6147462182246
 30
0.0
 10
132.5427668112095
 20
162.4120567884124
 30
0.0
  0
LINE
  5
1DF
330
1F
100
AcDbEntity
  8
0
  6
HIDDEN
 62
     7
370
     0
100
AcDbLine
 10
124.2307377903
 20
157.3222619327
 30
0.0
 11
138.2307377903
 21
157.3222619327
 31
0.0
  0
LINE
  5
1E0
330
1F
100
AcDbEntity
  8
0
  6
HIDDEN
 62
     7
370
     0
100
AcDbLine
 10
138.2307377903
 20
161.3910017536
 30
0.0
 11
138.2307377903
 21
157.3222619327
 31
0.0
  0
SPLINE
  5
1E1
330
1F
100
AcDbEntity
  8
0
  6
HIDDEN
 62
     7
370
     0
100
AcDbSpline
210
0.0
220
0.0
230
1.0
 70
     8
 71
     3
 72
    14
 73
    10
 74
     0
 42
0.00000001
 43
0.00000001
 40
0.0
 40
0.0
 40
0.0
 40
0.0
 40
0.25
 40
0.25
 40
0.5
 40
0.5
 40
0.75
 40
0.75
 40
1.0
 40
1.0
 40
1.0
 40
1.0
 10
127.3707377902881
 20
67.95908315035396
 30
0.0
 10
127.370737790288
 20
68.06612723134836
 30
0.0
 10
127.3908554774463
 20
68.1713623715908
 30
0.0
 10
127.4693466667118
 20
68.36921285843849
 30
0.0
 10
127.5275032915131
 20
68.46026462200341
 30
0.0
 10
127.6740185471311
 20
68.61343071592817
 30
0.0
 10
127.7626610957722
 20
68.6757251621376
 30
0.0
 10
127.9583844185725
 20
68.76051894767359
 30
0.0
 10
128.0636156096435
 20
68.7825864746992
 30
0.0
 10
128.1707377902881
 20
68.78258647469922
 30
0.0
  0
LINE
  5
1E2
330
1F
100
AcDbEntity
  8
0
  6
HIDDEN
 62
     7
370
     0
100
AcDbLine
 10
127.3707377903
 20
159.1158131736
 30
0.0
 11
127.3707377903
 21
67.9590831504
 31
0.0
  0
LINE
  5
1E3
330
1F
100
AcDbEntity
  8
0
  6
HIDDEN
 62
     7
370
     0
100
AcDbLine
 10
131.1907377903
 20
160.0195327935
 30
0.0
 11
131.1907377903
 21
67.0508736457
 31
0.0
  0
LINE
  5
1E4
330
1F
100
AcDbEntity
  8
0
  6
HIDDEN
 62
     7
370
     0
100
AcDbLine
 10
127.3707377903
 20
160.0195327935
 30
0.0
 11
127.3707377903
 21
67.0508736457
 31
0.0
  0
SPLINE
  5
1E5
330
1F
100
AcDbEntity
  8
0
  6
HIDDEN
 62
     7
370
     0
100
AcDbSpline
210
0.0
220
0.0
230
1.0
 70
     8
 71
     3
 72
    12
 73
     8
 74
     0
 42
0.00000001
 43
0.00000001
 40
0.0
 40
0.0
 40
0.0
 40
0.0
 40
0.2499999999999986
 40
0.2499999999999986
 40
0.4999999999999971
 40
0.4999999999999971
 40
1.0
 40
1.0
 40
1.0
 40
1.0
 10
130.3907377902881
 20
68.78258647469922
 30
0.0
 10
130.496498443637
 20
68.78258647469922
 30
0.0
 10
130.60448607182
 20
68.7600469686988
 30
0.0
 10
130.7990807370856
 20
68.67547633670348
 30
0.0
 10
130.8879526499244
 20
68.61299468394466
 30
0.0
 10
131.1071449422503
 20
68.38360573247246
 30
0.0
 10
131.1907377902882
 20
68.17102239495004
 30
0.0
 10
131.1907377902881
 20
67.95908315035382
 30
0.0
  0
LINE
  5
1E6
330
1F
100
AcDbEntity
  8
0
  6
HIDDEN
 62
     7
370
     0
100
AcDbLine
 10
131.1907377903
 20
159.1158131736
 30
0.0
 11
131.1907377903
 21
67.9590831504
 31
0.0
  0
LINE
  5
1E7
330
1F
100
AcDbEntity
  8
0
  6
HIDDEN
 62
     7
370
     0
100
AcDbLine
 10
61.0307377903
 20
86.0522619327
 30
0.0
 11
61.0307377903
 21
88.885556775
 31
0.0
  0
SPLINE
  5
1E8
330
1F
100
AcDbEntity
  8
0
  6
HIDDEN
 62
     7
370
     0
100
AcDbSpline
210
0.0
220
0.0
230
1.0
 70
     8
 71
     3
 72
    14
 73
    10
 74
     0
 42
0.00000001
 43
0.00000001
 40
0.0
 40
0.0
 40
0.0
 40
0.0
 40
0.25
 40
0.25
 40
0.5
 40
0.5
 40
0.75
 40
0.75
 40
1.0
 40
1.0
 40
1.0
 40
1.0
 10
59.38073779028807
 20
82.91959219018094
 30
0.0
 10
59.38073779028809
 20
82.87834525915659
 30
0.0
 10
59.38934750666932
 20
82.8414382868741
 30
0.0
 10
59.42043368623967
 20
82.78053822697468
 30
0.0
 10
59.44282323972373
 20
82.756357307435
 30
0.0
 10
59.49756717089985
 20
82.72238971655175
 30
0.0
 10
59.53001741048504
 20
82.71246963258355
 30
0.0
 10
59.60001892521311
 20
82.71111842367871
 30
0.0
 10
59.63822942533564
 20
82.71927670037486
 30
0.0
 10
59.67155202200873
 20
82.74377878004296
 30
0.0
  0
LINE
  5
1E9
330
1F
100
AcDbEntity
  8
0
  6
HIDDEN
 62
     7
370
     0
100
AcDbLine
 10
59.3807377903
 20
86.0522619327
 30
0.0
 11
59.3807377903
 21
82.9195921902
 31
0.0
  0
LINE
  5
1EA
330
1F
100
AcDbEntity
  8
0
  6
HIDDEN
 62
     7
370
     0
100
AcDbLine
 10
61.0307377903
 20
86.0522619327
 30
0.0
 11
61.0307377903
 21
81.1739767309
 31
0.0
  0
SPLINE
  5
1EB
330
1F
100
AcDbEntity
  8
0
  6
HIDDEN
 62
     7
370
     0
100
AcDbSpline
210
0.0
220
0.0
230
1.0
 70
     8
 71
     3
 72
    10
 73
     6
 74
     0
 42
0.00000001
 43
0.00000001
 40
0.0
 40
0.0
 40
0.0
 40
0.0
 40
0.5
 40
0.5
 40
1.0
 40
1.0
 40
1.0
 40
1.0
 10
60.35729003198957
 20
82.09939583227246
 30
0.0
 10
60.44454045112276
 20
81.92732521141966
 30
0.0
 10
60.5548154265185
 20
81.75925613835678
 30
0.0
 10
60.78439940147545
 20
81.44868584566784
 30
0.0
 10
60.90584951953565
 20
81.30497300900291
 30
0.0
 10
61.03073779028558
 20
81.17397673093147
 30
0.0
  0
SPLINE
  5
1EC
330
1F
100
AcDbEntity
  8
0
  6
HIDDEN
 62
     7
370
     0
100
AcDbSpline
210
0.0
220
0.0
230
1.0
 70
     8
 71
     3
 72
    10
 73
     6
 74
     0
 42
0.00000001
 43
0.00000001
 40
0.0
 40
0.0
 40
0.0
 40
0.0
 40
0.4999999999999989
 40
0.4999999999999989
 40
1.0
 40
1.0
 40
1.0
 40
1.0
 10
61.03073779028809
 20
145.6705471345688
 30
0.0
 10
60.90584951953787
 20
145.5395508564974
 30
0.0
 10
60.78439940147744
 20
145.3958380198324
 30
0.0
 10
60.55481542652
 20
145.0852677271431
 30
0.0
 10
60.44454045112402
 20
144.9171986540801
 30
0.0
 10
60.3572900319905
 20
144.745128033227
 30
0.0
  0
LINE
  5
1ED
330
1F
100
AcDbEntity
  8
0
  6
HIDDEN
 62
     7
370
     0
100
AcDbLine
 10
61.0307377903
 20
140.7922619327
 30
0.0
 11
61.0307377903
 21
145.6705471346
 31
0.0
  0
LINE
  5
1EE
330
1F
100
AcDbEntity
  8
0
  6
HIDDEN
 62
     7
370
     0
100
AcDbLine
 10
59.3807377903
 20
140.7922619327
 30
0.0
 11
59.3807377903
 21
143.9249316753
 31
0.0
  0
SPLINE
  5
1EF
330
1F
100
AcDbEntity
  8
0
  6
HIDDEN
 62
     7
370
     0
100
AcDbSpline
210
0.0
220
0.0
230
1.0
 70
     8
 71
     3
 72
    12
 73
     8
 74
     0
 42
0.00000001
 43
0.00000001
 40
0.0
 40
0.0
 40
0.0
 40
0.0
 40
0.2499999999999983
 40
0.2499999999999983
 40
0.4999999999999991
 40
0.4999999999999991
 40
1.0
 40
1.0
 40
1.0
 40
1.0
 10
59.67155202200783
 20
144.1007450854538
 30
0.0
 10
59.63805062267094
 20
144.1253786385831
 30
0.0
 10
59.59995975470722
 20
144.1333967997467
 30
0.0
 10
59.53015934399057
 20
144.1320644636372
 30
0.0
 10
59.49770674410791
 20
144.1221987982353
 30
0.0
 10
59.41543323339071
 20
144.0712153708922
 30
0.0
 10
59.38073779028807
 20
144.0071462237194
 30
0.0
 10
59.38073779028807
 20
143.9249316753167
 30
0.0
  0
SPLINE
  5
1F0
330
1F
100
AcDbEntity
  8
0
  6
HIDDEN
 62
     7
370
     0
100
AcDbSpline
210
0.0
220
0.0
230
1.0
 70
     8
 71
     3
 72
     8
 73
     4
 74
     0
 42
0.00000001
 43
0.00000001
 40
0.0
 40
0.0
 40
0.0
 40
0.0
 40
1.0
 40
1.0
 40
1.0
 40
1.0
 10
61.28066290625381
 20
145.6680941013134
 30
0.0
 10
61.19364487640545
 20
145.6685606661005
 30
0.0
 10
61.11069085002552
 20
145.6696006856767
 30
0.0
 10
61.03073779028577
 20
145.6705471345689
 30
0.0
  0
LINE
  5
1F1
330
1F
100
AcDbEntity
  8
0
  6
HIDDEN
 62
     7
370
     0
100
AcDbLine
 10
61.0307377903
 20
140.7922619327
 30
0.0
 11
61.0307377903
 21
137.9589670905
 31
0.0
  0
ELLIPSE
  5
1F2
330
1F
100
AcDbEntity
  8
0
  6
HIDDEN
 62
     7
370
     0
100
AcDbEllipse
 10
53.09606459
 20
113.4222619327
 30
0.0
 11
31.08108570811662
 21
2.842170943040401E-14
 31
0.0
210
0.0
220
0.0
230
1.0
 40
0.8164965809
 41
1.31264926821481
 42
1.367189972061495
  0
LINE
  5
1F3
330
1F
100
AcDbEntity
  8
0
  6
HIDDEN
 62
     7
370
     0
100
AcDbLine
 10
59.3807377903
 20
140.7922619327
 30
0.0
 11
59.3807377903
 21
138.2756556857
 31
0.0
  0
ELLIPSE
  5
1F4
330
1F
100
AcDbEntity
  8
0
  6
HIDDEN
 62
     7
370
     0
100
AcDbEllipse
 10
53.09606459
 20
113.4222619327
 30
0.0
 11
31.08108570811662
 21
-2.842170943040401E-14
 31
0.0
210
0.0
220
0.0
230
1.0
 40
0.8164965809
 41
4.915995335118103
 42
4.970536038964788
  0
LINE
  5
1F5
330
1F
100
AcDbEntity
  8
0
  6
HIDDEN
 62
     7
370
     0
100
AcDbLine
 10
59.3807377903
 20
86.0522619327
 30
0.0
 11
59.3807377903
 21
88.5688681798
 31
0.0
  0
SPLINE
  5
1F6
330
1F
100
AcDbEntity
  8
0
  6
HIDDEN
 62
     7
370
     0
100
AcDbSpline
210
0.0
220
0.0
230
1.0
 70
     8
 71
     3
 72
     8
 73
     4
 74
     0
 42
0.00000001
 43
0.00000001
 40
0.0
 40
0.0
 40
0.0
 40
0.0
 40
1.0
 40
1.0
 40
1.0
 40
1.0
 10
61.0307377902877
 20
81.1739767309288
 30
0.0
 10
61.11069085002737
 20
81.17492317982105
 30
0.0
 10
61.19364487640723
 20
81.17596319939719
 30
0.0
 10
61.2806629062555
 20
81.17642976418423
 30
0.0
  0
LINE
  5
1F7
330
1F
100
AcDbEntity
  8
0
  6
HIDDEN
 62
     7
370
     0
100
AcDbLine
 10
59.3807377903
 20
138.2756556857
 30
0.0
 11
59.3807377903
 21
88.5688681798
 31
0.0
  0
LINE
  5
1F8
330
1F
100
AcDbEntity
  8
0
  6
HIDDEN
 62
     7
370
     0
100
AcDbLine
 10
128.1707377903
 20
68.7825864747
 30
0.0
 11
130.3907377903
 21
68.7825864747
 31
0.0
  0
SPLINE
  5
1F9
330
1F
100
AcDbEntity
  8
0
  6
HIDDEN
 62
     7
370
     0
100
AcDbSpline
210
0.0
220
0.0
230
1.0
 70
     8
 71
     3
 72
     8
 73
     4
 74
     0
 42
0.00000001
 43
0.00000001
 40
0.0
 40
0.0
 40
0.0
 40
0.0
 40
1.0
 40
1.0
 40
1.0
 40
1.0
 10
126.0187087693667
 20
64.64726833972004
 30
0.0
 10
126.4698134987669
 20
65.44822827153996
 30
0.0
 10
126.9205113260103
 20
66.24941828310061
 30
0.0
 10
127.3707377902881
 20
67.05087364572537
 30
0.0
  0
LINE
  5
1FA
330
1F
100
AcDbEntity
  8
0
  6
HIDDEN
 62
     7
370
     0
100
AcDbLine
 10
131.1907377903
 20
67.9590831504
 30
0.0
 11
131.1907377903
 21
67.0508736457
 31
0.0
  0
LINE
  5
1FB
330
1F
100
AcDbEntity
  8
0
  6
HIDDEN
 62
     7
370
     0
100
AcDbLine
 10
127.3707377903
 20
67.0508736457
 30
0.0
 11
127.3707377903
 21
67.9590831504
 31
0.0
  0
LINE
  5
1FC
330
1F
100
AcDbEntity
  8
0
  6
HIDDEN
 62
     7
370
     0
100
AcDbLine
 10
132.5427668112
 20
64.6472683397
 30
0.0
 11
137.2307377903
 21
64.6472683397
 31
0.0
  0
SPLINE
  5
1FD
330
1F
100
AcDbEntity
  8
0
  6
HIDDEN
 62
     7
370
     0
100
AcDbSpline
210
0.0
220
0.0
230
1.0
 70
     8
 71
     3
 72
     8
 73
     4
 74
     0
 42
0.00000001
 43
0.00000001
 40
0.0
 40
0.0
 40
0.0
 40
0.0
 40
1.0
 40
1.0
 40
1.0
 40
1.0
 10
131.1907377902881
 20
67.0508736457254
 30
0.0
 10
131.6409642545659
 20
66.24941828310062
 30
0.0
 10
132.0916620818093
 20
65.44822827153996
 30
0.0
 10
132.5427668112095
 20
64.64726833972006
 30
0.0
  0
LINE
  5
1FE
330
1F
100
AcDbEntity
  8
0
  6
HIDDEN
 62
     7
370
     0
100
AcDbLine
 10
124.2307377903
 20
69.5222619327
 30
0.0
 11
138.2307377903
 21
69.5222619327
 31
0.0
  0
LINE
  5
1FF
330
1F
100
AcDbEntity
  8
0
  6
HIDDEN
 62
     7
370
     0
100
AcDbLine
 10
138.2307377903
 20
65.6729163875
 30
0.0
 11
138.2307377903
 21
69.5222619327
 31
0.0
  0
SPLINE
  5
200
330
1F
100
AcDbEntity
  8
0
  6
HIDDEN
 62
     7
370
     0
100
AcDbSpline
210
0.0
220
0.0
230
1.0
 70
     8
 71
     3
 72
    20
 73
    16
 74
     0
 42
0.00000001
 43
0.00000001
 40
0.0
 40
0.0
 40
0.0
 40
0.0
 40
0.2499999999999887
 40
0.2499999999999887
 40
0.374999999999986
 40
0.374999999999986
 40
0.4374999999999881
 40
0.4374999999999881
 40
0.4999999999999901
 40
0.4999999999999901
 40
0.6249999999999891
 40
0.6249999999999891
 40
0.7499999999999881
 40
0.7499999999999881
 40
1.0
 40
1.0
 40
1.0
 40
1.0
 10
59.67155202200408
 20
82.74377878004816
 30
0.0
 10
59.69782423921752
 20
82.76309672113062
 30
0.0
 10
59.72850438147231
 20
82.77748543223237
 30
0.0
 10
59.79997525185426
 20
82.77058107039636
 30
0.0
 10
59.82800228889859
 20
82.76341506704794
 30
0.0
 10
59.88308587839614
 20
82.73371604034435
 30
0.0
 10
59.90397720694854
 20
82.72024239778303
 30
0.0
 10
59.94918585439399
 20
82.68504413226701
 30
0.0
 10
59.97359006678957
 20
82.66313590353975
 30
0.0
 10
60.04492238484102
 20
82.59101104354421
 30
0.0
 10
60.08681916966127
 20
82.53867050259414
 30
0.0
 10
60.15839512851713
 20
82.44118711069339
 30
0.0
 10
60.18922311833447
 20
82.39443334081497
 30
0.0
 10
60.27232305117005
 20
82.26114012497587
 30
0.0
 10
60.31717795654035
 20
82.17850272706067
 30
0.0
 10
60.35729003199289
 20
82.09939583226988
 30
0.0
  0
SPLINE
  5
201
330
1F
100
AcDbEntity
  8
0
  6
HIDDEN
 62
     7
370
     0
100
AcDbSpline
210
0.0
220
0.0
230
1.0
 70
     8
 71
     3
 72
    20
 73
    16
 74
     0
 42
0.00000001
 43
0.00000001
 40
0.0
 40
0.0
 40
0.0
 40
0.0
 40
0.2499999999999868
 40
0.2499999999999868
 40
0.3749999999999822
 40
0.3749999999999822
 40
0.4999999999999776
 40
0.4999999999999776
 40
0.5624999999999778
 40
0.5624999999999778
 40
0.624999999999978
 40
0.624999999999978
 40
0.7499999999999855
 40
0.7499999999999855
 40
1.0
 40
1.0
 40
1.0
 40
1.0
 10
60.35729003199047
 20
144.745128033227
 30
0.0
 10
60.31729381416665
 20
144.6662496266696
 30
0.0
 10
60.27218018632899
 20
144.5831199799781
 30
0.0
 10
60.18892597196249
 20
144.4496313156271
 30
0.0
 10
60.15870664334196
 20
144.4037662597451
 30
0.0
 10
60.08661840820051
 20
144.3055747073402
 30
0.0
 10
60.04470109078947
 20
144.2532648878166
 30
0.0
 10
59.97345048623801
 20
144.1812589850821
 30
0.0
 10
59.94921467385868
 20
144.1594887727806
 30
0.0
 10
59.90361648367404
 20
144.1240141144516
 30
0.0
 10
59.88281399407432
 20
144.110643930274
 30
0.0
 10
59.82787299565523
 20
144.0810740181388
 30
0.0
 10
59.79980400756842
 20
144.0739474958368
 30
0.0
 10
59.72930117750555
 20
144.0670731243542
 30
0.0
 10
59.69787708971472
 20
144.0813882834413
 30
0.0
 10
59.67155202200611
 20
144.1007450854519
 30
0.0
  0
LINE
  5
202
330
1F
100
AcDbEntity
  8
0
  6
HIDDEN
 62
     7
370
     0
100
AcDbLine
 10
59.3807377903
 20
143.9249316753
 30
0.0
 11
59.3807377903
 21
82.9195921902
 31
0.0
  0
ARC
  5
203
330
1F
100
AcDbEntity
  8
0
  6
HIDDEN
 62
     7
370
     0
100
AcDbCircle
 10
192.2807377903
 20
102.5166588666
 30
0.0
 40
4.692869618820474
100
AcDbArc
 50
229.0956688647
 51
310.9043311353
  0
LWPOLYLINE
  5
204
330
1F
100
AcDbEntity
  8
0
  6
HIDDEN
 62
     7
370
     0
100
AcDbPolyline
 90
       14
 70
   128
 43
0.0
 10
187.7307377903
 20
101.4222619327
 10
187.862952521
 20
102.3652651066
 10
188.2519128736
 20
103.2534643636
 10
188.8750138861
 20
104.0352407915
 10
189.6960431927
 20
104.6651603859
 10
190.6672855542
 20
105.1066145097
 10
191.7322958951
 20
105.3339474538
 10
192.8291796854
 20
105.3339474538
 10
193.8941900263
 20
105.1066145097
 10
194.8654323879
 20
104.6651603859
 10
195.6864616945
 20
104.0352407915
 10
196.309562707
 20
103.2534643636
 10
196.6985230596
 20
102.3652651066
 10
196.8307377903
 20
101.4222619327
  0
LWPOLYLINE
  5
205
330
1F
100
AcDbEntity
  8
0
  6
HIDDEN
 62
     7
370
     0
100
AcDbPolyline
 90
       14
 70
   128
 43
0.0
 10
196.8307377903
 20
101.4222619327
 10
196.6985230596
 20
100.4792587589
 10
196.309562707
 20
99.5910595019
 10
195.6864616945
 20
98.809283074
 10
194.8654323879
 20
98.1793634796
 10
193.8941900263
 20
97.7379093558
 10
192.8291796854
 20
97.5105764117
 10
191.7322958951
 20
97.5105764117
 10
190.6672855542
 20
97.7379093558
 10
189.6960431927
 20
98.1793634796
 10
188.8750138861
 20
98.809283074
 10
188.2519128736
 20
99.5910595019
 10
187.862952521
 20
100.4792587589
 10
187.7307377903
 20
101.4222619327
  0
LINE
  5
206
330
1F
100
AcDbEntity
  8
0
  6
HIDDEN
 62
     7
370
     0
100
AcDbLine
 10
178.3807377903
 20
123.6595080948
 30
0.0
 11
178.3807377903
 21
123.3455598465
 31
0.0
  0
LINE
  5
207
330
1F
100
AcDbEntity
  8
0
  6
HIDDEN
 62
     7
370
     0
100
AcDbLine
 10
180.2807377903
 20
123.3831357649
 30
0.0
 11
180.2807377903
 21
123.6970330911
 31
0.0
  0
LINE
  5
208
330
1F
100
AcDbEntity
  8
0
  6
HIDDEN
 62
     7
370
     0
100
AcDbLine
 10
178.3807377903
 20
127.3853618219
 30
0.0
 11
178.3807377903
 21
127.6993100701
 31
0.0
  0
LINE
  5
209
330
1F
100
AcDbEntity
  8
0
  6
HIDDEN
 62
     7
370
     0
100
AcDbLine
 10
180.2807377903
 20
127.6656600577
 30
0.0
 11
180.2807377903
 21
127.3517627314
 31
0.0
  0
LWPOLYLINE
  5
20A
330
1F
100
AcDbEntity
  8
0
  6
HIDDEN
 62
     7
370
     0
100
AcDbPolyline
 90
        2
 70
   128
 43
0.0
 10
232.6807377903
 20
100.8972619327
 10
232.6807377903
 20
100.8972619327
  0
LWPOLYLINE
  5
20B
330
1F
100
AcDbEntity
  8
0
  6
HIDDEN
 62
     7
370
     0
100
AcDbPolyline
 90
        2
 70
   128
 43
0.0
 10
238.0807377903
 20
100.8972619327
 10
238.0807377903
 20
100.8972619327
  0
LWPOLYLINE
  5
20C
330
1F
100
AcDbEntity
  8
0
  6
HIDDEN
 62
     7
370
     0
100
AcDbPolyline
 90
        2
 70
   128
 43
0.0
 10
239.2807377903
 20
99.6972619327
 10
239.2807377903
 20
99.6972619327
  0
LWPOLYLINE
  5
20D
330
1F
100
AcDbEntity
  8
0
  6
HIDDEN
 62
     7
370
     0
100
AcDbPolyline
 90
        2
 70
   128
 43
0.0
 10
239.2807377903
 20
127.1472619327
 10
239.2807377903
 20
127.1472619327
  0
LWPOLYLINE
  5
20E
330
1F
100
AcDbEntity
  8
0
  6
HIDDEN
 62
     7
370
     0
100
AcDbPolyline
 90
        2
 70
   128
 43
0.0
 10
238.0807377903
 20
125.9472619327
 10
238.0807377903
 20
125.9472619327
  0
LWPOLYLINE
  5
20F
330
1F
100
AcDbEntity
  8
0
  6
HIDDEN
 62
     7
370
     0
100
AcDbPolyline
 90
        2
 70
   128
 43
0.0
 10
232.6807377903
 20
125.9472619327
 10
232.6807377903
 20
125.9472619327
  0
LWPOLYLINE
  5
210
330
1F
100
AcDbEntity
  8
0
  6
HIDDEN
 62
     7
370
     0
100
AcDbPolyline
 90
        2
 70
   128
 43
0.0
 10
231.6807377903
 20
124.9472619327
 10
231.6807377903
 20
124.9472619327
  0
LWPOLYLINE
  5
211
330
1F
100
AcDbEntity
  8
0
  6
HIDDEN
 62
     7
370
     0
100
AcDbPolyline
 90
        2
 70
   128
 43
0.0
 10
231.6807377903
 20
101.8972619327
 10
231.6807377903
 20
101.8972619327
  0
ARC
  5
212
330
1F
100
AcDbEntity
  8
0
  6
HIDDEN
 62
     7
370
     0
100
AcDbCircle
 10
192.2807377903
 20
100.5081231846
 30
0.0
 40
4.692869618820559
100
AcDbArc
 50
49.0956688647
 51
130.9043311353
  0
CIRCLE
  5
213
330
1F
100
AcDbEntity
  8
0
  6
HIDDEN
 62
     7
370
     0
100
AcDbCircle
 10
116.2807377903
 20
113.4222619327
 30
0.0
 40
5.0
  0
LINE
  5
214
330
1F
100
AcDbEntity
  8
0
  6
HIDDEN
 62
     7
370
     0
100
AcDbLine
 10
109.2807377903
 20
74.0175789762
 30
0.0
 11
109.3703394142
 21
74.6551276581
 31
0.0
  0
LINE
  5
215
330
1F
100
AcDbEntity
  8
0
  6
HIDDEN
 62
     7
370
     0
100
AcDbLine
 10
109.3703394142
 20
152.1893962074
 30
0.0
 11
109.2807377903
 21
152.8269448893
 31
0.0
  0
ARC
  5
216
330
1F
100
AcDbEntity
  8
0
  6
HIDDEN
 62
     7
370
     0
100
AcDbCircle
 10
108.3838008718
 20
74.7937766083
 30
0.0
 40
0.9962338214387074
100
AcDbArc
 50
352.0
 51
0.0
  0
ARC
  5
217
330
1F
100
AcDbEntity
  8
0
  6
HIDDEN
 62
     7
370
     0
100
AcDbCircle
 10
108.3838008718
 20
74.7937766083
 30
0.0
 40
0.9962338214387074
100
AcDbArc
 50
0.0
 51
25.7988228126
  0
ARC
  5
218
330
1F
100
AcDbEntity
  8
0
  6
HIDDEN
 62
     7
370
     0
100
AcDbCircle
 10
108.3838008718
 20
152.0507472572
 30
0.0
 40
0.9962338214386963
100
AcDbArc
 50
348.75
 51
8.0
  0
LWPOLYLINE
  5
219
330
1F
100
AcDbEntity
  8
0
  6
HIDDEN
 62
     7
370
     0
100
AcDbPolyline
 90
        3
 70
   128
 43
0.0
 10
109.3608923397
 20
151.8563916802
 10
109.3042009091
 20
151.669505079
 10
109.2807377903
 20
151.617173744
  0
LINE
  5
21A
330
1F
100
AcDbEntity
  8
0
  6
HIDDEN
 62
     7
370
     0
100
AcDbLine
 10
109.3800346933
 20
74.7937766083
 30
0.0
 11
109.3800346933
 21
152.0507472572
 31
0.0
  0
LINE
  5
21B
330
1F
100
AcDbEntity
  8
0
  6
HIDDEN
 62
     7
370
     0
100
AcDbLine
 10
109.3800346933
 20
74.7937766083
 30
0.0
 11
109.3800346933
 21
152.0507472572
 31
0.0
  0
LINE
  5
21C
330
1F
100
AcDbEntity
  8
0
  6
HIDDEN
 62
     7
370
     0
100
AcDbLine
 10
163.9307377903
 20
146.7472619327
 30
0.0
 11
162.7307377903
 21
146.7472619327
 31
0.0
  0
LINE
  5
21D
330
1F
100
AcDbEntity
  8
0
  6
HIDDEN
 62
     7
370
     0
100
AcDbLine
 10
162.7307377903
 20
80.0972619327
 30
0.0
 11
163.9307377903
 21
80.0972619327
 31
0.0
  0
ARC
  5
21E
330
1F
100
AcDbEntity
  8
0
  6
HIDDEN
 62
     7
370
     0
100
AcDbCircle
 10
163.9307377903
 20
146.4472619327
 30
0.0
 40
0.2999999999999829
100
AcDbArc
 50
0.0
 51
90.0
  0
ARC
  5
21F
330
1F
100
AcDbEntity
  8
0
  6
HIDDEN
 62
     7
370
     0
100
AcDbCircle
 10
163.9307377903
 20
80.3972619327
 30
0.0
 40
0.2999999999999972
100
AcDbArc
 50
270.0
 51
0.0
  0
LINE
  5
220
330
1F
100
AcDbEntity
  8
0
  6
HIDDEN
 62
     7
370
     0
100
AcDbLine
 10
82.7414637325
 20
81.9222619327
 30
0.0
 11
88.3265678409
 21
81.9222619327
 31
0.0
  0
LINE
  5
221
330
1F
100
AcDbEntity
  8
0
  6
HIDDEN
 62
     7
370
     0
100
AcDbLine
 10
88.3265678409
 20
144.9222619327
 30
0.0
 11
82.7414637325
 21
144.9222619327
 31
0.0
  0
ARC
  5
222
330
1F
100
AcDbEntity
  8
0
  6
HIDDEN
 62
     7
370
     0
100
AcDbCircle
 10
82.7414637325
 20
82.9222619327
 30
0.0
 40
1.0
100
AcDbArc
 50
210.0
 51
270.0
  0
ARC
  5
223
330
1F
100
AcDbEntity
  8
0
  6
HIDDEN
 62
     7
370
     0
100
AcDbCircle
 10
82.7414637325
 20
143.9222619327
 30
0.0
 40
1.0
100
AcDbArc
 50
90.0
 51
150.0
  0
ARC
  5
224
330
1F
100
AcDbEntity
  8
0
  6
HIDDEN
 62
     7
370
     0
100
AcDbCircle
 10
99.5339434455
 20
93.9222619327
 30
0.0
 40
12.0
100
AcDbArc
 50
273.1749437376
 51
324.3146652873
  0
ARC
  5
225
330
1F
100
AcDbEntity
  8
0
  6
HIDDEN
 62
     7
370
     0
100
AcDbCircle
 10
99.5339434455
 20
132.9222619327
 30
0.0
 40
12.00000000000001
100
AcDbArc
 50
35.6853347127
 51
86.8250842839
  0
LINE
  5
226
330
1F
100
AcDbEntity
  8
0
  6
HIDDEN
 62
     7
370
     0
100
AcDbLine
 10
81.8754383287
 20
144.4222619327
 30
0.0
 11
79.2773621173
 21
139.9222619327
 31
0.0
  0
LINE
  5
227
330
1F
100
AcDbEntity
  8
0
  6
HIDDEN
 62
     7
370
     0
100
AcDbLine
 10
79.2773621173
 20
86.9222619327
 30
0.0
 11
81.8754383287
 21
82.4222619327
 31
0.0
  0
ARC
  5
228
330
1F
100
AcDbEntity
  8
0
  6
HIDDEN
 62
     7
370
     0
100
AcDbCircle
 10
164.4307377903
 20
143.4722619327
 30
0.0
 40
0.2000000000000171
100
AcDbArc
 50
180.0
 51
270.0
  0
ARC
  5
229
330
1F
100
AcDbEntity
  8
0
  6
HIDDEN
 62
     7
370
     0
100
AcDbCircle
 10
164.4307377903
 20
83.3722619327
 30
0.0
 40
0.2000000000000171
100
AcDbArc
 50
90.0
 51
180.0
  0
LINE
  5
22A
330
1F
100
AcDbEntity
  8
0
  6
HIDDEN
 62
     7
370
     0
100
AcDbLine
 10
187.7307377903
 20
143.4222619327
 30
0.0
 11
166.2307377903
 21
143.4222619327
 31
0.0
  0
LINE
  5
22B
330
1F
100
AcDbEntity
  8
0
  6
HIDDEN
 62
     7
370
     0
100
AcDbLine
 10
228.2807377903
 20
143.4222619327
 30
0.0
 11
196.8178109344
 21
143.4222619327
 31
0.0
  0
LINE
  5
22C
330
1F
100
AcDbEntity
  8
0
  6
HIDDEN
 62
     7
370
     0
100
AcDbLine
 10
181.749788685
 20
83.4222619327
 30
0.0
 11
228.2807377903
 21
83.4222619327
 31
0.0
  0
LINE
  5
22D
330
1F
100
AcDbEntity
  8
0
  6
HIDDEN
 62
     7
370
     0
100
AcDbLine
 10
166.2307377903
 20
83.4222619327
 30
0.0
 11
176.7807377903
 21
83.4222619327
 31
0.0
  0
LINE
  5
22E
330
1F
100
AcDbEntity
  8
0
  6
HIDDEN
 62
     7
370
     0
100
AcDbLine
 10
166.2307377903
 20
143.4222619327
 30
0.0
 11
165.6963634787
 21
143.2790767675
 31
0.0
  0
LINE
  5
22F
330
1F
100
AcDbEntity
  8
0
  6
HIDDEN
 62
     7
370
     0
100
AcDbLine
 10
165.6963634787
 20
83.565447098
 30
0.0
 11
166.2307377903
 21
83.4222619327
 31
0.0
  0
LINE
  5
230
330
1F
100
AcDbEntity
  8
0
  6
HIDDEN
 62
     7
370
     0
100
AcDbLine
 10
237.8307377903
 20
143.4222619327
 30
0.0
 11
230.1807377903
 21
143.4222619327
 31
0.0
  0
LINE
  5
231
330
1F
100
AcDbEntity
  8
0
  6
HIDDEN
 62
     7
370
     0
100
AcDbLine
 10
230.1807377903
 20
83.4222619327
 30
0.0
 11
237.8307377903
 21
83.4222619327
 31
0.0
  0
ARC
  5
232
330
1F
100
AcDbEntity
  8
0
  6
HIDDEN
 62
     7
370
     0
100
AcDbCircle
 10
165.6445996696
 20
143.4722619327
 30
0.0
 40
0.2000000000000259
100
AcDbArc
 50
270.0
 51
285.0
  0
ARC
  5
233
330
1F
100
AcDbEntity
  8
0
  6
HIDDEN
 62
     7
370
     0
100
AcDbCircle
 10
165.6445996696
 20
83.3722619327
 30
0.0
 40
0.2000000000000122
100
AcDbArc
 50
75.0
 51
90.0
  0
LINE
  5
234
330
1F
100
AcDbEntity
  8
0
  6
HIDDEN
 62
     7
370
     0
100
AcDbLine
 10
165.6445996696
 20
143.2722619327
 30
0.0
 11
164.4307377903
 21
143.2722619327
 31
0.0
  0
LINE
  5
235
330
1F
100
AcDbEntity
  8
0
  6
HIDDEN
 62
     7
370
     0
100
AcDbLine
 10
164.4307377903
 20
83.5722619327
 30
0.0
 11
165.6445996696
 21
83.5722619327
 31
0.0
  0
ARC
  5
236
330
1F
100
AcDbEntity
  8
0
  6
HIDDEN
 62
     7
370
     0
100
AcDbCircle
 10
228.5807377903
 20
142.7972619327
 30
0.0
 40
0.3000000000000114
100
AcDbArc
 50
180.0
 51
270.0
  0
ARC
  5
237
330
1F
100
AcDbEntity
  8
0
  6
HIDDEN
 62
     7
370
     0
100
AcDbCircle
 10
228.5807377903
 20
84.0472619327
 30
0.0
 40
0.2999999999999829
100
AcDbArc
 50
90.0
 51
180.0
  0
ARC
  5
238
330
1F
100
AcDbEntity
  8
0
  6
HIDDEN
 62
     7
370
     0
100
AcDbCircle
 10
229.8807377903
 20
142.7972619327
 30
0.0
 40
0.3000000000000114
100
AcDbArc
 50
270.0
 51
0.0
  0
ARC
  5
239
330
1F
100
AcDbEntity
  8
0
  6
HIDDEN
 62
     7
370
     0
100
AcDbCircle
 10
229.8807377903
 20
84.0472619327
 30
0.0
 40
0.3000000000000114
100
AcDbArc
 50
0.0
 51
90.0
  0
LINE
  5
23A
330
1F
100
AcDbEntity
  8
0
  6
HIDDEN
 62
     7
370
     0
100
AcDbLine
 10
229.8807377903
 20
142.4972619327
 30
0.0
 11
228.5807377903
 21
142.4972619327
 31
0.0
  0
LINE
  5
23B
330
1F
100
AcDbEntity
  8
0
  6
HIDDEN
 62
     7
370
     0
100
AcDbLine
 10
228.5807377903
 20
84.3472619327
 30
0.0
 11
229.8807377903
 21
84.3472619327
 31
0.0
  0
LINE
  5
23C
330
1F
100
AcDbEntity
  8
0
  6
HIDDEN
 62
     7
370
     0
100
AcDbLine
 10
196.8307377903
 20
98.4266047475
 30
0.0
 11
196.8307377903
 21
101.4222619327
 31
0.0
  0
LINE
  5
23D
330
1F
100
AcDbEntity
  8
0
  6
HIDDEN
 62
     7
370
     0
100
AcDbLine
 10
187.7307377903
 20
101.4222619327
 30
0.0
 11
187.7307377903
 21
98.4222619327
 31
0.0
  0
LINE
  5
23E
330
1F
100
AcDbEntity
  8
0
  6
HIDDEN
 62
     7
370
     0
100
AcDbLine
 10
181.7807377903
 20
125.420468179
 30
0.0
 11
181.7807377903
 21
128.4209893361
 31
0.0
  0
LINE
  5
23F
330
1F
100
AcDbEntity
  8
0
  6
HIDDEN
 62
     7
370
     0
100
AcDbLine
 10
176.7807377903
 20
128.4222619327
 30
0.0
 11
176.7807377903
 21
125.4204630657
 31
0.0
  0
ARC
  5
240
330
1F
100
AcDbEntity
  8
0
  6
HIDDEN
 62
     7
370
     0
100
AcDbCircle
 10
119.7307377903
 20
88.5472619327
 30
0.0
 40
2.000000000000003
100
AcDbArc
 50
234.3409123039
 51
0.0
  0
ARC
  5
241
330
1F
100
AcDbEntity
  8
0
  6
HIDDEN
 62
     7
370
     0
100
AcDbCircle
 10
119.7307377903
 20
138.2972619327
 30
0.0
 40
2.000000000000026
100
AcDbArc
 50
0.0
 51
125.6590876961
  0
LINE
  5
242
330
1F
100
AcDbEntity
  8
0
  6
HIDDEN
 62
     7
370
     0
100
AcDbLine
 10
74.4807377903
 20
86.9222619327
 30
0.0
 11
79.2773621173
 21
86.9222619327
 31
0.0
  0
LINE
  5
243
330
1F
100
AcDbEntity
  8
0
  6
HIDDEN
 62
     7
370
     0
100
AcDbLine
 10
79.2773621173
 20
139.9222619327
 30
0.0
 11
69.4807377903
 21
139.9222619327
 31
0.0
  0
LINE
  5
244
330
1F
100
AcDbEntity
  8
0
  6
HIDDEN
 62
     7
370
     0
100
AcDbLine
 10
109.2807377903
 20
86.9222619327
 30
0.0
 11
118.5648154087
 21
86.9222619327
 31
0.0
  0
LINE
  5
245
330
1F
100
AcDbEntity
  8
0
  6
HIDDEN
 62
     7
370
     0
100
AcDbLine
 10
118.5648154087
 20
139.9222619327
 30
0.0
 11
109.2807377903
 21
139.9222619327
 31
0.0
  0
LINE
  5
246
330
1F
100
AcDbEntity
  8
0
  6
HIDDEN
 62
     7
370
     0
100
AcDbLine
 10
113.2807377903
 20
159.0938153119
 30
0.0
 11
113.2807377903
 21
155.3996757114
 31
0.0
  0
LINE
  5
247
330
1F
100
AcDbEntity
  8
0
  6
HIDDEN
 62
     7
370
     0
100
AcDbLine
 10
123.2807377903
 20
155.3996757114
 30
0.0
 11
123.2807377903
 21
159.0993235703
 31
0.0
  0
LINE
  5
248
330
1F
100
AcDbEntity
  8
0
  6
HIDDEN
 62
     7
370
     0
100
AcDbLine
 10
164.6945996696
 20
137.5722619327
 30
0.0
 11
163.4807377903
 21
137.5722619327
 31
0.0
  0
LINE
  5
249
330
1F
100
AcDbEntity
  8
0
  6
HIDDEN
 62
     7
370
     0
100
AcDbLine
 10
163.4807377903
 20
89.2722619327
 30
0.0
 11
164.6945996696
 21
89.2722619327
 31
0.0
  0
ARC
  5
24A
330
1F
100
AcDbEntity
  8
0
  6
HIDDEN
 62
     7
370
     0
100
AcDbCircle
 10
163.4807377903
 20
137.3722619327
 30
0.0
 40
0.2000000000000171
100
AcDbArc
 50
90.0
 51
180.0
  0
ARC
  5
24B
330
1F
100
AcDbEntity
  8
0
  6
HIDDEN
 62
     7
370
     0
100
AcDbCircle
 10
163.4807377903
 20
89.4722619327
 30
0.0
 40
0.2000000000000028
100
AcDbArc
 50
180.0
 51
270.0
  0
ARC
  5
24C
330
1F
100
AcDbEntity
  8
0
  6
HIDDEN
 62
     7
370
     0
100
AcDbCircle
 10
164.6945996696
 20
137.3722619327
 30
0.0
 40
0.1999999999999886
100
AcDbArc
 50
75.0
 51
90.0
  0
ARC
  5
24D
330
1F
100
AcDbEntity
  8
0
  6
HIDDEN
 62
     7
370
     0
100
AcDbCircle
 10
164.6945996696
 20
89.4722619327
 30
0.0
 40
0.1999999999999744
100
AcDbArc
 50
270.0
 51
285.0
  0
LINE
  5
24E
330
1F
100
AcDbEntity
  8
0
  6
HIDDEN
 62
     7
370
     0
100
AcDbLine
 10
164.7463634787
 20
89.2790767675
 30
0.0
 11
165.2807377903
 21
89.4222619327
 31
0.0
  0
LINE
  5
24F
330
1F
100
AcDbEntity
  8
0
  6
HIDDEN
 62
     7
370
     0
100
AcDbLine
 10
165.2807377903
 20
137.4222619327
 30
0.0
 11
164.7463634787
 21
137.565447098
 31
0.0
  0
LINE
  5
250
330
1F
100
AcDbEntity
  8
0
  6
HIDDEN
 62
     7
370
     0
100
AcDbLine
 10
178.3807377903
 20
137.4222619327
 30
0.0
 11
165.2807377903
 21
137.4222619327
 31
0.0
  0
LINE
  5
251
330
1F
100
AcDbEntity
  8
0
  6
HIDDEN
 62
     7
370
     0
100
AcDbLine
 10
165.2807377903
 20
89.4222619327
 30
0.0
 11
176.8155463259
 21
89.4222619327
 31
0.0
  0
LINE
  5
252
330
1F
100
AcDbEntity
  8
0
  6
HIDDEN
 62
     7
370
     0
100
AcDbLine
 10
187.7307377903
 20
137.4222619327
 30
0.0
 11
180.2807377903
 21
137.4222619327
 31
0.0
  0
LINE
  5
253
330
1F
100
AcDbEntity
  8
0
  6
HIDDEN
 62
     7
370
     0
100
AcDbLine
 10
238.0807377903
 20
137.4222619327
 30
0.0
 11
196.8307377903
 21
137.4222619327
 31
0.0
  0
LINE
  5
254
330
1F
100
AcDbEntity
  8
0
  6
HIDDEN
 62
     7
370
     0
100
AcDbLine
 10
181.7460260867
 20
89.4222619327
 30
0.0
 11
238.0807377903
 21
89.4222619327
 31
0.0
  0
LINE
  5
255
330
1F
100
AcDbEntity
  8
0
  6
HIDDEN
 62
     7
370
     0
100
AcDbLine
 10
239.2807377903
 20
138.1150822558
 30
0.0
 11
238.0807377903
 21
137.4222619327
 31
0.0
  0
LINE
  5
256
330
1F
100
AcDbEntity
  8
0
  6
HIDDEN
 62
     7
370
     0
100
AcDbLine
 10
238.0807377903
 20
89.4222619327
 30
0.0
 11
239.2807377903
 21
88.7294416097
 31
0.0
  0
LINE
  5
257
330
1F
100
AcDbEntity
  8
0
  6
HIDDEN
 62
     7
370
     0
100
AcDbLine
 10
179.9807377903
 20
138.3472619327
 30
0.0
 11
178.6807377903
 21
138.3472619327
 31
0.0
  0
ARC
  5
258
330
1F
100
AcDbEntity
  8
0
  6
HIDDEN
 62
     7
370
     0
100
AcDbCircle
 10
179.9807377903
 20
138.0472619327
 30
0.0
 40
0.3000000000000114
100
AcDbArc
 50
0.0
 51
90.0
  0
ARC
  5
259
330
1F
100
AcDbEntity
  8
0
  6
HIDDEN
 62
     7
370
     0
100
AcDbCircle
 10
178.6807377903
 20
138.0472619327
 30
0.0
 40
0.3000000000000114
100
AcDbArc
 50
90.0
 51
180.0
  0
LINE
  5
25A
330
1F
100
AcDbEntity
  8
0
  6
HIDDEN
 62
     7
370
     0
100
AcDbLine
 10
133.5807377903
 20
100.4222619327
 30
0.0
 11
137.5807377903
 21
100.4222619327
 31
0.0
  0
LINE
  5
25B
330
1F
100
AcDbEntity
  8
0
  6
HIDDEN
 62
     7
370
     0
100
AcDbLine
 10
137.5807377903
 20
126.4222619327
 30
0.0
 11
133.5807377903
 21
126.4222619327
 31
0.0
  0
LINE
  5
25C
330
1F
100
AcDbEntity
  8
0
  6
HIDDEN
 62
     7
370
     0
100
AcDbLine
 10
121.7307377903
 20
101.4222619327
 30
0.0
 11
122.4807377903
 21
102.1722619327
 31
0.0
  0
LINE
  5
25D
330
1F
100
AcDbEntity
  8
0
  6
HIDDEN
 62
     7
370
     0
100
AcDbLine
 10
122.4807377903
 20
124.6722619327
 30
0.0
 11
121.7307377903
 21
125.4222619327
 31
0.0
  0
LINE
  5
25E
330
1F
100
AcDbEntity
  8
0
  6
HIDDEN
 62
     7
370
     0
100
AcDbLine
 10
122.4807377903
 20
102.1722619327
 30
0.0
 11
133.5807377903
 21
102.1722619327
 31
0.0
  0
LINE
  5
25F
330
1F
100
AcDbEntity
  8
0
  6
HIDDEN
 62
     7
370
     0
100
AcDbLine
 10
133.5807377903
 20
124.6722619327
 30
0.0
 11
122.4807377903
 21
124.6722619327
 31
0.0
  0
LINE
  5
260
330
1F
100
AcDbEntity
  8
0
  6
HIDDEN
 62
     7
370
     0
100
AcDbLine
 10
114.2307377903
 20
163.4222619327
 30
0.0
 11
114.2307377903
 21
157.3222619327
 31
0.0
  0
LINE
  5
261
330
1F
100
AcDbEntity
  8
0
  6
HIDDEN
 62
     7
370
     0
100
AcDbLine
 10
163.2807377903
 20
120.4722619327
 30
0.0
 11
162.2807377903
 21
119.4722619327
 31
0.0
  0
LINE
  5
262
330
1F
100
AcDbEntity
  8
0
  6
HIDDEN
 62
     7
370
     0
100
AcDbLine
 10
162.2807377903
 20
107.3722619327
 30
0.0
 11
163.2807377903
 21
106.3722619327
 31
0.0
  0
LINE
  5
263
330
1F
100
AcDbEntity
  8
0
  6
HIDDEN
 62
     7
370
     0
100
AcDbLine
 10
100.7134504063
 20
75.8439823621
 30
0.0
 11
100.2807411198
 21
76.3222070795
 31
0.0
  0
LINE
  5
264
330
1F
100
AcDbEntity
  8
0
  6
HIDDEN
 62
     7
370
     0
100
AcDbLine
 10
88.2807382483
 20
76.9691684362
 30
0.0
 11
87.8001109431
 21
76.4909437254
 31
0.0
  0
LINE
  5
265
330
1F
100
AcDbEntity
  8
0
  6
HIDDEN
 62
     7
370
     0
100
AcDbLine
 10
87.7999926016
 20
150.353574224
 30
0.0
 11
88.2807380657
 21
149.8752945521
 31
0.0
  0
LINE
  5
266
330
1F
100
AcDbEntity
  8
0
  6
HIDDEN
 62
     7
370
     0
100
AcDbLine
 10
100.2807377924
 20
150.5222669395
 30
0.0
 11
100.7135594621
 21
151.0005466123
 31
0.0
  0
LINE
  5
267
330
1F
100
AcDbEntity
  8
0
  6
HIDDEN
 62
     7
370
     0
100
AcDbLine
 10
100.2807377903
 20
76.2220782372
 30
0.0
 11
100.2807377903
 21
81.9563840057
 31
0.0
  0
LINE
  5
268
330
1F
100
AcDbEntity
  8
0
  6
HIDDEN
 62
     7
370
     0
100
AcDbLine
 10
88.2807377903
 20
81.9307413007
 30
0.0
 11
88.2807377903
 21
76.9692068507
 31
0.0
  0
LINE
  5
269
330
1F
100
AcDbEntity
  8
0
  6
HIDDEN
 62
     7
370
     0
100
AcDbLine
 10
100.2807377903
 20
144.8881398598
 30
0.0
 11
100.2807377903
 21
150.6222707656
 31
0.0
  0
LINE
  5
26A
330
1F
100
AcDbEntity
  8
0
  6
HIDDEN
 62
     7
370
     0
100
AcDbLine
 10
88.2807377903
 20
149.8752840529
 30
0.0
 11
88.2807377903
 21
144.9137825648
 31
0.0
  0
LINE
  5
26B
330
1F
100
AcDbEntity
  8
0
  6
HIDDEN
 62
     7
370
     0
100
AcDbLine
 10
162.2807377903
 20
119.4722619327
 30
0.0
 11
158.7807377903
 21
119.4722619327
 31
0.0
  0
LINE
  5
26C
330
1F
100
AcDbEntity
  8
0
  6
HIDDEN
 62
     7
370
     0
100
AcDbLine
 10
158.7807377903
 20
107.3722619327
 30
0.0
 11
162.2807377903
 21
107.3722619327
 31
0.0
  0
LINE
  5
26D
330
1F
100
AcDbEntity
  8
0
  6
HIDDEN
 62
     7
370
     0
100
AcDbLine
 10
158.7807377903
 20
119.4722619327
 30
0.0
 11
157.699188676
 21
117.6722619327
 31
0.0
  0
LINE
  5
26E
330
1F
100
AcDbEntity
  8
0
  6
HIDDEN
 62
     7
370
     0
100
AcDbLine
 10
157.699188676
 20
109.1722619327
 30
0.0
 11
158.7807377903
 21
107.3722619327
 31
0.0
  0
LINE
  5
26F
330
1F
100
AcDbEntity
  8
0
  6
HIDDEN
 62
     7
370
     0
100
AcDbLine
 10
187.7307377903
 20
143.4222619327
 30
0.0
 11
187.7307377903
 21
137.4222619327
 31
0.0
  0
LINE
  5
270
330
1F
100
AcDbEntity
  8
0
  6
HIDDEN
 62
     7
370
     0
100
AcDbLine
 10
196.8307377903
 20
137.4222619327
 30
0.0
 11
196.8307377903
 21
143.4222619327
 31
0.0
  0
LINE
  5
271
330
1F
100
AcDbEntity
  8
0
  6
HIDDEN
 62
     7
370
     0
100
AcDbLine
 10
137.5807377903
 20
109.1722619327
 30
0.0
 11
157.699188676
 21
109.1722619327
 31
0.0
  0
LINE
  5
272
330
1F
100
AcDbEntity
  8
0
  6
HIDDEN
 62
     7
370
     0
100
AcDbLine
 10
157.699188676
 20
117.6722619327
 30
0.0
 11
137.5807377903
 21
117.6722619327
 31
0.0
  0
LINE
  5
273
330
1F
100
AcDbEntity
  8
0
  6
HIDDEN
 62
     7
370
     0
100
AcDbLine
 10
176.7807377903
 20
89.4258596669
 30
0.0
 11
176.7807377903
 21
83.4222619327
 31
0.0
  0
LINE
  5
274
330
1F
100
AcDbEntity
  8
0
  6
HIDDEN
 62
     7
370
     0
100
AcDbLine
 10
181.7807377903
 20
83.4222619327
 30
0.0
 11
181.7807377903
 21
89.4258494402
 31
0.0
  0
ARC
  5
275
330
1F
100
AcDbEntity
  8
0
  6
HIDDEN
 62
     7
370
     0
100
AcDbCircle
 10
67.5807377903
 20
147.5722619327
 30
0.0
 40
1.900000000000006
100
AcDbArc
 50
270.0
 51
310.9212832533
  0
ARC
  5
276
330
1F
100
AcDbEntity
  8
0
  6
HIDDEN
 62
     7
370
     0
100
AcDbCircle
 10
72.5807377903
 20
79.2722619327
 30
0.0
 40
1.899999999999991
100
AcDbArc
 50
35.6630613694
 51
90.0
  0
LINE
  5
277
330
1F
100
AcDbEntity
  8
0
  6
HIDDEN
 62
     7
370
     0
100
AcDbLine
 10
113.2807377903
 20
160.9691333962
 30
0.0
 11
113.2807377903
 21
159.0938153119
 31
0.0
  0
LINE
  5
278
330
1F
100
AcDbEntity
  8
0
  6
HIDDEN
 62
     7
370
     0
100
AcDbLine
 10
123.2807377903
 20
159.0993235703
 30
0.0
 11
123.2807377903
 21
160.974867829
 31
0.0
  0
LINE
  5
279
330
1F
100
AcDbEntity
  8
0
  6
HIDDEN
 62
     7
370
     0
100
AcDbLine
 10
59.4322590413
 20
82.7707406817
 30
0.0
 11
61.0307377903
 21
81.1722619327
 31
0.0
  0
LINE
  5
27A
330
1F
100
AcDbEntity
  8
0
  6
HIDDEN
 62
     7
370
     0
100
AcDbLine
 10
61.0307377903
 20
145.6722619327
 30
0.0
 11
59.4314216714
 21
144.0729458139
 31
0.0
  0
LINE
  5
27B
330
1F
100
AcDbEntity
  8
0
  6
HIDDEN
 62
     7
370
     0
100
AcDbLine
 10
67.5807377903
 20
145.6722619327
 30
0.0
 11
61.0307377903
 21
145.6722619327
 31
0.0
  0
LINE
  5
27C
330
1F
100
AcDbEntity
  8
0
  6
HIDDEN
 62
     7
370
     0
100
AcDbLine
 10
61.0307377903
 20
81.1722619327
 30
0.0
 11
72.5807377903
 21
81.1722619327
 31
0.0
  0
LINE
  5
27D
330
1F
100
AcDbEntity
  8
0
  6
HIDDEN
 62
     7
370
     0
100
AcDbLine
 10
196.8307377903
 20
98.4266047475
 30
0.0
 11
196.8307377903
 21
101.4222619327
 31
0.0
  0
LINE
  5
27E
330
1F
100
AcDbEntity
  8
0
  6
HIDDEN
 62
     7
370
     0
100
AcDbLine
 10
187.7307377903
 20
101.4222619327
 30
0.0
 11
187.7307377903
 21
98.4222619327
 31
0.0
  0
LINE
  5
27F
330
1F
100
AcDbEntity
  8
0
  6
HIDDEN
 62
     7
370
     0
100
AcDbLine
 10
181.7807377903
 20
125.420468179
 30
0.0
 11
181.7807377903
 21
128.4209893361
 31
0.0
  0
LINE
  5
280
330
1F
100
AcDbEntity
  8
0
  6
HIDDEN
 62
     7
370
     0
100
AcDbLine
 10
176.7807377903
 20
128.4222619327
 30
0.0
 11
176.7807377903
 21
125.4204630657
 31
0.0
  0
DIMENSION
  5
281
330
1F
100
AcDbEntity
  8
VERMASSUNG
100
AcDbDimension
  2
*D1
 10
239.2807377903
 20
179.736899384
 30
0.0
 11
149.3307377903
 21
179.736899384
 31
0.0
 70
   160
 71
     2
 42
-1.0
  3
SLDDIMSTYLE0
100
AcDbAlignedDimension
 13
59.3807377903
 23
143.9249316753
 33
0.0
 14
239.2807377903
 24
142.2222619327
 34
0.0
100
AcDbRotatedDimension
  0
DIMENSION
  5
28C
330
1F
100
AcDbEntity
  8
VERMASSUNG
100
AcDbDimension
  2
*D2
 10
239.2807377903
 20
173.736899384
 30
0.0
 11
174.2807377903
 21
173.736899384
 31
0.0
 70
   160
 71
     2
 42
-1.0
  3
SLDDIMSTYLE0
100
AcDbAlignedDimension
 13
109.2807377903
 23
162.9222619327
 33
0.0
 14
239.2807377903
 24
142.2222619327
 34
0.0
100
AcDbRotatedDimension
  0
DIMENSION
  5
296
330
1F
100
AcDbEntity
  8
VERMASSUNG
100
AcDbDimension
  2
*D3
 10
239.2807377903
 20
167.736899384
 30
0.0
 11
188.7557377903
 21
167.736899384
 31
0.0
 70
   160
 71
     2
 42
-1.0
  3
SLDDIMSTYLE0
100
AcDbAlignedDimension
 13
138.2307377903
 23
161.3910017536
 33
0.0
 14
239.2807377903
 24
142.2222619327
 34
0.0
100
AcDbRotatedDimension
  0
DIMENSION
  5
2A0
330
1F
100
AcDbEntity
  8
VERMASSUNG
100
AcDbDimension
  2
*D4
 10
53.6368583162
 20
63.4222619327
 30
0.0
 11
53.6368583162
 21
113.4222619327
 31
0.0
 70
   160
  1
HSK A %%c<>
 71
     2
 42
-1.0
  3
SLDDIMSTYLE0
100
AcDbAlignedDimension
 13
109.7807377903
 23
163.4222619327
 33
0.0
 14
109.7807377903
 24
63.4222619327
 34
0.0
 50
90.0
100
AcDbRotatedDimension
  0
DIMENSION
  5
2AC
330
1F
100
AcDbEntity
  8
VERMASSUNG
100
AcDbDimension
  2
*D5
 10
255.6321063723
 20
77.4222619327
 30
0.0
 11
255.6321063723
 21
113.4222619327
 31
0.0
 70
   160
  1
%%c<>
 71
     2
 42
-1.0
  3
SLDDIMSTYLE0
100
AcDbAlignedDimension
 13
236.8307377903
 23
149.4222619327
 33
0.0
 14
236.8307377903
 24
77.4222619327
 34
0.0
 50
90.0
100
AcDbRotatedDimension
  0
DIMENSION
  5
2B7
330
1F
100
AcDbEntity
  8
VERMASSUNG
100
AcDbDimension
  2
*D6
 10
249.6321063723
 20
89.4222619327
 30
0.0
 11
249.6321063723
 21
113.4222619327
 31
0.0
 70
   160
  1
%%c<>
 71
     2
 42
-1.0
  3
SLDDIMSTYLE0
100
AcDbAlignedDimension
 13
238.0807377903
 23
137.4222619327
 33
0.0
 14
238.0807377903
 24
89.4222619327
 34
0.0
 50
90.0
100
AcDbRotatedDimension
  0
LINE
  5
2C2
330
1F
100
AcDbEntity
  8
VERMASSUNG
  6
CENTERX2
 62
     7
370
     0
100
AcDbLine
 10
241.2807377903
 20
113.4222619327
 30
0.0
 11
57.1302684293
 21
113.4222619327
 31
0.0
  0
LINE
  5
2C3
330
1F
100
AcDbEntity
  8
VERMASSUNG
  6
CENTERX2
370
     0
100
AcDbLine
 10
94.2807377903
 20
142.9106318739
 30
0.0
 11
94.2807377903
 21
152.198780705
 31
0.0
  0
LINE
  5
2C4
330
1F
100
AcDbEntity
  8
VERMASSUNG
  6
CENTERX2
370
     0
100
AcDbLine
 10
94.2807377903
 20
83.9338919916
 30
0.0
 11
94.2807377903
 21
74.6456878381
 31
0.0
  0
OLE2FRAME
  5
2C5
330
1F
100
AcDbEntity
  8
0
100
AcDbOle2Frame
 70
     2
  3
Bitmap Image
 10
13.8511154363
 20
38.264191557
 30
0.0
 11
51.6290888628
 21
31.9806341108
 31
0.0
 71
     2
 72
     0
 73
     1
 90
    12928
310
80552BED0767C5B32B40DDAF6807D121434000000000000000006FFBDDFB85D0
310
4940DDAF6807D121434000000000000000006FFBDDFB85D04940416F4BD60AFB
310
3F4000000000000000002BED0767C5B32B40416F4BD60AFB3F40000000000000
310
0000000000000100000000010000010000000100000000000100000000320000
310
D0CF11E0A1B11AE1000000000000000000000000000000003E000300FEFF0900
310
0600000000000000000000000100000001000000000000000010000002000000
310
01000000FEFFFFFF0000000000000000FFFFFFFFFFFFFFFFFFFFFFFFFFFFFFFF
310
FFFFFFFFFFFFFFFFFFFFFFFFFFFFFFFFFFFFFFFFFFFFFFFFFFFFFFFFFFFFFFFF
310
FFFFFFFFFFFFFFFFFFFFFFFFFFFFFFFFFFFFFFFFFFFFFFFFFFFFFFFFFFFFFFFF
310
FFFFFFFFFFFFFFFFFFFFFFFFFFFFFFFFFFFFFFFFFFFFFFFFFFFFFFFFFFFFFFFF
310
FFFFFFFFFFFFFFFFFFFFFFFFFFFFFFFFFFFFFFFFFFFFFFFFFFFFFFFFFFFFFFFF
310
FFFFFFFFFFFFFFFFFFFFFFFFFFFFFFFFFFFFFFFFFFFFFFFFFFFFFFFFFFFFFFFF
310
FFFFFFFFFFFFFFFFFFFFFFFFFFFFFFFFFFFFFFFFFFFFFFFFFFFFFFFFFFFFFFFF
310
FFFFFFFFFFFFFFFFFFFFFFFFFFFFFFFFFFFFFFFFFFFFFFFFFFFFFFFFFFFFFFFF
310
FFFFFFFFFFFFFFFFFFFFFFFFFFFFFFFFFFFFFFFFFFFFFFFFFFFFFFFFFFFFFFFF
310
FFFFFFFFFFFFFFFFFFFFFFFFFFFFFFFFFFFFFFFFFFFFFFFFFFFFFFFFFFFFFFFF
310
FFFFFFFFFFFFFFFFFFFFFFFFFFFFFFFFFFFFFFFFFFFFFFFFFFFFFFFFFFFFFFFF
310
FFFFFFFFFFFFFFFFFFFFFFFFFFFFFFFFFFFFFFFFFFFFFFFFFFFFFFFFFFFFFFFF
310
FFFFFFFFFFFFFFFFFFFFFFFFFFFFFFFFFFFFFFFFFFFFFFFFFFFFFFFFFFFFFFFF
310
FFFFFFFFFFFFFFFFFFFFFFFFFFFFFFFFFFFFFFFFFFFFFFFFFFFFFFFFFFFFFFFF
310
FDFFFFFFFEFFFFFFFEFFFFFFFEFFFFFF05000000060000000700000008000000
310
090000000A0000000B0000000C0000000D0000000E0000000F00000010000000
310
11000000120000001300000014000000150000001600000017000000FEFFFFFF
310
FFFFFFFFFFFFFFFFFFFFFFFFFFFFFFFFFFFFFFFFFFFFFFFFFFFFFFFFFFFFFFFF
310
FFFFFFFFFFFFFFFFFFFFFFFFFFFFFFFFFFFFFFFFFFFFFFFFFFFFFFFFFFFFFFFF
310
FFFFFFFFFFFFFFFFFFFFFFFFFFFFFFFFFFFFFFFFFFFFFFFFFFFFFFFFFFFFFFFF
310
FFFFFFFFFFFFFFFFFFFFFFFFFFFFFFFFFFFFFFFFFFFFFFFFFFFFFFFFFFFFFFFF
310
FFFFFFFFFFFFFFFFFFFFFFFFFFFFFFFFFFFFFFFFFFFFFFFFFFFFFFFFFFFFFFFF
310
FFFFFFFFFFFFFFFFFFFFFFFFFFFFFFFFFFFFFFFFFFFFFFFFFFFFFFFFFFFFFFFF
310
FFFFFFFFFFFFFFFFFFFFFFFFFFFFFFFFFFFFFFFFFFFFFFFFFFFFFFFFFFFFFFFF
310
FFFFFFFFFFFFFFFFFFFFFFFFFFFFFFFFFFFFFFFFFFFFFFFFFFFFFFFFFFFFFFFF
310
FFFFFFFFFFFFFFFFFFFFFFFFFFFFFFFFFFFFFFFFFFFFFFFFFFFFFFFFFFFFFFFF
310
FFFFFFFFFFFFFFFFFFFFFFFFFFFFFFFFFFFFFFFFFFFFFFFFFFFFFFFFFFFFFFFF
310
FFFFFFFFFFFFFFFFFFFFFFFFFFFFFFFFFFFFFFFFFFFFFFFFFFFFFFFFFFFFFFFF
310
FFFFFFFFFFFFFFFFFFFFFFFFFFFFFFFFFFFFFFFFFFFFFFFFFFFFFFFFFFFFFFFF
310
FFFFFFFFFFFFFFFFFFFFFFFFFFFFFFFFFFFFFFFFFFFFFFFFFFFFFFFFFFFFFFFF
310
52006F006F007400200045006E00740072007900000000000000000000000000
310
0000000000000000000000000000000000000000000000000000000000000000
310
16000500FFFFFFFFFFFFFFFF020000000A00030000000000C000000000000046
310
000000000000000000000000A00310647EDDCB0103000000C000000000000000
310
01004F006C006500000000000000000000000000000000000000000000000000
310
0000000000000000000000000000000000000000000000000000000000000000
310
0A000200FFFFFFFFFFFFFFFFFFFFFFFF00000000000000000000000000000000
310
0000000000000000000000000000000000000000000000001400000000000000
310
010043006F006D0070004F0062006A0000000000000000000000000000000000
310
0000000000000000000000000000000000000000000000000000000000000000
310
120002010100000003000000FFFFFFFF00000000000000000000000000000000
310
0000000000000000000000000000000000000000010000004D00000000000000
310
01004F006C006500310030004E00610074006900760065000000000000000000
310
0000000000000000000000000000000000000000000000000000000000000000
310
1A000200FFFFFFFFFFFFFFFFFFFFFFFF00000000000000000000000000000000
310
0000000000000000000000000000000000000000040000002426000000000000
310
FEFFFFFF02000000FEFFFFFFFFFFFFFFFFFFFFFFFFFFFFFFFFFFFFFFFFFFFFFF
310
FFFFFFFFFFFFFFFFFFFFFFFFFFFFFFFFFFFFFFFFFFFFFFFFFFFFFFFFFFFFFFFF
310
FFFFFFFFFFFFFFFFFFFFFFFFFFFFFFFFFFFFFFFFFFFFFFFFFFFFFFFFFFFFFFFF
310
FFFFFFFFFFFFFFFFFFFFFFFFFFFFFFFFFFFFFFFFFFFFFFFFFFFFFFFFFFFFFFFF
310
FFFFFFFFFFFFFFFFFFFFFFFFFFFFFFFFFFFFFFFFFFFFFFFFFFFFFFFFFFFFFFFF
310
FFFFFFFFFFFFFFFFFFFFFFFFFFFFFFFFFFFFFFFFFFFFFFFFFFFFFFFFFFFFFFFF
310
FFFFFFFFFFFFFFFFFFFFFFFFFFFFFFFFFFFFFFFFFFFFFFFFFFFFFFFFFFFFFFFF
310
FFFFFFFFFFFFFFFFFFFFFFFFFFFFFFFFFFFFFFFFFFFFFFFFFFFFFFFFFFFFFFFF
310
FFFFFFFFFFFFFFFFFFFFFFFFFFFFFFFFFFFFFFFFFFFFFFFFFFFFFFFFFFFFFFFF
310
FFFFFFFFFFFFFFFFFFFFFFFFFFFFFFFFFFFFFFFFFFFFFFFFFFFFFFFFFFFFFFFF
310
FFFFFFFFFFFFFFFFFFFFFFFFFFFFFFFFFFFFFFFFFFFFFFFFFFFFFFFFFFFFFFFF
310
FFFFFFFFFFFFFFFFFFFFFFFFFFFFFFFFFFFFFFFFFFFFFFFFFFFFFFFFFFFFFFFF
310
FFFFFFFFFFFFFFFFFFFFFFFFFFFFFFFFFFFFFFFFFFFFFFFFFFFFFFFFFFFFFFFF
310
FFFFFFFFFFFFFFFFFFFFFFFFFFFFFFFFFFFFFFFFFFFFFFFFFFFFFFFFFFFFFFFF
310
FFFFFFFFFFFFFFFFFFFFFFFFFFFFFFFFFFFFFFFFFFFFFFFFFFFFFFFFFFFFFFFF
310
FFFFFFFFFFFFFFFFFFFFFFFFFFFFFFFFFFFFFFFFFFFFFFFFFFFFFFFFFFFFFFFF
310
010000020000000000000000000000000000000061007200650064005C003100
310
30002E0030005C0044004C004C005300680061007200650064005C003B004300
310
0100FEFF030A0000FFFFFFFF0A00030000000000C00000000000004607000000
310
5042727573680007000000504272757368000700000050427275736800F439B2
310
71000000000000000000000000004100540049002E004100430045005C004300
310
6F00720065002D005300740061007400690063003B0043003A005C0050007200
310
6F006700720061006D002000460069006C006500730020002800780038003600
310
29005C0043006F006D006D006F006E002000460069006C00650073005C004100
310
750074006F006400650073006B0020005300680061007200650064005C003B00
310
43003A005C00500072006F006700720061006D002000460069006C0065007300
310
5C004E006F0072006D0061006E005C004E0070006D005C00420069006E000000
310
43003A005C00500072006F006700720061006D002000460069006C0065007300
310
5C0053006F006C006900640057006F0072006B007300200043006F0072007000
310
5C0053006F006C006900640057006F0072006B00730020002800320029005C00
310
730065007400750070005C0069003300380036005C0073007700610063007400
310
770069007A002E006500780065000000220043003A005C00500072006F006700
310
20260000424D0E260000000000003E00000028000000B40200006E0000000100
310
01000000000000000000130B0000130B00000200000002000000000000FFFFFF
310
FFFFFFFFFFFFFFFFFFFFFFFFFFFFFFFFFFFFFFFFFFFFFFFFFFFFFFFFFFFFFFFF
310
FFFFFFFFFFFFFFFFFFFFFFFFFFFFFFFFFFFFFFFFFFFFFFFFFFFFFFFFFFFFFFFF
310
FFFFFFFFFFFFFFFFFFFFFFFFFFFFFFFFFFFFFFFFFFFFFFFFF000FFFFFFFFFFFF
310
FFFFFFFFFFFFFFFFFFFFFFFFFFFFFFFFFFFFFFFFFFFFFFFFFFFFFFFFFFFFFFFF
310
FFFFFFFFFFFFFFFFFFFFFFFFFFFFFFFFFFFFFFFFFFFFFFFFFFFFFFFFFFFFFFFF
310
FFFFFFFFFFFFFFFFFFFFFFFFFFFFFFFFF000FFFFFFFFFFFFFFFFFFFFFFFFFFFF
310
FFFFFFFFFFFFFFFFFFFFFFFFFFFFFFFFFFFFFFFFFFFFFFFFFFFFFFFFFFFFFFFF
310
FFFFFFFFFFFFFFFFFFFFFFFFFFFFFFFFFFFFFFFFFFFFFFFFFFFFFFFFFFFFFFFF
310
FFFFFFFFFFFFFFFFF000FFFFFFFFFFFFFFFFFFFFFFFFFFFFFFFFFFFFFFFFFFFF
310
FFFFFFFFFFFFFFFFFFFFFFFFFFFFFFFFFFFFFFFFFFFFFFFFFFFFFFFFFFFFFFFF
310
FFFFFFFFFFFFFFFFFFFFFFFFFFFFFFFFFFFFFFFFFFFFFFFFFFFFFFFFFFFFFFFF
310
F000FFFFFFFFFFFFFFFFFFFFFFFFFFFFFFFFFFFFFFFFFFFFFFFFFFFFFFFFFFFF
310
FFFFFFFFFFFFFFFFFFFFFFFFFFFFFFFFFFFFFFFFFFFFFFFFFFFFFFFFFFFFFFFF
310
FFFFFFFFFFFFFFFFFFFFFFFFFFFFFFFFFFFFFFFFFFFFFFFFF000FFFFFFFFFFFF
310
FFFFFFFFFFFFFFFFFFFFFFFFFFFFFFFFFFFFFFFFFFFFFFFFFFFFFFFFFFFFFFFF
310
FFFFFFFFFFFFFFFFFFFFFFFFFFFFFFFFFFFFFFFFFFFFFFFFFFFFFFFFFFFFFFFF
310
FFFFFFFFFFFFFFFFFFFFFFFFFFFFFFFFF000FFFFFFFFFFFFFFFFFFFFFFFFFFFF
310
FFFFFFFFFFFFFFFFFFFFFFFFFFFFFFFFFFFFFFFFFFFFFFFFFFFFFFFFFFFFFFFF
310
FFFFFFFFFFFFFFFFFFFFFFFFFFFFFFFFFFFFFFFFFFFFFFFFFFFFFFFFFFFFFFFF
310
FFFFFFFFFFFFFFFFF000FFFFFFFFFFFFFFFFFFFFFFFFFFFFFFFFFFFFFFFFFFFF
310
FFFFFFFFFFFFFFFFFFFFFFFFFFFFFFFFFFFFFFFFFFFFFFFFFFFFFFFFFFFFFFFF
310
FFFFFFFFFFFFFFFFFFFFFFFFFFFFFFFFFFFFFFFFFFFFFFFFFFFFFFFFFFFFFFFF
310
F000FFFFFFFFFFFFFFFFFFFFFFFFFFFFFFFFFFFFFFFFFFFFFFFFFFFFFFFFFFFF
310
FFFFFFFFFFFFFFFFFFFFFFFFFFFFFFFFFFFFFFFFFFFFFFFFFFFFFFFFFFFFFFFF
310
FFFFFFFFFFFFFFFFFFFFFFFFFFFFFFFFFFFFFFFFFFFFFFFFF000FFFFFFFFFFFF
310
FFFFFFFFFFFFFFFFFFFFFFFFFFFFFFFFFFFFFFFFFFFFFFFFFFFFFFFFFFFFFFFF
310
FFFFFFFFFFFFFFFFFFFFFFFFFFFFFFFFFFFFFFFFFFFFFFFFFFFFFFFFFFFFFFFF
310
FFFFFFFFFFFFFFFFFFFFFFFFFFFFFFFFF000FFFFFFFFFFFFFFFFFFFFFFFFFFFF
310
FFFFFFFFFFFFFFFFFFFFFFFFFFFFFFFFFFFFFFFFFFFFFFFFFFFFFFFFFFFFFFFF
310
FFFFFFFFFFFFFFFFFFFFFFFFFFFFFFFFFFFFFFFFFFFFFFFFFFFFFFFFFFFFFFFF
310
FFFFFFFFFFFFFFFFF000FFFFFFFFFFFFFFFFFFFFFFFFFFFFFFFFFFFFFFFFFFFF
310
FFFFFFFFFFFFFFFFFFFFFFFFFFFFFFFFFFFFFFFFFFFFFFFFFFFFFFFFFFFFFFFF
310
FFFFFFFFFFFFFFFFFFFFFFFFFFFFFFFFFFFFFFFFFFFFFFFFFFFFFFFFFFFFFFFF
310
F000FFFFFFFFFFFFFFFFFFFFFFFFFFFFFFFFFFFFFFFFFFFFFFFFFFFFFFFFFFFF
310
FFFFFFFFFFFFFFFFFFFFFFFFFFFFFFFFFFFFFFFFFFFFFFFFFFFFFFFFFFFFFFFF
310
FFFFFFFFFFFFFFFFFFFFFFFFFFFFFFFFFFFFFFFFFFFFFFFFF000FFFFFFFFFFFF
310
FFFFFFFFFFFFFFFFFFFFFFFFFFFFFFFFFFFFFFFFFFFFFFFFFFFFFFFFFFFFFFFF
310
FFFFFFFFFFFFFFFFFFFFFFFFFFFFFFFFFFFFFFFFFFFFFFFFFFFFFFFFFFFFFFFF
310
FFFFFFFFFFFFFFFFFFFFFFFFFFFFFFFFF000FFFFFFFFFFFFFFFFFFFFFFFFFFFF
310
FFFFFFFFFFFFFFFFFFFFFFFFFFFFFFFFFFFFFFFFFFFFFFFFFFFFFFFFFFFFFFFF
310
FFFFFFFFFFFFFFFFFFFFFFFFFFFFFFFFFFFFFFFFFFFFFFFFFFFFFFFFFFFFFFFF
310
FFFFFFFFFFFFFFFFF000FFFFFFFFFFFFFFFFFFFFFFFFFFFFFFFFFFFFFFFFFFFF
310
FFFFFFFFFFFFFFFFFFFFFFFFFFFFFFFFFFFFFFFFFFFFFFFFFFFFFFFFFFFFFFFF
310
FFFFFFFFFFFFFFFFFFFFFFFFFFFFFFFFFFFFFFFFFFFFFFFFFFFFFFFFFFFFFFFF
310
F000FFFFFFFFFFFFFFFFFFFFFFFFFFFFFFFFFFFFFFFFFFFFFFFFFFFFFFFFFFFF
310
FFFFFFFFFFFFFFFFFFFFFFFFFFFFFFFFFFFFFFFFFFFFFFFFFFFFFFFFFFFFFFFF
310
FFFFFFFFFFFFFFFFFFFFFFFFFFFFFFFFFFFFFFFFFFFFFFFFF000FFFFFFFFFFFF
310
FFFFFFFFFFFFFFFFFFFFFFFFFFFFFFFFFFFFFFFFFFFFFFFFFFFFFFFFFFFFFFFF
310
FFFFFFFFFFFFFFFFFFFFFFFFFFFFFFFFFFFFFFFFFFFFFFFFFFFFFFFFFFFFFFFF
310
FFFFFFFFFFFFFFFFFFFFFFFFFFFFFFFFF000FFFFFFFFFFFFFFFFFFFFFFFFFFFF
310
FFFFFFFFFFFFFFFFFFFFFFFFFFFFFFFFFFFFFFFFFFFFFFFFFFFFFFFFFFFFFFFF
310
FFFFFFFFFFFFFFFFFFFFFFFFFFFFFFFFFFFFFFFFFFFFFFFFFFFFFFFFFFFFFFFF
310
FFFFFFFFFFFFFFFFF000FFFFF80003FFFFFFFFFFFFFFFFFFFFFFFFFFFFFFFFFF
310
FFFFF00007FFFFFFFFFF00007FFFFFF800000000000000007FFFFFFFFFFFFFFF
310
FFFFFFFC001FFFFFFFFFFFFFFC001FFFFFFFFFFFFFFFFFFFFFFFFFFE0007FFFF
310
F000FFFF8000007FFFFFFFF8000FFFFFC0007FFFFF80007FFFFF0000007FFFFF
310
FFF8000007FFFFF800000000000000007FFFFFF0001FFFFFFFFFFFC00001FFFF
310
FFFFFFFFC00001FFFFFFFF000000000003FFFFE000007FFFF000FFFE0000000F
310
FFFFFFF0000FFFFF80007FFFFF80007FFFFC0000001FFFFFFFC0000001FFFFF8
310
00000000000000007FFFFFF0001FFFFFFFFFFE0000003FFFFFFFFFFE0000003F
310
FFFFFF000000000003FFFF0000000FFFF000FFF800000003FFFFFFF00007FFFF
310
80007FFFFF80007FFFF000000007FFFFFF000000003FFFF80000000000000000
310
7FFFFFF0001FFFFFFFFFF80000000FFFFFFFFFF80000000FFFFFFF0000000000
310
03FFFC00000003FFF000FFE000000000FFFFFFF00007FFFF80003FFFFF80007F
310
FFC000000001FFFFFC000000001FFFF800000000000000007FFFFFF0001FFFFF
310
FFFFE000000003FFFFFFFFE000000003FFFFFF000000000003FFF000000000FF
310
F000FF80000000007FFFFFF00007FFFF80003FFFFF80007FFF8000000000FFFF
310
F80000000007FFF800000000000000007FFFFFF0001FFFFFFFFFC000000001FF
310
FFFFFFC000000001FFFFFF000000000003FFC0000000007FF000FF0000000000
310
3FFFFFE00007FFFF00003FFFFF80007FFE00000000003FFFF00000000003FFF8
310
00000000000000007FFFFFF0001FFFFFFFFF8000000000FFFFFFFF8000000000
310
FFFFFF000000000003FF80000000003FF000FE00000000001FFFFFE00003FFFF
310
00003FFFFF80007FFC00000000001FFFE00000000001FFF8000001FFFE000000
310
7FFFFFF0001FFFFFFFFE00000000003FFFFFFE00000000003FFFFF0000000000
310
03FF00000000001FF000FC00000000000FFFFFE00003FFFF00001FFFFF80007F
310
F800000000001FFFC00000000000FFF8000001FFFE0000007FFFFFF0001FFFFF
310
FFFC00000000001FFFFFFC00000000001FFFFF000000000003FE00000000000F
310
F000F8000000000007FFFFE00003FFFF00001FFFFF80007FF800000000000FFF
310
800000000000FFF8000001FFFE0000007FFFFFF0001FFFFFFFF800000000000F
310
FFFFF800000000000FFFFF000000000003FC000000000007F000F80000000000
310
03FFFFC00003FFFE00001FFFFF80007FF0000000000007FF0000000000007FF8
310
000001FFFE0000007FFFFFF0001FFFFFFFF0000000000007FFFFF00000000000
310
07FFFF000000000003F8000000000003F000F0000000000003FFFFC00001FFFE
310
00001FFFFF80007FE0000000000007FE0000000000003FF8000001FFFE000000
310
7FFFFFF0001FFFFFFFF0000000000007FFFFF0000000000007FFFF0000000000
310
03F800001F800003F000E00001FFF00001FFFFC00001FFFE00000FFFFF80007F
310
E00001FFE00003FE00001FFF00003FF8000001FFFE0000007FFFFFF0001FFFFF
310
FFE000003E000003FFFFE000003E000003FFFF000000000003F00001FFF80001
310
F000E00007FFFC0001FFFFC00001FFFE00000FFFFF80007FC0000FFFFC0003FC
310
0000FFFFC0001FF8000001FFFE0000007FFFFFF0001FFFFFFFC00003FFE00001
310
FFFFC00003FFE00001FFFF0001FFFFFFFFF00007FFFE0001F000E0000FFFFF00
310
00FFFF800001FFFC00000FFFFF80007FC0001FFFFE0001FC0001FFFFE0001FF8
310
000001FFFE0000007FFFFFF0001FFFFFFF80000FFFF80000FFFF80000FFFF800
310
00FFFF0003FFFFFFFFE0000FFFFF8000F000C0003FFFFF8000FFFF800000FFFC
310
000007FFFF80007F80003FFFFF0001FC0003FFFFF0001FF8000001FFFE000000
310
7FFFFFF0001FFFFFFF80003FFFFE0000FFFF80003FFFFE0000FFFF0003FFFFFF
310
FFE0003FFFFF8000F000C0003FFFFF8000FFFF800000FFFC000007FFFF80007F
310
80007FFFFF8001F80007FFFFF8000FF8000001FFFE0000007FFFFFF0001FFFFF
310
FF00007FFFFF00007FFF00007FFFFF00007FFF0003FFFFFFFFE0003FFFFFC000
310
F000C0007FFFFFC000FFFF000000FFFC000007FFFF80007F8000FFFFFF8000F8
310
000FFFFFF8000FF8000001FFFE0000007FFFFFF0001FFFFFFF0000FFFFFF8000
310
7FFF0000FFFFFF80007FFF0003FFFFFFFFC0007FFFFFC00070008000FFFFFFC0
310
00FFFF000000FFF8000007FFFF80007F8000FFFFFF8000F8000FFFFFF8000FF8
310
000001FFFE0000007FFFFFF0001FFFFFFE0001FFFFFFC0003FFE0001FFFFFFC0
310
003FFF0003FFFFFFFFC0007FFFFFE00070008000FFFFFFC0007FFF0000007FF8
310
000003FFFF80007F0001FFFFFF8000F8000FFFFFF8000FF8000001FFFE000000
310
7FFFFFF0001FFFFFFE0001FFFFFFC0003FFE0001FFFFFFC0003FFF0003FFFFFF
310
FFC000FFFFFFE00070008000FFFFFFC0007FFF0000007FF8000003FFFF80007F
310
0001FFFFFF8000F8001FFFFFF8000FF8000001FFFE0000007FFFFFF0001FFFFF
310
FE0003FFFFFFE0003FFE0003FFFFFFE0003FFF0003FFFFFFFFC000FFFFFFE000
310
70008000FFFFFFC0007FFE0000007FF8000003FFFF80007F0001FFFFFF8000F0
310
001FFFFFF8000FF8000001FFFE0000007FFFFFF0001FFFFFFC0003FFFFFFE000
310
1FFC0003FFFFFFE0001FFF0003FFFFFFFFC000FFFFFFC00070008000FFFFFF80
310
007FFE0000007FF0000003FFFF80007F0001FFFFFF0000F0001FFFFFF8000FF8
310
000001FFFE0000007FFFFFF0001FFFFFFC0007FFFFFFF0001FFC0007FFFFFFF0
310
001FFF0003FFFFFFFFC000FFFFFFC00070008001FFFFFF0000FFFE0000003FF0
310
000001FFFF80007F0001FFFFFF0000F8001FFFFFF0000FF8000001FFFE000000
310
7FFFFFF0001FFFFFFC0007FFFFFFF0001FFC0007FFFFFFF0001FFF0003FFFFFF
310
FFC001FFFFFF80007000FFFFFFFFFE0000FFFE0008003FF0008001FFFF80007F
310
FFFFFFFFFC0000FFFFFFFFFFE0000FF8000001FFFE0000007FFFFFF0001FFFFF
310
F8000FFFFFFFF8000FF8000FFFFFFFF8000FFF0003FFFFFFFFFFFFFFFFFF0000
310
7000FFFFFFFFFC0000FFFC0008003FF0008001FFFF80007FFFFFFFFFF80001FF
310
FFFFFFFF80000FF8000001FFFE0000007FFFFFF0001FFFFFF8000FFFFFFFF800
310
0FF8000FFFFFFFF8000FFF0003FFFFFFFFFFFFFFFFFE0000F000FFFFFFFFE000
310
00FFFC000C003FE000C001FFFF80007FFFFFFFFFC00001FFFFFFFFFE00001FF8
310
000001FFFE0000007FFFFFF0001FFFFFF8000FFFFFFFF8000FF8000FFFFFFFF8
310
000FFF0003FFFFFFFFFFFFFFFFF00000F000FFFFFFFE000001FFFC000C001FE0
310
00C000FFFF80007FFFFFFFFE000001FFFFFFFFE000001FF80FFFFFFFFFFFFFC0
310
7FFFFFF0001FFFFFF8000FFFFFFFF8000FF8000FFFFFFFF8000FFF0003FFFFFF
310
FFFFFFFFFF800000F000FFFFFFC0000001FFFC001C001FE001C000FFFF80007F
310
FFFFFF80000003FFFFFFF80000001FF80FFFFFFFFFFFFFC07FFFFFF0001FFFFF
310
F8001FFFFFFFFC000FF8001FFFFFFFFC000FFF0003FFFFFFFFFFFFFFF0000001
310
F000FFFFF800000001FFF8001C001FE001C000FFFF80007FFFFFF800000003FF
310
FFFF800000003FF80FFFFFFFFFFFFFC07FFFFFF0001FFFFFF8001FFFFFFFFC00
310
0FF8001FFFFFFFFC000FFF0003FFFFFFFFFFFFFE00000001F000FFFFC0000000
310
03FFF8001E001FC001E000FFFF80007FFFFF8000000007FFFFFC000000003FF8
310
0FFFFFFFFFFFFFC07FFFFFF0001FFFFFF8001FFFFFFFFC000FF8001FFFFFFFFC
310
000FFF0003FFFFFFFFFFFFE000000003F000FFFE0000000007FFF8001E000FC0
310
01E0007FFF80007FFFFE0000000007FFFFE0000000007FF80FFFFFFFFFFFFFC0
310
7FFFFFF0001FFFFFF0001FFFFFFFFC0007F0001FFFFFFFFC0007FF0003FFFFFF
310
FFFFFF0000000003F000FFF80000000007FFF8001E000FC003E0007FFF80007F
310
FFF0000000000FFFFF8000000000FFF80FFFFFFFFFFFFFC07FFFFFF0001FFFFF
310
F0001FFFFFFFFC0007F0001FFFFFFFFC0007FF0003FFFFFFFFFFFC0000000007
310
F000FFE0000000000FFFF0003E000FC003E0007FFF80007FFFC0000000001FFF
310
FE0000000001FFF80FFFFFFFFFFFFFC07FFFFFF0001FFFFFF0001FFFFFFFFC00
310
07F0001FFFFFFFFC0007FF0003FFFFFFFFFFF0000000000FF000FFC000000000
310
1FFFF0003F000F8003F0003FFF80007FFF80000000003FFFF80000000003FFF8
310
0FFFFFFFFFFFFFC07FFFFFF0001FFFFFF0001FFFFFFFFC0007F0001FFFFFFFFC
310
0007FF0003FFFFFFFFFFE0000000001FF000FF00000000007FFFF0003F000780
310
03F0003FFF80007FFF00000000007FFFF00000000007FFF80FFFFFFFFFFFFFC0
310
7FFFFFF0001FFFFFF0001FFFFFFFFC0007F0001FFFFFFFFC0007FF0003FFFFFF
310
FFFF80000000007FF000FE0000000000FFFFE0003F00078007F0003FFF80007F
310
FE0000000001FFFFE0000000001FFFF80FFFFFFFFFFFFFC07FFFFFF0001FFFFF
310
F0001FFFFFFFFC0007F0001FFFFFFFFC0007FF0003FFFFFFFFFF0000000000FF
310
F000FC0000000003FFFFE0007F00078007F0003FFF80007FFC0000000007FFFF
310
C0000000007FFFF80FFFFFFFFFFFFFC07FFFFFF0001FFFFFF8001FFFFFFFFC00
310
0FF8001FFFFFFFFC000FFF0003FFFFFFFFFE0000000003FFF000FC000000000F
310
FFFFE0007F80070007F8001FFF80007FF8000000001FFFFF8000000001FFFFF8
310
0FFFFFFFFFFFFFC07FFFFFF0001FFFFFF8001FFFFFFFFC000FF8001FFFFFFFFC
310
000FFF0003FFFFFFFFFC000000000FFFF000F8000000007FFFFFE0007F800700
310
07F8001FFF80007FF000000000FFFFFF800000000FFFFFF80FFFFFFFFFFFFFC0
310
7FFFFFF0001FFFFFF8000FFFFFFFF8000FF8000FFFFFFFF8000FFF0003FFFFFF
310
FFFC000000007FFFF000F800000007FFFFFFC0007F8003000FF8001FFF80007F
310
F000000007FFFFFF000000007FFFFFF80FFFFFFFFFFFFFC07FFFFFF0001FFFFF
310
F8000FFFFFFFF8000FF8000FFFFFFFF8000FFF0003FFFFFFFFF80000000FFFFF
310
F000F0000000FFFFFFFFC000FF8003000FF8001FFF80007FE0000000FFFFFFFF
310
0000000FFFFFFFF8000001FFFE0000007FFFFFF0001FFFFFF8000FFFFFFFF800
310
0FF8000FFFFFFFF8000FFF0003FFFFFFFFF8000000FFFFFFF000F000000FFFFF
310
FFFFC000FFC002000FF8000FFF80007FE000001FFFFFFFFE000001FFFFFFFFF8
310
000001FFFE0000007FFFFFF0001FFFFFF8000FFFFFFFF8000FF8000FFFFFFFF8
310
000FFF0003FFFFFFFFF000001FFFFFFFF000E00000FFFFFFFFFFC000FFC00200
310
0FFC000FFF80007FE00001FFFFFFFFFE00001FFFFFFFFFF8000001FFFE000000
310
7FFFFFF0001FFFFFFC000FFFFFFFF8001FFC000FFFFFFFF8001FFF0003FFFFFF
310
FFF00001FFFFFFFFF000E00007FFFFFFFFFF8000FFC000001FFC000FFF80007F
310
C0000FFFFFFFFFFE0000FFFFFFFFFFF8000001FFFE0000007FFFFFF0001FFFFF
310
FC0007FFFFFFF0001FFC0007FFFFFFF0001FFF0003FFFFFFFFF00007FFFFFFFF
310
F000E0001FFFFFFFFFFF8000FFC000001FFC000FFF80007FC0003FFFFFFFFFFE
310
0001FFFFFFFFFFF8000001FFFE0000007FFFFFF0001FFFFFFC0007FFFFFFF000
310
1FFC0007FFFFFFF0001FFF0003FFFFFFFFF0001FFFFFFFFFF000E0003FFFFF00
310
03FF8001FFE000001FFC0007FF80007FC0007FFFFF0007FC0003FFFFF0003FF8
310
000001FFFE0000007FFFFFF0001FFFFFFC0003FFFFFFE0001FFC0003FFFFFFE0
310
001FFF0003FFFFFFFFF0003FFFFFFFFFF000E0003FFFFF0001FF8001FFE00000
310
1FFE0007FF80007FC0007FFFFE0003FC0007FFFFE0003FF8000001FFFE000000
310
7FFFFFF0001FFFFFFE0003FFFFFFE0003FFE0003FFFFFFE0003FFF0003FFFFFF
310
FFF0003FFFFF8001F000E0003FFFFF0001FF0001FFE000001FFE0007FF80007F
310
C0007FFFFE0003FC0007FFFFE0003FF8000001FFFE0000007FFFFFF0001FFFFF
310
FE0001FFFFFFC0003FFE0001FFFFFFC0003FFF0003FFFFFFFFF0003FFFFF0001
310
F000E0003FFFFF0003FF0001FFE000003FFE0007FF80007FC0007FFFFE0003FC
310
0007FFFFE0003FF8000001FFFE0000007FFFFFF0001FFFFFFF0001FFFFFFC000
310
7FFF0001FFFFFFC0007FFF0003FFFFFFFFF0003FFFFF0001F000E0003FFFFE00
310
03FF0003FFF000003FFE0003FF80007FC0007FFFFC0003FE0007FFFFE0003FF8
310
000001FFFE0000007FFFFFF0001FFFFFFF0000FFFFFF80007FFF0000FFFFFF80
310
007FFF0003FFFFFFFFF0003FFFFF0001F000E0003FFFFE0003FF0003FFF00000
310
3FFF0003FF80007FC0007FFFFC0007FE0007FFFFC0003FF8000001FFFE000000
310
7FFFFFF0001FFFFFFF80007FFFFF0000FFFF80007FFFFF0000FFFF0003FFFFFF
310
FFF0003FFFFF0003F000E0003FFFFC0003FE0003FFF000003FFF0003FF80007F
310
E0003FFFF80007FE0003FFFFC0007FF8000001FFFE0000007FFFFFF0001FFFFF
310
FF80003FFFFE0000FFFF80003FFFFE0000FFFF0003FFFFFFFFF0001FFFFE0003
310
F000F0001FFFF80003FE0003FFF000007FFF0001FF80007FE0003FFFF00007FE
310
0001FFFF80007FF8000001FFFE0000007FFFFFF0001FFFFFFFC0000FFFF80001
310
FFFFC0000FFFF80001FFFF0003FFFFFFFFF0001FFFFC0003F000F0000FFFF000
310
07FE0007FFF800007FFF0001FF80007FE0001FFFE00007FF0000FFFE00007FF8
310
000001FFFE0000007FFFFFF0001FFFFFFFC00003FFE00001FFFFC00003FFE000
310
01FFFF0003FFFFFFFFF8000FFFF80003F000F00003FFC00007FC0007FFF80000
310
7FFF8001FF80007FF00007FF80000FFF00007FF80000FFF8000001FFFE000000
310
7F80000000000001FFE000003E000003FFFFE000003E000003FFFF0003FFFFFF
310
FFF80003FFE00007F000F800000000000FFC0007FFF800007FFF8001FF80007F
310
F000000000000FFF000000000000FFF8000001FFFE0000007F80000000000001
310
FFF0000000000007FFFFF0000000000007FFFF0003FFFFFFFFFC00007E000007
310
F000F800000000000FFC0007FFF80000FFFF8000FF80007FF800000000001FFF
310
800000000001FFF8000001FFFE0000007F80000000000001FFF800000000000F
310
FFFFF800000000000FFFFF0003FFFFFFFFFC00000000000FF000FC0000000000
310
1FFC0007FFFC0000FFFF8000FF80007FF800000000003FFFC00000000001FFF8
310
000001FFFE0000007F80000000000001FFF800000000000FFFFFF80000000000
310
0FFFFF0003FFFFFFFFFE00000000001FF000FE00000000003FF8000FFFFC0000
310
FFFF8000FF80007FFC00000000003FFFC00000000003FFF8000001FFFE000000
310
7F80000000000001FFFC00000000001FFFFFFC00000000001FFFFF0003FFFFFF
310
FFFF00000000001FF000FF00000000003FF8000FFFFC0000FFFFC000FF80007F
310
FE00000000007FFFE00000000007FFF8000001FFFE0000007F80000000000001
310
FFFE00000000003FFFFFFE00000000003FFFFF0003FFFFFFFFFF80000000003F
310
F000FF80000000007FF8000FFFFC0001FFFFC0007F80007FFF0000000000FFFF
310
F0000000000FFFF800000000000000007F80000000000001FFFF8000000000FF
310
FFFFFF8000000000FFFFFF0003FFFFFFFFFFC0000000007FF000FFC000000000
310
FFF8000FFFFE0001FFFFC0007F80007FFF8000000001FFFFF8000000001FFFF8
310
00000000000000007F80000000000001FFFFC000000001FFFFFFFFC000000001
310
FFFFFF0003FFFFFFFFFFE000000000FFF000FFE000000003FFF0001FFFFE0001
310
FFFFC0007F80007FFFC000000007FFFFFE000000003FFFF80000000000000000
310
7F80000000000001FFFFE000000003FFFFFFFFE000000003FFFFFF0003FFFFFF
310
FFFFF000000003FFF000FFF80000000FFFF0001FFFFE0001FFFFE0007F80007F
310
FFF00000000FFFFFFF00000000FFFFF800000000000000007F80000000000001
310
FFFFF80000000FFFFFFFFFF80000000FFFFFFF0003FFFFFFFFFFFC0000000FFF
310
F000FFFE0000003FFFF0001FFFFE0003FFFFE0003F80007FFFFC0000003FFFFF
310
FFC0000003FFFFF800000000000000007F80000000000001FFFFFE0000003FFF
310
FFFFFFFE0000003FFFFFFF0003FFFFFFFFFFFF0000003FFFF000FFFF800000FF
310
FFF0001FFFFF0003FFFFE0003F80007FFFFF000001FFFFFFFFF800001FFFFFF8
310
00000000000000007F80000000000001FFFFFFC00001FFFFFFFFFFFFC00001FF
310
FFFFFF0003FFFFFFFFFFFFC00000FFFFF000FFFFF8000FFFFFFFFFFFFFFFFFFF
310
FFFFFFFFFFFFFFFFFFFFF0001FFFFFFFFFFF0000FFFFFFF80000000000000000
310
7FFFFFFFFFFFFFFFFFFFFFFC001FFFFFFFFFFFFFFC001FFFFFFFFFFFFFFFFFFF
310
FFFFFFFC001FFFFFF000FFFFFFFFFFFFFFFFFFFFFFFFFFFFFFFFFFFFFFFFFFFF
310
FFFFFFFFFFFFFFFFFFFFFFFFFFFFFFFFFFFFFFFFFFFFFFFFFFFFFFFFFFFFFFFF
310
FFFFFFFFFFFFFFFFFFFFFFFFFFFFFFFFFFFFFFFFFFFFFFFFFFFFFFFFFFFFFFFF
310
F000FFFFFFFFFFFFFFFFFFFFFFFFFFFFFFFFFFFFFFFFFFFFFFFFFFFFFFFFFFFF
310
FFFFFFFFFFFFFFFFFFFFFFFFFFFFFFFFFFFFFFFFFFFFFFFFFFFFFFFFFFFFFFFF
310
FFFFFFFFFFFFFFFFFFFFFFFFFFFFFFFFFFFFFFFFFFFFFFFFF000FFFFFFFFFFFF
310
FFFFFFFFFFFFFFFFFFFFFFFFFFFFFFFFFFFFFFFFFFFFFFFFFFFFFFFFFFFFFFFF
310
FFFFFFFFFFFFFFFFFFFFFFFFFFFFFFFFFFFFFFFFFFFFFFFFFFFFFFFFFFFFFFFF
310
FFFFFFFFFFFFFFFFFFFFFFFFFFFFFFFFF000FFFFFFFFFFFFFFFFFFFFFFFFFFFF
310
FFFFFFFFFFFFFFFFFFFFFFFFFFFFFFFFFFFFFFFFFFFFFFFFFFFFFFFFFFFFFFFF
310
FFFFFFFFFFFFFFFFFFFFFFFFFFFFFFFFFFFFFFFFFFFFFFFFFFFFFFFFFFFFFFFF
310
FFFFFFFFFFFFFFFFF000FFFFFFFFFFFFFFFFFFFFFFFFFFFFFFFFFFFFFFFFFFFF
310
FFFFFFFFFFFFFFFFFFFFFFFFFFFFFFFFFFFFFFFFFFFFFFFFFFFFFFFFFFFFFFFF
310
FFFFFFFFFFFFFFFFFFFFFFFFFFFFFFFFFFFFFFFFFFFFFFFFFFFFFFFFFFFFFFFF
310
F000FFFFFFFFFFFFFFFFFFFFFFFFFFFFFFFFFFFFFFFFFFFFFFFFFFFFFFFFFFFF
310
FFFFFFFFFFFFFFFFFFFFFFFFFFFFFFFFFFFFFFFFFFFFFFFFFFFFFFFFFFFFFFFF
310
FFFFFFFFFFFFFFFFFFFFFFFFFFFFFFFFFFFFFFFFFFFFFFFFF000FFFFFFFFFFFF
310
FFFFFFFFFFFFFFFFFFFFFFFFFFFFFFFFFFFFFFFFFFFFFFFFFFFFFFFFFFFFFFFF
310
FFFFFFFFFFFFFFFFFFFFFFFFFFFFFFFFFFFFFFFFFFFFFFFFFFFFFFFFFFFFFFFF
310
FFFFFFFFFFFFFFFFFFFFFFFFFFFFFFFFF000FFFFFFFFFFFFFFFFFFFFFFFFFFFF
310
FFFFFFFFFFFFFFFFFFFFFFFFFFFFFFFFFFFFFFFFFFFFFFFFFFFFFFFFFFFFFFFF
310
FFFFFFFFFFFFFFFFFFFFFFFFFFFFFFFFFFFFFFFFFFFFFFFFFFFFFFFFFFFFFFFF
310
FFFFFFFFFFFFFFFFF000FFFFFFFFFFFFFFFFFFFFFFFFFFFFFFFFFFFFFFFFFFFF
310
FFFFFFFFFFFFFFFFFFFFFFFFFFFFFFFFFFFFFFFFFFFFFFFFFFFFFFFFFFFFFFFF
310
FFFFFFFFFFFFFFFFFFFFFFFFFFFFFFFFFFFFFFFFFFFFFFFFFFFFFFFFFFFFFFFF
310
F000FFFFFFFFFFFFFFFFFFFFFFFFFFFFFFFFFFFFFFFFFFFFFFFFFFFFFFFFFFFF
310
FFFFFFFFFFFFFFFFFFFFFFFFFFFFFFFFFFFFFFFFFFFFFFFFFFFFFFFFFFFFFFFF
310
FFFFFFFFFFFFFFFFFFFFFFFFFFFFFFFFFFFFFFFFFFFFFFFFF000FFFFFFFFFFFF
310
FFFFFFFFFFFFFFFFFFFFFFFFFFFFFFFFFFFFFFFFFFFFFFFFFFFFFFFFFFFFFFFF
310
FFFFFFFFFFFFFFFFFFFFFFFFFFFFFFFFFFFFFFFFFFFFFFFFFFFFFFFFFFFFFFFF
310
FFFFFFFFFFFFFFFFFFFFFFFFFFFFFFFFF000FFFFFFFFFFFFFFFFFFFFFFFFFFFF
310
FFFFFFFFFFFFFFFFFFFFFFFFFFFFFFFFFFFFFFFFFFFFFFFFFFFFFFFFFFFFFFFF
310
FFFFFFFFFFFFFFFFFFFFFFFFFFFFFFFFFFFFFFFFFFFFFFFFFFFFFFFFFFFFFFFF
310
FFFFFFFFFFFFFFFFF000FFFFFFFFFFFFFFFFFFFFFFFFFFFFFFFFFFFFFFFFFFFF
310
FFFFFFFFFFFFFFFFFFFFFFFFFFFFFFFFFFFFFFFFFFFFFFFFFFFFFFFFFFFFFFFF
310
FFFFFFFFFFFFFFFFFFFFFFFFFFFFFFFFFFFFFFFFFFFFFFFFFFFFFFFFFFFFFFFF
310
F000FFFFFFFFFFFFFFFFFFFFFFFFFFFFFFFFFFFFFFFFFFFFFFFFFFFFFFFFFFFF
310
FFFFFFFFFFFFFFFFFFFFFFFFFFFFFFFFFFFFFFFFFFFFFFFFFFFFFFFFFFFFFFFF
310
FFFFFFFFFFFFFFFFFFFFFFFFFFFFFFFFFFFFFFFFFFFFFFFFF000FFFFFFFFFFFF
310
FFFFFFFFFFFFFFFFFFFFFFFFFFFFFFFFFFFFFFFFFFFFFFFFFFFFFFFFFFFFFFFF
310
FFFFFFFFFFFFFFFFFFFFFFFFFFFFFFFFFFFFFFFFFFFFFFFFFFFFFFFFFFFFFFFF
310
FFFFFFFFFFFFFFFFFFFFFFFFFFFFFFFFF000FFFFFFFFFFFFFFFFFFFFFFFFFFFF
310
FFFFFFFFFFFFFFFFFFFFFFFFFFFFFFFFFFFFFFFFFFFFFFFFFFFFFFFFFFFFFFFF
310
FFFFFFFFFFFFFFFFFFFFFFFFFFFFFFFFFFFFFFFFFFFFFFFFFFFFFFFFFFFFFFFF
310
FFFFFFFFFFFFFFFFF000FFFFFFFFFFFFFFFFFFFFFFFFFFFFFFFFFFFFFFFFFFFF
310
FFFFFFFFFFFFFFFFFFFFFFFFFFFFFFFFFFFFFFFFFFFFFFFFFFFFFFFFFFFFFFFF
310
FFFFFFFFFFFFFFFFFFFFFFFFFFFFFFFFFFFFFFFFFFFFFFFFFFFFFFFFFFFFFFFF
310
F000FFFFFFFFFFFFFFFFFFFFFFFFFFFFFFFFFFFFFFFFFFFFFFFFFFFFFFFFFFFF
310
FFFFFFFFFFFFFFFFFFFFFFFFFFFFFFFFFFFFFFFFFFFFFFFFFFFFFFFFFFFFFFFF
310
FFFFFFFFFFFFFFFFFFFFFFFFFFFFFFFFFFFFFFFFFFFFFFFFF000FFFFFFFFFFFF
310
FFFFFFFFFFFFFFFFFFFFFFFFFFFFFFFFFFFFFFFFFFFFFFFFFFFFFFFFFFFFFFFF
310
FFFFFFFFFFFFFFFFFFFFFFFFFFFFFFFFFFFFFFFFFFFFFFFFFFFFFFFFFFFFFFFF
310
FFFFFFFFFFFFFFFFFFFFFFFFFFFFFFFFF000FFFFFFFFFFFFFFFFFFFFFFFFFFFF
310
FFFFFFFFFFFFFFFFFFFFFFFFFFFFFFFFFFFFFFFFFFFFFFFFFFFFFFFFFFFFFFFF
310
FFFFFFFFFFFFFFFFFFFFFFFFFFFFFFFFFFFFFFFFFFFFFFFFFFFFFFFFFFFFFFFF
310
FFFFFFFFFFFFFFFFF000FFFFFFFFFFFFFFFFFFFFFFFFFFFFFFFFFFFFFFFFFFFF
310
FFFFFFFFFFFFFFFFFFFFFFFFFFFFFFFFFFFFFFFFFFFFFFFFFFFFFFFFFFFFFFFF
310
FFFFFFFFFFFFFFFFFFFFFFFFFFFFFFFFFFFFFFFFFFFFFFFFFFFFFFFFFFFFFFFF
310
F000FFFFFFFFFFFFFFFFFFFFFFFFFFFFFFFFFFFFFFFFFFFFFFFFFFFFFFFFFFFF
310
FFFFFFFFFFFFFFFFFFFFFFFFFFFFFFFFFFFFFFFFFFFFFFFFFFFFFFFFFFFFFFFF
310
FFFFFFFFFFFFFFFFFFFFFFFFFFFFFFFFFFFFFFFFFFFFFFFFF000FFFFFFFFFFFF
310
FFFFFFFFFFFFFFFFFFFFFFFFFFFFFFFFFFFFFFFFFFFFFFFFFFFFFFFFFFFFFFFF
310
FFFFFFFFFFFFFFFFFFFFFFFFFFFFFFFFFFFFFFFFFFFFFFFFFFFFFFFFFFFFFFFF
310
FFFFFFFFFFFFFFFFFFFFFFFFFFFFFFFFF0000000000000000000000000000000
310
0000000001000000010000000100000001000000010000000100000001000000
310
0100000001000000010000000100000001000000010000000100000001000000
310
0100000001000000010000000100000001000000010000000100000001000000
310
0100000001000000010000000000000001000000010000000100000001000000
310
0100000001000000010000000100000001000000010000000100000000000000
310
0100000001000000010000000100000001000000010000000100000001000000
310
0100000001000000010000000100000001000000010000000100000001000000
310
0100000001000000010000000100000001000000010000000100000001000000
310
0100000001000000010000000100000000000000010000000100000001000000
310
0100000001000000010000000100000001000000010000000100000001000000
310
0100000001000000010000000100000001000000010000000100000001000000
310
0100000001000000010000000100000001000000010000000100000001000000
310
0100000001000000010000000100000001000000010000000100000001000000
310
0100000001000000010000000100000001000000010000000100000001000000
310
0100000001000000010000000000000001000000010000000100000001000000
  1
OLE
  0
ENDSEC
  0
SECTION
  2
OBJECTS
  0
DICTIONARY
  5
C
330
0
100
AcDbDictionary
281
     1
  3
ACAD_GROUP
350
D
  3
ACAD_LAYOUT
350
1A
  3
ACAD_MLEADERSTYLE
350
2C7
  3
ACAD_MLINESTYLE
350
17
  3
ACAD_PLOTSETTINGS
350
19
  3
ACAD_PLOTSTYLENAME
350
E
  3
ACAD_TABLESTYLE
350
2C6
  3
ACAD_VISUALSTYLE
350
2A
  3
AcDbVariableDictionary
350
2C8
  0
DICTIONARY
  5
D
102
{ACAD_REACTORS
330
C
102
}
330
C
100
AcDbDictionary
281
     1
  0
DICTIONARY
  5
1A
102
{ACAD_REACTORS
330
C
102
}
330
C
100
AcDbDictionary
281
     1
  3
Layout1
350
1E
  3
Layout2
350
26
  3
Model
350
22
  0
DICTIONARY
  5
2C7
102
{ACAD_REACTORS
330
C
102
}
330
C
100
AcDbDictionary
281
     1
  0
DICTIONARY
  5
17
102
{ACAD_REACTORS
330
C
102
}
330
C
100
AcDbDictionary
281
     1
  3
Standard
350
18
  0
DICTIONARY
  5
19
102
{ACAD_REACTORS
330
C
102
}
330
C
100
AcDbDictionary
281
     1
  0
ACDBDICTIONARYWDFLT
  5
E
102
{ACAD_REACTORS
330
C
102
}
330
C
100
AcDbDictionary
281
     1
  3
Normal
350
F
100
AcDbDictionaryWithDefault
340
F
  0
DICTIONARY
  5
2C6
102
{ACAD_REACTORS
330
C
102
}
330
C
100
AcDbDictionary
281
     1
  0
DICTIONARY
  5
2A
102
{ACAD_REACTORS
330
C
102
}
330
C
100
AcDbDictionary
281
     1
  3
2dWireframe
350
2F
  3
3D Hidden
350
31
  3
3dWireframe
350
30
  3
Basic
350
32
  3
Brighten
350
36
  3
ColorChange
350
3A
  3
Conceptual
350
34
  3
Dim
350
35
  3
Facepattern
350
39
  3
Flat
350
2B
  3
FlatWithEdges
350
2C
  3
Gouraud
350
2D
  3
GouraudWithEdges
350
2E
  3
Linepattern
350
38
  3
Realistic
350
33
  3
Thicken
350
37
  0
DICTIONARY
  5
2C8
102
{ACAD_REACTORS
330
C
102
}
330
C
100
AcDbDictionary
281
     1
  3
PSOLHEIGHT
350
2CA
  3
PSOLWIDTH
350
2C9
  0
LAYOUT
  5
1E
102
{ACAD_REACTORS
330
1A
102
}
330
1A
100
AcDbPlotSettings
  1

  2
none_device
  4

  6

 40
0.0
 41
0.0
 42
0.0
 43
0.0
 44
0.0
 45
0.0
 46
0.0
 47
0.0
 48
0.0
 49
0.0
140
0.0
141
0.0
142
1.0
143
1.0
 70
   688
 72
     0
 73
     0
 74
     5
  7

 75
    16
147
1.0
148
0.0
149
0.0
100
AcDbLayout
  1
Layout1
 70
     1
 71
     1
 10
0.0
 20
0.0
 11
420.0
 21
297.0
 12
0.0
 22
0.0
 32
0.0
 14
1.0000000000E+20
 24
1.0000000000E+20
 34
1.0000000000E+20
 15
-1.0000000000E+20
 25
-1.0000000000E+20
 35
-1.0000000000E+20
146
0.0
 13
0.0
 23
0.0
 33
0.0
 16
1.0
 26
0.0
 36
0.0
 17
0.0
 27
1.0
 37
0.0
 76
     0
330
1B
  0
LAYOUT
  5
26
102
{ACAD_REACTORS
330
1A
102
}
330
1A
100
AcDbPlotSettings
  1

  2
none_device
  4

  6

 40
0.0
 41
0.0
 42
0.0
 43
0.0
 44
0.0
 45
0.0
 46
0.0
 47
0.0
 48
0.0
 49
0.0
140
0.0
141
0.0
142
1.0
143
1.0
 70
   688
 72
     0
 73
     0
 74
     5
  7

 75
    16
147
1.0
148
0.0
149
0.0
100
AcDbLayout
  1
Layout2
 70
     1
 71
     2
 10
0.0
 20
0.0
 11
0.0
 21
0.0
 12
0.0
 22
0.0
 32
0.0
 14
0.0
 24
0.0
 34
0.0
 15
0.0
 25
0.0
 35
0.0
146
0.0
 13
0.0
 23
0.0
 33
0.0
 16
1.0
 26
0.0
 36
0.0
 17
0.0
 27
1.0
 37
0.0
 76
     0
330
23
  0
LAYOUT
  5
22
102
{ACAD_REACTORS
330
1A
102
}
330
1A
100
AcDbPlotSettings
  1

  2
none_device
  4

  6

 40
0.0
 41
0.0
 42
0.0
 43
0.0
 44
0.0
 45
0.0
 46
0.0
 47
0.0
 48
0.0
 49
0.0
140
0.0
141
0.0
142
1.0
143
1.0
 70
  1712
 72
     0
 73
     0
 74
     0
  7

 75
     0
147
1.0
148
0.0
149
0.0
100
AcDbLayout
  1
Model
 70
     1
 71
     0
 10
0.0
 20
0.0
 11
297.0
 21
210.0
 12
0.0
 22
0.0
 32
0.0
 14
0.0
 24
0.0
 34
0.0
 15
297.0
 25
210.0
 35
0.0
146
0.0
 13
0.0
 23
0.0
 33
0.0
 16
1.0
 26
0.0
 36
0.0
 17
0.0
 27
1.0
 37
0.0
 76
     0
330
1F
331
29
  0
MLINESTYLE
  5
18
102
{ACAD_REACTORS
330
17
102
}
330
17
100
AcDbMlineStyle
  2
Standard
 70
     0
  3

 62
   256
 51
90.0
 52
90.0
 71
     2
 49
0.5
 62
   256
  6
BYLAYER
 49
-0.5
 62
   256
  6
BYLAYER
  0
ACDBPLACEHOLDER
  5
F
102
{ACAD_REACTORS
330
E
102
}
330
E
  0
VISUALSTYLE
  5
2F
102
{ACAD_REACTORS
330
2A
102
}
330
2A
100
AcDbVisualStyle
  2
2dWireframe
 70
     4
 71
     0
 72
     2
 73
     0
 90
        0
 40
-0.6
 41
-30.0
 62
     5
 63
     7
 74
     1
 91
        4
 64
     7
 65
   257
 75
     1
175
     1
 42
1.0
 92
        0
 66
   257
 43
1.0
 76
     1
 77
     6
 78
     2
 67
     7
 79
     5
170
     0
171
     0
290
     0
174
     0
 93
        1
 44
0.0
173
     0
291
     0
 45
0.0
1001
ACAD
1000
AcDbSavedByObjectVersion
1070
     0
  0
VISUALSTYLE
  5
31
102
{ACAD_REACTORS
330
2A
102
}
330
2A
100
AcDbVisualStyle
  2
3D Hidden
 70
     6
 71
     1
 72
     2
 73
     2
 90
        0
 40
-0.6
 41
-30.0
 62
     5
 63
     7
 74
     2
 91
        2
 64
     7
 65
   257
 75
     2
175
     1
 42
40.0
 92
        0
 66
   257
 43
1.0
 76
     1
 77
     6
 78
     2
 67
     7
 79
     3
170
     0
171
     0
290
     0
174
     0
 93
        1
 44
0.0
173
     0
291
     0
 45
0.0
1001
ACAD
1000
AcDbSavedByObjectVersion
1070
     0
  0
VISUALSTYLE
  5
30
102
{ACAD_REACTORS
330
2A
102
}
330
2A
100
AcDbVisualStyle
  2
3dWireframe
 70
     5
 71
     0
 72
     2
 73
     0
 90
        0
 40
-0.6
 41
-30.0
 62
     5
 63
     7
 74
     1
 91
        4
 64
     7
 65
   257
 75
     1
175
     1
 42
1.0
 92
        0
 66
   257
 43
1.0
 76
     1
 77
     6
 78
     2
 67
     7
 79
     5
170
     0
171
     0
290
     0
174
     0
 93
        1
 44
0.0
173
     0
291
     0
 45
0.0
1001
ACAD
1000
AcDbSavedByObjectVersion
1070
     0
  0
VISUALSTYLE
  5
32
102
{ACAD_REACTORS
330
2A
102
}
330
2A
100
AcDbVisualStyle
  2
Basic
 70
     7
 71
     1
 72
     0
 73
     1
 90
        0
 40
-0.6
 41
-30.0
 62
     5
 63
     7
 74
     0
 91
        4
 64
     7
 65
   257
 75
     1
175
     1
 42
1.0
 92
        8
 66
     7
 43
1.0
 76
     1
 77
     6
 78
     2
 67
     7
 79
     5
170
     0
171
     0
290
     0
174
     0
 93
        1
 44
0.0
173
     0
291
     1
 45
0.0
1001
ACAD
1000
AcDbSavedByObjectVersion
1070
     0
  0
VISUALSTYLE
  5
36
102
{ACAD_REACTORS
330
2A
102
}
330
2A
100
AcDbVisualStyle
  2
Brighten
 70
    12
 71
     2
 72
     2
 73
     0
 90
        0
 40
-0.6
 41
-30.0
 62
     5
 63
     7
 74
     1
 91
        4
 64
     7
 65
   257
 75
     1
175
     1
 42
1.0
 92
        8
 66
     7
 43
1.0
 76
     1
 77
     6
 78
     2
 67
     7
 79
     5
170
     0
171
     0
290
     0
174
     0
 93
        1
 44
50.0
173
     0
291
     1
 45
0.0
1001
ACAD
1000
AcDbSavedByObjectVersion
1070
     0
  0
VISUALSTYLE
  5
3A
102
{ACAD_REACTORS
330
2A
102
}
330
2A
100
AcDbVisualStyle
  2
ColorChange
 70
    16
 71
     2
 72
     2
 73
     3
 90
        0
 40
-0.6
 41
-30.0
 62
     5
 63
     8
 74
     1
 91
        4
 64
     7
 65
   257
 75
     1
175
     1
 42
1.0
 92
        8
 66
     8
 43
1.0
 76
     1
 77
     6
 78
     2
 67
     7
 79
     5
170
     0
171
     0
290
     0
174
     0
 93
        1
 44
0.0
173
     0
291
     1
 45
0.0
1001
ACAD
1000
AcDbSavedByObjectVersion
1070
     0
  0
VISUALSTYLE
  5
34
102
{ACAD_REACTORS
330
2A
102
}
330
2A
100
AcDbVisualStyle
  2
Conceptual
 70
     9
 71
     3
 72
     2
 73
     0
 90
        0
 40
-0.6
 41
-30.0
 62
     5
 63
     7
 74
     2
 91
        2
 64
     7
 65
   257
 75
     1
175
     1
 42
40.0
 92
        8
 66
     7
 43
1.0
 76
     1
 77
     6
 78
     2
 67
     7
 79
     3
170
     0
171
     0
290
     0
174
     0
 93
        1
 44
0.0
173
     0
291
     0
 45
0.0
1001
ACAD
1000
AcDbSavedByObjectVersion
1070
     0
  0
VISUALSTYLE
  5
35
102
{ACAD_REACTORS
330
2A
102
}
330
2A
100
AcDbVisualStyle
  2
Dim
 70
    11
 71
     2
 72
     2
 73
     0
 90
        0
 40
-0.6
 41
-30.0
 62
     5
 63
     7
 74
     1
 91
        4
 64
     7
 65
   257
 75
     1
175
     1
 42
1.0
 92
        8
 66
     7
 43
1.0
 76
     1
 77
     6
 78
     2
 67
     7
 79
     5
170
     0
171
     0
290
     0
174
     0
 93
        1
 44
-50.0
173
     0
291
     1
 45
0.0
1001
ACAD
1000
AcDbSavedByObjectVersion
1070
     0
  0
VISUALSTYLE
  5
39
102
{ACAD_REACTORS
330
2A
102
}
330
2A
100
AcDbVisualStyle
  2
Facepattern
 70
    15
 71
     2
 72
     2
 73
     0
 90
        0
 40
-0.6
 41
-30.0
 62
     5
 63
     7
 74
     1
 91
        4
 64
     7
 65
   257
 75
     1
175
     1
 42
1.0
 92
        8
 66
     7
 43
1.0
 76
     1
 77
     6
 78
     2
 67
     7
 79
     5
170
     0
171
     0
290
     0
174
     0
 93
        1
 44
0.0
173
     0
291
     1
 45
0.0
1001
ACAD
1000
AcDbSavedByObjectVersion
1070
     0
  0
VISUALSTYLE
  5
2B
102
{ACAD_REACTORS
330
2A
102
}
330
2A
100
AcDbVisualStyle
  2
Flat
 70
     0
 71
     2
 72
     1
 73
     1
 90
        2
 40
-0.6
 41
30.0
 62
     5
 63
     7
 74
     0
 91
        4
 64
     7
 65
   257
 75
     1
175
     1
 42
1.0
 92
        8
 66
     7
 43
1.0
 76
     1
 77
     6
 78
     2
 67
     7
 79
     5
170
     0
171
     0
290
     0
174
     0
 93
       13
 44
0.0
173
     0
291
     1
 45
0.0
1001
ACAD
1000
AcDbSavedByObjectVersion
1070
     0
  0
VISUALSTYLE
  5
2C
102
{ACAD_REACTORS
330
2A
102
}
330
2A
100
AcDbVisualStyle
  2
FlatWithEdges
 70
     1
 71
     2
 72
     1
 73
     1
 90
        2
 40
-0.6
 41
30.0
 62
     5
 63
     7
 74
     1
 91
        4
 64
     7
 65
   257
 75
     1
175
     1
 42
1.0
 92
        0
 66
   257
 43
1.0
 76
     1
 77
     6
 78
     2
 67
     7
 79
     5
170
     0
171
     0
290
     0
174
     0
 93
       13
 44
0.0
173
     0
291
     1
 45
0.0
1001
ACAD
1000
AcDbSavedByObjectVersion
1070
     0
  0
VISUALSTYLE
  5
2D
102
{ACAD_REACTORS
330
2A
102
}
330
2A
100
AcDbVisualStyle
  2
Gouraud
 70
     2
 71
     2
 72
     2
 73
     1
 90
        2
 40
-0.6
 41
30.0
 62
     5
 63
     7
 74
     0
 91
        4
 64
     7
 65
   257
 75
     1
175
     1
 42
1.0
 92
        0
 66
     7
 43
1.0
 76
     1
 77
     6
 78
     2
 67
     7
 79
     5
170
     0
171
     0
290
     0
174
     0
 93
       13
 44
0.0
173
     0
291
     1
 45
0.0
1001
ACAD
1000
AcDbSavedByObjectVersion
1070
     0
  0
VISUALSTYLE
  5
2E
102
{ACAD_REACTORS
330
2A
102
}
330
2A
100
AcDbVisualStyle
  2
GouraudWithEdges
 70
     3
 71
     2
 72
     2
 73
     1
 90
        2
 40
-0.6
 41
30.0
 62
     5
 63
     7
 74
     1
 91
        4
 64
     7
 65
   257
 75
     1
175
     1
 42
1.0
 92
        0
 66
   257
 43
1.0
 76
     1
 77
     6
 78
     2
 67
     7
 79
     5
170
     0
171
     0
290
     0
174
     0
 93
       13
 44
0.0
173
     0
291
     1
 45
0.0
1001
ACAD
1000
AcDbSavedByObjectVersion
1070
     0
  0
VISUALSTYLE
  5
38
102
{ACAD_REACTORS
330
2A
102
}
330
2A
100
AcDbVisualStyle
  2
Linepattern
 70
    14
 71
     2
 72
     2
 73
     0
 90
        0
 40
-0.6
 41
-30.0
 62
     5
 63
     7
 74
     1
 91
        4
 64
     7
 65
   257
 75
     7
175
     7
 42
1.0
 92
        8
 66
     7
 43
1.0
 76
     1
 77
     6
 78
     2
 67
     7
 79
     5
170
     0
171
     0
290
     0
174
     0
 93
        1
 44
0.0
173
     0
291
     1
 45
0.0
1001
ACAD
1000
AcDbSavedByObjectVersion
1070
     0
  0
VISUALSTYLE
  5
33
102
{ACAD_REACTORS
330
2A
102
}
330
2A
100
AcDbVisualStyle
  2
Realistic
 70
     8
 71
     2
 72
     2
 73
     0
 90
        0
 40
-0.6
 41
-30.0
 62
     5
 63
     7
 74
     1
 91
        0
 64
     7
 65
   257
 75
     1
175
     1
 42
1.0
 92
        8
 66
     8
 43
1.0
 76
     1
 77
     6
 78
     2
 67
     7
 79
     5
170
     0
171
     0
290
     0
174
     0
 93
       13
 44
0.0
173
     0
291
     0
 45
0.0
1001
ACAD
1000
AcDbSavedByObjectVersion
1070
     0
  0
VISUALSTYLE
  5
37
102
{ACAD_REACTORS
330
2A
102
}
330
2A
100
AcDbVisualStyle
  2
Thicken
 70
    13
 71
     2
 72
     2
 73
     0
 90
        0
 40
-0.6
 41
-30.0
 62
     5
 63
     7
 74
     1
 91
        4
 64
     7
 65
   257
 75
     1
175
     1
 42
1.0
 92
       12
 66
     7
 43
1.0
 76
     1
 77
     6
 78
     2
 67
     7
 79
     5
170
     0
171
     0
290
     0
174
     0
 93
        1
 44
0.0
173
     0
291
     1
 45
0.0
1001
ACAD
1000
AcDbSavedByObjectVersion
1070
     0
  0
DICTIONARYVAR
  5
2CA
102
{ACAD_REACTORS
330
2C8
102
}
330
2C8
100
DictionaryVariables
280
     0
  1
80.000000
  0
DICTIONARYVAR
  5
2C9
102
{ACAD_REACTORS
330
2C8
102
}
330
2C8
100
DictionaryVariables
280
     0
  1
5.000000
  0
ENDSEC
  0
EOF
