  0
SECTION
  2
HEADER
  9
$ACADVER
  1
AC1015
  9
$ACADMAINTVER
 70
     6
  9
$DWGCODEPAGE
  3
ANSI_1252
  9
$INSBASE
 10
0.0
 20
0.0
 30
0.0
  9
$EXTMIN
 10
0.0
 20
0.0
 30
0.0
  9
$EXTMAX
 10
297.0
 20
210.0
 30
0.0
  9
$LIMMIN
 10
0.0
 20
0.0
  9
$LIMMAX
 10
297.0
 20
210.0
  9
$ORTHOMODE
 70
     0
  9
$REGENMODE
 70
     1
  9
$FILLMODE
 70
     1
  9
$QTEXTMODE
 70
     0
  9
$MIRRTEXT
 70
     1
  9
$LTSCALE
 40
1.0
  9
$ATTMODE
 70
     1
  9
$TEXTSIZE
 40
2.0
  9
$TRACEWID
 40
1.0
  9
$TEXTSTYLE
  7
Standard
  9
$CLAYER
  8
0
  9
$CELTYPE
  6
ByLayer
  9
$CECOLOR
 62
   256
  9
$CELTSCALE
 40
1.0
  9
$DISPSILH
 70
     0
  9
$DIMSCALE
 40
1.0
  9
$DIMASZ
 40
3.0
  9
$DIMEXO
 40
0.0
  9
$DIMDLI
 40
3.75
  9
$DIMRND
 40
0.0
  9
$DIMDLE
 40
0.0
  9
$DIMEXE
 40
1.0
  9
$DIMTP
 40
0.0
  9
$DIMTM
 40
0.0
  9
$DIMTXT
 40
2.0
  9
$DIMCEN
 40
2.5
  9
$DIMTSZ
 40
0.0
  9
$DIMTOL
 70
     0
  9
$DIMLIM
 70
     0
  9
$DIMTIH
 70
     1
  9
$DIMTOH
 70
     1
  9
$DIMSE1
 70
     0
  9
$DIMSE2
 70
     0
  9
$DIMTAD
 70
     1
  9
$DIMZIN
 70
     0
  9
$DIMBLK
  1

  9
$DIMASO
 70
     1
  9
$DIMSHO
 70
     1
  9
$DIMPOST
  1

  9
$DIMAPOST
  1

  9
$DIMALT
 70
     0
  9
$DIMALTD
 70
     3
  9
$DIMALTF
 40
0.0393700787
  9
$DIMLFAC
 40
1.0
  9
$DIMTOFL
 70
     1
  9
$DIMTVP
 40
0.0
  9
$DIMTIX
 70
     0
  9
$DIMSOXD
 70
     0
  9
$DIMSAH
 70
     0
  9
$DIMBLK1
  1

  9
$DIMBLK2
  1

  9
$DIMSTYLE
  2
ISO-25
  9
$DIMCLRD
 70
     0
  9
$DIMCLRE
 70
     0
  9
$DIMCLRT
 70
     0
  9
$DIMTFAC
 40
1.0
  9
$DIMGAP
 40
1.524
  9
$DIMJUST
 70
     0
  9
$DIMSD1
 70
     0
  9
$DIMSD2
 70
     0
  9
$DIMTOLJ
 70
     0
  9
$DIMTZIN
 70
     0
  9
$DIMALTZ
 70
     0
  9
$DIMALTTZ
 70
     0
  9
$DIMUPT
 70
     0
  9
$DIMDEC
 70
     2
  9
$DIMTDEC
 70
     3
  9
$DIMALTU
 70
     2
  9
$DIMALTTD
 70
     3
  9
$DIMTXSTY
  7
Standard
  9
$DIMAUNIT
 70
     0
  9
$DIMADEC
 70
     2
  9
$DIMALTRND
 40
0.0
  9
$DIMAZIN
 70
     0
  9
$DIMDSEP
 70
    44
  9
$DIMATFIT
 70
     3
  9
$DIMFRAC
 70
     0
  9
$DIMLDRBLK
  1

  9
$DIMLUNIT
 70
     2
  9
$DIMLWD
 70
    -2
  9
$DIMLWE
 70
    -2
  9
$DIMTMOVE
 70
     0
  9
$LUNITS
 70
     2
  9
$LUPREC
 70
     2
  9
$SKETCHINC
 40
1.0
  9
$FILLETRAD
 40
10.0
  9
$AUNITS
 70
     0
  9
$AUPREC
 70
     2
  9
$MENU
  1
.
  9
$ELEVATION
 40
0.0
  9
$PELEVATION
 40
0.0
  9
$THICKNESS
 40
0.0
  9
$LIMCHECK
 70
     0
  9
$CHAMFERA
 40
10.0
  9
$CHAMFERB
 40
10.0
  9
$CHAMFERC
 40
20.0
  9
$CHAMFERD
 40
0.0
  9
$SKPOLY
 70
     0
  9
$TDCREATE
 40
2455680.499604734
  9
$TDUCREATE
 40
2455680.416271401
  9
$TDUPDATE
 40
2455680.499604745
  9
$TDUUPDATE
 40
2455680.416271412
  9
$TDINDWG
 40
0.0000000116
  9
$TDUSRTIMER
 40
0.0000000116
  9
$USRTIMER
 70
     1
  9
$ANGBASE
 50
0.0
  9
$ANGDIR
 70
     0
  9
$PDMODE
 70
     0
  9
$PDSIZE
 40
-1.0
  9
$PLINEWID
 40
0.0
  9
$SPLFRAME
 70
     0
  9
$SPLINETYPE
 70
     6
  9
$SPLINESEGS
 70
     8
  9
$HANDSEED
  5
21B
  9
$SURFTAB1
 70
     6
  9
$SURFTAB2
 70
     6
  9
$SURFTYPE
 70
     6
  9
$SURFU
 70
     6
  9
$SURFV
 70
     6
  9
$UCSBASE
  2

  9
$UCSNAME
  2

  9
$UCSORG
 10
0.0
 20
0.0
 30
0.0
  9
$UCSXDIR
 10
1.0
 20
0.0
 30
0.0
  9
$UCSYDIR
 10
0.0
 20
1.0
 30
0.0
  9
$UCSORTHOREF
  2

  9
$UCSORTHOVIEW
 70
     0
  9
$UCSORGTOP
 10
0.0
 20
0.0
 30
0.0
  9
$UCSORGBOTTOM
 10
0.0
 20
0.0
 30
0.0
  9
$UCSORGLEFT
 10
0.0
 20
0.0
 30
0.0
  9
$UCSORGRIGHT
 10
0.0
 20
0.0
 30
0.0
  9
$UCSORGFRONT
 10
0.0
 20
0.0
 30
0.0
  9
$UCSORGBACK
 10
0.0
 20
0.0
 30
0.0
  9
$PUCSBASE
  2

  9
$PUCSNAME
  2

  9
$PUCSORG
 10
0.0
 20
0.0
 30
0.0
  9
$PUCSXDIR
 10
1.0
 20
0.0
 30
0.0
  9
$PUCSYDIR
 10
0.0
 20
1.0
 30
0.0
  9
$PUCSORTHOREF
  2

  9
$PUCSORTHOVIEW
 70
     0
  9
$PUCSORGTOP
 10
0.0
 20
0.0
 30
0.0
  9
$PUCSORGBOTTOM
 10
0.0
 20
0.0
 30
0.0
  9
$PUCSORGLEFT
 10
0.0
 20
0.0
 30
0.0
  9
$PUCSORGRIGHT
 10
0.0
 20
0.0
 30
0.0
  9
$PUCSORGFRONT
 10
0.0
 20
0.0
 30
0.0
  9
$PUCSORGBACK
 10
0.0
 20
0.0
 30
0.0
  9
$USERI1
 70
     0
  9
$USERI2
 70
     0
  9
$USERI3
 70
     0
  9
$USERI4
 70
     0
  9
$USERI5
 70
     0
  9
$USERR1
 40
0.0
  9
$USERR2
 40
0.0
  9
$USERR3
 40
0.0
  9
$USERR4
 40
0.0
  9
$USERR5
 40
0.0
  9
$WORLDVIEW
 70
     1
  9
$SHADEDGE
 70
     3
  9
$SHADEDIF
 70
    70
  9
$TILEMODE
 70
     1
  9
$MAXACTVP
 70
    64
  9
$PINSBASE
 10
0.0
 20
0.0
 30
0.0
  9
$PLIMCHECK
 70
     0
  9
$PEXTMIN
 10
1.0000000000E+20
 20
1.0000000000E+20
 30
1.0000000000E+20
  9
$PEXTMAX
 10
-1.0000000000E+20
 20
-1.0000000000E+20
 30
-1.0000000000E+20
  9
$PLIMMIN
 10
0.0
 20
0.0
  9
$PLIMMAX
 10
420.0
 20
297.0
  9
$UNITMODE
 70
     0
  9
$VISRETAIN
 70
     1
  9
$PLINEGEN
 70
     0
  9
$PSLTSCALE
 70
     1
  9
$TREEDEPTH
 70
  3020
  9
$CMLSTYLE
  2
Standard
  9
$CMLJUST
 70
     0
  9
$CMLSCALE
 40
20.0
  9
$PROXYGRAPHICS
 70
     1
  9
$MEASUREMENT
 70
     1
  9
$CELWEIGHT
370
    -1
  9
$ENDCAPS
280
     0
  9
$JOINSTYLE
280
     0
  9
$LWDISPLAY
290
     1
  9
$INSUNITS
 70
     4
  9
$HYPERLINKBASE
  1

  9
$STYLESHEET
  1

  9
$XEDIT
290
     1
  9
$CEPSNTYPE
380
     0
  9
$PSTYLEMODE
290
     1
  9
$FINGERPRINTGUID
  2
{DA9F41FF-6AD5-4CE9-A66D-915B5B72471F}
  9
$VERSIONGUID
  2
{FAEB1C32-E019-11D5-929B-00C0DF256EC4}
  9
$EXTNAMES
290
     1
  9
$PSVPSCALE
 40
0.0
  9
$OLESTARTUP
290
     0
  0
ENDSEC
  0
SECTION
  2
CLASSES
  0
CLASS
  1
ACDBDICTIONARYWDFLT
  2
AcDbDictionaryWithDefault
  3
ObjectDBX Classes
 90
        0
280
     0
281
     0
  0
CLASS
  1
VISUALSTYLE
  2
AcDbVisualStyle
  3
ObjectDBX Classes
 90
     4095
280
     0
281
     0
  0
CLASS
  1
DICTIONARYVAR
  2
AcDbDictionaryVar
  3
ObjectDBX Classes
 90
        0
280
     0
281
     0
  0
CLASS
  1
ACDBPLACEHOLDER
  2
AcDbPlaceHolder
  3
ObjectDBX Classes
 90
        0
280
     0
281
     0
  0
CLASS
  1
LAYOUT
  2
AcDbLayout
  3
ObjectDBX Classes
 90
        0
280
     0
281
     0
  0
ENDSEC
  0
SECTION
  2
TABLES
  0
TABLE
  2
VPORT
  5
8
330
0
100
AcDbSymbolTable
 70
     1
  0
VPORT
  5
29
330
8
100
AcDbSymbolTableRecord
100
AcDbViewportTableRecord
  2
*Active
 70
     0
 10
0.0
 20
0.0
 11
1.0
 21
1.0
 12
148.5
 22
105.0
 13
0.0
 23
0.0
 14
10.0
 24
10.0
 15
10.0
 25
10.0
 16
0.0
 26
0.0
 36
1.0
 17
0.0
 27
0.0
 37
0.0
 40
210.0
 41
1.4142857143
 42
50.0
 43
0.0
 44
0.0
 50
0.0
 51
0.0
 71
     0
 72
  2000
 73
     1
 74
     3
 75
     0
 76
     0
 77
     0
 78
     0
281
     0
 65
     1
110
0.0
120
0.0
130
0.0
111
1.0
121
0.0
131
0.0
112
0.0
122
1.0
132
0.0
 79
     0
146
0.0
  0
ENDTAB
  0
TABLE
  2
LTYPE
  5
5
330
0
100
AcDbSymbolTable
 70
     6
  0
LTYPE
  5
14
330
5
100
AcDbSymbolTableRecord
100
AcDbLinetypeTableRecord
  2
ByBlock
 70
     0
  3

 72
    65
 73
     0
 40
0.0
  0
LTYPE
  5
15
330
5
100
AcDbSymbolTableRecord
100
AcDbLinetypeTableRecord
  2
ByLayer
 70
     0
  3

 72
    65
 73
     0
 40
0.0
  0
LTYPE
  5
16
330
5
100
AcDbSymbolTableRecord
100
AcDbLinetypeTableRecord
  2
Continuous
 70
     0
  3
Solid line
 72
    65
 73
     0
 40
0.0
  0
LTYPE
  5
3B
330
5
100
AcDbSymbolTableRecord
100
AcDbLinetypeTableRecord
  2
HIDDEN
 70
     0
  3
Hidden __ __ __ __ __ __ __ __ __ __ __ __ __ __
 72
    65
 73
     2
 40
1.905
 49
1.27
 74
     0
 49
-0.635
 74
     0
  0
LTYPE
  5
3C
330
5
100
AcDbSymbolTableRecord
100
AcDbLinetypeTableRecord
  2
PHANTOM
 70
     0
  3
Phantom ______  __  __  ______  __  __  ______
 72
    65
 73
     6
 40
12.7
 49
6.35
 74
     0
 49
-1.27
 74
     0
 49
1.27
 74
     0
 49
-1.27
 74
     0
 49
1.27
 74
     0
 49
-1.27
 74
     0
  0
LTYPE
  5
3D
330
5
100
AcDbSymbolTableRecord
100
AcDbLinetypeTableRecord
  2
CENTER
 70
     0
  3
Center ____ _ ____ _ ____ _ ____ _ ____ _ ____
 72
    65
 73
     4
 40
10.16
 49
6.35
 74
     0
 49
-1.27
 74
     0
 49
1.27
 74
     0
 49
-1.27
 74
     0
  0
LTYPE
  5
3E
330
5
100
AcDbSymbolTableRecord
100
AcDbLinetypeTableRecord
  2
CENTERX2
 70
     0
  3
Center (2x) ________  __  ________  __  _____
 72
    65
 73
     4
 40
20.32
 49
12.7
 74
     0
 49
-2.54
 74
     0
 49
2.54
 74
     0
 49
-2.54
 74
     0
  0
LTYPE
  5
3F
330
5
100
AcDbSymbolTableRecord
100
AcDbLinetypeTableRecord
  2
DOT2
 70
     0
  3
Dot (.5x) ........................................
 72
    65
 73
     2
 40
0.635
 49
0.0
 74
     0
 49
-0.635
 74
     0
  0
ENDTAB
  0
TABLE
  2
LAYER
  5
2
330
0
100
AcDbSymbolTable
 70
     5
  0
LAYER
  5
10
330
2
100
AcDbSymbolTableRecord
100
AcDbLayerTableRecord
  2
0
 70
     0
 62
     7
  6
Continuous
370
    -3
390
F
  0
LAYER
  5
40
330
2
100
AcDbSymbolTableRecord
100
AcDbLayerTableRecord
  2
FORMAT
 70
     0
 62
     7
  6
Continuous
370
    -3
390
F
  0
LAYER
  5
41
330
2
100
AcDbSymbolTableRecord
100
AcDbLayerTableRecord
  2
VERMASSUNG
 70
     0
 62
     7
  6
Continuous
370
    -3
390
F
  0
LAYER
  5
42
330
2
100
AcDbSymbolTableRecord
100
AcDbLayerTableRecord
  2
KOPF_DÜNN
 70
     0
 62
     7
  6
Continuous
370
    -3
390
F
  0
LAYER
  5
43
330
2
100
AcDbSymbolTableRecord
100
AcDbLayerTableRecord
  2
KOPF_DICK
 70
     0
 62
     7
  6
Continuous
370
    15
390
F
  0
ENDTAB
  0
TABLE
  2
STYLE
  5
3
330
0
100
AcDbSymbolTable
 70
     3
  0
STYLE
  5
11
330
3
100
AcDbSymbolTableRecord
100
AcDbTextStyleTableRecord
  2
Standard
 70
     0
 40
0.0
 41
1.0
 50
0.0
 71
     0
 42
2.5
  3
txt
  4

  0
STYLE
  5
44
330
3
100
AcDbSymbolTableRecord
100
AcDbTextStyleTableRecord
  2
SLDTEXTSTYLE0
 70
     0
 40
0.0
 41
0.7
 50
0.0
 71
     0
 42
0.2
  3
TXT
  4

  0
STYLE
  5
48
330
3
100
AcDbSymbolTableRecord
100
AcDbTextStyleTableRecord
  2
SLDTEXTSTYLE1
 70
     0
 40
0.0
 41
0.65
 50
0.0
 71
     0
 42
0.2
  3
TXT
  4

  0
ENDTAB
  0
TABLE
  2
VIEW
  5
6
330
0
100
AcDbSymbolTable
 70
     0
  0
ENDTAB
  0
TABLE
  2
UCS
  5
7
330
0
100
AcDbSymbolTable
 70
     0
  0
ENDTAB
  0
TABLE
  2
APPID
  5
9
330
0
100
AcDbSymbolTable
 70
     1
  0
APPID
  5
12
330
9
100
AcDbSymbolTableRecord
100
AcDbRegAppTableRecord
  2
ACAD
 70
     0
  0
ENDTAB
  0
TABLE
  2
DIMSTYLE
  5
A
330
0
100
AcDbSymbolTable
 70
     5
100
AcDbDimStyleTable
  0
DIMSTYLE
105
27
330
A
100
AcDbSymbolTableRecord
100
AcDbDimStyleTableRecord
  2
ISO-25
 70
     0
 41
2.5
 42
0.625
 43
3.75
 44
1.25
 73
     0
 74
     0
 77
     1
 78
     8
140
2.5
141
2.5
143
0.0393700787
147
0.625
171
     3
172
     1
271
     2
272
     2
274
     3
278
    44
283
     0
284
     8
340
11
  0
DIMSTYLE
105
1B9
102
{ACAD_REACTORS
330
1B8
330
1EB
330
1F5
330
1FF
330
209
102
}
330
A
100
AcDbSymbolTableRecord
100
AcDbDimStyleTableRecord
  2
SLDDIMSTYLE0
 70
     0
 41
3.0
 44
0.0
 45
0.000000001
 73
     0
 74
     0
 77
     1
 78
    12
140
2.0
147
0.5
173
     1
271
     2
272
     3
284
    12
340
44
  0
DIMSTYLE
105
1C6
102
{ACAD_REACTORS
330
1C5
102
}
330
A
100
AcDbSymbolTableRecord
100
AcDbDimStyleTableRecord
  2
SLDDIMSTYLE1
 70
     0
 41
3.0
 44
0.0
 45
0.000000001
 73
     0
 74
     0
 77
     1
 78
    12
140
2.0
147
0.5
173
     1
271
     2
272
     2
284
    12
340
44
  0
DIMSTYLE
105
1D1
102
{ACAD_REACTORS
330
1D0
102
}
330
A
100
AcDbSymbolTableRecord
100
AcDbDimStyleTableRecord
  2
SLDDIMSTYLE2
 70
     0
 41
3.0
 44
0.0
 45
0.000000001
 73
     0
 74
     0
 77
     1
 78
    12
140
2.0
147
0.5
173
     1
271
     2
272
     2
284
    12
340
44
  0
DIMSTYLE
105
1E0
102
{ACAD_REACTORS
330
1DF
102
}
330
A
100
AcDbSymbolTableRecord
100
AcDbDimStyleTableRecord
  2
SLDDIMSTYLE3
 70
     0
 41
3.0
 44
0.0
 45
0.000000001
 73
     0
 74
     0
 77
     1
 78
    12
140
2.0
147
0.5
173
     1
271
     2
272
     3
284
    12
340
44
  0
ENDTAB
  0
TABLE
  2
BLOCK_RECORD
  5
1
330
0
100
AcDbSymbolTable
 70
     9
  0
BLOCK_RECORD
  5
1F
330
1
100
AcDbSymbolTableRecord
100
AcDbBlockTableRecord
  2
*Model_Space
340
22
  0
BLOCK_RECORD
  5
1B
330
1
100
AcDbSymbolTableRecord
100
AcDbBlockTableRecord
  2
*Paper_Space
340
1E
  0
BLOCK_RECORD
  5
23
330
1
100
AcDbSymbolTableRecord
100
AcDbBlockTableRecord
  2
*Paper_Space0
340
26
  0
BLOCK_RECORD
  5
1BA
330
1
100
AcDbSymbolTableRecord
100
AcDbBlockTableRecord
  2
*D1
340
0
  0
BLOCK_RECORD
  5
1C7
330
1
100
AcDbSymbolTableRecord
100
AcDbBlockTableRecord
  2
*D2
340
0
  0
BLOCK_RECORD
  5
1D2
330
1
100
AcDbSymbolTableRecord
100
AcDbBlockTableRecord
  2
*D3
340
0
  0
BLOCK_RECORD
  5
1E1
330
1
100
AcDbSymbolTableRecord
100
AcDbBlockTableRecord
  2
*D4
340
0
  0
BLOCK_RECORD
  5
1EC
330
1
100
AcDbSymbolTableRecord
100
AcDbBlockTableRecord
  2
*D5
340
0
  0
BLOCK_RECORD
  5
1F6
330
1
100
AcDbSymbolTableRecord
100
AcDbBlockTableRecord
  2
*D6
340
0
  0
BLOCK_RECORD
  5
200
330
1
100
AcDbSymbolTableRecord
100
AcDbBlockTableRecord
  2
*D7
340
0
  0
BLOCK_RECORD
  5
20A
330
1
100
AcDbSymbolTableRecord
100
AcDbBlockTableRecord
  2
*D8
340
0
  0
ENDTAB
  0
ENDSEC
  0
SECTION
  2
BLOCKS
  0
BLOCK
  5
20
330
1F
100
AcDbEntity
  8
0
100
AcDbBlockBegin
  2
*Model_Space
 70
     0
 10
0.0
 20
0.0
 30
0.0
  3
*Model_Space
  1

  0
ENDBLK
  5
21
330
1F
100
AcDbEntity
  8
0
100
AcDbBlockEnd
  0
BLOCK
  5
1C
330
1B
100
AcDbEntity
 67
     1
  8
0
100
AcDbBlockBegin
  2
*Paper_Space
 70
     0
 10
0.0
 20
0.0
 30
0.0
  3
*Paper_Space
  1

  0
ENDBLK
  5
1D
330
1B
100
AcDbEntity
 67
     1
  8
0
100
AcDbBlockEnd
  0
BLOCK
  5
24
330
23
100
AcDbEntity
  8
0
100
AcDbBlockBegin
  2
*Paper_Space0
 70
     0
 10
0.0
 20
0.0
 30
0.0
  3
*Paper_Space0
  1

  0
ENDBLK
  5
25
330
23
100
AcDbEntity
  8
0
100
AcDbBlockEnd
  0
BLOCK
  5
1BB
330
1BA
100
AcDbEntity
  8
0
100
AcDbBlockBegin
  2
*D1
 70
     1
 10
0.0
 20
0.0
 30
0.0
  3
*D1
  1

  0
SOLID
  5
1BD
330
1BA
100
AcDbEntity
  8
VERMASSUNG
100
AcDbTrace
 10
39.8915492958
 20
161.6139761647
 30
0.0
 11
39.4415492958
 21
158.6139761647
 31
0.0
 12
40.3415492958
 22
158.6139761647
 32
0.0
 13
40.3415492958
 23
158.6139761647
 33
0.0
  0
SOLID
  5
1BE
330
1BA
100
AcDbEntity
  8
VERMASSUNG
100
AcDbTrace
 10
39.8915492958
 20
61.6139761647
 30
0.0
 11
40.3415492958
 21
64.6139761647
 31
0.0
 12
39.4415492958
 22
64.6139761647
 32
0.0
 13
39.4415492958
 23
64.6139761647
 33
0.0
  0
LINE
  5
1BF
330
1BA
100
AcDbEntity
  8
VERMASSUNG
100
AcDbLine
 10
94.9485671768
 20
161.6139761647
 30
0.0
 11
38.8915492958
 21
161.6139761647
 31
0.0
  0
LINE
  5
1C0
330
1BA
100
AcDbEntity
  8
VERMASSUNG
100
AcDbLine
 10
94.9485671768
 20
61.6139761647
 30
0.0
 11
38.8915492958
 21
61.6139761647
 31
0.0
  0
LINE
  5
1C1
330
1BA
100
AcDbEntity
  8
VERMASSUNG
100
AcDbLine
 10
39.8915492958
 20
161.6139761647
 30
0.0
 11
39.8915492958
 21
61.6139761647
 31
0.0
  0
MTEXT
  5
1C2
330
1BA
100
AcDbEntity
  8
VERMASSUNG
100
AcDbMText
 10
37.1134138067
 20
103.4103250271
 30
0.0
 40
2.0
 41
0.0
 71
     1
 72
     1
  1
HSK A 
  7
SLDTEXTSTYLE0
 11
-7.044195017643634E-15
 21
1.0
 31
0.0
 73
     1
 44
1.0
  0
MTEXT
  5
1C3
330
1BA
100
AcDbEntity
  8
VERMASSUNG
100
AcDbMText
 10
37.3134138162
 20
112.410325571
 30
0.0
 40
2.0
 41
0.0
 71
     1
 72
     1
  1
%%c
  7
SLDTEXTSTYLE0
 11
-7.044195017643634E-15
 21
1.0
 31
0.0
 73
     1
 44
1.0
  0
MTEXT
  5
1C4
330
1BA
100
AcDbEntity
  8
VERMASSUNG
100
AcDbMText
 10
37.3134139326
 20
116.018652221
 30
0.0
 40
2.0
 41
0.0
 71
     1
 72
     1
  1
100
  7
SLDTEXTSTYLE0
 11
-7.044195017643634E-15
 21
1.0
 31
0.0
 73
     1
 44
1.0
  0
ENDBLK
  5
1BC
330
1BA
100
AcDbEntity
  8
0
100
AcDbBlockEnd
  0
BLOCK
  5
1C8
330
1C7
100
AcDbEntity
  8
0
100
AcDbBlockBegin
  2
*D2
 70
     1
 10
0.0
 20
0.0
 30
0.0
  3
*D2
  1

  0
SOLID
  5
1CA
330
1C7
100
AcDbEntity
  8
VERMASSUNG
100
AcDbTrace
 10
217.9485671768
 20
160.1860888408
 30
0.0
 11
220.9485671768
 21
159.7360888408
 31
0.0
 12
220.9485671768
 22
160.6360888408
 32
0.0
 13
220.9485671768
 23
160.6360888408
 33
0.0
  0
SOLID
  5
1CB
330
1C7
100
AcDbEntity
  8
VERMASSUNG
100
AcDbTrace
 10
254.4485671768
 20
160.1860888407
 30
0.0
 11
251.4485671768
 21
160.6360888408
 31
0.0
 12
251.4485671768
 22
159.7360888408
 32
0.0
 13
251.4485671768
 23
159.7360888408
 33
0.0
  0
LINE
  5
1CC
330
1C7
100
AcDbEntity
  8
VERMASSUNG
100
AcDbLine
 10
217.9485671768
 20
114.5139761647
 30
0.0
 11
217.9485671768
 21
161.1860888408
 31
0.0
  0
LINE
  5
1CD
330
1C7
100
AcDbEntity
  8
VERMASSUNG
100
AcDbLine
 10
254.4485671768
 20
120.2651951814
 30
0.0
 11
254.4485671768
 21
161.1860888407
 31
0.0
  0
LINE
  5
1CE
330
1C7
100
AcDbEntity
  8
VERMASSUNG
100
AcDbLine
 10
217.9485671768
 20
160.1860888408
 30
0.0
 11
254.4485671768
 21
160.1860888407
 31
0.0
  0
MTEXT
  5
1CF
330
1C7
100
AcDbEntity
  8
VERMASSUNG
100
AcDbMText
 10
233.7989702103
 20
162.7642242039
 30
0.0
 40
2.0
 41
0.0
 71
     1
 72
     1
  1
36.5
  7
SLDTEXTSTYLE0
 73
     1
 44
1.0
  0
ENDBLK
  5
1C9
330
1C7
100
AcDbEntity
  8
0
100
AcDbBlockEnd
  0
BLOCK
  5
1D3
330
1D2
100
AcDbEntity
  8
0
100
AcDbBlockBegin
  2
*D3
 70
     1
 10
0.0
 20
0.0
 30
0.0
  3
*D3
  1

  0
SOLID
  5
1D5
330
1D2
100
AcDbEntity
  8
VERMASSUNG
100
AcDbTrace
 10
260.6324236186
 20
108.6139761647
 30
0.0
 11
260.1824236186
 21
105.6139761647
 31
0.0
 12
261.0824236186
 22
105.6139761647
 32
0.0
 13
261.0824236186
 23
105.6139761647
 33
0.0
  0
SOLID
  5
1D6
330
1D2
100
AcDbEntity
  8
VERMASSUNG
100
AcDbTrace
 10
260.6324236186
 20
114.6139761647
 30
0.0
 11
261.0824236186
 21
117.6139761647
 31
0.0
 12
260.1824236186
 22
117.6139761647
 32
0.0
 13
260.1824236186
 23
117.6139761647
 33
0.0
  0
LINE
  5
1D7
330
1D2
100
AcDbEntity
  8
VERMASSUNG
100
AcDbLine
 10
250.9485671768
 20
108.6139761647
 30
0.0
 11
261.6324236186
 21
108.6139761647
 31
0.0
  0
LINE
  5
1D8
330
1D2
100
AcDbEntity
  8
VERMASSUNG
100
AcDbLine
 10
250.9485671768
 20
114.6139761647
 30
0.0
 11
261.6324236186
 21
114.6139761647
 31
0.0
  0
LINE
  5
1D9
330
1D2
100
AcDbEntity
  8
VERMASSUNG
100
AcDbLine
 10
260.6324236186
 20
108.6139761647
 30
0.0
 11
260.6324236186
 21
102.6139761647
 31
0.0
  0
LINE
  5
1DA
330
1D2
100
AcDbEntity
  8
VERMASSUNG
100
AcDbLine
 10
260.6324236186
 20
108.6139761647
 30
0.0
 11
260.6324236186
 21
114.6139761647
 31
0.0
  0
LINE
  5
1DB
330
1D2
100
AcDbEntity
  8
VERMASSUNG
100
AcDbLine
 10
260.6324236186
 20
114.6139761647
 30
0.0
 11
260.6324236186
 21
120.6139761647
 31
0.0
  0
MTEXT
  5
1DC
330
1D2
100
AcDbEntity
  8
VERMASSUNG
100
AcDbMText
 10
258.0542881391
 20
108.5100487541
 30
0.0
 40
2.0
 41
0.0
 71
     1
 72
     1
  1
%%c
  7
SLDTEXTSTYLE0
 11
6.123233995736766E-17
 21
1.0
 31
0.0
 73
     1
 44
1.0
  0
MTEXT
  5
1DD
330
1D2
100
AcDbEntity
  8
VERMASSUNG
100
AcDbMText
 10
258.0542882555
 20
112.1187269772
 30
0.0
 40
2.0
 41
0.0
 71
     1
 72
     1
  1
6
  7
SLDTEXTSTYLE0
 11
6.123233995736766E-17
 21
1.0
 31
0.0
 73
     1
 44
1.0
  0
MTEXT
  5
1DE
330
1D2
100
AcDbEntity
  8
VERMASSUNG
100
AcDbMText
 10
258.0542882555
 20
113.5181050921
 30
0.0
 40
2.0
 41
0.0
 71
     1
 72
     1
  1
 
  7
SLDTEXTSTYLE0
 11
6.123233995736766E-17
 21
1.0
 31
0.0
 73
     1
 44
1.0
  0
ENDBLK
  5
1D4
330
1D2
100
AcDbEntity
  8
0
100
AcDbBlockEnd
  0
BLOCK
  5
1E2
330
1E1
100
AcDbEntity
  8
0
100
AcDbBlockBegin
  2
*D4
 70
     1
 10
0.0
 20
0.0
 30
0.0
  3
*D4
  1

  0
SOLID
  5
1E4
330
1E1
100
AcDbEntity
  8
VERMASSUNG
100
AcDbTrace
 10
268.6730344818
 20
101.1139761647
 30
0.0
 11
269.1230344818
 21
104.1139761647
 31
0.0
 12
268.2230344818
 22
104.1139761647
 32
0.0
 13
268.2230344818
 23
104.1139761647
 33
0.0
  0
SOLID
  5
1E5
330
1E1
100
AcDbEntity
  8
VERMASSUNG
100
AcDbTrace
 10
268.6730344818
 20
122.1139761647
 30
0.0
 11
268.2230344818
 21
119.1139761647
 31
0.0
 12
269.1230344818
 22
119.1139761647
 32
0.0
 13
269.1230344818
 23
119.1139761647
 33
0.0
  0
LINE
  5
1E6
330
1E1
100
AcDbEntity
  8
VERMASSUNG
100
AcDbLine
 10
254.4485671768
 20
101.1139761647
 30
0.0
 11
269.6730344818
 21
101.1139761647
 31
0.0
  0
LINE
  5
1E7
330
1E1
100
AcDbEntity
  8
VERMASSUNG
100
AcDbLine
 10
254.4485671768
 20
122.1139761647
 30
0.0
 11
269.6730344818
 21
122.1139761647
 31
0.0
  0
LINE
  5
1E8
330
1E1
100
AcDbEntity
  8
VERMASSUNG
100
AcDbLine
 10
268.6730344818
 20
101.1139761647
 30
0.0
 11
268.6730344818
 21
122.1139761647
 31
0.0
  0
MTEXT
  5
1E9
330
1E1
100
AcDbEntity
  8
VERMASSUNG
100
AcDbMText
 10
266.0948990023
 20
108.6098385699
 30
0.0
 40
2.0
 41
0.0
 71
     1
 72
     1
  1
%%c
  7
SLDTEXTSTYLE0
 11
6.123233995736766E-17
 21
1.0
 31
0.0
 73
     1
 44
1.0
  0
MTEXT
  5
1EA
330
1E1
100
AcDbEntity
  8
VERMASSUNG
100
AcDbMText
 10
266.0948991187
 20
112.2185167931
 30
0.0
 40
2.0
 41
0.0
 71
     1
 72
     1
  1
21
  7
SLDTEXTSTYLE0
 11
6.123233995736766E-17
 21
1.0
 31
0.0
 73
     1
 44
1.0
  0
ENDBLK
  5
1E3
330
1E1
100
AcDbEntity
  8
0
100
AcDbBlockEnd
  0
BLOCK
  5
1ED
330
1EC
100
AcDbEntity
  8
0
100
AcDbBlockBegin
  2
*D5
 70
     1
 10
0.0
 20
0.0
 30
0.0
  3
*D5
  1

  0
SOLID
  5
1EF
330
1EC
100
AcDbEntity
  8
VERMASSUNG
100
AcDbTrace
 10
94.4485671768
 20
172.1860888407
 30
0.0
 11
97.4485671768
 21
171.7360888407
 31
0.0
 12
97.4485671768
 22
172.6360888407
 32
0.0
 13
97.4485671768
 23
172.6360888407
 33
0.0
  0
SOLID
  5
1F0
330
1EC
100
AcDbEntity
  8
VERMASSUNG
100
AcDbTrace
 10
254.4485671768
 20
172.1860888407
 30
0.0
 11
251.4485671768
 21
172.6360888407
 31
0.0
 12
251.4485671768
 22
171.7360888407
 32
0.0
 13
251.4485671768
 23
171.7360888407
 33
0.0
  0
LINE
  5
1F1
330
1EC
100
AcDbEntity
  8
VERMASSUNG
100
AcDbLine
 10
94.4485671768
 20
161.1139761647
 30
0.0
 11
94.4485671768
 21
173.1860888407
 31
0.0
  0
LINE
  5
1F2
330
1EC
100
AcDbEntity
  8
VERMASSUNG
100
AcDbLine
 10
254.4485671768
 20
120.2651951814
 30
0.0
 11
254.4485671768
 21
173.1860888407
 31
0.0
  0
LINE
  5
1F3
330
1EC
100
AcDbEntity
  8
VERMASSUNG
100
AcDbLine
 10
94.4485671768
 20
172.1860888407
 30
0.0
 11
254.4485671768
 21
172.1860888407
 31
0.0
  0
MTEXT
  5
1F4
330
1EC
100
AcDbEntity
  8
VERMASSUNG
100
AcDbMText
 10
172.5490796361
 20
174.7642242039
 30
0.0
 40
2.0
 41
0.0
 71
     1
 72
     1
  1
160
  7
SLDTEXTSTYLE0
 73
     1
 44
1.0
  0
ENDBLK
  5
1EE
330
1EC
100
AcDbEntity
  8
0
100
AcDbBlockEnd
  0
BLOCK
  5
1F7
330
1F6
100
AcDbEntity
  8
0
100
AcDbBlockBegin
  2
*D6
 70
     1
 10
0.0
 20
0.0
 30
0.0
  3
*D6
  1

  0
SOLID
  5
1F9
330
1F6
100
AcDbEntity
  8
VERMASSUNG
100
AcDbTrace
 10
254.4485671768
 20
166.1860888407
 30
0.0
 11
251.4485671768
 21
166.6360888407
 31
0.0
 12
251.4485671768
 22
165.7360888407
 32
0.0
 13
251.4485671768
 23
165.7360888407
 33
0.0
  0
SOLID
  5
1FA
330
1F6
100
AcDbEntity
  8
VERMASSUNG
100
AcDbTrace
 10
123.3985671768
 20
166.1860888407
 30
0.0
 11
126.3985671768
 21
165.7360888407
 31
0.0
 12
126.3985671768
 22
166.6360888407
 32
0.0
 13
126.3985671768
 23
166.6360888407
 33
0.0
  0
LINE
  5
1FB
330
1F6
100
AcDbEntity
  8
VERMASSUNG
100
AcDbLine
 10
254.4485671768
 20
120.2651951814
 30
0.0
 11
254.4485671768
 21
167.1860888407
 31
0.0
  0
LINE
  5
1FC
330
1F6
100
AcDbEntity
  8
VERMASSUNG
100
AcDbLine
 10
123.3985671768
 20
159.5827159855
 30
0.0
 11
123.3985671768
 21
167.1860888407
 31
0.0
  0
LINE
  5
1FD
330
1F6
100
AcDbEntity
  8
VERMASSUNG
100
AcDbLine
 10
254.4485671768
 20
166.1860888407
 30
0.0
 11
123.3985671768
 21
166.1860888407
 31
0.0
  0
MTEXT
  5
1FE
330
1F6
100
AcDbEntity
  8
VERMASSUNG
100
AcDbMText
 10
185.5237513588
 20
168.7642242039
 30
0.0
 40
2.0
 41
0.0
 71
     1
 72
     1
  1
131.05
  7
SLDTEXTSTYLE0
 73
     1
 44
1.0
  0
ENDBLK
  5
1F8
330
1F6
100
AcDbEntity
  8
0
100
AcDbBlockEnd
  0
BLOCK
  5
201
330
200
100
AcDbEntity
  8
0
100
AcDbBlockBegin
  2
*D7
 70
     1
 10
0.0
 20
0.0
 30
0.0
  3
*D7
  1

  0
SOLID
  5
203
330
200
100
AcDbEntity
  8
VERMASSUNG
100
AcDbTrace
 10
254.4485671768
 20
178.1860888407
 30
0.0
 11
251.4485671768
 21
178.6360888407
 31
0.0
 12
251.4485671768
 22
177.7360888407
 32
0.0
 13
251.4485671768
 23
177.7360888407
 33
0.0
  0
SOLID
  5
204
330
200
100
AcDbEntity
  8
VERMASSUNG
100
AcDbTrace
 10
44.5485671768
 20
178.1860888407
 30
0.0
 11
47.5485671768
 21
177.7360888407
 31
0.0
 12
47.5485671768
 22
178.6360888407
 32
0.0
 13
47.5485671768
 23
178.6360888407
 33
0.0
  0
LINE
  5
205
330
200
100
AcDbEntity
  8
VERMASSUNG
100
AcDbLine
 10
254.4485671768
 20
120.2651951814
 30
0.0
 11
254.4485671768
 21
179.1860888407
 31
0.0
  0
LINE
  5
206
330
200
100
AcDbEntity
  8
VERMASSUNG
100
AcDbLine
 10
44.5485671768
 20
142.1166459072
 30
0.0
 11
44.5485671768
 21
179.1860888407
 31
0.0
  0
LINE
  5
207
330
200
100
AcDbEntity
  8
VERMASSUNG
100
AcDbLine
 10
254.4485671768
 20
178.1860888407
 30
0.0
 11
44.5485671768
 21
178.1860888407
 31
0.0
  0
MTEXT
  5
208
330
200
100
AcDbEntity
  8
VERMASSUNG
100
AcDbMText
 10
146.3992811529
 20
180.7642242039
 30
0.0
 40
2.0
 41
0.0
 71
     1
 72
     1
  1
209.9
  7
SLDTEXTSTYLE0
 73
     1
 44
1.0
  0
ENDBLK
  5
202
330
200
100
AcDbEntity
  8
0
100
AcDbBlockEnd
  0
BLOCK
  5
20B
330
20A
100
AcDbEntity
  8
0
100
AcDbBlockBegin
  2
*D8
 70
     1
 10
0.0
 20
0.0
 30
0.0
  3
*D8
  1

  0
SOLID
  5
20D
330
20A
100
AcDbEntity
  8
VERMASSUNG
100
AcDbTrace
 10
276.5584568971
 20
126.6139761647
 30
0.0
 11
276.1084568971
 21
123.6139761647
 31
0.0
 12
277.0084568971
 22
123.6139761647
 32
0.0
 13
277.0084568971
 23
123.6139761647
 33
0.0
  0
SOLID
  5
20E
330
20A
100
AcDbEntity
  8
VERMASSUNG
100
AcDbTrace
 10
276.5584568971
 20
96.6139761647
 30
0.0
 11
277.0084568971
 21
99.6139761647
 31
0.0
 12
276.1084568971
 22
99.6139761647
 32
0.0
 13
276.1084568971
 23
99.6139761647
 33
0.0
  0
LINE
  5
20F
330
20A
100
AcDbEntity
  8
VERMASSUNG
100
AcDbLine
 10
172.3985671768
 20
126.6139761647
 30
0.0
 11
277.5584568971
 21
126.6139761647
 31
0.0
  0
LINE
  5
210
330
20A
100
AcDbEntity
  8
VERMASSUNG
100
AcDbLine
 10
172.3985671768
 20
96.6139761647
 30
0.0
 11
277.5584568971
 21
96.6139761647
 31
0.0
  0
LINE
  5
211
330
20A
100
AcDbEntity
  8
VERMASSUNG
100
AcDbLine
 10
276.5584568971
 20
126.6139761647
 30
0.0
 11
276.5584568971
 21
96.6139761647
 31
0.0
  0
MTEXT
  5
212
330
20A
100
AcDbEntity
  8
VERMASSUNG
100
AcDbMText
 10
273.9803214176
 20
108.4102589382
 30
0.0
 40
2.0
 41
0.0
 71
     1
 72
     1
  1
%%c
  7
SLDTEXTSTYLE0
 11
-7.044195017643634E-15
 21
1.0
 31
0.0
 73
     1
 44
1.0
  0
MTEXT
  5
213
330
20A
100
AcDbEntity
  8
VERMASSUNG
100
AcDbMText
 10
273.980321534
 20
112.0189371614
 30
0.0
 40
2.0
 41
0.0
 71
     1
 72
     1
  1
30
  7
SLDTEXTSTYLE0
 11
-7.044195017643634E-15
 21
1.0
 31
0.0
 73
     1
 44
1.0
  0
ENDBLK
  5
20C
330
20A
100
AcDbEntity
  8
0
100
AcDbBlockEnd
  0
ENDSEC
  0
SECTION
  2
ENTITIES
  0
MTEXT
  5
45
330
1F
100
AcDbEntity
  8
KOPF_DÜNN
100
AcDbMText
 10
13.8892156294
 20
23.8442973028
 30
0.0
 40
3.0
 41
0.0
 71
     1
 72
     1
  1
HA0.S06.K21.160
  7
SLDTEXTSTYLE0
 73
     1
 44
1.0
  0
MTEXT
  5
46
330
1F
100
AcDbEntity
  8
VERMASSUNG
100
AcDbMText
 10
13.9329988022
 20
28.8834360957
 30
0.0
 40
3.0
 41
0.0
 71
     1
 72
     1
  1
Schrumpffutter_Heat shrink chuck
  7
SLDTEXTSTYLE0
 73
     1
 44
1.0
  0
MTEXT
  5
47
330
1F
100
AcDbEntity
  8
VERMASSUNG
100
AcDbMText
 10
98.8601118557
 20
13.8365368179
 30
0.0
 40
2.0
 41
0.0
 71
     1
 72
     1
  1
Datum: 28.04.2011
  7
SLDTEXTSTYLE0
 73
     1
 44
1.0
  0
MTEXT
  5
49
330
1F
100
AcDbEntity
  8
VERMASSUNG
100
AcDbMText
 10
13.933048693
 20
18.0482802738
 30
0.0
 40
2.0
 41
0.0
 71
     1
 72
     1
  1
DIN 69 893 HSK A 100
  7
SLDTEXTSTYLE1
 73
     1
 44
1.0
  0
MTEXT
  5
4A
330
1F
100
AcDbEntity
  8
VERMASSUNG
100
AcDbMText
 10
13.9808475933
 20
13.9090973692
 30
0.0
 40
2.0
 41
0.0
 71
     1
 72
     1
  1
Gewicht: 2598g
  7
SLDTEXTSTYLE0
 73
     1
 44
1.0
  0
LINE
  5
4B
330
1F
100
AcDbEntity
  8
0
  6
Continuous
 62
     7
370
    15
100
AcDbLine
 10
254.4669996603
 20
119.3336928661
 30
0.0
 11
254.4485671768
 21
119.3687272547
 31
0.0
  0
LINE
  5
4C
330
1F
100
AcDbEntity
  8
0
  6
Continuous
 62
     7
370
    15
100
AcDbLine
 10
254.4485671768
 20
103.7496079043
 30
0.0
 11
254.5258893839
 21
103.8965732468
 31
0.0
  0
LINE
  5
4D
330
1F
100
AcDbEntity
  8
0
  6
Continuous
 62
     7
370
    15
100
AcDbLine
 10
94.9485671768
 20
61.6139761647
 30
0.0
 11
99.3985671768
 21
61.6139761647
 31
0.0
  0
LINE
  5
4E
330
1F
100
AcDbEntity
  8
0
  6
Continuous
 62
     7
370
    15
100
AcDbLine
 10
99.4139451482
 20
161.6139761647
 30
0.0
 11
94.9485671768
 21
161.6139761647
 31
0.0
  0
ARC
  5
4F
330
1F
100
AcDbEntity
  8
0
  6
Continuous
 62
     7
370
    15
100
AcDbCircle
 10
94.9485671768
 20
62.1139761647
 30
0.0
 40
0.5
100
AcDbArc
 50
180.0
 51
270.0
  0
ARC
  5
50
330
1F
100
AcDbEntity
  8
0
  6
Continuous
 62
     7
370
    15
100
AcDbCircle
 10
94.9485671768
 20
161.1139761647
 30
0.0
 40
0.5
100
AcDbArc
 50
90.0
 51
180.0
  0
ARC
  5
51
330
1F
100
AcDbEntity
  8
0
  6
Continuous
 62
     7
370
    15
100
AcDbCircle
 10
93.5516302583
 20
72.9854908402
 30
0.0
 40
0.9962338214386793
100
AcDbArc
 50
25.7988228126
 51
90.0
  0
ARC
  5
52
330
1F
100
AcDbEntity
  8
0
  6
Continuous
 62
     7
370
    15
100
AcDbCircle
 10
93.5516302583
 20
150.2424614891
 30
0.0
 40
0.9962338214386932
100
AcDbArc
 50
270.0
 51
334.2011771874
  0
LINE
  5
53
330
1F
100
AcDbEntity
  8
0
  6
Continuous
 62
     7
370
    15
100
AcDbLine
 10
72.9678882581
 20
148.5452918501
 30
0.0
 11
54.6485671768
 21
147.6274901927
 31
0.0
  0
LINE
  5
54
330
1F
100
AcDbEntity
  8
0
  6
Continuous
 62
     7
370
    15
100
AcDbLine
 10
91.9485671768
 20
149.4962276677
 30
0.0
 11
85.8805280223
 21
149.19221769
 31
0.0
  0
LINE
  5
55
330
1F
100
AcDbEntity
  8
0
  6
Continuous
 62
     7
370
    15
100
AcDbLine
 10
85.8806512988
 20
74.0357284632
 30
0.0
 11
91.9485671768
 21
73.7317246617
 31
0.0
  0
LINE
  5
56
330
1F
100
AcDbEntity
  8
0
  6
Continuous
 62
     7
370
    15
100
AcDbLine
 10
59.6485671768
 20
75.3499611346
 30
0.0
 11
72.9685183307
 21
74.6826289125
 31
0.0
  0
LINE
  5
57
330
1F
100
AcDbEntity
  8
0
  6
Continuous
 62
     7
370
    15
100
AcDbLine
 10
91.9485671768
 20
73.7317246617
 30
0.0
 11
92.7544133311
 21
73.947650488
 31
0.0
  0
LINE
  5
58
330
1F
100
AcDbEntity
  8
0
  6
Continuous
 62
     7
370
    15
100
AcDbLine
 10
92.7544133311
 20
149.2803018414
 30
0.0
 11
91.9485671768
 21
149.4962276677
 31
0.0
  0
ARC
  5
59
330
1F
100
AcDbEntity
  8
0
  6
Continuous
 62
     7
370
    15
100
AcDbCircle
 10
93.0132323762
 20
72.9817246617
 30
0.0
 40
0.9999999999999957
100
AcDbArc
 50
90.0
 51
105.0
  0
ARC
  5
5A
330
1F
100
AcDbEntity
  8
0
  6
Continuous
 62
     7
370
    15
100
AcDbCircle
 10
93.0132323762
 20
150.2462276677
 30
0.0
 40
1.0
100
AcDbArc
 50
255.0
 51
270.0
  0
LINE
  5
5B
330
1F
100
AcDbEntity
  8
0
  6
Continuous
 62
     7
370
    15
100
AcDbLine
 10
93.0132323762
 20
73.9817246617
 30
0.0
 11
93.5516302583
 21
73.9817246617
 31
0.0
  0
LINE
  5
5C
330
1F
100
AcDbEntity
  8
0
  6
Continuous
 62
     7
370
    15
100
AcDbLine
 10
93.5516302583
 20
149.2462276677
 30
0.0
 11
93.0132323762
 21
149.2462276677
 31
0.0
  0
ARC
  5
5D
330
1F
100
AcDbEntity
  8
0
  6
Continuous
 62
     7
370
    15
100
AcDbCircle
 10
128.3985671768
 20
87.6963564586
 30
0.0
 40
4.999999999999986
100
AcDbArc
 50
106.5116637356
 51
180.0
  0
ARC
  5
5E
330
1F
100
AcDbEntity
  8
0
  6
Continuous
 62
     7
370
    15
100
AcDbCircle
 10
128.3985671768
 20
135.5315958708
 30
0.0
 40
4.999999999999986
100
AcDbArc
 50
180.0
 51
253.4883362644
  0
ARC
  5
5F
330
1F
100
AcDbEntity
  8
0
  6
Continuous
 62
     7
370
    15
100
AcDbCircle
 10
155.3985671768
 20
-3.3860238353
 30
0.0
 40
100.0
100
AcDbArc
 50
90.0
 51
106.5116637356
  0
ARC
  5
60
330
1F
100
AcDbEntity
  8
0
  6
Continuous
 62
     7
370
    15
100
AcDbCircle
 10
155.3985671768
 20
226.6139761647
 30
0.0
 40
100.0
100
AcDbArc
 50
253.4883362644
 51
270.0
  0
LINE
  5
61
330
1F
100
AcDbEntity
  8
0
  6
Continuous
 62
     7
370
    15
100
AcDbLine
 10
46.1985671768
 20
79.3639761647
 30
0.0
 11
57.7485671768
 21
79.3639761647
 31
0.0
  0
ARC
  5
62
330
1F
100
AcDbEntity
  8
0
  6
Continuous
 62
     7
370
    15
100
AcDbCircle
 10
57.7485671768
 20
77.4639761647
 30
0.0
 40
1.900000000000007
100
AcDbArc
 50
35.6630613694
 51
90.0
  0
ARC
  5
63
330
1F
100
AcDbEntity
  8
0
  6
Continuous
 62
     7
370
    15
100
AcDbCircle
 10
52.7485671768
 20
145.7639761647
 30
0.0
 40
1.900000000000006
100
AcDbArc
 50
270.0
 51
312.7708047792
  0
LINE
  5
64
330
1F
100
AcDbEntity
  8
0
  6
Continuous
 62
     7
370
    15
100
AcDbLine
 10
46.1985671768
 20
143.8639761647
 30
0.0
 11
44.6062807118
 21
142.2716896998
 31
0.0
  0
LINE
  5
65
330
1F
100
AcDbEntity
  8
0
  6
Continuous
 62
     7
370
    15
100
AcDbLine
 10
44.6060900772
 20
80.9564532642
 30
0.0
 11
46.1985671768
 21
79.3639761647
 31
0.0
  0
LINE
  5
66
330
1F
100
AcDbEntity
  8
0
  6
Continuous
 62
     7
370
    15
100
AcDbLine
 10
52.7485671768
 20
143.8639761647
 30
0.0
 11
46.1985671768
 21
143.8639761647
 31
0.0
  0
ARC
  5
67
330
1F
100
AcDbEntity
  8
0
  6
Continuous
 62
     7
370
    15
100
AcDbCircle
 10
212.9910541664
 20
-451.8860238353
 30
0.0
 40
550.0000000000001
100
AcDbArc
 50
90.0
 51
94.2325360682
  0
ARC
  5
68
330
1F
100
AcDbEntity
  8
0
  6
Continuous
 62
     7
370
    15
100
AcDbCircle
 10
212.9910541664
 20
675.1139761647
 30
0.0
 40
550.0000000000001
100
AcDbArc
 50
265.7674639318
 51
270.0
  0
LINE
  5
69
330
1F
100
AcDbEntity
  8
0
  6
Continuous
 62
     7
370
    15
100
AcDbLine
 10
166.8975545531
 20
96.6139761647
 30
0.0
 11
172.3985671768
 21
96.6139761647
 31
0.0
  0
LINE
  5
6A
330
1F
100
AcDbEntity
  8
0
  6
Continuous
 62
     7
370
    15
100
AcDbLine
 10
155.3985671768
 20
96.6139761647
 30
0.0
 11
159.9034175453
 21
96.6139761647
 31
0.0
  0
LINE
  5
6B
330
1F
100
AcDbEntity
  8
0
  6
Continuous
 62
     7
370
    15
100
AcDbLine
 10
159.8996940646
 20
126.6139761647
 30
0.0
 11
155.3985671768
 21
126.6139761647
 31
0.0
  0
LINE
  5
6C
330
1F
100
AcDbEntity
  8
0
  6
Continuous
 62
     7
370
    15
100
AcDbLine
 10
172.3985671768
 20
126.6139761647
 30
0.0
 11
166.8888050171
 21
126.6139761647
 31
0.0
  0
LINE
  5
6D
330
1F
100
AcDbEntity
  8
0
  6
Continuous
 62
     7
370
    15
100
AcDbLine
 10
212.9910541664
 20
98.1139761647
 30
0.0
 11
216.3299529682
 21
98.1139761647
 31
0.0
  0
LINE
  5
6E
330
1F
100
AcDbEntity
  8
0
  6
Continuous
 62
     7
370
    15
100
AcDbLine
 10
216.3299529682
 20
125.1139761647
 30
0.0
 11
212.9910541664
 21
125.1139761647
 31
0.0
  0
LINE
  5
6F
330
1F
100
AcDbEntity
  8
0
  6
Continuous
 62
     7
370
    15
100
AcDbLine
 10
216.3299529682
 20
98.1139761647
 30
0.0
 11
252.6054853682
 21
100.9689224805
 31
0.0
  0
LINE
  5
70
330
1F
100
AcDbEntity
  8
0
  6
Continuous
 62
     7
370
    15
100
AcDbLine
 10
252.6054853682
 20
122.2590298488
 30
0.0
 11
216.3299529682
 21
125.1139761647
 31
0.0
  0
ARC
  5
71
330
1F
100
AcDbEntity
  8
0
  6
Continuous
 62
     7
370
    15
100
AcDbCircle
 10
252.4485671768
 20
102.962757148
 30
0.0
 40
2.0
100
AcDbArc
 50
274.5
 51
0.0
  0
ARC
  5
72
330
1F
100
AcDbEntity
  8
0
  6
Continuous
 62
     7
370
    15
100
AcDbCircle
 10
252.4485671768
 20
120.2651951814
 30
0.0
 40
2.0
100
AcDbArc
 50
0.0
 51
85.5
  0
LINE
  5
73
330
1F
100
AcDbEntity
  8
0
  6
Continuous
 62
     7
370
    15
100
AcDbLine
 10
254.4605853123
 20
119.1704368077
 30
0.0
 11
254.4485671768
 21
118.8645548336
 31
0.0
  0
LINE
  5
74
330
1F
100
AcDbEntity
  8
0
  6
Continuous
 62
     7
370
    15
100
AcDbLine
 10
254.4669996603
 20
119.3336928661
 30
0.0
 11
254.4605853123
 21
119.1704368077
 31
0.0
  0
LINE
  5
75
330
1F
100
AcDbEntity
  8
0
  6
Continuous
 62
     7
370
    15
100
AcDbLine
 10
254.4485671768
 20
105.8645548336
 30
0.0
 11
254.5258893839
 21
103.8965732468
 31
0.0
  0
LINE
  5
76
330
1F
100
AcDbEntity
  8
0
  6
Continuous
 62
     7
370
    15
100
AcDbLine
 10
122.3985671768
 20
62.8389825717
 30
0.0
 11
117.7105961977
 21
62.8389825717
 31
0.0
  0
LINE
  5
77
330
1F
100
AcDbEntity
  8
0
  6
Continuous
 62
     7
370
    15
100
AcDbLine
 10
117.7105961977
 20
62.8389825717
 30
0.0
 11
117.7105961977
 21
142.9639761647
 31
0.0
  0
LINE
  5
78
330
1F
100
AcDbEntity
  8
0
  6
Continuous
 62
     7
370
    15
100
AcDbLine
 10
117.7105961977
 20
142.9639761647
 30
0.0
 11
122.3985671768
 21
142.9639761647
 31
0.0
  0
LINE
  5
79
330
1F
100
AcDbEntity
  8
0
  6
Continuous
 62
     7
370
    15
100
AcDbLine
 10
123.3985671768
 20
63.8646306194
 30
0.0
 11
123.3985671768
 21
142.9639761647
 31
0.0
  0
SPLINE
  5
7A
330
1F
100
AcDbEntity
  8
0
  6
Continuous
 62
     7
370
    15
100
AcDbSpline
210
0.0
220
0.0
230
1.0
 70
     8
 71
     3
 72
    14
 73
    10
 74
     0
 42
0.00000001
 43
0.00000001
 40
0.0
 40
0.0
 40
0.0
 40
0.0
 40
0.25
 40
0.25
 40
0.5
 40
0.5
 40
0.75
 40
0.75
 40
1.0
 40
1.0
 40
1.0
 40
1.0
 10
123.3985671767664
 20
63.86463061942705
 30
0.0
 10
123.3985671767664
 20
63.7312049233725
 30
0.0
 10
123.3732560768555
 20
63.59935711552816
 30
0.0
 10
123.2749213130108
 20
63.35283456683405
 30
0.0
 10
123.2017773087547
 20
63.23902937859352
 30
0.0
 10
123.018339247659
 20
63.04857220164624
 30
0.0
 10
122.9066529133204
 20
62.97093733779632
 30
0.0
 10
122.6641494830141
 20
62.86664592768385
 30
0.0
 10
122.5307750543199
 20
62.83898257165149
 30
0.0
 10
122.3985671767664
 20
62.83898257165151
 30
0.0
  0
SPLINE
  5
7B
330
1F
100
AcDbEntity
  8
0
  6
Continuous
 62
     7
370
    15
100
AcDbSpline
210
0.0
220
0.0
230
1.0
 70
    24
 71
     3
 72
    12
 73
     8
 74
     0
 42
0.00000001
 43
0.00000001
 40
0.0
 40
0.0
 40
0.0
 40
0.0
 40
0.2500000000000032
 40
0.2500000000000032
 40
0.5000000000000064
 40
0.5000000000000064
 40
1.0
 40
1.0
 40
1.0
 40
1.0
 10
122.3985671767664
 20
142.9639761646803
 30
0.0
 10
122.5506574137113
 20
142.9639761646804
 30
0.0
 10
122.6991166747868
 20
142.9639761646803
 30
0.0
 10
122.9565203070525
 20
142.9639761646803
 30
0.0
 10
123.0656250548944
 20
142.9639761646803
 30
0.0
 10
123.3196845313019
 20
142.9639761646804
 30
0.0
 10
123.3985671767664
 20
142.9639761646803
 30
0.0
 10
123.3985671767664
 20
142.9639761646803
 30
0.0
  0
SPLINE
  5
7C
330
1F
100
AcDbEntity
  8
0
  6
Continuous
 62
     7
370
    15
100
AcDbSpline
210
0.0
220
0.0
230
1.0
 70
     8
 71
     3
 72
    80
 73
    76
 74
     0
 42
0.00000001
 43
0.00000001
 40
-0.0312500000000001
 40
-0.0312500000000001
 40
0.0
 40
0.0
 40
0.0312499999999995
 40
0.0312499999999995
 40
0.0468749999999993
 40
0.0468749999999993
 40
0.0624999999999991
 40
0.0624999999999991
 40
0.0937499999999988
 40
0.0937499999999988
 40
0.1249999999999986
 40
0.1249999999999986
 40
0.1562499999999983
 40
0.1562499999999983
 40
0.1874999999999981
 40
0.1874999999999981
 40
0.2187499999999978
 40
0.2187499999999978
 40
0.2499999999999976
 40
0.2499999999999976
 40
0.2812499999999973
 40
0.2812499999999973
 40
0.3124999999999971
 40
0.3124999999999971
 40
0.3281249999999971
 40
0.3281249999999971
 40
0.3437499999999971
 40
0.3437499999999971
 40
0.3749999999999973
 40
0.3749999999999973
 40
0.4062499999999975
 40
0.4062499999999975
 40
0.4218749999999975
 40
0.4218749999999975
 40
0.4374999999999974
 40
0.4374999999999974
 40
0.4687499999999973
 40
0.4687499999999973
 40
0.4999999999999972
 40
0.4999999999999972
 40
0.531249999999997
 40
0.531249999999997
 40
0.562499999999997
 40
0.562499999999997
 40
0.5937499999999969
 40
0.5937499999999969
 40
0.6249999999999969
 40
0.6249999999999969
 40
0.6562499999999968
 40
0.6562499999999968
 40
0.6874999999999968
 40
0.6874999999999968
 40
0.7031249999999968
 40
0.7031249999999968
 40
0.7187499999999969
 40
0.7187499999999969
 40
0.7499999999999973
 40
0.7499999999999973
 40
0.7812499999999979
 40
0.7812499999999979
 40
0.7968749999999982
 40
0.7968749999999982
 40
0.8124999999999984
 40
0.8124999999999984
 40
0.8437499999999988
 40
0.8437499999999988
 40
0.874999999999999
 40
0.874999999999999
 40
0.9062499999999993
 40
0.9062499999999993
 40
0.9374999999999996
 40
0.9374999999999996
 40
0.9687499999999999
 40
0.9687499999999999
 40
1.0
 40
1.0
 40
1.03125
 40
1.03125
 10
103.1180218639901
 20
155.0286056283117
 30
0.0
 10
103.7791124895427
 20
155.0286056283117
 30
0.0
 10
104.1040926187943
 20
155.0448138596938
 30
0.0
 10
104.5835660300407
 20
155.0921784917134
 30
0.0
 10
104.7420478478816
 20
155.111832703604
 30
0.0
 10
105.0562673803858
 20
155.1589438597967
 30
0.0
 10
105.2123876640662
 20
155.1865251792913
 30
0.0
 10
105.6664416930228
 20
155.2790609660851
 30
0.0
 10
105.9535450759626
 20
155.3541313996816
 30
0.0
 10
106.4968996319896
 20
155.5293697082922
 30
0.0
 10
106.7540032431952
 20
155.6303710061305
 30
0.0
 10
107.214909498134
 20
155.8477272045914
 30
0.0
 10
107.421807207349
 20
155.9648915363636
 30
0.0
 10
107.7873325213412
 20
156.2149614605922
 30
0.0
 10
107.9425380434671
 20
156.3459075493512
 30
0.0
 10
108.1919684300668
 20
156.6116424930636
 30
0.0
 10
108.288058385852
 20
156.7483960863745
 30
0.0
 10
108.4165772350456
 20
157.0224616612135
 30
0.0
 10
108.4483881052234
 20
157.1574017516824
 30
0.0
 10
108.4487447549966
 20
157.4228733887511
 30
0.0
 10
108.4162475027996
 20
157.5546978658924
 30
0.0
 10
108.2886220290851
 20
157.8041474655128
 30
0.0
 10
108.1941936280332
 20
157.9225801574408
 30
0.0
 10
108.0063328080476
 20
158.0914493545348
 30
0.0
 10
107.9355048092444
 20
158.146535349655
 30
0.0
 10
107.7807829172792
 20
158.2517881781434
 30
0.0
 10
107.6968064470958
 20
158.3021234069038
 30
0.0
 10
107.4254827774513
 20
158.4466992394418
 30
0.0
 10
107.218933558849
 20
158.5345608258589
 30
0.0
 10
106.75232341866
 20
158.6942819188584
 30
0.0
 10
106.4999578490345
 20
158.7635202153255
 30
0.0
 10
106.0940565073558
 20
158.8533076045553
 30
0.0
 10
105.9541558898783
 20
158.8808735666416
 30
0.0
 10
105.6649319546314
 20
158.9313643675679
 30
0.0
 10
105.5150924983421
 20
158.9543278064186
 30
0.0
 10
105.0609759287313
 20
159.0149583228375
 30
0.0
 10
104.7493247099945
 20
159.0450323516333
 30
0.0
 10
104.1083282450821
 20
159.0856219388919
 30
0.0
 10
103.7768006171299
 20
159.0959341691079
 30
0.0
 10
103.1240095720585
 20
159.0960097362737
 30
0.0
 10
102.7994733670266
 20
159.086108130806
 30
0.0
 10
102.1542039176102
 20
159.0456216002808
 30
0.0
 10
101.8384609114475
 20
159.015160300396
 30
0.0
 10
101.2365716164638
 20
158.9350096289595
 30
0.0
 10
100.9458223856523
 20
158.8847273971523
 30
0.0
 10
100.3989105939678
 20
158.7640572143793
 30
0.0
 10
100.1471332301309
 20
158.6948333552093
 30
0.0
 10
99.68574523750978
 20
158.5373816275687
 30
0.0
 10
99.47447595791171
 20
158.4480331528949
 30
0.0
 10
99.1111716055355
 20
158.2547852821941
 30
0.0
 10
98.95736495709271
 20
158.1506572903148
 30
0.0
 10
98.7687454874953
 20
157.9820329041313
 30
0.0
 10
98.7127150012862
 20
157.9234045024564
 30
0.0
 10
98.61714123955002
 20
157.8039495876302
 30
0.0
 10
98.57737832252502
 20
157.743029798792
 30
0.0
 10
98.48160657221288
 20
157.5566250726181
 30
0.0
 10
98.44888373308677
 20
157.4275122548231
 30
0.0
 10
98.44825514675769
 20
157.1588553318672
 30
0.0
 10
98.48044129149247
 20
157.0234845911104
 30
0.0
 10
98.57535199334805
 20
156.8199342828744
 30
0.0
 10
98.614818776747
 20
156.751962358811
 30
0.0
 10
98.70974877546789
 20
156.6158701356801
 30
0.0
 10
98.76550560323126
 20
156.5475200354707
 30
0.0
 10
98.95344572120115
 20
156.3468170224285
 30
0.0
 10
99.10680719091732
 20
156.2174287486158
 30
0.0
 10
99.46907142579768
 20
155.968763316566
 30
0.0
 10
99.67991989926358
 20
155.8489536741978
 30
0.0
 10
100.1405898695825
 20
155.6314313866252
 30
0.0
 10
100.3919642491663
 20
155.5323462867892
 30
0.0
 10
100.9378721360645
 20
155.3556738128724
 30
0.0
 10
101.2286947107157
 20
155.2796167247384
 30
0.0
 10
101.8300213254957
 20
155.1567717473854
 30
0.0
 10
102.1445399101081
 20
155.1090656223322
 30
0.0
 10
102.7911213662281
 20
155.0448170872126
 30
0.0
 10
103.1180218639901
 20
155.0286056283117
 30
0.0
 10
103.7791124895427
 20
155.0286056283117
 30
0.0
  0
LINE
  5
7D
330
1F
100
AcDbEntity
  8
0
  6
Continuous
 62
     7
370
    15
100
AcDbLine
 10
99.3985671768
 20
142.9639761647
 30
0.0
 11
111.1865381558
 21
142.9639761647
 31
0.0
  0
LINE
  5
7E
330
1F
100
AcDbEntity
  8
0
  6
Continuous
 62
     7
370
    15
100
AcDbLine
 10
111.1865381558
 20
62.8389825717
 30
0.0
 11
111.1865381558
 21
142.9639761647
 31
0.0
  0
LINE
  5
7F
330
1F
100
AcDbEntity
  8
0
  6
Continuous
 62
     7
370
    15
100
AcDbLine
 10
111.1865381558
 20
62.8389825717
 30
0.0
 11
109.3985671768
 21
62.8389825717
 31
0.0
  0
SPLINE
  5
80
330
1F
100
AcDbEntity
  8
0
  6
Continuous
 62
     7
370
    15
100
AcDbSpline
210
0.0
220
0.0
230
1.0
 70
     8
 71
     3
 72
    30
 73
    26
 74
     0
 42
0.00000001
 43
0.00000001
 40
0.0
 40
0.0
 40
0.0
 40
0.0
 40
0.1250000000000002
 40
0.1250000000000002
 40
0.1875000000000003
 40
0.1875000000000003
 40
0.2500000000000004
 40
0.2500000000000004
 40
0.3750000000000001
 40
0.3750000000000001
 40
0.4374999999999998
 40
0.4374999999999998
 40
0.4999999999999996
 40
0.4999999999999996
 40
0.6249999999999996
 40
0.6249999999999996
 40
0.6874999999999997
 40
0.6874999999999997
 40
0.7499999999999997
 40
0.7499999999999997
 40
0.8124999999999998
 40
0.8124999999999998
 40
0.8749999999999999
 40
0.8749999999999999
 40
1.0
 40
1.0
 40
1.0
 40
1.0
 10
109.3985671767663
 20
62.83898257165155
 30
0.0
 10
108.7358224829213
 20
62.83898257165155
 30
0.0
 10
108.0845666238056
 20
62.82414249506274
 30
0.0
 10
107.1241160855473
 20
62.78177293083312
 30
0.0
 10
106.8067246423144
 20
62.76429482805394
 30
0.0
 10
106.1775611407595
 20
62.72296654150164
 30
0.0
 10
105.8654129543178
 20
62.69904126804393
 30
0.0
 10
104.9581056524695
 20
62.62023475157702
 30
0.0
 10
104.3846806948283
 20
62.55792873160057
 30
0.0
 10
103.5708038252536
 20
62.4547994113612
 30
0.0
 10
103.3059976286838
 20
62.41861549231469
 30
0.0
 10
102.7990902178694
 20
62.34482070811418
 30
0.0
 10
102.5576960665159
 20
62.30734684934254
 30
0.0
 10
101.8685545943836
 20
62.1946349060028
 30
0.0
 10
101.4554997795194
 20
62.11909880852902
 30
0.0
 10
100.9073449601443
 20
62.01070555151153
 30
0.0
 10
100.7378823527987
 20
61.97563331984827
 30
0.0
 10
100.4298651047833
 20
61.90939785924842
 30
0.0
 10
100.290485084175
 20
61.8780711624937
 30
0.0
 10
100.0406995715482
 20
61.81966239091277
 30
0.0
 10
99.93029345889431
 20
61.79257915572992
 30
0.0
 10
99.73903560525659
 20
61.74331940111633
 30
0.0
 10
99.6579160869723
 20
61.72105742130869
 30
0.0
 10
99.4637691668639
 20
61.66349051414041
 30
0.0
 10
99.39856717676635
 20
61.63723090935442
 30
0.0
 10
99.39856717676636
 20
61.62397716488039
 30
0.0
  0
LINE
  5
81
330
1F
100
AcDbEntity
  8
0
  6
Continuous
 62
     7
370
    15
100
AcDbLine
 10
99.3985671768
 20
61.6239771649
 30
0.0
 11
99.3985671768
 21
61.6139761647
 31
0.0
  0
SPLINE
  5
82
330
1F
100
AcDbEntity
  8
0
  6
Continuous
 62
     7
370
    15
100
AcDbSpline
210
0.0
220
0.0
230
1.0
 70
     8
 71
     3
 72
    23
 73
    19
 74
     0
 42
0.00000001
 43
0.00000001
 40
0.0
 40
0.0
 40
0.0
 40
0.0
 40
0.0520256687590417
 40
0.1044186119084699
 40
0.1579654762732603
 40
0.2119084390155455
 40
0.2639329008030786
 40
0.3697142245600881
 40
0.4235868577364621
 40
0.4762679679182533
 40
0.5833878371337101
 40
0.6379530306539528
 40
0.6910551819358521
 40
0.7445319929992287
 40
0.7992014233075218
 40
0.8542881036302091
 40
0.9066815619543741
 40
1.0
 40
1.0
 40
1.0
 40
1.0
 10
109.3985671767663
 20
160.6037710203439
 30
0.0
 10
109.1255547795714
 20
160.6050925888507
 30
0.0
 10
108.5776026584572
 20
160.6077450554564
 30
0.0
 10
107.7544563010019
 20
160.6292199438841
 30
0.0
 10
106.9332112004097
 20
160.6634376625521
 30
0.0
 10
106.1317823903016
 20
160.7104895727195
 30
0.0
 10
105.0993991361586
 20
160.7874785235453
 30
0.0
 10
104.1221511215346
 20
160.8833557742058
 30
0.0
 10
103.2211041102786
 20
160.990285221994
 30
0.0
 10
102.3721303311772
 20
161.1021320298345
 30
0.0
 10
101.614561885569
 20
161.2163606285638
 30
0.0
 10
100.9695735951195
 20
161.3229403749276
 30
0.0
 10
100.5449997219217
 20
161.3968703313288
 30
0.0
 10
100.1824430722726
 20
161.4627608893856
 30
0.0
 10
99.88124151514891
 20
161.5194572405998
 30
0.0
 10
99.65398794311416
 20
161.5633934868344
 30
0.0
 10
99.44788064589166
 20
161.6040519336625
 30
0.0
 10
99.42719370785863
 20
161.6082353730519
 30
0.0
 10
99.41394514824692
 20
161.6109145779708
 30
0.0
  0
LINE
  5
83
330
1F
100
AcDbEntity
  8
0
  6
Continuous
 62
     7
370
    15
100
AcDbLine
 10
111.1865381558
 20
160.6037710203
 30
0.0
 11
109.3985671768
 21
160.6037710203
 31
0.0
  0
LINE
  5
84
330
1F
100
AcDbEntity
  8
0
  6
Continuous
 62
     7
370
    15
100
AcDbLine
 10
111.1865381558
 20
150.5649389256
 30
0.0
 11
111.1865381558
 21
160.6037710203
 31
0.0
  0
LINE
  5
85
330
1F
100
AcDbEntity
  8
0
  6
Continuous
 62
     7
370
    15
100
AcDbLine
 10
109.1065340249
 20
150.5649389256
 30
0.0
 11
111.1865381558
 21
150.5649389256
 31
0.0
  0
SPLINE
  5
86
330
1F
100
AcDbEntity
  8
0
  6
Continuous
 62
     7
370
    15
100
AcDbSpline
210
0.0
220
0.0
230
1.0
 70
     8
 71
     3
 72
    22
 73
    18
 74
     0
 42
0.00000001
 43
0.00000001
 40
0.0
 40
0.0
 40
0.0
 40
0.0
 40
0.2500000000000002
 40
0.2500000000000002
 40
0.3750000000000003
 40
0.3750000000000003
 40
0.5000000000000004
 40
0.5000000000000004
 40
0.6250000000000004
 40
0.6250000000000004
 40
0.7500000000000004
 40
0.7500000000000004
 40
0.8750000000000004
 40
0.8750000000000004
 40
0.9375000000000002
 40
0.9375000000000002
 40
1.0
 40
1.0
 40
1.0
 40
1.0
 10
99.39856717676635
 20
142.9639761646803
 30
0.0
 10
99.60129213268544
 20
143.983222506545
 30
0.0
 10
99.91603585448082
 20
144.9423306564843
 30
0.0
 10
100.6240913241518
 20
146.2848097339935
 30
0.0
 10
100.9025539543694
 20
146.7190183167336
 30
0.0
 10
101.5413213610066
 20
147.5306460322357
 30
0.0
 10
101.9017350407968
 20
147.9099263251725
 30
0.0
 10
102.7192672727861
 20
148.6128849041935
 30
0.0
 10
103.1804352560733
 20
148.9379137218941
 30
0.0
 10
104.178425502557
 20
149.502929045285
 30
0.0
 10
104.7181846965493
 20
149.7466326394915
 30
0.0
 10
105.8927776605806
 20
150.1508325671365
 30
0.0
 10
106.5045138465725
 20
150.303269760182
 30
0.0
 10
107.4564230714342
 20
150.4585973077907
 30
0.0
 10
107.7796562356949
 20
150.4981020878407
 30
0.0
 10
108.4387194069701
 20
150.5514112085094
 30
0.0
 10
108.7727834175441
 20
150.5649389255673
 30
0.0
 10
109.1065340249457
 20
150.5649389255673
 30
0.0
  0
LINE
  5
87
330
1F
100
AcDbEntity
  8
0
  6
Continuous
 62
     7
370
    15
100
AcDbLine
 10
94.4485671768
 20
62.1139761647
 30
0.0
 11
94.4485671768
 21
161.113976162
 31
0.0
  0
LINE
  5
88
330
1F
100
AcDbEntity
  8
0
  6
Continuous
 62
     7
370
    15
100
AcDbLine
 10
112.5385671768
 20
65.2425878777
 30
0.0
 11
112.5385671768
 21
142.9639761647
 31
0.0
  0
SPLINE
  5
89
330
1F
100
AcDbEntity
  8
0
  6
Continuous
 62
     7
370
    15
100
AcDbSpline
210
0.0
220
0.0
230
1.0
 70
     8
 71
     3
 72
     8
 73
     4
 74
     0
 42
0.00000001
 43
0.00000001
 40
0.0
 40
0.0
 40
0.0
 40
0.0
 40
1.0
 40
1.0
 40
1.0
 40
1.0
 10
112.5385671767664
 20
65.24258787765689
 30
0.0
 10
112.0883407124886
 20
64.44113251503211
 30
0.0
 10
111.6376428852452
 20
63.63994250347147
 30
0.0
 10
111.186538155845
 20
62.83898257165155
 30
0.0
  0
SPLINE
  5
8A
330
1F
100
AcDbEntity
  8
0
  6
Continuous
 62
     7
370
    15
100
AcDbSpline
210
0.0
220
0.0
230
1.0
 70
    24
 71
     3
 72
     8
 73
     4
 74
     0
 42
0.00000001
 43
0.00000001
 40
0.0
 40
0.0
 40
0.0
 40
0.0
 40
1.0
 40
1.0
 40
1.0
 40
1.0
 10
111.186538155845
 20
142.9639761646803
 30
0.0
 10
111.6433397281732
 20
142.9639761646803
 30
0.0
 10
112.0943542944124
 20
142.9639761646803
 30
0.0
 10
112.5385671767664
 20
142.9639761646803
 30
0.0
  0
SPLINE
  5
8B
330
1F
100
AcDbEntity
  8
0
  6
Continuous
 62
     7
370
    15
100
AcDbSpline
210
0.0
220
0.0
230
1.0
 70
     8
 71
     3
 72
     8
 73
     4
 74
     0
 42
0.00000001
 43
0.00000001
 40
0.0
 40
0.0
 40
0.0
 40
0.0
 40
1.0
 40
1.0
 40
1.0
 40
1.0
 10
117.7105961976877
 20
62.83898257165155
 30
0.0
 10
117.2594914682875
 20
63.63994250347147
 30
0.0
 10
116.8087936410441
 20
64.44113251503211
 30
0.0
 10
116.3585671767664
 20
65.24258787765689
 30
0.0
  0
LINE
  5
8C
330
1F
100
AcDbEntity
  8
0
  6
Continuous
 62
     7
370
    15
100
AcDbLine
 10
116.3585671768
 20
65.2425878777
 30
0.0
 11
116.3585671768
 21
142.9639761647
 31
0.0
  0
SPLINE
  5
8D
330
1F
100
AcDbEntity
  8
0
  6
Continuous
 62
     7
370
    15
100
AcDbSpline
210
0.0
220
0.0
230
1.0
 70
    24
 71
     3
 72
     8
 73
     4
 74
     0
 42
0.00000001
 43
0.00000001
 40
0.0
 40
0.0
 40
0.0
 40
0.0
 40
1.0
 40
1.0
 40
1.0
 40
1.0
 10
116.3585671767664
 20
142.9639761646803
 30
0.0
 10
116.8027800591203
 20
142.9639761646803
 30
0.0
 10
117.2537946253595
 20
142.9639761646803
 30
0.0
 10
117.7105961976877
 20
142.9639761646803
 30
0.0
  0
SPLINE
  5
8E
330
1F
100
AcDbEntity
  8
0
  6
Continuous
 62
     7
370
    15
100
AcDbSpline
210
0.0
220
0.0
230
1.0
 70
     8
 71
     3
 72
    14
 73
    10
 74
     0
 42
0.00000001
 43
0.00000001
 40
0.0
 40
0.0
 40
0.0
 40
0.0
 40
0.25
 40
0.25
 40
0.5
 40
0.5
 40
0.75
 40
0.75
 40
1.0
 40
1.0
 40
1.0
 40
1.0
 10
116.3585671767664
 20
66.15079738228546
 30
0.0
 10
116.3585671767664
 20
66.25784146327985
 30
0.0
 10
116.3384494896082
 20
66.36307660352229
 30
0.0
 10
116.2599583003426
 20
66.56092709036999
 30
0.0
 10
116.2018016755414
 20
66.65197885393489
 30
0.0
 10
116.0552864199233
 20
66.80514494785967
 30
0.0
 10
115.9666438712822
 20
66.86743939406908
 30
0.0
 10
115.7709205484819
 20
66.95223317960509
 30
0.0
 10
115.665689357411
 20
66.9743007066307
 30
0.0
 10
115.5585671767664
 20
66.97430070663071
 30
0.0
  0
SPLINE
  5
8F
330
1F
100
AcDbEntity
  8
0
  6
Continuous
 62
     7
370
    15
100
AcDbSpline
210
0.0
220
0.0
230
1.0
 70
    24
 71
     3
 72
    14
 73
    10
 74
     0
 42
0.00000001
 43
0.00000001
 40
0.0
 40
0.0
 40
0.0
 40
0.0
 40
0.25
 40
0.25
 40
0.5
 40
0.5
 40
0.75
 40
0.75
 40
1.0
 40
1.0
 40
1.0
 40
1.0
 10
115.5585671767664
 20
142.9639761646803
 30
0.0
 10
115.6823369415315
 20
142.9639761646803
 30
0.0
 10
115.8067040455384
 20
142.9639761646803
 30
0.0
 10
116.0130605142644
 20
142.9639761646803
 30
0.0
 10
116.0983886576828
 20
142.9639761646803
 30
0.0
 10
116.230580716398
 20
142.9639761646804
 30
0.0
 10
116.2792259601486
 20
142.9639761646803
 30
0.0
 10
116.3427617518774
 20
142.9639761646803
 30
0.0
 10
116.3585671767664
 20
142.9639761646803
 30
0.0
 10
116.3585671767664
 20
142.9639761646803
 30
0.0
  0
SPLINE
  5
90
330
1F
100
AcDbEntity
  8
0
  6
Continuous
 62
     7
370
    15
100
AcDbSpline
210
0.0
220
0.0
230
1.0
 70
     8
 71
     3
 72
    12
 73
     8
 74
     0
 42
0.00000001
 43
0.00000001
 40
0.0
 40
0.0
 40
0.0
 40
0.0
 40
0.250000000000003
 40
0.250000000000003
 40
0.500000000000006
 40
0.500000000000006
 40
1.0
 40
1.0
 40
1.0
 40
1.0
 10
113.3385671767663
 20
66.97430070663071
 30
0.0
 10
113.2328065234174
 20
66.9743007066307
 30
0.0
 10
113.1248188952345
 20
66.9517612006303
 30
0.0
 10
112.9302242299688
 20
66.86719056863497
 30
0.0
 10
112.84135231713
 20
66.80470891587615
 30
0.0
 10
112.6221600248041
 20
66.57531996440395
 30
0.0
 10
112.5385671767663
 20
66.36273662688153
 30
0.0
 10
112.5385671767663
 20
66.1507973822853
 30
0.0
  0
SPLINE
  5
91
330
1F
100
AcDbEntity
  8
0
  6
Continuous
 62
     7
370
    15
100
AcDbSpline
210
0.0
220
0.0
230
1.0
 70
    24
 71
     3
 72
    14
 73
    10
 74
     0
 42
0.00000001
 43
0.00000001
 40
0.0
 40
0.0
 40
0.0
 40
0.0
 40
0.25
 40
0.25
 40
0.5
 40
0.5
 40
0.75
 40
0.75
 40
1.0
 40
1.0
 40
1.0
 40
1.0
 10
112.5385671767663
 20
142.9639761646803
 30
0.0
 10
112.5385671767663
 20
142.9639761646803
 30
0.0
 10
112.5542814972323
 20
142.9639761646803
 30
0.0
 10
112.6179654757007
 20
142.9639761646803
 30
0.0
 10
112.6665686701111
 20
142.9639761646803
 30
0.0
 10
112.7992521925367
 20
142.9639761646804
 30
0.0
 10
112.8843542968474
 20
142.9639761646803
 30
0.0
 10
113.0907965317574
 20
142.9639761646803
 30
0.0
 10
113.2148774733805
 20
142.9639761646803
 30
0.0
 10
113.3385671767663
 20
142.9639761646803
 30
0.0
  0
LINE
  5
92
330
1F
100
AcDbEntity
  8
0
  6
Continuous
 62
     7
370
    15
100
AcDbLine
 10
115.5585671768
 20
66.9743007066
 30
0.0
 11
113.3385671768
 21
66.9743007066
 31
0.0
  0
LINE
  5
93
330
1F
100
AcDbEntity
  8
0
  6
Continuous
 62
     7
370
    15
100
AcDbLine
 10
113.3385671768
 20
142.9639761647
 30
0.0
 11
115.5585671768
 21
142.9639761647
 31
0.0
  0
LINE
  5
94
330
1F
100
AcDbEntity
  8
0
  6
Continuous
 62
     7
370
    15
100
AcDbLine
 10
59.6485671768
 20
75.3499611346
 30
0.0
 11
59.6485671768
 21
77.7446428993
 31
0.0
  0
SPLINE
  5
95
330
1F
100
AcDbEntity
  8
0
  6
Continuous
 62
     7
370
    15
100
AcDbSpline
210
0.0
220
0.0
230
1.0
 70
     8
 71
     3
 72
    14
 73
    10
 74
     0
 42
0.00000001
 43
0.00000001
 40
0.0
 40
0.0
 40
0.0
 40
0.0
 40
0.25
 40
0.25
 40
0.5
 40
0.5
 40
0.75
 40
0.75
 40
1.0
 40
1.0
 40
1.0
 40
1.0
 10
58.6441447054294
 20
79.44749482093683
 30
0.0
 10
58.73291328337472
 20
79.28896068962888
 30
0.0
 10
58.85463112205363
 20
79.13651801274031
 30
0.0
 10
59.08968073191047
 20
78.83938338891139
 30
0.0
 10
59.20531091812736
 20
78.69470074529403
 30
0.0
 10
59.40571585155519
 20
78.41141154279062
 30
0.0
 10
59.49111614353949
 20
78.27285754975377
 30
0.0
 10
59.61282177725674
 20
78.00147351972022
 30
0.0
 10
59.64856717676938
 20
77.86933765108562
 30
0.0
 10
59.64856717676936
 20
77.74464289931485
 30
0.0
  0
SPLINE
  5
96
330
1F
100
AcDbEntity
  8
0
  6
Continuous
 62
     7
370
    15
100
AcDbSpline
210
0.0
220
0.0
230
1.0
 70
     8
 71
     3
 72
    14
 73
    10
 74
     0
 42
0.00000001
 43
0.00000001
 40
0.0
 40
0.0
 40
0.0
 40
0.0
 40
0.124999999999999
 40
0.124999999999999
 40
0.249999999999998
 40
0.249999999999998
 40
0.5000000000000007
 40
0.5000000000000007
 40
1.0
 40
1.0
 40
1.0
 40
1.0
 10
57.74856717676635
 20
80.07632476003693
 30
0.0
 10
57.81614947655086
 20
80.08348064513832
 30
0.0
 10
57.88863705429875
 20
80.07905617509931
 30
0.0
 10
58.02092816356469
 20
80.04935001732896
 30
0.0
 10
58.07820554295487
 20
80.02606573575073
 30
0.0
 10
58.22785597015515
 20
79.94858049590042
 30
0.0
 10
58.30156926567665
 20
79.88672866899904
 30
0.0
 10
58.48937724900289
 20
79.70205121635072
 30
0.0
 10
58.57341755536434
 20
79.57380829305951
 30
0.0
 10
58.64414470543061
 20
79.44749482093692
 30
0.0
  0
SPLINE
  5
97
330
1F
100
AcDbEntity
  8
0
  6
Continuous
 62
     7
370
    15
100
AcDbSpline
210
0.0
220
0.0
230
1.0
 70
     8
 71
     3
 72
     8
 73
     4
 74
     0
 42
0.00000001
 43
0.00000001
 40
0.0
 40
0.0
 40
0.0
 40
0.0
 40
1.0
 40
1.0
 40
1.0
 40
1.0
 10
54.20392678868558
 20
79.65827617524515
 30
0.0
 10
55.36922509939445
 20
79.81346364713177
 30
0.0
 10
56.55384031343426
 20
79.9498222854421
 30
0.0
 10
57.74856717676635
 20
80.07632476003693
 30
0.0
  0
SPLINE
  5
98
330
1F
100
AcDbEntity
  8
0
  6
Continuous
 62
     7
370
    15
100
AcDbSpline
210
0.0
220
0.0
230
1.0
 70
     8
 71
     3
 72
    14
 73
    10
 74
     0
 42
0.00000001
 43
0.00000001
 40
0.0
 40
0.0
 40
0.0
 40
0.0
 40
0.5000000000000012
 40
0.5000000000000012
 40
0.7500000000000018
 40
0.7500000000000018
 40
0.8750000000000009
 40
0.8750000000000009
 40
1.0
 40
1.0
 40
1.0
 40
1.0
 10
46.44849229273601
 20
79.36814399611522
 30
0.0
 10
47.75679385527004
 20
79.37515871985633
 30
0.0
 10
49.06185322992715
 20
79.39056729630082
 30
0.0
 10
51.00772928141583
 20
79.44446385176747
 30
0.0
 10
51.65442678515499
 20
79.46749541637017
 30
0.0
 10
52.61826914900954
 20
79.51843794124093
 30
0.0
 10
52.93850784094367
 20
79.53817286347413
 30
0.0
 10
53.57520306728622
 20
79.58765999194571
 30
0.0
 10
53.89191847556923
 20
79.61672477087495
 30
0.0
 10
54.2039267886856
 20
79.65827617524509
 30
0.0
  0
SPLINE
  5
99
330
1F
100
AcDbEntity
  8
0
  6
Continuous
 62
     7
370
    15
100
AcDbSpline
210
0.0
220
0.0
230
1.0
 70
     8
 71
     3
 72
    12
 73
     8
 74
     0
 42
0.00000001
 43
0.00000001
 40
0.0
 40
0.0
 40
0.0
 40
0.0
 40
0.2500000000000001
 40
0.2500000000000001
 40
0.5000000000000001
 40
0.5000000000000001
 40
1.0
 40
1.0
 40
1.0
 40
1.0
 10
52.74856717676636
 20
143.7004990561768
 30
0.0
 10
52.22986835493818
 20
143.733021831025
 30
0.0
 10
51.70815678173318
 20
143.7563185721955
 30
0.0
 10
50.66186476523762
 20
143.7941640866176
 30
0.0
 10
50.13719313956734
 20
143.8084325611138
 30
0.0
 10
48.56034711702812
 20
143.842642048572
 30
0.0
 10
47.50539180248123
 20
143.8541415525159
 30
0.0
 10
46.44849229273601
 20
143.8598083332455
 30
0.0
  0
SPLINE
  5
9A
330
1F
100
AcDbEntity
  8
0
  6
Continuous
 62
     7
370
    15
100
AcDbSpline
210
0.0
220
0.0
230
1.0
 70
     8
 71
     3
 72
    20
 73
    16
 74
     0
 42
0.00000001
 43
0.00000001
 40
0.0
 40
0.0
 40
0.0
 40
0.0
 40
0.2500000000000011
 40
0.2500000000000011
 40
0.5000000000000021
 40
0.5000000000000021
 40
0.7500000000000031
 40
0.7500000000000031
 40
0.8750000000000008
 40
0.8750000000000008
 40
0.9375000000000006
 40
0.9375000000000006
 40
0.9687500000000003
 40
0.9687500000000003
 40
1.0
 40
1.0
 40
1.0
 40
1.0
 10
54.64856717676636
 20
145.3585849016649
 30
0.0
 10
54.64856717676636
 20
145.2229025819181
 30
0.0
 10
54.59985538754973
 20
145.0818155957781
 30
0.0
 10
54.43069396432454
 20
144.7897438770475
 30
0.0
 10
54.30891355040623
 20
144.6380951349571
 30
0.0
 10
54.01136645565671
 20
144.335686694804
 30
0.0
 10
53.83745384995395
 20
144.1830980586807
 30
0.0
 10
53.51803901607212
 20
143.9578272948384
 30
0.0
 10
53.40299824062486
 20
143.8831042003277
 30
0.0
 10
53.19591391660844
 20
143.7836937910707
 30
0.0
 10
53.11980608180205
 20
143.7521286987261
 30
0.0
 10
52.98841154224871
 20
143.7176853145332
 30
0.0
 10
52.94185832324725
 20
143.7086337427655
 30
0.0
 10
52.84552497216653
 20
143.6984580939271
 30
0.0
 10
52.79626554881109
 20
143.697508335252
 30
0.0
 10
52.74856717676438
 20
143.7004990561666
 30
0.0
  0
LINE
  5
9B
330
1F
100
AcDbEntity
  8
0
  6
Continuous
 62
     7
370
    15
100
AcDbLine
 10
54.6485671768
 20
145.3585849017
 30
0.0
 11
54.6485671768
 21
147.6274901927
 31
0.0
  0
LINE
  5
9C
330
1F
100
AcDbEntity
  8
0
  6
Continuous
 62
     7
370
    15
100
AcDbLine
 10
91.9485671768
 20
73.7317246617
 30
0.0
 11
91.9485671768
 21
149.4962276677
 31
0.0
  0
SPLINE
  5
9D
330
1F
100
AcDbEntity
  8
0
  6
Continuous
 62
     7
370
    15
100
AcDbSpline
210
0.0
220
0.0
230
1.0
 70
     8
 71
     3
 72
    22
 73
    18
 74
     0
 42
0.00000001
 43
0.00000001
 40
0.0
 40
0.0
 40
0.0
 40
0.0
 40
0.0002937850458186
 40
0.0628841327416245
 40
0.1261981682954119
 40
0.2510182590426545
 40
0.3131038291609287
 40
0.3757650688901397
 40
0.4382989835656159
 40
0.5000628079113862
 40
0.5617337561138577
 40
0.6246555685552369
 40
0.7491916976530832
 40
0.8115302181310354
 40
0.8745847230190956
 40
0.937822758820794
 40
1.0
 40
1.0
 40
1.0
 40
1.0
 10
72.96852344060578
 20
74.68273090636798
 30
0.0
 10
72.96832858719557
 20
74.68270659904812
 30
0.0
 10
72.92662058371491
 20
74.67750366326129
 30
0.0
 10
73.07188368689886
 20
74.69611787114916
 30
0.0
 10
73.54202986406919
 20
74.75264382174515
 30
0.0
 10
74.51048594665328
 20
74.8588654511706
 30
0.0
 10
75.82294575621465
 20
74.94449825860202
 30
0.0
 10
76.9550694648472
 20
74.9831543247009
 30
0.0
 10
78.1772562414692
 20
74.98681563247939
 30
0.0
 10
79.44455462899855
 20
74.94443021770955
 30
0.0
 10
80.71126628323164
 20
74.85605324003419
 30
0.0
 10
82.3269242790962
 20
74.68600411141036
 30
0.0
 10
83.76688688911982
 20
74.4638223768569
 30
0.0
 10
84.83275604528372
 20
74.26082626872235
 30
0.0
 10
85.42195642872166
 20
74.13680083577302
 30
0.0
 10
85.81067594401225
 20
74.0518799953281
 30
0.0
 10
85.85746165684166
 20
74.04115327752376
 30
0.0
 10
85.88065665046892
 20
74.03583528328863
 30
0.0
  0
SPLINE
  5
9E
330
1F
100
AcDbEntity
  8
0
  6
Continuous
 62
     7
370
    15
100
AcDbSpline
210
0.0
220
0.0
230
1.0
 70
     8
 71
     3
 72
    41
 73
    37
 74
     0
 42
0.00000001
 43
0.00000001
 40
0.0
 40
0.0
 40
0.0
 40
0.0
 40
0.0619930061482746
 40
0.1254347783466151
 40
0.1886508898234768
 40
0.2510246408607227
 40
0.3131658188976554
 40
0.3756581641417402
 40
0.4382227146727798
 40
0.4998044922940677
 40
0.56151641971787
 40
0.6240683094121985
 40
0.686725723240935
 40
0.7488365305144522
 40
0.8110685944253986
 40
0.8741742884451361
 40
0.9373212787645211
 40
0.9685511709617411
 40
0.9842086872487193
 40
0.9920641182531791
 40
0.996000486125535
 40
0.9979710794120144
 40
0.9989570090489596
 40
0.9994501359395065
 40
0.9996967403802177
 40
0.9998200529090742
 40
0.9998817117580818
 40
0.999912541829664
 40
0.9999279570273361
 40
0.9999356646666602
 40
0.9999395184964466
 40
0.9999414454138695
 40
0.9999424088732151
 40
0.9999433723329806
 40
0.9999501697010513
 40
1.0
 40
1.0
 40
1.0
 40
1.0
 10
85.88053531999093
 20
149.1920720281205
 30
0.0
 10
85.85696367464733
 20
149.1867625484707
 30
0.0
 10
85.80926951860226
 20
149.1760195075311
 30
0.0
 10
85.41722752917671
 20
149.0907903710757
 30
0.0
 10
84.82671347990652
 20
148.9662215924349
 30
0.0
 10
84.02267603386143
 20
148.8132746462831
 30
0.0
 10
83.04660063367992
 20
148.6515180923295
 30
0.0
 10
81.92479189839942
 20
148.4992853243973
 30
0.0
 10
80.71126097861217
 20
148.371505383196
 30
0.0
 10
79.44643027221296
 20
148.2836568315134
 30
0.0
 10
78.17838723477023
 20
148.2412713476427
 30
0.0
 10
76.95487987706912
 20
148.2450071556144
 30
0.0
 10
75.82138133665511
 20
148.2836026260625
 30
0.0
 10
74.83527552568091
 20
148.3480419973536
 30
0.0
 10
74.02664771689368
 20
148.4215518046348
 30
0.0
 10
73.43002902178449
 20
148.4888654894466
 30
0.0
 10
73.11463773232641
 20
148.5268300407145
 30
0.0
 10
73.00457116352848
 20
148.5406291000464
 30
0.0
 10
72.97715177571429
 20
148.544115173967
 30
0.0
 10
72.97022972488479
 20
148.5449943996604
 30
0.0
 10
72.96846148470138
 20
148.5452151742667
 30
0.0
 10
72.968001105528
 20
148.5452703769775
 30
0.0
 10
72.9678769468432
 20
148.5452841167645
 30
0.0
 10
72.96784139235002
 20
148.5452875125955
 30
0.0
 10
72.96783024827994
 20
148.5452883409158
 30
0.0
 10
72.96782633508383
 20
148.5452885375046
 30
0.0
 10
72.967824792879
 20
148.5452885814347
 30
0.0
 10
72.96782412587748
 20
148.5452885897414
 30
0.0
 10
72.96782381769974
 20
148.5452885905717
 30
0.0
 10
72.96782367093368
 20
148.5452885900265
 30
0.0
 10
72.96782359798124
 20
148.5452885896966
 30
0.0
 10
72.96782356358885
 20
148.5452885892594
 30
0.0
 10
72.96782354134369
 20
148.5452885893479
 30
0.0
 10
72.96782351423425
 20
148.5452885865129
 30
0.0
 10
72.9678209946729
 20
148.545288873368
 30
0.0
 10
72.96785708459095
 20
148.5452842532673
 30
0.0
 10
72.96788884241359
 20
148.5452801877459
 30
0.0
  0
SPLINE
  5
9F
330
1F
100
AcDbEntity
  8
0
  6
Continuous
 62
     7
370
    15
100
AcDbSpline
210
0.0
220
0.0
230
1.0
 70
     8
 71
     3
 72
    20
 73
    16
 74
     0
 42
0.00000001
 43
0.00000001
 40
0.0
 40
0.0
 40
0.0
 40
0.0
 40
0.249999999999986
 40
0.249999999999986
 40
0.3749999999999789
 40
0.3749999999999789
 40
0.4374999999999789
 40
0.4374999999999789
 40
0.4999999999999789
 40
0.4999999999999789
 40
0.6249999999999835
 40
0.6249999999999835
 40
0.7499999999999879
 40
0.7499999999999879
 40
1.0
 40
1.0
 40
1.0
 40
1.0
 10
44.83938140848237
 20
80.93549301197963
 30
0.0
 10
44.86565362569578
 20
80.95481095306211
 30
0.0
 10
44.89633376795062
 20
80.96919966416388
 30
0.0
 10
44.96780463833254
 20
80.96229530232787
 30
0.0
 10
44.99583167537688
 20
80.95512929897946
 30
0.0
 10
45.05091526487438
 20
80.92543027227586
 30
0.0
 10
45.07180659342681
 20
80.91195662971452
 30
0.0
 10
45.11701524087228
 20
80.87675836419851
 30
0.0
 10
45.14141945326784
 20
80.85485013547125
 30
0.0
 10
45.21275177131928
 20
80.7827252754757
 30
0.0
 10
45.25464855613956
 20
80.73038473452566
 30
0.0
 10
45.32622451499543
 20
80.6329013426249
 30
0.0
 10
45.35705250481273
 20
80.58614757274648
 30
0.0
 10
45.4401524376483
 20
80.45285435690737
 30
0.0
 10
45.48500734301861
 20
80.37021695899216
 30
0.0
 10
45.52511941847118
 20
80.29111006420138
 30
0.0
  0
SPLINE
  5
A0
330
1F
100
AcDbEntity
  8
0
  6
Continuous
 62
     7
370
    15
100
AcDbSpline
210
0.0
220
0.0
230
1.0
 70
     8
 71
     3
 72
    14
 73
    10
 74
     0
 42
0.00000001
 43
0.00000001
 40
0.0
 40
0.0
 40
0.0
 40
0.0
 40
0.2499999999999994
 40
0.2499999999999994
 40
0.4999999999999988
 40
0.4999999999999988
 40
0.7499999999999982
 40
0.7499999999999982
 40
1.0
 40
1.0
 40
1.0
 40
1.0
 10
44.54856717676636
 20
81.11130642211242
 30
0.0
 10
44.54856717676636
 20
81.07005949108809
 30
0.0
 10
44.55717689314761
 20
81.03315251880561
 30
0.0
 10
44.58826307271796
 20
80.97225245890618
 30
0.0
 10
44.61065262620203
 20
80.9480715393665
 30
0.0
 10
44.66539655737814
 20
80.91410394848323
 30
0.0
 10
44.69784679696333
 20
80.90418386451505
 30
0.0
 10
44.7678483116914
 20
80.9028326556102
 30
0.0
 10
44.80605881181392
 20
80.91099093230635
 30
0.0
 10
44.83938140848702
 20
80.93549301197444
 30
0.0
  0
LINE
  5
A1
330
1F
100
AcDbEntity
  8
0
  6
Continuous
 62
     7
370
    15
100
AcDbLine
 10
44.5485671768
 20
81.1113064221
 30
0.0
 11
44.5485671768
 21
142.1166459072
 31
0.0
  0
SPLINE
  5
A2
330
1F
100
AcDbEntity
  8
0
  6
Continuous
 62
     7
370
    15
100
AcDbSpline
210
0.0
220
0.0
230
1.0
 70
     8
 71
     3
 72
    12
 73
     8
 74
     0
 42
0.00000001
 43
0.00000001
 40
0.0
 40
0.0
 40
0.0
 40
0.0
 40
0.0592077505114064
 40
0.3503612113849183
 40
0.644012000323884
 40
0.9432672693652688
 40
1.0
 40
1.0
 40
1.0
 40
1.0
 10
44.83938140848701
 20
142.2924593173862
 30
0.0
 10
44.83454552513853
 20
142.2957319610059
 30
0.0
 10
44.80592923869886
 20
142.3150977935721
 30
0.0
 10
44.74793090065851
 20
142.3290636907364
 30
0.0
 10
44.6759306601982
 20
142.3179906629212
 30
0.0
 10
44.62729097118748
 20
142.2966903590115
 30
0.0
 10
44.61050609912501
 20
142.2737889888367
 30
0.0
 10
44.60783114483914
 20
142.2701392667493
 30
0.0
  0
SPLINE
  5
A3
330
1F
100
AcDbEntity
  8
0
  6
Continuous
 62
     7
370
    15
100
AcDbSpline
210
0.0
220
0.0
230
1.0
 70
     8
 71
     3
 72
     8
 73
     4
 74
     0
 42
0.00000001
 43
0.00000001
 40
0.0
 40
0.0
 40
0.0
 40
0.0
 40
1.0
 40
1.0
 40
1.0
 40
1.0
 10
44.57220084570257
 20
142.2242254083179
 30
0.0
 10
44.55685180706654
 20
142.193715353322
 30
0.0
 10
44.54856717676636
 20
142.1574037978097
 30
0.0
 10
44.54856717676636
 20
142.1166459072483
 30
0.0
  0
SPLINE
  5
A4
330
1F
100
AcDbEntity
  8
0
  6
Continuous
 62
     7
370
    15
100
AcDbSpline
210
0.0
220
0.0
230
1.0
 70
     8
 71
     3
 72
    20
 73
    16
 74
     0
 42
0.00000001
 43
0.00000001
 40
0.0
 40
0.0
 40
0.0
 40
0.0
 40
0.2500000000000037
 40
0.2500000000000037
 40
0.3750000000000055
 40
0.3750000000000055
 40
0.5000000000000073
 40
0.5000000000000073
 40
0.5625000000000057
 40
0.5625000000000057
 40
0.625000000000004
 40
0.625000000000004
 40
0.7500000000000027
 40
0.7500000000000027
 40
1.0
 40
1.0
 40
1.0
 40
1.0
 10
45.52511941846879
 20
142.9368422651585
 30
0.0
 10
45.48512320064496
 20
142.8579638586011
 30
0.0
 10
45.44000957280731
 20
142.7748342119096
 30
0.0
 10
45.35675535844078
 20
142.6413455475586
 30
0.0
 10
45.32653602982028
 20
142.5954804916767
 30
0.0
 10
45.25444779467885
 20
142.4972889392718
 30
0.0
 10
45.21253047726776
 20
142.4449791197482
 30
0.0
 10
45.1412798727163
 20
142.3729732170137
 30
0.0
 10
45.11704406033698
 20
142.3512030047121
 30
0.0
 10
45.07144587015232
 20
142.3157283463831
 30
0.0
 10
45.05064338055262
 20
142.3023581622055
 30
0.0
 10
44.99570238213349
 20
142.2727882500703
 30
0.0
 10
44.96763339404669
 20
142.2656617277683
 30
0.0
 10
44.89713056398385
 20
142.2587873562856
 30
0.0
 10
44.86570647619298
 20
142.2731025153728
 30
0.0
 10
44.83938140848439
 20
142.2924593173834
 30
0.0
  0
SPLINE
  5
A5
330
1F
100
AcDbEntity
  8
0
  6
Continuous
 62
     7
370
    15
100
AcDbSpline
210
0.0
220
0.0
230
1.0
 70
     8
 71
     3
 72
    10
 73
     6
 74
     0
 42
0.00000001
 43
0.00000001
 40
0.0
 40
0.0
 40
0.0
 40
0.0
 40
0.4999999999999989
 40
0.4999999999999989
 40
1.0
 40
1.0
 40
1.0
 40
1.0
 10
46.19856717676637
 20
143.8622613665003
 30
0.0
 10
46.07367890601617
 20
143.7312650884289
 30
0.0
 10
45.95222878795573
 20
143.5875522517639
 30
0.0
 10
45.72264481299829
 20
143.2769819590746
 30
0.0
 10
45.61236983760231
 20
143.1089128860116
 30
0.0
 10
45.52511941846879
 20
142.9368422651585
 30
0.0
  0
SPLINE
  5
A6
330
1F
100
AcDbEntity
  8
0
  6
Continuous
 62
     7
370
    15
100
AcDbSpline
210
0.0
220
0.0
230
1.0
 70
     8
 71
     3
 72
     8
 73
     4
 74
     0
 42
0.00000001
 43
0.00000001
 40
0.0
 40
0.0
 40
0.0
 40
0.0
 40
1.0
 40
1.0
 40
1.0
 40
1.0
 10
46.44849229273214
 20
143.859808333245
 30
0.0
 10
46.36147426288375
 20
143.860274898032
 30
0.0
 10
46.27852023650381
 20
143.8613149176082
 30
0.0
 10
46.19856717676406
 20
143.8622613665004
 30
0.0
  0
SPLINE
  5
A7
330
1F
100
AcDbEntity
  8
0
  6
Continuous
 62
     7
370
    15
100
AcDbSpline
210
0.0
220
0.0
230
1.0
 70
     8
 71
     3
 72
     8
 73
     4
 74
     0
 42
0.00000001
 43
0.00000001
 40
0.0
 40
0.0
 40
0.0
 40
0.0
 40
1.0
 40
1.0
 40
1.0
 40
1.0
 10
46.19856717676406
 20
79.36569096286027
 30
0.0
 10
46.27852023650382
 20
79.36663741175254
 30
0.0
 10
46.36147426288378
 20
79.36767743132866
 30
0.0
 10
46.44849229273215
 20
79.36814399611572
 30
0.0
  0
SPLINE
  5
A8
330
1F
100
AcDbEntity
  8
0
  6
Continuous
 62
     7
370
    15
100
AcDbSpline
210
0.0
220
0.0
230
1.0
 70
     8
 71
     3
 72
    10
 73
     6
 74
     0
 42
0.00000001
 43
0.00000001
 40
0.0
 40
0.0
 40
0.0
 40
0.0
 40
0.4999999999999989
 40
0.4999999999999989
 40
1.0
 40
1.0
 40
1.0
 40
1.0
 10
45.52511941846786
 20
80.29111006420395
 30
0.0
 10
45.61236983760134
 20
80.11903944335059
 30
0.0
 10
45.72264481299749
 20
79.95097037028714
 30
0.0
 10
45.95222878795532
 20
79.64040007759732
 30
0.0
 10
46.07367890601596
 20
79.49668724093205
 30
0.0
 10
46.19856717676637
 20
79.36569096286034
 30
0.0
  0
SPLINE
  5
A9
330
1F
100
AcDbEntity
  8
0
  6
Continuous
 62
     7
370
    15
100
AcDbSpline
210
0.0
220
0.0
230
1.0
 70
     8
 71
     3
 72
     8
 73
     4
 74
     0
 42
0.00000001
 43
0.00000001
 40
0.0
 40
0.0
 40
0.0
 40
0.0
 40
1.0
 40
1.0
 40
1.0
 40
1.0
 10
112.5385671767664
 20
158.2112470253852
 30
0.0
 10
112.0882589410818
 20
159.0089621504989
 30
0.0
 10
111.6375651245582
 20
159.806460450156
 30
0.0
 10
111.186538155845
 20
160.6037710203439
 30
0.0
  0
LINE
  5
AA
330
1F
100
AcDbEntity
  8
0
  6
Continuous
 62
     7
370
    15
100
AcDbLine
 10
112.5385671768
 20
147.5094236708
 30
0.0
 11
112.5385671768
 21
158.2112470254
 31
0.0
  0
SPLINE
  5
AB
330
1F
100
AcDbEntity
  8
0
  6
Continuous
 62
     7
370
    15
100
AcDbSpline
210
0.0
220
0.0
230
1.0
 70
     8
 71
     3
 72
     8
 73
     4
 74
     0
 42
0.00000001
 43
0.00000001
 40
0.0
 40
0.0
 40
0.0
 40
0.0
 40
1.0
 40
1.0
 40
1.0
 40
1.0
 10
111.186538155845
 20
150.5649389255673
 30
0.0
 10
111.6434645096445
 20
149.549020955893
 30
0.0
 10
112.0946701514475
 20
148.5302251268018
 30
0.0
 10
112.5385671767664
 20
147.5094236708182
 30
0.0
  0
SPLINE
  5
AC
330
1F
100
AcDbEntity
  8
0
  6
Continuous
 62
     7
370
    15
100
AcDbSpline
210
0.0
220
0.0
230
1.0
 70
     8
 71
     3
 72
    12
 73
     8
 74
     0
 42
0.00000001
 43
0.00000001
 40
0.0
 40
0.0
 40
0.0
 40
0.0
 40
0.5
 40
0.5
 40
0.75
 40
0.75
 40
1.0
 40
1.0
 40
1.0
 40
1.0
 10
123.3985671767664
 20
159.5827159855262
 30
0.0
 10
123.3985671767664
 20
159.8479854182926
 30
0.0
 10
123.2939604332799
 20
160.110500523945
 30
0.0
 10
123.0172920815346
 20
160.3960381299822
 30
0.0
 10
122.9069268221826
 20
160.4723597468437
 30
0.0
 10
122.6628547735669
 20
160.5767019116838
 30
0.0
 10
122.5311023122351
 20
160.6037710203439
 30
0.0
 10
122.3985671767664
 20
160.6037710203439
 30
0.0
  0
SPLINE
  5
AD
330
1F
100
AcDbEntity
  8
0
  6
Continuous
 62
     7
370
    15
100
AcDbSpline
210
0.0
220
0.0
230
1.0
 70
     8
 71
     3
 72
    16
 73
    12
 74
     0
 42
0.00000001
 43
0.00000001
 40
0.0
 40
0.0
 40
0.0
 40
0.0
 40
0.125
 40
0.125
 40
0.25
 40
0.25
 40
0.5
 40
0.5
 40
0.75
 40
0.75
 40
1.0
 40
1.0
 40
1.0
 40
1.0
 10
122.3985671767654
 20
150.5649389255673
 30
0.0
 10
122.4742048831766
 20
150.5649389255674
 30
0.0
 10
122.5505205475949
 20
150.5535939254325
 30
0.0
 10
122.694931285487
 20
150.5109413747941
 30
0.0
 10
122.7633777345954
 20
150.4800070501113
 30
0.0
 10
122.9583089872088
 20
150.3607506783438
 30
0.0
 10
123.0661501609898
 20
150.2505986647232
 30
0.0
 10
123.234862909202
 20
150.0024625790651
 30
0.0
 10
123.2972273219256
 20
149.8621202550614
 30
0.0
 10
123.3785312464341
 20
149.5738485635726
 30
0.0
 10
123.3985671767664
 20
149.4230435905927
 30
0.0
 10
123.3985671767664
 20
149.2726736992473
 30
0.0
  0
LINE
  5
AE
330
1F
100
AcDbEntity
  8
0
  6
Continuous
 62
     7
370
    15
100
AcDbLine
 10
123.3985671768
 20
149.2726736992
 30
0.0
 11
123.3985671768
 21
159.5827159855
 31
0.0
  0
LINE
  5
AF
330
1F
100
AcDbEntity
  8
0
  6
Continuous
 62
     7
370
    15
100
AcDbLine
 10
112.5385671768
 20
147.5094236708
 30
0.0
 11
112.5385671768
 21
146.3282113572
 31
0.0
  0
SPLINE
  5
B0
330
1F
100
AcDbEntity
  8
0
  6
Continuous
 62
     7
370
    15
100
AcDbSpline
210
0.0
220
0.0
230
1.0
 70
     8
 71
     3
 72
    14
 73
    10
 74
     0
 42
0.00000001
 43
0.00000001
 40
0.0
 40
0.0
 40
0.0
 40
0.0
 40
0.25
 40
0.25
 40
0.5
 40
0.5
 40
0.75
 40
0.75
 40
1.0
 40
1.0
 40
1.0
 40
1.0
 10
112.5385671767663
 20
146.3282113571774
 30
0.0
 10
112.5385671767663
 20
146.2043444803882
 30
0.0
 10
112.5544263043939
 20
146.0800848035507
 30
0.0
 10
112.6177879499138
 20
145.8424764411448
 30
0.0
 10
112.6663776579632
 20
145.7256960563923
 30
0.0
 10
112.798663262738
 20
145.5168935277833
 30
0.0
 10
112.8839880539986
 20
145.4223828241907
 30
0.0
 10
113.0908793023048
 20
145.2844260233884
 30
0.0
 10
113.2148472481948
 20
145.2425075777527
 30
0.0
 10
113.3385671767663
 20
145.2425075777527
 30
0.0
  0
LINE
  5
B1
330
1F
100
AcDbEntity
  8
0
  6
Continuous
 62
     7
370
    15
100
AcDbLine
 10
113.3385671768
 20
145.2425075778
 30
0.0
 11
115.5585671768
 21
145.2425075777
 31
0.0
  0
SPLINE
  5
B2
330
1F
100
AcDbEntity
  8
0
  6
Continuous
 62
     7
370
    15
100
AcDbSpline
210
0.0
220
0.0
230
1.0
 70
     8
 71
     3
 72
    12
 73
     8
 74
     0
 42
0.00000001
 43
0.00000001
 40
0.0
 40
0.0
 40
0.0
 40
0.0
 40
0.250000000000002
 40
0.250000000000002
 40
0.500000000000004
 40
0.500000000000004
 40
1.0
 40
1.0
 40
1.0
 40
1.0
 10
115.5585671767684
 20
145.2425075777528
 30
0.0
 10
115.6822681267482
 20
145.2425075777533
 30
0.0
 10
115.8063647390181
 20
145.2845011894861
 30
0.0
 10
116.0130199021045
 20
145.4222965161308
 30
0.0
 10
116.0980606688312
 20
145.5162701145955
 30
0.0
 10
116.2975392373042
 20
145.8310583208163
 30
0.0
 10
116.3585671767664
 20
146.0812973130435
 30
0.0
 10
116.3585671767664
 20
146.3282113571774
 30
0.0
  0
LINE
  5
B3
330
1F
100
AcDbEntity
  8
0
  6
Continuous
 62
     7
370
    15
100
AcDbLine
 10
116.3585671768
 20
146.3282113572
 30
0.0
 11
116.3585671768
 21
147.5094236708
 31
0.0
  0
SPLINE
  5
B4
330
1F
100
AcDbEntity
  8
0
  6
Continuous
 62
     7
370
    15
100
AcDbSpline
210
0.0
220
0.0
230
1.0
 70
     8
 71
     3
 72
     8
 73
     4
 74
     0
 42
0.00000001
 43
0.00000001
 40
0.0
 40
0.0
 40
0.0
 40
0.0
 40
1.0
 40
1.0
 40
1.0
 40
1.0
 10
116.3585671767664
 20
147.5094236708182
 30
0.0
 10
116.8027171877919
 20
148.5308069017698
 30
0.0
 10
117.2537914980498
 20
149.5492914385382
 30
0.0
 10
117.7105961976877
 20
150.5649389255673
 30
0.0
  0
LINE
  5
B5
330
1F
100
AcDbEntity
  8
0
  6
Continuous
 62
     7
370
    15
100
AcDbLine
 10
117.7105961977
 20
150.5649389256
 30
0.0
 11
122.3985671768
 21
150.5649389256
 31
0.0
  0
LINE
  5
B6
330
1F
100
AcDbEntity
  8
0
  6
Continuous
 62
     7
370
    15
100
AcDbLine
 10
123.3985671768
 20
149.2726736992
 30
0.0
 11
123.3985671768
 21
142.9639761647
 31
0.0
  0
SPLINE
  5
B7
330
1F
100
AcDbEntity
  8
0
  6
Continuous
 62
     7
370
    15
100
AcDbSpline
210
0.0
220
0.0
230
1.0
 70
     8
 71
     3
 72
    14
 73
    10
 74
     0
 42
0.00000001
 43
0.00000001
 40
0.0
 40
0.0
 40
0.0
 40
0.0
 40
0.25
 40
0.25
 40
0.5
 40
0.5
 40
0.75
 40
0.75
 40
1.0
 40
1.0
 40
1.0
 40
1.0
 10
116.3585671767664
 20
157.3075274055283
 30
0.0
 10
116.3585671767664
 20
157.2011707117759
 30
0.0
 10
116.3381796206251
 20
157.0953302240158
 30
0.0
 10
116.2595452751635
 20
156.8987653104793
 30
0.0
 10
116.2008139155249
 20
156.8075945681922
 30
0.0
 10
116.0542050099223
 20
156.6556834791606
 30
0.0
 10
115.9647996898957
 20
156.593614642341
 30
0.0
 10
115.7709089572953
 20
156.5103465945824
 30
0.0
 10
115.6644039674055
 20
156.4882519248527
 30
0.0
 10
115.5585671767661
 20
156.4882519248527
 30
0.0
  0
LINE
  5
B8
330
1F
100
AcDbEntity
  8
0
  6
Continuous
 62
     7
370
    15
100
AcDbLine
 10
122.3985671768
 20
160.6037710203
 30
0.0
 11
117.7105961977
 21
160.6037710203
 31
0.0
  0
LINE
  5
B9
330
1F
100
AcDbEntity
  8
0
  6
Continuous
 62
     7
370
    15
100
AcDbLine
 10
117.7105961977
 20
150.5649389256
 30
0.0
 11
117.7105961977
 21
160.6037710203
 31
0.0
  0
SPLINE
  5
BA
330
1F
100
AcDbEntity
  8
0
  6
Continuous
 62
     7
370
    15
100
AcDbSpline
210
0.0
220
0.0
230
1.0
 70
     8
 71
     3
 72
    10
 73
     6
 74
     0
 42
0.00000001
 43
0.00000001
 40
0.0
 40
0.0
 40
0.0
 40
0.0
 40
0.5
 40
0.5
 40
1.0
 40
1.0
 40
1.0
 40
1.0
 10
113.3385671767663
 20
156.4882519248528
 30
0.0
 10
113.12603086291
 20
156.4882519248528
 30
0.0
 10
112.916094691256
 20
156.579664511483
 30
0.0
 10
112.6223875502447
 20
156.8844093773872
 30
0.0
 10
112.5385671767663
 20
157.0965643472958
 30
0.0
 10
112.5385671767663
 20
157.3075274055283
 30
0.0
  0
SPLINE
  5
BB
330
1F
100
AcDbEntity
  8
0
  6
Continuous
 62
     7
370
    15
100
AcDbSpline
210
0.0
220
0.0
230
1.0
 70
     8
 71
     3
 72
     8
 73
     4
 74
     0
 42
0.00000001
 43
0.00000001
 40
0.0
 40
0.0
 40
0.0
 40
0.0
 40
1.0
 40
1.0
 40
1.0
 40
1.0
 10
117.7105961976877
 20
160.6037710203439
 30
0.0
 10
117.2595692289745
 20
159.806460450156
 30
0.0
 10
116.8088754124509
 20
159.0089621504989
 30
0.0
 10
116.3585671767664
 20
158.2112470253852
 30
0.0
  0
LINE
  5
BC
330
1F
100
AcDbEntity
  8
0
  6
Continuous
 62
     7
370
    15
100
AcDbLine
 10
116.3585671768
 20
147.5094236708
 30
0.0
 11
116.3585671768
 21
158.2112470254
 31
0.0
  0
LINE
  5
BD
330
1F
100
AcDbEntity
  8
0
  6
Continuous
 62
     7
370
    15
100
AcDbLine
 10
115.5585671768
 20
156.4882519249
 30
0.0
 11
113.3385671768
 21
156.4882519249
 31
0.0
  0
ARC
  5
BE
330
1F
100
AcDbEntity
  8
0
  6
Continuous
 62
     7
370
    15
100
AcDbCircle
 10
103.4488244552
 20
144.2095305555
 30
0.0
 40
11.42053516404148
100
AcDbArc
 50
77.6340603254
 51
102.4327561028
  0
LINE
  5
BF
330
1F
100
AcDbEntity
  8
0
  6
Continuous
 62
     7
370
    15
100
AcDbLine
 10
46.1985671768
 20
79.3639761647
 30
0.0
 11
46.1985671768
 21
79.3656909629
 31
0.0
  0
LINE
  5
C0
330
1F
100
AcDbEntity
  8
0
  6
Continuous
 62
     7
370
    15
100
AcDbLine
 10
46.1985671768
 20
143.8639761647
 30
0.0
 11
46.1985671768
 21
143.8622613665
 31
0.0
  0
SPLINE
  5
C1
330
1F
100
AcDbEntity
  8
0
  6
Continuous
 62
     7
370
    15
100
AcDbSpline
210
0.0
220
0.0
230
1.0
 70
     8
 71
     3
 72
    60
 73
    56
 74
     0
 42
0.00000001
 43
0.00000001
 40
-0.0312500000000001
 40
-0.0312500000000001
 40
0.0
 40
0.0
 40
0.0624999999999997
 40
0.0624999999999997
 40
0.0937500000000005
 40
0.0937500000000005
 40
0.1250000000000014
 40
0.1250000000000014
 40
0.187500000000003
 40
0.187500000000003
 40
0.2500000000000047
 40
0.2500000000000047
 40
0.2812500000000047
 40
0.2812500000000047
 40
0.3125000000000048
 40
0.3125000000000048
 40
0.3437500000000049
 40
0.3437500000000049
 40
0.3750000000000049
 40
0.3750000000000049
 40
0.4062500000000051
 40
0.4062500000000051
 40
0.4375000000000051
 40
0.4375000000000051
 40
0.4687500000000052
 40
0.4687500000000052
 40
0.5000000000000052
 40
0.5000000000000052
 40
0.5625000000000037
 40
0.5625000000000037
 40
0.593750000000003
 40
0.593750000000003
 40
0.6250000000000023
 40
0.6250000000000023
 40
0.6562500000000016
 40
0.6562500000000016
 40
0.6875000000000009
 40
0.6875000000000009
 40
0.7499999999999993
 40
0.7499999999999993
 40
0.7812499999999994
 40
0.7812499999999994
 40
0.8124999999999996
 40
0.8124999999999996
 40
0.8437499999999997
 40
0.8437499999999997
 40
0.8749999999999997
 40
0.8749999999999997
 40
0.9062499999999998
 40
0.9062499999999998
 40
0.9374999999999999
 40
0.9374999999999999
 40
0.9687499999999999
 40
0.9687499999999999
 40
1.0
 40
1.0
 40
1.0625
 40
1.0625
 10
160.9024340313913
 20
113.7026499523364
 30
0.0
 10
161.4115631554284
 20
114.0909267458299
 30
0.0
 10
161.7887813109581
 20
114.2817746882995
 30
0.0
 10
162.398866380669
 20
114.4750599083108
 30
0.0
 10
162.6051676802358
 20
114.5221723018675
 30
0.0
 10
163.0233635988346
 20
114.5836308521896
 30
0.0
 10
163.2364714225521
 20
114.5979374432456
 30
0.0
 10
163.8763872160242
 20
114.5898031107666
 30
0.0
 10
164.2935107163673
 20
114.5184631433868
 30
0.0
 10
165.1001379759597
 20
114.2397642939441
 30
0.0
 10
165.4697069804779
 20
114.0402966492766
 30
0.0
 10
165.967257428625
 20
113.637945673337
 30
0.0
 10
166.1185167028843
 20
113.4899390351351
 30
0.0
 10
166.3884056139491
 20
113.165822032532
 30
0.0
 10
166.5085997707814
 20
112.9867474529186
 30
0.0
 10
166.7026026360465
 20
112.6105411430893
 30
0.0
 10
166.7771567952415
 20
112.4137842445955
 30
0.0
 10
166.8772803745526
 20
112.0012983514339
 30
0.0
 10
166.9016231752526
 20
111.785808011445
 30
0.0
 10
166.8948777946144
 20
111.3626781411004
 30
0.0
 10
166.8638599870592
 20
111.1486662189144
 30
0.0
 10
166.7506251555064
 20
110.7380161826192
 30
0.0
 10
166.6695772217354
 20
110.5420169223404
 30
0.0
 10
166.4617826860693
 20
110.1673745306307
 30
0.0
 10
166.338385653413
 20
109.9948002743109
 30
0.0
 10
166.0581667968732
 20
109.6764391910553
 30
0.0
 10
165.9003055869796
 20
109.5303175214493
 30
0.0
 10
165.3966397568048
 20
109.1440339811003
 30
0.0
 10
165.0107947965794
 20
108.9476694574173
 30
0.0
 10
164.4059774944111
 20
108.7549837063989
 30
0.0
 10
164.1974914022331
 20
108.7067809527502
 30
0.0
 10
163.775118380952
 20
108.6443335712947
 30
0.0
 10
163.563742511175
 20
108.6302320979026
 30
0.0
 10
163.1406243566881
 20
108.6351036582789
 30
0.0
 10
162.9276799941129
 20
108.6542925691839
 30
0.0
 10
162.506778155094
 20
108.7267736677877
 30
0.0
 10
162.301916478403
 20
108.7793201455654
 30
0.0
 10
161.7038822500122
 20
108.9855335329053
 30
0.0
 10
161.3220837658567
 20
109.1919396495011
 30
0.0
 10
160.8322762096184
 20
109.5880850629737
 30
0.0
 10
160.6811268311683
 20
109.7350682189587
 30
0.0
 10
160.407021379977
 20
110.0641126427851
 30
0.0
 10
160.2891309799979
 20
110.2401838812376
 30
0.0
 10
160.0946796466856
 20
110.6169893170928
 30
0.0
 10
160.0180150119589
 20
110.8202168191041
 30
0.0
 10
159.9190477690767
 20
111.2320693743741
 30
0.0
 10
159.8951217573357
 20
111.4432895418942
 30
0.0
 10
159.9028073295155
 20
111.8736765741901
 30
0.0
 10
159.9341166674365
 20
112.0837624936424
 30
0.0
 10
160.0481389633184
 20
112.4943935307141
 30
0.0
 10
160.1314578407212
 20
112.694041275442
 30
0.0
 10
160.3382722532475
 20
113.0647342825926
 30
0.0
 10
160.4640087510513
 20
113.2400532793675
 30
0.0
 10
160.7458447708786
 20
113.5583604532893
 30
0.0
 10
160.9024340313913
 20
113.7026499523364
 30
0.0
 10
161.4115631554284
 20
114.0909267458299
 30
0.0
  0
CIRCLE
  5
C2
330
1F
100
AcDbEntity
  8
0
  6
Continuous
 62
     7
370
    15
100
AcDbCircle
 10
163.3985671768
 20
111.6139761647
 30
0.0
 40
2.5
  0
LINE
  5
C3
330
1F
100
AcDbEntity
  8
0
  6
Continuous
 62
     7
370
    15
100
AcDbLine
 10
172.3985671768
 20
96.6139761647
 30
0.0
 11
172.3985671768
 21
126.6139761647
 31
0.0
  0
LINE
  5
C4
330
1F
100
AcDbEntity
  8
0
  6
Continuous
 62
     7
370
    15
100
AcDbLine
 10
161.0721437381
 20
126.4490708767
 30
0.0
 11
161.2443088443
 21
126.4304274152
 31
0.0
  0
SPLINE
  5
C5
330
1F
100
AcDbEntity
  8
0
  6
Continuous
 62
     7
370
    15
100
AcDbSpline
210
0.0
220
0.0
230
1.0
 70
     8
 71
     3
 72
    37
 73
    33
 74
     0
 42
0.00000001
 43
0.00000001
 40
0.0
 40
0.0
 40
0.0
 40
0.0
 40
0.0260745690363603
 40
0.0485613789562401
 40
0.0686516358259726
 40
0.1094511196058726
 40
0.1301874919269458
 40
0.151648917549219
 40
0.1951472409224611
 40
0.2172029083284301
 40
0.2418582355108155
 40
0.2918187188911595
 40
0.3171485545383674
 40
0.3455750682187118
 40
0.4032428283255176
 40
0.4325284642472594
 40
0.4636592982830799
 40
0.5269199854930245
 40
0.5591193170383699
 40
0.5911186074605757
 40
0.6233445310618163
 40
0.6563033069143765
 40
0.6895250809470421
 40
0.7206642780458514
 40
0.7842158098972103
 40
0.8167789331396256
 40
0.8395613286466274
 40
0.8858326780637178
 40
0.9093994472971457
 40
0.932187852192179
 40
0.9787112702307846
 40
1.0
 40
1.0
 40
1.0
 40
1.0
 10
166.8888050171484
 20
126.6123562418521
 30
0.0
 10
166.8902708747217
 20
126.6125980060716
 30
0.0
 10
166.893000893577
 20
126.613048268696
 30
0.0
 10
166.8534796882508
 20
126.606512519032
 30
0.0
 10
166.7877966061999
 20
126.5957828088723
 30
0.0
 10
166.6897619467615
 20
126.5800695317298
 30
0.0
 10
166.5615194897724
 20
126.5603119678979
 30
0.0
 10
166.4097810259421
 20
126.537627181668
 30
0.0
 10
166.2277712983689
 20
126.5118104415862
 30
0.0
 10
166.0153187529959
 20
126.4839006483681
 30
0.0
 10
165.7710614312304
 20
126.4537025941533
 30
0.0
 10
165.4938418989053
 20
126.4230729341515
 30
0.0
 10
165.1870233836779
 20
126.3940583101113
 30
0.0
 10
164.8444227506231
 20
126.3656393945445
 30
0.0
 10
164.4711711914007
 20
126.3419386549747
 30
0.0
 10
164.0784359407045
 20
126.3255181819261
 30
0.0
 10
163.6613554144836
 20
126.314392914086
 30
0.0
 10
163.2286814597211
 20
126.3133318305894
 30
0.0
 10
162.7976159920551
 20
126.3228708891963
 30
0.0
 10
162.4755600321676
 20
126.3352175618388
 30
0.0
 10
162.1574960526013
 20
126.3524634512893
 30
0.0
 10
161.8445421887653
 20
126.3743023013344
 30
0.0
 10
161.546745921938
 20
126.3995786757862
 30
0.0
 10
161.1740793571589
 20
126.4363416079915
 30
0.0
 10
160.8346991656744
 20
126.4765068635382
 30
0.0
 10
160.5605600546261
 20
126.5131726895291
 30
0.0
 10
160.3503874659197
 20
126.5429404921253
 30
0.0
 10
160.1888111459025
 20
126.5673691034152
 30
0.0
 10
160.0638421364838
 20
126.5870417278376
 30
0.0
 10
159.9652587067038
 20
126.6029153931105
 30
0.0
 10
159.9058428882934
 20
126.6127675097709
 30
0.0
 10
159.9011631932149
 20
126.6135450176244
 30
0.0
 10
159.8996940646421
 20
126.6137891059643
 30
0.0
  0
SPLINE
  5
C6
330
1F
100
AcDbEntity
  8
0
  6
Continuous
 62
     7
370
    15
100
AcDbSpline
210
0.0
220
0.0
230
1.0
 70
     8
 71
     3
 72
     9
 73
     5
 74
     0
 42
0.00000001
 43
0.00000001
 40
0.0
 40
0.0
 40
0.0
 40
0.0
 40
0.3625033216874609
 40
0.9999999999999999
 40
0.9999999999999999
 40
0.9999999999999999
 40
0.9999999999999999
 10
160.8097854463208
 20
126.481028180826
 30
0.0
 10
160.8391512620393
 20
126.4771713326707
 30
0.0
 10
160.9201596665469
 20
126.4665318490451
 30
0.0
 10
161.0129745550328
 20
126.455868638192
 30
0.0
 10
161.0721437381405
 20
126.449070876693
 30
0.0
  0
SPLINE
  5
C7
330
1F
100
AcDbEntity
  8
0
  6
Continuous
 62
     7
370
    15
100
AcDbSpline
210
0.0
220
0.0
230
1.0
 70
     8
 71
     3
 72
     9
 73
     5
 74
     0
 42
0.00000001
 43
0.00000001
 40
0.0
 40
0.0
 40
0.0
 40
0.0
 40
0.830696145167971
 40
1.0
 40
1.0
 40
1.0
 40
1.0
 10
161.0721437384481
 20
96.77888145270259
 30
0.0
 10
161.0002335815901
 20
96.77067440127199
 30
0.0
 10
160.9136674439279
 20
96.76079467391519
 30
0.0
 10
160.8408214281262
 20
96.75108601618241
 30
0.0
 10
160.8284883168419
 20
96.74944230300302
 30
0.0
  0
SPLINE
  5
C8
330
1F
100
AcDbEntity
  8
0
  6
Continuous
 62
     7
370
    15
100
AcDbSpline
210
0.0
220
0.0
230
1.0
 70
     8
 71
     3
 72
    39
 73
    35
 74
     0
 42
0.00000001
 43
0.00000001
 40
0.0
 40
0.0
 40
0.0
 40
0.0
 40
0.0060930915915697
 40
0.0287231216978992
 40
0.0488575597471485
 40
0.0897791026067252
 40
0.110598363104433
 40
0.1315246787516551
 40
0.1739506973677855
 40
0.1954697364836914
 40
0.2192513009537053
 40
0.2674372844787139
 40
0.291863706136641
 40
0.3194211748210423
 40
0.3753053589442873
 40
0.4036706937147587
 40
0.4343190429066354
 40
0.496575277222885
 40
0.5282468941304254
 40
0.5601856082085976
 40
0.59234655605735
 40
0.6252194849322155
 40
0.6583446550624794
 40
0.6898805263369171
 40
0.721658697176389
 40
0.7542539956277834
 40
0.787158990822528
 40
0.8110125140027764
 40
0.8594545121918952
 40
0.8841254510707361
 40
0.907985826541587
 40
0.956734756532006
 40
0.9817327968062024
 40
0.9999999999999999
 40
0.9999999999999999
 40
0.9999999999999999
 40
0.9999999999999999
 10
159.9034175452818
 20
96.61477947315818
 30
0.0
 10
159.9017690263948
 20
96.61450652399714
 30
0.0
 10
159.8939978304593
 20
96.61321982875354
 30
0.0
 10
159.9135538930462
 20
96.61646649598138
 30
0.0
 10
159.9553693377228
 20
96.62336802799742
 30
0.0
 10
160.034152166347
 20
96.63621278245542
 30
0.0
 10
160.1431940178412
 20
96.65341191009693
 30
0.0
 10
160.2744995455115
 20
96.67361041064888
 30
0.0
 10
160.435569215176
 20
96.69733689827936
 30
0.0
 10
160.6268830625914
 20
96.72372923736107
 30
0.0
 10
160.8479533547881
 20
96.75269945587641
 30
0.0
 10
161.1014817464606
 20
96.78295182692041
 30
0.0
 10
161.385349875964
 20
96.81270217968304
 30
0.0
 10
161.7051179536435
 20
96.84280779764096
 30
0.0
 10
162.0570280101143
 20
96.86961986378738
 30
0.0
 10
162.4319949619583
 20
96.8905312537261
 30
0.0
 10
162.8356521337286
 20
96.90721406037824
 30
0.0
 10
163.2597666256084
 20
96.9148117121834
 30
0.0
 10
163.6879099250054
 20
96.91206016566053
 30
0.0
 10
164.0118419268076
 20
96.90470489381998
 30
0.0
 10
164.335546826079
 20
96.89210267388287
 30
0.0
 10
164.6564828026687
 20
96.87445542559084
 30
0.0
 10
164.9660841832646
 20
96.85256227752707
 30
0.0
 10
165.2606593079626
 20
96.82740960381065
 30
0.0
 10
165.539912307889
 20
96.7997716087366
 30
0.0
 10
165.8062352483997
 20
96.7699819389876
 30
0.0
 10
166.0322073563899
 20
96.74199082078648
 30
0.0
 10
166.2757110095835
 20
96.70958982326233
 30
0.0
 10
166.4712905004901
 20
96.68134433389629
 30
0.0
 10
166.6301363308401
 20
96.65713462811384
 30
0.0
 10
166.7632649291796
 20
96.63620974614635
 30
0.0
 10
166.8529970989884
 20
96.62152999832182
 30
0.0
 10
166.8943005023021
 20
96.61468602646234
 30
0.0
 10
166.8965885195419
 20
96.61430512755224
 30
0.0
 10
166.8975545530709
 20
96.61414430659693
 30
0.0
  0
LINE
  5
C9
330
1F
100
AcDbEntity
  8
0
  6
Continuous
 62
     7
370
    15
100
AcDbLine
 10
161.1413299614
 20
96.7864233146
 30
0.0
 11
161.0721437384
 21
96.7788814527
 31
0.0
  0
LINE
  5
CA
330
1F
100
AcDbEntity
  8
0
  6
Continuous
 62
     7
370
    15
100
AcDbLine
 10
216.3299529682
 20
98.1139761647
 30
0.0
 11
216.3299529682
 21
125.1139761647
 31
0.0
  0
LINE
  5
CB
330
1F
100
AcDbEntity
  8
0
  6
Continuous
 62
     7
370
    15
100
AcDbLine
 10
254.4485671768
 20
102.962757148
 30
0.0
 11
254.4485671768
 21
120.2651947613
 31
0.0
  0
LINE
  5
CC
330
1F
100
AcDbEntity
  8
0
  6
HIDDEN
 62
     7
370
     0
100
AcDbLine
 10
217.5485671768
 20
109.1139761647
 30
0.0
 11
217.5485671768
 21
114.1139761647
 31
0.0
  0
LINE
  5
CD
330
1F
100
AcDbEntity
  8
0
  6
HIDDEN
 62
     7
370
     0
100
AcDbLine
 10
206.3485671768
 20
109.1139761647
 30
0.0
 11
206.3485671768
 21
114.1139761647
 31
0.0
  0
LINE
  5
CE
330
1F
100
AcDbEntity
  8
0
  6
HIDDEN
 62
     7
370
     0
100
AcDbLine
 10
205.9485671768
 20
109.5139761647
 30
0.0
 11
205.9485671768
 21
113.7139761647
 31
0.0
  0
LINE
  5
CF
330
1F
100
AcDbEntity
  8
0
  6
HIDDEN
 62
     7
370
     0
100
AcDbLine
 10
219.9485671768
 20
110.6139761647
 30
0.0
 11
218.9485671768
 21
110.6139761647
 31
0.0
  0
LINE
  5
D0
330
1F
100
AcDbEntity
  8
0
  6
HIDDEN
 62
     7
370
     0
100
AcDbLine
 10
219.9485671768
 20
109.5139761647
 30
0.0
 11
219.9485671768
 21
110.6139761647
 31
0.0
  0
LINE
  5
D1
330
1F
100
AcDbEntity
  8
0
  6
HIDDEN
 62
     7
370
     0
100
AcDbLine
 10
219.9485671768
 20
112.6139761647
 30
0.0
 11
219.9485671768
 21
113.7139761647
 31
0.0
  0
LINE
  5
D2
330
1F
100
AcDbEntity
  8
0
  6
HIDDEN
 62
     7
370
     0
100
AcDbLine
 10
218.9485671768
 20
112.6139761647
 30
0.0
 11
219.9485671768
 21
112.6139761647
 31
0.0
  0
LINE
  5
D3
330
1F
100
AcDbEntity
  8
0
  6
HIDDEN
 62
     7
370
     0
100
AcDbLine
 10
218.9485671768
 20
110.6139761647
 30
0.0
 11
218.9485671768
 21
112.6139761647
 31
0.0
  0
LINE
  5
D4
330
1F
100
AcDbEntity
  8
0
  6
HIDDEN
 62
     7
370
     0
100
AcDbLine
 10
215.9485671768
 20
112.2389761647
 30
0.0
 11
215.9485671768
 21
111.6139761647
 31
0.0
  0
LINE
  5
D5
330
1F
100
AcDbEntity
  8
0
  6
HIDDEN
 62
     7
370
     0
100
AcDbLine
 10
209.9485671767
 20
110.9889761647
 30
0.0
 11
209.9485671767
 21
111.6139761647
 31
0.0
  0
LINE
  5
D6
330
1F
100
AcDbEntity
  8
0
  6
HIDDEN
 62
     7
370
     0
100
AcDbLine
 10
215.9485671768
 20
111.6139761647
 30
0.0
 11
215.9485671768
 21
110.9889761647
 31
0.0
  0
LINE
  5
D7
330
1F
100
AcDbEntity
  8
0
  6
HIDDEN
 62
     7
370
     0
100
AcDbLine
 10
215.9485671768
 20
111.6139761647
 30
0.0
 11
218.9485671768
 21
111.6139761647
 31
0.0
  0
LINE
  5
D8
330
1F
100
AcDbEntity
  8
0
  6
HIDDEN
 62
     7
370
     0
100
AcDbLine
 10
209.9485671767
 20
111.6139761647
 30
0.0
 11
205.9485671768
 21
111.6139761647
 31
0.0
  0
LINE
  5
D9
330
1F
100
AcDbEntity
  8
0
  6
HIDDEN
 62
     7
370
     0
100
AcDbLine
 10
209.9485671767
 20
111.6139761647
 30
0.0
 11
209.9485671767
 21
112.2389761647
 31
0.0
  0
LINE
  5
DA
330
1F
100
AcDbEntity
  8
0
  6
HIDDEN
 62
     7
370
     0
100
AcDbLine
 10
209.9485671767
 20
110.3639761647
 30
0.0
 11
209.9485671767
 21
110.9889761647
 31
0.0
  0
LINE
  5
DB
330
1F
100
AcDbEntity
  8
0
  6
HIDDEN
 62
     7
370
     0
100
AcDbLine
 10
215.9485671768
 20
112.8639761647
 30
0.0
 11
215.9485671768
 21
112.2389761647
 31
0.0
  0
LINE
  5
DC
330
1F
100
AcDbEntity
  8
0
  6
HIDDEN
 62
     7
370
     0
100
AcDbLine
 10
209.9485671767
 20
112.2389761647
 30
0.0
 11
209.9485671767
 21
112.8639761647
 31
0.0
  0
LINE
  5
DD
330
1F
100
AcDbEntity
  8
0
  6
HIDDEN
 62
     7
370
     0
100
AcDbLine
 10
215.9485671768
 20
110.9889761647
 30
0.0
 11
215.9485671768
 21
110.3639761647
 31
0.0
  0
LINE
  5
DE
330
1F
100
AcDbEntity
  8
0
  6
HIDDEN
 62
     7
370
     0
100
AcDbLine
 10
215.9485671768
 20
110.3639761647
 30
0.0
 11
219.9485671768
 21
110.3639761647
 31
0.0
  0
LINE
  5
DF
330
1F
100
AcDbEntity
  8
0
  6
HIDDEN
 62
     7
370
     0
100
AcDbLine
 10
215.9485671768
 20
112.8639761647
 30
0.0
 11
219.9485671768
 21
112.8639761647
 31
0.0
  0
LINE
  5
E0
330
1F
100
AcDbEntity
  8
0
  6
HIDDEN
 62
     7
370
     0
100
AcDbLine
 10
209.9485671767
 20
110.3639761647
 30
0.0
 11
205.9485671767
 21
110.3639761647
 31
0.0
  0
LINE
  5
E1
330
1F
100
AcDbEntity
  8
0
  6
HIDDEN
 62
     7
370
     0
100
AcDbLine
 10
209.9485671767
 20
112.8639761647
 30
0.0
 11
205.9485671767
 21
112.8639761647
 31
0.0
  0
LINE
  5
E2
330
1F
100
AcDbEntity
  8
0
  6
HIDDEN
 62
     7
370
     0
100
AcDbLine
 10
254.3083004162
 20
119.4195276504
 30
0.0
 11
254.1984106959
 21
116.6226475017
 31
0.0
  0
LINE
  5
E3
330
1F
100
AcDbEntity
  8
0
  6
HIDDEN
 62
     7
370
     0
100
AcDbLine
 10
254.3161901432
 20
119.6203346104
 30
0.0
 11
254.3083004162
 21
119.4195276504
 31
0.0
  0
LINE
  5
E4
330
1F
100
AcDbEntity
  8
0
  6
HIDDEN
 62
     7
370
     0
100
AcDbLine
 10
248.9743626123
 20
119.6290986375
 30
0.0
 11
248.864472892
 21
116.8322184888
 31
0.0
  0
LINE
  5
E5
330
1F
100
AcDbEntity
  8
0
  6
HIDDEN
 62
     7
370
     0
100
AcDbLine
 10
248.9822523393
 20
119.8299055975
 30
0.0
 11
248.9743626123
 21
119.6290986375
 31
0.0
  0
LINE
  5
E6
330
1F
100
AcDbEntity
  8
0
  6
HIDDEN
 62
     7
370
     0
100
AcDbLine
 10
248.4577480953
 20
119.2160496806
 30
0.0
 11
248.3844882817
 21
117.3514629148
 31
0.0
  0
LINE
  5
E7
330
1F
100
AcDbEntity
  8
0
  6
HIDDEN
 62
     7
370
     0
100
AcDbLine
 10
248.4630079133
 20
119.3499209872
 30
0.0
 11
248.4577480953
 21
119.2160496806
 31
0.0
  0
LINE
  5
E8
330
1F
100
AcDbEntity
  8
0
  6
HIDDEN
 62
     7
370
     0
100
AcDbLine
 10
254.4485671768
 20
118.8645548336
 30
0.0
 11
254.3712449696
 21
116.8965732468
 31
0.0
  0
LINE
  5
E9
330
1F
100
AcDbEntity
  8
0
  6
HIDDEN
 62
     7
370
     0
100
AcDbLine
 10
252.4206642425
 20
118.193652688
 30
0.0
 11
252.4501091043
 21
118.9430744652
 31
0.0
  0
LINE
  5
EA
330
1F
100
AcDbEntity
  8
0
  6
HIDDEN
 62
     7
370
     0
100
AcDbLine
 10
252.4206642425
 20
118.193652688
 30
0.0
 11
252.3912193806
 21
117.4442309108
 31
0.0
  0
LINE
  5
EB
330
1F
100
AcDbEntity
  8
0
  6
HIDDEN
 62
     7
370
     0
100
AcDbLine
 10
252.4206642425
 20
118.193652688
 30
0.0
 11
254.4191223149
 21
118.1151330565
 31
0.0
  0
LINE
  5
EC
330
1F
100
AcDbEntity
  8
0
  6
HIDDEN
 62
     7
370
     0
100
AcDbLine
 10
252.3912193806
 20
117.4442309108
 30
0.0
 11
254.3896774531
 21
117.3657112793
 31
0.0
  0
LINE
  5
ED
330
1F
100
AcDbEntity
  8
0
  6
HIDDEN
 62
     7
370
     0
100
AcDbLine
 10
252.4501091043
 20
118.9430744652
 30
0.0
 11
254.4485671768
 21
118.8645548336
 31
0.0
  0
LINE
  5
EE
330
1F
100
AcDbEntity
  8
0
  6
HIDDEN
 62
     7
370
     0
100
AcDbLine
 10
254.2573004195
 20
106.6076186112
 30
0.0
 11
254.3750798668
 21
103.6099315025
 31
0.0
  0
LINE
  5
EF
330
1F
100
AcDbEntity
  8
0
  6
HIDDEN
 62
     7
370
     0
100
AcDbLine
 10
248.9233626156
 20
106.3980476241
 30
0.0
 11
249.0411420629
 21
103.4003605154
 31
0.0
  0
LINE
  5
F0
330
1F
100
AcDbEntity
  8
0
  6
HIDDEN
 62
     7
370
     0
100
AcDbLine
 10
254.4301346933
 20
106.3336928661
 30
0.0
 11
254.4485671768
 21
105.8645548336
 31
0.0
  0
LINE
  5
F1
330
1F
100
AcDbEntity
  8
0
  6
HIDDEN
 62
     7
370
     0
100
AcDbLine
 10
248.4433780054
 20
105.8788031981
 30
0.0
 11
248.5218976369
 21
103.8803451257
 31
0.0
  0
LINE
  5
F2
330
1F
100
AcDbEntity
  8
0
  6
HIDDEN
 62
     7
370
     0
100
AcDbLine
 10
252.4795539661
 20
105.0366134249
 30
0.0
 11
252.4501091043
 21
105.7860352021
 31
0.0
  0
LINE
  5
F3
330
1F
100
AcDbEntity
  8
0
  6
HIDDEN
 62
     7
370
     0
100
AcDbLine
 10
252.5089988279
 20
104.2871916478
 30
0.0
 11
252.4795539661
 21
105.0366134249
 31
0.0
  0
LINE
  5
F4
330
1F
100
AcDbEntity
  8
0
  6
HIDDEN
 62
     7
370
     0
100
AcDbLine
 10
252.4795539661
 20
105.0366134249
 30
0.0
 11
254.4780120386
 21
105.1151330565
 31
0.0
  0
LINE
  5
F5
330
1F
100
AcDbEntity
  8
0
  6
HIDDEN
 62
     7
370
     0
100
AcDbLine
 10
252.5089988279
 20
104.2871916478
 30
0.0
 11
254.5074569004
 21
104.3657112793
 31
0.0
  0
LINE
  5
F6
330
1F
100
AcDbEntity
  8
0
  6
HIDDEN
 62
     7
370
     0
100
AcDbLine
 10
252.4501091043
 20
105.7860352021
 30
0.0
 11
254.4485671768
 21
105.8645548336
 31
0.0
  0
SPLINE
  5
F7
330
1F
100
AcDbEntity
  8
0
  6
HIDDEN
 62
     7
370
     0
100
AcDbSpline
210
0.0
220
0.0
230
1.0
 70
     8
 71
     3
 72
    80
 73
    76
 74
     0
 42
0.00000001
 43
0.00000001
 40
-0.03125
 40
-0.03125
 40
0.0
 40
0.0
 40
0.0312500000000002
 40
0.0312500000000002
 40
0.0468750000000002
 40
0.0468750000000002
 40
0.0625000000000001
 40
0.0625000000000001
 40
0.0937499999999999
 40
0.0937499999999999
 40
0.1249999999999997
 40
0.1249999999999997
 40
0.1562499999999995
 40
0.1562499999999995
 40
0.1874999999999993
 40
0.1874999999999993
 40
0.2187499999999991
 40
0.2187499999999991
 40
0.2499999999999989
 40
0.2499999999999989
 40
0.2812499999999987
 40
0.2812499999999987
 40
0.3124999999999984
 40
0.3124999999999984
 40
0.3281249999999985
 40
0.3281249999999985
 40
0.3437499999999986
 40
0.3437499999999986
 40
0.3749999999999986
 40
0.3749999999999986
 40
0.4062499999999987
 40
0.4062499999999987
 40
0.4218749999999989
 40
0.4218749999999989
 40
0.4374999999999991
 40
0.4374999999999991
 40
0.4687499999999993
 40
0.4687499999999993
 40
0.4999999999999994
 40
0.4999999999999994
 40
0.5312499999999997
 40
0.5312499999999997
 40
0.5624999999999998
 40
0.5624999999999998
 40
0.59375
 40
0.59375
 40
0.6250000000000001
 40
0.6250000000000001
 40
0.6562500000000003
 40
0.6562500000000003
 40
0.6875000000000006
 40
0.6875000000000006
 40
0.7031250000000007
 40
0.7031250000000007
 40
0.7187500000000007
 40
0.7187500000000007
 40
0.7500000000000003
 40
0.7500000000000003
 40
0.78125
 40
0.78125
 40
0.7968749999999998
 40
0.7968749999999998
 40
0.8124999999999997
 40
0.8124999999999997
 40
0.8437499999999998
 40
0.8437499999999998
 40
0.8749999999999998
 40
0.8749999999999998
 40
0.9062499999999999
 40
0.9062499999999999
 40
0.9375
 40
0.9375
 40
0.96875
 40
0.96875
 40
1.0
 40
1.0
 40
1.03125
 40
1.03125
 10
103.1180218639901
 20
160.4735254211583
 30
0.0
 10
103.7791124895427
 20
160.4735254211583
 30
0.0
 10
104.1040926187943
 20
160.4666272753315
 30
0.0
 10
104.5835660300407
 20
160.446100847351
 30
0.0
 10
104.7420478478815
 20
160.4375446202635
 30
0.0
 10
105.0562673803858
 20
160.4168182450458
 30
0.0
 10
105.2123876640662
 20
160.4045909448394
 30
0.0
 10
105.6664416930228
 20
160.3630216510102
 30
0.0
 10
105.9535450759626
 20
160.3286773659124
 30
0.0
 10
106.4968996319896
 20
160.2453532415902
 30
0.0
 10
106.7540032431952
 20
160.1959150188156
 30
0.0
 10
107.214909498134
 20
160.0845352890557
 30
0.0
 10
107.421807207349
 20
160.0222407755436
 30
0.0
 10
107.7873325213412
 20
159.8823111326726
 30
0.0
 10
107.9425380434671
 20
159.8056952349235
 30
0.0
 10
108.1919684300668
 20
159.6417366150678
 30
0.0
 10
108.288058385852
 20
159.5531797609721
 30
0.0
 10
108.4165772350456
 20
159.3656990788663
 30
0.0
 10
108.4483881052233
 20
159.2684626174118
 30
0.0
 10
108.4487447549966
 20
159.0668299780848
 30
0.0
 10
108.4162475027996
 20
158.9612811862467
 30
0.0
 10
108.2886220290851
 20
158.7511664035581
 30
0.0
 10
108.1941936280332
 20
158.6461008955892
 30
0.0
 10
108.0063328080476
 20
158.4892231883381
 30
0.0
 10
107.9355048092444
 20
158.4367894546324
 30
0.0
 10
107.7807829172792
 20
158.3343510090027
 30
0.0
 10
107.6968064470958
 20
158.2842032803509
 30
0.0
 10
107.4254827774513
 20
158.1371873239173
 30
0.0
 10
107.218933558849
 20
158.0436995034829
 30
0.0
 10
106.75232341866
 20
157.8679126458685
 30
0.0
 10
106.4999578490345
 20
157.7885341707848
 30
0.0
 10
106.0940565073558
 20
157.6830517332908
 30
0.0
 10
105.9541558898783
 20
157.6501661684506
 30
0.0
 10
105.6649319546314
 20
157.589250689222
 30
0.0
 10
105.5150924983421
 20
157.5611701175796
 30
0.0
 10
105.0609759287313
 20
157.4863680755367
 30
0.0
 10
104.7493247099945
 20
157.4483300172906
 30
0.0
 10
104.1083282450821
 20
157.3967180907665
 30
0.0
 10
103.7768006171299
 20
157.3834041572451
 30
0.0
 10
103.1240095720584
 20
157.383307070917
 30
0.0
 10
102.7994733670266
 20
157.396095156078
 30
0.0
 10
102.1542039176102
 20
157.4475853456739
 30
0.0
 10
101.8384609114475
 20
157.486109924994
 30
0.0
 10
101.2365716164638
 20
157.5850124878521
 30
0.0
 10
100.9458223856523
 20
157.6461165857771
 30
0.0
 10
100.3989105939678
 20
157.7879260188878
 30
0.0
 10
100.1471332301309
 20
157.867260503467
 30
0.0
 10
99.68574523750978
 20
158.0406392481285
 30
0.0
 10
99.47447595791171
 20
158.1357991928824
 30
0.0
 10
99.1111716055355
 20
158.3323717162584
 30
0.0
 10
98.95736495709272
 20
158.4341279446647
 30
0.0
 10
98.76874548749531
 20
158.5909139074502
 30
0.0
 10
98.7127150012862
 20
158.6441679412002
 30
0.0
 10
98.61714123955004
 20
158.749972502753
 30
0.0
 10
98.57737832252502
 20
158.8026255671085
 30
0.0
 10
98.48160657221291
 20
158.9596992865677
 30
0.0
 10
98.4488837330868
 20
159.0632243218948
 30
0.0
 10
98.4482551467577
 20
159.2674390561219
 30
0.0
 10
98.48044129149247
 20
159.3649428937067
 30
0.0
 10
98.57535199334806
 20
159.5042699440584
 30
0.0
 10
98.61481877674701
 20
159.5495866755628
 30
0.0
 10
98.7097487754679
 20
159.6380264965516
 30
0.0
 10
98.76550560323128
 20
159.6812807470116
 30
0.0
 10
98.95344572120115
 20
159.8051722216016
 30
0.0
 10
99.10680719091732
 20
159.8808745123756
 30
0.0
 10
99.4690714257977
 20
160.0201288838338
 30
0.0
 10
99.67991989926361
 20
160.0838907253626
 30
0.0
 10
100.1405898695825
 20
160.1953875648304
 30
0.0
 10
100.3919642491663
 20
160.243913637147
 30
0.0
 10
100.9378721360645
 20
160.3279676205275
 30
0.0
 10
101.2286947107157
 20
160.3627661741942
 30
0.0
 10
101.8300213254957
 20
160.417962638958
 30
0.0
 10
102.1445399101081
 20
160.4387804877119
 30
0.0
 10
102.7911213662281
 20
160.4666278206226
 30
0.0
 10
103.1180218639901
 20
160.4735254211583
 30
0.0
 10
103.7791124895427
 20
160.4735254211583
 30
0.0
  0
LINE
  5
F8
330
1F
100
AcDbEntity
  8
0
  6
HIDDEN
 62
     7
370
     0
100
AcDbLine
 10
111.1865381558
 20
150.5649389256
 30
0.0
 11
111.1865381558
 21
142.9639761647
 31
0.0
  0
SPLINE
  5
F9
330
1F
100
AcDbEntity
  8
0
  6
HIDDEN
 62
     7
370
     0
100
AcDbSpline
210
0.0
220
0.0
230
1.0
 70
     8
 71
     3
 72
     9
 73
     5
 74
     0
 42
0.00000001
 43
0.00000001
 40
0.0
 40
0.0
 40
0.0
 40
0.0
 40
0.5038163044167481
 40
1.0
 40
1.0
 40
1.0
 40
1.0
 10
74.86199192619371
 20
74.87816980240622
 30
0.0
 10
74.5783127414552
 20
74.85401662830749
 30
0.0
 10
74.0152519944099
 20
74.80607619071745
 30
0.0
 10
73.65889095260067
 20
74.7647638424316
 30
0.0
 10
73.48207041391387
 20
74.74426532878591
 30
0.0
  0
SPLINE
  5
FA
330
1F
100
AcDbEntity
  8
0
  6
HIDDEN
 62
     7
370
     0
100
AcDbSpline
210
0.0
220
0.0
230
1.0
 70
     8
 71
     3
 72
    12
 73
     8
 74
     0
 42
0.00000001
 43
0.00000001
 40
0.0
 40
0.0
 40
0.0
 40
0.0
 40
0.1661348616735903
 40
0.3322013257393936
 40
0.5008932044678248
 40
0.752137078264078
 40
1.0
 40
1.0
 40
1.0
 40
1.0
 10
72.96788884241359
 20
148.5452801877459
 30
0.0
 10
72.97828146652165
 20
148.5439020636844
 30
0.0
 10
72.9990624361016
 20
148.5411463829343
 30
0.0
 10
73.17236192554851
 20
148.5195430079723
 30
0.0
 10
73.49431351479224
 20
148.4816780560304
 30
0.0
 10
74.01547935071157
 20
148.4212942893143
 30
0.0
 10
74.58103729054929
 20
148.3735011521649
 30
0.0
 10
74.86190071423734
 20
148.3497664590714
 30
0.0
  0
SPLINE
  5
FB
330
1F
100
AcDbEntity
  8
0
  6
HIDDEN
 62
     7
370
     0
100
AcDbSpline
210
0.0
220
0.0
230
1.0
 70
     8
 71
     3
 72
    33
 73
    29
 74
     0
 42
0.00000001
 43
0.00000001
 40
0.0
 40
0.0
 40
0.0
 40
0.0
 40
0.0315773698875104
 40
0.0633753287769057
 40
0.0958656851178231
 40
0.1285943208117605
 40
0.1601713694082662
 40
0.2244011681247345
 40
0.2571344568799636
 40
0.2885965627565487
 40
0.3526214070085076
 40
0.3852675959519929
 40
0.4162212184009612
 40
0.4791910353915302
 40
0.5112817741273479
 40
0.5421256322990662
 40
0.6048360558905652
 40
0.6367710793564881
 40
0.6680663384719832
 40
0.7316979547407203
 40
0.7641081282919966
 40
0.7957194290717577
 40
0.8275524266255816
 40
0.8600900250720824
 40
0.8928737620729298
 40
0.9241775068323748
 40
0.9878778414776339
 40
1.0
 40
1.0
 40
1.0
 40
1.0
 10
84.7017728319574
 20
80.24765394393327
 30
0.0
 10
84.61790168495214
 20
80.261527682315
 30
0.0
 10
84.44957349500821
 20
80.28937207639976
 30
0.0
 10
84.15021889866671
 20
80.33580471663015
 30
0.0
 10
83.81621943140786
 20
80.38441731865099
 30
0.0
 10
83.45044946952059
 20
80.43356525183823
 30
0.0
 10
82.92706955483172
 20
80.49763103743086
 30
0.0
 10
82.35064234623712
 20
80.557412551836
 30
0.0
 10
81.73550519938557
 20
80.60741215930004
 30
0.0
 10
81.09918947330266
 20
80.64955215198347
 30
0.0
 10
80.43540893586396
 20
80.67818687672148
 30
0.0
 10
79.76334318428084
 20
80.69044632780509
 30
0.0
 10
79.09389460084911
 20
80.69177561891337
 30
0.0
 10
78.42871003373516
 20
80.67691509600391
 30
0.0
 10
77.78241879484466
 20
80.64705713161474
 30
0.0
 10
77.15322884398628
 20
80.60831390355345
 30
0.0
 10
76.55351315180701
 20
80.55773566979359
 30
0.0
 10
75.9952135856852
 20
80.49933565532706
 30
0.0
 10
75.46501871529763
 20
80.43701242395754
 30
0.0
 10
74.98585201298604
 20
80.37160384942199
 30
0.0
 10
74.5709340277912
 20
80.30881494581601
 30
0.0
 10
74.29366164386515
 20
80.26431034699463
 30
0.0
 10
74.05210635830397
 20
80.22360139755966
 30
0.0
 10
73.84661435395556
 20
80.18754426691018
 30
0.0
 10
73.68244993021132
 20
80.15778724195782
 30
0.0
 10
73.52301598364603
 20
80.1282019285334
 30
0.0
 10
73.44477775569743
 20
80.11325264952853
 30
0.0
 10
73.45250254604224
 20
80.11472507212974
 30
0.0
 10
73.4537375507117
 20
80.11496047641992
 30
0.0
  0
SPLINE
  5
FC
330
1F
100
AcDbEntity
  8
0
  6
HIDDEN
 62
     7
370
     0
100
AcDbSpline
210
0.0
220
0.0
230
1.0
 70
     8
 71
     3
 72
    24
 73
    20
 74
     0
 42
0.00000001
 43
0.00000001
 40
0.0
 40
0.0
 40
0.0
 40
0.0
 40
0.0203729619474678
 40
0.0822870750602629
 40
0.1459896397253447
 40
0.2080895879354084
 40
0.2719360348739573
 40
0.3350079792507124
 40
0.3998886074506655
 40
0.4632504589199175
 40
0.5284999352472107
 40
0.5909722114153436
 40
0.6552989095534106
 40
0.7170937383192271
 40
0.7806505850197497
 40
0.8430286835696731
 40
0.9071616706581624
 40
0.9532355028060499
 40
1.0
 40
1.0
 40
1.0
 40
1.0
 10
73.46748429111821
 20
143.1103818650482
 30
0.0
 10
73.46210584722236
 20
143.1114034398192
 30
0.0
 10
73.4403821323445
 20
143.1155296145049
 30
0.0
 10
73.57265560205296
 20
143.0903390027676
 30
0.0
 10
73.85857858453407
 20
143.037771535799
 30
0.0
 10
74.31334842751204
 20
142.9593495971901
 30
0.0
 10
74.90395348066156
 20
142.8671652403785
 30
0.0
 10
75.6310825709628
 20
142.768780473622
 30
0.0
 10
76.46458691570622
 20
142.6767422705853
 30
0.0
 10
77.39403707989625
 20
142.6005002580633
 30
0.0
 10
78.37241738425445
 20
142.5505870757703
 30
0.0
 10
79.3868293136363
 20
142.5318230776761
 30
0.0
 10
80.38527487476809
 20
142.5461529350197
 30
0.0
 10
81.36188510142932
 20
142.5916076626571
 30
0.0
 10
82.27508211803614
 20
142.6620323308037
 30
0.0
 10
83.12048884916197
 20
142.7511667275824
 30
0.0
 10
83.79348629460831
 20
142.839224326863
 30
0.0
 10
84.32358078827147
 20
142.9180881695424
 30
0.0
 10
84.57508513368798
 20
142.9594590547463
 30
0.0
 10
84.7017728319574
 20
142.9802983854274
 30
0.0
  0
SPLINE
  5
FD
330
1F
100
AcDbEntity
  8
0
  6
HIDDEN
 62
     7
370
     0
100
AcDbSpline
210
0.0
220
0.0
230
1.0
 70
     8
 71
     3
 72
    13
 73
     9
 74
     0
 42
0.00000001
 43
0.00000001
 40
0.0
 40
0.0
 40
0.0
 40
0.0
 40
0.1623799816591789
 40
0.3258962967501759
 40
0.4929818113643412
 40
0.6612959817031199
 40
0.8237063551432365
 40
1.0
 40
1.0
 40
1.0
 40
1.0
 10
84.7017728319574
 20
142.9802983854274
 30
0.0
 10
84.77736234091475
 20
142.9926741576843
 30
0.0
 10
84.92907033343117
 20
143.0175123077243
 30
0.0
 10
85.11196923327604
 20
143.044770655648
 30
0.0
 10
85.26103148271847
 20
143.0658905032965
 30
0.0
 10
85.36498202316169
 20
143.0798769310319
 30
0.0
 10
85.44031396827904
 20
143.0896699044726
 30
0.0
 10
85.43208416961194
 20
143.0885985674492
 30
0.0
 10
85.42780060306094
 20
143.0880409422115
 30
0.0
  0
SPLINE
  5
FE
330
1F
100
AcDbEntity
  8
0
  6
HIDDEN
 62
     7
370
     0
100
AcDbSpline
210
0.0
220
0.0
230
1.0
 70
     8
 71
     3
 72
    13
 73
     9
 74
     0
 42
0.00000001
 43
0.00000001
 40
0.0
 40
0.0
 40
0.0
 40
0.0
 40
0.1540223516861439
 40
0.3222978879394844
 40
0.4885662367489577
 40
0.6560437831874955
 40
0.8273549263198314
 40
1.0
 40
1.0
 40
1.0
 40
1.0
 10
85.4278002517852
 20
80.13991143259106
 30
0.0
 10
85.43298592275463
 20
80.13923960315442
 30
0.0
 10
85.44383714520835
 20
80.13783377337636
 30
0.0
 10
85.37449570689954
 20
80.14682066624792
 30
0.0
 10
85.27437824268657
 20
80.16023478238367
 30
0.0
 10
85.12785047465653
 20
80.1808753307508
 30
0.0
 10
84.94163657676124
 20
80.20844079166523
 30
0.0
 10
84.78193386650567
 20
80.23454914205387
 30
0.0
 10
84.7017728319574
 20
80.24765394393327
 30
0.0
  0
LINE
  5
FF
330
1F
100
AcDbEntity
  8
0
  6
HIDDEN
 62
     7
370
     0
100
AcDbLine
 10
64.4451915038
 20
85.1139761647
 30
0.0
 11
64.4451915038
 21
138.1139761647
 31
0.0
  0
LINE
  5
100
330
1F
100
AcDbEntity
  8
0
  6
HIDDEN
 62
     7
370
     0
100
AcDbLine
 10
103.7326447951
 20
85.1139761647
 30
0.0
 11
103.7326447951
 21
138.1139761647
 31
0.0
  0
LINE
  5
101
330
1F
100
AcDbEntity
  8
0
  6
HIDDEN
 62
     7
370
     0
100
AcDbLine
 10
106.8985671768
 20
86.7389761647
 30
0.0
 11
106.8985671768
 21
136.4889761647
 31
0.0
  0
SPLINE
  5
102
330
1F
100
AcDbEntity
  8
0
  6
HIDDEN
 62
     7
370
     0
100
AcDbSpline
210
0.0
220
0.0
230
1.0
 70
     8
 71
     3
 72
    20
 73
    16
 74
     0
 42
0.00000001
 43
0.00000001
 40
0.0
 40
0.0
 40
0.0
 40
0.0
 40
0.2499999999999978
 40
0.2499999999999978
 40
0.3749999999999982
 40
0.3749999999999982
 40
0.4999999999999986
 40
0.4999999999999986
 40
0.6249999999999989
 40
0.6249999999999989
 40
0.7499999999999992
 40
0.7499999999999992
 40
0.8749999999999997
 40
0.8749999999999997
 40
1.0
 40
1.0
 40
1.0
 40
1.0
 10
54.64856717676636
 20
136.8424897950947
 30
0.0
 10
54.64856717676636
 20
136.7632868085624
 30
0.0
 10
54.60158468155362
 20
136.6821905901594
 30
0.0
 10
54.46376309077606
 20
136.5619938984085
 30
0.0
 10
54.40748080686607
 20
136.5230671944064
 30
0.0
 10
54.27439595539884
 20
136.4478784619821
 30
0.0
 10
54.19655601316578
 20
136.4112362566401
 30
0.0
 10
54.02392365705144
 20
136.3436457238082
 30
0.0
 10
53.92953065996037
 20
136.3126875420326
 30
0.0
 10
53.72409335364522
 20
136.2571631206629
 30
0.0
 10
53.61174711365804
 20
136.2324546068297
 30
0.0
 10
53.3795062497584
 20
136.1926583797215
 30
0.0
 10
53.25879560733568
 20
136.1772385423244
 30
0.0
 10
53.00772474806666
 20
136.1561585674848
 30
0.0
 10
52.87820275165087
 20
136.1506813224639
 30
0.0
 10
52.74856717676638
 20
136.1506813224639
 30
0.0
  0
LINE
  5
103
330
1F
100
AcDbEntity
  8
0
  6
HIDDEN
 62
     7
370
     0
100
AcDbLine
 10
52.7485671768
 20
136.1506813225
 30
0.0
 11
46.1985671768
 21
136.1506813225
 31
0.0
  0
LINE
  5
104
330
1F
100
AcDbEntity
  8
0
  6
HIDDEN
 62
     7
370
     0
100
AcDbLine
 10
46.1985671768
 20
87.0772710069
 30
0.0
 11
57.7485671768
 21
87.0772710069
 31
0.0
  0
SPLINE
  5
105
330
1F
100
AcDbEntity
  8
0
  6
HIDDEN
 62
     7
370
     0
100
AcDbSpline
210
0.0
220
0.0
230
1.0
 70
     8
 71
     3
 72
    18
 73
    14
 74
     0
 42
0.00000001
 43
0.00000001
 40
0.0
 40
0.0
 40
0.0
 40
0.0
 40
0.1249999999999982
 40
0.1249999999999982
 40
0.2499999999999964
 40
0.2499999999999964
 40
0.4999999999999988
 40
0.4999999999999988
 40
0.7500000000000011
 40
0.7500000000000011
 40
0.8750000000000006
 40
0.8750000000000006
 40
1.0
 40
1.0
 40
1.0
 40
1.0
 10
57.74856717676635
 20
87.07727100689682
 30
0.0
 10
57.87803448972359
 20
87.07727100689682
 30
0.0
 10
58.00504523862021
 20
87.0719180083042
 30
0.0
 10
58.25440855981746
 20
87.0511800356154
 30
0.0
 10
58.3780322144459
 20
87.03550813136111
 30
0.0
 10
58.72706455137994
 20
86.97581340295902
 30
0.0
 10
58.93757631618674
 20
86.91804822327803
 30
0.0
 10
59.28149299388624
 20
86.78352638200055
 30
0.0
 10
59.41784339540407
 20
86.70585726849514
 30
0.0
 10
59.55488145196659
 20
86.58656613440779
 30
0.0
 10
59.5901004706795
 20
86.54564712527275
 30
0.0
 10
59.63672404761805
 20
86.46499113198273
 30
0.0
 10
59.64856717676638
 20
86.42502261178986
 30
0.0
 10
59.64856717676636
 20
86.38546253426604
 30
0.0
  0
LINE
  5
106
330
1F
100
AcDbEntity
  8
0
  6
HIDDEN
 62
     7
370
     0
100
AcDbLine
 10
46.1985671768
 20
87.0772710069
 30
0.0
 11
46.1985671768
 21
136.1506813225
 31
0.0
  0
LWPOLYLINE
  5
107
330
1F
100
AcDbEntity
  8
0
  6
HIDDEN
 62
     7
370
     0
100
AcDbPolyline
 90
       13
 70
   128
 43
0.0
 10
103.4485671768
 20
151.557706728
 10
104.6016465305
 20
151.6125249222
 10
105.6925630778
 20
151.774024242
 10
106.6625052252
 20
152.0334982172
 10
107.4591831405
 20
152.3769585385
 10
108.0396477112
 20
152.7858891712
 10
108.3726059418
 20
153.2382445591
 10
108.4401079681
 20
153.709638106
 10
108.2385147383
 20
154.1746568638
 10
107.7786941957
 20
154.608231551
 10
107.0854353846
 20
154.986988044
 10
106.1961120671
 20
155.2905074821
 10
105.8945856452
 20
155.365106544
  0
LWPOLYLINE
  5
108
330
1F
100
AcDbEntity
  8
0
  6
HIDDEN
 62
     7
370
     0
100
AcDbPolyline
 90
       13
 70
   128
 43
0.0
 10
100.9900556705
 20
155.362246794
 10
100.7010222864
 20
155.2905074821
 10
99.8116989689
 20
154.986988044
 10
99.1184401578
 20
154.608231551
 10
98.6586196152
 20
154.1746568638
 10
98.4570263854
 20
153.709638106
 10
98.5245284117
 20
153.2382445591
 10
98.8574866424
 20
152.7858891712
 10
99.437951213
 20
152.3769585385
 10
100.2346291283
 20
152.0334982172
 10
101.2045712758
 20
151.774024242
 10
102.2954878231
 20
151.6125249222
 10
103.4485671768
 20
151.557706728
  0
LINE
  5
109
330
1F
100
AcDbEntity
  8
0
  6
HIDDEN
 62
     7
370
     0
100
AcDbLine
 10
46.1985671768
 20
84.2439761647
 30
0.0
 11
46.1985671768
 21
79.3656909629
 31
0.0
  0
LINE
  5
10A
330
1F
100
AcDbEntity
  8
0
  6
HIDDEN
 62
     7
370
     0
100
AcDbLine
 10
59.6485671768
 20
84.2439761647
 30
0.0
 11
59.6485671768
 21
77.7446428993
 31
0.0
  0
LINE
  5
10B
330
1F
100
AcDbEntity
  8
0
  6
HIDDEN
 62
     7
370
     0
100
AcDbLine
 10
54.6485671768
 20
138.9839761647
 30
0.0
 11
54.6485671768
 21
145.3585849017
 31
0.0
  0
LINE
  5
10C
330
1F
100
AcDbEntity
  8
0
  6
HIDDEN
 62
     7
370
     0
100
AcDbLine
 10
46.1985671768
 20
138.9839761647
 30
0.0
 11
46.1985671768
 21
143.8622613665
 31
0.0
  0
LINE
  5
10D
330
1F
100
AcDbEntity
  8
0
  6
HIDDEN
 62
     7
370
     0
100
AcDbLine
 10
122.7485671768
 20
98.6139761647
 30
0.0
 11
122.7485671768
 21
124.6139761647
 31
0.0
  0
LINE
  5
10E
330
1F
100
AcDbEntity
  8
0
  6
HIDDEN
 62
     7
370
     0
100
AcDbLine
 10
118.7485671768
 20
98.6139761647
 30
0.0
 11
118.7485671768
 21
124.6139761647
 31
0.0
  0
LINE
  5
10F
330
1F
100
AcDbEntity
  8
0
  6
HIDDEN
 62
     7
370
     0
100
AcDbLine
 10
107.6485671768
 20
100.3639761647
 30
0.0
 11
107.6485671768
 21
122.8639761647
 31
0.0
  0
ELLIPSE
  5
110
330
1F
100
AcDbEntity
  8
0
  6
HIDDEN
 62
     7
370
     0
100
AcDbEllipse
 10
38.2638939765
 20
111.6139761647
 30
0.0
 11
31.08108570811662
 21
1.421085471520200E-14
 31
0.0
210
0.0
220
0.0
230
1.0
 40
0.8164965809
 41
1.312649268214811
 42
1.367189972061496
  0
ELLIPSE
  5
111
330
1F
100
AcDbEntity
  8
0
  6
HIDDEN
 62
     7
370
     0
100
AcDbEllipse
 10
38.2638939765
 20
111.6139761647
 30
0.0
 11
31.08108570811662
 21
-1.421085471520200E-14
 31
0.0
210
0.0
220
0.0
230
1.0
 40
0.8164965809
 41
4.915995335118103
 42
4.970536038964788
  0
LINE
  5
112
330
1F
100
AcDbEntity
  8
0
  6
HIDDEN
 62
     7
370
     0
100
AcDbLine
 10
123.3985671768
 20
67.7139761647
 30
0.0
 11
109.3985671768
 21
67.7139761647
 31
0.0
  0
LINE
  5
113
330
1F
100
AcDbEntity
  8
0
  6
HIDDEN
 62
     7
370
     0
100
AcDbLine
 10
99.3985671768
 20
61.6239771649
 30
0.0
 11
99.3985671768
 21
67.7139761647
 31
0.0
  0
LINE
  5
114
330
1F
100
AcDbEntity
  8
0
  6
HIDDEN
 62
     7
370
     0
100
AcDbLine
 10
109.3985671768
 20
67.7139761647
 30
0.0
 11
99.3985671768
 21
67.7139761647
 31
0.0
  0
LINE
  5
115
330
1F
100
AcDbEntity
  8
0
  6
HIDDEN
 62
     7
370
     0
100
AcDbLine
 10
59.6485671768
 20
84.2439761647
 30
0.0
 11
59.6485671768
 21
86.3854625343
 31
0.0
  0
LINE
  5
116
330
1F
100
AcDbEntity
  8
0
  6
HIDDEN
 62
     7
370
     0
100
AcDbLine
 10
46.1985671768
 20
84.2439761647
 30
0.0
 11
46.1985671768
 21
87.0772710069
 31
0.0
  0
LINE
  5
117
330
1F
100
AcDbEntity
  8
0
  6
HIDDEN
 62
     7
370
     0
100
AcDbLine
 10
46.1985671768
 20
138.9839761647
 30
0.0
 11
46.1985671768
 21
136.1506813225
 31
0.0
  0
LINE
  5
118
330
1F
100
AcDbEntity
  8
0
  6
HIDDEN
 62
     7
370
     0
100
AcDbLine
 10
54.6485671768
 20
138.9839761647
 30
0.0
 11
54.6485671768
 21
136.8424897951
 31
0.0
  0
LINE
  5
119
330
1F
100
AcDbEntity
  8
0
  6
HIDDEN
 62
     7
370
     0
100
AcDbLine
 10
109.3985671768
 20
155.5139761647
 30
0.0
 11
99.3985671768
 21
155.5139761647
 31
0.0
  0
LINE
  5
11A
330
1F
100
AcDbEntity
  8
0
  6
HIDDEN
 62
     7
370
     0
100
AcDbLine
 10
123.3985671768
 20
155.5139761647
 30
0.0
 11
109.3985671768
 21
155.5139761647
 31
0.0
  0
SPLINE
  5
11B
330
1F
100
AcDbEntity
  8
0
  6
HIDDEN
 62
     7
370
     0
100
AcDbSpline
210
0.0
220
0.0
230
1.0
 70
     8
 71
     3
 72
    30
 73
    26
 74
     0
 42
0.00000001
 43
0.00000001
 40
0.0
 40
0.0
 40
0.0
 40
0.0
 40
0.0531668058349484
 40
0.1125460448779716
 40
0.1779415820824531
 40
0.2129647235197383
 40
0.2495168671262985
 40
0.2912815898060335
 40
0.3261230015185468
 40
0.3540373899832548
 40
0.3750221080320941
 40
0.4414779845155039
 40
0.5001940042391968
 40
0.5547072404099836
 40
0.6144498352252388
 40
0.679473423266638
 40
0.714029493681308
 40
0.7499255024787708
 40
0.7913888934542497
 40
0.826054898927729
 40
0.8539197351873082
 40
0.8749805502089522
 40
0.9411652363213413
 40
0.9999141591659414
 40
1.0
 40
1.0
 40
1.0
 40
1.0
 10
85.44814403004916
 20
74.51403917529042
 30
0.0
 10
85.4319424984365
 20
74.51894132787842
 30
0.0
 10
85.39764631916947
 20
74.5293184396214
 30
0.0
 10
85.09629970460414
 20
74.60497970720442
 30
0.0
 10
84.65412743591962
 20
74.7012668405046
 30
0.0
 10
84.15929526509984
 20
74.80093155016405
 30
0.0
 10
83.68881946482037
 20
74.89320972302754
 30
0.0
 10
83.15789807919269
 20
74.98884174787715
 30
0.0
 10
82.61974756818903
 20
75.07449199274794
 30
0.0
 10
82.16170023561659
 20
75.14178378541605
 30
0.0
 10
81.50613591401505
 20
75.23013195448839
 30
0.0
 10
80.6228294763219
 20
75.32679003867351
 30
0.0
 10
79.49416774351342
 20
75.41356521545656
 30
0.0
 10
78.40440599379109
 20
75.45164391316462
 30
0.0
 10
77.3083777153538
 20
75.45349434792955
 30
0.0
 10
76.40298646841188
 20
75.42733289234408
 30
0.0
 10
75.70668375799656
 20
75.39072566721522
 30
0.0
 10
75.18000402972156
 20
75.35170879173815
 30
0.0
 10
74.7133579146889
 20
75.30949966426623
 30
0.0
 10
74.3421426389651
 20
75.27249557469682
 30
0.0
 10
74.08809616172303
 20
75.2437948142525
 30
0.0
 10
73.78704100901365
 20
75.20741486366263
 30
0.0
 10
73.53155721420964
 20
75.17463469667595
 30
0.0
 10
73.4323364892645
 20
75.15829681196765
 30
0.0
 10
73.44861704654697
 20
75.16089039814048
 30
0.0
 10
73.44864080013292
 20
75.16089418222299
 30
0.0
  0
SPLINE
  5
11C
330
1F
100
AcDbEntity
  8
0
  6
HIDDEN
 62
     7
370
     0
100
AcDbSpline
210
0.0
220
0.0
230
1.0
 70
     8
 71
     3
 72
    30
 73
    26
 74
     0
 42
0.00000001
 43
0.00000001
 40
0.0
 40
0.0
 40
0.0
 40
0.0
 40
0.0001123288057695
 40
0.0285431152663135
 40
0.0588466796063202
 40
0.091027196450477
 40
0.1250880910051604
 40
0.1546766141497773
 40
0.1963554560485685
 40
0.2501101496291966
 40
0.320525387238388
 40
0.3856104300246703
 40
0.445403860889207
 40
0.4999571692316274
 40
0.5283494388508946
 40
0.558634027028705
 40
0.5908185964995195
 40
0.6249094714581434
 40
0.6541844575853767
 40
0.6958630078636641
 40
0.7499307292180327
 40
0.8215905285694356
 40
0.8871422909715975
 40
0.9466378748868088
 40
1.0
 40
1.0
 40
1.0
 40
1.0
 10
73.44866250886624
 20
148.0669878737087
 30
0.0
 10
73.4486306491081
 20
148.0669948208349
 30
0.0
 10
73.44053498083723
 20
148.0687601082271
 30
0.0
 10
73.46919645850663
 20
148.0633051895022
 30
0.0
 10
73.54258330466087
 20
148.052762342156
 30
0.0
 10
73.6862398482116
 20
148.0330771345025
 30
0.0
 10
73.8872755481691
 20
148.0082378706473
 30
0.0
 10
74.16990609743813
 20
147.9740294055085
 30
0.0
 10
74.58331522301279
 20
147.9303495087485
 30
0.0
 10
75.25960272419502
 20
147.8673064412152
 30
0.0
 10
76.19803362511097
 20
147.8060092707825
 30
0.0
 10
77.30752683860686
 20
147.774720827282
 30
0.0
 10
78.40500756929559
 20
147.7763759948787
 30
0.0
 10
79.3050388077529
 20
147.807682196976
 30
0.0
 10
80.01637973360383
 20
147.8545153457785
 30
0.0
 10
80.58179663459461
 20
147.9016822076744
 30
0.0
 10
81.17072005742293
 20
147.9611212142244
 30
0.0
 10
81.73512970990042
 20
148.0274784208324
 30
0.0
 10
82.3293259038366
 20
148.1093978272639
 30
0.0
 10
82.9959340648071
 20
148.2110458100144
 30
0.0
 10
83.79726681050734
 20
148.3531847206146
 30
0.0
 10
84.54977679501526
 20
148.504429291381
 30
0.0
 10
85.09506328998143
 20
148.6222801646404
 30
0.0
 10
85.39778482148027
 20
148.6985093963897
 30
0.0
 10
85.4320752720933
 20
148.7089617058842
 30
0.0
 10
85.44828870874332
 20
148.7139038356844
 30
0.0
  0
LINE
  5
11D
330
1F
100
AcDbEntity
  8
0
  6
HIDDEN
 62
     7
370
     0
100
AcDbLine
 10
154.5485671768
 20
105.6139761647
 30
0.0
 11
154.5485671768
 21
117.6139761647
 31
0.0
  0
LINE
  5
11E
330
1F
100
AcDbEntity
  8
0
  6
HIDDEN
 62
     7
370
     0
100
AcDbLine
 10
156.6515793434
 20
109.1139761647
 30
0.0
 11
156.6515793434
 21
114.1139761647
 31
0.0
  0
LINE
  5
11F
330
1F
100
AcDbEntity
  8
0
  6
HIDDEN
 62
     7
370
     0
100
AcDbLine
 10
250.9485671768
 20
108.6139761647
 30
0.0
 11
250.9485671768
 21
114.6139761647
 31
0.0
  0
SPLINE
  5
120
330
1F
100
AcDbEntity
  8
0
  6
HIDDEN
 62
     7
370
     0
100
AcDbSpline
210
0.0
220
0.0
230
1.0
 70
     8
 71
     3
 72
    17
 73
    13
 74
     0
 42
0.00000001
 43
0.00000001
 40
0.0
 40
0.0
 40
0.0
 40
0.0
 40
0.0981014785301651
 40
0.1992795846661643
 40
0.2973237678421144
 40
0.3978821541788319
 40
0.5025454062335741
 40
0.6099352168343471
 40
0.7198212581143468
 40
0.833292459828799
 40
0.9364188604516238
 40
1.0
 40
1.0
 40
1.0
 40
1.0
 10
219.9485671767665
 20
114.5533638560202
 30
0.0
 10
220.0267166338142
 20
114.555188320587
 30
0.0
 10
220.1854664465154
 20
114.5588944680025
 30
0.0
 10
220.4150369425383
 20
114.5876213341188
 30
0.0
 10
220.6327434380372
 20
114.6296108562534
 30
0.0
 10
220.8345219604294
 20
114.682123952321
 30
0.0
 10
221.0190071130975
 20
114.740786202273
 30
0.0
 10
221.1800234839559
 20
114.7999441023686
 30
0.0
 10
221.3114962853735
 20
114.8534494381742
 30
0.0
 10
221.3997848743015
 20
114.8919056199778
 30
0.0
 10
221.4453786135347
 20
114.9125223315637
 30
0.0
 10
221.4439201344351
 20
114.9118653575685
 30
0.0
 10
221.4433638802725
 20
114.9116147920859
 30
0.0
  0
LINE
  5
121
330
1F
100
AcDbEntity
  8
0
  6
HIDDEN
 62
     7
370
     0
100
AcDbLine
 10
219.9813033577
 20
114.5546607644
 30
0.0
 11
219.7902524963
 21
114.558758507
 31
0.0
  0
SPLINE
  5
122
330
1F
100
AcDbEntity
  8
0
  6
HIDDEN
 62
     7
370
     0
100
AcDbSpline
210
0.0
220
0.0
230
1.0
 70
     8
 71
     3
 72
    18
 73
    14
 74
     0
 42
0.00000001
 43
0.00000001
 40
0.0
 40
0.0
 40
0.0
 40
0.0
 40
0.0071774877478591
 40
0.1103364093789726
 40
0.2057501067682088
 40
0.3037095577993739
 40
0.4036092773619452
 40
0.5059873463295573
 40
0.6140127317153208
 40
0.7251084318939278
 40
0.8334745715595256
 40
0.9456709734740213
 40
1.0
 40
1.0
 40
1.0
 40
1.0
 10
218.4498313679589
 20
114.9134038446049
 30
0.0
 10
218.4494153723863
 20
114.9135921589774
 30
0.0
 10
218.4430204526857
 20
114.9164870342353
 30
0.0
 10
218.4669256535741
 20
114.9056043091454
 30
0.0
 10
218.5224697570588
 20
114.8808414205796
 30
0.0
 10
218.6142200097141
 20
114.8415576766031
 30
0.0
 10
218.7384420060592
 20
114.79184678765
 30
0.0
 10
218.8968032148452
 20
114.7344269677215
 30
0.0
 10
219.089096731272
 20
114.6742517819641
 30
0.0
 10
219.3109500662281
 20
114.6187665294715
 30
0.0
 10
219.5567643302049
 20
114.5759868366149
 30
0.0
 10
219.7727969128851
 20
114.5557141025075
 30
0.0
 10
219.9053286225325
 20
114.5539420042118
 30
0.0
 10
219.9485671767665
 20
114.5533638560202
 30
0.0
  0
SPLINE
  5
123
330
1F
100
AcDbEntity
  8
0
  6
HIDDEN
 62
     7
370
     0
100
AcDbSpline
210
0.0
220
0.0
230
1.0
 70
     8
 71
     3
 72
    27
 73
    23
 74
     0
 42
0.00000001
 43
0.00000001
 40
0.0
 40
0.0
 40
0.0
 40
0.0
 40
0.0493586139300485
 40
0.1002323018768664
 40
0.1495702843187618
 40
0.2002087704685722
 40
0.2521676674845295
 40
0.3054638423439675
 40
0.3604228873598395
 40
0.4171466436260254
 40
0.4690138396459324
 40
0.5227149136556951
 40
0.5698398307008429
 40
0.618281701284586
 40
0.6665902065725965
 40
0.7160567440479426
 40
0.7692498342890066
 40
0.8238840201435421
 40
0.8786078794321186
 40
0.9351642300516552
 40
0.9859157616871027
 40
1.0
 40
1.0
 40
1.0
 40
1.0
 10
221.4485671767665
 20
108.3139761646803
 30
0.0
 10
221.4449760677744
 20
108.3156163674541
 30
0.0
 10
221.4376836198731
 20
108.3189471194033
 30
0.0
 10
221.3793430763801
 20
108.3450905266789
 30
0.0
 10
221.2880392634163
 20
108.3842562889776
 30
0.0
 10
221.163091699837
 20
108.4344468409329
 30
0.0
 10
221.0047397691806
 20
108.4920266969317
 30
0.0
 10
220.8136689046054
 20
108.5520559331522
 30
0.0
 10
220.5910207255242
 20
108.6081845033337
 30
0.0
 10
220.3486705665137
 20
108.6509390096917
 30
0.0
 10
220.0943469113982
 20
108.6745775101338
 30
0.0
 10
219.8498242037567
 20
108.6762391767675
 30
0.0
 10
219.6144809823194
 20
108.6584154642733
 30
0.0
 10
219.3969451150294
 20
108.6257130723431
 30
0.0
 10
219.1906956704391
 20
108.5804754789013
 30
0.0
 10
218.9972220979537
 20
108.5261632470947
 30
0.0
 10
218.8204528133263
 20
108.4668184791391
 30
0.0
 10
218.6689707026752
 20
108.4089450029839
 30
0.0
 10
218.5497819159706
 20
108.3591197931856
 30
0.0
 10
218.4773871263783
 20
108.3270842505462
 30
0.0
 10
218.4458368470075
 20
108.3127386275599
 30
0.0
 10
218.4514538246394
 20
108.3152854173429
 30
0.0
 10
218.4526739975722
 20
108.3158386550737
 30
0.0
  0
LINE
  5
124
330
1F
100
AcDbEntity
  8
0
  6
HIDDEN
 62
     7
370
     0
100
AcDbLine
 10
217.9485671768
 20
108.7139761647
 30
0.0
 11
217.9485671768
 21
114.5139758154
 31
0.0
  0
LINE
  5
125
330
1F
100
AcDbEntity
  8
0
  6
HIDDEN
 62
     7
370
     0
100
AcDbLine
 10
232.4485671768
 20
108.6139761647
 30
0.0
 11
232.4485671768
 21
114.6139761647
 31
0.0
  0
LINE
  5
126
330
1F
100
AcDbEntity
  8
0
  6
HIDDEN
 62
     7
370
     0
100
AcDbLine
 10
165.8985671768
 20
97.1913264339
 30
0.0
 11
160.8985671768
 21
97.1913264339
 31
0.0
  0
LINE
  5
127
330
1F
100
AcDbEntity
  8
0
  6
HIDDEN
 62
     7
370
     0
100
AcDbLine
 10
163.3985671768
 20
126.0366258955
 30
0.0
 11
165.8985671768
 21
126.0366258955
 31
0.0
  0
LINE
  5
128
330
1F
100
AcDbEntity
  8
0
  6
HIDDEN
 62
     7
370
     0
100
AcDbLine
 10
160.8985671768
 20
126.0366258955
 30
0.0
 11
163.3985671768
 21
126.0366258955
 31
0.0
  0
LINE
  5
129
330
1F
100
AcDbEntity
  8
0
  6
HIDDEN
 62
     7
370
     0
100
AcDbLine
 10
163.3985671768
 20
117.6139761647
 30
0.0
 11
165.8985671768
 21
117.6139761647
 31
0.0
  0
LINE
  5
12A
330
1F
100
AcDbEntity
  8
0
  6
HIDDEN
 62
     7
370
     0
100
AcDbLine
 10
160.8985671768
 20
117.6139761647
 30
0.0
 11
163.3985671768
 21
117.6139761647
 31
0.0
  0
LINE
  5
12B
330
1F
100
AcDbEntity
  8
0
  6
HIDDEN
 62
     7
370
     0
100
AcDbLine
 10
201.5482229292
 20
109.1139761647
 30
0.0
 11
201.5482229292
 21
114.1139761647
 31
0.0
  0
LINE
  5
12C
330
1F
100
AcDbEntity
  8
0
  6
HIDDEN
 62
     7
370
     0
100
AcDbLine
 10
201.7885671768
 20
109.5139761647
 30
0.0
 11
201.7885671768
 21
113.7139761647
 31
0.0
  0
LINE
  5
12D
330
1F
100
AcDbEntity
  8
0
  6
HIDDEN
 62
     7
370
     0
100
AcDbLine
 10
165.8985671768
 20
105.6139761647
 30
0.0
 11
160.8985671768
 21
105.6139761647
 31
0.0
  0
SPLINE
  5
12E
330
1F
100
AcDbEntity
  8
0
  6
HIDDEN
 62
     7
370
     0
100
AcDbSpline
210
0.0
220
0.0
230
1.0
 70
    11
 71
     3
 72
    34
 73
    30
 74
     0
 42
0.00000001
 43
0.00000001
 40
0.0
 40
0.0
 40
0.0
 40
0.0
 40
0.0625000000000016
 40
0.0625000000000016
 40
0.1250000000000033
 40
0.1250000000000033
 40
0.1875000000000049
 40
0.1875000000000049
 40
0.2500000000000066
 40
0.2500000000000066
 40
0.3750000000000094
 40
0.3750000000000094
 40
0.4375000000000092
 40
0.4375000000000092
 40
0.5000000000000091
 40
0.5000000000000091
 40
0.562500000000009
 40
0.562500000000009
 40
0.6250000000000089
 40
0.6250000000000089
 40
0.7500000000000085
 40
0.7500000000000085
 40
0.8125000000000064
 40
0.8125000000000064
 40
0.8750000000000042
 40
0.8750000000000042
 40
0.9375000000000021
 40
0.9375000000000021
 40
1.0
 40
1.0
 40
1.0
 40
1.0
 10
218.9229033154471
 20
103.1139761646804
 30
0.0
 10
218.9750774045977
 20
103.204732345494
 30
0.0
 10
219.0239389815877
 20
103.3010993677143
 30
0.0
 10
219.0984928859425
 20
103.5135049774332
 30
0.0
 10
219.1215153387501
 20
103.6279099601011
 30
0.0
 10
219.1169809816708
 20
103.856747530867
 30
0.0
 10
219.0892459310773
 20
103.9701167868984
 30
0.0
 10
219.008423819132
 20
104.1752781443326
 30
0.0
 10
218.9557960101799
 20
104.2703009500643
 30
0.0
 10
218.794733436749
 20
104.5281817111013
 30
0.0
 10
218.6792717805596
 20
104.6726994985014
 30
0.0
 10
218.5498409300198
 20
104.8313448574519
 30
0.0
 10
218.5129959317993
 20
104.8750024164881
 30
0.0
 10
218.4627696523585
 20
104.9340843186783
 30
0.0
 10
218.4488694723149
 20
104.9501456028001
 30
0.0
 10
218.448275063664
 20
104.9508360902131
 30
0.0
 10
218.4615571154793
 20
104.9354938557104
 30
0.0
 10
218.5108711086677
 20
104.8775175646917
 30
0.0
 10
218.5472206446789
 20
104.8344924484331
 30
0.0
 10
218.6767203695168
 20
104.6759494393129
 30
0.0
 10
218.7929662914835
 20
104.5307277917691
 30
0.0
 10
218.9551945844419
 20
104.2714036339002
 30
0.0
 10
219.0070516035861
 20
104.178300757244
 30
0.0
 10
219.0892302084641
 20
103.9706096247091
 30
0.0
 10
219.1169066064175
 20
103.8572450679877
 30
0.0
 10
219.1215709703773
 20
103.6283451263103
 30
0.0
 10
219.0983074802524
 20
103.5132172895301
 30
0.0
 10
219.0247195672091
 20
103.3030846705767
 30
0.0
 10
218.9751507300983
 20
103.2048598942926
 30
0.0
 10
218.9229033154471
 20
103.1139761646804
 30
0.0
  0
LINE
  5
12F
330
1F
100
AcDbEntity
  8
0
  6
HIDDEN
 62
     7
370
     0
100
AcDbLine
 10
218.9229033154
 20
103.1139761647
 30
0.0
 11
221.024875303
 21
103.1139761647
 31
0.0
  0
SPLINE
  5
130
330
1F
100
AcDbEntity
  8
0
  6
HIDDEN
 62
     7
370
     0
100
AcDbSpline
210
0.0
220
0.0
230
1.0
 70
     8
 71
     3
 72
    18
 73
    14
 74
     0
 42
0.00000001
 43
0.00000001
 40
0.0
 40
0.0
 40
0.0
 40
0.0
 40
0.128176898775705
 40
0.223342313673753
 40
0.3193238496732744
 40
0.4278698166000765
 40
0.5146772708418043
 40
0.6038485385595874
 40
0.6939207522611307
 40
0.7869580337487262
 40
0.9101878902096778
 40
0.9712859042129585
 40
1.0
 40
1.0
 40
1.0
 40
1.0
 10
221.0248753030179
 20
103.1139761646803
 30
0.0
 10
220.9665874607248
 20
103.2086229299817
 30
0.0
 10
220.8650235932795
 20
103.3735405379597
 30
0.0
 10
220.7716538710694
 20
103.6658899831753
 30
0.0
 10
220.7782375796143
 20
103.9607008376836
 30
0.0
 10
220.8730821594874
 20
104.2207440545565
 30
0.0
 10
220.9939711885444
 20
104.4424997500936
 30
0.0
 10
221.1145229335445
 20
104.62752746755
 30
0.0
 10
221.2330560118488
 20
104.7922445667538
 30
0.0
 10
221.3499907989187
 20
104.94516486339
 30
0.0
 10
221.4215297942555
 20
105.0348018690975
 30
0.0
 10
221.4483218383097
 20
105.0680644426765
 30
0.0
 10
221.4464335940122
 20
105.0657203365695
 30
0.0
 10
221.4458298978319
 20
105.0649708954591
 30
0.0
  0
LINE
  5
131
330
1F
100
AcDbEntity
  8
0
  6
HIDDEN
 62
     7
370
     0
100
AcDbLine
 10
221.4079047897
 20
120.6139761647
 30
0.0
 11
218.5791639357
 21
120.6139761647
 31
0.0
  0
SPLINE
  5
132
330
1F
100
AcDbEntity
  8
0
  6
HIDDEN
 62
     7
370
     0
100
AcDbSpline
210
0.0
220
0.0
230
1.0
 70
    11
 71
     3
 72
    44
 73
    40
 74
     0
 42
0.00000001
 43
0.00000001
 40
0.0
 40
0.0
 40
0.0
 40
0.0
 40
0.0625000000000024
 40
0.0625000000000024
 40
0.1250000000000047
 40
0.1250000000000047
 40
0.1875000000000071
 40
0.1875000000000071
 40
0.2187500000000079
 40
0.2187500000000079
 40
0.2500000000000087
 40
0.2500000000000087
 40
0.3125000000000084
 40
0.3125000000000084
 40
0.3750000000000081
 40
0.3750000000000081
 40
0.4375000000000078
 40
0.4375000000000078
 40
0.5000000000000074
 40
0.5000000000000074
 40
0.5625000000000072
 40
0.5625000000000072
 40
0.6250000000000069
 40
0.6250000000000069
 40
0.6875000000000067
 40
0.6875000000000067
 40
0.7500000000000063
 40
0.7500000000000063
 40
0.7812500000000052
 40
0.7812500000000052
 40
0.8125000000000044
 40
0.8125000000000044
 40
0.8437500000000038
 40
0.8437500000000038
 40
0.875000000000003
 40
0.875000000000003
 40
0.9375000000000016
 40
0.9375000000000016
 40
1.0
 40
1.0
 40
1.0
 40
1.0
 10
218.5791639357301
 20
120.6139761646803
 30
0.0
 10
218.6319613992192
 20
120.5455100053992
 30
0.0
 10
218.6969584167299
 20
120.4592905233199
 30
0.0
 10
218.8321362689656
 20
120.2644712398083
 30
0.0
 10
218.9037200955386
 20
120.1546125155892
 30
0.0
 10
219.0303467109983
 20
119.9128368380052
 30
0.0
 10
219.0868945515059
 20
119.7778539816835
 30
0.0
 10
219.1204258589912
 20
119.5602357749833
 30
0.0
 10
219.1224205737167
 20
119.4849857670728
 30
0.0
 10
219.1066699100787
 20
119.3394651271204
 30
0.0
 10
219.0888875350742
 20
119.2671379204549
 30
0.0
 10
219.0182197065019
 20
119.0646490377106
 30
0.0
 10
218.9487130296405
 20
118.9430826603781
 30
0.0
 10
218.8095124625209
 20
118.7279825982285
 30
0.0
 10
218.7368740344675
 20
118.6311520980415
 30
0.0
 10
218.6092463527095
 20
118.4680799530755
 30
0.0
 10
218.5524323745232
 20
118.3998628029052
 30
0.0
 10
218.4721350315208
 20
118.3046029495103
 30
0.0
 10
218.4490868635675
 20
118.2780592571294
 30
0.0
 10
218.4480657063639
 20
118.2768730411253
 30
0.0
 10
218.4700143949012
 20
118.3021339509842
 30
0.0
 10
218.5491689878126
 20
118.3959476081019
 30
0.0
 10
218.6055337025314
 20
118.4634885496838
 30
0.0
 10
218.7344396250946
 20
118.6278964034241
 30
0.0
 10
218.8063224335074
 20
118.7234503542408
 30
0.0
 10
218.946886223225
 20
118.93987659189
 30
0.0
 10
219.0148027000135
 20
119.0573241448839
 30
0.0
 10
219.0874426498584
 20
119.2618441108604
 30
0.0
 10
219.1054860313374
 20
119.3331539082011
 30
0.0
 10
219.1223826310753
 20
119.4803406757401
 30
0.0
 10
219.1207667459268
 20
119.5556038561956
 30
0.0
 10
219.0990509739612
 20
119.7012379381206
 30
0.0
 10
219.0790491832614
 20
119.7727589551374
 30
0.0
 10
219.0295948975627
 20
119.9068463899667
 30
0.0
 10
218.9998656203078
 20
119.9709014638798
 30
0.0
 10
218.9039846571651
 20
120.1543713846715
 30
0.0
 10
218.8335048134636
 20
120.2624298695762
 30
0.0
 10
218.6973539968434
 20
120.4587885367722
 30
0.0
 10
218.63256033549
 20
120.5447333228958
 30
0.0
 10
218.5791639357301
 20
120.6139761646803
 30
0.0
  0
SPLINE
  5
133
330
1F
100
AcDbEntity
  8
0
  6
HIDDEN
 62
     7
370
     0
100
AcDbSpline
210
0.0
220
0.0
230
1.0
 70
     8
 71
     3
 72
    30
 73
    26
 74
     0
 42
0.00000001
 43
0.00000001
 40
0.0
 40
0.0
 40
0.0
 40
0.0
 40
0.0625000000000033
 40
0.0625000000000033
 40
0.1250000000000065
 40
0.1250000000000065
 40
0.250000000000007
 40
0.250000000000007
 40
0.3750000000000077
 40
0.3750000000000077
 40
0.5000000000000082
 40
0.5000000000000082
 40
0.5625000000000064
 40
0.5625000000000064
 40
0.6250000000000041
 40
0.6250000000000041
 40
0.6875000000000017
 40
0.6875000000000017
 40
0.7499999999999993
 40
0.7499999999999993
 40
0.875000000000004
 40
0.875000000000004
 40
0.937500000000002
 40
0.937500000000002
 40
1.0
 40
1.0
 40
1.0
 40
1.0
 10
221.4485671767664
 20
118.1595852476797
 30
0.0
 10
221.4485671767665
 20
118.1595852476797
 30
0.0
 10
221.4420638833829
 20
118.1676300669966
 30
0.0
 10
221.4173103584653
 20
118.1984990129507
 30
0.0
 10
221.3987490260097
 20
118.2217173772268
 30
0.0
 10
221.3300551347306
 20
118.3088770486096
 30
0.0
 10
221.2656815812724
 20
118.3916666041183
 30
0.0
 10
221.12532361897
 20
118.5852511834239
 30
0.0
 10
221.0471208585585
 20
118.6984208229881
 30
0.0
 10
220.903276826467
 20
118.948202226498
 30
0.0
 10
220.8343606032284
 20
119.0886139854504
 30
0.0
 10
220.7823169223611
 20
119.3215260310148
 30
0.0
 10
220.7746392773604
 20
119.4020043312026
 30
0.0
 10
220.7832131024005
 20
119.5611397963836
 30
0.0
 10
220.7996106146207
 20
119.6408636244573
 30
0.0
 10
220.8479101941022
 20
119.789991081707
 30
0.0
 10
220.8797532033061
 20
119.8609387194446
 30
0.0
 10
220.9486256246178
 20
119.9927164765661
 30
0.0
 10
220.9860304318704
 20
120.0544888563056
 30
0.0
 10
221.1010122763226
 20
120.2305737062038
 30
0.0
 10
221.1785898701109
 20
120.3321699212848
 30
0.0
 10
221.2809728556358
 20
120.4613029212735
 30
0.0
 10
221.3120635275932
 20
120.4993520201626
 30
0.0
 10
221.3665063091321
 20
120.5650788271701
 30
0.0
 10
221.3900854228528
 20
120.5930054700734
 30
0.0
 10
221.4079047897426
 20
120.6139761646803
 30
0.0
  0
SPLINE
  5
134
330
1F
100
AcDbEntity
  8
0
  6
HIDDEN
 62
     7
370
     0
100
AcDbSpline
210
0.0
220
0.0
230
1.0
 70
    11
 71
     3
 72
    32
 73
    28
 74
     0
 42
0.00000001
 43
0.00000001
 40
0.0
 40
0.0
 40
0.0
 40
0.0
 40
0.1249999999999986
 40
0.1249999999999986
 40
0.1874999999999979
 40
0.1874999999999979
 40
0.2499999999999972
 40
0.2499999999999972
 40
0.3124999999999966
 40
0.3124999999999966
 40
0.3749999999999958
 40
0.3749999999999958
 40
0.4374999999999951
 40
0.4374999999999951
 40
0.4999999999999944
 40
0.4999999999999944
 40
0.624999999999993
 40
0.624999999999993
 40
0.6874999999999925
 40
0.6874999999999925
 40
0.749999999999992
 40
0.749999999999992
 40
0.8124999999999916
 40
0.8124999999999916
 40
0.874999999999991
 40
0.874999999999991
 40
1.0
 40
1.0
 40
1.0
 40
1.0
 10
218.9229033154471
 20
103.1139761646803
 30
0.0
 10
219.0337207867678
 20
103.0525506956278
 30
0.0
 10
219.1418897230856
 20
102.9910515447444
 30
0.0
 10
219.2934413320411
 20
102.8963331572846
 30
0.0
 10
219.3415913115804
 20
102.8646640630118
 30
0.0
 10
219.4295488914906
 20
102.7999673062612
 30
0.0
 10
219.4701866089494
 20
102.7662960711369
 30
0.0
 10
219.5306263514117
 20
102.6980087703174
 30
0.0
 10
219.5486373053626
 20
102.6634999085248
 30
0.0
 10
219.5564395999031
 20
102.6027308698067
 30
0.0
 10
219.5478274252908
 20
102.576406606123
 30
0.0
 10
219.5261601562907
 20
102.534331353322
 30
0.0
 10
219.5132655153684
 20
102.5181993312223
 30
0.0
 10
219.4944190083231
 20
102.4958965338644
 30
0.0
 10
219.4884723860395
 20
102.4898830098034
 30
0.0
 10
219.4872024806218
 20
102.4885416850559
 30
0.0
 10
219.5118792359237
 20
102.5098522143614
 30
0.0
 10
219.5453712193116
 20
102.5703078671312
 30
0.0
 10
219.5551711792824
 20
102.595167433982
 30
0.0
 10
219.5513694549215
 20
102.6557505282287
 30
0.0
 10
219.5360715940512
 20
102.6897197373976
 30
0.0
 10
219.4779516088392
 20
102.7592372653222
 30
0.0
 10
219.4377081007683
 20
102.7934649949409
 30
0.0
 10
219.3481811524259
 20
102.8602424684059
 30
0.0
 10
219.2993131255843
 20
102.8925334331963
 30
0.0
 10
219.1462631514151
 20
102.9885586121621
 30
0.0
 10
219.0356972361665
 20
103.0514551614134
 30
0.0
 10
218.9229033154471
 20
103.1139761646804
 30
0.0
  0
SPLINE
  5
135
330
1F
100
AcDbEntity
  8
0
  6
HIDDEN
 62
     7
370
     0
100
AcDbSpline
210
0.0
220
0.0
230
1.0
 70
     8
 71
     3
 72
    15
 73
    11
 74
     0
 42
0.00000001
 43
0.00000001
 40
0.0
 40
0.0
 40
0.0
 40
0.0
 40
0.1041400310635876
 40
0.221400368010373
 40
0.341023574594804
 40
0.4616803823315503
 40
0.5823142755567507
 40
0.6934480445685515
 40
0.8070330378914886
 40
0.9999999999999999
 40
0.9999999999999999
 40
0.9999999999999999
 40
0.9999999999999999
 10
220.4641959436808
 20
102.5407485529821
 30
0.0
 10
220.4665595026554
 20
102.5373556949593
 30
0.0
 10
220.4715843986675
 20
102.5301425223957
 30
0.0
 10
220.4448561922201
 20
102.5685341504278
 30
0.0
 10
220.4252421803147
 20
102.624782836986
 30
0.0
 10
220.4515283759789
 20
102.711519915196
 30
0.0
 10
220.5443599321453
 20
102.8040729796113
 30
0.0
 10
220.6623123517589
 20
102.891138715567
 30
0.0
 10
220.8203567949441
 20
102.9939556067891
 30
0.0
 10
220.945868655197
 20
103.0676115493803
 30
0.0
 10
221.0248753030179
 20
103.1139761646803
 30
0.0
  0
LINE
  5
136
330
1F
100
AcDbEntity
  8
0
  6
HIDDEN
 62
     7
370
     0
100
AcDbLine
 10
218.4272471024
 20
104.9496590927
 30
0.0
 11
218.5253966418
 21
102.4515865021
 31
0.0
  0
SPLINE
  5
137
330
1F
100
AcDbEntity
  8
0
  6
HIDDEN
 62
     7
370
     0
100
AcDbSpline
210
0.0
220
0.0
230
1.0
 70
     8
 71
     3
 72
     9
 73
     5
 74
     0
 42
0.00000001
 43
0.00000001
 40
0.0
 40
0.0
 40
0.0
 40
0.0
 40
0.9121802914536514
 40
1.0
 40
1.0
 40
1.0
 40
1.0
 10
221.4079047897426
 20
120.6139761646803
 30
0.0
 10
221.4320383805509
 20
120.6421848173316
 30
0.0
 10
221.4584954209346
 20
120.6731092441313
 30
0.0
 10
221.4464211078918
 20
120.6590104098135
 30
0.0
 10
221.4453607452395
 20
120.6577722542929
 30
0.0
  0
SPLINE
  5
138
330
1F
100
AcDbEntity
  8
0
  6
HIDDEN
 62
     7
370
     0
100
AcDbSpline
210
0.0
220
0.0
230
1.0
 70
     8
 71
     3
 72
     9
 73
     5
 74
     0
 42
0.00000001
 43
0.00000001
 40
0.0
 40
0.0
 40
0.0
 40
0.0
 40
0.8685159940910361
 40
1.0
 40
1.0
 40
1.0
 40
1.0
 10
218.4542043420119
 20
120.6611677647126
 30
0.0
 10
218.4611397763335
 20
120.6619150527445
 30
0.0
 10
218.4691251610228
 20
120.662775472169
 30
0.0
 10
218.5157688319145
 20
120.6845511884442
 30
0.0
 10
218.5219017286136
 20
120.6874143468517
 30
0.0
  0
LINE
  5
139
330
1F
100
AcDbEntity
  8
0
  6
HIDDEN
 62
     7
370
     0
100
AcDbLine
 10
218.5219017286
 20
120.6874143469
 30
0.0
 11
218.4272471024
 21
118.2782932367
 31
0.0
  0
SPLINE
  5
13A
330
1F
100
AcDbEntity
  8
0
  6
HIDDEN
 62
     7
370
     0
100
AcDbSpline
210
0.0
220
0.0
230
1.0
 70
     8
 71
     3
 72
     8
 73
     4
 74
     0
 42
0.00000001
 43
0.00000001
 40
0.0
 40
0.0
 40
0.0
 40
0.0
 40
1.0
 40
1.0
 40
1.0
 40
1.0
 10
218.5219017286136
 20
120.6874143468516
 30
0.0
 10
218.5389260849489
 20
120.6658090052776
 30
0.0
 10
218.5581647794587
 20
120.6412072375962
 30
0.0
 10
218.5791639357301
 20
120.6139761646803
 30
0.0
  0
LINE
  5
13B
330
1F
100
AcDbEntity
  8
0
  6
HIDDEN
 62
     7
370
     0
100
AcDbLine
 10
218.5791639357
 20
120.6139761647
 30
0.0
 11
218.4485671768
 21
120.6139761647
 31
0.0
  0
LINE
  5
13C
330
1F
100
AcDbEntity
  8
0
  6
HIDDEN
 62
     7
370
     0
100
AcDbLine
 10
221.4485671768
 20
120.6139761647
 30
0.0
 11
221.4079047897
 21
120.6139761647
 31
0.0
  0
LWPOLYLINE
  5
13D
330
1F
100
AcDbEntity
  8
0
  6
HIDDEN
 62
     7
370
     0
100
AcDbPolyline
 90
       28
 70
   128
 43
0.0
 10
103.4485671768
 20
156.9266820165
 10
104.6016465305
 20
156.8850340511
 10
105.6925630778
 20
156.7623354075
 10
106.6625052252
 20
156.5652008014
 10
107.4591831405
 20
156.3042578104
 10
108.0396477112
 20
155.9935739388
 10
108.3726059418
 20
155.6498982343
 10
108.4401079681
 20
155.2917583432
 10
108.2385147383
 20
154.9384616798
 10
107.7786941957
 20
154.6090545586
 10
107.0854353846
 20
154.3212954028
 10
106.1961120671
 20
154.090697383
 10
105.1586678934
 20
153.929692098
 10
104.0290317474
 20
153.8469593845
 10
102.8681026061
 20
153.8469593845
 10
101.7384664601
 20
153.929692098
 10
100.7010222864
 20
154.090697383
 10
99.8116989689
 20
154.3212954028
 10
99.1184401578
 20
154.6090545586
 10
98.6586196152
 20
154.9384616798
 10
98.4570263854
 20
155.2917583432
 10
98.5245284117
 20
155.6498982343
 10
98.8574866424
 20
155.9935739388
 10
99.437951213
 20
156.3042578104
 10
100.2346291283
 20
156.5652008014
 10
101.2045712758
 20
156.7623354075
 10
102.2954878231
 20
156.8850340511
 10
103.4485671768
 20
156.9266820165
  0
LINE
  5
13E
330
1F
100
AcDbEntity
  8
0
  6
HIDDEN
 62
     7
370
     0
100
AcDbLine
 10
112.5385671768
 20
146.3282113572
 30
0.0
 11
112.5385671768
 21
142.9639761647
 31
0.0
  0
LINE
  5
13F
330
1F
100
AcDbEntity
  8
0
  6
HIDDEN
 62
     7
370
     0
100
AcDbLine
 10
116.3585671768
 20
146.3282113572
 30
0.0
 11
116.3585671768
 21
142.9639761647
 31
0.0
  0
LINE
  5
140
330
1F
100
AcDbEntity
  8
0
  6
HIDDEN
 62
     7
370
     0
100
AcDbLine
 10
117.7105961977
 20
150.5649389256
 30
0.0
 11
117.7105961977
 21
142.9639761647
 31
0.0
  0
CIRCLE
  5
141
330
1F
100
AcDbEntity
  8
0
  6
HIDDEN
 62
     7
370
     0
100
AcDbCircle
 10
101.4485671768
 20
111.6139761647
 30
0.0
 40
5.0
  0
LINE
  5
142
330
1F
100
AcDbEntity
  8
0
  6
HIDDEN
 62
     7
370
     0
100
AcDbLine
 10
206.3485671768
 20
109.1139761647
 30
0.0
 11
217.5485671768
 21
109.1139761647
 31
0.0
  0
LINE
  5
143
330
1F
100
AcDbEntity
  8
0
  6
HIDDEN
 62
     7
370
     0
100
AcDbLine
 10
217.5485671768
 20
114.1139761647
 30
0.0
 11
206.3485671768
 21
114.1139761647
 31
0.0
  0
LINE
  5
144
330
1F
100
AcDbEntity
  8
0
  6
HIDDEN
 62
     7
370
     0
100
AcDbLine
 10
217.5485671768
 20
109.1139761647
 30
0.0
 11
217.9485671768
 21
109.5139761647
 31
0.0
  0
LINE
  5
145
330
1F
100
AcDbEntity
  8
0
  6
HIDDEN
 62
     7
370
     0
100
AcDbLine
 10
217.9485671768
 20
113.7139761647
 30
0.0
 11
217.5485671768
 21
114.1139761647
 31
0.0
  0
LINE
  5
146
330
1F
100
AcDbEntity
  8
0
  6
HIDDEN
 62
     7
370
     0
100
AcDbLine
 10
206.3485671768
 20
114.1139761647
 30
0.0
 11
205.9485671768
 21
113.7139761647
 31
0.0
  0
LINE
  5
147
330
1F
100
AcDbEntity
  8
0
  6
HIDDEN
 62
     7
370
     0
100
AcDbLine
 10
205.9485671768
 20
109.5139761647
 30
0.0
 11
206.3485671768
 21
109.1139761647
 31
0.0
  0
LINE
  5
148
330
1F
100
AcDbEntity
  8
0
  6
HIDDEN
 62
     7
370
     0
100
AcDbLine
 10
217.9485671768
 20
109.5139761647
 30
0.0
 11
219.9485671768
 21
109.5139761647
 31
0.0
  0
LINE
  5
149
330
1F
100
AcDbEntity
  8
0
  6
HIDDEN
 62
     7
370
     0
100
AcDbLine
 10
219.9485671768
 20
113.7139761647
 30
0.0
 11
217.9485671768
 21
113.7139761647
 31
0.0
  0
LINE
  5
14A
330
1F
100
AcDbEntity
  8
0
  6
HIDDEN
 62
     7
370
     0
100
AcDbLine
 10
209.9485671767
 20
110.3639761647
 30
0.0
 11
215.9485671768
 21
110.3639761647
 31
0.0
  0
LINE
  5
14B
330
1F
100
AcDbEntity
  8
0
  6
HIDDEN
 62
     7
370
     0
100
AcDbLine
 10
215.9485671768
 20
112.8639761647
 30
0.0
 11
209.9485671767
 21
112.8639761647
 31
0.0
  0
LINE
  5
14C
330
1F
100
AcDbEntity
  8
0
  6
HIDDEN
 62
     7
370
     0
100
AcDbLine
 10
254.3161901432
 20
119.6203346104
 30
0.0
 11
248.9822523393
 21
119.8299055975
 31
0.0
  0
LINE
  5
14D
330
1F
100
AcDbEntity
  8
0
  6
HIDDEN
 62
     7
370
     0
100
AcDbLine
 10
248.864472892
 20
116.8322184888
 30
0.0
 11
254.1984106959
 21
116.6226475017
 31
0.0
  0
LINE
  5
14E
330
1F
100
AcDbEntity
  8
0
  6
HIDDEN
 62
     7
370
     0
100
AcDbLine
 10
248.9822523393
 20
119.8299055975
 30
0.0
 11
248.4630079133
 21
119.3499209872
 31
0.0
  0
LINE
  5
14F
330
1F
100
AcDbEntity
  8
0
  6
HIDDEN
 62
     7
370
     0
100
AcDbLine
 10
248.3844882817
 20
117.3514629148
 30
0.0
 11
248.864472892
 21
116.8322184888
 31
0.0
  0
LINE
  5
150
330
1F
100
AcDbEntity
  8
0
  6
HIDDEN
 62
     7
370
     0
100
AcDbLine
 10
254.1984106959
 20
116.6226475017
 30
0.0
 11
254.3712449696
 21
116.8965732468
 31
0.0
  0
LINE
  5
151
330
1F
100
AcDbEntity
  8
0
  6
HIDDEN
 62
     7
370
     0
100
AcDbLine
 10
254.4485671768
 20
119.3687272547
 30
0.0
 11
254.3161901432
 21
119.6203346104
 31
0.0
  0
LINE
  5
152
330
1F
100
AcDbEntity
  8
0
  6
HIDDEN
 62
     7
370
     0
100
AcDbLine
 10
254.2573004195
 20
106.6076186112
 30
0.0
 11
248.9233626156
 21
106.3980476241
 31
0.0
  0
LINE
  5
153
330
1F
100
AcDbEntity
  8
0
  6
HIDDEN
 62
     7
370
     0
100
AcDbLine
 10
249.0411420629
 20
103.4003605154
 30
0.0
 11
254.3750798668
 21
103.6099315025
 31
0.0
  0
LINE
  5
154
330
1F
100
AcDbEntity
  8
0
  6
HIDDEN
 62
     7
370
     0
100
AcDbLine
 10
254.3750798668
 20
103.6099315025
 30
0.0
 11
254.4485671768
 21
103.7496079043
 31
0.0
  0
LINE
  5
155
330
1F
100
AcDbEntity
  8
0
  6
HIDDEN
 62
     7
370
     0
100
AcDbLine
 10
254.4301346933
 20
106.3336928661
 30
0.0
 11
254.2573004195
 21
106.6076186112
 31
0.0
  0
LINE
  5
156
330
1F
100
AcDbEntity
  8
0
  6
HIDDEN
 62
     7
370
     0
100
AcDbLine
 10
248.9233626156
 20
106.3980476241
 30
0.0
 11
248.4433780054
 21
105.8788031981
 31
0.0
  0
LINE
  5
157
330
1F
100
AcDbEntity
  8
0
  6
HIDDEN
 62
     7
370
     0
100
AcDbLine
 10
248.5218976369
 20
103.8803451257
 30
0.0
 11
249.0411420629
 21
103.4003605154
 31
0.0
  0
LINE
  5
158
330
1F
100
AcDbEntity
  8
0
  6
HIDDEN
 62
     7
370
     0
100
AcDbLine
 10
94.4485671768
 20
72.2092932081
 30
0.0
 11
94.5381688007
 21
72.84684189
 31
0.0
  0
LINE
  5
159
330
1F
100
AcDbEntity
  8
0
  6
HIDDEN
 62
     7
370
     0
100
AcDbLine
 10
94.5381688007
 20
150.3811104393
 30
0.0
 11
94.4485671768
 21
151.0186591213
 31
0.0
  0
ARC
  5
15A
330
1F
100
AcDbEntity
  8
0
  6
HIDDEN
 62
     7
370
     0
100
AcDbCircle
 10
93.5516302583
 20
72.9854908402
 30
0.0
 40
0.9962338214386932
100
AcDbArc
 50
352.0
 51
0.0
  0
ARC
  5
15B
330
1F
100
AcDbEntity
  8
0
  6
HIDDEN
 62
     7
370
     0
100
AcDbCircle
 10
93.5516302583
 20
72.9854908402
 30
0.0
 40
0.9962338214386932
100
AcDbArc
 50
0.0
 51
25.7988228126
  0
ARC
  5
15C
330
1F
100
AcDbEntity
  8
0
  6
HIDDEN
 62
     7
370
     0
100
AcDbCircle
 10
93.5516302583
 20
150.2424614891
 30
0.0
 40
0.9962338214386822
100
AcDbArc
 50
348.75
 51
8.0
  0
LWPOLYLINE
  5
15D
330
1F
100
AcDbEntity
  8
0
  6
HIDDEN
 62
     7
370
     0
100
AcDbPolyline
 90
        3
 70
   128
 43
0.0
 10
94.5287217262
 20
150.0481059121
 10
94.4720302955
 20
149.8612193109
 10
94.4485671768
 20
149.808887976
  0
LINE
  5
15E
330
1F
100
AcDbEntity
  8
0
  6
HIDDEN
 62
     7
370
     0
100
AcDbLine
 10
94.5478640798
 20
72.9854908402
 30
0.0
 11
94.5478640798
 21
150.2424614891
 31
0.0
  0
LINE
  5
15F
330
1F
100
AcDbEntity
  8
0
  6
HIDDEN
 62
     7
370
     0
100
AcDbLine
 10
67.9092931189
 20
80.1139761647
 30
0.0
 11
73.4537375507
 21
80.1139761647
 31
0.0
  0
LINE
  5
160
330
1F
100
AcDbEntity
  8
0
  6
HIDDEN
 62
     7
370
     0
100
AcDbLine
 10
73.4674842911
 20
143.1139761647
 30
0.0
 11
67.9092931189
 21
143.1139761647
 31
0.0
  0
ARC
  5
161
330
1F
100
AcDbEntity
  8
0
  6
HIDDEN
 62
     7
370
     0
100
AcDbCircle
 10
67.9092931189
 20
81.1139761647
 30
0.0
 40
1.0
100
AcDbArc
 50
210.0
 51
270.0
  0
ARC
  5
162
330
1F
100
AcDbEntity
  8
0
  6
HIDDEN
 62
     7
370
     0
100
AcDbCircle
 10
67.9092931189
 20
142.1139761647
 30
0.0
 40
1.0
100
AcDbArc
 50
90.0
 51
150.0
  0
ARC
  5
163
330
1F
100
AcDbEntity
  8
0
  6
HIDDEN
 62
     7
370
     0
100
AcDbCircle
 10
84.701772832
 20
92.1139761647
 30
0.0
 40
11.99999999999999
100
AcDbArc
 50
273.4752677657
 51
324.3146652873
  0
ARC
  5
164
330
1F
100
AcDbEntity
  8
0
  6
HIDDEN
 62
     7
370
     0
100
AcDbCircle
 10
84.701772832
 20
131.1139761647
 30
0.0
 40
12.00000000000001
100
AcDbArc
 50
35.6853347127
 51
86.5206515763
  0
LINE
  5
165
330
1F
100
AcDbEntity
  8
0
  6
HIDDEN
 62
     7
370
     0
100
AcDbLine
 10
67.0432677151
 20
142.6139761647
 30
0.0
 11
64.4451915038
 21
138.1139761647
 31
0.0
  0
LINE
  5
166
330
1F
100
AcDbEntity
  8
0
  6
HIDDEN
 62
     7
370
     0
100
AcDbLine
 10
64.4451915038
 20
85.1139761647
 30
0.0
 11
67.0432677151
 21
80.6139761647
 31
0.0
  0
ARC
  5
167
330
1F
100
AcDbEntity
  8
0
  6
HIDDEN
 62
     7
370
     0
100
AcDbCircle
 10
104.8985671768
 20
86.7389761647
 30
0.0
 40
2.000000000000015
100
AcDbArc
 50
234.3409123039
 51
0.0
  0
ARC
  5
168
330
1F
100
AcDbEntity
  8
0
  6
HIDDEN
 62
     7
370
     0
100
AcDbCircle
 10
104.8985671768
 20
136.4889761647
 30
0.0
 40
2.000000000000026
100
AcDbArc
 50
0.0
 51
125.6590876961
  0
LINE
  5
169
330
1F
100
AcDbEntity
  8
0
  6
HIDDEN
 62
     7
370
     0
100
AcDbLine
 10
94.4485671768
 20
85.1139761647
 30
0.0
 11
103.7326447951
 21
85.1139761647
 31
0.0
  0
LINE
  5
16A
330
1F
100
AcDbEntity
  8
0
  6
HIDDEN
 62
     7
370
     0
100
AcDbLine
 10
103.7326447951
 20
138.1139761647
 30
0.0
 11
94.4485671768
 21
138.1139761647
 31
0.0
  0
LINE
  5
16B
330
1F
100
AcDbEntity
  8
0
  6
HIDDEN
 62
     7
370
     0
100
AcDbLine
 10
59.6485671768
 20
85.1139761647
 30
0.0
 11
64.4451915038
 21
85.1139761647
 31
0.0
  0
LINE
  5
16C
330
1F
100
AcDbEntity
  8
0
  6
HIDDEN
 62
     7
370
     0
100
AcDbLine
 10
64.4451915038
 20
138.1139761647
 30
0.0
 11
54.6485671768
 21
138.1139761647
 31
0.0
  0
LINE
  5
16D
330
1F
100
AcDbEntity
  8
0
  6
HIDDEN
 62
     7
370
     0
100
AcDbLine
 10
98.4485671768
 20
157.2911390468
 30
0.0
 11
98.4485671768
 21
153.5913899434
 31
0.0
  0
LINE
  5
16E
330
1F
100
AcDbEntity
  8
0
  6
HIDDEN
 62
     7
370
     0
100
AcDbLine
 10
108.4485671768
 20
153.5913899434
 30
0.0
 11
108.4485671768
 21
157.2897670976
 31
0.0
  0
LINE
  5
16F
330
1F
100
AcDbEntity
  8
0
  6
HIDDEN
 62
     7
370
     0
100
AcDbLine
 10
118.7485671768
 20
98.6139761647
 30
0.0
 11
122.7485671768
 21
98.6139761647
 31
0.0
  0
LINE
  5
170
330
1F
100
AcDbEntity
  8
0
  6
HIDDEN
 62
     7
370
     0
100
AcDbLine
 10
122.7485671768
 20
124.6139761647
 30
0.0
 11
118.7485671768
 21
124.6139761647
 31
0.0
  0
LINE
  5
171
330
1F
100
AcDbEntity
  8
0
  6
HIDDEN
 62
     7
370
     0
100
AcDbLine
 10
106.8985671768
 20
99.6139761647
 30
0.0
 11
107.6485671768
 21
100.3639761647
 31
0.0
  0
LINE
  5
172
330
1F
100
AcDbEntity
  8
0
  6
HIDDEN
 62
     7
370
     0
100
AcDbLine
 10
107.6485671768
 20
122.8639761647
 30
0.0
 11
106.8985671768
 21
123.6139761647
 31
0.0
  0
LINE
  5
173
330
1F
100
AcDbEntity
  8
0
  6
HIDDEN
 62
     7
370
     0
100
AcDbLine
 10
107.6485671768
 20
100.3639761647
 30
0.0
 11
118.7485671768
 21
100.3639761647
 31
0.0
  0
LINE
  5
174
330
1F
100
AcDbEntity
  8
0
  6
HIDDEN
 62
     7
370
     0
100
AcDbLine
 10
118.7485671768
 20
122.8639761647
 30
0.0
 11
107.6485671768
 21
122.8639761647
 31
0.0
  0
LINE
  5
175
330
1F
100
AcDbEntity
  8
0
  6
HIDDEN
 62
     7
370
     0
100
AcDbLine
 10
99.3985671768
 20
161.6139761647
 30
0.0
 11
99.3985671768
 21
155.5139761647
 31
0.0
  0
LINE
  5
176
330
1F
100
AcDbEntity
  8
0
  6
HIDDEN
 62
     7
370
     0
100
AcDbLine
 10
85.8812797928
 20
74.0356965941
 30
0.0
 11
85.4485705063
 21
74.5139213115
 31
0.0
  0
LINE
  5
177
330
1F
100
AcDbEntity
  8
0
  6
HIDDEN
 62
     7
370
     0
100
AcDbLine
 10
73.4485676348
 20
75.1608826681
 30
0.0
 11
72.9679403296
 21
74.6826579573
 31
0.0
  0
LINE
  5
178
330
1F
100
AcDbEntity
  8
0
  6
HIDDEN
 62
     7
370
     0
100
AcDbLine
 10
72.9678219881
 20
148.5452884559
 30
0.0
 11
73.4485674521
 21
148.0670087841
 31
0.0
  0
LINE
  5
179
330
1F
100
AcDbEntity
  8
0
  6
HIDDEN
 62
     7
370
     0
100
AcDbLine
 10
85.4485671789
 20
148.7139811714
 30
0.0
 11
85.8813888486
 21
149.1922608443
 31
0.0
  0
LINE
  5
17A
330
1F
100
AcDbEntity
  8
0
  6
HIDDEN
 62
     7
370
     0
100
AcDbLine
 10
85.4485671768
 20
143.0880410587
 30
0.0
 11
85.4485671768
 21
148.8139849974
 31
0.0
  0
LINE
  5
17B
330
1F
100
AcDbEntity
  8
0
  6
HIDDEN
 62
     7
370
     0
100
AcDbLine
 10
73.4485671768
 20
148.0669982848
 30
0.0
 11
73.4485671768
 21
143.1103853414
 31
0.0
  0
LINE
  5
17C
330
1F
100
AcDbEntity
  8
0
  6
HIDDEN
 62
     7
370
     0
100
AcDbLine
 10
85.4485671768
 20
74.4137924689
 30
0.0
 11
85.4485671768
 21
80.1399112707
 31
0.0
  0
LINE
  5
17D
330
1F
100
AcDbEntity
  8
0
  6
HIDDEN
 62
     7
370
     0
100
AcDbLine
 10
73.4485671768
 20
80.114960364
 30
0.0
 11
73.4485671768
 21
75.1609210826
 31
0.0
  0
LINE
  5
17E
330
1F
100
AcDbEntity
  8
0
  6
HIDDEN
 62
     7
370
     0
100
AcDbLine
 10
122.7485671768
 20
105.6139761647
 30
0.0
 11
154.5485671768
 21
105.6139761647
 31
0.0
  0
LINE
  5
17F
330
1F
100
AcDbEntity
  8
0
  6
HIDDEN
 62
     7
370
     0
100
AcDbLine
 10
154.5485671768
 20
117.6139761647
 30
0.0
 11
122.7485671768
 21
117.6139761647
 31
0.0
  0
LINE
  5
180
330
1F
100
AcDbEntity
  8
0
  6
HIDDEN
 62
     7
370
     0
100
AcDbLine
 10
154.5485671768
 20
105.6139761647
 30
0.0
 11
156.6515793434
 21
109.1139761647
 31
0.0
  0
LINE
  5
181
330
1F
100
AcDbEntity
  8
0
  6
HIDDEN
 62
     7
370
     0
100
AcDbLine
 10
156.6515793434
 20
114.1139761647
 30
0.0
 11
154.5485671768
 21
117.6139761647
 31
0.0
  0
ARC
  5
182
330
1F
100
AcDbEntity
  8
0
  6
HIDDEN
 62
     7
370
     0
100
AcDbCircle
 10
253.9485671768
 20
107.5772819166
 30
0.0
 40
0.5
100
AcDbArc
 50
360.0
 51
80.0
  0
ARC
  5
183
330
1F
100
AcDbEntity
  8
0
  6
HIDDEN
 62
     7
370
     0
100
AcDbCircle
 10
253.9485671768
 20
115.6506704127
 30
0.0
 40
0.5
100
AcDbArc
 50
280.0
 51
0.0
  0
LINE
  5
184
330
1F
100
AcDbEntity
  8
0
  6
HIDDEN
 62
     7
370
     0
100
AcDbLine
 10
254.0353912656
 20
115.1582665362
 30
0.0
 11
250.9485671768
 21
114.6139761647
 31
0.0
  0
LINE
  5
185
330
1F
100
AcDbEntity
  8
0
  6
HIDDEN
 62
     7
370
     0
100
AcDbLine
 10
250.9485671768
 20
108.6139761647
 30
0.0
 11
254.0353912656
 21
108.0696857931
 31
0.0
  0
LINE
  5
186
330
1F
100
AcDbEntity
  8
0
  6
HIDDEN
 62
     7
370
     0
100
AcDbLine
 10
221.4485671768
 20
108.3139761647
 30
0.0
 11
231.5537931586
 21
108.3139761647
 31
0.0
  0
LINE
  5
187
330
1F
100
AcDbEntity
  8
0
  6
HIDDEN
 62
     7
370
     0
100
AcDbLine
 10
218.3485671768
 20
108.3139761647
 30
0.0
 11
218.4526739976
 21
108.3139761647
 31
0.0
  0
LINE
  5
188
330
1F
100
AcDbEntity
  8
0
  6
HIDDEN
 62
     7
370
     0
100
AcDbLine
 10
218.449831368
 20
114.9139761647
 30
0.0
 11
218.3485671768
 21
114.9139761647
 31
0.0
  0
LINE
  5
189
330
1F
100
AcDbEntity
  8
0
  6
HIDDEN
 62
     7
370
     0
100
AcDbLine
 10
231.5537931586
 20
114.9139761647
 30
0.0
 11
221.4433638803
 21
114.9139761647
 31
0.0
  0
ARC
  5
18A
330
1F
100
AcDbEntity
  8
0
  6
HIDDEN
 62
     7
370
     0
100
AcDbCircle
 10
218.3485671768
 20
108.7139761647
 30
0.0
 40
0.4000000000000341
100
AcDbArc
 50
180.0
 51
270.0
  0
ARC
  5
18B
330
1F
100
AcDbEntity
  8
0
  6
HIDDEN
 62
     7
370
     0
100
AcDbCircle
 10
218.3485671768
 20
114.5139761647
 30
0.0
 40
0.4000000000000341
100
AcDbArc
 50
90.0
 51
180.0
  0
ARC
  5
18C
330
1F
100
AcDbEntity
  8
0
  6
HIDDEN
 62
     7
370
     0
100
AcDbCircle
 10
231.5537931586
 20
108.7139761647
 30
0.0
 40
0.4000000000000057
100
AcDbArc
 50
270.0
 51
290.0
  0
ARC
  5
18D
330
1F
100
AcDbEntity
  8
0
  6
HIDDEN
 62
     7
370
     0
100
AcDbCircle
 10
231.5537931586
 20
114.5139761647
 30
0.0
 40
0.4000000000000014
100
AcDbArc
 50
70.0
 51
90.0
  0
LINE
  5
18E
330
1F
100
AcDbEntity
  8
0
  6
HIDDEN
 62
     7
370
     0
100
AcDbLine
 10
231.690601216
 20
108.3380991164
 30
0.0
 11
232.4485671768
 21
108.6139761647
 31
0.0
  0
LINE
  5
18F
330
1F
100
AcDbEntity
  8
0
  6
HIDDEN
 62
     7
370
     0
100
AcDbLine
 10
232.4485671768
 20
114.6139761647
 30
0.0
 11
231.690601216
 21
114.889853213
 31
0.0
  0
LINE
  5
190
330
1F
100
AcDbEntity
  8
0
  6
HIDDEN
 62
     7
370
     0
100
AcDbLine
 10
166.8985671768
 20
96.6139761647
 30
0.0
 11
165.8985671768
 21
97.1913264339
 31
0.0
  0
LINE
  5
191
330
1F
100
AcDbEntity
  8
0
  6
HIDDEN
 62
     7
370
     0
100
AcDbLine
 10
160.8985671768
 20
97.1913264339
 30
0.0
 11
159.8985671768
 21
96.6139761647
 31
0.0
  0
LINE
  5
192
330
1F
100
AcDbEntity
  8
0
  6
HIDDEN
 62
     7
370
     0
100
AcDbLine
 10
159.8985671768
 20
126.6139761647
 30
0.0
 11
160.8985671768
 21
126.0366258955
 31
0.0
  0
LINE
  5
193
330
1F
100
AcDbEntity
  8
0
  6
HIDDEN
 62
     7
370
     0
100
AcDbLine
 10
165.8985671768
 20
126.0366258955
 30
0.0
 11
166.8985671768
 21
126.6139761647
 31
0.0
  0
LINE
  5
194
330
1F
100
AcDbEntity
  8
0
  6
HIDDEN
 62
     7
370
     0
100
AcDbLine
 10
232.4485671768
 20
108.6139761647
 30
0.0
 11
250.9485671768
 21
108.6139761647
 31
0.0
  0
LINE
  5
195
330
1F
100
AcDbEntity
  8
0
  6
HIDDEN
 62
     7
370
     0
100
AcDbLine
 10
250.9485671768
 20
114.6139761647
 30
0.0
 11
232.4485671768
 21
114.6139761647
 31
0.0
  0
LINE
  5
196
330
1F
100
AcDbEntity
  8
0
  6
HIDDEN
 62
     7
370
     0
100
AcDbLine
 10
160.8985671768
 20
126.0366258955
 30
0.0
 11
160.8985671768
 21
117.6139761647
 31
0.0
  0
LINE
  5
197
330
1F
100
AcDbEntity
  8
0
  6
HIDDEN
 62
     7
370
     0
100
AcDbLine
 10
165.8985671768
 20
117.6139761647
 30
0.0
 11
165.8985671768
 21
126.0366258955
 31
0.0
  0
LINE
  5
198
330
1F
100
AcDbEntity
  8
0
  6
HIDDEN
 62
     7
370
     0
100
AcDbLine
 10
201.5482229292
 20
109.1139761647
 30
0.0
 11
201.7885671768
 21
109.5139761647
 31
0.0
  0
LINE
  5
199
330
1F
100
AcDbEntity
  8
0
  6
HIDDEN
 62
     7
370
     0
100
AcDbLine
 10
201.7885671768
 20
113.7139761647
 30
0.0
 11
201.5482229292
 21
114.1139761647
 31
0.0
  0
LINE
  5
19A
330
1F
100
AcDbEntity
  8
0
  6
HIDDEN
 62
     7
370
     0
100
AcDbLine
 10
156.6515793434
 20
109.1139761647
 30
0.0
 11
201.5482229292
 21
109.1139761647
 31
0.0
  0
LINE
  5
19B
330
1F
100
AcDbEntity
  8
0
  6
HIDDEN
 62
     7
370
     0
100
AcDbLine
 10
201.5482229292
 20
114.1139761647
 30
0.0
 11
156.6515793434
 21
114.1139761647
 31
0.0
  0
LINE
  5
19C
330
1F
100
AcDbEntity
  8
0
  6
HIDDEN
 62
     7
370
     0
100
AcDbLine
 10
217.9485671768
 20
114.1139761647
 30
0.0
 11
217.5485671768
 21
113.7139761647
 31
0.0
  0
LINE
  5
19D
330
1F
100
AcDbEntity
  8
0
  6
HIDDEN
 62
     7
370
     0
100
AcDbLine
 10
217.5485671768
 20
109.5139761647
 30
0.0
 11
217.9485671768
 21
109.1139761647
 31
0.0
  0
LINE
  5
19E
330
1F
100
AcDbEntity
  8
0
  6
HIDDEN
 62
     7
370
     0
100
AcDbLine
 10
160.8985671768
 20
117.6139761647
 30
0.0
 11
163.3985671768
 21
116.1118246171
 31
0.0
  0
LINE
  5
19F
330
1F
100
AcDbEntity
  8
0
  6
HIDDEN
 62
     7
370
     0
100
AcDbLine
 10
163.3985671768
 20
116.1118246171
 30
0.0
 11
165.8985671768
 21
117.6139761647
 31
0.0
  0
LINE
  5
1A0
330
1F
100
AcDbEntity
  8
0
  6
HIDDEN
 62
     7
370
     0
100
AcDbLine
 10
165.8985671768
 20
97.1913264339
 30
0.0
 11
165.8985671768
 21
105.6139761647
 31
0.0
  0
LINE
  5
1A1
330
1F
100
AcDbEntity
  8
0
  6
HIDDEN
 62
     7
370
     0
100
AcDbLine
 10
160.8985671768
 20
105.6139761647
 30
0.0
 11
160.8985671768
 21
97.1913264339
 31
0.0
  0
LINE
  5
1A2
330
1F
100
AcDbEntity
  8
0
  6
HIDDEN
 62
     7
370
     0
100
AcDbLine
 10
165.8985671768
 20
105.6139761647
 30
0.0
 11
163.3985671768
 21
107.1161277122
 31
0.0
  0
LINE
  5
1A3
330
1F
100
AcDbEntity
  8
0
  6
HIDDEN
 62
     7
370
     0
100
AcDbLine
 10
163.3985671768
 20
107.1161277122
 30
0.0
 11
160.8985671768
 21
105.6139761647
 31
0.0
  0
LINE
  5
1A4
330
1F
100
AcDbEntity
  8
0
  6
HIDDEN
 62
     7
370
     0
100
AcDbLine
 10
201.7885671768
 20
109.5139761647
 30
0.0
 11
217.5485671768
 21
109.5139761647
 31
0.0
  0
LINE
  5
1A5
330
1F
100
AcDbEntity
  8
0
  6
HIDDEN
 62
     7
370
     0
100
AcDbLine
 10
217.5485671768
 20
113.7139761647
 30
0.0
 11
201.7885671768
 21
113.7139761647
 31
0.0
  0
LINE
  5
1A6
330
1F
100
AcDbEntity
  8
0
  6
HIDDEN
 62
     7
370
     0
100
AcDbLine
 10
218.4485671768
 20
108.3158364436
 30
0.0
 11
218.4485671768
 21
104.9382738877
 31
0.0
  0
LINE
  5
1A7
330
1F
100
AcDbEntity
  8
0
  6
HIDDEN
 62
     7
370
     0
100
AcDbLine
 10
221.4485671768
 20
105.0649708955
 30
0.0
 11
221.4485671768
 21
108.3139761647
 31
0.0
  0
LINE
  5
1A8
330
1F
100
AcDbEntity
  8
0
  6
HIDDEN
 62
     7
370
     0
100
AcDbLine
 10
218.4485671768
 20
118.2897039691
 30
0.0
 11
218.4485671768
 21
114.9134059558
 31
0.0
  0
LINE
  5
1A9
330
1F
100
AcDbEntity
  8
0
  6
HIDDEN
 62
     7
370
     0
100
AcDbLine
 10
221.4485671768
 20
114.9116152962
 30
0.0
 11
221.4485671768
 21
118.1595852477
 31
0.0
  0
LINE
  5
1AA
330
1F
100
AcDbEntity
  8
0
  6
HIDDEN
 62
     7
370
     0
100
AcDbLine
 10
219.4903713498
 20
102.4879970644
 30
0.0
 11
219.9485671768
 21
102.2126852361
 31
0.0
  0
LINE
  5
1AB
330
1F
100
AcDbEntity
  8
0
  6
HIDDEN
 62
     7
370
     0
100
AcDbLine
 10
219.9485671768
 20
102.2126852361
 30
0.0
 11
220.4722494397
 21
102.5273452848
 31
0.0
  0
LINE
  5
1AC
330
1F
100
AcDbEntity
  8
0
  6
HIDDEN
 62
     7
370
     0
100
AcDbLine
 10
218.5253966418
 20
102.4515865021
 30
0.0
 11
219.4977717704
 21
102.4897912249
 31
0.0
  0
LINE
  5
1AD
330
1F
100
AcDbEntity
  8
0
  6
HIDDEN
 62
     7
370
     0
100
AcDbLine
 10
220.3699640255
 20
102.5240597519
 30
0.0
 11
254.4485671768
 21
103.8630117164
 31
0.0
  0
LINE
  5
1AE
330
1F
100
AcDbEntity
  8
0
  6
HIDDEN
 62
     7
370
     0
100
AcDbLine
 10
254.4485671768
 20
106.3649406129
 30
0.0
 11
221.445700926
 21
105.0682544664
 31
0.0
  0
LINE
  5
1AF
330
1F
100
AcDbEntity
  8
0
  6
HIDDEN
 62
     7
370
     0
100
AcDbLine
 10
221.4485671768
 20
118.1595852477
 30
0.0
 11
254.4485671768
 21
116.8630117164
 31
0.0
  0
LINE
  5
1B0
330
1F
100
AcDbEntity
  8
0
  6
HIDDEN
 62
     7
370
     0
100
AcDbLine
 10
254.4485671768
 20
119.3649406129
 30
0.0
 11
221.4455124801
 21
120.6616341635
 31
0.0
  0
LINE
  5
1B1
330
1F
100
AcDbEntity
  8
0
  6
HIDDEN
 62
     7
370
     0
100
AcDbLine
 10
218.4272471024
 20
104.9496590927
 30
0.0
 11
217.7258251505
 21
103.6711357009
 31
0.0
  0
LINE
  5
1B2
330
1F
100
AcDbEntity
  8
0
  6
HIDDEN
 62
     7
370
     0
100
AcDbLine
 10
217.7258251505
 20
103.6711357009
 30
0.0
 11
218.5253966418
 21
102.4515865021
 31
0.0
  0
LINE
  5
1B3
330
1F
100
AcDbEntity
  8
0
  6
HIDDEN
 62
     7
370
     0
100
AcDbLine
 10
218.4511726516
 20
120.663155428
 30
0.0
 11
217.7258251505
 21
119.5568166285
 31
0.0
  0
LINE
  5
1B4
330
1F
100
AcDbEntity
  8
0
  6
HIDDEN
 62
     7
370
     0
100
AcDbLine
 10
217.7258251505
 20
119.5568166285
 30
0.0
 11
218.4272471024
 21
118.2782932367
 31
0.0
  0
LINE
  5
1B5
330
1F
100
AcDbEntity
  8
0
  6
HIDDEN
 62
     7
370
     0
100
AcDbLine
 10
218.4485671768
 20
120.6611497943
 30
0.0
 11
218.4485671768
 21
120.6139761647
 31
0.0
  0
LINE
  5
1B6
330
1F
100
AcDbEntity
  8
0
  6
HIDDEN
 62
     7
370
     0
100
AcDbLine
 10
98.4485671768
 20
159.1666874627
 30
0.0
 11
98.4485671768
 21
157.2911390468
 31
0.0
  0
LINE
  5
1B7
330
1F
100
AcDbEntity
  8
0
  6
HIDDEN
 62
     7
370
     0
100
AcDbLine
 10
108.4485671768
 20
157.2897670976
 30
0.0
 11
108.4485671768
 21
159.1652591799
 31
0.0
  0
DIMENSION
  5
1B8
330
1F
100
AcDbEntity
  8
VERMASSUNG
100
AcDbDimension
  2
*D1
 10
39.8915492958
 20
61.6139761647
 30
0.0
 11
39.8915492958
 21
111.6139761647
 31
0.0
 70
   160
  1
HSK A %%c<>
 71
     2
 42
-1.0
  3
SLDDIMSTYLE0
100
AcDbAlignedDimension
 13
94.9485671768
 23
161.6139761647
 33
0.0
 14
94.9485671768
 24
61.6139761647
 34
0.0
 50
90.0
100
AcDbRotatedDimension
  0
DIMENSION
  5
1C5
330
1F
100
AcDbEntity
  8
VERMASSUNG
100
AcDbDimension
  2
*D2
 10
254.4485671768
 20
160.1860888407
 30
0.0
 11
236.1985671768
 21
160.1860888407
 31
0.0
 70
   160
 71
     2
 42
-1.0
  3
SLDDIMSTYLE1
100
AcDbAlignedDimension
 13
217.9485671768
 23
114.5139761647
 33
0.0
 14
254.4485671768
 24
120.2651951814
 34
0.0
 50
0.0
100
AcDbRotatedDimension
  0
DIMENSION
  5
1D0
330
1F
100
AcDbEntity
  8
VERMASSUNG
100
AcDbDimension
  2
*D3
 10
258.732936078
 20
114.6139761647
 30
0.0
 11
258.732936078
 21
111.6139761647
 31
0.0
 70
   160
  1
%%c<> 
 71
     2
 42
-1.0
  3
SLDDIMSTYLE2
100
AcDbAlignedDimension
 13
250.9485671768
 23
108.6139761647
 33
0.0
 14
250.9485671768
 24
114.6139761647
 34
0.0
 50
90.0
100
AcDbRotatedDimension
  0
DIMENSION
  5
1DF
330
1F
100
AcDbEntity
  8
VERMASSUNG
100
AcDbDimension
  2
*D4
 10
266.7735469412
 20
122.1139761647
 30
0.0
 11
266.7735469412
 21
111.6139761647
 31
0.0
 70
   160
  1
%%c<>
 71
     2
 42
-1.0
  3
SLDDIMSTYLE3
100
AcDbAlignedDimension
 13
254.4485671768
 23
101.1139761647
 33
0.0
 14
254.4485671768
 24
122.1139761647
 34
0.0
 50
90.0
100
AcDbRotatedDimension
  0
DIMENSION
  5
1EB
330
1F
100
AcDbEntity
  8
VERMASSUNG
100
AcDbDimension
  2
*D5
 10
254.4485671768
 20
172.1860888407
 30
0.0
 11
174.4485671768
 21
172.1860888407
 31
0.0
 70
   160
 71
     2
 42
-1.0
  3
SLDDIMSTYLE0
100
AcDbAlignedDimension
 13
94.4485671768
 23
161.1139761647
 33
0.0
 14
254.4485671768
 24
120.2651951814
 34
0.0
100
AcDbRotatedDimension
  0
DIMENSION
  5
1F5
330
1F
100
AcDbEntity
  8
VERMASSUNG
100
AcDbDimension
  2
*D6
 10
123.3985671768
 20
166.1860888407
 30
0.0
 11
188.9235671768
 21
166.1860888407
 31
0.0
 70
   160
 71
     2
 42
-1.0
  3
SLDDIMSTYLE0
100
AcDbAlignedDimension
 13
254.4485671768
 23
120.2651951814
 33
0.0
 14
123.3985671768
 24
159.5827159855
 34
0.0
100
AcDbRotatedDimension
  0
DIMENSION
  5
1FF
330
1F
100
AcDbEntity
  8
VERMASSUNG
100
AcDbDimension
  2
*D7
 10
44.5485671768
 20
178.1860888407
 30
0.0
 11
149.4985671768
 21
178.1860888407
 31
0.0
 70
   160
 71
     2
 42
-1.0
  3
SLDDIMSTYLE0
100
AcDbAlignedDimension
 13
254.4485671768
 23
120.2651951814
 33
0.0
 14
44.5485671768
 24
142.1166459072
 34
0.0
100
AcDbRotatedDimension
  0
DIMENSION
  5
209
330
1F
100
AcDbEntity
  8
VERMASSUNG
100
AcDbDimension
  2
*D8
 10
276.5584568971
 20
96.6139761647
 30
0.0
 11
276.5584568971
 21
111.6139761647
 31
0.0
 70
   160
  1
%%c<>
 71
     2
 42
-1.0
  3
SLDDIMSTYLE0
100
AcDbAlignedDimension
 13
172.3985671768
 23
126.6139761647
 33
0.0
 14
172.3985671768
 24
96.6139761647
 34
0.0
 50
90.0
100
AcDbRotatedDimension
  0
LINE
  5
214
330
1F
100
AcDbEntity
  8
VERMASSUNG
  6
CENTERX2
370
     0
100
AcDbLine
 10
42.2980978158
 20
111.6139761647
 30
0.0
 11
256.1801733478
 21
111.6139761647
 31
0.0
  0
OLE2FRAME
  5
215
330
1F
100
AcDbEntity
  8
0
100
AcDbOle2Frame
 70
     2
  3
Bitmap Image
 10
13.8511154363
 20
38.264191557
 30
0.0
 11
51.6290888628
 21
31.9806341108
 31
0.0
 71
     2
 72
     0
 73
     1
 90
    12928
310
80552BED0767C5B32B40DDAF6807D121434000000000000000006FFBDDFB85D0
310
4940DDAF6807D121434000000000000000006FFBDDFB85D04940416F4BD60AFB
310
3F4000000000000000002BED0767C5B32B40416F4BD60AFB3F40000000000000
310
0000000000000100000000010000010000000100000000000100000000320000
310
D0CF11E0A1B11AE1000000000000000000000000000000003E000300FEFF0900
310
0600000000000000000000000100000001000000000000000010000002000000
310
01000000FEFFFFFF0000000000000000FFFFFFFFFFFFFFFFFFFFFFFFFFFFFFFF
310
FFFFFFFFFFFFFFFFFFFFFFFFFFFFFFFFFFFFFFFFFFFFFFFFFFFFFFFFFFFFFFFF
310
FFFFFFFFFFFFFFFFFFFFFFFFFFFFFFFFFFFFFFFFFFFFFFFFFFFFFFFFFFFFFFFF
310
FFFFFFFFFFFFFFFFFFFFFFFFFFFFFFFFFFFFFFFFFFFFFFFFFFFFFFFFFFFFFFFF
310
FFFFFFFFFFFFFFFFFFFFFFFFFFFFFFFFFFFFFFFFFFFFFFFFFFFFFFFFFFFFFFFF
310
FFFFFFFFFFFFFFFFFFFFFFFFFFFFFFFFFFFFFFFFFFFFFFFFFFFFFFFFFFFFFFFF
310
FFFFFFFFFFFFFFFFFFFFFFFFFFFFFFFFFFFFFFFFFFFFFFFFFFFFFFFFFFFFFFFF
310
FFFFFFFFFFFFFFFFFFFFFFFFFFFFFFFFFFFFFFFFFFFFFFFFFFFFFFFFFFFFFFFF
310
FFFFFFFFFFFFFFFFFFFFFFFFFFFFFFFFFFFFFFFFFFFFFFFFFFFFFFFFFFFFFFFF
310
FFFFFFFFFFFFFFFFFFFFFFFFFFFFFFFFFFFFFFFFFFFFFFFFFFFFFFFFFFFFFFFF
310
FFFFFFFFFFFFFFFFFFFFFFFFFFFFFFFFFFFFFFFFFFFFFFFFFFFFFFFFFFFFFFFF
310
FFFFFFFFFFFFFFFFFFFFFFFFFFFFFFFFFFFFFFFFFFFFFFFFFFFFFFFFFFFFFFFF
310
FFFFFFFFFFFFFFFFFFFFFFFFFFFFFFFFFFFFFFFFFFFFFFFFFFFFFFFFFFFFFFFF
310
FFFFFFFFFFFFFFFFFFFFFFFFFFFFFFFFFFFFFFFFFFFFFFFFFFFFFFFFFFFFFFFF
310
FDFFFFFFFEFFFFFFFEFFFFFFFEFFFFFF05000000060000000700000008000000
310
090000000A0000000B0000000C0000000D0000000E0000000F00000010000000
310
11000000120000001300000014000000150000001600000017000000FEFFFFFF
310
FFFFFFFFFFFFFFFFFFFFFFFFFFFFFFFFFFFFFFFFFFFFFFFFFFFFFFFFFFFFFFFF
310
FFFFFFFFFFFFFFFFFFFFFFFFFFFFFFFFFFFFFFFFFFFFFFFFFFFFFFFFFFFFFFFF
310
FFFFFFFFFFFFFFFFFFFFFFFFFFFFFFFFFFFFFFFFFFFFFFFFFFFFFFFFFFFFFFFF
310
FFFFFFFFFFFFFFFFFFFFFFFFFFFFFFFFFFFFFFFFFFFFFFFFFFFFFFFFFFFFFFFF
310
FFFFFFFFFFFFFFFFFFFFFFFFFFFFFFFFFFFFFFFFFFFFFFFFFFFFFFFFFFFFFFFF
310
FFFFFFFFFFFFFFFFFFFFFFFFFFFFFFFFFFFFFFFFFFFFFFFFFFFFFFFFFFFFFFFF
310
FFFFFFFFFFFFFFFFFFFFFFFFFFFFFFFFFFFFFFFFFFFFFFFFFFFFFFFFFFFFFFFF
310
FFFFFFFFFFFFFFFFFFFFFFFFFFFFFFFFFFFFFFFFFFFFFFFFFFFFFFFFFFFFFFFF
310
FFFFFFFFFFFFFFFFFFFFFFFFFFFFFFFFFFFFFFFFFFFFFFFFFFFFFFFFFFFFFFFF
310
FFFFFFFFFFFFFFFFFFFFFFFFFFFFFFFFFFFFFFFFFFFFFFFFFFFFFFFFFFFFFFFF
310
FFFFFFFFFFFFFFFFFFFFFFFFFFFFFFFFFFFFFFFFFFFFFFFFFFFFFFFFFFFFFFFF
310
FFFFFFFFFFFFFFFFFFFFFFFFFFFFFFFFFFFFFFFFFFFFFFFFFFFFFFFFFFFFFFFF
310
FFFFFFFFFFFFFFFFFFFFFFFFFFFFFFFFFFFFFFFFFFFFFFFFFFFFFFFFFFFFFFFF
310
52006F006F007400200045006E00740072007900000000000000000000000000
310
0000000000000000000000000000000000000000000000000000000000000000
310
16000500FFFFFFFFFFFFFFFF020000000A00030000000000C000000000000046
310
000000000000000000000000609BEDF48A05CC0103000000C000000000000000
310
01004F006C006500000000000000000000000000000000000000000000000000
310
0000000000000000000000000000000000000000000000000000000000000000
310
0A000200FFFFFFFFFFFFFFFFFFFFFFFF00000000000000000000000000000000
310
0000000000000000000000000000000000000000000000001400000000000000
310
010043006F006D0070004F0062006A0000000000000000000000000000000000
310
0000000000000000000000000000000000000000000000000000000000000000
310
120002010100000003000000FFFFFFFF00000000000000000000000000000000
310
0000000000000000000000000000000000000000010000004D00000000000000
310
01004F006C006500310030004E00610074006900760065000000000000000000
310
0000000000000000000000000000000000000000000000000000000000000000
310
1A000200FFFFFFFFFFFFFFFFFFFFFFFF00000000000000000000000000000000
310
0000000000000000000000000000000000000000040000002426000000000000
310
FEFFFFFF02000000FEFFFFFFFFFFFFFFFFFFFFFFFFFFFFFFFFFFFFFFFFFFFFFF
310
FFFFFFFFFFFFFFFFFFFFFFFFFFFFFFFFFFFFFFFFFFFFFFFFFFFFFFFFFFFFFFFF
310
FFFFFFFFFFFFFFFFFFFFFFFFFFFFFFFFFFFFFFFFFFFFFFFFFFFFFFFFFFFFFFFF
310
FFFFFFFFFFFFFFFFFFFFFFFFFFFFFFFFFFFFFFFFFFFFFFFFFFFFFFFFFFFFFFFF
310
FFFFFFFFFFFFFFFFFFFFFFFFFFFFFFFFFFFFFFFFFFFFFFFFFFFFFFFFFFFFFFFF
310
FFFFFFFFFFFFFFFFFFFFFFFFFFFFFFFFFFFFFFFFFFFFFFFFFFFFFFFFFFFFFFFF
310
FFFFFFFFFFFFFFFFFFFFFFFFFFFFFFFFFFFFFFFFFFFFFFFFFFFFFFFFFFFFFFFF
310
FFFFFFFFFFFFFFFFFFFFFFFFFFFFFFFFFFFFFFFFFFFFFFFFFFFFFFFFFFFFFFFF
310
FFFFFFFFFFFFFFFFFFFFFFFFFFFFFFFFFFFFFFFFFFFFFFFFFFFFFFFFFFFFFFFF
310
FFFFFFFFFFFFFFFFFFFFFFFFFFFFFFFFFFFFFFFFFFFFFFFFFFFFFFFFFFFFFFFF
310
FFFFFFFFFFFFFFFFFFFFFFFFFFFFFFFFFFFFFFFFFFFFFFFFFFFFFFFFFFFFFFFF
310
FFFFFFFFFFFFFFFFFFFFFFFFFFFFFFFFFFFFFFFFFFFFFFFFFFFFFFFFFFFFFFFF
310
FFFFFFFFFFFFFFFFFFFFFFFFFFFFFFFFFFFFFFFFFFFFFFFFFFFFFFFFFFFFFFFF
310
FFFFFFFFFFFFFFFFFFFFFFFFFFFFFFFFFFFFFFFFFFFFFFFFFFFFFFFFFFFFFFFF
310
FFFFFFFFFFFFFFFFFFFFFFFFFFFFFFFFFFFFFFFFFFFFFFFFFFFFFFFFFFFFFFFF
310
FFFFFFFFFFFFFFFFFFFFFFFFFFFFFFFFFFFFFFFFFFFFFFFFFFFFFFFFFFFFFFFF
310
010000020000000000000000000000000000000061006D007000000000000000
310
0000000000000000000000000000000000000000000000000000000000000000
310
0100FEFF030A0000FFFFFFFF0A00030000000000C00000000000004607000000
310
5042727573680007000000504272757368000700000050427275736800F439B2
310
71000000000000000000000000004C0069007300740073005F005F005A004C00
310
4200000000000000000000000000000000000000000000000000000000000000
310
24000200FFFFFFFFFFFFFFFFFFFFFFFF00000000000000000000000000000000
310
00000000000000000000000000000000000000006F0000004FC8030000000000
310
4F006C0065004900740065006D00730000000000000000000000000000000000
310
0000000000000000000000000000000000000000000000000000000000000000
310
12000201180000001B000000FFFFFFFF00000000000000000000000000000000
310
00000000000000000000000000000000000000007E0000000400000000000000
310
43004D0067007200000000000000000000000000000000000000000000000000
310
0000000000000000000000000000000000000000000000000000000000000000
310
0A000201FFFFFFFFFFFFFFFFFFFFFFFF00000000000000000000000000000000
310
00000000000000000000000000000000000000006A0000006535000000000000
310
20260000424D0E260000000000003E00000028000000B40200006E0000000100
310
01000000000000000000130B0000130B00000200000002000000000000FFFFFF
310
FFFFFFFFFFFFFFFFFFFFFFFFFFFFFFFFFFFFFFFFFFFFFFFFFFFFFFFFFFFFFFFF
310
FFFFFFFFFFFFFFFFFFFFFFFFFFFFFFFFFFFFFFFFFFFFFFFFFFFFFFFFFFFFFFFF
310
FFFFFFFFFFFFFFFFFFFFFFFFFFFFFFFFFFFFFFFFFFFFFFFFF000FFFFFFFFFFFF
310
FFFFFFFFFFFFFFFFFFFFFFFFFFFFFFFFFFFFFFFFFFFFFFFFFFFFFFFFFFFFFFFF
310
FFFFFFFFFFFFFFFFFFFFFFFFFFFFFFFFFFFFFFFFFFFFFFFFFFFFFFFFFFFFFFFF
310
FFFFFFFFFFFFFFFFFFFFFFFFFFFFFFFFF000FFFFFFFFFFFFFFFFFFFFFFFFFFFF
310
FFFFFFFFFFFFFFFFFFFFFFFFFFFFFFFFFFFFFFFFFFFFFFFFFFFFFFFFFFFFFFFF
310
FFFFFFFFFFFFFFFFFFFFFFFFFFFFFFFFFFFFFFFFFFFFFFFFFFFFFFFFFFFFFFFF
310
FFFFFFFFFFFFFFFFF000FFFFFFFFFFFFFFFFFFFFFFFFFFFFFFFFFFFFFFFFFFFF
310
FFFFFFFFFFFFFFFFFFFFFFFFFFFFFFFFFFFFFFFFFFFFFFFFFFFFFFFFFFFFFFFF
310
FFFFFFFFFFFFFFFFFFFFFFFFFFFFFFFFFFFFFFFFFFFFFFFFFFFFFFFFFFFFFFFF
310
F000FFFFFFFFFFFFFFFFFFFFFFFFFFFFFFFFFFFFFFFFFFFFFFFFFFFFFFFFFFFF
310
FFFFFFFFFFFFFFFFFFFFFFFFFFFFFFFFFFFFFFFFFFFFFFFFFFFFFFFFFFFFFFFF
310
FFFFFFFFFFFFFFFFFFFFFFFFFFFFFFFFFFFFFFFFFFFFFFFFF000FFFFFFFFFFFF
310
FFFFFFFFFFFFFFFFFFFFFFFFFFFFFFFFFFFFFFFFFFFFFFFFFFFFFFFFFFFFFFFF
310
FFFFFFFFFFFFFFFFFFFFFFFFFFFFFFFFFFFFFFFFFFFFFFFFFFFFFFFFFFFFFFFF
310
FFFFFFFFFFFFFFFFFFFFFFFFFFFFFFFFF000FFFFFFFFFFFFFFFFFFFFFFFFFFFF
310
FFFFFFFFFFFFFFFFFFFFFFFFFFFFFFFFFFFFFFFFFFFFFFFFFFFFFFFFFFFFFFFF
310
FFFFFFFFFFFFFFFFFFFFFFFFFFFFFFFFFFFFFFFFFFFFFFFFFFFFFFFFFFFFFFFF
310
FFFFFFFFFFFFFFFFF000FFFFFFFFFFFFFFFFFFFFFFFFFFFFFFFFFFFFFFFFFFFF
310
FFFFFFFFFFFFFFFFFFFFFFFFFFFFFFFFFFFFFFFFFFFFFFFFFFFFFFFFFFFFFFFF
310
FFFFFFFFFFFFFFFFFFFFFFFFFFFFFFFFFFFFFFFFFFFFFFFFFFFFFFFFFFFFFFFF
310
F000FFFFFFFFFFFFFFFFFFFFFFFFFFFFFFFFFFFFFFFFFFFFFFFFFFFFFFFFFFFF
310
FFFFFFFFFFFFFFFFFFFFFFFFFFFFFFFFFFFFFFFFFFFFFFFFFFFFFFFFFFFFFFFF
310
FFFFFFFFFFFFFFFFFFFFFFFFFFFFFFFFFFFFFFFFFFFFFFFFF000FFFFFFFFFFFF
310
FFFFFFFFFFFFFFFFFFFFFFFFFFFFFFFFFFFFFFFFFFFFFFFFFFFFFFFFFFFFFFFF
310
FFFFFFFFFFFFFFFFFFFFFFFFFFFFFFFFFFFFFFFFFFFFFFFFFFFFFFFFFFFFFFFF
310
FFFFFFFFFFFFFFFFFFFFFFFFFFFFFFFFF000FFFFFFFFFFFFFFFFFFFFFFFFFFFF
310
FFFFFFFFFFFFFFFFFFFFFFFFFFFFFFFFFFFFFFFFFFFFFFFFFFFFFFFFFFFFFFFF
310
FFFFFFFFFFFFFFFFFFFFFFFFFFFFFFFFFFFFFFFFFFFFFFFFFFFFFFFFFFFFFFFF
310
FFFFFFFFFFFFFFFFF000FFFFFFFFFFFFFFFFFFFFFFFFFFFFFFFFFFFFFFFFFFFF
310
FFFFFFFFFFFFFFFFFFFFFFFFFFFFFFFFFFFFFFFFFFFFFFFFFFFFFFFFFFFFFFFF
310
FFFFFFFFFFFFFFFFFFFFFFFFFFFFFFFFFFFFFFFFFFFFFFFFFFFFFFFFFFFFFFFF
310
F000FFFFFFFFFFFFFFFFFFFFFFFFFFFFFFFFFFFFFFFFFFFFFFFFFFFFFFFFFFFF
310
FFFFFFFFFFFFFFFFFFFFFFFFFFFFFFFFFFFFFFFFFFFFFFFFFFFFFFFFFFFFFFFF
310
FFFFFFFFFFFFFFFFFFFFFFFFFFFFFFFFFFFFFFFFFFFFFFFFF000FFFFFFFFFFFF
310
FFFFFFFFFFFFFFFFFFFFFFFFFFFFFFFFFFFFFFFFFFFFFFFFFFFFFFFFFFFFFFFF
310
FFFFFFFFFFFFFFFFFFFFFFFFFFFFFFFFFFFFFFFFFFFFFFFFFFFFFFFFFFFFFFFF
310
FFFFFFFFFFFFFFFFFFFFFFFFFFFFFFFFF000FFFFFFFFFFFFFFFFFFFFFFFFFFFF
310
FFFFFFFFFFFFFFFFFFFFFFFFFFFFFFFFFFFFFFFFFFFFFFFFFFFFFFFFFFFFFFFF
310
FFFFFFFFFFFFFFFFFFFFFFFFFFFFFFFFFFFFFFFFFFFFFFFFFFFFFFFFFFFFFFFF
310
FFFFFFFFFFFFFFFFF000FFFFFFFFFFFFFFFFFFFFFFFFFFFFFFFFFFFFFFFFFFFF
310
FFFFFFFFFFFFFFFFFFFFFFFFFFFFFFFFFFFFFFFFFFFFFFFFFFFFFFFFFFFFFFFF
310
FFFFFFFFFFFFFFFFFFFFFFFFFFFFFFFFFFFFFFFFFFFFFFFFFFFFFFFFFFFFFFFF
310
F000FFFFFFFFFFFFFFFFFFFFFFFFFFFFFFFFFFFFFFFFFFFFFFFFFFFFFFFFFFFF
310
FFFFFFFFFFFFFFFFFFFFFFFFFFFFFFFFFFFFFFFFFFFFFFFFFFFFFFFFFFFFFFFF
310
FFFFFFFFFFFFFFFFFFFFFFFFFFFFFFFFFFFFFFFFFFFFFFFFF000FFFFFFFFFFFF
310
FFFFFFFFFFFFFFFFFFFFFFFFFFFFFFFFFFFFFFFFFFFFFFFFFFFFFFFFFFFFFFFF
310
FFFFFFFFFFFFFFFFFFFFFFFFFFFFFFFFFFFFFFFFFFFFFFFFFFFFFFFFFFFFFFFF
310
FFFFFFFFFFFFFFFFFFFFFFFFFFFFFFFFF000FFFFFFFFFFFFFFFFFFFFFFFFFFFF
310
FFFFFFFFFFFFFFFFFFFFFFFFFFFFFFFFFFFFFFFFFFFFFFFFFFFFFFFFFFFFFFFF
310
FFFFFFFFFFFFFFFFFFFFFFFFFFFFFFFFFFFFFFFFFFFFFFFFFFFFFFFFFFFFFFFF
310
FFFFFFFFFFFFFFFFF000FFFFF80003FFFFFFFFFFFFFFFFFFFFFFFFFFFFFFFFFF
310
FFFFF00007FFFFFFFFFF00007FFFFFF800000000000000007FFFFFFFFFFFFFFF
310
FFFFFFFC001FFFFFFFFFFFFFFC001FFFFFFFFFFFFFFFFFFFFFFFFFFE0007FFFF
310
F000FFFF8000007FFFFFFFF8000FFFFFC0007FFFFF80007FFFFF0000007FFFFF
310
FFF8000007FFFFF800000000000000007FFFFFF0001FFFFFFFFFFFC00001FFFF
310
FFFFFFFFC00001FFFFFFFF000000000003FFFFE000007FFFF000FFFE0000000F
310
FFFFFFF0000FFFFF80007FFFFF80007FFFFC0000001FFFFFFFC0000001FFFFF8
310
00000000000000007FFFFFF0001FFFFFFFFFFE0000003FFFFFFFFFFE0000003F
310
FFFFFF000000000003FFFF0000000FFFF000FFF800000003FFFFFFF00007FFFF
310
80007FFFFF80007FFFF000000007FFFFFF000000003FFFF80000000000000000
310
7FFFFFF0001FFFFFFFFFF80000000FFFFFFFFFF80000000FFFFFFF0000000000
310
03FFFC00000003FFF000FFE000000000FFFFFFF00007FFFF80003FFFFF80007F
310
FFC000000001FFFFFC000000001FFFF800000000000000007FFFFFF0001FFFFF
310
FFFFE000000003FFFFFFFFE000000003FFFFFF000000000003FFF000000000FF
310
F000FF80000000007FFFFFF00007FFFF80003FFFFF80007FFF8000000000FFFF
310
F80000000007FFF800000000000000007FFFFFF0001FFFFFFFFFC000000001FF
310
FFFFFFC000000001FFFFFF000000000003FFC0000000007FF000FF0000000000
310
3FFFFFE00007FFFF00003FFFFF80007FFE00000000003FFFF00000000003FFF8
310
00000000000000007FFFFFF0001FFFFFFFFF8000000000FFFFFFFF8000000000
310
FFFFFF000000000003FF80000000003FF000FE00000000001FFFFFE00003FFFF
310
00003FFFFF80007FFC00000000001FFFE00000000001FFF8000001FFFE000000
310
7FFFFFF0001FFFFFFFFE00000000003FFFFFFE00000000003FFFFF0000000000
310
03FF00000000001FF000FC00000000000FFFFFE00003FFFF00001FFFFF80007F
310
F800000000001FFFC00000000000FFF8000001FFFE0000007FFFFFF0001FFFFF
310
FFFC00000000001FFFFFFC00000000001FFFFF000000000003FE00000000000F
310
F000F8000000000007FFFFE00003FFFF00001FFFFF80007FF800000000000FFF
310
800000000000FFF8000001FFFE0000007FFFFFF0001FFFFFFFF800000000000F
310
FFFFF800000000000FFFFF000000000003FC000000000007F000F80000000000
310
03FFFFC00003FFFE00001FFFFF80007FF0000000000007FF0000000000007FF8
310
000001FFFE0000007FFFFFF0001FFFFFFFF0000000000007FFFFF00000000000
310
07FFFF000000000003F8000000000003F000F0000000000003FFFFC00001FFFE
310
00001FFFFF80007FE0000000000007FE0000000000003FF8000001FFFE000000
310
7FFFFFF0001FFFFFFFF0000000000007FFFFF0000000000007FFFF0000000000
310
03F800001F800003F000E00001FFF00001FFFFC00001FFFE00000FFFFF80007F
310
E00001FFE00003FE00001FFF00003FF8000001FFFE0000007FFFFFF0001FFFFF
310
FFE000003E000003FFFFE000003E000003FFFF000000000003F00001FFF80001
310
F000E00007FFFC0001FFFFC00001FFFE00000FFFFF80007FC0000FFFFC0003FC
310
0000FFFFC0001FF8000001FFFE0000007FFFFFF0001FFFFFFFC00003FFE00001
310
FFFFC00003FFE00001FFFF0001FFFFFFFFF00007FFFE0001F000E0000FFFFF00
310
00FFFF800001FFFC00000FFFFF80007FC0001FFFFE0001FC0001FFFFE0001FF8
310
000001FFFE0000007FFFFFF0001FFFFFFF80000FFFF80000FFFF80000FFFF800
310
00FFFF0003FFFFFFFFE0000FFFFF8000F000C0003FFFFF8000FFFF800000FFFC
310
000007FFFF80007F80003FFFFF0001FC0003FFFFF0001FF8000001FFFE000000
310
7FFFFFF0001FFFFFFF80003FFFFE0000FFFF80003FFFFE0000FFFF0003FFFFFF
310
FFE0003FFFFF8000F000C0003FFFFF8000FFFF800000FFFC000007FFFF80007F
310
80007FFFFF8001F80007FFFFF8000FF8000001FFFE0000007FFFFFF0001FFFFF
310
FF00007FFFFF00007FFF00007FFFFF00007FFF0003FFFFFFFFE0003FFFFFC000
310
F000C0007FFFFFC000FFFF000000FFFC000007FFFF80007F8000FFFFFF8000F8
310
000FFFFFF8000FF8000001FFFE0000007FFFFFF0001FFFFFFF0000FFFFFF8000
310
7FFF0000FFFFFF80007FFF0003FFFFFFFFC0007FFFFFC00070008000FFFFFFC0
310
00FFFF000000FFF8000007FFFF80007F8000FFFFFF8000F8000FFFFFF8000FF8
310
000001FFFE0000007FFFFFF0001FFFFFFE0001FFFFFFC0003FFE0001FFFFFFC0
310
003FFF0003FFFFFFFFC0007FFFFFE00070008000FFFFFFC0007FFF0000007FF8
310
000003FFFF80007F0001FFFFFF8000F8000FFFFFF8000FF8000001FFFE000000
310
7FFFFFF0001FFFFFFE0001FFFFFFC0003FFE0001FFFFFFC0003FFF0003FFFFFF
310
FFC000FFFFFFE00070008000FFFFFFC0007FFF0000007FF8000003FFFF80007F
310
0001FFFFFF8000F8001FFFFFF8000FF8000001FFFE0000007FFFFFF0001FFFFF
310
FE0003FFFFFFE0003FFE0003FFFFFFE0003FFF0003FFFFFFFFC000FFFFFFE000
310
70008000FFFFFFC0007FFE0000007FF8000003FFFF80007F0001FFFFFF8000F0
310
001FFFFFF8000FF8000001FFFE0000007FFFFFF0001FFFFFFC0003FFFFFFE000
310
1FFC0003FFFFFFE0001FFF0003FFFFFFFFC000FFFFFFC00070008000FFFFFF80
310
007FFE0000007FF0000003FFFF80007F0001FFFFFF0000F0001FFFFFF8000FF8
310
000001FFFE0000007FFFFFF0001FFFFFFC0007FFFFFFF0001FFC0007FFFFFFF0
310
001FFF0003FFFFFFFFC000FFFFFFC00070008001FFFFFF0000FFFE0000003FF0
310
000001FFFF80007F0001FFFFFF0000F8001FFFFFF0000FF8000001FFFE000000
310
7FFFFFF0001FFFFFFC0007FFFFFFF0001FFC0007FFFFFFF0001FFF0003FFFFFF
310
FFC001FFFFFF80007000FFFFFFFFFE0000FFFE0008003FF0008001FFFF80007F
310
FFFFFFFFFC0000FFFFFFFFFFE0000FF8000001FFFE0000007FFFFFF0001FFFFF
310
F8000FFFFFFFF8000FF8000FFFFFFFF8000FFF0003FFFFFFFFFFFFFFFFFF0000
310
7000FFFFFFFFFC0000FFFC0008003FF0008001FFFF80007FFFFFFFFFF80001FF
310
FFFFFFFF80000FF8000001FFFE0000007FFFFFF0001FFFFFF8000FFFFFFFF800
310
0FF8000FFFFFFFF8000FFF0003FFFFFFFFFFFFFFFFFE0000F000FFFFFFFFE000
310
00FFFC000C003FE000C001FFFF80007FFFFFFFFFC00001FFFFFFFFFE00001FF8
310
000001FFFE0000007FFFFFF0001FFFFFF8000FFFFFFFF8000FF8000FFFFFFFF8
310
000FFF0003FFFFFFFFFFFFFFFFF00000F000FFFFFFFE000001FFFC000C001FE0
310
00C000FFFF80007FFFFFFFFE000001FFFFFFFFE000001FF80FFFFFFFFFFFFFC0
310
7FFFFFF0001FFFFFF8000FFFFFFFF8000FF8000FFFFFFFF8000FFF0003FFFFFF
310
FFFFFFFFFF800000F000FFFFFFC0000001FFFC001C001FE001C000FFFF80007F
310
FFFFFF80000003FFFFFFF80000001FF80FFFFFFFFFFFFFC07FFFFFF0001FFFFF
310
F8001FFFFFFFFC000FF8001FFFFFFFFC000FFF0003FFFFFFFFFFFFFFF0000001
310
F000FFFFF800000001FFF8001C001FE001C000FFFF80007FFFFFF800000003FF
310
FFFF800000003FF80FFFFFFFFFFFFFC07FFFFFF0001FFFFFF8001FFFFFFFFC00
310
0FF8001FFFFFFFFC000FFF0003FFFFFFFFFFFFFE00000001F000FFFFC0000000
310
03FFF8001E001FC001E000FFFF80007FFFFF8000000007FFFFFC000000003FF8
310
0FFFFFFFFFFFFFC07FFFFFF0001FFFFFF8001FFFFFFFFC000FF8001FFFFFFFFC
310
000FFF0003FFFFFFFFFFFFE000000003F000FFFE0000000007FFF8001E000FC0
310
01E0007FFF80007FFFFE0000000007FFFFE0000000007FF80FFFFFFFFFFFFFC0
310
7FFFFFF0001FFFFFF0001FFFFFFFFC0007F0001FFFFFFFFC0007FF0003FFFFFF
310
FFFFFF0000000003F000FFF80000000007FFF8001E000FC003E0007FFF80007F
310
FFF0000000000FFFFF8000000000FFF80FFFFFFFFFFFFFC07FFFFFF0001FFFFF
310
F0001FFFFFFFFC0007F0001FFFFFFFFC0007FF0003FFFFFFFFFFFC0000000007
310
F000FFE0000000000FFFF0003E000FC003E0007FFF80007FFFC0000000001FFF
310
FE0000000001FFF80FFFFFFFFFFFFFC07FFFFFF0001FFFFFF0001FFFFFFFFC00
310
07F0001FFFFFFFFC0007FF0003FFFFFFFFFFF0000000000FF000FFC000000000
310
1FFFF0003F000F8003F0003FFF80007FFF80000000003FFFF80000000003FFF8
310
0FFFFFFFFFFFFFC07FFFFFF0001FFFFFF0001FFFFFFFFC0007F0001FFFFFFFFC
310
0007FF0003FFFFFFFFFFE0000000001FF000FF00000000007FFFF0003F000780
310
03F0003FFF80007FFF00000000007FFFF00000000007FFF80FFFFFFFFFFFFFC0
310
7FFFFFF0001FFFFFF0001FFFFFFFFC0007F0001FFFFFFFFC0007FF0003FFFFFF
310
FFFF80000000007FF000FE0000000000FFFFE0003F00078007F0003FFF80007F
310
FE0000000001FFFFE0000000001FFFF80FFFFFFFFFFFFFC07FFFFFF0001FFFFF
310
F0001FFFFFFFFC0007F0001FFFFFFFFC0007FF0003FFFFFFFFFF0000000000FF
310
F000FC0000000003FFFFE0007F00078007F0003FFF80007FFC0000000007FFFF
310
C0000000007FFFF80FFFFFFFFFFFFFC07FFFFFF0001FFFFFF8001FFFFFFFFC00
310
0FF8001FFFFFFFFC000FFF0003FFFFFFFFFE0000000003FFF000FC000000000F
310
FFFFE0007F80070007F8001FFF80007FF8000000001FFFFF8000000001FFFFF8
310
0FFFFFFFFFFFFFC07FFFFFF0001FFFFFF8001FFFFFFFFC000FF8001FFFFFFFFC
310
000FFF0003FFFFFFFFFC000000000FFFF000F8000000007FFFFFE0007F800700
310
07F8001FFF80007FF000000000FFFFFF800000000FFFFFF80FFFFFFFFFFFFFC0
310
7FFFFFF0001FFFFFF8000FFFFFFFF8000FF8000FFFFFFFF8000FFF0003FFFFFF
310
FFFC000000007FFFF000F800000007FFFFFFC0007F8003000FF8001FFF80007F
310
F000000007FFFFFF000000007FFFFFF80FFFFFFFFFFFFFC07FFFFFF0001FFFFF
310
F8000FFFFFFFF8000FF8000FFFFFFFF8000FFF0003FFFFFFFFF80000000FFFFF
310
F000F0000000FFFFFFFFC000FF8003000FF8001FFF80007FE0000000FFFFFFFF
310
0000000FFFFFFFF8000001FFFE0000007FFFFFF0001FFFFFF8000FFFFFFFF800
310
0FF8000FFFFFFFF8000FFF0003FFFFFFFFF8000000FFFFFFF000F000000FFFFF
310
FFFFC000FFC002000FF8000FFF80007FE000001FFFFFFFFE000001FFFFFFFFF8
310
000001FFFE0000007FFFFFF0001FFFFFF8000FFFFFFFF8000FF8000FFFFFFFF8
310
000FFF0003FFFFFFFFF000001FFFFFFFF000E00000FFFFFFFFFFC000FFC00200
310
0FFC000FFF80007FE00001FFFFFFFFFE00001FFFFFFFFFF8000001FFFE000000
310
7FFFFFF0001FFFFFFC000FFFFFFFF8001FFC000FFFFFFFF8001FFF0003FFFFFF
310
FFF00001FFFFFFFFF000E00007FFFFFFFFFF8000FFC000001FFC000FFF80007F
310
C0000FFFFFFFFFFE0000FFFFFFFFFFF8000001FFFE0000007FFFFFF0001FFFFF
310
FC0007FFFFFFF0001FFC0007FFFFFFF0001FFF0003FFFFFFFFF00007FFFFFFFF
310
F000E0001FFFFFFFFFFF8000FFC000001FFC000FFF80007FC0003FFFFFFFFFFE
310
0001FFFFFFFFFFF8000001FFFE0000007FFFFFF0001FFFFFFC0007FFFFFFF000
310
1FFC0007FFFFFFF0001FFF0003FFFFFFFFF0001FFFFFFFFFF000E0003FFFFF00
310
03FF8001FFE000001FFC0007FF80007FC0007FFFFF0007FC0003FFFFF0003FF8
310
000001FFFE0000007FFFFFF0001FFFFFFC0003FFFFFFE0001FFC0003FFFFFFE0
310
001FFF0003FFFFFFFFF0003FFFFFFFFFF000E0003FFFFF0001FF8001FFE00000
310
1FFE0007FF80007FC0007FFFFE0003FC0007FFFFE0003FF8000001FFFE000000
310
7FFFFFF0001FFFFFFE0003FFFFFFE0003FFE0003FFFFFFE0003FFF0003FFFFFF
310
FFF0003FFFFF8001F000E0003FFFFF0001FF0001FFE000001FFE0007FF80007F
310
C0007FFFFE0003FC0007FFFFE0003FF8000001FFFE0000007FFFFFF0001FFFFF
310
FE0001FFFFFFC0003FFE0001FFFFFFC0003FFF0003FFFFFFFFF0003FFFFF0001
310
F000E0003FFFFF0003FF0001FFE000003FFE0007FF80007FC0007FFFFE0003FC
310
0007FFFFE0003FF8000001FFFE0000007FFFFFF0001FFFFFFF0001FFFFFFC000
310
7FFF0001FFFFFFC0007FFF0003FFFFFFFFF0003FFFFF0001F000E0003FFFFE00
310
03FF0003FFF000003FFE0003FF80007FC0007FFFFC0003FE0007FFFFE0003FF8
310
000001FFFE0000007FFFFFF0001FFFFFFF0000FFFFFF80007FFF0000FFFFFF80
310
007FFF0003FFFFFFFFF0003FFFFF0001F000E0003FFFFE0003FF0003FFF00000
310
3FFF0003FF80007FC0007FFFFC0007FE0007FFFFC0003FF8000001FFFE000000
310
7FFFFFF0001FFFFFFF80007FFFFF0000FFFF80007FFFFF0000FFFF0003FFFFFF
310
FFF0003FFFFF0003F000E0003FFFFC0003FE0003FFF000003FFF0003FF80007F
310
E0003FFFF80007FE0003FFFFC0007FF8000001FFFE0000007FFFFFF0001FFFFF
310
FF80003FFFFE0000FFFF80003FFFFE0000FFFF0003FFFFFFFFF0001FFFFE0003
310
F000F0001FFFF80003FE0003FFF000007FFF0001FF80007FE0003FFFF00007FE
310
0001FFFF80007FF8000001FFFE0000007FFFFFF0001FFFFFFFC0000FFFF80001
310
FFFFC0000FFFF80001FFFF0003FFFFFFFFF0001FFFFC0003F000F0000FFFF000
310
07FE0007FFF800007FFF0001FF80007FE0001FFFE00007FF0000FFFE00007FF8
310
000001FFFE0000007FFFFFF0001FFFFFFFC00003FFE00001FFFFC00003FFE000
310
01FFFF0003FFFFFFFFF8000FFFF80003F000F00003FFC00007FC0007FFF80000
310
7FFF8001FF80007FF00007FF80000FFF00007FF80000FFF8000001FFFE000000
310
7F80000000000001FFE000003E000003FFFFE000003E000003FFFF0003FFFFFF
310
FFF80003FFE00007F000F800000000000FFC0007FFF800007FFF8001FF80007F
310
F000000000000FFF000000000000FFF8000001FFFE0000007F80000000000001
310
FFF0000000000007FFFFF0000000000007FFFF0003FFFFFFFFFC00007E000007
310
F000F800000000000FFC0007FFF80000FFFF8000FF80007FF800000000001FFF
310
800000000001FFF8000001FFFE0000007F80000000000001FFF800000000000F
310
FFFFF800000000000FFFFF0003FFFFFFFFFC00000000000FF000FC0000000000
310
1FFC0007FFFC0000FFFF8000FF80007FF800000000003FFFC00000000001FFF8
310
000001FFFE0000007F80000000000001FFF800000000000FFFFFF80000000000
310
0FFFFF0003FFFFFFFFFE00000000001FF000FE00000000003FF8000FFFFC0000
310
FFFF8000FF80007FFC00000000003FFFC00000000003FFF8000001FFFE000000
310
7F80000000000001FFFC00000000001FFFFFFC00000000001FFFFF0003FFFFFF
310
FFFF00000000001FF000FF00000000003FF8000FFFFC0000FFFFC000FF80007F
310
FE00000000007FFFE00000000007FFF8000001FFFE0000007F80000000000001
310
FFFE00000000003FFFFFFE00000000003FFFFF0003FFFFFFFFFF80000000003F
310
F000FF80000000007FF8000FFFFC0001FFFFC0007F80007FFF0000000000FFFF
310
F0000000000FFFF800000000000000007F80000000000001FFFF8000000000FF
310
FFFFFF8000000000FFFFFF0003FFFFFFFFFFC0000000007FF000FFC000000000
310
FFF8000FFFFE0001FFFFC0007F80007FFF8000000001FFFFF8000000001FFFF8
310
00000000000000007F80000000000001FFFFC000000001FFFFFFFFC000000001
310
FFFFFF0003FFFFFFFFFFE000000000FFF000FFE000000003FFF0001FFFFE0001
310
FFFFC0007F80007FFFC000000007FFFFFE000000003FFFF80000000000000000
310
7F80000000000001FFFFE000000003FFFFFFFFE000000003FFFFFF0003FFFFFF
310
FFFFF000000003FFF000FFF80000000FFFF0001FFFFE0001FFFFE0007F80007F
310
FFF00000000FFFFFFF00000000FFFFF800000000000000007F80000000000001
310
FFFFF80000000FFFFFFFFFF80000000FFFFFFF0003FFFFFFFFFFFC0000000FFF
310
F000FFFE0000003FFFF0001FFFFE0003FFFFE0003F80007FFFFC0000003FFFFF
310
FFC0000003FFFFF800000000000000007F80000000000001FFFFFE0000003FFF
310
FFFFFFFE0000003FFFFFFF0003FFFFFFFFFFFF0000003FFFF000FFFF800000FF
310
FFF0001FFFFF0003FFFFE0003F80007FFFFF000001FFFFFFFFF800001FFFFFF8
310
00000000000000007F80000000000001FFFFFFC00001FFFFFFFFFFFFC00001FF
310
FFFFFF0003FFFFFFFFFFFFC00000FFFFF000FFFFF8000FFFFFFFFFFFFFFFFFFF
310
FFFFFFFFFFFFFFFFFFFFF0001FFFFFFFFFFF0000FFFFFFF80000000000000000
310
7FFFFFFFFFFFFFFFFFFFFFFC001FFFFFFFFFFFFFFC001FFFFFFFFFFFFFFFFFFF
310
FFFFFFFC001FFFFFF000FFFFFFFFFFFFFFFFFFFFFFFFFFFFFFFFFFFFFFFFFFFF
310
FFFFFFFFFFFFFFFFFFFFFFFFFFFFFFFFFFFFFFFFFFFFFFFFFFFFFFFFFFFFFFFF
310
FFFFFFFFFFFFFFFFFFFFFFFFFFFFFFFFFFFFFFFFFFFFFFFFFFFFFFFFFFFFFFFF
310
F000FFFFFFFFFFFFFFFFFFFFFFFFFFFFFFFFFFFFFFFFFFFFFFFFFFFFFFFFFFFF
310
FFFFFFFFFFFFFFFFFFFFFFFFFFFFFFFFFFFFFFFFFFFFFFFFFFFFFFFFFFFFFFFF
310
FFFFFFFFFFFFFFFFFFFFFFFFFFFFFFFFFFFFFFFFFFFFFFFFF000FFFFFFFFFFFF
310
FFFFFFFFFFFFFFFFFFFFFFFFFFFFFFFFFFFFFFFFFFFFFFFFFFFFFFFFFFFFFFFF
310
FFFFFFFFFFFFFFFFFFFFFFFFFFFFFFFFFFFFFFFFFFFFFFFFFFFFFFFFFFFFFFFF
310
FFFFFFFFFFFFFFFFFFFFFFFFFFFFFFFFF000FFFFFFFFFFFFFFFFFFFFFFFFFFFF
310
FFFFFFFFFFFFFFFFFFFFFFFFFFFFFFFFFFFFFFFFFFFFFFFFFFFFFFFFFFFFFFFF
310
FFFFFFFFFFFFFFFFFFFFFFFFFFFFFFFFFFFFFFFFFFFFFFFFFFFFFFFFFFFFFFFF
310
FFFFFFFFFFFFFFFFF000FFFFFFFFFFFFFFFFFFFFFFFFFFFFFFFFFFFFFFFFFFFF
310
FFFFFFFFFFFFFFFFFFFFFFFFFFFFFFFFFFFFFFFFFFFFFFFFFFFFFFFFFFFFFFFF
310
FFFFFFFFFFFFFFFFFFFFFFFFFFFFFFFFFFFFFFFFFFFFFFFFFFFFFFFFFFFFFFFF
310
F000FFFFFFFFFFFFFFFFFFFFFFFFFFFFFFFFFFFFFFFFFFFFFFFFFFFFFFFFFFFF
310
FFFFFFFFFFFFFFFFFFFFFFFFFFFFFFFFFFFFFFFFFFFFFFFFFFFFFFFFFFFFFFFF
310
FFFFFFFFFFFFFFFFFFFFFFFFFFFFFFFFFFFFFFFFFFFFFFFFF000FFFFFFFFFFFF
310
FFFFFFFFFFFFFFFFFFFFFFFFFFFFFFFFFFFFFFFFFFFFFFFFFFFFFFFFFFFFFFFF
310
FFFFFFFFFFFFFFFFFFFFFFFFFFFFFFFFFFFFFFFFFFFFFFFFFFFFFFFFFFFFFFFF
310
FFFFFFFFFFFFFFFFFFFFFFFFFFFFFFFFF000FFFFFFFFFFFFFFFFFFFFFFFFFFFF
310
FFFFFFFFFFFFFFFFFFFFFFFFFFFFFFFFFFFFFFFFFFFFFFFFFFFFFFFFFFFFFFFF
310
FFFFFFFFFFFFFFFFFFFFFFFFFFFFFFFFFFFFFFFFFFFFFFFFFFFFFFFFFFFFFFFF
310
FFFFFFFFFFFFFFFFF000FFFFFFFFFFFFFFFFFFFFFFFFFFFFFFFFFFFFFFFFFFFF
310
FFFFFFFFFFFFFFFFFFFFFFFFFFFFFFFFFFFFFFFFFFFFFFFFFFFFFFFFFFFFFFFF
310
FFFFFFFFFFFFFFFFFFFFFFFFFFFFFFFFFFFFFFFFFFFFFFFFFFFFFFFFFFFFFFFF
310
F000FFFFFFFFFFFFFFFFFFFFFFFFFFFFFFFFFFFFFFFFFFFFFFFFFFFFFFFFFFFF
310
FFFFFFFFFFFFFFFFFFFFFFFFFFFFFFFFFFFFFFFFFFFFFFFFFFFFFFFFFFFFFFFF
310
FFFFFFFFFFFFFFFFFFFFFFFFFFFFFFFFFFFFFFFFFFFFFFFFF000FFFFFFFFFFFF
310
FFFFFFFFFFFFFFFFFFFFFFFFFFFFFFFFFFFFFFFFFFFFFFFFFFFFFFFFFFFFFFFF
310
FFFFFFFFFFFFFFFFFFFFFFFFFFFFFFFFFFFFFFFFFFFFFFFFFFFFFFFFFFFFFFFF
310
FFFFFFFFFFFFFFFFFFFFFFFFFFFFFFFFF000FFFFFFFFFFFFFFFFFFFFFFFFFFFF
310
FFFFFFFFFFFFFFFFFFFFFFFFFFFFFFFFFFFFFFFFFFFFFFFFFFFFFFFFFFFFFFFF
310
FFFFFFFFFFFFFFFFFFFFFFFFFFFFFFFFFFFFFFFFFFFFFFFFFFFFFFFFFFFFFFFF
310
FFFFFFFFFFFFFFFFF000FFFFFFFFFFFFFFFFFFFFFFFFFFFFFFFFFFFFFFFFFFFF
310
FFFFFFFFFFFFFFFFFFFFFFFFFFFFFFFFFFFFFFFFFFFFFFFFFFFFFFFFFFFFFFFF
310
FFFFFFFFFFFFFFFFFFFFFFFFFFFFFFFFFFFFFFFFFFFFFFFFFFFFFFFFFFFFFFFF
310
F000FFFFFFFFFFFFFFFFFFFFFFFFFFFFFFFFFFFFFFFFFFFFFFFFFFFFFFFFFFFF
310
FFFFFFFFFFFFFFFFFFFFFFFFFFFFFFFFFFFFFFFFFFFFFFFFFFFFFFFFFFFFFFFF
310
FFFFFFFFFFFFFFFFFFFFFFFFFFFFFFFFFFFFFFFFFFFFFFFFF000FFFFFFFFFFFF
310
FFFFFFFFFFFFFFFFFFFFFFFFFFFFFFFFFFFFFFFFFFFFFFFFFFFFFFFFFFFFFFFF
310
FFFFFFFFFFFFFFFFFFFFFFFFFFFFFFFFFFFFFFFFFFFFFFFFFFFFFFFFFFFFFFFF
310
FFFFFFFFFFFFFFFFFFFFFFFFFFFFFFFFF000FFFFFFFFFFFFFFFFFFFFFFFFFFFF
310
FFFFFFFFFFFFFFFFFFFFFFFFFFFFFFFFFFFFFFFFFFFFFFFFFFFFFFFFFFFFFFFF
310
FFFFFFFFFFFFFFFFFFFFFFFFFFFFFFFFFFFFFFFFFFFFFFFFFFFFFFFFFFFFFFFF
310
FFFFFFFFFFFFFFFFF000FFFFFFFFFFFFFFFFFFFFFFFFFFFFFFFFFFFFFFFFFFFF
310
FFFFFFFFFFFFFFFFFFFFFFFFFFFFFFFFFFFFFFFFFFFFFFFFFFFFFFFFFFFFFFFF
310
FFFFFFFFFFFFFFFFFFFFFFFFFFFFFFFFFFFFFFFFFFFFFFFFFFFFFFFFFFFFFFFF
310
F000FFFFFFFFFFFFFFFFFFFFFFFFFFFFFFFFFFFFFFFFFFFFFFFFFFFFFFFFFFFF
310
FFFFFFFFFFFFFFFFFFFFFFFFFFFFFFFFFFFFFFFFFFFFFFFFFFFFFFFFFFFFFFFF
310
FFFFFFFFFFFFFFFFFFFFFFFFFFFFFFFFFFFFFFFFFFFFFFFFF000FFFFFFFFFFFF
310
FFFFFFFFFFFFFFFFFFFFFFFFFFFFFFFFFFFFFFFFFFFFFFFFFFFFFFFFFFFFFFFF
310
FFFFFFFFFFFFFFFFFFFFFFFFFFFFFFFFFFFFFFFFFFFFFFFFFFFFFFFFFFFFFFFF
310
FFFFFFFFFFFFFFFFFFFFFFFFFFFFFFFFF000FFFFFFFFFFFFFFFFFFFFFFFFFFFF
310
FFFFFFFFFFFFFFFFFFFFFFFFFFFFFFFFFFFFFFFFFFFFFFFFFFFFFFFFFFFFFFFF
310
FFFFFFFFFFFFFFFFFFFFFFFFFFFFFFFFFFFFFFFFFFFFFFFFFFFFFFFFFFFFFFFF
310
FFFFFFFFFFFFFFFFF000FFFFFFFFFFFFFFFFFFFFFFFFFFFFFFFFFFFFFFFFFFFF
310
FFFFFFFFFFFFFFFFFFFFFFFFFFFFFFFFFFFFFFFFFFFFFFFFFFFFFFFFFFFFFFFF
310
FFFFFFFFFFFFFFFFFFFFFFFFFFFFFFFFFFFFFFFFFFFFFFFFFFFFFFFFFFFFFFFF
310
F000FFFFFFFFFFFFFFFFFFFFFFFFFFFFFFFFFFFFFFFFFFFFFFFFFFFFFFFFFFFF
310
FFFFFFFFFFFFFFFFFFFFFFFFFFFFFFFFFFFFFFFFFFFFFFFFFFFFFFFFFFFFFFFF
310
FFFFFFFFFFFFFFFFFFFFFFFFFFFFFFFFFFFFFFFFFFFFFFFFF000FFFFFFFFFFFF
310
FFFFFFFFFFFFFFFFFFFFFFFFFFFFFFFFFFFFFFFFFFFFFFFFFFFFFFFFFFFFFFFF
310
FFFFFFFFFFFFFFFFFFFFFFFFFFFFFFFFFFFFFFFFFFFFFFFFFFFFFFFFFFFFFFFF
310
FFFFFFFFFFFFFFFFFFFFFFFFFFFFFFFFF0000000000000000000000000000000
310
0000000001000000000000000100000001000000010000000100000001000000
310
0100000001000000010000000100000000000000010000000000000001000000
310
0000000001000000000000000100000000000000010000000000000001000000
310
0100000001000000010000000100000001000000010000000100000001000000
310
0100000001000000010000000100000001000000010000000100000001000000
310
0100000001000000010000000100000001000000010000000100000001000000
310
0100000001000000010000000100000001000000010000000100000001000000
310
0100000001000000010000000100000001000000000000000100000001000000
310
0100000001000000000000000100000001000000000000000100000001000000
310
0100000001000000010000000000000001000000010000000100000001000000
310
0100000001000000010000000100000001000000010000000100000001000000
310
0100000001000000010000000100000001000000010000000100000001000000
310
0100000001000000010000000100000001000000010000000000000001000000
310
0100000001000000010000000100000001000000010000000100000001000000
310
0100000001000000010000000100000001000000010000000100000001000000
  1
OLE
  0
ENDSEC
  0
SECTION
  2
OBJECTS
  0
DICTIONARY
  5
C
330
0
100
AcDbDictionary
281
     1
  3
ACAD_GROUP
350
D
  3
ACAD_LAYOUT
350
1A
  3
ACAD_MLEADERSTYLE
350
217
  3
ACAD_MLINESTYLE
350
17
  3
ACAD_PLOTSETTINGS
350
19
  3
ACAD_PLOTSTYLENAME
350
E
  3
ACAD_TABLESTYLE
350
216
  3
ACAD_VISUALSTYLE
350
2A
  3
AcDbVariableDictionary
350
218
  0
DICTIONARY
  5
D
102
{ACAD_REACTORS
330
C
102
}
330
C
100
AcDbDictionary
281
     1
  0
DICTIONARY
  5
1A
102
{ACAD_REACTORS
330
C
102
}
330
C
100
AcDbDictionary
281
     1
  3
Layout1
350
1E
  3
Layout2
350
26
  3
Model
350
22
  0
DICTIONARY
  5
217
102
{ACAD_REACTORS
330
C
102
}
330
C
100
AcDbDictionary
281
     1
  0
DICTIONARY
  5
17
102
{ACAD_REACTORS
330
C
102
}
330
C
100
AcDbDictionary
281
     1
  3
Standard
350
18
  0
DICTIONARY
  5
19
102
{ACAD_REACTORS
330
C
102
}
330
C
100
AcDbDictionary
281
     1
  0
ACDBDICTIONARYWDFLT
  5
E
102
{ACAD_REACTORS
330
C
102
}
330
C
100
AcDbDictionary
281
     1
  3
Normal
350
F
100
AcDbDictionaryWithDefault
340
F
  0
DICTIONARY
  5
216
102
{ACAD_REACTORS
330
C
102
}
330
C
100
AcDbDictionary
281
     1
  0
DICTIONARY
  5
2A
102
{ACAD_REACTORS
330
C
102
}
330
C
100
AcDbDictionary
281
     1
  3
2dWireframe
350
2F
  3
3D Hidden
350
31
  3
3dWireframe
350
30
  3
Basic
350
32
  3
Brighten
350
36
  3
ColorChange
350
3A
  3
Conceptual
350
34
  3
Dim
350
35
  3
Facepattern
350
39
  3
Flat
350
2B
  3
FlatWithEdges
350
2C
  3
Gouraud
350
2D
  3
GouraudWithEdges
350
2E
  3
Linepattern
350
38
  3
Realistic
350
33
  3
Thicken
350
37
  0
DICTIONARY
  5
218
102
{ACAD_REACTORS
330
C
102
}
330
C
100
AcDbDictionary
281
     1
  3
PSOLHEIGHT
350
21A
  3
PSOLWIDTH
350
219
  0
LAYOUT
  5
1E
102
{ACAD_REACTORS
330
1A
102
}
330
1A
100
AcDbPlotSettings
  1

  2
none_device
  4

  6

 40
0.0
 41
0.0
 42
0.0
 43
0.0
 44
0.0
 45
0.0
 46
0.0
 47
0.0
 48
0.0
 49
0.0
140
0.0
141
0.0
142
1.0
143
1.0
 70
   688
 72
     0
 73
     0
 74
     5
  7

 75
    16
147
1.0
148
0.0
149
0.0
100
AcDbLayout
  1
Layout1
 70
     1
 71
     1
 10
0.0
 20
0.0
 11
420.0
 21
297.0
 12
0.0
 22
0.0
 32
0.0
 14
1.0000000000E+20
 24
1.0000000000E+20
 34
1.0000000000E+20
 15
-1.0000000000E+20
 25
-1.0000000000E+20
 35
-1.0000000000E+20
146
0.0
 13
0.0
 23
0.0
 33
0.0
 16
1.0
 26
0.0
 36
0.0
 17
0.0
 27
1.0
 37
0.0
 76
     0
330
1B
  0
LAYOUT
  5
26
102
{ACAD_REACTORS
330
1A
102
}
330
1A
100
AcDbPlotSettings
  1

  2
none_device
  4

  6

 40
0.0
 41
0.0
 42
0.0
 43
0.0
 44
0.0
 45
0.0
 46
0.0
 47
0.0
 48
0.0
 49
0.0
140
0.0
141
0.0
142
1.0
143
1.0
 70
   688
 72
     0
 73
     0
 74
     5
  7

 75
    16
147
1.0
148
0.0
149
0.0
100
AcDbLayout
  1
Layout2
 70
     1
 71
     2
 10
0.0
 20
0.0
 11
0.0
 21
0.0
 12
0.0
 22
0.0
 32
0.0
 14
0.0
 24
0.0
 34
0.0
 15
0.0
 25
0.0
 35
0.0
146
0.0
 13
0.0
 23
0.0
 33
0.0
 16
1.0
 26
0.0
 36
0.0
 17
0.0
 27
1.0
 37
0.0
 76
     0
330
23
  0
LAYOUT
  5
22
102
{ACAD_REACTORS
330
1A
102
}
330
1A
100
AcDbPlotSettings
  1

  2
none_device
  4

  6

 40
0.0
 41
0.0
 42
0.0
 43
0.0
 44
0.0
 45
0.0
 46
0.0
 47
0.0
 48
0.0
 49
0.0
140
0.0
141
0.0
142
1.0
143
1.0
 70
  1712
 72
     0
 73
     0
 74
     0
  7

 75
     0
147
1.0
148
0.0
149
0.0
100
AcDbLayout
  1
Model
 70
     1
 71
     0
 10
0.0
 20
0.0
 11
297.0
 21
210.0
 12
0.0
 22
0.0
 32
0.0
 14
0.0
 24
0.0
 34
0.0
 15
297.0
 25
210.0
 35
0.0
146
0.0
 13
0.0
 23
0.0
 33
0.0
 16
1.0
 26
0.0
 36
0.0
 17
0.0
 27
1.0
 37
0.0
 76
     0
330
1F
331
29
  0
MLINESTYLE
  5
18
102
{ACAD_REACTORS
330
17
102
}
330
17
100
AcDbMlineStyle
  2
Standard
 70
     0
  3

 62
   256
 51
90.0
 52
90.0
 71
     2
 49
0.5
 62
   256
  6
BYLAYER
 49
-0.5
 62
   256
  6
BYLAYER
  0
ACDBPLACEHOLDER
  5
F
102
{ACAD_REACTORS
330
E
102
}
330
E
  0
VISUALSTYLE
  5
2F
102
{ACAD_REACTORS
330
2A
102
}
330
2A
100
AcDbVisualStyle
  2
2dWireframe
 70
     4
 71
     0
 72
     2
 73
     0
 90
        0
 40
-0.6
 41
-30.0
 62
     5
 63
     7
 74
     1
 91
        4
 64
     7
 65
   257
 75
     1
175
     1
 42
1.0
 92
        0
 66
   257
 43
1.0
 76
     1
 77
     6
 78
     2
 67
     7
 79
     5
170
     0
171
     0
290
     0
174
     0
 93
        1
 44
0.0
173
     0
291
     0
 45
0.0
1001
ACAD
1000
AcDbSavedByObjectVersion
1070
     0
  0
VISUALSTYLE
  5
31
102
{ACAD_REACTORS
330
2A
102
}
330
2A
100
AcDbVisualStyle
  2
3D Hidden
 70
     6
 71
     1
 72
     2
 73
     2
 90
        0
 40
-0.6
 41
-30.0
 62
     5
 63
     7
 74
     2
 91
        2
 64
     7
 65
   257
 75
     2
175
     1
 42
40.0
 92
        0
 66
   257
 43
1.0
 76
     1
 77
     6
 78
     2
 67
     7
 79
     3
170
     0
171
     0
290
     0
174
     0
 93
        1
 44
0.0
173
     0
291
     0
 45
0.0
1001
ACAD
1000
AcDbSavedByObjectVersion
1070
     0
  0
VISUALSTYLE
  5
30
102
{ACAD_REACTORS
330
2A
102
}
330
2A
100
AcDbVisualStyle
  2
3dWireframe
 70
     5
 71
     0
 72
     2
 73
     0
 90
        0
 40
-0.6
 41
-30.0
 62
     5
 63
     7
 74
     1
 91
        4
 64
     7
 65
   257
 75
     1
175
     1
 42
1.0
 92
        0
 66
   257
 43
1.0
 76
     1
 77
     6
 78
     2
 67
     7
 79
     5
170
     0
171
     0
290
     0
174
     0
 93
        1
 44
0.0
173
     0
291
     0
 45
0.0
1001
ACAD
1000
AcDbSavedByObjectVersion
1070
     0
  0
VISUALSTYLE
  5
32
102
{ACAD_REACTORS
330
2A
102
}
330
2A
100
AcDbVisualStyle
  2
Basic
 70
     7
 71
     1
 72
     0
 73
     1
 90
        0
 40
-0.6
 41
-30.0
 62
     5
 63
     7
 74
     0
 91
        4
 64
     7
 65
   257
 75
     1
175
     1
 42
1.0
 92
        8
 66
     7
 43
1.0
 76
     1
 77
     6
 78
     2
 67
     7
 79
     5
170
     0
171
     0
290
     0
174
     0
 93
        1
 44
0.0
173
     0
291
     1
 45
0.0
1001
ACAD
1000
AcDbSavedByObjectVersion
1070
     0
  0
VISUALSTYLE
  5
36
102
{ACAD_REACTORS
330
2A
102
}
330
2A
100
AcDbVisualStyle
  2
Brighten
 70
    12
 71
     2
 72
     2
 73
     0
 90
        0
 40
-0.6
 41
-30.0
 62
     5
 63
     7
 74
     1
 91
        4
 64
     7
 65
   257
 75
     1
175
     1
 42
1.0
 92
        8
 66
     7
 43
1.0
 76
     1
 77
     6
 78
     2
 67
     7
 79
     5
170
     0
171
     0
290
     0
174
     0
 93
        1
 44
50.0
173
     0
291
     1
 45
0.0
1001
ACAD
1000
AcDbSavedByObjectVersion
1070
     0
  0
VISUALSTYLE
  5
3A
102
{ACAD_REACTORS
330
2A
102
}
330
2A
100
AcDbVisualStyle
  2
ColorChange
 70
    16
 71
     2
 72
     2
 73
     3
 90
        0
 40
-0.6
 41
-30.0
 62
     5
 63
     8
 74
     1
 91
        4
 64
     7
 65
   257
 75
     1
175
     1
 42
1.0
 92
        8
 66
     8
 43
1.0
 76
     1
 77
     6
 78
     2
 67
     7
 79
     5
170
     0
171
     0
290
     0
174
     0
 93
        1
 44
0.0
173
     0
291
     1
 45
0.0
1001
ACAD
1000
AcDbSavedByObjectVersion
1070
     0
  0
VISUALSTYLE
  5
34
102
{ACAD_REACTORS
330
2A
102
}
330
2A
100
AcDbVisualStyle
  2
Conceptual
 70
     9
 71
     3
 72
     2
 73
     0
 90
        0
 40
-0.6
 41
-30.0
 62
     5
 63
     7
 74
     2
 91
        2
 64
     7
 65
   257
 75
     1
175
     1
 42
40.0
 92
        8
 66
     7
 43
1.0
 76
     1
 77
     6
 78
     2
 67
     7
 79
     3
170
     0
171
     0
290
     0
174
     0
 93
        1
 44
0.0
173
     0
291
     0
 45
0.0
1001
ACAD
1000
AcDbSavedByObjectVersion
1070
     0
  0
VISUALSTYLE
  5
35
102
{ACAD_REACTORS
330
2A
102
}
330
2A
100
AcDbVisualStyle
  2
Dim
 70
    11
 71
     2
 72
     2
 73
     0
 90
        0
 40
-0.6
 41
-30.0
 62
     5
 63
     7
 74
     1
 91
        4
 64
     7
 65
   257
 75
     1
175
     1
 42
1.0
 92
        8
 66
     7
 43
1.0
 76
     1
 77
     6
 78
     2
 67
     7
 79
     5
170
     0
171
     0
290
     0
174
     0
 93
        1
 44
-50.0
173
     0
291
     1
 45
0.0
1001
ACAD
1000
AcDbSavedByObjectVersion
1070
     0
  0
VISUALSTYLE
  5
39
102
{ACAD_REACTORS
330
2A
102
}
330
2A
100
AcDbVisualStyle
  2
Facepattern
 70
    15
 71
     2
 72
     2
 73
     0
 90
        0
 40
-0.6
 41
-30.0
 62
     5
 63
     7
 74
     1
 91
        4
 64
     7
 65
   257
 75
     1
175
     1
 42
1.0
 92
        8
 66
     7
 43
1.0
 76
     1
 77
     6
 78
     2
 67
     7
 79
     5
170
     0
171
     0
290
     0
174
     0
 93
        1
 44
0.0
173
     0
291
     1
 45
0.0
1001
ACAD
1000
AcDbSavedByObjectVersion
1070
     0
  0
VISUALSTYLE
  5
2B
102
{ACAD_REACTORS
330
2A
102
}
330
2A
100
AcDbVisualStyle
  2
Flat
 70
     0
 71
     2
 72
     1
 73
     1
 90
        2
 40
-0.6
 41
30.0
 62
     5
 63
     7
 74
     0
 91
        4
 64
     7
 65
   257
 75
     1
175
     1
 42
1.0
 92
        8
 66
     7
 43
1.0
 76
     1
 77
     6
 78
     2
 67
     7
 79
     5
170
     0
171
     0
290
     0
174
     0
 93
       13
 44
0.0
173
     0
291
     1
 45
0.0
1001
ACAD
1000
AcDbSavedByObjectVersion
1070
     0
  0
VISUALSTYLE
  5
2C
102
{ACAD_REACTORS
330
2A
102
}
330
2A
100
AcDbVisualStyle
  2
FlatWithEdges
 70
     1
 71
     2
 72
     1
 73
     1
 90
        2
 40
-0.6
 41
30.0
 62
     5
 63
     7
 74
     1
 91
        4
 64
     7
 65
   257
 75
     1
175
     1
 42
1.0
 92
        0
 66
   257
 43
1.0
 76
     1
 77
     6
 78
     2
 67
     7
 79
     5
170
     0
171
     0
290
     0
174
     0
 93
       13
 44
0.0
173
     0
291
     1
 45
0.0
1001
ACAD
1000
AcDbSavedByObjectVersion
1070
     0
  0
VISUALSTYLE
  5
2D
102
{ACAD_REACTORS
330
2A
102
}
330
2A
100
AcDbVisualStyle
  2
Gouraud
 70
     2
 71
     2
 72
     2
 73
     1
 90
        2
 40
-0.6
 41
30.0
 62
     5
 63
     7
 74
     0
 91
        4
 64
     7
 65
   257
 75
     1
175
     1
 42
1.0
 92
        0
 66
     7
 43
1.0
 76
     1
 77
     6
 78
     2
 67
     7
 79
     5
170
     0
171
     0
290
     0
174
     0
 93
       13
 44
0.0
173
     0
291
     1
 45
0.0
1001
ACAD
1000
AcDbSavedByObjectVersion
1070
     0
  0
VISUALSTYLE
  5
2E
102
{ACAD_REACTORS
330
2A
102
}
330
2A
100
AcDbVisualStyle
  2
GouraudWithEdges
 70
     3
 71
     2
 72
     2
 73
     1
 90
        2
 40
-0.6
 41
30.0
 62
     5
 63
     7
 74
     1
 91
        4
 64
     7
 65
   257
 75
     1
175
     1
 42
1.0
 92
        0
 66
   257
 43
1.0
 76
     1
 77
     6
 78
     2
 67
     7
 79
     5
170
     0
171
     0
290
     0
174
     0
 93
       13
 44
0.0
173
     0
291
     1
 45
0.0
1001
ACAD
1000
AcDbSavedByObjectVersion
1070
     0
  0
VISUALSTYLE
  5
38
102
{ACAD_REACTORS
330
2A
102
}
330
2A
100
AcDbVisualStyle
  2
Linepattern
 70
    14
 71
     2
 72
     2
 73
     0
 90
        0
 40
-0.6
 41
-30.0
 62
     5
 63
     7
 74
     1
 91
        4
 64
     7
 65
   257
 75
     7
175
     7
 42
1.0
 92
        8
 66
     7
 43
1.0
 76
     1
 77
     6
 78
     2
 67
     7
 79
     5
170
     0
171
     0
290
     0
174
     0
 93
        1
 44
0.0
173
     0
291
     1
 45
0.0
1001
ACAD
1000
AcDbSavedByObjectVersion
1070
     0
  0
VISUALSTYLE
  5
33
102
{ACAD_REACTORS
330
2A
102
}
330
2A
100
AcDbVisualStyle
  2
Realistic
 70
     8
 71
     2
 72
     2
 73
     0
 90
        0
 40
-0.6
 41
-30.0
 62
     5
 63
     7
 74
     1
 91
        0
 64
     7
 65
   257
 75
     1
175
     1
 42
1.0
 92
        8
 66
     8
 43
1.0
 76
     1
 77
     6
 78
     2
 67
     7
 79
     5
170
     0
171
     0
290
     0
174
     0
 93
       13
 44
0.0
173
     0
291
     0
 45
0.0
1001
ACAD
1000
AcDbSavedByObjectVersion
1070
     0
  0
VISUALSTYLE
  5
37
102
{ACAD_REACTORS
330
2A
102
}
330
2A
100
AcDbVisualStyle
  2
Thicken
 70
    13
 71
     2
 72
     2
 73
     0
 90
        0
 40
-0.6
 41
-30.0
 62
     5
 63
     7
 74
     1
 91
        4
 64
     7
 65
   257
 75
     1
175
     1
 42
1.0
 92
       12
 66
     7
 43
1.0
 76
     1
 77
     6
 78
     2
 67
     7
 79
     5
170
     0
171
     0
290
     0
174
     0
 93
        1
 44
0.0
173
     0
291
     1
 45
0.0
1001
ACAD
1000
AcDbSavedByObjectVersion
1070
     0
  0
DICTIONARYVAR
  5
21A
102
{ACAD_REACTORS
330
218
102
}
330
218
100
DictionaryVariables
280
     0
  1
80.000000
  0
DICTIONARYVAR
  5
219
102
{ACAD_REACTORS
330
218
102
}
330
218
100
DictionaryVariables
280
     0
  1
5.000000
  0
ENDSEC
  0
EOF
