  0
SECTION
  2
HEADER
  9
$ACADVER
  1
AC1015
  9
$ACADMAINTVER
 70
     6
  9
$DWGCODEPAGE
  3
ANSI_1252
  9
$INSBASE
 10
0.0
 20
0.0
 30
0.0
  9
$EXTMIN
 10
0.0
 20
0.0
 30
0.0
  9
$EXTMAX
 10
297.0
 20
210.0
 30
0.0
  9
$LIMMIN
 10
0.0
 20
0.0
  9
$LIMMAX
 10
297.0
 20
210.0
  9
$ORTHOMODE
 70
     0
  9
$REGENMODE
 70
     1
  9
$FILLMODE
 70
     1
  9
$QTEXTMODE
 70
     0
  9
$MIRRTEXT
 70
     1
  9
$LTSCALE
 40
1.0
  9
$ATTMODE
 70
     1
  9
$TEXTSIZE
 40
2.0
  9
$TRACEWID
 40
1.0
  9
$TEXTSTYLE
  7
Standard
  9
$CLAYER
  8
0
  9
$CELTYPE
  6
ByLayer
  9
$CECOLOR
 62
   256
  9
$CELTSCALE
 40
1.0
  9
$DISPSILH
 70
     0
  9
$DIMSCALE
 40
1.0
  9
$DIMASZ
 40
3.0
  9
$DIMEXO
 40
0.0
  9
$DIMDLI
 40
3.75
  9
$DIMRND
 40
0.0
  9
$DIMDLE
 40
0.0
  9
$DIMEXE
 40
1.0
  9
$DIMTP
 40
0.0
  9
$DIMTM
 40
0.0
  9
$DIMTXT
 40
2.0
  9
$DIMCEN
 40
2.5
  9
$DIMTSZ
 40
0.0
  9
$DIMTOL
 70
     0
  9
$DIMLIM
 70
     0
  9
$DIMTIH
 70
     1
  9
$DIMTOH
 70
     1
  9
$DIMSE1
 70
     0
  9
$DIMSE2
 70
     0
  9
$DIMTAD
 70
     1
  9
$DIMZIN
 70
     0
  9
$DIMBLK
  1

  9
$DIMASO
 70
     1
  9
$DIMSHO
 70
     1
  9
$DIMPOST
  1

  9
$DIMAPOST
  1

  9
$DIMALT
 70
     0
  9
$DIMALTD
 70
     3
  9
$DIMALTF
 40
0.0393700787
  9
$DIMLFAC
 40
1.0
  9
$DIMTOFL
 70
     1
  9
$DIMTVP
 40
0.0
  9
$DIMTIX
 70
     0
  9
$DIMSOXD
 70
     0
  9
$DIMSAH
 70
     0
  9
$DIMBLK1
  1

  9
$DIMBLK2
  1

  9
$DIMSTYLE
  2
ISO-25
  9
$DIMCLRD
 70
     0
  9
$DIMCLRE
 70
     0
  9
$DIMCLRT
 70
     0
  9
$DIMTFAC
 40
1.0
  9
$DIMGAP
 40
1.524
  9
$DIMJUST
 70
     0
  9
$DIMSD1
 70
     0
  9
$DIMSD2
 70
     0
  9
$DIMTOLJ
 70
     0
  9
$DIMTZIN
 70
     0
  9
$DIMALTZ
 70
     0
  9
$DIMALTTZ
 70
     0
  9
$DIMUPT
 70
     0
  9
$DIMDEC
 70
     2
  9
$DIMTDEC
 70
     3
  9
$DIMALTU
 70
     2
  9
$DIMALTTD
 70
     3
  9
$DIMTXSTY
  7
Standard
  9
$DIMAUNIT
 70
     0
  9
$DIMADEC
 70
     2
  9
$DIMALTRND
 40
0.0
  9
$DIMAZIN
 70
     0
  9
$DIMDSEP
 70
    44
  9
$DIMATFIT
 70
     3
  9
$DIMFRAC
 70
     0
  9
$DIMLDRBLK
  1

  9
$DIMLUNIT
 70
     2
  9
$DIMLWD
 70
    -2
  9
$DIMLWE
 70
    -2
  9
$DIMTMOVE
 70
     0
  9
$LUNITS
 70
     2
  9
$LUPREC
 70
     2
  9
$SKETCHINC
 40
1.0
  9
$FILLETRAD
 40
10.0
  9
$AUNITS
 70
     0
  9
$AUPREC
 70
     2
  9
$MENU
  1
.
  9
$ELEVATION
 40
0.0
  9
$PELEVATION
 40
0.0
  9
$THICKNESS
 40
0.0
  9
$LIMCHECK
 70
     0
  9
$CHAMFERA
 40
10.0
  9
$CHAMFERB
 40
10.0
  9
$CHAMFERC
 40
20.0
  9
$CHAMFERD
 40
0.0
  9
$SKPOLY
 70
     0
  9
$TDCREATE
 40
2455680.544459711
  9
$TDUCREATE
 40
2455680.461126377
  9
$TDUPDATE
 40
2455680.544459722
  9
$TDUUPDATE
 40
2455680.461126389
  9
$TDINDWG
 40
0.0000000116
  9
$TDUSRTIMER
 40
0.0000000116
  9
$USRTIMER
 70
     1
  9
$ANGBASE
 50
0.0
  9
$ANGDIR
 70
     0
  9
$PDMODE
 70
     0
  9
$PDSIZE
 40
-1.0
  9
$PLINEWID
 40
0.0
  9
$SPLFRAME
 70
     0
  9
$SPLINETYPE
 70
     6
  9
$SPLINESEGS
 70
     8
  9
$HANDSEED
  5
217
  9
$SURFTAB1
 70
     6
  9
$SURFTAB2
 70
     6
  9
$SURFTYPE
 70
     6
  9
$SURFU
 70
     6
  9
$SURFV
 70
     6
  9
$UCSBASE
  2

  9
$UCSNAME
  2

  9
$UCSORG
 10
0.0
 20
0.0
 30
0.0
  9
$UCSXDIR
 10
1.0
 20
0.0
 30
0.0
  9
$UCSYDIR
 10
0.0
 20
1.0
 30
0.0
  9
$UCSORTHOREF
  2

  9
$UCSORTHOVIEW
 70
     0
  9
$UCSORGTOP
 10
0.0
 20
0.0
 30
0.0
  9
$UCSORGBOTTOM
 10
0.0
 20
0.0
 30
0.0
  9
$UCSORGLEFT
 10
0.0
 20
0.0
 30
0.0
  9
$UCSORGRIGHT
 10
0.0
 20
0.0
 30
0.0
  9
$UCSORGFRONT
 10
0.0
 20
0.0
 30
0.0
  9
$UCSORGBACK
 10
0.0
 20
0.0
 30
0.0
  9
$PUCSBASE
  2

  9
$PUCSNAME
  2

  9
$PUCSORG
 10
0.0
 20
0.0
 30
0.0
  9
$PUCSXDIR
 10
1.0
 20
0.0
 30
0.0
  9
$PUCSYDIR
 10
0.0
 20
1.0
 30
0.0
  9
$PUCSORTHOREF
  2

  9
$PUCSORTHOVIEW
 70
     0
  9
$PUCSORGTOP
 10
0.0
 20
0.0
 30
0.0
  9
$PUCSORGBOTTOM
 10
0.0
 20
0.0
 30
0.0
  9
$PUCSORGLEFT
 10
0.0
 20
0.0
 30
0.0
  9
$PUCSORGRIGHT
 10
0.0
 20
0.0
 30
0.0
  9
$PUCSORGFRONT
 10
0.0
 20
0.0
 30
0.0
  9
$PUCSORGBACK
 10
0.0
 20
0.0
 30
0.0
  9
$USERI1
 70
     0
  9
$USERI2
 70
     0
  9
$USERI3
 70
     0
  9
$USERI4
 70
     0
  9
$USERI5
 70
     0
  9
$USERR1
 40
0.0
  9
$USERR2
 40
0.0
  9
$USERR3
 40
0.0
  9
$USERR4
 40
0.0
  9
$USERR5
 40
0.0
  9
$WORLDVIEW
 70
     1
  9
$SHADEDGE
 70
     3
  9
$SHADEDIF
 70
    70
  9
$TILEMODE
 70
     1
  9
$MAXACTVP
 70
    64
  9
$PINSBASE
 10
0.0
 20
0.0
 30
0.0
  9
$PLIMCHECK
 70
     0
  9
$PEXTMIN
 10
1.0000000000E+20
 20
1.0000000000E+20
 30
1.0000000000E+20
  9
$PEXTMAX
 10
-1.0000000000E+20
 20
-1.0000000000E+20
 30
-1.0000000000E+20
  9
$PLIMMIN
 10
0.0
 20
0.0
  9
$PLIMMAX
 10
420.0
 20
297.0
  9
$UNITMODE
 70
     0
  9
$VISRETAIN
 70
     1
  9
$PLINEGEN
 70
     0
  9
$PSLTSCALE
 70
     1
  9
$TREEDEPTH
 70
  3020
  9
$CMLSTYLE
  2
Standard
  9
$CMLJUST
 70
     0
  9
$CMLSCALE
 40
20.0
  9
$PROXYGRAPHICS
 70
     1
  9
$MEASUREMENT
 70
     1
  9
$CELWEIGHT
370
    -1
  9
$ENDCAPS
280
     0
  9
$JOINSTYLE
280
     0
  9
$LWDISPLAY
290
     1
  9
$INSUNITS
 70
     4
  9
$HYPERLINKBASE
  1

  9
$STYLESHEET
  1

  9
$XEDIT
290
     1
  9
$CEPSNTYPE
380
     0
  9
$PSTYLEMODE
290
     1
  9
$FINGERPRINTGUID
  2
{B4B1642A-33BF-42BB-BBCB-5B0452E4D510}
  9
$VERSIONGUID
  2
{FAEB1C32-E019-11D5-929B-00C0DF256EC4}
  9
$EXTNAMES
290
     1
  9
$PSVPSCALE
 40
0.0
  9
$OLESTARTUP
290
     0
  0
ENDSEC
  0
SECTION
  2
CLASSES
  0
CLASS
  1
ACDBDICTIONARYWDFLT
  2
AcDbDictionaryWithDefault
  3
ObjectDBX Classes
 90
        0
280
     0
281
     0
  0
CLASS
  1
VISUALSTYLE
  2
AcDbVisualStyle
  3
ObjectDBX Classes
 90
     4095
280
     0
281
     0
  0
CLASS
  1
DICTIONARYVAR
  2
AcDbDictionaryVar
  3
ObjectDBX Classes
 90
        0
280
     0
281
     0
  0
CLASS
  1
ACDBPLACEHOLDER
  2
AcDbPlaceHolder
  3
ObjectDBX Classes
 90
        0
280
     0
281
     0
  0
CLASS
  1
LAYOUT
  2
AcDbLayout
  3
ObjectDBX Classes
 90
        0
280
     0
281
     0
  0
ENDSEC
  0
SECTION
  2
TABLES
  0
TABLE
  2
VPORT
  5
8
330
0
100
AcDbSymbolTable
 70
     1
  0
VPORT
  5
29
330
8
100
AcDbSymbolTableRecord
100
AcDbViewportTableRecord
  2
*Active
 70
     0
 10
0.0
 20
0.0
 11
1.0
 21
1.0
 12
148.5
 22
105.0
 13
0.0
 23
0.0
 14
10.0
 24
10.0
 15
10.0
 25
10.0
 16
0.0
 26
0.0
 36
1.0
 17
0.0
 27
0.0
 37
0.0
 40
210.0
 41
1.4142857143
 42
50.0
 43
0.0
 44
0.0
 50
0.0
 51
0.0
 71
     0
 72
  2000
 73
     1
 74
     3
 75
     0
 76
     0
 77
     0
 78
     0
281
     0
 65
     1
110
0.0
120
0.0
130
0.0
111
1.0
121
0.0
131
0.0
112
0.0
122
1.0
132
0.0
 79
     0
146
0.0
  0
ENDTAB
  0
TABLE
  2
LTYPE
  5
5
330
0
100
AcDbSymbolTable
 70
     6
  0
LTYPE
  5
14
330
5
100
AcDbSymbolTableRecord
100
AcDbLinetypeTableRecord
  2
ByBlock
 70
     0
  3

 72
    65
 73
     0
 40
0.0
  0
LTYPE
  5
15
330
5
100
AcDbSymbolTableRecord
100
AcDbLinetypeTableRecord
  2
ByLayer
 70
     0
  3

 72
    65
 73
     0
 40
0.0
  0
LTYPE
  5
16
330
5
100
AcDbSymbolTableRecord
100
AcDbLinetypeTableRecord
  2
Continuous
 70
     0
  3
Solid line
 72
    65
 73
     0
 40
0.0
  0
LTYPE
  5
3B
330
5
100
AcDbSymbolTableRecord
100
AcDbLinetypeTableRecord
  2
HIDDEN
 70
     0
  3
Hidden __ __ __ __ __ __ __ __ __ __ __ __ __ __
 72
    65
 73
     2
 40
1.905
 49
1.27
 74
     0
 49
-0.635
 74
     0
  0
LTYPE
  5
3C
330
5
100
AcDbSymbolTableRecord
100
AcDbLinetypeTableRecord
  2
PHANTOM
 70
     0
  3
Phantom ______  __  __  ______  __  __  ______
 72
    65
 73
     6
 40
12.7
 49
6.35
 74
     0
 49
-1.27
 74
     0
 49
1.27
 74
     0
 49
-1.27
 74
     0
 49
1.27
 74
     0
 49
-1.27
 74
     0
  0
LTYPE
  5
3D
330
5
100
AcDbSymbolTableRecord
100
AcDbLinetypeTableRecord
  2
CENTER
 70
     0
  3
Center ____ _ ____ _ ____ _ ____ _ ____ _ ____
 72
    65
 73
     4
 40
10.16
 49
6.35
 74
     0
 49
-1.27
 74
     0
 49
1.27
 74
     0
 49
-1.27
 74
     0
  0
LTYPE
  5
3E
330
5
100
AcDbSymbolTableRecord
100
AcDbLinetypeTableRecord
  2
CENTERX2
 70
     0
  3
Center (2x) ________  __  ________  __  _____
 72
    65
 73
     4
 40
20.32
 49
12.7
 74
     0
 49
-2.54
 74
     0
 49
2.54
 74
     0
 49
-2.54
 74
     0
  0
LTYPE
  5
3F
330
5
100
AcDbSymbolTableRecord
100
AcDbLinetypeTableRecord
  2
DOT2
 70
     0
  3
Dot (.5x) ........................................
 72
    65
 73
     2
 40
0.635
 49
0.0
 74
     0
 49
-0.635
 74
     0
  0
ENDTAB
  0
TABLE
  2
LAYER
  5
2
330
0
100
AcDbSymbolTable
 70
     5
  0
LAYER
  5
10
330
2
100
AcDbSymbolTableRecord
100
AcDbLayerTableRecord
  2
0
 70
     0
 62
     7
  6
Continuous
370
    -3
390
F
  0
LAYER
  5
40
330
2
100
AcDbSymbolTableRecord
100
AcDbLayerTableRecord
  2
FORMAT
 70
     0
 62
     7
  6
Continuous
370
    -3
390
F
  0
LAYER
  5
41
330
2
100
AcDbSymbolTableRecord
100
AcDbLayerTableRecord
  2
VERMASSUNG
 70
     0
 62
     7
  6
Continuous
370
    -3
390
F
  0
LAYER
  5
42
330
2
100
AcDbSymbolTableRecord
100
AcDbLayerTableRecord
  2
KOPF_DÜNN
 70
     0
 62
     7
  6
Continuous
370
    -3
390
F
  0
LAYER
  5
43
330
2
100
AcDbSymbolTableRecord
100
AcDbLayerTableRecord
  2
KOPF_DICK
 70
     0
 62
     7
  6
Continuous
370
    15
390
F
  0
ENDTAB
  0
TABLE
  2
STYLE
  5
3
330
0
100
AcDbSymbolTable
 70
     3
  0
STYLE
  5
11
330
3
100
AcDbSymbolTableRecord
100
AcDbTextStyleTableRecord
  2
Standard
 70
     0
 40
0.0
 41
1.0
 50
0.0
 71
     0
 42
2.5
  3
txt
  4

  0
STYLE
  5
44
330
3
100
AcDbSymbolTableRecord
100
AcDbTextStyleTableRecord
  2
SLDTEXTSTYLE0
 70
     0
 40
0.0
 41
0.7
 50
0.0
 71
     0
 42
0.2
  3
TXT
  4

  0
STYLE
  5
48
330
3
100
AcDbSymbolTableRecord
100
AcDbTextStyleTableRecord
  2
SLDTEXTSTYLE1
 70
     0
 40
0.0
 41
0.65
 50
0.0
 71
     0
 42
0.2
  3
TXT
  4

  0
ENDTAB
  0
TABLE
  2
VIEW
  5
6
330
0
100
AcDbSymbolTable
 70
     0
  0
ENDTAB
  0
TABLE
  2
UCS
  5
7
330
0
100
AcDbSymbolTable
 70
     0
  0
ENDTAB
  0
TABLE
  2
APPID
  5
9
330
0
100
AcDbSymbolTable
 70
     1
  0
APPID
  5
12
330
9
100
AcDbSymbolTableRecord
100
AcDbRegAppTableRecord
  2
ACAD
 70
     0
  0
ENDTAB
  0
TABLE
  2
DIMSTYLE
  5
A
330
0
100
AcDbSymbolTable
 70
     5
100
AcDbDimStyleTable
  0
DIMSTYLE
105
27
330
A
100
AcDbSymbolTableRecord
100
AcDbDimStyleTableRecord
  2
ISO-25
 70
     0
 41
2.5
 42
0.625
 43
3.75
 44
1.25
 73
     0
 74
     0
 77
     1
 78
     8
140
2.5
141
2.5
143
0.0393700787
147
0.625
171
     3
172
     1
271
     2
272
     2
274
     3
278
    44
283
     0
284
     8
340
11
  0
DIMSTYLE
105
1B7
102
{ACAD_REACTORS
330
1B6
330
1E7
330
1F1
330
1FB
330
205
102
}
330
A
100
AcDbSymbolTableRecord
100
AcDbDimStyleTableRecord
  2
SLDDIMSTYLE0
 70
     0
 41
3.0
 44
0.0
 45
0.000000001
 73
     0
 74
     0
 77
     1
 78
    12
140
2.0
147
0.5
173
     1
271
     2
272
     3
284
    12
340
44
  0
DIMSTYLE
105
1C4
102
{ACAD_REACTORS
330
1C3
102
}
330
A
100
AcDbSymbolTableRecord
100
AcDbDimStyleTableRecord
  2
SLDDIMSTYLE1
 70
     0
 41
3.0
 44
0.0
 45
0.000000001
 73
     0
 74
     0
 77
     1
 78
    12
140
2.0
147
0.5
173
     1
271
     2
272
     2
284
    12
340
44
  0
DIMSTYLE
105
1CF
102
{ACAD_REACTORS
330
1CE
102
}
330
A
100
AcDbSymbolTableRecord
100
AcDbDimStyleTableRecord
  2
SLDDIMSTYLE2
 70
     0
 41
3.0
 44
0.0
 45
0.000000001
 73
     0
 74
     0
 77
     1
 78
    12
140
2.0
147
0.5
173
     1
271
     2
272
     2
284
    12
340
44
  0
DIMSTYLE
105
1DC
102
{ACAD_REACTORS
330
1DB
102
}
330
A
100
AcDbSymbolTableRecord
100
AcDbDimStyleTableRecord
  2
SLDDIMSTYLE3
 70
     0
 41
3.0
 44
0.0
 45
0.000000001
 73
     0
 74
     0
 77
     1
 78
    12
140
2.0
147
0.5
173
     1
271
     2
272
     3
284
    12
340
44
  0
ENDTAB
  0
TABLE
  2
BLOCK_RECORD
  5
1
330
0
100
AcDbSymbolTable
 70
     9
  0
BLOCK_RECORD
  5
1F
330
1
100
AcDbSymbolTableRecord
100
AcDbBlockTableRecord
  2
*Model_Space
340
22
  0
BLOCK_RECORD
  5
1B
330
1
100
AcDbSymbolTableRecord
100
AcDbBlockTableRecord
  2
*Paper_Space
340
1E
  0
BLOCK_RECORD
  5
23
330
1
100
AcDbSymbolTableRecord
100
AcDbBlockTableRecord
  2
*Paper_Space0
340
26
  0
BLOCK_RECORD
  5
1B8
330
1
100
AcDbSymbolTableRecord
100
AcDbBlockTableRecord
  2
*D1
340
0
  0
BLOCK_RECORD
  5
1C5
330
1
100
AcDbSymbolTableRecord
100
AcDbBlockTableRecord
  2
*D2
340
0
  0
BLOCK_RECORD
  5
1D0
330
1
100
AcDbSymbolTableRecord
100
AcDbBlockTableRecord
  2
*D3
340
0
  0
BLOCK_RECORD
  5
1DD
330
1
100
AcDbSymbolTableRecord
100
AcDbBlockTableRecord
  2
*D4
340
0
  0
BLOCK_RECORD
  5
1E8
330
1
100
AcDbSymbolTableRecord
100
AcDbBlockTableRecord
  2
*D5
340
0
  0
BLOCK_RECORD
  5
1F2
330
1
100
AcDbSymbolTableRecord
100
AcDbBlockTableRecord
  2
*D6
340
0
  0
BLOCK_RECORD
  5
1FC
330
1
100
AcDbSymbolTableRecord
100
AcDbBlockTableRecord
  2
*D7
340
0
  0
BLOCK_RECORD
  5
206
330
1
100
AcDbSymbolTableRecord
100
AcDbBlockTableRecord
  2
*D8
340
0
  0
ENDTAB
  0
ENDSEC
  0
SECTION
  2
BLOCKS
  0
BLOCK
  5
20
330
1F
100
AcDbEntity
  8
0
100
AcDbBlockBegin
  2
*Model_Space
 70
     0
 10
0.0
 20
0.0
 30
0.0
  3
*Model_Space
  1

  0
ENDBLK
  5
21
330
1F
100
AcDbEntity
  8
0
100
AcDbBlockEnd
  0
BLOCK
  5
1C
330
1B
100
AcDbEntity
 67
     1
  8
0
100
AcDbBlockBegin
  2
*Paper_Space
 70
     0
 10
0.0
 20
0.0
 30
0.0
  3
*Paper_Space
  1

  0
ENDBLK
  5
1D
330
1B
100
AcDbEntity
 67
     1
  8
0
100
AcDbBlockEnd
  0
BLOCK
  5
24
330
23
100
AcDbEntity
  8
0
100
AcDbBlockBegin
  2
*Paper_Space0
 70
     0
 10
0.0
 20
0.0
 30
0.0
  3
*Paper_Space0
  1

  0
ENDBLK
  5
25
330
23
100
AcDbEntity
  8
0
100
AcDbBlockEnd
  0
BLOCK
  5
1B9
330
1B8
100
AcDbEntity
  8
0
100
AcDbBlockBegin
  2
*D1
 70
     1
 10
0.0
 20
0.0
 30
0.0
  3
*D1
  1

  0
SOLID
  5
1BB
330
1B8
100
AcDbEntity
  8
VERMASSUNG
100
AcDbTrace
 10
38.0349945829
 20
160.9177681473
 30
0.0
 11
37.5849945829
 21
157.9177681473
 31
0.0
 12
38.4849945829
 22
157.9177681473
 32
0.0
 13
38.4849945829
 23
157.9177681473
 33
0.0
  0
SOLID
  5
1BC
330
1B8
100
AcDbEntity
  8
VERMASSUNG
100
AcDbTrace
 10
38.0349945829
 20
60.9177681473
 30
0.0
 11
38.4849945829
 21
63.9177681473
 31
0.0
 12
37.5849945829
 22
63.9177681473
 32
0.0
 13
37.5849945829
 23
63.9177681473
 33
0.0
  0
LINE
  5
1BD
330
1B8
100
AcDbEntity
  8
VERMASSUNG
100
AcDbLine
 10
93.5561511421
 20
160.9177681473
 30
0.0
 11
37.0349945829
 21
160.9177681473
 31
0.0
  0
LINE
  5
1BE
330
1B8
100
AcDbEntity
  8
VERMASSUNG
100
AcDbLine
 10
93.5561511421
 20
60.9177681473
 30
0.0
 11
37.0349945829
 21
60.9177681473
 31
0.0
  0
LINE
  5
1BF
330
1B8
100
AcDbEntity
  8
VERMASSUNG
100
AcDbLine
 10
38.0349945829
 20
160.9177681473
 30
0.0
 11
38.0349945829
 21
60.9177681473
 31
0.0
  0
MTEXT
  5
1C0
330
1B8
100
AcDbEntity
  8
VERMASSUNG
100
AcDbMText
 10
35.2568590938
 20
102.7141170098
 30
0.0
 40
2.0
 41
0.0
 71
     1
 72
     1
  1
HSK A 
  7
SLDTEXTSTYLE0
 11
-7.044195017643634E-15
 21
1.0
 31
0.0
 73
     1
 44
1.0
  0
MTEXT
  5
1C1
330
1B8
100
AcDbEntity
  8
VERMASSUNG
100
AcDbMText
 10
35.4568591033
 20
111.7141175536
 30
0.0
 40
2.0
 41
0.0
 71
     1
 72
     1
  1
%%c
  7
SLDTEXTSTYLE0
 11
-7.044195017643634E-15
 21
1.0
 31
0.0
 73
     1
 44
1.0
  0
MTEXT
  5
1C2
330
1B8
100
AcDbEntity
  8
VERMASSUNG
100
AcDbMText
 10
35.4568592198
 20
115.3224442037
 30
0.0
 40
2.0
 41
0.0
 71
     1
 72
     1
  1
100
  7
SLDTEXTSTYLE0
 11
-7.044195017643634E-15
 21
1.0
 31
0.0
 73
     1
 44
1.0
  0
ENDBLK
  5
1BA
330
1B8
100
AcDbEntity
  8
0
100
AcDbBlockEnd
  0
BLOCK
  5
1C6
330
1C5
100
AcDbEntity
  8
0
100
AcDbBlockBegin
  2
*D2
 70
     1
 10
0.0
 20
0.0
 30
0.0
  3
*D2
  1

  0
SOLID
  5
1C8
330
1C5
100
AcDbEntity
  8
VERMASSUNG
100
AcDbTrace
 10
216.5561511421
 20
158.9177681473
 30
0.0
 11
219.5561511421
 21
158.4677681473
 31
0.0
 12
219.5561511421
 22
159.3677681473
 32
0.0
 13
219.5561511421
 23
159.3677681473
 33
0.0
  0
SOLID
  5
1C9
330
1C5
100
AcDbEntity
  8
VERMASSUNG
100
AcDbTrace
 10
253.0561511421
 20
158.9177681473
 30
0.0
 11
250.0561511421
 21
159.3677681473
 31
0.0
 12
250.0561511421
 22
158.4677681473
 32
0.0
 13
250.0561511421
 23
158.4677681473
 33
0.0
  0
LINE
  5
1CA
330
1C5
100
AcDbEntity
  8
VERMASSUNG
100
AcDbLine
 10
216.5561511421
 20
114.8177681473
 30
0.0
 11
216.5561511421
 21
159.9177681473
 31
0.0
  0
LINE
  5
1CB
330
1C5
100
AcDbEntity
  8
VERMASSUNG
100
AcDbLine
 10
253.0561511421
 20
119.568987164
 30
0.0
 11
253.0561511421
 21
159.9177681473
 31
0.0
  0
LINE
  5
1CC
330
1C5
100
AcDbEntity
  8
VERMASSUNG
100
AcDbLine
 10
216.5561511421
 20
158.9177681473
 30
0.0
 11
253.0561511421
 21
158.9177681473
 31
0.0
  0
MTEXT
  5
1CD
330
1C5
100
AcDbEntity
  8
VERMASSUNG
100
AcDbMText
 10
232.4065541757
 20
161.4959035105
 30
0.0
 40
2.0
 41
0.0
 71
     1
 72
     1
  1
36.5
  7
SLDTEXTSTYLE0
 73
     1
 44
1.0
  0
ENDBLK
  5
1C7
330
1C5
100
AcDbEntity
  8
0
100
AcDbBlockEnd
  0
BLOCK
  5
1D1
330
1D0
100
AcDbEntity
  8
0
100
AcDbBlockBegin
  2
*D3
 70
     1
 10
0.0
 20
0.0
 30
0.0
  3
*D3
  1

  0
SOLID
  5
1D3
330
1D0
100
AcDbEntity
  8
VERMASSUNG
100
AcDbTrace
 10
259.3827302275
 20
106.9177681473
 30
0.0
 11
259.8327302275
 21
109.9177681473
 31
0.0
 12
258.9327302275
 22
109.9177681473
 32
0.0
 13
258.9327302275
 23
109.9177681473
 33
0.0
  0
SOLID
  5
1D4
330
1D0
100
AcDbEntity
  8
VERMASSUNG
100
AcDbTrace
 10
259.3827302275
 20
114.9177681473
 30
0.0
 11
258.9327302275
 21
111.9177681473
 31
0.0
 12
259.8327302275
 22
111.9177681473
 32
0.0
 13
259.8327302275
 23
111.9177681473
 33
0.0
  0
LINE
  5
1D5
330
1D0
100
AcDbEntity
  8
VERMASSUNG
100
AcDbLine
 10
249.5561511421
 20
106.9177681473
 30
0.0
 11
260.3827302275
 21
106.9177681473
 31
0.0
  0
LINE
  5
1D6
330
1D0
100
AcDbEntity
  8
VERMASSUNG
100
AcDbLine
 10
249.5561511421
 20
114.9177681473
 30
0.0
 11
260.3827302275
 21
114.9177681473
 31
0.0
  0
LINE
  5
1D7
330
1D0
100
AcDbEntity
  8
VERMASSUNG
100
AcDbLine
 10
259.3827302275
 20
106.9177681473
 30
0.0
 11
259.3827302275
 21
114.9177681473
 31
0.0
  0
MTEXT
  5
1D8
330
1D0
100
AcDbEntity
  8
VERMASSUNG
100
AcDbMText
 10
256.804594748
 20
107.8138407367
 30
0.0
 40
2.0
 41
0.0
 71
     1
 72
     1
  1
%%c
  7
SLDTEXTSTYLE0
 11
6.123233995736766E-17
 21
1.0
 31
0.0
 73
     1
 44
1.0
  0
MTEXT
  5
1D9
330
1D0
100
AcDbEntity
  8
VERMASSUNG
100
AcDbMText
 10
256.8045948644
 20
111.4225189599
 30
0.0
 40
2.0
 41
0.0
 71
     1
 72
     1
  1
8
  7
SLDTEXTSTYLE0
 11
6.123233995736766E-17
 21
1.0
 31
0.0
 73
     1
 44
1.0
  0
MTEXT
  5
1DA
330
1D0
100
AcDbEntity
  8
VERMASSUNG
100
AcDbMText
 10
256.8045948644
 20
112.8218970748
 30
0.0
 40
2.0
 41
0.0
 71
     1
 72
     1
  1
 
  7
SLDTEXTSTYLE0
 11
6.123233995736766E-17
 21
1.0
 31
0.0
 73
     1
 44
1.0
  0
ENDBLK
  5
1D2
330
1D0
100
AcDbEntity
  8
0
100
AcDbBlockEnd
  0
BLOCK
  5
1DE
330
1DD
100
AcDbEntity
  8
0
100
AcDbBlockBegin
  2
*D4
 70
     1
 10
0.0
 20
0.0
 30
0.0
  3
*D4
  1

  0
SOLID
  5
1E0
330
1DD
100
AcDbEntity
  8
VERMASSUNG
100
AcDbTrace
 10
265.3827302275
 20
100.4177681473
 30
0.0
 11
265.8327302275
 21
103.4177681473
 31
0.0
 12
264.9327302275
 22
103.4177681473
 32
0.0
 13
264.9327302275
 23
103.4177681473
 33
0.0
  0
SOLID
  5
1E1
330
1DD
100
AcDbEntity
  8
VERMASSUNG
100
AcDbTrace
 10
265.3827302275
 20
121.4177681473
 30
0.0
 11
264.9327302275
 21
118.4177681473
 31
0.0
 12
265.8327302275
 22
118.4177681473
 32
0.0
 13
265.8327302275
 23
118.4177681473
 33
0.0
  0
LINE
  5
1E2
330
1DD
100
AcDbEntity
  8
VERMASSUNG
100
AcDbLine
 10
253.0561511421
 20
100.4177681473
 30
0.0
 11
266.3827302275
 21
100.4177681473
 31
0.0
  0
LINE
  5
1E3
330
1DD
100
AcDbEntity
  8
VERMASSUNG
100
AcDbLine
 10
253.0561511421
 20
121.4177681473
 30
0.0
 11
266.3827302275
 21
121.4177681473
 31
0.0
  0
LINE
  5
1E4
330
1DD
100
AcDbEntity
  8
VERMASSUNG
100
AcDbLine
 10
265.3827302275
 20
100.4177681473
 30
0.0
 11
265.3827302275
 21
121.4177681473
 31
0.0
  0
MTEXT
  5
1E5
330
1DD
100
AcDbEntity
  8
VERMASSUNG
100
AcDbMText
 10
262.804594748
 20
107.9136305525
 30
0.0
 40
2.0
 41
0.0
 71
     1
 72
     1
  1
%%c
  7
SLDTEXTSTYLE0
 11
6.123233995736766E-17
 21
1.0
 31
0.0
 73
     1
 44
1.0
  0
MTEXT
  5
1E6
330
1DD
100
AcDbEntity
  8
VERMASSUNG
100
AcDbMText
 10
262.8045948644
 20
111.5223087757
 30
0.0
 40
2.0
 41
0.0
 71
     1
 72
     1
  1
21
  7
SLDTEXTSTYLE0
 11
6.123233995736766E-17
 21
1.0
 31
0.0
 73
     1
 44
1.0
  0
ENDBLK
  5
1DF
330
1DD
100
AcDbEntity
  8
0
100
AcDbBlockEnd
  0
BLOCK
  5
1E9
330
1E8
100
AcDbEntity
  8
0
100
AcDbBlockBegin
  2
*D5
 70
     1
 10
0.0
 20
0.0
 30
0.0
  3
*D5
  1

  0
SOLID
  5
1EB
330
1E8
100
AcDbEntity
  8
VERMASSUNG
100
AcDbTrace
 10
93.0561511421
 20
170.9177681473
 30
0.0
 11
96.0561511421
 21
170.4677681473
 31
0.0
 12
96.0561511421
 22
171.3677681473
 32
0.0
 13
96.0561511421
 23
171.3677681473
 33
0.0
  0
SOLID
  5
1EC
330
1E8
100
AcDbEntity
  8
VERMASSUNG
100
AcDbTrace
 10
253.0561511421
 20
170.9177681473
 30
0.0
 11
250.0561511421
 21
171.3677681473
 31
0.0
 12
250.0561511421
 22
170.4677681473
 32
0.0
 13
250.0561511421
 23
170.4677681473
 33
0.0
  0
LINE
  5
1ED
330
1E8
100
AcDbEntity
  8
VERMASSUNG
100
AcDbLine
 10
93.0561511421
 20
160.4177681473
 30
0.0
 11
93.0561511421
 21
171.9177681473
 31
0.0
  0
LINE
  5
1EE
330
1E8
100
AcDbEntity
  8
VERMASSUNG
100
AcDbLine
 10
253.0561511421
 20
119.568987164
 30
0.0
 11
253.0561511421
 21
171.9177681473
 31
0.0
  0
LINE
  5
1EF
330
1E8
100
AcDbEntity
  8
VERMASSUNG
100
AcDbLine
 10
93.0561511421
 20
170.9177681473
 30
0.0
 11
253.0561511421
 21
170.9177681473
 31
0.0
  0
MTEXT
  5
1F0
330
1E8
100
AcDbEntity
  8
VERMASSUNG
100
AcDbMText
 10
171.1566636015
 20
173.4959035105
 30
0.0
 40
2.0
 41
0.0
 71
     1
 72
     1
  1
160
  7
SLDTEXTSTYLE0
 73
     1
 44
1.0
  0
ENDBLK
  5
1EA
330
1E8
100
AcDbEntity
  8
0
100
AcDbBlockEnd
  0
BLOCK
  5
1F3
330
1F2
100
AcDbEntity
  8
0
100
AcDbBlockBegin
  2
*D6
 70
     1
 10
0.0
 20
0.0
 30
0.0
  3
*D6
  1

  0
SOLID
  5
1F5
330
1F2
100
AcDbEntity
  8
VERMASSUNG
100
AcDbTrace
 10
122.0061511421
 20
164.9177681473
 30
0.0
 11
125.0061511421
 21
164.4677681473
 31
0.0
 12
125.0061511421
 22
165.3677681473
 32
0.0
 13
125.0061511421
 23
165.3677681473
 33
0.0
  0
SOLID
  5
1F6
330
1F2
100
AcDbEntity
  8
VERMASSUNG
100
AcDbTrace
 10
253.0561511421
 20
164.9177681473
 30
0.0
 11
250.0561511421
 21
165.3677681473
 31
0.0
 12
250.0561511421
 22
164.4677681473
 32
0.0
 13
250.0561511421
 23
164.4677681473
 33
0.0
  0
LINE
  5
1F7
330
1F2
100
AcDbEntity
  8
VERMASSUNG
100
AcDbLine
 10
122.0061511421
 20
158.8865079682
 30
0.0
 11
122.0061511421
 21
165.9177681473
 31
0.0
  0
LINE
  5
1F8
330
1F2
100
AcDbEntity
  8
VERMASSUNG
100
AcDbLine
 10
253.0561511421
 20
119.568987164
 30
0.0
 11
253.0561511421
 21
165.9177681473
 31
0.0
  0
LINE
  5
1F9
330
1F2
100
AcDbEntity
  8
VERMASSUNG
100
AcDbLine
 10
122.0061511421
 20
164.9177681473
 30
0.0
 11
253.0561511421
 21
164.9177681473
 31
0.0
  0
MTEXT
  5
1FA
330
1F2
100
AcDbEntity
  8
VERMASSUNG
100
AcDbMText
 10
184.1313353241
 20
167.4959035105
 30
0.0
 40
2.0
 41
0.0
 71
     1
 72
     1
  1
131.05
  7
SLDTEXTSTYLE0
 73
     1
 44
1.0
  0
ENDBLK
  5
1F4
330
1F2
100
AcDbEntity
  8
0
100
AcDbBlockEnd
  0
BLOCK
  5
1FD
330
1FC
100
AcDbEntity
  8
0
100
AcDbBlockBegin
  2
*D7
 70
     1
 10
0.0
 20
0.0
 30
0.0
  3
*D7
  1

  0
SOLID
  5
1FF
330
1FC
100
AcDbEntity
  8
VERMASSUNG
100
AcDbTrace
 10
43.1561511421
 20
176.9177681473
 30
0.0
 11
46.1561511421
 21
176.4677681473
 31
0.0
 12
46.1561511421
 22
177.3677681473
 32
0.0
 13
46.1561511421
 23
177.3677681473
 33
0.0
  0
SOLID
  5
200
330
1FC
100
AcDbEntity
  8
VERMASSUNG
100
AcDbTrace
 10
253.0561511421
 20
176.9177681473
 30
0.0
 11
250.0561511421
 21
177.3677681473
 31
0.0
 12
250.0561511421
 22
176.4677681473
 32
0.0
 13
250.0561511421
 23
176.4677681473
 33
0.0
  0
LINE
  5
201
330
1FC
100
AcDbEntity
  8
VERMASSUNG
100
AcDbLine
 10
43.1561511421
 20
141.4204378899
 30
0.0
 11
43.1561511421
 21
177.9177681473
 31
0.0
  0
LINE
  5
202
330
1FC
100
AcDbEntity
  8
VERMASSUNG
100
AcDbLine
 10
253.0561511421
 20
119.568987164
 30
0.0
 11
253.0561511421
 21
177.9177681473
 31
0.0
  0
LINE
  5
203
330
1FC
100
AcDbEntity
  8
VERMASSUNG
100
AcDbLine
 10
43.1561511421
 20
176.9177681473
 30
0.0
 11
253.0561511421
 21
176.9177681473
 31
0.0
  0
MTEXT
  5
204
330
1FC
100
AcDbEntity
  8
VERMASSUNG
100
AcDbMText
 10
145.0068651183
 20
179.4959035105
 30
0.0
 40
2.0
 41
0.0
 71
     1
 72
     1
  1
209.9
  7
SLDTEXTSTYLE0
 73
     1
 44
1.0
  0
ENDBLK
  5
1FE
330
1FC
100
AcDbEntity
  8
0
100
AcDbBlockEnd
  0
BLOCK
  5
207
330
206
100
AcDbEntity
  8
0
100
AcDbBlockBegin
  2
*D8
 70
     1
 10
0.0
 20
0.0
 30
0.0
  3
*D8
  1

  0
SOLID
  5
209
330
206
100
AcDbEntity
  8
VERMASSUNG
100
AcDbTrace
 10
271.3827302275
 20
125.9177681473
 30
0.0
 11
270.9327302275
 21
122.9177681473
 31
0.0
 12
271.8327302275
 22
122.9177681473
 32
0.0
 13
271.8327302275
 23
122.9177681473
 33
0.0
  0
SOLID
  5
20A
330
206
100
AcDbEntity
  8
VERMASSUNG
100
AcDbTrace
 10
271.3827302275
 20
95.9177681473
 30
0.0
 11
271.8327302275
 21
98.9177681473
 31
0.0
 12
270.9327302275
 22
98.9177681473
 32
0.0
 13
270.9327302275
 23
98.9177681473
 33
0.0
  0
LINE
  5
20B
330
206
100
AcDbEntity
  8
VERMASSUNG
100
AcDbLine
 10
171.0061511421
 20
125.9177681473
 30
0.0
 11
272.3827302275
 21
125.9177681473
 31
0.0
  0
LINE
  5
20C
330
206
100
AcDbEntity
  8
VERMASSUNG
100
AcDbLine
 10
171.0061511421
 20
95.9177681473
 30
0.0
 11
272.3827302275
 21
95.9177681473
 31
0.0
  0
LINE
  5
20D
330
206
100
AcDbEntity
  8
VERMASSUNG
100
AcDbLine
 10
271.3827302275
 20
125.9177681473
 30
0.0
 11
271.3827302275
 21
95.9177681473
 31
0.0
  0
MTEXT
  5
20E
330
206
100
AcDbEntity
  8
VERMASSUNG
100
AcDbMText
 10
268.804594748
 20
107.7140509209
 30
0.0
 40
2.0
 41
0.0
 71
     1
 72
     1
  1
%%c
  7
SLDTEXTSTYLE0
 11
-7.044195017643634E-15
 21
1.0
 31
0.0
 73
     1
 44
1.0
  0
MTEXT
  5
20F
330
206
100
AcDbEntity
  8
VERMASSUNG
100
AcDbMText
 10
268.8045948644
 20
111.3227291441
 30
0.0
 40
2.0
 41
0.0
 71
     1
 72
     1
  1
30
  7
SLDTEXTSTYLE0
 11
-7.044195017643634E-15
 21
1.0
 31
0.0
 73
     1
 44
1.0
  0
ENDBLK
  5
208
330
206
100
AcDbEntity
  8
0
100
AcDbBlockEnd
  0
ENDSEC
  0
SECTION
  2
ENTITIES
  0
MTEXT
  5
45
330
1F
100
AcDbEntity
  8
KOPF_DÜNN
100
AcDbMText
 10
13.8892156294
 20
23.8442973028
 30
0.0
 40
3.0
 41
0.0
 71
     1
 72
     1
  1
HA0.S08.K21.160
  7
SLDTEXTSTYLE0
 73
     1
 44
1.0
  0
MTEXT
  5
46
330
1F
100
AcDbEntity
  8
VERMASSUNG
100
AcDbMText
 10
13.9329988022
 20
28.8834360957
 30
0.0
 40
3.0
 41
0.0
 71
     1
 72
     1
  1
Schrumpffutter_Heat shrink chuck
  7
SLDTEXTSTYLE0
 73
     1
 44
1.0
  0
MTEXT
  5
47
330
1F
100
AcDbEntity
  8
VERMASSUNG
100
AcDbMText
 10
98.8601118557
 20
13.8365368179
 30
0.0
 40
2.0
 41
0.0
 71
     1
 72
     1
  1
Datum: 28.04.2011
  7
SLDTEXTSTYLE0
 73
     1
 44
1.0
  0
MTEXT
  5
49
330
1F
100
AcDbEntity
  8
VERMASSUNG
100
AcDbMText
 10
13.933048693
 20
18.0482802738
 30
0.0
 40
2.0
 41
0.0
 71
     1
 72
     1
  1
DIN 69 893 HSK A 100
  7
SLDTEXTSTYLE1
 73
     1
 44
1.0
  0
MTEXT
  5
4A
330
1F
100
AcDbEntity
  8
VERMASSUNG
100
AcDbMText
 10
13.9808475933
 20
13.9090973692
 30
0.0
 40
2.0
 41
0.0
 71
     1
 72
     1
  1
Gewicht: 2585g
  7
SLDTEXTSTYLE0
 73
     1
 44
1.0
  0
LINE
  5
4B
330
1F
100
AcDbEntity
  8
0
  6
Continuous
 62
     7
370
    15
100
AcDbLine
 10
253.0745836256
 20
119.1374848488
 30
0.0
 11
253.0561511421
 21
119.1725192374
 31
0.0
  0
LINE
  5
4C
330
1F
100
AcDbEntity
  8
0
  6
Continuous
 62
     7
370
    15
100
AcDbLine
 10
253.0561511421
 20
102.553399887
 30
0.0
 11
253.1334733492
 21
102.7003652294
 31
0.0
  0
ARC
  5
4D
330
1F
100
AcDbEntity
  8
0
  6
Continuous
 62
     7
370
    15
100
AcDbCircle
 10
93.5561511421
 20
61.4177681473
 30
0.0
 40
0.5
100
AcDbArc
 50
180.0
 51
270.0
  0
ARC
  5
4E
330
1F
100
AcDbEntity
  8
0
  6
Continuous
 62
     7
370
    15
100
AcDbCircle
 10
93.5561511421
 20
160.4177681473
 30
0.0
 40
0.5
100
AcDbArc
 50
90.0
 51
180.0
  0
LINE
  5
4F
330
1F
100
AcDbEntity
  8
0
  6
Continuous
 62
     7
370
    15
100
AcDbLine
 10
93.5561511421
 20
60.9177681473
 30
0.0
 11
98.0061511421
 21
60.9177681473
 31
0.0
  0
LINE
  5
50
330
1F
100
AcDbEntity
  8
0
  6
Continuous
 62
     7
370
    15
100
AcDbLine
 10
98.0402239746
 20
160.9177681473
 30
0.0
 11
93.5561511421
 21
160.9177681473
 31
0.0
  0
ARC
  5
51
330
1F
100
AcDbEntity
  8
0
  6
Continuous
 62
     7
370
    15
100
AcDbCircle
 10
92.1592142236
 20
72.2892828229
 30
0.0
 40
0.9962338214386921
100
AcDbArc
 50
25.7988228126
 51
90.0
  0
ARC
  5
52
330
1F
100
AcDbEntity
  8
0
  6
Continuous
 62
     7
370
    15
100
AcDbCircle
 10
92.1592142236
 20
149.5462534718
 30
0.0
 40
0.9962338214386932
100
AcDbArc
 50
270.0
 51
334.2011771874
  0
LINE
  5
53
330
1F
100
AcDbEntity
  8
0
  6
Continuous
 62
     7
370
    15
100
AcDbLine
 10
71.5754722235
 20
147.8490838328
 30
0.0
 11
53.2561511421
 21
146.9312821754
 31
0.0
  0
LINE
  5
54
330
1F
100
AcDbEntity
  8
0
  6
Continuous
 62
     7
370
    15
100
AcDbLine
 10
90.5561511421
 20
148.8000196504
 30
0.0
 11
84.4881119876
 21
148.4960096727
 31
0.0
  0
LINE
  5
55
330
1F
100
AcDbEntity
  8
0
  6
Continuous
 62
     7
370
    15
100
AcDbLine
 10
84.4882352641
 20
73.3395204458
 30
0.0
 11
90.5561511421
 21
73.0355166443
 31
0.0
  0
LINE
  5
56
330
1F
100
AcDbEntity
  8
0
  6
Continuous
 62
     7
370
    15
100
AcDbLine
 10
58.2561511421
 20
74.6537531173
 30
0.0
 11
71.576102296
 21
73.9864208951
 31
0.0
  0
LINE
  5
57
330
1F
100
AcDbEntity
  8
0
  6
Continuous
 62
     7
370
    15
100
AcDbLine
 10
90.5561511421
 20
73.0355166443
 30
0.0
 11
91.3619972965
 21
73.2514424706
 31
0.0
  0
LINE
  5
58
330
1F
100
AcDbEntity
  8
0
  6
Continuous
 62
     7
370
    15
100
AcDbLine
 10
91.3619972965
 20
148.5840938241
 30
0.0
 11
90.5561511421
 21
148.8000196504
 31
0.0
  0
ARC
  5
59
330
1F
100
AcDbEntity
  8
0
  6
Continuous
 62
     7
370
    15
100
AcDbCircle
 10
91.6208163416
 20
72.2855166443
 30
0.0
 40
0.9999999999999858
100
AcDbArc
 50
90.0
 51
105.0
  0
ARC
  5
5A
330
1F
100
AcDbEntity
  8
0
  6
Continuous
 62
     7
370
    15
100
AcDbCircle
 10
91.6208163416
 20
149.5500196504
 30
0.0
 40
0.9999999999999716
100
AcDbArc
 50
255.0
 51
270.0
  0
LINE
  5
5B
330
1F
100
AcDbEntity
  8
0
  6
Continuous
 62
     7
370
    15
100
AcDbLine
 10
91.6208163416
 20
73.2855166443
 30
0.0
 11
92.1592142236
 21
73.2855166443
 31
0.0
  0
LINE
  5
5C
330
1F
100
AcDbEntity
  8
0
  6
Continuous
 62
     7
370
    15
100
AcDbLine
 10
92.1592142236
 20
148.5500196504
 30
0.0
 11
91.6208163416
 21
148.5500196504
 31
0.0
  0
ARC
  5
5D
330
1F
100
AcDbEntity
  8
0
  6
Continuous
 62
     7
370
    15
100
AcDbCircle
 10
127.0061511421
 20
87.0001484412
 30
0.0
 40
5.0
100
AcDbArc
 50
106.5116637356
 51
180.0
  0
ARC
  5
5E
330
1F
100
AcDbEntity
  8
0
  6
Continuous
 62
     7
370
    15
100
AcDbCircle
 10
127.0061511421
 20
134.8353878535
 30
0.0
 40
5.0
100
AcDbArc
 50
180.0
 51
253.4883362644
  0
ARC
  5
5F
330
1F
100
AcDbEntity
  8
0
  6
Continuous
 62
     7
370
    15
100
AcDbCircle
 10
154.0061511421
 20
-4.0822318527
 30
0.0
 40
100.0
100
AcDbArc
 50
90.0
 51
106.5116637356
  0
ARC
  5
60
330
1F
100
AcDbEntity
  8
0
  6
Continuous
 62
     7
370
    15
100
AcDbCircle
 10
154.0061511421
 20
225.9177681473
 30
0.0
 40
100.0
100
AcDbArc
 50
253.4883362644
 51
270.0
  0
LINE
  5
61
330
1F
100
AcDbEntity
  8
0
  6
Continuous
 62
     7
370
    15
100
AcDbLine
 10
44.8061511421
 20
78.6677681473
 30
0.0
 11
56.3561511421
 21
78.6677681473
 31
0.0
  0
ARC
  5
62
330
1F
100
AcDbEntity
  8
0
  6
Continuous
 62
     7
370
    15
100
AcDbCircle
 10
56.3561511421
 20
76.7677681473
 30
0.0
 40
1.900000000000007
100
AcDbArc
 50
35.6630613694
 51
90.0
  0
ARC
  5
63
330
1F
100
AcDbEntity
  8
0
  6
Continuous
 62
     7
370
    15
100
AcDbCircle
 10
51.3561511421
 20
145.0677681473
 30
0.0
 40
1.9
100
AcDbArc
 50
270.0
 51
312.7708047792
  0
LINE
  5
64
330
1F
100
AcDbEntity
  8
0
  6
Continuous
 62
     7
370
    15
100
AcDbLine
 10
44.8061511421
 20
143.1677681473
 30
0.0
 11
43.2129347801
 21
141.5745517854
 31
0.0
  0
LINE
  5
65
330
1F
100
AcDbEntity
  8
0
  6
Continuous
 62
     7
370
    15
100
AcDbLine
 10
43.2136740425
 20
80.2602452469
 30
0.0
 11
44.8061511421
 21
78.6677681473
 31
0.0
  0
LINE
  5
66
330
1F
100
AcDbEntity
  8
0
  6
Continuous
 62
     7
370
    15
100
AcDbLine
 10
51.3561511421
 20
143.1677681473
 30
0.0
 11
44.8061511421
 21
143.1677681473
 31
0.0
  0
ARC
  5
67
330
1F
100
AcDbEntity
  8
0
  6
Continuous
 62
     7
370
    15
100
AcDbCircle
 10
211.5986381317
 20
-452.5822318527
 30
0.0
 40
550.0
100
AcDbArc
 50
90.0
 51
94.2325360682
  0
ARC
  5
68
330
1F
100
AcDbEntity
  8
0
  6
Continuous
 62
     7
370
    15
100
AcDbCircle
 10
211.5986381317
 20
674.4177681473
 30
0.0
 40
550.0
100
AcDbArc
 50
265.7674639318
 51
270.0
  0
LINE
  5
69
330
1F
100
AcDbEntity
  8
0
  6
Continuous
 62
     7
370
    15
100
AcDbLine
 10
165.5051385184
 20
95.9177681473
 30
0.0
 11
171.0061511421
 21
95.9177681473
 31
0.0
  0
LINE
  5
6A
330
1F
100
AcDbEntity
  8
0
  6
Continuous
 62
     7
370
    15
100
AcDbLine
 10
154.0061511421
 20
95.9177681473
 30
0.0
 11
158.5110015106
 21
95.9177681473
 31
0.0
  0
LINE
  5
6B
330
1F
100
AcDbEntity
  8
0
  6
Continuous
 62
     7
370
    15
100
AcDbLine
 10
158.50727803
 20
125.9177681473
 30
0.0
 11
154.0061511421
 21
125.9177681473
 31
0.0
  0
LINE
  5
6C
330
1F
100
AcDbEntity
  8
0
  6
Continuous
 62
     7
370
    15
100
AcDbLine
 10
171.0061511421
 20
125.9177681473
 30
0.0
 11
165.4963889825
 21
125.9177681473
 31
0.0
  0
LINE
  5
6D
330
1F
100
AcDbEntity
  8
0
  6
Continuous
 62
     7
370
    15
100
AcDbLine
 10
211.5986381317
 20
97.4177681473
 30
0.0
 11
214.9375369336
 21
97.4177681473
 31
0.0
  0
LINE
  5
6E
330
1F
100
AcDbEntity
  8
0
  6
Continuous
 62
     7
370
    15
100
AcDbLine
 10
214.9375369336
 20
124.4177681473
 30
0.0
 11
211.5986381317
 21
124.4177681473
 31
0.0
  0
LINE
  5
6F
330
1F
100
AcDbEntity
  8
0
  6
Continuous
 62
     7
370
    15
100
AcDbLine
 10
214.9375369336
 20
97.4177681473
 30
0.0
 11
251.2130693336
 21
100.2727144632
 31
0.0
  0
LINE
  5
70
330
1F
100
AcDbEntity
  8
0
  6
Continuous
 62
     7
370
    15
100
AcDbLine
 10
251.2130693336
 20
121.5628218315
 30
0.0
 11
214.9375369336
 21
124.4177681473
 31
0.0
  0
ARC
  5
71
330
1F
100
AcDbEntity
  8
0
  6
Continuous
 62
     7
370
    15
100
AcDbCircle
 10
251.0561511421
 20
102.2665491307
 30
0.0
 40
2.000000000000004
100
AcDbArc
 50
274.5
 51
0.0
  0
ARC
  5
72
330
1F
100
AcDbEntity
  8
0
  6
Continuous
 62
     7
370
    15
100
AcDbCircle
 10
251.0561511421
 20
119.568987164
 30
0.0
 40
2.000000000000004
100
AcDbArc
 50
0.0
 51
85.5
  0
LINE
  5
73
330
1F
100
AcDbEntity
  8
0
  6
Continuous
 62
     7
370
    15
100
AcDbLine
 10
253.0681692776
 20
118.9742287903
 30
0.0
 11
253.0561511421
 21
118.6683468163
 31
0.0
  0
LINE
  5
74
330
1F
100
AcDbEntity
  8
0
  6
Continuous
 62
     7
370
    15
100
AcDbLine
 10
253.0745836256
 20
119.1374848488
 30
0.0
 11
253.0681692776
 21
118.9742287903
 31
0.0
  0
LINE
  5
75
330
1F
100
AcDbEntity
  8
0
  6
Continuous
 62
     7
370
    15
100
AcDbLine
 10
253.0561511421
 20
104.6683468163
 30
0.0
 11
253.1334733492
 21
102.7003652294
 31
0.0
  0
LINE
  5
76
330
1F
100
AcDbEntity
  8
0
  6
Continuous
 62
     7
370
    15
100
AcDbLine
 10
122.0061511421
 20
63.1684226021
 30
0.0
 11
122.0061511421
 21
142.2677681473
 31
0.0
  0
SPLINE
  5
77
330
1F
100
AcDbEntity
  8
0
  6
Continuous
 62
     7
370
    15
100
AcDbSpline
210
0.0
220
0.0
230
1.0
 70
     8
 71
     3
 72
    14
 73
    10
 74
     0
 42
0.00000001
 43
0.00000001
 40
0.0
 40
0.0
 40
0.0
 40
0.0
 40
0.25
 40
0.25
 40
0.5
 40
0.5
 40
0.75
 40
0.75
 40
1.0
 40
1.0
 40
1.0
 40
1.0
 10
122.0061511420968
 20
63.16842260209235
 30
0.0
 10
122.0061511420968
 20
63.03499690603781
 30
0.0
 10
121.9808400421859
 20
62.90314909819347
 30
0.0
 10
121.8825052783412
 20
62.65662654949936
 30
0.0
 10
121.8093612740851
 20
62.54282136125882
 30
0.0
 10
121.6259232129894
 20
62.35236418431155
 30
0.0
 10
121.5142368786508
 20
62.27472932046163
 30
0.0
 10
121.2717334483446
 20
62.17043791034916
 30
0.0
 10
121.1383590196503
 20
62.14277455431681
 30
0.0
 10
121.0061511420968
 20
62.14277455431682
 30
0.0
  0
SPLINE
  5
78
330
1F
100
AcDbEntity
  8
0
  6
Continuous
 62
     7
370
    15
100
AcDbSpline
210
0.0
220
0.0
230
1.0
 70
    24
 71
     3
 72
    12
 73
     8
 74
     0
 42
0.00000001
 43
0.00000001
 40
0.0
 40
0.0
 40
0.0
 40
0.0
 40
0.2500000000000032
 40
0.2500000000000032
 40
0.5000000000000064
 40
0.5000000000000064
 40
1.0
 40
1.0
 40
1.0
 40
1.0
 10
121.0061511420968
 20
142.2677681473457
 30
0.0
 10
121.1582413790418
 20
142.2677681473457
 30
0.0
 10
121.3067006401172
 20
142.2677681473457
 30
0.0
 10
121.5641042723829
 20
142.2677681473457
 30
0.0
 10
121.6732090202248
 20
142.2677681473457
 30
0.0
 10
121.9272684966324
 20
142.2677681473457
 30
0.0
 10
122.0061511420968
 20
142.2677681473457
 30
0.0
 10
122.0061511420968
 20
142.2677681473457
 30
0.0
  0
LINE
  5
79
330
1F
100
AcDbEntity
  8
0
  6
Continuous
 62
     7
370
    15
100
AcDbLine
 10
93.0561511421
 20
61.4177681473
 30
0.0
 11
93.0561511421
 21
160.4177681446
 31
0.0
  0
SPLINE
  5
7A
330
1F
100
AcDbEntity
  8
0
  6
Continuous
 62
     7
370
    15
100
AcDbSpline
210
0.0
220
0.0
230
1.0
 70
     8
 71
     3
 72
    80
 73
    76
 74
     0
 42
0.00000001
 43
0.00000001
 40
-0.0312500000000001
 40
-0.0312500000000001
 40
0.0
 40
0.0
 40
0.0312499999999995
 40
0.0312499999999995
 40
0.0468749999999993
 40
0.0468749999999993
 40
0.0624999999999991
 40
0.0624999999999991
 40
0.0937499999999988
 40
0.0937499999999988
 40
0.1249999999999986
 40
0.1249999999999986
 40
0.1562499999999983
 40
0.1562499999999983
 40
0.1874999999999981
 40
0.1874999999999981
 40
0.2187499999999978
 40
0.2187499999999978
 40
0.2499999999999976
 40
0.2499999999999976
 40
0.2812499999999973
 40
0.2812499999999973
 40
0.3124999999999971
 40
0.3124999999999971
 40
0.3281249999999971
 40
0.3281249999999971
 40
0.3437499999999971
 40
0.3437499999999971
 40
0.3749999999999973
 40
0.3749999999999973
 40
0.4062499999999975
 40
0.4062499999999975
 40
0.4218749999999975
 40
0.4218749999999975
 40
0.4374999999999974
 40
0.4374999999999974
 40
0.4687499999999973
 40
0.4687499999999973
 40
0.4999999999999972
 40
0.4999999999999972
 40
0.531249999999997
 40
0.531249999999997
 40
0.562499999999997
 40
0.562499999999997
 40
0.5937499999999969
 40
0.5937499999999969
 40
0.6249999999999969
 40
0.6249999999999969
 40
0.6562499999999968
 40
0.6562499999999968
 40
0.6874999999999968
 40
0.6874999999999968
 40
0.7031249999999968
 40
0.7031249999999968
 40
0.7187499999999969
 40
0.7187499999999969
 40
0.7499999999999973
 40
0.7499999999999973
 40
0.7812499999999979
 40
0.7812499999999979
 40
0.7968749999999982
 40
0.7968749999999982
 40
0.8124999999999984
 40
0.8124999999999984
 40
0.8437499999999988
 40
0.8437499999999988
 40
0.874999999999999
 40
0.874999999999999
 40
0.9062499999999993
 40
0.9062499999999993
 40
0.9374999999999996
 40
0.9374999999999996
 40
0.9687499999999999
 40
0.9687499999999999
 40
1.0
 40
1.0
 40
1.03125
 40
1.03125
 10
101.7256058293205
 20
154.332397610977
 30
0.0
 10
102.3866964548731
 20
154.332397610977
 30
0.0
 10
102.7116765841247
 20
154.3486058423591
 30
0.0
 10
103.1911499953712
 20
154.3959704743787
 30
0.0
 10
103.349631813212
 20
154.4156246862693
 30
0.0
 10
103.6638513457163
 20
154.4627358424619
 30
0.0
 10
103.8199716293967
 20
154.4903171619567
 30
0.0
 10
104.2740256583532
 20
154.5828529487504
 30
0.0
 10
104.5611290412931
 20
154.6579233823469
 30
0.0
 10
105.1044835973201
 20
154.8331616909575
 30
0.0
 10
105.3615872085257
 20
154.9341629887958
 30
0.0
 10
105.8224934634645
 20
155.1515191872567
 30
0.0
 10
106.0293911726794
 20
155.2686835190289
 30
0.0
 10
106.3949164866716
 20
155.5187534432575
 30
0.0
 10
106.5501220087976
 20
155.6496995320165
 30
0.0
 10
106.7995523953973
 20
155.9154344757289
 30
0.0
 10
106.8956423511825
 20
156.0521880690398
 30
0.0
 10
107.024161200376
 20
156.3262536438788
 30
0.0
 10
107.0559720705538
 20
156.4611937343476
 30
0.0
 10
107.0563287203271
 20
156.7266653714164
 30
0.0
 10
107.02383146813
 20
156.8584898485577
 30
0.0
 10
106.8962059944155
 20
157.1079394481781
 30
0.0
 10
106.8017775933637
 20
157.2263721401061
 30
0.0
 10
106.6139167733781
 20
157.3952413372002
 30
0.0
 10
106.5430887745749
 20
157.4503273323203
 30
0.0
 10
106.3883668826096
 20
157.5555801608087
 30
0.0
 10
106.3043904124262
 20
157.6059153895691
 30
0.0
 10
106.0330667427818
 20
157.7504912221072
 30
0.0
 10
105.8265175241795
 20
157.8383528085242
 30
0.0
 10
105.3599073839904
 20
157.9980739015237
 30
0.0
 10
105.107541814365
 20
158.0673121979909
 30
0.0
 10
104.7016404726863
 20
158.1570995872207
 30
0.0
 10
104.5617398552088
 20
158.1846655493069
 30
0.0
 10
104.2725159199618
 20
158.2351563502332
 30
0.0
 10
104.1226764636726
 20
158.2581197890839
 30
0.0
 10
103.6685598940618
 20
158.3187503055027
 30
0.0
 10
103.3569086753249
 20
158.3488243342986
 30
0.0
 10
102.7159122104126
 20
158.3894139215572
 30
0.0
 10
102.3843845824604
 20
158.3997261517733
 30
0.0
 10
101.7315935373889
 20
158.399801718939
 30
0.0
 10
101.4070573323571
 20
158.3899001134713
 30
0.0
 10
100.7617878829407
 20
158.3494135829461
 30
0.0
 10
100.446044876778
 20
158.3189522830614
 30
0.0
 10
99.84415558179424
 20
158.2388016116248
 30
0.0
 10
99.55340635098278
 20
158.1885193798176
 30
0.0
 10
99.00649455929828
 20
158.0678491970446
 30
0.0
 10
98.75471719546137
 20
157.9986253378746
 30
0.0
 10
98.29332920284023
 20
157.841173610234
 30
0.0
 10
98.08205992324216
 20
157.7518251355602
 30
0.0
 10
97.71875557086595
 20
157.5585772648594
 30
0.0
 10
97.56494892242316
 20
157.4544492729801
 30
0.0
 10
97.37632945282574
 20
157.2858248867966
 30
0.0
 10
97.32029896661665
 20
157.2271964851217
 30
0.0
 10
97.22472520488047
 20
157.1077415702955
 30
0.0
 10
97.18496228785547
 20
157.0468217814573
 30
0.0
 10
97.08919053754333
 20
156.8604170552834
 30
0.0
 10
97.05646769841722
 20
156.7313042374884
 30
0.0
 10
97.05583911208814
 20
156.4626473145325
 30
0.0
 10
97.08802525682292
 20
156.3272765737757
 30
0.0
 10
97.1829359586785
 20
156.1237262655397
 30
0.0
 10
97.22240274207745
 20
156.0557543414763
 30
0.0
 10
97.31733274079834
 20
155.9196621183454
 30
0.0
 10
97.37308956856171
 20
155.851312018136
 30
0.0
 10
97.5610296865316
 20
155.6506090050938
 30
0.0
 10
97.71439115624777
 20
155.5212207312812
 30
0.0
 10
98.07665539112813
 20
155.2725552992313
 30
0.0
 10
98.28750386459403
 20
155.1527456568631
 30
0.0
 10
98.74817383491295
 20
154.9352233692904
 30
0.0
 10
98.99954821449677
 20
154.8361382694545
 30
0.0
 10
99.5454561013949
 20
154.6594657955377
 30
0.0
 10
99.83627867604613
 20
154.5834087074037
 30
0.0
 10
100.4376052908262
 20
154.4605637300507
 30
0.0
 10
100.7521238754386
 20
154.4128576049975
 30
0.0
 10
101.3987053315585
 20
154.3486090698779
 30
0.0
 10
101.7256058293205
 20
154.332397610977
 30
0.0
 10
102.3866964548731
 20
154.332397610977
 30
0.0
  0
LINE
  5
7B
330
1F
100
AcDbEntity
  8
0
  6
Continuous
 62
     7
370
    15
100
AcDbLine
 10
98.0061511421
 20
142.2677681473
 30
0.0
 11
109.7941221212
 21
142.2677681473
 31
0.0
  0
LINE
  5
7C
330
1F
100
AcDbEntity
  8
0
  6
Continuous
 62
     7
370
    15
100
AcDbLine
 10
109.7941221212
 20
62.1427745543
 30
0.0
 11
109.7941221212
 21
142.2677681473
 31
0.0
  0
LINE
  5
7D
330
1F
100
AcDbEntity
  8
0
  6
Continuous
 62
     7
370
    15
100
AcDbLine
 10
109.7941221212
 20
62.1427745543
 30
0.0
 11
108.0061511421
 21
62.1427745543
 31
0.0
  0
SPLINE
  5
7E
330
1F
100
AcDbEntity
  8
0
  6
Continuous
 62
     7
370
    15
100
AcDbSpline
210
0.0
220
0.0
230
1.0
 70
     8
 71
     3
 72
    30
 73
    26
 74
     0
 42
0.00000001
 43
0.00000001
 40
0.0
 40
0.0
 40
0.0
 40
0.0
 40
0.1250000000000002
 40
0.1250000000000002
 40
0.1875000000000003
 40
0.1875000000000003
 40
0.2500000000000004
 40
0.2500000000000004
 40
0.3750000000000001
 40
0.3750000000000001
 40
0.4374999999999998
 40
0.4374999999999998
 40
0.4999999999999996
 40
0.4999999999999996
 40
0.6249999999999996
 40
0.6249999999999996
 40
0.6874999999999997
 40
0.6874999999999997
 40
0.7499999999999997
 40
0.7499999999999997
 40
0.8124999999999998
 40
0.8124999999999998
 40
0.8749999999999999
 40
0.8749999999999999
 40
1.0
 40
1.0
 40
1.0
 40
1.0
 10
108.0061511420968
 20
62.14277455431684
 30
0.0
 10
107.3434064482518
 20
62.14277455431685
 30
0.0
 10
106.6921505891361
 20
62.12793447772804
 30
0.0
 10
105.7317000508778
 20
62.08556491349842
 30
0.0
 10
105.4143086076448
 20
62.06808681071925
 30
0.0
 10
104.78514510609
 20
62.02675852416694
 30
0.0
 10
104.4729969196482
 20
62.00283325070924
 30
0.0
 10
103.5656896178
 20
61.92402673424233
 30
0.0
 10
102.9922646601587
 20
61.86172071426587
 30
0.0
 10
102.1783877905841
 20
61.75859139402651
 30
0.0
 10
101.9135815940142
 20
61.72240747498
 30
0.0
 10
101.4066741831999
 20
61.64861269077949
 30
0.0
 10
101.1652800318464
 20
61.61113883200785
 30
0.0
 10
100.476138559714
 20
61.49842688866811
 30
0.0
 10
100.0630837448498
 20
61.42289079119433
 30
0.0
 10
99.51492892547473
 20
61.31449753417684
 30
0.0
 10
99.34546631812916
 20
61.27942530251357
 30
0.0
 10
99.03744907011378
 20
61.21318984191372
 30
0.0
 10
98.89806904950542
 20
61.18186314515901
 30
0.0
 10
98.64828353687868
 20
61.12345437357807
 30
0.0
 10
98.53787742422476
 20
61.09637113839522
 30
0.0
 10
98.34661957058704
 20
61.04711138378164
 30
0.0
 10
98.26550005230276
 20
61.024849403974
 30
0.0
 10
98.07135313219433
 20
60.96728249680572
 30
0.0
 10
98.0061511420968
 20
60.94102289201972
 30
0.0
 10
98.00615114209681
 20
60.9277691475457
 30
0.0
  0
LINE
  5
7F
330
1F
100
AcDbEntity
  8
0
  6
Continuous
 62
     7
370
    15
100
AcDbLine
 10
98.0061511421
 20
60.9277691475
 30
0.0
 11
98.0061511421
 21
60.9177681473
 31
0.0
  0
SPLINE
  5
80
330
1F
100
AcDbEntity
  8
0
  6
Continuous
 62
     7
370
    15
100
AcDbSpline
210
0.0
220
0.0
230
1.0
 70
     8
 71
     3
 72
    17
 73
    13
 74
     0
 42
0.00000001
 43
0.00000001
 40
0.0
 40
0.0
 40
0.0
 40
0.0
 40
0.104384384054747
 40
0.2118345768143993
 40
0.316208200519045
 40
0.4235375806108392
 40
0.5292276236193852
 40
0.6379275864803491
 40
0.7444714844189683
 40
0.8541836219421859
 40
0.9593080534965217
 40
1.0
 40
1.0
 40
1.0
 40
1.0
 10
108.0061511420968
 20
159.9075630030092
 30
0.0
 10
107.4582126942374
 20
159.912931206758
 30
0.0
 10
106.3462426397727
 20
159.923825280423
 30
0.0
 10
104.7333867265578
 20
160.0090026546818
 30
0.0
 10
103.1998735095808
 20
160.1353773609744
 30
0.0
 10
101.8088526602442
 20
160.2922801815512
 30
0.0
 10
100.5733361430139
 20
160.4639790110718
 30
0.0
 10
99.54998037585858
 20
160.6293152871729
 30
0.0
 10
98.74963837759346
 20
160.7730287667594
 30
0.0
 10
98.2393062756799
 20
160.8711835739386
 30
0.0
 10
97.99939784685536
 20
160.9191119708085
 30
0.0
 10
98.03131662627518
 20
160.9127445715689
 30
0.0
 10
98.04022397455738
 20
160.9109676664456
 30
0.0
  0
LINE
  5
81
330
1F
100
AcDbEntity
  8
0
  6
Continuous
 62
     7
370
    15
100
AcDbLine
 10
109.7941221212
 20
159.907563003
 30
0.0
 11
108.0061511421
 21
159.907563003
 31
0.0
  0
LINE
  5
82
330
1F
100
AcDbEntity
  8
0
  6
Continuous
 62
     7
370
    15
100
AcDbLine
 10
109.7941221212
 20
149.8687309082
 30
0.0
 11
109.7941221212
 21
159.907563003
 31
0.0
  0
LINE
  5
83
330
1F
100
AcDbEntity
  8
0
  6
Continuous
 62
     7
370
    15
100
AcDbLine
 10
107.7141179903
 20
149.8687309082
 30
0.0
 11
109.7941221212
 21
149.8687309082
 31
0.0
  0
SPLINE
  5
84
330
1F
100
AcDbEntity
  8
0
  6
Continuous
 62
     7
370
    15
100
AcDbSpline
210
0.0
220
0.0
230
1.0
 70
     8
 71
     3
 72
    22
 73
    18
 74
     0
 42
0.00000001
 43
0.00000001
 40
0.0
 40
0.0
 40
0.0
 40
0.0
 40
0.2500000000000002
 40
0.2500000000000002
 40
0.3750000000000003
 40
0.3750000000000003
 40
0.5000000000000004
 40
0.5000000000000004
 40
0.6250000000000004
 40
0.6250000000000004
 40
0.7500000000000004
 40
0.7500000000000004
 40
0.8750000000000004
 40
0.8750000000000004
 40
0.9375000000000002
 40
0.9375000000000002
 40
1.0
 40
1.0
 40
1.0
 40
1.0
 10
98.0061511420968
 20
142.2677681473457
 30
0.0
 10
98.20887609801589
 20
143.2870144892103
 30
0.0
 10
98.52361981981127
 20
144.2461226391496
 30
0.0
 10
99.23167528948224
 20
145.5886017166588
 30
0.0
 10
99.51013791969989
 20
146.0228102993989
 30
0.0
 10
100.1489053263371
 20
146.834438014901
 30
0.0
 10
100.5093190061273
 20
147.2137183078378
 30
0.0
 10
101.3268512381166
 20
147.9166768868588
 30
0.0
 10
101.7880192214037
 20
148.2417057045594
 30
0.0
 10
102.7860094678875
 20
148.8067210279503
 30
0.0
 10
103.3257686618798
 20
149.0504246221568
 30
0.0
 10
104.5003616259111
 20
149.4546245498018
 30
0.0
 10
105.112097811903
 20
149.6070617428473
 30
0.0
 10
106.0640070367647
 20
149.762389290456
 30
0.0
 10
106.3872402010253
 20
149.801894070506
 30
0.0
 10
107.0463033723006
 20
149.8552031911747
 30
0.0
 10
107.3803673828746
 20
149.8687309082326
 30
0.0
 10
107.7141179902761
 20
149.8687309082326
 30
0.0
  0
LINE
  5
85
330
1F
100
AcDbEntity
  8
0
  6
Continuous
 62
     7
370
    15
100
AcDbLine
 10
111.1461511421
 20
64.5463798603
 30
0.0
 11
111.1461511421
 21
142.2677681473
 31
0.0
  0
SPLINE
  5
86
330
1F
100
AcDbEntity
  8
0
  6
Continuous
 62
     7
370
    15
100
AcDbSpline
210
0.0
220
0.0
230
1.0
 70
     8
 71
     3
 72
     8
 73
     4
 74
     0
 42
0.00000001
 43
0.00000001
 40
0.0
 40
0.0
 40
0.0
 40
0.0
 40
1.0
 40
1.0
 40
1.0
 40
1.0
 10
111.1461511420968
 20
64.54637986032219
 30
0.0
 10
110.695924677819
 20
63.74492449769742
 30
0.0
 10
110.2452268505756
 20
62.94373448613677
 30
0.0
 10
109.7941221211754
 20
62.14277455431684
 30
0.0
  0
SPLINE
  5
87
330
1F
100
AcDbEntity
  8
0
  6
Continuous
 62
     7
370
    15
100
AcDbSpline
210
0.0
220
0.0
230
1.0
 70
    24
 71
     3
 72
     8
 73
     4
 74
     0
 42
0.00000001
 43
0.00000001
 40
0.0
 40
0.0
 40
0.0
 40
0.0
 40
1.0
 40
1.0
 40
1.0
 40
1.0
 10
109.7941221211754
 20
142.2677681473457
 30
0.0
 10
110.2509236935036
 20
142.2677681473457
 30
0.0
 10
110.7019382597429
 20
142.2677681473457
 30
0.0
 10
111.1461511420968
 20
142.2677681473457
 30
0.0
  0
LINE
  5
88
330
1F
100
AcDbEntity
  8
0
  6
Continuous
 62
     7
370
    15
100
AcDbLine
 10
121.0061511421
 20
62.1427745543
 30
0.0
 11
116.318180163
 21
62.1427745543
 31
0.0
  0
LINE
  5
89
330
1F
100
AcDbEntity
  8
0
  6
Continuous
 62
     7
370
    15
100
AcDbLine
 10
116.318180163
 20
62.1427745543
 30
0.0
 11
116.318180163
 21
142.2677681473
 31
0.0
  0
LINE
  5
8A
330
1F
100
AcDbEntity
  8
0
  6
Continuous
 62
     7
370
    15
100
AcDbLine
 10
116.318180163
 20
142.2677681473
 30
0.0
 11
121.0061511421
 21
142.2677681473
 31
0.0
  0
SPLINE
  5
8B
330
1F
100
AcDbEntity
  8
0
  6
Continuous
 62
     7
370
    15
100
AcDbSpline
210
0.0
220
0.0
230
1.0
 70
     8
 71
     3
 72
     8
 73
     4
 74
     0
 42
0.00000001
 43
0.00000001
 40
0.0
 40
0.0
 40
0.0
 40
0.0
 40
1.0
 40
1.0
 40
1.0
 40
1.0
 10
116.3181801630182
 20
62.14277455431684
 30
0.0
 10
115.867075433618
 20
62.94373448613677
 30
0.0
 10
115.4163776063746
 20
63.74492449769742
 30
0.0
 10
114.9661511420968
 20
64.54637986032219
 30
0.0
  0
LINE
  5
8C
330
1F
100
AcDbEntity
  8
0
  6
Continuous
 62
     7
370
    15
100
AcDbLine
 10
114.9661511421
 20
64.5463798603
 30
0.0
 11
114.9661511421
 21
142.2677681473
 31
0.0
  0
SPLINE
  5
8D
330
1F
100
AcDbEntity
  8
0
  6
Continuous
 62
     7
370
    15
100
AcDbSpline
210
0.0
220
0.0
230
1.0
 70
    24
 71
     3
 72
     8
 73
     4
 74
     0
 42
0.00000001
 43
0.00000001
 40
0.0
 40
0.0
 40
0.0
 40
0.0
 40
1.0
 40
1.0
 40
1.0
 40
1.0
 10
114.9661511420968
 20
142.2677681473457
 30
0.0
 10
115.4103640244507
 20
142.2677681473457
 30
0.0
 10
115.86137859069
 20
142.2677681473457
 30
0.0
 10
116.3181801630182
 20
142.2677681473457
 30
0.0
  0
SPLINE
  5
8E
330
1F
100
AcDbEntity
  8
0
  6
Continuous
 62
     7
370
    15
100
AcDbSpline
210
0.0
220
0.0
230
1.0
 70
     8
 71
     3
 72
    14
 73
    10
 74
     0
 42
0.00000001
 43
0.00000001
 40
0.0
 40
0.0
 40
0.0
 40
0.0
 40
0.25
 40
0.25
 40
0.5
 40
0.5
 40
0.75
 40
0.75
 40
1.0
 40
1.0
 40
1.0
 40
1.0
 10
114.9661511420968
 20
65.45458936495078
 30
0.0
 10
114.9661511420968
 20
65.56163344594515
 30
0.0
 10
114.9460334549386
 20
65.66686858618759
 30
0.0
 10
114.867542265673
 20
65.86471907303529
 30
0.0
 10
114.8093856408718
 20
65.95577083660021
 30
0.0
 10
114.6628703852538
 20
66.10893693052499
 30
0.0
 10
114.5742278366127
 20
66.1712313767344
 30
0.0
 10
114.3785045138123
 20
66.25602516227039
 30
0.0
 10
114.2732733227414
 20
66.278092689296
 30
0.0
 10
114.1661511420968
 20
66.27809268929602
 30
0.0
  0
SPLINE
  5
8F
330
1F
100
AcDbEntity
  8
0
  6
Continuous
 62
     7
370
    15
100
AcDbSpline
210
0.0
220
0.0
230
1.0
 70
    24
 71
     3
 72
    14
 73
    10
 74
     0
 42
0.00000001
 43
0.00000001
 40
0.0
 40
0.0
 40
0.0
 40
0.0
 40
0.25
 40
0.25
 40
0.5
 40
0.5
 40
0.75
 40
0.75
 40
1.0
 40
1.0
 40
1.0
 40
1.0
 10
114.1661511420968
 20
142.2677681473457
 30
0.0
 10
114.289920906862
 20
142.2677681473457
 30
0.0
 10
114.4142880108688
 20
142.2677681473457
 30
0.0
 10
114.6206444795949
 20
142.2677681473457
 30
0.0
 10
114.7059726230132
 20
142.2677681473457
 30
0.0
 10
114.8381646817285
 20
142.2677681473457
 30
0.0
 10
114.8868099254791
 20
142.2677681473457
 30
0.0
 10
114.9503457172078
 20
142.2677681473457
 30
0.0
 10
114.9661511420968
 20
142.2677681473457
 30
0.0
 10
114.9661511420968
 20
142.2677681473457
 30
0.0
  0
SPLINE
  5
90
330
1F
100
AcDbEntity
  8
0
  6
Continuous
 62
     7
370
    15
100
AcDbSpline
210
0.0
220
0.0
230
1.0
 70
     8
 71
     3
 72
    12
 73
     8
 74
     0
 42
0.00000001
 43
0.00000001
 40
0.0
 40
0.0
 40
0.0
 40
0.0
 40
0.250000000000003
 40
0.250000000000003
 40
0.500000000000006
 40
0.500000000000006
 40
1.0
 40
1.0
 40
1.0
 40
1.0
 10
111.9461511420968
 20
66.27809268929602
 30
0.0
 10
111.8403904887479
 20
66.278092689296
 30
0.0
 10
111.7324028605649
 20
66.2555531832956
 30
0.0
 10
111.5378081952993
 20
66.17098255130027
 30
0.0
 10
111.4489362824604
 20
66.10850089854145
 30
0.0
 10
111.2297439901346
 20
65.87911194706925
 30
0.0
 10
111.1461511420968
 20
65.66652860954683
 30
0.0
 10
111.1461511420968
 20
65.4545893649506
 30
0.0
  0
SPLINE
  5
91
330
1F
100
AcDbEntity
  8
0
  6
Continuous
 62
     7
370
    15
100
AcDbSpline
210
0.0
220
0.0
230
1.0
 70
    24
 71
     3
 72
    14
 73
    10
 74
     0
 42
0.00000001
 43
0.00000001
 40
0.0
 40
0.0
 40
0.0
 40
0.0
 40
0.25
 40
0.25
 40
0.5
 40
0.5
 40
0.75
 40
0.75
 40
1.0
 40
1.0
 40
1.0
 40
1.0
 10
111.1461511420968
 20
142.2677681473457
 30
0.0
 10
111.1461511420968
 20
142.2677681473457
 30
0.0
 10
111.1618654625627
 20
142.2677681473457
 30
0.0
 10
111.2255494410311
 20
142.2677681473457
 30
0.0
 10
111.2741526354416
 20
142.2677681473457
 30
0.0
 10
111.4068361578672
 20
142.2677681473457
 30
0.0
 10
111.4919382621778
 20
142.2677681473457
 30
0.0
 10
111.6983804970879
 20
142.2677681473457
 30
0.0
 10
111.8224614387109
 20
142.2677681473457
 30
0.0
 10
111.9461511420968
 20
142.2677681473457
 30
0.0
  0
LINE
  5
92
330
1F
100
AcDbEntity
  8
0
  6
Continuous
 62
     7
370
    15
100
AcDbLine
 10
114.1661511421
 20
66.2780926893
 30
0.0
 11
111.9461511421
 21
66.2780926893
 31
0.0
  0
LINE
  5
93
330
1F
100
AcDbEntity
  8
0
  6
Continuous
 62
     7
370
    15
100
AcDbLine
 10
111.9461511421
 20
142.2677681473
 30
0.0
 11
114.1661511421
 21
142.2677681473
 31
0.0
  0
LINE
  5
94
330
1F
100
AcDbEntity
  8
0
  6
Continuous
 62
     7
370
    15
100
AcDbLine
 10
58.2561511421
 20
74.6537531173
 30
0.0
 11
58.2561511421
 21
77.048434882
 31
0.0
  0
SPLINE
  5
95
330
1F
100
AcDbEntity
  8
0
  6
Continuous
 62
     7
370
    15
100
AcDbSpline
210
0.0
220
0.0
230
1.0
 70
     8
 71
     3
 72
    14
 73
    10
 74
     0
 42
0.00000001
 43
0.00000001
 40
0.0
 40
0.0
 40
0.0
 40
0.0
 40
0.25
 40
0.25
 40
0.5
 40
0.5
 40
0.75
 40
0.75
 40
1.0
 40
1.0
 40
1.0
 40
1.0
 10
57.25172867075984
 20
78.75128680360213
 30
0.0
 10
57.34049724870517
 20
78.59275267229418
 30
0.0
 10
57.46221508738408
 20
78.44030999540561
 30
0.0
 10
57.69726469724092
 20
78.14317537157669
 30
0.0
 10
57.81289488345781
 20
77.99849272795933
 30
0.0
 10
58.01329981688563
 20
77.71520352545592
 30
0.0
 10
58.09870010886994
 20
77.57664953241908
 30
0.0
 10
58.22040574258719
 20
77.30526550238554
 30
0.0
 10
58.25615114209982
 20
77.17312963375092
 30
0.0
 10
58.25615114209981
 20
77.04843488198016
 30
0.0
  0
SPLINE
  5
96
330
1F
100
AcDbEntity
  8
0
  6
Continuous
 62
     7
370
    15
100
AcDbSpline
210
0.0
220
0.0
230
1.0
 70
     8
 71
     3
 72
    14
 73
    10
 74
     0
 42
0.00000001
 43
0.00000001
 40
0.0
 40
0.0
 40
0.0
 40
0.0
 40
0.124999999999999
 40
0.124999999999999
 40
0.2499999999999981
 40
0.2499999999999981
 40
0.4999999999999952
 40
0.4999999999999952
 40
1.0
 40
1.0
 40
1.0
 40
1.0
 10
56.35615114209681
 20
79.38011674270223
 30
0.0
 10
56.4237334418813
 20
79.38727262780363
 30
0.0
 10
56.4962210196292
 20
79.38284815776461
 30
0.0
 10
56.62851212889514
 20
79.35314199999428
 30
0.0
 10
56.68578950828532
 20
79.32985771841605
 30
0.0
 10
56.8354399354856
 20
79.2523724785657
 30
0.0
 10
56.90915323100712
 20
79.19052065166434
 30
0.0
 10
57.09696121433333
 20
79.005843199016
 30
0.0
 10
57.18100152069477
 20
78.87760027572482
 30
0.0
 10
57.25172867076106
 20
78.75128680360224
 30
0.0
  0
SPLINE
  5
97
330
1F
100
AcDbEntity
  8
0
  6
Continuous
 62
     7
370
    15
100
AcDbSpline
210
0.0
220
0.0
230
1.0
 70
     8
 71
     3
 72
     8
 73
     4
 74
     0
 42
0.00000001
 43
0.00000001
 40
0.0
 40
0.0
 40
0.0
 40
0.0
 40
1.0
 40
1.0
 40
1.0
 40
1.0
 10
52.81151075401591
 20
78.96206815791044
 30
0.0
 10
53.97680906472481
 20
79.11725562979706
 30
0.0
 10
55.16142427876469
 20
79.25361426810737
 30
0.0
 10
56.35615114209681
 20
79.38011674270223
 30
0.0
  0
SPLINE
  5
98
330
1F
100
AcDbEntity
  8
0
  6
Continuous
 62
     7
370
    15
100
AcDbSpline
210
0.0
220
0.0
230
1.0
 70
     8
 71
     3
 72
    14
 73
    10
 74
     0
 42
0.00000001
 43
0.00000001
 40
0.0
 40
0.0
 40
0.0
 40
0.0
 40
0.5000000000000012
 40
0.5000000000000012
 40
0.7500000000000004
 40
0.7500000000000004
 40
0.8750000000000002
 40
0.8750000000000002
 40
1.0
 40
1.0
 40
1.0
 40
1.0
 10
45.05607625806645
 20
78.67193597878052
 30
0.0
 10
46.36437782060046
 20
78.67895070252165
 30
0.0
 10
47.66943719525754
 20
78.6943592789661
 30
0.0
 10
49.61531324674621
 20
78.74825583443277
 30
0.0
 10
50.26201075048537
 20
78.77128739903549
 30
0.0
 10
51.22585311433988
 20
78.82222992390622
 30
0.0
 10
51.54609180627403
 20
78.84196484613942
 30
0.0
 10
52.18278703261659
 20
78.891451974611
 30
0.0
 10
52.49950244089954
 20
78.92051675354023
 30
0.0
 10
52.81151075401594
 20
78.96206815791041
 30
0.0
  0
SPLINE
  5
99
330
1F
100
AcDbEntity
  8
0
  6
Continuous
 62
     7
370
    15
100
AcDbSpline
210
0.0
220
0.0
230
1.0
 70
     8
 71
     3
 72
    12
 73
     8
 74
     0
 42
0.00000001
 43
0.00000001
 40
0.0
 40
0.0
 40
0.0
 40
0.0
 40
0.25
 40
0.25
 40
0.5
 40
0.5
 40
1.0
 40
1.0
 40
1.0
 40
1.0
 10
51.35615114209681
 20
143.0042910388421
 30
0.0
 10
50.83745232026862
 20
143.0368138136903
 30
0.0
 10
50.31574074706363
 20
143.0601105548608
 30
0.0
 10
49.26944873056804
 20
143.0979560692829
 30
0.0
 10
48.74477710489779
 20
143.1122245437791
 30
0.0
 10
47.16793108235859
 20
143.1464340312373
 30
0.0
 10
46.1129757678117
 20
143.1579335351813
 30
0.0
 10
45.05607625806645
 20
143.1636003159108
 30
0.0
  0
SPLINE
  5
9A
330
1F
100
AcDbEntity
  8
0
  6
Continuous
 62
     7
370
    15
100
AcDbSpline
210
0.0
220
0.0
230
1.0
 70
     8
 71
     3
 72
    20
 73
    16
 74
     0
 42
0.00000001
 43
0.00000001
 40
0.0
 40
0.0
 40
0.0
 40
0.0
 40
0.2499999999999999
 40
0.2499999999999999
 40
0.4999999999999998
 40
0.4999999999999998
 40
0.7499999999999997
 40
0.7499999999999997
 40
0.8749999999999996
 40
0.8749999999999996
 40
0.9375000000000002
 40
0.9375000000000002
 40
0.9687500000000001
 40
0.9687500000000001
 40
1.0
 40
1.0
 40
1.0
 40
1.0
 10
53.25615114209681
 20
144.6623768843302
 30
0.0
 10
53.25615114209681
 20
144.5266945645834
 30
0.0
 10
53.20743935288018
 20
144.3856075784434
 30
0.0
 10
53.03827792965502
 20
144.0935358597128
 30
0.0
 10
52.91649751573668
 20
143.9418871176225
 30
0.0
 10
52.61895042098719
 20
143.6394786774693
 30
0.0
 10
52.44503781528439
 20
143.486890041346
 30
0.0
 10
52.12562298140258
 20
143.2616192775037
 30
0.0
 10
52.01058220595534
 20
143.186896182993
 30
0.0
 10
51.80349788193892
 20
143.087485773736
 30
0.0
 10
51.72739004713252
 20
143.0559206813914
 30
0.0
 10
51.59599550757915
 20
143.0214772971985
 30
0.0
 10
51.5494422885777
 20
143.0124257254308
 30
0.0
 10
51.45310893749699
 20
143.0022500765923
 30
0.0
 10
51.40384951414153
 20
143.0013003179173
 30
0.0
 10
51.35615114209482
 20
143.0042910388319
 30
0.0
  0
LINE
  5
9B
330
1F
100
AcDbEntity
  8
0
  6
Continuous
 62
     7
370
    15
100
AcDbLine
 10
53.2561511421
 20
144.6623768843
 30
0.0
 11
53.2561511421
 21
146.9312821754
 31
0.0
  0
LINE
  5
9C
330
1F
100
AcDbEntity
  8
0
  6
Continuous
 62
     7
370
    15
100
AcDbLine
 10
90.5561511421
 20
73.0355166443
 30
0.0
 11
90.5561511421
 21
148.8000196504
 31
0.0
  0
SPLINE
  5
9D
330
1F
100
AcDbEntity
  8
0
  6
Continuous
 62
     7
370
    15
100
AcDbSpline
210
0.0
220
0.0
230
1.0
 70
     8
 71
     3
 72
    22
 73
    18
 74
     0
 42
0.00000001
 43
0.00000001
 40
0.0
 40
0.0
 40
0.0
 40
0.0
 40
0.0002937850458185
 40
0.0628841327419203
 40
0.1261981682954292
 40
0.2510182590426778
 40
0.3131038291608369
 40
0.375765068890164
 40
0.4382989835655297
 40
0.5000628079114214
 40
0.5617337561125342
 40
0.6246555685552228
 40
0.7491916976530751
 40
0.8115302181312863
 40
0.8745847230190952
 40
0.9378227588209374
 40
1.0
 40
1.0
 40
1.0
 40
1.0
 10
71.57610740593623
 20
73.98652288903328
 30
0.0
 10
71.57591255252602
 20
73.9864985817134
 30
0.0
 10
71.53420454904499
 20
73.98129564592674
 30
0.0
 10
71.6794676522276
 20
73.99990985381454
 30
0.0
 10
72.14961382940194
 20
74.05643580441057
 30
0.0
 10
73.1180699119828
 20
74.16265743383593
 30
0.0
 10
74.4305297215449
 20
74.2482902412672
 30
0.0
 10
75.5626534301762
 20
74.28694630736621
 30
0.0
 10
76.7848402067986
 20
74.29060761514475
 30
0.0
 10
78.05213859431935
 20
74.24822220037558
 30
0.0
 10
79.31885024855089
 20
74.15984522269886
 30
0.0
 10
80.93450824442075
 20
73.98979609407763
 30
0.0
 10
82.37447085445139
 20
73.76761435952186
 30
0.0
 10
83.44034001061534
 20
73.56461825138749
 30
0.0
 10
84.02954039405324
 20
73.44059281843809
 30
0.0
 10
84.418259909342
 20
73.3556719779934
 30
0.0
 10
84.46504562217191
 20
73.34494526018906
 30
0.0
 10
84.48824061579937
 20
73.33962726595395
 30
0.0
  0
SPLINE
  5
9E
330
1F
100
AcDbEntity
  8
0
  6
Continuous
 62
     7
370
    15
100
AcDbSpline
210
0.0
220
0.0
230
1.0
 70
     8
 71
     3
 72
    41
 73
    37
 74
     0
 42
0.00000001
 43
0.00000001
 40
0.0
 40
0.0
 40
0.0
 40
0.0
 40
0.0619930061484378
 40
0.1254347783466322
 40
0.1886508898237652
 40
0.2510246408607262
 40
0.313165818897716
 40
0.3756581641417481
 40
0.438222714672822
 40
0.4998044922940693
 40
0.5615164197177447
 40
0.6240683094121975
 40
0.6867257232408516
 40
0.7488365305144536
 40
0.8110685944253998
 40
0.8741742884451369
 40
0.9373212787645215
 40
0.9685511709617414
 40
0.9842086872487195
 40
0.9920641182531791
 40
0.996000486125535
 40
0.9979710794120144
 40
0.9989570090489597
 40
0.9994501359395066
 40
0.9996967403802177
 40
0.9998200529090742
 40
0.9998817117580818
 40
0.999912541829664
 40
0.9999279570273361
 40
0.9999356646666603
 40
0.9999395184964466
 40
0.9999414454138695
 40
0.9999424088732151
 40
0.9999433723329807
 40
0.9999501697010514
 40
1.0
 40
1.0
 40
1.0
 40
1.0
 10
84.48811928532139
 20
148.4958640107859
 30
0.0
 10
84.4645476399786
 20
148.490554531136
 30
0.0
 10
84.41685348393526
 20
148.4798114901965
 30
0.0
 10
84.02481149450594
 20
148.3945823537408
 30
0.0
 10
83.43429744523414
 20
148.2700135751001
 30
0.0
 10
82.63025999919046
 20
148.1170666289481
 30
0.0
 10
81.65418459901035
 20
147.9553100749947
 30
0.0
 10
80.5323758637293
 20
147.8030773070626
 30
0.0
 10
79.3188449439422
 20
147.6752973658614
 30
0.0
 10
78.05401423754401
 20
147.5874488141787
 30
0.0
 10
76.78597120010159
 20
147.5450633303081
 30
0.0
 10
75.56246384240092
 20
147.5487991382797
 30
0.0
 10
74.42896530198571
 20
147.5873946087277
 30
0.0
 10
73.44285949101182
 20
147.6518339800189
 30
0.0
 10
72.63423168222411
 20
147.7253437873001
 30
0.0
 10
72.03761298711495
 20
147.7926574721118
 30
0.0
 10
71.72222169765685
 20
147.8306220233798
 30
0.0
 10
71.61215512885894
 20
147.8444210827117
 30
0.0
 10
71.58473574104474
 20
147.8479071566323
 30
0.0
 10
71.57781369021522
 20
147.8487863823257
 30
0.0
 10
71.57604545003181
 20
147.849007156932
 30
0.0
 10
71.57558507085845
 20
147.8490623596428
 30
0.0
 10
71.57546091217364
 20
147.8490760994298
 30
0.0
 10
71.5754253576805
 20
147.8490794952608
 30
0.0
 10
71.57541421361037
 20
147.8490803235811
 30
0.0
 10
71.57541030041428
 20
147.8490805201699
 30
0.0
 10
71.57540875820943
 20
147.8490805641
 30
0.0
 10
71.57540809120793
 20
147.8490805724067
 30
0.0
 10
71.5754077830302
 20
147.849080573237
 30
0.0
 10
71.57540763626413
 20
147.8490805726918
 30
0.0
 10
71.57540756331169
 20
147.849080572362
 30
0.0
 10
71.5754075289193
 20
147.8490805719247
 30
0.0
 10
71.57540750667414
 20
147.8490805720132
 30
0.0
 10
71.57540747956472
 20
147.8490805691782
 30
0.0
 10
71.57540496000333
 20
147.8490808560333
 30
0.0
 10
71.5754410499214
 20
147.8490762359327
 30
0.0
 10
71.57547280774402
 20
147.8490721704112
 30
0.0
  0
SPLINE
  5
9F
330
1F
100
AcDbEntity
  8
0
  6
Continuous
 62
     7
370
    15
100
AcDbSpline
210
0.0
220
0.0
230
1.0
 70
     8
 71
     3
 72
    20
 73
    16
 74
     0
 42
0.00000001
 43
0.00000001
 40
0.0
 40
0.0
 40
0.0
 40
0.0
 40
0.249999999999986
 40
0.249999999999986
 40
0.3749999999999789
 40
0.3749999999999789
 40
0.4374999999999789
 40
0.4374999999999789
 40
0.4999999999999789
 40
0.4999999999999789
 40
0.6249999999999835
 40
0.6249999999999835
 40
0.7499999999999879
 40
0.7499999999999879
 40
1.0
 40
1.0
 40
1.0
 40
1.0
 10
43.44696537381282
 20
80.23928499464495
 30
0.0
 10
43.47323759102623
 20
80.25860293572741
 30
0.0
 10
43.50391773328106
 20
80.27299164682918
 30
0.0
 10
43.57538860366299
 20
80.26608728499318
 30
0.0
 10
43.60341564070733
 20
80.25892128164476
 30
0.0
 10
43.65849923020483
 20
80.22922225494116
 30
0.0
 10
43.67939055875726
 20
80.21574861237983
 30
0.0
 10
43.72459920620273
 20
80.18055034686382
 30
0.0
 10
43.74900341859829
 20
80.15864211813656
 30
0.0
 10
43.82033573664973
 20
80.086517258141
 30
0.0
 10
43.86223252147001
 20
80.03417671719096
 30
0.0
 10
43.93380848032588
 20
79.93669332529022
 30
0.0
 10
43.96463647014318
 20
79.88993955541179
 30
0.0
 10
44.04773640297875
 20
79.75664633957268
 30
0.0
 10
44.09259130834906
 20
79.67400894165746
 30
0.0
 10
44.13270338380163
 20
79.5949020468667
 30
0.0
  0
SPLINE
  5
A0
330
1F
100
AcDbEntity
  8
0
  6
Continuous
 62
     7
370
    15
100
AcDbSpline
210
0.0
220
0.0
230
1.0
 70
     8
 71
     3
 72
    14
 73
    10
 74
     0
 42
0.00000001
 43
0.00000001
 40
0.0
 40
0.0
 40
0.0
 40
0.0
 40
0.2499999999999994
 40
0.2499999999999994
 40
0.4999999999999988
 40
0.4999999999999988
 40
0.7499999999999982
 40
0.7499999999999982
 40
1.0
 40
1.0
 40
1.0
 40
1.0
 10
43.15615114209681
 20
80.41509840477772
 30
0.0
 10
43.15615114209681
 20
80.37385147375339
 30
0.0
 10
43.16476085847806
 20
80.33694450147091
 30
0.0
 10
43.19584703804841
 20
80.27604444157149
 30
0.0
 10
43.21823659153248
 20
80.2518635220318
 30
0.0
 10
43.27298052270859
 20
80.21789593114853
 30
0.0
 10
43.30543076229377
 20
80.20797584718035
 30
0.0
 10
43.37543227702184
 20
80.2066246382755
 30
0.0
 10
43.41364277714437
 20
80.21478291497165
 30
0.0
 10
43.44696537381747
 20
80.23928499463976
 30
0.0
  0
LINE
  5
A1
330
1F
100
AcDbEntity
  8
0
  6
Continuous
 62
     7
370
    15
100
AcDbLine
 10
43.1561511421
 20
80.4150984048
 30
0.0
 11
43.1561511421
 21
141.4204378899
 31
0.0
  0
SPLINE
  5
A2
330
1F
100
AcDbEntity
  8
0
  6
Continuous
 62
     7
370
    15
100
AcDbSpline
210
0.0
220
0.0
230
1.0
 70
     8
 71
     3
 72
    10
 73
     6
 74
     0
 42
0.00000001
 43
0.00000001
 40
0.0
 40
0.0
 40
0.0
 40
0.0
 40
0.0592402688376383
 40
0.6438088530391344
 40
1.0
 40
1.0
 40
1.0
 40
1.0
 10
43.44696537381746
 20
141.5962513000515
 30
0.0
 10
43.44213311619625
 20
141.5995002066832
 30
0.0
 10
43.38961731406152
 20
141.6348085348388
 30
0.0
 10
43.29066711638274
 20
141.6410628313974
 30
0.0
 10
43.2412385914914
 20
141.5858625937085
 30
0.0
 10
43.22252392674709
 20
141.5649626387852
 30
0.0
  0
SPLINE
  5
A3
330
1F
100
AcDbEntity
  8
0
  6
Continuous
 62
     7
370
    15
100
AcDbSpline
210
0.0
220
0.0
230
1.0
 70
     8
 71
     3
 72
     8
 73
     4
 74
     0
 42
0.00000001
 43
0.00000001
 40
0.0
 40
0.0
 40
0.0
 40
0.0
 40
1.0
 40
1.0
 40
1.0
 40
1.0
 10
43.17978481103302
 20
141.5280173909833
 30
0.0
 10
43.16443577239698
 20
141.4975073359873
 30
0.0
 10
43.15615114209681
 20
141.461195780475
 30
0.0
 10
43.15615114209681
 20
141.4204378899136
 30
0.0
  0
SPLINE
  5
A4
330
1F
100
AcDbEntity
  8
0
  6
Continuous
 62
     7
370
    15
100
AcDbSpline
210
0.0
220
0.0
230
1.0
 70
     8
 71
     3
 72
    20
 73
    16
 74
     0
 42
0.00000001
 43
0.00000001
 40
0.0
 40
0.0
 40
0.0
 40
0.0
 40
0.2500000000000037
 40
0.2500000000000037
 40
0.3750000000000055
 40
0.3750000000000055
 40
0.5000000000000073
 40
0.5000000000000073
 40
0.5625000000000057
 40
0.5625000000000057
 40
0.625000000000004
 40
0.625000000000004
 40
0.7500000000000027
 40
0.7500000000000027
 40
1.0
 40
1.0
 40
1.0
 40
1.0
 10
44.13270338379924
 20
142.2406342478238
 30
0.0
 10
44.09270716597541
 20
142.1617558412664
 30
0.0
 10
44.04759353813775
 20
142.0786261945749
 30
0.0
 10
43.96433932377122
 20
141.9451375302239
 30
0.0
 10
43.93411999515072
 20
141.899272474342
 30
0.0
 10
43.8620317600093
 20
141.8010809219371
 30
0.0
 10
43.8201144425982
 20
141.7487711024135
 30
0.0
 10
43.74886383804674
 20
141.676765199679
 30
0.0
 10
43.72462802566743
 20
141.6549949873774
 30
0.0
 10
43.67902983548277
 20
141.6195203290484
 30
0.0
 10
43.65822734588306
 20
141.6061501448708
 30
0.0
 10
43.60328634746394
 20
141.5765802327356
 30
0.0
 10
43.57521735937714
 20
141.5694537104336
 30
0.0
 10
43.5047145293143
 20
141.5625793389509
 30
0.0
 10
43.47329044152342
 20
141.5768944980381
 30
0.0
 10
43.44696537381483
 20
141.5962513000487
 30
0.0
  0
SPLINE
  5
A5
330
1F
100
AcDbEntity
  8
0
  6
Continuous
 62
     7
370
    15
100
AcDbSpline
210
0.0
220
0.0
230
1.0
 70
     8
 71
     3
 72
    10
 73
     6
 74
     0
 42
0.00000001
 43
0.00000001
 40
0.0
 40
0.0
 40
0.0
 40
0.0
 40
0.4999999999999989
 40
0.4999999999999989
 40
1.0
 40
1.0
 40
1.0
 40
1.0
 10
44.80615114209682
 20
143.1660533491657
 30
0.0
 10
44.68126287134662
 20
143.0350570710942
 30
0.0
 10
44.55981275328617
 20
142.8913442344292
 30
0.0
 10
44.33022877832873
 20
142.5807739417399
 30
0.0
 10
44.21995380293276
 20
142.4127048686769
 30
0.0
 10
44.13270338379924
 20
142.2406342478238
 30
0.0
  0
SPLINE
  5
A6
330
1F
100
AcDbEntity
  8
0
  6
Continuous
 62
     7
370
    15
100
AcDbSpline
210
0.0
220
0.0
230
1.0
 70
     8
 71
     3
 72
     8
 73
     4
 74
     0
 42
0.00000001
 43
0.00000001
 40
0.0
 40
0.0
 40
0.0
 40
0.0
 40
1.0
 40
1.0
 40
1.0
 40
1.0
 10
45.05607625806259
 20
143.1636003159102
 30
0.0
 10
44.9690582282142
 20
143.1640668806973
 30
0.0
 10
44.88610420183426
 20
143.1651069002735
 30
0.0
 10
44.80615114209451
 20
143.1660533491657
 30
0.0
  0
SPLINE
  5
A7
330
1F
100
AcDbEntity
  8
0
  6
Continuous
 62
     7
370
    15
100
AcDbSpline
210
0.0
220
0.0
230
1.0
 70
     8
 71
     3
 72
     8
 73
     4
 74
     0
 42
0.00000001
 43
0.00000001
 40
0.0
 40
0.0
 40
0.0
 40
0.0
 40
1.0
 40
1.0
 40
1.0
 40
1.0
 10
44.80615114209451
 20
78.66948294552557
 30
0.0
 10
44.88610420183426
 20
78.67042939441785
 30
0.0
 10
44.96905822821423
 20
78.67146941399398
 30
0.0
 10
45.0560762580626
 20
78.67193597878102
 30
0.0
  0
SPLINE
  5
A8
330
1F
100
AcDbEntity
  8
0
  6
Continuous
 62
     7
370
    15
100
AcDbSpline
210
0.0
220
0.0
230
1.0
 70
     8
 71
     3
 72
    10
 73
     6
 74
     0
 42
0.00000001
 43
0.00000001
 40
0.0
 40
0.0
 40
0.0
 40
0.0
 40
0.4999999999999989
 40
0.4999999999999989
 40
1.0
 40
1.0
 40
1.0
 40
1.0
 10
44.13270338379831
 20
79.59490204686925
 30
0.0
 10
44.21995380293178
 20
79.42283142601589
 30
0.0
 10
44.33022877832794
 20
79.25476235295245
 30
0.0
 10
44.55981275328577
 20
78.94419206026262
 30
0.0
 10
44.68126287134641
 20
78.80047922359735
 30
0.0
 10
44.80615114209682
 20
78.66948294552564
 30
0.0
  0
SPLINE
  5
A9
330
1F
100
AcDbEntity
  8
0
  6
Continuous
 62
     7
370
    15
100
AcDbSpline
210
0.0
220
0.0
230
1.0
 70
     8
 71
     3
 72
    12
 73
     8
 74
     0
 42
0.00000001
 43
0.00000001
 40
0.0
 40
0.0
 40
0.0
 40
0.0
 40
0.5
 40
0.5
 40
0.75
 40
0.75
 40
1.0
 40
1.0
 40
1.0
 40
1.0
 10
122.0061511420968
 20
158.8865079681915
 30
0.0
 10
122.0061511420968
 20
159.1517774009579
 30
0.0
 10
121.9015443986103
 20
159.4142925066103
 30
0.0
 10
121.6248760468651
 20
159.6998301126475
 30
0.0
 10
121.514510787513
 20
159.776151729509
 30
0.0
 10
121.2704387388973
 20
159.8804938943491
 30
0.0
 10
121.1386862775656
 20
159.9075630030092
 30
0.0
 10
121.0061511420968
 20
159.9075630030092
 30
0.0
  0
SPLINE
  5
AA
330
1F
100
AcDbEntity
  8
0
  6
Continuous
 62
     7
370
    15
100
AcDbSpline
210
0.0
220
0.0
230
1.0
 70
     8
 71
     3
 72
    16
 73
    12
 74
     0
 42
0.00000001
 43
0.00000001
 40
0.0
 40
0.0
 40
0.0
 40
0.0
 40
0.125
 40
0.125
 40
0.25
 40
0.25
 40
0.5
 40
0.5
 40
0.75
 40
0.75
 40
1.0
 40
1.0
 40
1.0
 40
1.0
 10
121.0061511420958
 20
149.8687309082326
 30
0.0
 10
121.0817888485071
 20
149.8687309082327
 30
0.0
 10
121.1581045129253
 20
149.8573859080978
 30
0.0
 10
121.3025152508174
 20
149.8147333574594
 30
0.0
 10
121.3709616999259
 20
149.7837990327767
 30
0.0
 10
121.5658929525392
 20
149.6645426610091
 30
0.0
 10
121.6737341263203
 20
149.5543906473886
 30
0.0
 10
121.8424468745325
 20
149.3062545617304
 30
0.0
 10
121.9048112872561
 20
149.1659122377267
 30
0.0
 10
121.9861152117646
 20
148.8776405462379
 30
0.0
 10
122.0061511420968
 20
148.726835573258
 30
0.0
 10
122.0061511420968
 20
148.5764656819126
 30
0.0
  0
LINE
  5
AB
330
1F
100
AcDbEntity
  8
0
  6
Continuous
 62
     7
370
    15
100
AcDbLine
 10
122.0061511421
 20
148.5764656819
 30
0.0
 11
122.0061511421
 21
158.8865079682
 31
0.0
  0
LINE
  5
AC
330
1F
100
AcDbEntity
  8
0
  6
Continuous
 62
     7
370
    15
100
AcDbLine
 10
121.0061511421
 20
159.907563003
 30
0.0
 11
116.318180163
 21
159.907563003
 31
0.0
  0
LINE
  5
AD
330
1F
100
AcDbEntity
  8
0
  6
Continuous
 62
     7
370
    15
100
AcDbLine
 10
116.318180163
 20
149.8687309082
 30
0.0
 11
121.0061511421
 21
149.8687309082
 31
0.0
  0
LINE
  5
AE
330
1F
100
AcDbEntity
  8
0
  6
Continuous
 62
     7
370
    15
100
AcDbLine
 10
116.318180163
 20
149.8687309082
 30
0.0
 11
116.318180163
 21
159.907563003
 31
0.0
  0
SPLINE
  5
AF
330
1F
100
AcDbEntity
  8
0
  6
Continuous
 62
     7
370
    15
100
AcDbSpline
210
0.0
220
0.0
230
1.0
 70
     8
 71
     3
 72
    14
 73
    10
 74
     0
 42
0.00000001
 43
0.00000001
 40
0.0
 40
0.0
 40
0.0
 40
0.0
 40
0.25
 40
0.25
 40
0.5
 40
0.5
 40
0.75
 40
0.75
 40
1.0
 40
1.0
 40
1.0
 40
1.0
 10
114.9661511420968
 20
156.6113193881936
 30
0.0
 10
114.9661511420968
 20
156.5049626944412
 30
0.0
 10
114.9457635859556
 20
156.3991222066811
 30
0.0
 10
114.867129240494
 20
156.2025572931447
 30
0.0
 10
114.8083978808553
 20
156.1113865508575
 30
0.0
 10
114.6617889752527
 20
155.9594754618259
 30
0.0
 10
114.5723836552261
 20
155.8974066250063
 30
0.0
 10
114.3784929226258
 20
155.8141385772477
 30
0.0
 10
114.2719879327359
 20
155.792043907518
 30
0.0
 10
114.1661511420965
 20
155.7920439075181
 30
0.0
  0
SPLINE
  5
B0
330
1F
100
AcDbEntity
  8
0
  6
Continuous
 62
     7
370
    15
100
AcDbSpline
210
0.0
220
0.0
230
1.0
 70
     8
 71
     3
 72
    12
 73
     8
 74
     0
 42
0.00000001
 43
0.00000001
 40
0.0
 40
0.0
 40
0.0
 40
0.0
 40
0.250000000000002
 40
0.250000000000002
 40
0.500000000000004
 40
0.500000000000004
 40
1.0
 40
1.0
 40
1.0
 40
1.0
 10
114.1661511420989
 20
144.5462995604181
 30
0.0
 10
114.2898520920787
 20
144.5462995604186
 30
0.0
 10
114.4139487043486
 20
144.5882931721514
 30
0.0
 10
114.620603867435
 20
144.726088498796
 30
0.0
 10
114.7056446341616
 20
144.8200620972608
 30
0.0
 10
114.9051232026347
 20
145.1348503034816
 30
0.0
 10
114.9661511420968
 20
145.3850892957088
 30
0.0
 10
114.9661511420968
 20
145.6320033398427
 30
0.0
  0
SPLINE
  5
B1
330
1F
100
AcDbEntity
  8
0
  6
Continuous
 62
     7
370
    15
100
AcDbSpline
210
0.0
220
0.0
230
1.0
 70
     8
 71
     3
 72
     8
 73
     4
 74
     0
 42
0.00000001
 43
0.00000001
 40
0.0
 40
0.0
 40
0.0
 40
0.0
 40
1.0
 40
1.0
 40
1.0
 40
1.0
 10
116.3181801630182
 20
159.9075630030092
 30
0.0
 10
115.8671531943049
 20
159.1102524328213
 30
0.0
 10
115.4164593777814
 20
158.3127541331641
 30
0.0
 10
114.9661511420968
 20
157.5150390080505
 30
0.0
  0
SPLINE
  5
B2
330
1F
100
AcDbEntity
  8
0
  6
Continuous
 62
     7
370
    15
100
AcDbSpline
210
0.0
220
0.0
230
1.0
 70
     8
 71
     3
 72
     8
 73
     4
 74
     0
 42
0.00000001
 43
0.00000001
 40
0.0
 40
0.0
 40
0.0
 40
0.0
 40
1.0
 40
1.0
 40
1.0
 40
1.0
 10
114.9661511420968
 20
146.8132156534835
 30
0.0
 10
115.4103011531223
 20
147.8345988844351
 30
0.0
 10
115.8613754633802
 20
148.8530834212035
 30
0.0
 10
116.3181801630182
 20
149.8687309082326
 30
0.0
  0
LINE
  5
B3
330
1F
100
AcDbEntity
  8
0
  6
Continuous
 62
     7
370
    15
100
AcDbLine
 10
114.9661511421
 20
146.8132156535
 30
0.0
 11
114.9661511421
 21
157.5150390081
 31
0.0
  0
SPLINE
  5
B4
330
1F
100
AcDbEntity
  8
0
  6
Continuous
 62
     7
370
    15
100
AcDbSpline
210
0.0
220
0.0
230
1.0
 70
     8
 71
     3
 72
     8
 73
     4
 74
     0
 42
0.00000001
 43
0.00000001
 40
0.0
 40
0.0
 40
0.0
 40
0.0
 40
1.0
 40
1.0
 40
1.0
 40
1.0
 10
111.1461511420968
 20
157.5150390080505
 30
0.0
 10
110.6958429064123
 20
158.3127541331642
 30
0.0
 10
110.2451490898887
 20
159.1102524328213
 30
0.0
 10
109.7941221211754
 20
159.9075630030092
 30
0.0
  0
LINE
  5
B5
330
1F
100
AcDbEntity
  8
0
  6
Continuous
 62
     7
370
    15
100
AcDbLine
 10
111.1461511421
 20
146.8132156535
 30
0.0
 11
111.1461511421
 21
157.5150390081
 31
0.0
  0
SPLINE
  5
B6
330
1F
100
AcDbEntity
  8
0
  6
Continuous
 62
     7
370
    15
100
AcDbSpline
210
0.0
220
0.0
230
1.0
 70
     8
 71
     3
 72
     8
 73
     4
 74
     0
 42
0.00000001
 43
0.00000001
 40
0.0
 40
0.0
 40
0.0
 40
0.0
 40
1.0
 40
1.0
 40
1.0
 40
1.0
 10
109.7941221211754
 20
149.8687309082326
 30
0.0
 10
110.251048474975
 20
148.8528129385583
 30
0.0
 10
110.702254116778
 20
147.8340171094671
 30
0.0
 10
111.1461511420968
 20
146.8132156534835
 30
0.0
  0
SPLINE
  5
B7
330
1F
100
AcDbEntity
  8
0
  6
Continuous
 62
     7
370
    15
100
AcDbSpline
210
0.0
220
0.0
230
1.0
 70
     8
 71
     3
 72
    10
 73
     6
 74
     0
 42
0.00000001
 43
0.00000001
 40
0.0
 40
0.0
 40
0.0
 40
0.0
 40
0.5
 40
0.5
 40
1.0
 40
1.0
 40
1.0
 40
1.0
 10
111.9461511420968
 20
155.7920439075181
 30
0.0
 10
111.7336148282405
 20
155.7920439075181
 30
0.0
 10
111.5236786565865
 20
155.8834564941482
 30
0.0
 10
111.2299715155752
 20
156.1882013600525
 30
0.0
 10
111.1461511420968
 20
156.4003563299611
 30
0.0
 10
111.1461511420968
 20
156.6113193881936
 30
0.0
  0
SPLINE
  5
B8
330
1F
100
AcDbEntity
  8
0
  6
Continuous
 62
     7
370
    15
100
AcDbSpline
210
0.0
220
0.0
230
1.0
 70
     8
 71
     3
 72
    14
 73
    10
 74
     0
 42
0.00000001
 43
0.00000001
 40
0.0
 40
0.0
 40
0.0
 40
0.0
 40
0.25
 40
0.25
 40
0.5
 40
0.5
 40
0.75
 40
0.75
 40
1.0
 40
1.0
 40
1.0
 40
1.0
 10
111.1461511420968
 20
145.6320033398427
 30
0.0
 10
111.1461511420968
 20
145.5081364630535
 30
0.0
 10
111.1620102697244
 20
145.383876786216
 30
0.0
 10
111.2253719152443
 20
145.1462684238101
 30
0.0
 10
111.2739616232936
 20
145.0294880390576
 30
0.0
 10
111.4062472280685
 20
144.8206855104486
 30
0.0
 10
111.4915720193291
 20
144.7261748068561
 30
0.0
 10
111.6984632676353
 20
144.5882180060538
 30
0.0
 10
111.8224312135253
 20
144.5462995604181
 30
0.0
 10
111.9461511420968
 20
144.546299560418
 30
0.0
  0
LINE
  5
B9
330
1F
100
AcDbEntity
  8
0
  6
Continuous
 62
     7
370
    15
100
AcDbLine
 10
111.1461511421
 20
146.8132156535
 30
0.0
 11
111.1461511421
 21
145.6320033398
 31
0.0
  0
LINE
  5
BA
330
1F
100
AcDbEntity
  8
0
  6
Continuous
 62
     7
370
    15
100
AcDbLine
 10
111.9461511421
 20
144.5462995604
 30
0.0
 11
114.1661511421
 21
144.5462995604
 31
0.0
  0
LINE
  5
BB
330
1F
100
AcDbEntity
  8
0
  6
Continuous
 62
     7
370
    15
100
AcDbLine
 10
114.9661511421
 20
145.6320033398
 30
0.0
 11
114.9661511421
 21
146.8132156535
 31
0.0
  0
LINE
  5
BC
330
1F
100
AcDbEntity
  8
0
  6
Continuous
 62
     7
370
    15
100
AcDbLine
 10
122.0061511421
 20
148.5764656819
 30
0.0
 11
122.0061511421
 21
142.2677681473
 31
0.0
  0
LINE
  5
BD
330
1F
100
AcDbEntity
  8
0
  6
Continuous
 62
     7
370
    15
100
AcDbLine
 10
114.1661511421
 20
155.7920439075
 30
0.0
 11
111.9461511421
 21
155.7920439075
 31
0.0
  0
ARC
  5
BE
330
1F
100
AcDbEntity
  8
0
  6
Continuous
 62
     7
370
    15
100
AcDbCircle
 10
102.0564084206
 20
143.5133225381
 30
0.0
 40
11.42053516404427
100
AcDbArc
 50
77.6340603254
 51
102.4327561028
  0
LINE
  5
BF
330
1F
100
AcDbEntity
  8
0
  6
Continuous
 62
     7
370
    15
100
AcDbLine
 10
44.8061511421
 20
78.6677681473
 30
0.0
 11
44.8061511421
 21
78.6694829455
 31
0.0
  0
LINE
  5
C0
330
1F
100
AcDbEntity
  8
0
  6
Continuous
 62
     7
370
    15
100
AcDbLine
 10
44.8061511421
 20
143.1677681473
 30
0.0
 11
44.8061511421
 21
143.1660533492
 31
0.0
  0
LINE
  5
C1
330
1F
100
AcDbEntity
  8
0
  6
Continuous
 62
     7
370
    15
100
AcDbLine
 10
171.0061511421
 20
95.9177681473
 30
0.0
 11
171.0061511421
 21
125.9177681473
 31
0.0
  0
SPLINE
  5
C2
330
1F
100
AcDbEntity
  8
0
  6
Continuous
 62
     7
370
    15
100
AcDbSpline
210
0.0
220
0.0
230
1.0
 70
     8
 71
     3
 72
    60
 73
    56
 74
     0
 42
0.00000001
 43
0.00000001
 40
-0.0312500000000001
 40
-0.0312500000000001
 40
0.0
 40
0.0
 40
0.0624999999999997
 40
0.0624999999999997
 40
0.0937500000000005
 40
0.0937500000000005
 40
0.1250000000000014
 40
0.1250000000000014
 40
0.187500000000003
 40
0.187500000000003
 40
0.2500000000000047
 40
0.2500000000000047
 40
0.2812500000000047
 40
0.2812500000000047
 40
0.3125000000000048
 40
0.3125000000000048
 40
0.3437500000000049
 40
0.3437500000000049
 40
0.3750000000000049
 40
0.3750000000000049
 40
0.4062500000000051
 40
0.4062500000000051
 40
0.4375000000000051
 40
0.4375000000000051
 40
0.4687500000000052
 40
0.4687500000000052
 40
0.5000000000000052
 40
0.5000000000000052
 40
0.5625000000000037
 40
0.5625000000000037
 40
0.593750000000003
 40
0.593750000000003
 40
0.6250000000000023
 40
0.6250000000000023
 40
0.6562500000000016
 40
0.6562500000000016
 40
0.6875000000000009
 40
0.6875000000000009
 40
0.7499999999999993
 40
0.7499999999999993
 40
0.7812499999999994
 40
0.7812499999999994
 40
0.8124999999999996
 40
0.8124999999999996
 40
0.8437499999999997
 40
0.8437499999999997
 40
0.8749999999999997
 40
0.8749999999999997
 40
0.9062499999999998
 40
0.9062499999999998
 40
0.9374999999999999
 40
0.9374999999999999
 40
0.9687499999999999
 40
0.9687499999999999
 40
1.0
 40
1.0
 40
1.0625
 40
1.0625
 10
159.5100179967217
 20
113.0064419350017
 30
0.0
 10
160.0191471207588
 20
113.3947187284952
 30
0.0
 10
160.3963652762885
 20
113.5855666709648
 30
0.0
 10
161.0064503459995
 20
113.7788518909761
 30
0.0
 10
161.2127516455662
 20
113.8259642845328
 30
0.0
 10
161.630947564165
 20
113.8874228348549
 30
0.0
 10
161.8440553878825
 20
113.9017294259109
 30
0.0
 10
162.4839711813547
 20
113.8935950934319
 30
0.0
 10
162.9010946816977
 20
113.8222551260521
 30
0.0
 10
163.7077219412902
 20
113.5435562766094
 30
0.0
 10
164.0772909458084
 20
113.3440886319419
 30
0.0
 10
164.5748413939554
 20
112.9417376560023
 30
0.0
 10
164.7261006682148
 20
112.7937310178004
 30
0.0
 10
164.9959895792795
 20
112.4696140151974
 30
0.0
 10
165.1161837361119
 20
112.290539435584
 30
0.0
 10
165.310186601377
 20
111.9143331257546
 30
0.0
 10
165.384740760572
 20
111.7175762272608
 30
0.0
 10
165.484864339883
 20
111.3050903340992
 30
0.0
 10
165.5092071405831
 20
111.0895999941103
 30
0.0
 10
165.5024617599448
 20
110.6664701237657
 30
0.0
 10
165.4714439523896
 20
110.4524582015797
 30
0.0
 10
165.3582091208369
 20
110.0418081652845
 30
0.0
 10
165.2771611870658
 20
109.8458089050057
 30
0.0
 10
165.0693666513998
 20
109.471166513296
 30
0.0
 10
164.9459696187434
 20
109.2985922569762
 30
0.0
 10
164.6657507622036
 20
108.9802311737206
 30
0.0
 10
164.50788955231
 20
108.8341095041146
 30
0.0
 10
164.0042237221352
 20
108.4478259637656
 30
0.0
 10
163.6183787619099
 20
108.2514614400826
 30
0.0
 10
163.0135614597415
 20
108.0587756890642
 30
0.0
 10
162.8050753675635
 20
108.0105729354155
 30
0.0
 10
162.3827023462824
 20
107.94812555396
 30
0.0
 10
162.1713264765054
 20
107.934024080568
 30
0.0
 10
161.7482083220185
 20
107.9388956409442
 30
0.0
 10
161.5352639594433
 20
107.9580845518492
 30
0.0
 10
161.1143621204244
 20
108.030565650453
 30
0.0
 10
160.9095004437334
 20
108.0831121282307
 30
0.0
 10
160.3114662153427
 20
108.2893255155706
 30
0.0
 10
159.9296677311871
 20
108.4957316321664
 30
0.0
 10
159.4398601749489
 20
108.891877045639
 30
0.0
 10
159.2887107964987
 20
109.038860201624
 30
0.0
 10
159.0146053453075
 20
109.3679046254504
 30
0.0
 10
158.8967149453283
 20
109.5439758639029
 30
0.0
 10
158.7022636120161
 20
109.9207812997581
 30
0.0
 10
158.6255989772894
 20
110.1240088017694
 30
0.0
 10
158.5266317344071
 20
110.5358613570394
 30
0.0
 10
158.5027057226661
 20
110.7470815245595
 30
0.0
 10
158.510391294846
 20
111.1774685568554
 30
0.0
 10
158.5417006327669
 20
111.3875544763077
 30
0.0
 10
158.6557229286488
 20
111.7981855133794
 30
0.0
 10
158.7390418060517
 20
111.9978332581073
 30
0.0
 10
158.9458562185779
 20
112.3685262652579
 30
0.0
 10
159.0715927163818
 20
112.5438452620328
 30
0.0
 10
159.353428736209
 20
112.8621524359546
 30
0.0
 10
159.5100179967217
 20
113.0064419350017
 30
0.0
 10
160.0191471207588
 20
113.3947187284952
 30
0.0
  0
CIRCLE
  5
C3
330
1F
100
AcDbEntity
  8
0
  6
Continuous
 62
     7
370
    15
100
AcDbCircle
 10
162.0061511421
 20
110.9177681473
 30
0.0
 40
2.5
  0
LINE
  5
C4
330
1F
100
AcDbEntity
  8
0
  6
Continuous
 62
     7
370
    15
100
AcDbLine
 10
159.6797277035
 20
125.7528628594
 30
0.0
 11
159.8518928097
 21
125.7342193978
 31
0.0
  0
SPLINE
  5
C5
330
1F
100
AcDbEntity
  8
0
  6
Continuous
 62
     7
370
    15
100
AcDbSpline
210
0.0
220
0.0
230
1.0
 70
     8
 71
     3
 72
    37
 73
    33
 74
     0
 42
0.00000001
 43
0.00000001
 40
0.0
 40
0.0
 40
0.0
 40
0.0
 40
0.0260745690363603
 40
0.0485613789562401
 40
0.0686516358259726
 40
0.1094511196058726
 40
0.1301874919269458
 40
0.151648917549219
 40
0.1951472409224611
 40
0.2172029083284301
 40
0.2418582355108155
 40
0.2918187188911595
 40
0.3171485545383674
 40
0.3455750682187118
 40
0.4032428283255176
 40
0.4325284642472594
 40
0.4636592982830799
 40
0.5269199854930245
 40
0.5591193170383699
 40
0.5911186074605757
 40
0.6233445310618163
 40
0.6563033069143765
 40
0.6895250809470421
 40
0.7206642780458514
 40
0.7842158098972103
 40
0.8167789331396256
 40
0.8395613286466274
 40
0.8858326780637178
 40
0.9093994472971457
 40
0.932187852192179
 40
0.9787112702307846
 40
1.0
 40
1.0
 40
1.0
 40
1.0
 10
165.4963889824788
 20
125.9161482245174
 30
0.0
 10
165.4978548400521
 20
125.9163899887369
 30
0.0
 10
165.5005848589074
 20
125.9168402513613
 30
0.0
 10
165.4610636535813
 20
125.9103045016973
 30
0.0
 10
165.3953805715303
 20
125.8995747915376
 30
0.0
 10
165.2973459120919
 20
125.8838615143951
 30
0.0
 10
165.1691034551029
 20
125.8641039505632
 30
0.0
 10
165.0173649912725
 20
125.8414191643333
 30
0.0
 10
164.8353552636994
 20
125.8156024242515
 30
0.0
 10
164.6229027183263
 20
125.7876926310334
 30
0.0
 10
164.3786453965609
 20
125.7574945768186
 30
0.0
 10
164.1014258642357
 20
125.7268649168168
 30
0.0
 10
163.7946073490083
 20
125.6978502927766
 30
0.0
 10
163.4520067159535
 20
125.6694313772098
 30
0.0
 10
163.0787551567311
 20
125.64573063764
 30
0.0
 10
162.686019906035
 20
125.6293101645914
 30
0.0
 10
162.268939379814
 20
125.6181848967513
 30
0.0
 10
161.8362654250516
 20
125.6171238132547
 30
0.0
 10
161.4051999573855
 20
125.6266628718616
 30
0.0
 10
161.0831439974981
 20
125.6390095445041
 30
0.0
 10
160.7650800179317
 20
125.6562554339546
 30
0.0
 10
160.4521261540957
 20
125.6780942839997
 30
0.0
 10
160.1543298872684
 20
125.7033706584515
 30
0.0
 10
159.7816633224894
 20
125.7401335906568
 30
0.0
 10
159.4422831310048
 20
125.7802988462035
 30
0.0
 10
159.1681440199565
 20
125.8169646721944
 30
0.0
 10
158.9579714312501
 20
125.8467324747906
 30
0.0
 10
158.796395111233
 20
125.8711610860805
 30
0.0
 10
158.6714261018142
 20
125.8908337105029
 30
0.0
 10
158.5728426720342
 20
125.9067073757758
 30
0.0
 10
158.5134268536238
 20
125.9165594924362
 30
0.0
 10
158.5087471585453
 20
125.9173370002897
 30
0.0
 10
158.5072780299725
 20
125.9175810886296
 30
0.0
  0
SPLINE
  5
C6
330
1F
100
AcDbEntity
  8
0
  6
Continuous
 62
     7
370
    15
100
AcDbSpline
210
0.0
220
0.0
230
1.0
 70
     8
 71
     3
 72
     9
 73
     5
 74
     0
 42
0.00000001
 43
0.00000001
 40
0.0
 40
0.0
 40
0.0
 40
0.0
 40
0.3625033216874609
 40
0.9999999999999999
 40
0.9999999999999999
 40
0.9999999999999999
 40
0.9999999999999999
 10
159.4173694116512
 20
125.7848201634913
 30
0.0
 10
159.4467352273698
 20
125.780963315336
 30
0.0
 10
159.5277436318774
 20
125.7703238317104
 30
0.0
 10
159.6205585203633
 20
125.7596606208573
 30
0.0
 10
159.6797277034709
 20
125.7528628593583
 30
0.0
  0
SPLINE
  5
C7
330
1F
100
AcDbEntity
  8
0
  6
Continuous
 62
     7
370
    15
100
AcDbSpline
210
0.0
220
0.0
230
1.0
 70
     8
 71
     3
 72
     9
 73
     5
 74
     0
 42
0.00000001
 43
0.00000001
 40
0.0
 40
0.0
 40
0.0
 40
0.0
 40
0.830696145167971
 40
1.0
 40
1.0
 40
1.0
 40
1.0
 10
159.6797277037786
 20
96.08267343536791
 30
0.0
 10
159.6078175469205
 20
96.07446638393729
 30
0.0
 10
159.5212514092583
 20
96.06458665658049
 30
0.0
 10
159.4484053934567
 20
96.05487799884773
 30
0.0
 10
159.4360722821723
 20
96.05323428566832
 30
0.0
  0
SPLINE
  5
C8
330
1F
100
AcDbEntity
  8
0
  6
Continuous
 62
     7
370
    15
100
AcDbSpline
210
0.0
220
0.0
230
1.0
 70
     8
 71
     3
 72
    39
 73
    35
 74
     0
 42
0.00000001
 43
0.00000001
 40
0.0
 40
0.0
 40
0.0
 40
0.0
 40
0.0060930915915697
 40
0.0287231216978992
 40
0.0488575597471485
 40
0.0897791026067252
 40
0.110598363104433
 40
0.1315246787516551
 40
0.1739506973677855
 40
0.1954697364836914
 40
0.2192513009537053
 40
0.2674372844787139
 40
0.291863706136641
 40
0.3194211748210423
 40
0.3753053589442873
 40
0.4036706937147587
 40
0.4343190429066354
 40
0.496575277222885
 40
0.5282468941304254
 40
0.5601856082085976
 40
0.59234655605735
 40
0.6252194849322155
 40
0.6583446550624794
 40
0.6898805263369171
 40
0.721658697176389
 40
0.7542539956277834
 40
0.787158990822528
 40
0.8110125140027764
 40
0.8594545121918952
 40
0.8841254510707361
 40
0.907985826541587
 40
0.956734756532006
 40
0.9817327968062024
 40
0.9999999999999999
 40
0.9999999999999999
 40
0.9999999999999999
 40
0.9999999999999999
 10
158.5110015106122
 20
95.91857145582348
 30
0.0
 10
158.5093529917253
 20
95.91829850666245
 30
0.0
 10
158.5015817957898
 20
95.91701181141885
 30
0.0
 10
158.5211378583766
 20
95.92025847864669
 30
0.0
 10
158.5629533030533
 20
95.92716001066272
 30
0.0
 10
158.6417361316775
 20
95.94000476512073
 30
0.0
 10
158.7507779831717
 20
95.95720389276224
 30
0.0
 10
158.8820835108419
 20
95.9774023933142
 30
0.0
 10
159.0431531805065
 20
96.00112888094466
 30
0.0
 10
159.2344670279219
 20
96.02752122002637
 30
0.0
 10
159.4555373201186
 20
96.05649143854171
 30
0.0
 10
159.709065711791
 20
96.08674380958573
 30
0.0
 10
159.9929338412945
 20
96.11649416234836
 30
0.0
 10
160.3127019189739
 20
96.14659978030626
 30
0.0
 10
160.6646119754447
 20
96.17341184645268
 30
0.0
 10
161.0395789272887
 20
96.1943232363914
 30
0.0
 10
161.443236099059
 20
96.21100604304354
 30
0.0
 10
161.8673505909389
 20
96.21860369484871
 30
0.0
 10
162.2954938903358
 20
96.21585214832584
 30
0.0
 10
162.6194258921381
 20
96.20849687648528
 30
0.0
 10
162.9431307914094
 20
96.19589465654818
 30
0.0
 10
163.2640667679991
 20
96.17824740825614
 30
0.0
 10
163.573668148595
 20
96.15635426019239
 30
0.0
 10
163.8682432732931
 20
96.13120158647595
 30
0.0
 10
164.1474962732194
 20
96.10356359140192
 30
0.0
 10
164.4138192137302
 20
96.07377392165291
 30
0.0
 10
164.6397913217203
 20
96.04578280345179
 30
0.0
 10
164.883294974914
 20
96.01338180592764
 30
0.0
 10
165.0788744658205
 20
95.9851363165616
 30
0.0
 10
165.2377202961705
 20
95.96092661077914
 30
0.0
 10
165.37084889451
 20
95.94000172881167
 30
0.0
 10
165.4605810643189
 20
95.92532198098712
 30
0.0
 10
165.5018844676326
 20
95.91847800912764
 30
0.0
 10
165.5041724848723
 20
95.91809711021754
 30
0.0
 10
165.5051385184013
 20
95.91793628926223
 30
0.0
  0
LINE
  5
C9
330
1F
100
AcDbEntity
  8
0
  6
Continuous
 62
     7
370
    15
100
AcDbLine
 10
159.7489139268
 20
96.0902152973
 30
0.0
 11
159.6797277038
 21
96.0826734354
 31
0.0
  0
LINE
  5
CA
330
1F
100
AcDbEntity
  8
0
  6
Continuous
 62
     7
370
    15
100
AcDbLine
 10
214.9375369336
 20
97.4177681473
 30
0.0
 11
214.9375369336
 21
124.4177681473
 31
0.0
  0
LINE
  5
CB
330
1F
100
AcDbEntity
  8
0
  6
Continuous
 62
     7
370
    15
100
AcDbLine
 10
253.0561511421
 20
102.2665491307
 30
0.0
 11
253.0561511421
 21
119.568986744
 31
0.0
  0
LINE
  5
CC
330
1F
100
AcDbEntity
  8
0
  6
HIDDEN
 62
     7
370
     0
100
AcDbLine
 10
216.0561511421
 20
107.9177681473
 30
0.0
 11
216.0561511421
 21
113.9177681473
 31
0.0
  0
LINE
  5
CD
330
1F
100
AcDbEntity
  8
0
  6
HIDDEN
 62
     7
370
     0
100
AcDbLine
 10
203.5561511421
 20
107.9177681473
 30
0.0
 11
203.5561511421
 21
113.9177681473
 31
0.0
  0
LINE
  5
CE
330
1F
100
AcDbEntity
  8
0
  6
HIDDEN
 62
     7
370
     0
100
AcDbLine
 10
203.0561511421
 20
108.4177681473
 30
0.0
 11
203.0561511421
 21
113.4177681473
 31
0.0
  0
LINE
  5
CF
330
1F
100
AcDbEntity
  8
0
  6
HIDDEN
 62
     7
370
     0
100
AcDbLine
 10
219.0561511421
 20
109.9177681473
 30
0.0
 11
217.0561511421
 21
109.9177681473
 31
0.0
  0
LINE
  5
D0
330
1F
100
AcDbEntity
  8
0
  6
HIDDEN
 62
     7
370
     0
100
AcDbLine
 10
219.0561511421
 20
108.4177681473
 30
0.0
 11
219.0561511421
 21
109.9177681473
 31
0.0
  0
LINE
  5
D1
330
1F
100
AcDbEntity
  8
0
  6
HIDDEN
 62
     7
370
     0
100
AcDbLine
 10
219.0561511421
 20
111.9177681473
 30
0.0
 11
219.0561511421
 21
113.4177681473
 31
0.0
  0
LINE
  5
D2
330
1F
100
AcDbEntity
  8
0
  6
HIDDEN
 62
     7
370
     0
100
AcDbLine
 10
217.0561511421
 20
111.9177681473
 30
0.0
 11
219.0561511421
 21
111.9177681473
 31
0.0
  0
LINE
  5
D3
330
1F
100
AcDbEntity
  8
0
  6
HIDDEN
 62
     7
370
     0
100
AcDbLine
 10
217.0561511421
 20
109.9177681473
 30
0.0
 11
217.0561511421
 21
111.9177681473
 31
0.0
  0
LINE
  5
D4
330
1F
100
AcDbEntity
  8
0
  6
HIDDEN
 62
     7
370
     0
100
AcDbLine
 10
214.5561511421
 20
110.9177681473
 30
0.0
 11
214.5561511421
 21
110.1677681473
 31
0.0
  0
LINE
  5
D5
330
1F
100
AcDbEntity
  8
0
  6
HIDDEN
 62
     7
370
     0
100
AcDbLine
 10
214.5561511421
 20
111.6677681473
 30
0.0
 11
214.5561511421
 21
110.9177681473
 31
0.0
  0
LINE
  5
D6
330
1F
100
AcDbEntity
  8
0
  6
HIDDEN
 62
     7
370
     0
100
AcDbLine
 10
214.5561511421
 20
110.9177681473
 30
0.0
 11
217.0561511421
 21
110.9177681473
 31
0.0
  0
LINE
  5
D7
330
1F
100
AcDbEntity
  8
0
  6
HIDDEN
 62
     7
370
     0
100
AcDbLine
 10
207.556151142
 20
110.9177681473
 30
0.0
 11
203.0561511421
 21
110.9177681473
 31
0.0
  0
LINE
  5
D8
330
1F
100
AcDbEntity
  8
0
  6
HIDDEN
 62
     7
370
     0
100
AcDbLine
 10
207.556151142
 20
110.9177681473
 30
0.0
 11
207.556151142
 21
111.6677681473
 31
0.0
  0
LINE
  5
D9
330
1F
100
AcDbEntity
  8
0
  6
HIDDEN
 62
     7
370
     0
100
AcDbLine
 10
207.556151142
 20
110.1677681473
 30
0.0
 11
207.556151142
 21
110.9177681473
 31
0.0
  0
LINE
  5
DA
330
1F
100
AcDbEntity
  8
0
  6
HIDDEN
 62
     7
370
     0
100
AcDbLine
 10
207.556151142
 20
109.4177681473
 30
0.0
 11
207.556151142
 21
110.1677681473
 31
0.0
  0
LINE
  5
DB
330
1F
100
AcDbEntity
  8
0
  6
HIDDEN
 62
     7
370
     0
100
AcDbLine
 10
214.5561511421
 20
112.4177681473
 30
0.0
 11
214.5561511421
 21
111.6677681473
 31
0.0
  0
LINE
  5
DC
330
1F
100
AcDbEntity
  8
0
  6
HIDDEN
 62
     7
370
     0
100
AcDbLine
 10
214.5561511421
 20
110.1677681473
 30
0.0
 11
214.5561511421
 21
109.4177681473
 31
0.0
  0
LINE
  5
DD
330
1F
100
AcDbEntity
  8
0
  6
HIDDEN
 62
     7
370
     0
100
AcDbLine
 10
207.556151142
 20
111.6677681473
 30
0.0
 11
207.556151142
 21
112.4177681473
 31
0.0
  0
LINE
  5
DE
330
1F
100
AcDbEntity
  8
0
  6
HIDDEN
 62
     7
370
     0
100
AcDbLine
 10
207.556151142
 20
112.4177681473
 30
0.0
 11
203.056151142
 21
112.4177681473
 31
0.0
  0
LINE
  5
DF
330
1F
100
AcDbEntity
  8
0
  6
HIDDEN
 62
     7
370
     0
100
AcDbLine
 10
207.556151142
 20
109.4177681473
 30
0.0
 11
203.056151142
 21
109.4177681473
 31
0.0
  0
LINE
  5
E0
330
1F
100
AcDbEntity
  8
0
  6
HIDDEN
 62
     7
370
     0
100
AcDbLine
 10
214.5561511421
 20
109.4177681473
 30
0.0
 11
219.0561511421
 21
109.4177681473
 31
0.0
  0
LINE
  5
E1
330
1F
100
AcDbEntity
  8
0
  6
HIDDEN
 62
     7
370
     0
100
AcDbLine
 10
214.5561511421
 20
112.4177681473
 30
0.0
 11
219.0561511421
 21
112.4177681473
 31
0.0
  0
LINE
  5
E2
330
1F
100
AcDbEntity
  8
0
  6
HIDDEN
 62
     7
370
     0
100
AcDbLine
 10
247.5819465776
 20
119.4328906202
 30
0.0
 11
247.4720568573
 21
116.6360104714
 31
0.0
  0
LINE
  5
E3
330
1F
100
AcDbEntity
  8
0
  6
HIDDEN
 62
     7
370
     0
100
AcDbLine
 10
247.5898363046
 20
119.6336975802
 30
0.0
 11
247.5819465776
 21
119.4328906202
 31
0.0
  0
LINE
  5
E4
330
1F
100
AcDbEntity
  8
0
  6
HIDDEN
 62
     7
370
     0
100
AcDbLine
 10
247.0653320606
 20
119.0198416633
 30
0.0
 11
246.9920722471
 21
117.1552548974
 31
0.0
  0
LINE
  5
E5
330
1F
100
AcDbEntity
  8
0
  6
HIDDEN
 62
     7
370
     0
100
AcDbLine
 10
247.0705918786
 20
119.1537129699
 30
0.0
 11
247.0653320606
 21
119.0198416633
 31
0.0
  0
LINE
  5
E6
330
1F
100
AcDbEntity
  8
0
  6
HIDDEN
 62
     7
370
     0
100
AcDbLine
 10
252.9158843815
 20
119.2233196331
 30
0.0
 11
252.8059946612
 21
116.4264394843
 31
0.0
  0
LINE
  5
E7
330
1F
100
AcDbEntity
  8
0
  6
HIDDEN
 62
     7
370
     0
100
AcDbLine
 10
252.9237741085
 20
119.4241265931
 30
0.0
 11
252.9158843815
 21
119.2233196331
 31
0.0
  0
LINE
  5
E8
330
1F
100
AcDbEntity
  8
0
  6
HIDDEN
 62
     7
370
     0
100
AcDbLine
 10
253.0561511421
 20
118.6683468163
 30
0.0
 11
252.978828935
 21
116.7003652294
 31
0.0
  0
LINE
  5
E9
330
1F
100
AcDbEntity
  8
0
  6
HIDDEN
 62
     7
370
     0
100
AcDbLine
 10
251.0282482078
 20
117.9974446706
 30
0.0
 11
251.0576930696
 21
118.7468664478
 31
0.0
  0
LINE
  5
EA
330
1F
100
AcDbEntity
  8
0
  6
HIDDEN
 62
     7
370
     0
100
AcDbLine
 10
251.0282482078
 20
117.9974446706
 30
0.0
 11
250.998803346
 21
117.2480228935
 31
0.0
  0
LINE
  5
EB
330
1F
100
AcDbEntity
  8
0
  6
HIDDEN
 62
     7
370
     0
100
AcDbLine
 10
251.0282482078
 20
117.9974446706
 30
0.0
 11
253.0267062803
 21
117.9189250391
 31
0.0
  0
LINE
  5
EC
330
1F
100
AcDbEntity
  8
0
  6
HIDDEN
 62
     7
370
     0
100
AcDbLine
 10
250.998803346
 20
117.2480228935
 30
0.0
 11
252.9972614185
 21
117.1695032619
 31
0.0
  0
LINE
  5
ED
330
1F
100
AcDbEntity
  8
0
  6
HIDDEN
 62
     7
370
     0
100
AcDbLine
 10
251.0576930696
 20
118.7468664478
 30
0.0
 11
253.0561511421
 21
118.6683468163
 31
0.0
  0
LINE
  5
EE
330
1F
100
AcDbEntity
  8
0
  6
HIDDEN
 62
     7
370
     0
100
AcDbLine
 10
252.8648843848
 20
105.4114105939
 30
0.0
 11
252.9826638321
 21
102.4137234852
 31
0.0
  0
LINE
  5
EF
330
1F
100
AcDbEntity
  8
0
  6
HIDDEN
 62
     7
370
     0
100
AcDbLine
 10
247.530946581
 20
105.2018396068
 30
0.0
 11
247.6487260282
 21
102.2041524981
 31
0.0
  0
LINE
  5
F0
330
1F
100
AcDbEntity
  8
0
  6
HIDDEN
 62
     7
370
     0
100
AcDbLine
 10
253.0377186586
 20
105.1374848488
 30
0.0
 11
253.0561511421
 21
104.6683468163
 31
0.0
  0
LINE
  5
F1
330
1F
100
AcDbEntity
  8
0
  6
HIDDEN
 62
     7
370
     0
100
AcDbLine
 10
247.0509619707
 20
104.6825951808
 30
0.0
 11
247.1294816022
 21
102.6841371083
 31
0.0
  0
LINE
  5
F2
330
1F
100
AcDbEntity
  8
0
  6
HIDDEN
 62
     7
370
     0
100
AcDbLine
 10
251.0871379314
 20
103.8404054076
 30
0.0
 11
251.0576930696
 21
104.5898271848
 31
0.0
  0
LINE
  5
F3
330
1F
100
AcDbEntity
  8
0
  6
HIDDEN
 62
     7
370
     0
100
AcDbLine
 10
251.1165827933
 20
103.0909836304
 30
0.0
 11
251.0871379314
 21
103.8404054076
 31
0.0
  0
LINE
  5
F4
330
1F
100
AcDbEntity
  8
0
  6
HIDDEN
 62
     7
370
     0
100
AcDbLine
 10
251.0871379314
 20
103.8404054076
 30
0.0
 11
253.0855960039
 21
103.9189250391
 31
0.0
  0
LINE
  5
F5
330
1F
100
AcDbEntity
  8
0
  6
HIDDEN
 62
     7
370
     0
100
AcDbLine
 10
251.1165827933
 20
103.0909836304
 30
0.0
 11
253.1150408657
 21
103.1695032619
 31
0.0
  0
LINE
  5
F6
330
1F
100
AcDbEntity
  8
0
  6
HIDDEN
 62
     7
370
     0
100
AcDbLine
 10
251.0576930696
 20
104.5898271848
 30
0.0
 11
253.0561511421
 21
104.6683468163
 31
0.0
  0
SPLINE
  5
F7
330
1F
100
AcDbEntity
  8
0
  6
HIDDEN
 62
     7
370
     0
100
AcDbSpline
210
0.0
220
0.0
230
1.0
 70
     8
 71
     3
 72
    80
 73
    76
 74
     0
 42
0.00000001
 43
0.00000001
 40
-0.03125
 40
-0.03125
 40
0.0
 40
0.0
 40
0.0312500000000002
 40
0.0312500000000002
 40
0.0468750000000002
 40
0.0468750000000002
 40
0.0625000000000001
 40
0.0625000000000001
 40
0.0937499999999999
 40
0.0937499999999999
 40
0.1249999999999997
 40
0.1249999999999997
 40
0.1562499999999995
 40
0.1562499999999995
 40
0.1874999999999993
 40
0.1874999999999993
 40
0.2187499999999991
 40
0.2187499999999991
 40
0.2499999999999989
 40
0.2499999999999989
 40
0.2812499999999987
 40
0.2812499999999987
 40
0.3124999999999984
 40
0.3124999999999984
 40
0.3281249999999985
 40
0.3281249999999985
 40
0.3437499999999986
 40
0.3437499999999986
 40
0.3749999999999986
 40
0.3749999999999986
 40
0.4062499999999987
 40
0.4062499999999987
 40
0.4218749999999989
 40
0.4218749999999989
 40
0.4374999999999991
 40
0.4374999999999991
 40
0.4687499999999993
 40
0.4687499999999993
 40
0.4999999999999994
 40
0.4999999999999994
 40
0.5312499999999997
 40
0.5312499999999997
 40
0.5624999999999998
 40
0.5624999999999998
 40
0.59375
 40
0.59375
 40
0.6250000000000001
 40
0.6250000000000001
 40
0.6562500000000003
 40
0.6562500000000003
 40
0.6875000000000006
 40
0.6875000000000006
 40
0.7031250000000007
 40
0.7031250000000007
 40
0.7187500000000007
 40
0.7187500000000007
 40
0.7500000000000003
 40
0.7500000000000003
 40
0.78125
 40
0.78125
 40
0.7968749999999998
 40
0.7968749999999998
 40
0.8124999999999997
 40
0.8124999999999997
 40
0.8437499999999998
 40
0.8437499999999998
 40
0.8749999999999998
 40
0.8749999999999998
 40
0.9062499999999999
 40
0.9062499999999999
 40
0.9375
 40
0.9375
 40
0.96875
 40
0.96875
 40
1.0
 40
1.0
 40
1.03125
 40
1.03125
 10
101.7256058293205
 20
159.7773174038236
 30
0.0
 10
102.3866964548731
 20
159.7773174038236
 30
0.0
 10
102.7116765841247
 20
159.7704192579968
 30
0.0
 10
103.1911499953712
 20
159.7498928300163
 30
0.0
 10
103.349631813212
 20
159.7413366029287
 30
0.0
 10
103.6638513457163
 20
159.7206102277111
 30
0.0
 10
103.8199716293967
 20
159.7083829275047
 30
0.0
 10
104.2740256583532
 20
159.6668136336755
 30
0.0
 10
104.5611290412931
 20
159.6324693485777
 30
0.0
 10
105.1044835973201
 20
159.5491452242555
 30
0.0
 10
105.3615872085257
 20
159.4997070014809
 30
0.0
 10
105.8224934634645
 20
159.388327271721
 30
0.0
 10
106.0293911726794
 20
159.3260327582089
 30
0.0
 10
106.3949164866716
 20
159.1861031153379
 30
0.0
 10
106.5501220087976
 20
159.1094872175889
 30
0.0
 10
106.7995523953973
 20
158.9455285977331
 30
0.0
 10
106.8956423511825
 20
158.8569717436374
 30
0.0
 10
107.024161200376
 20
158.6694910615316
 30
0.0
 10
107.0559720705538
 20
158.5722546000772
 30
0.0
 10
107.0563287203271
 20
158.3706219607501
 30
0.0
 10
107.02383146813
 20
158.265073168912
 30
0.0
 10
106.8962059944155
 20
158.0549583862235
 30
0.0
 10
106.8017775933636
 20
157.9498928782545
 30
0.0
 10
106.6139167733781
 20
157.7930151710034
 30
0.0
 10
106.5430887745749
 20
157.7405814372977
 30
0.0
 10
106.3883668826096
 20
157.638142991668
 30
0.0
 10
106.3043904124262
 20
157.5879952630162
 30
0.0
 10
106.0330667427818
 20
157.4409793065826
 30
0.0
 10
105.8265175241795
 20
157.3474914861482
 30
0.0
 10
105.3599073839904
 20
157.1717046285339
 30
0.0
 10
105.107541814365
 20
157.0923261534502
 30
0.0
 10
104.7016404726862
 20
156.9868437159561
 30
0.0
 10
104.5617398552088
 20
156.9539581511159
 30
0.0
 10
104.2725159199618
 20
156.8930426718873
 30
0.0
 10
104.1226764636726
 20
156.8649621002449
 30
0.0
 10
103.6685598940618
 20
156.7901600582021
 30
0.0
 10
103.3569086753249
 20
156.7521219999559
 30
0.0
 10
102.7159122104126
 20
156.7005100734318
 30
0.0
 10
102.3843845824604
 20
156.6871961399103
 30
0.0
 10
101.7315935373889
 20
156.6870990535823
 30
0.0
 10
101.4070573323571
 20
156.6998871387433
 30
0.0
 10
100.7617878829407
 20
156.7513773283392
 30
0.0
 10
100.446044876778
 20
156.7899019076593
 30
0.0
 10
99.84415558179425
 20
156.8888044705173
 30
0.0
 10
99.55340635098278
 20
156.9499085684424
 30
0.0
 10
99.00649455929828
 20
157.0917180015531
 30
0.0
 10
98.75471719546137
 20
157.1710524861323
 30
0.0
 10
98.29332920284023
 20
157.3444312307938
 30
0.0
 10
98.08205992324216
 20
157.4395911755477
 30
0.0
 10
97.71875557086595
 20
157.6361636989236
 30
0.0
 10
97.56494892242317
 20
157.73791992733
 30
0.0
 10
97.37632945282576
 20
157.8947058901155
 30
0.0
 10
97.32029896661665
 20
157.9479599238655
 30
0.0
 10
97.22472520488049
 20
158.0537644854183
 30
0.0
 10
97.18496228785547
 20
158.1064175497739
 30
0.0
 10
97.08919053754336
 20
158.263491269233
 30
0.0
 10
97.05646769841725
 20
158.3670163045601
 30
0.0
 10
97.05583911208815
 20
158.5712310387872
 30
0.0
 10
97.08802525682292
 20
158.668734876372
 30
0.0
 10
97.18293595867851
 20
158.8080619267236
 30
0.0
 10
97.22240274207746
 20
158.8533786582281
 30
0.0
 10
97.31733274079835
 20
158.9418184792169
 30
0.0
 10
97.37308956856172
 20
158.9850727296769
 30
0.0
 10
97.5610296865316
 20
159.1089642042669
 30
0.0
 10
97.71439115624777
 20
159.1846664950409
 30
0.0
 10
98.07665539112814
 20
159.3239208664992
 30
0.0
 10
98.28750386459406
 20
159.3876827080278
 30
0.0
 10
98.74817383491296
 20
159.4991795474957
 30
0.0
 10
98.9995482144968
 20
159.5477056198123
 30
0.0
 10
99.54545610139492
 20
159.6317596031928
 30
0.0
 10
99.83627867604613
 20
159.6665581568595
 30
0.0
 10
100.4376052908262
 20
159.7217546216233
 30
0.0
 10
100.7521238754386
 20
159.7425724703772
 30
0.0
 10
101.3987053315585
 20
159.7704198032879
 30
0.0
 10
101.7256058293205
 20
159.7773174038236
 30
0.0
 10
102.3866964548731
 20
159.7773174038236
 30
0.0
  0
LINE
  5
F8
330
1F
100
AcDbEntity
  8
0
  6
HIDDEN
 62
     7
370
     0
100
AcDbLine
 10
109.7941221212
 20
149.8687309082
 30
0.0
 11
109.7941221212
 21
142.2677681473
 31
0.0
  0
SPLINE
  5
F9
330
1F
100
AcDbEntity
  8
0
  6
HIDDEN
 62
     7
370
     0
100
AcDbSpline
210
0.0
220
0.0
230
1.0
 70
     8
 71
     3
 72
     9
 73
     5
 74
     0
 42
0.00000001
 43
0.00000001
 40
0.0
 40
0.0
 40
0.0
 40
0.0
 40
0.503816304418665
 40
1.0
 40
1.0
 40
1.0
 40
1.0
 10
73.46957589152416
 20
74.18196178507152
 30
0.0
 10
73.18589670678405
 20
74.15780861097274
 30
0.0
 10
72.62283595973769
 20
74.10986817338276
 30
0.0
 10
72.26647491792937
 20
74.06855582509684
 30
0.0
 10
72.0896543792437
 20
74.04805731145116
 30
0.0
  0
SPLINE
  5
FA
330
1F
100
AcDbEntity
  8
0
  6
HIDDEN
 62
     7
370
     0
100
AcDbSpline
210
0.0
220
0.0
230
1.0
 70
     8
 71
     3
 72
    12
 73
     8
 74
     0
 42
0.00000001
 43
0.00000001
 40
0.0
 40
0.0
 40
0.0
 40
0.0
 40
0.1661348616746358
 40
0.3322013257404253
 40
0.5008932044678792
 40
0.752137078265245
 40
1.0
 40
1.0
 40
1.0
 40
1.0
 10
71.57547280774403
 20
147.8490721704112
 30
0.0
 10
71.58586543185204
 20
147.8476940463497
 30
0.0
 10
71.6066464014318
 20
147.8449383655995
 30
0.0
 10
71.77994589087811
 20
147.8233349906374
 30
0.0
 10
72.10189748012456
 20
147.7854700386956
 30
0.0
 10
72.62306331604448
 20
147.7250862719796
 30
0.0
 10
73.18862125588143
 20
147.6772931348301
 30
0.0
 10
73.46948467956778
 20
147.6535584417367
 30
0.0
  0
SPLINE
  5
FB
330
1F
100
AcDbEntity
  8
0
  6
HIDDEN
 62
     7
370
     0
100
AcDbSpline
210
0.0
220
0.0
230
1.0
 70
     8
 71
     3
 72
    33
 73
    29
 74
     0
 42
0.00000001
 43
0.00000001
 40
0.0
 40
0.0
 40
0.0
 40
0.0
 40
0.0315773698875104
 40
0.0633753287769057
 40
0.0958656851178231
 40
0.1285943208117605
 40
0.1601713694082662
 40
0.2244011681247345
 40
0.2571344568799636
 40
0.2885965627565487
 40
0.3526214070085076
 40
0.3852675959519929
 40
0.4162212184009612
 40
0.4791910353915302
 40
0.5112817741273479
 40
0.5421256322990662
 40
0.6048360558905652
 40
0.6367710793564881
 40
0.6680663384719832
 40
0.7316979547407203
 40
0.7641081282919966
 40
0.7957194290717577
 40
0.8275524266255816
 40
0.8600900250720824
 40
0.8928737620729298
 40
0.9241775068323748
 40
0.9878778414776339
 40
1.0
 40
1.0
 40
1.0
 40
1.0
 10
83.30935679728785
 20
79.55144592659857
 30
0.0
 10
83.2254856502826
 20
79.56531966498032
 30
0.0
 10
83.05715746033866
 20
79.59316405906506
 30
0.0
 10
82.75780286399716
 20
79.63959669929547
 30
0.0
 10
82.42380339673831
 20
79.6882093013163
 30
0.0
 10
82.05803343485103
 20
79.73735723450353
 30
0.0
 10
81.53465352016217
 20
79.80142302009617
 30
0.0
 10
80.95822631156757
 20
79.8612045345013
 30
0.0
 10
80.34308916471602
 20
79.91120414196534
 30
0.0
 10
79.7067734386331
 20
79.95334413464877
 30
0.0
 10
79.04299290119441
 20
79.9819788593868
 30
0.0
 10
78.37092714961129
 20
79.9942383104704
 30
0.0
 10
77.70147856617955
 20
79.99556760157868
 30
0.0
 10
77.0362939990656
 20
79.98070707866923
 30
0.0
 10
76.39000276017511
 20
79.95084911428005
 30
0.0
 10
75.76081280931673
 20
79.91210588621877
 30
0.0
 10
75.16109711713746
 20
79.86152765245889
 30
0.0
 10
74.60279755101566
 20
79.80312763799238
 30
0.0
 10
74.07260268062808
 20
79.74080440662284
 30
0.0
 10
73.59343597831649
 20
79.6753958320873
 30
0.0
 10
73.17851799312164
 20
79.61260692848133
 30
0.0
 10
72.9012456091956
 20
79.56810232965994
 30
0.0
 10
72.65969032363442
 20
79.52739338022496
 30
0.0
 10
72.45419831928601
 20
79.49133624957548
 30
0.0
 10
72.29003389554177
 20
79.46157922462314
 30
0.0
 10
72.13059994897648
 20
79.4319939111987
 30
0.0
 10
72.05236172102788
 20
79.41704463219385
 30
0.0
 10
72.06008651137269
 20
79.41851705479505
 30
0.0
 10
72.06132151604214
 20
79.41875245908524
 30
0.0
  0
SPLINE
  5
FC
330
1F
100
AcDbEntity
  8
0
  6
HIDDEN
 62
     7
370
     0
100
AcDbSpline
210
0.0
220
0.0
230
1.0
 70
     8
 71
     3
 72
    32
 73
    28
 74
     0
 42
0.00000001
 43
0.00000001
 40
0.0
 40
0.0
 40
0.0
 40
0.0
 40
0.020356822172105
 40
0.0512207857583794
 40
0.1139954454389432
 40
0.1459779869097674
 40
0.1769364677636727
 40
0.2398766914470389
 40
0.2719275468465721
 40
0.3033698011481659
 40
0.3673099924152954
 40
0.3998847012176188
 40
0.4314690120325909
 40
0.4957360700021212
 40
0.5285028301030422
 40
0.5596434488300034
 40
0.6230067766607702
 40
0.6553079823205556
 40
0.6861132872619372
 40
0.748756262689177
 40
0.7806634244345373
 40
0.8117607067089887
 40
0.8749825776111492
 40
0.9071778073885584
 40
0.9301738434827028
 40
0.9765719131095674
 40
1.0
 40
1.0
 40
1.0
 40
1.0
 10
72.06132151604214
 20
142.4167838356061
 30
0.0
 10
72.06096446413589
 20
142.4168513145329
 30
0.0
 10
72.06006606854939
 20
142.4170211015276
 30
0.0
 10
72.12265981510203
 20
142.4051268603403
 30
0.0
 10
72.26447099656554
 20
142.3784799834206
 30
0.0
 10
72.48851558844105
 20
142.338097912008
 30
0.0
 10
72.76305770427527
 20
142.2902286702576
 30
0.0
 10
73.11174899328282
 20
142.2327587849778
 30
0.0
 10
73.52802495566023
 20
142.1702642379232
 30
0.0
 10
73.98961900252301
 20
142.1057385562839
 30
0.0
 10
74.51315695161817
 20
142.0411581793007
 30
0.0
 10
75.08535442607293
 20
141.9824028144159
 30
0.0
 10
75.68756079652489
 20
141.9290299580337
 30
0.0
 10
76.32878730330637
 20
141.8861673962015
 30
0.0
 10
76.98987262130252
 20
141.8581033501804
 30
0.0
 10
77.65658357574908
 20
141.8405146926407
 30
0.0
 10
78.33047279635602
 20
141.8390680444
 30
0.0
 10
78.99482228030381
 20
141.8539935835378
 30
0.0
 10
79.64635655446345
 20
141.8790003087615
 30
0.0
 10
80.27701576711947
 20
141.9181043514434
 30
0.0
 10
80.87455474294192
 20
141.9682055092271
 30
0.0
 10
81.44855271089668
 20
142.0243766757102
 30
0.0
 10
81.97950242428999
 20
142.087290704399
 30
0.0
 10
82.42288330555408
 20
142.1473942064526
 30
0.0
 10
82.77440395312772
 20
142.1982839234379
 30
0.0
 10
83.06407146310457
 20
142.2434063999758
 30
0.0
 10
83.24773422750228
 20
142.2738694118632
 30
0.0
 10
83.30935679728785
 20
142.2840903680927
 30
0.0
  0
SPLINE
  5
FD
330
1F
100
AcDbEntity
  8
0
  6
HIDDEN
 62
     7
370
     0
100
AcDbSpline
210
0.0
220
0.0
230
1.0
 70
     8
 71
     3
 72
    13
 73
     9
 74
     0
 42
0.00000001
 43
0.00000001
 40
0.0
 40
0.0
 40
0.0
 40
0.0
 40
0.1623799816591789
 40
0.3258962967501759
 40
0.4929818113643412
 40
0.6612959817031199
 40
0.8237063551432365
 40
1.0
 40
1.0
 40
1.0
 40
1.0
 10
83.30935679728785
 20
142.2840903680927
 30
0.0
 10
83.3849463062452
 20
142.2964661403496
 30
0.0
 10
83.53665429876162
 20
142.3213042903896
 30
0.0
 10
83.71955319860649
 20
142.3485626383133
 30
0.0
 10
83.86861544804891
 20
142.3696824859618
 30
0.0
 10
83.97256598849214
 20
142.3836689136972
 30
0.0
 10
84.04789793360949
 20
142.3934618871379
 30
0.0
 10
84.03966813494239
 20
142.3923905501146
 30
0.0
 10
84.0353845683914
 20
142.3918329248768
 30
0.0
  0
SPLINE
  5
FE
330
1F
100
AcDbEntity
  8
0
  6
HIDDEN
 62
     7
370
     0
100
AcDbSpline
210
0.0
220
0.0
230
1.0
 70
     8
 71
     3
 72
    13
 73
     9
 74
     0
 42
0.00000001
 43
0.00000001
 40
0.0
 40
0.0
 40
0.0
 40
0.0
 40
0.1540223516861439
 40
0.3222978879394844
 40
0.4885662367489577
 40
0.6560437831874955
 40
0.8273549263198314
 40
1.0
 40
1.0
 40
1.0
 40
1.0
 10
84.03538421711565
 20
79.44370341525638
 30
0.0
 10
84.04056988808507
 20
79.44303158581972
 30
0.0
 10
84.0514211105388
 20
79.44162575604166
 30
0.0
 10
83.98207967222999
 20
79.45061264891324
 30
0.0
 10
83.88196220801701
 20
79.46402676504897
 30
0.0
 10
83.73543443998697
 20
79.48466731341611
 30
0.0
 10
83.54922054209169
 20
79.51223277433053
 30
0.0
 10
83.38951783183612
 20
79.53834112471918
 30
0.0
 10
83.30935679728785
 20
79.55144592659857
 30
0.0
  0
LINE
  5
FF
330
1F
100
AcDbEntity
  8
0
  6
HIDDEN
 62
     7
370
     0
100
AcDbLine
 10
63.0527754691
 20
84.4177681473
 30
0.0
 11
63.0527754691
 21
137.4177681473
 31
0.0
  0
LINE
  5
100
330
1F
100
AcDbEntity
  8
0
  6
HIDDEN
 62
     7
370
     0
100
AcDbLine
 10
102.3402287605
 20
84.4177681473
 30
0.0
 11
102.3402287605
 21
137.4177681473
 31
0.0
  0
LINE
  5
101
330
1F
100
AcDbEntity
  8
0
  6
HIDDEN
 62
     7
370
     0
100
AcDbLine
 10
105.5061511421
 20
86.0427681473
 30
0.0
 11
105.5061511421
 21
135.7927681473
 31
0.0
  0
SPLINE
  5
102
330
1F
100
AcDbEntity
  8
0
  6
HIDDEN
 62
     7
370
     0
100
AcDbSpline
210
0.0
220
0.0
230
1.0
 70
     8
 71
     3
 72
    20
 73
    16
 74
     0
 42
0.00000001
 43
0.00000001
 40
0.0
 40
0.0
 40
0.0
 40
0.0
 40
0.2499999999999978
 40
0.2499999999999978
 40
0.3749999999999982
 40
0.3749999999999982
 40
0.4999999999999986
 40
0.4999999999999986
 40
0.6249999999999989
 40
0.6249999999999989
 40
0.7499999999999992
 40
0.7499999999999992
 40
0.8749999999999997
 40
0.8749999999999997
 40
1.0
 40
1.0
 40
1.0
 40
1.0
 10
53.25615114209681
 20
136.14628177776
 30
0.0
 10
53.25615114209681
 20
136.0670787912277
 30
0.0
 10
53.20916864688407
 20
135.9859825728247
 30
0.0
 10
53.0713470561065
 20
135.8657858810738
 30
0.0
 10
53.01506477219652
 20
135.8268591770718
 30
0.0
 10
52.88197992072929
 20
135.7516704446474
 30
0.0
 10
52.80413997849623
 20
135.7150282393054
 30
0.0
 10
52.63150762238189
 20
135.6474377064736
 30
0.0
 10
52.53711462529081
 20
135.6164795246979
 30
0.0
 10
52.33167731897567
 20
135.5609551033282
 30
0.0
 10
52.21933107898849
 20
135.536246589495
 30
0.0
 10
51.98709021508885
 20
135.4964503623868
 30
0.0
 10
51.86637957266613
 20
135.4810305249898
 30
0.0
 10
51.61530871339711
 20
135.4599505501502
 30
0.0
 10
51.48578671698132
 20
135.4544733051292
 30
0.0
 10
51.35615114209682
 20
135.4544733051292
 30
0.0
  0
LINE
  5
103
330
1F
100
AcDbEntity
  8
0
  6
HIDDEN
 62
     7
370
     0
100
AcDbLine
 10
51.3561511421
 20
135.4544733051
 30
0.0
 11
44.8061511421
 21
135.4544733051
 31
0.0
  0
LINE
  5
104
330
1F
100
AcDbEntity
  8
0
  6
HIDDEN
 62
     7
370
     0
100
AcDbLine
 10
44.8061511421
 20
86.3810629896
 30
0.0
 11
56.3561511421
 21
86.3810629896
 31
0.0
  0
SPLINE
  5
105
330
1F
100
AcDbEntity
  8
0
  6
HIDDEN
 62
     7
370
     0
100
AcDbSpline
210
0.0
220
0.0
230
1.0
 70
     8
 71
     3
 72
    18
 73
    14
 74
     0
 42
0.00000001
 43
0.00000001
 40
0.0
 40
0.0
 40
0.0
 40
0.0
 40
0.1249999999999982
 40
0.1249999999999982
 40
0.2499999999999964
 40
0.2499999999999964
 40
0.4999999999999988
 40
0.4999999999999988
 40
0.7500000000000011
 40
0.7500000000000011
 40
0.8750000000000006
 40
0.8750000000000006
 40
1.0
 40
1.0
 40
1.0
 40
1.0
 10
56.3561511420968
 20
86.38106298956214
 30
0.0
 10
56.48561845505404
 20
86.38106298956214
 30
0.0
 10
56.61262920395066
 20
86.3757099909695
 30
0.0
 10
56.86199252514791
 20
86.35497201828072
 30
0.0
 10
56.98561617977635
 20
86.33930011402641
 30
0.0
 10
57.33464851671039
 20
86.27960538562434
 30
0.0
 10
57.54516028151718
 20
86.22184020594334
 30
0.0
 10
57.88907695921669
 20
86.08731836466585
 30
0.0
 10
58.02542736073452
 20
86.00964925116045
 30
0.0
 10
58.16246541729704
 20
85.8903581170731
 30
0.0
 10
58.19768443600995
 20
85.84943910793807
 30
0.0
 10
58.2443080129485
 20
85.76878311464803
 30
0.0
 10
58.25615114209683
 20
85.72881459445517
 30
0.0
 10
58.25615114209681
 20
85.68925451693136
 30
0.0
  0
LINE
  5
106
330
1F
100
AcDbEntity
  8
0
  6
HIDDEN
 62
     7
370
     0
100
AcDbLine
 10
44.8061511421
 20
86.3810629896
 30
0.0
 11
44.8061511421
 21
135.4544733051
 31
0.0
  0
LWPOLYLINE
  5
107
330
1F
100
AcDbEntity
  8
0
  6
HIDDEN
 62
     7
370
     0
100
AcDbPolyline
 90
       13
 70
   128
 43
0.0
 10
102.0561511421
 20
150.8614987106
 10
103.2092304958
 20
150.9163169049
 10
104.3001470431
 20
151.0778162247
 10
105.2700891905
 20
151.3372901998
 10
106.0667671059
 20
151.6807505212
 10
106.6472316765
 20
152.0896811539
 10
106.9801899072
 20
152.5420365417
 10
107.0476919335
 20
153.0134300886
 10
106.8460987037
 20
153.4784488465
 10
106.386278161
 20
153.9120235337
 10
105.69301935
 20
154.2907800267
 10
104.8036960325
 20
154.5942994647
 10
104.5021696105
 20
154.6688985266
  0
LWPOLYLINE
  5
108
330
1F
100
AcDbEntity
  8
0
  6
HIDDEN
 62
     7
370
     0
100
AcDbPolyline
 90
       13
 70
   128
 43
0.0
 10
99.5976396358
 20
154.6660387766
 10
99.3086062517
 20
154.5942994647
 10
98.4192829342
 20
154.2907800267
 10
97.7260241232
 20
153.9120235337
 10
97.2662035805
 20
153.4784488465
 10
97.0646103507
 20
153.0134300886
 10
97.132112377
 20
152.5420365417
 10
97.4650706077
 20
152.0896811539
 10
98.0455351783
 20
151.6807505212
 10
98.8422130937
 20
151.3372901998
 10
99.8121552411
 20
151.0778162247
 10
100.9030717884
 20
150.9163169049
 10
102.0561511421
 20
150.8614987106
  0
LINE
  5
109
330
1F
100
AcDbEntity
  8
0
  6
HIDDEN
 62
     7
370
     0
100
AcDbLine
 10
44.8061511421
 20
83.5477681473
 30
0.0
 11
44.8061511421
 21
78.6694829455
 31
0.0
  0
LINE
  5
10A
330
1F
100
AcDbEntity
  8
0
  6
HIDDEN
 62
     7
370
     0
100
AcDbLine
 10
58.2561511421
 20
83.5477681473
 30
0.0
 11
58.2561511421
 21
77.048434882
 31
0.0
  0
LINE
  5
10B
330
1F
100
AcDbEntity
  8
0
  6
HIDDEN
 62
     7
370
     0
100
AcDbLine
 10
53.2561511421
 20
138.2877681473
 30
0.0
 11
53.2561511421
 21
144.6623768843
 31
0.0
  0
LINE
  5
10C
330
1F
100
AcDbEntity
  8
0
  6
HIDDEN
 62
     7
370
     0
100
AcDbLine
 10
44.8061511421
 20
138.2877681473
 30
0.0
 11
44.8061511421
 21
143.1660533492
 31
0.0
  0
LINE
  5
10D
330
1F
100
AcDbEntity
  8
0
  6
HIDDEN
 62
     7
370
     0
100
AcDbLine
 10
117.3561511421
 20
97.9177681473
 30
0.0
 11
117.3561511421
 21
123.9177681473
 31
0.0
  0
LINE
  5
10E
330
1F
100
AcDbEntity
  8
0
  6
HIDDEN
 62
     7
370
     0
100
AcDbLine
 10
121.3561511421
 20
97.9177681473
 30
0.0
 11
121.3561511421
 21
123.9177681473
 31
0.0
  0
LINE
  5
10F
330
1F
100
AcDbEntity
  8
0
  6
HIDDEN
 62
     7
370
     0
100
AcDbLine
 10
106.2561511421
 20
99.6677681473
 30
0.0
 11
106.2561511421
 21
122.1677681473
 31
0.0
  0
ELLIPSE
  5
110
330
1F
100
AcDbEntity
  8
0
  6
HIDDEN
 62
     7
370
     0
100
AcDbEllipse
 10
36.8714779418
 20
110.9177681473
 30
0.0
 11
31.08108570811662
 21
-1.421085471520200E-14
 31
0.0
210
0.0
220
0.0
230
1.0
 40
0.8164965809
 41
4.915995335118103
 42
4.970536038964788
  0
ELLIPSE
  5
111
330
1F
100
AcDbEntity
  8
0
  6
HIDDEN
 62
     7
370
     0
100
AcDbEllipse
 10
36.8714779418
 20
110.9177681473
 30
0.0
 11
31.08108570811662
 21
1.421085471520200E-14
 31
0.0
210
0.0
220
0.0
230
1.0
 40
0.8164965809
 41
1.312649268214811
 42
1.367189972061496
  0
LINE
  5
112
330
1F
100
AcDbEntity
  8
0
  6
HIDDEN
 62
     7
370
     0
100
AcDbLine
 10
122.0061511421
 20
67.0177681473
 30
0.0
 11
108.0061511421
 21
67.0177681473
 31
0.0
  0
LINE
  5
113
330
1F
100
AcDbEntity
  8
0
  6
HIDDEN
 62
     7
370
     0
100
AcDbLine
 10
98.0061511421
 20
60.9277691475
 30
0.0
 11
98.0061511421
 21
67.0177681473
 31
0.0
  0
LINE
  5
114
330
1F
100
AcDbEntity
  8
0
  6
HIDDEN
 62
     7
370
     0
100
AcDbLine
 10
108.0061511421
 20
67.0177681473
 30
0.0
 11
98.0061511421
 21
67.0177681473
 31
0.0
  0
LINE
  5
115
330
1F
100
AcDbEntity
  8
0
  6
HIDDEN
 62
     7
370
     0
100
AcDbLine
 10
58.2561511421
 20
83.5477681473
 30
0.0
 11
58.2561511421
 21
85.6892545169
 31
0.0
  0
LINE
  5
116
330
1F
100
AcDbEntity
  8
0
  6
HIDDEN
 62
     7
370
     0
100
AcDbLine
 10
44.8061511421
 20
83.5477681473
 30
0.0
 11
44.8061511421
 21
86.3810629896
 31
0.0
  0
LINE
  5
117
330
1F
100
AcDbEntity
  8
0
  6
HIDDEN
 62
     7
370
     0
100
AcDbLine
 10
44.8061511421
 20
138.2877681473
 30
0.0
 11
44.8061511421
 21
135.4544733051
 31
0.0
  0
LINE
  5
118
330
1F
100
AcDbEntity
  8
0
  6
HIDDEN
 62
     7
370
     0
100
AcDbLine
 10
53.2561511421
 20
138.2877681473
 30
0.0
 11
53.2561511421
 21
136.1462817778
 31
0.0
  0
LINE
  5
119
330
1F
100
AcDbEntity
  8
0
  6
HIDDEN
 62
     7
370
     0
100
AcDbLine
 10
122.0061511421
 20
154.8177681473
 30
0.0
 11
108.0061511421
 21
154.8177681473
 31
0.0
  0
LINE
  5
11A
330
1F
100
AcDbEntity
  8
0
  6
HIDDEN
 62
     7
370
     0
100
AcDbLine
 10
108.0061511421
 20
154.8177681473
 30
0.0
 11
98.0061511421
 21
154.8177681473
 31
0.0
  0
SPLINE
  5
11B
330
1F
100
AcDbEntity
  8
0
  6
HIDDEN
 62
     7
370
     0
100
AcDbSpline
210
0.0
220
0.0
230
1.0
 70
     8
 71
     3
 72
    30
 73
    26
 74
     0
 42
0.00000001
 43
0.00000001
 40
0.0
 40
0.0
 40
0.0
 40
0.0
 40
0.0531668058304317
 40
0.1125460448719341
 40
0.1779415820778971
 40
0.2129647235170572
 40
0.2495168671262461
 40
0.2912815898071866
 40
0.3261230015200984
 40
0.3540373899843958
 40
0.3750221080320145
 40
0.4414779845154221
 40
0.5001940042390935
 40
0.5547072404240017
 40
0.6144498352439471
 40
0.6794734232806444
 40
0.7140294936894341
 40
0.7499255024786758
 40
0.79138889337768
 40
0.826054898825647
 40
0.8539197351107396
 40
0.8749805502089723
 40
0.9411652363125584
 40
0.9999141591659424
 40
1.0
 40
1.0
 40
1.0
 40
1.0
 10
84.05572799537947
 20
73.81783115795582
 30
0.0
 10
84.03952646376953
 20
73.82273331054
 30
0.0
 10
84.0052302845072
 20
73.83311042227521
 30
0.0
 10
83.7038836699681
 20
73.90877168985693
 30
0.0
 10
83.26171140129308
 20
74.00505882315925
 30
0.0
 10
82.76687923045941
 20
74.10472353282371
 30
0.0
 10
82.29640343015814
 20
74.19700170569166
 30
0.0
 10
81.76548204450948
 20
74.2926337305444
 30
0.0
 10
81.22733153349789
 20
74.37828397541608
 30
0.0
 10
80.76928420093101
 20
74.44557576808332
 30
0.0
 10
80.11371987933813
 20
74.53392393715463
 30
0.0
 10
79.23041344165225
 20
74.6305820213398
 30
0.0
 10
78.10175170875513
 20
74.71735719812611
 30
0.0
 10
77.01198995891335
 20
74.75543589584439
 30
0.0
 10
75.91596168040394
 20
74.75728633061756
 30
0.0
 10
75.01057043351966
 20
74.731124875028
 30
0.0
 10
74.31426772321922
 20
74.69451764989051
 30
0.0
 10
73.78758799537741
 20
74.65550077442636
 30
0.0
 10
73.32094188074626
 20
74.61329164697905
 30
0.0
 10
72.9497266051447
 20
74.57628755743154
 30
0.0
 10
72.69568012753993
 20
74.54758679696666
 30
0.0
 10
72.39462497450305
 20
74.51120684635616
 30
0.0
 10
72.13914117954711
 20
74.47842667934121
 30
0.0
 10
72.03992045459684
 20
74.4620887946426
 30
0.0
 10
72.0562010118774
 20
74.46468238080578
 30
0.0
 10
72.05622476546334
 20
74.46468616488828
 30
0.0
  0
SPLINE
  5
11C
330
1F
100
AcDbEntity
  8
0
  6
HIDDEN
 62
     7
370
     0
100
AcDbSpline
210
0.0
220
0.0
230
1.0
 70
     8
 71
     3
 72
    30
 73
    26
 74
     0
 42
0.00000001
 43
0.00000001
 40
0.0
 40
0.0
 40
0.0
 40
0.0
 40
0.00011232880577
 40
0.0285431152740163
 40
0.0588466796165893
 40
0.0910271964581777
 40
0.1250880910051609
 40
0.1546766141359749
 40
0.1963554560347645
 40
0.2501101496291564
 40
0.3205253872367429
 40
0.3856104300224916
 40
0.4454038608875526
 40
0.4999571692315344
 40
0.5283494388454997
 40
0.5586340270215411
 40
0.5908185964941228
 40
0.6249094714580506
 40
0.6541844576010744
 40
0.6958630078793602
 40
0.7499307292179759
 40
0.821590528568654
 40
0.8871422909705703
 40
0.94663787488603
 40
1.0
 40
1.0
 40
1.0
 40
1.0
 10
72.05624647419663
 20
147.370779856374
 30
0.0
 10
72.05621461443852
 20
147.3707868035002
 30
0.0
 10
72.04811894617063
 20
147.3725520908916
 30
0.0
 10
72.07678042384232
 20
147.3670971721648
 30
0.0
 10
72.15016727002242
 20
147.3565543248183
 30
0.0
 10
72.29382381357725
 20
147.3368691171665
 30
0.0
 10
72.49485951349132
 20
147.3120298533145
 30
0.0
 10
72.77749006268903
 20
147.2778213881777
 30
0.0
 10
73.19089918823431
 20
147.2341414914182
 30
0.0
 10
73.86718668945089
 20
147.1710984238863
 30
0.0
 10
74.80561759042234
 20
147.109801253458
 30
0.0
 10
75.91511080390592
 20
147.0785128099607
 30
0.0
 10
77.0125915346024
 20
147.0801679775559
 30
0.0
 10
77.91262277304001
 20
147.1114741796408
 30
0.0
 10
78.62396369885683
 20
147.158307328433
 30
0.0
 10
79.18938059981608
 20
147.2054741903264
 30
0.0
 10
79.7783040226796
 20
147.2649131968803
 30
0.0
 10
80.34271367529392
 20
147.3312704035058
 30
0.0
 10
80.93690986934382
 20
147.4131898099505
 30
0.0
 10
81.60351803029425
 20
147.5148377927008
 30
0.0
 10
82.40485077589581
 20
147.6569767032926
 30
0.0
 10
83.15736076033889
 20
147.8082212740527
 30
0.0
 10
83.70264725530605
 20
147.9260721473138
 30
0.0
 10
84.00536878680954
 20
148.0023013790615
 30
0.0
 10
84.03965923742328
 20
148.0127536885516
 30
0.0
 10
84.05587267407373
 20
148.0176958183496
 30
0.0
  0
LINE
  5
11D
330
1F
100
AcDbEntity
  8
0
  6
HIDDEN
 62
     7
370
     0
100
AcDbLine
 10
155.1561511421
 20
104.9177681473
 30
0.0
 11
155.1561511421
 21
116.9177681473
 31
0.0
  0
LINE
  5
11E
330
1F
100
AcDbEntity
  8
0
  6
HIDDEN
 62
     7
370
     0
100
AcDbLine
 10
156.7183887516
 20
107.5177681473
 30
0.0
 11
156.7183887516
 21
114.3177681473
 31
0.0
  0
LINE
  5
11F
330
1F
100
AcDbEntity
  8
0
  6
HIDDEN
 62
     7
370
     0
100
AcDbLine
 10
249.5561511421
 20
106.9177681473
 30
0.0
 11
249.5561511421
 21
114.9177681473
 31
0.0
  0
LINE
  5
120
330
1F
100
AcDbEntity
  8
0
  6
HIDDEN
 62
     7
370
     0
100
AcDbLine
 10
216.5561511421
 20
107.0177681473
 30
0.0
 11
216.5561511421
 21
114.8177681473
 31
0.0
  0
SPLINE
  5
121
330
1F
100
AcDbEntity
  8
0
  6
HIDDEN
 62
     7
370
     0
100
AcDbSpline
210
0.0
220
0.0
230
1.0
 70
     8
 71
     3
 72
    17
 73
    13
 74
     0
 42
0.00000001
 43
0.00000001
 40
0.0
 40
0.0
 40
0.0
 40
0.0
 40
0.1013431159103648
 40
0.205751295260445
 40
0.3070613091035743
 40
0.4111043761154801
 40
0.5163665130397844
 40
0.6245062130620126
 40
0.7325968000425177
 40
0.8440587783481883
 40
0.9480068973974315
 40
0.9999999999999999
 40
0.9999999999999999
 40
0.9999999999999999
 40
0.9999999999999999
 10
218.5561511420968
 20
114.9476564832676
 30
0.0
 10
218.6363859770319
 20
114.9490573328252
 30
0.0
 10
218.7992823026936
 20
114.9519013998184
 30
0.0
 10
219.0352415915025
 20
114.9740501916537
 30
0.0
 10
219.2593312485648
 20
115.0066850193988
 30
0.0
 10
219.4647588300921
 20
115.0473565823016
 30
0.0
 10
219.6498572248371
 20
115.0923320143712
 30
0.0
 10
219.8070999957125
 20
115.136628694268
 30
0.0
 10
219.9326471917195
 20
115.1758795259918
 30
0.0
 10
220.0147830662917
 20
115.2033794867741
 30
0.0
 10
220.0551554720531
 20
115.2174190163136
 30
0.0
 10
220.0518536412578
 20
115.2162708093227
 30
0.0
 10
220.0507527621863
 20
115.215887980182
 30
0.0
  0
LINE
  5
122
330
1F
100
AcDbEntity
  8
0
  6
HIDDEN
 62
     7
370
     0
100
AcDbLine
 10
218.5569070564
 20
114.9476789298
 30
0.0
 11
218.5261894545
 21
114.9486193588
 31
0.0
  0
SPLINE
  5
123
330
1F
100
AcDbEntity
  8
0
  6
HIDDEN
 62
     7
370
     0
100
AcDbSpline
210
0.0
220
0.0
230
1.0
 70
     8
 71
     3
 72
    17
 73
    13
 74
     0
 42
0.00000001
 43
0.00000001
 40
0.0
 40
0.0
 40
0.0
 40
0.0
 40
0.0488083042940175
 40
0.1532047376997439
 40
0.2528028019996151
 40
0.355086470911145
 40
0.4586155002232319
 40
0.5649000045429391
 40
0.6728171151687965
 40
0.7839630175507386
 40
0.8902352823469394
 40
1.0
 40
1.0
 40
1.0
 40
1.0
 10
217.0609685998356
 20
115.2160900228082
 30
0.0
 10
217.0599882429596
 20
115.2164311786744
 30
0.0
 10
217.0569109937043
 20
115.2175020352785
 30
0.0
 10
217.0940951693859
 20
115.2045614718337
 30
0.0
 10
217.1688086014348
 20
115.1794911343446
 30
0.0
 10
217.2800244324055
 20
115.1442947082647
 30
0.0
 10
217.4258555675903
 20
115.1021988075382
 30
0.0
 10
217.604665201372
 20
115.0570329786289
 30
0.0
 10
217.8148718892657
 20
115.0132349656086
 30
0.0
 10
218.0477765351791
 20
114.9774161035655
 30
0.0
 10
218.2981443911249
 20
114.9525286855805
 30
0.0
 10
218.4692269849665
 20
114.9492979600035
 30
0.0
 10
218.5561511420968
 20
114.9476564832676
 30
0.0
  0
SPLINE
  5
124
330
1F
100
AcDbEntity
  8
0
  6
HIDDEN
 62
     7
370
     0
100
AcDbSpline
210
0.0
220
0.0
230
1.0
 70
     8
 71
     3
 72
    27
 73
    23
 74
     0
 42
0.00000001
 43
0.00000001
 40
0.0
 40
0.0
 40
0.0
 40
0.0
 40
0.0507816103274928
 40
0.1030881979290496
 40
0.1538561257728958
 40
0.2060070907766584
 40
0.2585050423281224
 40
0.31243055715785
 40
0.3665037503210758
 40
0.4222571586564739
 40
0.4743148081469654
 40
0.5280476338066697
 40
0.577560247848741
 40
0.6284669923466469
 40
0.6788956278408
 40
0.7306348167685567
 40
0.78391677715565
 40
0.8387032221737067
 40
0.8925100780107021
 40
0.9480286554418251
 40
0.9993150357584293
 40
1.0
 40
1.0
 40
1.0
 40
1.0
 10
220.0561511420968
 20
106.6177681473457
 30
0.0
 10
220.052399212422
 20
106.6190842815969
 30
0.0
 10
220.0447826822167
 20
106.6217560737538
 30
0.0
 10
219.9837162785979
 20
106.6427101696357
 30
0.0
 10
219.8877369446698
 20
106.6740227954164
 30
0.0
 10
219.7566446879244
 20
106.7136655745613
 30
0.0
 10
219.5913198148079
 20
106.7582749362844
 30
0.0
 10
219.3953033099681
 20
106.8031589122132
 30
0.0
 10
219.1705059783616
 20
106.8435590932404
 30
0.0
 10
218.9288960055526
 20
106.8732081573647
 30
0.0
 10
218.676037163033
 20
106.8887156327929
 30
0.0
 10
218.429024885158
 20
106.88836394042
 30
0.0
 10
218.1880090827828
 20
106.8732888258462
 30
0.0
 10
217.9623814047358
 20
106.8463093493484
 30
0.0
 10
217.749753028914
 20
106.8095959482564
 30
0.0
 10
217.5553722217721
 20
106.7667574370519
 30
0.0
 10
217.3826658122857
 20
106.7214215890019
 30
0.0
 10
217.2408170081082
 20
106.6792045569533
 30
0.0
 10
217.1331694885791
 20
106.6442631362756
 30
0.0
 10
217.0738091412996
 20
106.6239476471399
 30
0.0
 10
217.0495571580427
 20
106.6154815869966
 30
0.0
 10
217.0563299553264
 20
106.6178301560368
 30
0.0
 10
217.0564192184385
 20
106.6178611093598
 30
0.0
  0
LINE
  5
125
330
1F
100
AcDbEntity
  8
0
  6
HIDDEN
 62
     7
370
     0
100
AcDbLine
 10
227.0561511421
 20
106.9177681473
 30
0.0
 11
227.0561511421
 21
114.9177681473
 31
0.0
  0
LINE
  5
126
330
1F
100
AcDbEntity
  8
0
  6
HIDDEN
 62
     7
370
     0
100
AcDbLine
 10
199.855376585
 20
107.5177681473
 30
0.0
 11
199.855376585
 21
114.3177681473
 31
0.0
  0
LINE
  5
127
330
1F
100
AcDbEntity
  8
0
  6
HIDDEN
 62
     7
370
     0
100
AcDbLine
 10
200.3961511421
 20
108.4177681473
 30
0.0
 11
200.3961511421
 21
113.4177681473
 31
0.0
  0
LINE
  5
128
330
1F
100
AcDbEntity
  8
0
  6
HIDDEN
 62
     7
370
     0
100
AcDbLine
 10
164.5061511421
 20
96.4951184165
 30
0.0
 11
159.5061511421
 21
96.4951184165
 31
0.0
  0
LINE
  5
129
330
1F
100
AcDbEntity
  8
0
  6
HIDDEN
 62
     7
370
     0
100
AcDbLine
 10
162.0061511421
 20
125.3404178782
 30
0.0
 11
164.5061511421
 21
125.3404178782
 31
0.0
  0
LINE
  5
12A
330
1F
100
AcDbEntity
  8
0
  6
HIDDEN
 62
     7
370
     0
100
AcDbLine
 10
159.5061511421
 20
125.3404178782
 30
0.0
 11
162.0061511421
 21
125.3404178782
 31
0.0
  0
LINE
  5
12B
330
1F
100
AcDbEntity
  8
0
  6
HIDDEN
 62
     7
370
     0
100
AcDbLine
 10
162.0061511421
 20
116.9177681473
 30
0.0
 11
164.5061511421
 21
116.9177681473
 31
0.0
  0
LINE
  5
12C
330
1F
100
AcDbEntity
  8
0
  6
HIDDEN
 62
     7
370
     0
100
AcDbLine
 10
159.5061511421
 20
116.9177681473
 30
0.0
 11
162.0061511421
 21
116.9177681473
 31
0.0
  0
LINE
  5
12D
330
1F
100
AcDbEntity
  8
0
  6
HIDDEN
 62
     7
370
     0
100
AcDbLine
 10
164.5061511421
 20
104.9177681473
 30
0.0
 11
159.5061511421
 21
104.9177681473
 31
0.0
  0
SPLINE
  5
12E
330
1F
100
AcDbEntity
  8
0
  6
HIDDEN
 62
     7
370
     0
100
AcDbSpline
210
0.0
220
0.0
230
1.0
 70
     8
 71
     3
 72
    44
 73
    40
 74
     0
 42
0.00000001
 43
0.00000001
 40
0.0
 40
0.0
 40
0.0
 40
0.0
 40
0.020535748874616
 40
0.0412439942479027
 40
0.0624824231753554
 40
0.0838950308835909
 40
0.1250576179278657
 40
0.1672263197395463
 40
0.1957437391615835
 40
0.2244807603093983
 40
0.2538309647378756
 40
0.2833643508373135
 40
0.3125605298181989
 40
0.3419196624657014
 40
0.3718258480711857
 40
0.4019606175250505
 40
0.4346521362133552
 40
0.4679885701179588
 40
0.500760905438126
 40
0.534843959174813
 40
0.5630421085119128
 40
0.5918412137099602
 40
0.6165182204748283
 40
0.6413908936333538
 40
0.6667534360916576
 40
0.6922499476803342
 40
0.718532452035139
 40
0.7449464044285213
 40
0.7717835263566505
 40
0.7987778077245058
 40
0.8225160866985858
 40
0.8463894309196944
 40
0.8707306753071171
 40
0.8952558211470062
 40
0.9190030610988149
 40
0.9429607340775981
 40
0.9676384428876931
 40
0.9925876305392162
 40
1.0
 40
1.0
 40
1.0
 40
1.0
 10
220.0561511420968
 20
117.963377230345
 30
0.0
 10
220.0556732800291
 20
117.9639696720869
 30
0.0
 10
220.0547135419405
 20
117.965159531972
 30
0.0
 10
220.0469183698384
 20
117.9748370354721
 30
0.0
 10
220.034408127135
 20
117.9904142757769
 30
0.0
 10
220.0114417875112
 20
118.0191413680011
 30
0.0
 10
219.9720890274677
 20
118.0687713891112
 30
0.0
 10
219.9178397548339
 20
118.1385083662441
 30
0.0
 10
219.8628161897735
 20
118.2110000470407
 30
0.0
 10
219.8111258860796
 20
118.2808017315152
 30
0.0
 10
219.7560535041754
 20
118.3575755555288
 30
0.0
 10
219.6989703113087
 20
118.440526476852
 30
0.0
 10
219.6413263807255
 20
118.5289444772215
 30
0.0
 10
219.5841679415397
 20
118.6231049937016
 30
0.0
 10
219.5287377111087
 20
118.7238529295879
 30
0.0
 10
219.475892993123
 20
118.8344974319224
 30
0.0
 10
219.4293450357704
 20
118.9562550835967
 30
0.0
 10
219.3954898493728
 20
119.0888262335809
 30
0.0
 10
219.3813563498101
 20
119.2287985519552
 30
0.0
 10
219.3908915922303
 20
119.3622451098563
 30
0.0
 10
219.4187155099213
 20
119.4855792649596
 30
0.0
 10
219.4555305586149
 20
119.5907495853801
 30
0.0
 10
219.498259706502
 20
119.6862087435945
 30
0.0
 10
219.5436233690022
 20
119.7728123374913
 30
0.0
 10
219.5924063288542
 20
119.8557739330284
 30
0.0
 10
219.6437152149524
 20
119.9357450779111
 30
0.0
 10
219.696229441464
 20
120.012233472116
 30
0.0
 10
219.7491224997981
 20
120.0852821313168
 30
0.0
 10
219.8010095366627
 20
120.1539863465885
 30
0.0
 10
219.8488411178361
 20
120.2152305552903
 30
0.0
 10
219.8919451495694
 20
120.2690621302895
 30
0.0
 10
219.9302712634196
 20
120.3160166939712
 30
0.0
 10
219.9650351648071
 20
120.3579416853783
 30
0.0
 10
219.995061974009
 20
120.3936959767299
 30
0.0
 10
220.0196069474663
 20
120.4226418282383
 30
0.0
 10
220.0386781984085
 20
120.4449686490243
 30
0.0
 10
220.0506443072573
 20
120.4589090888915
 30
0.0
 10
220.057258512622
 20
120.4665938121874
 30
0.0
 10
220.055184024272
 20
120.4641818250981
 30
0.0
 10
220.0547088656126
 20
120.4636293628238
 30
0.0
  0
SPLINE
  5
12F
330
1F
100
AcDbEntity
  8
0
  6
HIDDEN
 62
     7
370
     0
100
AcDbSpline
210
0.0
220
0.0
230
1.0
 70
     8
 71
     3
 72
    10
 73
     6
 74
     0
 42
0.00000001
 43
0.00000001
 40
0.0
 40
0.0
 40
0.0
 40
0.0
 40
0.3845743046453516
 40
0.8689635483471834
 40
1.0
 40
1.0
 40
1.0
 40
1.0
 10
217.0586494387383
 20
120.4637021631052
 30
0.0
 10
217.0597826629866
 20
120.4639942746284
 30
0.0
 10
217.0623432359424
 20
120.4646543142165
 30
0.0
 10
217.0951148983641
 20
120.4749777982659
 30
0.0
 10
217.1234521300033
 20
120.488357519086
 30
0.0
 10
217.129485693944
 20
120.4912063295169
 30
0.0
  0
SPLINE
  5
130
330
1F
100
AcDbEntity
  8
0
  6
HIDDEN
 62
     7
370
     0
100
AcDbSpline
210
0.0
220
0.0
230
1.0
 70
     8
 71
     3
 72
    27
 73
    23
 74
     0
 42
0.00000001
 43
0.00000001
 40
0.0
 40
0.0
 40
0.0
 40
0.0
 40
0.0436974915427745
 40
0.0878335253670823
 40
0.1331056124352616
 40
0.1803435214697033
 40
0.2285619252985636
 40
0.2848361166626698
 40
0.3422362494844953
 40
0.4099429175775721
 40
0.4800763979315092
 40
0.5134973703867928
 40
0.5477807228015328
 40
0.5812484962831835
 40
0.615776587044771
 40
0.6611901320797736
 40
0.7078347370113343
 40
0.779043116381706
 40
0.8522596840365546
 40
0.9116646089721421
 40
0.9725942847189696
 40
1.0
 40
1.0
 40
1.0
 40
1.0
 10
217.0572158855046
 20
118.0824858707375
 30
0.0
 10
217.0584718426794
 20
118.0839415981069
 30
0.0
 10
217.0609963616501
 20
118.0868676623343
 30
0.0
 10
217.0887340041977
 20
118.119212309465
 30
0.0
 10
217.1316287797095
 20
118.169822220723
 30
0.0
 10
217.1907097566146
 20
118.2408373016497
 30
0.0
 10
217.2665730463053
 20
118.3347122787302
 30
0.0
 10
217.3576093438535
 20
118.4525547525896
 30
0.0
 10
217.4655767410805
 20
118.6034523757019
 30
0.0
 10
217.5806128860041
 20
118.7871821864369
 30
0.0
 10
217.6670655654407
 20
118.9714926370937
 30
0.0
 10
217.7120762583716
 20
119.1335792110672
 30
0.0
 10
217.7288262719818
 20
119.257789508608
 30
0.0
 10
217.7263834137816
 20
119.3849637788279
 30
0.0
 10
217.7030411486079
 20
119.5230737056995
 30
0.0
 10
217.6555868932347
 20
119.6693768968395
 30
0.0
 10
217.5751067822841
 20
119.8440328751175
 30
0.0
 10
217.4660693478649
 20
120.0291733135793
 30
0.0
 10
217.3472717794743
 20
120.2031326268075
 30
0.0
 10
217.2427322556935
 20
120.3451752575829
 30
0.0
 10
217.1727556340095
 20
120.4361310649082
 30
0.0
 10
217.1397313507853
 20
120.4781653532464
 30
0.0
 10
217.1294856939441
 20
120.4912063295169
 30
0.0
  0
LINE
  5
131
330
1F
100
AcDbEntity
  8
0
  6
HIDDEN
 62
     7
370
     0
100
AcDbLine
 10
220.0561511421
 20
120.9177681473
 30
0.0
 11
217.0561511421
 21
120.9177681473
 31
0.0
  0
LWPOLYLINE
  5
132
330
1F
100
AcDbEntity
  8
0
  6
HIDDEN
 62
     7
370
     0
100
AcDbPolyline
 90
       19
 70
   128
 43
0.0
 10
220.0529319595
 20
101.3739869457
 10
220.0237340776
 20
101.4080780447
 10
219.9270296174
 20
101.5235796094
 10
219.8346428
 20
101.6385804053
 10
219.7265921586
 20
101.7815142977
 10
219.6150776985
 20
101.9447023295
 10
219.506839031
 20
102.1341645808
 10
219.4098156734
 20
102.3925592834
 10
219.3861137903
 20
102.6314756458
 10
219.4280867543
 20
102.8664883613
 10
219.4946535804
 20
103.0391165051
 10
219.5788012243
 20
103.2014940111
 10
219.7041343986
 20
103.4019320632
 10
219.8299332617
 20
103.5800173426
 10
219.9119441646
 20
103.6890514287
 10
219.9815509132
 20
103.7785823427
 10
220.0490614705
 20
103.8633574265
 10
220.0561511421
 20
103.8721590643
 10
220.0561511421
 20
103.8721590643
  0
LINE
  5
133
330
1F
100
AcDbEntity
  8
0
  6
HIDDEN
 62
     7
370
     0
100
AcDbLine
 10
218.5561511421
 20
100.9177681473
 30
0.0
 11
220.0561511421
 21
100.9177681473
 31
0.0
  0
LINE
  5
134
330
1F
100
AcDbEntity
  8
0
  6
HIDDEN
 62
     7
370
     0
100
AcDbLine
 10
217.0561511421
 20
100.9177681473
 30
0.0
 11
218.5561511421
 21
100.9177681473
 31
0.0
  0
SPLINE
  5
135
330
1F
100
AcDbEntity
  8
0
  6
HIDDEN
 62
     7
370
     0
100
AcDbSpline
210
0.0
220
0.0
230
1.0
 70
     8
 71
     3
 72
     9
 73
     5
 74
     0
 42
0.00000001
 43
0.00000001
 40
0.0
 40
0.0
 40
0.0
 40
0.0
 40
0.9127674511735191
 40
0.9999999999999999
 40
0.9999999999999999
 40
0.9999999999999999
 40
0.9999999999999999
 10
217.1294856939441
 20
101.3443299651744
 30
0.0
 10
217.0861746722966
 20
101.3608388165244
 30
0.0
 10
217.0387244465115
 20
101.3789254072862
 30
0.0
 10
217.0598919765451
 20
101.3712629347561
 30
0.0
 10
217.0617384741423
 20
101.3705945177469
 30
0.0
  0
SPLINE
  5
136
330
1F
100
AcDbEntity
  8
0
  6
HIDDEN
 62
     7
370
     0
100
AcDbSpline
210
0.0
220
0.0
230
1.0
 70
     8
 71
     3
 72
    17
 73
    13
 74
     0
 42
0.00000001
 43
0.00000001
 40
0.0
 40
0.0
 40
0.0
 40
0.0
 40
0.1236628338234095
 40
0.2464323737451974
 40
0.3531987520651104
 40
0.423433231558498
 40
0.494124437941772
 40
0.580159705122774
 40
0.714060863312453
 40
0.8512841765221915
 40
0.9473213221325537
 40
1.0
 40
1.0
 40
1.0
 40
1.0
 10
217.129485693944
 20
101.3443299651744
 30
0.0
 10
217.1831337334046
 20
101.4130492621191
 30
0.0
 10
217.2900422790227
 20
101.5499914535972
 30
0.0
 10
217.5050200986718
 20
101.8591065771461
 30
0.0
 10
217.6675794770756
 20
102.1685496326742
 30
0.0
 10
217.739054170123
 20
102.4677010524128
 30
0.0
 10
217.7128323298305
 20
102.7529604874116
 30
0.0
 10
217.5753106330786
 20
103.0752644779967
 30
0.0
 10
217.3516456248029
 20
103.3975145714658
 30
0.0
 10
217.1580411683385
 20
103.6354237830296
 30
0.0
 10
217.0606051859409
 20
103.7491317078689
 30
0.0
 10
217.0650892877651
 20
103.743895228358
 30
0.0
 10
217.0666776631646
 20
103.7420403429069
 30
0.0
  0
LINE
  5
137
330
1F
100
AcDbEntity
  8
0
  6
HIDDEN
 62
     7
370
     0
100
AcDbLine
 10
217.0348310677
 20
103.7534510753
 30
0.0
 11
217.1294856939
 21
101.3443299652
 31
0.0
  0
LINE
  5
138
330
1F
100
AcDbEntity
  8
0
  6
HIDDEN
 62
     7
370
     0
100
AcDbLine
 10
217.0348310677
 20
118.0820852194
 30
0.0
 11
217.1294856939
 21
120.4912063295
 31
0.0
  0
LWPOLYLINE
  5
139
330
1F
100
AcDbEntity
  8
0
  6
HIDDEN
 62
     7
370
     0
100
AcDbPolyline
 90
       28
 70
   128
 43
0.0
 10
102.0561511421
 20
156.2304739991
 10
103.2092304958
 20
156.1888260337
 10
104.3001470431
 20
156.0661273902
 10
105.2700891905
 20
155.8689927841
 10
106.0667671059
 20
155.6080497931
 10
106.6472316765
 20
155.2973659214
 10
106.9801899072
 20
154.953690217
 10
107.0476919335
 20
154.5955503259
 10
106.8460987037
 20
154.2422536625
 10
106.386278161
 20
153.9128465413
 10
105.69301935
 20
153.6250873855
 10
104.8036960325
 20
153.3944893656
 10
103.7662518587
 20
153.2334840807
 10
102.6366157127
 20
153.1507513672
 10
101.4756865715
 20
153.1507513672
 10
100.3460504255
 20
153.2334840807
 10
99.3086062517
 20
153.3944893656
 10
98.4192829342
 20
153.6250873855
 10
97.7260241232
 20
153.9128465413
 10
97.2662035805
 20
154.2422536625
 10
97.0646103507
 20
154.5955503259
 10
97.132112377
 20
154.953690217
 10
97.4650706077
 20
155.2973659214
 10
98.0455351783
 20
155.6080497931
 10
98.8422130937
 20
155.8689927841
 10
99.8121552411
 20
156.0661273902
 10
100.9030717884
 20
156.1888260337
 10
102.0561511421
 20
156.2304739991
  0
LINE
  5
13A
330
1F
100
AcDbEntity
  8
0
  6
HIDDEN
 62
     7
370
     0
100
AcDbLine
 10
116.318180163
 20
149.8687309082
 30
0.0
 11
116.318180163
 21
142.2677681473
 31
0.0
  0
LINE
  5
13B
330
1F
100
AcDbEntity
  8
0
  6
HIDDEN
 62
     7
370
     0
100
AcDbLine
 10
111.1461511421
 20
145.6320033398
 30
0.0
 11
111.1461511421
 21
142.2677681473
 31
0.0
  0
LINE
  5
13C
330
1F
100
AcDbEntity
  8
0
  6
HIDDEN
 62
     7
370
     0
100
AcDbLine
 10
114.9661511421
 20
145.6320033398
 30
0.0
 11
114.9661511421
 21
142.2677681473
 31
0.0
  0
CIRCLE
  5
13D
330
1F
100
AcDbEntity
  8
0
  6
HIDDEN
 62
     7
370
     0
100
AcDbCircle
 10
100.0561511421
 20
110.9177681473
 30
0.0
 40
5.000000000000014
  0
LINE
  5
13E
330
1F
100
AcDbEntity
  8
0
  6
HIDDEN
 62
     7
370
     0
100
AcDbLine
 10
216.0561511421
 20
107.9177681473
 30
0.0
 11
216.5561511421
 21
108.4177681473
 31
0.0
  0
LINE
  5
13F
330
1F
100
AcDbEntity
  8
0
  6
HIDDEN
 62
     7
370
     0
100
AcDbLine
 10
216.5561511421
 20
113.4177681473
 30
0.0
 11
216.0561511421
 21
113.9177681473
 31
0.0
  0
LINE
  5
140
330
1F
100
AcDbEntity
  8
0
  6
HIDDEN
 62
     7
370
     0
100
AcDbLine
 10
203.5561511421
 20
107.9177681473
 30
0.0
 11
216.0561511421
 21
107.9177681473
 31
0.0
  0
LINE
  5
141
330
1F
100
AcDbEntity
  8
0
  6
HIDDEN
 62
     7
370
     0
100
AcDbLine
 10
216.0561511421
 20
113.9177681473
 30
0.0
 11
203.5561511421
 21
113.9177681473
 31
0.0
  0
LINE
  5
142
330
1F
100
AcDbEntity
  8
0
  6
HIDDEN
 62
     7
370
     0
100
AcDbLine
 10
203.5561511421
 20
113.9177681473
 30
0.0
 11
203.0561511421
 21
113.4177681473
 31
0.0
  0
LINE
  5
143
330
1F
100
AcDbEntity
  8
0
  6
HIDDEN
 62
     7
370
     0
100
AcDbLine
 10
203.0561511421
 20
108.4177681473
 30
0.0
 11
203.5561511421
 21
107.9177681473
 31
0.0
  0
LINE
  5
144
330
1F
100
AcDbEntity
  8
0
  6
HIDDEN
 62
     7
370
     0
100
AcDbLine
 10
216.5561511421
 20
108.4177681473
 30
0.0
 11
219.0561511421
 21
108.4177681473
 31
0.0
  0
LINE
  5
145
330
1F
100
AcDbEntity
  8
0
  6
HIDDEN
 62
     7
370
     0
100
AcDbLine
 10
219.0561511421
 20
113.4177681473
 30
0.0
 11
216.5561511421
 21
113.4177681473
 31
0.0
  0
LINE
  5
146
330
1F
100
AcDbEntity
  8
0
  6
HIDDEN
 62
     7
370
     0
100
AcDbLine
 10
207.556151142
 20
109.4177681473
 30
0.0
 11
214.5561511421
 21
109.4177681473
 31
0.0
  0
LINE
  5
147
330
1F
100
AcDbEntity
  8
0
  6
HIDDEN
 62
     7
370
     0
100
AcDbLine
 10
214.5561511421
 20
112.4177681473
 30
0.0
 11
207.556151142
 21
112.4177681473
 31
0.0
  0
LINE
  5
148
330
1F
100
AcDbEntity
  8
0
  6
HIDDEN
 62
     7
370
     0
100
AcDbLine
 10
247.5898363046
 20
119.6336975802
 30
0.0
 11
247.0705918786
 21
119.1537129699
 31
0.0
  0
LINE
  5
149
330
1F
100
AcDbEntity
  8
0
  6
HIDDEN
 62
     7
370
     0
100
AcDbLine
 10
246.9920722471
 20
117.1552548974
 30
0.0
 11
247.4720568573
 21
116.6360104714
 31
0.0
  0
LINE
  5
14A
330
1F
100
AcDbEntity
  8
0
  6
HIDDEN
 62
     7
370
     0
100
AcDbLine
 10
252.9237741085
 20
119.4241265931
 30
0.0
 11
247.5898363046
 21
119.6336975802
 31
0.0
  0
LINE
  5
14B
330
1F
100
AcDbEntity
  8
0
  6
HIDDEN
 62
     7
370
     0
100
AcDbLine
 10
247.4720568573
 20
116.6360104714
 30
0.0
 11
252.8059946612
 21
116.4264394843
 31
0.0
  0
LINE
  5
14C
330
1F
100
AcDbEntity
  8
0
  6
HIDDEN
 62
     7
370
     0
100
AcDbLine
 10
252.8059946612
 20
116.4264394843
 30
0.0
 11
252.978828935
 21
116.7003652294
 31
0.0
  0
LINE
  5
14D
330
1F
100
AcDbEntity
  8
0
  6
HIDDEN
 62
     7
370
     0
100
AcDbLine
 10
253.0561511421
 20
119.1725192374
 30
0.0
 11
252.9237741085
 21
119.4241265931
 31
0.0
  0
LINE
  5
14E
330
1F
100
AcDbEntity
  8
0
  6
HIDDEN
 62
     7
370
     0
100
AcDbLine
 10
252.8648843848
 20
105.4114105939
 30
0.0
 11
247.530946581
 21
105.2018396068
 31
0.0
  0
LINE
  5
14F
330
1F
100
AcDbEntity
  8
0
  6
HIDDEN
 62
     7
370
     0
100
AcDbLine
 10
247.6487260282
 20
102.2041524981
 30
0.0
 11
252.9826638321
 21
102.4137234852
 31
0.0
  0
LINE
  5
150
330
1F
100
AcDbEntity
  8
0
  6
HIDDEN
 62
     7
370
     0
100
AcDbLine
 10
252.9826638321
 20
102.4137234852
 30
0.0
 11
253.0561511421
 21
102.553399887
 31
0.0
  0
LINE
  5
151
330
1F
100
AcDbEntity
  8
0
  6
HIDDEN
 62
     7
370
     0
100
AcDbLine
 10
253.0377186586
 20
105.1374848488
 30
0.0
 11
252.8648843848
 21
105.4114105939
 31
0.0
  0
LINE
  5
152
330
1F
100
AcDbEntity
  8
0
  6
HIDDEN
 62
     7
370
     0
100
AcDbLine
 10
247.530946581
 20
105.2018396068
 30
0.0
 11
247.0509619707
 21
104.6825951808
 31
0.0
  0
LINE
  5
153
330
1F
100
AcDbEntity
  8
0
  6
HIDDEN
 62
     7
370
     0
100
AcDbLine
 10
247.1294816022
 20
102.6841371083
 30
0.0
 11
247.6487260282
 21
102.2041524981
 31
0.0
  0
LINE
  5
154
330
1F
100
AcDbEntity
  8
0
  6
HIDDEN
 62
     7
370
     0
100
AcDbLine
 10
93.0561511421
 20
71.5130851908
 30
0.0
 11
93.145752766
 21
72.1506338727
 31
0.0
  0
LINE
  5
155
330
1F
100
AcDbEntity
  8
0
  6
HIDDEN
 62
     7
370
     0
100
AcDbLine
 10
93.145752766
 20
149.684902422
 30
0.0
 11
93.0561511421
 21
150.3224511039
 31
0.0
  0
ARC
  5
156
330
1F
100
AcDbEntity
  8
0
  6
HIDDEN
 62
     7
370
     0
100
AcDbCircle
 10
92.1592142236
 20
72.2892828229
 30
0.0
 40
0.9962338214387002
100
AcDbArc
 50
352.0
 51
0.0
  0
ARC
  5
157
330
1F
100
AcDbEntity
  8
0
  6
HIDDEN
 62
     7
370
     0
100
AcDbCircle
 10
92.1592142236
 20
72.2892828229
 30
0.0
 40
0.9962338214386932
100
AcDbArc
 50
0.0
 51
25.7988228126
  0
ARC
  5
158
330
1F
100
AcDbEntity
  8
0
  6
HIDDEN
 62
     7
370
     0
100
AcDbCircle
 10
92.1592142236
 20
149.5462534718
 30
0.0
 40
0.9962338214387002
100
AcDbArc
 50
348.75
 51
8.0
  0
LWPOLYLINE
  5
159
330
1F
100
AcDbEntity
  8
0
  6
HIDDEN
 62
     7
370
     0
100
AcDbPolyline
 90
        3
 70
   128
 43
0.0
 10
93.1363056916
 20
149.3518978948
 10
93.0796142609
 20
149.1650112936
 10
93.0561511421
 20
149.1126799586
  0
LINE
  5
15A
330
1F
100
AcDbEntity
  8
0
  6
HIDDEN
 62
     7
370
     0
100
AcDbLine
 10
93.1554480451
 20
72.2892828229
 30
0.0
 11
93.1554480451
 21
149.5462534718
 31
0.0
  0
ARC
  5
15B
330
1F
100
AcDbEntity
  8
0
  6
HIDDEN
 62
     7
370
     0
100
AcDbCircle
 10
66.5168770843
 20
80.4177681473
 30
0.0
 40
1.0
100
AcDbArc
 50
210.0
 51
270.0
  0
ARC
  5
15C
330
1F
100
AcDbEntity
  8
0
  6
HIDDEN
 62
     7
370
     0
100
AcDbCircle
 10
66.5168770843
 20
141.4177681473
 30
0.0
 40
1.0
100
AcDbArc
 50
90.0
 51
150.0
  0
LINE
  5
15D
330
1F
100
AcDbEntity
  8
0
  6
HIDDEN
 62
     7
370
     0
100
AcDbLine
 10
66.5168770843
 20
79.4177681473
 30
0.0
 11
72.061321516
 21
79.4177681473
 31
0.0
  0
LINE
  5
15E
330
1F
100
AcDbEntity
  8
0
  6
HIDDEN
 62
     7
370
     0
100
AcDbLine
 10
72.061321516
 20
142.4177681473
 30
0.0
 11
66.5168770843
 21
142.4177681473
 31
0.0
  0
ARC
  5
15F
330
1F
100
AcDbEntity
  8
0
  6
HIDDEN
 62
     7
370
     0
100
AcDbCircle
 10
83.3093567973
 20
91.4177681473
 30
0.0
 40
11.99999999999999
100
AcDbArc
 50
273.4752677657
 51
324.3146652873
  0
ARC
  5
160
330
1F
100
AcDbEntity
  8
0
  6
HIDDEN
 62
     7
370
     0
100
AcDbCircle
 10
83.3093567973
 20
130.4177681473
 30
0.0
 40
12.0
100
AcDbArc
 50
35.6853347127
 51
86.5206515763
  0
LINE
  5
161
330
1F
100
AcDbEntity
  8
0
  6
HIDDEN
 62
     7
370
     0
100
AcDbLine
 10
65.6508516805
 20
141.9177681473
 30
0.0
 11
63.0527754691
 21
137.4177681473
 31
0.0
  0
LINE
  5
162
330
1F
100
AcDbEntity
  8
0
  6
HIDDEN
 62
     7
370
     0
100
AcDbLine
 10
63.0527754691
 20
84.4177681473
 30
0.0
 11
65.6508516805
 21
79.9177681473
 31
0.0
  0
ARC
  5
163
330
1F
100
AcDbEntity
  8
0
  6
HIDDEN
 62
     7
370
     0
100
AcDbCircle
 10
103.5061511421
 20
86.0427681473
 30
0.0
 40
2.000000000000015
100
AcDbArc
 50
234.3409123039
 51
0.0
  0
ARC
  5
164
330
1F
100
AcDbEntity
  8
0
  6
HIDDEN
 62
     7
370
     0
100
AcDbCircle
 10
103.5061511421
 20
135.7927681473
 30
0.0
 40
2.000000000000026
100
AcDbArc
 50
0.0
 51
125.6590876961
  0
LINE
  5
165
330
1F
100
AcDbEntity
  8
0
  6
HIDDEN
 62
     7
370
     0
100
AcDbLine
 10
93.0561511421
 20
84.4177681473
 30
0.0
 11
102.3402287605
 21
84.4177681473
 31
0.0
  0
LINE
  5
166
330
1F
100
AcDbEntity
  8
0
  6
HIDDEN
 62
     7
370
     0
100
AcDbLine
 10
102.3402287605
 20
137.4177681473
 30
0.0
 11
93.0561511421
 21
137.4177681473
 31
0.0
  0
LINE
  5
167
330
1F
100
AcDbEntity
  8
0
  6
HIDDEN
 62
     7
370
     0
100
AcDbLine
 10
58.2561511421
 20
84.4177681473
 30
0.0
 11
63.0527754691
 21
84.4177681473
 31
0.0
  0
LINE
  5
168
330
1F
100
AcDbEntity
  8
0
  6
HIDDEN
 62
     7
370
     0
100
AcDbLine
 10
63.0527754691
 20
137.4177681473
 30
0.0
 11
53.2561511421
 21
137.4177681473
 31
0.0
  0
LINE
  5
169
330
1F
100
AcDbEntity
  8
0
  6
HIDDEN
 62
     7
370
     0
100
AcDbLine
 10
97.0561511421
 20
156.5949310294
 30
0.0
 11
97.0561511421
 21
152.895181926
 31
0.0
  0
LINE
  5
16A
330
1F
100
AcDbEntity
  8
0
  6
HIDDEN
 62
     7
370
     0
100
AcDbLine
 10
107.0561511421
 20
152.895181926
 30
0.0
 11
107.0561511421
 21
156.5935590802
 31
0.0
  0
LINE
  5
16B
330
1F
100
AcDbEntity
  8
0
  6
HIDDEN
 62
     7
370
     0
100
AcDbLine
 10
117.3561511421
 20
97.9177681473
 30
0.0
 11
121.3561511421
 21
97.9177681473
 31
0.0
  0
LINE
  5
16C
330
1F
100
AcDbEntity
  8
0
  6
HIDDEN
 62
     7
370
     0
100
AcDbLine
 10
121.3561511421
 20
123.9177681473
 30
0.0
 11
117.3561511421
 21
123.9177681473
 31
0.0
  0
LINE
  5
16D
330
1F
100
AcDbEntity
  8
0
  6
HIDDEN
 62
     7
370
     0
100
AcDbLine
 10
105.5061511421
 20
98.9177681473
 30
0.0
 11
106.2561511421
 21
99.6677681473
 31
0.0
  0
LINE
  5
16E
330
1F
100
AcDbEntity
  8
0
  6
HIDDEN
 62
     7
370
     0
100
AcDbLine
 10
106.2561511421
 20
122.1677681473
 30
0.0
 11
105.5061511421
 21
122.9177681473
 31
0.0
  0
LINE
  5
16F
330
1F
100
AcDbEntity
  8
0
  6
HIDDEN
 62
     7
370
     0
100
AcDbLine
 10
106.2561511421
 20
99.6677681473
 30
0.0
 11
117.3561511421
 21
99.6677681473
 31
0.0
  0
LINE
  5
170
330
1F
100
AcDbEntity
  8
0
  6
HIDDEN
 62
     7
370
     0
100
AcDbLine
 10
117.3561511421
 20
122.1677681473
 30
0.0
 11
106.2561511421
 21
122.1677681473
 31
0.0
  0
LINE
  5
171
330
1F
100
AcDbEntity
  8
0
  6
HIDDEN
 62
     7
370
     0
100
AcDbLine
 10
98.0061511421
 20
160.9177681473
 30
0.0
 11
98.0061511421
 21
154.8177681473
 31
0.0
  0
LINE
  5
172
330
1F
100
AcDbEntity
  8
0
  6
HIDDEN
 62
     7
370
     0
100
AcDbLine
 10
84.4888637581
 20
73.3394885767
 30
0.0
 11
84.0561544716
 21
73.8177132941
 31
0.0
  0
LINE
  5
173
330
1F
100
AcDbEntity
  8
0
  6
HIDDEN
 62
     7
370
     0
100
AcDbLine
 10
72.0561516001
 20
74.4646746508
 30
0.0
 11
71.5755242949
 21
73.98644994
 31
0.0
  0
LINE
  5
174
330
1F
100
AcDbEntity
  8
0
  6
HIDDEN
 62
     7
370
     0
100
AcDbLine
 10
71.5754059534
 20
147.8490804386
 30
0.0
 11
72.0561514175
 21
147.3708007667
 31
0.0
  0
LINE
  5
175
330
1F
100
AcDbEntity
  8
0
  6
HIDDEN
 62
     7
370
     0
100
AcDbLine
 10
84.0561511442
 20
148.0177731541
 30
0.0
 11
84.4889728139
 21
148.4960528269
 31
0.0
  0
LINE
  5
176
330
1F
100
AcDbEntity
  8
0
  6
HIDDEN
 62
     7
370
     0
100
AcDbLine
 10
84.0561511421
 20
142.3918330413
 30
0.0
 11
84.0561511421
 21
148.1177769801
 31
0.0
  0
LINE
  5
177
330
1F
100
AcDbEntity
  8
0
  6
HIDDEN
 62
     7
370
     0
100
AcDbLine
 10
72.0561511421
 20
147.3707902674
 30
0.0
 11
72.0561511421
 21
142.416783948
 31
0.0
  0
LINE
  5
178
330
1F
100
AcDbEntity
  8
0
  6
HIDDEN
 62
     7
370
     0
100
AcDbLine
 10
84.0561511421
 20
73.7175844516
 30
0.0
 11
84.0561511421
 21
79.4437032534
 31
0.0
  0
LINE
  5
179
330
1F
100
AcDbEntity
  8
0
  6
HIDDEN
 62
     7
370
     0
100
AcDbLine
 10
72.0561511421
 20
79.4187523467
 30
0.0
 11
72.0561511421
 21
74.4647130653
 31
0.0
  0
LINE
  5
17A
330
1F
100
AcDbEntity
  8
0
  6
HIDDEN
 62
     7
370
     0
100
AcDbLine
 10
121.3561511421
 20
104.9177681473
 30
0.0
 11
155.1561511421
 21
104.9177681473
 31
0.0
  0
LINE
  5
17B
330
1F
100
AcDbEntity
  8
0
  6
HIDDEN
 62
     7
370
     0
100
AcDbLine
 10
155.1561511421
 20
116.9177681473
 30
0.0
 11
121.3561511421
 21
116.9177681473
 31
0.0
  0
LINE
  5
17C
330
1F
100
AcDbEntity
  8
0
  6
HIDDEN
 62
     7
370
     0
100
AcDbLine
 10
155.1561511421
 20
104.9177681473
 30
0.0
 11
156.7183887516
 21
107.5177681473
 31
0.0
  0
LINE
  5
17D
330
1F
100
AcDbEntity
  8
0
  6
HIDDEN
 62
     7
370
     0
100
AcDbLine
 10
156.7183887516
 20
114.3177681473
 30
0.0
 11
155.1561511421
 21
116.9177681473
 31
0.0
  0
ARC
  5
17E
330
1F
100
AcDbEntity
  8
0
  6
HIDDEN
 62
     7
370
     0
100
AcDbCircle
 10
252.5561511421
 20
105.8810738993
 30
0.0
 40
0.4999999999999916
100
AcDbArc
 50
0.0
 51
80.0
  0
ARC
  5
17F
330
1F
100
AcDbEntity
  8
0
  6
HIDDEN
 62
     7
370
     0
100
AcDbCircle
 10
252.5561511421
 20
115.9544623954
 30
0.0
 40
0.4999999999999916
100
AcDbArc
 50
280.0
 51
0.0
  0
LINE
  5
180
330
1F
100
AcDbEntity
  8
0
  6
HIDDEN
 62
     7
370
     0
100
AcDbLine
 10
252.6429752309
 20
115.4620585189
 30
0.0
 11
249.5561511421
 21
114.9177681473
 31
0.0
  0
LINE
  5
181
330
1F
100
AcDbEntity
  8
0
  6
HIDDEN
 62
     7
370
     0
100
AcDbLine
 10
249.5561511421
 20
106.9177681473
 30
0.0
 11
252.6429752309
 21
106.3734777758
 31
0.0
  0
ARC
  5
182
330
1F
100
AcDbEntity
  8
0
  6
HIDDEN
 62
     7
370
     0
100
AcDbCircle
 10
216.9561511421
 20
107.0177681473
 30
0.0
 40
0.4000000000000057
100
AcDbArc
 50
180.0
 51
270.0
  0
ARC
  5
183
330
1F
100
AcDbEntity
  8
0
  6
HIDDEN
 62
     7
370
     0
100
AcDbCircle
 10
216.9561511421
 20
114.8177681473
 30
0.0
 40
0.4000000000000057
100
AcDbArc
 50
90.0
 51
180.0
  0
LINE
  5
184
330
1F
100
AcDbEntity
  8
0
  6
HIDDEN
 62
     7
370
     0
100
AcDbLine
 10
220.0561511421
 20
106.6177681473
 30
0.0
 11
226.161377124
 21
106.6177681473
 31
0.0
  0
LINE
  5
185
330
1F
100
AcDbEntity
  8
0
  6
HIDDEN
 62
     7
370
     0
100
AcDbLine
 10
216.9561511421
 20
106.6177681473
 30
0.0
 11
217.0564192184
 21
106.6177681473
 31
0.0
  0
LINE
  5
186
330
1F
100
AcDbEntity
  8
0
  6
HIDDEN
 62
     7
370
     0
100
AcDbLine
 10
217.0609685998
 20
115.2177681473
 30
0.0
 11
216.9561511421
 21
115.2177681473
 31
0.0
  0
LINE
  5
187
330
1F
100
AcDbEntity
  8
0
  6
HIDDEN
 62
     7
370
     0
100
AcDbLine
 10
226.161377124
 20
115.2177681473
 30
0.0
 11
220.0507527622
 21
115.2177681473
 31
0.0
  0
ARC
  5
188
330
1F
100
AcDbEntity
  8
0
  6
HIDDEN
 62
     7
370
     0
100
AcDbCircle
 10
226.161377124
 20
107.0177681473
 30
0.0
 40
0.3999999999999977
100
AcDbArc
 50
270.0
 51
290.0
  0
ARC
  5
189
330
1F
100
AcDbEntity
  8
0
  6
HIDDEN
 62
     7
370
     0
100
AcDbCircle
 10
226.161377124
 20
114.8177681473
 30
0.0
 40
0.4000000000000057
100
AcDbArc
 50
70.0
 51
90.0
  0
LINE
  5
18A
330
1F
100
AcDbEntity
  8
0
  6
HIDDEN
 62
     7
370
     0
100
AcDbLine
 10
226.2981851813
 20
106.641891099
 30
0.0
 11
227.0561511421
 21
106.9177681473
 31
0.0
  0
LINE
  5
18B
330
1F
100
AcDbEntity
  8
0
  6
HIDDEN
 62
     7
370
     0
100
AcDbLine
 10
227.0561511421
 20
114.9177681473
 30
0.0
 11
226.2981851813
 21
115.1936451957
 31
0.0
  0
LINE
  5
18C
330
1F
100
AcDbEntity
  8
0
  6
HIDDEN
 62
     7
370
     0
100
AcDbLine
 10
227.0561511421
 20
106.9177681473
 30
0.0
 11
249.5561511421
 21
106.9177681473
 31
0.0
  0
LINE
  5
18D
330
1F
100
AcDbEntity
  8
0
  6
HIDDEN
 62
     7
370
     0
100
AcDbLine
 10
249.5561511421
 20
114.9177681473
 30
0.0
 11
227.0561511421
 21
114.9177681473
 31
0.0
  0
LINE
  5
18E
330
1F
100
AcDbEntity
  8
0
  6
HIDDEN
 62
     7
370
     0
100
AcDbLine
 10
199.855376585
 20
107.5177681473
 30
0.0
 11
200.3961511421
 21
108.4177681473
 31
0.0
  0
LINE
  5
18F
330
1F
100
AcDbEntity
  8
0
  6
HIDDEN
 62
     7
370
     0
100
AcDbLine
 10
200.3961511421
 20
113.4177681473
 30
0.0
 11
199.855376585
 21
114.3177681473
 31
0.0
  0
LINE
  5
190
330
1F
100
AcDbEntity
  8
0
  6
HIDDEN
 62
     7
370
     0
100
AcDbLine
 10
156.7183887516
 20
107.5177681473
 30
0.0
 11
199.855376585
 21
107.5177681473
 31
0.0
  0
LINE
  5
191
330
1F
100
AcDbEntity
  8
0
  6
HIDDEN
 62
     7
370
     0
100
AcDbLine
 10
199.855376585
 20
114.3177681473
 30
0.0
 11
156.7183887516
 21
114.3177681473
 31
0.0
  0
LINE
  5
192
330
1F
100
AcDbEntity
  8
0
  6
HIDDEN
 62
     7
370
     0
100
AcDbLine
 10
165.5061511421
 20
95.9177681473
 30
0.0
 11
164.5061511421
 21
96.4951184165
 31
0.0
  0
LINE
  5
193
330
1F
100
AcDbEntity
  8
0
  6
HIDDEN
 62
     7
370
     0
100
AcDbLine
 10
159.5061511421
 20
96.4951184165
 30
0.0
 11
158.5061511421
 21
95.9177681473
 31
0.0
  0
LINE
  5
194
330
1F
100
AcDbEntity
  8
0
  6
HIDDEN
 62
     7
370
     0
100
AcDbLine
 10
158.5061511421
 20
125.9177681473
 30
0.0
 11
159.5061511421
 21
125.3404178782
 31
0.0
  0
LINE
  5
195
330
1F
100
AcDbEntity
  8
0
  6
HIDDEN
 62
     7
370
     0
100
AcDbLine
 10
164.5061511421
 20
125.3404178782
 30
0.0
 11
165.5061511421
 21
125.9177681473
 31
0.0
  0
LINE
  5
196
330
1F
100
AcDbEntity
  8
0
  6
HIDDEN
 62
     7
370
     0
100
AcDbLine
 10
216.5561511421
 20
113.9177681473
 30
0.0
 11
216.0561511421
 21
113.4177681473
 31
0.0
  0
LINE
  5
197
330
1F
100
AcDbEntity
  8
0
  6
HIDDEN
 62
     7
370
     0
100
AcDbLine
 10
216.0561511421
 20
108.4177681473
 30
0.0
 11
216.5561511421
 21
107.9177681473
 31
0.0
  0
LINE
  5
198
330
1F
100
AcDbEntity
  8
0
  6
HIDDEN
 62
     7
370
     0
100
AcDbLine
 10
159.5061511421
 20
125.3404178782
 30
0.0
 11
159.5061511421
 21
116.9177681473
 31
0.0
  0
LINE
  5
199
330
1F
100
AcDbEntity
  8
0
  6
HIDDEN
 62
     7
370
     0
100
AcDbLine
 10
164.5061511421
 20
116.9177681473
 30
0.0
 11
164.5061511421
 21
125.3404178782
 31
0.0
  0
LINE
  5
19A
330
1F
100
AcDbEntity
  8
0
  6
HIDDEN
 62
     7
370
     0
100
AcDbLine
 10
159.5061511421
 20
116.9177681473
 30
0.0
 11
162.0061511421
 21
115.4156165998
 31
0.0
  0
LINE
  5
19B
330
1F
100
AcDbEntity
  8
0
  6
HIDDEN
 62
     7
370
     0
100
AcDbLine
 10
162.0061511421
 20
115.4156165998
 30
0.0
 11
164.5061511421
 21
116.9177681473
 31
0.0
  0
LINE
  5
19C
330
1F
100
AcDbEntity
  8
0
  6
HIDDEN
 62
     7
370
     0
100
AcDbLine
 10
200.3961511421
 20
108.4177681473
 30
0.0
 11
216.0561511421
 21
108.4177681473
 31
0.0
  0
LINE
  5
19D
330
1F
100
AcDbEntity
  8
0
  6
HIDDEN
 62
     7
370
     0
100
AcDbLine
 10
216.0561511421
 20
113.4177681473
 30
0.0
 11
200.3961511421
 21
113.4177681473
 31
0.0
  0
LINE
  5
19E
330
1F
100
AcDbEntity
  8
0
  6
HIDDEN
 62
     7
370
     0
100
AcDbLine
 10
164.5061511421
 20
96.4951184165
 30
0.0
 11
164.5061511421
 21
104.9177681473
 31
0.0
  0
LINE
  5
19F
330
1F
100
AcDbEntity
  8
0
  6
HIDDEN
 62
     7
370
     0
100
AcDbLine
 10
159.5061511421
 20
104.9177681473
 30
0.0
 11
159.5061511421
 21
96.4951184165
 31
0.0
  0
LINE
  5
1A0
330
1F
100
AcDbEntity
  8
0
  6
HIDDEN
 62
     7
370
     0
100
AcDbLine
 10
164.5061511421
 20
104.9177681473
 30
0.0
 11
162.0061511421
 21
106.4199196949
 31
0.0
  0
LINE
  5
1A1
330
1F
100
AcDbEntity
  8
0
  6
HIDDEN
 62
     7
370
     0
100
AcDbLine
 10
162.0061511421
 20
106.4199196949
 30
0.0
 11
159.5061511421
 21
104.9177681473
 31
0.0
  0
LINE
  5
1A2
330
1F
100
AcDbEntity
  8
0
  6
HIDDEN
 62
     7
370
     0
100
AcDbLine
 10
217.0561511421
 20
118.0824858707
 30
0.0
 11
217.0561511421
 21
115.2160900356
 31
0.0
  0
LINE
  5
1A3
330
1F
100
AcDbEntity
  8
0
  6
HIDDEN
 62
     7
370
     0
100
AcDbLine
 10
217.0561511421
 20
120.9177681473
 30
0.0
 11
217.0561511421
 21
120.4637021631
 31
0.0
  0
LINE
  5
1A4
330
1F
100
AcDbEntity
  8
0
  6
HIDDEN
 62
     7
370
     0
100
AcDbLine
 10
220.0561511421
 20
120.4636293628
 30
0.0
 11
220.0561511421
 21
120.9177681473
 31
0.0
  0
LINE
  5
1A5
330
1F
100
AcDbEntity
  8
0
  6
HIDDEN
 62
     7
370
     0
100
AcDbLine
 10
220.0561511421
 20
115.2158879912
 30
0.0
 11
220.0561511421
 21
117.9633772303
 31
0.0
  0
LINE
  5
1A6
330
1F
100
AcDbEntity
  8
0
  6
HIDDEN
 62
     7
370
     0
100
AcDbLine
 10
217.0561511421
 20
101.3705945177
 30
0.0
 11
217.0561511421
 21
100.9177681473
 31
0.0
  0
LINE
  5
1A7
330
1F
100
AcDbEntity
  8
0
  6
HIDDEN
 62
     7
370
     0
100
AcDbLine
 10
217.0561511421
 20
106.6178605669
 30
0.0
 11
217.0561511421
 21
103.7420403429
 31
0.0
  0
LINE
  5
1A8
330
1F
100
AcDbEntity
  8
0
  6
HIDDEN
 62
     7
370
     0
100
AcDbLine
 10
220.0561511421
 20
103.8721590643
 30
0.0
 11
220.0561511421
 21
106.6177681473
 31
0.0
  0
LINE
  5
1A9
330
1F
100
AcDbEntity
  8
0
  6
HIDDEN
 62
     7
370
     0
100
AcDbLine
 10
220.0561511421
 20
100.9177681473
 30
0.0
 11
220.0561511421
 21
101.3739869457
 31
0.0
  0
LINE
  5
1AA
330
1F
100
AcDbEntity
  8
0
  6
HIDDEN
 62
     7
370
     0
100
AcDbLine
 10
217.0561511421
 20
100.9177681473
 30
0.0
 11
218.5561511421
 21
100.0164772188
 31
0.0
  0
LINE
  5
1AB
330
1F
100
AcDbEntity
  8
0
  6
HIDDEN
 62
     7
370
     0
100
AcDbLine
 10
218.5561511421
 20
100.0164772188
 30
0.0
 11
220.0561511421
 21
100.9177681473
 31
0.0
  0
LINE
  5
1AC
330
1F
100
AcDbEntity
  8
0
  6
HIDDEN
 62
     7
370
     0
100
AcDbLine
 10
220.0530964454
 20
101.3701101485
 30
0.0
 11
253.0561511421
 21
102.6668036991
 31
0.0
  0
LINE
  5
1AD
330
1F
100
AcDbEntity
  8
0
  6
HIDDEN
 62
     7
370
     0
100
AcDbLine
 10
253.0561511421
 20
105.1687325956
 30
0.0
 11
220.0561511421
 21
103.8721590643
 31
0.0
  0
LINE
  5
1AE
330
1F
100
AcDbEntity
  8
0
  6
HIDDEN
 62
     7
370
     0
100
AcDbLine
 10
220.0561511421
 20
117.9633772303
 30
0.0
 11
253.0561511421
 21
116.6668036991
 31
0.0
  0
LINE
  5
1AF
330
1F
100
AcDbEntity
  8
0
  6
HIDDEN
 62
     7
370
     0
100
AcDbLine
 10
253.0561511421
 20
119.1687325956
 30
0.0
 11
220.0547776568
 21
120.4653600912
 31
0.0
  0
LINE
  5
1B0
330
1F
100
AcDbEntity
  8
0
  6
HIDDEN
 62
     7
370
     0
100
AcDbLine
 10
217.0348310677
 20
103.7534510753
 30
0.0
 11
216.3334091158
 21
102.4749276835
 31
0.0
  0
LINE
  5
1B1
330
1F
100
AcDbEntity
  8
0
  6
HIDDEN
 62
     7
370
     0
100
AcDbLine
 10
216.3334091158
 20
102.4749276835
 30
0.0
 11
217.0587566169
 21
101.368588884
 31
0.0
  0
LINE
  5
1B2
330
1F
100
AcDbEntity
  8
0
  6
HIDDEN
 62
     7
370
     0
100
AcDbLine
 10
217.0572376479
 20
120.4646305979
 30
0.0
 11
216.3334091158
 21
119.3606086112
 31
0.0
  0
LINE
  5
1B3
330
1F
100
AcDbEntity
  8
0
  6
HIDDEN
 62
     7
370
     0
100
AcDbLine
 10
216.3334091158
 20
119.3606086112
 30
0.0
 11
217.0348310677
 21
118.0820852194
 31
0.0
  0
LINE
  5
1B4
330
1F
100
AcDbEntity
  8
0
  6
HIDDEN
 62
     7
370
     0
100
AcDbLine
 10
97.0561511421
 20
158.4704794454
 30
0.0
 11
97.0561511421
 21
156.5949310294
 31
0.0
  0
LINE
  5
1B5
330
1F
100
AcDbEntity
  8
0
  6
HIDDEN
 62
     7
370
     0
100
AcDbLine
 10
107.0561511421
 20
156.5935590802
 30
0.0
 11
107.0561511421
 21
158.4690511626
 31
0.0
  0
DIMENSION
  5
1B6
330
1F
100
AcDbEntity
  8
VERMASSUNG
100
AcDbDimension
  2
*D1
 10
38.0349945829
 20
60.9177681473
 30
0.0
 11
38.0349945829
 21
110.9177681473
 31
0.0
 70
   160
  1
HSK A %%c<>
 71
     2
 42
-1.0
  3
SLDDIMSTYLE0
100
AcDbAlignedDimension
 13
93.5561511421
 23
160.9177681473
 33
0.0
 14
93.5561511421
 24
60.9177681473
 34
0.0
 50
90.0
100
AcDbRotatedDimension
  0
DIMENSION
  5
1C3
330
1F
100
AcDbEntity
  8
VERMASSUNG
100
AcDbDimension
  2
*D2
 10
253.0561511421
 20
158.9177681473
 30
0.0
 11
234.8061511421
 21
158.9177681473
 31
0.0
 70
   160
 71
     2
 42
-1.0
  3
SLDDIMSTYLE1
100
AcDbAlignedDimension
 13
216.5561511421
 23
114.8177681473
 33
0.0
 14
253.0561511421
 24
119.568987164
 34
0.0
100
AcDbRotatedDimension
  0
DIMENSION
  5
1CE
330
1F
100
AcDbEntity
  8
VERMASSUNG
100
AcDbDimension
  2
*D3
 10
259.3827302275
 20
114.9177681473
 30
0.0
 11
259.3827302275
 21
110.9177681473
 31
0.0
 70
   160
  1
%%c<> 
 71
     2
 42
-1.0
  3
SLDDIMSTYLE2
100
AcDbAlignedDimension
 13
249.5561511421
 23
106.9177681473
 33
0.0
 14
249.5561511421
 24
114.9177681473
 34
0.0
 50
90.0
100
AcDbRotatedDimension
  0
DIMENSION
  5
1DB
330
1F
100
AcDbEntity
  8
VERMASSUNG
100
AcDbDimension
  2
*D4
 10
265.3827302275
 20
121.4177681473
 30
0.0
 11
265.3827302275
 21
110.9177681473
 31
0.0
 70
   160
  1
%%c<>
 71
     2
 42
-1.0
  3
SLDDIMSTYLE3
100
AcDbAlignedDimension
 13
253.0561511421
 23
100.4177681473
 33
0.0
 14
253.0561511421
 24
121.4177681473
 34
0.0
 50
90.0
100
AcDbRotatedDimension
  0
DIMENSION
  5
1E7
330
1F
100
AcDbEntity
  8
VERMASSUNG
100
AcDbDimension
  2
*D5
 10
253.0561511421
 20
170.9177681473
 30
0.0
 11
173.0561511421
 21
170.9177681473
 31
0.0
 70
   160
 71
     2
 42
-1.0
  3
SLDDIMSTYLE0
100
AcDbAlignedDimension
 13
93.0561511421
 23
160.4177681473
 33
0.0
 14
253.0561511421
 24
119.568987164
 34
0.0
100
AcDbRotatedDimension
  0
DIMENSION
  5
1F1
330
1F
100
AcDbEntity
  8
VERMASSUNG
100
AcDbDimension
  2
*D6
 10
253.0561511421
 20
164.9177681473
 30
0.0
 11
187.5311511421
 21
164.9177681473
 31
0.0
 70
   160
 71
     2
 42
-1.0
  3
SLDDIMSTYLE0
100
AcDbAlignedDimension
 13
122.0061511421
 23
158.8865079682
 33
0.0
 14
253.0561511421
 24
119.568987164
 34
0.0
100
AcDbRotatedDimension
  0
DIMENSION
  5
1FB
330
1F
100
AcDbEntity
  8
VERMASSUNG
100
AcDbDimension
  2
*D7
 10
253.0561511421
 20
176.9177681473
 30
0.0
 11
148.1061511421
 21
176.9177681473
 31
0.0
 70
   160
 71
     2
 42
-1.0
  3
SLDDIMSTYLE0
100
AcDbAlignedDimension
 13
43.1561511421
 23
141.4204378899
 33
0.0
 14
253.0561511421
 24
119.568987164
 34
0.0
100
AcDbRotatedDimension
  0
DIMENSION
  5
205
330
1F
100
AcDbEntity
  8
VERMASSUNG
100
AcDbDimension
  2
*D8
 10
271.3827302275
 20
95.9177681473
 30
0.0
 11
271.3827302275
 21
110.9177681473
 31
0.0
 70
   160
  1
%%c<>
 71
     2
 42
-1.0
  3
SLDDIMSTYLE0
100
AcDbAlignedDimension
 13
171.0061511421
 23
125.9177681473
 33
0.0
 14
171.0061511421
 24
95.9177681473
 34
0.0
 50
90.0
100
AcDbRotatedDimension
  0
LINE
  5
210
330
1F
100
AcDbEntity
  8
VERMASSUNG
  6
CENTERX2
370
     0
100
AcDbLine
 10
40.9056817811
 20
110.9177681473
 30
0.0
 11
254.7877573131
 21
110.9177681473
 31
0.0
  0
OLE2FRAME
  5
211
330
1F
100
AcDbEntity
  8
0
100
AcDbOle2Frame
 70
     2
  3
Bitmap Image
 10
13.8511154363
 20
38.264191557
 30
0.0
 11
51.6290888628
 21
31.9806341108
 31
0.0
 71
     2
 72
     0
 73
     1
 90
    12928
310
80552BED0767C5B32B40DDAF6807D121434000000000000000006FFBDDFB85D0
310
4940DDAF6807D121434000000000000000006FFBDDFB85D04940416F4BD60AFB
310
3F4000000000000000002BED0767C5B32B40416F4BD60AFB3F40000000000000
310
0000000000000100000000010000010000000100000000000100000000320000
310
D0CF11E0A1B11AE1000000000000000000000000000000003E000300FEFF0900
310
0600000000000000000000000100000001000000000000000010000002000000
310
01000000FEFFFFFF0000000000000000FFFFFFFFFFFFFFFFFFFFFFFFFFFFFFFF
310
FFFFFFFFFFFFFFFFFFFFFFFFFFFFFFFFFFFFFFFFFFFFFFFFFFFFFFFFFFFFFFFF
310
FFFFFFFFFFFFFFFFFFFFFFFFFFFFFFFFFFFFFFFFFFFFFFFFFFFFFFFFFFFFFFFF
310
FFFFFFFFFFFFFFFFFFFFFFFFFFFFFFFFFFFFFFFFFFFFFFFFFFFFFFFFFFFFFFFF
310
FFFFFFFFFFFFFFFFFFFFFFFFFFFFFFFFFFFFFFFFFFFFFFFFFFFFFFFFFFFFFFFF
310
FFFFFFFFFFFFFFFFFFFFFFFFFFFFFFFFFFFFFFFFFFFFFFFFFFFFFFFFFFFFFFFF
310
FFFFFFFFFFFFFFFFFFFFFFFFFFFFFFFFFFFFFFFFFFFFFFFFFFFFFFFFFFFFFFFF
310
FFFFFFFFFFFFFFFFFFFFFFFFFFFFFFFFFFFFFFFFFFFFFFFFFFFFFFFFFFFFFFFF
310
FFFFFFFFFFFFFFFFFFFFFFFFFFFFFFFFFFFFFFFFFFFFFFFFFFFFFFFFFFFFFFFF
310
FFFFFFFFFFFFFFFFFFFFFFFFFFFFFFFFFFFFFFFFFFFFFFFFFFFFFFFFFFFFFFFF
310
FFFFFFFFFFFFFFFFFFFFFFFFFFFFFFFFFFFFFFFFFFFFFFFFFFFFFFFFFFFFFFFF
310
FFFFFFFFFFFFFFFFFFFFFFFFFFFFFFFFFFFFFFFFFFFFFFFFFFFFFFFFFFFFFFFF
310
FFFFFFFFFFFFFFFFFFFFFFFFFFFFFFFFFFFFFFFFFFFFFFFFFFFFFFFFFFFFFFFF
310
FFFFFFFFFFFFFFFFFFFFFFFFFFFFFFFFFFFFFFFFFFFFFFFFFFFFFFFFFFFFFFFF
310
FDFFFFFFFEFFFFFFFEFFFFFFFEFFFFFF05000000060000000700000008000000
310
090000000A0000000B0000000C0000000D0000000E0000000F00000010000000
310
11000000120000001300000014000000150000001600000017000000FEFFFFFF
310
FFFFFFFFFFFFFFFFFFFFFFFFFFFFFFFFFFFFFFFFFFFFFFFFFFFFFFFFFFFFFFFF
310
FFFFFFFFFFFFFFFFFFFFFFFFFFFFFFFFFFFFFFFFFFFFFFFFFFFFFFFFFFFFFFFF
310
FFFFFFFFFFFFFFFFFFFFFFFFFFFFFFFFFFFFFFFFFFFFFFFFFFFFFFFFFFFFFFFF
310
FFFFFFFFFFFFFFFFFFFFFFFFFFFFFFFFFFFFFFFFFFFFFFFFFFFFFFFFFFFFFFFF
310
FFFFFFFFFFFFFFFFFFFFFFFFFFFFFFFFFFFFFFFFFFFFFFFFFFFFFFFFFFFFFFFF
310
FFFFFFFFFFFFFFFFFFFFFFFFFFFFFFFFFFFFFFFFFFFFFFFFFFFFFFFFFFFFFFFF
310
FFFFFFFFFFFFFFFFFFFFFFFFFFFFFFFFFFFFFFFFFFFFFFFFFFFFFFFFFFFFFFFF
310
FFFFFFFFFFFFFFFFFFFFFFFFFFFFFFFFFFFFFFFFFFFFFFFFFFFFFFFFFFFFFFFF
310
FFFFFFFFFFFFFFFFFFFFFFFFFFFFFFFFFFFFFFFFFFFFFFFFFFFFFFFFFFFFFFFF
310
FFFFFFFFFFFFFFFFFFFFFFFFFFFFFFFFFFFFFFFFFFFFFFFFFFFFFFFFFFFFFFFF
310
FFFFFFFFFFFFFFFFFFFFFFFFFFFFFFFFFFFFFFFFFFFFFFFFFFFFFFFFFFFFFFFF
310
FFFFFFFFFFFFFFFFFFFFFFFFFFFFFFFFFFFFFFFFFFFFFFFFFFFFFFFFFFFFFFFF
310
FFFFFFFFFFFFFFFFFFFFFFFFFFFFFFFFFFFFFFFFFFFFFFFFFFFFFFFFFFFFFFFF
310
52006F006F007400200045006E00740072007900000000000000000000000000
310
0000000000000000000000000000000000000000000000000000000000000000
310
16000500FFFFFFFFFFFFFFFF020000000A00030000000000C000000000000046
310
00000000000000000000000040D7E5FA9305CC0103000000C000000000000000
310
01004F006C006500000000000000000000000000000000000000000000000000
310
0000000000000000000000000000000000000000000000000000000000000000
310
0A000200FFFFFFFFFFFFFFFFFFFFFFFF00000000000000000000000000000000
310
0000000000000000000000000000000000000000000000001400000000000000
310
010043006F006D0070004F0062006A0000000000000000000000000000000000
310
0000000000000000000000000000000000000000000000000000000000000000
310
120002010100000003000000FFFFFFFF00000000000000000000000000000000
310
0000000000000000000000000000000000000000010000004D00000000000000
310
01004F006C006500310030004E00610074006900760065000000000000000000
310
0000000000000000000000000000000000000000000000000000000000000000
310
1A000200FFFFFFFFFFFFFFFFFFFFFFFF00000000000000000000000000000000
310
0000000000000000000000000000000000000000040000002426000000000000
310
FEFFFFFF02000000FEFFFFFFFFFFFFFFFFFFFFFFFFFFFFFFFFFFFFFFFFFFFFFF
310
FFFFFFFFFFFFFFFFFFFFFFFFFFFFFFFFFFFFFFFFFFFFFFFFFFFFFFFFFFFFFFFF
310
FFFFFFFFFFFFFFFFFFFFFFFFFFFFFFFFFFFFFFFFFFFFFFFFFFFFFFFFFFFFFFFF
310
FFFFFFFFFFFFFFFFFFFFFFFFFFFFFFFFFFFFFFFFFFFFFFFFFFFFFFFFFFFFFFFF
310
FFFFFFFFFFFFFFFFFFFFFFFFFFFFFFFFFFFFFFFFFFFFFFFFFFFFFFFFFFFFFFFF
310
FFFFFFFFFFFFFFFFFFFFFFFFFFFFFFFFFFFFFFFFFFFFFFFFFFFFFFFFFFFFFFFF
310
FFFFFFFFFFFFFFFFFFFFFFFFFFFFFFFFFFFFFFFFFFFFFFFFFFFFFFFFFFFFFFFF
310
FFFFFFFFFFFFFFFFFFFFFFFFFFFFFFFFFFFFFFFFFFFFFFFFFFFFFFFFFFFFFFFF
310
FFFFFFFFFFFFFFFFFFFFFFFFFFFFFFFFFFFFFFFFFFFFFFFFFFFFFFFFFFFFFFFF
310
FFFFFFFFFFFFFFFFFFFFFFFFFFFFFFFFFFFFFFFFFFFFFFFFFFFFFFFFFFFFFFFF
310
FFFFFFFFFFFFFFFFFFFFFFFFFFFFFFFFFFFFFFFFFFFFFFFFFFFFFFFFFFFFFFFF
310
FFFFFFFFFFFFFFFFFFFFFFFFFFFFFFFFFFFFFFFFFFFFFFFFFFFFFFFFFFFFFFFF
310
FFFFFFFFFFFFFFFFFFFFFFFFFFFFFFFFFFFFFFFFFFFFFFFFFFFFFFFFFFFFFFFF
310
FFFFFFFFFFFFFFFFFFFFFFFFFFFFFFFFFFFFFFFFFFFFFFFFFFFFFFFFFFFFFFFF
310
FFFFFFFFFFFFFFFFFFFFFFFFFFFFFFFFFFFFFFFFFFFFFFFFFFFFFFFFFFFFFFFF
310
FFFFFFFFFFFFFFFFFFFFFFFFFFFFFFFFFFFFFFFFFFFFFFFFFFFFFFFFFFFFFFFF
310
0100000200000000000000000000000000000000000000000000C70600000000
310
B792000000000000000000000000000000000000000000003800000041000000
310
0100FEFF030A0000FFFFFFFF0A00030000000000C00000000000004607000000
310
5042727573680007000000504272757368000700000050427275736800F439B2
310
71000000000000000000000000000000D80D5D04000000000000000000000000
310
00000000000000000000C70600000000425D0000000000000000000000000000
310
000000000000000038000000410000006E0D5B0400000000F40DD30400000000
310
000000000000000000000000000000000000C70600000000435D000000000000
310
0000000000000000000000000000000038000000410000006E0D5B0400000000
310
EE0DD10400000000000000000000000000000000000000000000C70600000000
310
415D000000000000000000000000000000000000000000003800000041000000
310
6E0D5B0400000000D20DC8030000000000000000000000000000000000000000
310
0000C70600000000425D00000000000000000000000000000000000000000000
310
38000000410000006E0D5B0400000000C00D1405000000000000000000000000
310
00000000000000000000C70600000000435D0000000000000000000000000000
310
000000000000000038000000410000006E0D5B0400000000E00DBF0400000000
310
20260000424D0E260000000000003E00000028000000B40200006E0000000100
310
01000000000000000000130B0000130B00000200000002000000000000FFFFFF
310
FFFFFFFFFFFFFFFFFFFFFFFFFFFFFFFFFFFFFFFFFFFFFFFFFFFFFFFFFFFFFFFF
310
FFFFFFFFFFFFFFFFFFFFFFFFFFFFFFFFFFFFFFFFFFFFFFFFFFFFFFFFFFFFFFFF
310
FFFFFFFFFFFFFFFFFFFFFFFFFFFFFFFFFFFFFFFFFFFFFFFFF000FFFFFFFFFFFF
310
FFFFFFFFFFFFFFFFFFFFFFFFFFFFFFFFFFFFFFFFFFFFFFFFFFFFFFFFFFFFFFFF
310
FFFFFFFFFFFFFFFFFFFFFFFFFFFFFFFFFFFFFFFFFFFFFFFFFFFFFFFFFFFFFFFF
310
FFFFFFFFFFFFFFFFFFFFFFFFFFFFFFFFF000FFFFFFFFFFFFFFFFFFFFFFFFFFFF
310
FFFFFFFFFFFFFFFFFFFFFFFFFFFFFFFFFFFFFFFFFFFFFFFFFFFFFFFFFFFFFFFF
310
FFFFFFFFFFFFFFFFFFFFFFFFFFFFFFFFFFFFFFFFFFFFFFFFFFFFFFFFFFFFFFFF
310
FFFFFFFFFFFFFFFFF000FFFFFFFFFFFFFFFFFFFFFFFFFFFFFFFFFFFFFFFFFFFF
310
FFFFFFFFFFFFFFFFFFFFFFFFFFFFFFFFFFFFFFFFFFFFFFFFFFFFFFFFFFFFFFFF
310
FFFFFFFFFFFFFFFFFFFFFFFFFFFFFFFFFFFFFFFFFFFFFFFFFFFFFFFFFFFFFFFF
310
F000FFFFFFFFFFFFFFFFFFFFFFFFFFFFFFFFFFFFFFFFFFFFFFFFFFFFFFFFFFFF
310
FFFFFFFFFFFFFFFFFFFFFFFFFFFFFFFFFFFFFFFFFFFFFFFFFFFFFFFFFFFFFFFF
310
FFFFFFFFFFFFFFFFFFFFFFFFFFFFFFFFFFFFFFFFFFFFFFFFF000FFFFFFFFFFFF
310
FFFFFFFFFFFFFFFFFFFFFFFFFFFFFFFFFFFFFFFFFFFFFFFFFFFFFFFFFFFFFFFF
310
FFFFFFFFFFFFFFFFFFFFFFFFFFFFFFFFFFFFFFFFFFFFFFFFFFFFFFFFFFFFFFFF
310
FFFFFFFFFFFFFFFFFFFFFFFFFFFFFFFFF000FFFFFFFFFFFFFFFFFFFFFFFFFFFF
310
FFFFFFFFFFFFFFFFFFFFFFFFFFFFFFFFFFFFFFFFFFFFFFFFFFFFFFFFFFFFFFFF
310
FFFFFFFFFFFFFFFFFFFFFFFFFFFFFFFFFFFFFFFFFFFFFFFFFFFFFFFFFFFFFFFF
310
FFFFFFFFFFFFFFFFF000FFFFFFFFFFFFFFFFFFFFFFFFFFFFFFFFFFFFFFFFFFFF
310
FFFFFFFFFFFFFFFFFFFFFFFFFFFFFFFFFFFFFFFFFFFFFFFFFFFFFFFFFFFFFFFF
310
FFFFFFFFFFFFFFFFFFFFFFFFFFFFFFFFFFFFFFFFFFFFFFFFFFFFFFFFFFFFFFFF
310
F000FFFFFFFFFFFFFFFFFFFFFFFFFFFFFFFFFFFFFFFFFFFFFFFFFFFFFFFFFFFF
310
FFFFFFFFFFFFFFFFFFFFFFFFFFFFFFFFFFFFFFFFFFFFFFFFFFFFFFFFFFFFFFFF
310
FFFFFFFFFFFFFFFFFFFFFFFFFFFFFFFFFFFFFFFFFFFFFFFFF000FFFFFFFFFFFF
310
FFFFFFFFFFFFFFFFFFFFFFFFFFFFFFFFFFFFFFFFFFFFFFFFFFFFFFFFFFFFFFFF
310
FFFFFFFFFFFFFFFFFFFFFFFFFFFFFFFFFFFFFFFFFFFFFFFFFFFFFFFFFFFFFFFF
310
FFFFFFFFFFFFFFFFFFFFFFFFFFFFFFFFF000FFFFFFFFFFFFFFFFFFFFFFFFFFFF
310
FFFFFFFFFFFFFFFFFFFFFFFFFFFFFFFFFFFFFFFFFFFFFFFFFFFFFFFFFFFFFFFF
310
FFFFFFFFFFFFFFFFFFFFFFFFFFFFFFFFFFFFFFFFFFFFFFFFFFFFFFFFFFFFFFFF
310
FFFFFFFFFFFFFFFFF000FFFFFFFFFFFFFFFFFFFFFFFFFFFFFFFFFFFFFFFFFFFF
310
FFFFFFFFFFFFFFFFFFFFFFFFFFFFFFFFFFFFFFFFFFFFFFFFFFFFFFFFFFFFFFFF
310
FFFFFFFFFFFFFFFFFFFFFFFFFFFFFFFFFFFFFFFFFFFFFFFFFFFFFFFFFFFFFFFF
310
F000FFFFFFFFFFFFFFFFFFFFFFFFFFFFFFFFFFFFFFFFFFFFFFFFFFFFFFFFFFFF
310
FFFFFFFFFFFFFFFFFFFFFFFFFFFFFFFFFFFFFFFFFFFFFFFFFFFFFFFFFFFFFFFF
310
FFFFFFFFFFFFFFFFFFFFFFFFFFFFFFFFFFFFFFFFFFFFFFFFF000FFFFFFFFFFFF
310
FFFFFFFFFFFFFFFFFFFFFFFFFFFFFFFFFFFFFFFFFFFFFFFFFFFFFFFFFFFFFFFF
310
FFFFFFFFFFFFFFFFFFFFFFFFFFFFFFFFFFFFFFFFFFFFFFFFFFFFFFFFFFFFFFFF
310
FFFFFFFFFFFFFFFFFFFFFFFFFFFFFFFFF000FFFFFFFFFFFFFFFFFFFFFFFFFFFF
310
FFFFFFFFFFFFFFFFFFFFFFFFFFFFFFFFFFFFFFFFFFFFFFFFFFFFFFFFFFFFFFFF
310
FFFFFFFFFFFFFFFFFFFFFFFFFFFFFFFFFFFFFFFFFFFFFFFFFFFFFFFFFFFFFFFF
310
FFFFFFFFFFFFFFFFF000FFFFFFFFFFFFFFFFFFFFFFFFFFFFFFFFFFFFFFFFFFFF
310
FFFFFFFFFFFFFFFFFFFFFFFFFFFFFFFFFFFFFFFFFFFFFFFFFFFFFFFFFFFFFFFF
310
FFFFFFFFFFFFFFFFFFFFFFFFFFFFFFFFFFFFFFFFFFFFFFFFFFFFFFFFFFFFFFFF
310
F000FFFFFFFFFFFFFFFFFFFFFFFFFFFFFFFFFFFFFFFFFFFFFFFFFFFFFFFFFFFF
310
FFFFFFFFFFFFFFFFFFFFFFFFFFFFFFFFFFFFFFFFFFFFFFFFFFFFFFFFFFFFFFFF
310
FFFFFFFFFFFFFFFFFFFFFFFFFFFFFFFFFFFFFFFFFFFFFFFFF000FFFFFFFFFFFF
310
FFFFFFFFFFFFFFFFFFFFFFFFFFFFFFFFFFFFFFFFFFFFFFFFFFFFFFFFFFFFFFFF
310
FFFFFFFFFFFFFFFFFFFFFFFFFFFFFFFFFFFFFFFFFFFFFFFFFFFFFFFFFFFFFFFF
310
FFFFFFFFFFFFFFFFFFFFFFFFFFFFFFFFF000FFFFFFFFFFFFFFFFFFFFFFFFFFFF
310
FFFFFFFFFFFFFFFFFFFFFFFFFFFFFFFFFFFFFFFFFFFFFFFFFFFFFFFFFFFFFFFF
310
FFFFFFFFFFFFFFFFFFFFFFFFFFFFFFFFFFFFFFFFFFFFFFFFFFFFFFFFFFFFFFFF
310
FFFFFFFFFFFFFFFFF000FFFFF80003FFFFFFFFFFFFFFFFFFFFFFFFFFFFFFFFFF
310
FFFFF00007FFFFFFFFFF00007FFFFFF800000000000000007FFFFFFFFFFFFFFF
310
FFFFFFFC001FFFFFFFFFFFFFFC001FFFFFFFFFFFFFFFFFFFFFFFFFFE0007FFFF
310
F000FFFF8000007FFFFFFFF8000FFFFFC0007FFFFF80007FFFFF0000007FFFFF
310
FFF8000007FFFFF800000000000000007FFFFFF0001FFFFFFFFFFFC00001FFFF
310
FFFFFFFFC00001FFFFFFFF000000000003FFFFE000007FFFF000FFFE0000000F
310
FFFFFFF0000FFFFF80007FFFFF80007FFFFC0000001FFFFFFFC0000001FFFFF8
310
00000000000000007FFFFFF0001FFFFFFFFFFE0000003FFFFFFFFFFE0000003F
310
FFFFFF000000000003FFFF0000000FFFF000FFF800000003FFFFFFF00007FFFF
310
80007FFFFF80007FFFF000000007FFFFFF000000003FFFF80000000000000000
310
7FFFFFF0001FFFFFFFFFF80000000FFFFFFFFFF80000000FFFFFFF0000000000
310
03FFFC00000003FFF000FFE000000000FFFFFFF00007FFFF80003FFFFF80007F
310
FFC000000001FFFFFC000000001FFFF800000000000000007FFFFFF0001FFFFF
310
FFFFE000000003FFFFFFFFE000000003FFFFFF000000000003FFF000000000FF
310
F000FF80000000007FFFFFF00007FFFF80003FFFFF80007FFF8000000000FFFF
310
F80000000007FFF800000000000000007FFFFFF0001FFFFFFFFFC000000001FF
310
FFFFFFC000000001FFFFFF000000000003FFC0000000007FF000FF0000000000
310
3FFFFFE00007FFFF00003FFFFF80007FFE00000000003FFFF00000000003FFF8
310
00000000000000007FFFFFF0001FFFFFFFFF8000000000FFFFFFFF8000000000
310
FFFFFF000000000003FF80000000003FF000FE00000000001FFFFFE00003FFFF
310
00003FFFFF80007FFC00000000001FFFE00000000001FFF8000001FFFE000000
310
7FFFFFF0001FFFFFFFFE00000000003FFFFFFE00000000003FFFFF0000000000
310
03FF00000000001FF000FC00000000000FFFFFE00003FFFF00001FFFFF80007F
310
F800000000001FFFC00000000000FFF8000001FFFE0000007FFFFFF0001FFFFF
310
FFFC00000000001FFFFFFC00000000001FFFFF000000000003FE00000000000F
310
F000F8000000000007FFFFE00003FFFF00001FFFFF80007FF800000000000FFF
310
800000000000FFF8000001FFFE0000007FFFFFF0001FFFFFFFF800000000000F
310
FFFFF800000000000FFFFF000000000003FC000000000007F000F80000000000
310
03FFFFC00003FFFE00001FFFFF80007FF0000000000007FF0000000000007FF8
310
000001FFFE0000007FFFFFF0001FFFFFFFF0000000000007FFFFF00000000000
310
07FFFF000000000003F8000000000003F000F0000000000003FFFFC00001FFFE
310
00001FFFFF80007FE0000000000007FE0000000000003FF8000001FFFE000000
310
7FFFFFF0001FFFFFFFF0000000000007FFFFF0000000000007FFFF0000000000
310
03F800001F800003F000E00001FFF00001FFFFC00001FFFE00000FFFFF80007F
310
E00001FFE00003FE00001FFF00003FF8000001FFFE0000007FFFFFF0001FFFFF
310
FFE000003E000003FFFFE000003E000003FFFF000000000003F00001FFF80001
310
F000E00007FFFC0001FFFFC00001FFFE00000FFFFF80007FC0000FFFFC0003FC
310
0000FFFFC0001FF8000001FFFE0000007FFFFFF0001FFFFFFFC00003FFE00001
310
FFFFC00003FFE00001FFFF0001FFFFFFFFF00007FFFE0001F000E0000FFFFF00
310
00FFFF800001FFFC00000FFFFF80007FC0001FFFFE0001FC0001FFFFE0001FF8
310
000001FFFE0000007FFFFFF0001FFFFFFF80000FFFF80000FFFF80000FFFF800
310
00FFFF0003FFFFFFFFE0000FFFFF8000F000C0003FFFFF8000FFFF800000FFFC
310
000007FFFF80007F80003FFFFF0001FC0003FFFFF0001FF8000001FFFE000000
310
7FFFFFF0001FFFFFFF80003FFFFE0000FFFF80003FFFFE0000FFFF0003FFFFFF
310
FFE0003FFFFF8000F000C0003FFFFF8000FFFF800000FFFC000007FFFF80007F
310
80007FFFFF8001F80007FFFFF8000FF8000001FFFE0000007FFFFFF0001FFFFF
310
FF00007FFFFF00007FFF00007FFFFF00007FFF0003FFFFFFFFE0003FFFFFC000
310
F000C0007FFFFFC000FFFF000000FFFC000007FFFF80007F8000FFFFFF8000F8
310
000FFFFFF8000FF8000001FFFE0000007FFFFFF0001FFFFFFF0000FFFFFF8000
310
7FFF0000FFFFFF80007FFF0003FFFFFFFFC0007FFFFFC00070008000FFFFFFC0
310
00FFFF000000FFF8000007FFFF80007F8000FFFFFF8000F8000FFFFFF8000FF8
310
000001FFFE0000007FFFFFF0001FFFFFFE0001FFFFFFC0003FFE0001FFFFFFC0
310
003FFF0003FFFFFFFFC0007FFFFFE00070008000FFFFFFC0007FFF0000007FF8
310
000003FFFF80007F0001FFFFFF8000F8000FFFFFF8000FF8000001FFFE000000
310
7FFFFFF0001FFFFFFE0001FFFFFFC0003FFE0001FFFFFFC0003FFF0003FFFFFF
310
FFC000FFFFFFE00070008000FFFFFFC0007FFF0000007FF8000003FFFF80007F
310
0001FFFFFF8000F8001FFFFFF8000FF8000001FFFE0000007FFFFFF0001FFFFF
310
FE0003FFFFFFE0003FFE0003FFFFFFE0003FFF0003FFFFFFFFC000FFFFFFE000
310
70008000FFFFFFC0007FFE0000007FF8000003FFFF80007F0001FFFFFF8000F0
310
001FFFFFF8000FF8000001FFFE0000007FFFFFF0001FFFFFFC0003FFFFFFE000
310
1FFC0003FFFFFFE0001FFF0003FFFFFFFFC000FFFFFFC00070008000FFFFFF80
310
007FFE0000007FF0000003FFFF80007F0001FFFFFF0000F0001FFFFFF8000FF8
310
000001FFFE0000007FFFFFF0001FFFFFFC0007FFFFFFF0001FFC0007FFFFFFF0
310
001FFF0003FFFFFFFFC000FFFFFFC00070008001FFFFFF0000FFFE0000003FF0
310
000001FFFF80007F0001FFFFFF0000F8001FFFFFF0000FF8000001FFFE000000
310
7FFFFFF0001FFFFFFC0007FFFFFFF0001FFC0007FFFFFFF0001FFF0003FFFFFF
310
FFC001FFFFFF80007000FFFFFFFFFE0000FFFE0008003FF0008001FFFF80007F
310
FFFFFFFFFC0000FFFFFFFFFFE0000FF8000001FFFE0000007FFFFFF0001FFFFF
310
F8000FFFFFFFF8000FF8000FFFFFFFF8000FFF0003FFFFFFFFFFFFFFFFFF0000
310
7000FFFFFFFFFC0000FFFC0008003FF0008001FFFF80007FFFFFFFFFF80001FF
310
FFFFFFFF80000FF8000001FFFE0000007FFFFFF0001FFFFFF8000FFFFFFFF800
310
0FF8000FFFFFFFF8000FFF0003FFFFFFFFFFFFFFFFFE0000F000FFFFFFFFE000
310
00FFFC000C003FE000C001FFFF80007FFFFFFFFFC00001FFFFFFFFFE00001FF8
310
000001FFFE0000007FFFFFF0001FFFFFF8000FFFFFFFF8000FF8000FFFFFFFF8
310
000FFF0003FFFFFFFFFFFFFFFFF00000F000FFFFFFFE000001FFFC000C001FE0
310
00C000FFFF80007FFFFFFFFE000001FFFFFFFFE000001FF80FFFFFFFFFFFFFC0
310
7FFFFFF0001FFFFFF8000FFFFFFFF8000FF8000FFFFFFFF8000FFF0003FFFFFF
310
FFFFFFFFFF800000F000FFFFFFC0000001FFFC001C001FE001C000FFFF80007F
310
FFFFFF80000003FFFFFFF80000001FF80FFFFFFFFFFFFFC07FFFFFF0001FFFFF
310
F8001FFFFFFFFC000FF8001FFFFFFFFC000FFF0003FFFFFFFFFFFFFFF0000001
310
F000FFFFF800000001FFF8001C001FE001C000FFFF80007FFFFFF800000003FF
310
FFFF800000003FF80FFFFFFFFFFFFFC07FFFFFF0001FFFFFF8001FFFFFFFFC00
310
0FF8001FFFFFFFFC000FFF0003FFFFFFFFFFFFFE00000001F000FFFFC0000000
310
03FFF8001E001FC001E000FFFF80007FFFFF8000000007FFFFFC000000003FF8
310
0FFFFFFFFFFFFFC07FFFFFF0001FFFFFF8001FFFFFFFFC000FF8001FFFFFFFFC
310
000FFF0003FFFFFFFFFFFFE000000003F000FFFE0000000007FFF8001E000FC0
310
01E0007FFF80007FFFFE0000000007FFFFE0000000007FF80FFFFFFFFFFFFFC0
310
7FFFFFF0001FFFFFF0001FFFFFFFFC0007F0001FFFFFFFFC0007FF0003FFFFFF
310
FFFFFF0000000003F000FFF80000000007FFF8001E000FC003E0007FFF80007F
310
FFF0000000000FFFFF8000000000FFF80FFFFFFFFFFFFFC07FFFFFF0001FFFFF
310
F0001FFFFFFFFC0007F0001FFFFFFFFC0007FF0003FFFFFFFFFFFC0000000007
310
F000FFE0000000000FFFF0003E000FC003E0007FFF80007FFFC0000000001FFF
310
FE0000000001FFF80FFFFFFFFFFFFFC07FFFFFF0001FFFFFF0001FFFFFFFFC00
310
07F0001FFFFFFFFC0007FF0003FFFFFFFFFFF0000000000FF000FFC000000000
310
1FFFF0003F000F8003F0003FFF80007FFF80000000003FFFF80000000003FFF8
310
0FFFFFFFFFFFFFC07FFFFFF0001FFFFFF0001FFFFFFFFC0007F0001FFFFFFFFC
310
0007FF0003FFFFFFFFFFE0000000001FF000FF00000000007FFFF0003F000780
310
03F0003FFF80007FFF00000000007FFFF00000000007FFF80FFFFFFFFFFFFFC0
310
7FFFFFF0001FFFFFF0001FFFFFFFFC0007F0001FFFFFFFFC0007FF0003FFFFFF
310
FFFF80000000007FF000FE0000000000FFFFE0003F00078007F0003FFF80007F
310
FE0000000001FFFFE0000000001FFFF80FFFFFFFFFFFFFC07FFFFFF0001FFFFF
310
F0001FFFFFFFFC0007F0001FFFFFFFFC0007FF0003FFFFFFFFFF0000000000FF
310
F000FC0000000003FFFFE0007F00078007F0003FFF80007FFC0000000007FFFF
310
C0000000007FFFF80FFFFFFFFFFFFFC07FFFFFF0001FFFFFF8001FFFFFFFFC00
310
0FF8001FFFFFFFFC000FFF0003FFFFFFFFFE0000000003FFF000FC000000000F
310
FFFFE0007F80070007F8001FFF80007FF8000000001FFFFF8000000001FFFFF8
310
0FFFFFFFFFFFFFC07FFFFFF0001FFFFFF8001FFFFFFFFC000FF8001FFFFFFFFC
310
000FFF0003FFFFFFFFFC000000000FFFF000F8000000007FFFFFE0007F800700
310
07F8001FFF80007FF000000000FFFFFF800000000FFFFFF80FFFFFFFFFFFFFC0
310
7FFFFFF0001FFFFFF8000FFFFFFFF8000FF8000FFFFFFFF8000FFF0003FFFFFF
310
FFFC000000007FFFF000F800000007FFFFFFC0007F8003000FF8001FFF80007F
310
F000000007FFFFFF000000007FFFFFF80FFFFFFFFFFFFFC07FFFFFF0001FFFFF
310
F8000FFFFFFFF8000FF8000FFFFFFFF8000FFF0003FFFFFFFFF80000000FFFFF
310
F000F0000000FFFFFFFFC000FF8003000FF8001FFF80007FE0000000FFFFFFFF
310
0000000FFFFFFFF8000001FFFE0000007FFFFFF0001FFFFFF8000FFFFFFFF800
310
0FF8000FFFFFFFF8000FFF0003FFFFFFFFF8000000FFFFFFF000F000000FFFFF
310
FFFFC000FFC002000FF8000FFF80007FE000001FFFFFFFFE000001FFFFFFFFF8
310
000001FFFE0000007FFFFFF0001FFFFFF8000FFFFFFFF8000FF8000FFFFFFFF8
310
000FFF0003FFFFFFFFF000001FFFFFFFF000E00000FFFFFFFFFFC000FFC00200
310
0FFC000FFF80007FE00001FFFFFFFFFE00001FFFFFFFFFF8000001FFFE000000
310
7FFFFFF0001FFFFFFC000FFFFFFFF8001FFC000FFFFFFFF8001FFF0003FFFFFF
310
FFF00001FFFFFFFFF000E00007FFFFFFFFFF8000FFC000001FFC000FFF80007F
310
C0000FFFFFFFFFFE0000FFFFFFFFFFF8000001FFFE0000007FFFFFF0001FFFFF
310
FC0007FFFFFFF0001FFC0007FFFFFFF0001FFF0003FFFFFFFFF00007FFFFFFFF
310
F000E0001FFFFFFFFFFF8000FFC000001FFC000FFF80007FC0003FFFFFFFFFFE
310
0001FFFFFFFFFFF8000001FFFE0000007FFFFFF0001FFFFFFC0007FFFFFFF000
310
1FFC0007FFFFFFF0001FFF0003FFFFFFFFF0001FFFFFFFFFF000E0003FFFFF00
310
03FF8001FFE000001FFC0007FF80007FC0007FFFFF0007FC0003FFFFF0003FF8
310
000001FFFE0000007FFFFFF0001FFFFFFC0003FFFFFFE0001FFC0003FFFFFFE0
310
001FFF0003FFFFFFFFF0003FFFFFFFFFF000E0003FFFFF0001FF8001FFE00000
310
1FFE0007FF80007FC0007FFFFE0003FC0007FFFFE0003FF8000001FFFE000000
310
7FFFFFF0001FFFFFFE0003FFFFFFE0003FFE0003FFFFFFE0003FFF0003FFFFFF
310
FFF0003FFFFF8001F000E0003FFFFF0001FF0001FFE000001FFE0007FF80007F
310
C0007FFFFE0003FC0007FFFFE0003FF8000001FFFE0000007FFFFFF0001FFFFF
310
FE0001FFFFFFC0003FFE0001FFFFFFC0003FFF0003FFFFFFFFF0003FFFFF0001
310
F000E0003FFFFF0003FF0001FFE000003FFE0007FF80007FC0007FFFFE0003FC
310
0007FFFFE0003FF8000001FFFE0000007FFFFFF0001FFFFFFF0001FFFFFFC000
310
7FFF0001FFFFFFC0007FFF0003FFFFFFFFF0003FFFFF0001F000E0003FFFFE00
310
03FF0003FFF000003FFE0003FF80007FC0007FFFFC0003FE0007FFFFE0003FF8
310
000001FFFE0000007FFFFFF0001FFFFFFF0000FFFFFF80007FFF0000FFFFFF80
310
007FFF0003FFFFFFFFF0003FFFFF0001F000E0003FFFFE0003FF0003FFF00000
310
3FFF0003FF80007FC0007FFFFC0007FE0007FFFFC0003FF8000001FFFE000000
310
7FFFFFF0001FFFFFFF80007FFFFF0000FFFF80007FFFFF0000FFFF0003FFFFFF
310
FFF0003FFFFF0003F000E0003FFFFC0003FE0003FFF000003FFF0003FF80007F
310
E0003FFFF80007FE0003FFFFC0007FF8000001FFFE0000007FFFFFF0001FFFFF
310
FF80003FFFFE0000FFFF80003FFFFE0000FFFF0003FFFFFFFFF0001FFFFE0003
310
F000F0001FFFF80003FE0003FFF000007FFF0001FF80007FE0003FFFF00007FE
310
0001FFFF80007FF8000001FFFE0000007FFFFFF0001FFFFFFFC0000FFFF80001
310
FFFFC0000FFFF80001FFFF0003FFFFFFFFF0001FFFFC0003F000F0000FFFF000
310
07FE0007FFF800007FFF0001FF80007FE0001FFFE00007FF0000FFFE00007FF8
310
000001FFFE0000007FFFFFF0001FFFFFFFC00003FFE00001FFFFC00003FFE000
310
01FFFF0003FFFFFFFFF8000FFFF80003F000F00003FFC00007FC0007FFF80000
310
7FFF8001FF80007FF00007FF80000FFF00007FF80000FFF8000001FFFE000000
310
7F80000000000001FFE000003E000003FFFFE000003E000003FFFF0003FFFFFF
310
FFF80003FFE00007F000F800000000000FFC0007FFF800007FFF8001FF80007F
310
F000000000000FFF000000000000FFF8000001FFFE0000007F80000000000001
310
FFF0000000000007FFFFF0000000000007FFFF0003FFFFFFFFFC00007E000007
310
F000F800000000000FFC0007FFF80000FFFF8000FF80007FF800000000001FFF
310
800000000001FFF8000001FFFE0000007F80000000000001FFF800000000000F
310
FFFFF800000000000FFFFF0003FFFFFFFFFC00000000000FF000FC0000000000
310
1FFC0007FFFC0000FFFF8000FF80007FF800000000003FFFC00000000001FFF8
310
000001FFFE0000007F80000000000001FFF800000000000FFFFFF80000000000
310
0FFFFF0003FFFFFFFFFE00000000001FF000FE00000000003FF8000FFFFC0000
310
FFFF8000FF80007FFC00000000003FFFC00000000003FFF8000001FFFE000000
310
7F80000000000001FFFC00000000001FFFFFFC00000000001FFFFF0003FFFFFF
310
FFFF00000000001FF000FF00000000003FF8000FFFFC0000FFFFC000FF80007F
310
FE00000000007FFFE00000000007FFF8000001FFFE0000007F80000000000001
310
FFFE00000000003FFFFFFE00000000003FFFFF0003FFFFFFFFFF80000000003F
310
F000FF80000000007FF8000FFFFC0001FFFFC0007F80007FFF0000000000FFFF
310
F0000000000FFFF800000000000000007F80000000000001FFFF8000000000FF
310
FFFFFF8000000000FFFFFF0003FFFFFFFFFFC0000000007FF000FFC000000000
310
FFF8000FFFFE0001FFFFC0007F80007FFF8000000001FFFFF8000000001FFFF8
310
00000000000000007F80000000000001FFFFC000000001FFFFFFFFC000000001
310
FFFFFF0003FFFFFFFFFFE000000000FFF000FFE000000003FFF0001FFFFE0001
310
FFFFC0007F80007FFFC000000007FFFFFE000000003FFFF80000000000000000
310
7F80000000000001FFFFE000000003FFFFFFFFE000000003FFFFFF0003FFFFFF
310
FFFFF000000003FFF000FFF80000000FFFF0001FFFFE0001FFFFE0007F80007F
310
FFF00000000FFFFFFF00000000FFFFF800000000000000007F80000000000001
310
FFFFF80000000FFFFFFFFFF80000000FFFFFFF0003FFFFFFFFFFFC0000000FFF
310
F000FFFE0000003FFFF0001FFFFE0003FFFFE0003F80007FFFFC0000003FFFFF
310
FFC0000003FFFFF800000000000000007F80000000000001FFFFFE0000003FFF
310
FFFFFFFE0000003FFFFFFF0003FFFFFFFFFFFF0000003FFFF000FFFF800000FF
310
FFF0001FFFFF0003FFFFE0003F80007FFFFF000001FFFFFFFFF800001FFFFFF8
310
00000000000000007F80000000000001FFFFFFC00001FFFFFFFFFFFFC00001FF
310
FFFFFF0003FFFFFFFFFFFFC00000FFFFF000FFFFF8000FFFFFFFFFFFFFFFFFFF
310
FFFFFFFFFFFFFFFFFFFFF0001FFFFFFFFFFF0000FFFFFFF80000000000000000
310
7FFFFFFFFFFFFFFFFFFFFFFC001FFFFFFFFFFFFFFC001FFFFFFFFFFFFFFFFFFF
310
FFFFFFFC001FFFFFF000FFFFFFFFFFFFFFFFFFFFFFFFFFFFFFFFFFFFFFFFFFFF
310
FFFFFFFFFFFFFFFFFFFFFFFFFFFFFFFFFFFFFFFFFFFFFFFFFFFFFFFFFFFFFFFF
310
FFFFFFFFFFFFFFFFFFFFFFFFFFFFFFFFFFFFFFFFFFFFFFFFFFFFFFFFFFFFFFFF
310
F000FFFFFFFFFFFFFFFFFFFFFFFFFFFFFFFFFFFFFFFFFFFFFFFFFFFFFFFFFFFF
310
FFFFFFFFFFFFFFFFFFFFFFFFFFFFFFFFFFFFFFFFFFFFFFFFFFFFFFFFFFFFFFFF
310
FFFFFFFFFFFFFFFFFFFFFFFFFFFFFFFFFFFFFFFFFFFFFFFFF000FFFFFFFFFFFF
310
FFFFFFFFFFFFFFFFFFFFFFFFFFFFFFFFFFFFFFFFFFFFFFFFFFFFFFFFFFFFFFFF
310
FFFFFFFFFFFFFFFFFFFFFFFFFFFFFFFFFFFFFFFFFFFFFFFFFFFFFFFFFFFFFFFF
310
FFFFFFFFFFFFFFFFFFFFFFFFFFFFFFFFF000FFFFFFFFFFFFFFFFFFFFFFFFFFFF
310
FFFFFFFFFFFFFFFFFFFFFFFFFFFFFFFFFFFFFFFFFFFFFFFFFFFFFFFFFFFFFFFF
310
FFFFFFFFFFFFFFFFFFFFFFFFFFFFFFFFFFFFFFFFFFFFFFFFFFFFFFFFFFFFFFFF
310
FFFFFFFFFFFFFFFFF000FFFFFFFFFFFFFFFFFFFFFFFFFFFFFFFFFFFFFFFFFFFF
310
FFFFFFFFFFFFFFFFFFFFFFFFFFFFFFFFFFFFFFFFFFFFFFFFFFFFFFFFFFFFFFFF
310
FFFFFFFFFFFFFFFFFFFFFFFFFFFFFFFFFFFFFFFFFFFFFFFFFFFFFFFFFFFFFFFF
310
F000FFFFFFFFFFFFFFFFFFFFFFFFFFFFFFFFFFFFFFFFFFFFFFFFFFFFFFFFFFFF
310
FFFFFFFFFFFFFFFFFFFFFFFFFFFFFFFFFFFFFFFFFFFFFFFFFFFFFFFFFFFFFFFF
310
FFFFFFFFFFFFFFFFFFFFFFFFFFFFFFFFFFFFFFFFFFFFFFFFF000FFFFFFFFFFFF
310
FFFFFFFFFFFFFFFFFFFFFFFFFFFFFFFFFFFFFFFFFFFFFFFFFFFFFFFFFFFFFFFF
310
FFFFFFFFFFFFFFFFFFFFFFFFFFFFFFFFFFFFFFFFFFFFFFFFFFFFFFFFFFFFFFFF
310
FFFFFFFFFFFFFFFFFFFFFFFFFFFFFFFFF000FFFFFFFFFFFFFFFFFFFFFFFFFFFF
310
FFFFFFFFFFFFFFFFFFFFFFFFFFFFFFFFFFFFFFFFFFFFFFFFFFFFFFFFFFFFFFFF
310
FFFFFFFFFFFFFFFFFFFFFFFFFFFFFFFFFFFFFFFFFFFFFFFFFFFFFFFFFFFFFFFF
310
FFFFFFFFFFFFFFFFF000FFFFFFFFFFFFFFFFFFFFFFFFFFFFFFFFFFFFFFFFFFFF
310
FFFFFFFFFFFFFFFFFFFFFFFFFFFFFFFFFFFFFFFFFFFFFFFFFFFFFFFFFFFFFFFF
310
FFFFFFFFFFFFFFFFFFFFFFFFFFFFFFFFFFFFFFFFFFFFFFFFFFFFFFFFFFFFFFFF
310
F000FFFFFFFFFFFFFFFFFFFFFFFFFFFFFFFFFFFFFFFFFFFFFFFFFFFFFFFFFFFF
310
FFFFFFFFFFFFFFFFFFFFFFFFFFFFFFFFFFFFFFFFFFFFFFFFFFFFFFFFFFFFFFFF
310
FFFFFFFFFFFFFFFFFFFFFFFFFFFFFFFFFFFFFFFFFFFFFFFFF000FFFFFFFFFFFF
310
FFFFFFFFFFFFFFFFFFFFFFFFFFFFFFFFFFFFFFFFFFFFFFFFFFFFFFFFFFFFFFFF
310
FFFFFFFFFFFFFFFFFFFFFFFFFFFFFFFFFFFFFFFFFFFFFFFFFFFFFFFFFFFFFFFF
310
FFFFFFFFFFFFFFFFFFFFFFFFFFFFFFFFF000FFFFFFFFFFFFFFFFFFFFFFFFFFFF
310
FFFFFFFFFFFFFFFFFFFFFFFFFFFFFFFFFFFFFFFFFFFFFFFFFFFFFFFFFFFFFFFF
310
FFFFFFFFFFFFFFFFFFFFFFFFFFFFFFFFFFFFFFFFFFFFFFFFFFFFFFFFFFFFFFFF
310
FFFFFFFFFFFFFFFFF000FFFFFFFFFFFFFFFFFFFFFFFFFFFFFFFFFFFFFFFFFFFF
310
FFFFFFFFFFFFFFFFFFFFFFFFFFFFFFFFFFFFFFFFFFFFFFFFFFFFFFFFFFFFFFFF
310
FFFFFFFFFFFFFFFFFFFFFFFFFFFFFFFFFFFFFFFFFFFFFFFFFFFFFFFFFFFFFFFF
310
F000FFFFFFFFFFFFFFFFFFFFFFFFFFFFFFFFFFFFFFFFFFFFFFFFFFFFFFFFFFFF
310
FFFFFFFFFFFFFFFFFFFFFFFFFFFFFFFFFFFFFFFFFFFFFFFFFFFFFFFFFFFFFFFF
310
FFFFFFFFFFFFFFFFFFFFFFFFFFFFFFFFFFFFFFFFFFFFFFFFF000FFFFFFFFFFFF
310
FFFFFFFFFFFFFFFFFFFFFFFFFFFFFFFFFFFFFFFFFFFFFFFFFFFFFFFFFFFFFFFF
310
FFFFFFFFFFFFFFFFFFFFFFFFFFFFFFFFFFFFFFFFFFFFFFFFFFFFFFFFFFFFFFFF
310
FFFFFFFFFFFFFFFFFFFFFFFFFFFFFFFFF000FFFFFFFFFFFFFFFFFFFFFFFFFFFF
310
FFFFFFFFFFFFFFFFFFFFFFFFFFFFFFFFFFFFFFFFFFFFFFFFFFFFFFFFFFFFFFFF
310
FFFFFFFFFFFFFFFFFFFFFFFFFFFFFFFFFFFFFFFFFFFFFFFFFFFFFFFFFFFFFFFF
310
FFFFFFFFFFFFFFFFF000FFFFFFFFFFFFFFFFFFFFFFFFFFFFFFFFFFFFFFFFFFFF
310
FFFFFFFFFFFFFFFFFFFFFFFFFFFFFFFFFFFFFFFFFFFFFFFFFFFFFFFFFFFFFFFF
310
FFFFFFFFFFFFFFFFFFFFFFFFFFFFFFFFFFFFFFFFFFFFFFFFFFFFFFFFFFFFFFFF
310
F000FFFFFFFFFFFFFFFFFFFFFFFFFFFFFFFFFFFFFFFFFFFFFFFFFFFFFFFFFFFF
310
FFFFFFFFFFFFFFFFFFFFFFFFFFFFFFFFFFFFFFFFFFFFFFFFFFFFFFFFFFFFFFFF
310
FFFFFFFFFFFFFFFFFFFFFFFFFFFFFFFFFFFFFFFFFFFFFFFFF000FFFFFFFFFFFF
310
FFFFFFFFFFFFFFFFFFFFFFFFFFFFFFFFFFFFFFFFFFFFFFFFFFFFFFFFFFFFFFFF
310
FFFFFFFFFFFFFFFFFFFFFFFFFFFFFFFFFFFFFFFFFFFFFFFFFFFFFFFFFFFFFFFF
310
FFFFFFFFFFFFFFFFFFFFFFFFFFFFFFFFF000FFFFFFFFFFFFFFFFFFFFFFFFFFFF
310
FFFFFFFFFFFFFFFFFFFFFFFFFFFFFFFFFFFFFFFFFFFFFFFFFFFFFFFFFFFFFFFF
310
FFFFFFFFFFFFFFFFFFFFFFFFFFFFFFFFFFFFFFFFFFFFFFFFFFFFFFFFFFFFFFFF
310
FFFFFFFFFFFFFFFFF000FFFFFFFFFFFFFFFFFFFFFFFFFFFFFFFFFFFFFFFFFFFF
310
FFFFFFFFFFFFFFFFFFFFFFFFFFFFFFFFFFFFFFFFFFFFFFFFFFFFFFFFFFFFFFFF
310
FFFFFFFFFFFFFFFFFFFFFFFFFFFFFFFFFFFFFFFFFFFFFFFFFFFFFFFFFFFFFFFF
310
F000FFFFFFFFFFFFFFFFFFFFFFFFFFFFFFFFFFFFFFFFFFFFFFFFFFFFFFFFFFFF
310
FFFFFFFFFFFFFFFFFFFFFFFFFFFFFFFFFFFFFFFFFFFFFFFFFFFFFFFFFFFFFFFF
310
FFFFFFFFFFFFFFFFFFFFFFFFFFFFFFFFFFFFFFFFFFFFFFFFF000FFFFFFFFFFFF
310
FFFFFFFFFFFFFFFFFFFFFFFFFFFFFFFFFFFFFFFFFFFFFFFFFFFFFFFFFFFFFFFF
310
FFFFFFFFFFFFFFFFFFFFFFFFFFFFFFFFFFFFFFFFFFFFFFFFFFFFFFFFFFFFFFFF
310
FFFFFFFFFFFFFFFFFFFFFFFFFFFFFFFFF0000000000000000000000000000000
310
0000000001000000010000000100000001000000000000000100000000000000
310
0100000000000000010000000000000001000000000000000100000000000000
310
0100000001000000010000000100000001000000010000000100000001000000
310
0100000001000000010000000100000001000000010000000100000001000000
310
0100000001000000010000000100000001000000010000000100000001000000
310
0100000001000000010000000100000001000000010000000100000001000000
310
0100000001000000010000000100000001000000010000000000000001000000
310
0100000001000000010000000000000001000000010000000000000001000000
310
0100000001000000010000000100000000000000010000000100000001000000
310
0100000001000000010000000100000001000000010000000100000001000000
310
0100000001000000010000000100000001000000010000000100000001000000
310
0100000001000000010000000100000001000000010000000100000000000000
310
0100000001000000010000000100000001000000010000000100000001000000
310
0100000001000000010000000100000001000000010000000100000001000000
310
0100000001000000010000000100000001000000010000000100000001000000
  1
OLE
  0
ENDSEC
  0
SECTION
  2
OBJECTS
  0
DICTIONARY
  5
C
330
0
100
AcDbDictionary
281
     1
  3
ACAD_GROUP
350
D
  3
ACAD_LAYOUT
350
1A
  3
ACAD_MLEADERSTYLE
350
213
  3
ACAD_MLINESTYLE
350
17
  3
ACAD_PLOTSETTINGS
350
19
  3
ACAD_PLOTSTYLENAME
350
E
  3
ACAD_TABLESTYLE
350
212
  3
ACAD_VISUALSTYLE
350
2A
  3
AcDbVariableDictionary
350
214
  0
DICTIONARY
  5
D
102
{ACAD_REACTORS
330
C
102
}
330
C
100
AcDbDictionary
281
     1
  0
DICTIONARY
  5
1A
102
{ACAD_REACTORS
330
C
102
}
330
C
100
AcDbDictionary
281
     1
  3
Layout1
350
1E
  3
Layout2
350
26
  3
Model
350
22
  0
DICTIONARY
  5
213
102
{ACAD_REACTORS
330
C
102
}
330
C
100
AcDbDictionary
281
     1
  0
DICTIONARY
  5
17
102
{ACAD_REACTORS
330
C
102
}
330
C
100
AcDbDictionary
281
     1
  3
Standard
350
18
  0
DICTIONARY
  5
19
102
{ACAD_REACTORS
330
C
102
}
330
C
100
AcDbDictionary
281
     1
  0
ACDBDICTIONARYWDFLT
  5
E
102
{ACAD_REACTORS
330
C
102
}
330
C
100
AcDbDictionary
281
     1
  3
Normal
350
F
100
AcDbDictionaryWithDefault
340
F
  0
DICTIONARY
  5
212
102
{ACAD_REACTORS
330
C
102
}
330
C
100
AcDbDictionary
281
     1
  0
DICTIONARY
  5
2A
102
{ACAD_REACTORS
330
C
102
}
330
C
100
AcDbDictionary
281
     1
  3
2dWireframe
350
2F
  3
3D Hidden
350
31
  3
3dWireframe
350
30
  3
Basic
350
32
  3
Brighten
350
36
  3
ColorChange
350
3A
  3
Conceptual
350
34
  3
Dim
350
35
  3
Facepattern
350
39
  3
Flat
350
2B
  3
FlatWithEdges
350
2C
  3
Gouraud
350
2D
  3
GouraudWithEdges
350
2E
  3
Linepattern
350
38
  3
Realistic
350
33
  3
Thicken
350
37
  0
DICTIONARY
  5
214
102
{ACAD_REACTORS
330
C
102
}
330
C
100
AcDbDictionary
281
     1
  3
PSOLHEIGHT
350
216
  3
PSOLWIDTH
350
215
  0
LAYOUT
  5
1E
102
{ACAD_REACTORS
330
1A
102
}
330
1A
100
AcDbPlotSettings
  1

  2
none_device
  4

  6

 40
0.0
 41
0.0
 42
0.0
 43
0.0
 44
0.0
 45
0.0
 46
0.0
 47
0.0
 48
0.0
 49
0.0
140
0.0
141
0.0
142
1.0
143
1.0
 70
   688
 72
     0
 73
     0
 74
     5
  7

 75
    16
147
1.0
148
0.0
149
0.0
100
AcDbLayout
  1
Layout1
 70
     1
 71
     1
 10
0.0
 20
0.0
 11
420.0
 21
297.0
 12
0.0
 22
0.0
 32
0.0
 14
1.0000000000E+20
 24
1.0000000000E+20
 34
1.0000000000E+20
 15
-1.0000000000E+20
 25
-1.0000000000E+20
 35
-1.0000000000E+20
146
0.0
 13
0.0
 23
0.0
 33
0.0
 16
1.0
 26
0.0
 36
0.0
 17
0.0
 27
1.0
 37
0.0
 76
     0
330
1B
  0
LAYOUT
  5
26
102
{ACAD_REACTORS
330
1A
102
}
330
1A
100
AcDbPlotSettings
  1

  2
none_device
  4

  6

 40
0.0
 41
0.0
 42
0.0
 43
0.0
 44
0.0
 45
0.0
 46
0.0
 47
0.0
 48
0.0
 49
0.0
140
0.0
141
0.0
142
1.0
143
1.0
 70
   688
 72
     0
 73
     0
 74
     5
  7

 75
    16
147
1.0
148
0.0
149
0.0
100
AcDbLayout
  1
Layout2
 70
     1
 71
     2
 10
0.0
 20
0.0
 11
0.0
 21
0.0
 12
0.0
 22
0.0
 32
0.0
 14
0.0
 24
0.0
 34
0.0
 15
0.0
 25
0.0
 35
0.0
146
0.0
 13
0.0
 23
0.0
 33
0.0
 16
1.0
 26
0.0
 36
0.0
 17
0.0
 27
1.0
 37
0.0
 76
     0
330
23
  0
LAYOUT
  5
22
102
{ACAD_REACTORS
330
1A
102
}
330
1A
100
AcDbPlotSettings
  1

  2
none_device
  4

  6

 40
0.0
 41
0.0
 42
0.0
 43
0.0
 44
0.0
 45
0.0
 46
0.0
 47
0.0
 48
0.0
 49
0.0
140
0.0
141
0.0
142
1.0
143
1.0
 70
  1712
 72
     0
 73
     0
 74
     0
  7

 75
     0
147
1.0
148
0.0
149
0.0
100
AcDbLayout
  1
Model
 70
     1
 71
     0
 10
0.0
 20
0.0
 11
297.0
 21
210.0
 12
0.0
 22
0.0
 32
0.0
 14
0.0
 24
0.0
 34
0.0
 15
297.0
 25
210.0
 35
0.0
146
0.0
 13
0.0
 23
0.0
 33
0.0
 16
1.0
 26
0.0
 36
0.0
 17
0.0
 27
1.0
 37
0.0
 76
     0
330
1F
331
29
  0
MLINESTYLE
  5
18
102
{ACAD_REACTORS
330
17
102
}
330
17
100
AcDbMlineStyle
  2
Standard
 70
     0
  3

 62
   256
 51
90.0
 52
90.0
 71
     2
 49
0.5
 62
   256
  6
BYLAYER
 49
-0.5
 62
   256
  6
BYLAYER
  0
ACDBPLACEHOLDER
  5
F
102
{ACAD_REACTORS
330
E
102
}
330
E
  0
VISUALSTYLE
  5
2F
102
{ACAD_REACTORS
330
2A
102
}
330
2A
100
AcDbVisualStyle
  2
2dWireframe
 70
     4
 71
     0
 72
     2
 73
     0
 90
        0
 40
-0.6
 41
-30.0
 62
     5
 63
     7
 74
     1
 91
        4
 64
     7
 65
   257
 75
     1
175
     1
 42
1.0
 92
        0
 66
   257
 43
1.0
 76
     1
 77
     6
 78
     2
 67
     7
 79
     5
170
     0
171
     0
290
     0
174
     0
 93
        1
 44
0.0
173
     0
291
     0
 45
0.0
1001
ACAD
1000
AcDbSavedByObjectVersion
1070
     0
  0
VISUALSTYLE
  5
31
102
{ACAD_REACTORS
330
2A
102
}
330
2A
100
AcDbVisualStyle
  2
3D Hidden
 70
     6
 71
     1
 72
     2
 73
     2
 90
        0
 40
-0.6
 41
-30.0
 62
     5
 63
     7
 74
     2
 91
        2
 64
     7
 65
   257
 75
     2
175
     1
 42
40.0
 92
        0
 66
   257
 43
1.0
 76
     1
 77
     6
 78
     2
 67
     7
 79
     3
170
     0
171
     0
290
     0
174
     0
 93
        1
 44
0.0
173
     0
291
     0
 45
0.0
1001
ACAD
1000
AcDbSavedByObjectVersion
1070
     0
  0
VISUALSTYLE
  5
30
102
{ACAD_REACTORS
330
2A
102
}
330
2A
100
AcDbVisualStyle
  2
3dWireframe
 70
     5
 71
     0
 72
     2
 73
     0
 90
        0
 40
-0.6
 41
-30.0
 62
     5
 63
     7
 74
     1
 91
        4
 64
     7
 65
   257
 75
     1
175
     1
 42
1.0
 92
        0
 66
   257
 43
1.0
 76
     1
 77
     6
 78
     2
 67
     7
 79
     5
170
     0
171
     0
290
     0
174
     0
 93
        1
 44
0.0
173
     0
291
     0
 45
0.0
1001
ACAD
1000
AcDbSavedByObjectVersion
1070
     0
  0
VISUALSTYLE
  5
32
102
{ACAD_REACTORS
330
2A
102
}
330
2A
100
AcDbVisualStyle
  2
Basic
 70
     7
 71
     1
 72
     0
 73
     1
 90
        0
 40
-0.6
 41
-30.0
 62
     5
 63
     7
 74
     0
 91
        4
 64
     7
 65
   257
 75
     1
175
     1
 42
1.0
 92
        8
 66
     7
 43
1.0
 76
     1
 77
     6
 78
     2
 67
     7
 79
     5
170
     0
171
     0
290
     0
174
     0
 93
        1
 44
0.0
173
     0
291
     1
 45
0.0
1001
ACAD
1000
AcDbSavedByObjectVersion
1070
     0
  0
VISUALSTYLE
  5
36
102
{ACAD_REACTORS
330
2A
102
}
330
2A
100
AcDbVisualStyle
  2
Brighten
 70
    12
 71
     2
 72
     2
 73
     0
 90
        0
 40
-0.6
 41
-30.0
 62
     5
 63
     7
 74
     1
 91
        4
 64
     7
 65
   257
 75
     1
175
     1
 42
1.0
 92
        8
 66
     7
 43
1.0
 76
     1
 77
     6
 78
     2
 67
     7
 79
     5
170
     0
171
     0
290
     0
174
     0
 93
        1
 44
50.0
173
     0
291
     1
 45
0.0
1001
ACAD
1000
AcDbSavedByObjectVersion
1070
     0
  0
VISUALSTYLE
  5
3A
102
{ACAD_REACTORS
330
2A
102
}
330
2A
100
AcDbVisualStyle
  2
ColorChange
 70
    16
 71
     2
 72
     2
 73
     3
 90
        0
 40
-0.6
 41
-30.0
 62
     5
 63
     8
 74
     1
 91
        4
 64
     7
 65
   257
 75
     1
175
     1
 42
1.0
 92
        8
 66
     8
 43
1.0
 76
     1
 77
     6
 78
     2
 67
     7
 79
     5
170
     0
171
     0
290
     0
174
     0
 93
        1
 44
0.0
173
     0
291
     1
 45
0.0
1001
ACAD
1000
AcDbSavedByObjectVersion
1070
     0
  0
VISUALSTYLE
  5
34
102
{ACAD_REACTORS
330
2A
102
}
330
2A
100
AcDbVisualStyle
  2
Conceptual
 70
     9
 71
     3
 72
     2
 73
     0
 90
        0
 40
-0.6
 41
-30.0
 62
     5
 63
     7
 74
     2
 91
        2
 64
     7
 65
   257
 75
     1
175
     1
 42
40.0
 92
        8
 66
     7
 43
1.0
 76
     1
 77
     6
 78
     2
 67
     7
 79
     3
170
     0
171
     0
290
     0
174
     0
 93
        1
 44
0.0
173
     0
291
     0
 45
0.0
1001
ACAD
1000
AcDbSavedByObjectVersion
1070
     0
  0
VISUALSTYLE
  5
35
102
{ACAD_REACTORS
330
2A
102
}
330
2A
100
AcDbVisualStyle
  2
Dim
 70
    11
 71
     2
 72
     2
 73
     0
 90
        0
 40
-0.6
 41
-30.0
 62
     5
 63
     7
 74
     1
 91
        4
 64
     7
 65
   257
 75
     1
175
     1
 42
1.0
 92
        8
 66
     7
 43
1.0
 76
     1
 77
     6
 78
     2
 67
     7
 79
     5
170
     0
171
     0
290
     0
174
     0
 93
        1
 44
-50.0
173
     0
291
     1
 45
0.0
1001
ACAD
1000
AcDbSavedByObjectVersion
1070
     0
  0
VISUALSTYLE
  5
39
102
{ACAD_REACTORS
330
2A
102
}
330
2A
100
AcDbVisualStyle
  2
Facepattern
 70
    15
 71
     2
 72
     2
 73
     0
 90
        0
 40
-0.6
 41
-30.0
 62
     5
 63
     7
 74
     1
 91
        4
 64
     7
 65
   257
 75
     1
175
     1
 42
1.0
 92
        8
 66
     7
 43
1.0
 76
     1
 77
     6
 78
     2
 67
     7
 79
     5
170
     0
171
     0
290
     0
174
     0
 93
        1
 44
0.0
173
     0
291
     1
 45
0.0
1001
ACAD
1000
AcDbSavedByObjectVersion
1070
     0
  0
VISUALSTYLE
  5
2B
102
{ACAD_REACTORS
330
2A
102
}
330
2A
100
AcDbVisualStyle
  2
Flat
 70
     0
 71
     2
 72
     1
 73
     1
 90
        2
 40
-0.6
 41
30.0
 62
     5
 63
     7
 74
     0
 91
        4
 64
     7
 65
   257
 75
     1
175
     1
 42
1.0
 92
        8
 66
     7
 43
1.0
 76
     1
 77
     6
 78
     2
 67
     7
 79
     5
170
     0
171
     0
290
     0
174
     0
 93
       13
 44
0.0
173
     0
291
     1
 45
0.0
1001
ACAD
1000
AcDbSavedByObjectVersion
1070
     0
  0
VISUALSTYLE
  5
2C
102
{ACAD_REACTORS
330
2A
102
}
330
2A
100
AcDbVisualStyle
  2
FlatWithEdges
 70
     1
 71
     2
 72
     1
 73
     1
 90
        2
 40
-0.6
 41
30.0
 62
     5
 63
     7
 74
     1
 91
        4
 64
     7
 65
   257
 75
     1
175
     1
 42
1.0
 92
        0
 66
   257
 43
1.0
 76
     1
 77
     6
 78
     2
 67
     7
 79
     5
170
     0
171
     0
290
     0
174
     0
 93
       13
 44
0.0
173
     0
291
     1
 45
0.0
1001
ACAD
1000
AcDbSavedByObjectVersion
1070
     0
  0
VISUALSTYLE
  5
2D
102
{ACAD_REACTORS
330
2A
102
}
330
2A
100
AcDbVisualStyle
  2
Gouraud
 70
     2
 71
     2
 72
     2
 73
     1
 90
        2
 40
-0.6
 41
30.0
 62
     5
 63
     7
 74
     0
 91
        4
 64
     7
 65
   257
 75
     1
175
     1
 42
1.0
 92
        0
 66
     7
 43
1.0
 76
     1
 77
     6
 78
     2
 67
     7
 79
     5
170
     0
171
     0
290
     0
174
     0
 93
       13
 44
0.0
173
     0
291
     1
 45
0.0
1001
ACAD
1000
AcDbSavedByObjectVersion
1070
     0
  0
VISUALSTYLE
  5
2E
102
{ACAD_REACTORS
330
2A
102
}
330
2A
100
AcDbVisualStyle
  2
GouraudWithEdges
 70
     3
 71
     2
 72
     2
 73
     1
 90
        2
 40
-0.6
 41
30.0
 62
     5
 63
     7
 74
     1
 91
        4
 64
     7
 65
   257
 75
     1
175
     1
 42
1.0
 92
        0
 66
   257
 43
1.0
 76
     1
 77
     6
 78
     2
 67
     7
 79
     5
170
     0
171
     0
290
     0
174
     0
 93
       13
 44
0.0
173
     0
291
     1
 45
0.0
1001
ACAD
1000
AcDbSavedByObjectVersion
1070
     0
  0
VISUALSTYLE
  5
38
102
{ACAD_REACTORS
330
2A
102
}
330
2A
100
AcDbVisualStyle
  2
Linepattern
 70
    14
 71
     2
 72
     2
 73
     0
 90
        0
 40
-0.6
 41
-30.0
 62
     5
 63
     7
 74
     1
 91
        4
 64
     7
 65
   257
 75
     7
175
     7
 42
1.0
 92
        8
 66
     7
 43
1.0
 76
     1
 77
     6
 78
     2
 67
     7
 79
     5
170
     0
171
     0
290
     0
174
     0
 93
        1
 44
0.0
173
     0
291
     1
 45
0.0
1001
ACAD
1000
AcDbSavedByObjectVersion
1070
     0
  0
VISUALSTYLE
  5
33
102
{ACAD_REACTORS
330
2A
102
}
330
2A
100
AcDbVisualStyle
  2
Realistic
 70
     8
 71
     2
 72
     2
 73
     0
 90
        0
 40
-0.6
 41
-30.0
 62
     5
 63
     7
 74
     1
 91
        0
 64
     7
 65
   257
 75
     1
175
     1
 42
1.0
 92
        8
 66
     8
 43
1.0
 76
     1
 77
     6
 78
     2
 67
     7
 79
     5
170
     0
171
     0
290
     0
174
     0
 93
       13
 44
0.0
173
     0
291
     0
 45
0.0
1001
ACAD
1000
AcDbSavedByObjectVersion
1070
     0
  0
VISUALSTYLE
  5
37
102
{ACAD_REACTORS
330
2A
102
}
330
2A
100
AcDbVisualStyle
  2
Thicken
 70
    13
 71
     2
 72
     2
 73
     0
 90
        0
 40
-0.6
 41
-30.0
 62
     5
 63
     7
 74
     1
 91
        4
 64
     7
 65
   257
 75
     1
175
     1
 42
1.0
 92
       12
 66
     7
 43
1.0
 76
     1
 77
     6
 78
     2
 67
     7
 79
     5
170
     0
171
     0
290
     0
174
     0
 93
        1
 44
0.0
173
     0
291
     1
 45
0.0
1001
ACAD
1000
AcDbSavedByObjectVersion
1070
     0
  0
DICTIONARYVAR
  5
216
102
{ACAD_REACTORS
330
214
102
}
330
214
100
DictionaryVariables
280
     0
  1
80.000000
  0
DICTIONARYVAR
  5
215
102
{ACAD_REACTORS
330
214
102
}
330
214
100
DictionaryVariables
280
     0
  1
5.000000
  0
ENDSEC
  0
EOF
