  0
SECTION
  2
HEADER
  9
$ACADVER
  1
AC1015
  9
$ACADMAINTVER
 70
     6
  9
$DWGCODEPAGE
  3
ANSI_1252
  9
$INSBASE
 10
0.0
 20
0.0
 30
0.0
  9
$EXTMIN
 10
0.0
 20
0.0
 30
0.0
  9
$EXTMAX
 10
297.0
 20
210.0
 30
0.0
  9
$LIMMIN
 10
0.0
 20
0.0
  9
$LIMMAX
 10
297.0
 20
210.0
  9
$ORTHOMODE
 70
     0
  9
$REGENMODE
 70
     1
  9
$FILLMODE
 70
     1
  9
$QTEXTMODE
 70
     0
  9
$MIRRTEXT
 70
     1
  9
$LTSCALE
 40
1.0
  9
$ATTMODE
 70
     1
  9
$TEXTSIZE
 40
2.0
  9
$TRACEWID
 40
1.0
  9
$TEXTSTYLE
  7
Standard
  9
$CLAYER
  8
0
  9
$CELTYPE
  6
ByLayer
  9
$CECOLOR
 62
   256
  9
$CELTSCALE
 40
1.0
  9
$DISPSILH
 70
     0
  9
$DIMSCALE
 40
1.0
  9
$DIMASZ
 40
3.0
  9
$DIMEXO
 40
0.0
  9
$DIMDLI
 40
3.75
  9
$DIMRND
 40
0.0
  9
$DIMDLE
 40
0.0
  9
$DIMEXE
 40
1.0
  9
$DIMTP
 40
0.0
  9
$DIMTM
 40
0.0
  9
$DIMTXT
 40
2.0
  9
$DIMCEN
 40
2.5
  9
$DIMTSZ
 40
0.0
  9
$DIMTOL
 70
     0
  9
$DIMLIM
 70
     0
  9
$DIMTIH
 70
     1
  9
$DIMTOH
 70
     1
  9
$DIMSE1
 70
     0
  9
$DIMSE2
 70
     0
  9
$DIMTAD
 70
     1
  9
$DIMZIN
 70
     0
  9
$DIMBLK
  1

  9
$DIMASO
 70
     1
  9
$DIMSHO
 70
     1
  9
$DIMPOST
  1

  9
$DIMAPOST
  1

  9
$DIMALT
 70
     0
  9
$DIMALTD
 70
     3
  9
$DIMALTF
 40
0.0393700787
  9
$DIMLFAC
 40
1.0
  9
$DIMTOFL
 70
     1
  9
$DIMTVP
 40
0.0
  9
$DIMTIX
 70
     0
  9
$DIMSOXD
 70
     0
  9
$DIMSAH
 70
     0
  9
$DIMBLK1
  1

  9
$DIMBLK2
  1

  9
$DIMSTYLE
  2
ISO-25
  9
$DIMCLRD
 70
     0
  9
$DIMCLRE
 70
     0
  9
$DIMCLRT
 70
     0
  9
$DIMTFAC
 40
1.0
  9
$DIMGAP
 40
1.524
  9
$DIMJUST
 70
     0
  9
$DIMSD1
 70
     0
  9
$DIMSD2
 70
     0
  9
$DIMTOLJ
 70
     0
  9
$DIMTZIN
 70
     0
  9
$DIMALTZ
 70
     0
  9
$DIMALTTZ
 70
     0
  9
$DIMUPT
 70
     0
  9
$DIMDEC
 70
     2
  9
$DIMTDEC
 70
     3
  9
$DIMALTU
 70
     2
  9
$DIMALTTD
 70
     3
  9
$DIMTXSTY
  7
Standard
  9
$DIMAUNIT
 70
     0
  9
$DIMADEC
 70
     2
  9
$DIMALTRND
 40
0.0
  9
$DIMAZIN
 70
     0
  9
$DIMDSEP
 70
    44
  9
$DIMATFIT
 70
     3
  9
$DIMFRAC
 70
     0
  9
$DIMLDRBLK
  1

  9
$DIMLUNIT
 70
     2
  9
$DIMLWD
 70
    -2
  9
$DIMLWE
 70
    -2
  9
$DIMTMOVE
 70
     0
  9
$LUNITS
 70
     2
  9
$LUPREC
 70
     2
  9
$SKETCHINC
 40
1.0
  9
$FILLETRAD
 40
10.0
  9
$AUNITS
 70
     0
  9
$AUPREC
 70
     2
  9
$MENU
  1
.
  9
$ELEVATION
 40
0.0
  9
$PELEVATION
 40
0.0
  9
$THICKNESS
 40
0.0
  9
$LIMCHECK
 70
     0
  9
$CHAMFERA
 40
10.0
  9
$CHAMFERB
 40
10.0
  9
$CHAMFERC
 40
20.0
  9
$CHAMFERD
 40
0.0
  9
$SKPOLY
 70
     0
  9
$TDCREATE
 40
2455684.337266771
  9
$TDUCREATE
 40
2455684.253933438
  9
$TDUPDATE
 40
2455684.337266782
  9
$TDUUPDATE
 40
2455684.253933449
  9
$TDINDWG
 40
0.0000000116
  9
$TDUSRTIMER
 40
0.0000000116
  9
$USRTIMER
 70
     1
  9
$ANGBASE
 50
0.0
  9
$ANGDIR
 70
     0
  9
$PDMODE
 70
     0
  9
$PDSIZE
 40
-1.0
  9
$PLINEWID
 40
0.0
  9
$SPLFRAME
 70
     0
  9
$SPLINETYPE
 70
     6
  9
$SPLINESEGS
 70
     8
  9
$HANDSEED
  5
20E
  9
$SURFTAB1
 70
     6
  9
$SURFTAB2
 70
     6
  9
$SURFTYPE
 70
     6
  9
$SURFU
 70
     6
  9
$SURFV
 70
     6
  9
$UCSBASE
  2

  9
$UCSNAME
  2

  9
$UCSORG
 10
0.0
 20
0.0
 30
0.0
  9
$UCSXDIR
 10
1.0
 20
0.0
 30
0.0
  9
$UCSYDIR
 10
0.0
 20
1.0
 30
0.0
  9
$UCSORTHOREF
  2

  9
$UCSORTHOVIEW
 70
     0
  9
$UCSORGTOP
 10
0.0
 20
0.0
 30
0.0
  9
$UCSORGBOTTOM
 10
0.0
 20
0.0
 30
0.0
  9
$UCSORGLEFT
 10
0.0
 20
0.0
 30
0.0
  9
$UCSORGRIGHT
 10
0.0
 20
0.0
 30
0.0
  9
$UCSORGFRONT
 10
0.0
 20
0.0
 30
0.0
  9
$UCSORGBACK
 10
0.0
 20
0.0
 30
0.0
  9
$PUCSBASE
  2

  9
$PUCSNAME
  2

  9
$PUCSORG
 10
0.0
 20
0.0
 30
0.0
  9
$PUCSXDIR
 10
1.0
 20
0.0
 30
0.0
  9
$PUCSYDIR
 10
0.0
 20
1.0
 30
0.0
  9
$PUCSORTHOREF
  2

  9
$PUCSORTHOVIEW
 70
     0
  9
$PUCSORGTOP
 10
0.0
 20
0.0
 30
0.0
  9
$PUCSORGBOTTOM
 10
0.0
 20
0.0
 30
0.0
  9
$PUCSORGLEFT
 10
0.0
 20
0.0
 30
0.0
  9
$PUCSORGRIGHT
 10
0.0
 20
0.0
 30
0.0
  9
$PUCSORGFRONT
 10
0.0
 20
0.0
 30
0.0
  9
$PUCSORGBACK
 10
0.0
 20
0.0
 30
0.0
  9
$USERI1
 70
     0
  9
$USERI2
 70
     0
  9
$USERI3
 70
     0
  9
$USERI4
 70
     0
  9
$USERI5
 70
     0
  9
$USERR1
 40
0.0
  9
$USERR2
 40
0.0
  9
$USERR3
 40
0.0
  9
$USERR4
 40
0.0
  9
$USERR5
 40
0.0
  9
$WORLDVIEW
 70
     1
  9
$SHADEDGE
 70
     3
  9
$SHADEDIF
 70
    70
  9
$TILEMODE
 70
     1
  9
$MAXACTVP
 70
    64
  9
$PINSBASE
 10
0.0
 20
0.0
 30
0.0
  9
$PLIMCHECK
 70
     0
  9
$PEXTMIN
 10
1.0000000000E+20
 20
1.0000000000E+20
 30
1.0000000000E+20
  9
$PEXTMAX
 10
-1.0000000000E+20
 20
-1.0000000000E+20
 30
-1.0000000000E+20
  9
$PLIMMIN
 10
0.0
 20
0.0
  9
$PLIMMAX
 10
420.0
 20
297.0
  9
$UNITMODE
 70
     0
  9
$VISRETAIN
 70
     1
  9
$PLINEGEN
 70
     0
  9
$PSLTSCALE
 70
     1
  9
$TREEDEPTH
 70
  3020
  9
$CMLSTYLE
  2
Standard
  9
$CMLJUST
 70
     0
  9
$CMLSCALE
 40
20.0
  9
$PROXYGRAPHICS
 70
     1
  9
$MEASUREMENT
 70
     1
  9
$CELWEIGHT
370
    -1
  9
$ENDCAPS
280
     0
  9
$JOINSTYLE
280
     0
  9
$LWDISPLAY
290
     1
  9
$INSUNITS
 70
     4
  9
$HYPERLINKBASE
  1

  9
$STYLESHEET
  1

  9
$XEDIT
290
     1
  9
$CEPSNTYPE
380
     0
  9
$PSTYLEMODE
290
     1
  9
$FINGERPRINTGUID
  2
{156D30BE-267C-4DC8-9EB7-2A3220B4DCEB}
  9
$VERSIONGUID
  2
{FAEB1C32-E019-11D5-929B-00C0DF256EC4}
  9
$EXTNAMES
290
     1
  9
$PSVPSCALE
 40
0.0
  9
$OLESTARTUP
290
     0
  0
ENDSEC
  0
SECTION
  2
CLASSES
  0
CLASS
  1
ACDBDICTIONARYWDFLT
  2
AcDbDictionaryWithDefault
  3
ObjectDBX Classes
 90
        0
280
     0
281
     0
  0
CLASS
  1
VISUALSTYLE
  2
AcDbVisualStyle
  3
ObjectDBX Classes
 90
     4095
280
     0
281
     0
  0
CLASS
  1
DICTIONARYVAR
  2
AcDbDictionaryVar
  3
ObjectDBX Classes
 90
        0
280
     0
281
     0
  0
CLASS
  1
ACDBPLACEHOLDER
  2
AcDbPlaceHolder
  3
ObjectDBX Classes
 90
        0
280
     0
281
     0
  0
CLASS
  1
LAYOUT
  2
AcDbLayout
  3
ObjectDBX Classes
 90
        0
280
     0
281
     0
  0
ENDSEC
  0
SECTION
  2
TABLES
  0
TABLE
  2
VPORT
  5
8
330
0
100
AcDbSymbolTable
 70
     1
  0
VPORT
  5
29
330
8
100
AcDbSymbolTableRecord
100
AcDbViewportTableRecord
  2
*Active
 70
     0
 10
0.0
 20
0.0
 11
1.0
 21
1.0
 12
148.5
 22
105.0
 13
0.0
 23
0.0
 14
10.0
 24
10.0
 15
10.0
 25
10.0
 16
0.0
 26
0.0
 36
1.0
 17
0.0
 27
0.0
 37
0.0
 40
210.0
 41
1.4142857143
 42
50.0
 43
0.0
 44
0.0
 50
0.0
 51
0.0
 71
     0
 72
  2000
 73
     1
 74
     3
 75
     0
 76
     0
 77
     0
 78
     0
281
     0
 65
     1
110
0.0
120
0.0
130
0.0
111
1.0
121
0.0
131
0.0
112
0.0
122
1.0
132
0.0
 79
     0
146
0.0
  0
ENDTAB
  0
TABLE
  2
LTYPE
  5
5
330
0
100
AcDbSymbolTable
 70
     6
  0
LTYPE
  5
14
330
5
100
AcDbSymbolTableRecord
100
AcDbLinetypeTableRecord
  2
ByBlock
 70
     0
  3

 72
    65
 73
     0
 40
0.0
  0
LTYPE
  5
15
330
5
100
AcDbSymbolTableRecord
100
AcDbLinetypeTableRecord
  2
ByLayer
 70
     0
  3

 72
    65
 73
     0
 40
0.0
  0
LTYPE
  5
16
330
5
100
AcDbSymbolTableRecord
100
AcDbLinetypeTableRecord
  2
Continuous
 70
     0
  3
Solid line
 72
    65
 73
     0
 40
0.0
  0
LTYPE
  5
3B
330
5
100
AcDbSymbolTableRecord
100
AcDbLinetypeTableRecord
  2
HIDDEN
 70
     0
  3
Hidden __ __ __ __ __ __ __ __ __ __ __ __ __ __
 72
    65
 73
     2
 40
1.905
 49
1.27
 74
     0
 49
-0.635
 74
     0
  0
LTYPE
  5
3C
330
5
100
AcDbSymbolTableRecord
100
AcDbLinetypeTableRecord
  2
PHANTOM
 70
     0
  3
Phantom ______  __  __  ______  __  __  ______
 72
    65
 73
     6
 40
12.7
 49
6.35
 74
     0
 49
-1.27
 74
     0
 49
1.27
 74
     0
 49
-1.27
 74
     0
 49
1.27
 74
     0
 49
-1.27
 74
     0
  0
LTYPE
  5
3D
330
5
100
AcDbSymbolTableRecord
100
AcDbLinetypeTableRecord
  2
CENTER
 70
     0
  3
Center ____ _ ____ _ ____ _ ____ _ ____ _ ____
 72
    65
 73
     4
 40
10.16
 49
6.35
 74
     0
 49
-1.27
 74
     0
 49
1.27
 74
     0
 49
-1.27
 74
     0
  0
LTYPE
  5
3E
330
5
100
AcDbSymbolTableRecord
100
AcDbLinetypeTableRecord
  2
CENTERX2
 70
     0
  3
Center (2x) ________  __  ________  __  _____
 72
    65
 73
     4
 40
20.32
 49
12.7
 74
     0
 49
-2.54
 74
     0
 49
2.54
 74
     0
 49
-2.54
 74
     0
  0
LTYPE
  5
3F
330
5
100
AcDbSymbolTableRecord
100
AcDbLinetypeTableRecord
  2
DOT2
 70
     0
  3
Dot (.5x) ........................................
 72
    65
 73
     2
 40
0.635
 49
0.0
 74
     0
 49
-0.635
 74
     0
  0
ENDTAB
  0
TABLE
  2
LAYER
  5
2
330
0
100
AcDbSymbolTable
 70
     5
  0
LAYER
  5
10
330
2
100
AcDbSymbolTableRecord
100
AcDbLayerTableRecord
  2
0
 70
     0
 62
     7
  6
Continuous
370
    -3
390
F
  0
LAYER
  5
40
330
2
100
AcDbSymbolTableRecord
100
AcDbLayerTableRecord
  2
FORMAT
 70
     0
 62
     7
  6
Continuous
370
    -3
390
F
  0
LAYER
  5
41
330
2
100
AcDbSymbolTableRecord
100
AcDbLayerTableRecord
  2
VERMASSUNG
 70
     0
 62
     7
  6
Continuous
370
    -3
390
F
  0
LAYER
  5
42
330
2
100
AcDbSymbolTableRecord
100
AcDbLayerTableRecord
  2
KOPF_DÜNN
 70
     0
 62
     7
  6
Continuous
370
    -3
390
F
  0
LAYER
  5
43
330
2
100
AcDbSymbolTableRecord
100
AcDbLayerTableRecord
  2
KOPF_DICK
 70
     0
 62
     7
  6
Continuous
370
    15
390
F
  0
ENDTAB
  0
TABLE
  2
STYLE
  5
3
330
0
100
AcDbSymbolTable
 70
     3
  0
STYLE
  5
11
330
3
100
AcDbSymbolTableRecord
100
AcDbTextStyleTableRecord
  2
Standard
 70
     0
 40
0.0
 41
1.0
 50
0.0
 71
     0
 42
2.5
  3
txt
  4

  0
STYLE
  5
44
330
3
100
AcDbSymbolTableRecord
100
AcDbTextStyleTableRecord
  2
SLDTEXTSTYLE0
 70
     0
 40
0.0
 41
0.7
 50
0.0
 71
     0
 42
0.2
  3
TXT
  4

  0
STYLE
  5
48
330
3
100
AcDbSymbolTableRecord
100
AcDbTextStyleTableRecord
  2
SLDTEXTSTYLE1
 70
     0
 40
0.0
 41
0.65
 50
0.0
 71
     0
 42
0.2
  3
TXT
  4

  0
ENDTAB
  0
TABLE
  2
VIEW
  5
6
330
0
100
AcDbSymbolTable
 70
     0
  0
ENDTAB
  0
TABLE
  2
UCS
  5
7
330
0
100
AcDbSymbolTable
 70
     0
  0
ENDTAB
  0
TABLE
  2
APPID
  5
9
330
0
100
AcDbSymbolTable
 70
     1
  0
APPID
  5
12
330
9
100
AcDbSymbolTableRecord
100
AcDbRegAppTableRecord
  2
ACAD
 70
     0
  0
ENDTAB
  0
TABLE
  2
DIMSTYLE
  5
A
330
0
100
AcDbSymbolTable
 70
     5
100
AcDbDimStyleTable
  0
DIMSTYLE
105
27
330
A
100
AcDbSymbolTableRecord
100
AcDbDimStyleTableRecord
  2
ISO-25
 70
     0
 41
2.5
 42
0.625
 43
3.75
 44
1.25
 73
     0
 74
     0
 77
     1
 78
     8
140
2.5
141
2.5
143
0.0393700787
147
0.625
171
     3
172
     1
271
     2
272
     2
274
     3
278
    44
283
     0
284
     8
340
11
  0
DIMSTYLE
105
1AE
102
{ACAD_REACTORS
330
1AD
330
1DE
330
1E8
330
1F2
330
1FC
102
}
330
A
100
AcDbSymbolTableRecord
100
AcDbDimStyleTableRecord
  2
SLDDIMSTYLE0
 70
     0
 41
3.0
 44
0.0
 45
0.000000001
 73
     0
 74
     0
 77
     1
 78
    12
140
2.0
147
0.5
173
     1
271
     2
272
     3
284
    12
340
44
  0
DIMSTYLE
105
1BB
102
{ACAD_REACTORS
330
1BA
102
}
330
A
100
AcDbSymbolTableRecord
100
AcDbDimStyleTableRecord
  2
SLDDIMSTYLE1
 70
     0
 41
3.0
 44
0.0
 45
0.000000001
 73
     0
 74
     0
 77
     1
 78
    12
140
2.0
147
0.5
173
     1
271
     2
272
     2
284
    12
340
44
  0
DIMSTYLE
105
1C6
102
{ACAD_REACTORS
330
1C5
102
}
330
A
100
AcDbSymbolTableRecord
100
AcDbDimStyleTableRecord
  2
SLDDIMSTYLE2
 70
     0
 41
3.0
 44
0.0
 45
0.000000001
 73
     0
 74
     0
 77
     1
 78
    12
140
2.0
147
0.5
173
     1
271
     2
272
     2
284
    12
340
44
  0
DIMSTYLE
105
1D3
102
{ACAD_REACTORS
330
1D2
102
}
330
A
100
AcDbSymbolTableRecord
100
AcDbDimStyleTableRecord
  2
SLDDIMSTYLE3
 70
     0
 41
3.0
 44
0.0
 45
0.000000001
 73
     0
 74
     0
 77
     1
 78
    12
140
2.0
147
0.5
173
     1
271
     2
272
     3
284
    12
340
44
  0
ENDTAB
  0
TABLE
  2
BLOCK_RECORD
  5
1
330
0
100
AcDbSymbolTable
 70
     9
  0
BLOCK_RECORD
  5
1F
330
1
100
AcDbSymbolTableRecord
100
AcDbBlockTableRecord
  2
*Model_Space
340
22
  0
BLOCK_RECORD
  5
1B
330
1
100
AcDbSymbolTableRecord
100
AcDbBlockTableRecord
  2
*Paper_Space
340
1E
  0
BLOCK_RECORD
  5
23
330
1
100
AcDbSymbolTableRecord
100
AcDbBlockTableRecord
  2
*Paper_Space0
340
26
  0
BLOCK_RECORD
  5
1AF
330
1
100
AcDbSymbolTableRecord
100
AcDbBlockTableRecord
  2
*D1
340
0
  0
BLOCK_RECORD
  5
1BC
330
1
100
AcDbSymbolTableRecord
100
AcDbBlockTableRecord
  2
*D2
340
0
  0
BLOCK_RECORD
  5
1C7
330
1
100
AcDbSymbolTableRecord
100
AcDbBlockTableRecord
  2
*D3
340
0
  0
BLOCK_RECORD
  5
1D4
330
1
100
AcDbSymbolTableRecord
100
AcDbBlockTableRecord
  2
*D4
340
0
  0
BLOCK_RECORD
  5
1DF
330
1
100
AcDbSymbolTableRecord
100
AcDbBlockTableRecord
  2
*D5
340
0
  0
BLOCK_RECORD
  5
1E9
330
1
100
AcDbSymbolTableRecord
100
AcDbBlockTableRecord
  2
*D6
340
0
  0
BLOCK_RECORD
  5
1F3
330
1
100
AcDbSymbolTableRecord
100
AcDbBlockTableRecord
  2
*D7
340
0
  0
BLOCK_RECORD
  5
1FD
330
1
100
AcDbSymbolTableRecord
100
AcDbBlockTableRecord
  2
*D8
340
0
  0
ENDTAB
  0
ENDSEC
  0
SECTION
  2
BLOCKS
  0
BLOCK
  5
20
330
1F
100
AcDbEntity
  8
0
100
AcDbBlockBegin
  2
*Model_Space
 70
     0
 10
0.0
 20
0.0
 30
0.0
  3
*Model_Space
  1

  0
ENDBLK
  5
21
330
1F
100
AcDbEntity
  8
0
100
AcDbBlockEnd
  0
BLOCK
  5
1C
330
1B
100
AcDbEntity
 67
     1
  8
0
100
AcDbBlockBegin
  2
*Paper_Space
 70
     0
 10
0.0
 20
0.0
 30
0.0
  3
*Paper_Space
  1

  0
ENDBLK
  5
1D
330
1B
100
AcDbEntity
 67
     1
  8
0
100
AcDbBlockEnd
  0
BLOCK
  5
24
330
23
100
AcDbEntity
  8
0
100
AcDbBlockBegin
  2
*Paper_Space0
 70
     0
 10
0.0
 20
0.0
 30
0.0
  3
*Paper_Space0
  1

  0
ENDBLK
  5
25
330
23
100
AcDbEntity
  8
0
100
AcDbBlockEnd
  0
BLOCK
  5
1B0
330
1AF
100
AcDbEntity
  8
0
100
AcDbBlockBegin
  2
*D1
 70
     1
 10
0.0
 20
0.0
 30
0.0
  3
*D1
  1

  0
SOLID
  5
1B2
330
1AF
100
AcDbEntity
  8
VERMASSUNG
100
AcDbTrace
 10
36.8746478873
 20
159.7574214518
 30
0.0
 11
36.4246478873
 21
156.7574214518
 31
0.0
 12
37.3246478873
 22
156.7574214518
 32
0.0
 13
37.3246478873
 23
156.7574214518
 33
0.0
  0
SOLID
  5
1B3
330
1AF
100
AcDbEntity
  8
VERMASSUNG
100
AcDbTrace
 10
36.8746478873
 20
59.7574214518
 30
0.0
 11
37.3246478873
 21
62.7574214518
 31
0.0
 12
36.4246478873
 22
62.7574214518
 32
0.0
 13
36.4246478873
 23
62.7574214518
 33
0.0
  0
LINE
  5
1B4
330
1AF
100
AcDbEntity
  8
VERMASSUNG
100
AcDbLine
 10
92.1637351074
 20
159.7574214518
 30
0.0
 11
35.8746478873
 21
159.7574214518
 31
0.0
  0
LINE
  5
1B5
330
1AF
100
AcDbEntity
  8
VERMASSUNG
100
AcDbLine
 10
92.1637351074
 20
59.7574214518
 30
0.0
 11
35.8746478873
 21
59.7574214518
 31
0.0
  0
LINE
  5
1B6
330
1AF
100
AcDbEntity
  8
VERMASSUNG
100
AcDbLine
 10
36.8746478873
 20
159.7574214518
 30
0.0
 11
36.8746478873
 21
59.7574214518
 31
0.0
  0
MTEXT
  5
1B7
330
1AF
100
AcDbEntity
  8
VERMASSUNG
100
AcDbMText
 10
34.0965123983
 20
101.5537703142
 30
0.0
 40
2.0
 41
0.0
 71
     1
 72
     1
  1
HSK A 
  7
SLDTEXTSTYLE0
 11
-7.044195017643634E-15
 21
1.0
 31
0.0
 73
     1
 44
1.0
  0
MTEXT
  5
1B8
330
1AF
100
AcDbEntity
  8
VERMASSUNG
100
AcDbMText
 10
34.2965124078
 20
110.5537708581
 30
0.0
 40
2.0
 41
0.0
 71
     1
 72
     1
  1
%%c
  7
SLDTEXTSTYLE0
 11
-7.044195017643634E-15
 21
1.0
 31
0.0
 73
     1
 44
1.0
  0
MTEXT
  5
1B9
330
1AF
100
AcDbEntity
  8
VERMASSUNG
100
AcDbMText
 10
34.2965125242
 20
114.1620975081
 30
0.0
 40
2.0
 41
0.0
 71
     1
 72
     1
  1
100
  7
SLDTEXTSTYLE0
 11
-7.044195017643634E-15
 21
1.0
 31
0.0
 73
     1
 44
1.0
  0
ENDBLK
  5
1B1
330
1AF
100
AcDbEntity
  8
0
100
AcDbBlockEnd
  0
BLOCK
  5
1BD
330
1BC
100
AcDbEntity
  8
0
100
AcDbBlockBegin
  2
*D2
 70
     1
 10
0.0
 20
0.0
 30
0.0
  3
*D2
  1

  0
SOLID
  5
1BF
330
1BC
100
AcDbEntity
  8
VERMASSUNG
100
AcDbTrace
 10
205.1637351074
 20
157.7574214518
 30
0.0
 11
208.1637351074
 21
157.3074214518
 31
0.0
 12
208.1637351074
 22
158.2074214518
 32
0.0
 13
208.1637351074
 23
158.2074214518
 33
0.0
  0
SOLID
  5
1C0
330
1BC
100
AcDbEntity
  8
VERMASSUNG
100
AcDbTrace
 10
251.6637351074
 20
157.7574214518
 30
0.0
 11
248.6637351074
 21
158.2074214518
 31
0.0
 12
248.6637351074
 22
157.3074214518
 32
0.0
 13
248.6637351074
 23
157.3074214518
 33
0.0
  0
LINE
  5
1C1
330
1BC
100
AcDbEntity
  8
VERMASSUNG
100
AcDbLine
 10
205.1637351074
 20
116.6574214518
 30
0.0
 11
205.1637351074
 21
158.7574214518
 31
0.0
  0
LINE
  5
1C2
330
1BC
100
AcDbEntity
  8
VERMASSUNG
100
AcDbLine
 10
251.6637351074
 20
121.4086404685
 30
0.0
 11
251.6637351074
 21
158.7574214518
 31
0.0
  0
LINE
  5
1C3
330
1BC
100
AcDbEntity
  8
VERMASSUNG
100
AcDbLine
 10
205.1637351074
 20
157.7574214518
 30
0.0
 11
251.6637351074
 21
157.7574214518
 31
0.0
  0
MTEXT
  5
1C4
330
1BC
100
AcDbEntity
  8
VERMASSUNG
100
AcDbMText
 10
225.9143483252
 20
160.3355568149
 30
0.0
 40
2.0
 41
0.0
 71
     1
 72
     1
  1
46.5
  7
SLDTEXTSTYLE0
 73
     1
 44
1.0
  0
ENDBLK
  5
1BE
330
1BC
100
AcDbEntity
  8
0
100
AcDbBlockEnd
  0
BLOCK
  5
1C8
330
1C7
100
AcDbEntity
  8
0
100
AcDbBlockBegin
  2
*D3
 70
     1
 10
0.0
 20
0.0
 30
0.0
  3
*D3
  1

  0
SOLID
  5
1CA
330
1C7
100
AcDbEntity
  8
VERMASSUNG
100
AcDbTrace
 10
261.7736248278
 20
102.7574214518
 30
0.0
 11
262.2236248278
 21
105.7574214518
 31
0.0
 12
261.3236248278
 22
105.7574214518
 32
0.0
 13
261.3236248278
 23
105.7574214518
 33
0.0
  0
SOLID
  5
1CB
330
1C7
100
AcDbEntity
  8
VERMASSUNG
100
AcDbTrace
 10
261.7736248278
 20
116.7574214518
 30
0.0
 11
261.3236248278
 21
113.7574214518
 31
0.0
 12
262.2236248278
 22
113.7574214518
 32
0.0
 13
262.2236248278
 23
113.7574214518
 33
0.0
  0
LINE
  5
1CC
330
1C7
100
AcDbEntity
  8
VERMASSUNG
100
AcDbLine
 10
248.1637351074
 20
102.7574214518
 30
0.0
 11
262.7736248278
 21
102.7574214518
 31
0.0
  0
LINE
  5
1CD
330
1C7
100
AcDbEntity
  8
VERMASSUNG
100
AcDbLine
 10
248.1637351074
 20
116.7574214518
 30
0.0
 11
262.7736248278
 21
116.7574214518
 31
0.0
  0
LINE
  5
1CE
330
1C7
100
AcDbEntity
  8
VERMASSUNG
100
AcDbLine
 10
261.7736248278
 20
102.7574214518
 30
0.0
 11
261.7736248278
 21
116.7574214518
 31
0.0
  0
MTEXT
  5
1CF
330
1C7
100
AcDbEntity
  8
VERMASSUNG
100
AcDbMText
 10
259.1954893482
 20
106.0535947996
 30
0.0
 40
2.0
 41
0.0
 71
     1
 72
     1
  1
%%c
  7
SLDTEXTSTYLE0
 11
6.123233995736766E-17
 21
1.0
 31
0.0
 73
     1
 44
1.0
  0
MTEXT
  5
1D0
330
1C7
100
AcDbEntity
  8
VERMASSUNG
100
AcDbMText
 10
259.1954894646
 20
109.6622730228
 30
0.0
 40
2.0
 41
0.0
 71
     1
 72
     1
  1
14
  7
SLDTEXTSTYLE0
 11
6.123233995736766E-17
 21
1.0
 31
0.0
 73
     1
 44
1.0
  0
MTEXT
  5
1D1
330
1C7
100
AcDbEntity
  8
VERMASSUNG
100
AcDbMText
 10
259.1954894646
 20
112.2614496208
 30
0.0
 40
2.0
 41
0.0
 71
     1
 72
     1
  1
 
  7
SLDTEXTSTYLE0
 11
6.123233995736766E-17
 21
1.0
 31
0.0
 73
     1
 44
1.0
  0
ENDBLK
  5
1C9
330
1C7
100
AcDbEntity
  8
0
100
AcDbBlockEnd
  0
BLOCK
  5
1D5
330
1D4
100
AcDbEntity
  8
0
100
AcDbBlockBegin
  2
*D4
 70
     1
 10
0.0
 20
0.0
 30
0.0
  3
*D4
  1

  0
SOLID
  5
1D7
330
1D4
100
AcDbEntity
  8
VERMASSUNG
100
AcDbTrace
 10
267.7736248278
 20
96.2574214518
 30
0.0
 11
268.2236248278
 21
99.2574214518
 31
0.0
 12
267.3236248278
 22
99.2574214518
 32
0.0
 13
267.3236248278
 23
99.2574214518
 33
0.0
  0
SOLID
  5
1D8
330
1D4
100
AcDbEntity
  8
VERMASSUNG
100
AcDbTrace
 10
267.7736248278
 20
123.2574214518
 30
0.0
 11
267.3236248278
 21
120.2574214518
 31
0.0
 12
268.2236248278
 22
120.2574214518
 32
0.0
 13
268.2236248278
 23
120.2574214518
 33
0.0
  0
LINE
  5
1D9
330
1D4
100
AcDbEntity
  8
VERMASSUNG
100
AcDbLine
 10
251.6637351074
 20
96.2574214518
 30
0.0
 11
268.7736248278
 21
96.2574214518
 31
0.0
  0
LINE
  5
1DA
330
1D4
100
AcDbEntity
  8
VERMASSUNG
100
AcDbLine
 10
251.6637351074
 20
123.2574214518
 30
0.0
 11
268.7736248278
 21
123.2574214518
 31
0.0
  0
LINE
  5
1DB
330
1D4
100
AcDbEntity
  8
VERMASSUNG
100
AcDbLine
 10
267.7736248278
 20
96.2574214518
 30
0.0
 11
267.7736248278
 21
123.2574214518
 31
0.0
  0
MTEXT
  5
1DC
330
1D4
100
AcDbEntity
  8
VERMASSUNG
100
AcDbMText
 10
265.1954893482
 20
106.5537042254
 30
0.0
 40
2.0
 41
0.0
 71
     1
 72
     1
  1
%%c
  7
SLDTEXTSTYLE0
 11
6.123233995736766E-17
 21
1.0
 31
0.0
 73
     1
 44
1.0
  0
MTEXT
  5
1DD
330
1D4
100
AcDbEntity
  8
VERMASSUNG
100
AcDbMText
 10
265.1954894646
 20
110.1623824485
 30
0.0
 40
2.0
 41
0.0
 71
     1
 72
     1
  1
27
  7
SLDTEXTSTYLE0
 11
6.123233995736766E-17
 21
1.0
 31
0.0
 73
     1
 44
1.0
  0
ENDBLK
  5
1D6
330
1D4
100
AcDbEntity
  8
0
100
AcDbBlockEnd
  0
BLOCK
  5
1E0
330
1DF
100
AcDbEntity
  8
0
100
AcDbBlockBegin
  2
*D5
 70
     1
 10
0.0
 20
0.0
 30
0.0
  3
*D5
  1

  0
SOLID
  5
1E2
330
1DF
100
AcDbEntity
  8
VERMASSUNG
100
AcDbTrace
 10
91.6637351074
 20
169.7574214518
 30
0.0
 11
94.6637351074
 21
169.3074214518
 31
0.0
 12
94.6637351074
 22
170.2074214518
 32
0.0
 13
94.6637351074
 23
170.2074214518
 33
0.0
  0
SOLID
  5
1E3
330
1DF
100
AcDbEntity
  8
VERMASSUNG
100
AcDbTrace
 10
251.6637351074
 20
169.7574214518
 30
0.0
 11
248.6637351074
 21
170.2074214518
 31
0.0
 12
248.6637351074
 22
169.3074214518
 32
0.0
 13
248.6637351074
 23
169.3074214518
 33
0.0
  0
LINE
  5
1E4
330
1DF
100
AcDbEntity
  8
VERMASSUNG
100
AcDbLine
 10
91.6637351074
 20
159.2574214518
 30
0.0
 11
91.6637351074
 21
170.7574214518
 31
0.0
  0
LINE
  5
1E5
330
1DF
100
AcDbEntity
  8
VERMASSUNG
100
AcDbLine
 10
251.6637351074
 20
121.4086404685
 30
0.0
 11
251.6637351074
 21
170.7574214518
 31
0.0
  0
LINE
  5
1E6
330
1DF
100
AcDbEntity
  8
VERMASSUNG
100
AcDbLine
 10
91.6637351074
 20
169.7574214518
 30
0.0
 11
251.6637351074
 21
169.7574214518
 31
0.0
  0
MTEXT
  5
1E7
330
1DF
100
AcDbEntity
  8
VERMASSUNG
100
AcDbMText
 10
169.7642475668
 20
172.3355568149
 30
0.0
 40
2.0
 41
0.0
 71
     1
 72
     1
  1
160
  7
SLDTEXTSTYLE0
 73
     1
 44
1.0
  0
ENDBLK
  5
1E1
330
1DF
100
AcDbEntity
  8
0
100
AcDbBlockEnd
  0
BLOCK
  5
1EA
330
1E9
100
AcDbEntity
  8
0
100
AcDbBlockBegin
  2
*D6
 70
     1
 10
0.0
 20
0.0
 30
0.0
  3
*D6
  1

  0
SOLID
  5
1EC
330
1E9
100
AcDbEntity
  8
VERMASSUNG
100
AcDbTrace
 10
120.6137351074
 20
163.7574214518
 30
0.0
 11
123.6137351074
 21
163.3074214518
 31
0.0
 12
123.6137351074
 22
164.2074214518
 32
0.0
 13
123.6137351074
 23
164.2074214518
 33
0.0
  0
SOLID
  5
1ED
330
1E9
100
AcDbEntity
  8
VERMASSUNG
100
AcDbTrace
 10
251.6637351074
 20
163.7574214518
 30
0.0
 11
248.6637351074
 21
164.2074214518
 31
0.0
 12
248.6637351074
 22
163.3074214518
 32
0.0
 13
248.6637351074
 23
163.3074214518
 33
0.0
  0
LINE
  5
1EE
330
1E9
100
AcDbEntity
  8
VERMASSUNG
100
AcDbLine
 10
120.6137351074
 20
157.7261612726
 30
0.0
 11
120.6137351074
 21
164.7574214518
 31
0.0
  0
LINE
  5
1EF
330
1E9
100
AcDbEntity
  8
VERMASSUNG
100
AcDbLine
 10
251.6637351074
 20
121.4086404685
 30
0.0
 11
251.6637351074
 21
164.7574214518
 31
0.0
  0
LINE
  5
1F0
330
1E9
100
AcDbEntity
  8
VERMASSUNG
100
AcDbLine
 10
120.6137351074
 20
163.7574214518
 30
0.0
 11
251.6637351074
 21
163.7574214518
 31
0.0
  0
MTEXT
  5
1F1
330
1E9
100
AcDbEntity
  8
VERMASSUNG
100
AcDbMText
 10
182.7389192894
 20
166.3355568149
 30
0.0
 40
2.0
 41
0.0
 71
     1
 72
     1
  1
131.05
  7
SLDTEXTSTYLE0
 73
     1
 44
1.0
  0
ENDBLK
  5
1EB
330
1E9
100
AcDbEntity
  8
0
100
AcDbBlockEnd
  0
BLOCK
  5
1F4
330
1F3
100
AcDbEntity
  8
0
100
AcDbBlockBegin
  2
*D7
 70
     1
 10
0.0
 20
0.0
 30
0.0
  3
*D7
  1

  0
SOLID
  5
1F6
330
1F3
100
AcDbEntity
  8
VERMASSUNG
100
AcDbTrace
 10
41.7637351074
 20
175.7574214518
 30
0.0
 11
44.7637351074
 21
175.3074214518
 31
0.0
 12
44.7637351074
 22
176.2074214518
 32
0.0
 13
44.7637351074
 23
176.2074214518
 33
0.0
  0
SOLID
  5
1F7
330
1F3
100
AcDbEntity
  8
VERMASSUNG
100
AcDbTrace
 10
251.6637351074
 20
175.7574214518
 30
0.0
 11
248.6637351074
 21
176.2074214518
 31
0.0
 12
248.6637351074
 22
175.3074214518
 32
0.0
 13
248.6637351074
 23
175.3074214518
 33
0.0
  0
LINE
  5
1F8
330
1F3
100
AcDbEntity
  8
VERMASSUNG
100
AcDbLine
 10
41.7637351074
 20
140.2600911944
 30
0.0
 11
41.7637351074
 21
176.7574214518
 31
0.0
  0
LINE
  5
1F9
330
1F3
100
AcDbEntity
  8
VERMASSUNG
100
AcDbLine
 10
251.6637351074
 20
121.4086404685
 30
0.0
 11
251.6637351074
 21
176.7574214518
 31
0.0
  0
LINE
  5
1FA
330
1F3
100
AcDbEntity
  8
VERMASSUNG
100
AcDbLine
 10
41.7637351074
 20
175.7574214518
 30
0.0
 11
251.6637351074
 21
175.7574214518
 31
0.0
  0
MTEXT
  5
1FB
330
1F3
100
AcDbEntity
  8
VERMASSUNG
100
AcDbMText
 10
143.6144490836
 20
178.3355568149
 30
0.0
 40
2.0
 41
0.0
 71
     1
 72
     1
  1
209.9
  7
SLDTEXTSTYLE0
 73
     1
 44
1.0
  0
ENDBLK
  5
1F5
330
1F3
100
AcDbEntity
  8
0
100
AcDbBlockEnd
  0
BLOCK
  5
1FE
330
1FD
100
AcDbEntity
  8
0
100
AcDbBlockBegin
  2
*D8
 70
     1
 10
0.0
 20
0.0
 30
0.0
  3
*D8
  1

  0
SOLID
  5
200
330
1FD
100
AcDbEntity
  8
VERMASSUNG
100
AcDbTrace
 10
273.7736248278
 20
128.2574214518
 30
0.0
 11
273.3236248278
 21
125.2574214518
 31
0.0
 12
274.2236248278
 22
125.2574214518
 32
0.0
 13
274.2236248278
 23
125.2574214518
 33
0.0
  0
SOLID
  5
201
330
1FD
100
AcDbEntity
  8
VERMASSUNG
100
AcDbTrace
 10
273.7736248278
 20
91.2574214518
 30
0.0
 11
274.2236248278
 21
94.2574214518
 31
0.0
 12
273.3236248278
 22
94.2574214518
 32
0.0
 13
273.3236248278
 23
94.2574214518
 33
0.0
  0
LINE
  5
202
330
1FD
100
AcDbEntity
  8
VERMASSUNG
100
AcDbLine
 10
169.6137351074
 20
128.2574214518
 30
0.0
 11
274.7736248278
 21
128.2574214518
 31
0.0
  0
LINE
  5
203
330
1FD
100
AcDbEntity
  8
VERMASSUNG
100
AcDbLine
 10
169.6137351074
 20
91.2574214518
 30
0.0
 11
274.7736248278
 21
91.2574214518
 31
0.0
  0
LINE
  5
204
330
1FD
100
AcDbEntity
  8
VERMASSUNG
100
AcDbLine
 10
273.7736248278
 20
128.2574214518
 30
0.0
 11
273.7736248278
 21
91.2574214518
 31
0.0
  0
MTEXT
  5
205
330
1FD
100
AcDbEntity
  8
VERMASSUNG
100
AcDbMText
 10
271.1954893482
 20
106.5537042254
 30
0.0
 40
2.0
 41
0.0
 71
     1
 72
     1
  1
%%c
  7
SLDTEXTSTYLE0
 11
-7.044195017643634E-15
 21
1.0
 31
0.0
 73
     1
 44
1.0
  0
MTEXT
  5
206
330
1FD
100
AcDbEntity
  8
VERMASSUNG
100
AcDbMText
 10
271.1954894646
 20
110.1623824485
 30
0.0
 40
2.0
 41
0.0
 71
     1
 72
     1
  1
37
  7
SLDTEXTSTYLE0
 11
-7.044195017643634E-15
 21
1.0
 31
0.0
 73
     1
 44
1.0
  0
ENDBLK
  5
1FF
330
1FD
100
AcDbEntity
  8
0
100
AcDbBlockEnd
  0
ENDSEC
  0
SECTION
  2
ENTITIES
  0
MTEXT
  5
45
330
1F
100
AcDbEntity
  8
KOPF_DÜNN
100
AcDbMText
 10
13.8892156294
 20
23.8442973028
 30
0.0
 40
3.0
 41
0.0
 71
     1
 72
     1
  1
HA0.S14.K21.160
  7
SLDTEXTSTYLE0
 73
     1
 44
1.0
  0
MTEXT
  5
46
330
1F
100
AcDbEntity
  8
VERMASSUNG
100
AcDbMText
 10
13.9329988022
 20
28.8834360957
 30
0.0
 40
3.0
 41
0.0
 71
     1
 72
     1
  1
Schrumpffutter_Heat shrink chuck
  7
SLDTEXTSTYLE0
 73
     1
 44
1.0
  0
MTEXT
  5
47
330
1F
100
AcDbEntity
  8
VERMASSUNG
100
AcDbMText
 10
98.8601118557
 20
13.8365368179
 30
0.0
 40
2.0
 41
0.0
 71
     1
 72
     1
  1
Datum: 02.05.2011
  7
SLDTEXTSTYLE0
 73
     1
 44
1.0
  0
MTEXT
  5
49
330
1F
100
AcDbEntity
  8
VERMASSUNG
100
AcDbMText
 10
13.933048693
 20
18.0482802738
 30
0.0
 40
2.0
 41
0.0
 71
     1
 72
     1
  1
DIN 69 893 HSK A 100
  7
SLDTEXTSTYLE1
 73
     1
 44
1.0
  0
MTEXT
  5
4A
330
1F
100
AcDbEntity
  8
VERMASSUNG
100
AcDbMText
 10
13.9808475933
 20
13.9090973692
 30
0.0
 40
2.0
 41
0.0
 71
     1
 72
     1
  1
Gewicht: 2869g
  7
SLDTEXTSTYLE0
 73
     1
 44
1.0
  0
LINE
  5
4B
330
1F
100
AcDbEntity
  8
0
  6
Continuous
 62
     7
370
    15
100
AcDbLine
 10
92.1637351074
 20
59.7574214518
 30
0.0
 11
96.6137351074
 21
59.7574214518
 31
0.0
  0
LINE
  5
4C
330
1F
100
AcDbEntity
  8
0
  6
Continuous
 62
     7
370
    15
100
AcDbLine
 10
96.6478079399
 20
159.7574214518
 30
0.0
 11
92.1637351074
 21
159.7574214518
 31
0.0
  0
ARC
  5
4D
330
1F
100
AcDbEntity
  8
0
  6
Continuous
 62
     7
370
    15
100
AcDbCircle
 10
92.1637351074
 20
60.2574214518
 30
0.0
 40
0.5
100
AcDbArc
 50
180.0
 51
270.0
  0
ARC
  5
4E
330
1F
100
AcDbEntity
  8
0
  6
Continuous
 62
     7
370
    15
100
AcDbCircle
 10
92.1637351074
 20
159.2574214518
 30
0.0
 40
0.5
100
AcDbArc
 50
90.0
 51
180.0
  0
ARC
  5
4F
330
1F
100
AcDbEntity
  8
0
  6
Continuous
 62
     7
370
    15
100
AcDbCircle
 10
90.766798189
 20
71.1289361273
 30
0.0
 40
0.9962338214386793
100
AcDbArc
 50
25.7988228126
 51
90.0
  0
ARC
  5
50
330
1F
100
AcDbEntity
  8
0
  6
Continuous
 62
     7
370
    15
100
AcDbCircle
 10
90.766798189
 20
148.3859067762
 30
0.0
 40
0.9962338214386793
100
AcDbArc
 50
270.0
 51
334.2011771874
  0
LINE
  5
51
330
1F
100
AcDbEntity
  8
0
  6
Continuous
 62
     7
370
    15
100
AcDbLine
 10
89.1637351074
 20
71.8751699488
 30
0.0
 11
89.9695812618
 21
72.0910957751
 31
0.0
  0
LINE
  5
52
330
1F
100
AcDbEntity
  8
0
  6
Continuous
 62
     7
370
    15
100
AcDbLine
 10
89.9695812618
 20
147.4237471285
 30
0.0
 11
89.1637351074
 21
147.6396729548
 31
0.0
  0
LINE
  5
53
330
1F
100
AcDbEntity
  8
0
  6
Continuous
 62
     7
370
    15
100
AcDbLine
 10
70.1830561888
 20
146.6887371372
 30
0.0
 11
51.8637351074
 21
145.7709354798
 31
0.0
  0
LINE
  5
54
330
1F
100
AcDbEntity
  8
0
  6
Continuous
 62
     7
370
    15
100
AcDbLine
 10
89.1637351074
 20
147.6396729548
 30
0.0
 11
83.095695953
 21
147.3356629771
 31
0.0
  0
LINE
  5
55
330
1F
100
AcDbEntity
  8
0
  6
Continuous
 62
     7
370
    15
100
AcDbLine
 10
83.0958192294
 20
72.1791737503
 30
0.0
 11
89.1637351074
 21
71.8751699488
 31
0.0
  0
LINE
  5
56
330
1F
100
AcDbEntity
  8
0
  6
Continuous
 62
     7
370
    15
100
AcDbLine
 10
56.8637351074
 20
73.4934064217
 30
0.0
 11
70.1836862614
 21
72.8260741996
 31
0.0
  0
ARC
  5
57
330
1F
100
AcDbEntity
  8
0
  6
Continuous
 62
     7
370
    15
100
AcDbCircle
 10
90.2284003069
 20
71.1251699488
 30
0.0
 40
0.9999999999999957
100
AcDbArc
 50
90.0
 51
105.0
  0
ARC
  5
58
330
1F
100
AcDbEntity
  8
0
  6
Continuous
 62
     7
370
    15
100
AcDbCircle
 10
90.2284003069
 20
148.3896729548
 30
0.0
 40
0.9999999999999716
100
AcDbArc
 50
255.0
 51
270.0
  0
LINE
  5
59
330
1F
100
AcDbEntity
  8
0
  6
Continuous
 62
     7
370
    15
100
AcDbLine
 10
90.2284003069
 20
72.1251699488
 30
0.0
 11
90.766798189
 21
72.1251699488
 31
0.0
  0
LINE
  5
5A
330
1F
100
AcDbEntity
  8
0
  6
Continuous
 62
     7
370
    15
100
AcDbLine
 10
90.766798189
 20
147.3896729548
 30
0.0
 11
90.2284003069
 21
147.3896729548
 31
0.0
  0
ARC
  5
5B
330
1F
100
AcDbEntity
  8
0
  6
Continuous
 62
     7
370
    15
100
AcDbCircle
 10
125.6137351074
 20
82.3398017457
 30
0.0
 40
5.0
100
AcDbArc
 50
106.5116637356
 51
180.0
  0
ARC
  5
5C
330
1F
100
AcDbEntity
  8
0
  6
Continuous
 62
     7
370
    15
100
AcDbCircle
 10
125.6137351074
 20
137.1750411579
 30
0.0
 40
5.0
100
AcDbArc
 50
180.0
 51
253.4883362644
  0
ARC
  5
5D
330
1F
100
AcDbEntity
  8
0
  6
Continuous
 62
     7
370
    15
100
AcDbCircle
 10
152.6137351074
 20
-8.7425785482
 30
0.0
 40
100.0
100
AcDbArc
 50
90.0
 51
106.5116637356
  0
ARC
  5
5E
330
1F
100
AcDbEntity
  8
0
  6
Continuous
 62
     7
370
    15
100
AcDbCircle
 10
152.6137351074
 20
228.2574214518
 30
0.0
 40
100.0
100
AcDbArc
 50
253.4883362644
 51
270.0
  0
LINE
  5
5F
330
1F
100
AcDbEntity
  8
0
  6
Continuous
 62
     7
370
    15
100
AcDbLine
 10
164.1124556977
 20
91.2574214518
 30
0.0
 11
169.6137351074
 21
91.2574214518
 31
0.0
  0
LINE
  5
60
330
1F
100
AcDbEntity
  8
0
  6
Continuous
 62
     7
370
    15
100
AcDbLine
 10
152.6137351074
 20
91.2574214518
 30
0.0
 11
157.1241913472
 21
91.2574214518
 31
0.0
  0
LINE
  5
61
330
1F
100
AcDbEntity
  8
0
  6
Continuous
 62
     7
370
    15
100
AcDbLine
 10
157.1203087932
 20
128.2574214518
 30
0.0
 11
152.6137351074
 21
128.2574214518
 31
0.0
  0
LINE
  5
62
330
1F
100
AcDbEntity
  8
0
  6
Continuous
 62
     7
370
    15
100
AcDbLine
 10
169.6137351074
 20
128.2574214518
 30
0.0
 11
164.1070496447
 21
128.2574214518
 31
0.0
  0
ARC
  5
63
330
1F
100
AcDbEntity
  8
0
  6
Continuous
 62
     7
370
    15
100
AcDbCircle
 10
203.7860923571
 20
-297.2425785482
 30
0.0
 40
390.0
100
AcDbArc
 50
90.0
 51
95.026784317
  0
ARC
  5
64
330
1F
100
AcDbEntity
  8
0
  6
Continuous
 62
     7
370
    15
100
AcDbCircle
 10
203.7860923571
 20
516.7574214518
 30
0.0
 40
390.0
100
AcDbArc
 50
264.973215683
 51
270.0
  0
LINE
  5
65
330
1F
100
AcDbEntity
  8
0
  6
Continuous
 62
     7
370
    15
100
AcDbLine
 10
43.4137351074
 20
77.5074214518
 30
0.0
 11
54.9637351074
 21
77.5074214518
 31
0.0
  0
LINE
  5
66
330
1F
100
AcDbEntity
  8
0
  6
Continuous
 62
     7
370
    15
100
AcDbLine
 10
203.7860923571
 20
92.7574214518
 30
0.0
 11
207.1920185308
 21
92.7574214518
 31
0.0
  0
LINE
  5
67
330
1F
100
AcDbEntity
  8
0
  6
Continuous
 62
     7
370
    15
100
AcDbLine
 10
207.1920185308
 20
126.7574214518
 30
0.0
 11
203.7860923571
 21
126.7574214518
 31
0.0
  0
LINE
  5
68
330
1F
100
AcDbEntity
  8
0
  6
Continuous
 62
     7
370
    15
100
AcDbLine
 10
207.1920185308
 20
92.7574214518
 30
0.0
 11
249.8206532989
 21
96.1123677676
 31
0.0
  0
LINE
  5
69
330
1F
100
AcDbEntity
  8
0
  6
Continuous
 62
     7
370
    15
100
AcDbLine
 10
249.8206532989
 20
123.4024751359
 30
0.0
 11
207.1920185308
 21
126.7574214518
 31
0.0
  0
ARC
  5
6A
330
1F
100
AcDbEntity
  8
0
  6
Continuous
 62
     7
370
    15
100
AcDbCircle
 10
54.9637351074
 20
75.6074214518
 30
0.0
 40
1.900000000000007
100
AcDbArc
 50
35.6630613694
 51
90.0
  0
ARC
  5
6B
330
1F
100
AcDbEntity
  8
0
  6
Continuous
 62
     7
370
    15
100
AcDbCircle
 10
49.9637351074
 20
143.9074214518
 30
0.0
 40
1.899999999999995
100
AcDbArc
 50
270.0
 51
312.7708047792
  0
LINE
  5
6C
330
1F
100
AcDbEntity
  8
0
  6
Continuous
 62
     7
370
    15
100
AcDbLine
 10
43.4137351074
 20
142.0074214518
 30
0.0
 11
41.8214486425
 21
140.4151349869
 31
0.0
  0
LINE
  5
6D
330
1F
100
AcDbEntity
  8
0
  6
Continuous
 62
     7
370
    15
100
AcDbLine
 10
41.8212580079
 20
79.0998985513
 30
0.0
 11
43.4137351074
 21
77.5074214518
 31
0.0
  0
LINE
  5
6E
330
1F
100
AcDbEntity
  8
0
  6
Continuous
 62
     7
370
    15
100
AcDbLine
 10
49.9637351074
 20
142.0074214518
 30
0.0
 11
43.4137351074
 21
142.0074214518
 31
0.0
  0
ARC
  5
6F
330
1F
100
AcDbEntity
  8
0
  6
Continuous
 62
     7
370
    15
100
AcDbCircle
 10
249.6637351074
 20
98.1062024351
 30
0.0
 40
2.000000000000016
100
AcDbArc
 50
274.5
 51
0.0
  0
ARC
  5
70
330
1F
100
AcDbEntity
  8
0
  6
Continuous
 62
     7
370
    15
100
AcDbCircle
 10
249.6637351074
 20
121.4086404685
 30
0.0
 40
2.000000000000016
100
AcDbArc
 50
0.0
 51
85.5
  0
LINE
  5
71
330
1F
100
AcDbEntity
  8
0
  6
Continuous
 62
     7
370
    15
100
AcDbLine
 10
251.6637351074
 20
98.3930531914
 30
0.0
 11
251.7410573146
 21
98.5400185339
 31
0.0
  0
LINE
  5
72
330
1F
100
AcDbEntity
  8
0
  6
Continuous
 62
     7
370
    15
100
AcDbLine
 10
251.6821675909
 20
120.9771381533
 30
0.0
 11
251.6637351074
 21
121.0121725418
 31
0.0
  0
SPLINE
  5
73
330
1F
100
AcDbEntity
  8
0
  6
Continuous
 62
     7
370
    15
100
AcDbSpline
210
0.0
220
0.0
230
1.0
 70
     8
 71
     3
 72
    80
 73
    76
 74
     0
 42
0.00000001
 43
0.00000001
 40
-0.0312499999999993
 40
-0.0312499999999993
 40
0.0
 40
0.0
 40
0.0312500000000006
 40
0.0312500000000006
 40
0.0468750000000008
 40
0.0468750000000008
 40
0.062500000000001
 40
0.062500000000001
 40
0.0937500000000012
 40
0.0937500000000012
 40
0.1250000000000014
 40
0.1250000000000014
 40
0.1562500000000016
 40
0.1562500000000016
 40
0.1875000000000017
 40
0.1875000000000017
 40
0.2187500000000019
 40
0.2187500000000019
 40
0.2500000000000021
 40
0.2500000000000021
 40
0.2812500000000023
 40
0.2812500000000023
 40
0.3125000000000025
 40
0.3125000000000025
 40
0.3281250000000026
 40
0.3281250000000026
 40
0.3437500000000028
 40
0.3437500000000028
 40
0.3750000000000032
 40
0.3750000000000032
 40
0.4062500000000037
 40
0.4062500000000037
 40
0.4218750000000038
 40
0.4218750000000038
 40
0.4375000000000038
 40
0.4375000000000038
 40
0.4687500000000037
 40
0.4687500000000037
 40
0.5000000000000036
 40
0.5000000000000036
 40
0.5312500000000036
 40
0.5312500000000036
 40
0.5625000000000034
 40
0.5625000000000034
 40
0.5937500000000034
 40
0.5937500000000034
 40
0.6250000000000034
 40
0.6250000000000034
 40
0.6562500000000033
 40
0.6562500000000033
 40
0.6875000000000033
 40
0.6875000000000033
 40
0.7031250000000033
 40
0.7031250000000033
 40
0.7187500000000033
 40
0.7187500000000033
 40
0.7500000000000036
 40
0.7500000000000036
 40
0.7812500000000039
 40
0.7812500000000039
 40
0.7968750000000038
 40
0.7968750000000038
 40
0.8125000000000037
 40
0.8125000000000037
 40
0.8437500000000031
 40
0.8437500000000031
 40
0.8750000000000024
 40
0.8750000000000024
 40
0.9062500000000019
 40
0.9062500000000019
 40
0.9375000000000013
 40
0.9375000000000013
 40
0.9687500000000007
 40
0.9687500000000007
 40
1.0
 40
1.0
 40
1.031250000000001
 40
1.031250000000001
 10
100.3331897946509
 20
153.172050915419
 30
0.0
 10
100.9942804202035
 20
153.172050915419
 30
0.0
 10
101.3192605494551
 20
153.1882591468012
 30
0.0
 10
101.7987339607015
 20
153.2356237788208
 30
0.0
 10
101.9572157785423
 20
153.2552779907114
 30
0.0
 10
102.2714353110466
 20
153.302389146904
 30
0.0
 10
102.427555594727
 20
153.3299704663987
 30
0.0
 10
102.8816096236836
 20
153.4225062531925
 30
0.0
 10
103.1687130066234
 20
153.497576686789
 30
0.0
 10
103.7120675626504
 20
153.6728149953996
 30
0.0
 10
103.969171173856
 20
153.7738162932379
 30
0.0
 10
104.4300774287948
 20
153.9911724916987
 30
0.0
 10
104.6369751380098
 20
154.108336823471
 30
0.0
 10
105.002500452002
 20
154.3584067476997
 30
0.0
 10
105.1577059741279
 20
154.4893528364586
 30
0.0
 10
105.4071363607276
 20
154.755087780171
 30
0.0
 10
105.5032263165128
 20
154.891841373482
 30
0.0
 10
105.6317451657064
 20
155.1659069483209
 30
0.0
 10
105.6635560358842
 20
155.3008470387898
 30
0.0
 10
105.6639126856575
 20
155.5663186758585
 30
0.0
 10
105.6314154334604
 20
155.6981431529998
 30
0.0
 10
105.5037899597459
 20
155.9475927526201
 30
0.0
 10
105.409361558694
 20
156.0660254445481
 30
0.0
 10
105.2215007387085
 20
156.2348946416422
 30
0.0
 10
105.1506727399053
 20
156.2899806367624
 30
0.0
 10
104.99595084794
 20
156.3952334652509
 30
0.0
 10
104.9119743777566
 20
156.4455686940112
 30
0.0
 10
104.6406507081121
 20
156.5901445265492
 30
0.0
 10
104.4341014895098
 20
156.6780061129662
 30
0.0
 10
103.9674913493208
 20
156.8377272059657
 30
0.0
 10
103.7151257796953
 20
156.906965502433
 30
0.0
 10
103.3092244380166
 20
156.9967528916628
 30
0.0
 10
103.1693238205391
 20
157.0243188537491
 30
0.0
 10
102.8800998852922
 20
157.0748096546753
 30
0.0
 10
102.7302604290029
 20
157.097773093526
 30
0.0
 10
102.2761438593921
 20
157.1584036099449
 30
0.0
 10
101.9644926406553
 20
157.1884776387406
 30
0.0
 10
101.3234961757429
 20
157.2290672259993
 30
0.0
 10
100.9919685477907
 20
157.2393794562153
 30
0.0
 10
100.3391775027193
 20
157.2394550233811
 30
0.0
 10
100.0146412976874
 20
157.2295534179134
 30
0.0
 10
99.36937184827102
 20
157.1890668873881
 30
0.0
 10
99.05362884210831
 20
157.1586055875034
 30
0.0
 10
98.4517395471246
 20
157.0784549160669
 30
0.0
 10
98.16099031631315
 20
157.0281726842597
 30
0.0
 10
97.61407852462864
 20
156.9075025014867
 30
0.0
 10
97.36230116079173
 20
156.8382786423167
 30
0.0
 10
96.90091316817059
 20
156.6808269146761
 30
0.0
 10
96.6896438885725
 20
156.5914784400023
 30
0.0
 10
96.3263395361963
 20
156.3982305693015
 30
0.0
 10
96.17253288775352
 20
156.2941025774222
 30
0.0
 10
95.9839134181561
 20
156.1254781912387
 30
0.0
 10
95.927882931947
 20
156.0668497895637
 30
0.0
 10
95.83230917021083
 20
155.9473948747376
 30
0.0
 10
95.79254625318583
 20
155.8864750858994
 30
0.0
 10
95.6967745028737
 20
155.7000703597255
 30
0.0
 10
95.66405166374759
 20
155.5709575419305
 30
0.0
 10
95.6634230774185
 20
155.3023006189746
 30
0.0
 10
95.69560922215328
 20
155.1669298782178
 30
0.0
 10
95.79051992400886
 20
154.9633795699818
 30
0.0
 10
95.82998670740781
 20
154.8954076459184
 30
0.0
 10
95.9249167061287
 20
154.7593154227875
 30
0.0
 10
95.98067353389207
 20
154.6909653225781
 30
0.0
 10
96.16861365186196
 20
154.490262309536
 30
0.0
 10
96.32197512157813
 20
154.3608740357232
 30
0.0
 10
96.68423935645849
 20
154.1122086036734
 30
0.0
 10
96.89508782992439
 20
153.9923989613052
 30
0.0
 10
97.35575780024332
 20
153.7748766737325
 30
0.0
 10
97.60713217982715
 20
153.6757915738966
 30
0.0
 10
98.15304006672528
 20
153.4991190999798
 30
0.0
 10
98.4438626413765
 20
153.4230620118458
 30
0.0
 10
99.04518925615653
 20
153.3002170344928
 30
0.0
 10
99.35970784076892
 20
153.2525109094396
 30
0.0
 10
100.0062892968889
 20
153.18826237432
 30
0.0
 10
100.3331897946509
 20
153.172050915419
 30
0.0
 10
100.9942804202035
 20
153.172050915419
 30
0.0
  0
LINE
  5
74
330
1F
100
AcDbEntity
  8
0
  6
Continuous
 62
     7
370
    15
100
AcDbLine
 10
96.6137351074
 20
141.1074214518
 30
0.0
 11
108.4017060865
 21
141.1074214518
 31
0.0
  0
LINE
  5
75
330
1F
100
AcDbEntity
  8
0
  6
Continuous
 62
     7
370
    15
100
AcDbLine
 10
108.4017060865
 20
60.9824278588
 30
0.0
 11
108.4017060865
 21
141.1074214518
 31
0.0
  0
LINE
  5
76
330
1F
100
AcDbEntity
  8
0
  6
Continuous
 62
     7
370
    15
100
AcDbLine
 10
108.4017060865
 20
60.9824278588
 30
0.0
 11
106.6137351074
 21
60.9824278588
 31
0.0
  0
SPLINE
  5
77
330
1F
100
AcDbEntity
  8
0
  6
Continuous
 62
     7
370
    15
100
AcDbSpline
210
0.0
220
0.0
230
1.0
 70
     8
 71
     3
 72
    30
 73
    26
 74
     0
 42
0.00000001
 43
0.00000001
 40
0.0
 40
0.0
 40
0.0
 40
0.0
 40
0.1249999999999998
 40
0.1249999999999998
 40
0.1874999999999996
 40
0.1874999999999996
 40
0.2499999999999995
 40
0.2499999999999995
 40
0.3749999999999994
 40
0.3749999999999994
 40
0.4374999999999993
 40
0.4374999999999993
 40
0.4999999999999992
 40
0.4999999999999992
 40
0.6249999999999996
 40
0.6249999999999996
 40
0.6874999999999997
 40
0.6874999999999997
 40
0.7499999999999998
 40
0.7499999999999998
 40
0.8124999999999999
 40
0.8124999999999999
 40
0.8749999999999999
 40
0.8749999999999999
 40
1.0
 40
1.0
 40
1.0
 40
1.0
 10
106.6137351074272
 20
60.98242785875892
 30
0.0
 10
105.9509904135821
 20
60.98242785875892
 30
0.0
 10
105.2997345544664
 20
60.9675877821701
 30
0.0
 10
104.3392840162082
 20
60.92521821794051
 30
0.0
 10
104.0218925729752
 20
60.9077401151613
 30
0.0
 10
103.3927290714203
 20
60.86641182860904
 30
0.0
 10
103.0805808849786
 20
60.84248655515131
 30
0.0
 10
102.1732735831304
 20
60.76368003868441
 30
0.0
 10
101.5998486254891
 20
60.70137401870793
 30
0.0
 10
100.7859717559144
 20
60.59824469846856
 30
0.0
 10
100.5211655593446
 20
60.56206077942207
 30
0.0
 10
100.0142581485302
 20
60.48826599522156
 30
0.0
 10
99.77286399717674
 20
60.45079213644992
 30
0.0
 10
99.08372252504441
 20
60.33808019311017
 30
0.0
 10
98.67066771018017
 20
60.26254409563641
 30
0.0
 10
98.12251289080511
 20
60.15415083861891
 30
0.0
 10
97.95305028345952
 20
60.11907860695565
 30
0.0
 10
97.64503303544414
 20
60.0528431463558
 30
0.0
 10
97.50565301483579
 20
60.02151644960109
 30
0.0
 10
97.25586750220904
 20
59.96310767802016
 30
0.0
 10
97.14546138955512
 20
59.93602444283731
 30
0.0
 10
96.95420353591742
 20
59.8867646882237
 30
0.0
 10
96.87308401763312
 20
59.86450270841607
 30
0.0
 10
96.67893709752472
 20
59.80693580124778
 30
0.0
 10
96.61373510742716
 20
59.78067619646178
 30
0.0
 10
96.61373510742716
 20
59.76742245198777
 30
0.0
  0
LINE
  5
78
330
1F
100
AcDbEntity
  8
0
  6
Continuous
 62
     7
370
    15
100
AcDbLine
 10
96.6137351074
 20
59.767422452
 30
0.0
 11
96.6137351074
 21
59.7574214518
 31
0.0
  0
SPLINE
  5
79
330
1F
100
AcDbEntity
  8
0
  6
Continuous
 62
     7
370
    15
100
AcDbSpline
210
0.0
220
0.0
230
1.0
 70
     8
 71
     3
 72
    17
 73
    13
 74
     0
 42
0.00000001
 43
0.00000001
 40
0.0
 40
0.0
 40
0.0
 40
0.0
 40
0.104384384054747
 40
0.2118345768143992
 40
0.3162082005190449
 40
0.4235375806108391
 40
0.529227623619385
 40
0.6379275864803489
 40
0.744471484418968
 40
0.8541836219421854
 40
0.9593080534965213
 40
1.0
 40
1.0
 40
1.0
 40
1.0
 10
106.6137351074272
 20
158.7472163074513
 30
0.0
 10
106.0657966595678
 20
158.7525845112001
 30
0.0
 10
104.9538266051031
 20
158.7634785848651
 30
0.0
 10
103.3409706918881
 20
158.8486559591239
 30
0.0
 10
101.8074574749112
 20
158.9750306654165
 30
0.0
 10
100.4164366255746
 20
159.1319334859933
 30
0.0
 10
99.18092010834422
 20
159.3036323155139
 30
0.0
 10
98.15756434118894
 20
159.468968591615
 30
0.0
 10
97.35722234292382
 20
159.6126820712015
 30
0.0
 10
96.84689024101026
 20
159.7108368783807
 30
0.0
 10
96.60698181218574
 20
159.7587652752506
 30
0.0
 10
96.63890059160555
 20
159.7523978760109
 30
0.0
 10
96.64780793988774
 20
159.7506209708877
 30
0.0
  0
LINE
  5
7A
330
1F
100
AcDbEntity
  8
0
  6
Continuous
 62
     7
370
    15
100
AcDbLine
 10
108.4017060865
 20
158.7472163075
 30
0.0
 11
106.6137351074
 21
158.7472163075
 31
0.0
  0
LINE
  5
7B
330
1F
100
AcDbEntity
  8
0
  6
Continuous
 62
     7
370
    15
100
AcDbLine
 10
108.4017060865
 20
148.7083842127
 30
0.0
 11
108.4017060865
 21
158.7472163075
 31
0.0
  0
LINE
  5
7C
330
1F
100
AcDbEntity
  8
0
  6
Continuous
 62
     7
370
    15
100
AcDbLine
 10
106.3217019556
 20
148.7083842127
 30
0.0
 11
108.4017060865
 21
148.7083842127
 31
0.0
  0
SPLINE
  5
7D
330
1F
100
AcDbEntity
  8
0
  6
Continuous
 62
     7
370
    15
100
AcDbSpline
210
0.0
220
0.0
230
1.0
 70
     8
 71
     3
 72
    22
 73
    18
 74
     0
 42
0.00000001
 43
0.00000001
 40
0.0
 40
0.0
 40
0.0
 40
0.0
 40
0.2500000000000009
 40
0.2500000000000009
 40
0.3750000000000009
 40
0.3750000000000009
 40
0.500000000000001
 40
0.500000000000001
 40
0.6250000000000009
 40
0.6250000000000009
 40
0.7500000000000007
 40
0.7500000000000007
 40
0.8750000000000004
 40
0.8750000000000004
 40
0.9375000000000002
 40
0.9375000000000002
 40
1.0
 40
1.0
 40
1.0
 40
1.0
 10
96.61373510742716
 20
141.1074214517877
 30
0.0
 10
96.81646006334626
 20
142.1266677936524
 30
0.0
 10
97.13120378514164
 20
143.0857759435916
 30
0.0
 10
97.8392592548126
 20
144.4282550211009
 30
0.0
 10
98.11772188503025
 20
144.862463603841
 30
0.0
 10
98.75648929166745
 20
145.6740913193431
 30
0.0
 10
99.11690297145765
 20
146.0533716122799
 30
0.0
 10
99.93443520344692
 20
146.7563301913009
 30
0.0
 10
100.395603186734
 20
147.0813590090015
 30
0.0
 10
101.3935934332178
 20
147.6463743323924
 30
0.0
 10
101.9333526272101
 20
147.8900779265989
 30
0.0
 10
103.1079455912414
 20
148.2942778542438
 30
0.0
 10
103.7196817772333
 20
148.4467150472894
 30
0.0
 10
104.671591002095
 20
148.6020425948981
 30
0.0
 10
104.9948241663557
 20
148.6415473749481
 30
0.0
 10
105.6538873376309
 20
148.6948564956168
 30
0.0
 10
105.9879513482049
 20
148.7083842126747
 30
0.0
 10
106.3217019556065
 20
148.7083842126747
 30
0.0
  0
LINE
  5
7E
330
1F
100
AcDbEntity
  8
0
  6
Continuous
 62
     7
370
    15
100
AcDbLine
 10
109.7537351074
 20
63.3860331648
 30
0.0
 11
109.7537351074
 21
141.1074214518
 31
0.0
  0
SPLINE
  5
7F
330
1F
100
AcDbEntity
  8
0
  6
Continuous
 62
     7
370
    15
100
AcDbSpline
210
0.0
220
0.0
230
1.0
 70
     8
 71
     3
 72
     8
 73
     4
 74
     0
 42
0.00000001
 43
0.00000001
 40
0.0
 40
0.0
 40
0.0
 40
0.0
 40
1.0
 40
1.0
 40
1.0
 40
1.0
 10
109.7537351074272
 20
63.38603316476425
 30
0.0
 10
109.3035086431494
 20
62.5845778021395
 30
0.0
 10
108.852810815906
 20
61.78338779057882
 30
0.0
 10
108.4017060865058
 20
60.98242785875891
 30
0.0
  0
SPLINE
  5
80
330
1F
100
AcDbEntity
  8
0
  6
Continuous
 62
     7
370
    15
100
AcDbSpline
210
0.0
220
0.0
230
1.0
 70
    24
 71
     3
 72
     8
 73
     4
 74
     0
 42
0.00000001
 43
0.00000001
 40
0.0
 40
0.0
 40
0.0
 40
0.0
 40
1.0
 40
1.0
 40
1.0
 40
1.0
 10
108.4017060865058
 20
141.1074214517877
 30
0.0
 10
108.858507658834
 20
141.1074214517877
 30
0.0
 10
109.3095222250732
 20
141.1074214517877
 30
0.0
 10
109.7537351074272
 20
141.1074214517877
 30
0.0
  0
LINE
  5
81
330
1F
100
AcDbEntity
  8
0
  6
Continuous
 62
     7
370
    15
100
AcDbLine
 10
119.6137351074
 20
60.9824278588
 30
0.0
 11
114.9257641283
 21
60.9824278588
 31
0.0
  0
LINE
  5
82
330
1F
100
AcDbEntity
  8
0
  6
Continuous
 62
     7
370
    15
100
AcDbLine
 10
114.9257641283
 20
60.9824278588
 30
0.0
 11
114.9257641283
 21
141.1074214518
 31
0.0
  0
LINE
  5
83
330
1F
100
AcDbEntity
  8
0
  6
Continuous
 62
     7
370
    15
100
AcDbLine
 10
114.9257641283
 20
141.1074214518
 30
0.0
 11
119.6137351074
 21
141.1074214518
 31
0.0
  0
LINE
  5
84
330
1F
100
AcDbEntity
  8
0
  6
Continuous
 62
     7
370
    15
100
AcDbLine
 10
91.6637351074
 20
60.2574214518
 30
0.0
 11
91.6637351074
 21
159.2574214491
 31
0.0
  0
SPLINE
  5
85
330
1F
100
AcDbEntity
  8
0
  6
Continuous
 62
     7
370
    15
100
AcDbSpline
210
0.0
220
0.0
230
1.0
 70
     8
 71
     3
 72
     8
 73
     4
 74
     0
 42
0.00000001
 43
0.00000001
 40
0.0
 40
0.0
 40
0.0
 40
0.0
 40
1.0
 40
1.0
 40
1.0
 40
1.0
 10
114.9257641283485
 20
60.98242785875892
 30
0.0
 10
114.4746593989483
 20
61.78338779057884
 30
0.0
 10
114.023961571705
 20
62.58457780213951
 30
0.0
 10
113.5737351074272
 20
63.38603316476426
 30
0.0
  0
LINE
  5
86
330
1F
100
AcDbEntity
  8
0
  6
Continuous
 62
     7
370
    15
100
AcDbLine
 10
113.5737351074
 20
63.3860331648
 30
0.0
 11
113.5737351074
 21
141.1074214518
 31
0.0
  0
SPLINE
  5
87
330
1F
100
AcDbEntity
  8
0
  6
Continuous
 62
     7
370
    15
100
AcDbSpline
210
0.0
220
0.0
230
1.0
 70
    24
 71
     3
 72
     8
 73
     4
 74
     0
 42
0.00000001
 43
0.00000001
 40
0.0
 40
0.0
 40
0.0
 40
0.0
 40
1.0
 40
1.0
 40
1.0
 40
1.0
 10
113.5737351074272
 20
141.1074214517877
 30
0.0
 10
114.0179479897811
 20
141.1074214517877
 30
0.0
 10
114.4689625560203
 20
141.1074214517877
 30
0.0
 10
114.9257641283485
 20
141.1074214517877
 30
0.0
  0
LINE
  5
88
330
1F
100
AcDbEntity
  8
0
  6
Continuous
 62
     7
370
    15
100
AcDbLine
 10
120.6137351074
 20
62.0080759065
 30
0.0
 11
120.6137351074
 21
141.1074214518
 31
0.0
  0
SPLINE
  5
89
330
1F
100
AcDbEntity
  8
0
  6
Continuous
 62
     7
370
    15
100
AcDbSpline
210
0.0
220
0.0
230
1.0
 70
     8
 71
     3
 72
    14
 73
    10
 74
     0
 42
0.00000001
 43
0.00000001
 40
0.0
 40
0.0
 40
0.0
 40
0.0
 40
0.25
 40
0.25
 40
0.5
 40
0.5
 40
0.75
 40
0.75
 40
1.0
 40
1.0
 40
1.0
 40
1.0
 10
120.6137351074272
 20
62.00807590653444
 30
0.0
 10
120.6137351074272
 20
61.87465021047989
 30
0.0
 10
120.5884240075163
 20
61.74280240263554
 30
0.0
 10
120.4900892436716
 20
61.49627985394144
 30
0.0
 10
120.4169452394155
 20
61.3824746657009
 30
0.0
 10
120.2335071783198
 20
61.19201748875362
 30
0.0
 10
120.1218208439812
 20
61.1143826249037
 30
0.0
 10
119.8793174136749
 20
61.01009121479124
 30
0.0
 10
119.7459429849807
 20
60.98242785875888
 30
0.0
 10
119.6137351074272
 20
60.98242785875889
 30
0.0
  0
SPLINE
  5
8A
330
1F
100
AcDbEntity
  8
0
  6
Continuous
 62
     7
370
    15
100
AcDbSpline
210
0.0
220
0.0
230
1.0
 70
    24
 71
     3
 72
    12
 73
     8
 74
     0
 42
0.00000001
 43
0.00000001
 40
0.0
 40
0.0
 40
0.0
 40
0.0
 40
0.2500000000000032
 40
0.2500000000000032
 40
0.5000000000000064
 40
0.5000000000000064
 40
1.0
 40
1.0
 40
1.0
 40
1.0
 10
119.6137351074272
 20
141.1074214517877
 30
0.0
 10
119.7658253443722
 20
141.1074214517877
 30
0.0
 10
119.9142846054476
 20
141.1074214517877
 30
0.0
 10
120.1716882377133
 20
141.1074214517877
 30
0.0
 10
120.2807929855552
 20
141.1074214517877
 30
0.0
 10
120.5348524619627
 20
141.1074214517877
 30
0.0
 10
120.6137351074272
 20
141.1074214517877
 30
0.0
 10
120.6137351074272
 20
141.1074214517877
 30
0.0
  0
SPLINE
  5
8B
330
1F
100
AcDbEntity
  8
0
  6
Continuous
 62
     7
370
    15
100
AcDbSpline
210
0.0
220
0.0
230
1.0
 70
     8
 71
     3
 72
    14
 73
    10
 74
     0
 42
0.00000001
 43
0.00000001
 40
0.0
 40
0.0
 40
0.0
 40
0.0
 40
0.25
 40
0.25
 40
0.5
 40
0.5
 40
0.75
 40
0.75
 40
1.0
 40
1.0
 40
1.0
 40
1.0
 10
113.5737351074272
 20
64.29424266939284
 30
0.0
 10
113.5737351074272
 20
64.40128675038723
 30
0.0
 10
113.553617420269
 20
64.50652189062967
 30
0.0
 10
113.4751262310034
 20
64.70437237747737
 30
0.0
 10
113.4169696062022
 20
64.79542414104228
 30
0.0
 10
113.2704543505841
 20
64.94859023496706
 30
0.0
 10
113.181811801943
 20
65.01088468117646
 30
0.0
 10
112.9860884791427
 20
65.09567846671247
 30
0.0
 10
112.8808572880718
 20
65.11774599373808
 30
0.0
 10
112.7737351074272
 20
65.1177459937381
 30
0.0
  0
SPLINE
  5
8C
330
1F
100
AcDbEntity
  8
0
  6
Continuous
 62
     7
370
    15
100
AcDbSpline
210
0.0
220
0.0
230
1.0
 70
    24
 71
     3
 72
    14
 73
    10
 74
     0
 42
0.00000001
 43
0.00000001
 40
0.0
 40
0.0
 40
0.0
 40
0.0
 40
0.25
 40
0.25
 40
0.5
 40
0.5
 40
0.75
 40
0.75
 40
1.0
 40
1.0
 40
1.0
 40
1.0
 10
112.7737351074272
 20
141.1074214517877
 30
0.0
 10
112.8975048721923
 20
141.1074214517877
 30
0.0
 10
113.0218719761992
 20
141.1074214517877
 30
0.0
 10
113.2282284449253
 20
141.1074214517877
 30
0.0
 10
113.3135565883436
 20
141.1074214517877
 30
0.0
 10
113.4457486470588
 20
141.1074214517877
 30
0.0
 10
113.4943938908094
 20
141.1074214517877
 30
0.0
 10
113.5579296825382
 20
141.1074214517877
 30
0.0
 10
113.5737351074272
 20
141.1074214517877
 30
0.0
 10
113.5737351074272
 20
141.1074214517877
 30
0.0
  0
SPLINE
  5
8D
330
1F
100
AcDbEntity
  8
0
  6
Continuous
 62
     7
370
    15
100
AcDbSpline
210
0.0
220
0.0
230
1.0
 70
     8
 71
     3
 72
    12
 73
     8
 74
     0
 42
0.00000001
 43
0.00000001
 40
0.0
 40
0.0
 40
0.0
 40
0.0
 40
0.250000000000003
 40
0.250000000000003
 40
0.500000000000006
 40
0.500000000000006
 40
1.0
 40
1.0
 40
1.0
 40
1.0
 10
110.5537351074272
 20
65.1177459937381
 30
0.0
 10
110.4479744540782
 20
65.11774599373808
 30
0.0
 10
110.3399868258953
 20
65.09520648773768
 30
0.0
 10
110.1453921606297
 20
65.01063585574235
 30
0.0
 10
110.0565202477908
 20
64.94815420298353
 30
0.0
 10
109.8373279554649
 20
64.71876525151133
 30
0.0
 10
109.7537351074271
 20
64.50618191398891
 30
0.0
 10
109.7537351074271
 20
64.29424266939269
 30
0.0
  0
SPLINE
  5
8E
330
1F
100
AcDbEntity
  8
0
  6
Continuous
 62
     7
370
    15
100
AcDbSpline
210
0.0
220
0.0
230
1.0
 70
    24
 71
     3
 72
    14
 73
    10
 74
     0
 42
0.00000001
 43
0.00000001
 40
0.0
 40
0.0
 40
0.0
 40
0.0
 40
0.25
 40
0.25
 40
0.5
 40
0.5
 40
0.75
 40
0.75
 40
1.0
 40
1.0
 40
1.0
 40
1.0
 10
109.7537351074272
 20
141.1074214517877
 30
0.0
 10
109.7537351074272
 20
141.1074214517877
 30
0.0
 10
109.7694494278931
 20
141.1074214517877
 30
0.0
 10
109.8331334063615
 20
141.1074214517877
 30
0.0
 10
109.8817366007719
 20
141.1074214517877
 30
0.0
 10
110.0144201231975
 20
141.1074214517877
 30
0.0
 10
110.0995222275082
 20
141.1074214517877
 30
0.0
 10
110.3059644624182
 20
141.1074214517877
 30
0.0
 10
110.4300454040413
 20
141.1074214517877
 30
0.0
 10
110.5537351074272
 20
141.1074214517877
 30
0.0
  0
LINE
  5
8F
330
1F
100
AcDbEntity
  8
0
  6
Continuous
 62
     7
370
    15
100
AcDbLine
 10
112.7737351074
 20
65.1177459937
 30
0.0
 11
110.5537351074
 21
65.1177459937
 31
0.0
  0
LINE
  5
90
330
1F
100
AcDbEntity
  8
0
  6
Continuous
 62
     7
370
    15
100
AcDbLine
 10
110.5537351074
 20
141.1074214518
 30
0.0
 11
112.7737351074
 21
141.1074214518
 31
0.0
  0
LINE
  5
91
330
1F
100
AcDbEntity
  8
0
  6
Continuous
 62
     7
370
    15
100
AcDbLine
 10
89.1637351074
 20
71.8751699488
 30
0.0
 11
89.1637351074
 21
147.6396729548
 31
0.0
  0
LINE
  5
92
330
1F
100
AcDbEntity
  8
0
  6
Continuous
 62
     7
370
    15
100
AcDbLine
 10
56.8637351074
 20
73.4934064217
 30
0.0
 11
56.8637351074
 21
75.8880881864
 31
0.0
  0
SPLINE
  5
93
330
1F
100
AcDbEntity
  8
0
  6
Continuous
 62
     7
370
    15
100
AcDbSpline
210
0.0
220
0.0
230
1.0
 70
     8
 71
     3
 72
    14
 73
    10
 74
     0
 42
0.00000001
 43
0.00000001
 40
0.0
 40
0.0
 40
0.0
 40
0.0
 40
0.25
 40
0.25
 40
0.5
 40
0.5
 40
0.75
 40
0.75
 40
1.0
 40
1.0
 40
1.0
 40
1.0
 10
55.85931263609022
 20
77.59094010804421
 30
0.0
 10
55.94808121403553
 20
77.43240597673626
 30
0.0
 10
56.06979905271444
 20
77.2799632998477
 30
0.0
 10
56.30484866257128
 20
76.98282867601877
 30
0.0
 10
56.42047884878817
 20
76.83814603240141
 30
0.0
 10
56.620883782216
 20
76.554856829898
 30
0.0
 10
56.70628407420031
 20
76.41630283686115
 30
0.0
 10
56.82798970791755
 20
76.1449188068276
 30
0.0
 10
56.86373510743019
 20
76.012782938193
 30
0.0
 10
56.86373510743017
 20
75.88808818642224
 30
0.0
  0
SPLINE
  5
94
330
1F
100
AcDbEntity
  8
0
  6
Continuous
 62
     7
370
    15
100
AcDbSpline
210
0.0
220
0.0
230
1.0
 70
     8
 71
     3
 72
    14
 73
    10
 74
     0
 42
0.00000001
 43
0.00000001
 40
0.0
 40
0.0
 40
0.0
 40
0.0
 40
0.124999999999999
 40
0.124999999999999
 40
0.249999999999998
 40
0.249999999999998
 40
0.5000000000000007
 40
0.5000000000000007
 40
1.0
 40
1.0
 40
1.0
 40
1.0
 10
54.96373510742716
 20
78.21977004714431
 30
0.0
 10
55.03131740721167
 20
78.2269259322457
 30
0.0
 10
55.10380498495957
 20
78.2225014622067
 30
0.0
 10
55.2360960942255
 20
78.19279530443634
 30
0.0
 10
55.29337347361568
 20
78.16951102285812
 30
0.0
 10
55.44302390081596
 20
78.0920257830078
 30
0.0
 10
55.51673719633746
 20
78.03017395610642
 30
0.0
 10
55.7045451796637
 20
77.84549650345811
 30
0.0
 10
55.78858548602516
 20
77.7172535801669
 30
0.0
 10
55.85931263609142
 20
77.59094010804431
 30
0.0
  0
SPLINE
  5
95
330
1F
100
AcDbEntity
  8
0
  6
Continuous
 62
     7
370
    15
100
AcDbSpline
210
0.0
220
0.0
230
1.0
 70
     8
 71
     3
 72
     8
 73
     4
 74
     0
 42
0.00000001
 43
0.00000001
 40
0.0
 40
0.0
 40
0.0
 40
0.0
 40
1.0
 40
1.0
 40
1.0
 40
1.0
 10
51.41909471934639
 20
77.80172146235253
 30
0.0
 10
52.58439303005526
 20
77.95690893423915
 30
0.0
 10
53.76900824409507
 20
78.09326757254948
 30
0.0
 10
54.96373510742716
 20
78.21977004714431
 30
0.0
  0
SPLINE
  5
96
330
1F
100
AcDbEntity
  8
0
  6
Continuous
 62
     7
370
    15
100
AcDbSpline
210
0.0
220
0.0
230
1.0
 70
     8
 71
     3
 72
    14
 73
    10
 74
     0
 42
0.00000001
 43
0.00000001
 40
0.0
 40
0.0
 40
0.0
 40
0.0
 40
0.5000000000000012
 40
0.5000000000000012
 40
0.7500000000000018
 40
0.7500000000000018
 40
0.8750000000000009
 40
0.8750000000000009
 40
1.0
 40
1.0
 40
1.0
 40
1.0
 10
43.66366022339682
 20
77.5115892832226
 30
0.0
 10
44.97196178593085
 20
77.51860400696371
 30
0.0
 10
46.27702116058796
 20
77.5340125834082
 30
0.0
 10
48.22289721207665
 20
77.58790913887485
 30
0.0
 10
48.8695947158158
 20
77.61094070347755
 30
0.0
 10
49.83343707967035
 20
77.66188322834832
 30
0.0
 10
50.15367577160448
 20
77.68161815058151
 30
0.0
 10
50.79037099794703
 20
77.7311052790531
 30
0.0
 10
51.10708640623005
 20
77.76017005798234
 30
0.0
 10
51.41909471934641
 20
77.80172146235248
 30
0.0
  0
SPLINE
  5
97
330
1F
100
AcDbEntity
  8
0
  6
Continuous
 62
     7
370
    15
100
AcDbSpline
210
0.0
220
0.0
230
1.0
 70
     8
 71
     3
 72
    12
 73
     8
 74
     0
 42
0.00000001
 43
0.00000001
 40
0.0
 40
0.0
 40
0.0
 40
0.0
 40
0.2500000000000001
 40
0.2500000000000001
 40
0.5000000000000001
 40
0.5000000000000001
 40
1.0
 40
1.0
 40
1.0
 40
1.0
 10
49.96373510742718
 20
141.8439443432842
 30
0.0
 10
49.44503628559899
 20
141.8764671181324
 30
0.0
 10
48.92332471239399
 20
141.8997638593029
 30
0.0
 10
47.87703269589844
 20
141.937609373725
 30
0.0
 10
47.35236107022815
 20
141.9518778482211
 30
0.0
 10
45.77551504768893
 20
141.9860873356794
 30
0.0
 10
44.72055973314204
 20
141.9975868396233
 30
0.0
 10
43.66366022339682
 20
142.0032536203528
 30
0.0
  0
SPLINE
  5
98
330
1F
100
AcDbEntity
  8
0
  6
Continuous
 62
     7
370
    15
100
AcDbSpline
210
0.0
220
0.0
230
1.0
 70
     8
 71
     3
 72
    20
 73
    16
 74
     0
 42
0.00000001
 43
0.00000001
 40
0.0
 40
0.0
 40
0.0
 40
0.0
 40
0.2500000000000011
 40
0.2500000000000011
 40
0.5000000000000021
 40
0.5000000000000021
 40
0.7500000000000031
 40
0.7500000000000031
 40
0.8750000000000008
 40
0.8750000000000008
 40
0.9375000000000006
 40
0.9375000000000006
 40
0.9687500000000003
 40
0.9687500000000003
 40
1.0
 40
1.0
 40
1.0
 40
1.0
 10
51.86373510742717
 20
143.5020301887723
 30
0.0
 10
51.86373510742717
 20
143.3663478690255
 30
0.0
 10
51.81502331821054
 20
143.2252608828855
 30
0.0
 10
51.64586189498535
 20
142.9331891641549
 30
0.0
 10
51.52408148106705
 20
142.7815404220645
 30
0.0
 10
51.22653438631752
 20
142.4791319819114
 30
0.0
 10
51.05262178061476
 20
142.3265433457881
 30
0.0
 10
50.73320694673293
 20
142.1012725819458
 30
0.0
 10
50.61816617128567
 20
142.026549487435
 30
0.0
 10
50.41108184726925
 20
141.927139078178
 30
0.0
 10
50.33497401246287
 20
141.8955739858335
 30
0.0
 10
50.20357947290952
 20
141.8611306016405
 30
0.0
 10
50.15702625390806
 20
141.8520790298729
 30
0.0
 10
50.06069290282734
 20
141.8419033810344
 30
0.0
 10
50.0114334794719
 20
141.8409536223594
 30
0.0
 10
49.96373510742519
 20
141.843944343274
 30
0.0
  0
LINE
  5
99
330
1F
100
AcDbEntity
  8
0
  6
Continuous
 62
     7
370
    15
100
AcDbLine
 10
51.8637351074
 20
143.5020301888
 30
0.0
 11
51.8637351074
 21
145.7709354798
 31
0.0
  0
SPLINE
  5
9A
330
1F
100
AcDbEntity
  8
0
  6
Continuous
 62
     7
370
    15
100
AcDbSpline
210
0.0
220
0.0
230
1.0
 70
     8
 71
     3
 72
    22
 73
    18
 74
     0
 42
0.00000001
 43
0.00000001
 40
0.0
 40
0.0
 40
0.0
 40
0.0
 40
0.0002937850458186
 40
0.0628841327416245
 40
0.1261981682954119
 40
0.2510182590426545
 40
0.3131038291609287
 40
0.3757650688901397
 40
0.4382989835656159
 40
0.5000628079113862
 40
0.5617337561138577
 40
0.6246555685552369
 40
0.7491916976530832
 40
0.8115302181310354
 40
0.8745847230190956
 40
0.937822758820794
 40
1.0
 40
1.0
 40
1.0
 40
1.0
 10
70.18369137126659
 20
72.82617619347536
 30
0.0
 10
70.18349651785638
 20
72.8261518861555
 30
0.0
 10
70.14178851437572
 20
72.82094895036867
 30
0.0
 10
70.28705161755967
 20
72.83956315825654
 30
0.0
 10
70.75719779473
 20
72.89608910885254
 30
0.0
 10
71.72565387731409
 20
73.00231073827798
 30
0.0
 10
73.03811368687546
 20
73.08794354570941
 30
0.0
 10
74.17023739550801
 20
73.12659961180829
 30
0.0
 10
75.39242417213
 20
73.13026091958677
 30
0.0
 10
76.65972255965936
 20
73.08787550481694
 30
0.0
 10
77.92643421389245
 20
72.99949852714158
 30
0.0
 10
79.54209220975702
 20
72.82944939851774
 30
0.0
 10
80.98205481978063
 20
72.60726766396428
 30
0.0
 10
82.04792397594453
 20
72.40427155582974
 30
0.0
 10
82.63712435938247
 20
72.2802461228804
 30
0.0
 10
83.02584387467306
 20
72.19532528243548
 30
0.0
 10
83.07262958750248
 20
72.18459856463114
 30
0.0
 10
83.09582458112973
 20
72.17928057039602
 30
0.0
  0
SPLINE
  5
9B
330
1F
100
AcDbEntity
  8
0
  6
Continuous
 62
     7
370
    15
100
AcDbSpline
210
0.0
220
0.0
230
1.0
 70
     8
 71
     3
 72
    41
 73
    37
 74
     0
 42
0.00000001
 43
0.00000001
 40
0.0
 40
0.0
 40
0.0
 40
0.0
 40
0.0619930061482746
 40
0.1254347783466151
 40
0.1886508898234768
 40
0.2510246408607227
 40
0.3131658188976554
 40
0.3756581641417402
 40
0.4382227146727798
 40
0.4998044922940677
 40
0.56151641971787
 40
0.6240683094121985
 40
0.686725723240935
 40
0.7488365305144522
 40
0.8110685944253986
 40
0.8741742884451361
 40
0.9373212787645211
 40
0.9685511709617411
 40
0.9842086872487193
 40
0.9920641182531791
 40
0.996000486125535
 40
0.9979710794120144
 40
0.9989570090489596
 40
0.9994501359395065
 40
0.9996967403802177
 40
0.9998200529090742
 40
0.9998817117580818
 40
0.999912541829664
 40
0.9999279570273361
 40
0.9999356646666602
 40
0.9999395184964466
 40
0.9999414454138695
 40
0.9999424088732151
 40
0.9999433723329806
 40
0.9999501697010513
 40
1.0
 40
1.0
 40
1.0
 40
1.0
 10
83.09570325065174
 20
147.3355173152279
 30
0.0
 10
83.07213160530814
 20
147.3302078355781
 30
0.0
 10
83.02443744926308
 20
147.3194647946385
 30
0.0
 10
82.63239545983753
 20
147.2342356581831
 30
0.0
 10
82.04188141056733
 20
147.1096668795423
 30
0.0
 10
81.23784396452224
 20
146.9567199333905
 30
0.0
 10
80.26176856434073
 20
146.7949633794369
 30
0.0
 10
79.13995982906023
 20
146.6427306115047
 30
0.0
 10
77.92642890927299
 20
146.5149506703033
 30
0.0
 10
76.66159820287378
 20
146.4271021186207
 30
0.0
 10
75.39355516543104
 20
146.3847166347501
 30
0.0
 10
74.17004780772993
 20
146.3884524427218
 30
0.0
 10
73.03654926731592
 20
146.4270479131699
 30
0.0
 10
72.05044345634172
 20
146.491487284461
 30
0.0
 10
71.24181564755449
 20
146.5649970917422
 30
0.0
 10
70.6451969524453
 20
146.6323107765539
 30
0.0
 10
70.32980566298723
 20
146.6702753278219
 30
0.0
 10
70.2197390941893
 20
146.6840743871537
 30
0.0
 10
70.1923197063751
 20
146.6875604610744
 30
0.0
 10
70.1853976555456
 20
146.6884396867678
 30
0.0
 10
70.18362941536219
 20
146.6886604613741
 30
0.0
 10
70.18316903618881
 20
146.6887156640848
 30
0.0
 10
70.18304487750402
 20
146.6887294038719
 30
0.0
 10
70.18300932301084
 20
146.6887327997029
 30
0.0
 10
70.18299817894075
 20
146.6887336280232
 30
0.0
 10
70.18299426574464
 20
146.688733824612
 30
0.0
 10
70.18299272353981
 20
146.6887338685421
 30
0.0
 10
70.1829920565383
 20
146.6887338768488
 30
0.0
 10
70.18299174836055
 20
146.6887338776791
 30
0.0
 10
70.1829916015945
 20
146.6887338771339
 30
0.0
 10
70.18299152864205
 20
146.688733876804
 30
0.0
 10
70.18299149424966
 20
146.6887338763667
 30
0.0
 10
70.1829914720045
 20
146.6887338764552
 30
0.0
 10
70.18299144489507
 20
146.6887338736203
 30
0.0
 10
70.18298892533372
 20
146.6887341604753
 30
0.0
 10
70.18302501525176
 20
146.6887295403747
 30
0.0
 10
70.1830567730744
 20
146.6887254748533
 30
0.0
  0
SPLINE
  5
9C
330
1F
100
AcDbEntity
  8
0
  6
Continuous
 62
     7
370
    15
100
AcDbSpline
210
0.0
220
0.0
230
1.0
 70
     8
 71
     3
 72
    20
 73
    16
 74
     0
 42
0.00000001
 43
0.00000001
 40
0.0
 40
0.0
 40
0.0
 40
0.0
 40
0.249999999999986
 40
0.249999999999986
 40
0.3749999999999789
 40
0.3749999999999789
 40
0.4374999999999789
 40
0.4374999999999789
 40
0.4999999999999789
 40
0.4999999999999789
 40
0.6249999999999835
 40
0.6249999999999835
 40
0.7499999999999879
 40
0.7499999999999879
 40
1.0
 40
1.0
 40
1.0
 40
1.0
 10
42.05454933914318
 20
79.07893829908701
 30
0.0
 10
42.08082155635659
 20
79.09825624016949
 30
0.0
 10
42.11150169861143
 20
79.11264495127126
 30
0.0
 10
42.18297256899335
 20
79.10574058943526
 30
0.0
 10
42.21099960603769
 20
79.09857458608684
 30
0.0
 10
42.2660831955352
 20
79.06887555938324
 30
0.0
 10
42.28697452408763
 20
79.0554019168219
 30
0.0
 10
42.33218317153309
 20
79.02020365130589
 30
0.0
 10
42.35658738392866
 20
78.99829542257864
 30
0.0
 10
42.42791970198009
 20
78.92617056258308
 30
0.0
 10
42.46981648680037
 20
78.87383002163304
 30
0.0
 10
42.54139244565624
 20
78.77634662973229
 30
0.0
 10
42.57222043547354
 20
78.72959285985387
 30
0.0
 10
42.65532036830911
 20
78.59629964401475
 30
0.0
 10
42.70017527367942
 20
78.51366224609954
 30
0.0
 10
42.74028734913199
 20
78.43455535130876
 30
0.0
  0
SPLINE
  5
9D
330
1F
100
AcDbEntity
  8
0
  6
Continuous
 62
     7
370
    15
100
AcDbSpline
210
0.0
220
0.0
230
1.0
 70
     8
 71
     3
 72
    14
 73
    10
 74
     0
 42
0.00000001
 43
0.00000001
 40
0.0
 40
0.0
 40
0.0
 40
0.0
 40
0.2499999999999994
 40
0.2499999999999994
 40
0.4999999999999988
 40
0.4999999999999988
 40
0.7499999999999982
 40
0.7499999999999982
 40
1.0
 40
1.0
 40
1.0
 40
1.0
 10
41.76373510742717
 20
79.2547517092198
 30
0.0
 10
41.76373510742717
 20
79.21350477819547
 30
0.0
 10
41.77234482380842
 20
79.17659780591299
 30
0.0
 10
41.80343100337877
 20
79.11569774601357
 30
0.0
 10
41.82582055686284
 20
79.09151682647388
 30
0.0
 10
41.88056448803895
 20
79.05754923559061
 30
0.0
 10
41.91301472762414
 20
79.04762915162243
 30
0.0
 10
41.98301624235221
 20
79.04627794271758
 30
0.0
 10
42.02122674247473
 20
79.05443621941373
 30
0.0
 10
42.05454933914783
 20
79.07893829908183
 30
0.0
  0
LINE
  5
9E
330
1F
100
AcDbEntity
  8
0
  6
Continuous
 62
     7
370
    15
100
AcDbLine
 10
41.7637351074
 20
79.2547517092
 30
0.0
 11
41.7637351074
 21
140.2600911944
 31
0.0
  0
SPLINE
  5
9F
330
1F
100
AcDbEntity
  8
0
  6
Continuous
 62
     7
370
    15
100
AcDbSpline
210
0.0
220
0.0
230
1.0
 70
     8
 71
     3
 72
    12
 73
     8
 74
     0
 42
0.00000001
 43
0.00000001
 40
0.0
 40
0.0
 40
0.0
 40
0.0
 40
0.0592077505114064
 40
0.3503612113849183
 40
0.644012000323884
 40
0.9432672693652688
 40
1.0
 40
1.0
 40
1.0
 40
1.0
 10
42.05454933914782
 20
140.4359046044936
 30
0.0
 10
42.04971345579934
 20
140.4391772481133
 30
0.0
 10
42.02109716935967
 20
140.4585430806794
 30
0.0
 10
41.96309883131932
 20
140.4725089778438
 30
0.0
 10
41.89109859085902
 20
140.4614359500285
 30
0.0
 10
41.84245890184829
 20
140.4401356461189
 30
0.0
 10
41.82567402978582
 20
140.4172342759441
 30
0.0
 10
41.82299907549995
 20
140.4135845538567
 30
0.0
  0
SPLINE
  5
A0
330
1F
100
AcDbEntity
  8
0
  6
Continuous
 62
     7
370
    15
100
AcDbSpline
210
0.0
220
0.0
230
1.0
 70
     8
 71
     3
 72
     8
 73
     4
 74
     0
 42
0.00000001
 43
0.00000001
 40
0.0
 40
0.0
 40
0.0
 40
0.0
 40
1.0
 40
1.0
 40
1.0
 40
1.0
 10
41.78736877636338
 20
140.3676706954253
 30
0.0
 10
41.77201973772735
 20
140.3371606404294
 30
0.0
 10
41.76373510742717
 20
140.300849084917
 30
0.0
 10
41.76373510742717
 20
140.2600911943557
 30
0.0
  0
SPLINE
  5
A1
330
1F
100
AcDbEntity
  8
0
  6
Continuous
 62
     7
370
    15
100
AcDbSpline
210
0.0
220
0.0
230
1.0
 70
     8
 71
     3
 72
    20
 73
    16
 74
     0
 42
0.00000001
 43
0.00000001
 40
0.0
 40
0.0
 40
0.0
 40
0.0
 40
0.2500000000000037
 40
0.2500000000000037
 40
0.3750000000000055
 40
0.3750000000000055
 40
0.5000000000000073
 40
0.5000000000000073
 40
0.5625000000000057
 40
0.5625000000000057
 40
0.625000000000004
 40
0.625000000000004
 40
0.7500000000000027
 40
0.7500000000000027
 40
1.0
 40
1.0
 40
1.0
 40
1.0
 10
42.7402873491296
 20
141.0802875522659
 30
0.0
 10
42.70029113130578
 20
141.0014091457084
 30
0.0
 10
42.65517750346812
 20
140.9182794990169
 30
0.0
 10
42.57192328910159
 20
140.784790834666
 30
0.0
 10
42.54170396048109
 20
140.738925778784
 30
0.0
 10
42.46961572533966
 20
140.6407342263791
 30
0.0
 10
42.42769840792857
 20
140.5884244068556
 30
0.0
 10
42.35644780337711
 20
140.516418504121
 30
0.0
 10
42.33221199099779
 20
140.4946482918195
 30
0.0
 10
42.28661380081314
 20
140.4591736334905
 30
0.0
 10
42.26581131121343
 20
140.4458034493129
 30
0.0
 10
42.2108703127943
 20
140.4162335371777
 30
0.0
 10
42.1828013247075
 20
140.4091070148757
 30
0.0
 10
42.11229849464466
 20
140.402232643393
 30
0.0
 10
42.08087440685379
 20
140.4165478024802
 30
0.0
 10
42.0545493391452
 20
140.4359046044907
 30
0.0
  0
SPLINE
  5
A2
330
1F
100
AcDbEntity
  8
0
  6
Continuous
 62
     7
370
    15
100
AcDbSpline
210
0.0
220
0.0
230
1.0
 70
     8
 71
     3
 72
    10
 73
     6
 74
     0
 42
0.00000001
 43
0.00000001
 40
0.0
 40
0.0
 40
0.0
 40
0.0
 40
0.4999999999999989
 40
0.4999999999999989
 40
1.0
 40
1.0
 40
1.0
 40
1.0
 10
43.41373510742719
 20
142.0057066536077
 30
0.0
 10
43.28884683667698
 20
141.8747103755363
 30
0.0
 10
43.16739671861654
 20
141.7309975388713
 30
0.0
 10
42.9378127436591
 20
141.420427246182
 30
0.0
 10
42.82753776826312
 20
141.2523581731189
 30
0.0
 10
42.7402873491296
 20
141.0802875522659
 30
0.0
  0
SPLINE
  5
A3
330
1F
100
AcDbEntity
  8
0
  6
Continuous
 62
     7
370
    15
100
AcDbSpline
210
0.0
220
0.0
230
1.0
 70
     8
 71
     3
 72
     8
 73
     4
 74
     0
 42
0.00000001
 43
0.00000001
 40
0.0
 40
0.0
 40
0.0
 40
0.0
 40
1.0
 40
1.0
 40
1.0
 40
1.0
 10
43.66366022339295
 20
142.0032536203523
 30
0.0
 10
43.57664219354456
 20
142.0037201851394
 30
0.0
 10
43.49368816716462
 20
142.0047602047155
 30
0.0
 10
43.41373510742487
 20
142.0057066536078
 30
0.0
  0
SPLINE
  5
A4
330
1F
100
AcDbEntity
  8
0
  6
Continuous
 62
     7
370
    15
100
AcDbSpline
210
0.0
220
0.0
230
1.0
 70
     8
 71
     3
 72
     8
 73
     4
 74
     0
 42
0.00000001
 43
0.00000001
 40
0.0
 40
0.0
 40
0.0
 40
0.0
 40
1.0
 40
1.0
 40
1.0
 40
1.0
 10
43.41373510742487
 20
77.50913624996765
 30
0.0
 10
43.49368816716463
 20
77.51008269885992
 30
0.0
 10
43.57664219354459
 20
77.51112271843604
 30
0.0
 10
43.66366022339297
 20
77.5115892832231
 30
0.0
  0
SPLINE
  5
A5
330
1F
100
AcDbEntity
  8
0
  6
Continuous
 62
     7
370
    15
100
AcDbSpline
210
0.0
220
0.0
230
1.0
 70
     8
 71
     3
 72
    10
 73
     6
 74
     0
 42
0.00000001
 43
0.00000001
 40
0.0
 40
0.0
 40
0.0
 40
0.0
 40
0.4999999999999989
 40
0.4999999999999989
 40
1.0
 40
1.0
 40
1.0
 40
1.0
 10
42.74028734912867
 20
78.43455535131133
 30
0.0
 10
42.82753776826215
 20
78.26248473045797
 30
0.0
 10
42.93781274365831
 20
78.09441565739453
 30
0.0
 10
43.16739671861613
 20
77.7838453647047
 30
0.0
 10
43.28884683667678
 20
77.64013252803943
 30
0.0
 10
43.41373510742719
 20
77.50913624996772
 30
0.0
  0
SPLINE
  5
A6
330
1F
100
AcDbEntity
  8
0
  6
Continuous
 62
     7
370
    15
100
AcDbSpline
210
0.0
220
0.0
230
1.0
 70
     8
 71
     3
 72
     8
 73
     4
 74
     0
 42
0.00000001
 43
0.00000001
 40
0.0
 40
0.0
 40
0.0
 40
0.0
 40
1.0
 40
1.0
 40
1.0
 40
1.0
 10
108.4017060865058
 20
148.7083842126747
 30
0.0
 10
108.8586324403053
 20
147.6924662430004
 30
0.0
 10
109.3098380821083
 20
146.6736704139092
 30
0.0
 10
109.7537351074272
 20
145.6528689579256
 30
0.0
  0
LINE
  5
A7
330
1F
100
AcDbEntity
  8
0
  6
Continuous
 62
     7
370
    15
100
AcDbLine
 10
109.7537351074
 20
145.6528689579
 30
0.0
 11
109.7537351074
 21
144.4716566443
 31
0.0
  0
SPLINE
  5
A8
330
1F
100
AcDbEntity
  8
0
  6
Continuous
 62
     7
370
    15
100
AcDbSpline
210
0.0
220
0.0
230
1.0
 70
     8
 71
     3
 72
    14
 73
    10
 74
     0
 42
0.00000001
 43
0.00000001
 40
0.0
 40
0.0
 40
0.0
 40
0.0
 40
0.25
 40
0.25
 40
0.5
 40
0.5
 40
0.75
 40
0.75
 40
1.0
 40
1.0
 40
1.0
 40
1.0
 10
109.7537351074272
 20
144.4716566442848
 30
0.0
 10
109.7537351074272
 20
144.3477897674956
 30
0.0
 10
109.7695942350548
 20
144.2235300906581
 30
0.0
 10
109.8329558805746
 20
143.9859217282522
 30
0.0
 10
109.881545588624
 20
143.8691413434997
 30
0.0
 10
110.0138311933989
 20
143.6603388148907
 30
0.0
 10
110.0991559846595
 20
143.5658281112981
 30
0.0
 10
110.3060472329656
 20
143.4278713104958
 30
0.0
 10
110.4300151788556
 20
143.3859528648602
 30
0.0
 10
110.5537351074272
 20
143.3859528648601
 30
0.0
  0
LINE
  5
A9
330
1F
100
AcDbEntity
  8
0
  6
Continuous
 62
     7
370
    15
100
AcDbLine
 10
110.5537351074
 20
143.3859528649
 30
0.0
 11
112.7737351074
 21
143.3859528648
 31
0.0
  0
SPLINE
  5
AA
330
1F
100
AcDbEntity
  8
0
  6
Continuous
 62
     7
370
    15
100
AcDbSpline
210
0.0
220
0.0
230
1.0
 70
     8
 71
     3
 72
    12
 73
     8
 74
     0
 42
0.00000001
 43
0.00000001
 40
0.0
 40
0.0
 40
0.0
 40
0.0
 40
0.250000000000002
 40
0.250000000000002
 40
0.500000000000004
 40
0.500000000000004
 40
1.0
 40
1.0
 40
1.0
 40
1.0
 10
112.7737351074292
 20
143.3859528648602
 30
0.0
 10
112.897436057409
 20
143.3859528648607
 30
0.0
 10
113.0215326696789
 20
143.4279464765935
 30
0.0
 10
113.2281878327654
 20
143.5657418032381
 30
0.0
 10
113.313228599492
 20
143.6597154017029
 30
0.0
 10
113.512707167965
 20
143.9745036079237
 30
0.0
 10
113.5737351074272
 20
144.2247426001509
 30
0.0
 10
113.5737351074272
 20
144.4716566442848
 30
0.0
  0
LINE
  5
AB
330
1F
100
AcDbEntity
  8
0
  6
Continuous
 62
     7
370
    15
100
AcDbLine
 10
113.5737351074
 20
144.4716566443
 30
0.0
 11
113.5737351074
 21
145.6528689579
 31
0.0
  0
SPLINE
  5
AC
330
1F
100
AcDbEntity
  8
0
  6
Continuous
 62
     7
370
    15
100
AcDbSpline
210
0.0
220
0.0
230
1.0
 70
     8
 71
     3
 72
     8
 73
     4
 74
     0
 42
0.00000001
 43
0.00000001
 40
0.0
 40
0.0
 40
0.0
 40
0.0
 40
1.0
 40
1.0
 40
1.0
 40
1.0
 10
113.5737351074272
 20
145.6528689579256
 30
0.0
 10
114.0178851184527
 20
146.6742521888772
 30
0.0
 10
114.4689594287106
 20
147.6927367256456
 30
0.0
 10
114.9257641283486
 20
148.7083842126747
 30
0.0
  0
LINE
  5
AD
330
1F
100
AcDbEntity
  8
0
  6
Continuous
 62
     7
370
    15
100
AcDbLine
 10
114.9257641283
 20
148.7083842127
 30
0.0
 11
119.6137351074
 21
148.7083842127
 31
0.0
  0
SPLINE
  5
AE
330
1F
100
AcDbEntity
  8
0
  6
Continuous
 62
     7
370
    15
100
AcDbSpline
210
0.0
220
0.0
230
1.0
 70
     8
 71
     3
 72
    16
 73
    12
 74
     0
 42
0.00000001
 43
0.00000001
 40
0.0
 40
0.0
 40
0.0
 40
0.0
 40
0.125
 40
0.125
 40
0.25
 40
0.25
 40
0.5
 40
0.5
 40
0.75
 40
0.75
 40
1.0
 40
1.0
 40
1.0
 40
1.0
 10
119.6137351074262
 20
148.7083842126746
 30
0.0
 10
119.6893728138374
 20
148.7083842126748
 30
0.0
 10
119.7656884782557
 20
148.6970392125399
 30
0.0
 10
119.9100992161478
 20
148.6543866619015
 30
0.0
 10
119.9785456652562
 20
148.6234523372187
 30
0.0
 10
120.1734769178696
 20
148.5041959654512
 30
0.0
 10
120.2813180916506
 20
148.3940439518306
 30
0.0
 10
120.4500308398628
 20
148.1459078661725
 30
0.0
 10
120.5123952525864
 20
148.0055655421688
 30
0.0
 10
120.5936991770949
 20
147.71729385068
 30
0.0
 10
120.6137351074272
 20
147.5664888777001
 30
0.0
 10
120.6137351074272
 20
147.4161189863547
 30
0.0
  0
LINE
  5
AF
330
1F
100
AcDbEntity
  8
0
  6
Continuous
 62
     7
370
    15
100
AcDbLine
 10
120.6137351074
 20
147.4161189864
 30
0.0
 11
120.6137351074
 21
141.1074214518
 31
0.0
  0
SPLINE
  5
B0
330
1F
100
AcDbEntity
  8
0
  6
Continuous
 62
     7
370
    15
100
AcDbSpline
210
0.0
220
0.0
230
1.0
 70
     8
 71
     3
 72
    14
 73
    10
 74
     0
 42
0.00000001
 43
0.00000001
 40
0.0
 40
0.0
 40
0.0
 40
0.0
 40
0.25
 40
0.25
 40
0.5
 40
0.5
 40
0.75
 40
0.75
 40
1.0
 40
1.0
 40
1.0
 40
1.0
 10
113.5737351074272
 20
155.4509726926357
 30
0.0
 10
113.5737351074272
 20
155.3446159988833
 30
0.0
 10
113.5533475512859
 20
155.2387755111232
 30
0.0
 10
113.4747132058244
 20
155.0422105975867
 30
0.0
 10
113.4159818461857
 20
154.9510398552996
 30
0.0
 10
113.2693729405831
 20
154.799128766268
 30
0.0
 10
113.1799676205565
 20
154.7370599294484
 30
0.0
 10
112.9860768879561
 20
154.6537918816897
 30
0.0
 10
112.8795718980663
 20
154.6316972119601
 30
0.0
 10
112.7737351074269
 20
154.6316972119601
 30
0.0
  0
LINE
  5
B1
330
1F
100
AcDbEntity
  8
0
  6
Continuous
 62
     7
370
    15
100
AcDbLine
 10
119.6137351074
 20
158.7472163075
 30
0.0
 11
114.9257641283
 21
158.7472163075
 31
0.0
  0
LINE
  5
B2
330
1F
100
AcDbEntity
  8
0
  6
Continuous
 62
     7
370
    15
100
AcDbLine
 10
114.9257641283
 20
148.7083842127
 30
0.0
 11
114.9257641283
 21
158.7472163075
 31
0.0
  0
SPLINE
  5
B3
330
1F
100
AcDbEntity
  8
0
  6
Continuous
 62
     7
370
    15
100
AcDbSpline
210
0.0
220
0.0
230
1.0
 70
     8
 71
     3
 72
    10
 73
     6
 74
     0
 42
0.00000001
 43
0.00000001
 40
0.0
 40
0.0
 40
0.0
 40
0.0
 40
0.5
 40
0.5
 40
1.0
 40
1.0
 40
1.0
 40
1.0
 10
110.5537351074272
 20
154.6316972119602
 30
0.0
 10
110.3411987935708
 20
154.6316972119602
 30
0.0
 10
110.1312626219168
 20
154.7231097985903
 30
0.0
 10
109.8375554809056
 20
155.0278546644946
 30
0.0
 10
109.7537351074272
 20
155.2400096344032
 30
0.0
 10
109.7537351074272
 20
155.4509726926357
 30
0.0
  0
SPLINE
  5
B4
330
1F
100
AcDbEntity
  8
0
  6
Continuous
 62
     7
370
    15
100
AcDbSpline
210
0.0
220
0.0
230
1.0
 70
     8
 71
     3
 72
     8
 73
     4
 74
     0
 42
0.00000001
 43
0.00000001
 40
0.0
 40
0.0
 40
0.0
 40
0.0
 40
1.0
 40
1.0
 40
1.0
 40
1.0
 10
114.9257641283485
 20
158.7472163074513
 30
0.0
 10
114.4747371596353
 20
157.9499057372634
 30
0.0
 10
114.0240433431117
 20
157.1524074376062
 30
0.0
 10
113.5737351074272
 20
156.3546923124926
 30
0.0
  0
LINE
  5
B5
330
1F
100
AcDbEntity
  8
0
  6
Continuous
 62
     7
370
    15
100
AcDbLine
 10
113.5737351074
 20
145.6528689579
 30
0.0
 11
113.5737351074
 21
156.3546923125
 31
0.0
  0
SPLINE
  5
B6
330
1F
100
AcDbEntity
  8
0
  6
Continuous
 62
     7
370
    15
100
AcDbSpline
210
0.0
220
0.0
230
1.0
 70
     8
 71
     3
 72
    12
 73
     8
 74
     0
 42
0.00000001
 43
0.00000001
 40
0.0
 40
0.0
 40
0.0
 40
0.0
 40
0.5
 40
0.5
 40
0.75
 40
0.75
 40
1.0
 40
1.0
 40
1.0
 40
1.0
 10
120.6137351074272
 20
157.7261612726336
 30
0.0
 10
120.6137351074272
 20
157.9914307053999
 30
0.0
 10
120.5091283639407
 20
158.2539458110523
 30
0.0
 10
120.2324600121954
 20
158.5394834170896
 30
0.0
 10
120.1220947528434
 20
158.6158050339511
 30
0.0
 10
119.8780227042277
 20
158.7201471987912
 30
0.0
 10
119.7462702428959
 20
158.7472163074513
 30
0.0
 10
119.6137351074272
 20
158.7472163074513
 30
0.0
  0
LINE
  5
B7
330
1F
100
AcDbEntity
  8
0
  6
Continuous
 62
     7
370
    15
100
AcDbLine
 10
120.6137351074
 20
147.4161189864
 30
0.0
 11
120.6137351074
 21
157.7261612726
 31
0.0
  0
SPLINE
  5
B8
330
1F
100
AcDbEntity
  8
0
  6
Continuous
 62
     7
370
    15
100
AcDbSpline
210
0.0
220
0.0
230
1.0
 70
     8
 71
     3
 72
     8
 73
     4
 74
     0
 42
0.00000001
 43
0.00000001
 40
0.0
 40
0.0
 40
0.0
 40
0.0
 40
1.0
 40
1.0
 40
1.0
 40
1.0
 10
109.7537351074272
 20
156.3546923124926
 30
0.0
 10
109.3034268717426
 20
157.1524074376063
 30
0.0
 10
108.852733055219
 20
157.9499057372634
 30
0.0
 10
108.4017060865058
 20
158.7472163074513
 30
0.0
  0
LINE
  5
B9
330
1F
100
AcDbEntity
  8
0
  6
Continuous
 62
     7
370
    15
100
AcDbLine
 10
109.7537351074
 20
145.6528689579
 30
0.0
 11
109.7537351074
 21
156.3546923125
 31
0.0
  0
LINE
  5
BA
330
1F
100
AcDbEntity
  8
0
  6
Continuous
 62
     7
370
    15
100
AcDbLine
 10
112.7737351074
 20
154.631697212
 30
0.0
 11
110.5537351074
 21
154.631697212
 31
0.0
  0
ARC
  5
BB
330
1F
100
AcDbEntity
  8
0
  6
Continuous
 62
     7
370
    15
100
AcDbCircle
 10
100.664954324
 20
142.3265927851
 30
0.0
 40
11.4467202352328
100
AcDbArc
 50
78.050103935
 51
102.2889719442
  0
LINE
  5
BC
330
1F
100
AcDbEntity
  8
0
  6
Continuous
 62
     7
370
    15
100
AcDbLine
 10
169.6137351074
 20
91.2574214518
 30
0.0
 11
169.6137351074
 21
128.2574214518
 31
0.0
  0
SPLINE
  5
BD
330
1F
100
AcDbEntity
  8
0
  6
Continuous
 62
     7
370
    15
100
AcDbSpline
210
0.0
220
0.0
230
1.0
 70
     8
 71
     3
 72
    36
 73
    32
 74
     0
 42
0.00000001
 43
0.00000001
 40
0.0
 40
0.0
 40
0.0
 40
0.0
 40
0.0357613722576521
 40
0.0587513450644419
 40
0.0798388081700852
 40
0.1226632230220689
 40
0.1444303390643935
 40
0.166914648811948
 40
0.2125050862170833
 40
0.2356350186856491
 40
0.2609851458266357
 40
0.3123834852203724
 40
0.3384625442801775
 40
0.3669656416325625
 40
0.4248179541335042
 40
0.4542164102240693
 40
0.4848436370423829
 40
0.5470974981364461
 40
0.5787958321522265
 40
0.6099841110857974
 40
0.641396223913505
 40
0.6735357952132693
 40
0.7059378823974436
 40
0.7360124283565393
 40
0.7973900325835213
 40
0.8288324257838936
 40
0.8556704492915468
 40
0.910552826550011
 40
0.9387354336579352
 40
0.9616844615909622
 40
1.0
 40
1.0
 40
1.0
 40
1.0
 10
164.1070496447453
 20
128.2564714146545
 30
0.0
 10
164.1051367647693
 20
128.2561951342159
 30
0.0
 10
164.1019941484646
 20
128.2557412409127
 30
0.0
 10
164.0486031424549
 20
128.248201916798
 30
0.0
 10
163.9700485077477
 20
128.2372761479683
 30
0.0
 10
163.8576164539514
 20
128.2220067500079
 30
0.0
 10
163.7130759998675
 20
128.203270805123
 30
0.0
 10
163.5436370976921
 20
128.1820726736213
 30
0.0
 10
163.3421693297435
 20
128.1583829186221
 30
0.0
 10
163.1094842709717
 20
128.1333735766659
 30
0.0
 10
162.8454137180498
 20
128.1069351023582
 30
0.0
 10
162.5485232811177
 20
128.0808684678976
 30
0.0
 10
162.2236206871423
 20
128.0571125539685
 30
0.0
 10
161.8665987822007
 20
128.0347621478976
 30
0.0
 10
161.482028071683
 20
128.0173322493455
 30
0.0
 10
161.0816894107988
 20
128.0067573320399
 30
0.0
 10
160.6623406857707
 20
128.0011298028077
 30
0.0
 10
160.2321391574624
 20
128.0041695162868
 30
0.0
 10
159.8075591849315
 20
128.0158529905433
 30
0.0
 10
159.4931784045523
 20
128.0287110181147
 30
0.0
 10
159.1853188811068
 20
128.0453037029253
 30
0.0
 10
158.8841399008444
 20
128.0653586517452
 30
0.0
 10
158.6003626365606
 20
128.0877369541643
 30
0.0
 10
158.2493511855081
 20
128.1193127280347
 30
0.0
 10
157.9346534921097
 20
128.1525980593318
 30
0.0
 10
157.674137562789
 20
128.1833122240545
 30
0.0
 10
157.4583054110703
 20
128.2102314673835
 30
0.0
 10
157.2936112649803
 20
128.2322771215318
 30
0.0
 10
157.1897361396407
 20
128.2466743747874
 30
0.0
 10
157.1272095203895
 20
128.255492128848
 30
0.0
 10
157.122963993045
 20
128.2561046629696
 30
0.0
 10
157.1203087932167
 20
128.2564877485941
 30
0.0
  0
SPLINE
  5
BE
330
1F
100
AcDbEntity
  8
0
  6
Continuous
 62
     7
370
    15
100
AcDbSpline
210
0.0
220
0.0
230
1.0
 70
     8
 71
     3
 72
    10
 73
     6
 74
     0
 42
0.00000001
 43
0.00000001
 40
0.0
 40
0.0
 40
0.0
 40
0.0
 40
0.0662302223958142
 40
0.5317874780764131
 40
1.0
 40
1.0
 40
1.0
 40
1.0
 10
157.8799738039445
 20
128.1594637979134
 30
0.0
 10
157.8876838099913
 20
128.1585733028584
 30
0.0
 10
157.9495903614611
 20
128.1514231816234
 30
0.0
 10
158.0785232885251
 20
128.1374729284425
 30
0.0
 10
158.2065208709194
 20
128.1246564456809
 30
0.0
 10
158.2707016489767
 20
128.1182299818352
 30
0.0
  0
SPLINE
  5
BF
330
1F
100
AcDbEntity
  8
0
  6
Continuous
 62
     7
370
    15
100
AcDbSpline
210
0.0
220
0.0
230
1.0
 70
     8
 71
     3
 72
    70
 73
    66
 74
     0
 42
0.00000001
 43
0.00000001
 40
-0.03125
 40
-0.03125
 40
0.0
 40
0.0
 40
0.03125
 40
0.03125
 40
0.0625
 40
0.0625
 40
0.09375
 40
0.09375
 40
0.125
 40
0.125
 40
0.15625
 40
0.15625
 40
0.1875
 40
0.1875
 40
0.21875
 40
0.21875
 40
0.25
 40
0.25
 40
0.28125
 40
0.28125
 40
0.3125
 40
0.3125
 40
0.34375
 40
0.34375
 40
0.375
 40
0.375
 40
0.40625
 40
0.40625
 40
0.4375
 40
0.4375
 40
0.46875
 40
0.46875
 40
0.5
 40
0.5
 40
0.53125
 40
0.53125
 40
0.5625
 40
0.5625
 40
0.59375
 40
0.59375
 40
0.625
 40
0.625
 40
0.65625
 40
0.65625
 40
0.6875
 40
0.6875
 40
0.71875
 40
0.71875
 40
0.75
 40
0.75
 40
0.78125
 40
0.78125
 40
0.8125
 40
0.8125
 40
0.84375
 40
0.84375
 40
0.875
 40
0.875
 40
0.90625
 40
0.90625
 40
0.9375
 40
0.9375
 40
0.96875
 40
0.96875
 40
1.0
 40
1.0
 40
1.03125
 40
1.03125
 10
158.101215285635
 20
111.8884352166452
 30
0.0
 10
158.4401880147277
 20
112.1566218630769
 30
0.0
 10
158.6195510491207
 20
112.2727379178548
 30
0.0
 10
158.9961417071808
 20
112.4726805520339
 30
0.0
 10
159.1945147781494
 20
112.5568253390819
 30
0.0
 10
159.6044231500985
 20
112.6909105637042
 30
0.0
 10
159.8126884260297
 20
112.7399997718573
 30
0.0
 10
160.2355394828521
 20
112.8040384302135
 30
0.0
 10
160.4518774450471
 20
112.8189129243449
 30
0.0
 10
160.8824732321502
 20
112.8130825645824
 30
0.0
 10
161.0951940206063
 20
112.7927243038942
 30
0.0
 10
161.5155676394759
 20
112.7176494794741
 30
0.0
 10
161.7249097435131
 20
112.6623076077911
 30
0.0
 10
162.1299132621825
 20
112.5173461175958
 30
0.0
 10
162.3237521086091
 20
112.4287405528137
 30
0.0
 10
162.6939151993508
 20
112.2187311423269
 30
0.0
 10
162.8717180055583
 20
112.0961065366835
 30
0.0
 10
163.2006803439459
 20
111.8193353406536
 30
0.0
 10
163.3496435742911
 20
111.6675242096146
 30
0.0
 10
163.6151327139054
 20
111.3356524399655
 30
0.0
 10
163.7329628013474
 20
111.1529023155699
 30
0.0
 10
163.9235536721608
 20
110.7676261514738
 30
0.0
 10
163.9960224337395
 20
110.567282036109
 30
0.0
 10
164.0929570473229
 20
110.1503336818112
 30
0.0
 10
164.1166826046345
 20
109.9316982970222
 30
0.0
 10
164.1101808770249
 20
109.5031599979053
 30
0.0
 10
164.0806148703323
 20
109.2885753924592
 30
0.0
 10
163.9702994243952
 20
108.869989665477
 30
0.0
 10
163.8912652683217
 20
108.6706277132308
 30
0.0
 10
163.6891580623202
 20
108.2901528785107
 30
0.0
 10
163.5662999963793
 20
108.1106590710471
 30
0.0
 10
163.2896247240379
 20
107.783533929623
 30
0.0
 10
163.1330643944902
 20
107.6326457393034
 30
0.0
 10
162.7967208749013
 20
107.3648781682462
 30
0.0
 10
162.617518315655
 20
107.2478422760873
 30
0.0
 10
162.2383427952295
 20
107.0452730588789
 30
0.0
 10
162.0380904053027
 20
106.9601140213703
 30
0.0
 10
161.6311222132048
 20
106.8261703545595
 30
0.0
 10
161.4227070117549
 20
106.7763862768805
 30
0.0
 10
160.9960066750482
 20
106.7110883536484
 30
0.0
 10
160.7796349965469
 20
106.6961678363852
 30
0.0
 10
160.351611846144
 20
106.7013853780541
 30
0.0
 10
160.1383668507142
 20
106.7212507171392
 30
0.0
 10
159.7134609677395
 20
106.7966991803929
 30
0.0
 10
159.5040120866452
 20
106.8521997851261
 30
0.0
 10
159.1018712644268
 20
106.995771139319
 30
0.0
 10
158.9075066937581
 20
107.0840845371344
 30
0.0
 10
158.533103701141
 20
107.296237364728
 30
0.0
 10
158.354819748086
 20
107.4195859611355
 30
0.0
 10
158.0289315168903
 20
107.6936408667526
 30
0.0
 10
157.8794116533909
 20
107.8453074790371
 30
0.0
 10
157.6104144407987
 20
108.1816242884394
 30
0.0
 10
157.4932267059205
 20
108.3643804414493
 30
0.0
 10
157.3044062669826
 20
108.7463764833645
 30
0.0
 10
157.2309239428698
 20
108.9483425748051
 30
0.0
 10
157.1331538882917
 20
109.3718559553395
 30
0.0
 10
157.1106174572716
 20
109.5851239345166
 30
0.0
 10
157.1175367804726
 20
110.0146451764263
 30
0.0
 10
157.1481304748813
 20
110.2326352709232
 30
0.0
 10
157.2584400581248
 20
110.6481042377561
 30
0.0
 10
157.3388190376392
 20
110.8502803044561
 30
0.0
 10
157.5425876535469
 20
111.2315553963891
 30
0.0
 10
157.6641847908817
 20
111.4084414063129
 30
0.0
 10
157.943435963424
 20
111.7372037878262
 30
0.0
 10
158.101215285635
 20
111.8884352166452
 30
0.0
 10
158.4401880147277
 20
112.1566218630769
 30
0.0
  0
SPLINE
  5
C0
330
1F
100
AcDbEntity
  8
0
  6
Continuous
 62
     7
370
    15
100
AcDbSpline
210
0.0
220
0.0
230
1.0
 70
     8
 71
     3
 72
    37
 73
    33
 74
     0
 42
0.00000001
 43
0.00000001
 40
0.0
 40
0.0
 40
0.0
 40
0.0
 40
0.0247245036645808
 40
0.048051889920863
 40
0.0691161430317018
 40
0.1119071179046574
 40
0.1336660088391346
 40
0.1558752525102237
 40
0.2009126093896617
 40
0.2237645340798502
 40
0.2487139659497818
 40
0.2992967066616393
 40
0.3249593022007929
 40
0.3531019205296204
 40
0.4102127799702247
 40
0.439227557402758
 40
0.4696742445054773
 40
0.5315502554999169
 40
0.5630484658565221
 40
0.594248758761765
 40
0.6256707381820321
 40
0.657809699851815
 40
0.690205739199151
 40
0.720529511667264
 40
0.782393113555079
 40
0.8140676204320471
 40
0.8414015545304409
 40
0.8972950313940251
 40
0.9259977916749684
 40
0.949358321759294
 40
0.9970427586930029
 40
1.0
 40
1.0
 40
1.0
 40
1.0
 10
157.1241913471671
 20
91.25890931663524
 30
0.0
 10
157.1221225661128
 20
91.25861595943935
 30
0.0
 10
157.1181019054419
 20
91.25804582189984
 30
0.0
 10
157.1563391385707
 20
91.2634709942289
 30
0.0
 10
157.2227243822306
 20
91.27277144232926
 30
0.0
 10
157.3243683878711
 20
91.28673204018223
 30
0.0
 10
157.458285711664
 20
91.30435677845111
 30
0.0
 10
157.6164488705948
 20
91.32450937624887
 30
0.0
 10
157.8064837432837
 20
91.3473974094028
 30
0.0
 10
158.0278346822529
 20
91.37193729463286
 30
0.0
 10
158.279853667529
 20
91.39811715714497
 30
0.0
 10
158.5647675706377
 20
91.42438325892925
 30
0.0
 10
158.8784742449354
 20
91.44888196481848
 30
0.0
 10
159.2248795673104
 20
91.47242513829654
 30
0.0
 10
159.6000692485518
 20
91.49165557324699
 30
0.0
 10
159.9931411854245
 20
91.50453976830734
 30
0.0
 10
160.4075905646
 20
91.51282955489619
 30
0.0
 10
160.8355430328821
 20
91.51271802605888
 30
0.0
 10
161.2608166993571
 20
91.50389969132385
 30
0.0
 10
161.5777332739648
 20
91.49305456356382
 30
0.0
 10
161.8899739248985
 20
91.47824702479643
 30
0.0
 10
162.1967578634486
 20
91.45972413255146
 30
0.0
 10
162.4880831094258
 20
91.43846594123228
 30
0.0
 10
162.8517743324567
 20
91.4077405802923
 30
0.0
 10
163.1819131580996
 20
91.37439777224071
 30
0.0
 10
163.4602017109052
 20
91.34267884008399
 30
0.0
 10
163.6952530171109
 20
91.31414344819414
 30
0.0
 10
163.8792423250791
 20
91.28997173229692
 30
0.0
 10
164.0038061197998
 20
91.27289346475077
 30
0.0
 10
164.0843514950663
 20
91.26162914304251
 30
0.0
 10
164.119762182095
 20
91.25656334088441
 30
0.0
 10
164.1128588221542
 20
91.25754617327598
 30
0.0
 10
164.1124556976551
 20
91.25760356617147
 30
0.0
  0
SPLINE
  5
C1
330
1F
100
AcDbEntity
  8
0
  6
Continuous
 62
     7
370
    15
100
AcDbSpline
210
0.0
220
0.0
230
1.0
 70
     8
 71
     3
 72
     9
 73
     5
 74
     0
 42
0.00000001
 43
0.00000001
 40
0.0
 40
0.0
 40
0.0
 40
0.0
 40
0.3013459654887349
 40
0.9999999999999999
 40
0.9999999999999999
 40
0.9999999999999999
 40
0.9999999999999999
 10
158.5553405818484
 20
91.42217503212514
 30
0.0
 10
158.5250863354439
 20
91.41976463238969
 30
0.0
 10
158.4246892839836
 20
91.41176585353905
 30
0.0
 10
158.3340365486898
 20
91.40284530147494
 30
0.0
 10
158.2707016494373
 20
91.39661292178528
 30
0.0
  0
CIRCLE
  5
C2
330
1F
100
AcDbEntity
  8
0
  6
Continuous
 62
     7
370
    15
100
AcDbCircle
 10
160.6137351074
 20
109.7574214518
 30
0.0
 40
2.5
  0
LINE
  5
C3
330
1F
100
AcDbEntity
  8
0
  6
Continuous
 62
     7
370
    15
100
AcDbLine
 10
43.4137351074
 20
77.5074214518
 30
0.0
 11
43.4137351074
 21
77.50913625
 31
0.0
  0
LINE
  5
C4
330
1F
100
AcDbEntity
  8
0
  6
Continuous
 62
     7
370
    15
100
AcDbLine
 10
207.1920185308
 20
92.7574214518
 30
0.0
 11
207.1920185308
 21
126.7574214518
 31
0.0
  0
LINE
  5
C5
330
1F
100
AcDbEntity
  8
0
  6
Continuous
 62
     7
370
    15
100
AcDbLine
 10
43.4137351074
 20
142.0074214518
 30
0.0
 11
43.4137351074
 21
142.0057066536
 31
0.0
  0
LINE
  5
C6
330
1F
100
AcDbEntity
  8
0
  6
Continuous
 62
     7
370
    15
100
AcDbLine
 10
251.6637351074
 20
98.1062024351
 30
0.0
 11
251.6637351074
 21
121.4086404685
 31
0.0
  0
LINE
  5
C7
330
1F
100
AcDbEntity
  8
0
  6
Continuous
 62
     7
370
    15
100
AcDbLine
 10
251.6637351074
 20
100.5080001207
 30
0.0
 11
251.7410573146
 21
98.5400185339
 31
0.0
  0
LINE
  5
C8
330
1F
100
AcDbEntity
  8
0
  6
Continuous
 62
     7
370
    15
100
AcDbLine
 10
251.6757532429
 20
120.8138820948
 30
0.0
 11
251.6637351074
 21
120.5080001207
 31
0.0
  0
LINE
  5
C9
330
1F
100
AcDbEntity
  8
0
  6
Continuous
 62
     7
370
    15
100
AcDbLine
 10
251.6821675909
 20
120.9771381533
 30
0.0
 11
251.6757532429
 21
120.8138820948
 31
0.0
  0
SPLINE
  5
CA
330
1F
100
AcDbEntity
  8
0
  6
HIDDEN
 62
     7
370
     0
100
AcDbSpline
210
0.0
220
0.0
230
1.0
 70
     8
 71
     3
 72
    80
 73
    76
 74
     0
 42
0.00000001
 43
0.00000001
 40
-0.0312500000000007
 40
-0.0312500000000007
 40
0.0
 40
0.0
 40
0.0312499999999999
 40
0.0312499999999999
 40
0.0468749999999997
 40
0.0468749999999997
 40
0.0624999999999995
 40
0.0624999999999995
 40
0.0937499999999991
 40
0.0937499999999991
 40
0.1249999999999987
 40
0.1249999999999987
 40
0.1562499999999983
 40
0.1562499999999983
 40
0.1874999999999979
 40
0.1874999999999979
 40
0.2187499999999975
 40
0.2187499999999975
 40
0.2499999999999971
 40
0.2499999999999971
 40
0.2812499999999969
 40
0.2812499999999969
 40
0.3124999999999967
 40
0.3124999999999967
 40
0.3281249999999967
 40
0.3281249999999967
 40
0.3437499999999967
 40
0.3437499999999967
 40
0.3749999999999966
 40
0.3749999999999966
 40
0.4062499999999966
 40
0.4062499999999966
 40
0.4218749999999964
 40
0.4218749999999964
 40
0.4374999999999962
 40
0.4374999999999962
 40
0.4687499999999959
 40
0.4687499999999959
 40
0.4999999999999956
 40
0.4999999999999956
 40
0.5312499999999952
 40
0.5312499999999952
 40
0.5624999999999949
 40
0.5624999999999949
 40
0.5937499999999946
 40
0.5937499999999946
 40
0.6249999999999942
 40
0.6249999999999942
 40
0.6562499999999939
 40
0.6562499999999939
 40
0.6874999999999936
 40
0.6874999999999936
 40
0.7031249999999936
 40
0.7031249999999936
 40
0.7187499999999937
 40
0.7187499999999937
 40
0.7499999999999942
 40
0.7499999999999942
 40
0.7812499999999947
 40
0.7812499999999947
 40
0.7968749999999951
 40
0.7968749999999951
 40
0.8124999999999954
 40
0.8124999999999954
 40
0.8437499999999962
 40
0.8437499999999962
 40
0.874999999999997
 40
0.874999999999997
 40
0.9062499999999978
 40
0.9062499999999978
 40
0.9374999999999986
 40
0.9374999999999986
 40
0.9687499999999993
 40
0.9687499999999993
 40
1.0
 40
1.0
 40
1.03125
 40
1.03125
 10
100.3331897946509
 20
158.6169707082657
 30
0.0
 10
100.9942804202035
 20
158.6169707082657
 30
0.0
 10
101.3192605494551
 20
158.6100725624389
 30
0.0
 10
101.7987339607015
 20
158.5895461344583
 30
0.0
 10
101.9572157785423
 20
158.5809899073708
 30
0.0
 10
102.2714353110466
 20
158.5602635321532
 30
0.0
 10
102.427555594727
 20
158.5480362319468
 30
0.0
 10
102.8816096236836
 20
158.5064669381176
 30
0.0
 10
103.1687130066234
 20
158.4721226530198
 30
0.0
 10
103.7120675626504
 20
158.3887985286975
 30
0.0
 10
103.969171173856
 20
158.339360305923
 30
0.0
 10
104.4300774287948
 20
158.2279805761631
 30
0.0
 10
104.6369751380098
 20
158.165686062651
 30
0.0
 10
105.002500452002
 20
158.02575641978
 30
0.0
 10
105.1577059741279
 20
157.9491405220309
 30
0.0
 10
105.4071363607276
 20
157.7851819021752
 30
0.0
 10
105.5032263165128
 20
157.6966250480795
 30
0.0
 10
105.6317451657064
 20
157.5091443659737
 30
0.0
 10
105.6635560358842
 20
157.4119079045193
 30
0.0
 10
105.6639126856575
 20
157.2102752651922
 30
0.0
 10
105.6314154334604
 20
157.104726473354
 30
0.0
 10
105.5037899597459
 20
156.8946116906656
 30
0.0
 10
105.409361558694
 20
156.7895461826966
 30
0.0
 10
105.2215007387084
 20
156.6326684754455
 30
0.0
 10
105.1506727399052
 20
156.5802347417398
 30
0.0
 10
104.99595084794
 20
156.4777962961101
 30
0.0
 10
104.9119743777566
 20
156.4276485674582
 30
0.0
 10
104.6406507081121
 20
156.2806326110247
 30
0.0
 10
104.4341014895098
 20
156.1871447905902
 30
0.0
 10
103.9674913493208
 20
156.0113579329759
 30
0.0
 10
103.7151257796954
 20
155.9319794578923
 30
0.0
 10
103.3092244380166
 20
155.8264970203982
 30
0.0
 10
103.1693238205391
 20
155.7936114555581
 30
0.0
 10
102.8800998852922
 20
155.7326959763294
 30
0.0
 10
102.7302604290029
 20
155.7046154046869
 30
0.0
 10
102.2761438593921
 20
155.6298133626441
 30
0.0
 10
101.9644926406553
 20
155.591775304398
 30
0.0
 10
101.3234961757429
 20
155.5401633778739
 30
0.0
 10
100.9919685477907
 20
155.5268494443524
 30
0.0
 10
100.3391775027193
 20
155.5267523580243
 30
0.0
 10
100.0146412976874
 20
155.5395404431854
 30
0.0
 10
99.36937184827103
 20
155.5910306327814
 30
0.0
 10
99.05362884210832
 20
155.6295552121014
 30
0.0
 10
98.45173954712462
 20
155.7284577749595
 30
0.0
 10
98.16099031631315
 20
155.7895618728845
 30
0.0
 10
97.61407852462864
 20
155.9313713059952
 30
0.0
 10
97.36230116079174
 20
156.0107057905743
 30
0.0
 10
96.9009131681706
 20
156.1840845352359
 30
0.0
 10
96.68964388857252
 20
156.2792444799899
 30
0.0
 10
96.32633953619631
 20
156.4758170033657
 30
0.0
 10
96.17253288775353
 20
156.5775732317722
 30
0.0
 10
95.98391341815612
 20
156.7343591945576
 30
0.0
 10
95.92788293194701
 20
156.7876132283076
 30
0.0
 10
95.83230917021085
 20
156.8934177898604
 30
0.0
 10
95.79254625318585
 20
156.9460708542159
 30
0.0
 10
95.69677450287371
 20
157.1031445736751
 30
0.0
 10
95.66405166374761
 20
157.2066696090022
 30
0.0
 10
95.66342307741851
 20
157.4108843432293
 30
0.0
 10
95.69560922215328
 20
157.5083881808141
 30
0.0
 10
95.79051992400888
 20
157.6477152311657
 30
0.0
 10
95.82998670740783
 20
157.6930319626702
 30
0.0
 10
95.92491670612871
 20
157.781471783659
 30
0.0
 10
95.98067353389209
 20
157.824726034119
 30
0.0
 10
96.16861365186196
 20
157.948617508709
 30
0.0
 10
96.32197512157815
 20
158.024319799483
 30
0.0
 10
96.6842393564585
 20
158.1635741709412
 30
0.0
 10
96.8950878299244
 20
158.2273360124699
 30
0.0
 10
97.35575780024332
 20
158.3388328519378
 30
0.0
 10
97.60713217982715
 20
158.3873589242544
 30
0.0
 10
98.15304006672528
 20
158.4714129076349
 30
0.0
 10
98.44386264137651
 20
158.5062114613016
 30
0.0
 10
99.04518925615655
 20
158.5614079260654
 30
0.0
 10
99.35970784076893
 20
158.5822257748193
 30
0.0
 10
100.0062892968889
 20
158.61007310773
 30
0.0
 10
100.3331897946509
 20
158.6169707082657
 30
0.0
 10
100.9942804202035
 20
158.6169707082657
 30
0.0
  0
LINE
  5
CB
330
1F
100
AcDbEntity
  8
0
  6
HIDDEN
 62
     7
370
     0
100
AcDbLine
 10
108.4017060865
 20
148.7083842127
 30
0.0
 11
108.4017060865
 21
141.1074214518
 31
0.0
  0
SPLINE
  5
CC
330
1F
100
AcDbEntity
  8
0
  6
HIDDEN
 62
     7
370
     0
100
AcDbSpline
210
0.0
220
0.0
230
1.0
 70
     8
 71
     3
 72
     9
 73
     5
 74
     0
 42
0.00000001
 43
0.00000001
 40
0.0
 40
0.0
 40
0.0
 40
0.0
 40
0.5038163044167481
 40
1.0
 40
1.0
 40
1.0
 40
1.0
 10
72.07715985685452
 20
73.0216150895136
 30
0.0
 10
71.79348067211602
 20
72.99746191541487
 30
0.0
 10
71.2304199250707
 20
72.94952147782483
 30
0.0
 10
70.87405888326148
 20
72.90820912953899
 30
0.0
 10
70.69723834457469
 20
72.8877106158933
 30
0.0
  0
SPLINE
  5
CD
330
1F
100
AcDbEntity
  8
0
  6
HIDDEN
 62
     7
370
     0
100
AcDbSpline
210
0.0
220
0.0
230
1.0
 70
     8
 71
     3
 72
    12
 73
     8
 74
     0
 42
0.00000001
 43
0.00000001
 40
0.0
 40
0.0
 40
0.0
 40
0.0
 40
0.1661348616735903
 40
0.3322013257393936
 40
0.5008932044678248
 40
0.752137078264078
 40
1.0
 40
1.0
 40
1.0
 40
1.0
 10
70.1830567730744
 20
146.6887254748533
 30
0.0
 10
70.19344939718246
 20
146.6873473507918
 30
0.0
 10
70.21423036676241
 20
146.6845916700417
 30
0.0
 10
70.38752985620933
 20
146.6629882950797
 30
0.0
 10
70.70948144545305
 20
146.6251233431378
 30
0.0
 10
71.23064728137238
 20
146.5647395764216
 30
0.0
 10
71.7962052212101
 20
146.5169464392722
 30
0.0
 10
72.07706864489815
 20
146.4932117461788
 30
0.0
  0
SPLINE
  5
CE
330
1F
100
AcDbEntity
  8
0
  6
HIDDEN
 62
     7
370
     0
100
AcDbSpline
210
0.0
220
0.0
230
1.0
 70
     8
 71
     3
 72
    33
 73
    29
 74
     0
 42
0.00000001
 43
0.00000001
 40
0.0
 40
0.0
 40
0.0
 40
0.0
 40
0.0315773698875104
 40
0.0633753287769057
 40
0.0958656851178231
 40
0.1285943208117605
 40
0.1601713694082662
 40
0.2244011681247345
 40
0.2571344568799636
 40
0.2885965627565487
 40
0.3526214070085076
 40
0.3852675959519929
 40
0.4162212184009612
 40
0.4791910353915302
 40
0.5112817741273479
 40
0.5421256322990662
 40
0.6048360558905652
 40
0.6367710793564881
 40
0.6680663384719832
 40
0.7316979547407203
 40
0.7641081282919966
 40
0.7957194290717577
 40
0.8275524266255816
 40
0.8600900250720824
 40
0.8928737620729298
 40
0.9241775068323748
 40
0.9878778414776339
 40
1.0
 40
1.0
 40
1.0
 40
1.0
 10
81.91694076261821
 20
78.39109923104066
 30
0.0
 10
81.83306961561296
 20
78.40497296942239
 30
0.0
 10
81.66474142566902
 20
78.43281736350714
 30
0.0
 10
81.36538682932752
 20
78.47925000373753
 30
0.0
 10
81.03138736206867
 20
78.52786260575837
 30
0.0
 10
80.6656174001814
 20
78.57701053894561
 30
0.0
 10
80.14223748549253
 20
78.64107632453825
 30
0.0
 10
79.56581027689793
 20
78.70085783894338
 30
0.0
 10
78.95067313004638
 20
78.75085744640742
 30
0.0
 10
78.31435740396347
 20
78.79299743909085
 30
0.0
 10
77.65057686652477
 20
78.82163216382887
 30
0.0
 10
76.97851111494165
 20
78.83389161491247
 30
0.0
 10
76.30906253150992
 20
78.83522090602075
 30
0.0
 10
75.64387796439597
 20
78.82036038311129
 30
0.0
 10
74.99758672550547
 20
78.79050241872213
 30
0.0
 10
74.3683967746471
 20
78.75175919066083
 30
0.0
 10
73.76868108246782
 20
78.70118095690097
 30
0.0
 10
73.21038151634602
 20
78.64278094243444
 30
0.0
 10
72.68018664595844
 20
78.58045771106492
 30
0.0
 10
72.20101994364686
 20
78.51504913652937
 30
0.0
 10
71.78610195845201
 20
78.4522602329234
 30
0.0
 10
71.50882957452596
 20
78.40775563410202
 30
0.0
 10
71.26727428896479
 20
78.36704668466705
 30
0.0
 10
71.06178228461637
 20
78.33098955401756
 30
0.0
 10
70.89761786087213
 20
78.3012325290652
 30
0.0
 10
70.73818391430684
 20
78.27164721564078
 30
0.0
 10
70.65994568635824
 20
78.25669793663592
 30
0.0
 10
70.66767047670305
 20
78.25817035923713
 30
0.0
 10
70.6689054813725
 20
78.2584057635273
 30
0.0
  0
SPLINE
  5
CF
330
1F
100
AcDbEntity
  8
0
  6
HIDDEN
 62
     7
370
     0
100
AcDbSpline
210
0.0
220
0.0
230
1.0
 70
     8
 71
     3
 72
    32
 73
    28
 74
     0
 42
0.00000001
 43
0.00000001
 40
0.0
 40
0.0
 40
0.0
 40
0.0
 40
0.020356822172105
 40
0.0512207857583794
 40
0.1139954454389432
 40
0.1459779869097674
 40
0.1769364677636727
 40
0.2398766914470389
 40
0.2719275468465721
 40
0.3033698011481659
 40
0.3673099924152954
 40
0.3998847012176188
 40
0.4314690120325909
 40
0.4957360700021212
 40
0.5285028301030422
 40
0.5596434488300034
 40
0.6230067766607702
 40
0.6553079823205556
 40
0.6861132872619372
 40
0.748756262689177
 40
0.7806634244345373
 40
0.8117607067089887
 40
0.8749825776111492
 40
0.9071778073885584
 40
0.9301738434827028
 40
0.9765719131095674
 40
1.0
 40
1.0
 40
1.0
 40
1.0
 10
70.6689054813725
 20
141.2564371400481
 30
0.0
 10
70.66854842946626
 20
141.256504618975
 30
0.0
 10
70.66765003387975
 20
141.2566744059697
 30
0.0
 10
70.73024378043239
 20
141.2447801647823
 30
0.0
 10
70.8720549618959
 20
141.2181332878627
 30
0.0
 10
71.09609955377141
 20
141.1777512164501
 30
0.0
 10
71.37064166960563
 20
141.1298819746997
 30
0.0
 10
71.71933295861318
 20
141.0724120894199
 30
0.0
 10
72.13560892099059
 20
141.0099175423653
 30
0.0
 10
72.59720296785338
 20
140.945391860726
 30
0.0
 10
73.12074091694853
 20
140.8808114837428
 30
0.0
 10
73.69293839140329
 20
140.8220561188579
 30
0.0
 10
74.29514476185525
 20
140.7686832624758
 30
0.0
 10
74.93637126863673
 20
140.7258207006435
 30
0.0
 10
75.59745658663289
 20
140.6977566546225
 30
0.0
 10
76.26416754107946
 20
140.6801679970828
 30
0.0
 10
76.93805676168638
 20
140.6787213488421
 30
0.0
 10
77.60240624563419
 20
140.6936468879799
 30
0.0
 10
78.25394051979382
 20
140.7186536132035
 30
0.0
 10
78.88459973244983
 20
140.7577576558854
 30
0.0
 10
79.4821387082723
 20
140.8078588136691
 30
0.0
 10
80.05613667622704
 20
140.8640299801523
 30
0.0
 10
80.58708638962035
 20
140.9269440088411
 30
0.0
 10
81.03046727088444
 20
140.9870475108947
 30
0.0
 10
81.38198791845808
 20
141.03793722788
 30
0.0
 10
81.67165542843493
 20
141.0830597044178
 30
0.0
 10
81.85531819283264
 20
141.1135227163052
 30
0.0
 10
81.91694076261821
 20
141.1237436725348
 30
0.0
  0
SPLINE
  5
D0
330
1F
100
AcDbEntity
  8
0
  6
HIDDEN
 62
     7
370
     0
100
AcDbSpline
210
0.0
220
0.0
230
1.0
 70
     8
 71
     3
 72
    13
 73
     9
 74
     0
 42
0.00000001
 43
0.00000001
 40
0.0
 40
0.0
 40
0.0
 40
0.0
 40
0.1623799816591789
 40
0.3258962967501759
 40
0.4929818113643412
 40
0.6612959817031199
 40
0.8237063551432365
 40
1.0
 40
1.0
 40
1.0
 40
1.0
 10
81.91694076261821
 20
141.1237436725348
 30
0.0
 10
81.99253027157556
 20
141.1361194447917
 30
0.0
 10
82.14423826409198
 20
141.1609575948317
 30
0.0
 10
82.32713716393685
 20
141.1882159427554
 30
0.0
 10
82.47619941337928
 20
141.2093357904039
 30
0.0
 10
82.5801499538225
 20
141.2233222181393
 30
0.0
 10
82.65548189893985
 20
141.23311519158
 30
0.0
 10
82.64725210027275
 20
141.2320438545566
 30
0.0
 10
82.64296853372176
 20
141.2314862293188
 30
0.0
  0
SPLINE
  5
D1
330
1F
100
AcDbEntity
  8
0
  6
HIDDEN
 62
     7
370
     0
100
AcDbSpline
210
0.0
220
0.0
230
1.0
 70
     8
 71
     3
 72
    13
 73
     9
 74
     0
 42
0.00000001
 43
0.00000001
 40
0.0
 40
0.0
 40
0.0
 40
0.0
 40
0.1540223516861439
 40
0.3222978879394844
 40
0.4885662367489577
 40
0.6560437831874955
 40
0.8273549263198314
 40
1.0
 40
1.0
 40
1.0
 40
1.0
 10
82.64296818244601
 20
78.28335671969845
 30
0.0
 10
82.64815385341544
 20
78.2826848902618
 30
0.0
 10
82.65900507586916
 20
78.28127906048374
 30
0.0
 10
82.58966363756035
 20
78.29026595335532
 30
0.0
 10
82.48954617334738
 20
78.30368006949105
 30
0.0
 10
82.34301840531734
 20
78.32432061785818
 30
0.0
 10
82.15680450742205
 20
78.35188607877261
 30
0.0
 10
81.99710179716648
 20
78.37799442916125
 30
0.0
 10
81.91694076261821
 20
78.39109923104066
 30
0.0
  0
LINE
  5
D2
330
1F
100
AcDbEntity
  8
0
  6
HIDDEN
 62
     7
370
     0
100
AcDbLine
 10
61.6603594345
 20
83.2574214518
 30
0.0
 11
61.6603594345
 21
136.2574214518
 31
0.0
  0
LINE
  5
D3
330
1F
100
AcDbEntity
  8
0
  6
HIDDEN
 62
     7
370
     0
100
AcDbLine
 10
100.9478127258
 20
83.2574214518
 30
0.0
 11
100.9478127258
 21
136.2574214518
 31
0.0
  0
LINE
  5
D4
330
1F
100
AcDbEntity
  8
0
  6
HIDDEN
 62
     7
370
     0
100
AcDbLine
 10
104.1137351074
 20
84.8824214518
 30
0.0
 11
104.1137351074
 21
134.6324214518
 31
0.0
  0
SPLINE
  5
D5
330
1F
100
AcDbEntity
  8
0
  6
HIDDEN
 62
     7
370
     0
100
AcDbSpline
210
0.0
220
0.0
230
1.0
 70
     8
 71
     3
 72
    20
 73
    16
 74
     0
 42
0.00000001
 43
0.00000001
 40
0.0
 40
0.0
 40
0.0
 40
0.0
 40
0.2499999999999963
 40
0.2499999999999963
 40
0.3749999999999969
 40
0.3749999999999969
 40
0.4999999999999976
 40
0.4999999999999976
 40
0.6249999999999981
 40
0.6249999999999981
 40
0.7499999999999988
 40
0.7499999999999988
 40
0.8749999999999993
 40
0.8749999999999993
 40
1.0
 40
1.0
 40
1.0
 40
1.0
 10
51.86373510742717
 20
134.985935082202
 30
0.0
 10
51.86373510742717
 20
134.9067320956698
 30
0.0
 10
51.81675261221444
 20
134.8256358772668
 30
0.0
 10
51.67893102143687
 20
134.7054391855159
 30
0.0
 10
51.62264873752688
 20
134.6665124815138
 30
0.0
 10
51.48956388605967
 20
134.5913237490894
 30
0.0
 10
51.41172394382662
 20
134.5546815437475
 30
0.0
 10
51.23909158771225
 20
134.4870910109156
 30
0.0
 10
51.14469859062118
 20
134.45613282914
 30
0.0
 10
50.93926128430603
 20
134.4006084077703
 30
0.0
 10
50.82691504431885
 20
134.3758998939371
 30
0.0
 10
50.59467418041921
 20
134.3361036668289
 30
0.0
 10
50.47396353799649
 20
134.3206838294319
 30
0.0
 10
50.22289267872745
 20
134.2996038545922
 30
0.0
 10
50.09337068231168
 20
134.2941266095712
 30
0.0
 10
49.96373510742719
 20
134.2941266095712
 30
0.0
  0
LINE
  5
D6
330
1F
100
AcDbEntity
  8
0
  6
HIDDEN
 62
     7
370
     0
100
AcDbLine
 10
49.9637351074
 20
134.2941266096
 30
0.0
 11
43.4137351074
 21
134.2941266096
 31
0.0
  0
LINE
  5
D7
330
1F
100
AcDbEntity
  8
0
  6
HIDDEN
 62
     7
370
     0
100
AcDbLine
 10
43.4137351074
 20
85.220716294
 30
0.0
 11
54.9637351074
 21
85.220716294
 31
0.0
  0
SPLINE
  5
D8
330
1F
100
AcDbEntity
  8
0
  6
HIDDEN
 62
     7
370
     0
100
AcDbSpline
210
0.0
220
0.0
230
1.0
 70
     8
 71
     3
 72
    18
 73
    14
 74
     0
 42
0.00000001
 43
0.00000001
 40
0.0
 40
0.0
 40
0.0
 40
0.0
 40
0.1249999999999979
 40
0.1249999999999979
 40
0.2499999999999958
 40
0.2499999999999958
 40
0.4999999999999977
 40
0.4999999999999977
 40
0.7499999999999994
 40
0.7499999999999994
 40
0.8749999999999998
 40
0.8749999999999998
 40
1.0
 40
1.0
 40
1.0
 40
1.0
 10
54.96373510742716
 20
85.2207162940042
 30
0.0
 10
55.0932024203844
 20
85.22071629400422
 30
0.0
 10
55.22021316928102
 20
85.21536329541158
 30
0.0
 10
55.46957649047826
 20
85.19462532272276
 30
0.0
 10
55.59320014510671
 20
85.17895341846848
 30
0.0
 10
55.94223248204075
 20
85.1192586900664
 30
0.0
 10
56.15274424684755
 20
85.06149351038542
 30
0.0
 10
56.49666092454705
 20
84.92697166910793
 30
0.0
 10
56.63301132606487
 20
84.84930255560252
 30
0.0
 10
56.77004938262741
 20
84.73001142151517
 30
0.0
 10
56.80526840134029
 20
84.68909241238012
 30
0.0
 10
56.85189197827886
 20
84.6084364190901
 30
0.0
 10
56.86373510742717
 20
84.56846789889723
 30
0.0
 10
56.86373510742717
 20
84.52890782137342
 30
0.0
  0
LINE
  5
D9
330
1F
100
AcDbEntity
  8
0
  6
HIDDEN
 62
     7
370
     0
100
AcDbLine
 10
43.4137351074
 20
85.220716294
 30
0.0
 11
43.4137351074
 21
134.2941266096
 31
0.0
  0
LWPOLYLINE
  5
DA
330
1F
100
AcDbEntity
  8
0
  6
HIDDEN
 62
     7
370
     0
100
AcDbPolyline
 90
       13
 70
   128
 43
0.0
 10
100.6637351074
 20
149.7011520151
 10
101.8168144611
 20
149.7559702094
 10
102.9077310084
 20
149.9174695291
 10
103.8776731559
 20
150.1769435043
 10
104.6743510712
 20
150.5204038256
 10
105.2548156418
 20
150.9293344583
 10
105.5877738725
 20
151.3816898462
 10
105.6552758988
 20
151.8530833931
 10
105.453682669
 20
152.3181021509
 10
104.9938621263
 20
152.7516768382
 10
104.3006033153
 20
153.1304333311
 10
103.4112799978
 20
153.4339527692
 10
103.0350692021
 20
153.5252516159
  0
LWPOLYLINE
  5
DB
330
1F
100
AcDbEntity
  8
0
  6
HIDDEN
 62
     7
370
     0
100
AcDbPolyline
 90
       13
 70
   128
 43
0.0
 10
98.2286077799
 20
153.5110292779
 10
97.9161902171
 20
153.4339527692
 10
97.0268668996
 20
153.1304333311
 10
96.3336080885
 20
152.7516768382
 10
95.8737875458
 20
152.3181021509
 10
95.6721943161
 20
151.8530833931
 10
95.7396963424
 20
151.3816898462
 10
96.072654573
 20
150.9293344583
 10
96.6531191437
 20
150.5204038256
 10
97.449797059
 20
150.1769435043
 10
98.4197392064
 20
149.9174695291
 10
99.5106557537
 20
149.7559702094
 10
100.6637351074
 20
149.7011520151
  0
LINE
  5
DC
330
1F
100
AcDbEntity
  8
0
  6
HIDDEN
 62
     7
370
     0
100
AcDbLine
 10
43.4137351074
 20
82.3874214518
 30
0.0
 11
43.4137351074
 21
77.50913625
 31
0.0
  0
LINE
  5
DD
330
1F
100
AcDbEntity
  8
0
  6
HIDDEN
 62
     7
370
     0
100
AcDbLine
 10
56.8637351074
 20
82.3874214518
 30
0.0
 11
56.8637351074
 21
75.8880881864
 31
0.0
  0
LINE
  5
DE
330
1F
100
AcDbEntity
  8
0
  6
HIDDEN
 62
     7
370
     0
100
AcDbLine
 10
51.8637351074
 20
137.1274214518
 30
0.0
 11
51.8637351074
 21
143.5020301888
 31
0.0
  0
LINE
  5
DF
330
1F
100
AcDbEntity
  8
0
  6
HIDDEN
 62
     7
370
     0
100
AcDbLine
 10
43.4137351074
 20
137.1274214518
 30
0.0
 11
43.4137351074
 21
142.0057066536
 31
0.0
  0
LINE
  5
E0
330
1F
100
AcDbEntity
  8
0
  6
HIDDEN
 62
     7
370
     0
100
AcDbLine
 10
119.9637351074
 20
96.7574214518
 30
0.0
 11
119.9637351074
 21
122.7574214518
 31
0.0
  0
LINE
  5
E1
330
1F
100
AcDbEntity
  8
0
  6
HIDDEN
 62
     7
370
     0
100
AcDbLine
 10
115.9637351074
 20
96.7574214518
 30
0.0
 11
115.9637351074
 21
122.7574214518
 31
0.0
  0
LINE
  5
E2
330
1F
100
AcDbEntity
  8
0
  6
HIDDEN
 62
     7
370
     0
100
AcDbLine
 10
104.8637351074
 20
98.5074214518
 30
0.0
 11
104.8637351074
 21
121.0074214518
 31
0.0
  0
ELLIPSE
  5
E3
330
1F
100
AcDbEntity
  8
0
  6
HIDDEN
 62
     7
370
     0
100
AcDbEllipse
 10
35.4790619071
 20
109.7574214518
 30
0.0
 11
31.08108570811669
 21
-1.421085471520200E-14
 31
0.0
210
0.0
220
0.0
230
1.0
 40
0.8164965809
 41
4.915995335118105
 42
4.970536038964791
  0
ELLIPSE
  5
E4
330
1F
100
AcDbEntity
  8
0
  6
HIDDEN
 62
     7
370
     0
100
AcDbEllipse
 10
35.4790619071
 20
109.7574214518
 30
0.0
 11
31.08108570811669
 21
1.421085471520200E-14
 31
0.0
210
0.0
220
0.0
230
1.0
 40
0.8164965809
 41
1.312649268214807
 42
1.367189972061492
  0
LINE
  5
E5
330
1F
100
AcDbEntity
  8
0
  6
HIDDEN
 62
     7
370
     0
100
AcDbLine
 10
120.6137351074
 20
65.8574214518
 30
0.0
 11
106.6137351074
 21
65.8574214518
 31
0.0
  0
LINE
  5
E6
330
1F
100
AcDbEntity
  8
0
  6
HIDDEN
 62
     7
370
     0
100
AcDbLine
 10
96.6137351074
 20
59.767422452
 30
0.0
 11
96.6137351074
 21
65.8574214518
 31
0.0
  0
LINE
  5
E7
330
1F
100
AcDbEntity
  8
0
  6
HIDDEN
 62
     7
370
     0
100
AcDbLine
 10
106.6137351074
 20
65.8574214518
 30
0.0
 11
96.6137351074
 21
65.8574214518
 31
0.0
  0
LINE
  5
E8
330
1F
100
AcDbEntity
  8
0
  6
HIDDEN
 62
     7
370
     0
100
AcDbLine
 10
56.8637351074
 20
82.3874214518
 30
0.0
 11
56.8637351074
 21
84.5289078214
 31
0.0
  0
LINE
  5
E9
330
1F
100
AcDbEntity
  8
0
  6
HIDDEN
 62
     7
370
     0
100
AcDbLine
 10
43.4137351074
 20
82.3874214518
 30
0.0
 11
43.4137351074
 21
85.220716294
 31
0.0
  0
LINE
  5
EA
330
1F
100
AcDbEntity
  8
0
  6
HIDDEN
 62
     7
370
     0
100
AcDbLine
 10
43.4137351074
 20
137.1274214518
 30
0.0
 11
43.4137351074
 21
134.2941266096
 31
0.0
  0
LINE
  5
EB
330
1F
100
AcDbEntity
  8
0
  6
HIDDEN
 62
     7
370
     0
100
AcDbLine
 10
51.8637351074
 20
137.1274214518
 30
0.0
 11
51.8637351074
 21
134.9859350822
 31
0.0
  0
LINE
  5
EC
330
1F
100
AcDbEntity
  8
0
  6
HIDDEN
 62
     7
370
     0
100
AcDbLine
 10
120.6137351074
 20
153.6574214518
 30
0.0
 11
106.6137351074
 21
153.6574214518
 31
0.0
  0
LINE
  5
ED
330
1F
100
AcDbEntity
  8
0
  6
HIDDEN
 62
     7
370
     0
100
AcDbLine
 10
106.6137351074
 20
153.6574214518
 30
0.0
 11
96.6137351074
 21
153.6574214518
 31
0.0
  0
LINE
  5
EE
330
1F
100
AcDbEntity
  8
0
  6
HIDDEN
 62
     7
370
     0
100
AcDbLine
 10
248.1637351074
 20
102.7574214518
 30
0.0
 11
248.1637351074
 21
116.7574214518
 31
0.0
  0
LINE
  5
EF
330
1F
100
AcDbEntity
  8
0
  6
HIDDEN
 62
     7
370
     0
100
AcDbLine
 10
205.1637351074
 20
102.8574214518
 30
0.0
 11
205.1637351074
 21
116.6574207564
 31
0.0
  0
SPLINE
  5
F0
330
1F
100
AcDbEntity
  8
0
  6
HIDDEN
 62
     7
370
     0
100
AcDbSpline
210
0.0
220
0.0
230
1.0
 70
     8
 71
     3
 72
    22
 73
    18
 74
     0
 42
0.00000001
 43
0.00000001
 40
0.0
 40
0.0
 40
0.0
 40
0.0
 40
0.0519896521095956
 40
0.1577624224973364
 40
0.2116693902382882
 40
0.263657767742801
 40
0.3693637946841186
 40
0.4231965442254667
 40
0.4758778662678941
 40
0.5829963374881141
 40
0.6375598122718663
 40
0.6906866748763894
 40
0.7441886946285303
 40
0.798885523964558
 40
0.8540006550865804
 40
0.9063802635437741
 40
1.0
 40
1.0
 40
1.0
 40
1.0
 10
207.1637351074272
 20
116.9016498915844
 30
0.0
 10
207.204651944152
 20
116.9018620151556
 30
0.0
 10
207.3288139460253
 20
116.9025057034107
 30
0.0
 10
207.4939592121807
 20
116.9085098573046
 30
0.0
 10
207.6534282714825
 20
116.9180854376626
 30
0.0
 10
207.8081925961914
 20
116.9299585132281
 30
0.0
 10
207.954673168471
 20
116.9447222129716
 30
0.0
 10
208.0897747796486
 20
116.961196794481
 30
0.0
 10
208.217122926084
 20
116.9784346036507
 30
0.0
 10
208.3307975234912
 20
116.9960447634631
 30
0.0
 10
208.4276157651474
 20
117.012481109611
 30
0.0
 10
208.4913734941865
 20
117.0238867372876
 30
0.0
 10
208.5458397875371
 20
117.0340560565946
 30
0.0
 10
208.5911011486864
 20
117.0428087275961
 30
0.0
 10
208.625258303439
 20
117.0495931134838
 30
0.0
 10
208.656286810297
 20
117.0558814112508
 30
0.0
 10
208.6594495847555
 20
117.0565384233042
 30
0.0
 10
208.6614776631105
 20
117.0569597217375
 30
0.0
  0
LINE
  5
F1
330
1F
100
AcDbEntity
  8
0
  6
HIDDEN
 62
     7
370
     0
100
AcDbLine
 10
207.2137672162
 20
116.9020792713
 30
0.0
 11
207.0006575108
 21
116.9038511621
 31
0.0
  0
SPLINE
  5
F2
330
1F
100
AcDbEntity
  8
0
  6
HIDDEN
 62
     7
370
     0
100
AcDbSpline
210
0.0
220
0.0
230
1.0
 70
     8
 71
     3
 72
    22
 73
    18
 74
     0
 42
0.00000001
 43
0.00000001
 40
0.0
 40
0.0
 40
0.0
 40
0.0
 40
0.0376721330528795
 40
0.1430662431782204
 40
0.1967734955662844
 40
0.2484870893492889
 40
0.3536217529557689
 40
0.4071562454380059
 40
0.4597476028158937
 40
0.5666778545003255
 40
0.6211411373875043
 40
0.6742797430535477
 40
0.7277924195767499
 40
0.7824962506643763
 40
0.837617246439643
 40
0.9181180281337639
 40
1.0
 40
1.0
 40
1.0
 40
1.0
 10
205.6647250733133
 20
117.0572181653371
 30
0.0
 10
205.664886329503
 20
117.0571851498855
 30
0.0
 10
205.6654987269276
 20
117.0570597681711
 30
0.0
 10
205.6894430826832
 20
117.0521396707541
 30
0.0
 10
205.7329805291255
 20
117.0434767028728
 30
0.0
 10
205.7898608877026
 20
117.0324459942599
 30
0.0
 10
205.8654983463901
 20
117.0184174040913
 30
0.0
 10
205.9587895794904
 20
117.0024263135173
 30
0.0
 10
206.0639231880745
 20
116.9854592762875
 30
0.0
 10
206.185463053745
 20
116.9677948987932
 30
0.0
 10
206.3205327146349
 20
116.9509868913143
 30
0.0
 10
206.4280369360567
 20
116.9391546552696
 30
0.0
 10
206.5409696224465
 20
116.9284338589435
 30
0.0
 10
206.6599292519592
 20
116.9190381776497
 30
0.0
 10
206.8029871725445
 20
116.9102298107516
 30
0.0
 10
206.9713636466717
 20
116.9031575664387
 30
0.0
 10
207.0992487002723
 20
116.9021552915753
 30
0.0
 10
207.1637351074272
 20
116.9016498915844
 30
0.0
  0
SPLINE
  5
F3
330
1F
100
AcDbEntity
  8
0
  6
HIDDEN
 62
     7
370
     0
100
AcDbSpline
210
0.0
220
0.0
230
1.0
 70
     8
 71
     3
 72
    26
 73
    22
 74
     0
 42
0.00000001
 43
0.00000001
 40
0.0
 40
0.0
 40
0.0
 40
0.0
 40
0.0521675313773422
 40
0.105867106994018
 40
0.1580293172808933
 40
0.2116685396222544
 40
0.2644949400434193
 40
0.3188230729221808
 40
0.3721231133667955
 40
0.4270098375194372
 40
0.4795637678539509
 40
0.5336917363108971
 40
0.5854388236877889
 40
0.6386677931082625
 40
0.6908047157252071
 40
0.7443985914560003
 40
0.7975064192743776
 40
0.852147125074531
 40
0.9053126420558087
 40
0.9600738457980491
 40
1.0
 40
1.0
 40
1.0
 40
1.0
 10
208.6637351074272
 20
102.4574214517877
 30
0.0
 10
208.6598205685707
 20
102.4582309388848
 30
0.0
 10
208.6518765295676
 20
102.4598736859125
 30
0.0
 10
208.5880409753516
 20
102.4727468866318
 30
0.0
 10
208.4872753442391
 20
102.491934250926
 30
0.0
 10
208.3500578816663
 20
102.5159032906951
 30
0.0
 10
208.1782105023804
 20
102.5423099284503
 30
0.0
 10
207.9780719346476
 20
102.5679791538845
 30
0.0
 10
207.7518617430154
 20
102.5903063822208
 30
0.0
 10
207.5107693873236
 20
102.6062010468327
 30
0.0
 10
207.2582955003485
 20
102.6140573696356
 30
0.0
 10
207.0078375905458
 20
102.6129479411753
 30
0.0
 10
206.7610156336748
 20
102.603187170152
 30
0.0
 10
206.5285023476099
 20
102.5861821977222
 30
0.0
 10
206.3112028750259
 20
102.5634749727146
 30
0.0
 10
206.1176065079327
 20
102.5377441783926
 30
0.0
 10
205.9504908170797
 20
102.5114179707121
 30
0.0
 10
205.8175770551531
 20
102.4877526186719
 30
0.0
 10
205.7231595167122
 20
102.4695244650212
 30
0.0
 10
205.6702366442429
 20
102.4587628205174
 30
0.0
 10
205.6682327668256
 20
102.4583456670252
 30
0.0
 10
205.6673878058879
 20
102.4581697688375
 30
0.0
  0
LINE
  5
F4
330
1F
100
AcDbEntity
  8
0
  6
HIDDEN
 62
     7
370
     0
100
AcDbLine
 10
215.6637351074
 20
102.7574214518
 30
0.0
 11
215.6637351074
 21
116.7574214518
 31
0.0
  0
SPLINE
  5
F5
330
1F
100
AcDbEntity
  8
0
  6
HIDDEN
 62
     7
370
     0
100
AcDbSpline
210
0.0
220
0.0
230
1.0
 70
     8
 71
     3
 72
    30
 73
    26
 74
     0
 42
0.00000001
 43
0.00000001
 40
0.0
 40
0.0
 40
0.0
 40
0.0
 40
0.0531668058201402
 40
0.1125460448581936
 40
0.1779415820675611
 40
0.2129647235110038
 40
0.2495168671261858
 40
0.2912815898244916
 40
0.3261230015431953
 40
0.354037390001696
 40
0.3750221080319175
 40
0.4414779845000282
 40
0.5001940042390156
 40
0.5547072404188675
 40
0.6144498352371234
 40
0.6794734232755085
 40
0.7140294936864189
 40
0.749925502478629
 40
0.7913888933624464
 40
0.8260548988053471
 40
0.853919735095508
 40
0.8749805502089496
 40
0.9411652362924504
 40
0.9999141591659431
 40
1.0
 40
1.0
 40
1.0
 40
1.0
 10
82.66331196070979
 20
72.65748446239799
 30
0.0
 10
82.64711042910601
 20
72.66238661497869
 30
0.0
 10
82.61281424985427
 20
72.6727637267073
 30
0.0
 10
82.31146763537551
 20
72.74842499428951
 30
0.0
 10
81.8692953667224
 20
72.84471212759273
 30
0.0
 10
81.37446319585665
 20
72.9443768372612
 30
0.0
 10
80.90398739544463
 20
73.03665501014254
 30
0.0
 10
80.37306600964408
 20
73.13228703501098
 30
0.0
 10
79.83491549851888
 20
73.2179372798941
 30
0.0
 10
79.37686816603158
 20
73.28522907254936
 30
0.0
 10
78.72130384465109
 20
73.37357724160275
 30
0.0
 10
77.8379974070803
 20
73.47023532577519
 30
0.0
 10
76.70933567421322
 20
73.55701050255891
 30
0.0
 10
75.61957392431887
 20
73.59508920029542
 30
0.0
 10
74.52354564583491
 20
73.59693963506685
 30
0.0
 10
73.61815439892989
 20
73.57077817947605
 30
0.0
 10
72.92185168858828
 20
73.53417095433565
 30
0.0
 10
72.39517196079152
 20
73.49515407887479
 30
0.0
 10
71.92852584622086
 20
73.45294495143462
 30
0.0
 10
71.55731057064355
 20
73.41594086189248
 30
0.0
 10
71.30326409296678
 20
73.38724010142333
 30
0.0
 10
71.00220893991317
 20
73.3508601508056
 30
0.0
 10
70.74672514489829
 20
73.31807998378575
 30
0.0
 10
70.64750441992518
 20
73.3017420990801
 30
0.0
 10
70.66378497720777
 20
73.30433568524784
 30
0.0
 10
70.6638087307937
 20
73.30433946933032
 30
0.0
  0
SPLINE
  5
F6
330
1F
100
AcDbEntity
  8
0
  6
HIDDEN
 62
     7
370
     0
100
AcDbSpline
210
0.0
220
0.0
230
1.0
 70
     8
 71
     3
 72
    30
 73
    26
 74
     0
 42
0.00000001
 43
0.00000001
 40
0.0
 40
0.0
 40
0.0
 40
0.0
 40
0.0001123288057695
 40
0.0285431152663135
 40
0.0588466796063202
 40
0.091027196450477
 40
0.1250880910051604
 40
0.1546766141497773
 40
0.1963554560485685
 40
0.2501101496291966
 40
0.320525387238388
 40
0.3856104300246703
 40
0.445403860889207
 40
0.4999571692316274
 40
0.5283494388508946
 40
0.558634027028705
 40
0.5908185964995195
 40
0.6249094714581434
 40
0.6541844575853767
 40
0.6958630078636641
 40
0.7499307292180327
 40
0.8215905285694356
 40
0.8871422909715975
 40
0.9466378748868088
 40
1.0
 40
1.0
 40
1.0
 40
1.0
 10
70.66383043952705
 20
146.2104331608161
 30
0.0
 10
70.66379857976891
 20
146.2104401079423
 30
0.0
 10
70.65570291149804
 20
146.2122053953345
 30
0.0
 10
70.68436438916744
 20
146.2067504766095
 30
0.0
 10
70.75775123532168
 20
146.1962076292634
 30
0.0
 10
70.90140777887241
 20
146.1765224216099
 30
0.0
 10
71.10244347882991
 20
146.1516831577547
 30
0.0
 10
71.38507402809894
 20
146.1174746926159
 30
0.0
 10
71.7984831536736
 20
146.0737947958559
 30
0.0
 10
72.47477065485583
 20
146.0107517283226
 30
0.0
 10
73.41320155577178
 20
145.9494545578899
 30
0.0
 10
74.52269476926767
 20
145.9181661143894
 30
0.0
 10
75.6201754999564
 20
145.9198212819861
 30
0.0
 10
76.52020673841372
 20
145.9511274840834
 30
0.0
 10
77.23154766426464
 20
145.9979606328858
 30
0.0
 10
77.79696456525542
 20
146.0451274947818
 30
0.0
 10
78.38588798808374
 20
146.1045665013318
 30
0.0
 10
78.95029764056123
 20
146.1709237079398
 30
0.0
 10
79.54449383449743
 20
146.2528431143713
 30
0.0
 10
80.21110199546791
 20
146.3544910971217
 30
0.0
 10
81.01243474116815
 20
146.496630007722
 30
0.0
 10
81.76494472567607
 20
146.6478745784884
 30
0.0
 10
82.31023122064224
 20
146.7657254517478
 30
0.0
 10
82.61295275214108
 20
146.841954683497
 30
0.0
 10
82.64724320275411
 20
146.8524069929916
 30
0.0
 10
82.66345663940413
 20
146.8573491227918
 30
0.0
  0
LINE
  5
F7
330
1F
100
AcDbEntity
  8
0
  6
HIDDEN
 62
     7
370
     0
100
AcDbLine
 10
184.2624441789
 20
103.7574214518
 30
0.0
 11
184.2624441789
 21
115.7574214518
 31
0.0
  0
LINE
  5
F8
330
1F
100
AcDbEntity
  8
0
  6
HIDDEN
 62
     7
370
     0
100
AcDbLine
 10
185.1637351074
 20
105.2574214518
 30
0.0
 11
185.1637351074
 21
114.2574214518
 31
0.0
  0
LINE
  5
F9
330
1F
100
AcDbEntity
  8
0
  6
HIDDEN
 62
     7
370
     0
100
AcDbLine
 10
160.6137351074
 20
127.6800711826
 30
0.0
 11
163.1137351074
 21
127.6800711826
 31
0.0
  0
LINE
  5
FA
330
1F
100
AcDbEntity
  8
0
  6
HIDDEN
 62
     7
370
     0
100
AcDbLine
 10
158.1137351074
 20
127.6800711826
 30
0.0
 11
160.6137351074
 21
127.6800711826
 31
0.0
  0
LINE
  5
FB
330
1F
100
AcDbEntity
  8
0
  6
HIDDEN
 62
     7
370
     0
100
AcDbLine
 10
163.1137351074
 20
91.834771721
 30
0.0
 11
158.1137351074
 21
91.834771721
 31
0.0
  0
LINE
  5
FC
330
1F
100
AcDbEntity
  8
0
  6
HIDDEN
 62
     7
370
     0
100
AcDbLine
 10
160.6137351074
 20
119.2574214518
 30
0.0
 11
163.1137351074
 21
119.2574214518
 31
0.0
  0
LINE
  5
FD
330
1F
100
AcDbEntity
  8
0
  6
HIDDEN
 62
     7
370
     0
100
AcDbLine
 10
158.1137351074
 20
119.2574214518
 30
0.0
 11
160.6137351074
 21
119.2574214518
 31
0.0
  0
LINE
  5
FE
330
1F
100
AcDbEntity
  8
0
  6
HIDDEN
 62
     7
370
     0
100
AcDbLine
 10
163.1137351074
 20
100.2574214518
 30
0.0
 11
158.1137351074
 21
100.2574214518
 31
0.0
  0
SPLINE
  5
FF
330
1F
100
AcDbEntity
  8
0
  6
HIDDEN
 62
     7
370
     0
100
AcDbSpline
210
0.0
220
0.0
230
1.0
 70
     8
 71
     3
 72
    30
 73
    26
 74
     0
 42
0.00000001
 43
0.00000001
 40
0.0
 40
0.0
 40
0.0
 40
0.0
 40
0.0412274297564289
 40
0.083862732495036
 40
0.1250516510534586
 40
0.1672473279861954
 40
0.2244849111414858
 40
0.2833611997047432
 40
0.3419130967478377
 40
0.4019328869320822
 40
0.4346453182317836
 40
0.4680030772970249
 40
0.5007963769266107
 40
0.5349012334331464
 40
0.563117420994312
 40
0.5919349488450756
 40
0.6414698556811917
 40
0.6923287517706196
 40
0.7450260126139143
 40
0.7988519530009656
 40
0.8464596455547588
 40
0.8953104661842344
 40
0.9429925514063004
 40
0.9925828888811701
 40
1.0
 40
1.0
 40
1.0
 40
1.0
 10
208.6637351074272
 20
120.1959316048638
 30
0.0
 10
208.6617934365872
 20
120.1983363413742
 30
0.0
 10
208.6578437889081
 20
120.2032279335954
 30
0.0
 10
208.6267512847389
 20
120.2419490234118
 30
0.0
 10
208.5797324969444
 20
120.301250943238
 30
0.0
 10
208.5115077853364
 20
120.3889546305858
 30
0.0
 10
208.4194612758214
 20
120.5111910021436
 30
0.0
 10
208.3068322198071
 20
120.67041387175
 30
0.0
 10
208.1901196366793
 20
120.8538683854991
 30
0.0
 10
208.0979414191714
 20
121.0292949551113
 30
0.0
 10
208.0369255359078
 20
121.1888026238043
 30
0.0
 10
208.0030747603622
 20
121.3213823081715
 30
0.0
 10
207.9889399474621
 20
121.4613528581259
 30
0.0
 10
207.9984760177348
 20
121.59479800582
 30
0.0
 10
208.0262982312705
 20
121.7181384560848
 30
0.0
 10
208.0743112369423
 20
121.855247929679
 30
0.0
 10
208.15035764037
 20
122.0086144883668
 30
0.0
 10
208.251780649958
 20
122.171603234747
 30
0.0
 10
208.3579046609995
 20
122.3209158473554
 30
0.0
 10
208.4561600100219
 20
122.4481460507446
 30
0.0
 10
208.5401274271721
 20
122.5516814039986
 30
0.0
 10
208.6054864283814
 20
122.6297587637578
 30
0.0
 10
208.6482957067043
 20
122.6799446206851
 30
0.0
 10
208.6661808632103
 20
122.7007038178857
 30
0.0
 10
208.6627404547606
 20
122.6967041280104
 30
0.0
 10
208.662292830943
 20
122.6961837373426
 30
0.0
  0
SPLINE
  5
100
330
1F
100
AcDbEntity
  8
0
  6
HIDDEN
 62
     7
370
     0
100
AcDbSpline
210
0.0
220
0.0
230
1.0
 70
     8
 71
     3
 72
    10
 73
     6
 74
     0
 42
0.00000001
 43
0.00000001
 40
0.0
 40
0.0
 40
0.0
 40
0.0
 40
0.3026314160092646
 40
0.7588357203619192
 40
1.0
 40
1.0
 40
1.0
 40
1.0
 10
205.6672639584363
 20
122.6844301056402
 30
0.0
 10
205.6673504477224
 20
122.6844595803739
 30
0.0
 10
205.6675673160188
 20
122.684533487046
 30
0.0
 10
205.6985447354841
 20
122.6930490667041
 30
0.0
 10
205.7326349347667
 20
122.7089251446215
 30
0.0
 10
205.7444240209708
 20
122.7144154161685
 30
0.0
  0
SPLINE
  5
101
330
1F
100
AcDbEntity
  8
0
  6
HIDDEN
 62
     7
370
     0
100
AcDbSpline
210
0.0
220
0.0
230
1.0
 70
     8
 71
     3
 72
    28
 73
    24
 74
     0
 42
0.00000001
 43
0.00000001
 40
0.0
 40
0.0
 40
0.0
 40
0.0
 40
0.0009226336075818
 40
0.0497723604002009
 40
0.0941872649949031
 40
0.1397247581105077
 40
0.1876965976084465
 40
0.2366559380809488
 40
0.2940345438249964
 40
0.3525705444223017
 40
0.408342795163773
 40
0.4653815754031294
 40
0.5004134615344548
 40
0.5362690999381985
 40
0.5713704329915257
 40
0.6077333217655525
 40
0.6500257938006367
 40
0.6934941368968858
 40
0.7617653176674924
 40
0.8319032389475328
 40
0.9025101008983331
 40
0.9755069217526297
 40
1.0
 40
1.0
 40
1.0
 40
1.0
 10
205.6639279978811
 20
120.3140263201747
 30
0.0
 10
205.6638638564852
 20
120.31395170229
 30
0.0
 10
205.6604036869778
 20
120.3099263684816
 30
0.0
 10
205.6724974379352
 20
120.3239692892101
 30
0.0
 10
205.7002400085249
 20
120.3563706727931
 30
0.0
 10
205.7459946410233
 20
120.4104424077583
 30
0.0
 10
205.8067711903727
 20
120.483723412004
 30
0.0
 10
205.8848446603431
 20
120.5807741879126
 30
0.0
 10
205.977881978085
 20
120.7021169764889
 30
0.0
 10
206.0797317247382
 20
120.8462694065755
 30
0.0
 10
206.1792720248825
 20
121.0070671036564
 30
0.0
 10
206.2556019209375
 20
121.1615621496566
 30
0.0
 10
206.3054177110462
 20
121.306814738524
 30
0.0
 10
206.3313886974579
 20
121.4339096577766
 30
0.0
 10
206.337641285419
 20
121.5663488964738
 30
0.0
 10
206.3218213102503
 20
121.7056420323293
 30
0.0
 10
206.2826231024248
 20
121.8487807941248
 30
0.0
 10
206.2129592886148
 20
122.01731609598
 30
0.0
 10
206.113021411333
 20
122.198622331604
 30
0.0
 10
205.991605969597
 20
122.3838390083795
 30
0.0
 10
205.8729747845465
 20
122.5479973986156
 30
0.0
 10
205.7911812385443
 20
122.654752640262
 30
0.0
 10
205.7538124472377
 20
122.7024356705475
 30
0.0
 10
205.7444240209708
 20
122.7144154161686
 30
0.0
  0
LINE
  5
102
330
1F
100
AcDbEntity
  8
0
  6
HIDDEN
 62
     7
370
     0
100
AcDbLine
 10
208.6637351074
 20
122.7574214518
 30
0.0
 11
205.6637351074
 21
122.7574214518
 31
0.0
  0
SPLINE
  5
103
330
1F
100
AcDbEntity
  8
0
  6
HIDDEN
 62
     7
370
     0
100
AcDbSpline
210
0.0
220
0.0
230
1.0
 70
    11
 71
     3
 72
    40
 73
    36
 74
     0
 42
0.00000001
 43
0.00000001
 40
0.0
 40
0.0
 40
0.0
 40
0.0
 40
0.0625
 40
0.0625
 40
0.125
 40
0.125
 40
0.15625
 40
0.15625
 40
0.1875
 40
0.1875
 40
0.25
 40
0.25
 40
0.3125
 40
0.3125
 40
0.375
 40
0.375
 40
0.4375
 40
0.4375
 40
0.5
 40
0.5
 40
0.5625
 40
0.5625
 40
0.625
 40
0.625
 40
0.6875
 40
0.6875
 40
0.75
 40
0.75
 40
0.8125
 40
0.8125
 40
0.875
 40
0.875
 40
0.9375
 40
0.9375
 40
1.0
 40
1.0
 40
1.0
 40
1.0
 10
206.073300341657
 20
97.25742145178774
 30
0.0
 10
206.1297925480196
 20
97.34669066845389
 30
0.0
 10
206.1849945566745
 20
97.44207989019084
 30
0.0
 10
206.2790716084819
 20
97.65220699039295
 30
0.0
 10
206.3170288847652
 20
97.76684771551508
 30
0.0
 10
206.3362001865952
 20
97.94725464980142
 30
0.0
 10
206.3361493582638
 20
98.00714166689461
 30
0.0
 10
206.3231665085994
 20
98.1264183745657
 30
0.0
 10
206.3100181063066
 20
98.18602130662066
 30
0.0
 10
206.257662403988
 20
98.35474739036876
 30
0.0
 10
206.2052956190242
 20
98.45882437417856
 30
0.0
 10
206.0949767546734
 20
98.64643913162624
 30
0.0
 10
206.0356804333994
 20
98.7321609416213
 30
0.0
 10
205.9220845112193
 20
98.88684223008212
 30
0.0
 10
205.8685132662066
 20
98.95461604428738
 30
0.0
 10
205.7742778207998
 20
99.07083469275257
 30
0.0
 10
205.7344175701942
 20
99.11814630823689
 30
0.0
 10
205.6791832816383
 20
99.18320161624958
 30
0.0
 10
205.6640246001648
 20
99.20070469214394
 30
0.0
 10
205.6634540594349
 20
99.2013674535089
 30
0.0
 10
205.6781197828205
 20
99.18443820595037
 30
0.0
 10
205.7326142458164
 20
99.1202854606865
 30
0.0
 10
205.772157196932
 20
99.07339013129956
 30
0.0
 10
205.8663666672419
 20
98.95732062874477
 30
0.0
 10
205.9205923185048
 20
98.88875233113687
 30
0.0
 10
206.0334124048832
 20
98.735367059717
 30
0.0
 10
206.0933219203387
 20
98.64893055050779
 30
0.0
 10
206.2036032710567
 20
98.46201569338012
 30
0.0
 10
206.2554800250955
 20
98.3600551748861
 30
0.0
 10
206.326958387585
 20
98.13308907856397
 30
0.0
 10
206.342444261172
 20
98.00946574800606
 30
0.0
 10
206.3177181497381
 20
97.76995504279547
 30
0.0
 10
206.27990854608
 20
97.65449439292196
 30
0.0
 10
206.1861104592837
 20
97.44416287329179
 30
0.0
 10
206.1299728293823
 20
97.34697554980413
 30
0.0
 10
206.073300341657
 20
97.25742145178772
 30
0.0
  0
LINE
  5
104
330
1F
100
AcDbEntity
  8
0
  6
HIDDEN
 62
     7
370
     0
100
AcDbLine
 10
206.0733003417
 20
97.2574214518
 30
0.0
 11
208.313229995
 21
97.2574214518
 31
0.0
  0
SPLINE
  5
105
330
1F
100
AcDbEntity
  8
0
  6
HIDDEN
 62
     7
370
     0
100
AcDbSpline
210
0.0
220
0.0
230
1.0
 70
     8
 71
     3
 72
    16
 73
    12
 74
     0
 42
0.00000001
 43
0.00000001
 40
0.0
 40
0.0
 40
0.0
 40
0.0
 40
0.1460532042771389
 40
0.2416770371581277
 40
0.3209296718820497
 40
0.400067133735108
 40
0.5317754435228184
 40
0.7122617085416857
 40
0.8458520297273053
 40
0.9573380013826369
 40
1.0
 40
1.0
 40
1.0
 40
1.0
 10
208.3132299949638
 20
97.25742145178774
 30
0.0
 10
208.2412303977246
 20
97.36323108170855
 30
0.0
 10
208.1220912838418
 20
97.53831630485465
 30
0.0
 10
208.0049023649564
 20
97.8364377791275
 30
0.0
 10
207.9826398697673
 20
98.09617336524016
 30
0.0
 10
208.0448449129088
 20
98.38400123258724
 30
0.0
 10
208.2165599609788
 20
98.71958745370995
 30
0.0
 10
208.4379065839116
 20
99.03141220711635
 30
0.0
 10
208.5956857917167
 20
99.23448211204375
 30
0.0
 10
208.665401479342
 20
99.32098380212622
 30
0.0
 10
208.6570413378336
 20
99.31059683226891
 30
0.0
 10
208.6547275847245
 20
99.30772213406232
 30
0.0
  0
SPLINE
  5
106
330
1F
100
AcDbEntity
  8
0
  6
HIDDEN
 62
     7
370
     0
100
AcDbSpline
210
0.0
220
0.0
230
1.0
 70
    11
 71
     3
 72
    24
 73
    20
 74
     0
 42
0.00000001
 43
0.00000001
 40
0.0
 40
0.0
 40
0.0
 40
0.0
 40
0.1250000000000012
 40
0.1250000000000012
 40
0.2500000000000025
 40
0.2500000000000025
 40
0.3750000000000038
 40
0.3750000000000038
 40
0.500000000000005
 40
0.500000000000005
 40
0.6250000000000062
 40
0.6250000000000062
 40
0.6875000000000066
 40
0.6875000000000066
 40
0.7500000000000068
 40
0.7500000000000068
 40
0.8750000000000034
 40
0.8750000000000034
 40
1.0
 40
1.0
 40
1.0
 40
1.0
 10
206.073300341657
 20
97.25742145178774
 30
0.0
 10
206.1636262997927
 20
97.20095456605812
 30
0.0
 10
206.2491597755226
 20
97.14428076946186
 30
0.0
 10
206.4003892380832
 20
97.02761010695036
 30
0.0
 10
206.4647045178103
 20
96.9670226738349
 30
0.0
 10
206.5381491104013
 20
96.85708494728438
 30
0.0
 10
206.5452948627956
 20
96.81058660694416
 30
0.0
 10
206.542633805366
 20
96.74930445374297
 30
0.0
 10
206.5358822492598
 20
96.73335966724169
 30
0.0
 10
206.5358939591272
 20
96.73339849996105
 30
0.0
 10
206.5426081678479
 20
96.74906979428665
 30
0.0
 10
206.5446365987538
 20
96.79525017273627
 30
0.0
 10
206.5435181713729
 20
96.81422183791136
 30
0.0
 10
206.5312611369999
 20
96.85882507876467
 30
0.0
 10
206.5196881131109
 20
96.88469321759705
 30
0.0
 10
206.4651663392213
 20
96.96638244543065
 30
0.0
 10
206.4011714421353
 20
97.02691713749572
 30
0.0
 10
206.2504173225377
 20
97.14339890822501
 30
0.0
 10
206.1637048279462
 20
97.20090547451942
 30
0.0
 10
206.073300341657
 20
97.25742145178774
 30
0.0
  0
SPLINE
  5
107
330
1F
100
AcDbEntity
  8
0
  6
HIDDEN
 62
     7
370
     0
100
AcDbSpline
210
0.0
220
0.0
230
1.0
 70
     8
 71
     3
 72
    12
 73
     8
 74
     0
 42
0.00000001
 43
0.00000001
 40
0.0
 40
0.0
 40
0.0
 40
0.0
 40
0.0321042578061897
 40
0.3576209573891058
 40
0.548227680469953
 40
0.7386352004532437
 40
1.0
 40
1.0
 40
1.0
 40
1.0
 10
207.8796756677094
 20
96.79190128858168
 30
0.0
 10
207.8795935623223
 20
96.79002849608875
 30
0.0
 10
207.8786789606719
 20
96.7691667820957
 30
0.0
 10
207.868097587334
 20
96.83880606649512
 30
0.0
 10
207.9407427571894
 20
96.96500716542786
 30
0.0
 10
208.090013903822
 20
97.10598787494678
 30
0.0
 10
208.2314212833482
 20
97.20192103623381
 30
0.0
 10
208.3132299949637
 20
97.25742145178774
 30
0.0
  0
LINE
  5
108
330
1F
100
AcDbEntity
  8
0
  6
HIDDEN
 62
     7
370
     0
100
AcDbLine
 10
205.6501246707
 20
99.2005062222
 30
0.0
 11
205.7482742101
 21
96.7024336316
 31
0.0
  0
LINE
  5
109
330
1F
100
AcDbEntity
  8
0
  6
HIDDEN
 62
     7
370
     0
100
AcDbLine
 10
205.6501246707
 20
120.3143366814
 30
0.0
 11
205.744424021
 21
122.7144154162
 31
0.0
  0
LWPOLYLINE
  5
10A
330
1F
100
AcDbEntity
  8
0
  6
HIDDEN
 62
     7
370
     0
100
AcDbPolyline
 90
       28
 70
   128
 43
0.0
 10
100.6637351074
 20
155.0701273036
 10
101.8168144611
 20
155.0284793382
 10
102.9077310084
 20
154.9057806946
 10
103.8776731559
 20
154.7086460885
 10
104.6743510712
 20
154.4477030976
 10
105.2548156418
 20
154.1370192259
 10
105.5877738725
 20
153.7933435214
 10
105.6552758988
 20
153.4352036303
 10
105.453682669
 20
153.0819069669
 10
104.9938621263
 20
152.7524998458
 10
104.3006033153
 20
152.4647406899
 10
103.4112799978
 20
152.2341426701
 10
102.3738358241
 20
152.0731373851
 10
101.2441996781
 20
151.9904046717
 10
100.0832705368
 20
151.9904046717
 10
98.9536343908
 20
152.0731373851
 10
97.9161902171
 20
152.2341426701
 10
97.0268668996
 20
152.4647406899
 10
96.3336080885
 20
152.7524998458
 10
95.8737875458
 20
153.0819069669
 10
95.6721943161
 20
153.4352036303
 10
95.7396963424
 20
153.7933435214
 10
96.072654573
 20
154.1370192259
 10
96.6531191437
 20
154.4477030976
 10
97.449797059
 20
154.7086460885
 10
98.4197392064
 20
154.9057806946
 10
99.5106557537
 20
155.0284793382
 10
100.6637351074
 20
155.0701273036
  0
LINE
  5
10B
330
1F
100
AcDbEntity
  8
0
  6
HIDDEN
 62
     7
370
     0
100
AcDbLine
 10
109.7537351074
 20
144.4716566443
 30
0.0
 11
109.7537351074
 21
141.1074214518
 31
0.0
  0
LINE
  5
10C
330
1F
100
AcDbEntity
  8
0
  6
HIDDEN
 62
     7
370
     0
100
AcDbLine
 10
114.9257641283
 20
148.7083842127
 30
0.0
 11
114.9257641283
 21
141.1074214518
 31
0.0
  0
LINE
  5
10D
330
1F
100
AcDbEntity
  8
0
  6
HIDDEN
 62
     7
370
     0
100
AcDbLine
 10
113.5737351074
 20
144.4716566443
 30
0.0
 11
113.5737351074
 21
141.1074214518
 31
0.0
  0
CIRCLE
  5
10E
330
1F
100
AcDbEntity
  8
0
  6
HIDDEN
 62
     7
370
     0
100
AcDbCircle
 10
98.6637351074
 20
109.7574214518
 30
0.0
 40
5.0
  0
LINE
  5
10F
330
1F
100
AcDbEntity
  8
0
  6
HIDDEN
 62
     7
370
     0
100
AcDbLine
 10
251.4724683502
 20
101.2510638983
 30
0.0
 11
251.5902477975
 21
98.2533767896
 31
0.0
  0
LINE
  5
110
330
1F
100
AcDbEntity
  8
0
  6
HIDDEN
 62
     7
370
     0
100
AcDbLine
 10
246.1385305463
 20
101.0414929112
 30
0.0
 11
246.2563099936
 21
98.0438058025
 31
0.0
  0
LINE
  5
111
330
1F
100
AcDbEntity
  8
0
  6
HIDDEN
 62
     7
370
     0
100
AcDbLine
 10
245.658545936
 20
100.5222484852
 30
0.0
 11
245.7370655676
 21
98.5237904128
 31
0.0
  0
LINE
  5
112
330
1F
100
AcDbEntity
  8
0
  6
HIDDEN
 62
     7
370
     0
100
AcDbLine
 10
251.6453026239
 20
100.9771381533
 30
0.0
 11
251.6637351074
 21
100.5080001207
 31
0.0
  0
LINE
  5
113
330
1F
100
AcDbEntity
  8
0
  6
HIDDEN
 62
     7
370
     0
100
AcDbLine
 10
249.6947218968
 20
99.680058712
 30
0.0
 11
249.6652770349
 21
100.4294804892
 31
0.0
  0
LINE
  5
114
330
1F
100
AcDbEntity
  8
0
  6
HIDDEN
 62
     7
370
     0
100
AcDbLine
 10
249.6947218968
 20
99.680058712
 30
0.0
 11
251.6931799692
 21
99.7585783436
 31
0.0
  0
LINE
  5
115
330
1F
100
AcDbEntity
  8
0
  6
HIDDEN
 62
     7
370
     0
100
AcDbLine
 10
249.7241667586
 20
98.9306369349
 30
0.0
 11
249.6947218968
 21
99.680058712
 31
0.0
  0
LINE
  5
116
330
1F
100
AcDbEntity
  8
0
  6
HIDDEN
 62
     7
370
     0
100
AcDbLine
 10
249.7241667586
 20
98.9306369349
 30
0.0
 11
251.7226248311
 21
99.0091565664
 31
0.0
  0
LINE
  5
117
330
1F
100
AcDbEntity
  8
0
  6
HIDDEN
 62
     7
370
     0
100
AcDbLine
 10
249.6652770349
 20
100.4294804892
 30
0.0
 11
251.6637351074
 21
100.5080001207
 31
0.0
  0
LINE
  5
118
330
1F
100
AcDbEntity
  8
0
  6
HIDDEN
 62
     7
370
     0
100
AcDbLine
 10
251.5234683469
 20
121.0629729375
 30
0.0
 11
251.4135786265
 21
118.2660927888
 31
0.0
  0
LINE
  5
119
330
1F
100
AcDbEntity
  8
0
  6
HIDDEN
 62
     7
370
     0
100
AcDbLine
 10
251.5313580738
 20
121.2637798975
 30
0.0
 11
251.5234683469
 21
121.0629729375
 31
0.0
  0
LINE
  5
11A
330
1F
100
AcDbEntity
  8
0
  6
HIDDEN
 62
     7
370
     0
100
AcDbLine
 10
246.189530543
 20
121.2725439246
 30
0.0
 11
246.0796408226
 21
118.4756637759
 31
0.0
  0
LINE
  5
11B
330
1F
100
AcDbEntity
  8
0
  6
HIDDEN
 62
     7
370
     0
100
AcDbLine
 10
246.1974202699
 20
121.4733508846
 30
0.0
 11
246.189530543
 21
121.2725439246
 31
0.0
  0
LINE
  5
11C
330
1F
100
AcDbEntity
  8
0
  6
HIDDEN
 62
     7
370
     0
100
AcDbLine
 10
251.6637351074
 20
120.5080001207
 30
0.0
 11
251.5864129003
 21
118.5400185339
 31
0.0
  0
LINE
  5
11D
330
1F
100
AcDbEntity
  8
0
  6
HIDDEN
 62
     7
370
     0
100
AcDbLine
 10
245.672916026
 20
120.8594949677
 30
0.0
 11
245.5996562124
 21
118.9949082019
 31
0.0
  0
LINE
  5
11E
330
1F
100
AcDbEntity
  8
0
  6
HIDDEN
 62
     7
370
     0
100
AcDbLine
 10
245.6781758439
 20
120.9933662744
 30
0.0
 11
245.672916026
 21
120.8594949677
 31
0.0
  0
LINE
  5
11F
330
1F
100
AcDbEntity
  8
0
  6
HIDDEN
 62
     7
370
     0
100
AcDbLine
 10
249.6358321731
 20
119.8370979751
 30
0.0
 11
249.6652770349
 21
120.5865197523
 31
0.0
  0
LINE
  5
120
330
1F
100
AcDbEntity
  8
0
  6
HIDDEN
 62
     7
370
     0
100
AcDbLine
 10
249.6358321731
 20
119.8370979751
 30
0.0
 11
249.6063873113
 21
119.0876761979
 31
0.0
  0
LINE
  5
121
330
1F
100
AcDbEntity
  8
0
  6
HIDDEN
 62
     7
370
     0
100
AcDbLine
 10
249.6358321731
 20
119.8370979751
 30
0.0
 11
251.6342902456
 21
119.7585783436
 31
0.0
  0
LINE
  5
122
330
1F
100
AcDbEntity
  8
0
  6
HIDDEN
 62
     7
370
     0
100
AcDbLine
 10
249.6063873113
 20
119.0876761979
 30
0.0
 11
251.6048453838
 21
119.0091565664
 31
0.0
  0
LINE
  5
123
330
1F
100
AcDbEntity
  8
0
  6
HIDDEN
 62
     7
370
     0
100
AcDbLine
 10
249.6652770349
 20
120.5865197523
 30
0.0
 11
251.6637351074
 21
120.5080001207
 31
0.0
  0
LINE
  5
124
330
1F
100
AcDbEntity
  8
0
  6
HIDDEN
 62
     7
370
     0
100
AcDbLine
 10
204.6637351074
 20
104.7574214518
 30
0.0
 11
204.6637351074
 21
114.7574214518
 31
0.0
  0
LINE
  5
125
330
1F
100
AcDbEntity
  8
0
  6
HIDDEN
 62
     7
370
     0
100
AcDbLine
 10
189.1637351074
 20
104.7574214518
 30
0.0
 11
189.1637351074
 21
114.7574214518
 31
0.0
  0
LINE
  5
126
330
1F
100
AcDbEntity
  8
0
  6
HIDDEN
 62
     7
370
     0
100
AcDbLine
 10
188.6637351074
 20
105.2574214518
 30
0.0
 11
188.6637351074
 21
114.2574214518
 31
0.0
  0
LINE
  5
127
330
1F
100
AcDbEntity
  8
0
  6
HIDDEN
 62
     7
370
     0
100
AcDbLine
 10
208.6637351074
 20
108.7574214518
 30
0.0
 11
206.6637351074
 21
108.7574214518
 31
0.0
  0
LINE
  5
128
330
1F
100
AcDbEntity
  8
0
  6
HIDDEN
 62
     7
370
     0
100
AcDbLine
 10
208.6637351074
 20
105.2574214518
 30
0.0
 11
208.6637351074
 21
108.7574214518
 31
0.0
  0
LINE
  5
129
330
1F
100
AcDbEntity
  8
0
  6
HIDDEN
 62
     7
370
     0
100
AcDbLine
 10
208.6637351074
 20
110.7574214518
 30
0.0
 11
208.6637351074
 21
114.2574214518
 31
0.0
  0
LINE
  5
12A
330
1F
100
AcDbEntity
  8
0
  6
HIDDEN
 62
     7
370
     0
100
AcDbLine
 10
206.6637351074
 20
110.7574214518
 30
0.0
 11
208.6637351074
 21
110.7574214518
 31
0.0
  0
LINE
  5
12B
330
1F
100
AcDbEntity
  8
0
  6
HIDDEN
 62
     7
370
     0
100
AcDbLine
 10
206.6637351074
 20
108.7574214518
 30
0.0
 11
206.6637351074
 21
110.7574214518
 31
0.0
  0
LINE
  5
12C
330
1F
100
AcDbEntity
  8
0
  6
HIDDEN
 62
     7
370
     0
100
AcDbLine
 10
202.6637351074
 20
111.0074214518
 30
0.0
 11
202.6637351074
 21
109.7574214518
 31
0.0
  0
LINE
  5
12D
330
1F
100
AcDbEntity
  8
0
  6
HIDDEN
 62
     7
370
     0
100
AcDbLine
 10
202.6637351074
 20
109.7574214518
 30
0.0
 11
206.6637351074
 21
109.7574214518
 31
0.0
  0
LINE
  5
12E
330
1F
100
AcDbEntity
  8
0
  6
HIDDEN
 62
     7
370
     0
100
AcDbLine
 10
202.6637351074
 20
109.7574214518
 30
0.0
 11
202.6637351074
 21
108.5074214518
 31
0.0
  0
LINE
  5
12F
330
1F
100
AcDbEntity
  8
0
  6
HIDDEN
 62
     7
370
     0
100
AcDbLine
 10
194.6637351074
 20
109.7574214518
 30
0.0
 11
188.6637351074
 21
109.7574214518
 31
0.0
  0
LINE
  5
130
330
1F
100
AcDbEntity
  8
0
  6
HIDDEN
 62
     7
370
     0
100
AcDbLine
 10
194.6637351074
 20
108.5074214518
 30
0.0
 11
194.6637351074
 21
109.7574214518
 31
0.0
  0
LINE
  5
131
330
1F
100
AcDbEntity
  8
0
  6
HIDDEN
 62
     7
370
     0
100
AcDbLine
 10
194.6637351074
 20
109.7574214518
 30
0.0
 11
194.6637351074
 21
111.0074214518
 31
0.0
  0
LINE
  5
132
330
1F
100
AcDbEntity
  8
0
  6
HIDDEN
 62
     7
370
     0
100
AcDbLine
 10
202.6637351074
 20
108.5074214518
 30
0.0
 11
202.6637351074
 21
107.2574214518
 31
0.0
  0
LINE
  5
133
330
1F
100
AcDbEntity
  8
0
  6
HIDDEN
 62
     7
370
     0
100
AcDbLine
 10
202.6637351074
 20
112.2574214518
 30
0.0
 11
202.6637351074
 21
111.0074214518
 31
0.0
  0
LINE
  5
134
330
1F
100
AcDbEntity
  8
0
  6
HIDDEN
 62
     7
370
     0
100
AcDbLine
 10
194.6637351074
 20
107.2574214518
 30
0.0
 11
194.6637351074
 21
108.5074214518
 31
0.0
  0
LINE
  5
135
330
1F
100
AcDbEntity
  8
0
  6
HIDDEN
 62
     7
370
     0
100
AcDbLine
 10
194.6637351074
 20
111.0074214518
 30
0.0
 11
194.6637351074
 21
112.2574214518
 31
0.0
  0
LINE
  5
136
330
1F
100
AcDbEntity
  8
0
  6
HIDDEN
 62
     7
370
     0
100
AcDbLine
 10
202.6637351074
 20
112.2574214518
 30
0.0
 11
208.6637351074
 21
112.2574214518
 31
0.0
  0
LINE
  5
137
330
1F
100
AcDbEntity
  8
0
  6
HIDDEN
 62
     7
370
     0
100
AcDbLine
 10
194.6637351074
 20
112.2574214518
 30
0.0
 11
188.6637351074
 21
112.2574214518
 31
0.0
  0
LINE
  5
138
330
1F
100
AcDbEntity
  8
0
  6
HIDDEN
 62
     7
370
     0
100
AcDbLine
 10
194.6637351074
 20
107.2574214518
 30
0.0
 11
188.6637351074
 21
107.2574214518
 31
0.0
  0
LINE
  5
139
330
1F
100
AcDbEntity
  8
0
  6
HIDDEN
 62
     7
370
     0
100
AcDbLine
 10
202.6637351074
 20
107.2574214518
 30
0.0
 11
208.6637351074
 21
107.2574214518
 31
0.0
  0
LINE
  5
13A
330
1F
100
AcDbEntity
  8
0
  6
HIDDEN
 62
     7
370
     0
100
AcDbLine
 10
91.6637351074
 20
70.3527384952
 30
0.0
 11
91.7533367313
 21
70.9902871771
 31
0.0
  0
LINE
  5
13B
330
1F
100
AcDbEntity
  8
0
  6
HIDDEN
 62
     7
370
     0
100
AcDbLine
 10
91.7533367313
 20
148.5245557264
 30
0.0
 11
91.6637351074
 21
149.1621044084
 31
0.0
  0
ARC
  5
13C
330
1F
100
AcDbEntity
  8
0
  6
HIDDEN
 62
     7
370
     0
100
AcDbCircle
 10
90.766798189
 20
71.1289361273
 30
0.0
 40
0.9962338214386932
100
AcDbArc
 50
352.0
 51
0.0
  0
ARC
  5
13D
330
1F
100
AcDbEntity
  8
0
  6
HIDDEN
 62
     7
370
     0
100
AcDbCircle
 10
90.766798189
 20
71.1289361273
 30
0.0
 40
0.9962338214386932
100
AcDbArc
 50
0.0
 51
25.7988228126
  0
ARC
  5
13E
330
1F
100
AcDbEntity
  8
0
  6
HIDDEN
 62
     7
370
     0
100
AcDbCircle
 10
90.766798189
 20
148.3859067762
 30
0.0
 40
0.9962338214386862
100
AcDbArc
 50
348.75
 51
8.0
  0
LWPOLYLINE
  5
13F
330
1F
100
AcDbEntity
  8
0
  6
HIDDEN
 62
     7
370
     0
100
AcDbPolyline
 90
        3
 70
   128
 43
0.0
 10
91.7438896569
 20
148.1915511992
 10
91.6871982262
 20
148.004664598
 10
91.6637351074
 20
147.9523332631
  0
LINE
  5
140
330
1F
100
AcDbEntity
  8
0
  6
HIDDEN
 62
     7
370
     0
100
AcDbLine
 10
91.7630320104
 20
71.1289361273
 30
0.0
 11
91.7630320104
 21
148.3859067762
 31
0.0
  0
ARC
  5
141
330
1F
100
AcDbEntity
  8
0
  6
HIDDEN
 62
     7
370
     0
100
AcDbCircle
 10
65.1244610496
 20
79.2574214518
 30
0.0
 40
1.000000000000014
100
AcDbArc
 50
210.0
 51
270.0
  0
ARC
  5
142
330
1F
100
AcDbEntity
  8
0
  6
HIDDEN
 62
     7
370
     0
100
AcDbCircle
 10
65.1244610496
 20
140.2574214518
 30
0.0
 40
1.000000000000028
100
AcDbArc
 50
90.0
 51
150.0
  0
LINE
  5
143
330
1F
100
AcDbEntity
  8
0
  6
HIDDEN
 62
     7
370
     0
100
AcDbLine
 10
65.1244610496
 20
78.2574214518
 30
0.0
 11
70.6689054814
 21
78.2574214518
 31
0.0
  0
LINE
  5
144
330
1F
100
AcDbEntity
  8
0
  6
HIDDEN
 62
     7
370
     0
100
AcDbLine
 10
70.6689054814
 20
141.2574214518
 30
0.0
 11
65.1244610496
 21
141.2574214518
 31
0.0
  0
ARC
  5
145
330
1F
100
AcDbEntity
  8
0
  6
HIDDEN
 62
     7
370
     0
100
AcDbCircle
 10
81.9169407626
 20
90.2574214518
 30
0.0
 40
11.99999999999999
100
AcDbArc
 50
273.4752677657
 51
324.3146652873
  0
ARC
  5
146
330
1F
100
AcDbEntity
  8
0
  6
HIDDEN
 62
     7
370
     0
100
AcDbCircle
 10
81.9169407626
 20
129.2574214518
 30
0.0
 40
11.99999999999999
100
AcDbArc
 50
35.6853347127
 51
86.5206515763
  0
LINE
  5
147
330
1F
100
AcDbEntity
  8
0
  6
HIDDEN
 62
     7
370
     0
100
AcDbLine
 10
64.2584356458
 20
140.7574214518
 30
0.0
 11
61.6603594345
 21
136.2574214518
 31
0.0
  0
LINE
  5
148
330
1F
100
AcDbEntity
  8
0
  6
HIDDEN
 62
     7
370
     0
100
AcDbLine
 10
61.6603594345
 20
83.2574214518
 30
0.0
 11
64.2584356458
 21
78.7574214518
 31
0.0
  0
ARC
  5
149
330
1F
100
AcDbEntity
  8
0
  6
HIDDEN
 62
     7
370
     0
100
AcDbCircle
 10
102.1137351074
 20
84.8824214518
 30
0.0
 40
2.000000000000015
100
AcDbArc
 50
234.3409123039
 51
0.0
  0
ARC
  5
14A
330
1F
100
AcDbEntity
  8
0
  6
HIDDEN
 62
     7
370
     0
100
AcDbCircle
 10
102.1137351074
 20
134.6324214518
 30
0.0
 40
2.000000000000026
100
AcDbArc
 50
0.0
 51
125.6590876961
  0
LINE
  5
14B
330
1F
100
AcDbEntity
  8
0
  6
HIDDEN
 62
     7
370
     0
100
AcDbLine
 10
56.8637351074
 20
83.2574214518
 30
0.0
 11
61.6603594345
 21
83.2574214518
 31
0.0
  0
LINE
  5
14C
330
1F
100
AcDbEntity
  8
0
  6
HIDDEN
 62
     7
370
     0
100
AcDbLine
 10
61.6603594345
 20
136.2574214518
 30
0.0
 11
51.8637351074
 21
136.2574214518
 31
0.0
  0
LINE
  5
14D
330
1F
100
AcDbEntity
  8
0
  6
HIDDEN
 62
     7
370
     0
100
AcDbLine
 10
91.6637351074
 20
83.2574214518
 30
0.0
 11
100.9478127258
 21
83.2574214518
 31
0.0
  0
LINE
  5
14E
330
1F
100
AcDbEntity
  8
0
  6
HIDDEN
 62
     7
370
     0
100
AcDbLine
 10
100.9478127258
 20
136.2574214518
 30
0.0
 11
91.6637351074
 21
136.2574214518
 31
0.0
  0
LINE
  5
14F
330
1F
100
AcDbEntity
  8
0
  6
HIDDEN
 62
     7
370
     0
100
AcDbLine
 10
95.6637351074
 20
155.4344830893
 30
0.0
 11
95.6637351074
 21
151.7348352305
 31
0.0
  0
LINE
  5
150
330
1F
100
AcDbEntity
  8
0
  6
HIDDEN
 62
     7
370
     0
100
AcDbLine
 10
105.6637351074
 20
151.7348352305
 30
0.0
 11
105.6637351074
 21
155.4289748309
 31
0.0
  0
LINE
  5
151
330
1F
100
AcDbEntity
  8
0
  6
HIDDEN
 62
     7
370
     0
100
AcDbLine
 10
115.9637351074
 20
96.7574214518
 30
0.0
 11
119.9637351074
 21
96.7574214518
 31
0.0
  0
LINE
  5
152
330
1F
100
AcDbEntity
  8
0
  6
HIDDEN
 62
     7
370
     0
100
AcDbLine
 10
119.9637351074
 20
122.7574214518
 30
0.0
 11
115.9637351074
 21
122.7574214518
 31
0.0
  0
LINE
  5
153
330
1F
100
AcDbEntity
  8
0
  6
HIDDEN
 62
     7
370
     0
100
AcDbLine
 10
104.1137351074
 20
97.7574214518
 30
0.0
 11
104.8637351074
 21
98.5074214518
 31
0.0
  0
LINE
  5
154
330
1F
100
AcDbEntity
  8
0
  6
HIDDEN
 62
     7
370
     0
100
AcDbLine
 10
104.8637351074
 20
121.0074214518
 30
0.0
 11
104.1137351074
 21
121.7574214518
 31
0.0
  0
LINE
  5
155
330
1F
100
AcDbEntity
  8
0
  6
HIDDEN
 62
     7
370
     0
100
AcDbLine
 10
104.8637351074
 20
98.5074214518
 30
0.0
 11
115.9637351074
 21
98.5074214518
 31
0.0
  0
LINE
  5
156
330
1F
100
AcDbEntity
  8
0
  6
HIDDEN
 62
     7
370
     0
100
AcDbLine
 10
115.9637351074
 20
121.0074214518
 30
0.0
 11
104.8637351074
 21
121.0074214518
 31
0.0
  0
LINE
  5
157
330
1F
100
AcDbEntity
  8
0
  6
HIDDEN
 62
     7
370
     0
100
AcDbLine
 10
96.6137351074
 20
159.7574214518
 30
0.0
 11
96.6137351074
 21
153.6574214518
 31
0.0
  0
ARC
  5
158
330
1F
100
AcDbEntity
  8
0
  6
HIDDEN
 62
     7
370
     0
100
AcDbCircle
 10
251.1637351074
 20
101.7207272037
 30
0.0
 40
0.5000000000000154
100
AcDbArc
 50
0.0
 51
80.0
  0
ARC
  5
159
330
1F
100
AcDbEntity
  8
0
  6
HIDDEN
 62
     7
370
     0
100
AcDbCircle
 10
251.1637351074
 20
117.7941156999
 30
0.0
 40
0.5000000000000014
100
AcDbArc
 50
280.0
 51
0.0
  0
LINE
  5
15A
330
1F
100
AcDbEntity
  8
0
  6
HIDDEN
 62
     7
370
     0
100
AcDbLine
 10
251.2505591963
 20
117.3017118233
 30
0.0
 11
248.1637351074
 21
116.7574214518
 31
0.0
  0
LINE
  5
15B
330
1F
100
AcDbEntity
  8
0
  6
HIDDEN
 62
     7
370
     0
100
AcDbLine
 10
248.1637351074
 20
102.7574214518
 30
0.0
 11
251.2505591963
 21
102.2131310802
 31
0.0
  0
ARC
  5
15C
330
1F
100
AcDbEntity
  8
0
  6
HIDDEN
 62
     7
370
     0
100
AcDbCircle
 10
205.5637351074
 20
102.8574214518
 30
0.0
 40
0.4000000000000199
100
AcDbArc
 50
180.0
 51
270.0
  0
ARC
  5
15D
330
1F
100
AcDbEntity
  8
0
  6
HIDDEN
 62
     7
370
     0
100
AcDbCircle
 10
205.5637351074
 20
116.6574214518
 30
0.0
 40
0.4000000000000199
100
AcDbArc
 50
90.0
 51
180.0
  0
LINE
  5
15E
330
1F
100
AcDbEntity
  8
0
  6
HIDDEN
 62
     7
370
     0
100
AcDbLine
 10
208.6637351074
 20
102.4574214518
 30
0.0
 11
214.7689610893
 21
102.4574214518
 31
0.0
  0
LINE
  5
15F
330
1F
100
AcDbEntity
  8
0
  6
HIDDEN
 62
     7
370
     0
100
AcDbLine
 10
205.5637351074
 20
102.4574214518
 30
0.0
 11
205.6673878059
 21
102.4574214518
 31
0.0
  0
LINE
  5
160
330
1F
100
AcDbEntity
  8
0
  6
HIDDEN
 62
     7
370
     0
100
AcDbLine
 10
205.6647250733
 20
117.0574214518
 30
0.0
 11
205.5637351074
 21
117.0574214518
 31
0.0
  0
LINE
  5
161
330
1F
100
AcDbEntity
  8
0
  6
HIDDEN
 62
     7
370
     0
100
AcDbLine
 10
214.7689610893
 20
117.0574214518
 30
0.0
 11
208.6614776631
 21
117.0574214518
 31
0.0
  0
ARC
  5
162
330
1F
100
AcDbEntity
  8
0
  6
HIDDEN
 62
     7
370
     0
100
AcDbCircle
 10
214.7689610893
 20
102.8574214518
 30
0.0
 40
0.4000000000000074
100
AcDbArc
 50
270.0
 51
290.0
  0
ARC
  5
163
330
1F
100
AcDbEntity
  8
0
  6
HIDDEN
 62
     7
370
     0
100
AcDbCircle
 10
214.7689610893
 20
116.6574214518
 30
0.0
 40
0.4000000000000074
100
AcDbArc
 50
70.0
 51
90.0
  0
LINE
  5
164
330
1F
100
AcDbEntity
  8
0
  6
HIDDEN
 62
     7
370
     0
100
AcDbLine
 10
214.9057691466
 20
102.4815444035
 30
0.0
 11
215.6637351074
 21
102.7574214518
 31
0.0
  0
LINE
  5
165
330
1F
100
AcDbEntity
  8
0
  6
HIDDEN
 62
     7
370
     0
100
AcDbLine
 10
215.6637351074
 20
116.7574214518
 30
0.0
 11
214.9057691466
 21
117.0332985001
 31
0.0
  0
LINE
  5
166
330
1F
100
AcDbEntity
  8
0
  6
HIDDEN
 62
     7
370
     0
100
AcDbLine
 10
215.6637351074
 20
102.7574214518
 30
0.0
 11
248.1637351074
 21
102.7574214518
 31
0.0
  0
LINE
  5
167
330
1F
100
AcDbEntity
  8
0
  6
HIDDEN
 62
     7
370
     0
100
AcDbLine
 10
248.1637351074
 20
116.7574214518
 30
0.0
 11
215.6637351074
 21
116.7574214518
 31
0.0
  0
LINE
  5
168
330
1F
100
AcDbEntity
  8
0
  6
HIDDEN
 62
     7
370
     0
100
AcDbLine
 10
83.0964477235
 20
72.1791418812
 30
0.0
 11
82.663738437
 21
72.6573665986
 31
0.0
  0
LINE
  5
169
330
1F
100
AcDbEntity
  8
0
  6
HIDDEN
 62
     7
370
     0
100
AcDbLine
 10
70.6637355655
 20
73.3043279552
 30
0.0
 11
70.1831082602
 21
72.8261032444
 31
0.0
  0
LINE
  5
16A
330
1F
100
AcDbEntity
  8
0
  6
HIDDEN
 62
     7
370
     0
100
AcDbLine
 10
70.1829899187
 20
146.688733743
 30
0.0
 11
70.6637353828
 21
146.2104540712
 31
0.0
  0
LINE
  5
16B
330
1F
100
AcDbEntity
  8
0
  6
HIDDEN
 62
     7
370
     0
100
AcDbLine
 10
82.6637351095
 20
146.8574264585
 30
0.0
 11
83.0965567793
 21
147.3357061314
 31
0.0
  0
LINE
  5
16C
330
1F
100
AcDbEntity
  8
0
  6
HIDDEN
 62
     7
370
     0
100
AcDbLine
 10
82.6637351074
 20
141.2314863458
 30
0.0
 11
82.6637351074
 21
146.9574302845
 31
0.0
  0
LINE
  5
16D
330
1F
100
AcDbEntity
  8
0
  6
HIDDEN
 62
     7
370
     0
100
AcDbLine
 10
70.6637351074
 20
146.2104435719
 30
0.0
 11
70.6637351074
 21
141.2564372524
 31
0.0
  0
LINE
  5
16E
330
1F
100
AcDbEntity
  8
0
  6
HIDDEN
 62
     7
370
     0
100
AcDbLine
 10
82.6637351074
 20
72.557237756
 30
0.0
 11
82.6637351074
 21
78.2833565578
 31
0.0
  0
LINE
  5
16F
330
1F
100
AcDbEntity
  8
0
  6
HIDDEN
 62
     7
370
     0
100
AcDbLine
 10
70.6637351074
 20
78.2584056511
 30
0.0
 11
70.6637351074
 21
73.3043663698
 31
0.0
  0
LINE
  5
170
330
1F
100
AcDbEntity
  8
0
  6
HIDDEN
 62
     7
370
     0
100
AcDbLine
 10
184.2624441789
 20
103.7574214518
 30
0.0
 11
185.1637351074
 21
105.2574214518
 31
0.0
  0
LINE
  5
171
330
1F
100
AcDbEntity
  8
0
  6
HIDDEN
 62
     7
370
     0
100
AcDbLine
 10
185.1637351074
 20
114.2574214518
 30
0.0
 11
184.2624441789
 21
115.7574214518
 31
0.0
  0
LINE
  5
172
330
1F
100
AcDbEntity
  8
0
  6
HIDDEN
 62
     7
370
     0
100
AcDbLine
 10
119.9637351074
 20
103.7574214518
 30
0.0
 11
184.2624441789
 21
103.7574214518
 31
0.0
  0
LINE
  5
173
330
1F
100
AcDbEntity
  8
0
  6
HIDDEN
 62
     7
370
     0
100
AcDbLine
 10
184.2624441789
 20
115.7574214518
 30
0.0
 11
119.9637351074
 21
115.7574214518
 31
0.0
  0
LINE
  5
174
330
1F
100
AcDbEntity
  8
0
  6
HIDDEN
 62
     7
370
     0
100
AcDbLine
 10
205.1637351074
 20
114.7574214518
 30
0.0
 11
204.6637351074
 21
114.2574214518
 31
0.0
  0
LINE
  5
175
330
1F
100
AcDbEntity
  8
0
  6
HIDDEN
 62
     7
370
     0
100
AcDbLine
 10
204.6637351074
 20
105.2574214518
 30
0.0
 11
205.1637351074
 21
104.7574214518
 31
0.0
  0
LINE
  5
176
330
1F
100
AcDbEntity
  8
0
  6
HIDDEN
 62
     7
370
     0
100
AcDbLine
 10
185.1637351074
 20
105.2574214518
 30
0.0
 11
204.6637351074
 21
105.2574214518
 31
0.0
  0
LINE
  5
177
330
1F
100
AcDbEntity
  8
0
  6
HIDDEN
 62
     7
370
     0
100
AcDbLine
 10
204.6637351074
 20
114.2574214518
 30
0.0
 11
185.1637351074
 21
114.2574214518
 31
0.0
  0
LINE
  5
178
330
1F
100
AcDbEntity
  8
0
  6
HIDDEN
 62
     7
370
     0
100
AcDbLine
 10
157.1137351074
 20
128.2574214518
 30
0.0
 11
158.1137351074
 21
127.6800711826
 31
0.0
  0
LINE
  5
179
330
1F
100
AcDbEntity
  8
0
  6
HIDDEN
 62
     7
370
     0
100
AcDbLine
 10
163.1137351074
 20
127.6800711826
 30
0.0
 11
164.1137351074
 21
128.2574214518
 31
0.0
  0
LINE
  5
17A
330
1F
100
AcDbEntity
  8
0
  6
HIDDEN
 62
     7
370
     0
100
AcDbLine
 10
164.1137351074
 20
91.2574214518
 30
0.0
 11
163.1137351074
 21
91.834771721
 31
0.0
  0
LINE
  5
17B
330
1F
100
AcDbEntity
  8
0
  6
HIDDEN
 62
     7
370
     0
100
AcDbLine
 10
158.1137351074
 20
91.834771721
 30
0.0
 11
157.1137351074
 21
91.2574214518
 31
0.0
  0
LINE
  5
17C
330
1F
100
AcDbEntity
  8
0
  6
HIDDEN
 62
     7
370
     0
100
AcDbLine
 10
158.1137351074
 20
127.6800711826
 30
0.0
 11
158.1137351074
 21
119.2574214518
 31
0.0
  0
LINE
  5
17D
330
1F
100
AcDbEntity
  8
0
  6
HIDDEN
 62
     7
370
     0
100
AcDbLine
 10
163.1137351074
 20
119.2574214518
 30
0.0
 11
163.1137351074
 21
127.6800711826
 31
0.0
  0
LINE
  5
17E
330
1F
100
AcDbEntity
  8
0
  6
HIDDEN
 62
     7
370
     0
100
AcDbLine
 10
158.1137351074
 20
119.2574214518
 30
0.0
 11
160.6137351074
 21
117.7552699042
 31
0.0
  0
LINE
  5
17F
330
1F
100
AcDbEntity
  8
0
  6
HIDDEN
 62
     7
370
     0
100
AcDbLine
 10
160.6137351074
 20
117.7552699042
 30
0.0
 11
163.1137351074
 21
119.2574214518
 31
0.0
  0
LINE
  5
180
330
1F
100
AcDbEntity
  8
0
  6
HIDDEN
 62
     7
370
     0
100
AcDbLine
 10
163.1137351074
 20
100.2574214518
 30
0.0
 11
160.6137351074
 21
101.7595729994
 31
0.0
  0
LINE
  5
181
330
1F
100
AcDbEntity
  8
0
  6
HIDDEN
 62
     7
370
     0
100
AcDbLine
 10
160.6137351074
 20
101.7595729994
 30
0.0
 11
158.1137351074
 21
100.2574214518
 31
0.0
  0
LINE
  5
182
330
1F
100
AcDbEntity
  8
0
  6
HIDDEN
 62
     7
370
     0
100
AcDbLine
 10
163.1137351074
 20
91.834771721
 30
0.0
 11
163.1137351074
 21
100.2574214518
 31
0.0
  0
LINE
  5
183
330
1F
100
AcDbEntity
  8
0
  6
HIDDEN
 62
     7
370
     0
100
AcDbLine
 10
158.1137351074
 20
100.2574214518
 30
0.0
 11
158.1137351074
 21
91.834771721
 31
0.0
  0
LINE
  5
184
330
1F
100
AcDbEntity
  8
0
  6
HIDDEN
 62
     7
370
     0
100
AcDbLine
 10
205.6637351074
 20
120.3140263202
 30
0.0
 11
205.6637351074
 21
117.0572182322
 31
0.0
  0
LINE
  5
185
330
1F
100
AcDbEntity
  8
0
  6
HIDDEN
 62
     7
370
     0
100
AcDbLine
 10
205.6637351074
 20
122.7574214518
 30
0.0
 11
205.6637351074
 21
122.6844301056
 31
0.0
  0
LINE
  5
186
330
1F
100
AcDbEntity
  8
0
  6
HIDDEN
 62
     7
370
     0
100
AcDbLine
 10
208.6637351074
 20
122.6961837373
 30
0.0
 11
208.6637351074
 21
122.7574214518
 31
0.0
  0
LINE
  5
187
330
1F
100
AcDbEntity
  8
0
  6
HIDDEN
 62
     7
370
     0
100
AcDbLine
 10
208.6637351074
 20
117.0569615074
 30
0.0
 11
208.6637351074
 21
120.1959316049
 31
0.0
  0
LINE
  5
188
330
1F
100
AcDbEntity
  8
0
  6
HIDDEN
 62
     7
370
     0
100
AcDbLine
 10
205.6637351074
 20
102.458168411
 30
0.0
 11
205.6637351074
 21
99.1910929997
 31
0.0
  0
LINE
  5
189
330
1F
100
AcDbEntity
  8
0
  6
HIDDEN
 62
     7
370
     0
100
AcDbLine
 10
208.6637351074
 20
99.3077221341
 30
0.0
 11
208.6637351074
 21
102.4574214518
 31
0.0
  0
LINE
  5
18A
330
1F
100
AcDbEntity
  8
0
  6
HIDDEN
 62
     7
370
     0
100
AcDbLine
 10
206.5326789617
 20
96.7353073096
 30
0.0
 11
207.1637351074
 21
96.3561305232
 31
0.0
  0
LINE
  5
18B
330
1F
100
AcDbEntity
  8
0
  6
HIDDEN
 62
     7
370
     0
100
AcDbLine
 10
207.1637351074
 20
96.3561305232
 30
0.0
 11
207.8821436286
 21
96.787793912
 31
0.0
  0
LINE
  5
18C
330
1F
100
AcDbEntity
  8
0
  6
HIDDEN
 62
     7
370
     0
100
AcDbLine
 10
205.7482742101
 20
96.7024336316
 30
0.0
 11
206.6101414129
 21
96.7362964862
 31
0.0
  0
LINE
  5
18D
330
1F
100
AcDbEntity
  8
0
  6
HIDDEN
 62
     7
370
     0
100
AcDbLine
 10
207.8798975403
 20
96.7861853403
 30
0.0
 11
251.6637351074
 21
98.5064570035
 31
0.0
  0
LINE
  5
18E
330
1F
100
AcDbEntity
  8
0
  6
HIDDEN
 62
     7
370
     0
100
AcDbLine
 10
251.6637351074
 20
101.0083859
 30
0.0
 11
208.654305522
 21
99.3185408093
 31
0.0
  0
LINE
  5
18F
330
1F
100
AcDbEntity
  8
0
  6
HIDDEN
 62
     7
370
     0
100
AcDbLine
 10
208.6637351074
 20
120.1959316049
 30
0.0
 11
251.6637351074
 21
118.5064570035
 31
0.0
  0
LINE
  5
190
330
1F
100
AcDbEntity
  8
0
  6
HIDDEN
 62
     7
370
     0
100
AcDbLine
 10
251.6637351074
 20
121.0083859
 30
0.0
 11
208.6623616221
 21
122.6979144658
 31
0.0
  0
LINE
  5
191
330
1F
100
AcDbEntity
  8
0
  6
HIDDEN
 62
     7
370
     0
100
AcDbLine
 10
205.6501246707
 20
99.2005062222
 30
0.0
 11
204.9487027188
 21
97.9219828304
 31
0.0
  0
LINE
  5
192
330
1F
100
AcDbEntity
  8
0
  6
HIDDEN
 62
     7
370
     0
100
AcDbLine
 10
204.9487027188
 20
97.9219828304
 30
0.0
 11
205.7482742101
 21
96.7024336316
 31
0.0
  0
LINE
  5
193
330
1F
100
AcDbEntity
  8
0
  6
HIDDEN
 62
     7
370
     0
100
AcDbLine
 10
205.6652387349
 20
122.6857591247
 30
0.0
 11
204.9487027188
 21
121.5928600732
 31
0.0
  0
LINE
  5
194
330
1F
100
AcDbEntity
  8
0
  6
HIDDEN
 62
     7
370
     0
100
AcDbLine
 10
204.9487027188
 20
121.5928600732
 30
0.0
 11
205.6501246707
 21
120.3143366814
 31
0.0
  0
LINE
  5
195
330
1F
100
AcDbEntity
  8
0
  6
HIDDEN
 62
     7
370
     0
100
AcDbLine
 10
95.6637351074
 20
157.3101327498
 30
0.0
 11
95.6637351074
 21
155.4344830893
 31
0.0
  0
LINE
  5
196
330
1F
100
AcDbEntity
  8
0
  6
HIDDEN
 62
     7
370
     0
100
AcDbLine
 10
105.6637351074
 20
155.4289748309
 30
0.0
 11
105.6637351074
 21
157.308704467
 31
0.0
  0
LINE
  5
197
330
1F
100
AcDbEntity
  8
0
  6
HIDDEN
 62
     7
370
     0
100
AcDbLine
 10
251.4724683502
 20
101.2510638983
 30
0.0
 11
246.1385305463
 21
101.0414929112
 31
0.0
  0
LINE
  5
198
330
1F
100
AcDbEntity
  8
0
  6
HIDDEN
 62
     7
370
     0
100
AcDbLine
 10
246.2563099936
 20
98.0438058025
 30
0.0
 11
251.5902477975
 21
98.2533767896
 31
0.0
  0
LINE
  5
199
330
1F
100
AcDbEntity
  8
0
  6
HIDDEN
 62
     7
370
     0
100
AcDbLine
 10
246.1385305463
 20
101.0414929112
 30
0.0
 11
245.658545936
 21
100.5222484852
 31
0.0
  0
LINE
  5
19A
330
1F
100
AcDbEntity
  8
0
  6
HIDDEN
 62
     7
370
     0
100
AcDbLine
 10
245.7370655676
 20
98.5237904128
 30
0.0
 11
246.2563099936
 21
98.0438058025
 31
0.0
  0
LINE
  5
19B
330
1F
100
AcDbEntity
  8
0
  6
HIDDEN
 62
     7
370
     0
100
AcDbLine
 10
251.5902477975
 20
98.2533767896
 30
0.0
 11
251.6637351074
 21
98.3930531914
 31
0.0
  0
LINE
  5
19C
330
1F
100
AcDbEntity
  8
0
  6
HIDDEN
 62
     7
370
     0
100
AcDbLine
 10
251.6453026239
 20
100.9771381533
 30
0.0
 11
251.4724683502
 21
101.2510638983
 31
0.0
  0
LINE
  5
19D
330
1F
100
AcDbEntity
  8
0
  6
HIDDEN
 62
     7
370
     0
100
AcDbLine
 10
251.5313580738
 20
121.2637798975
 30
0.0
 11
246.1974202699
 21
121.4733508846
 31
0.0
  0
LINE
  5
19E
330
1F
100
AcDbEntity
  8
0
  6
HIDDEN
 62
     7
370
     0
100
AcDbLine
 10
246.0796408226
 20
118.4756637759
 30
0.0
 11
251.4135786265
 21
118.2660927888
 31
0.0
  0
LINE
  5
19F
330
1F
100
AcDbEntity
  8
0
  6
HIDDEN
 62
     7
370
     0
100
AcDbLine
 10
251.4135786265
 20
118.2660927888
 30
0.0
 11
251.5864129003
 21
118.5400185339
 31
0.0
  0
LINE
  5
1A0
330
1F
100
AcDbEntity
  8
0
  6
HIDDEN
 62
     7
370
     0
100
AcDbLine
 10
251.6637351074
 20
121.0121725418
 30
0.0
 11
251.5313580738
 21
121.2637798975
 31
0.0
  0
LINE
  5
1A1
330
1F
100
AcDbEntity
  8
0
  6
HIDDEN
 62
     7
370
     0
100
AcDbLine
 10
246.1974202699
 20
121.4733508846
 30
0.0
 11
245.6781758439
 21
120.9933662744
 31
0.0
  0
LINE
  5
1A2
330
1F
100
AcDbEntity
  8
0
  6
HIDDEN
 62
     7
370
     0
100
AcDbLine
 10
245.5996562124
 20
118.9949082019
 30
0.0
 11
246.0796408226
 21
118.4756637759
 31
0.0
  0
LINE
  5
1A3
330
1F
100
AcDbEntity
  8
0
  6
HIDDEN
 62
     7
370
     0
100
AcDbLine
 10
204.6637351074
 20
104.7574214518
 30
0.0
 11
205.1637351074
 21
105.2574214518
 31
0.0
  0
LINE
  5
1A4
330
1F
100
AcDbEntity
  8
0
  6
HIDDEN
 62
     7
370
     0
100
AcDbLine
 10
205.1637351074
 20
114.2574214518
 30
0.0
 11
204.6637351074
 21
114.7574214518
 31
0.0
  0
LINE
  5
1A5
330
1F
100
AcDbEntity
  8
0
  6
HIDDEN
 62
     7
370
     0
100
AcDbLine
 10
189.1637351074
 20
104.7574214518
 30
0.0
 11
204.6637351074
 21
104.7574214518
 31
0.0
  0
LINE
  5
1A6
330
1F
100
AcDbEntity
  8
0
  6
HIDDEN
 62
     7
370
     0
100
AcDbLine
 10
204.6637351074
 20
114.7574214518
 30
0.0
 11
189.1637351074
 21
114.7574214518
 31
0.0
  0
LINE
  5
1A7
330
1F
100
AcDbEntity
  8
0
  6
HIDDEN
 62
     7
370
     0
100
AcDbLine
 10
189.1637351074
 20
114.7574214518
 30
0.0
 11
188.6637351074
 21
114.2574214518
 31
0.0
  0
LINE
  5
1A8
330
1F
100
AcDbEntity
  8
0
  6
HIDDEN
 62
     7
370
     0
100
AcDbLine
 10
188.6637351074
 20
105.2574214518
 30
0.0
 11
189.1637351074
 21
104.7574214518
 31
0.0
  0
LINE
  5
1A9
330
1F
100
AcDbEntity
  8
0
  6
HIDDEN
 62
     7
370
     0
100
AcDbLine
 10
205.1637351074
 20
105.2574214518
 30
0.0
 11
208.6637351074
 21
105.2574214518
 31
0.0
  0
LINE
  5
1AA
330
1F
100
AcDbEntity
  8
0
  6
HIDDEN
 62
     7
370
     0
100
AcDbLine
 10
208.6637351074
 20
114.2574214518
 30
0.0
 11
205.1637351074
 21
114.2574214518
 31
0.0
  0
LINE
  5
1AB
330
1F
100
AcDbEntity
  8
0
  6
HIDDEN
 62
     7
370
     0
100
AcDbLine
 10
194.6637351074
 20
107.2574214518
 30
0.0
 11
202.6637351074
 21
107.2574214518
 31
0.0
  0
LINE
  5
1AC
330
1F
100
AcDbEntity
  8
0
  6
HIDDEN
 62
     7
370
     0
100
AcDbLine
 10
202.6637351074
 20
112.2574214518
 30
0.0
 11
194.6637351074
 21
112.2574214518
 31
0.0
  0
DIMENSION
  5
1AD
330
1F
100
AcDbEntity
  8
VERMASSUNG
100
AcDbDimension
  2
*D1
 10
36.8746478873
 20
59.7574214518
 30
0.0
 11
36.8746478873
 21
109.7574214518
 31
0.0
 70
   160
  1
HSK A %%c<>
 71
     2
 42
-1.0
  3
SLDDIMSTYLE0
100
AcDbAlignedDimension
 13
92.1637351074
 23
159.7574214518
 33
0.0
 14
92.1637351074
 24
59.7574214518
 34
0.0
 50
90.0
100
AcDbRotatedDimension
  0
DIMENSION
  5
1BA
330
1F
100
AcDbEntity
  8
VERMASSUNG
100
AcDbDimension
  2
*D2
 10
251.6637351074
 20
157.7574214518
 30
0.0
 11
228.4137351074
 21
157.7574214518
 31
0.0
 70
   160
 71
     2
 42
-1.0
  3
SLDDIMSTYLE1
100
AcDbAlignedDimension
 13
205.1637351074
 23
116.6574214518
 33
0.0
 14
251.6637351074
 24
121.4086404685
 34
0.0
 50
0.0
100
AcDbRotatedDimension
  0
DIMENSION
  5
1C5
330
1F
100
AcDbEntity
  8
VERMASSUNG
100
AcDbDimension
  2
*D3
 10
261.7736248278
 20
116.7574214518
 30
0.0
 11
261.7736248278
 21
109.7574214518
 31
0.0
 70
   160
  1
%%c<> 
 71
     2
 42
-1.0
  3
SLDDIMSTYLE2
100
AcDbAlignedDimension
 13
248.1637351074
 23
102.7574214518
 33
0.0
 14
248.1637351074
 24
116.7574214518
 34
0.0
 50
90.0
100
AcDbRotatedDimension
  0
DIMENSION
  5
1D2
330
1F
100
AcDbEntity
  8
VERMASSUNG
100
AcDbDimension
  2
*D4
 10
267.7736248278
 20
123.2574214518
 30
0.0
 11
267.7736248278
 21
109.7574214518
 31
0.0
 70
   160
  1
%%c<>
 71
     2
 42
-1.0
  3
SLDDIMSTYLE3
100
AcDbAlignedDimension
 13
251.6637351074
 23
96.2574214518
 33
0.0
 14
251.6637351074
 24
123.2574214518
 34
0.0
 50
90.0
100
AcDbRotatedDimension
  0
DIMENSION
  5
1DE
330
1F
100
AcDbEntity
  8
VERMASSUNG
100
AcDbDimension
  2
*D5
 10
251.6637351074
 20
169.7574214518
 30
0.0
 11
171.6637351074
 21
169.7574214518
 31
0.0
 70
   160
 71
     2
 42
-1.0
  3
SLDDIMSTYLE0
100
AcDbAlignedDimension
 13
91.6637351074
 23
159.2574214518
 33
0.0
 14
251.6637351074
 24
121.4086404685
 34
0.0
100
AcDbRotatedDimension
  0
DIMENSION
  5
1E8
330
1F
100
AcDbEntity
  8
VERMASSUNG
100
AcDbDimension
  2
*D6
 10
251.6637351074
 20
163.7574214518
 30
0.0
 11
186.1387351074
 21
163.7574214518
 31
0.0
 70
   160
 71
     2
 42
-1.0
  3
SLDDIMSTYLE0
100
AcDbAlignedDimension
 13
120.6137351074
 23
157.7261612726
 33
0.0
 14
251.6637351074
 24
121.4086404685
 34
0.0
100
AcDbRotatedDimension
  0
DIMENSION
  5
1F2
330
1F
100
AcDbEntity
  8
VERMASSUNG
100
AcDbDimension
  2
*D7
 10
251.6637351074
 20
175.7574214518
 30
0.0
 11
146.7137351074
 21
175.7574214518
 31
0.0
 70
   160
 71
     2
 42
-1.0
  3
SLDDIMSTYLE0
100
AcDbAlignedDimension
 13
41.7637351074
 23
140.2600911944
 33
0.0
 14
251.6637351074
 24
121.4086404685
 34
0.0
100
AcDbRotatedDimension
  0
DIMENSION
  5
1FC
330
1F
100
AcDbEntity
  8
VERMASSUNG
100
AcDbDimension
  2
*D8
 10
273.7736248278
 20
91.2574214518
 30
0.0
 11
273.7736248278
 21
109.7574214518
 31
0.0
 70
   160
  1
%%c<>
 71
     2
 42
-1.0
  3
SLDDIMSTYLE0
100
AcDbAlignedDimension
 13
169.6137351074
 23
128.2574214518
 33
0.0
 14
169.6137351074
 24
91.2574214518
 34
0.0
 50
90.0
100
AcDbRotatedDimension
  0
LINE
  5
207
330
1F
100
AcDbEntity
  8
VERMASSUNG
  6
CENTERX2
370
     0
100
AcDbLine
 10
39.5132657465
 20
109.7574214518
 30
0.0
 11
253.6274106176
 21
109.7574214518
 31
0.0
  0
OLE2FRAME
  5
208
330
1F
100
AcDbEntity
  8
0
100
AcDbOle2Frame
 70
     2
  3
Bitmap Image
 10
13.8511154363
 20
38.264191557
 30
0.0
 11
51.6290888628
 21
31.9806341108
 31
0.0
 71
     2
 72
     0
 73
     1
 90
    12928
310
80552BED0767C5B32B40DDAF6807D121434000000000000000006FFBDDFB85D0
310
4940DDAF6807D121434000000000000000006FFBDDFB85D04940416F4BD60AFB
310
3F4000000000000000002BED0767C5B32B40416F4BD60AFB3F40000000000000
310
0000000000000100000000010000010000000100000000000100000000320000
310
D0CF11E0A1B11AE1000000000000000000000000000000003E000300FEFF0900
310
0600000000000000000000000100000001000000000000000010000002000000
310
01000000FEFFFFFF0000000000000000FFFFFFFFFFFFFFFFFFFFFFFFFFFFFFFF
310
FFFFFFFFFFFFFFFFFFFFFFFFFFFFFFFFFFFFFFFFFFFFFFFFFFFFFFFFFFFFFFFF
310
FFFFFFFFFFFFFFFFFFFFFFFFFFFFFFFFFFFFFFFFFFFFFFFFFFFFFFFFFFFFFFFF
310
FFFFFFFFFFFFFFFFFFFFFFFFFFFFFFFFFFFFFFFFFFFFFFFFFFFFFFFFFFFFFFFF
310
FFFFFFFFFFFFFFFFFFFFFFFFFFFFFFFFFFFFFFFFFFFFFFFFFFFFFFFFFFFFFFFF
310
FFFFFFFFFFFFFFFFFFFFFFFFFFFFFFFFFFFFFFFFFFFFFFFFFFFFFFFFFFFFFFFF
310
FFFFFFFFFFFFFFFFFFFFFFFFFFFFFFFFFFFFFFFFFFFFFFFFFFFFFFFFFFFFFFFF
310
FFFFFFFFFFFFFFFFFFFFFFFFFFFFFFFFFFFFFFFFFFFFFFFFFFFFFFFFFFFFFFFF
310
FFFFFFFFFFFFFFFFFFFFFFFFFFFFFFFFFFFFFFFFFFFFFFFFFFFFFFFFFFFFFFFF
310
FFFFFFFFFFFFFFFFFFFFFFFFFFFFFFFFFFFFFFFFFFFFFFFFFFFFFFFFFFFFFFFF
310
FFFFFFFFFFFFFFFFFFFFFFFFFFFFFFFFFFFFFFFFFFFFFFFFFFFFFFFFFFFFFFFF
310
FFFFFFFFFFFFFFFFFFFFFFFFFFFFFFFFFFFFFFFFFFFFFFFFFFFFFFFFFFFFFFFF
310
FFFFFFFFFFFFFFFFFFFFFFFFFFFFFFFFFFFFFFFFFFFFFFFFFFFFFFFFFFFFFFFF
310
FFFFFFFFFFFFFFFFFFFFFFFFFFFFFFFFFFFFFFFFFFFFFFFFFFFFFFFFFFFFFFFF
310
FDFFFFFFFEFFFFFFFEFFFFFFFEFFFFFF05000000060000000700000008000000
310
090000000A0000000B0000000C0000000D0000000E0000000F00000010000000
310
11000000120000001300000014000000150000001600000017000000FEFFFFFF
310
FFFFFFFFFFFFFFFFFFFFFFFFFFFFFFFFFFFFFFFFFFFFFFFFFFFFFFFFFFFFFFFF
310
FFFFFFFFFFFFFFFFFFFFFFFFFFFFFFFFFFFFFFFFFFFFFFFFFFFFFFFFFFFFFFFF
310
FFFFFFFFFFFFFFFFFFFFFFFFFFFFFFFFFFFFFFFFFFFFFFFFFFFFFFFFFFFFFFFF
310
FFFFFFFFFFFFFFFFFFFFFFFFFFFFFFFFFFFFFFFFFFFFFFFFFFFFFFFFFFFFFFFF
310
FFFFFFFFFFFFFFFFFFFFFFFFFFFFFFFFFFFFFFFFFFFFFFFFFFFFFFFFFFFFFFFF
310
FFFFFFFFFFFFFFFFFFFFFFFFFFFFFFFFFFFFFFFFFFFFFFFFFFFFFFFFFFFFFFFF
310
FFFFFFFFFFFFFFFFFFFFFFFFFFFFFFFFFFFFFFFFFFFFFFFFFFFFFFFFFFFFFFFF
310
FFFFFFFFFFFFFFFFFFFFFFFFFFFFFFFFFFFFFFFFFFFFFFFFFFFFFFFFFFFFFFFF
310
FFFFFFFFFFFFFFFFFFFFFFFFFFFFFFFFFFFFFFFFFFFFFFFFFFFFFFFFFFFFFFFF
310
FFFFFFFFFFFFFFFFFFFFFFFFFFFFFFFFFFFFFFFFFFFFFFFFFFFFFFFFFFFFFFFF
310
FFFFFFFFFFFFFFFFFFFFFFFFFFFFFFFFFFFFFFFFFFFFFFFFFFFFFFFFFFFFFFFF
310
FFFFFFFFFFFFFFFFFFFFFFFFFFFFFFFFFFFFFFFFFFFFFFFFFFFFFFFFFFFFFFFF
310
FFFFFFFFFFFFFFFFFFFFFFFFFFFFFFFFFFFFFFFFFFFFFFFFFFFFFFFFFFFFFFFF
310
52006F006F007400200045006E00740072007900000000000000000000000000
310
0000000000000000000000000000000000000000000000000000000000000000
310
16000500FFFFFFFFFFFFFFFF020000000A00030000000000C000000000000046
310
00000000000000000000000060696CF68E08CC0103000000C000000000000000
310
01004F006C006500000000000000000000000000000000000000000000000000
310
0000000000000000000000000000000000000000000000000000000000000000
310
0A000200FFFFFFFFFFFFFFFFFFFFFFFF00000000000000000000000000000000
310
0000000000000000000000000000000000000000000000001400000000000000
310
010043006F006D0070004F0062006A0000000000000000000000000000000000
310
0000000000000000000000000000000000000000000000000000000000000000
310
120002010100000003000000FFFFFFFF00000000000000000000000000000000
310
0000000000000000000000000000000000000000010000004D00000000000000
310
01004F006C006500310030004E00610074006900760065000000000000000000
310
0000000000000000000000000000000000000000000000000000000000000000
310
1A000200FFFFFFFFFFFFFFFFFFFFFFFF00000000000000000000000000000000
310
0000000000000000000000000000000000000000040000002426000000000000
310
FEFFFFFF02000000FEFFFFFFFFFFFFFFFFFFFFFFFFFFFFFFFFFFFFFFFFFFFFFF
310
FFFFFFFFFFFFFFFFFFFFFFFFFFFFFFFFFFFFFFFFFFFFFFFFFFFFFFFFFFFFFFFF
310
FFFFFFFFFFFFFFFFFFFFFFFFFFFFFFFFFFFFFFFFFFFFFFFFFFFFFFFFFFFFFFFF
310
FFFFFFFFFFFFFFFFFFFFFFFFFFFFFFFFFFFFFFFFFFFFFFFFFFFFFFFFFFFFFFFF
310
FFFFFFFFFFFFFFFFFFFFFFFFFFFFFFFFFFFFFFFFFFFFFFFFFFFFFFFFFFFFFFFF
310
FFFFFFFFFFFFFFFFFFFFFFFFFFFFFFFFFFFFFFFFFFFFFFFFFFFFFFFFFFFFFFFF
310
FFFFFFFFFFFFFFFFFFFFFFFFFFFFFFFFFFFFFFFFFFFFFFFFFFFFFFFFFFFFFFFF
310
FFFFFFFFFFFFFFFFFFFFFFFFFFFFFFFFFFFFFFFFFFFFFFFFFFFFFFFFFFFFFFFF
310
FFFFFFFFFFFFFFFFFFFFFFFFFFFFFFFFFFFFFFFFFFFFFFFFFFFFFFFFFFFFFFFF
310
FFFFFFFFFFFFFFFFFFFFFFFFFFFFFFFFFFFFFFFFFFFFFFFFFFFFFFFFFFFFFFFF
310
FFFFFFFFFFFFFFFFFFFFFFFFFFFFFFFFFFFFFFFFFFFFFFFFFFFFFFFFFFFFFFFF
310
FFFFFFFFFFFFFFFFFFFFFFFFFFFFFFFFFFFFFFFFFFFFFFFFFFFFFFFFFFFFFFFF
310
FFFFFFFFFFFFFFFFFFFFFFFFFFFFFFFFFFFFFFFFFFFFFFFFFFFFFFFFFFFFFFFF
310
FFFFFFFFFFFFFFFFFFFFFFFFFFFFFFFFFFFFFFFFFFFFFFFFFFFFFFFFFFFFFFFF
310
FFFFFFFFFFFFFFFFFFFFFFFFFFFFFFFFFFFFFFFFFFFFFFFFFFFFFFFFFFFFFFFF
310
FFFFFFFFFFFFFFFFFFFFFFFFFFFFFFFFFFFFFFFFFFFFFFFFFFFFFFFFFFFFFFFF
310
0100000200000000000000000000000000000000000000004302820000000004
310
108D043600000000C802250000000000460CE13D009B843D92D3E03D5717843D
310
0100FEFF030A0000FFFFFFFF0A00030000000000C00000000000004607000000
310
5042727573680007000000504272757368000700000050427275736800F439B2
310
710000000000000000000000005C853DFF69E23D777E103EEBF5E63D777E103E
310
7A9BB63D4A33933D7A9BB63D2077933D7A9BB63D2C42943D7A9BB63D0993953D
310
7A9BB63D6D67973D7A9BB63D22BC993D7A9BB63D168D9C3D7A9BB63D5CD59F3D
310
7A9BB63D378FA33D7A9BB63D22B4A73D7A9BB63DDE3CAC3D7A9BB63D7E21B13D
310
7A9BB63D7259B63D7A9BB63D9CDBBB3D7A9BB63D589EC13D7A9BB63D9397C73D
310
7A9BB63DDCBCCD3D7A9BB63D7403D43D7A9BB63D6060DA3D7A9BB63D80C8E03D
310
7A9BB63DA030E73D7A9BB63D8C8DED3D7A9BB63D23D4F33D7A9BB63D6CF9F93D
310
7A9BB63DA8F2FF3D7A9BB63DB2DA023E7A9BB63DC79B053E7A9BB63DC137083E
310
7A9BB63D11AA0A3E7A9BB63D6FEE0C3E7A9BB63DE4000F3E7A9BB63DD2DD103E
310
7A9BB63DF581123E7A9BB63D6FEA133E7A9BB63DC914153E7A9BB63DFBFE153E
310
7A9BB63D6AA7163E7A9BB63DF00C173E7A9BB63DDB2E173E7A9BB63DDB2E173E
310
F3E9683DB683963DF3E9683D01D3963DF3E9683D39C0973DF3E9683D6249993D
310
20260000424D0E260000000000003E00000028000000B40200006E0000000100
310
01000000000000000000130B0000130B00000200000002000000000000FFFFFF
310
FFFFFFFFFFFFFFFFFFFFFFFFFFFFFFFFFFFFFFFFFFFFFFFFFFFFFFFFFFFFFFFF
310
FFFFFFFFFFFFFFFFFFFFFFFFFFFFFFFFFFFFFFFFFFFFFFFFFFFFFFFFFFFFFFFF
310
FFFFFFFFFFFFFFFFFFFFFFFFFFFFFFFFFFFFFFFFFFFFFFFFF000FFFFFFFFFFFF
310
FFFFFFFFFFFFFFFFFFFFFFFFFFFFFFFFFFFFFFFFFFFFFFFFFFFFFFFFFFFFFFFF
310
FFFFFFFFFFFFFFFFFFFFFFFFFFFFFFFFFFFFFFFFFFFFFFFFFFFFFFFFFFFFFFFF
310
FFFFFFFFFFFFFFFFFFFFFFFFFFFFFFFFF000FFFFFFFFFFFFFFFFFFFFFFFFFFFF
310
FFFFFFFFFFFFFFFFFFFFFFFFFFFFFFFFFFFFFFFFFFFFFFFFFFFFFFFFFFFFFFFF
310
FFFFFFFFFFFFFFFFFFFFFFFFFFFFFFFFFFFFFFFFFFFFFFFFFFFFFFFFFFFFFFFF
310
FFFFFFFFFFFFFFFFF000FFFFFFFFFFFFFFFFFFFFFFFFFFFFFFFFFFFFFFFFFFFF
310
FFFFFFFFFFFFFFFFFFFFFFFFFFFFFFFFFFFFFFFFFFFFFFFFFFFFFFFFFFFFFFFF
310
FFFFFFFFFFFFFFFFFFFFFFFFFFFFFFFFFFFFFFFFFFFFFFFFFFFFFFFFFFFFFFFF
310
F000FFFFFFFFFFFFFFFFFFFFFFFFFFFFFFFFFFFFFFFFFFFFFFFFFFFFFFFFFFFF
310
FFFFFFFFFFFFFFFFFFFFFFFFFFFFFFFFFFFFFFFFFFFFFFFFFFFFFFFFFFFFFFFF
310
FFFFFFFFFFFFFFFFFFFFFFFFFFFFFFFFFFFFFFFFFFFFFFFFF000FFFFFFFFFFFF
310
FFFFFFFFFFFFFFFFFFFFFFFFFFFFFFFFFFFFFFFFFFFFFFFFFFFFFFFFFFFFFFFF
310
FFFFFFFFFFFFFFFFFFFFFFFFFFFFFFFFFFFFFFFFFFFFFFFFFFFFFFFFFFFFFFFF
310
FFFFFFFFFFFFFFFFFFFFFFFFFFFFFFFFF000FFFFFFFFFFFFFFFFFFFFFFFFFFFF
310
FFFFFFFFFFFFFFFFFFFFFFFFFFFFFFFFFFFFFFFFFFFFFFFFFFFFFFFFFFFFFFFF
310
FFFFFFFFFFFFFFFFFFFFFFFFFFFFFFFFFFFFFFFFFFFFFFFFFFFFFFFFFFFFFFFF
310
FFFFFFFFFFFFFFFFF000FFFFFFFFFFFFFFFFFFFFFFFFFFFFFFFFFFFFFFFFFFFF
310
FFFFFFFFFFFFFFFFFFFFFFFFFFFFFFFFFFFFFFFFFFFFFFFFFFFFFFFFFFFFFFFF
310
FFFFFFFFFFFFFFFFFFFFFFFFFFFFFFFFFFFFFFFFFFFFFFFFFFFFFFFFFFFFFFFF
310
F000FFFFFFFFFFFFFFFFFFFFFFFFFFFFFFFFFFFFFFFFFFFFFFFFFFFFFFFFFFFF
310
FFFFFFFFFFFFFFFFFFFFFFFFFFFFFFFFFFFFFFFFFFFFFFFFFFFFFFFFFFFFFFFF
310
FFFFFFFFFFFFFFFFFFFFFFFFFFFFFFFFFFFFFFFFFFFFFFFFF000FFFFFFFFFFFF
310
FFFFFFFFFFFFFFFFFFFFFFFFFFFFFFFFFFFFFFFFFFFFFFFFFFFFFFFFFFFFFFFF
310
FFFFFFFFFFFFFFFFFFFFFFFFFFFFFFFFFFFFFFFFFFFFFFFFFFFFFFFFFFFFFFFF
310
FFFFFFFFFFFFFFFFFFFFFFFFFFFFFFFFF000FFFFFFFFFFFFFFFFFFFFFFFFFFFF
310
FFFFFFFFFFFFFFFFFFFFFFFFFFFFFFFFFFFFFFFFFFFFFFFFFFFFFFFFFFFFFFFF
310
FFFFFFFFFFFFFFFFFFFFFFFFFFFFFFFFFFFFFFFFFFFFFFFFFFFFFFFFFFFFFFFF
310
FFFFFFFFFFFFFFFFF000FFFFFFFFFFFFFFFFFFFFFFFFFFFFFFFFFFFFFFFFFFFF
310
FFFFFFFFFFFFFFFFFFFFFFFFFFFFFFFFFFFFFFFFFFFFFFFFFFFFFFFFFFFFFFFF
310
FFFFFFFFFFFFFFFFFFFFFFFFFFFFFFFFFFFFFFFFFFFFFFFFFFFFFFFFFFFFFFFF
310
F000FFFFFFFFFFFFFFFFFFFFFFFFFFFFFFFFFFFFFFFFFFFFFFFFFFFFFFFFFFFF
310
FFFFFFFFFFFFFFFFFFFFFFFFFFFFFFFFFFFFFFFFFFFFFFFFFFFFFFFFFFFFFFFF
310
FFFFFFFFFFFFFFFFFFFFFFFFFFFFFFFFFFFFFFFFFFFFFFFFF000FFFFFFFFFFFF
310
FFFFFFFFFFFFFFFFFFFFFFFFFFFFFFFFFFFFFFFFFFFFFFFFFFFFFFFFFFFFFFFF
310
FFFFFFFFFFFFFFFFFFFFFFFFFFFFFFFFFFFFFFFFFFFFFFFFFFFFFFFFFFFFFFFF
310
FFFFFFFFFFFFFFFFFFFFFFFFFFFFFFFFF000FFFFFFFFFFFFFFFFFFFFFFFFFFFF
310
FFFFFFFFFFFFFFFFFFFFFFFFFFFFFFFFFFFFFFFFFFFFFFFFFFFFFFFFFFFFFFFF
310
FFFFFFFFFFFFFFFFFFFFFFFFFFFFFFFFFFFFFFFFFFFFFFFFFFFFFFFFFFFFFFFF
310
FFFFFFFFFFFFFFFFF000FFFFFFFFFFFFFFFFFFFFFFFFFFFFFFFFFFFFFFFFFFFF
310
FFFFFFFFFFFFFFFFFFFFFFFFFFFFFFFFFFFFFFFFFFFFFFFFFFFFFFFFFFFFFFFF
310
FFFFFFFFFFFFFFFFFFFFFFFFFFFFFFFFFFFFFFFFFFFFFFFFFFFFFFFFFFFFFFFF
310
F000FFFFFFFFFFFFFFFFFFFFFFFFFFFFFFFFFFFFFFFFFFFFFFFFFFFFFFFFFFFF
310
FFFFFFFFFFFFFFFFFFFFFFFFFFFFFFFFFFFFFFFFFFFFFFFFFFFFFFFFFFFFFFFF
310
FFFFFFFFFFFFFFFFFFFFFFFFFFFFFFFFFFFFFFFFFFFFFFFFF000FFFFFFFFFFFF
310
FFFFFFFFFFFFFFFFFFFFFFFFFFFFFFFFFFFFFFFFFFFFFFFFFFFFFFFFFFFFFFFF
310
FFFFFFFFFFFFFFFFFFFFFFFFFFFFFFFFFFFFFFFFFFFFFFFFFFFFFFFFFFFFFFFF
310
FFFFFFFFFFFFFFFFFFFFFFFFFFFFFFFFF000FFFFFFFFFFFFFFFFFFFFFFFFFFFF
310
FFFFFFFFFFFFFFFFFFFFFFFFFFFFFFFFFFFFFFFFFFFFFFFFFFFFFFFFFFFFFFFF
310
FFFFFFFFFFFFFFFFFFFFFFFFFFFFFFFFFFFFFFFFFFFFFFFFFFFFFFFFFFFFFFFF
310
FFFFFFFFFFFFFFFFF000FFFFF80003FFFFFFFFFFFFFFFFFFFFFFFFFFFFFFFFFF
310
FFFFF00007FFFFFFFFFF00007FFFFFF800000000000000007FFFFFFFFFFFFFFF
310
FFFFFFFC001FFFFFFFFFFFFFFC001FFFFFFFFFFFFFFFFFFFFFFFFFFE0007FFFF
310
F000FFFF8000007FFFFFFFF8000FFFFFC0007FFFFF80007FFFFF0000007FFFFF
310
FFF8000007FFFFF800000000000000007FFFFFF0001FFFFFFFFFFFC00001FFFF
310
FFFFFFFFC00001FFFFFFFF000000000003FFFFE000007FFFF000FFFE0000000F
310
FFFFFFF0000FFFFF80007FFFFF80007FFFFC0000001FFFFFFFC0000001FFFFF8
310
00000000000000007FFFFFF0001FFFFFFFFFFE0000003FFFFFFFFFFE0000003F
310
FFFFFF000000000003FFFF0000000FFFF000FFF800000003FFFFFFF00007FFFF
310
80007FFFFF80007FFFF000000007FFFFFF000000003FFFF80000000000000000
310
7FFFFFF0001FFFFFFFFFF80000000FFFFFFFFFF80000000FFFFFFF0000000000
310
03FFFC00000003FFF000FFE000000000FFFFFFF00007FFFF80003FFFFF80007F
310
FFC000000001FFFFFC000000001FFFF800000000000000007FFFFFF0001FFFFF
310
FFFFE000000003FFFFFFFFE000000003FFFFFF000000000003FFF000000000FF
310
F000FF80000000007FFFFFF00007FFFF80003FFFFF80007FFF8000000000FFFF
310
F80000000007FFF800000000000000007FFFFFF0001FFFFFFFFFC000000001FF
310
FFFFFFC000000001FFFFFF000000000003FFC0000000007FF000FF0000000000
310
3FFFFFE00007FFFF00003FFFFF80007FFE00000000003FFFF00000000003FFF8
310
00000000000000007FFFFFF0001FFFFFFFFF8000000000FFFFFFFF8000000000
310
FFFFFF000000000003FF80000000003FF000FE00000000001FFFFFE00003FFFF
310
00003FFFFF80007FFC00000000001FFFE00000000001FFF8000001FFFE000000
310
7FFFFFF0001FFFFFFFFE00000000003FFFFFFE00000000003FFFFF0000000000
310
03FF00000000001FF000FC00000000000FFFFFE00003FFFF00001FFFFF80007F
310
F800000000001FFFC00000000000FFF8000001FFFE0000007FFFFFF0001FFFFF
310
FFFC00000000001FFFFFFC00000000001FFFFF000000000003FE00000000000F
310
F000F8000000000007FFFFE00003FFFF00001FFFFF80007FF800000000000FFF
310
800000000000FFF8000001FFFE0000007FFFFFF0001FFFFFFFF800000000000F
310
FFFFF800000000000FFFFF000000000003FC000000000007F000F80000000000
310
03FFFFC00003FFFE00001FFFFF80007FF0000000000007FF0000000000007FF8
310
000001FFFE0000007FFFFFF0001FFFFFFFF0000000000007FFFFF00000000000
310
07FFFF000000000003F8000000000003F000F0000000000003FFFFC00001FFFE
310
00001FFFFF80007FE0000000000007FE0000000000003FF8000001FFFE000000
310
7FFFFFF0001FFFFFFFF0000000000007FFFFF0000000000007FFFF0000000000
310
03F800001F800003F000E00001FFF00001FFFFC00001FFFE00000FFFFF80007F
310
E00001FFE00003FE00001FFF00003FF8000001FFFE0000007FFFFFF0001FFFFF
310
FFE000003E000003FFFFE000003E000003FFFF000000000003F00001FFF80001
310
F000E00007FFFC0001FFFFC00001FFFE00000FFFFF80007FC0000FFFFC0003FC
310
0000FFFFC0001FF8000001FFFE0000007FFFFFF0001FFFFFFFC00003FFE00001
310
FFFFC00003FFE00001FFFF0001FFFFFFFFF00007FFFE0001F000E0000FFFFF00
310
00FFFF800001FFFC00000FFFFF80007FC0001FFFFE0001FC0001FFFFE0001FF8
310
000001FFFE0000007FFFFFF0001FFFFFFF80000FFFF80000FFFF80000FFFF800
310
00FFFF0003FFFFFFFFE0000FFFFF8000F000C0003FFFFF8000FFFF800000FFFC
310
000007FFFF80007F80003FFFFF0001FC0003FFFFF0001FF8000001FFFE000000
310
7FFFFFF0001FFFFFFF80003FFFFE0000FFFF80003FFFFE0000FFFF0003FFFFFF
310
FFE0003FFFFF8000F000C0003FFFFF8000FFFF800000FFFC000007FFFF80007F
310
80007FFFFF8001F80007FFFFF8000FF8000001FFFE0000007FFFFFF0001FFFFF
310
FF00007FFFFF00007FFF00007FFFFF00007FFF0003FFFFFFFFE0003FFFFFC000
310
F000C0007FFFFFC000FFFF000000FFFC000007FFFF80007F8000FFFFFF8000F8
310
000FFFFFF8000FF8000001FFFE0000007FFFFFF0001FFFFFFF0000FFFFFF8000
310
7FFF0000FFFFFF80007FFF0003FFFFFFFFC0007FFFFFC00070008000FFFFFFC0
310
00FFFF000000FFF8000007FFFF80007F8000FFFFFF8000F8000FFFFFF8000FF8
310
000001FFFE0000007FFFFFF0001FFFFFFE0001FFFFFFC0003FFE0001FFFFFFC0
310
003FFF0003FFFFFFFFC0007FFFFFE00070008000FFFFFFC0007FFF0000007FF8
310
000003FFFF80007F0001FFFFFF8000F8000FFFFFF8000FF8000001FFFE000000
310
7FFFFFF0001FFFFFFE0001FFFFFFC0003FFE0001FFFFFFC0003FFF0003FFFFFF
310
FFC000FFFFFFE00070008000FFFFFFC0007FFF0000007FF8000003FFFF80007F
310
0001FFFFFF8000F8001FFFFFF8000FF8000001FFFE0000007FFFFFF0001FFFFF
310
FE0003FFFFFFE0003FFE0003FFFFFFE0003FFF0003FFFFFFFFC000FFFFFFE000
310
70008000FFFFFFC0007FFE0000007FF8000003FFFF80007F0001FFFFFF8000F0
310
001FFFFFF8000FF8000001FFFE0000007FFFFFF0001FFFFFFC0003FFFFFFE000
310
1FFC0003FFFFFFE0001FFF0003FFFFFFFFC000FFFFFFC00070008000FFFFFF80
310
007FFE0000007FF0000003FFFF80007F0001FFFFFF0000F0001FFFFFF8000FF8
310
000001FFFE0000007FFFFFF0001FFFFFFC0007FFFFFFF0001FFC0007FFFFFFF0
310
001FFF0003FFFFFFFFC000FFFFFFC00070008001FFFFFF0000FFFE0000003FF0
310
000001FFFF80007F0001FFFFFF0000F8001FFFFFF0000FF8000001FFFE000000
310
7FFFFFF0001FFFFFFC0007FFFFFFF0001FFC0007FFFFFFF0001FFF0003FFFFFF
310
FFC001FFFFFF80007000FFFFFFFFFE0000FFFE0008003FF0008001FFFF80007F
310
FFFFFFFFFC0000FFFFFFFFFFE0000FF8000001FFFE0000007FFFFFF0001FFFFF
310
F8000FFFFFFFF8000FF8000FFFFFFFF8000FFF0003FFFFFFFFFFFFFFFFFF0000
310
7000FFFFFFFFFC0000FFFC0008003FF0008001FFFF80007FFFFFFFFFF80001FF
310
FFFFFFFF80000FF8000001FFFE0000007FFFFFF0001FFFFFF8000FFFFFFFF800
310
0FF8000FFFFFFFF8000FFF0003FFFFFFFFFFFFFFFFFE0000F000FFFFFFFFE000
310
00FFFC000C003FE000C001FFFF80007FFFFFFFFFC00001FFFFFFFFFE00001FF8
310
000001FFFE0000007FFFFFF0001FFFFFF8000FFFFFFFF8000FF8000FFFFFFFF8
310
000FFF0003FFFFFFFFFFFFFFFFF00000F000FFFFFFFE000001FFFC000C001FE0
310
00C000FFFF80007FFFFFFFFE000001FFFFFFFFE000001FF80FFFFFFFFFFFFFC0
310
7FFFFFF0001FFFFFF8000FFFFFFFF8000FF8000FFFFFFFF8000FFF0003FFFFFF
310
FFFFFFFFFF800000F000FFFFFFC0000001FFFC001C001FE001C000FFFF80007F
310
FFFFFF80000003FFFFFFF80000001FF80FFFFFFFFFFFFFC07FFFFFF0001FFFFF
310
F8001FFFFFFFFC000FF8001FFFFFFFFC000FFF0003FFFFFFFFFFFFFFF0000001
310
F000FFFFF800000001FFF8001C001FE001C000FFFF80007FFFFFF800000003FF
310
FFFF800000003FF80FFFFFFFFFFFFFC07FFFFFF0001FFFFFF8001FFFFFFFFC00
310
0FF8001FFFFFFFFC000FFF0003FFFFFFFFFFFFFE00000001F000FFFFC0000000
310
03FFF8001E001FC001E000FFFF80007FFFFF8000000007FFFFFC000000003FF8
310
0FFFFFFFFFFFFFC07FFFFFF0001FFFFFF8001FFFFFFFFC000FF8001FFFFFFFFC
310
000FFF0003FFFFFFFFFFFFE000000003F000FFFE0000000007FFF8001E000FC0
310
01E0007FFF80007FFFFE0000000007FFFFE0000000007FF80FFFFFFFFFFFFFC0
310
7FFFFFF0001FFFFFF0001FFFFFFFFC0007F0001FFFFFFFFC0007FF0003FFFFFF
310
FFFFFF0000000003F000FFF80000000007FFF8001E000FC003E0007FFF80007F
310
FFF0000000000FFFFF8000000000FFF80FFFFFFFFFFFFFC07FFFFFF0001FFFFF
310
F0001FFFFFFFFC0007F0001FFFFFFFFC0007FF0003FFFFFFFFFFFC0000000007
310
F000FFE0000000000FFFF0003E000FC003E0007FFF80007FFFC0000000001FFF
310
FE0000000001FFF80FFFFFFFFFFFFFC07FFFFFF0001FFFFFF0001FFFFFFFFC00
310
07F0001FFFFFFFFC0007FF0003FFFFFFFFFFF0000000000FF000FFC000000000
310
1FFFF0003F000F8003F0003FFF80007FFF80000000003FFFF80000000003FFF8
310
0FFFFFFFFFFFFFC07FFFFFF0001FFFFFF0001FFFFFFFFC0007F0001FFFFFFFFC
310
0007FF0003FFFFFFFFFFE0000000001FF000FF00000000007FFFF0003F000780
310
03F0003FFF80007FFF00000000007FFFF00000000007FFF80FFFFFFFFFFFFFC0
310
7FFFFFF0001FFFFFF0001FFFFFFFFC0007F0001FFFFFFFFC0007FF0003FFFFFF
310
FFFF80000000007FF000FE0000000000FFFFE0003F00078007F0003FFF80007F
310
FE0000000001FFFFE0000000001FFFF80FFFFFFFFFFFFFC07FFFFFF0001FFFFF
310
F0001FFFFFFFFC0007F0001FFFFFFFFC0007FF0003FFFFFFFFFF0000000000FF
310
F000FC0000000003FFFFE0007F00078007F0003FFF80007FFC0000000007FFFF
310
C0000000007FFFF80FFFFFFFFFFFFFC07FFFFFF0001FFFFFF8001FFFFFFFFC00
310
0FF8001FFFFFFFFC000FFF0003FFFFFFFFFE0000000003FFF000FC000000000F
310
FFFFE0007F80070007F8001FFF80007FF8000000001FFFFF8000000001FFFFF8
310
0FFFFFFFFFFFFFC07FFFFFF0001FFFFFF8001FFFFFFFFC000FF8001FFFFFFFFC
310
000FFF0003FFFFFFFFFC000000000FFFF000F8000000007FFFFFE0007F800700
310
07F8001FFF80007FF000000000FFFFFF800000000FFFFFF80FFFFFFFFFFFFFC0
310
7FFFFFF0001FFFFFF8000FFFFFFFF8000FF8000FFFFFFFF8000FFF0003FFFFFF
310
FFFC000000007FFFF000F800000007FFFFFFC0007F8003000FF8001FFF80007F
310
F000000007FFFFFF000000007FFFFFF80FFFFFFFFFFFFFC07FFFFFF0001FFFFF
310
F8000FFFFFFFF8000FF8000FFFFFFFF8000FFF0003FFFFFFFFF80000000FFFFF
310
F000F0000000FFFFFFFFC000FF8003000FF8001FFF80007FE0000000FFFFFFFF
310
0000000FFFFFFFF8000001FFFE0000007FFFFFF0001FFFFFF8000FFFFFFFF800
310
0FF8000FFFFFFFF8000FFF0003FFFFFFFFF8000000FFFFFFF000F000000FFFFF
310
FFFFC000FFC002000FF8000FFF80007FE000001FFFFFFFFE000001FFFFFFFFF8
310
000001FFFE0000007FFFFFF0001FFFFFF8000FFFFFFFF8000FF8000FFFFFFFF8
310
000FFF0003FFFFFFFFF000001FFFFFFFF000E00000FFFFFFFFFFC000FFC00200
310
0FFC000FFF80007FE00001FFFFFFFFFE00001FFFFFFFFFF8000001FFFE000000
310
7FFFFFF0001FFFFFFC000FFFFFFFF8001FFC000FFFFFFFF8001FFF0003FFFFFF
310
FFF00001FFFFFFFFF000E00007FFFFFFFFFF8000FFC000001FFC000FFF80007F
310
C0000FFFFFFFFFFE0000FFFFFFFFFFF8000001FFFE0000007FFFFFF0001FFFFF
310
FC0007FFFFFFF0001FFC0007FFFFFFF0001FFF0003FFFFFFFFF00007FFFFFFFF
310
F000E0001FFFFFFFFFFF8000FFC000001FFC000FFF80007FC0003FFFFFFFFFFE
310
0001FFFFFFFFFFF8000001FFFE0000007FFFFFF0001FFFFFFC0007FFFFFFF000
310
1FFC0007FFFFFFF0001FFF0003FFFFFFFFF0001FFFFFFFFFF000E0003FFFFF00
310
03FF8001FFE000001FFC0007FF80007FC0007FFFFF0007FC0003FFFFF0003FF8
310
000001FFFE0000007FFFFFF0001FFFFFFC0003FFFFFFE0001FFC0003FFFFFFE0
310
001FFF0003FFFFFFFFF0003FFFFFFFFFF000E0003FFFFF0001FF8001FFE00000
310
1FFE0007FF80007FC0007FFFFE0003FC0007FFFFE0003FF8000001FFFE000000
310
7FFFFFF0001FFFFFFE0003FFFFFFE0003FFE0003FFFFFFE0003FFF0003FFFFFF
310
FFF0003FFFFF8001F000E0003FFFFF0001FF0001FFE000001FFE0007FF80007F
310
C0007FFFFE0003FC0007FFFFE0003FF8000001FFFE0000007FFFFFF0001FFFFF
310
FE0001FFFFFFC0003FFE0001FFFFFFC0003FFF0003FFFFFFFFF0003FFFFF0001
310
F000E0003FFFFF0003FF0001FFE000003FFE0007FF80007FC0007FFFFE0003FC
310
0007FFFFE0003FF8000001FFFE0000007FFFFFF0001FFFFFFF0001FFFFFFC000
310
7FFF0001FFFFFFC0007FFF0003FFFFFFFFF0003FFFFF0001F000E0003FFFFE00
310
03FF0003FFF000003FFE0003FF80007FC0007FFFFC0003FE0007FFFFE0003FF8
310
000001FFFE0000007FFFFFF0001FFFFFFF0000FFFFFF80007FFF0000FFFFFF80
310
007FFF0003FFFFFFFFF0003FFFFF0001F000E0003FFFFE0003FF0003FFF00000
310
3FFF0003FF80007FC0007FFFFC0007FE0007FFFFC0003FF8000001FFFE000000
310
7FFFFFF0001FFFFFFF80007FFFFF0000FFFF80007FFFFF0000FFFF0003FFFFFF
310
FFF0003FFFFF0003F000E0003FFFFC0003FE0003FFF000003FFF0003FF80007F
310
E0003FFFF80007FE0003FFFFC0007FF8000001FFFE0000007FFFFFF0001FFFFF
310
FF80003FFFFE0000FFFF80003FFFFE0000FFFF0003FFFFFFFFF0001FFFFE0003
310
F000F0001FFFF80003FE0003FFF000007FFF0001FF80007FE0003FFFF00007FE
310
0001FFFF80007FF8000001FFFE0000007FFFFFF0001FFFFFFFC0000FFFF80001
310
FFFFC0000FFFF80001FFFF0003FFFFFFFFF0001FFFFC0003F000F0000FFFF000
310
07FE0007FFF800007FFF0001FF80007FE0001FFFE00007FF0000FFFE00007FF8
310
000001FFFE0000007FFFFFF0001FFFFFFFC00003FFE00001FFFFC00003FFE000
310
01FFFF0003FFFFFFFFF8000FFFF80003F000F00003FFC00007FC0007FFF80000
310
7FFF8001FF80007FF00007FF80000FFF00007FF80000FFF8000001FFFE000000
310
7F80000000000001FFE000003E000003FFFFE000003E000003FFFF0003FFFFFF
310
FFF80003FFE00007F000F800000000000FFC0007FFF800007FFF8001FF80007F
310
F000000000000FFF000000000000FFF8000001FFFE0000007F80000000000001
310
FFF0000000000007FFFFF0000000000007FFFF0003FFFFFFFFFC00007E000007
310
F000F800000000000FFC0007FFF80000FFFF8000FF80007FF800000000001FFF
310
800000000001FFF8000001FFFE0000007F80000000000001FFF800000000000F
310
FFFFF800000000000FFFFF0003FFFFFFFFFC00000000000FF000FC0000000000
310
1FFC0007FFFC0000FFFF8000FF80007FF800000000003FFFC00000000001FFF8
310
000001FFFE0000007F80000000000001FFF800000000000FFFFFF80000000000
310
0FFFFF0003FFFFFFFFFE00000000001FF000FE00000000003FF8000FFFFC0000
310
FFFF8000FF80007FFC00000000003FFFC00000000003FFF8000001FFFE000000
310
7F80000000000001FFFC00000000001FFFFFFC00000000001FFFFF0003FFFFFF
310
FFFF00000000001FF000FF00000000003FF8000FFFFC0000FFFFC000FF80007F
310
FE00000000007FFFE00000000007FFF8000001FFFE0000007F80000000000001
310
FFFE00000000003FFFFFFE00000000003FFFFF0003FFFFFFFFFF80000000003F
310
F000FF80000000007FF8000FFFFC0001FFFFC0007F80007FFF0000000000FFFF
310
F0000000000FFFF800000000000000007F80000000000001FFFF8000000000FF
310
FFFFFF8000000000FFFFFF0003FFFFFFFFFFC0000000007FF000FFC000000000
310
FFF8000FFFFE0001FFFFC0007F80007FFF8000000001FFFFF8000000001FFFF8
310
00000000000000007F80000000000001FFFFC000000001FFFFFFFFC000000001
310
FFFFFF0003FFFFFFFFFFE000000000FFF000FFE000000003FFF0001FFFFE0001
310
FFFFC0007F80007FFFC000000007FFFFFE000000003FFFF80000000000000000
310
7F80000000000001FFFFE000000003FFFFFFFFE000000003FFFFFF0003FFFFFF
310
FFFFF000000003FFF000FFF80000000FFFF0001FFFFE0001FFFFE0007F80007F
310
FFF00000000FFFFFFF00000000FFFFF800000000000000007F80000000000001
310
FFFFF80000000FFFFFFFFFF80000000FFFFFFF0003FFFFFFFFFFFC0000000FFF
310
F000FFFE0000003FFFF0001FFFFE0003FFFFE0003F80007FFFFC0000003FFFFF
310
FFC0000003FFFFF800000000000000007F80000000000001FFFFFE0000003FFF
310
FFFFFFFE0000003FFFFFFF0003FFFFFFFFFFFF0000003FFFF000FFFF800000FF
310
FFF0001FFFFF0003FFFFE0003F80007FFFFF000001FFFFFFFFF800001FFFFFF8
310
00000000000000007F80000000000001FFFFFFC00001FFFFFFFFFFFFC00001FF
310
FFFFFF0003FFFFFFFFFFFFC00000FFFFF000FFFFF8000FFFFFFFFFFFFFFFFFFF
310
FFFFFFFFFFFFFFFFFFFFF0001FFFFFFFFFFF0000FFFFFFF80000000000000000
310
7FFFFFFFFFFFFFFFFFFFFFFC001FFFFFFFFFFFFFFC001FFFFFFFFFFFFFFFFFFF
310
FFFFFFFC001FFFFFF000FFFFFFFFFFFFFFFFFFFFFFFFFFFFFFFFFFFFFFFFFFFF
310
FFFFFFFFFFFFFFFFFFFFFFFFFFFFFFFFFFFFFFFFFFFFFFFFFFFFFFFFFFFFFFFF
310
FFFFFFFFFFFFFFFFFFFFFFFFFFFFFFFFFFFFFFFFFFFFFFFFFFFFFFFFFFFFFFFF
310
F000FFFFFFFFFFFFFFFFFFFFFFFFFFFFFFFFFFFFFFFFFFFFFFFFFFFFFFFFFFFF
310
FFFFFFFFFFFFFFFFFFFFFFFFFFFFFFFFFFFFFFFFFFFFFFFFFFFFFFFFFFFFFFFF
310
FFFFFFFFFFFFFFFFFFFFFFFFFFFFFFFFFFFFFFFFFFFFFFFFF000FFFFFFFFFFFF
310
FFFFFFFFFFFFFFFFFFFFFFFFFFFFFFFFFFFFFFFFFFFFFFFFFFFFFFFFFFFFFFFF
310
FFFFFFFFFFFFFFFFFFFFFFFFFFFFFFFFFFFFFFFFFFFFFFFFFFFFFFFFFFFFFFFF
310
FFFFFFFFFFFFFFFFFFFFFFFFFFFFFFFFF000FFFFFFFFFFFFFFFFFFFFFFFFFFFF
310
FFFFFFFFFFFFFFFFFFFFFFFFFFFFFFFFFFFFFFFFFFFFFFFFFFFFFFFFFFFFFFFF
310
FFFFFFFFFFFFFFFFFFFFFFFFFFFFFFFFFFFFFFFFFFFFFFFFFFFFFFFFFFFFFFFF
310
FFFFFFFFFFFFFFFFF000FFFFFFFFFFFFFFFFFFFFFFFFFFFFFFFFFFFFFFFFFFFF
310
FFFFFFFFFFFFFFFFFFFFFFFFFFFFFFFFFFFFFFFFFFFFFFFFFFFFFFFFFFFFFFFF
310
FFFFFFFFFFFFFFFFFFFFFFFFFFFFFFFFFFFFFFFFFFFFFFFFFFFFFFFFFFFFFFFF
310
F000FFFFFFFFFFFFFFFFFFFFFFFFFFFFFFFFFFFFFFFFFFFFFFFFFFFFFFFFFFFF
310
FFFFFFFFFFFFFFFFFFFFFFFFFFFFFFFFFFFFFFFFFFFFFFFFFFFFFFFFFFFFFFFF
310
FFFFFFFFFFFFFFFFFFFFFFFFFFFFFFFFFFFFFFFFFFFFFFFFF000FFFFFFFFFFFF
310
FFFFFFFFFFFFFFFFFFFFFFFFFFFFFFFFFFFFFFFFFFFFFFFFFFFFFFFFFFFFFFFF
310
FFFFFFFFFFFFFFFFFFFFFFFFFFFFFFFFFFFFFFFFFFFFFFFFFFFFFFFFFFFFFFFF
310
FFFFFFFFFFFFFFFFFFFFFFFFFFFFFFFFF000FFFFFFFFFFFFFFFFFFFFFFFFFFFF
310
FFFFFFFFFFFFFFFFFFFFFFFFFFFFFFFFFFFFFFFFFFFFFFFFFFFFFFFFFFFFFFFF
310
FFFFFFFFFFFFFFFFFFFFFFFFFFFFFFFFFFFFFFFFFFFFFFFFFFFFFFFFFFFFFFFF
310
FFFFFFFFFFFFFFFFF000FFFFFFFFFFFFFFFFFFFFFFFFFFFFFFFFFFFFFFFFFFFF
310
FFFFFFFFFFFFFFFFFFFFFFFFFFFFFFFFFFFFFFFFFFFFFFFFFFFFFFFFFFFFFFFF
310
FFFFFFFFFFFFFFFFFFFFFFFFFFFFFFFFFFFFFFFFFFFFFFFFFFFFFFFFFFFFFFFF
310
F000FFFFFFFFFFFFFFFFFFFFFFFFFFFFFFFFFFFFFFFFFFFFFFFFFFFFFFFFFFFF
310
FFFFFFFFFFFFFFFFFFFFFFFFFFFFFFFFFFFFFFFFFFFFFFFFFFFFFFFFFFFFFFFF
310
FFFFFFFFFFFFFFFFFFFFFFFFFFFFFFFFFFFFFFFFFFFFFFFFF000FFFFFFFFFFFF
310
FFFFFFFFFFFFFFFFFFFFFFFFFFFFFFFFFFFFFFFFFFFFFFFFFFFFFFFFFFFFFFFF
310
FFFFFFFFFFFFFFFFFFFFFFFFFFFFFFFFFFFFFFFFFFFFFFFFFFFFFFFFFFFFFFFF
310
FFFFFFFFFFFFFFFFFFFFFFFFFFFFFFFFF000FFFFFFFFFFFFFFFFFFFFFFFFFFFF
310
FFFFFFFFFFFFFFFFFFFFFFFFFFFFFFFFFFFFFFFFFFFFFFFFFFFFFFFFFFFFFFFF
310
FFFFFFFFFFFFFFFFFFFFFFFFFFFFFFFFFFFFFFFFFFFFFFFFFFFFFFFFFFFFFFFF
310
FFFFFFFFFFFFFFFFF000FFFFFFFFFFFFFFFFFFFFFFFFFFFFFFFFFFFFFFFFFFFF
310
FFFFFFFFFFFFFFFFFFFFFFFFFFFFFFFFFFFFFFFFFFFFFFFFFFFFFFFFFFFFFFFF
310
FFFFFFFFFFFFFFFFFFFFFFFFFFFFFFFFFFFFFFFFFFFFFFFFFFFFFFFFFFFFFFFF
310
F000FFFFFFFFFFFFFFFFFFFFFFFFFFFFFFFFFFFFFFFFFFFFFFFFFFFFFFFFFFFF
310
FFFFFFFFFFFFFFFFFFFFFFFFFFFFFFFFFFFFFFFFFFFFFFFFFFFFFFFFFFFFFFFF
310
FFFFFFFFFFFFFFFFFFFFFFFFFFFFFFFFFFFFFFFFFFFFFFFFF000FFFFFFFFFFFF
310
FFFFFFFFFFFFFFFFFFFFFFFFFFFFFFFFFFFFFFFFFFFFFFFFFFFFFFFFFFFFFFFF
310
FFFFFFFFFFFFFFFFFFFFFFFFFFFFFFFFFFFFFFFFFFFFFFFFFFFFFFFFFFFFFFFF
310
FFFFFFFFFFFFFFFFFFFFFFFFFFFFFFFFF000FFFFFFFFFFFFFFFFFFFFFFFFFFFF
310
FFFFFFFFFFFFFFFFFFFFFFFFFFFFFFFFFFFFFFFFFFFFFFFFFFFFFFFFFFFFFFFF
310
FFFFFFFFFFFFFFFFFFFFFFFFFFFFFFFFFFFFFFFFFFFFFFFFFFFFFFFFFFFFFFFF
310
FFFFFFFFFFFFFFFFF000FFFFFFFFFFFFFFFFFFFFFFFFFFFFFFFFFFFFFFFFFFFF
310
FFFFFFFFFFFFFFFFFFFFFFFFFFFFFFFFFFFFFFFFFFFFFFFFFFFFFFFFFFFFFFFF
310
FFFFFFFFFFFFFFFFFFFFFFFFFFFFFFFFFFFFFFFFFFFFFFFFFFFFFFFFFFFFFFFF
310
F000FFFFFFFFFFFFFFFFFFFFFFFFFFFFFFFFFFFFFFFFFFFFFFFFFFFFFFFFFFFF
310
FFFFFFFFFFFFFFFFFFFFFFFFFFFFFFFFFFFFFFFFFFFFFFFFFFFFFFFFFFFFFFFF
310
FFFFFFFFFFFFFFFFFFFFFFFFFFFFFFFFFFFFFFFFFFFFFFFFF000FFFFFFFFFFFF
310
FFFFFFFFFFFFFFFFFFFFFFFFFFFFFFFFFFFFFFFFFFFFFFFFFFFFFFFFFFFFFFFF
310
FFFFFFFFFFFFFFFFFFFFFFFFFFFFFFFFFFFFFFFFFFFFFFFFFFFFFFFFFFFFFFFF
310
FFFFFFFFFFFFFFFFFFFFFFFFFFFFFFFFF000FFFFFFFFFFFFFFFFFFFFFFFFFFFF
310
FFFFFFFFFFFFFFFFFFFFFFFFFFFFFFFFFFFFFFFFFFFFFFFFFFFFFFFFFFFFFFFF
310
FFFFFFFFFFFFFFFFFFFFFFFFFFFFFFFFFFFFFFFFFFFFFFFFFFFFFFFFFFFFFFFF
310
FFFFFFFFFFFFFFFFF000FFFFFFFFFFFFFFFFFFFFFFFFFFFFFFFFFFFFFFFFFFFF
310
FFFFFFFFFFFFFFFFFFFFFFFFFFFFFFFFFFFFFFFFFFFFFFFFFFFFFFFFFFFFFFFF
310
FFFFFFFFFFFFFFFFFFFFFFFFFFFFFFFFFFFFFFFFFFFFFFFFFFFFFFFFFFFFFFFF
310
F000FFFFFFFFFFFFFFFFFFFFFFFFFFFFFFFFFFFFFFFFFFFFFFFFFFFFFFFFFFFF
310
FFFFFFFFFFFFFFFFFFFFFFFFFFFFFFFFFFFFFFFFFFFFFFFFFFFFFFFFFFFFFFFF
310
FFFFFFFFFFFFFFFFFFFFFFFFFFFFFFFFFFFFFFFFFFFFFFFFF000FFFFFFFFFFFF
310
FFFFFFFFFFFFFFFFFFFFFFFFFFFFFFFFFFFFFFFFFFFFFFFFFFFFFFFFFFFFFFFF
310
FFFFFFFFFFFFFFFFFFFFFFFFFFFFFFFFFFFFFFFFFFFFFFFFFFFFFFFFFFFFFFFF
310
FFFFFFFFFFFFFFFFFFFFFFFFFFFFFFFFF0000000000000000000000000000000
310
0000000001000000010000000100000000000000010000000100000001000000
310
0100000001000000010000000100000001000000010000000100000001000000
310
0100000001000000010000000100000001000000010000000100000001000000
310
0100000001000000010000000100000001000000010000000100000001000000
310
0100000001000000010000000100000001000000000000000100000001000000
310
0100000001000000010000000100000001000000010000000100000001000000
310
0000000001000000000000000100000000000000010000000100000001000000
310
0100000001000000000000000100000001000000010000000100000001000000
310
0100000001000000010000000100000001000000010000000100000001000000
310
0100000001000000010000000100000001000000010000000100000001000000
310
0100000001000000010000000000000001000000010000000100000001000000
310
0100000001000000010000000100000001000000010000000100000001000000
310
0000000001000000010000000100000001000000010000000100000001000000
310
0100000001000000010000000100000001000000000000000100000001000000
310
0100000001000000010000000100000001000000010000000000000001000000
  1
OLE
  0
ENDSEC
  0
SECTION
  2
OBJECTS
  0
DICTIONARY
  5
C
330
0
100
AcDbDictionary
281
     1
  3
ACAD_GROUP
350
D
  3
ACAD_LAYOUT
350
1A
  3
ACAD_MLEADERSTYLE
350
20A
  3
ACAD_MLINESTYLE
350
17
  3
ACAD_PLOTSETTINGS
350
19
  3
ACAD_PLOTSTYLENAME
350
E
  3
ACAD_TABLESTYLE
350
209
  3
ACAD_VISUALSTYLE
350
2A
  3
AcDbVariableDictionary
350
20B
  0
DICTIONARY
  5
D
102
{ACAD_REACTORS
330
C
102
}
330
C
100
AcDbDictionary
281
     1
  0
DICTIONARY
  5
1A
102
{ACAD_REACTORS
330
C
102
}
330
C
100
AcDbDictionary
281
     1
  3
Layout1
350
1E
  3
Layout2
350
26
  3
Model
350
22
  0
DICTIONARY
  5
20A
102
{ACAD_REACTORS
330
C
102
}
330
C
100
AcDbDictionary
281
     1
  0
DICTIONARY
  5
17
102
{ACAD_REACTORS
330
C
102
}
330
C
100
AcDbDictionary
281
     1
  3
Standard
350
18
  0
DICTIONARY
  5
19
102
{ACAD_REACTORS
330
C
102
}
330
C
100
AcDbDictionary
281
     1
  0
ACDBDICTIONARYWDFLT
  5
E
102
{ACAD_REACTORS
330
C
102
}
330
C
100
AcDbDictionary
281
     1
  3
Normal
350
F
100
AcDbDictionaryWithDefault
340
F
  0
DICTIONARY
  5
209
102
{ACAD_REACTORS
330
C
102
}
330
C
100
AcDbDictionary
281
     1
  0
DICTIONARY
  5
2A
102
{ACAD_REACTORS
330
C
102
}
330
C
100
AcDbDictionary
281
     1
  3
2dWireframe
350
2F
  3
3D Hidden
350
31
  3
3dWireframe
350
30
  3
Basic
350
32
  3
Brighten
350
36
  3
ColorChange
350
3A
  3
Conceptual
350
34
  3
Dim
350
35
  3
Facepattern
350
39
  3
Flat
350
2B
  3
FlatWithEdges
350
2C
  3
Gouraud
350
2D
  3
GouraudWithEdges
350
2E
  3
Linepattern
350
38
  3
Realistic
350
33
  3
Thicken
350
37
  0
DICTIONARY
  5
20B
102
{ACAD_REACTORS
330
C
102
}
330
C
100
AcDbDictionary
281
     1
  3
PSOLHEIGHT
350
20D
  3
PSOLWIDTH
350
20C
  0
LAYOUT
  5
1E
102
{ACAD_REACTORS
330
1A
102
}
330
1A
100
AcDbPlotSettings
  1

  2
none_device
  4

  6

 40
0.0
 41
0.0
 42
0.0
 43
0.0
 44
0.0
 45
0.0
 46
0.0
 47
0.0
 48
0.0
 49
0.0
140
0.0
141
0.0
142
1.0
143
1.0
 70
   688
 72
     0
 73
     0
 74
     5
  7

 75
    16
147
1.0
148
0.0
149
0.0
100
AcDbLayout
  1
Layout1
 70
     1
 71
     1
 10
0.0
 20
0.0
 11
420.0
 21
297.0
 12
0.0
 22
0.0
 32
0.0
 14
1.0000000000E+20
 24
1.0000000000E+20
 34
1.0000000000E+20
 15
-1.0000000000E+20
 25
-1.0000000000E+20
 35
-1.0000000000E+20
146
0.0
 13
0.0
 23
0.0
 33
0.0
 16
1.0
 26
0.0
 36
0.0
 17
0.0
 27
1.0
 37
0.0
 76
     0
330
1B
  0
LAYOUT
  5
26
102
{ACAD_REACTORS
330
1A
102
}
330
1A
100
AcDbPlotSettings
  1

  2
none_device
  4

  6

 40
0.0
 41
0.0
 42
0.0
 43
0.0
 44
0.0
 45
0.0
 46
0.0
 47
0.0
 48
0.0
 49
0.0
140
0.0
141
0.0
142
1.0
143
1.0
 70
   688
 72
     0
 73
     0
 74
     5
  7

 75
    16
147
1.0
148
0.0
149
0.0
100
AcDbLayout
  1
Layout2
 70
     1
 71
     2
 10
0.0
 20
0.0
 11
0.0
 21
0.0
 12
0.0
 22
0.0
 32
0.0
 14
0.0
 24
0.0
 34
0.0
 15
0.0
 25
0.0
 35
0.0
146
0.0
 13
0.0
 23
0.0
 33
0.0
 16
1.0
 26
0.0
 36
0.0
 17
0.0
 27
1.0
 37
0.0
 76
     0
330
23
  0
LAYOUT
  5
22
102
{ACAD_REACTORS
330
1A
102
}
330
1A
100
AcDbPlotSettings
  1

  2
none_device
  4

  6

 40
0.0
 41
0.0
 42
0.0
 43
0.0
 44
0.0
 45
0.0
 46
0.0
 47
0.0
 48
0.0
 49
0.0
140
0.0
141
0.0
142
1.0
143
1.0
 70
  1712
 72
     0
 73
     0
 74
     0
  7

 75
     0
147
1.0
148
0.0
149
0.0
100
AcDbLayout
  1
Model
 70
     1
 71
     0
 10
0.0
 20
0.0
 11
297.0
 21
210.0
 12
0.0
 22
0.0
 32
0.0
 14
0.0
 24
0.0
 34
0.0
 15
297.0
 25
210.0
 35
0.0
146
0.0
 13
0.0
 23
0.0
 33
0.0
 16
1.0
 26
0.0
 36
0.0
 17
0.0
 27
1.0
 37
0.0
 76
     0
330
1F
331
29
  0
MLINESTYLE
  5
18
102
{ACAD_REACTORS
330
17
102
}
330
17
100
AcDbMlineStyle
  2
Standard
 70
     0
  3

 62
   256
 51
90.0
 52
90.0
 71
     2
 49
0.5
 62
   256
  6
BYLAYER
 49
-0.5
 62
   256
  6
BYLAYER
  0
ACDBPLACEHOLDER
  5
F
102
{ACAD_REACTORS
330
E
102
}
330
E
  0
VISUALSTYLE
  5
2F
102
{ACAD_REACTORS
330
2A
102
}
330
2A
100
AcDbVisualStyle
  2
2dWireframe
 70
     4
 71
     0
 72
     2
 73
     0
 90
        0
 40
-0.6
 41
-30.0
 62
     5
 63
     7
 74
     1
 91
        4
 64
     7
 65
   257
 75
     1
175
     1
 42
1.0
 92
        0
 66
   257
 43
1.0
 76
     1
 77
     6
 78
     2
 67
     7
 79
     5
170
     0
171
     0
290
     0
174
     0
 93
        1
 44
0.0
173
     0
291
     0
 45
0.0
1001
ACAD
1000
AcDbSavedByObjectVersion
1070
     0
  0
VISUALSTYLE
  5
31
102
{ACAD_REACTORS
330
2A
102
}
330
2A
100
AcDbVisualStyle
  2
3D Hidden
 70
     6
 71
     1
 72
     2
 73
     2
 90
        0
 40
-0.6
 41
-30.0
 62
     5
 63
     7
 74
     2
 91
        2
 64
     7
 65
   257
 75
     2
175
     1
 42
40.0
 92
        0
 66
   257
 43
1.0
 76
     1
 77
     6
 78
     2
 67
     7
 79
     3
170
     0
171
     0
290
     0
174
     0
 93
        1
 44
0.0
173
     0
291
     0
 45
0.0
1001
ACAD
1000
AcDbSavedByObjectVersion
1070
     0
  0
VISUALSTYLE
  5
30
102
{ACAD_REACTORS
330
2A
102
}
330
2A
100
AcDbVisualStyle
  2
3dWireframe
 70
     5
 71
     0
 72
     2
 73
     0
 90
        0
 40
-0.6
 41
-30.0
 62
     5
 63
     7
 74
     1
 91
        4
 64
     7
 65
   257
 75
     1
175
     1
 42
1.0
 92
        0
 66
   257
 43
1.0
 76
     1
 77
     6
 78
     2
 67
     7
 79
     5
170
     0
171
     0
290
     0
174
     0
 93
        1
 44
0.0
173
     0
291
     0
 45
0.0
1001
ACAD
1000
AcDbSavedByObjectVersion
1070
     0
  0
VISUALSTYLE
  5
32
102
{ACAD_REACTORS
330
2A
102
}
330
2A
100
AcDbVisualStyle
  2
Basic
 70
     7
 71
     1
 72
     0
 73
     1
 90
        0
 40
-0.6
 41
-30.0
 62
     5
 63
     7
 74
     0
 91
        4
 64
     7
 65
   257
 75
     1
175
     1
 42
1.0
 92
        8
 66
     7
 43
1.0
 76
     1
 77
     6
 78
     2
 67
     7
 79
     5
170
     0
171
     0
290
     0
174
     0
 93
        1
 44
0.0
173
     0
291
     1
 45
0.0
1001
ACAD
1000
AcDbSavedByObjectVersion
1070
     0
  0
VISUALSTYLE
  5
36
102
{ACAD_REACTORS
330
2A
102
}
330
2A
100
AcDbVisualStyle
  2
Brighten
 70
    12
 71
     2
 72
     2
 73
     0
 90
        0
 40
-0.6
 41
-30.0
 62
     5
 63
     7
 74
     1
 91
        4
 64
     7
 65
   257
 75
     1
175
     1
 42
1.0
 92
        8
 66
     7
 43
1.0
 76
     1
 77
     6
 78
     2
 67
     7
 79
     5
170
     0
171
     0
290
     0
174
     0
 93
        1
 44
50.0
173
     0
291
     1
 45
0.0
1001
ACAD
1000
AcDbSavedByObjectVersion
1070
     0
  0
VISUALSTYLE
  5
3A
102
{ACAD_REACTORS
330
2A
102
}
330
2A
100
AcDbVisualStyle
  2
ColorChange
 70
    16
 71
     2
 72
     2
 73
     3
 90
        0
 40
-0.6
 41
-30.0
 62
     5
 63
     8
 74
     1
 91
        4
 64
     7
 65
   257
 75
     1
175
     1
 42
1.0
 92
        8
 66
     8
 43
1.0
 76
     1
 77
     6
 78
     2
 67
     7
 79
     5
170
     0
171
     0
290
     0
174
     0
 93
        1
 44
0.0
173
     0
291
     1
 45
0.0
1001
ACAD
1000
AcDbSavedByObjectVersion
1070
     0
  0
VISUALSTYLE
  5
34
102
{ACAD_REACTORS
330
2A
102
}
330
2A
100
AcDbVisualStyle
  2
Conceptual
 70
     9
 71
     3
 72
     2
 73
     0
 90
        0
 40
-0.6
 41
-30.0
 62
     5
 63
     7
 74
     2
 91
        2
 64
     7
 65
   257
 75
     1
175
     1
 42
40.0
 92
        8
 66
     7
 43
1.0
 76
     1
 77
     6
 78
     2
 67
     7
 79
     3
170
     0
171
     0
290
     0
174
     0
 93
        1
 44
0.0
173
     0
291
     0
 45
0.0
1001
ACAD
1000
AcDbSavedByObjectVersion
1070
     0
  0
VISUALSTYLE
  5
35
102
{ACAD_REACTORS
330
2A
102
}
330
2A
100
AcDbVisualStyle
  2
Dim
 70
    11
 71
     2
 72
     2
 73
     0
 90
        0
 40
-0.6
 41
-30.0
 62
     5
 63
     7
 74
     1
 91
        4
 64
     7
 65
   257
 75
     1
175
     1
 42
1.0
 92
        8
 66
     7
 43
1.0
 76
     1
 77
     6
 78
     2
 67
     7
 79
     5
170
     0
171
     0
290
     0
174
     0
 93
        1
 44
-50.0
173
     0
291
     1
 45
0.0
1001
ACAD
1000
AcDbSavedByObjectVersion
1070
     0
  0
VISUALSTYLE
  5
39
102
{ACAD_REACTORS
330
2A
102
}
330
2A
100
AcDbVisualStyle
  2
Facepattern
 70
    15
 71
     2
 72
     2
 73
     0
 90
        0
 40
-0.6
 41
-30.0
 62
     5
 63
     7
 74
     1
 91
        4
 64
     7
 65
   257
 75
     1
175
     1
 42
1.0
 92
        8
 66
     7
 43
1.0
 76
     1
 77
     6
 78
     2
 67
     7
 79
     5
170
     0
171
     0
290
     0
174
     0
 93
        1
 44
0.0
173
     0
291
     1
 45
0.0
1001
ACAD
1000
AcDbSavedByObjectVersion
1070
     0
  0
VISUALSTYLE
  5
2B
102
{ACAD_REACTORS
330
2A
102
}
330
2A
100
AcDbVisualStyle
  2
Flat
 70
     0
 71
     2
 72
     1
 73
     1
 90
        2
 40
-0.6
 41
30.0
 62
     5
 63
     7
 74
     0
 91
        4
 64
     7
 65
   257
 75
     1
175
     1
 42
1.0
 92
        8
 66
     7
 43
1.0
 76
     1
 77
     6
 78
     2
 67
     7
 79
     5
170
     0
171
     0
290
     0
174
     0
 93
       13
 44
0.0
173
     0
291
     1
 45
0.0
1001
ACAD
1000
AcDbSavedByObjectVersion
1070
     0
  0
VISUALSTYLE
  5
2C
102
{ACAD_REACTORS
330
2A
102
}
330
2A
100
AcDbVisualStyle
  2
FlatWithEdges
 70
     1
 71
     2
 72
     1
 73
     1
 90
        2
 40
-0.6
 41
30.0
 62
     5
 63
     7
 74
     1
 91
        4
 64
     7
 65
   257
 75
     1
175
     1
 42
1.0
 92
        0
 66
   257
 43
1.0
 76
     1
 77
     6
 78
     2
 67
     7
 79
     5
170
     0
171
     0
290
     0
174
     0
 93
       13
 44
0.0
173
     0
291
     1
 45
0.0
1001
ACAD
1000
AcDbSavedByObjectVersion
1070
     0
  0
VISUALSTYLE
  5
2D
102
{ACAD_REACTORS
330
2A
102
}
330
2A
100
AcDbVisualStyle
  2
Gouraud
 70
     2
 71
     2
 72
     2
 73
     1
 90
        2
 40
-0.6
 41
30.0
 62
     5
 63
     7
 74
     0
 91
        4
 64
     7
 65
   257
 75
     1
175
     1
 42
1.0
 92
        0
 66
     7
 43
1.0
 76
     1
 77
     6
 78
     2
 67
     7
 79
     5
170
     0
171
     0
290
     0
174
     0
 93
       13
 44
0.0
173
     0
291
     1
 45
0.0
1001
ACAD
1000
AcDbSavedByObjectVersion
1070
     0
  0
VISUALSTYLE
  5
2E
102
{ACAD_REACTORS
330
2A
102
}
330
2A
100
AcDbVisualStyle
  2
GouraudWithEdges
 70
     3
 71
     2
 72
     2
 73
     1
 90
        2
 40
-0.6
 41
30.0
 62
     5
 63
     7
 74
     1
 91
        4
 64
     7
 65
   257
 75
     1
175
     1
 42
1.0
 92
        0
 66
   257
 43
1.0
 76
     1
 77
     6
 78
     2
 67
     7
 79
     5
170
     0
171
     0
290
     0
174
     0
 93
       13
 44
0.0
173
     0
291
     1
 45
0.0
1001
ACAD
1000
AcDbSavedByObjectVersion
1070
     0
  0
VISUALSTYLE
  5
38
102
{ACAD_REACTORS
330
2A
102
}
330
2A
100
AcDbVisualStyle
  2
Linepattern
 70
    14
 71
     2
 72
     2
 73
     0
 90
        0
 40
-0.6
 41
-30.0
 62
     5
 63
     7
 74
     1
 91
        4
 64
     7
 65
   257
 75
     7
175
     7
 42
1.0
 92
        8
 66
     7
 43
1.0
 76
     1
 77
     6
 78
     2
 67
     7
 79
     5
170
     0
171
     0
290
     0
174
     0
 93
        1
 44
0.0
173
     0
291
     1
 45
0.0
1001
ACAD
1000
AcDbSavedByObjectVersion
1070
     0
  0
VISUALSTYLE
  5
33
102
{ACAD_REACTORS
330
2A
102
}
330
2A
100
AcDbVisualStyle
  2
Realistic
 70
     8
 71
     2
 72
     2
 73
     0
 90
        0
 40
-0.6
 41
-30.0
 62
     5
 63
     7
 74
     1
 91
        0
 64
     7
 65
   257
 75
     1
175
     1
 42
1.0
 92
        8
 66
     8
 43
1.0
 76
     1
 77
     6
 78
     2
 67
     7
 79
     5
170
     0
171
     0
290
     0
174
     0
 93
       13
 44
0.0
173
     0
291
     0
 45
0.0
1001
ACAD
1000
AcDbSavedByObjectVersion
1070
     0
  0
VISUALSTYLE
  5
37
102
{ACAD_REACTORS
330
2A
102
}
330
2A
100
AcDbVisualStyle
  2
Thicken
 70
    13
 71
     2
 72
     2
 73
     0
 90
        0
 40
-0.6
 41
-30.0
 62
     5
 63
     7
 74
     1
 91
        4
 64
     7
 65
   257
 75
     1
175
     1
 42
1.0
 92
       12
 66
     7
 43
1.0
 76
     1
 77
     6
 78
     2
 67
     7
 79
     5
170
     0
171
     0
290
     0
174
     0
 93
        1
 44
0.0
173
     0
291
     1
 45
0.0
1001
ACAD
1000
AcDbSavedByObjectVersion
1070
     0
  0
DICTIONARYVAR
  5
20D
102
{ACAD_REACTORS
330
20B
102
}
330
20B
100
DictionaryVariables
280
     0
  1
80.000000
  0
DICTIONARYVAR
  5
20C
102
{ACAD_REACTORS
330
20B
102
}
330
20B
100
DictionaryVariables
280
     0
  1
5.000000
  0
ENDSEC
  0
EOF
