  0
SECTION
  2
HEADER
  9
$ACADVER
  1
AC1015
  9
$ACADMAINTVER
 70
     6
  9
$DWGCODEPAGE
  3
ANSI_1252
  9
$INSBASE
 10
0.0
 20
0.0
 30
0.0
  9
$EXTMIN
 10
0.0
 20
0.0
 30
0.0
  9
$EXTMAX
 10
297.0
 20
210.0
 30
0.0
  9
$LIMMIN
 10
0.0
 20
0.0
  9
$LIMMAX
 10
297.0
 20
210.0
  9
$ORTHOMODE
 70
     0
  9
$REGENMODE
 70
     1
  9
$FILLMODE
 70
     1
  9
$QTEXTMODE
 70
     0
  9
$MIRRTEXT
 70
     1
  9
$LTSCALE
 40
1.0
  9
$ATTMODE
 70
     1
  9
$TEXTSIZE
 40
2.0
  9
$TRACEWID
 40
1.0
  9
$TEXTSTYLE
  7
Standard
  9
$CLAYER
  8
0
  9
$CELTYPE
  6
ByLayer
  9
$CECOLOR
 62
   256
  9
$CELTSCALE
 40
1.0
  9
$DISPSILH
 70
     0
  9
$DIMSCALE
 40
1.0
  9
$DIMASZ
 40
3.0
  9
$DIMEXO
 40
0.0
  9
$DIMDLI
 40
3.75
  9
$DIMRND
 40
0.0
  9
$DIMDLE
 40
0.0
  9
$DIMEXE
 40
1.0
  9
$DIMTP
 40
0.0
  9
$DIMTM
 40
0.0
  9
$DIMTXT
 40
2.0
  9
$DIMCEN
 40
2.5
  9
$DIMTSZ
 40
0.0
  9
$DIMTOL
 70
     0
  9
$DIMLIM
 70
     0
  9
$DIMTIH
 70
     1
  9
$DIMTOH
 70
     1
  9
$DIMSE1
 70
     0
  9
$DIMSE2
 70
     0
  9
$DIMTAD
 70
     1
  9
$DIMZIN
 70
     0
  9
$DIMBLK
  1

  9
$DIMASO
 70
     1
  9
$DIMSHO
 70
     1
  9
$DIMPOST
  1

  9
$DIMAPOST
  1

  9
$DIMALT
 70
     0
  9
$DIMALTD
 70
     3
  9
$DIMALTF
 40
0.0393700787
  9
$DIMLFAC
 40
1.0
  9
$DIMTOFL
 70
     1
  9
$DIMTVP
 40
0.0
  9
$DIMTIX
 70
     0
  9
$DIMSOXD
 70
     0
  9
$DIMSAH
 70
     0
  9
$DIMBLK1
  1

  9
$DIMBLK2
  1

  9
$DIMSTYLE
  2
ISO-25
  9
$DIMCLRD
 70
     0
  9
$DIMCLRE
 70
     0
  9
$DIMCLRT
 70
     0
  9
$DIMTFAC
 40
1.0
  9
$DIMGAP
 40
1.524
  9
$DIMJUST
 70
     0
  9
$DIMSD1
 70
     0
  9
$DIMSD2
 70
     0
  9
$DIMTOLJ
 70
     0
  9
$DIMTZIN
 70
     0
  9
$DIMALTZ
 70
     0
  9
$DIMALTTZ
 70
     0
  9
$DIMUPT
 70
     0
  9
$DIMDEC
 70
     2
  9
$DIMTDEC
 70
     3
  9
$DIMALTU
 70
     2
  9
$DIMALTTD
 70
     3
  9
$DIMTXSTY
  7
Standard
  9
$DIMAUNIT
 70
     0
  9
$DIMADEC
 70
     2
  9
$DIMALTRND
 40
0.0
  9
$DIMAZIN
 70
     0
  9
$DIMDSEP
 70
    44
  9
$DIMATFIT
 70
     3
  9
$DIMFRAC
 70
     0
  9
$DIMLDRBLK
  1

  9
$DIMLUNIT
 70
     2
  9
$DIMLWD
 70
    -2
  9
$DIMLWE
 70
    -2
  9
$DIMTMOVE
 70
     0
  9
$LUNITS
 70
     2
  9
$LUPREC
 70
     2
  9
$SKETCHINC
 40
1.0
  9
$FILLETRAD
 40
10.0
  9
$AUNITS
 70
     0
  9
$AUPREC
 70
     2
  9
$MENU
  1
.
  9
$ELEVATION
 40
0.0
  9
$PELEVATION
 40
0.0
  9
$THICKNESS
 40
0.0
  9
$LIMCHECK
 70
     0
  9
$CHAMFERA
 40
10.0
  9
$CHAMFERB
 40
10.0
  9
$CHAMFERC
 40
20.0
  9
$CHAMFERD
 40
0.0
  9
$SKPOLY
 70
     0
  9
$TDCREATE
 40
2455684.347393252
  9
$TDUCREATE
 40
2455684.264059919
  9
$TDUPDATE
 40
2455684.347393264
  9
$TDUUPDATE
 40
2455684.264059931
  9
$TDINDWG
 40
0.0000000116
  9
$TDUSRTIMER
 40
0.0000000116
  9
$USRTIMER
 70
     1
  9
$ANGBASE
 50
0.0
  9
$ANGDIR
 70
     0
  9
$PDMODE
 70
     0
  9
$PDSIZE
 40
-1.0
  9
$PLINEWID
 40
0.0
  9
$SPLFRAME
 70
     0
  9
$SPLINETYPE
 70
     6
  9
$SPLINESEGS
 70
     8
  9
$HANDSEED
  5
214
  9
$SURFTAB1
 70
     6
  9
$SURFTAB2
 70
     6
  9
$SURFTYPE
 70
     6
  9
$SURFU
 70
     6
  9
$SURFV
 70
     6
  9
$UCSBASE
  2

  9
$UCSNAME
  2

  9
$UCSORG
 10
0.0
 20
0.0
 30
0.0
  9
$UCSXDIR
 10
1.0
 20
0.0
 30
0.0
  9
$UCSYDIR
 10
0.0
 20
1.0
 30
0.0
  9
$UCSORTHOREF
  2

  9
$UCSORTHOVIEW
 70
     0
  9
$UCSORGTOP
 10
0.0
 20
0.0
 30
0.0
  9
$UCSORGBOTTOM
 10
0.0
 20
0.0
 30
0.0
  9
$UCSORGLEFT
 10
0.0
 20
0.0
 30
0.0
  9
$UCSORGRIGHT
 10
0.0
 20
0.0
 30
0.0
  9
$UCSORGFRONT
 10
0.0
 20
0.0
 30
0.0
  9
$UCSORGBACK
 10
0.0
 20
0.0
 30
0.0
  9
$PUCSBASE
  2

  9
$PUCSNAME
  2

  9
$PUCSORG
 10
0.0
 20
0.0
 30
0.0
  9
$PUCSXDIR
 10
1.0
 20
0.0
 30
0.0
  9
$PUCSYDIR
 10
0.0
 20
1.0
 30
0.0
  9
$PUCSORTHOREF
  2

  9
$PUCSORTHOVIEW
 70
     0
  9
$PUCSORGTOP
 10
0.0
 20
0.0
 30
0.0
  9
$PUCSORGBOTTOM
 10
0.0
 20
0.0
 30
0.0
  9
$PUCSORGLEFT
 10
0.0
 20
0.0
 30
0.0
  9
$PUCSORGRIGHT
 10
0.0
 20
0.0
 30
0.0
  9
$PUCSORGFRONT
 10
0.0
 20
0.0
 30
0.0
  9
$PUCSORGBACK
 10
0.0
 20
0.0
 30
0.0
  9
$USERI1
 70
     0
  9
$USERI2
 70
     0
  9
$USERI3
 70
     0
  9
$USERI4
 70
     0
  9
$USERI5
 70
     0
  9
$USERR1
 40
0.0
  9
$USERR2
 40
0.0
  9
$USERR3
 40
0.0
  9
$USERR4
 40
0.0
  9
$USERR5
 40
0.0
  9
$WORLDVIEW
 70
     1
  9
$SHADEDGE
 70
     3
  9
$SHADEDIF
 70
    70
  9
$TILEMODE
 70
     1
  9
$MAXACTVP
 70
    64
  9
$PINSBASE
 10
0.0
 20
0.0
 30
0.0
  9
$PLIMCHECK
 70
     0
  9
$PEXTMIN
 10
1.0000000000E+20
 20
1.0000000000E+20
 30
1.0000000000E+20
  9
$PEXTMAX
 10
-1.0000000000E+20
 20
-1.0000000000E+20
 30
-1.0000000000E+20
  9
$PLIMMIN
 10
0.0
 20
0.0
  9
$PLIMMAX
 10
420.0
 20
297.0
  9
$UNITMODE
 70
     0
  9
$VISRETAIN
 70
     1
  9
$PLINEGEN
 70
     0
  9
$PSLTSCALE
 70
     1
  9
$TREEDEPTH
 70
  3020
  9
$CMLSTYLE
  2
Standard
  9
$CMLJUST
 70
     0
  9
$CMLSCALE
 40
20.0
  9
$PROXYGRAPHICS
 70
     1
  9
$MEASUREMENT
 70
     1
  9
$CELWEIGHT
370
    -1
  9
$ENDCAPS
280
     0
  9
$JOINSTYLE
280
     0
  9
$LWDISPLAY
290
     1
  9
$INSUNITS
 70
     4
  9
$HYPERLINKBASE
  1

  9
$STYLESHEET
  1

  9
$XEDIT
290
     1
  9
$CEPSNTYPE
380
     0
  9
$PSTYLEMODE
290
     1
  9
$FINGERPRINTGUID
  2
{AA954A73-BE76-4450-B9D5-7E756A453396}
  9
$VERSIONGUID
  2
{FAEB1C32-E019-11D5-929B-00C0DF256EC4}
  9
$EXTNAMES
290
     1
  9
$PSVPSCALE
 40
0.0
  9
$OLESTARTUP
290
     0
  0
ENDSEC
  0
SECTION
  2
CLASSES
  0
CLASS
  1
ACDBDICTIONARYWDFLT
  2
AcDbDictionaryWithDefault
  3
ObjectDBX Classes
 90
        0
280
     0
281
     0
  0
CLASS
  1
VISUALSTYLE
  2
AcDbVisualStyle
  3
ObjectDBX Classes
 90
     4095
280
     0
281
     0
  0
CLASS
  1
DICTIONARYVAR
  2
AcDbDictionaryVar
  3
ObjectDBX Classes
 90
        0
280
     0
281
     0
  0
CLASS
  1
ACDBPLACEHOLDER
  2
AcDbPlaceHolder
  3
ObjectDBX Classes
 90
        0
280
     0
281
     0
  0
CLASS
  1
LAYOUT
  2
AcDbLayout
  3
ObjectDBX Classes
 90
        0
280
     0
281
     0
  0
ENDSEC
  0
SECTION
  2
TABLES
  0
TABLE
  2
VPORT
  5
8
330
0
100
AcDbSymbolTable
 70
     1
  0
VPORT
  5
29
330
8
100
AcDbSymbolTableRecord
100
AcDbViewportTableRecord
  2
*Active
 70
     0
 10
0.0
 20
0.0
 11
1.0
 21
1.0
 12
148.5
 22
105.0
 13
0.0
 23
0.0
 14
10.0
 24
10.0
 15
10.0
 25
10.0
 16
0.0
 26
0.0
 36
1.0
 17
0.0
 27
0.0
 37
0.0
 40
210.0
 41
1.4142857143
 42
50.0
 43
0.0
 44
0.0
 50
0.0
 51
0.0
 71
     0
 72
  2000
 73
     1
 74
     3
 75
     0
 76
     0
 77
     0
 78
     0
281
     0
 65
     1
110
0.0
120
0.0
130
0.0
111
1.0
121
0.0
131
0.0
112
0.0
122
1.0
132
0.0
 79
     0
146
0.0
  0
ENDTAB
  0
TABLE
  2
LTYPE
  5
5
330
0
100
AcDbSymbolTable
 70
     6
  0
LTYPE
  5
14
330
5
100
AcDbSymbolTableRecord
100
AcDbLinetypeTableRecord
  2
ByBlock
 70
     0
  3

 72
    65
 73
     0
 40
0.0
  0
LTYPE
  5
15
330
5
100
AcDbSymbolTableRecord
100
AcDbLinetypeTableRecord
  2
ByLayer
 70
     0
  3

 72
    65
 73
     0
 40
0.0
  0
LTYPE
  5
16
330
5
100
AcDbSymbolTableRecord
100
AcDbLinetypeTableRecord
  2
Continuous
 70
     0
  3
Solid line
 72
    65
 73
     0
 40
0.0
  0
LTYPE
  5
3B
330
5
100
AcDbSymbolTableRecord
100
AcDbLinetypeTableRecord
  2
HIDDEN
 70
     0
  3
Hidden __ __ __ __ __ __ __ __ __ __ __ __ __ __
 72
    65
 73
     2
 40
1.905
 49
1.27
 74
     0
 49
-0.635
 74
     0
  0
LTYPE
  5
3C
330
5
100
AcDbSymbolTableRecord
100
AcDbLinetypeTableRecord
  2
PHANTOM
 70
     0
  3
Phantom ______  __  __  ______  __  __  ______
 72
    65
 73
     6
 40
12.7
 49
6.35
 74
     0
 49
-1.27
 74
     0
 49
1.27
 74
     0
 49
-1.27
 74
     0
 49
1.27
 74
     0
 49
-1.27
 74
     0
  0
LTYPE
  5
3D
330
5
100
AcDbSymbolTableRecord
100
AcDbLinetypeTableRecord
  2
CENTER
 70
     0
  3
Center ____ _ ____ _ ____ _ ____ _ ____ _ ____
 72
    65
 73
     4
 40
10.16
 49
6.35
 74
     0
 49
-1.27
 74
     0
 49
1.27
 74
     0
 49
-1.27
 74
     0
  0
LTYPE
  5
3E
330
5
100
AcDbSymbolTableRecord
100
AcDbLinetypeTableRecord
  2
CENTERX2
 70
     0
  3
Center (2x) ________  __  ________  __  _____
 72
    65
 73
     4
 40
20.32
 49
12.7
 74
     0
 49
-2.54
 74
     0
 49
2.54
 74
     0
 49
-2.54
 74
     0
  0
LTYPE
  5
3F
330
5
100
AcDbSymbolTableRecord
100
AcDbLinetypeTableRecord
  2
DOT2
 70
     0
  3
Dot (.5x) ........................................
 72
    65
 73
     2
 40
0.635
 49
0.0
 74
     0
 49
-0.635
 74
     0
  0
ENDTAB
  0
TABLE
  2
LAYER
  5
2
330
0
100
AcDbSymbolTable
 70
     5
  0
LAYER
  5
10
330
2
100
AcDbSymbolTableRecord
100
AcDbLayerTableRecord
  2
0
 70
     0
 62
     7
  6
Continuous
370
    -3
390
F
  0
LAYER
  5
40
330
2
100
AcDbSymbolTableRecord
100
AcDbLayerTableRecord
  2
FORMAT
 70
     0
 62
     7
  6
Continuous
370
    -3
390
F
  0
LAYER
  5
41
330
2
100
AcDbSymbolTableRecord
100
AcDbLayerTableRecord
  2
VERMASSUNG
 70
     0
 62
     7
  6
Continuous
370
    -3
390
F
  0
LAYER
  5
42
330
2
100
AcDbSymbolTableRecord
100
AcDbLayerTableRecord
  2
KOPF_DÜNN
 70
     0
 62
     7
  6
Continuous
370
    -3
390
F
  0
LAYER
  5
43
330
2
100
AcDbSymbolTableRecord
100
AcDbLayerTableRecord
  2
KOPF_DICK
 70
     0
 62
     7
  6
Continuous
370
    15
390
F
  0
ENDTAB
  0
TABLE
  2
STYLE
  5
3
330
0
100
AcDbSymbolTable
 70
     3
  0
STYLE
  5
11
330
3
100
AcDbSymbolTableRecord
100
AcDbTextStyleTableRecord
  2
Standard
 70
     0
 40
0.0
 41
1.0
 50
0.0
 71
     0
 42
2.5
  3
txt
  4

  0
STYLE
  5
44
330
3
100
AcDbSymbolTableRecord
100
AcDbTextStyleTableRecord
  2
SLDTEXTSTYLE0
 70
     0
 40
0.0
 41
0.7
 50
0.0
 71
     0
 42
0.2
  3
TXT
  4

  0
STYLE
  5
48
330
3
100
AcDbSymbolTableRecord
100
AcDbTextStyleTableRecord
  2
SLDTEXTSTYLE1
 70
     0
 40
0.0
 41
0.65
 50
0.0
 71
     0
 42
0.2
  3
TXT
  4

  0
ENDTAB
  0
TABLE
  2
VIEW
  5
6
330
0
100
AcDbSymbolTable
 70
     0
  0
ENDTAB
  0
TABLE
  2
UCS
  5
7
330
0
100
AcDbSymbolTable
 70
     0
  0
ENDTAB
  0
TABLE
  2
APPID
  5
9
330
0
100
AcDbSymbolTable
 70
     1
  0
APPID
  5
12
330
9
100
AcDbSymbolTableRecord
100
AcDbRegAppTableRecord
  2
ACAD
 70
     0
  0
ENDTAB
  0
TABLE
  2
DIMSTYLE
  5
A
330
0
100
AcDbSymbolTable
 70
     5
100
AcDbDimStyleTable
  0
DIMSTYLE
105
27
330
A
100
AcDbSymbolTableRecord
100
AcDbDimStyleTableRecord
  2
ISO-25
 70
     0
 41
2.5
 42
0.625
 43
3.75
 44
1.25
 73
     0
 74
     0
 77
     1
 78
     8
140
2.5
141
2.5
143
0.0393700787
147
0.625
171
     3
172
     1
271
     2
272
     2
274
     3
278
    44
283
     0
284
     8
340
11
  0
DIMSTYLE
105
1B4
102
{ACAD_REACTORS
330
1B3
330
1E4
330
1EE
330
1F8
330
202
102
}
330
A
100
AcDbSymbolTableRecord
100
AcDbDimStyleTableRecord
  2
SLDDIMSTYLE0
 70
     0
 41
3.0
 44
0.0
 45
0.000000001
 73
     0
 74
     0
 77
     1
 78
    12
140
2.0
147
0.5
173
     1
271
     2
272
     3
284
    12
340
44
  0
DIMSTYLE
105
1C1
102
{ACAD_REACTORS
330
1C0
102
}
330
A
100
AcDbSymbolTableRecord
100
AcDbDimStyleTableRecord
  2
SLDDIMSTYLE1
 70
     0
 41
3.0
 44
0.0
 45
0.000000001
 73
     0
 74
     0
 77
     1
 78
    12
140
2.0
147
0.5
173
     1
271
     2
272
     2
284
    12
340
44
  0
DIMSTYLE
105
1CC
102
{ACAD_REACTORS
330
1CB
102
}
330
A
100
AcDbSymbolTableRecord
100
AcDbDimStyleTableRecord
  2
SLDDIMSTYLE2
 70
     0
 41
3.0
 44
0.0
 45
0.000000001
 73
     0
 74
     0
 77
     1
 78
    12
140
2.0
147
0.5
173
     1
271
     2
272
     2
284
    12
340
44
  0
DIMSTYLE
105
1D9
102
{ACAD_REACTORS
330
1D8
102
}
330
A
100
AcDbSymbolTableRecord
100
AcDbDimStyleTableRecord
  2
SLDDIMSTYLE3
 70
     0
 41
3.0
 44
0.0
 45
0.000000001
 73
     0
 74
     0
 77
     1
 78
    12
140
2.0
147
0.5
173
     1
271
     2
272
     3
284
    12
340
44
  0
ENDTAB
  0
TABLE
  2
BLOCK_RECORD
  5
1
330
0
100
AcDbSymbolTable
 70
     9
  0
BLOCK_RECORD
  5
1F
330
1
100
AcDbSymbolTableRecord
100
AcDbBlockTableRecord
  2
*Model_Space
340
22
  0
BLOCK_RECORD
  5
1B
330
1
100
AcDbSymbolTableRecord
100
AcDbBlockTableRecord
  2
*Paper_Space
340
1E
  0
BLOCK_RECORD
  5
23
330
1
100
AcDbSymbolTableRecord
100
AcDbBlockTableRecord
  2
*Paper_Space0
340
26
  0
BLOCK_RECORD
  5
1B5
330
1
100
AcDbSymbolTableRecord
100
AcDbBlockTableRecord
  2
*D1
340
0
  0
BLOCK_RECORD
  5
1C2
330
1
100
AcDbSymbolTableRecord
100
AcDbBlockTableRecord
  2
*D2
340
0
  0
BLOCK_RECORD
  5
1CD
330
1
100
AcDbSymbolTableRecord
100
AcDbBlockTableRecord
  2
*D3
340
0
  0
BLOCK_RECORD
  5
1DA
330
1
100
AcDbSymbolTableRecord
100
AcDbBlockTableRecord
  2
*D4
340
0
  0
BLOCK_RECORD
  5
1E5
330
1
100
AcDbSymbolTableRecord
100
AcDbBlockTableRecord
  2
*D5
340
0
  0
BLOCK_RECORD
  5
1EF
330
1
100
AcDbSymbolTableRecord
100
AcDbBlockTableRecord
  2
*D6
340
0
  0
BLOCK_RECORD
  5
1F9
330
1
100
AcDbSymbolTableRecord
100
AcDbBlockTableRecord
  2
*D7
340
0
  0
BLOCK_RECORD
  5
203
330
1
100
AcDbSymbolTableRecord
100
AcDbBlockTableRecord
  2
*D8
340
0
  0
ENDTAB
  0
ENDSEC
  0
SECTION
  2
BLOCKS
  0
BLOCK
  5
20
330
1F
100
AcDbEntity
  8
0
100
AcDbBlockBegin
  2
*Model_Space
 70
     0
 10
0.0
 20
0.0
 30
0.0
  3
*Model_Space
  1

  0
ENDBLK
  5
21
330
1F
100
AcDbEntity
  8
0
100
AcDbBlockEnd
  0
BLOCK
  5
1C
330
1B
100
AcDbEntity
 67
     1
  8
0
100
AcDbBlockBegin
  2
*Paper_Space
 70
     0
 10
0.0
 20
0.0
 30
0.0
  3
*Paper_Space
  1

  0
ENDBLK
  5
1D
330
1B
100
AcDbEntity
 67
     1
  8
0
100
AcDbBlockEnd
  0
BLOCK
  5
24
330
23
100
AcDbEntity
  8
0
100
AcDbBlockBegin
  2
*Paper_Space0
 70
     0
 10
0.0
 20
0.0
 30
0.0
  3
*Paper_Space0
  1

  0
ENDBLK
  5
25
330
23
100
AcDbEntity
  8
0
100
AcDbBlockEnd
  0
BLOCK
  5
1B6
330
1B5
100
AcDbEntity
  8
0
100
AcDbBlockBegin
  2
*D1
 70
     1
 10
0.0
 20
0.0
 30
0.0
  3
*D1
  1

  0
SOLID
  5
1B8
330
1B5
100
AcDbEntity
  8
VERMASSUNG
100
AcDbTrace
 10
38.267063922
 20
163.0063921994
 30
0.0
 11
37.817063922
 21
160.0063921994
 31
0.0
 12
38.717063922
 22
160.0063921994
 32
0.0
 13
38.717063922
 23
160.0063921994
 33
0.0
  0
SOLID
  5
1B9
330
1B5
100
AcDbEntity
  8
VERMASSUNG
100
AcDbTrace
 10
38.267063922
 20
63.0063921993
 30
0.0
 11
38.717063922
 21
66.0063921993
 31
0.0
 12
37.817063922
 22
66.0063921993
 32
0.0
 13
37.817063922
 23
66.0063921993
 33
0.0
  0
LINE
  5
1BA
330
1B5
100
AcDbEntity
  8
VERMASSUNG
100
AcDbLine
 10
94.0202898203
 20
163.0063921994
 30
0.0
 11
37.267063922
 21
163.0063921994
 31
0.0
  0
LINE
  5
1BB
330
1B5
100
AcDbEntity
  8
VERMASSUNG
100
AcDbLine
 10
94.0202898203
 20
63.0063921993
 30
0.0
 11
37.267063922
 21
63.0063921993
 31
0.0
  0
LINE
  5
1BC
330
1B5
100
AcDbEntity
  8
VERMASSUNG
100
AcDbLine
 10
38.267063922
 20
163.0063921994
 30
0.0
 11
38.267063922
 21
63.0063921993
 31
0.0
  0
MTEXT
  5
1BD
330
1B5
100
AcDbEntity
  8
VERMASSUNG
100
AcDbMText
 10
35.4889284329
 20
104.8027410618
 30
0.0
 40
2.0
 41
0.0
 71
     1
 72
     1
  1
HSK A 
  7
SLDTEXTSTYLE0
 11
-7.044195017643634E-15
 21
1.0
 31
0.0
 73
     1
 44
1.0
  0
MTEXT
  5
1BE
330
1B5
100
AcDbEntity
  8
VERMASSUNG
100
AcDbMText
 10
35.6889284424
 20
113.8027416056
 30
0.0
 40
2.0
 41
0.0
 71
     1
 72
     1
  1
%%c
  7
SLDTEXTSTYLE0
 11
-7.044195017643634E-15
 21
1.0
 31
0.0
 73
     1
 44
1.0
  0
MTEXT
  5
1BF
330
1B5
100
AcDbEntity
  8
VERMASSUNG
100
AcDbMText
 10
35.6889285589
 20
117.4110682557
 30
0.0
 40
2.0
 41
0.0
 71
     1
 72
     1
  1
100
  7
SLDTEXTSTYLE0
 11
-7.044195017643634E-15
 21
1.0
 31
0.0
 73
     1
 44
1.0
  0
ENDBLK
  5
1B7
330
1B5
100
AcDbEntity
  8
0
100
AcDbBlockEnd
  0
BLOCK
  5
1C3
330
1C2
100
AcDbEntity
  8
0
100
AcDbBlockBegin
  2
*D2
 70
     1
 10
0.0
 20
0.0
 30
0.0
  3
*D2
  1

  0
SOLID
  5
1C5
330
1C2
100
AcDbEntity
  8
VERMASSUNG
100
AcDbTrace
 10
204.0202898203
 20
161.5088840737
 30
0.0
 11
207.0202898203
 21
161.0588840737
 31
0.0
 12
207.0202898203
 22
161.9588840737
 32
0.0
 13
207.0202898203
 23
161.9588840737
 33
0.0
  0
SOLID
  5
1C6
330
1C2
100
AcDbEntity
  8
VERMASSUNG
100
AcDbTrace
 10
253.5202898203
 20
161.5088840737
 30
0.0
 11
250.5202898203
 21
161.9588840737
 31
0.0
 12
250.5202898203
 22
161.0588840737
 32
0.0
 13
250.5202898203
 23
161.0588840737
 33
0.0
  0
LINE
  5
1C7
330
1C2
100
AcDbEntity
  8
VERMASSUNG
100
AcDbLine
 10
204.0202898203
 20
120.9063921993
 30
0.0
 11
204.0202898203
 21
162.5088840737
 31
0.0
  0
LINE
  5
1C8
330
1C2
100
AcDbEntity
  8
VERMASSUNG
100
AcDbLine
 10
253.5202898203
 20
124.657611216
 30
0.0
 11
253.5202898203
 21
162.5088840737
 31
0.0
  0
LINE
  5
1C9
330
1C2
100
AcDbEntity
  8
VERMASSUNG
100
AcDbLine
 10
204.0202898203
 20
161.5088840737
 30
0.0
 11
253.5202898203
 21
161.5088840737
 31
0.0
  0
MTEXT
  5
1CA
330
1C2
100
AcDbEntity
  8
VERMASSUNG
100
AcDbMText
 10
226.2709030381
 20
164.0870194368
 30
0.0
 40
2.0
 41
0.0
 71
     1
 72
     1
  1
49.5
  7
SLDTEXTSTYLE0
 73
     1
 44
1.0
  0
ENDBLK
  5
1C4
330
1C2
100
AcDbEntity
  8
0
100
AcDbBlockEnd
  0
BLOCK
  5
1CE
330
1CD
100
AcDbEntity
  8
0
100
AcDbBlockBegin
  2
*D3
 70
     1
 10
0.0
 20
0.0
 30
0.0
  3
*D3
  1

  0
SOLID
  5
1D0
330
1CD
100
AcDbEntity
  8
VERMASSUNG
100
AcDbTrace
 10
260.3574214518
 20
105.0063921993
 30
0.0
 11
260.8074214518
 21
108.0063921993
 31
0.0
 12
259.9074214518
 22
108.0063921993
 32
0.0
 13
259.9074214518
 23
108.0063921993
 33
0.0
  0
SOLID
  5
1D1
330
1CD
100
AcDbEntity
  8
VERMASSUNG
100
AcDbTrace
 10
260.3574214518
 20
121.0063921994
 30
0.0
 11
259.9074214518
 21
118.0063921994
 31
0.0
 12
260.8074214518
 22
118.0063921994
 32
0.0
 13
260.8074214518
 23
118.0063921994
 33
0.0
  0
LINE
  5
1D2
330
1CD
100
AcDbEntity
  8
VERMASSUNG
100
AcDbLine
 10
250.0202898203
 20
105.0063921993
 30
0.0
 11
261.3574214518
 21
105.0063921993
 31
0.0
  0
LINE
  5
1D3
330
1CD
100
AcDbEntity
  8
VERMASSUNG
100
AcDbLine
 10
250.0202898203
 20
121.0063921994
 30
0.0
 11
261.3574214518
 21
121.0063921994
 31
0.0
  0
LINE
  5
1D4
330
1CD
100
AcDbEntity
  8
VERMASSUNG
100
AcDbLine
 10
260.3574214518
 20
105.0063921993
 30
0.0
 11
260.3574214518
 21
121.0063921994
 31
0.0
  0
MTEXT
  5
1D5
330
1CD
100
AcDbEntity
  8
VERMASSUNG
100
AcDbMText
 10
257.7792859722
 20
109.4023553629
 30
0.0
 40
2.0
 41
0.0
 71
     1
 72
     1
  1
%%c
  7
SLDTEXTSTYLE0
 11
6.123233995736766E-17
 21
1.0
 31
0.0
 73
     1
 44
1.0
  0
MTEXT
  5
1D6
330
1CD
100
AcDbEntity
  8
VERMASSUNG
100
AcDbMText
 10
257.7792860887
 20
113.0110335861
 30
0.0
 40
2.0
 41
0.0
 71
     1
 72
     1
  1
16
  7
SLDTEXTSTYLE0
 11
6.123233995736766E-17
 21
1.0
 31
0.0
 73
     1
 44
1.0
  0
MTEXT
  5
1D7
330
1CD
100
AcDbEntity
  8
VERMASSUNG
100
AcDbMText
 10
257.7792860887
 20
115.4106305525
 30
0.0
 40
2.0
 41
0.0
 71
     1
 72
     1
  1
 
  7
SLDTEXTSTYLE0
 11
6.123233995736766E-17
 21
1.0
 31
0.0
 73
     1
 44
1.0
  0
ENDBLK
  5
1CF
330
1CD
100
AcDbEntity
  8
0
100
AcDbBlockEnd
  0
BLOCK
  5
1DB
330
1DA
100
AcDbEntity
  8
0
100
AcDbBlockBegin
  2
*D4
 70
     1
 10
0.0
 20
0.0
 30
0.0
  3
*D4
  1

  0
SOLID
  5
1DD
330
1DA
100
AcDbEntity
  8
VERMASSUNG
100
AcDbTrace
 10
266.3574214518
 20
99.5063921993
 30
0.0
 11
266.8074214518
 21
102.5063921993
 31
0.0
 12
265.9074214518
 22
102.5063921993
 32
0.0
 13
265.9074214518
 23
102.5063921993
 33
0.0
  0
SOLID
  5
1DE
330
1DA
100
AcDbEntity
  8
VERMASSUNG
100
AcDbTrace
 10
266.3574214518
 20
126.5063921994
 30
0.0
 11
265.9074214518
 21
123.5063921994
 31
0.0
 12
266.8074214518
 22
123.5063921994
 32
0.0
 13
266.8074214518
 23
123.5063921994
 33
0.0
  0
LINE
  5
1DF
330
1DA
100
AcDbEntity
  8
VERMASSUNG
100
AcDbLine
 10
253.5202898203
 20
99.5063921993
 30
0.0
 11
267.3574214518
 21
99.5063921993
 31
0.0
  0
LINE
  5
1E0
330
1DA
100
AcDbEntity
  8
VERMASSUNG
100
AcDbLine
 10
253.5202898203
 20
126.5063921994
 30
0.0
 11
267.3574214518
 21
126.5063921994
 31
0.0
  0
LINE
  5
1E1
330
1DA
100
AcDbEntity
  8
VERMASSUNG
100
AcDbLine
 10
266.3574214518
 20
99.5063921993
 30
0.0
 11
266.3574214518
 21
126.5063921994
 31
0.0
  0
MTEXT
  5
1E2
330
1DA
100
AcDbEntity
  8
VERMASSUNG
100
AcDbMText
 10
263.7792859722
 20
109.8026749729
 30
0.0
 40
2.0
 41
0.0
 71
     1
 72
     1
  1
%%c
  7
SLDTEXTSTYLE0
 11
6.123233995736766E-17
 21
1.0
 31
0.0
 73
     1
 44
1.0
  0
MTEXT
  5
1E3
330
1DA
100
AcDbEntity
  8
VERMASSUNG
100
AcDbMText
 10
263.7792860887
 20
113.4113531961
 30
0.0
 40
2.0
 41
0.0
 71
     1
 72
     1
  1
27
  7
SLDTEXTSTYLE0
 11
6.123233995736766E-17
 21
1.0
 31
0.0
 73
     1
 44
1.0
  0
ENDBLK
  5
1DC
330
1DA
100
AcDbEntity
  8
0
100
AcDbBlockEnd
  0
BLOCK
  5
1E6
330
1E5
100
AcDbEntity
  8
0
100
AcDbBlockBegin
  2
*D5
 70
     1
 10
0.0
 20
0.0
 30
0.0
  3
*D5
  1

  0
SOLID
  5
1E8
330
1E5
100
AcDbEntity
  8
VERMASSUNG
100
AcDbTrace
 10
93.5202898203
 20
173.5088840737
 30
0.0
 11
96.5202898203
 21
173.0588840737
 31
0.0
 12
96.5202898203
 22
173.9588840737
 32
0.0
 13
96.5202898203
 23
173.9588840737
 33
0.0
  0
SOLID
  5
1E9
330
1E5
100
AcDbEntity
  8
VERMASSUNG
100
AcDbTrace
 10
253.5202898203
 20
173.5088840737
 30
0.0
 11
250.5202898203
 21
173.9588840737
 31
0.0
 12
250.5202898203
 22
173.0588840737
 32
0.0
 13
250.5202898203
 23
173.0588840737
 33
0.0
  0
LINE
  5
1EA
330
1E5
100
AcDbEntity
  8
VERMASSUNG
100
AcDbLine
 10
93.5202898203
 20
162.5063921993
 30
0.0
 11
93.5202898203
 21
174.5088840737
 31
0.0
  0
LINE
  5
1EB
330
1E5
100
AcDbEntity
  8
VERMASSUNG
100
AcDbLine
 10
253.5202898203
 20
124.657611216
 30
0.0
 11
253.5202898203
 21
174.5088840737
 31
0.0
  0
LINE
  5
1EC
330
1E5
100
AcDbEntity
  8
VERMASSUNG
100
AcDbLine
 10
93.5202898203
 20
173.5088840737
 30
0.0
 11
253.5202898203
 21
173.5088840737
 31
0.0
  0
MTEXT
  5
1ED
330
1E5
100
AcDbEntity
  8
VERMASSUNG
100
AcDbMText
 10
171.6208022797
 20
176.0870194368
 30
0.0
 40
2.0
 41
0.0
 71
     1
 72
     1
  1
160
  7
SLDTEXTSTYLE0
 73
     1
 44
1.0
  0
ENDBLK
  5
1E7
330
1E5
100
AcDbEntity
  8
0
100
AcDbBlockEnd
  0
BLOCK
  5
1F0
330
1EF
100
AcDbEntity
  8
0
100
AcDbBlockBegin
  2
*D6
 70
     1
 10
0.0
 20
0.0
 30
0.0
  3
*D6
  1

  0
SOLID
  5
1F2
330
1EF
100
AcDbEntity
  8
VERMASSUNG
100
AcDbTrace
 10
122.4702898203
 20
167.5088840737
 30
0.0
 11
125.4702898203
 21
167.0588840737
 31
0.0
 12
125.4702898203
 22
167.9588840737
 32
0.0
 13
125.4702898203
 23
167.9588840737
 33
0.0
  0
SOLID
  5
1F3
330
1EF
100
AcDbEntity
  8
VERMASSUNG
100
AcDbTrace
 10
253.5202898203
 20
167.5088840737
 30
0.0
 11
250.5202898203
 21
167.9588840737
 31
0.0
 12
250.5202898203
 22
167.0588840737
 32
0.0
 13
250.5202898203
 23
167.0588840737
 33
0.0
  0
LINE
  5
1F4
330
1EF
100
AcDbEntity
  8
VERMASSUNG
100
AcDbLine
 10
122.4702898203
 20
160.9751320202
 30
0.0
 11
122.4702898203
 21
168.5088840737
 31
0.0
  0
LINE
  5
1F5
330
1EF
100
AcDbEntity
  8
VERMASSUNG
100
AcDbLine
 10
253.5202898203
 20
124.6058399592
 30
0.0
 11
253.5202898203
 21
168.5088840737
 31
0.0
  0
LINE
  5
1F6
330
1EF
100
AcDbEntity
  8
VERMASSUNG
100
AcDbLine
 10
122.4702898203
 20
167.5088840737
 30
0.0
 11
253.5202898203
 21
167.5088840737
 31
0.0
  0
MTEXT
  5
1F7
330
1EF
100
AcDbEntity
  8
VERMASSUNG
100
AcDbMText
 10
184.5954740023
 20
170.0870194368
 30
0.0
 40
2.0
 41
0.0
 71
     1
 72
     1
  1
131.05
  7
SLDTEXTSTYLE0
 73
     1
 44
1.0
  0
ENDBLK
  5
1F1
330
1EF
100
AcDbEntity
  8
0
100
AcDbBlockEnd
  0
BLOCK
  5
1FA
330
1F9
100
AcDbEntity
  8
0
100
AcDbBlockBegin
  2
*D7
 70
     1
 10
0.0
 20
0.0
 30
0.0
  3
*D7
  1

  0
SOLID
  5
1FC
330
1F9
100
AcDbEntity
  8
VERMASSUNG
100
AcDbTrace
 10
43.6202898203
 20
179.5088840737
 30
0.0
 11
46.6202898203
 21
179.0588840737
 31
0.0
 12
46.6202898203
 22
179.9588840737
 32
0.0
 13
46.6202898203
 23
179.9588840737
 33
0.0
  0
SOLID
  5
1FD
330
1F9
100
AcDbEntity
  8
VERMASSUNG
100
AcDbTrace
 10
253.5202898203
 20
179.5088840737
 30
0.0
 11
250.5202898203
 21
179.9588840737
 31
0.0
 12
250.5202898203
 22
179.0588840737
 32
0.0
 13
250.5202898203
 23
179.0588840737
 33
0.0
  0
LINE
  5
1FE
330
1F9
100
AcDbEntity
  8
VERMASSUNG
100
AcDbLine
 10
43.6202898203
 20
143.5090619419
 30
0.0
 11
43.6202898203
 21
180.5088840737
 31
0.0
  0
LINE
  5
1FF
330
1F9
100
AcDbEntity
  8
VERMASSUNG
100
AcDbLine
 10
253.5202898203
 20
124.6058399592
 30
0.0
 11
253.5202898203
 21
180.5088840737
 31
0.0
  0
LINE
  5
200
330
1F9
100
AcDbEntity
  8
VERMASSUNG
100
AcDbLine
 10
43.6202898203
 20
179.5088840737
 30
0.0
 11
253.5202898203
 21
179.5088840737
 31
0.0
  0
MTEXT
  5
201
330
1F9
100
AcDbEntity
  8
VERMASSUNG
100
AcDbMText
 10
145.4710037965
 20
182.0870194368
 30
0.0
 40
2.0
 41
0.0
 71
     1
 72
     1
  1
209.9
  7
SLDTEXTSTYLE0
 73
     1
 44
1.0
  0
ENDBLK
  5
1FB
330
1F9
100
AcDbEntity
  8
0
100
AcDbBlockEnd
  0
BLOCK
  5
204
330
203
100
AcDbEntity
  8
0
100
AcDbBlockBegin
  2
*D8
 70
     1
 10
0.0
 20
0.0
 30
0.0
  3
*D8
  1

  0
SOLID
  5
206
330
203
100
AcDbEntity
  8
VERMASSUNG
100
AcDbTrace
 10
272.3574214518
 20
131.5063921994
 30
0.0
 11
271.9074214518
 21
128.5063921994
 31
0.0
 12
272.8074214518
 22
128.5063921994
 32
0.0
 13
272.8074214518
 23
128.5063921994
 33
0.0
  0
SOLID
  5
207
330
203
100
AcDbEntity
  8
VERMASSUNG
100
AcDbTrace
 10
272.3574214518
 20
94.5063921993
 30
0.0
 11
272.8074214518
 21
97.5063921993
 31
0.0
 12
271.9074214518
 22
97.5063921993
 32
0.0
 13
271.9074214518
 23
97.5063921993
 33
0.0
  0
LINE
  5
208
330
203
100
AcDbEntity
  8
VERMASSUNG
100
AcDbLine
 10
171.4702898203
 20
131.5063921994
 30
0.0
 11
273.3574214518
 21
131.5063921994
 31
0.0
  0
LINE
  5
209
330
203
100
AcDbEntity
  8
VERMASSUNG
100
AcDbLine
 10
171.4702898203
 20
94.5063921993
 30
0.0
 11
273.3574214518
 21
94.5063921993
 31
0.0
  0
LINE
  5
20A
330
203
100
AcDbEntity
  8
VERMASSUNG
100
AcDbLine
 10
272.3574214518
 20
131.5063921994
 30
0.0
 11
272.3574214518
 21
94.5063921993
 31
0.0
  0
MTEXT
  5
20B
330
203
100
AcDbEntity
  8
VERMASSUNG
100
AcDbMText
 10
269.7792859722
 20
109.8026749729
 30
0.0
 40
2.0
 41
0.0
 71
     1
 72
     1
  1
%%c
  7
SLDTEXTSTYLE0
 11
-7.044195017643634E-15
 21
1.0
 31
0.0
 73
     1
 44
1.0
  0
MTEXT
  5
20C
330
203
100
AcDbEntity
  8
VERMASSUNG
100
AcDbMText
 10
269.7792860887
 20
113.4113531961
 30
0.0
 40
2.0
 41
0.0
 71
     1
 72
     1
  1
37
  7
SLDTEXTSTYLE0
 11
-7.044195017643634E-15
 21
1.0
 31
0.0
 73
     1
 44
1.0
  0
ENDBLK
  5
205
330
203
100
AcDbEntity
  8
0
100
AcDbBlockEnd
  0
ENDSEC
  0
SECTION
  2
ENTITIES
  0
MTEXT
  5
45
330
1F
100
AcDbEntity
  8
KOPF_DÜNN
100
AcDbMText
 10
13.8892156294
 20
23.8442973028
 30
0.0
 40
3.0
 41
0.0
 71
     1
 72
     1
  1
HA0.S16.K21.160
  7
SLDTEXTSTYLE0
 73
     1
 44
1.0
  0
MTEXT
  5
46
330
1F
100
AcDbEntity
  8
VERMASSUNG
100
AcDbMText
 10
13.9329988022
 20
28.8834360957
 30
0.0
 40
3.0
 41
0.0
 71
     1
 72
     1
  1
Schrumpffutter_Heat shrink chuck
  7
SLDTEXTSTYLE0
 73
     1
 44
1.0
  0
MTEXT
  5
47
330
1F
100
AcDbEntity
  8
VERMASSUNG
100
AcDbMText
 10
98.8601118557
 20
13.8365368179
 30
0.0
 40
2.0
 41
0.0
 71
     1
 72
     1
  1
Datum: 02.05.2011
  7
SLDTEXTSTYLE0
 73
     1
 44
1.0
  0
MTEXT
  5
49
330
1F
100
AcDbEntity
  8
VERMASSUNG
100
AcDbMText
 10
13.933048693
 20
18.0482802738
 30
0.0
 40
2.0
 41
0.0
 71
     1
 72
     1
  1
DIN 69 893 HSK A 100
  7
SLDTEXTSTYLE1
 73
     1
 44
1.0
  0
MTEXT
  5
4A
330
1F
100
AcDbEntity
  8
VERMASSUNG
100
AcDbMText
 10
13.9808475933
 20
13.9090973692
 30
0.0
 40
2.0
 41
0.0
 71
     1
 72
     1
  1
Gewicht: 2847g
  7
SLDTEXTSTYLE0
 73
     1
 44
1.0
  0
LINE
  5
4B
330
1F
100
AcDbEntity
  8
0
  6
Continuous
 62
     7
370
    15
100
AcDbLine
 10
94.0202898203
 20
63.0063921993
 30
0.0
 11
98.4702898203
 21
63.0063921993
 31
0.0
  0
LINE
  5
4C
330
1F
100
AcDbEntity
  8
0
  6
Continuous
 62
     7
370
    15
100
AcDbLine
 10
98.5043626528
 20
163.0063921994
 30
0.0
 11
94.0202898203
 21
163.0063921994
 31
0.0
  0
ARC
  5
4D
330
1F
100
AcDbEntity
  8
0
  6
Continuous
 62
     7
370
    15
100
AcDbCircle
 10
94.0202898203
 20
63.5063921993
 30
0.0
 40
0.5
100
AcDbArc
 50
180.0
 51
270.0
  0
ARC
  5
4E
330
1F
100
AcDbEntity
  8
0
  6
Continuous
 62
     7
370
    15
100
AcDbCircle
 10
94.0202898203
 20
162.5063921993
 30
0.0
 40
0.5
100
AcDbArc
 50
90.0
 51
180.0
  0
ARC
  5
4F
330
1F
100
AcDbEntity
  8
0
  6
Continuous
 62
     7
370
    15
100
AcDbCircle
 10
92.6233529019
 20
74.3779068749
 30
0.0
 40
0.9962338214386983
100
AcDbArc
 50
25.7988228126
 51
90.0
  0
ARC
  5
50
330
1F
100
AcDbEntity
  8
0
  6
Continuous
 62
     7
370
    15
100
AcDbCircle
 10
92.6233529019
 20
151.6348775238
 30
0.0
 40
0.9962338214386921
100
AcDbArc
 50
270.0
 51
334.2011771874
  0
LINE
  5
51
330
1F
100
AcDbEntity
  8
0
  6
Continuous
 62
     7
370
    15
100
AcDbLine
 10
91.0202898203
 20
75.1241406963
 30
0.0
 11
91.8261359747
 21
75.3400665226
 31
0.0
  0
LINE
  5
52
330
1F
100
AcDbEntity
  8
0
  6
Continuous
 62
     7
370
    15
100
AcDbLine
 10
91.8261359747
 20
150.6727178761
 30
0.0
 11
91.0202898203
 21
150.8886437024
 31
0.0
  0
LINE
  5
53
330
1F
100
AcDbEntity
  8
0
  6
Continuous
 62
     7
370
    15
100
AcDbLine
 10
72.0396109017
 20
149.9377078848
 30
0.0
 11
53.7202898203
 21
149.0199062274
 31
0.0
  0
LINE
  5
54
330
1F
100
AcDbEntity
  8
0
  6
Continuous
 62
     7
370
    15
100
AcDbLine
 10
91.0202898203
 20
150.8886437024
 30
0.0
 11
84.9522506659
 21
150.5846337247
 31
0.0
  0
LINE
  5
55
330
1F
100
AcDbEntity
  8
0
  6
Continuous
 62
     7
370
    15
100
AcDbLine
 10
84.9523739423
 20
75.4281444978
 30
0.0
 11
91.0202898203
 21
75.1241406963
 31
0.0
  0
LINE
  5
56
330
1F
100
AcDbEntity
  8
0
  6
Continuous
 62
     7
370
    15
100
AcDbLine
 10
58.7202898203
 20
76.7423771693
 30
0.0
 11
72.0402409742
 21
76.0750449471
 31
0.0
  0
ARC
  5
57
330
1F
100
AcDbEntity
  8
0
  6
Continuous
 62
     7
370
    15
100
AcDbCircle
 10
92.0849550198
 20
74.3741406963
 30
0.0
 40
1.0
100
AcDbArc
 50
90.0
 51
105.0
  0
ARC
  5
58
330
1F
100
AcDbEntity
  8
0
  6
Continuous
 62
     7
370
    15
100
AcDbCircle
 10
92.0849550198
 20
151.6386437024
 30
0.0
 40
1.0
100
AcDbArc
 50
255.0
 51
270.0
  0
LINE
  5
59
330
1F
100
AcDbEntity
  8
0
  6
Continuous
 62
     7
370
    15
100
AcDbLine
 10
92.0849550198
 20
75.3741406963
 30
0.0
 11
92.6233529019
 21
75.3741406963
 31
0.0
  0
LINE
  5
5A
330
1F
100
AcDbEntity
  8
0
  6
Continuous
 62
     7
370
    15
100
AcDbLine
 10
92.6233529019
 20
150.6386437024
 30
0.0
 11
92.0849550198
 21
150.6386437024
 31
0.0
  0
ARC
  5
5B
330
1F
100
AcDbEntity
  8
0
  6
Continuous
 62
     7
370
    15
100
AcDbCircle
 10
127.4702898203
 20
85.5887724932
 30
0.0
 40
4.999999999999988
100
AcDbArc
 50
106.5116637356
 51
180.0
  0
ARC
  5
5C
330
1F
100
AcDbEntity
  8
0
  6
Continuous
 62
     7
370
    15
100
AcDbCircle
 10
127.4702898203
 20
140.4240119055
 30
0.0
 40
5.000000000000002
100
AcDbArc
 50
180.0
 51
253.4883362644
  0
ARC
  5
5D
330
1F
100
AcDbEntity
  8
0
  6
Continuous
 62
     7
370
    15
100
AcDbCircle
 10
154.4702898203
 20
-5.4936078007
 30
0.0
 40
100.0
100
AcDbArc
 50
90.0
 51
106.5116637356
  0
ARC
  5
5E
330
1F
100
AcDbEntity
  8
0
  6
Continuous
 62
     7
370
    15
100
AcDbCircle
 10
154.4702898203
 20
231.5063921993
 30
0.0
 40
99.99999999999997
100
AcDbArc
 50
253.4883362644
 51
270.0
  0
LINE
  5
5F
330
1F
100
AcDbEntity
  8
0
  6
Continuous
 62
     7
370
    15
100
AcDbLine
 10
165.9690104105
 20
94.5063921993
 30
0.0
 11
171.4702898203
 21
94.5063921993
 31
0.0
  0
LINE
  5
60
330
1F
100
AcDbEntity
  8
0
  6
Continuous
 62
     7
370
    15
100
AcDbLine
 10
154.4702898203
 20
94.5063921993
 30
0.0
 11
158.9807460601
 21
94.5063921993
 31
0.0
  0
LINE
  5
61
330
1F
100
AcDbEntity
  8
0
  6
Continuous
 62
     7
370
    15
100
AcDbLine
 10
158.9768635061
 20
131.5063921994
 30
0.0
 11
154.4702898203
 21
131.5063921994
 31
0.0
  0
LINE
  5
62
330
1F
100
AcDbEntity
  8
0
  6
Continuous
 62
     7
370
    15
100
AcDbLine
 10
171.4702898203
 20
131.5063921994
 30
0.0
 11
165.9636043576
 21
131.5063921994
 31
0.0
  0
ARC
  5
63
330
1F
100
AcDbEntity
  8
0
  6
Continuous
 62
     7
370
    15
100
AcDbCircle
 10
205.64264707
 20
-293.9936078007
 30
0.0
 40
390.0
100
AcDbArc
 50
90.0
 51
95.026784317
  0
ARC
  5
64
330
1F
100
AcDbEntity
  8
0
  6
Continuous
 62
     7
370
    15
100
AcDbCircle
 10
205.64264707
 20
520.0063921994
 30
0.0
 40
390.0000000000001
100
AcDbArc
 50
264.973215683
 51
270.0
  0
LINE
  5
65
330
1F
100
AcDbEntity
  8
0
  6
Continuous
 62
     7
370
    15
100
AcDbLine
 10
45.2702898203
 20
80.7563921993
 30
0.0
 11
56.8202898203
 21
80.7563921993
 31
0.0
  0
LINE
  5
66
330
1F
100
AcDbEntity
  8
0
  6
Continuous
 62
     7
370
    15
100
AcDbLine
 10
205.64264707
 20
96.0063921993
 30
0.0
 11
209.0485732437
 21
96.0063921993
 31
0.0
  0
LINE
  5
67
330
1F
100
AcDbEntity
  8
0
  6
Continuous
 62
     7
370
    15
100
AcDbLine
 10
209.0485732437
 20
130.0063921994
 30
0.0
 11
205.64264707
 21
130.0063921994
 31
0.0
  0
LINE
  5
68
330
1F
100
AcDbEntity
  8
0
  6
Continuous
 62
     7
370
    15
100
AcDbLine
 10
209.0485732437
 20
96.0063921993
 30
0.0
 11
251.6772080118
 21
99.3613385152
 31
0.0
  0
LINE
  5
69
330
1F
100
AcDbEntity
  8
0
  6
Continuous
 62
     7
370
    15
100
AcDbLine
 10
251.6772080118
 20
126.6514458835
 30
0.0
 11
209.0485732437
 21
130.0063921994
 31
0.0
  0
ARC
  5
6A
330
1F
100
AcDbEntity
  8
0
  6
Continuous
 62
     7
370
    15
100
AcDbCircle
 10
56.8202898203
 20
78.8563921993
 30
0.0
 40
1.900000000000005
100
AcDbArc
 50
35.6630613694
 51
90.0
  0
ARC
  5
6B
330
1F
100
AcDbEntity
  8
0
  6
Continuous
 62
     7
370
    15
100
AcDbCircle
 10
51.8202898203
 20
147.1563921993
 30
0.0
 40
1.900000000000006
100
AcDbArc
 50
270.0
 51
310.9212832533
  0
LINE
  5
6C
330
1F
100
AcDbEntity
  8
0
  6
Continuous
 62
     7
370
    15
100
AcDbLine
 10
45.2702898203
 20
145.2563921993
 30
0.0
 11
43.6780033554
 21
143.6641057344
 31
0.0
  0
LINE
  5
6D
330
1F
100
AcDbEntity
  8
0
  6
Continuous
 62
     7
370
    15
100
AcDbLine
 10
43.6778127208
 20
82.3488692989
 30
0.0
 11
45.2702898203
 21
80.7563921993
 31
0.0
  0
LINE
  5
6E
330
1F
100
AcDbEntity
  8
0
  6
Continuous
 62
     7
370
    15
100
AcDbLine
 10
51.8202898203
 20
145.2563921993
 30
0.0
 11
45.2702898203
 21
145.2563921993
 31
0.0
  0
ARC
  5
6F
330
1F
100
AcDbEntity
  8
0
  6
Continuous
 62
     7
370
    15
100
AcDbCircle
 10
251.5202898203
 20
101.3551731827
 30
0.0
 40
1.99999999999999
100
AcDbArc
 50
274.5
 51
334.6108581548
  0
ARC
  5
70
330
1F
100
AcDbEntity
  8
0
  6
Continuous
 62
     7
370
    15
100
AcDbCircle
 10
251.5202898203
 20
124.657611216
 30
0.0
 40
1.99999999999999
100
AcDbArc
 50
25.3891418452
 51
85.5
  0
LINE
  5
71
330
1F
100
AcDbEntity
  8
0
  6
Continuous
 62
     7
370
    15
100
AcDbLine
 10
253.3271229491
 20
100.4976453144
 30
0.0
 11
253.4468025103
 21
100.5023475372
 31
0.0
  0
LINE
  5
72
330
1F
100
AcDbEntity
  8
0
  6
Continuous
 62
     7
370
    15
100
AcDbLine
 10
253.4468025103
 20
100.5023475372
 30
0.0
 11
253.5976120275
 21
100.7889892814
 31
0.0
  0
LINE
  5
73
330
1F
100
AcDbEntity
  8
0
  6
Continuous
 62
     7
370
    15
100
AcDbLine
 10
253.3879127867
 20
125.5127506451
 30
0.0
 11
253.3271229491
 21
125.5151390843
 31
0.0
  0
LINE
  5
74
330
1F
100
AcDbEntity
  8
0
  6
Continuous
 62
     7
370
    15
100
AcDbLine
 10
253.5387223038
 20
125.2261089008
 30
0.0
 11
253.3879127867
 21
125.5127506451
 31
0.0
  0
SPLINE
  5
75
330
1F
100
AcDbEntity
  8
0
  6
Continuous
 62
     7
370
    15
100
AcDbSpline
210
0.0
220
0.0
230
1.0
 70
     8
 71
     3
 72
    80
 73
    76
 74
     0
 42
0.00000001
 43
0.00000001
 40
-0.0312499999999993
 40
-0.0312499999999993
 40
0.0
 40
0.0
 40
0.0312500000000006
 40
0.0312500000000006
 40
0.0468750000000008
 40
0.0468750000000008
 40
0.062500000000001
 40
0.062500000000001
 40
0.0937500000000012
 40
0.0937500000000012
 40
0.1250000000000014
 40
0.1250000000000014
 40
0.1562500000000016
 40
0.1562500000000016
 40
0.1875000000000017
 40
0.1875000000000017
 40
0.2187500000000019
 40
0.2187500000000019
 40
0.2500000000000021
 40
0.2500000000000021
 40
0.2812500000000023
 40
0.2812500000000023
 40
0.3125000000000025
 40
0.3125000000000025
 40
0.3281250000000026
 40
0.3281250000000026
 40
0.3437500000000028
 40
0.3437500000000028
 40
0.3750000000000032
 40
0.3750000000000032
 40
0.4062500000000037
 40
0.4062500000000037
 40
0.4218750000000038
 40
0.4218750000000038
 40
0.4375000000000038
 40
0.4375000000000038
 40
0.4687500000000037
 40
0.4687500000000037
 40
0.5000000000000036
 40
0.5000000000000036
 40
0.5312500000000036
 40
0.5312500000000036
 40
0.5625000000000034
 40
0.5625000000000034
 40
0.5937500000000034
 40
0.5937500000000034
 40
0.6250000000000034
 40
0.6250000000000034
 40
0.6562500000000033
 40
0.6562500000000033
 40
0.6875000000000033
 40
0.6875000000000033
 40
0.7031250000000033
 40
0.7031250000000033
 40
0.7187500000000033
 40
0.7187500000000033
 40
0.7500000000000036
 40
0.7500000000000036
 40
0.7812500000000039
 40
0.7812500000000039
 40
0.7968750000000038
 40
0.7968750000000038
 40
0.8125000000000037
 40
0.8125000000000037
 40
0.8437500000000031
 40
0.8437500000000031
 40
0.8750000000000024
 40
0.8750000000000024
 40
0.9062500000000019
 40
0.9062500000000019
 40
0.9375000000000013
 40
0.9375000000000013
 40
0.9687500000000007
 40
0.9687500000000007
 40
1.0
 40
1.0
 40
1.031250000000001
 40
1.031250000000001
 10
102.1897445075437
 20
156.4210216629813
 30
0.0
 10
102.8508351330963
 20
156.4210216629813
 30
0.0
 10
103.1758152623479
 20
156.4372298943634
 30
0.0
 10
103.6552886735943
 20
156.484594526383
 30
0.0
 10
103.8137704914351
 20
156.5042487382736
 30
0.0
 10
104.1279900239394
 20
156.5513598944663
 30
0.0
 10
104.2841103076198
 20
156.578941213961
 30
0.0
 10
104.7381643365764
 20
156.6714770007548
 30
0.0
 10
105.0252677195162
 20
156.7465474343513
 30
0.0
 10
105.5686222755432
 20
156.9217857429619
 30
0.0
 10
105.8257258867488
 20
157.0227870408001
 30
0.0
 10
106.2866321416876
 20
157.240143239261
 30
0.0
 10
106.4935298509026
 20
157.3573075710333
 30
0.0
 10
106.8590551648948
 20
157.6073774952619
 30
0.0
 10
107.0142606870207
 20
157.7383235840209
 30
0.0
 10
107.2636910736204
 20
158.0040585277332
 30
0.0
 10
107.3597810294056
 20
158.1408121210442
 30
0.0
 10
107.4882998785992
 20
158.4148776958832
 30
0.0
 10
107.520110748777
 20
158.549817786352
 30
0.0
 10
107.5204673985502
 20
158.8152894234208
 30
0.0
 10
107.4879701463532
 20
158.947113900562
 30
0.0
 10
107.3603446726387
 20
159.1965635001824
 30
0.0
 10
107.2659162715868
 20
159.3149961921104
 30
0.0
 10
107.0780554516012
 20
159.4838653892045
 30
0.0
 10
107.007227452798
 20
159.5389513843247
 30
0.0
 10
106.8525055608328
 20
159.6442042128131
 30
0.0
 10
106.7685290906494
 20
159.6945394415734
 30
0.0
 10
106.4972054210049
 20
159.8391152741115
 30
0.0
 10
106.2906562024026
 20
159.9269768605285
 30
0.0
 10
105.8240460622136
 20
160.086697953528
 30
0.0
 10
105.5716804925881
 20
160.1559362499952
 30
0.0
 10
105.1657791509094
 20
160.245723639225
 30
0.0
 10
105.0258785334319
 20
160.2732896013113
 30
0.0
 10
104.736654598185
 20
160.3237804022376
 30
0.0
 10
104.5868151418957
 20
160.3467438410882
 30
0.0
 10
104.1326985722849
 20
160.4073743575071
 30
0.0
 10
103.8210473535481
 20
160.4374483863029
 30
0.0
 10
103.1800508886357
 20
160.4780379735616
 30
0.0
 10
102.8485232606835
 20
160.4883502037776
 30
0.0
 10
102.195732215612
 20
160.4884257709434
 30
0.0
 10
101.8711960105802
 20
160.4785241654756
 30
0.0
 10
101.2259265611638
 20
160.4380376349504
 30
0.0
 10
100.9101835550011
 20
160.4075763350657
 30
0.0
 10
100.3082942600174
 20
160.3274256636291
 30
0.0
 10
100.0175450292059
 20
160.277143431822
 30
0.0
 10
99.47063323752143
 20
160.156473249049
 30
0.0
 10
99.2188558736845
 20
160.087249389879
 30
0.0
 10
98.75746788106338
 20
159.9297976622383
 30
0.0
 10
98.54619860146528
 20
159.8404491875645
 30
0.0
 10
98.18289424908909
 20
159.6472013168638
 30
0.0
 10
98.02908760064629
 20
159.5430733249844
 30
0.0
 10
97.8404681310489
 20
159.374448938801
 30
0.0
 10
97.78443764483978
 20
159.315820537126
 30
0.0
 10
97.68886388310362
 20
159.1963656222998
 30
0.0
 10
97.64910096607862
 20
159.1354458334616
 30
0.0
 10
97.55332921576648
 20
158.9490411072877
 30
0.0
 10
97.52060637664037
 20
158.8199282894927
 30
0.0
 10
97.51997779031129
 20
158.5512713665368
 30
0.0
 10
97.55216393504607
 20
158.41590062578
 30
0.0
 10
97.64707463690165
 20
158.2123503175441
 30
0.0
 10
97.6865414203006
 20
158.1443783934807
 30
0.0
 10
97.78147141902149
 20
158.0082861703497
 30
0.0
 10
97.83722824678486
 20
157.9399360701403
 30
0.0
 10
98.02516836475475
 20
157.7392330570982
 30
0.0
 10
98.17852983447092
 20
157.6098447832855
 30
0.0
 10
98.54079406935128
 20
157.3611793512356
 30
0.0
 10
98.75164254281718
 20
157.2413697088675
 30
0.0
 10
99.21231251313611
 20
157.0238474212948
 30
0.0
 10
99.46368689271993
 20
156.9247623214588
 30
0.0
 10
100.0095947796181
 20
156.748089847542
 30
0.0
 10
100.3004173542693
 20
156.672032759408
 30
0.0
 10
100.9017439690493
 20
156.549187782055
 30
0.0
 10
101.2162625536617
 20
156.5014816570019
 30
0.0
 10
101.8628440097817
 20
156.4372331218822
 30
0.0
 10
102.1897445075437
 20
156.4210216629813
 30
0.0
 10
102.8508351330963
 20
156.4210216629813
 30
0.0
  0
LINE
  5
76
330
1F
100
AcDbEntity
  8
0
  6
Continuous
 62
     7
370
    15
100
AcDbLine
 10
98.4702898203
 20
144.3563921993
 30
0.0
 11
110.2582607994
 21
144.3563921993
 31
0.0
  0
LINE
  5
77
330
1F
100
AcDbEntity
  8
0
  6
Continuous
 62
     7
370
    15
100
AcDbLine
 10
110.2582607994
 20
64.2313986063
 30
0.0
 11
110.2582607994
 21
144.3563921993
 31
0.0
  0
LINE
  5
78
330
1F
100
AcDbEntity
  8
0
  6
Continuous
 62
     7
370
    15
100
AcDbLine
 10
110.2582607994
 20
64.2313986063
 30
0.0
 11
108.4702898203
 21
64.2313986063
 31
0.0
  0
SPLINE
  5
79
330
1F
100
AcDbEntity
  8
0
  6
Continuous
 62
     7
370
    15
100
AcDbSpline
210
0.0
220
0.0
230
1.0
 70
     8
 71
     3
 72
    30
 73
    26
 74
     0
 42
0.00000001
 43
0.00000001
 40
0.0
 40
0.0
 40
0.0
 40
0.0
 40
0.1249999999999998
 40
0.1249999999999998
 40
0.1874999999999996
 40
0.1874999999999996
 40
0.2499999999999995
 40
0.2499999999999995
 40
0.3749999999999994
 40
0.3749999999999994
 40
0.4374999999999993
 40
0.4374999999999993
 40
0.4999999999999992
 40
0.4999999999999992
 40
0.6249999999999996
 40
0.6249999999999996
 40
0.6874999999999997
 40
0.6874999999999997
 40
0.7499999999999998
 40
0.7499999999999998
 40
0.8124999999999999
 40
0.8124999999999999
 40
0.8749999999999999
 40
0.8749999999999999
 40
1.0
 40
1.0
 40
1.0
 40
1.0
 10
108.4702898203199
 20
64.23139860632118
 30
0.0
 10
107.8075451264749
 20
64.23139860632118
 30
0.0
 10
107.1562892673592
 20
64.21655852973237
 30
0.0
 10
106.1958387291009
 20
64.17418896550278
 30
0.0
 10
105.878447285868
 20
64.15671086272357
 30
0.0
 10
105.2492837843131
 20
64.1153825761713
 30
0.0
 10
104.9371355978714
 20
64.09145730271356
 30
0.0
 10
104.0298282960231
 20
64.01265078624667
 30
0.0
 10
103.4564033383819
 20
63.95034476627021
 30
0.0
 10
102.6425264688072
 20
63.84721544603082
 30
0.0
 10
102.3777202722374
 20
63.81103152698434
 30
0.0
 10
101.870812861423
 20
63.73723674278382
 30
0.0
 10
101.6294187100695
 20
63.69976288401219
 30
0.0
 10
100.9402772379372
 20
63.58705094067243
 30
0.0
 10
100.527222423073
 20
63.51151484319868
 30
0.0
 10
99.97906760369789
 20
63.40312158618118
 30
0.0
 10
99.8096049963523
 20
63.36804935451792
 30
0.0
 10
99.50158774833692
 20
63.30181389391807
 30
0.0
 10
99.36220772772856
 20
63.27048719716336
 30
0.0
 10
99.11242221510183
 20
63.21207842558242
 30
0.0
 10
99.00201610244791
 20
63.18499519039958
 30
0.0
 10
98.81075824881019
 20
63.13573543578596
 30
0.0
 10
98.72963873052589
 20
63.11347345597834
 30
0.0
 10
98.5354918104175
 20
63.05590654881005
 30
0.0
 10
98.47028982031993
 20
63.02964694402405
 30
0.0
 10
98.47028982031993
 20
63.01639319955003
 30
0.0
  0
LINE
  5
7A
330
1F
100
AcDbEntity
  8
0
  6
Continuous
 62
     7
370
    15
100
AcDbLine
 10
98.4702898203
 20
63.0163931996
 30
0.0
 11
98.4702898203
 21
63.0063921994
 31
0.0
  0
SPLINE
  5
7B
330
1F
100
AcDbEntity
  8
0
  6
Continuous
 62
     7
370
    15
100
AcDbSpline
210
0.0
220
0.0
230
1.0
 70
     8
 71
     3
 72
    17
 73
    13
 74
     0
 42
0.00000001
 43
0.00000001
 40
0.0
 40
0.0
 40
0.0
 40
0.0
 40
0.104384384054747
 40
0.2118345768143992
 40
0.3162082005190449
 40
0.4235375806108391
 40
0.529227623619385
 40
0.6379275864803489
 40
0.744471484418968
 40
0.8541836219421854
 40
0.9593080534965213
 40
1.0
 40
1.0
 40
1.0
 40
1.0
 10
108.4702898203199
 20
161.9961870550136
 30
0.0
 10
107.9223513724606
 20
162.0015552587623
 30
0.0
 10
106.8103813179958
 20
162.0124493324273
 30
0.0
 10
105.1975254047809
 20
162.0976267066862
 30
0.0
 10
103.664012187804
 20
162.2240014129788
 30
0.0
 10
102.2729913384674
 20
162.3809042335556
 30
0.0
 10
101.037474821237
 20
162.5526030630761
 30
0.0
 10
100.0141190540817
 20
162.7179393391772
 30
0.0
 10
99.2137770558166
 20
162.8616528187638
 30
0.0
 10
98.70344495390304
 20
162.9598076259429
 30
0.0
 10
98.46353652507851
 20
163.0077360228128
 30
0.0
 10
98.49545530449832
 20
163.0013686235732
 30
0.0
 10
98.50436265278053
 20
162.99959171845
 30
0.0
  0
LINE
  5
7C
330
1F
100
AcDbEntity
  8
0
  6
Continuous
 62
     7
370
    15
100
AcDbLine
 10
110.2582607994
 20
161.996187055
 30
0.0
 11
108.4702898203
 21
161.996187055
 31
0.0
  0
LINE
  5
7D
330
1F
100
AcDbEntity
  8
0
  6
Continuous
 62
     7
370
    15
100
AcDbLine
 10
110.2582607994
 20
151.9573549602
 30
0.0
 11
110.2582607994
 21
161.996187055
 31
0.0
  0
LINE
  5
7E
330
1F
100
AcDbEntity
  8
0
  6
Continuous
 62
     7
370
    15
100
AcDbLine
 10
108.1782566685
 20
151.9573549602
 30
0.0
 11
110.2582607994
 21
151.9573549602
 31
0.0
  0
SPLINE
  5
7F
330
1F
100
AcDbEntity
  8
0
  6
Continuous
 62
     7
370
    15
100
AcDbSpline
210
0.0
220
0.0
230
1.0
 70
     8
 71
     3
 72
    22
 73
    18
 74
     0
 42
0.00000001
 43
0.00000001
 40
0.0
 40
0.0
 40
0.0
 40
0.0
 40
0.2500000000000009
 40
0.2500000000000009
 40
0.3750000000000009
 40
0.3750000000000009
 40
0.500000000000001
 40
0.500000000000001
 40
0.6250000000000009
 40
0.6250000000000009
 40
0.7500000000000007
 40
0.7500000000000007
 40
0.8750000000000004
 40
0.8750000000000004
 40
0.9375000000000002
 40
0.9375000000000002
 40
1.0
 40
1.0
 40
1.0
 40
1.0
 10
98.47028982031993
 20
144.35639219935
 30
0.0
 10
98.67301477623903
 20
145.3756385412146
 30
0.0
 10
98.98775849803441
 20
146.3347466911539
 30
0.0
 10
99.69581396770538
 20
147.6772257686632
 30
0.0
 10
99.97427659792304
 20
148.1114343514032
 30
0.0
 10
100.6130440045602
 20
148.9230620669053
 30
0.0
 10
100.9734576843504
 20
149.3023423598422
 30
0.0
 10
101.7909899163397
 20
150.0053009388632
 30
0.0
 10
102.2521578996268
 20
150.3303297565638
 30
0.0
 10
103.2501481461106
 20
150.8953450799546
 30
0.0
 10
103.7899073401029
 20
151.1390486741612
 30
0.0
 10
104.9645003041342
 20
151.5432486018061
 30
0.0
 10
105.5762364901261
 20
151.6956857948516
 30
0.0
 10
106.5281457149878
 20
151.8510133424603
 30
0.0
 10
106.8513788792485
 20
151.8905181225104
 30
0.0
 10
107.5104420505237
 20
151.9438272431791
 30
0.0
 10
107.8445060610977
 20
151.957354960237
 30
0.0
 10
108.1782566684993
 20
151.9573549602369
 30
0.0
  0
LINE
  5
80
330
1F
100
AcDbEntity
  8
0
  6
Continuous
 62
     7
370
    15
100
AcDbLine
 10
111.6102898203
 20
66.6350039123
 30
0.0
 11
111.6102898203
 21
144.3563921993
 31
0.0
  0
SPLINE
  5
81
330
1F
100
AcDbEntity
  8
0
  6
Continuous
 62
     7
370
    15
100
AcDbSpline
210
0.0
220
0.0
230
1.0
 70
     8
 71
     3
 72
     8
 73
     4
 74
     0
 42
0.00000001
 43
0.00000001
 40
0.0
 40
0.0
 40
0.0
 40
0.0
 40
1.0
 40
1.0
 40
1.0
 40
1.0
 10
111.61028982032
 20
66.63500391232652
 30
0.0
 10
111.1600633560422
 20
65.83354854970176
 30
0.0
 10
110.7093655287988
 20
65.03235853814108
 30
0.0
 10
110.2582607993986
 20
64.23139860632118
 30
0.0
  0
SPLINE
  5
82
330
1F
100
AcDbEntity
  8
0
  6
Continuous
 62
     7
370
    15
100
AcDbSpline
210
0.0
220
0.0
230
1.0
 70
    24
 71
     3
 72
     8
 73
     4
 74
     0
 42
0.00000001
 43
0.00000001
 40
0.0
 40
0.0
 40
0.0
 40
0.0
 40
1.0
 40
1.0
 40
1.0
 40
1.0
 10
110.2582607993986
 20
144.35639219935
 30
0.0
 10
110.7150623717268
 20
144.35639219935
 30
0.0
 10
111.166076937966
 20
144.35639219935
 30
0.0
 10
111.61028982032
 20
144.35639219935
 30
0.0
  0
LINE
  5
83
330
1F
100
AcDbEntity
  8
0
  6
Continuous
 62
     7
370
    15
100
AcDbLine
 10
93.5202898203
 20
63.5063921993
 30
0.0
 11
93.5202898203
 21
162.5063921966
 31
0.0
  0
LINE
  5
84
330
1F
100
AcDbEntity
  8
0
  6
Continuous
 62
     7
370
    15
100
AcDbLine
 10
122.4702898203
 20
65.2570466541
 30
0.0
 11
122.4702898203
 21
144.3563921993
 31
0.0
  0
SPLINE
  5
85
330
1F
100
AcDbEntity
  8
0
  6
Continuous
 62
     7
370
    15
100
AcDbSpline
210
0.0
220
0.0
230
1.0
 70
     8
 71
     3
 72
    14
 73
    10
 74
     0
 42
0.00000001
 43
0.00000001
 40
0.0
 40
0.0
 40
0.0
 40
0.0
 40
0.25
 40
0.25
 40
0.5
 40
0.5
 40
0.75
 40
0.75
 40
1.0
 40
1.0
 40
1.0
 40
1.0
 10
122.47028982032
 20
65.25704665409671
 30
0.0
 10
122.47028982032
 20
65.12362095804217
 30
0.0
 10
122.4449787204091
 20
64.9917731501978
 30
0.0
 10
122.3466439565643
 20
64.74525060150371
 30
0.0
 10
122.2734999523083
 20
64.63144541326315
 30
0.0
 10
122.0900618912126
 20
64.44098823631589
 30
0.0
 10
121.978375556874
 20
64.36335337246598
 30
0.0
 10
121.7358721265677
 20
64.25906196235351
 30
0.0
 10
121.6024976978735
 20
64.23139860632115
 30
0.0
 10
121.47028982032
 20
64.23139860632115
 30
0.0
  0
SPLINE
  5
86
330
1F
100
AcDbEntity
  8
0
  6
Continuous
 62
     7
370
    15
100
AcDbSpline
210
0.0
220
0.0
230
1.0
 70
    24
 71
     3
 72
    12
 73
     8
 74
     0
 42
0.00000001
 43
0.00000001
 40
0.0
 40
0.0
 40
0.0
 40
0.0
 40
0.2500000000000032
 40
0.2500000000000032
 40
0.5000000000000064
 40
0.5000000000000064
 40
1.0
 40
1.0
 40
1.0
 40
1.0
 10
121.47028982032
 20
144.35639219935
 30
0.0
 10
121.6223800572649
 20
144.35639219935
 30
0.0
 10
121.7708393183404
 20
144.35639219935
 30
0.0
 10
122.0282429506061
 20
144.35639219935
 30
0.0
 10
122.137347698448
 20
144.35639219935
 30
0.0
 10
122.3914071748555
 20
144.35639219935
 30
0.0
 10
122.47028982032
 20
144.35639219935
 30
0.0
 10
122.47028982032
 20
144.35639219935
 30
0.0
  0
LINE
  5
87
330
1F
100
AcDbEntity
  8
0
  6
Continuous
 62
     7
370
    15
100
AcDbLine
 10
121.4702898203
 20
64.2313986063
 30
0.0
 11
116.7823188412
 21
64.2313986063
 31
0.0
  0
LINE
  5
88
330
1F
100
AcDbEntity
  8
0
  6
Continuous
 62
     7
370
    15
100
AcDbLine
 10
116.7823188412
 20
64.2313986063
 30
0.0
 11
116.7823188412
 21
144.3563921993
 31
0.0
  0
LINE
  5
89
330
1F
100
AcDbEntity
  8
0
  6
Continuous
 62
     7
370
    15
100
AcDbLine
 10
116.7823188412
 20
144.3563921993
 30
0.0
 11
121.4702898203
 21
144.3563921993
 31
0.0
  0
SPLINE
  5
8A
330
1F
100
AcDbEntity
  8
0
  6
Continuous
 62
     7
370
    15
100
AcDbSpline
210
0.0
220
0.0
230
1.0
 70
     8
 71
     3
 72
     8
 73
     4
 74
     0
 42
0.00000001
 43
0.00000001
 40
0.0
 40
0.0
 40
0.0
 40
0.0
 40
1.0
 40
1.0
 40
1.0
 40
1.0
 10
116.7823188412413
 20
64.23139860632118
 30
0.0
 10
116.3312141118411
 20
65.0323585381411
 30
0.0
 10
115.8805162845977
 20
65.83354854970177
 30
0.0
 10
115.43028982032
 20
66.63500391232654
 30
0.0
  0
LINE
  5
8B
330
1F
100
AcDbEntity
  8
0
  6
Continuous
 62
     7
370
    15
100
AcDbLine
 10
115.4302898203
 20
66.6350039123
 30
0.0
 11
115.4302898203
 21
144.3563921993
 31
0.0
  0
SPLINE
  5
8C
330
1F
100
AcDbEntity
  8
0
  6
Continuous
 62
     7
370
    15
100
AcDbSpline
210
0.0
220
0.0
230
1.0
 70
    24
 71
     3
 72
     8
 73
     4
 74
     0
 42
0.00000001
 43
0.00000001
 40
0.0
 40
0.0
 40
0.0
 40
0.0
 40
1.0
 40
1.0
 40
1.0
 40
1.0
 10
115.43028982032
 20
144.35639219935
 30
0.0
 10
115.8745027026739
 20
144.35639219935
 30
0.0
 10
116.3255172689131
 20
144.35639219935
 30
0.0
 10
116.7823188412413
 20
144.35639219935
 30
0.0
  0
SPLINE
  5
8D
330
1F
100
AcDbEntity
  8
0
  6
Continuous
 62
     7
370
    15
100
AcDbSpline
210
0.0
220
0.0
230
1.0
 70
     8
 71
     3
 72
    14
 73
    10
 74
     0
 42
0.00000001
 43
0.00000001
 40
0.0
 40
0.0
 40
0.0
 40
0.0
 40
0.25
 40
0.25
 40
0.5
 40
0.5
 40
0.75
 40
0.75
 40
1.0
 40
1.0
 40
1.0
 40
1.0
 10
115.43028982032
 20
67.5432134169551
 30
0.0
 10
115.43028982032
 20
67.6502574979495
 30
0.0
 10
115.4101721331618
 20
67.75549263819194
 30
0.0
 10
115.3316809438962
 20
67.95334312503962
 30
0.0
 10
115.273524319095
 20
68.04439488860454
 30
0.0
 10
115.1270090634769
 20
68.19756098252932
 30
0.0
 10
115.0383665148358
 20
68.25985542873873
 30
0.0
 10
114.8426431920355
 20
68.34464921427471
 30
0.0
 10
114.7374120009645
 20
68.36671674130035
 30
0.0
 10
114.63028982032
 20
68.36671674130035
 30
0.0
  0
SPLINE
  5
8E
330
1F
100
AcDbEntity
  8
0
  6
Continuous
 62
     7
370
    15
100
AcDbSpline
210
0.0
220
0.0
230
1.0
 70
    24
 71
     3
 72
    14
 73
    10
 74
     0
 42
0.00000001
 43
0.00000001
 40
0.0
 40
0.0
 40
0.0
 40
0.0
 40
0.25
 40
0.25
 40
0.5
 40
0.5
 40
0.75
 40
0.75
 40
1.0
 40
1.0
 40
1.0
 40
1.0
 10
114.63028982032
 20
144.35639219935
 30
0.0
 10
114.7540595850851
 20
144.35639219935
 30
0.0
 10
114.878426689092
 20
144.35639219935
 30
0.0
 10
115.084783157818
 20
144.35639219935
 30
0.0
 10
115.1701113012364
 20
144.35639219935
 30
0.0
 10
115.3023033599516
 20
144.35639219935
 30
0.0
 10
115.3509486037022
 20
144.35639219935
 30
0.0
 10
115.4144843954309
 20
144.35639219935
 30
0.0
 10
115.43028982032
 20
144.35639219935
 30
0.0
 10
115.43028982032
 20
144.35639219935
 30
0.0
  0
SPLINE
  5
8F
330
1F
100
AcDbEntity
  8
0
  6
Continuous
 62
     7
370
    15
100
AcDbSpline
210
0.0
220
0.0
230
1.0
 70
     8
 71
     3
 72
    12
 73
     8
 74
     0
 42
0.00000001
 43
0.00000001
 40
0.0
 40
0.0
 40
0.0
 40
0.0
 40
0.250000000000003
 40
0.250000000000003
 40
0.500000000000006
 40
0.500000000000006
 40
1.0
 40
1.0
 40
1.0
 40
1.0
 10
112.4102898203199
 20
68.36671674130035
 30
0.0
 10
112.304529166971
 20
68.36671674130035
 30
0.0
 10
112.1965415387881
 20
68.34417723529995
 30
0.0
 10
112.0019468735224
 20
68.25960660330463
 30
0.0
 10
111.9130749606836
 20
68.19712495054581
 30
0.0
 10
111.6938826683577
 20
67.96773599907357
 30
0.0
 10
111.6102898203199
 20
67.75515266155116
 30
0.0
 10
111.6102898203199
 20
67.54321341695496
 30
0.0
  0
SPLINE
  5
90
330
1F
100
AcDbEntity
  8
0
  6
Continuous
 62
     7
370
    15
100
AcDbSpline
210
0.0
220
0.0
230
1.0
 70
    24
 71
     3
 72
    14
 73
    10
 74
     0
 42
0.00000001
 43
0.00000001
 40
0.0
 40
0.0
 40
0.0
 40
0.0
 40
0.25
 40
0.25
 40
0.5
 40
0.5
 40
0.75
 40
0.75
 40
1.0
 40
1.0
 40
1.0
 40
1.0
 10
111.6102898203199
 20
144.35639219935
 30
0.0
 10
111.6102898203199
 20
144.35639219935
 30
0.0
 10
111.6260041407859
 20
144.35639219935
 30
0.0
 10
111.6896881192543
 20
144.35639219935
 30
0.0
 10
111.7382913136647
 20
144.35639219935
 30
0.0
 10
111.8709748360903
 20
144.35639219935
 30
0.0
 10
111.956076940401
 20
144.35639219935
 30
0.0
 10
112.162519175311
 20
144.35639219935
 30
0.0
 10
112.286600116934
 20
144.35639219935
 30
0.0
 10
112.4102898203199
 20
144.35639219935
 30
0.0
  0
LINE
  5
91
330
1F
100
AcDbEntity
  8
0
  6
Continuous
 62
     7
370
    15
100
AcDbLine
 10
114.6302898203
 20
68.3667167413
 30
0.0
 11
112.4102898203
 21
68.3667167413
 31
0.0
  0
LINE
  5
92
330
1F
100
AcDbEntity
  8
0
  6
Continuous
 62
     7
370
    15
100
AcDbLine
 10
112.4102898203
 20
144.3563921993
 30
0.0
 11
114.6302898203
 21
144.3563921993
 31
0.0
  0
LINE
  5
93
330
1F
100
AcDbEntity
  8
0
  6
Continuous
 62
     7
370
    15
100
AcDbLine
 10
91.0202898203
 20
75.1241406963
 30
0.0
 11
91.0202898203
 21
150.8886437024
 31
0.0
  0
LINE
  5
94
330
1F
100
AcDbEntity
  8
0
  6
Continuous
 62
     7
370
    15
100
AcDbLine
 10
58.7202898203
 20
76.7423771693
 30
0.0
 11
58.7202898203
 21
79.137058934
 31
0.0
  0
SPLINE
  5
95
330
1F
100
AcDbEntity
  8
0
  6
Continuous
 62
     7
370
    15
100
AcDbSpline
210
0.0
220
0.0
230
1.0
 70
     8
 71
     3
 72
    14
 73
    10
 74
     0
 42
0.00000001
 43
0.00000001
 40
0.0
 40
0.0
 40
0.0
 40
0.0
 40
0.2500000000000008
 40
0.2500000000000008
 40
0.5000000000000006
 40
0.5000000000000006
 40
0.7500000000000003
 40
0.7500000000000003
 40
1.0
 40
1.0
 40
1.0
 40
1.0
 10
57.715867348983
 20
80.83991085560646
 30
0.0
 10
57.80463592692831
 20
80.6813767242985
 30
0.0
 10
57.92635376560726
 20
80.52893404740996
 30
0.0
 10
58.16140337546405
 20
80.23179942358104
 30
0.0
 10
58.27703356168096
 20
80.08711677996367
 30
0.0
 10
58.47743849510878
 20
79.80382757746027
 30
0.0
 10
58.56283878709309
 20
79.6652735844234
 30
0.0
 10
58.68454442081033
 20
79.39388955438987
 30
0.0
 10
58.72028982032296
 20
79.26175368575525
 30
0.0
 10
58.72028982032296
 20
79.1370589339845
 30
0.0
  0
SPLINE
  5
96
330
1F
100
AcDbEntity
  8
0
  6
Continuous
 62
     7
370
    15
100
AcDbSpline
210
0.0
220
0.0
230
1.0
 70
     8
 71
     3
 72
    14
 73
    10
 74
     0
 42
0.00000001
 43
0.00000001
 40
0.0
 40
0.0
 40
0.0
 40
0.0
 40
0.125000000000005
 40
0.125000000000005
 40
0.2500000000000099
 40
0.2500000000000099
 40
0.5000000000000063
 40
0.5000000000000063
 40
1.0
 40
1.0
 40
1.0
 40
1.0
 10
56.82028982031995
 20
81.46874079470659
 30
0.0
 10
56.88787212010443
 20
81.47589667980796
 30
0.0
 10
56.96035969785235
 20
81.47147220976898
 30
0.0
 10
57.0926508071183
 20
81.44176605199863
 30
0.0
 10
57.14992818650846
 20
81.41848177042039
 30
0.0
 10
57.29957861370877
 20
81.34099653057005
 30
0.0
 10
57.37329190923027
 20
81.27914470366869
 30
0.0
 10
57.56109989255648
 20
81.09446725102035
 30
0.0
 10
57.64514019891794
 20
80.96622432772915
 30
0.0
 10
57.7158673489842
 20
80.83991085560658
 30
0.0
  0
SPLINE
  5
97
330
1F
100
AcDbEntity
  8
0
  6
Continuous
 62
     7
370
    15
100
AcDbSpline
210
0.0
220
0.0
230
1.0
 70
     8
 71
     3
 72
     8
 73
     4
 74
     0
 42
0.00000001
 43
0.00000001
 40
0.0
 40
0.0
 40
0.0
 40
0.0
 40
1.0
 40
1.0
 40
1.0
 40
1.0
 10
53.27564943223903
 20
81.05069220991477
 30
0.0
 10
54.44094774294794
 20
81.2058796818014
 30
0.0
 10
55.62556295698781
 20
81.34223832011173
 30
0.0
 10
56.82028982031995
 20
81.46874079470659
 30
0.0
  0
SPLINE
  5
98
330
1F
100
AcDbEntity
  8
0
  6
Continuous
 62
     7
370
    15
100
AcDbSpline
210
0.0
220
0.0
230
1.0
 70
     8
 71
     3
 72
    14
 73
    10
 74
     0
 42
0.00000001
 43
0.00000001
 40
0.0
 40
0.0
 40
0.0
 40
0.0
 40
0.5000000000000001
 40
0.5000000000000001
 40
0.7499999999999989
 40
0.7499999999999989
 40
0.8749999999999996
 40
0.8749999999999996
 40
1.0
 40
1.0
 40
1.0
 40
1.0
 10
45.52021493628962
 20
80.76056003078486
 30
0.0
 10
46.82851649882362
 20
80.76757475452598
 30
0.0
 10
48.13357587348066
 20
80.78298333097047
 30
0.0
 10
50.07945192496935
 20
80.83687988643713
 30
0.0
 10
50.7261494287085
 20
80.85991145103982
 30
0.0
 10
51.68999179256302
 20
80.91085397591056
 30
0.0
 10
52.01023048449716
 20
80.93058889814375
 30
0.0
 10
52.6469257108397
 20
80.98007602661535
 30
0.0
 10
52.96364111912266
 20
81.00914080554459
 30
0.0
 10
53.27564943223906
 20
81.05069220991474
 30
0.0
  0
SPLINE
  5
99
330
1F
100
AcDbEntity
  8
0
  6
Continuous
 62
     7
370
    15
100
AcDbSpline
210
0.0
220
0.0
230
1.0
 70
     8
 71
     3
 72
    12
 73
     8
 74
     0
 42
0.00000001
 43
0.00000001
 40
0.0
 40
0.0
 40
0.0
 40
0.0
 40
0.2500000000000001
 40
0.2500000000000001
 40
0.5000000000000001
 40
0.5000000000000001
 40
1.0
 40
1.0
 40
1.0
 40
1.0
 10
51.82028982031996
 20
145.0929150908464
 30
0.0
 10
51.30159099849177
 20
145.1254378656947
 30
0.0
 10
50.77987942528678
 20
145.1487346068651
 30
0.0
 10
49.73358740879122
 20
145.1865801212872
 30
0.0
 10
49.20891578312094
 20
145.2008485957834
 30
0.0
 10
47.63206976058171
 20
145.2350580832417
 30
0.0
 10
46.57711444603482
 20
145.2465575871856
 30
0.0
 10
45.52021493628961
 20
145.2522243679151
 30
0.0
  0
SPLINE
  5
9A
330
1F
100
AcDbEntity
  8
0
  6
Continuous
 62
     7
370
    15
100
AcDbSpline
210
0.0
220
0.0
230
1.0
 70
     8
 71
     3
 72
    20
 73
    16
 74
     0
 42
0.00000001
 43
0.00000001
 40
0.0
 40
0.0
 40
0.0
 40
0.0
 40
0.2499999999999988
 40
0.2499999999999988
 40
0.4999999999999977
 40
0.4999999999999977
 40
0.7499999999999964
 40
0.7499999999999964
 40
0.8749999999999971
 40
0.8749999999999971
 40
0.9374999999999982
 40
0.9374999999999982
 40
0.9687499999999991
 40
0.9687499999999991
 40
1.0
 40
1.0
 40
1.0
 40
1.0
 10
53.72028982031996
 20
146.7510009363345
 30
0.0
 10
53.72028982031996
 20
146.6153186165878
 30
0.0
 10
53.67157803110332
 20
146.4742316304477
 30
0.0
 10
53.50241660787813
 20
146.1821599117172
 30
0.0
 10
53.38063619395982
 20
146.0305111696268
 30
0.0
 10
53.08308909921031
 20
145.7281027294736
 30
0.0
 10
52.90917649350753
 20
145.5755140933503
 30
0.0
 10
52.58976165962573
 20
145.3502433295081
 30
0.0
 10
52.47472088417848
 20
145.2755202349973
 30
0.0
 10
52.26763656016205
 20
145.1761098257403
 30
0.0
 10
52.19152872535567
 20
145.1445447333957
 30
0.0
 10
52.06013418580231
 20
145.1101013492028
 30
0.0
 10
52.01358096680084
 20
145.1010497774352
 30
0.0
 10
51.91724761572011
 20
145.0908741285967
 30
0.0
 10
51.86798819236468
 20
145.0899243699217
 30
0.0
 10
51.82028982031797
 20
145.0929150908362
 30
0.0
  0
LINE
  5
9B
330
1F
100
AcDbEntity
  8
0
  6
Continuous
 62
     7
370
    15
100
AcDbLine
 10
53.7202898203
 20
146.7510009363
 30
0.0
 11
53.7202898203
 21
149.0199062274
 31
0.0
  0
SPLINE
  5
9C
330
1F
100
AcDbEntity
  8
0
  6
Continuous
 62
     7
370
    15
100
AcDbSpline
210
0.0
220
0.0
230
1.0
 70
     8
 71
     3
 72
    22
 73
    18
 74
     0
 42
0.00000001
 43
0.00000001
 40
0.0
 40
0.0
 40
0.0
 40
0.0
 40
0.0002937850458186
 40
0.0628841327413374
 40
0.1261981682954104
 40
0.2510182590426629
 40
0.3131038291610295
 40
0.3757650688901447
 40
0.4382989835655121
 40
0.5000628079114054
 40
0.5617337561125819
 40
0.6246555685552126
 40
0.7491916976530685
 40
0.8115302181315633
 40
0.8745847230191042
 40
0.9378227588212174
 40
0.9999999999999999
 40
0.9999999999999999
 40
0.9999999999999999
 40
0.9999999999999999
 10
72.04024608415939
 20
76.07514694103762
 30
0.0
 10
72.04005123074916
 20
76.07512263371777
 30
0.0
 10
71.99834322726814
 20
76.06991969793113
 30
0.0
 10
72.14360633045445
 20
76.08853390581858
 30
0.0
 10
72.61375250762046
 20
76.14505985641476
 30
0.0
 10
73.58220859020662
 20
76.25128148584044
 30
0.0
 10
74.89466839977003
 20
76.33691429327139
 30
0.0
 10
76.02679210840057
 20
76.37557035937061
 30
0.0
 10
77.2489788850218
 20
76.37923166714907
 30
0.0
 10
78.51627727254291
 20
76.3368462523799
 30
0.0
 10
79.78298892677454
 20
76.2484692747032
 30
0.0
 10
81.3986469226443
 20
76.07842014608191
 30
0.0
 10
82.83860953267535
 20
75.8562384115259
 30
0.0
 10
83.90447868884101
 20
75.65324230339164
 30
0.0
 10
84.49367907227781
 20
75.5292168704421
 30
0.0
 10
84.8823985875639
 20
75.44429602999772
 30
0.0
 10
84.9291843003947
 20
75.43356931219336
 30
0.0
 10
84.95237929402252
 20
75.42825131795827
 30
0.0
  0
SPLINE
  5
9D
330
1F
100
AcDbEntity
  8
0
  6
Continuous
 62
     7
370
    15
100
AcDbSpline
210
0.0
220
0.0
230
1.0
 70
     8
 71
     3
 72
    41
 73
    37
 74
     0
 42
0.00000001
 43
0.00000001
 40
0.0
 40
0.0
 40
0.0
 40
0.0
 40
0.0619930061484559
 40
0.1254347783466237
 40
0.1886508898235997
 40
0.2510246408607235
 40
0.3131658188974684
 40
0.3756581641417405
 40
0.4382227146725277
 40
0.499804492294069
 40
0.5615164197174299
 40
0.6240683094121933
 40
0.6867257232409624
 40
0.7488365305144747
 40
0.8110685944254461
 40
0.8741742884451352
 40
0.9373212787639088
 40
0.9685511709612862
 40
0.9842086872484516
 40
0.9920641182530343
 40
0.996000486125458
 40
0.9979710794119774
 40
0.9989570090489371
 40
0.9994501359394937
 40
0.9996967403802097
 40
0.9998200529090677
 40
0.9998817117580786
 40
0.9999125418296593
 40
0.999927957027333
 40
0.9999356646666572
 40
0.9999395184964435
 40
0.9999414454138664
 40
0.999942408873212
 40
0.9999433723329776
 40
0.9999501697003241
 40
1.0
 40
1.0
 40
1.0
 40
1.0
 10
84.95225796354453
 20
150.5844880627902
 30
0.0
 10
84.92868631820113
 20
150.5791785831404
 30
0.0
 10
84.88099216215664
 20
150.5684355422008
 30
0.0
 10
84.48895017272963
 20
150.4832064057452
 30
0.0
 10
83.8984361234583
 20
150.3586376271045
 30
0.0
 10
83.09439867741558
 20
150.2056906809528
 30
0.0
 10
82.11832327723424
 20
150.0439341269994
 30
0.0
 10
80.99651454195583
 20
149.8917013590673
 30
0.0
 10
79.78298362216749
 20
149.7639214178658
 30
0.0
 10
78.51815291577125
 20
149.6760728661832
 30
0.0
 10
77.25010987832698
 20
149.6336873823126
 30
0.0
 10
76.02660252062559
 20
149.6374231902841
 30
0.0
 10
74.89310398020628
 20
149.6760186607315
 30
0.0
 10
73.90699816923416
 20
149.7404580320233
 30
0.0
 10
73.09837036045064
 20
149.8139678393048
 30
0.0
 10
72.5017516653392
 20
149.8812815241159
 30
0.0
 10
72.18636037588128
 20
149.9192460753839
 30
0.0
 10
72.07629380708407
 20
149.933045134716
 30
0.0
 10
72.04887441926908
 20
149.9365312086367
 30
0.0
 10
72.04195236843906
 20
149.9374104343301
 30
0.0
 10
72.04018412825528
 20
149.9376312089364
 30
0.0
 10
72.03972374908177
 20
149.9376864116471
 30
0.0
 10
72.03959959039688
 20
149.9377001514342
 30
0.0
 10
72.03956403590364
 20
149.9377035472652
 30
0.0
 10
72.03955289183355
 20
149.9377043755855
 30
0.0
 10
72.03954897863741
 20
149.9377045721743
 30
0.0
 10
72.0395474364326
 20
149.9377046161043
 30
0.0
 10
72.03954676943108
 20
149.9377046244111
 30
0.0
 10
72.03954646125334
 20
149.9377046252413
 30
0.0
 10
72.03954631448727
 20
149.9377046246962
 30
0.0
 10
72.03954624153484
 20
149.9377046243663
 30
0.0
 10
72.03954620714244
 20
149.937704623929
 30
0.0
 10
72.03954618489728
 20
149.9377046240175
 30
0.0
 10
72.03954615778785
 20
149.9377046211825
 30
0.0
 10
72.03954363822672
 20
149.9377049080377
 30
0.0
 10
72.03957972814491
 20
149.937700287937
 30
0.0
 10
72.03961148596814
 20
149.9376962224154
 30
0.0
  0
SPLINE
  5
9E
330
1F
100
AcDbEntity
  8
0
  6
Continuous
 62
     7
370
    15
100
AcDbSpline
210
0.0
220
0.0
230
1.0
 70
     8
 71
     3
 72
    20
 73
    16
 74
     0
 42
0.00000001
 43
0.00000001
 40
0.0
 40
0.0
 40
0.0
 40
0.0
 40
0.249999999999986
 40
0.249999999999986
 40
0.3749999999999789
 40
0.3749999999999789
 40
0.4374999999999789
 40
0.4374999999999789
 40
0.4999999999999789
 40
0.4999999999999789
 40
0.6249999999999835
 40
0.6249999999999835
 40
0.7499999999999879
 40
0.7499999999999879
 40
1.0
 40
1.0
 40
1.0
 40
1.0
 10
43.91110405203597
 20
82.3279090466493
 30
0.0
 10
43.93737626924937
 20
82.34722698773176
 30
0.0
 10
43.96805641150421
 20
82.36161569883353
 30
0.0
 10
44.03952728188614
 20
82.35471133699751
 30
0.0
 10
44.06755431893048
 20
82.34754533364911
 30
0.0
 10
44.12263790842798
 20
82.31784630694551
 30
0.0
 10
44.14352923698041
 20
82.30437266438418
 30
0.0
 10
44.18873788442587
 20
82.26917439886816
 30
0.0
 10
44.21314209682144
 20
82.2472661701409
 30
0.0
 10
44.28447441487288
 20
82.17514131014536
 30
0.0
 10
44.32637119969316
 20
82.1228007691953
 30
0.0
 10
44.39794715854903
 20
82.02531737729456
 30
0.0
 10
44.42877514836632
 20
81.97856360741613
 30
0.0
 10
44.5118750812019
 20
81.84527039157702
 30
0.0
 10
44.5567299865722
 20
81.76263299366181
 30
0.0
 10
44.59684206202477
 20
81.68352609887103
 30
0.0
  0
SPLINE
  5
9F
330
1F
100
AcDbEntity
  8
0
  6
Continuous
 62
     7
370
    15
100
AcDbSpline
210
0.0
220
0.0
230
1.0
 70
     8
 71
     3
 72
    14
 73
    10
 74
     0
 42
0.00000001
 43
0.00000001
 40
0.0
 40
0.0
 40
0.0
 40
0.0
 40
0.2499999999999994
 40
0.2499999999999994
 40
0.4999999999999988
 40
0.4999999999999988
 40
0.7499999999999982
 40
0.7499999999999982
 40
1.0
 40
1.0
 40
1.0
 40
1.0
 10
43.62028982031995
 20
82.50372245678207
 30
0.0
 10
43.62028982031995
 20
82.46247552575772
 30
0.0
 10
43.62889953670121
 20
82.42556855347524
 30
0.0
 10
43.65998571627156
 20
82.36466849357583
 30
0.0
 10
43.68237526975563
 20
82.34048757403615
 30
0.0
 10
43.73711920093174
 20
82.30651998315287
 30
0.0
 10
43.76956944051692
 20
82.2965998991847
 30
0.0
 10
43.83957095524499
 20
82.29524869027985
 30
0.0
 10
43.87778145536751
 20
82.303406966976
 30
0.0
 10
43.91110405204061
 20
82.3279090466441
 30
0.0
  0
LINE
  5
A0
330
1F
100
AcDbEntity
  8
0
  6
Continuous
 62
     7
370
    15
100
AcDbLine
 10
43.6202898203
 20
82.5037224568
 30
0.0
 11
43.6202898203
 21
143.5090619419
 31
0.0
  0
SPLINE
  5
A1
330
1F
100
AcDbEntity
  8
0
  6
Continuous
 62
     7
370
    15
100
AcDbSpline
210
0.0
220
0.0
230
1.0
 70
     8
 71
     3
 72
    12
 73
     8
 74
     0
 42
0.00000001
 43
0.00000001
 40
0.0
 40
0.0
 40
0.0
 40
0.0
 40
0.0592077505114064
 40
0.3503612113849183
 40
0.644012000323884
 40
0.9432672693652688
 40
1.0
 40
1.0
 40
1.0
 40
1.0
 10
43.9111040520406
 20
143.6848753520559
 30
0.0
 10
43.90626816869213
 20
143.6881479956756
 30
0.0
 10
43.87765188225246
 20
143.7075138282417
 30
0.0
 10
43.81965354421211
 20
143.7214797254061
 30
0.0
 10
43.7476533037518
 20
143.7104066975908
 30
0.0
 10
43.69901361474107
 20
143.6891063936812
 30
0.0
 10
43.6822287426786
 20
143.6662050235064
 30
0.0
 10
43.67955378839274
 20
143.6625553014189
 30
0.0
  0
SPLINE
  5
A2
330
1F
100
AcDbEntity
  8
0
  6
Continuous
 62
     7
370
    15
100
AcDbSpline
210
0.0
220
0.0
230
1.0
 70
     8
 71
     3
 72
     8
 73
     4
 74
     0
 42
0.00000001
 43
0.00000001
 40
0.0
 40
0.0
 40
0.0
 40
0.0
 40
1.0
 40
1.0
 40
1.0
 40
1.0
 10
43.64392348925617
 20
143.6166414429876
 30
0.0
 10
43.62857445062013
 20
143.5861313879917
 30
0.0
 10
43.62028982031995
 20
143.5498198324793
 30
0.0
 10
43.62028982031995
 20
143.5090619419179
 30
0.0
  0
SPLINE
  5
A3
330
1F
100
AcDbEntity
  8
0
  6
Continuous
 62
     7
370
    15
100
AcDbSpline
210
0.0
220
0.0
230
1.0
 70
     8
 71
     3
 72
    20
 73
    16
 74
     0
 42
0.00000001
 43
0.00000001
 40
0.0
 40
0.0
 40
0.0
 40
0.0
 40
0.2500000000000037
 40
0.2500000000000037
 40
0.3750000000000055
 40
0.3750000000000055
 40
0.5000000000000073
 40
0.5000000000000073
 40
0.5625000000000057
 40
0.5625000000000057
 40
0.625000000000004
 40
0.625000000000004
 40
0.7500000000000027
 40
0.7500000000000027
 40
1.0
 40
1.0
 40
1.0
 40
1.0
 10
44.59684206202238
 20
144.3292582998282
 30
0.0
 10
44.55684584419856
 20
144.2503798932707
 30
0.0
 10
44.5117322163609
 20
144.1672502465792
 30
0.0
 10
44.42847800199437
 20
144.0337615822282
 30
0.0
 10
44.39825867337387
 20
143.9878965263463
 30
0.0
 10
44.32617043823245
 20
143.8897049739414
 30
0.0
 10
44.28425312082135
 20
143.8373951544178
 30
0.0
 10
44.21300251626989
 20
143.7653892516833
 30
0.0
 10
44.18876670389057
 20
143.7436190393817
 30
0.0
 10
44.14316851370592
 20
143.7081443810527
 30
0.0
 10
44.12236602410621
 20
143.6947741968752
 30
0.0
 10
44.06742502568709
 20
143.66520428474
 30
0.0
 10
44.03935603760029
 20
143.658077762438
 30
0.0
 10
43.96885320753745
 20
143.6512033909553
 30
0.0
 10
43.93742911974658
 20
143.6655185500424
 30
0.0
 10
43.91110405203798
 20
143.684875352053
 30
0.0
  0
SPLINE
  5
A4
330
1F
100
AcDbEntity
  8
0
  6
Continuous
 62
     7
370
    15
100
AcDbSpline
210
0.0
220
0.0
230
1.0
 70
     8
 71
     3
 72
    10
 73
     6
 74
     0
 42
0.00000001
 43
0.00000001
 40
0.0
 40
0.0
 40
0.0
 40
0.0
 40
0.4999999999999989
 40
0.4999999999999989
 40
1.0
 40
1.0
 40
1.0
 40
1.0
 10
45.27028982031997
 20
145.25467740117
 30
0.0
 10
45.14540154956977
 20
145.1236811230985
 30
0.0
 10
45.02395143150932
 20
144.9799682864335
 30
0.0
 10
44.79436745655188
 20
144.6693979937443
 30
0.0
 10
44.6840924811559
 20
144.5013289206812
 30
0.0
 10
44.59684206202238
 20
144.3292582998282
 30
0.0
  0
SPLINE
  5
A5
330
1F
100
AcDbEntity
  8
0
  6
Continuous
 62
     7
370
    15
100
AcDbSpline
210
0.0
220
0.0
230
1.0
 70
     8
 71
     3
 72
     8
 73
     4
 74
     0
 42
0.00000001
 43
0.00000001
 40
0.0
 40
0.0
 40
0.0
 40
0.0
 40
1.0
 40
1.0
 40
1.0
 40
1.0
 10
45.52021493628573
 20
145.2522243679146
 30
0.0
 10
45.43319690643735
 20
145.2526909327017
 30
0.0
 10
45.3502428800574
 20
145.2537309522778
 30
0.0
 10
45.27028982031765
 20
145.2546774011701
 30
0.0
  0
SPLINE
  5
A6
330
1F
100
AcDbEntity
  8
0
  6
Continuous
 62
     7
370
    15
100
AcDbSpline
210
0.0
220
0.0
230
1.0
 70
     8
 71
     3
 72
     8
 73
     4
 74
     0
 42
0.00000001
 43
0.00000001
 40
0.0
 40
0.0
 40
0.0
 40
0.0
 40
1.0
 40
1.0
 40
1.0
 40
1.0
 10
45.27028982031765
 20
80.75810699752992
 30
0.0
 10
45.35024288005742
 20
80.75905344642217
 30
0.0
 10
45.43319690643738
 20
80.7600934659983
 30
0.0
 10
45.52021493628575
 20
80.76056003078538
 30
0.0
  0
SPLINE
  5
A7
330
1F
100
AcDbEntity
  8
0
  6
Continuous
 62
     7
370
    15
100
AcDbSpline
210
0.0
220
0.0
230
1.0
 70
     8
 71
     3
 72
    10
 73
     6
 74
     0
 42
0.00000001
 43
0.00000001
 40
0.0
 40
0.0
 40
0.0
 40
0.0
 40
0.4999999999999989
 40
0.4999999999999989
 40
1.0
 40
1.0
 40
1.0
 40
1.0
 10
44.59684206202145
 20
81.6835260988736
 30
0.0
 10
44.68409248115493
 20
81.51145547802022
 30
0.0
 10
44.79436745655109
 20
81.34338640495677
 30
0.0
 10
45.02395143150892
 20
81.03281611226699
 30
0.0
 10
45.14540154956956
 20
80.8891032756017
 30
0.0
 10
45.27028982031997
 20
80.75810699752999
 30
0.0
  0
SPLINE
  5
A8
330
1F
100
AcDbEntity
  8
0
  6
Continuous
 62
     7
370
    15
100
AcDbSpline
210
0.0
220
0.0
230
1.0
 70
     8
 71
     3
 72
     8
 73
     4
 74
     0
 42
0.00000001
 43
0.00000001
 40
0.0
 40
0.0
 40
0.0
 40
0.0
 40
1.0
 40
1.0
 40
1.0
 40
1.0
 10
110.2582607993986
 20
151.9573549602369
 30
0.0
 10
110.7151871531981
 20
150.9414369905626
 30
0.0
 10
111.1663927950011
 20
149.9226411614715
 30
0.0
 10
111.61028982032
 20
148.9018397054878
 30
0.0
  0
LINE
  5
A9
330
1F
100
AcDbEntity
  8
0
  6
Continuous
 62
     7
370
    15
100
AcDbLine
 10
111.6102898203
 20
148.9018397055
 30
0.0
 11
111.6102898203
 21
147.7206273918
 31
0.0
  0
SPLINE
  5
AA
330
1F
100
AcDbEntity
  8
0
  6
Continuous
 62
     7
370
    15
100
AcDbSpline
210
0.0
220
0.0
230
1.0
 70
     8
 71
     3
 72
    14
 73
    10
 74
     0
 42
0.00000001
 43
0.00000001
 40
0.0
 40
0.0
 40
0.0
 40
0.0
 40
0.25
 40
0.25
 40
0.5
 40
0.5
 40
0.75
 40
0.75
 40
1.0
 40
1.0
 40
1.0
 40
1.0
 10
111.6102898203199
 20
147.720627391847
 30
0.0
 10
111.6102898203199
 20
147.5967605150578
 30
0.0
 10
111.6261489479475
 20
147.4725008382203
 30
0.0
 10
111.6895105934674
 20
147.2348924758145
 30
0.0
 10
111.7381003015168
 20
147.118112091062
 30
0.0
 10
111.8703859062916
 20
146.909309562453
 30
0.0
 10
111.9557106975522
 20
146.8147988588604
 30
0.0
 10
112.1626019458584
 20
146.6768420580581
 30
0.0
 10
112.2865698917484
 20
146.6349236124224
 30
0.0
 10
112.4102898203199
 20
146.6349236124224
 30
0.0
  0
LINE
  5
AB
330
1F
100
AcDbEntity
  8
0
  6
Continuous
 62
     7
370
    15
100
AcDbLine
 10
112.4102898203
 20
146.6349236124
 30
0.0
 11
114.6302898203
 21
146.6349236124
 31
0.0
  0
SPLINE
  5
AC
330
1F
100
AcDbEntity
  8
0
  6
Continuous
 62
     7
370
    15
100
AcDbSpline
210
0.0
220
0.0
230
1.0
 70
     8
 71
     3
 72
    12
 73
     8
 74
     0
 42
0.00000001
 43
0.00000001
 40
0.0
 40
0.0
 40
0.0
 40
0.0
 40
0.250000000000002
 40
0.250000000000002
 40
0.500000000000004
 40
0.500000000000004
 40
1.0
 40
1.0
 40
1.0
 40
1.0
 10
114.630289820322
 20
146.6349236124225
 30
0.0
 10
114.7539907703018
 20
146.6349236124229
 30
0.0
 10
114.8780873825717
 20
146.6769172241558
 30
0.0
 10
115.0847425456581
 20
146.8147125508004
 30
0.0
 10
115.1697833123848
 20
146.9086861492652
 30
0.0
 10
115.3692618808578
 20
147.2234743554859
 30
0.0
 10
115.43028982032
 20
147.4737133477131
 30
0.0
 10
115.43028982032
 20
147.720627391847
 30
0.0
  0
LINE
  5
AD
330
1F
100
AcDbEntity
  8
0
  6
Continuous
 62
     7
370
    15
100
AcDbLine
 10
115.4302898203
 20
147.7206273918
 30
0.0
 11
115.4302898203
 21
148.9018397055
 31
0.0
  0
SPLINE
  5
AE
330
1F
100
AcDbEntity
  8
0
  6
Continuous
 62
     7
370
    15
100
AcDbSpline
210
0.0
220
0.0
230
1.0
 70
     8
 71
     3
 72
     8
 73
     4
 74
     0
 42
0.00000001
 43
0.00000001
 40
0.0
 40
0.0
 40
0.0
 40
0.0
 40
1.0
 40
1.0
 40
1.0
 40
1.0
 10
115.43028982032
 20
148.9018397054878
 30
0.0
 10
115.8744398313455
 20
149.9232229364395
 30
0.0
 10
116.3255141416034
 20
150.9417074732078
 30
0.0
 10
116.7823188412413
 20
151.9573549602369
 30
0.0
  0
LINE
  5
AF
330
1F
100
AcDbEntity
  8
0
  6
Continuous
 62
     7
370
    15
100
AcDbLine
 10
116.7823188412
 20
151.9573549602
 30
0.0
 11
121.4702898203
 21
151.9573549602
 31
0.0
  0
SPLINE
  5
B0
330
1F
100
AcDbEntity
  8
0
  6
Continuous
 62
     7
370
    15
100
AcDbSpline
210
0.0
220
0.0
230
1.0
 70
     8
 71
     3
 72
    16
 73
    12
 74
     0
 42
0.00000001
 43
0.00000001
 40
0.0
 40
0.0
 40
0.0
 40
0.0
 40
0.125
 40
0.125
 40
0.25
 40
0.25
 40
0.5
 40
0.5
 40
0.75
 40
0.75
 40
1.0
 40
1.0
 40
1.0
 40
1.0
 10
121.470289820319
 20
151.9573549602369
 30
0.0
 10
121.5459275267302
 20
151.957354960237
 30
0.0
 10
121.6222431911484
 20
151.9460099601021
 30
0.0
 10
121.7666539290406
 20
151.9033574094638
 30
0.0
 10
121.835100378149
 20
151.872423084781
 30
0.0
 10
122.0300316307624
 20
151.7531667130135
 30
0.0
 10
122.1378728045434
 20
151.6430146993929
 30
0.0
 10
122.3065855527556
 20
151.3948786137348
 30
0.0
 10
122.3689499654792
 20
151.254536289731
 30
0.0
 10
122.4502538899877
 20
150.9662645982422
 30
0.0
 10
122.47028982032
 20
150.8154596252623
 30
0.0
 10
122.47028982032
 20
150.6650897339169
 30
0.0
  0
LINE
  5
B1
330
1F
100
AcDbEntity
  8
0
  6
Continuous
 62
     7
370
    15
100
AcDbLine
 10
122.4702898203
 20
150.6650897339
 30
0.0
 11
122.4702898203
 21
144.3563921993
 31
0.0
  0
LINE
  5
B2
330
1F
100
AcDbEntity
  8
0
  6
Continuous
 62
     7
370
    15
100
AcDbLine
 10
121.4702898203
 20
161.996187055
 30
0.0
 11
116.7823188412
 21
161.996187055
 31
0.0
  0
LINE
  5
B3
330
1F
100
AcDbEntity
  8
0
  6
Continuous
 62
     7
370
    15
100
AcDbLine
 10
116.7823188412
 20
151.9573549602
 30
0.0
 11
116.7823188412
 21
161.996187055
 31
0.0
  0
SPLINE
  5
B4
330
1F
100
AcDbEntity
  8
0
  6
Continuous
 62
     7
370
    15
100
AcDbSpline
210
0.0
220
0.0
230
1.0
 70
     8
 71
     3
 72
    14
 73
    10
 74
     0
 42
0.00000001
 43
0.00000001
 40
0.0
 40
0.0
 40
0.0
 40
0.0
 40
0.25
 40
0.25
 40
0.5
 40
0.5
 40
0.75
 40
0.75
 40
1.0
 40
1.0
 40
1.0
 40
1.0
 10
115.43028982032
 20
158.699943440198
 30
0.0
 10
115.43028982032
 20
158.5935867464456
 30
0.0
 10
115.4099022641787
 20
158.4877462586855
 30
0.0
 10
115.3312679187171
 20
158.291181345149
 30
0.0
 10
115.2725365590785
 20
158.2000106028619
 30
0.0
 10
115.1259276534759
 20
158.0480995138302
 30
0.0
 10
115.0365223334493
 20
157.9860306770107
 30
0.0
 10
114.8426316008489
 20
157.902762629252
 30
0.0
 10
114.7361266109591
 20
157.8806679595224
 30
0.0
 10
114.6302898203197
 20
157.8806679595224
 30
0.0
  0
SPLINE
  5
B5
330
1F
100
AcDbEntity
  8
0
  6
Continuous
 62
     7
370
    15
100
AcDbSpline
210
0.0
220
0.0
230
1.0
 70
     8
 71
     3
 72
    10
 73
     6
 74
     0
 42
0.00000001
 43
0.00000001
 40
0.0
 40
0.0
 40
0.0
 40
0.0
 40
0.5
 40
0.5
 40
1.0
 40
1.0
 40
1.0
 40
1.0
 10
112.4102898203199
 20
157.8806679595224
 30
0.0
 10
112.1977535064636
 20
157.8806679595224
 30
0.0
 10
111.9878173348096
 20
157.9720805461526
 30
0.0
 10
111.6941101937983
 20
158.2768254120568
 30
0.0
 10
111.6102898203199
 20
158.4889803819655
 30
0.0
 10
111.6102898203199
 20
158.699943440198
 30
0.0
  0
SPLINE
  5
B6
330
1F
100
AcDbEntity
  8
0
  6
Continuous
 62
     7
370
    15
100
AcDbSpline
210
0.0
220
0.0
230
1.0
 70
     8
 71
     3
 72
    12
 73
     8
 74
     0
 42
0.00000001
 43
0.00000001
 40
0.0
 40
0.0
 40
0.0
 40
0.0
 40
0.5
 40
0.5
 40
0.75
 40
0.75
 40
1.0
 40
1.0
 40
1.0
 40
1.0
 10
122.47028982032
 20
160.9751320201958
 30
0.0
 10
122.47028982032
 20
161.2404014529622
 30
0.0
 10
122.3656830768335
 20
161.5029165586146
 30
0.0
 10
122.0890147250882
 20
161.7884541646519
 30
0.0
 10
121.9786494657362
 20
161.8647757815133
 30
0.0
 10
121.7345774171205
 20
161.9691179463534
 30
0.0
 10
121.6028249557887
 20
161.9961870550136
 30
0.0
 10
121.47028982032
 20
161.9961870550136
 30
0.0
  0
LINE
  5
B7
330
1F
100
AcDbEntity
  8
0
  6
Continuous
 62
     7
370
    15
100
AcDbLine
 10
122.4702898203
 20
150.6650897339
 30
0.0
 11
122.4702898203
 21
160.9751320202
 31
0.0
  0
SPLINE
  5
B8
330
1F
100
AcDbEntity
  8
0
  6
Continuous
 62
     7
370
    15
100
AcDbSpline
210
0.0
220
0.0
230
1.0
 70
     8
 71
     3
 72
     8
 73
     4
 74
     0
 42
0.00000001
 43
0.00000001
 40
0.0
 40
0.0
 40
0.0
 40
0.0
 40
1.0
 40
1.0
 40
1.0
 40
1.0
 10
116.7823188412413
 20
161.9961870550136
 30
0.0
 10
116.3312918725281
 20
161.1988764848257
 30
0.0
 10
115.8805980560045
 20
160.4013781851685
 30
0.0
 10
115.43028982032
 20
159.6036630600549
 30
0.0
  0
LINE
  5
B9
330
1F
100
AcDbEntity
  8
0
  6
Continuous
 62
     7
370
    15
100
AcDbLine
 10
115.4302898203
 20
148.9018397055
 30
0.0
 11
115.4302898203
 21
159.6036630601
 31
0.0
  0
SPLINE
  5
BA
330
1F
100
AcDbEntity
  8
0
  6
Continuous
 62
     7
370
    15
100
AcDbSpline
210
0.0
220
0.0
230
1.0
 70
     8
 71
     3
 72
     8
 73
     4
 74
     0
 42
0.00000001
 43
0.00000001
 40
0.0
 40
0.0
 40
0.0
 40
0.0
 40
1.0
 40
1.0
 40
1.0
 40
1.0
 10
111.61028982032
 20
159.6036630600549
 30
0.0
 10
111.1599815846354
 20
160.4013781851685
 30
0.0
 10
110.7092877681118
 20
161.1988764848257
 30
0.0
 10
110.2582607993985
 20
161.9961870550136
 30
0.0
  0
LINE
  5
BB
330
1F
100
AcDbEntity
  8
0
  6
Continuous
 62
     7
370
    15
100
AcDbLine
 10
111.6102898203
 20
148.9018397055
 30
0.0
 11
111.6102898203
 21
159.6036630601
 31
0.0
  0
LINE
  5
BC
330
1F
100
AcDbEntity
  8
0
  6
Continuous
 62
     7
370
    15
100
AcDbLine
 10
114.6302898203
 20
157.8806679595
 30
0.0
 11
112.4102898203
 21
157.8806679595
 31
0.0
  0
ARC
  5
BD
330
1F
100
AcDbEntity
  8
0
  6
Continuous
 62
     7
370
    15
100
AcDbCircle
 10
102.5205470988
 20
145.6019465902
 30
0.0
 40
11.42053516404074
100
AcDbArc
 50
77.6340603254
 51
102.4327561028
  0
SPLINE
  5
BE
330
1F
100
AcDbEntity
  8
0
  6
Continuous
 62
     7
370
    15
100
AcDbSpline
210
0.0
220
0.0
230
1.0
 70
     8
 71
     3
 72
    70
 73
    66
 74
     0
 42
0.00000001
 43
0.00000001
 40
-0.0312499999999999
 40
-0.0312499999999999
 40
0.0
 40
0.0
 40
0.03125
 40
0.03125
 40
0.0625
 40
0.0625
 40
0.09375
 40
0.09375
 40
0.125
 40
0.125
 40
0.15625
 40
0.15625
 40
0.1875000000000001
 40
0.1875000000000001
 40
0.2187500000000001
 40
0.2187500000000001
 40
0.2500000000000001
 40
0.2500000000000001
 40
0.2812500000000001
 40
0.2812500000000001
 40
0.3125000000000001
 40
0.3125000000000001
 40
0.3437500000000001
 40
0.3437500000000001
 40
0.3750000000000001
 40
0.3750000000000001
 40
0.4062500000000001
 40
0.4062500000000001
 40
0.4375000000000001
 40
0.4375000000000001
 40
0.4687500000000001
 40
0.4687500000000001
 40
0.5
 40
0.5
 40
0.53125
 40
0.53125
 40
0.5625
 40
0.5625
 40
0.59375
 40
0.59375
 40
0.625
 40
0.625
 40
0.65625
 40
0.65625
 40
0.6875
 40
0.6875
 40
0.71875
 40
0.71875
 40
0.75
 40
0.75
 40
0.7812500000000001
 40
0.7812500000000001
 40
0.8125000000000001
 40
0.8125000000000001
 40
0.8437500000000001
 40
0.8437500000000001
 40
0.8750000000000001
 40
0.8750000000000001
 40
0.9062500000000001
 40
0.9062500000000001
 40
0.9375000000000001
 40
0.9375000000000001
 40
0.9687500000000001
 40
0.9687500000000001
 40
1.0
 40
1.0
 40
1.03125
 40
1.03125
 10
159.9577699985279
 20
115.1374059642075
 30
0.0
 10
160.2967427276205
 20
115.4055926106391
 30
0.0
 10
160.4761057620135
 20
115.521708665417
 30
0.0
 10
160.8526964200736
 20
115.7216512995961
 30
0.0
 10
161.0510694910422
 20
115.8057960866442
 30
0.0
 10
161.4609778629913
 20
115.9398813112664
 30
0.0
 10
161.6692431389225
 20
115.9889705194196
 30
0.0
 10
162.0920941957449
 20
116.0530091777758
 30
0.0
 10
162.3084321579398
 20
116.0678836719072
 30
0.0
 10
162.739027945043
 20
116.0620533121447
 30
0.0
 10
162.9517487334991
 20
116.0416950514564
 30
0.0
 10
163.3721223523687
 20
115.9666202270364
 30
0.0
 10
163.5814644564059
 20
115.9112783553533
 30
0.0
 10
163.9864679750753
 20
115.766316865158
 30
0.0
 10
164.1803068215018
 20
115.677711300376
 30
0.0
 10
164.5504699122437
 20
115.4677018898892
 30
0.0
 10
164.7282727184511
 20
115.3450772842457
 30
0.0
 10
165.0572350568387
 20
115.0683060882159
 30
0.0
 10
165.206198287184
 20
114.9164949571769
 30
0.0
 10
165.4716874267982
 20
114.5846231875278
 30
0.0
 10
165.5895175142403
 20
114.4018730631322
 30
0.0
 10
165.7801083850535
 20
114.0165968990361
 30
0.0
 10
165.8525771466323
 20
113.8162527836712
 30
0.0
 10
165.9495117602157
 20
113.3993044293735
 30
0.0
 10
165.9732373175273
 20
113.1806690445845
 30
0.0
 10
165.9667355899177
 20
112.7521307454676
 30
0.0
 10
165.9371695832251
 20
112.5375461400215
 30
0.0
 10
165.826854137288
 20
112.1189604130392
 30
0.0
 10
165.7478199812145
 20
111.919598460793
 30
0.0
 10
165.5457127752129
 20
111.539123626073
 30
0.0
 10
165.4228547092721
 20
111.3596298186094
 30
0.0
 10
165.1461794369307
 20
111.0325046771852
 30
0.0
 10
164.989619107383
 20
110.8816164868656
 30
0.0
 10
164.653275587794
 20
110.6138489158085
 30
0.0
 10
164.4740730285477
 20
110.4968130236496
 30
0.0
 10
164.0948975081222
 20
110.2942438064412
 30
0.0
 10
163.8946451181955
 20
110.2090847689326
 30
0.0
 10
163.4876769260976
 20
110.0751411021217
 30
0.0
 10
163.2792617246477
 20
110.0253570244428
 30
0.0
 10
162.8525613879411
 20
109.9600591012106
 30
0.0
 10
162.6361897094396
 20
109.9451385839474
 30
0.0
 10
162.2081665590369
 20
109.9503561256163
 30
0.0
 10
161.994921563607
 20
109.9702214647015
 30
0.0
 10
161.5700156806322
 20
110.0456699279551
 30
0.0
 10
161.3605667995379
 20
110.1011705326883
 30
0.0
 10
160.9584259773195
 20
110.2447418868813
 30
0.0
 10
160.7640614066508
 20
110.3330552846967
 30
0.0
 10
160.3896584140338
 20
110.5452081122903
 30
0.0
 10
160.2113744609787
 20
110.6685567086978
 30
0.0
 10
159.8854862297831
 20
110.9426116143149
 30
0.0
 10
159.7359663662837
 20
111.0942782265994
 30
0.0
 10
159.4669691536915
 20
111.4305950360016
 30
0.0
 10
159.3497814188132
 20
111.6133511890116
 30
0.0
 10
159.1609609798753
 20
111.9953472309268
 30
0.0
 10
159.0874786557625
 20
112.1973133223674
 30
0.0
 10
158.9897086011845
 20
112.6208267029018
 30
0.0
 10
158.9671721701644
 20
112.8340946820789
 30
0.0
 10
158.9740914933654
 20
113.2636159239886
 30
0.0
 10
159.0046851877741
 20
113.4816060184855
 30
0.0
 10
159.1149947710176
 20
113.8970749853184
 30
0.0
 10
159.195373750532
 20
114.0992510520184
 30
0.0
 10
159.3991423664397
 20
114.4805261439513
 30
0.0
 10
159.5207395037745
 20
114.6574121538752
 30
0.0
 10
159.7999906763168
 20
114.9861745353885
 30
0.0
 10
159.9577699985279
 20
115.1374059642075
 30
0.0
 10
160.2967427276205
 20
115.4055926106391
 30
0.0
  0
CIRCLE
  5
BF
330
1F
100
AcDbEntity
  8
0
  6
Continuous
 62
     7
370
    15
100
AcDbCircle
 10
162.4702898203
 20
113.0063921993
 30
0.0
 40
2.499999999999986
  0
LINE
  5
C0
330
1F
100
AcDbEntity
  8
0
  6
Continuous
 62
     7
370
    15
100
AcDbLine
 10
171.4702898203
 20
94.5063921994
 30
0.0
 11
171.4702898203
 21
131.5063921994
 31
0.0
  0
SPLINE
  5
C1
330
1F
100
AcDbEntity
  8
0
  6
Continuous
 62
     7
370
    15
100
AcDbSpline
210
0.0
220
0.0
230
1.0
 70
     8
 71
     3
 72
    36
 73
    32
 74
     0
 42
0.00000001
 43
0.00000001
 40
0.0
 40
0.0
 40
0.0
 40
0.0
 40
0.0357613722576533
 40
0.0587513450644426
 40
0.0798388081700859
 40
0.1226632230220705
 40
0.1444303390643943
 40
0.1669146488119489
 40
0.2125050862170851
 40
0.235635018685651
 40
0.2609851458266378
 40
0.3123834852203742
 40
0.3384625442801779
 40
0.3669656416325642
 40
0.4248179541335058
 40
0.4542164102240707
 40
0.4848436370423828
 40
0.5470974981364458
 40
0.5787958321522276
 40
0.6099841110857984
 40
0.6413962239135059
 40
0.6735357952132703
 40
0.7059378823974445
 40
0.7360124283565403
 40
0.7973900325835208
 40
0.8288324257838948
 40
0.8556704492915478
 40
0.9105528265500118
 40
0.9387354336579359
 40
0.9616844615909629
 40
0.9999999999999999
 40
0.9999999999999999
 40
0.9999999999999999
 40
0.9999999999999999
 10
165.9636043576381
 20
131.5054421622168
 30
0.0
 10
165.9616914776621
 20
131.5051658817782
 30
0.0
 10
165.9585488613574
 20
131.5047119884749
 30
0.0
 10
165.9051578553476
 20
131.4971726643602
 30
0.0
 10
165.8266032206405
 20
131.4862468955306
 30
0.0
 10
165.7141711668442
 20
131.4709774975702
 30
0.0
 10
165.5696307127603
 20
131.4522415526853
 30
0.0
 10
165.4001918105849
 20
131.4310434211835
 30
0.0
 10
165.1987240426364
 20
131.4073536661843
 30
0.0
 10
164.9660389838645
 20
131.3823443242282
 30
0.0
 10
164.7019684309427
 20
131.3559058499205
 30
0.0
 10
164.4050779940105
 20
131.3298392154599
 30
0.0
 10
164.080175400035
 20
131.3060833015307
 30
0.0
 10
163.7231534950934
 20
131.2837328954598
 30
0.0
 10
163.3385827845757
 20
131.2663029969077
 30
0.0
 10
162.9382441236916
 20
131.2557280796022
 30
0.0
 10
162.5188953986634
 20
131.2501005503699
 30
0.0
 10
162.0886938703551
 20
131.2531402638491
 30
0.0
 10
161.6641138978243
 20
131.2648237381055
 30
0.0
 10
161.3497331174451
 20
131.277681765677
 30
0.0
 10
161.0418735939995
 20
131.2942744504875
 30
0.0
 10
160.7406946137371
 20
131.3143293993075
 30
0.0
 10
160.4569173494534
 20
131.3367077017265
 30
0.0
 10
160.1059058984009
 20
131.368283475597
 30
0.0
 10
159.7912082050025
 20
131.4015688068941
 30
0.0
 10
159.5306922756817
 20
131.4322829716167
 30
0.0
 10
159.3148601239631
 20
131.4592022149458
 30
0.0
 10
159.150165977873
 20
131.4812478690941
 30
0.0
 10
159.0462908525335
 20
131.4956451223497
 30
0.0
 10
158.9837642332823
 20
131.5044628764103
 30
0.0
 10
158.9795187059378
 20
131.5050754105318
 30
0.0
 10
158.9768635061094
 20
131.5054584961564
 30
0.0
  0
SPLINE
  5
C2
330
1F
100
AcDbEntity
  8
0
  6
Continuous
 62
     7
370
    15
100
AcDbSpline
210
0.0
220
0.0
230
1.0
 70
     8
 71
     3
 72
    10
 73
     6
 74
     0
 42
0.00000001
 43
0.00000001
 40
0.0
 40
0.0
 40
0.0
 40
0.0
 40
0.0662302223956981
 40
0.531787478076347
 40
1.0
 40
1.0
 40
1.0
 40
1.0
 10
159.7365285168373
 20
131.4084345454757
 30
0.0
 10
159.7442385228841
 20
131.4075440504207
 30
0.0
 10
159.806145074354
 20
131.4003939291857
 30
0.0
 10
159.9350780014179
 20
131.3864436760047
 30
0.0
 10
160.0630755838122
 20
131.3736271932431
 30
0.0
 10
160.1272563618695
 20
131.3672007293974
 30
0.0
  0
SPLINE
  5
C3
330
1F
100
AcDbEntity
  8
0
  6
Continuous
 62
     7
370
    15
100
AcDbSpline
210
0.0
220
0.0
230
1.0
 70
     8
 71
     3
 72
    37
 73
    33
 74
     0
 42
0.00000001
 43
0.00000001
 40
0.0
 40
0.0
 40
0.0
 40
0.0
 40
0.024724503664581
 40
0.048051889920863
 40
0.0691161430317021
 40
0.1119071179046578
 40
0.1336660088391342
 40
0.1558752525102231
 40
0.2009126093896615
 40
0.2237645340798496
 40
0.2487139659497822
 40
0.2992967066616399
 40
0.3249593022007932
 40
0.3531019205296209
 40
0.410212779970225
 40
0.4392275574027583
 40
0.4696742445054776
 40
0.5315502554999197
 40
0.5630484658565249
 40
0.5942487587617664
 40
0.6256707381820337
 40
0.6578096998518149
 40
0.690205739199151
 40
0.7205295116672654
 40
0.7823931135550806
 40
0.8140676204320488
 40
0.8414015545304414
 40
0.8972950313940254
 40
0.9259977916749687
 40
0.9493583217592942
 40
0.9970427586930029
 40
1.0
 40
1.0
 40
1.0
 40
1.0
 10
158.98074606006
 20
94.50788006419751
 30
0.0
 10
158.9786772790056
 20
94.50758670700162
 30
0.0
 10
158.9746566183347
 20
94.5070165694621
 30
0.0
 10
159.0128938514634
 20
94.51244174179116
 30
0.0
 10
159.0792790951234
 20
94.52174218989151
 30
0.0
 10
159.1809231007639
 20
94.53570278774451
 30
0.0
 10
159.3148404245567
 20
94.55332752601338
 30
0.0
 10
159.4730035834876
 20
94.57348012381114
 30
0.0
 10
159.6630384561765
 20
94.59636815696507
 30
0.0
 10
159.8843893951457
 20
94.62090804219513
 30
0.0
 10
160.1364083804218
 20
94.64708790470723
 30
0.0
 10
160.4213222835305
 20
94.67335400649152
 30
0.0
 10
160.7350289578281
 20
94.69785271238075
 30
0.0
 10
161.0814342802032
 20
94.7213958858588
 30
0.0
 10
161.4566239614447
 20
94.74062632080924
 30
0.0
 10
161.8496958983172
 20
94.75351051586962
 30
0.0
 10
162.2641452774929
 20
94.76180030245845
 30
0.0
 10
162.6920977457749
 20
94.76168877362115
 30
0.0
 10
163.1173714122499
 20
94.7528704388861
 30
0.0
 10
163.4342879868576
 20
94.74202531112607
 30
0.0
 10
163.7465286377913
 20
94.7272177723587
 30
0.0
 10
164.0533125763414
 20
94.70869488011374
 30
0.0
 10
164.3446378223185
 20
94.68743668879455
 30
0.0
 10
164.7083290453496
 20
94.65671132785457
 30
0.0
 10
165.0384678709924
 20
94.623368519803
 30
0.0
 10
165.316756423798
 20
94.59164958764626
 30
0.0
 10
165.5518077300037
 20
94.56311419575641
 30
0.0
 10
165.7357970379719
 20
94.53894247985919
 30
0.0
 10
165.8603608326926
 20
94.52186421231302
 30
0.0
 10
165.9409062079591
 20
94.51059989060478
 30
0.0
 10
165.9763168949878
 20
94.50553408844667
 30
0.0
 10
165.969413535047
 20
94.50651692083825
 30
0.0
 10
165.9690104105479
 20
94.50657431373374
 30
0.0
  0
LINE
  5
C4
330
1F
100
AcDbEntity
  8
0
  6
Continuous
 62
     7
370
    15
100
AcDbLine
 10
45.2702898203
 20
80.7563921993
 30
0.0
 11
45.2702898203
 21
80.7581069975
 31
0.0
  0
LINE
  5
C5
330
1F
100
AcDbEntity
  8
0
  6
Continuous
 62
     7
370
    15
100
AcDbLine
 10
209.0485732437
 20
96.0063921993
 30
0.0
 11
209.0485732437
 21
130.0063921994
 31
0.0
  0
LINE
  5
C6
330
1F
100
AcDbEntity
  8
0
  6
Continuous
 62
     7
370
    15
100
AcDbLine
 10
45.2702898203
 20
145.2563921993
 30
0.0
 11
45.2702898203
 21
145.2546774012
 31
0.0
  0
SPLINE
  5
C7
330
1F
100
AcDbEntity
  8
0
  6
Continuous
 62
     7
370
    15
100
AcDbSpline
210
0.0
220
0.0
230
1.0
 70
     8
 71
     3
 72
    10
 73
     6
 74
     0
 42
0.00000001
 43
0.00000001
 40
0.0
 40
0.0
 40
0.0
 40
0.0
 40
0.1528193873564489
 40
0.853866209184454
 40
1.0
 40
1.0
 40
1.0
 40
1.0
 10
253.5059862755227
 20
124.8538740287578
 30
0.0
 10
253.5074164749414
 20
124.8429940131135
 30
0.0
 10
253.5154076007868
 20
124.7822027884212
 30
0.0
 10
253.5197315989974
 20
124.6947443812056
 30
0.0
 10
253.5202076962737
 20
124.6189193428536
 30
0.0
 10
253.5202898203199
 20
124.605839959157
 30
0.0
  0
LINE
  5
C8
330
1F
100
AcDbEntity
  8
0
  6
Continuous
 62
     7
370
    15
100
AcDbLine
 10
253.5202898203
 20
101.4069444395
 30
0.0
 11
253.5202898203
 21
124.6058399592
 31
0.0
  0
SPLINE
  5
C9
330
1F
100
AcDbEntity
  8
0
  6
Continuous
 62
     7
370
    15
100
AcDbSpline
210
0.0
220
0.0
230
1.0
 70
     8
 71
     3
 72
    11
 73
     7
 74
     0
 42
0.00000001
 43
0.00000001
 40
0.0
 40
0.0
 40
0.0
 40
0.0
 40
0.1334181906053011
 40
0.4898087576213033
 40
0.8770762407053301
 40
1.0
 40
1.0
 40
1.0
 40
1.0
 10
253.5202898203199
 20
101.406944439543
 30
0.0
 10
253.5195508542605
 20
101.3655838519956
 30
0.0
 10
253.5168379404825
 20
101.2137396551198
 30
0.0
 10
253.4858619629294
 20
100.9871160301927
 30
0.0
 10
253.4487615530932
 20
100.8308991402796
 30
0.0
 10
253.4382833949951
 20
100.7926449810626
 30
0.0
 10
253.4357588228799
 20
100.7834281528049
 30
0.0
  0
LINE
  5
CA
330
1F
100
AcDbEntity
  8
0
  6
Continuous
 62
     7
370
    15
100
AcDbLine
 10
253.4347020552
 20
100.8103246874
 30
0.0
 11
253.4468025103
 21
100.5023475372
 31
0.0
  0
LINE
  5
CB
330
1F
100
AcDbEntity
  8
0
  6
Continuous
 62
     7
370
    15
100
AcDbLine
 10
253.5202898203
 20
102.7569708683
 30
0.0
 11
253.5976120275
 21
100.7889892814
 31
0.0
  0
LINE
  5
CC
330
1F
100
AcDbEntity
  8
0
  6
Continuous
 62
     7
370
    15
100
AcDbLine
 10
253.3879127867
 20
125.5127506451
 30
0.0
 11
253.3823484717
 21
125.3711293701
 31
0.0
  0
LINE
  5
CD
330
1F
100
AcDbEntity
  8
0
  6
Continuous
 62
     7
370
    15
100
AcDbLine
 10
253.5323079558
 20
125.0628528423
 30
0.0
 11
253.5182544448
 21
124.7051671009
 31
0.0
  0
LINE
  5
CE
330
1F
100
AcDbEntity
  8
0
  6
Continuous
 62
     7
370
    15
100
AcDbLine
 10
253.5387223038
 20
125.2261089008
 30
0.0
 11
253.5323079558
 21
125.0628528423
 31
0.0
  0
SPLINE
  5
CF
330
1F
100
AcDbEntity
  8
0
  6
HIDDEN
 62
     7
370
     0
100
AcDbSpline
210
0.0
220
0.0
230
1.0
 70
     8
 71
     3
 72
    80
 73
    76
 74
     0
 42
0.00000001
 43
0.00000001
 40
-0.0312500000000007
 40
-0.0312500000000007
 40
0.0
 40
0.0
 40
0.0312499999999999
 40
0.0312499999999999
 40
0.0468749999999997
 40
0.0468749999999997
 40
0.0624999999999995
 40
0.0624999999999995
 40
0.0937499999999991
 40
0.0937499999999991
 40
0.1249999999999987
 40
0.1249999999999987
 40
0.1562499999999983
 40
0.1562499999999983
 40
0.1874999999999979
 40
0.1874999999999979
 40
0.2187499999999975
 40
0.2187499999999975
 40
0.2499999999999971
 40
0.2499999999999971
 40
0.2812499999999969
 40
0.2812499999999969
 40
0.3124999999999967
 40
0.3124999999999967
 40
0.3281249999999967
 40
0.3281249999999967
 40
0.3437499999999967
 40
0.3437499999999967
 40
0.3749999999999966
 40
0.3749999999999966
 40
0.4062499999999966
 40
0.4062499999999966
 40
0.4218749999999964
 40
0.4218749999999964
 40
0.4374999999999962
 40
0.4374999999999962
 40
0.4687499999999959
 40
0.4687499999999959
 40
0.4999999999999956
 40
0.4999999999999956
 40
0.5312499999999952
 40
0.5312499999999952
 40
0.5624999999999949
 40
0.5624999999999949
 40
0.5937499999999946
 40
0.5937499999999946
 40
0.6249999999999942
 40
0.6249999999999942
 40
0.6562499999999939
 40
0.6562499999999939
 40
0.6874999999999936
 40
0.6874999999999936
 40
0.7031249999999936
 40
0.7031249999999936
 40
0.7187499999999937
 40
0.7187499999999937
 40
0.7499999999999942
 40
0.7499999999999942
 40
0.7812499999999947
 40
0.7812499999999947
 40
0.7968749999999951
 40
0.7968749999999951
 40
0.8124999999999954
 40
0.8124999999999954
 40
0.8437499999999962
 40
0.8437499999999962
 40
0.874999999999997
 40
0.874999999999997
 40
0.9062499999999978
 40
0.9062499999999978
 40
0.9374999999999986
 40
0.9374999999999986
 40
0.9687499999999993
 40
0.9687499999999993
 40
1.0
 40
1.0
 40
1.03125
 40
1.03125
 10
102.1897445075437
 20
161.865941455828
 30
0.0
 10
102.8508351330963
 20
161.865941455828
 30
0.0
 10
103.1758152623479
 20
161.8590433100011
 30
0.0
 10
103.6552886735943
 20
161.8385168820206
 30
0.0
 10
103.8137704914351
 20
161.8299606549331
 30
0.0
 10
104.1279900239394
 20
161.8092342797154
 30
0.0
 10
104.2841103076198
 20
161.7970069795091
 30
0.0
 10
104.7381643365764
 20
161.7554376856799
 30
0.0
 10
105.0252677195162
 20
161.721093400582
 30
0.0
 10
105.5686222755432
 20
161.6377692762598
 30
0.0
 10
105.8257258867488
 20
161.5883310534853
 30
0.0
 10
106.2866321416876
 20
161.4769513237254
 30
0.0
 10
106.4935298509026
 20
161.4146568102132
 30
0.0
 10
106.8590551648947
 20
161.2747271673422
 30
0.0
 10
107.0142606870207
 20
161.1981112695932
 30
0.0
 10
107.2636910736204
 20
161.0341526497375
 30
0.0
 10
107.3597810294056
 20
160.9455957956417
 30
0.0
 10
107.4882998785992
 20
160.758115113536
 30
0.0
 10
107.5201107487769
 20
160.6608786520815
 30
0.0
 10
107.5204673985502
 20
160.4592460127545
 30
0.0
 10
107.4879701463531
 20
160.3536972209163
 30
0.0
 10
107.3603446726387
 20
160.1435824382278
 30
0.0
 10
107.2659162715868
 20
160.0385169302589
 30
0.0
 10
107.0780554516012
 20
159.8816392230078
 30
0.0
 10
107.007227452798
 20
159.8292054893021
 30
0.0
 10
106.8525055608328
 20
159.7267670436723
 30
0.0
 10
106.7685290906494
 20
159.6766193150205
 30
0.0
 10
106.4972054210049
 20
159.529603358587
 30
0.0
 10
106.2906562024026
 20
159.4361155381525
 30
0.0
 10
105.8240460622136
 20
159.2603286805382
 30
0.0
 10
105.5716804925881
 20
159.1809502054545
 30
0.0
 10
105.1657791509094
 20
159.0754677679604
 30
0.0
 10
105.0258785334319
 20
159.0425822031203
 30
0.0
 10
104.736654598185
 20
158.9816667238916
 30
0.0
 10
104.5868151418957
 20
158.9535861522492
 30
0.0
 10
104.1326985722849
 20
158.8787841102064
 30
0.0
 10
103.8210473535481
 20
158.8407460519603
 30
0.0
 10
103.1800508886357
 20
158.7891341254362
 30
0.0
 10
102.8485232606835
 20
158.7758201919147
 30
0.0
 10
102.195732215612
 20
158.7757231055866
 30
0.0
 10
101.8711960105802
 20
158.7885111907477
 30
0.0
 10
101.2259265611638
 20
158.8400013803436
 30
0.0
 10
100.9101835550011
 20
158.8785259596637
 30
0.0
 10
100.3082942600174
 20
158.9774285225218
 30
0.0
 10
100.0175450292059
 20
159.0385326204467
 30
0.0
 10
99.47063323752143
 20
159.1803420535574
 30
0.0
 10
99.21885587368452
 20
159.2596765381366
 30
0.0
 10
98.75746788106339
 20
159.4330552827981
 30
0.0
 10
98.54619860146529
 20
159.5282152275521
 30
0.0
 10
98.1828942490891
 20
159.724787750928
 30
0.0
 10
98.0290876006463
 20
159.8265439793344
 30
0.0
 10
97.84046813104891
 20
159.9833299421199
 30
0.0
 10
97.7844376448398
 20
160.0365839758699
 30
0.0
 10
97.68886388310364
 20
160.1423885374226
 30
0.0
 10
97.64910096607863
 20
160.1950416017782
 30
0.0
 10
97.5533292157665
 20
160.3521153212373
 30
0.0
 10
97.5206063766404
 20
160.4556403565645
 30
0.0
 10
97.5199777903113
 20
160.6598550907916
 30
0.0
 10
97.55216393504607
 20
160.7573589283764
 30
0.0
 10
97.64707463690166
 20
160.896685978728
 30
0.0
 10
97.68654142030061
 20
160.9420027102325
 30
0.0
 10
97.7814714190215
 20
161.0304425312213
 30
0.0
 10
97.83722824678487
 20
161.0736967816813
 30
0.0
 10
98.02516836475475
 20
161.1975882562712
 30
0.0
 10
98.17852983447094
 20
161.2732905470453
 30
0.0
 10
98.54079406935129
 20
161.4125449185035
 30
0.0
 10
98.7516425428172
 20
161.4763067600322
 30
0.0
 10
99.21231251313611
 20
161.5878035995
 30
0.0
 10
99.46368689271993
 20
161.6363296718167
 30
0.0
 10
100.0095947796181
 20
161.7203836551972
 30
0.0
 10
100.3004173542693
 20
161.7551822088639
 30
0.0
 10
100.9017439690493
 20
161.8103786736277
 30
0.0
 10
101.2162625536617
 20
161.8311965223816
 30
0.0
 10
101.8628440097817
 20
161.8590438552923
 30
0.0
 10
102.1897445075437
 20
161.865941455828
 30
0.0
 10
102.8508351330963
 20
161.865941455828
 30
0.0
  0
LINE
  5
D0
330
1F
100
AcDbEntity
  8
0
  6
HIDDEN
 62
     7
370
     0
100
AcDbLine
 10
110.2582607994
 20
151.9573549602
 30
0.0
 11
110.2582607994
 21
144.3563921993
 31
0.0
  0
SPLINE
  5
D1
330
1F
100
AcDbEntity
  8
0
  6
HIDDEN
 62
     7
370
     0
100
AcDbSpline
210
0.0
220
0.0
230
1.0
 70
     8
 71
     3
 72
     9
 73
     5
 74
     0
 42
0.00000001
 43
0.00000001
 40
0.0
 40
0.0
 40
0.0
 40
0.0
 40
0.5038163044187015
 40
1.0
 40
1.0
 40
1.0
 40
1.0
 10
73.93371456974731
 20
76.27058583707586
 30
0.0
 10
73.6500353850072
 20
76.24643266297707
 30
0.0
 10
73.08697463796088
 20
76.1984922253871
 30
0.0
 10
72.73061359615257
 20
76.15717987710116
 30
0.0
 10
72.55379305746692
 20
76.1366813634555
 30
0.0
  0
SPLINE
  5
D2
330
1F
100
AcDbEntity
  8
0
  6
HIDDEN
 62
     7
370
     0
100
AcDbSpline
210
0.0
220
0.0
230
1.0
 70
     8
 71
     3
 72
    12
 73
     8
 74
     0
 42
0.00000001
 43
0.00000001
 40
0.0
 40
0.0
 40
0.0
 40
0.0
 40
0.1661348616725355
 40
0.3322013257383251
 40
0.5008932044678458
 40
0.7521370782640883
 40
1.0
 40
1.0
 40
1.0
 40
1.0
 10
72.03961148596812
 20
149.9376962224154
 30
0.0
 10
72.05000411007501
 20
149.936318098354
 30
0.0
 10
72.07078507965262
 20
149.933562417604
 30
0.0
 10
72.24408456910056
 20
149.9119590426421
 30
0.0
 10
72.56603615834516
 20
149.8740940907002
 30
0.0
 10
73.0872019942651
 20
149.8137103239839
 30
0.0
 10
73.65275993410287
 20
149.7659171868345
 30
0.0
 10
73.93362335779092
 20
149.7421824937411
 30
0.0
  0
SPLINE
  5
D3
330
1F
100
AcDbEntity
  8
0
  6
HIDDEN
 62
     7
370
     0
100
AcDbSpline
210
0.0
220
0.0
230
1.0
 70
     8
 71
     3
 72
    33
 73
    29
 74
     0
 42
0.00000001
 43
0.00000001
 40
0.0
 40
0.0
 40
0.0
 40
0.0
 40
0.0315773698875104
 40
0.0633753287769057
 40
0.0958656851178231
 40
0.1285943208117605
 40
0.1601713694082662
 40
0.2244011681247345
 40
0.2571344568799636
 40
0.2885965627565487
 40
0.3526214070085076
 40
0.3852675959519929
 40
0.4162212184009612
 40
0.4791910353915302
 40
0.5112817741273479
 40
0.5421256322990662
 40
0.6048360558905652
 40
0.6367710793564881
 40
0.6680663384719832
 40
0.7316979547407203
 40
0.7641081282919966
 40
0.7957194290717577
 40
0.8275524266255816
 40
0.8600900250720824
 40
0.8928737620729298
 40
0.9241775068323748
 40
0.9878778414776339
 40
1.0
 40
1.0
 40
1.0
 40
1.0
 10
83.773495475511
 20
81.64006997860292
 30
0.0
 10
83.68962432850574
 20
81.65394371698464
 30
0.0
 10
83.52129613856181
 20
81.68178811106941
 30
0.0
 10
83.2219415422203
 20
81.7282207512998
 30
0.0
 10
82.88794207496146
 20
81.77683335332063
 30
0.0
 10
82.52217211307418
 20
81.82598128650788
 30
0.0
 10
81.9987921983853
 20
81.8900470721005
 30
0.0
 10
81.42236498979072
 20
81.94982858650563
 30
0.0
 10
80.80722784293917
 20
81.99982819396969
 30
0.0
 10
80.17091211685626
 20
82.04196818665311
 30
0.0
 10
79.50713157941755
 20
82.07060291139112
 30
0.0
 10
78.83506582783444
 20
82.08286236247474
 30
0.0
 10
78.1656172444027
 20
82.084191653583
 30
0.0
 10
77.50043267728874
 20
82.06933113067356
 30
0.0
 10
76.85414143839824
 20
82.03947316628438
 30
0.0
 10
76.22495148753988
 20
82.0007299382231
 30
0.0
 10
75.62523579536061
 20
81.95015170446324
 30
0.0
 10
75.06693622923879
 20
81.8917516899967
 30
0.0
 10
74.53674135885123
 20
81.82942845862718
 30
0.0
 10
74.05757465653964
 20
81.76401988409162
 30
0.0
 10
73.64265667134478
 20
81.70123098048565
 30
0.0
 10
73.36538428741875
 20
81.65672638166427
 30
0.0
 10
73.12382900185757
 20
81.6160174322293
 30
0.0
 10
72.91833699750916
 20
81.5799603015798
 30
0.0
 10
72.75417257376492
 20
81.55020327662746
 30
0.0
 10
72.59473862719963
 20
81.52061796320304
 30
0.0
 10
72.51650039925102
 20
81.50566868419818
 30
0.0
 10
72.52422518959584
 20
81.5071411067994
 30
0.0
 10
72.52546019426528
 20
81.50737651108957
 30
0.0
  0
SPLINE
  5
D4
330
1F
100
AcDbEntity
  8
0
  6
HIDDEN
 62
     7
370
     0
100
AcDbSpline
210
0.0
220
0.0
230
1.0
 70
     8
 71
     3
 72
    32
 73
    28
 74
     0
 42
0.00000001
 43
0.00000001
 40
0.0
 40
0.0
 40
0.0
 40
0.0
 40
0.020356822172105
 40
0.0512207857583794
 40
0.1139954454389432
 40
0.1459779869097674
 40
0.1769364677636727
 40
0.2398766914470389
 40
0.2719275468465721
 40
0.3033698011481659
 40
0.3673099924152954
 40
0.3998847012176188
 40
0.4314690120325909
 40
0.4957360700021212
 40
0.5285028301030422
 40
0.5596434488300034
 40
0.6230067766607702
 40
0.6553079823205556
 40
0.6861132872619372
 40
0.748756262689177
 40
0.7806634244345373
 40
0.8117607067089885
 40
0.8749825776111492
 40
0.9071778073885584
 40
0.9301738434827028
 40
0.9765719131095674
 40
1.0
 40
1.0
 40
1.0
 40
1.0
 10
72.52546019426528
 20
144.5054078876104
 30
0.0
 10
72.52510314235903
 20
144.5054753665373
 30
0.0
 10
72.52420474677254
 20
144.5056451535319
 30
0.0
 10
72.58679849332516
 20
144.4937509123446
 30
0.0
 10
72.72860967478869
 20
144.467104035425
 30
0.0
 10
72.9526542666642
 20
144.4267219640124
 30
0.0
 10
73.22719638249842
 20
144.3788527222619
 30
0.0
 10
73.57588767150598
 20
144.3213828369821
 30
0.0
 10
73.99216363388338
 20
144.2588882899276
 30
0.0
 10
74.45375768074616
 20
144.1943626082883
 30
0.0
 10
74.97729562984132
 20
144.1297822313051
 30
0.0
 10
75.54949310429606
 20
144.0710268664202
 30
0.0
 10
76.15169947474804
 20
144.0176540100381
 30
0.0
 10
76.79292598152952
 20
143.9747914482058
 30
0.0
 10
77.45401129952567
 20
143.9467274021848
 30
0.0
 10
78.12072225397223
 20
143.9291387446451
 30
0.0
 10
78.79461147457917
 20
143.9276920964043
 30
0.0
 10
79.45896095852696
 20
143.9426176355421
 30
0.0
 10
80.1104952326866
 20
143.9676243607658
 30
0.0
 10
80.7411544453426
 20
144.0067284034477
 30
0.0
 10
81.33869342116508
 20
144.0568295612314
 30
0.0
 10
81.91269138911983
 20
144.1130007277145
 30
0.0
 10
82.44364110251313
 20
144.1759147564034
 30
0.0
 10
82.88702198377723
 20
144.2360182584569
 30
0.0
 10
83.23854263135085
 20
144.2869079754422
 30
0.0
 10
83.52821014132772
 20
144.3320304519801
 30
0.0
 10
83.71187290572541
 20
144.3624934638675
 30
0.0
 10
83.773495475511
 20
144.3727144200971
 30
0.0
  0
SPLINE
  5
D5
330
1F
100
AcDbEntity
  8
0
  6
HIDDEN
 62
     7
370
     0
100
AcDbSpline
210
0.0
220
0.0
230
1.0
 70
     8
 71
     3
 72
    13
 73
     9
 74
     0
 42
0.00000001
 43
0.00000001
 40
0.0
 40
0.0
 40
0.0
 40
0.0
 40
0.1623799816591789
 40
0.3258962967501759
 40
0.4929818113643412
 40
0.6612959817031199
 40
0.8237063551432365
 40
1.0
 40
1.0
 40
1.0
 40
1.0
 10
83.773495475511
 20
144.3727144200971
 30
0.0
 10
83.84908498446835
 20
144.385090192354
 30
0.0
 10
84.00079297698476
 20
144.409928342394
 30
0.0
 10
84.18369187682964
 20
144.4371866903177
 30
0.0
 10
84.33275412627206
 20
144.4583065379662
 30
0.0
 10
84.43670466671529
 20
144.4722929657015
 30
0.0
 10
84.51203661183264
 20
144.4820859391423
 30
0.0
 10
84.50380681316554
 20
144.4810146021189
 30
0.0
 10
84.49952324661454
 20
144.4804569768811
 30
0.0
  0
SPLINE
  5
D6
330
1F
100
AcDbEntity
  8
0
  6
HIDDEN
 62
     7
370
     0
100
AcDbSpline
210
0.0
220
0.0
230
1.0
 70
     8
 71
     3
 72
    13
 73
     9
 74
     0
 42
0.00000001
 43
0.00000001
 40
0.0
 40
0.0
 40
0.0
 40
0.0
 40
0.1540223516861439
 40
0.3222978879394845
 40
0.4885662367489577
 40
0.6560437831874956
 40
0.8273549263198314
 40
0.9999999999999999
 40
0.9999999999999999
 40
0.9999999999999999
 40
0.9999999999999999
 10
84.4995228953388
 20
81.53232746726071
 30
0.0
 10
84.50470856630822
 20
81.53165563782406
 30
0.0
 10
84.51555978876195
 20
81.530249808046
 30
0.0
 10
84.44621835045312
 20
81.53923670091758
 30
0.0
 10
84.34610088624015
 20
81.55265081705332
 30
0.0
 10
84.19957311821013
 20
81.57329136542043
 30
0.0
 10
84.01335922031483
 20
81.6008568263349
 30
0.0
 10
83.85365651005925
 20
81.62696517672352
 30
0.0
 10
83.773495475511
 20
81.64006997860292
 30
0.0
  0
LINE
  5
D7
330
1F
100
AcDbEntity
  8
0
  6
HIDDEN
 62
     7
370
     0
100
AcDbLine
 10
63.5169141473
 20
86.5063921993
 30
0.0
 11
63.5169141473
 21
139.5063921993
 31
0.0
  0
LINE
  5
D8
330
1F
100
AcDbEntity
  8
0
  6
HIDDEN
 62
     7
370
     0
100
AcDbLine
 10
102.8043674387
 20
86.5063921994
 30
0.0
 11
102.8043674387
 21
139.5063921993
 31
0.0
  0
LINE
  5
D9
330
1F
100
AcDbEntity
  8
0
  6
HIDDEN
 62
     7
370
     0
100
AcDbLine
 10
105.9702898203
 20
88.1313921993
 30
0.0
 11
105.9702898203
 21
137.8813921994
 31
0.0
  0
SPLINE
  5
DA
330
1F
100
AcDbEntity
  8
0
  6
HIDDEN
 62
     7
370
     0
100
AcDbSpline
210
0.0
220
0.0
230
1.0
 70
     8
 71
     3
 72
    20
 73
    16
 74
     0
 42
0.00000001
 43
0.00000001
 40
0.0
 40
0.0
 40
0.0
 40
0.0
 40
0.2499999999999963
 40
0.2499999999999963
 40
0.3749999999999969
 40
0.3749999999999969
 40
0.4999999999999976
 40
0.4999999999999976
 40
0.6249999999999981
 40
0.6249999999999981
 40
0.7499999999999988
 40
0.7499999999999988
 40
0.8749999999999993
 40
0.8749999999999993
 40
1.0
 40
1.0
 40
1.0
 40
1.0
 10
53.72028982031996
 20
138.2349058297643
 30
0.0
 10
53.72028982031996
 20
138.155702843232
 30
0.0
 10
53.67330732510722
 20
138.0746066248291
 30
0.0
 10
53.53548573432966
 20
137.9544099330782
 30
0.0
 10
53.47920345041966
 20
137.9154832290761
 30
0.0
 10
53.34611859895246
 20
137.8402944966517
 30
0.0
 10
53.2682786567194
 20
137.8036522913098
 30
0.0
 10
53.09564630060504
 20
137.7360617584779
 30
0.0
 10
53.00125330351396
 20
137.7051035767023
 30
0.0
 10
52.79581599719882
 20
137.6495791553326
 30
0.0
 10
52.68346975721164
 20
137.6248706414994
 30
0.0
 10
52.451228893312
 20
137.5850744143911
 30
0.0
 10
52.33051825088928
 20
137.5696545769941
 30
0.0
 10
52.07944739162023
 20
137.5485746021545
 30
0.0
 10
51.94992539520446
 20
137.5430973571335
 30
0.0
 10
51.82028982031997
 20
137.5430973571335
 30
0.0
  0
LINE
  5
DB
330
1F
100
AcDbEntity
  8
0
  6
HIDDEN
 62
     7
370
     0
100
AcDbLine
 10
51.8202898203
 20
137.5430973571
 30
0.0
 11
45.2702898203
 21
137.5430973571
 31
0.0
  0
LINE
  5
DC
330
1F
100
AcDbEntity
  8
0
  6
HIDDEN
 62
     7
370
     0
100
AcDbLine
 10
45.2702898203
 20
88.4696870416
 30
0.0
 11
56.8202898203
 21
88.4696870416
 31
0.0
  0
SPLINE
  5
DD
330
1F
100
AcDbEntity
  8
0
  6
HIDDEN
 62
     7
370
     0
100
AcDbSpline
210
0.0
220
0.0
230
1.0
 70
     8
 71
     3
 72
    18
 73
    14
 74
     0
 42
0.00000001
 43
0.00000001
 40
0.0
 40
0.0
 40
0.0
 40
0.0
 40
0.1249999999999979
 40
0.1249999999999979
 40
0.2499999999999958
 40
0.2499999999999958
 40
0.4999999999999977
 40
0.4999999999999977
 40
0.7499999999999994
 40
0.7499999999999994
 40
0.8749999999999998
 40
0.8749999999999998
 40
1.0
 40
1.0
 40
1.0
 40
1.0
 10
56.82028982031995
 20
88.46968704156647
 30
0.0
 10
56.94975713327718
 20
88.46968704156649
 30
0.0
 10
57.0767678821738
 20
88.46433404297383
 30
0.0
 10
57.32613120337105
 20
88.44359607028504
 30
0.0
 10
57.44975485799949
 20
88.42792416603075
 30
0.0
 10
57.79878719493353
 20
88.36822943762866
 30
0.0
 10
58.00929895974033
 20
88.31046425794769
 30
0.0
 10
58.35321563743984
 20
88.1759424166702
 30
0.0
 10
58.48956603895765
 20
88.09827330316479
 30
0.0
 10
58.62660409552019
 20
87.97898216907744
 30
0.0
 10
58.66182311423307
 20
87.93806315994239
 30
0.0
 10
58.70844669117164
 20
87.85740716665235
 30
0.0
 10
58.72028982031996
 20
87.8174386464595
 30
0.0
 10
58.72028982031996
 20
87.77787856893569
 30
0.0
  0
LINE
  5
DE
330
1F
100
AcDbEntity
  8
0
  6
HIDDEN
 62
     7
370
     0
100
AcDbLine
 10
45.2702898203
 20
88.4696870416
 30
0.0
 11
45.2702898203
 21
137.5430973571
 31
0.0
  0
LWPOLYLINE
  5
DF
330
1F
100
AcDbEntity
  8
0
  6
HIDDEN
 62
     7
370
     0
100
AcDbPolyline
 90
       13
 70
   128
 43
0.0
 10
102.5202898203
 20
152.9501227626
 10
103.673369174
 20
153.0049409569
 10
104.7642857213
 20
153.1664402767
 10
105.7342278688
 20
153.4259142518
 10
106.5309057841
 20
153.7693745732
 10
107.1113703547
 20
154.1783052059
 10
107.4443285854
 20
154.6306605937
 10
107.5118306117
 20
155.1020541406
 10
107.3102373819
 20
155.5670728985
 10
106.8504168392
 20
156.0006475857
 10
106.1571580282
 20
156.3794040787
 10
105.2678347107
 20
156.6829235168
 10
104.9663082887
 20
156.7575225786
  0
LWPOLYLINE
  5
E0
330
1F
100
AcDbEntity
  8
0
  6
HIDDEN
 62
     7
370
     0
100
AcDbPolyline
 90
       13
 70
   128
 43
0.0
 10
100.061778314
 20
156.7546628286
 10
99.77274493
 20
156.6829235168
 10
98.8834216125
 20
156.3794040787
 10
98.1901628014
 20
156.0006475857
 10
97.7303422587
 20
155.5670728985
 10
97.528749029
 20
155.1020541406
 10
97.5962510553
 20
154.6306605937
 10
97.9292092859
 20
154.1783052059
 10
98.5096738565
 20
153.7693745732
 10
99.3063517719
 20
153.4259142518
 10
100.2762939193
 20
153.1664402767
 10
101.3672104666
 20
153.0049409569
 10
102.5202898203
 20
152.9501227626
  0
LINE
  5
E1
330
1F
100
AcDbEntity
  8
0
  6
HIDDEN
 62
     7
370
     0
100
AcDbLine
 10
45.2702898203
 20
85.6363921993
 30
0.0
 11
45.2702898203
 21
80.7581069975
 31
0.0
  0
LINE
  5
E2
330
1F
100
AcDbEntity
  8
0
  6
HIDDEN
 62
     7
370
     0
100
AcDbLine
 10
58.7202898203
 20
85.6363921993
 30
0.0
 11
58.7202898203
 21
79.137058934
 31
0.0
  0
LINE
  5
E3
330
1F
100
AcDbEntity
  8
0
  6
HIDDEN
 62
     7
370
     0
100
AcDbLine
 10
53.7202898203
 20
140.3763921993
 30
0.0
 11
53.7202898203
 21
146.7510009363
 31
0.0
  0
LINE
  5
E4
330
1F
100
AcDbEntity
  8
0
  6
HIDDEN
 62
     7
370
     0
100
AcDbLine
 10
45.2702898203
 20
140.3763921993
 30
0.0
 11
45.2702898203
 21
145.2546774012
 31
0.0
  0
SPLINE
  5
E5
330
1F
100
AcDbEntity
  8
0
  6
HIDDEN
 62
     7
370
     0
100
AcDbSpline
210
0.0
220
0.0
230
1.0
 70
     8
 71
     3
 72
    11
 73
     7
 74
     0
 42
0.00000001
 43
0.00000001
 40
0.0
 40
0.0
 40
0.0
 40
0.0
 40
0.0593037185345472
 40
0.4491306992698721
 40
0.8423299489303071
 40
1.0
 40
1.0
 40
1.0
 40
1.0
 10
253.4295163850905
 20
125.2522001935618
 30
0.0
 10
253.4287381081827
 20
125.2550455940799
 30
0.0
 10
253.4228439069344
 20
125.2765949463974
 30
0.0
 10
253.44838702913
 20
125.1852049527592
 30
0.0
 10
253.4851645695364
 20
125.0307608181848
 30
0.0
 10
253.5013528568736
 20
124.8932363437114
 30
0.0
 10
253.5059862755227
 20
124.8538740287578
 30
0.0
  0
SPLINE
  5
E6
330
1F
100
AcDbEntity
  8
0
  6
HIDDEN
 62
     7
370
     0
100
AcDbSpline
210
0.0
220
0.0
230
1.0
 70
     8
 71
     3
 72
     9
 73
     5
 74
     0
 42
0.00000001
 43
0.00000001
 40
0.0
 40
0.0
 40
0.0
 40
0.0
 40
0.291979855051041
 40
1.0
 40
1.0
 40
1.0
 40
1.0
 10
253.4357588228799
 20
100.7834281528049
 30
0.0
 10
253.4340113697897
 20
100.7768857858896
 30
0.0
 10
253.4280265285069
 20
100.7544788738987
 30
0.0
 10
253.4278561081741
 20
100.7542241968465
 30
0.0
 10
253.4277354471454
 20
100.754043880363
 30
0.0
  0
LINE
  5
E7
330
1F
100
AcDbEntity
  8
0
  6
HIDDEN
 62
     7
370
     0
100
AcDbLine
 10
117.8202898203
 20
100.0063921993
 30
0.0
 11
117.8202898203
 21
126.0063921994
 31
0.0
  0
LINE
  5
E8
330
1F
100
AcDbEntity
  8
0
  6
HIDDEN
 62
     7
370
     0
100
AcDbLine
 10
121.8202898203
 20
100.0063921993
 30
0.0
 11
121.8202898203
 21
126.0063921994
 31
0.0
  0
LINE
  5
E9
330
1F
100
AcDbEntity
  8
0
  6
HIDDEN
 62
     7
370
     0
100
AcDbLine
 10
106.7202898203
 20
101.7563921993
 30
0.0
 11
106.7202898203
 21
124.2563921994
 31
0.0
  0
ELLIPSE
  5
EA
330
1F
100
AcDbEntity
  8
0
  6
HIDDEN
 62
     7
370
     0
100
AcDbEllipse
 10
37.33561662
 20
113.0063921993
 30
0.0
 11
31.08108570811669
 21
1.421085471520200E-14
 31
0.0
210
0.0
220
0.0
230
1.0
 40
0.8164965809
 41
1.312649268214807
 42
1.367189972061492
  0
ELLIPSE
  5
EB
330
1F
100
AcDbEntity
  8
0
  6
HIDDEN
 62
     7
370
     0
100
AcDbEllipse
 10
37.33561662
 20
113.0063921993
 30
0.0
 11
31.08108570811669
 21
-1.421085471520200E-14
 31
0.0
210
0.0
220
0.0
230
1.0
 40
0.8164965809
 41
4.915995335118105
 42
4.970536038964791
  0
LINE
  5
EC
330
1F
100
AcDbEntity
  8
0
  6
HIDDEN
 62
     7
370
     0
100
AcDbLine
 10
122.4702898203
 20
69.1063921993
 30
0.0
 11
108.4702898203
 21
69.1063921993
 31
0.0
  0
LINE
  5
ED
330
1F
100
AcDbEntity
  8
0
  6
HIDDEN
 62
     7
370
     0
100
AcDbLine
 10
98.4702898203
 20
63.0163931996
 30
0.0
 11
98.4702898203
 21
69.1063921993
 31
0.0
  0
LINE
  5
EE
330
1F
100
AcDbEntity
  8
0
  6
HIDDEN
 62
     7
370
     0
100
AcDbLine
 10
108.4702898203
 20
69.1063921993
 30
0.0
 11
98.4702898203
 21
69.1063921993
 31
0.0
  0
LINE
  5
EF
330
1F
100
AcDbEntity
  8
0
  6
HIDDEN
 62
     7
370
     0
100
AcDbLine
 10
58.7202898203
 20
85.6363921993
 30
0.0
 11
58.7202898203
 21
87.7778785689
 31
0.0
  0
LINE
  5
F0
330
1F
100
AcDbEntity
  8
0
  6
HIDDEN
 62
     7
370
     0
100
AcDbLine
 10
45.2702898203
 20
85.6363921993
 30
0.0
 11
45.2702898203
 21
88.4696870416
 31
0.0
  0
LINE
  5
F1
330
1F
100
AcDbEntity
  8
0
  6
HIDDEN
 62
     7
370
     0
100
AcDbLine
 10
45.2702898203
 20
140.3763921993
 30
0.0
 11
45.2702898203
 21
137.5430973571
 31
0.0
  0
LINE
  5
F2
330
1F
100
AcDbEntity
  8
0
  6
HIDDEN
 62
     7
370
     0
100
AcDbLine
 10
53.7202898203
 20
140.3763921993
 30
0.0
 11
53.7202898203
 21
138.2349058298
 31
0.0
  0
LINE
  5
F3
330
1F
100
AcDbEntity
  8
0
  6
HIDDEN
 62
     7
370
     0
100
AcDbLine
 10
108.4702898203
 20
156.9063921993
 30
0.0
 11
98.4702898203
 21
156.9063921993
 31
0.0
  0
LINE
  5
F4
330
1F
100
AcDbEntity
  8
0
  6
HIDDEN
 62
     7
370
     0
100
AcDbLine
 10
122.4702898203
 20
156.9063921993
 30
0.0
 11
108.4702898203
 21
156.9063921993
 31
0.0
  0
LINE
  5
F5
330
1F
100
AcDbEntity
  8
0
  6
HIDDEN
 62
     7
370
     0
100
AcDbLine
 10
250.0202898203
 20
105.0063921993
 30
0.0
 11
250.0202898203
 21
121.0063921994
 31
0.0
  0
SPLINE
  5
F6
330
1F
100
AcDbEntity
  8
0
  6
HIDDEN
 62
     7
370
     0
100
AcDbSpline
210
0.0
220
0.0
230
1.0
 70
     8
 71
     3
 72
    23
 73
    19
 74
     0
 42
0.00000001
 43
0.00000001
 40
0.0
 40
0.0
 40
0.0
 40
0.0
 40
0.0521608099306097
 40
0.1046886969712371
 40
0.1583707063274018
 40
0.2124493706208724
 40
0.2646091962071451
 40
0.370672158828101
 40
0.4246933325732729
 40
0.4773899457097377
 40
0.584547351928421
 40
0.6391349684063315
 40
0.6921726394143315
 40
0.745583443798104
 40
0.8001800120110477
 40
0.8551904952692951
 40
0.9076472549536255
 40
1.0
 40
1.0
 40
1.0
 40
1.0
 10
206.02028982032
 20
121.1697248521334
 30
0.0
 10
206.0613285374885
 20
121.1699040531601
 30
0.0
 10
206.1436947781866
 20
121.1702637163249
 30
0.0
 10
206.2674275138757
 20
121.1731757801223
 30
0.0
 10
206.3908759895489
 20
121.1778163693505
 30
0.0
 10
206.5113517773378
 20
121.1841988804983
 30
0.0
 10
206.6665582229641
 20
121.1946453665365
 30
0.0
 10
206.8134789763157
 20
121.2076601608281
 30
0.0
 10
206.9488211977269
 20
121.222168571469
 30
0.0
 10
207.0761585038761
 20
121.2373245679726
 30
0.0
 10
207.1896630284916
 20
121.2527888664854
 30
0.0
 10
207.2861796145179
 20
121.2672017959835
 30
0.0
 10
207.3496294555043
 20
121.2771867558269
 30
0.0
 10
207.4037403856045
 20
121.2860744316512
 30
0.0
 10
207.4486536325652
 20
121.2937151384985
 30
0.0
 10
207.482514166912
 20
121.2996315962021
 30
0.0
 10
207.5130613175193
 20
121.3050777470729
 30
0.0
 10
207.5159686353442
 20
121.3056093191391
 30
0.0
 10
207.5178227869922
 20
121.3059483309988
 30
0.0
  0
LINE
  5
F7
330
1F
100
AcDbEntity
  8
0
  6
HIDDEN
 62
     7
370
     0
100
AcDbLine
 10
206.0639749228
 20
121.1700538726
 30
0.0
 11
205.8311683616
 21
121.1719585906
 31
0.0
  0
SPLINE
  5
F8
330
1F
100
AcDbEntity
  8
0
  6
HIDDEN
 62
     7
370
     0
100
AcDbSpline
210
0.0
220
0.0
230
1.0
 70
     8
 71
     3
 72
    22
 73
    18
 74
     0
 42
0.00000001
 43
0.00000001
 40
0.0
 40
0.0
 40
0.0
 40
0.0
 40
0.0425815284376842
 40
0.1483768289674529
 40
0.2022866901838542
 40
0.2542431738930289
 40
0.3598817548797387
 40
0.4136804920179695
 40
0.4663318528737939
 40
0.5733942825692109
 40
0.627931116262581
 40
0.6809797268595756
 40
0.7344009372476938
 40
0.789006161980729
 40
0.8440247925117494
 40
0.92140621390547
 40
1.0
 40
1.0
 40
1.0
 40
1.0
 10
204.5210350407579
 20
121.3062576419756
 30
0.0
 10
204.5214316936884
 20
121.3061860534749
 30
0.0
 10
204.5228138447333
 20
121.3059366008342
 30
0.0
 10
204.5483900692381
 20
121.3013190202329
 30
0.0
 10
204.5934778979798
 20
121.2934484310742
 30
0.0
 10
204.6519480134885
 20
121.2835119779416
 30
0.0
 10
204.7293373894046
 20
121.2709572159104
 30
0.0
 10
204.8243902725297
 20
121.2567438595718
 30
0.0
 10
204.9311278385402
 20
121.2417455825626
 30
0.0
 10
205.0541146783966
 20
121.2262324571621
 30
0.0
 10
205.1904009385632
 20
121.2115759616295
 30
0.0
 10
205.298589632088
 20
121.2013201093501
 30
0.0
 10
205.4119618323697
 20
121.1920874465708
 30
0.0
 10
205.5312168499373
 20
121.184051018701
 30
0.0
 10
205.6722021024754
 20
121.1767054435798
 30
0.0
 10
205.8356775601992
 20
121.1709391226078
 30
0.0
 10
205.9584343454733
 20
121.170131700935
 30
0.0
 10
206.02028982032
 20
121.1697248521334
 30
0.0
  0
SPLINE
  5
F9
330
1F
100
AcDbEntity
  8
0
  6
HIDDEN
 62
     7
370
     0
100
AcDbSpline
210
0.0
220
0.0
230
1.0
 70
     8
 71
     3
 72
    26
 73
    22
 74
     0
 42
0.00000001
 43
0.00000001
 40
0.0
 40
0.0
 40
0.0
 40
0.0
 40
0.0523380492945964
 40
0.1062088427487331
 40
0.1585427181480227
 40
0.2123661881672336
 40
0.2652199457772034
 40
0.3195833796766208
 40
0.3727962810944335
 40
0.4275841845265906
 40
0.4802162948249865
 40
0.5344127743211086
 40
0.5864276781625393
 40
0.6399360673622977
 40
0.6922592859480321
 40
0.7460571397006693
 40
0.799128986374357
 40
0.8537349720097503
 40
0.9068397926274319
 40
0.9615264322684884
 40
1.0
 40
1.0
 40
1.0
 40
1.0
 10
207.5202898203199
 20
104.70639219935
 30
0.0
 10
207.5163548548435
 20
104.707107943394
 30
0.0
 10
207.5083696865933
 20
104.7085603923797
 30
0.0
 10
207.4441853406557
 20
104.7199412032266
 30
0.0
 10
207.3428142903565
 20
104.7368986273326
 30
0.0
 10
207.2048334299062
 20
104.7580449650844
 30
0.0
 10
207.0322038176145
 20
104.7812774985449
 30
0.0
 10
206.8316042801382
 20
104.8037664264166
 30
0.0
 10
206.605255579005
 20
104.8232494402996
 30
0.0
 10
206.364203301695
 20
104.8370720124489
 30
0.0
 10
206.1117116816342
 20
104.8438540162725
 30
0.0
 10
205.8607772845169
 20
104.842781270978
 30
0.0
 10
205.6132326766889
 20
104.8340969421543
 30
0.0
 10
205.3799415581862
 20
104.8190192885284
 30
0.0
 10
205.1621691277859
 20
104.7989352824149
 30
0.0
 10
204.9687807077829
 20
104.7762623003065
 30
0.0
 10
204.8024215916198
 20
104.7531586049501
 30
0.0
 10
204.6706673470393
 20
104.7324882512582
 30
0.0
 10
204.5776222838345
 20
104.7166684232948
 30
0.0
 10
204.5261611481862
 20
104.707457402853
 30
0.0
 10
204.5248171415132
 20
104.7072102071784
 30
0.0
 10
204.5242620898101
 20
104.7071081196048
 30
0.0
  0
LINE
  5
FA
330
1F
100
AcDbEntity
  8
0
  6
HIDDEN
 62
     7
370
     0
100
AcDbLine
 10
204.0202898203
 20
105.1063921993
 30
0.0
 11
204.0202898203
 21
120.9063916716
 31
0.0
  0
LINE
  5
FB
330
1F
100
AcDbEntity
  8
0
  6
HIDDEN
 62
     7
370
     0
100
AcDbLine
 10
214.5202898203
 20
105.0063921993
 30
0.0
 11
214.5202898203
 21
121.0063921994
 31
0.0
  0
SPLINE
  5
FC
330
1F
100
AcDbEntity
  8
0
  6
HIDDEN
 62
     7
370
     0
100
AcDbSpline
210
0.0
220
0.0
230
1.0
 70
     8
 71
     3
 72
    30
 73
    26
 74
     0
 42
0.00000001
 43
0.00000001
 40
0.0
 40
0.0
 40
0.0
 40
0.0
 40
0.0531668058202276
 40
0.1125460448583103
 40
0.1779415820676537
 40
0.2129647235110639
 40
0.2495168671262004
 40
0.291281589847634
 40
0.3261230015740527
 40
0.3540373900248375
 40
0.3750221080318999
 40
0.4414779845106176
 40
0.5001940042389676
 40
0.5547072404138226
 40
0.6144498352304115
 40
0.6794734232704714
 40
0.7140294936834801
 40
0.7499255024786287
 40
0.791388893361869
 40
0.8260548988045775
 40
0.8539197350949332
 40
0.8749805502089562
 40
0.9411652363101328
 40
0.9999141591659438
 40
1.0
 40
1.0
 40
1.0
 40
1.0
 10
84.51986667360265
 20
75.90645520996024
 30
0.0
 10
84.5036651419988
 20
75.91135736254094
 30
0.0
 10
84.4693689627469
 20
75.92173447426956
 30
0.0
 10
84.16802234826767
 20
75.99739574185173
 30
0.0
 10
83.7258500796144
 20
76.09368287515497
 30
0.0
 10
83.23101790874887
 20
76.19334758482343
 30
0.0
 10
82.76054210824134
 20
76.28562575772371
 30
0.0
 10
82.22962072227757
 20
76.38125778261922
 30
0.0
 10
81.69147021100167
 20
76.4669080275216
 30
0.0
 10
81.23342287862017
 20
76.53419982015961
 30
0.0
 10
80.57785855734367
 20
76.62254798918514
 30
0.0
 10
79.6945521199032
 20
76.71920607332034
 30
0.0
 10
78.5658903870709
 20
76.80598125012392
 30
0.0
 10
77.4761286372857
 20
76.84405994786495
 30
0.0
 10
76.38010035882725
 20
76.84591038263703
 30
0.0
 10
75.47470911190167
 20
76.81974892704433
 30
0.0
 10
74.77840640151932
 20
76.78314170190103
 30
0.0
 10
74.25172667369922
 20
76.74412482643828
 30
0.0
 10
73.78508055911915
 20
76.70191569899725
 30
0.0
 10
73.41386528354272
 20
76.6649116094554
 30
0.0
 10
73.1598188058633
 20
76.63621084898584
 30
0.0
 10
72.85876365276043
 20
76.59983089836342
 30
0.0
 10
72.60327985777477
 20
76.56705073133277
 30
0.0
 10
72.50405913281594
 20
76.55071284664068
 30
0.0
 10
72.52033969010056
 20
76.55330643281013
 30
0.0
 10
72.5203634436865
 20
76.55331021689264
 30
0.0
  0
SPLINE
  5
FD
330
1F
100
AcDbEntity
  8
0
  6
HIDDEN
 62
     7
370
     0
100
AcDbSpline
210
0.0
220
0.0
230
1.0
 70
     8
 71
     3
 72
    30
 73
    26
 74
     0
 42
0.00000001
 43
0.00000001
 40
0.0
 40
0.0
 40
0.0
 40
0.0
 40
0.0001123288057692
 40
0.0285431152706638
 40
0.0588466796121224
 40
0.0910271964548352
 40
0.1250880910051814
 40
0.1546766141816535
 40
0.1963554560804497
 40
0.2501101496293133
 40
0.3205253872349852
 40
0.385610430020096
 40
0.4454038608858225
 40
0.4999571692318041
 40
0.5283494388476924
 40
0.5586340270243796
 40
0.5908185964963244
 40
0.624909471458329
 40
0.654184457524067
 40
0.6958630078023593
 40
0.7499307292180755
 40
0.8215905285811296
 40
0.8871422909871766
 40
0.9466378748984584
 40
1.0
 40
1.0
 40
1.0
 40
1.0
 10
72.52038515241983
 20
149.4594039083783
 30
0.0
 10
72.5203532926617
 20
149.4594108555046
 30
0.0
 10
72.51225762438962
 20
149.4611761428976
 30
0.0
 10
72.5409191020646
 20
149.4557212241719
 30
0.0
 10
72.61430594823159
 20
149.4451783768263
 30
0.0
 10
72.75796249178522
 20
149.4254931691738
 30
0.0
 10
72.9589981918011
 20
149.4006539053057
 30
0.0
 10
73.24162874117505
 20
149.3664454401591
 30
0.0
 10
73.65503786681747
 20
149.3227655434003
 30
0.0
 10
74.33132536789134
 20
149.2597224758748
 30
0.0
 10
75.26975626862159
 20
149.1984253054474
 30
0.0
 10
76.37924948208989
 20
149.1671368619461
 30
0.0
 10
77.47673021279675
 20
149.1687920295449
 30
0.0
 10
78.3767614512629
 20
149.2000982316431
 30
0.0
 10
79.08810237710772
 20
149.2469313804456
 30
0.0
 10
79.65351927807835
 20
149.2940982423405
 30
0.0
 10
80.24244270092888
 20
149.3535372488936
 30
0.0
 10
80.8068523530724
 20
149.4198944554525
 30
0.0
 10
81.40104854670211
 20
149.5018138618466
 30
0.0
 10
82.06765670775066
 20
149.6034618445989
 30
0.0
 10
82.8689894538771
 20
149.7456007552423
 30
0.0
 10
83.62149943867216
 20
149.8968453260487
 30
0.0
 10
84.16678593362329
 20
150.0146961993114
 30
0.0
 10
84.46950746505306
 20
150.0909254310626
 30
0.0
 10
84.50379791565395
 20
150.1013777405551
 30
0.0
 10
84.52001135229695
 20
150.106319870354
 30
0.0
  0
LINE
  5
FE
330
1F
100
AcDbEntity
  8
0
  6
HIDDEN
 62
     7
370
     0
100
AcDbLine
 10
183.7198595108
 20
107.0063921993
 30
0.0
 11
183.7198595108
 21
119.0063921994
 31
0.0
  0
LINE
  5
FF
330
1F
100
AcDbEntity
  8
0
  6
HIDDEN
 62
     7
370
     0
100
AcDbLine
 10
184.0202898203
 20
107.5063921993
 30
0.0
 11
184.0202898203
 21
118.5063921994
 31
0.0
  0
LINE
  5
100
330
1F
100
AcDbEntity
  8
0
  6
HIDDEN
 62
     7
370
     0
100
AcDbLine
 10
162.4702898203
 20
130.9290419302
 30
0.0
 11
164.9702898203
 21
130.9290419302
 31
0.0
  0
LINE
  5
101
330
1F
100
AcDbEntity
  8
0
  6
HIDDEN
 62
     7
370
     0
100
AcDbLine
 10
159.9702898203
 20
130.9290419302
 30
0.0
 11
162.4702898203
 21
130.9290419302
 31
0.0
  0
LINE
  5
102
330
1F
100
AcDbEntity
  8
0
  6
HIDDEN
 62
     7
370
     0
100
AcDbLine
 10
164.9702898203
 20
95.0837424685
 30
0.0
 11
159.9702898203
 21
95.0837424685
 31
0.0
  0
LINE
  5
103
330
1F
100
AcDbEntity
  8
0
  6
HIDDEN
 62
     7
370
     0
100
AcDbLine
 10
162.4702898203
 20
122.5063921994
 30
0.0
 11
164.9702898203
 21
122.5063921994
 31
0.0
  0
LINE
  5
104
330
1F
100
AcDbEntity
  8
0
  6
HIDDEN
 62
     7
370
     0
100
AcDbLine
 10
159.9702898203
 20
122.5063921994
 30
0.0
 11
162.4702898203
 21
122.5063921994
 31
0.0
  0
LINE
  5
105
330
1F
100
AcDbEntity
  8
0
  6
HIDDEN
 62
     7
370
     0
100
AcDbLine
 10
164.9702898203
 20
103.5063921993
 30
0.0
 11
159.9702898203
 21
103.5063921993
 31
0.0
  0
LINE
  5
106
330
1F
100
AcDbEntity
  8
0
  6
HIDDEN
 62
     7
370
     0
100
AcDbLine
 10
207.470488918
 20
127.0063921994
 30
0.0
 11
204.6591786763
 21
127.0063921994
 31
0.0
  0
SPLINE
  5
107
330
1F
100
AcDbEntity
  8
0
  6
HIDDEN
 62
     7
370
     0
100
AcDbSpline
210
0.0
220
0.0
230
1.0
 70
    11
 71
     3
 72
    42
 73
    38
 74
     0
 42
0.00000001
 43
0.00000001
 40
0.0
 40
0.0
 40
0.0
 40
0.0
 40
0.0624999999999994
 40
0.0624999999999994
 40
0.1249999999999989
 40
0.1249999999999989
 40
0.1874999999999984
 40
0.1874999999999984
 40
0.2187499999999978
 40
0.2187499999999978
 40
0.2499999999999971
 40
0.2499999999999971
 40
0.3124999999999971
 40
0.3124999999999971
 40
0.3749999999999971
 40
0.3749999999999971
 40
0.4374999999999971
 40
0.4374999999999971
 40
0.4999999999999971
 40
0.4999999999999971
 40
0.5624999999999971
 40
0.5624999999999971
 40
0.6249999999999971
 40
0.6249999999999971
 40
0.6874999999999971
 40
0.6874999999999971
 40
0.7499999999999971
 40
0.7499999999999971
 40
0.781249999999998
 40
0.781249999999998
 40
0.812499999999999
 40
0.812499999999999
 40
0.8749999999999993
 40
0.8749999999999993
 40
0.9374999999999997
 40
0.9374999999999997
 40
1.0
 40
1.0
 40
1.0
 40
1.0
 10
204.6591786763443
 20
127.00639219935
 30
0.0
 10
204.7128731966436
 20
126.9365226725612
 30
0.0
 10
204.7780737707839
 20
126.8496238035313
 30
0.0
 10
204.9130803729349
 20
126.6535856853911
 30
0.0
 10
204.9839992053091
 20
126.5436615731202
 30
0.0
 10
205.1086803280838
 20
126.3009218953846
 30
0.0
 10
205.1633712268679
 20
126.1655669366354
 30
0.0
 10
205.1930615927241
 20
125.9485416260766
 30
0.0
 10
205.1936570119015
 20
125.8736182087771
 30
0.0
 10
205.1756212933194
 20
125.7292696045443
 30
0.0
 10
205.1569705178318
 20
125.6577817711728
 30
0.0
 10
205.0846884999974
 20
125.4576264351332
 30
0.0
 10
205.015222288478
 20
125.3374934713158
 30
0.0
 10
204.8766225295148
 20
125.1248163236223
 30
0.0
 10
204.8046284349191
 20
125.0291131867094
 30
0.0
 10
204.6781789447691
 20
124.8678671125564
 30
0.0
 10
204.6223465895112
 20
124.8008829407364
 30
0.0
 10
204.5430301231802
 20
124.7068312372502
 30
0.0
 10
204.5205447216492
 20
124.6809390971737
 30
0.0
 10
204.5200394246987
 20
124.6803521257638
 30
0.0
 10
204.542050562934
 20
124.7056927025059
 30
0.0
 10
204.6206096535362
 20
124.798801097167
 30
0.0
 10
204.6764173901653
 20
124.8656598287383
 30
0.0
 10
204.8047661275497
 20
125.029250242299
 30
0.0
 10
204.8756655350635
 20
125.1233454843315
 30
0.0
 10
205.0162104184256
 20
125.3390120876092
 30
0.0
 10
205.0848462408699
 20
125.4576059653833
 30
0.0
 10
205.1575413064527
 20
125.6595940424251
 30
0.0
 10
205.1757828351432
 20
125.7295019657709
 30
0.0
 10
205.1938741240489
 20
125.8764386626267
 30
0.0
 10
205.1930231087381
 20
125.9495847180242
 30
0.0
 10
205.1629287688034
 20
126.1672575573385
 30
0.0
 10
205.1078762309718
 20
126.3028007756417
 30
0.0
 10
204.9828332765354
 20
126.5456131187683
 30
0.0
 10
204.9129923352771
 20
126.6537651357612
 30
0.0
 10
204.7768834039842
 20
126.8513001898841
 30
0.0
 10
204.7131327629154
 20
126.9361849142111
 30
0.0
 10
204.6591786763443
 20
127.00639219935
 30
0.0
  0
SPLINE
  5
108
330
1F
100
AcDbEntity
  8
0
  6
HIDDEN
 62
     7
370
     0
100
AcDbSpline
210
0.0
220
0.0
230
1.0
 70
     8
 71
     3
 72
    28
 73
    24
 74
     0
 42
0.00000001
 43
0.00000001
 40
0.0
 40
0.0
 40
0.0
 40
0.0
 40
0.0625000000000003
 40
0.0625000000000003
 40
0.1250000000000007
 40
0.1250000000000007
 40
0.2500000000000013
 40
0.2500000000000013
 40
0.375000000000002
 40
0.375000000000002
 40
0.5000000000000027
 40
0.5000000000000027
 40
0.5625000000000023
 40
0.5625000000000023
 40
0.625000000000002
 40
0.625000000000002
 40
0.6875000000000017
 40
0.6875000000000017
 40
0.7500000000000013
 40
0.7500000000000013
 40
0.8750000000000008
 40
0.8750000000000008
 40
1.0
 40
1.0
 40
1.0
 40
1.0
 10
207.52028982032
 20
124.5627726734491
 30
0.0
 10
207.52028982032
 20
124.5627726734491
 30
0.0
 10
207.5139171970301
 20
124.5706562617625
 30
0.0
 10
207.489653599185
 20
124.6009108524822
 30
0.0
 10
207.4714506705346
 20
124.6236767548645
 30
0.0
 10
207.4039932867981
 20
124.7092264402174
 30
0.0
 10
207.3406860989456
 20
124.790584796809
 30
0.0
 10
207.2023087167152
 20
124.9809387804657
 30
0.0
 10
207.1250592015604
 20
125.0923053123641
 30
0.0
 10
206.9819774621107
 20
125.3379146102571
 30
0.0
 10
206.9129249188732
 20
125.475861858958
 30
0.0
 10
206.8572273847941
 20
125.7043943614197
 30
0.0
 10
206.8475932305935
 20
125.7842021044996
 30
0.0
 10
206.851926989472
 20
125.9416468908628
 30
0.0
 10
206.8660553112958
 20
126.0212372230703
 30
0.0
 10
206.9106682667034
 20
126.1702904186905
 30
0.0
 10
206.9411087201844
 20
126.2415781225174
 30
0.0
 10
207.0078487663347
 20
126.3739224903825
 30
0.0
 10
207.0444315000397
 20
126.4358778908915
 30
0.0
 10
207.1574413084761
 20
126.6124882996234
 30
0.0
 10
207.2349731377458
 20
126.7152133895007
 30
0.0
 10
207.3727114448007
 20
126.890380175567
 30
0.0
 10
207.4316220892733
 20
126.9605087438162
 30
0.0
 10
207.4704889180175
 20
127.00639219935
 30
0.0
  0
SPLINE
  5
109
330
1F
100
AcDbEntity
  8
0
  6
HIDDEN
 62
     7
370
     0
100
AcDbSpline
210
0.0
220
0.0
230
1.0
 70
    11
 71
     3
 72
    30
 73
    26
 74
     0
 42
0.00000001
 43
0.00000001
 40
0.0
 40
0.0
 40
0.0
 40
0.0
 40
0.0624999999999989
 40
0.0624999999999989
 40
0.1249999999999978
 40
0.1249999999999978
 40
0.2499999999999995
 40
0.2499999999999995
 40
0.3750000000000012
 40
0.3750000000000012
 40
0.4375000000000017
 40
0.4375000000000017
 40
0.5000000000000023
 40
0.5000000000000023
 40
0.6250000000000036
 40
0.6250000000000036
 40
0.6875000000000041
 40
0.6875000000000041
 40
0.7500000000000046
 40
0.7500000000000046
 40
0.8750000000000009
 40
0.8750000000000009
 40
0.9375000000000006
 40
0.9375000000000006
 40
1.0
 40
1.0
 40
1.0
 40
1.0
 10
205.1850260391161
 20
100.00639219935
 30
0.0
 10
205.1959623069213
 20
100.0974914594306
 30
0.0
 10
205.191763512662
 20
100.1891240410345
 30
0.0
 10
205.155596326805
 20
100.3668801372358
 30
0.0
 10
205.1246606485794
 20
100.4511345730983
 30
0.0
 10
205.0154797901467
 20
100.6861042758601
 30
0.0
 10
204.9227423080197
 20
100.8215264818977
 30
0.0
 10
204.7520718326831
 20
101.0543084190028
 30
0.0
 10
204.6714223832043
 20
101.1527069871712
 30
0.0
 10
204.5843587145897
 20
101.2571373314044
 30
0.0
 10
204.5605961727731
 20
101.2850708005608
 30
0.0
 10
204.5288587136617
 20
101.3222213352529
 30
0.0
 10
204.5203655808176
 20
101.3320533981109
 30
0.0
 10
204.5201398153421
 20
101.3323156554015
 30
0.0
 10
204.5548714910644
 20
101.2924956529173
 30
0.0
 10
204.642043748307
 20
101.1879511265957
 30
0.0
 10
204.6770868216458
 20
101.145351136547
 30
0.0
 10
204.752941370952
 20
101.0500391246413
 30
0.0
 10
204.7940732978865
 20
100.9970028076735
 30
0.0
 10
204.9229381329589
 20
100.8212965675273
 30
0.0
 10
205.0149816951171
 20
100.6871047630684
 30
0.0
 10
205.1247454859383
 20
100.450987648379
 30
0.0
 10
205.155470352108
 20
100.3673195790349
 30
0.0
 10
205.1917452593221
 20
100.1893927437931
 30
0.0
 10
205.1959735520473
 20
100.0975851315002
 30
0.0
 10
205.1850260391143
 20
100.0063921993501
 30
0.0
  0
LINE
  5
10A
330
1F
100
AcDbEntity
  8
0
  6
HIDDEN
 62
     7
370
     0
100
AcDbLine
 10
205.1850260391
 20
100.0063921993
 30
0.0
 11
206.8660613412
 21
100.0063921993
 31
0.0
  0
SPLINE
  5
10B
330
1F
100
AcDbEntity
  8
0
  6
HIDDEN
 62
     7
370
     0
100
AcDbSpline
210
0.0
220
0.0
230
1.0
 70
    11
 71
     3
 72
    32
 73
    28
 74
     0
 42
0.00000001
 43
0.00000001
 40
0.0
 40
0.0
 40
0.0
 40
0.0
 40
0.062500000000001
 40
0.062500000000001
 40
0.1250000000000021
 40
0.1250000000000021
 40
0.2500000000000053
 40
0.2500000000000053
 40
0.3750000000000085
 40
0.3750000000000085
 40
0.4375000000000086
 40
0.4375000000000086
 40
0.5000000000000088
 40
0.5000000000000088
 40
0.6250000000000091
 40
0.6250000000000091
 40
0.6875000000000075
 40
0.6875000000000075
 40
0.750000000000006
 40
0.750000000000006
 40
0.8125000000000046
 40
0.8125000000000046
 40
0.875000000000003
 40
0.875000000000003
 40
0.9375000000000016
 40
0.9375000000000016
 40
1.0
 40
1.0
 40
1.0
 40
1.0
 10
206.8660613412304
 20
100.00639219935
 30
0.0
 10
206.8474727565642
 20
100.0999770979931
 30
0.0
 10
206.8445890522472
 20
100.1963512252251
 30
0.0
 10
206.8708684057567
 20
100.3848406559509
 30
0.0
 10
206.8990773503085
 20
100.4755791219144
 30
0.0
 10
207.003465278409
 20
100.7284950701323
 30
0.0
 10
207.0976762557427
 20
100.8765978098607
 30
0.0
 10
207.2724723330933
 20
101.1325386643465
 30
0.0
 10
207.3573227634168
 20
101.243332427649
 30
0.0
 10
207.4504591846753
 20
101.3627096995593
 30
0.0
 10
207.4761859555979
 20
101.39501394186
 30
0.0
 10
207.5108844544279
 20
101.4383876855298
 30
0.0
 10
207.520260034902
 20
101.449974784899
 30
0.0
 10
207.5203491702863
 20
101.4500853320291
 30
0.0
 10
207.4823294430577
 20
101.4035480639061
 30
0.0
 10
207.3885145334551
 20
101.2833179285344
 30
0.0
 10
207.3521713368969
 20
101.2360869166572
 30
0.0
 10
207.2726139702112
 20
101.1291484880854
 30
0.0
 10
207.229059857101
 20
101.068964514046
 30
0.0
 10
207.1413969512698
 20
100.9406232331899
 30
0.0
 10
207.096860845169
 20
100.87204357239
 30
0.0
 10
207.0106674238507
 20
100.7241489982821
 30
0.0
 10
206.9688113714452
 20
100.6444763953938
 30
0.0
 10
206.8992064791499
 20
100.4759493275809
 30
0.0
 10
206.8709470034414
 20
100.3848787029259
 30
0.0
 10
206.8447002454086
 20
100.1976706602029
 30
0.0
 10
206.8474629016754
 20
100.1000267127805
 30
0.0
 10
206.8660613412293
 20
100.00639219935
 30
0.0
  0
LINE
  5
10C
330
1F
100
AcDbEntity
  8
0
  6
HIDDEN
 62
     7
370
     0
100
AcDbLine
 10
204.5089922748
 20
101.3316975225
 30
0.0
 11
204.6071418142
 21
98.8336249319
 31
0.0
  0
SPLINE
  5
10D
330
1F
100
AcDbEntity
  8
0
  6
HIDDEN
 62
     7
370
     0
100
AcDbSpline
210
0.0
220
0.0
230
1.0
 70
     8
 71
     3
 72
    12
 73
     8
 74
     0
 42
0.00000001
 43
0.00000001
 40
0.0
 40
0.0
 40
0.0
 40
0.0
 40
0.25
 40
0.25
 40
0.5
 40
0.5
 40
1.0
 40
1.0
 40
1.0
 40
1.0
 10
205.1850260391174
 20
100.0063921993499
 30
0.0
 10
205.3217106709451
 20
99.95851054128194
 30
0.0
 10
205.4593988034251
 20
99.91586773270825
 30
0.0
 10
205.7396860009042
 20
99.85307581120479
 30
0.0
 10
205.8839259427541
 20
99.8334498594979
 30
0.0
 10
206.3198738631276
 20
99.83265890405245
 30
0.0
 10
206.5949658681479
 20
99.90873723744284
 30
0.0
 10
206.866061341229
 20
100.0063921993499
 30
0.0
  0
SPLINE
  5
10E
330
1F
100
AcDbEntity
  8
0
  6
HIDDEN
 62
     7
370
     0
100
AcDbSpline
210
0.0
220
0.0
230
1.0
 70
     8
 71
     3
 72
     9
 73
     5
 74
     0
 42
0.00000001
 43
0.00000001
 40
0.0
 40
0.0
 40
0.0
 40
0.0
 40
0.9208243725538973
 40
1.0
 40
1.0
 40
1.0
 40
1.0
 10
207.4704889180175
 20
127.00639219935
 30
0.0
 10
207.4997226781843
 20
127.0406051867908
 30
0.0
 10
207.5314700569877
 20
127.0777599238508
 30
0.0
 10
207.5181388921348
 20
127.0621922596438
 30
0.0
 10
207.517083388793
 20
127.0609596800623
 30
0.0
  0
SPLINE
  5
10F
330
1F
100
AcDbEntity
  8
0
  6
HIDDEN
 62
     7
370
     0
100
AcDbSpline
210
0.0
220
0.0
230
1.0
 70
     8
 71
     3
 72
     9
 73
     5
 74
     0
 42
0.00000001
 43
0.00000001
 40
0.0
 40
0.0
 40
0.0
 40
0.0
 40
0.7274607234687951
 40
1.0
 40
1.0
 40
1.0
 40
1.0
 10
204.52993193532
 20
127.0497342520352
 30
0.0
 10
204.533223319261
 20
127.0493606453881
 30
0.0
 10
204.5377478026246
 20
127.0488470690051
 30
0.0
 10
204.589170233575
 20
127.0721086951208
 30
0.0
 10
204.6031848657037
 20
127.0784484018733
 30
0.0
  0
LINE
  5
110
330
1F
100
AcDbEntity
  8
0
  6
HIDDEN
 62
     7
370
     0
100
AcDbLine
 10
204.6031848657
 20
127.0784484019
 30
0.0
 11
204.510076131
 21
124.7086728567
 31
0.0
  0
SPLINE
  5
111
330
1F
100
AcDbEntity
  8
0
  6
HIDDEN
 62
     7
370
     0
100
AcDbSpline
210
0.0
220
0.0
230
1.0
 70
     8
 71
     3
 72
     8
 73
     4
 74
     0
 42
0.00000001
 43
0.00000001
 40
0.0
 40
0.0
 40
0.0
 40
0.0
 40
1.0
 40
1.0
 40
1.0
 40
1.0
 10
204.6031848657038
 20
127.0784484018733
 30
0.0
 10
204.6201018039129
 20
127.0569071767111
 30
0.0
 10
204.6388928353395
 20
127.0327889732409
 30
0.0
 10
204.6591786763443
 20
127.00639219935
 30
0.0
  0
LINE
  5
112
330
1F
100
AcDbEntity
  8
0
  6
HIDDEN
 62
     7
370
     0
100
AcDbLine
 10
204.6591786763
 20
127.0063921994
 30
0.0
 11
204.5202898203
 21
127.0063921994
 31
0.0
  0
LINE
  5
113
330
1F
100
AcDbEntity
  8
0
  6
HIDDEN
 62
     7
370
     0
100
AcDbLine
 10
207.5202898203
 20
127.0063921994
 30
0.0
 11
207.470488918
 21
127.0063921994
 31
0.0
  0
LWPOLYLINE
  5
114
330
1F
100
AcDbEntity
  8
0
  6
HIDDEN
 62
     7
370
     0
100
AcDbPolyline
 90
       28
 70
   128
 43
0.0
 10
102.5202898203
 20
158.3190980511
 10
103.673369174
 20
158.2774500857
 10
104.7642857213
 20
158.1547514422
 10
105.7342278688
 20
157.9576168361
 10
106.5309057841
 20
157.6966738451
 10
107.1113703547
 20
157.3859899734
 10
107.4443285854
 20
157.042314269
 10
107.5118306117
 20
156.6841743779
 10
107.3102373819
 20
156.3308777145
 10
106.8504168392
 20
156.0014705933
 10
106.1571580282
 20
155.7137114375
 10
105.2678347107
 20
155.4831134177
 10
104.2303905369
 20
155.3221081327
 10
103.1007543909
 20
155.2393754192
 10
101.9398252497
 20
155.2393754192
 10
100.8101891037
 20
155.3221081327
 10
99.77274493
 20
155.4831134177
 10
98.8834216125
 20
155.7137114375
 10
98.1901628014
 20
156.0014705933
 10
97.7303422587
 20
156.3308777145
 10
97.528749029
 20
156.6841743779
 10
97.5962510553
 20
157.042314269
 10
97.9292092859
 20
157.3859899734
 10
98.5096738565
 20
157.6966738451
 10
99.3063517719
 20
157.9576168361
 10
100.2762939193
 20
158.1547514422
 10
101.3672104666
 20
158.2774500857
 10
102.5202898203
 20
158.3190980511
  0
LINE
  5
115
330
1F
100
AcDbEntity
  8
0
  6
HIDDEN
 62
     7
370
     0
100
AcDbLine
 10
111.6102898203
 20
147.7206273918
 30
0.0
 11
111.6102898203
 21
144.3563921993
 31
0.0
  0
LINE
  5
116
330
1F
100
AcDbEntity
  8
0
  6
HIDDEN
 62
     7
370
     0
100
AcDbLine
 10
115.4302898203
 20
147.7206273918
 30
0.0
 11
115.4302898203
 21
144.3563921993
 31
0.0
  0
LINE
  5
117
330
1F
100
AcDbEntity
  8
0
  6
HIDDEN
 62
     7
370
     0
100
AcDbLine
 10
116.7823188412
 20
151.9573549602
 30
0.0
 11
116.7823188412
 21
144.3563921993
 31
0.0
  0
CIRCLE
  5
118
330
1F
100
AcDbEntity
  8
0
  6
HIDDEN
 62
     7
370
     0
100
AcDbCircle
 10
100.5202898203
 20
113.0063921993
 30
0.0
 40
5.0
  0
LINE
  5
119
330
1F
100
AcDbEntity
  8
0
  6
HIDDEN
 62
     7
370
     0
100
AcDbLine
 10
253.3290230631
 20
103.5000346459
 30
0.0
 11
253.4347020552
 21
100.8103246874
 31
0.0
  0
LINE
  5
11A
330
1F
100
AcDbEntity
  8
0
  6
HIDDEN
 62
     7
370
     0
100
AcDbLine
 10
247.9950852592
 20
103.2904636588
 30
0.0
 11
248.1128647065
 21
100.2927765501
 31
0.0
  0
LINE
  5
11B
330
1F
100
AcDbEntity
  8
0
  6
HIDDEN
 62
     7
370
     0
100
AcDbLine
 10
247.5151006489
 20
102.7712192328
 30
0.0
 11
247.5936202805
 21
100.7727611603
 31
0.0
  0
LINE
  5
11C
330
1F
100
AcDbEntity
  8
0
  6
HIDDEN
 62
     7
370
     0
100
AcDbLine
 10
253.5018573368
 20
103.2261089008
 30
0.0
 11
253.5202898203
 21
102.7569708683
 31
0.0
  0
LINE
  5
11D
330
1F
100
AcDbEntity
  8
0
  6
HIDDEN
 62
     7
370
     0
100
AcDbLine
 10
251.5512766097
 20
101.9290294596
 30
0.0
 11
251.5218317478
 21
102.6784512368
 31
0.0
  0
LINE
  5
11E
330
1F
100
AcDbEntity
  8
0
  6
HIDDEN
 62
     7
370
     0
100
AcDbLine
 10
251.5512766097
 20
101.9290294596
 30
0.0
 11
253.5497346821
 21
102.0075490911
 31
0.0
  0
LINE
  5
11F
330
1F
100
AcDbEntity
  8
0
  6
HIDDEN
 62
     7
370
     0
100
AcDbLine
 10
251.5807214715
 20
101.1796076824
 30
0.0
 11
251.5512766097
 21
101.9290294596
 31
0.0
  0
LINE
  5
120
330
1F
100
AcDbEntity
  8
0
  6
HIDDEN
 62
     7
370
     0
100
AcDbLine
 10
251.5807214715
 20
101.1796076824
 30
0.0
 11
253.579179544
 21
101.2581273139
 31
0.0
  0
LINE
  5
121
330
1F
100
AcDbEntity
  8
0
  6
HIDDEN
 62
     7
370
     0
100
AcDbLine
 10
251.5218317478
 20
102.6784512368
 30
0.0
 11
253.5202898203
 21
102.7569708683
 31
0.0
  0
LINE
  5
122
330
1F
100
AcDbEntity
  8
0
  6
HIDDEN
 62
     7
370
     0
100
AcDbLine
 10
253.3823484717
 20
125.3711293701
 30
0.0
 11
253.2701333394
 21
122.5150635363
 31
0.0
  0
LINE
  5
123
330
1F
100
AcDbEntity
  8
0
  6
HIDDEN
 62
     7
370
     0
100
AcDbLine
 10
248.0460852559
 20
125.5215146722
 30
0.0
 11
247.9361955355
 21
122.7246345234
 31
0.0
  0
LINE
  5
124
330
1F
100
AcDbEntity
  8
0
  6
HIDDEN
 62
     7
370
     0
100
AcDbLine
 10
248.0539749828
 20
125.7223216322
 30
0.0
 11
248.0460852559
 21
125.5215146722
 31
0.0
  0
LINE
  5
125
330
1F
100
AcDbEntity
  8
0
  6
HIDDEN
 62
     7
370
     0
100
AcDbLine
 10
253.5182544448
 20
124.7051671009
 30
0.0
 11
253.4429676132
 21
122.7889892814
 31
0.0
  0
LINE
  5
126
330
1F
100
AcDbEntity
  8
0
  6
HIDDEN
 62
     7
370
     0
100
AcDbLine
 10
247.5294707389
 20
125.1084657153
 30
0.0
 11
247.4562109253
 21
123.2438789494
 31
0.0
  0
LINE
  5
127
330
1F
100
AcDbEntity
  8
0
  6
HIDDEN
 62
     7
370
     0
100
AcDbLine
 10
247.5347305568
 20
125.2423370219
 30
0.0
 11
247.5294707389
 21
125.1084657153
 31
0.0
  0
LINE
  5
128
330
1F
100
AcDbEntity
  8
0
  6
HIDDEN
 62
     7
370
     0
100
AcDbLine
 10
251.492386886
 20
124.0860687226
 30
0.0
 11
251.5218317478
 21
124.8354904998
 31
0.0
  0
LINE
  5
129
330
1F
100
AcDbEntity
  8
0
  6
HIDDEN
 62
     7
370
     0
100
AcDbLine
 10
251.492386886
 20
124.0860687226
 30
0.0
 11
251.4629420242
 21
123.3366469455
 31
0.0
  0
LINE
  5
12A
330
1F
100
AcDbEntity
  8
0
  6
HIDDEN
 62
     7
370
     0
100
AcDbLine
 10
251.492386886
 20
124.0860687226
 30
0.0
 11
253.4908449585
 21
124.0075490911
 31
0.0
  0
LINE
  5
12B
330
1F
100
AcDbEntity
  8
0
  6
HIDDEN
 62
     7
370
     0
100
AcDbLine
 10
251.4629420242
 20
123.3366469455
 30
0.0
 11
253.4614000967
 21
123.2581273139
 31
0.0
  0
LINE
  5
12C
330
1F
100
AcDbEntity
  8
0
  6
HIDDEN
 62
     7
370
     0
100
AcDbLine
 10
251.5218317478
 20
124.8354904998
 30
0.0
 11
253.5202898203
 21
124.7569708683
 31
0.0
  0
LINE
  5
12D
330
1F
100
AcDbEntity
  8
0
  6
HIDDEN
 62
     7
370
     0
100
AcDbLine
 10
203.5202898203
 20
107.0063921993
 30
0.0
 11
203.5202898203
 21
119.0063921994
 31
0.0
  0
LINE
  5
12E
330
1F
100
AcDbEntity
  8
0
  6
HIDDEN
 62
     7
370
     0
100
AcDbLine
 10
188.5202898203
 20
107.0063921993
 30
0.0
 11
188.5202898203
 21
119.0063921994
 31
0.0
  0
LINE
  5
12F
330
1F
100
AcDbEntity
  8
0
  6
HIDDEN
 62
     7
370
     0
100
AcDbLine
 10
188.0202898203
 20
107.5063921993
 30
0.0
 11
188.0202898203
 21
118.5063921994
 31
0.0
  0
LINE
  5
130
330
1F
100
AcDbEntity
  8
0
  6
HIDDEN
 62
     7
370
     0
100
AcDbLine
 10
208.0202898203
 20
111.5063921993
 30
0.0
 11
206.0202898203
 21
111.5063921993
 31
0.0
  0
LINE
  5
131
330
1F
100
AcDbEntity
  8
0
  6
HIDDEN
 62
     7
370
     0
100
AcDbLine
 10
208.0202898203
 20
107.5063921993
 30
0.0
 11
208.0202898203
 21
111.5063921993
 31
0.0
  0
LINE
  5
132
330
1F
100
AcDbEntity
  8
0
  6
HIDDEN
 62
     7
370
     0
100
AcDbLine
 10
208.0202898203
 20
114.5063921993
 30
0.0
 11
208.0202898203
 21
118.5063921994
 31
0.0
  0
LINE
  5
133
330
1F
100
AcDbEntity
  8
0
  6
HIDDEN
 62
     7
370
     0
100
AcDbLine
 10
206.0202898203
 20
114.5063921993
 30
0.0
 11
208.0202898203
 21
114.5063921993
 31
0.0
  0
LINE
  5
134
330
1F
100
AcDbEntity
  8
0
  6
HIDDEN
 62
     7
370
     0
100
AcDbLine
 10
206.0202898203
 20
111.5063921993
 30
0.0
 11
206.0202898203
 21
114.5063921993
 31
0.0
  0
LINE
  5
135
330
1F
100
AcDbEntity
  8
0
  6
HIDDEN
 62
     7
370
     0
100
AcDbLine
 10
201.0202898203
 20
113.0063921993
 30
0.0
 11
201.0202898203
 21
111.5063921993
 31
0.0
  0
LINE
  5
136
330
1F
100
AcDbEntity
  8
0
  6
HIDDEN
 62
     7
370
     0
100
AcDbLine
 10
195.0202898203
 20
111.5063921993
 30
0.0
 11
195.0202898203
 21
113.0063921993
 31
0.0
  0
LINE
  5
137
330
1F
100
AcDbEntity
  8
0
  6
HIDDEN
 62
     7
370
     0
100
AcDbLine
 10
195.0202898203
 20
113.0063921993
 30
0.0
 11
195.0202898203
 21
114.5063921993
 31
0.0
  0
LINE
  5
138
330
1F
100
AcDbEntity
  8
0
  6
HIDDEN
 62
     7
370
     0
100
AcDbLine
 10
195.0202898203
 20
113.0063921993
 30
0.0
 11
188.0202898203
 21
113.0063921993
 31
0.0
  0
LINE
  5
139
330
1F
100
AcDbEntity
  8
0
  6
HIDDEN
 62
     7
370
     0
100
AcDbLine
 10
201.0202898203
 20
113.0063921993
 30
0.0
 11
206.0202898203
 21
113.0063921993
 31
0.0
  0
LINE
  5
13A
330
1F
100
AcDbEntity
  8
0
  6
HIDDEN
 62
     7
370
     0
100
AcDbLine
 10
201.0202898203
 20
114.5063921993
 30
0.0
 11
201.0202898203
 21
113.0063921993
 31
0.0
  0
LINE
  5
13B
330
1F
100
AcDbEntity
  8
0
  6
HIDDEN
 62
     7
370
     0
100
AcDbLine
 10
195.0202898203
 20
114.5063921993
 30
0.0
 11
195.0202898203
 21
116.0063921993
 31
0.0
  0
LINE
  5
13C
330
1F
100
AcDbEntity
  8
0
  6
HIDDEN
 62
     7
370
     0
100
AcDbLine
 10
201.0202898203
 20
111.5063921993
 30
0.0
 11
201.0202898203
 21
110.0063921993
 31
0.0
  0
LINE
  5
13D
330
1F
100
AcDbEntity
  8
0
  6
HIDDEN
 62
     7
370
     0
100
AcDbLine
 10
201.0202898203
 20
116.0063921993
 30
0.0
 11
201.0202898203
 21
114.5063921993
 31
0.0
  0
LINE
  5
13E
330
1F
100
AcDbEntity
  8
0
  6
HIDDEN
 62
     7
370
     0
100
AcDbLine
 10
195.0202898203
 20
110.0063921993
 30
0.0
 11
195.0202898203
 21
111.5063921993
 31
0.0
  0
LINE
  5
13F
330
1F
100
AcDbEntity
  8
0
  6
HIDDEN
 62
     7
370
     0
100
AcDbLine
 10
195.0202898203
 20
110.0063921993
 30
0.0
 11
188.0202898203
 21
110.0063921993
 31
0.0
  0
LINE
  5
140
330
1F
100
AcDbEntity
  8
0
  6
HIDDEN
 62
     7
370
     0
100
AcDbLine
 10
195.0202898203
 20
116.0063921993
 30
0.0
 11
188.0202898203
 21
116.0063921993
 31
0.0
  0
LINE
  5
141
330
1F
100
AcDbEntity
  8
0
  6
HIDDEN
 62
     7
370
     0
100
AcDbLine
 10
201.0202898203
 20
110.0063921993
 30
0.0
 11
208.0202898203
 21
110.0063921993
 31
0.0
  0
LINE
  5
142
330
1F
100
AcDbEntity
  8
0
  6
HIDDEN
 62
     7
370
     0
100
AcDbLine
 10
201.0202898203
 20
116.0063921993
 30
0.0
 11
208.0202898203
 21
116.0063921993
 31
0.0
  0
LINE
  5
143
330
1F
100
AcDbEntity
  8
0
  6
HIDDEN
 62
     7
370
     0
100
AcDbLine
 10
93.5202898203
 20
73.6017092428
 30
0.0
 11
93.6098914442
 21
74.2392579247
 31
0.0
  0
LINE
  5
144
330
1F
100
AcDbEntity
  8
0
  6
HIDDEN
 62
     7
370
     0
100
AcDbLine
 10
93.6098914442
 20
151.773526474
 30
0.0
 11
93.5202898203
 21
152.4110751559
 31
0.0
  0
ARC
  5
145
330
1F
100
AcDbEntity
  8
0
  6
HIDDEN
 62
     7
370
     0
100
AcDbCircle
 10
92.6233529019
 20
74.3779068749
 30
0.0
 40
0.9962338214386963
100
AcDbArc
 50
352.0
 51
0.0
  0
ARC
  5
146
330
1F
100
AcDbEntity
  8
0
  6
HIDDEN
 62
     7
370
     0
100
AcDbCircle
 10
92.6233529019
 20
74.3779068749
 30
0.0
 40
0.9962338214386983
100
AcDbArc
 50
0.0
 51
25.7988228126
  0
ARC
  5
147
330
1F
100
AcDbEntity
  8
0
  6
HIDDEN
 62
     7
370
     0
100
AcDbCircle
 10
92.6233529019
 20
151.6348775238
 30
0.0
 40
0.9962338214386963
100
AcDbArc
 50
348.75
 51
8.0
  0
LWPOLYLINE
  5
148
330
1F
100
AcDbEntity
  8
0
  6
HIDDEN
 62
     7
370
     0
100
AcDbPolyline
 90
        3
 70
   128
 43
0.0
 10
93.6004443698
 20
151.4405219468
 10
93.5437529391
 20
151.2536353456
 10
93.5202898203
 20
151.2013040106
  0
LINE
  5
149
330
1F
100
AcDbEntity
  8
0
  6
HIDDEN
 62
     7
370
     0
100
AcDbLine
 10
93.6195867233
 20
74.3779068749
 30
0.0
 11
93.6195867233
 21
151.6348775238
 31
0.0
  0
ARC
  5
14A
330
1F
100
AcDbEntity
  8
0
  6
HIDDEN
 62
     7
370
     0
100
AcDbCircle
 10
66.9810157625
 20
82.5063921993
 30
0.0
 40
1.00000000000002
100
AcDbArc
 50
210.0
 51
270.0
  0
ARC
  5
14B
330
1F
100
AcDbEntity
  8
0
  6
HIDDEN
 62
     7
370
     0
100
AcDbCircle
 10
66.9810157625
 20
143.5063921993
 30
0.0
 40
1.000000000000028
100
AcDbArc
 50
90.0
 51
150.0
  0
LINE
  5
14C
330
1F
100
AcDbEntity
  8
0
  6
HIDDEN
 62
     7
370
     0
100
AcDbLine
 10
66.9810157625
 20
81.5063921993
 30
0.0
 11
72.5254601943
 21
81.5063921993
 31
0.0
  0
LINE
  5
14D
330
1F
100
AcDbEntity
  8
0
  6
HIDDEN
 62
     7
370
     0
100
AcDbLine
 10
72.5254601943
 20
144.5063921993
 30
0.0
 11
66.9810157625
 21
144.5063921993
 31
0.0
  0
ARC
  5
14E
330
1F
100
AcDbEntity
  8
0
  6
HIDDEN
 62
     7
370
     0
100
AcDbCircle
 10
83.7734954755
 20
93.5063921993
 30
0.0
 40
12.0
100
AcDbArc
 50
273.4752677657
 51
324.3146652873
  0
ARC
  5
14F
330
1F
100
AcDbEntity
  8
0
  6
HIDDEN
 62
     7
370
     0
100
AcDbCircle
 10
83.7734954755
 20
132.5063921993
 30
0.0
 40
12.00000000000002
100
AcDbArc
 50
35.6853347127
 51
86.5206515763
  0
LINE
  5
150
330
1F
100
AcDbEntity
  8
0
  6
HIDDEN
 62
     7
370
     0
100
AcDbLine
 10
66.1149903587
 20
144.0063921993
 30
0.0
 11
63.5169141473
 21
139.5063921993
 31
0.0
  0
LINE
  5
151
330
1F
100
AcDbEntity
  8
0
  6
HIDDEN
 62
     7
370
     0
100
AcDbLine
 10
63.5169141473
 20
86.5063921993
 30
0.0
 11
66.1149903587
 21
82.0063921993
 31
0.0
  0
ARC
  5
152
330
1F
100
AcDbEntity
  8
0
  6
HIDDEN
 62
     7
370
     0
100
AcDbCircle
 10
103.9702898203
 20
88.1313921993
 30
0.0
 40
2.0
100
AcDbArc
 50
234.3409123039
 51
0.0
  0
ARC
  5
153
330
1F
100
AcDbEntity
  8
0
  6
HIDDEN
 62
     7
370
     0
100
AcDbCircle
 10
103.9702898203
 20
137.8813921993
 30
0.0
 40
2.000000000000012
100
AcDbArc
 50
0.0
 51
125.6590876961
  0
LINE
  5
154
330
1F
100
AcDbEntity
  8
0
  6
HIDDEN
 62
     7
370
     0
100
AcDbLine
 10
58.7202898203
 20
86.5063921994
 30
0.0
 11
63.5169141473
 21
86.5063921994
 31
0.0
  0
LINE
  5
155
330
1F
100
AcDbEntity
  8
0
  6
HIDDEN
 62
     7
370
     0
100
AcDbLine
 10
63.5169141473
 20
139.5063921993
 30
0.0
 11
53.7202898203
 21
139.5063921993
 31
0.0
  0
LINE
  5
156
330
1F
100
AcDbEntity
  8
0
  6
HIDDEN
 62
     7
370
     0
100
AcDbLine
 10
93.5202898203
 20
86.5063921994
 30
0.0
 11
102.8043674387
 21
86.5063921994
 31
0.0
  0
LINE
  5
157
330
1F
100
AcDbEntity
  8
0
  6
HIDDEN
 62
     7
370
     0
100
AcDbLine
 10
102.8043674387
 20
139.5063921993
 30
0.0
 11
93.5202898203
 21
139.5063921993
 31
0.0
  0
LINE
  5
158
330
1F
100
AcDbEntity
  8
0
  6
HIDDEN
 62
     7
370
     0
100
AcDbLine
 10
97.5202898203
 20
158.6835550815
 30
0.0
 11
97.5202898203
 21
154.983805978
 31
0.0
  0
LINE
  5
159
330
1F
100
AcDbEntity
  8
0
  6
HIDDEN
 62
     7
370
     0
100
AcDbLine
 10
107.5202898203
 20
154.983805978
 30
0.0
 11
107.5202898203
 21
158.6821831322
 31
0.0
  0
LINE
  5
15A
330
1F
100
AcDbEntity
  8
0
  6
HIDDEN
 62
     7
370
     0
100
AcDbLine
 10
253.3271229491
 20
100.4976453144
 30
0.0
 11
253.4276760956
 21
100.7536105533
 31
0.0
  0
LINE
  5
15B
330
1F
100
AcDbEntity
  8
0
  6
HIDDEN
 62
     7
370
     0
100
AcDbLine
 10
253.4295393143
 20
125.25323389
 30
0.0
 11
253.3271229491
 21
125.5151390843
 31
0.0
  0
LINE
  5
15C
330
1F
100
AcDbEntity
  8
0
  6
HIDDEN
 62
     7
370
     0
100
AcDbLine
 10
117.8202898203
 20
100.0063921993
 30
0.0
 11
121.8202898203
 21
100.0063921993
 31
0.0
  0
LINE
  5
15D
330
1F
100
AcDbEntity
  8
0
  6
HIDDEN
 62
     7
370
     0
100
AcDbLine
 10
121.8202898203
 20
126.0063921994
 30
0.0
 11
117.8202898203
 21
126.0063921994
 31
0.0
  0
LINE
  5
15E
330
1F
100
AcDbEntity
  8
0
  6
HIDDEN
 62
     7
370
     0
100
AcDbLine
 10
105.9702898203
 20
101.0063921993
 30
0.0
 11
106.7202898203
 21
101.7563921993
 31
0.0
  0
LINE
  5
15F
330
1F
100
AcDbEntity
  8
0
  6
HIDDEN
 62
     7
370
     0
100
AcDbLine
 10
106.7202898203
 20
124.2563921994
 30
0.0
 11
105.9702898203
 21
125.0063921994
 31
0.0
  0
LINE
  5
160
330
1F
100
AcDbEntity
  8
0
  6
HIDDEN
 62
     7
370
     0
100
AcDbLine
 10
106.7202898203
 20
101.7563921993
 30
0.0
 11
117.8202898203
 21
101.7563921993
 31
0.0
  0
LINE
  5
161
330
1F
100
AcDbEntity
  8
0
  6
HIDDEN
 62
     7
370
     0
100
AcDbLine
 10
117.8202898203
 20
124.2563921994
 30
0.0
 11
106.7202898203
 21
124.2563921994
 31
0.0
  0
LINE
  5
162
330
1F
100
AcDbEntity
  8
0
  6
HIDDEN
 62
     7
370
     0
100
AcDbLine
 10
98.4702898203
 20
163.0063921994
 30
0.0
 11
98.4702898203
 21
156.9063921993
 31
0.0
  0
ARC
  5
163
330
1F
100
AcDbEntity
  8
0
  6
HIDDEN
 62
     7
370
     0
100
AcDbCircle
 10
253.0202898203
 20
103.9696979513
 30
0.0
 40
0.5000000000000014
100
AcDbArc
 50
0.0
 51
80.0
  0
ARC
  5
164
330
1F
100
AcDbEntity
  8
0
  6
HIDDEN
 62
     7
370
     0
100
AcDbCircle
 10
253.0202898203
 20
122.0430864474
 30
0.0
 40
0.5000000000000014
100
AcDbArc
 50
280.0
 51
0.0
  0
LINE
  5
165
330
1F
100
AcDbEntity
  8
0
  6
HIDDEN
 62
     7
370
     0
100
AcDbLine
 10
253.1071139092
 20
121.5506825709
 30
0.0
 11
250.0202898203
 21
121.0063921994
 31
0.0
  0
LINE
  5
166
330
1F
100
AcDbEntity
  8
0
  6
HIDDEN
 62
     7
370
     0
100
AcDbLine
 10
250.0202898203
 20
105.0063921993
 30
0.0
 11
253.1071139092
 21
104.4621018278
 31
0.0
  0
ARC
  5
167
330
1F
100
AcDbEntity
  8
0
  6
HIDDEN
 62
     7
370
     0
100
AcDbCircle
 10
213.6255158022
 20
105.1063921993
 30
0.0
 40
0.3999999999999977
100
AcDbArc
 50
270.0
 51
290.0
  0
ARC
  5
168
330
1F
100
AcDbEntity
  8
0
  6
HIDDEN
 62
     7
370
     0
100
AcDbCircle
 10
213.6255158022
 20
120.9063921993
 30
0.0
 40
0.4000000000000057
100
AcDbArc
 50
70.0
 51
90.0
  0
LINE
  5
169
330
1F
100
AcDbEntity
  8
0
  6
HIDDEN
 62
     7
370
     0
100
AcDbLine
 10
207.5202898203
 20
104.7063921993
 30
0.0
 11
213.6255158022
 21
104.7063921993
 31
0.0
  0
LINE
  5
16A
330
1F
100
AcDbEntity
  8
0
  6
HIDDEN
 62
     7
370
     0
100
AcDbLine
 10
204.4202898203
 20
104.7063921993
 30
0.0
 11
204.5242620898
 21
104.7063921993
 31
0.0
  0
LINE
  5
16B
330
1F
100
AcDbEntity
  8
0
  6
HIDDEN
 62
     7
370
     0
100
AcDbLine
 10
204.5210350408
 20
121.3063921994
 30
0.0
 11
204.4202898203
 21
121.3063921994
 31
0.0
  0
LINE
  5
16C
330
1F
100
AcDbEntity
  8
0
  6
HIDDEN
 62
     7
370
     0
100
AcDbLine
 10
213.6255158022
 20
121.3063921994
 30
0.0
 11
207.517822787
 21
121.3063921994
 31
0.0
  0
ARC
  5
16D
330
1F
100
AcDbEntity
  8
0
  6
HIDDEN
 62
     7
370
     0
100
AcDbCircle
 10
204.4202898203
 20
105.1063921993
 30
0.0
 40
0.4000000000000341
100
AcDbArc
 50
180.0
 51
270.0
  0
ARC
  5
16E
330
1F
100
AcDbEntity
  8
0
  6
HIDDEN
 62
     7
370
     0
100
AcDbCircle
 10
204.4202898203
 20
120.9063921993
 30
0.0
 40
0.4000000000000341
100
AcDbArc
 50
90.0
 51
180.0
  0
LINE
  5
16F
330
1F
100
AcDbEntity
  8
0
  6
HIDDEN
 62
     7
370
     0
100
AcDbLine
 10
213.7623238595
 20
104.730515151
 30
0.0
 11
214.5202898203
 21
105.0063921993
 31
0.0
  0
LINE
  5
170
330
1F
100
AcDbEntity
  8
0
  6
HIDDEN
 62
     7
370
     0
100
AcDbLine
 10
214.5202898203
 20
121.0063921994
 30
0.0
 11
213.7623238595
 21
121.2822692477
 31
0.0
  0
LINE
  5
171
330
1F
100
AcDbEntity
  8
0
  6
HIDDEN
 62
     7
370
     0
100
AcDbLine
 10
214.5202898203
 20
105.0063921993
 30
0.0
 11
250.0202898203
 21
105.0063921993
 31
0.0
  0
LINE
  5
172
330
1F
100
AcDbEntity
  8
0
  6
HIDDEN
 62
     7
370
     0
100
AcDbLine
 10
250.0202898203
 20
121.0063921994
 30
0.0
 11
214.5202898203
 21
121.0063921994
 31
0.0
  0
LINE
  5
173
330
1F
100
AcDbEntity
  8
0
  6
HIDDEN
 62
     7
370
     0
100
AcDbLine
 10
84.9530024364
 20
75.4281126287
 30
0.0
 11
84.5202931499
 21
75.9063373461
 31
0.0
  0
LINE
  5
174
330
1F
100
AcDbEntity
  8
0
  6
HIDDEN
 62
     7
370
     0
100
AcDbLine
 10
72.5202902783
 20
76.5532987028
 30
0.0
 11
72.0396629731
 21
76.075073992
 31
0.0
  0
LINE
  5
175
330
1F
100
AcDbEntity
  8
0
  6
HIDDEN
 62
     7
370
     0
100
AcDbLine
 10
72.0395446316
 20
149.9377044906
 30
0.0
 11
72.5202900957
 21
149.4594248187
 31
0.0
  0
LINE
  5
176
330
1F
100
AcDbEntity
  8
0
  6
HIDDEN
 62
     7
370
     0
100
AcDbLine
 10
84.5202898224
 20
150.1063972061
 30
0.0
 11
84.9531114922
 21
150.584676879
 31
0.0
  0
LINE
  5
177
330
1F
100
AcDbEntity
  8
0
  6
HIDDEN
 62
     7
370
     0
100
AcDbLine
 10
84.5202898203
 20
75.8062085035
 30
0.0
 11
84.5202898203
 21
81.5323273054
 31
0.0
  0
LINE
  5
178
330
1F
100
AcDbEntity
  8
0
  6
HIDDEN
 62
     7
370
     0
100
AcDbLine
 10
72.5202898203
 20
81.5073763987
 30
0.0
 11
72.5202898203
 21
76.5533371173
 31
0.0
  0
LINE
  5
179
330
1F
100
AcDbEntity
  8
0
  6
HIDDEN
 62
     7
370
     0
100
AcDbLine
 10
84.5202898203
 20
144.4804570933
 30
0.0
 11
84.5202898203
 21
150.2064010321
 31
0.0
  0
LINE
  5
17A
330
1F
100
AcDbEntity
  8
0
  6
HIDDEN
 62
     7
370
     0
100
AcDbLine
 10
72.5202898203
 20
149.4594143194
 30
0.0
 11
72.5202898203
 21
144.505408
 31
0.0
  0
LINE
  5
17B
330
1F
100
AcDbEntity
  8
0
  6
HIDDEN
 62
     7
370
     0
100
AcDbLine
 10
121.8202898203
 20
107.0063921994
 30
0.0
 11
183.7198595108
 21
107.0063921994
 31
0.0
  0
LINE
  5
17C
330
1F
100
AcDbEntity
  8
0
  6
HIDDEN
 62
     7
370
     0
100
AcDbLine
 10
183.7198595108
 20
119.0063921993
 30
0.0
 11
121.8202898203
 21
119.0063921993
 31
0.0
  0
LINE
  5
17D
330
1F
100
AcDbEntity
  8
0
  6
HIDDEN
 62
     7
370
     0
100
AcDbLine
 10
183.7198595108
 20
107.0063921993
 30
0.0
 11
184.0202898203
 21
107.5063921993
 31
0.0
  0
LINE
  5
17E
330
1F
100
AcDbEntity
  8
0
  6
HIDDEN
 62
     7
370
     0
100
AcDbLine
 10
184.0202898203
 20
118.5063921994
 30
0.0
 11
183.7198595108
 21
119.0063921994
 31
0.0
  0
LINE
  5
17F
330
1F
100
AcDbEntity
  8
0
  6
HIDDEN
 62
     7
370
     0
100
AcDbLine
 10
204.0202898203
 20
119.0063921994
 30
0.0
 11
203.5202898203
 21
118.5063921994
 31
0.0
  0
LINE
  5
180
330
1F
100
AcDbEntity
  8
0
  6
HIDDEN
 62
     7
370
     0
100
AcDbLine
 10
203.5202898203
 20
107.5063921993
 30
0.0
 11
204.0202898203
 21
107.0063921993
 31
0.0
  0
LINE
  5
181
330
1F
100
AcDbEntity
  8
0
  6
HIDDEN
 62
     7
370
     0
100
AcDbLine
 10
184.0202898203
 20
107.5063921993
 30
0.0
 11
203.5202898203
 21
107.5063921993
 31
0.0
  0
LINE
  5
182
330
1F
100
AcDbEntity
  8
0
  6
HIDDEN
 62
     7
370
     0
100
AcDbLine
 10
203.5202898203
 20
118.5063921994
 30
0.0
 11
184.0202898203
 21
118.5063921994
 31
0.0
  0
LINE
  5
183
330
1F
100
AcDbEntity
  8
0
  6
HIDDEN
 62
     7
370
     0
100
AcDbLine
 10
158.9702898203
 20
131.5063921994
 30
0.0
 11
159.9702898203
 21
130.9290419302
 31
0.0
  0
LINE
  5
184
330
1F
100
AcDbEntity
  8
0
  6
HIDDEN
 62
     7
370
     0
100
AcDbLine
 10
164.9702898203
 20
130.9290419302
 30
0.0
 11
165.9702898203
 21
131.5063921994
 31
0.0
  0
LINE
  5
185
330
1F
100
AcDbEntity
  8
0
  6
HIDDEN
 62
     7
370
     0
100
AcDbLine
 10
165.9702898203
 20
94.5063921993
 30
0.0
 11
164.9702898203
 21
95.0837424685
 31
0.0
  0
LINE
  5
186
330
1F
100
AcDbEntity
  8
0
  6
HIDDEN
 62
     7
370
     0
100
AcDbLine
 10
159.9702898203
 20
95.0837424685
 30
0.0
 11
158.9702898203
 21
94.5063921993
 31
0.0
  0
LINE
  5
187
330
1F
100
AcDbEntity
  8
0
  6
HIDDEN
 62
     7
370
     0
100
AcDbLine
 10
159.9702898203
 20
130.9290419302
 30
0.0
 11
159.9702898203
 21
122.5063921994
 31
0.0
  0
LINE
  5
188
330
1F
100
AcDbEntity
  8
0
  6
HIDDEN
 62
     7
370
     0
100
AcDbLine
 10
164.9702898203
 20
122.5063921994
 30
0.0
 11
164.9702898203
 21
130.9290419302
 31
0.0
  0
LINE
  5
189
330
1F
100
AcDbEntity
  8
0
  6
HIDDEN
 62
     7
370
     0
100
AcDbLine
 10
159.9702898203
 20
122.5063921994
 30
0.0
 11
162.4702898203
 21
121.0042406518
 31
0.0
  0
LINE
  5
18A
330
1F
100
AcDbEntity
  8
0
  6
HIDDEN
 62
     7
370
     0
100
AcDbLine
 10
162.4702898203
 20
121.0042406518
 30
0.0
 11
164.9702898203
 21
122.5063921994
 31
0.0
  0
LINE
  5
18B
330
1F
100
AcDbEntity
  8
0
  6
HIDDEN
 62
     7
370
     0
100
AcDbLine
 10
164.9702898203
 20
95.0837424685
 30
0.0
 11
164.9702898203
 21
103.5063921993
 31
0.0
  0
LINE
  5
18C
330
1F
100
AcDbEntity
  8
0
  6
HIDDEN
 62
     7
370
     0
100
AcDbLine
 10
159.9702898203
 20
103.5063921993
 30
0.0
 11
159.9702898203
 21
95.0837424685
 31
0.0
  0
LINE
  5
18D
330
1F
100
AcDbEntity
  8
0
  6
HIDDEN
 62
     7
370
     0
100
AcDbLine
 10
164.9702898203
 20
103.5063921993
 30
0.0
 11
162.4702898203
 21
105.0085437469
 31
0.0
  0
LINE
  5
18E
330
1F
100
AcDbEntity
  8
0
  6
HIDDEN
 62
     7
370
     0
100
AcDbLine
 10
162.4702898203
 20
105.0085437469
 30
0.0
 11
159.9702898203
 21
103.5063921993
 31
0.0
  0
LINE
  5
18F
330
1F
100
AcDbEntity
  8
0
  6
HIDDEN
 62
     7
370
     0
100
AcDbLine
 10
204.5202898203
 20
124.681293421
 30
0.0
 11
204.5202898203
 21
121.3062577305
 31
0.0
  0
LINE
  5
190
330
1F
100
AcDbEntity
  8
0
  6
HIDDEN
 62
     7
370
     0
100
AcDbLine
 10
207.5202898203
 20
121.30594995
 30
0.0
 11
207.5202898203
 21
124.5627726734
 31
0.0
  0
LINE
  5
191
330
1F
100
AcDbEntity
  8
0
  6
HIDDEN
 62
     7
370
     0
100
AcDbLine
 10
204.5202898203
 20
104.7071070823
 30
0.0
 11
204.5202898203
 21
101.3299607014
 31
0.0
  0
LINE
  5
192
330
1F
100
AcDbEntity
  8
0
  6
HIDDEN
 62
     7
370
     0
100
AcDbLine
 10
207.5202898203
 20
101.4396784242
 30
0.0
 11
207.5202898203
 21
104.7063921993
 31
0.0
  0
LINE
  5
193
330
1F
100
AcDbEntity
  8
0
  6
HIDDEN
 62
     7
370
     0
100
AcDbLine
 10
204.6071418142
 20
98.8336249319
 30
0.0
 11
253.4278223278
 21
100.7517946934
 31
0.0
  0
LINE
  5
194
330
1F
100
AcDbEntity
  8
0
  6
HIDDEN
 62
     7
370
     0
100
AcDbLine
 10
253.5202898203
 20
103.2573566476
 30
0.0
 11
207.5115861359
 21
101.4496697566
 31
0.0
  0
LINE
  5
195
330
1F
100
AcDbEntity
  8
0
  6
HIDDEN
 62
     7
370
     0
100
AcDbLine
 10
207.5202898203
 20
124.5627726734
 30
0.0
 11
253.5202898203
 21
122.7554277511
 31
0.0
  0
LINE
  5
196
330
1F
100
AcDbEntity
  8
0
  6
HIDDEN
 62
     7
370
     0
100
AcDbLine
 10
253.4298291802
 20
125.2609108558
 30
0.0
 11
207.5172351236
 21
127.0648215893
 31
0.0
  0
LINE
  5
197
330
1F
100
AcDbEntity
  8
0
  6
HIDDEN
 62
     7
370
     0
100
AcDbLine
 10
204.5245852099
 20
127.0532397188
 30
0.0
 11
203.8075703229
 21
125.959610268
 31
0.0
  0
LINE
  5
198
330
1F
100
AcDbEntity
  8
0
  6
HIDDEN
 62
     7
370
     0
100
AcDbLine
 10
203.8075703229
 20
125.959610268
 30
0.0
 11
204.5089922748
 21
124.6810868762
 31
0.0
  0
LINE
  5
199
330
1F
100
AcDbEntity
  8
0
  6
HIDDEN
 62
     7
370
     0
100
AcDbLine
 10
204.5089922748
 20
101.3316975225
 30
0.0
 11
203.8075703229
 21
100.0531741307
 31
0.0
  0
LINE
  5
19A
330
1F
100
AcDbEntity
  8
0
  6
HIDDEN
 62
     7
370
     0
100
AcDbLine
 10
203.8075703229
 20
100.0531741307
 30
0.0
 11
204.6071418142
 21
98.8336249319
 31
0.0
  0
LINE
  5
19B
330
1F
100
AcDbEntity
  8
0
  6
HIDDEN
 62
     7
370
     0
100
AcDbLine
 10
204.5202898203
 20
127.0497178911
 30
0.0
 11
204.5202898203
 21
127.0063921994
 31
0.0
  0
LINE
  5
19C
330
1F
100
AcDbEntity
  8
0
  6
HIDDEN
 62
     7
370
     0
100
AcDbLine
 10
53.1105177702
 20
145.7616478366
 30
0.0
 11
53.0648307464
 21
145.7207328096
 31
0.0
  0
LINE
  5
19D
330
1F
100
AcDbEntity
  8
0
  6
HIDDEN
 62
     7
370
     0
100
AcDbLine
 10
97.5202898203
 20
160.5591034974
 30
0.0
 11
97.5202898203
 21
158.6835550815
 31
0.0
  0
LINE
  5
19E
330
1F
100
AcDbEntity
  8
0
  6
HIDDEN
 62
     7
370
     0
100
AcDbLine
 10
107.5202898203
 20
158.6821831322
 30
0.0
 11
107.5202898203
 21
160.5576752146
 31
0.0
  0
LINE
  5
19F
330
1F
100
AcDbEntity
  8
0
  6
HIDDEN
 62
     7
370
     0
100
AcDbLine
 10
253.3290230631
 20
103.5000346459
 30
0.0
 11
247.9950852592
 21
103.2904636588
 31
0.0
  0
LINE
  5
1A0
330
1F
100
AcDbEntity
  8
0
  6
HIDDEN
 62
     7
370
     0
100
AcDbLine
 10
248.1128647065
 20
100.2927765501
 30
0.0
 11
253.3271229491
 21
100.4976453144
 31
0.0
  0
LINE
  5
1A1
330
1F
100
AcDbEntity
  8
0
  6
HIDDEN
 62
     7
370
     0
100
AcDbLine
 10
247.9950852592
 20
103.2904636588
 30
0.0
 11
247.5151006489
 21
102.7712192328
 31
0.0
  0
LINE
  5
1A2
330
1F
100
AcDbEntity
  8
0
  6
HIDDEN
 62
     7
370
     0
100
AcDbLine
 10
247.5936202805
 20
100.7727611603
 30
0.0
 11
248.1128647065
 21
100.2927765501
 31
0.0
  0
LINE
  5
1A3
330
1F
100
AcDbEntity
  8
0
  6
HIDDEN
 62
     7
370
     0
100
AcDbLine
 10
253.5018573368
 20
103.2261089008
 30
0.0
 11
253.3290230631
 21
103.5000346459
 31
0.0
  0
LINE
  5
1A4
330
1F
100
AcDbEntity
  8
0
  6
HIDDEN
 62
     7
370
     0
100
AcDbLine
 10
253.3271229491
 20
125.5151390843
 30
0.0
 11
248.0539749828
 21
125.7223216322
 31
0.0
  0
LINE
  5
1A5
330
1F
100
AcDbEntity
  8
0
  6
HIDDEN
 62
     7
370
     0
100
AcDbLine
 10
247.9361955355
 20
122.7246345234
 30
0.0
 11
253.2701333394
 21
122.5150635363
 31
0.0
  0
LINE
  5
1A6
330
1F
100
AcDbEntity
  8
0
  6
HIDDEN
 62
     7
370
     0
100
AcDbLine
 10
253.2701333394
 20
122.5150635363
 30
0.0
 11
253.4429676132
 21
122.7889892814
 31
0.0
  0
LINE
  5
1A7
330
1F
100
AcDbEntity
  8
0
  6
HIDDEN
 62
     7
370
     0
100
AcDbLine
 10
248.0539749828
 20
125.7223216322
 30
0.0
 11
247.5347305568
 21
125.2423370219
 31
0.0
  0
LINE
  5
1A8
330
1F
100
AcDbEntity
  8
0
  6
HIDDEN
 62
     7
370
     0
100
AcDbLine
 10
247.4562109253
 20
123.2438789494
 30
0.0
 11
247.9361955355
 21
122.7246345234
 31
0.0
  0
LINE
  5
1A9
330
1F
100
AcDbEntity
  8
0
  6
HIDDEN
 62
     7
370
     0
100
AcDbLine
 10
203.5202898203
 20
107.0063921993
 30
0.0
 11
204.0202898203
 21
107.5063921993
 31
0.0
  0
LINE
  5
1AA
330
1F
100
AcDbEntity
  8
0
  6
HIDDEN
 62
     7
370
     0
100
AcDbLine
 10
204.0202898203
 20
118.5063921994
 30
0.0
 11
203.5202898203
 21
119.0063921994
 31
0.0
  0
LINE
  5
1AB
330
1F
100
AcDbEntity
  8
0
  6
HIDDEN
 62
     7
370
     0
100
AcDbLine
 10
188.5202898203
 20
107.0063921993
 30
0.0
 11
203.5202898203
 21
107.0063921993
 31
0.0
  0
LINE
  5
1AC
330
1F
100
AcDbEntity
  8
0
  6
HIDDEN
 62
     7
370
     0
100
AcDbLine
 10
203.5202898203
 20
119.0063921994
 30
0.0
 11
188.5202898203
 21
119.0063921994
 31
0.0
  0
LINE
  5
1AD
330
1F
100
AcDbEntity
  8
0
  6
HIDDEN
 62
     7
370
     0
100
AcDbLine
 10
188.5202898203
 20
119.0063921994
 30
0.0
 11
188.0202898203
 21
118.5063921994
 31
0.0
  0
LINE
  5
1AE
330
1F
100
AcDbEntity
  8
0
  6
HIDDEN
 62
     7
370
     0
100
AcDbLine
 10
188.0202898203
 20
107.5063921993
 30
0.0
 11
188.5202898203
 21
107.0063921993
 31
0.0
  0
LINE
  5
1AF
330
1F
100
AcDbEntity
  8
0
  6
HIDDEN
 62
     7
370
     0
100
AcDbLine
 10
204.0202898203
 20
107.5063921993
 30
0.0
 11
208.0202898203
 21
107.5063921993
 31
0.0
  0
LINE
  5
1B0
330
1F
100
AcDbEntity
  8
0
  6
HIDDEN
 62
     7
370
     0
100
AcDbLine
 10
208.0202898203
 20
118.5063921994
 30
0.0
 11
204.0202898203
 21
118.5063921994
 31
0.0
  0
LINE
  5
1B1
330
1F
100
AcDbEntity
  8
0
  6
HIDDEN
 62
     7
370
     0
100
AcDbLine
 10
195.0202898203
 20
110.0063921993
 30
0.0
 11
201.0202898203
 21
110.0063921993
 31
0.0
  0
LINE
  5
1B2
330
1F
100
AcDbEntity
  8
0
  6
HIDDEN
 62
     7
370
     0
100
AcDbLine
 10
201.0202898203
 20
116.0063921993
 30
0.0
 11
195.0202898203
 21
116.0063921993
 31
0.0
  0
DIMENSION
  5
1B3
330
1F
100
AcDbEntity
  8
VERMASSUNG
100
AcDbDimension
  2
*D1
 10
38.267063922
 20
63.0063921993
 30
0.0
 11
38.267063922
 21
113.0063921993
 31
0.0
 70
   160
  1
HSK A %%c<>
 71
     2
 42
-1.0
  3
SLDDIMSTYLE0
100
AcDbAlignedDimension
 13
94.0202898203
 23
163.0063921994
 33
0.0
 14
94.0202898203
 24
63.0063921993
 34
0.0
 50
90.0
100
AcDbRotatedDimension
  0
DIMENSION
  5
1C0
330
1F
100
AcDbEntity
  8
VERMASSUNG
100
AcDbDimension
  2
*D2
 10
253.5202898203
 20
161.5088840737
 30
0.0
 11
228.7702898203
 21
161.5088840737
 31
0.0
 70
   160
 71
     2
 42
-1.0
  3
SLDDIMSTYLE1
100
AcDbAlignedDimension
 13
204.0202898203
 23
120.9063921993
 33
0.0
 14
253.5202898203
 24
124.657611216
 34
0.0
 50
0.0
100
AcDbRotatedDimension
  0
DIMENSION
  5
1CB
330
1F
100
AcDbEntity
  8
VERMASSUNG
100
AcDbDimension
  2
*D3
 10
260.3574214518
 20
121.0063921994
 30
0.0
 11
260.3574214518
 21
113.0063921993
 31
0.0
 70
   160
  1
%%c<> 
 71
     2
 42
-1.0
  3
SLDDIMSTYLE2
100
AcDbAlignedDimension
 13
250.0202898203
 23
105.0063921993
 33
0.0
 14
250.0202898203
 24
121.0063921994
 34
0.0
 50
90.0
100
AcDbRotatedDimension
  0
DIMENSION
  5
1D8
330
1F
100
AcDbEntity
  8
VERMASSUNG
100
AcDbDimension
  2
*D4
 10
266.3574214518
 20
126.5063921994
 30
0.0
 11
266.3574214518
 21
113.0063921993
 31
0.0
 70
   160
  1
%%c<>
 71
     2
 42
-1.0
  3
SLDDIMSTYLE3
100
AcDbAlignedDimension
 13
253.5202898203
 23
99.5063921993
 33
0.0
 14
253.5202898203
 24
126.5063921994
 34
0.0
 50
90.0
100
AcDbRotatedDimension
  0
DIMENSION
  5
1E4
330
1F
100
AcDbEntity
  8
VERMASSUNG
100
AcDbDimension
  2
*D5
 10
253.5202898203
 20
173.5088840737
 30
0.0
 11
173.5202898203
 21
173.5088840737
 31
0.0
 70
   160
 71
     2
 42
-1.0
  3
SLDDIMSTYLE0
100
AcDbAlignedDimension
 13
93.5202898203
 23
162.5063921993
 33
0.0
 14
253.5202898203
 24
124.657611216
 34
0.0
100
AcDbRotatedDimension
  0
DIMENSION
  5
1EE
330
1F
100
AcDbEntity
  8
VERMASSUNG
100
AcDbDimension
  2
*D6
 10
253.5202898203
 20
167.5088840737
 30
0.0
 11
187.9952898203
 21
167.5088840737
 31
0.0
 70
   160
 71
     2
 42
-1.0
  3
SLDDIMSTYLE0
100
AcDbAlignedDimension
 13
122.4702898203
 23
160.9751320202
 33
0.0
 14
253.5202898203
 24
124.6058399592
 34
0.0
100
AcDbRotatedDimension
  0
DIMENSION
  5
1F8
330
1F
100
AcDbEntity
  8
VERMASSUNG
100
AcDbDimension
  2
*D7
 10
253.5202898203
 20
179.5088840737
 30
0.0
 11
148.5702898203
 21
179.5088840737
 31
0.0
 70
   160
 71
     2
 42
-1.0
  3
SLDDIMSTYLE0
100
AcDbAlignedDimension
 13
43.6202898203
 23
143.5090619419
 33
0.0
 14
253.5202898203
 24
124.6058399592
 34
0.0
100
AcDbRotatedDimension
  0
DIMENSION
  5
202
330
1F
100
AcDbEntity
  8
VERMASSUNG
100
AcDbDimension
  2
*D8
 10
272.3574214518
 20
94.5063921993
 30
0.0
 11
272.3574214518
 21
113.0063921993
 31
0.0
 70
   160
  1
%%c<>
 71
     2
 42
-1.0
  3
SLDDIMSTYLE0
100
AcDbAlignedDimension
 13
171.4702898203
 23
131.5063921994
 33
0.0
 14
171.4702898203
 24
94.5063921993
 34
0.0
 50
90.0
100
AcDbRotatedDimension
  0
LINE
  5
20D
330
1F
100
AcDbEntity
  8
VERMASSUNG
  6
CENTERX2
370
     0
100
AcDbLine
 10
41.3698204593
 20
113.0063921993
 30
0.0
 11
256.644312026
 21
113.0063921993
 31
0.0
  0
OLE2FRAME
  5
20E
330
1F
100
AcDbEntity
  8
0
100
AcDbOle2Frame
 70
     2
  3
Bitmap Image
 10
13.8511154363
 20
38.264191557
 30
0.0
 11
51.6290888628
 21
31.9806341108
 31
0.0
 71
     2
 72
     0
 73
     1
 90
    12928
310
80552BED0767C5B32B40DDAF6807D121434000000000000000006FFBDDFB85D0
310
4940DDAF6807D121434000000000000000006FFBDDFB85D04940416F4BD60AFB
310
3F4000000000000000002BED0767C5B32B40416F4BD60AFB3F40000000000000
310
0000000000000100000000010000010000000100000000000100000000320000
310
D0CF11E0A1B11AE1000000000000000000000000000000003E000300FEFF0900
310
0600000000000000000000000100000001000000000000000010000002000000
310
01000000FEFFFFFF0000000000000000FFFFFFFFFFFFFFFFFFFFFFFFFFFFFFFF
310
FFFFFFFFFFFFFFFFFFFFFFFFFFFFFFFFFFFFFFFFFFFFFFFFFFFFFFFFFFFFFFFF
310
FFFFFFFFFFFFFFFFFFFFFFFFFFFFFFFFFFFFFFFFFFFFFFFFFFFFFFFFFFFFFFFF
310
FFFFFFFFFFFFFFFFFFFFFFFFFFFFFFFFFFFFFFFFFFFFFFFFFFFFFFFFFFFFFFFF
310
FFFFFFFFFFFFFFFFFFFFFFFFFFFFFFFFFFFFFFFFFFFFFFFFFFFFFFFFFFFFFFFF
310
FFFFFFFFFFFFFFFFFFFFFFFFFFFFFFFFFFFFFFFFFFFFFFFFFFFFFFFFFFFFFFFF
310
FFFFFFFFFFFFFFFFFFFFFFFFFFFFFFFFFFFFFFFFFFFFFFFFFFFFFFFFFFFFFFFF
310
FFFFFFFFFFFFFFFFFFFFFFFFFFFFFFFFFFFFFFFFFFFFFFFFFFFFFFFFFFFFFFFF
310
FFFFFFFFFFFFFFFFFFFFFFFFFFFFFFFFFFFFFFFFFFFFFFFFFFFFFFFFFFFFFFFF
310
FFFFFFFFFFFFFFFFFFFFFFFFFFFFFFFFFFFFFFFFFFFFFFFFFFFFFFFFFFFFFFFF
310
FFFFFFFFFFFFFFFFFFFFFFFFFFFFFFFFFFFFFFFFFFFFFFFFFFFFFFFFFFFFFFFF
310
FFFFFFFFFFFFFFFFFFFFFFFFFFFFFFFFFFFFFFFFFFFFFFFFFFFFFFFFFFFFFFFF
310
FFFFFFFFFFFFFFFFFFFFFFFFFFFFFFFFFFFFFFFFFFFFFFFFFFFFFFFFFFFFFFFF
310
FFFFFFFFFFFFFFFFFFFFFFFFFFFFFFFFFFFFFFFFFFFFFFFFFFFFFFFFFFFFFFFF
310
FDFFFFFFFEFFFFFFFEFFFFFFFEFFFFFF05000000060000000700000008000000
310
090000000A0000000B0000000C0000000D0000000E0000000F00000010000000
310
11000000120000001300000014000000150000001600000017000000FEFFFFFF
310
FFFFFFFFFFFFFFFFFFFFFFFFFFFFFFFFFFFFFFFFFFFFFFFFFFFFFFFFFFFFFFFF
310
FFFFFFFFFFFFFFFFFFFFFFFFFFFFFFFFFFFFFFFFFFFFFFFFFFFFFFFFFFFFFFFF
310
FFFFFFFFFFFFFFFFFFFFFFFFFFFFFFFFFFFFFFFFFFFFFFFFFFFFFFFFFFFFFFFF
310
FFFFFFFFFFFFFFFFFFFFFFFFFFFFFFFFFFFFFFFFFFFFFFFFFFFFFFFFFFFFFFFF
310
FFFFFFFFFFFFFFFFFFFFFFFFFFFFFFFFFFFFFFFFFFFFFFFFFFFFFFFFFFFFFFFF
310
FFFFFFFFFFFFFFFFFFFFFFFFFFFFFFFFFFFFFFFFFFFFFFFFFFFFFFFFFFFFFFFF
310
FFFFFFFFFFFFFFFFFFFFFFFFFFFFFFFFFFFFFFFFFFFFFFFFFFFFFFFFFFFFFFFF
310
FFFFFFFFFFFFFFFFFFFFFFFFFFFFFFFFFFFFFFFFFFFFFFFFFFFFFFFFFFFFFFFF
310
FFFFFFFFFFFFFFFFFFFFFFFFFFFFFFFFFFFFFFFFFFFFFFFFFFFFFFFFFFFFFFFF
310
FFFFFFFFFFFFFFFFFFFFFFFFFFFFFFFFFFFFFFFFFFFFFFFFFFFFFFFFFFFFFFFF
310
FFFFFFFFFFFFFFFFFFFFFFFFFFFFFFFFFFFFFFFFFFFFFFFFFFFFFFFFFFFFFFFF
310
FFFFFFFFFFFFFFFFFFFFFFFFFFFFFFFFFFFFFFFFFFFFFFFFFFFFFFFFFFFFFFFF
310
FFFFFFFFFFFFFFFFFFFFFFFFFFFFFFFFFFFFFFFFFFFFFFFFFFFFFFFFFFFFFFFF
310
52006F006F007400200045006E00740072007900000000000000000000000000
310
0000000000000000000000000000000000000000000000000000000000000000
310
16000500FFFFFFFFFFFFFFFF020000000A00030000000000C000000000000046
310
0000000000000000000000006045EEFF9008CC0103000000C000000000000000
310
01004F006C006500000000000000000000000000000000000000000000000000
310
0000000000000000000000000000000000000000000000000000000000000000
310
0A000200FFFFFFFFFFFFFFFFFFFFFFFF00000000000000000000000000000000
310
0000000000000000000000000000000000000000000000001400000000000000
310
010043006F006D0070004F0062006A0000000000000000000000000000000000
310
0000000000000000000000000000000000000000000000000000000000000000
310
120002010100000003000000FFFFFFFF00000000000000000000000000000000
310
0000000000000000000000000000000000000000010000004D00000000000000
310
01004F006C006500310030004E00610074006900760065000000000000000000
310
0000000000000000000000000000000000000000000000000000000000000000
310
1A000200FFFFFFFFFFFFFFFFFFFFFFFF00000000000000000000000000000000
310
0000000000000000000000000000000000000000040000002426000000000000
310
FEFFFFFF02000000FEFFFFFFFFFFFFFFFFFFFFFFFFFFFFFFFFFFFFFFFFFFFFFF
310
FFFFFFFFFFFFFFFFFFFFFFFFFFFFFFFFFFFFFFFFFFFFFFFFFFFFFFFFFFFFFFFF
310
FFFFFFFFFFFFFFFFFFFFFFFFFFFFFFFFFFFFFFFFFFFFFFFFFFFFFFFFFFFFFFFF
310
FFFFFFFFFFFFFFFFFFFFFFFFFFFFFFFFFFFFFFFFFFFFFFFFFFFFFFFFFFFFFFFF
310
FFFFFFFFFFFFFFFFFFFFFFFFFFFFFFFFFFFFFFFFFFFFFFFFFFFFFFFFFFFFFFFF
310
FFFFFFFFFFFFFFFFFFFFFFFFFFFFFFFFFFFFFFFFFFFFFFFFFFFFFFFFFFFFFFFF
310
FFFFFFFFFFFFFFFFFFFFFFFFFFFFFFFFFFFFFFFFFFFFFFFFFFFFFFFFFFFFFFFF
310
FFFFFFFFFFFFFFFFFFFFFFFFFFFFFFFFFFFFFFFFFFFFFFFFFFFFFFFFFFFFFFFF
310
FFFFFFFFFFFFFFFFFFFFFFFFFFFFFFFFFFFFFFFFFFFFFFFFFFFFFFFFFFFFFFFF
310
FFFFFFFFFFFFFFFFFFFFFFFFFFFFFFFFFFFFFFFFFFFFFFFFFFFFFFFFFFFFFFFF
310
FFFFFFFFFFFFFFFFFFFFFFFFFFFFFFFFFFFFFFFFFFFFFFFFFFFFFFFFFFFFFFFF
310
FFFFFFFFFFFFFFFFFFFFFFFFFFFFFFFFFFFFFFFFFFFFFFFFFFFFFFFFFFFFFFFF
310
FFFFFFFFFFFFFFFFFFFFFFFFFFFFFFFFFFFFFFFFFFFFFFFFFFFFFFFFFFFFFFFF
310
FFFFFFFFFFFFFFFFFFFFFFFFFFFFFFFFFFFFFFFFFFFFFFFFFFFFFFFFFFFFFFFF
310
FFFFFFFFFFFFFFFFFFFFFFFFFFFFFFFFFFFFFFFFFFFFFFFFFFFFFFFFFFFFFFFF
310
FFFFFFFFFFFFFFFFFFFFFFFFFFFFFFFFFFFFFFFFFFFFFFFFFFFFFFFFFFFFFFFF
310
0100000200000000000000000000000000000000000000008010820000000005
310
50AD063600000000B0F50B360000000000000000000000000000000000000000
310
0100FEFF030A0000FFFFFFFF0A00030000000000C00000000000004607000000
310
5042727573680007000000504272757368000700000050427275736800F439B2
310
7100000000000000000000000000000000000000000000000000000000000000
310
0000000000000000000000000000000000000000000000000000000000000000
310
0000000000000000000000000000000000000000000000000000000000000000
310
0000000000000000000000000000000000000000000000000000000000000000
310
0000000000000000000000000000000000000000000000000000000000000000
310
0000000000000000000000000000000000000000000000000000000000000000
310
0000000000000000000000000000000000000000000000000000000000000000
310
0000000000000000000000000000000000000000000000000000000000000000
310
0000000000000000000000000000000000000000000000000000000000000000
310
0000000000000000000000000000000000000000000000000000000000000000
310
0000000000000000000000000000000000000000000000000000000000000000
310
0000000000000000000000000000000000000000000000000000000000000000
310
20260000424D0E260000000000003E00000028000000B40200006E0000000100
310
01000000000000000000130B0000130B00000200000002000000000000FFFFFF
310
FFFFFFFFFFFFFFFFFFFFFFFFFFFFFFFFFFFFFFFFFFFFFFFFFFFFFFFFFFFFFFFF
310
FFFFFFFFFFFFFFFFFFFFFFFFFFFFFFFFFFFFFFFFFFFFFFFFFFFFFFFFFFFFFFFF
310
FFFFFFFFFFFFFFFFFFFFFFFFFFFFFFFFFFFFFFFFFFFFFFFFF000FFFFFFFFFFFF
310
FFFFFFFFFFFFFFFFFFFFFFFFFFFFFFFFFFFFFFFFFFFFFFFFFFFFFFFFFFFFFFFF
310
FFFFFFFFFFFFFFFFFFFFFFFFFFFFFFFFFFFFFFFFFFFFFFFFFFFFFFFFFFFFFFFF
310
FFFFFFFFFFFFFFFFFFFFFFFFFFFFFFFFF000FFFFFFFFFFFFFFFFFFFFFFFFFFFF
310
FFFFFFFFFFFFFFFFFFFFFFFFFFFFFFFFFFFFFFFFFFFFFFFFFFFFFFFFFFFFFFFF
310
FFFFFFFFFFFFFFFFFFFFFFFFFFFFFFFFFFFFFFFFFFFFFFFFFFFFFFFFFFFFFFFF
310
FFFFFFFFFFFFFFFFF000FFFFFFFFFFFFFFFFFFFFFFFFFFFFFFFFFFFFFFFFFFFF
310
FFFFFFFFFFFFFFFFFFFFFFFFFFFFFFFFFFFFFFFFFFFFFFFFFFFFFFFFFFFFFFFF
310
FFFFFFFFFFFFFFFFFFFFFFFFFFFFFFFFFFFFFFFFFFFFFFFFFFFFFFFFFFFFFFFF
310
F000FFFFFFFFFFFFFFFFFFFFFFFFFFFFFFFFFFFFFFFFFFFFFFFFFFFFFFFFFFFF
310
FFFFFFFFFFFFFFFFFFFFFFFFFFFFFFFFFFFFFFFFFFFFFFFFFFFFFFFFFFFFFFFF
310
FFFFFFFFFFFFFFFFFFFFFFFFFFFFFFFFFFFFFFFFFFFFFFFFF000FFFFFFFFFFFF
310
FFFFFFFFFFFFFFFFFFFFFFFFFFFFFFFFFFFFFFFFFFFFFFFFFFFFFFFFFFFFFFFF
310
FFFFFFFFFFFFFFFFFFFFFFFFFFFFFFFFFFFFFFFFFFFFFFFFFFFFFFFFFFFFFFFF
310
FFFFFFFFFFFFFFFFFFFFFFFFFFFFFFFFF000FFFFFFFFFFFFFFFFFFFFFFFFFFFF
310
FFFFFFFFFFFFFFFFFFFFFFFFFFFFFFFFFFFFFFFFFFFFFFFFFFFFFFFFFFFFFFFF
310
FFFFFFFFFFFFFFFFFFFFFFFFFFFFFFFFFFFFFFFFFFFFFFFFFFFFFFFFFFFFFFFF
310
FFFFFFFFFFFFFFFFF000FFFFFFFFFFFFFFFFFFFFFFFFFFFFFFFFFFFFFFFFFFFF
310
FFFFFFFFFFFFFFFFFFFFFFFFFFFFFFFFFFFFFFFFFFFFFFFFFFFFFFFFFFFFFFFF
310
FFFFFFFFFFFFFFFFFFFFFFFFFFFFFFFFFFFFFFFFFFFFFFFFFFFFFFFFFFFFFFFF
310
F000FFFFFFFFFFFFFFFFFFFFFFFFFFFFFFFFFFFFFFFFFFFFFFFFFFFFFFFFFFFF
310
FFFFFFFFFFFFFFFFFFFFFFFFFFFFFFFFFFFFFFFFFFFFFFFFFFFFFFFFFFFFFFFF
310
FFFFFFFFFFFFFFFFFFFFFFFFFFFFFFFFFFFFFFFFFFFFFFFFF000FFFFFFFFFFFF
310
FFFFFFFFFFFFFFFFFFFFFFFFFFFFFFFFFFFFFFFFFFFFFFFFFFFFFFFFFFFFFFFF
310
FFFFFFFFFFFFFFFFFFFFFFFFFFFFFFFFFFFFFFFFFFFFFFFFFFFFFFFFFFFFFFFF
310
FFFFFFFFFFFFFFFFFFFFFFFFFFFFFFFFF000FFFFFFFFFFFFFFFFFFFFFFFFFFFF
310
FFFFFFFFFFFFFFFFFFFFFFFFFFFFFFFFFFFFFFFFFFFFFFFFFFFFFFFFFFFFFFFF
310
FFFFFFFFFFFFFFFFFFFFFFFFFFFFFFFFFFFFFFFFFFFFFFFFFFFFFFFFFFFFFFFF
310
FFFFFFFFFFFFFFFFF000FFFFFFFFFFFFFFFFFFFFFFFFFFFFFFFFFFFFFFFFFFFF
310
FFFFFFFFFFFFFFFFFFFFFFFFFFFFFFFFFFFFFFFFFFFFFFFFFFFFFFFFFFFFFFFF
310
FFFFFFFFFFFFFFFFFFFFFFFFFFFFFFFFFFFFFFFFFFFFFFFFFFFFFFFFFFFFFFFF
310
F000FFFFFFFFFFFFFFFFFFFFFFFFFFFFFFFFFFFFFFFFFFFFFFFFFFFFFFFFFFFF
310
FFFFFFFFFFFFFFFFFFFFFFFFFFFFFFFFFFFFFFFFFFFFFFFFFFFFFFFFFFFFFFFF
310
FFFFFFFFFFFFFFFFFFFFFFFFFFFFFFFFFFFFFFFFFFFFFFFFF000FFFFFFFFFFFF
310
FFFFFFFFFFFFFFFFFFFFFFFFFFFFFFFFFFFFFFFFFFFFFFFFFFFFFFFFFFFFFFFF
310
FFFFFFFFFFFFFFFFFFFFFFFFFFFFFFFFFFFFFFFFFFFFFFFFFFFFFFFFFFFFFFFF
310
FFFFFFFFFFFFFFFFFFFFFFFFFFFFFFFFF000FFFFFFFFFFFFFFFFFFFFFFFFFFFF
310
FFFFFFFFFFFFFFFFFFFFFFFFFFFFFFFFFFFFFFFFFFFFFFFFFFFFFFFFFFFFFFFF
310
FFFFFFFFFFFFFFFFFFFFFFFFFFFFFFFFFFFFFFFFFFFFFFFFFFFFFFFFFFFFFFFF
310
FFFFFFFFFFFFFFFFF000FFFFFFFFFFFFFFFFFFFFFFFFFFFFFFFFFFFFFFFFFFFF
310
FFFFFFFFFFFFFFFFFFFFFFFFFFFFFFFFFFFFFFFFFFFFFFFFFFFFFFFFFFFFFFFF
310
FFFFFFFFFFFFFFFFFFFFFFFFFFFFFFFFFFFFFFFFFFFFFFFFFFFFFFFFFFFFFFFF
310
F000FFFFFFFFFFFFFFFFFFFFFFFFFFFFFFFFFFFFFFFFFFFFFFFFFFFFFFFFFFFF
310
FFFFFFFFFFFFFFFFFFFFFFFFFFFFFFFFFFFFFFFFFFFFFFFFFFFFFFFFFFFFFFFF
310
FFFFFFFFFFFFFFFFFFFFFFFFFFFFFFFFFFFFFFFFFFFFFFFFF000FFFFFFFFFFFF
310
FFFFFFFFFFFFFFFFFFFFFFFFFFFFFFFFFFFFFFFFFFFFFFFFFFFFFFFFFFFFFFFF
310
FFFFFFFFFFFFFFFFFFFFFFFFFFFFFFFFFFFFFFFFFFFFFFFFFFFFFFFFFFFFFFFF
310
FFFFFFFFFFFFFFFFFFFFFFFFFFFFFFFFF000FFFFFFFFFFFFFFFFFFFFFFFFFFFF
310
FFFFFFFFFFFFFFFFFFFFFFFFFFFFFFFFFFFFFFFFFFFFFFFFFFFFFFFFFFFFFFFF
310
FFFFFFFFFFFFFFFFFFFFFFFFFFFFFFFFFFFFFFFFFFFFFFFFFFFFFFFFFFFFFFFF
310
FFFFFFFFFFFFFFFFF000FFFFF80003FFFFFFFFFFFFFFFFFFFFFFFFFFFFFFFFFF
310
FFFFF00007FFFFFFFFFF00007FFFFFF800000000000000007FFFFFFFFFFFFFFF
310
FFFFFFFC001FFFFFFFFFFFFFFC001FFFFFFFFFFFFFFFFFFFFFFFFFFE0007FFFF
310
F000FFFF8000007FFFFFFFF8000FFFFFC0007FFFFF80007FFFFF0000007FFFFF
310
FFF8000007FFFFF800000000000000007FFFFFF0001FFFFFFFFFFFC00001FFFF
310
FFFFFFFFC00001FFFFFFFF000000000003FFFFE000007FFFF000FFFE0000000F
310
FFFFFFF0000FFFFF80007FFFFF80007FFFFC0000001FFFFFFFC0000001FFFFF8
310
00000000000000007FFFFFF0001FFFFFFFFFFE0000003FFFFFFFFFFE0000003F
310
FFFFFF000000000003FFFF0000000FFFF000FFF800000003FFFFFFF00007FFFF
310
80007FFFFF80007FFFF000000007FFFFFF000000003FFFF80000000000000000
310
7FFFFFF0001FFFFFFFFFF80000000FFFFFFFFFF80000000FFFFFFF0000000000
310
03FFFC00000003FFF000FFE000000000FFFFFFF00007FFFF80003FFFFF80007F
310
FFC000000001FFFFFC000000001FFFF800000000000000007FFFFFF0001FFFFF
310
FFFFE000000003FFFFFFFFE000000003FFFFFF000000000003FFF000000000FF
310
F000FF80000000007FFFFFF00007FFFF80003FFFFF80007FFF8000000000FFFF
310
F80000000007FFF800000000000000007FFFFFF0001FFFFFFFFFC000000001FF
310
FFFFFFC000000001FFFFFF000000000003FFC0000000007FF000FF0000000000
310
3FFFFFE00007FFFF00003FFFFF80007FFE00000000003FFFF00000000003FFF8
310
00000000000000007FFFFFF0001FFFFFFFFF8000000000FFFFFFFF8000000000
310
FFFFFF000000000003FF80000000003FF000FE00000000001FFFFFE00003FFFF
310
00003FFFFF80007FFC00000000001FFFE00000000001FFF8000001FFFE000000
310
7FFFFFF0001FFFFFFFFE00000000003FFFFFFE00000000003FFFFF0000000000
310
03FF00000000001FF000FC00000000000FFFFFE00003FFFF00001FFFFF80007F
310
F800000000001FFFC00000000000FFF8000001FFFE0000007FFFFFF0001FFFFF
310
FFFC00000000001FFFFFFC00000000001FFFFF000000000003FE00000000000F
310
F000F8000000000007FFFFE00003FFFF00001FFFFF80007FF800000000000FFF
310
800000000000FFF8000001FFFE0000007FFFFFF0001FFFFFFFF800000000000F
310
FFFFF800000000000FFFFF000000000003FC000000000007F000F80000000000
310
03FFFFC00003FFFE00001FFFFF80007FF0000000000007FF0000000000007FF8
310
000001FFFE0000007FFFFFF0001FFFFFFFF0000000000007FFFFF00000000000
310
07FFFF000000000003F8000000000003F000F0000000000003FFFFC00001FFFE
310
00001FFFFF80007FE0000000000007FE0000000000003FF8000001FFFE000000
310
7FFFFFF0001FFFFFFFF0000000000007FFFFF0000000000007FFFF0000000000
310
03F800001F800003F000E00001FFF00001FFFFC00001FFFE00000FFFFF80007F
310
E00001FFE00003FE00001FFF00003FF8000001FFFE0000007FFFFFF0001FFFFF
310
FFE000003E000003FFFFE000003E000003FFFF000000000003F00001FFF80001
310
F000E00007FFFC0001FFFFC00001FFFE00000FFFFF80007FC0000FFFFC0003FC
310
0000FFFFC0001FF8000001FFFE0000007FFFFFF0001FFFFFFFC00003FFE00001
310
FFFFC00003FFE00001FFFF0001FFFFFFFFF00007FFFE0001F000E0000FFFFF00
310
00FFFF800001FFFC00000FFFFF80007FC0001FFFFE0001FC0001FFFFE0001FF8
310
000001FFFE0000007FFFFFF0001FFFFFFF80000FFFF80000FFFF80000FFFF800
310
00FFFF0003FFFFFFFFE0000FFFFF8000F000C0003FFFFF8000FFFF800000FFFC
310
000007FFFF80007F80003FFFFF0001FC0003FFFFF0001FF8000001FFFE000000
310
7FFFFFF0001FFFFFFF80003FFFFE0000FFFF80003FFFFE0000FFFF0003FFFFFF
310
FFE0003FFFFF8000F000C0003FFFFF8000FFFF800000FFFC000007FFFF80007F
310
80007FFFFF8001F80007FFFFF8000FF8000001FFFE0000007FFFFFF0001FFFFF
310
FF00007FFFFF00007FFF00007FFFFF00007FFF0003FFFFFFFFE0003FFFFFC000
310
F000C0007FFFFFC000FFFF000000FFFC000007FFFF80007F8000FFFFFF8000F8
310
000FFFFFF8000FF8000001FFFE0000007FFFFFF0001FFFFFFF0000FFFFFF8000
310
7FFF0000FFFFFF80007FFF0003FFFFFFFFC0007FFFFFC00070008000FFFFFFC0
310
00FFFF000000FFF8000007FFFF80007F8000FFFFFF8000F8000FFFFFF8000FF8
310
000001FFFE0000007FFFFFF0001FFFFFFE0001FFFFFFC0003FFE0001FFFFFFC0
310
003FFF0003FFFFFFFFC0007FFFFFE00070008000FFFFFFC0007FFF0000007FF8
310
000003FFFF80007F0001FFFFFF8000F8000FFFFFF8000FF8000001FFFE000000
310
7FFFFFF0001FFFFFFE0001FFFFFFC0003FFE0001FFFFFFC0003FFF0003FFFFFF
310
FFC000FFFFFFE00070008000FFFFFFC0007FFF0000007FF8000003FFFF80007F
310
0001FFFFFF8000F8001FFFFFF8000FF8000001FFFE0000007FFFFFF0001FFFFF
310
FE0003FFFFFFE0003FFE0003FFFFFFE0003FFF0003FFFFFFFFC000FFFFFFE000
310
70008000FFFFFFC0007FFE0000007FF8000003FFFF80007F0001FFFFFF8000F0
310
001FFFFFF8000FF8000001FFFE0000007FFFFFF0001FFFFFFC0003FFFFFFE000
310
1FFC0003FFFFFFE0001FFF0003FFFFFFFFC000FFFFFFC00070008000FFFFFF80
310
007FFE0000007FF0000003FFFF80007F0001FFFFFF0000F0001FFFFFF8000FF8
310
000001FFFE0000007FFFFFF0001FFFFFFC0007FFFFFFF0001FFC0007FFFFFFF0
310
001FFF0003FFFFFFFFC000FFFFFFC00070008001FFFFFF0000FFFE0000003FF0
310
000001FFFF80007F0001FFFFFF0000F8001FFFFFF0000FF8000001FFFE000000
310
7FFFFFF0001FFFFFFC0007FFFFFFF0001FFC0007FFFFFFF0001FFF0003FFFFFF
310
FFC001FFFFFF80007000FFFFFFFFFE0000FFFE0008003FF0008001FFFF80007F
310
FFFFFFFFFC0000FFFFFFFFFFE0000FF8000001FFFE0000007FFFFFF0001FFFFF
310
F8000FFFFFFFF8000FF8000FFFFFFFF8000FFF0003FFFFFFFFFFFFFFFFFF0000
310
7000FFFFFFFFFC0000FFFC0008003FF0008001FFFF80007FFFFFFFFFF80001FF
310
FFFFFFFF80000FF8000001FFFE0000007FFFFFF0001FFFFFF8000FFFFFFFF800
310
0FF8000FFFFFFFF8000FFF0003FFFFFFFFFFFFFFFFFE0000F000FFFFFFFFE000
310
00FFFC000C003FE000C001FFFF80007FFFFFFFFFC00001FFFFFFFFFE00001FF8
310
000001FFFE0000007FFFFFF0001FFFFFF8000FFFFFFFF8000FF8000FFFFFFFF8
310
000FFF0003FFFFFFFFFFFFFFFFF00000F000FFFFFFFE000001FFFC000C001FE0
310
00C000FFFF80007FFFFFFFFE000001FFFFFFFFE000001FF80FFFFFFFFFFFFFC0
310
7FFFFFF0001FFFFFF8000FFFFFFFF8000FF8000FFFFFFFF8000FFF0003FFFFFF
310
FFFFFFFFFF800000F000FFFFFFC0000001FFFC001C001FE001C000FFFF80007F
310
FFFFFF80000003FFFFFFF80000001FF80FFFFFFFFFFFFFC07FFFFFF0001FFFFF
310
F8001FFFFFFFFC000FF8001FFFFFFFFC000FFF0003FFFFFFFFFFFFFFF0000001
310
F000FFFFF800000001FFF8001C001FE001C000FFFF80007FFFFFF800000003FF
310
FFFF800000003FF80FFFFFFFFFFFFFC07FFFFFF0001FFFFFF8001FFFFFFFFC00
310
0FF8001FFFFFFFFC000FFF0003FFFFFFFFFFFFFE00000001F000FFFFC0000000
310
03FFF8001E001FC001E000FFFF80007FFFFF8000000007FFFFFC000000003FF8
310
0FFFFFFFFFFFFFC07FFFFFF0001FFFFFF8001FFFFFFFFC000FF8001FFFFFFFFC
310
000FFF0003FFFFFFFFFFFFE000000003F000FFFE0000000007FFF8001E000FC0
310
01E0007FFF80007FFFFE0000000007FFFFE0000000007FF80FFFFFFFFFFFFFC0
310
7FFFFFF0001FFFFFF0001FFFFFFFFC0007F0001FFFFFFFFC0007FF0003FFFFFF
310
FFFFFF0000000003F000FFF80000000007FFF8001E000FC003E0007FFF80007F
310
FFF0000000000FFFFF8000000000FFF80FFFFFFFFFFFFFC07FFFFFF0001FFFFF
310
F0001FFFFFFFFC0007F0001FFFFFFFFC0007FF0003FFFFFFFFFFFC0000000007
310
F000FFE0000000000FFFF0003E000FC003E0007FFF80007FFFC0000000001FFF
310
FE0000000001FFF80FFFFFFFFFFFFFC07FFFFFF0001FFFFFF0001FFFFFFFFC00
310
07F0001FFFFFFFFC0007FF0003FFFFFFFFFFF0000000000FF000FFC000000000
310
1FFFF0003F000F8003F0003FFF80007FFF80000000003FFFF80000000003FFF8
310
0FFFFFFFFFFFFFC07FFFFFF0001FFFFFF0001FFFFFFFFC0007F0001FFFFFFFFC
310
0007FF0003FFFFFFFFFFE0000000001FF000FF00000000007FFFF0003F000780
310
03F0003FFF80007FFF00000000007FFFF00000000007FFF80FFFFFFFFFFFFFC0
310
7FFFFFF0001FFFFFF0001FFFFFFFFC0007F0001FFFFFFFFC0007FF0003FFFFFF
310
FFFF80000000007FF000FE0000000000FFFFE0003F00078007F0003FFF80007F
310
FE0000000001FFFFE0000000001FFFF80FFFFFFFFFFFFFC07FFFFFF0001FFFFF
310
F0001FFFFFFFFC0007F0001FFFFFFFFC0007FF0003FFFFFFFFFF0000000000FF
310
F000FC0000000003FFFFE0007F00078007F0003FFF80007FFC0000000007FFFF
310
C0000000007FFFF80FFFFFFFFFFFFFC07FFFFFF0001FFFFFF8001FFFFFFFFC00
310
0FF8001FFFFFFFFC000FFF0003FFFFFFFFFE0000000003FFF000FC000000000F
310
FFFFE0007F80070007F8001FFF80007FF8000000001FFFFF8000000001FFFFF8
310
0FFFFFFFFFFFFFC07FFFFFF0001FFFFFF8001FFFFFFFFC000FF8001FFFFFFFFC
310
000FFF0003FFFFFFFFFC000000000FFFF000F8000000007FFFFFE0007F800700
310
07F8001FFF80007FF000000000FFFFFF800000000FFFFFF80FFFFFFFFFFFFFC0
310
7FFFFFF0001FFFFFF8000FFFFFFFF8000FF8000FFFFFFFF8000FFF0003FFFFFF
310
FFFC000000007FFFF000F800000007FFFFFFC0007F8003000FF8001FFF80007F
310
F000000007FFFFFF000000007FFFFFF80FFFFFFFFFFFFFC07FFFFFF0001FFFFF
310
F8000FFFFFFFF8000FF8000FFFFFFFF8000FFF0003FFFFFFFFF80000000FFFFF
310
F000F0000000FFFFFFFFC000FF8003000FF8001FFF80007FE0000000FFFFFFFF
310
0000000FFFFFFFF8000001FFFE0000007FFFFFF0001FFFFFF8000FFFFFFFF800
310
0FF8000FFFFFFFF8000FFF0003FFFFFFFFF8000000FFFFFFF000F000000FFFFF
310
FFFFC000FFC002000FF8000FFF80007FE000001FFFFFFFFE000001FFFFFFFFF8
310
000001FFFE0000007FFFFFF0001FFFFFF8000FFFFFFFF8000FF8000FFFFFFFF8
310
000FFF0003FFFFFFFFF000001FFFFFFFF000E00000FFFFFFFFFFC000FFC00200
310
0FFC000FFF80007FE00001FFFFFFFFFE00001FFFFFFFFFF8000001FFFE000000
310
7FFFFFF0001FFFFFFC000FFFFFFFF8001FFC000FFFFFFFF8001FFF0003FFFFFF
310
FFF00001FFFFFFFFF000E00007FFFFFFFFFF8000FFC000001FFC000FFF80007F
310
C0000FFFFFFFFFFE0000FFFFFFFFFFF8000001FFFE0000007FFFFFF0001FFFFF
310
FC0007FFFFFFF0001FFC0007FFFFFFF0001FFF0003FFFFFFFFF00007FFFFFFFF
310
F000E0001FFFFFFFFFFF8000FFC000001FFC000FFF80007FC0003FFFFFFFFFFE
310
0001FFFFFFFFFFF8000001FFFE0000007FFFFFF0001FFFFFFC0007FFFFFFF000
310
1FFC0007FFFFFFF0001FFF0003FFFFFFFFF0001FFFFFFFFFF000E0003FFFFF00
310
03FF8001FFE000001FFC0007FF80007FC0007FFFFF0007FC0003FFFFF0003FF8
310
000001FFFE0000007FFFFFF0001FFFFFFC0003FFFFFFE0001FFC0003FFFFFFE0
310
001FFF0003FFFFFFFFF0003FFFFFFFFFF000E0003FFFFF0001FF8001FFE00000
310
1FFE0007FF80007FC0007FFFFE0003FC0007FFFFE0003FF8000001FFFE000000
310
7FFFFFF0001FFFFFFE0003FFFFFFE0003FFE0003FFFFFFE0003FFF0003FFFFFF
310
FFF0003FFFFF8001F000E0003FFFFF0001FF0001FFE000001FFE0007FF80007F
310
C0007FFFFE0003FC0007FFFFE0003FF8000001FFFE0000007FFFFFF0001FFFFF
310
FE0001FFFFFFC0003FFE0001FFFFFFC0003FFF0003FFFFFFFFF0003FFFFF0001
310
F000E0003FFFFF0003FF0001FFE000003FFE0007FF80007FC0007FFFFE0003FC
310
0007FFFFE0003FF8000001FFFE0000007FFFFFF0001FFFFFFF0001FFFFFFC000
310
7FFF0001FFFFFFC0007FFF0003FFFFFFFFF0003FFFFF0001F000E0003FFFFE00
310
03FF0003FFF000003FFE0003FF80007FC0007FFFFC0003FE0007FFFFE0003FF8
310
000001FFFE0000007FFFFFF0001FFFFFFF0000FFFFFF80007FFF0000FFFFFF80
310
007FFF0003FFFFFFFFF0003FFFFF0001F000E0003FFFFE0003FF0003FFF00000
310
3FFF0003FF80007FC0007FFFFC0007FE0007FFFFC0003FF8000001FFFE000000
310
7FFFFFF0001FFFFFFF80007FFFFF0000FFFF80007FFFFF0000FFFF0003FFFFFF
310
FFF0003FFFFF0003F000E0003FFFFC0003FE0003FFF000003FFF0003FF80007F
310
E0003FFFF80007FE0003FFFFC0007FF8000001FFFE0000007FFFFFF0001FFFFF
310
FF80003FFFFE0000FFFF80003FFFFE0000FFFF0003FFFFFFFFF0001FFFFE0003
310
F000F0001FFFF80003FE0003FFF000007FFF0001FF80007FE0003FFFF00007FE
310
0001FFFF80007FF8000001FFFE0000007FFFFFF0001FFFFFFFC0000FFFF80001
310
FFFFC0000FFFF80001FFFF0003FFFFFFFFF0001FFFFC0003F000F0000FFFF000
310
07FE0007FFF800007FFF0001FF80007FE0001FFFE00007FF0000FFFE00007FF8
310
000001FFFE0000007FFFFFF0001FFFFFFFC00003FFE00001FFFFC00003FFE000
310
01FFFF0003FFFFFFFFF8000FFFF80003F000F00003FFC00007FC0007FFF80000
310
7FFF8001FF80007FF00007FF80000FFF00007FF80000FFF8000001FFFE000000
310
7F80000000000001FFE000003E000003FFFFE000003E000003FFFF0003FFFFFF
310
FFF80003FFE00007F000F800000000000FFC0007FFF800007FFF8001FF80007F
310
F000000000000FFF000000000000FFF8000001FFFE0000007F80000000000001
310
FFF0000000000007FFFFF0000000000007FFFF0003FFFFFFFFFC00007E000007
310
F000F800000000000FFC0007FFF80000FFFF8000FF80007FF800000000001FFF
310
800000000001FFF8000001FFFE0000007F80000000000001FFF800000000000F
310
FFFFF800000000000FFFFF0003FFFFFFFFFC00000000000FF000FC0000000000
310
1FFC0007FFFC0000FFFF8000FF80007FF800000000003FFFC00000000001FFF8
310
000001FFFE0000007F80000000000001FFF800000000000FFFFFF80000000000
310
0FFFFF0003FFFFFFFFFE00000000001FF000FE00000000003FF8000FFFFC0000
310
FFFF8000FF80007FFC00000000003FFFC00000000003FFF8000001FFFE000000
310
7F80000000000001FFFC00000000001FFFFFFC00000000001FFFFF0003FFFFFF
310
FFFF00000000001FF000FF00000000003FF8000FFFFC0000FFFFC000FF80007F
310
FE00000000007FFFE00000000007FFF8000001FFFE0000007F80000000000001
310
FFFE00000000003FFFFFFE00000000003FFFFF0003FFFFFFFFFF80000000003F
310
F000FF80000000007FF8000FFFFC0001FFFFC0007F80007FFF0000000000FFFF
310
F0000000000FFFF800000000000000007F80000000000001FFFF8000000000FF
310
FFFFFF8000000000FFFFFF0003FFFFFFFFFFC0000000007FF000FFC000000000
310
FFF8000FFFFE0001FFFFC0007F80007FFF8000000001FFFFF8000000001FFFF8
310
00000000000000007F80000000000001FFFFC000000001FFFFFFFFC000000001
310
FFFFFF0003FFFFFFFFFFE000000000FFF000FFE000000003FFF0001FFFFE0001
310
FFFFC0007F80007FFFC000000007FFFFFE000000003FFFF80000000000000000
310
7F80000000000001FFFFE000000003FFFFFFFFE000000003FFFFFF0003FFFFFF
310
FFFFF000000003FFF000FFF80000000FFFF0001FFFFE0001FFFFE0007F80007F
310
FFF00000000FFFFFFF00000000FFFFF800000000000000007F80000000000001
310
FFFFF80000000FFFFFFFFFF80000000FFFFFFF0003FFFFFFFFFFFC0000000FFF
310
F000FFFE0000003FFFF0001FFFFE0003FFFFE0003F80007FFFFC0000003FFFFF
310
FFC0000003FFFFF800000000000000007F80000000000001FFFFFE0000003FFF
310
FFFFFFFE0000003FFFFFFF0003FFFFFFFFFFFF0000003FFFF000FFFF800000FF
310
FFF0001FFFFF0003FFFFE0003F80007FFFFF000001FFFFFFFFF800001FFFFFF8
310
00000000000000007F80000000000001FFFFFFC00001FFFFFFFFFFFFC00001FF
310
FFFFFF0003FFFFFFFFFFFFC00000FFFFF000FFFFF8000FFFFFFFFFFFFFFFFFFF
310
FFFFFFFFFFFFFFFFFFFFF0001FFFFFFFFFFF0000FFFFFFF80000000000000000
310
7FFFFFFFFFFFFFFFFFFFFFFC001FFFFFFFFFFFFFFC001FFFFFFFFFFFFFFFFFFF
310
FFFFFFFC001FFFFFF000FFFFFFFFFFFFFFFFFFFFFFFFFFFFFFFFFFFFFFFFFFFF
310
FFFFFFFFFFFFFFFFFFFFFFFFFFFFFFFFFFFFFFFFFFFFFFFFFFFFFFFFFFFFFFFF
310
FFFFFFFFFFFFFFFFFFFFFFFFFFFFFFFFFFFFFFFFFFFFFFFFFFFFFFFFFFFFFFFF
310
F000FFFFFFFFFFFFFFFFFFFFFFFFFFFFFFFFFFFFFFFFFFFFFFFFFFFFFFFFFFFF
310
FFFFFFFFFFFFFFFFFFFFFFFFFFFFFFFFFFFFFFFFFFFFFFFFFFFFFFFFFFFFFFFF
310
FFFFFFFFFFFFFFFFFFFFFFFFFFFFFFFFFFFFFFFFFFFFFFFFF000FFFFFFFFFFFF
310
FFFFFFFFFFFFFFFFFFFFFFFFFFFFFFFFFFFFFFFFFFFFFFFFFFFFFFFFFFFFFFFF
310
FFFFFFFFFFFFFFFFFFFFFFFFFFFFFFFFFFFFFFFFFFFFFFFFFFFFFFFFFFFFFFFF
310
FFFFFFFFFFFFFFFFFFFFFFFFFFFFFFFFF000FFFFFFFFFFFFFFFFFFFFFFFFFFFF
310
FFFFFFFFFFFFFFFFFFFFFFFFFFFFFFFFFFFFFFFFFFFFFFFFFFFFFFFFFFFFFFFF
310
FFFFFFFFFFFFFFFFFFFFFFFFFFFFFFFFFFFFFFFFFFFFFFFFFFFFFFFFFFFFFFFF
310
FFFFFFFFFFFFFFFFF000FFFFFFFFFFFFFFFFFFFFFFFFFFFFFFFFFFFFFFFFFFFF
310
FFFFFFFFFFFFFFFFFFFFFFFFFFFFFFFFFFFFFFFFFFFFFFFFFFFFFFFFFFFFFFFF
310
FFFFFFFFFFFFFFFFFFFFFFFFFFFFFFFFFFFFFFFFFFFFFFFFFFFFFFFFFFFFFFFF
310
F000FFFFFFFFFFFFFFFFFFFFFFFFFFFFFFFFFFFFFFFFFFFFFFFFFFFFFFFFFFFF
310
FFFFFFFFFFFFFFFFFFFFFFFFFFFFFFFFFFFFFFFFFFFFFFFFFFFFFFFFFFFFFFFF
310
FFFFFFFFFFFFFFFFFFFFFFFFFFFFFFFFFFFFFFFFFFFFFFFFF000FFFFFFFFFFFF
310
FFFFFFFFFFFFFFFFFFFFFFFFFFFFFFFFFFFFFFFFFFFFFFFFFFFFFFFFFFFFFFFF
310
FFFFFFFFFFFFFFFFFFFFFFFFFFFFFFFFFFFFFFFFFFFFFFFFFFFFFFFFFFFFFFFF
310
FFFFFFFFFFFFFFFFFFFFFFFFFFFFFFFFF000FFFFFFFFFFFFFFFFFFFFFFFFFFFF
310
FFFFFFFFFFFFFFFFFFFFFFFFFFFFFFFFFFFFFFFFFFFFFFFFFFFFFFFFFFFFFFFF
310
FFFFFFFFFFFFFFFFFFFFFFFFFFFFFFFFFFFFFFFFFFFFFFFFFFFFFFFFFFFFFFFF
310
FFFFFFFFFFFFFFFFF000FFFFFFFFFFFFFFFFFFFFFFFFFFFFFFFFFFFFFFFFFFFF
310
FFFFFFFFFFFFFFFFFFFFFFFFFFFFFFFFFFFFFFFFFFFFFFFFFFFFFFFFFFFFFFFF
310
FFFFFFFFFFFFFFFFFFFFFFFFFFFFFFFFFFFFFFFFFFFFFFFFFFFFFFFFFFFFFFFF
310
F000FFFFFFFFFFFFFFFFFFFFFFFFFFFFFFFFFFFFFFFFFFFFFFFFFFFFFFFFFFFF
310
FFFFFFFFFFFFFFFFFFFFFFFFFFFFFFFFFFFFFFFFFFFFFFFFFFFFFFFFFFFFFFFF
310
FFFFFFFFFFFFFFFFFFFFFFFFFFFFFFFFFFFFFFFFFFFFFFFFF000FFFFFFFFFFFF
310
FFFFFFFFFFFFFFFFFFFFFFFFFFFFFFFFFFFFFFFFFFFFFFFFFFFFFFFFFFFFFFFF
310
FFFFFFFFFFFFFFFFFFFFFFFFFFFFFFFFFFFFFFFFFFFFFFFFFFFFFFFFFFFFFFFF
310
FFFFFFFFFFFFFFFFFFFFFFFFFFFFFFFFF000FFFFFFFFFFFFFFFFFFFFFFFFFFFF
310
FFFFFFFFFFFFFFFFFFFFFFFFFFFFFFFFFFFFFFFFFFFFFFFFFFFFFFFFFFFFFFFF
310
FFFFFFFFFFFFFFFFFFFFFFFFFFFFFFFFFFFFFFFFFFFFFFFFFFFFFFFFFFFFFFFF
310
FFFFFFFFFFFFFFFFF000FFFFFFFFFFFFFFFFFFFFFFFFFFFFFFFFFFFFFFFFFFFF
310
FFFFFFFFFFFFFFFFFFFFFFFFFFFFFFFFFFFFFFFFFFFFFFFFFFFFFFFFFFFFFFFF
310
FFFFFFFFFFFFFFFFFFFFFFFFFFFFFFFFFFFFFFFFFFFFFFFFFFFFFFFFFFFFFFFF
310
F000FFFFFFFFFFFFFFFFFFFFFFFFFFFFFFFFFFFFFFFFFFFFFFFFFFFFFFFFFFFF
310
FFFFFFFFFFFFFFFFFFFFFFFFFFFFFFFFFFFFFFFFFFFFFFFFFFFFFFFFFFFFFFFF
310
FFFFFFFFFFFFFFFFFFFFFFFFFFFFFFFFFFFFFFFFFFFFFFFFF000FFFFFFFFFFFF
310
FFFFFFFFFFFFFFFFFFFFFFFFFFFFFFFFFFFFFFFFFFFFFFFFFFFFFFFFFFFFFFFF
310
FFFFFFFFFFFFFFFFFFFFFFFFFFFFFFFFFFFFFFFFFFFFFFFFFFFFFFFFFFFFFFFF
310
FFFFFFFFFFFFFFFFFFFFFFFFFFFFFFFFF000FFFFFFFFFFFFFFFFFFFFFFFFFFFF
310
FFFFFFFFFFFFFFFFFFFFFFFFFFFFFFFFFFFFFFFFFFFFFFFFFFFFFFFFFFFFFFFF
310
FFFFFFFFFFFFFFFFFFFFFFFFFFFFFFFFFFFFFFFFFFFFFFFFFFFFFFFFFFFFFFFF
310
FFFFFFFFFFFFFFFFF000FFFFFFFFFFFFFFFFFFFFFFFFFFFFFFFFFFFFFFFFFFFF
310
FFFFFFFFFFFFFFFFFFFFFFFFFFFFFFFFFFFFFFFFFFFFFFFFFFFFFFFFFFFFFFFF
310
FFFFFFFFFFFFFFFFFFFFFFFFFFFFFFFFFFFFFFFFFFFFFFFFFFFFFFFFFFFFFFFF
310
F000FFFFFFFFFFFFFFFFFFFFFFFFFFFFFFFFFFFFFFFFFFFFFFFFFFFFFFFFFFFF
310
FFFFFFFFFFFFFFFFFFFFFFFFFFFFFFFFFFFFFFFFFFFFFFFFFFFFFFFFFFFFFFFF
310
FFFFFFFFFFFFFFFFFFFFFFFFFFFFFFFFFFFFFFFFFFFFFFFFF000FFFFFFFFFFFF
310
FFFFFFFFFFFFFFFFFFFFFFFFFFFFFFFFFFFFFFFFFFFFFFFFFFFFFFFFFFFFFFFF
310
FFFFFFFFFFFFFFFFFFFFFFFFFFFFFFFFFFFFFFFFFFFFFFFFFFFFFFFFFFFFFFFF
310
FFFFFFFFFFFFFFFFFFFFFFFFFFFFFFFFF000FFFFFFFFFFFFFFFFFFFFFFFFFFFF
310
FFFFFFFFFFFFFFFFFFFFFFFFFFFFFFFFFFFFFFFFFFFFFFFFFFFFFFFFFFFFFFFF
310
FFFFFFFFFFFFFFFFFFFFFFFFFFFFFFFFFFFFFFFFFFFFFFFFFFFFFFFFFFFFFFFF
310
FFFFFFFFFFFFFFFFF000FFFFFFFFFFFFFFFFFFFFFFFFFFFFFFFFFFFFFFFFFFFF
310
FFFFFFFFFFFFFFFFFFFFFFFFFFFFFFFFFFFFFFFFFFFFFFFFFFFFFFFFFFFFFFFF
310
FFFFFFFFFFFFFFFFFFFFFFFFFFFFFFFFFFFFFFFFFFFFFFFFFFFFFFFFFFFFFFFF
310
F000FFFFFFFFFFFFFFFFFFFFFFFFFFFFFFFFFFFFFFFFFFFFFFFFFFFFFFFFFFFF
310
FFFFFFFFFFFFFFFFFFFFFFFFFFFFFFFFFFFFFFFFFFFFFFFFFFFFFFFFFFFFFFFF
310
FFFFFFFFFFFFFFFFFFFFFFFFFFFFFFFFFFFFFFFFFFFFFFFFF000FFFFFFFFFFFF
310
FFFFFFFFFFFFFFFFFFFFFFFFFFFFFFFFFFFFFFFFFFFFFFFFFFFFFFFFFFFFFFFF
310
FFFFFFFFFFFFFFFFFFFFFFFFFFFFFFFFFFFFFFFFFFFFFFFFFFFFFFFFFFFFFFFF
310
FFFFFFFFFFFFFFFFFFFFFFFFFFFFFFFFF0000000000000000000000000000000
310
0000000001000000010000000100000001000000010000000100000001000000
310
0100000001000000010000000100000001000000010000000100000001000000
310
0100000001000000010000000100000001000000010000000100000001000000
310
0100000001000000010000000100000001000000010000000100000001000000
310
0000000001000000010000000100000001000000010000000100000001000000
310
0100000001000000010000000100000001000000010000000100000001000000
310
0100000001000000010000000100000001000000010000000100000001000000
310
0100000001000000010000000100000001000000010000000100000001000000
310
0100000001000000000000000100000001000000010000000100000001000000
310
0100000001000000010000000100000001000000010000000100000001000000
310
0100000001000000010000000100000001000000010000000100000001000000
310
0100000001000000010000000100000001000000010000000100000001000000
310
0100000001000000010000000000000001000000010000000100000001000000
310
0100000000000000010000000000000001000000000000000100000001000000
310
0100000001000000010000000000000001000000010000000100000001000000
  1
OLE
  0
ENDSEC
  0
SECTION
  2
OBJECTS
  0
DICTIONARY
  5
C
330
0
100
AcDbDictionary
281
     1
  3
ACAD_GROUP
350
D
  3
ACAD_LAYOUT
350
1A
  3
ACAD_MLEADERSTYLE
350
210
  3
ACAD_MLINESTYLE
350
17
  3
ACAD_PLOTSETTINGS
350
19
  3
ACAD_PLOTSTYLENAME
350
E
  3
ACAD_TABLESTYLE
350
20F
  3
ACAD_VISUALSTYLE
350
2A
  3
AcDbVariableDictionary
350
211
  0
DICTIONARY
  5
D
102
{ACAD_REACTORS
330
C
102
}
330
C
100
AcDbDictionary
281
     1
  0
DICTIONARY
  5
1A
102
{ACAD_REACTORS
330
C
102
}
330
C
100
AcDbDictionary
281
     1
  3
Layout1
350
1E
  3
Layout2
350
26
  3
Model
350
22
  0
DICTIONARY
  5
210
102
{ACAD_REACTORS
330
C
102
}
330
C
100
AcDbDictionary
281
     1
  0
DICTIONARY
  5
17
102
{ACAD_REACTORS
330
C
102
}
330
C
100
AcDbDictionary
281
     1
  3
Standard
350
18
  0
DICTIONARY
  5
19
102
{ACAD_REACTORS
330
C
102
}
330
C
100
AcDbDictionary
281
     1
  0
ACDBDICTIONARYWDFLT
  5
E
102
{ACAD_REACTORS
330
C
102
}
330
C
100
AcDbDictionary
281
     1
  3
Normal
350
F
100
AcDbDictionaryWithDefault
340
F
  0
DICTIONARY
  5
20F
102
{ACAD_REACTORS
330
C
102
}
330
C
100
AcDbDictionary
281
     1
  0
DICTIONARY
  5
2A
102
{ACAD_REACTORS
330
C
102
}
330
C
100
AcDbDictionary
281
     1
  3
2dWireframe
350
2F
  3
3D Hidden
350
31
  3
3dWireframe
350
30
  3
Basic
350
32
  3
Brighten
350
36
  3
ColorChange
350
3A
  3
Conceptual
350
34
  3
Dim
350
35
  3
Facepattern
350
39
  3
Flat
350
2B
  3
FlatWithEdges
350
2C
  3
Gouraud
350
2D
  3
GouraudWithEdges
350
2E
  3
Linepattern
350
38
  3
Realistic
350
33
  3
Thicken
350
37
  0
DICTIONARY
  5
211
102
{ACAD_REACTORS
330
C
102
}
330
C
100
AcDbDictionary
281
     1
  3
PSOLHEIGHT
350
213
  3
PSOLWIDTH
350
212
  0
LAYOUT
  5
1E
102
{ACAD_REACTORS
330
1A
102
}
330
1A
100
AcDbPlotSettings
  1

  2
none_device
  4

  6

 40
0.0
 41
0.0
 42
0.0
 43
0.0
 44
0.0
 45
0.0
 46
0.0
 47
0.0
 48
0.0
 49
0.0
140
0.0
141
0.0
142
1.0
143
1.0
 70
   688
 72
     0
 73
     0
 74
     5
  7

 75
    16
147
1.0
148
0.0
149
0.0
100
AcDbLayout
  1
Layout1
 70
     1
 71
     1
 10
0.0
 20
0.0
 11
420.0
 21
297.0
 12
0.0
 22
0.0
 32
0.0
 14
1.0000000000E+20
 24
1.0000000000E+20
 34
1.0000000000E+20
 15
-1.0000000000E+20
 25
-1.0000000000E+20
 35
-1.0000000000E+20
146
0.0
 13
0.0
 23
0.0
 33
0.0
 16
1.0
 26
0.0
 36
0.0
 17
0.0
 27
1.0
 37
0.0
 76
     0
330
1B
  0
LAYOUT
  5
26
102
{ACAD_REACTORS
330
1A
102
}
330
1A
100
AcDbPlotSettings
  1

  2
none_device
  4

  6

 40
0.0
 41
0.0
 42
0.0
 43
0.0
 44
0.0
 45
0.0
 46
0.0
 47
0.0
 48
0.0
 49
0.0
140
0.0
141
0.0
142
1.0
143
1.0
 70
   688
 72
     0
 73
     0
 74
     5
  7

 75
    16
147
1.0
148
0.0
149
0.0
100
AcDbLayout
  1
Layout2
 70
     1
 71
     2
 10
0.0
 20
0.0
 11
0.0
 21
0.0
 12
0.0
 22
0.0
 32
0.0
 14
0.0
 24
0.0
 34
0.0
 15
0.0
 25
0.0
 35
0.0
146
0.0
 13
0.0
 23
0.0
 33
0.0
 16
1.0
 26
0.0
 36
0.0
 17
0.0
 27
1.0
 37
0.0
 76
     0
330
23
  0
LAYOUT
  5
22
102
{ACAD_REACTORS
330
1A
102
}
330
1A
100
AcDbPlotSettings
  1

  2
none_device
  4

  6

 40
0.0
 41
0.0
 42
0.0
 43
0.0
 44
0.0
 45
0.0
 46
0.0
 47
0.0
 48
0.0
 49
0.0
140
0.0
141
0.0
142
1.0
143
1.0
 70
  1712
 72
     0
 73
     0
 74
     0
  7

 75
     0
147
1.0
148
0.0
149
0.0
100
AcDbLayout
  1
Model
 70
     1
 71
     0
 10
0.0
 20
0.0
 11
297.0
 21
210.0
 12
0.0
 22
0.0
 32
0.0
 14
0.0
 24
0.0
 34
0.0
 15
297.0
 25
210.0
 35
0.0
146
0.0
 13
0.0
 23
0.0
 33
0.0
 16
1.0
 26
0.0
 36
0.0
 17
0.0
 27
1.0
 37
0.0
 76
     0
330
1F
331
29
  0
MLINESTYLE
  5
18
102
{ACAD_REACTORS
330
17
102
}
330
17
100
AcDbMlineStyle
  2
Standard
 70
     0
  3

 62
   256
 51
90.0
 52
90.0
 71
     2
 49
0.5
 62
   256
  6
BYLAYER
 49
-0.5
 62
   256
  6
BYLAYER
  0
ACDBPLACEHOLDER
  5
F
102
{ACAD_REACTORS
330
E
102
}
330
E
  0
VISUALSTYLE
  5
2F
102
{ACAD_REACTORS
330
2A
102
}
330
2A
100
AcDbVisualStyle
  2
2dWireframe
 70
     4
 71
     0
 72
     2
 73
     0
 90
        0
 40
-0.6
 41
-30.0
 62
     5
 63
     7
 74
     1
 91
        4
 64
     7
 65
   257
 75
     1
175
     1
 42
1.0
 92
        0
 66
   257
 43
1.0
 76
     1
 77
     6
 78
     2
 67
     7
 79
     5
170
     0
171
     0
290
     0
174
     0
 93
        1
 44
0.0
173
     0
291
     0
 45
0.0
1001
ACAD
1000
AcDbSavedByObjectVersion
1070
     0
  0
VISUALSTYLE
  5
31
102
{ACAD_REACTORS
330
2A
102
}
330
2A
100
AcDbVisualStyle
  2
3D Hidden
 70
     6
 71
     1
 72
     2
 73
     2
 90
        0
 40
-0.6
 41
-30.0
 62
     5
 63
     7
 74
     2
 91
        2
 64
     7
 65
   257
 75
     2
175
     1
 42
40.0
 92
        0
 66
   257
 43
1.0
 76
     1
 77
     6
 78
     2
 67
     7
 79
     3
170
     0
171
     0
290
     0
174
     0
 93
        1
 44
0.0
173
     0
291
     0
 45
0.0
1001
ACAD
1000
AcDbSavedByObjectVersion
1070
     0
  0
VISUALSTYLE
  5
30
102
{ACAD_REACTORS
330
2A
102
}
330
2A
100
AcDbVisualStyle
  2
3dWireframe
 70
     5
 71
     0
 72
     2
 73
     0
 90
        0
 40
-0.6
 41
-30.0
 62
     5
 63
     7
 74
     1
 91
        4
 64
     7
 65
   257
 75
     1
175
     1
 42
1.0
 92
        0
 66
   257
 43
1.0
 76
     1
 77
     6
 78
     2
 67
     7
 79
     5
170
     0
171
     0
290
     0
174
     0
 93
        1
 44
0.0
173
     0
291
     0
 45
0.0
1001
ACAD
1000
AcDbSavedByObjectVersion
1070
     0
  0
VISUALSTYLE
  5
32
102
{ACAD_REACTORS
330
2A
102
}
330
2A
100
AcDbVisualStyle
  2
Basic
 70
     7
 71
     1
 72
     0
 73
     1
 90
        0
 40
-0.6
 41
-30.0
 62
     5
 63
     7
 74
     0
 91
        4
 64
     7
 65
   257
 75
     1
175
     1
 42
1.0
 92
        8
 66
     7
 43
1.0
 76
     1
 77
     6
 78
     2
 67
     7
 79
     5
170
     0
171
     0
290
     0
174
     0
 93
        1
 44
0.0
173
     0
291
     1
 45
0.0
1001
ACAD
1000
AcDbSavedByObjectVersion
1070
     0
  0
VISUALSTYLE
  5
36
102
{ACAD_REACTORS
330
2A
102
}
330
2A
100
AcDbVisualStyle
  2
Brighten
 70
    12
 71
     2
 72
     2
 73
     0
 90
        0
 40
-0.6
 41
-30.0
 62
     5
 63
     7
 74
     1
 91
        4
 64
     7
 65
   257
 75
     1
175
     1
 42
1.0
 92
        8
 66
     7
 43
1.0
 76
     1
 77
     6
 78
     2
 67
     7
 79
     5
170
     0
171
     0
290
     0
174
     0
 93
        1
 44
50.0
173
     0
291
     1
 45
0.0
1001
ACAD
1000
AcDbSavedByObjectVersion
1070
     0
  0
VISUALSTYLE
  5
3A
102
{ACAD_REACTORS
330
2A
102
}
330
2A
100
AcDbVisualStyle
  2
ColorChange
 70
    16
 71
     2
 72
     2
 73
     3
 90
        0
 40
-0.6
 41
-30.0
 62
     5
 63
     8
 74
     1
 91
        4
 64
     7
 65
   257
 75
     1
175
     1
 42
1.0
 92
        8
 66
     8
 43
1.0
 76
     1
 77
     6
 78
     2
 67
     7
 79
     5
170
     0
171
     0
290
     0
174
     0
 93
        1
 44
0.0
173
     0
291
     1
 45
0.0
1001
ACAD
1000
AcDbSavedByObjectVersion
1070
     0
  0
VISUALSTYLE
  5
34
102
{ACAD_REACTORS
330
2A
102
}
330
2A
100
AcDbVisualStyle
  2
Conceptual
 70
     9
 71
     3
 72
     2
 73
     0
 90
        0
 40
-0.6
 41
-30.0
 62
     5
 63
     7
 74
     2
 91
        2
 64
     7
 65
   257
 75
     1
175
     1
 42
40.0
 92
        8
 66
     7
 43
1.0
 76
     1
 77
     6
 78
     2
 67
     7
 79
     3
170
     0
171
     0
290
     0
174
     0
 93
        1
 44
0.0
173
     0
291
     0
 45
0.0
1001
ACAD
1000
AcDbSavedByObjectVersion
1070
     0
  0
VISUALSTYLE
  5
35
102
{ACAD_REACTORS
330
2A
102
}
330
2A
100
AcDbVisualStyle
  2
Dim
 70
    11
 71
     2
 72
     2
 73
     0
 90
        0
 40
-0.6
 41
-30.0
 62
     5
 63
     7
 74
     1
 91
        4
 64
     7
 65
   257
 75
     1
175
     1
 42
1.0
 92
        8
 66
     7
 43
1.0
 76
     1
 77
     6
 78
     2
 67
     7
 79
     5
170
     0
171
     0
290
     0
174
     0
 93
        1
 44
-50.0
173
     0
291
     1
 45
0.0
1001
ACAD
1000
AcDbSavedByObjectVersion
1070
     0
  0
VISUALSTYLE
  5
39
102
{ACAD_REACTORS
330
2A
102
}
330
2A
100
AcDbVisualStyle
  2
Facepattern
 70
    15
 71
     2
 72
     2
 73
     0
 90
        0
 40
-0.6
 41
-30.0
 62
     5
 63
     7
 74
     1
 91
        4
 64
     7
 65
   257
 75
     1
175
     1
 42
1.0
 92
        8
 66
     7
 43
1.0
 76
     1
 77
     6
 78
     2
 67
     7
 79
     5
170
     0
171
     0
290
     0
174
     0
 93
        1
 44
0.0
173
     0
291
     1
 45
0.0
1001
ACAD
1000
AcDbSavedByObjectVersion
1070
     0
  0
VISUALSTYLE
  5
2B
102
{ACAD_REACTORS
330
2A
102
}
330
2A
100
AcDbVisualStyle
  2
Flat
 70
     0
 71
     2
 72
     1
 73
     1
 90
        2
 40
-0.6
 41
30.0
 62
     5
 63
     7
 74
     0
 91
        4
 64
     7
 65
   257
 75
     1
175
     1
 42
1.0
 92
        8
 66
     7
 43
1.0
 76
     1
 77
     6
 78
     2
 67
     7
 79
     5
170
     0
171
     0
290
     0
174
     0
 93
       13
 44
0.0
173
     0
291
     1
 45
0.0
1001
ACAD
1000
AcDbSavedByObjectVersion
1070
     0
  0
VISUALSTYLE
  5
2C
102
{ACAD_REACTORS
330
2A
102
}
330
2A
100
AcDbVisualStyle
  2
FlatWithEdges
 70
     1
 71
     2
 72
     1
 73
     1
 90
        2
 40
-0.6
 41
30.0
 62
     5
 63
     7
 74
     1
 91
        4
 64
     7
 65
   257
 75
     1
175
     1
 42
1.0
 92
        0
 66
   257
 43
1.0
 76
     1
 77
     6
 78
     2
 67
     7
 79
     5
170
     0
171
     0
290
     0
174
     0
 93
       13
 44
0.0
173
     0
291
     1
 45
0.0
1001
ACAD
1000
AcDbSavedByObjectVersion
1070
     0
  0
VISUALSTYLE
  5
2D
102
{ACAD_REACTORS
330
2A
102
}
330
2A
100
AcDbVisualStyle
  2
Gouraud
 70
     2
 71
     2
 72
     2
 73
     1
 90
        2
 40
-0.6
 41
30.0
 62
     5
 63
     7
 74
     0
 91
        4
 64
     7
 65
   257
 75
     1
175
     1
 42
1.0
 92
        0
 66
     7
 43
1.0
 76
     1
 77
     6
 78
     2
 67
     7
 79
     5
170
     0
171
     0
290
     0
174
     0
 93
       13
 44
0.0
173
     0
291
     1
 45
0.0
1001
ACAD
1000
AcDbSavedByObjectVersion
1070
     0
  0
VISUALSTYLE
  5
2E
102
{ACAD_REACTORS
330
2A
102
}
330
2A
100
AcDbVisualStyle
  2
GouraudWithEdges
 70
     3
 71
     2
 72
     2
 73
     1
 90
        2
 40
-0.6
 41
30.0
 62
     5
 63
     7
 74
     1
 91
        4
 64
     7
 65
   257
 75
     1
175
     1
 42
1.0
 92
        0
 66
   257
 43
1.0
 76
     1
 77
     6
 78
     2
 67
     7
 79
     5
170
     0
171
     0
290
     0
174
     0
 93
       13
 44
0.0
173
     0
291
     1
 45
0.0
1001
ACAD
1000
AcDbSavedByObjectVersion
1070
     0
  0
VISUALSTYLE
  5
38
102
{ACAD_REACTORS
330
2A
102
}
330
2A
100
AcDbVisualStyle
  2
Linepattern
 70
    14
 71
     2
 72
     2
 73
     0
 90
        0
 40
-0.6
 41
-30.0
 62
     5
 63
     7
 74
     1
 91
        4
 64
     7
 65
   257
 75
     7
175
     7
 42
1.0
 92
        8
 66
     7
 43
1.0
 76
     1
 77
     6
 78
     2
 67
     7
 79
     5
170
     0
171
     0
290
     0
174
     0
 93
        1
 44
0.0
173
     0
291
     1
 45
0.0
1001
ACAD
1000
AcDbSavedByObjectVersion
1070
     0
  0
VISUALSTYLE
  5
33
102
{ACAD_REACTORS
330
2A
102
}
330
2A
100
AcDbVisualStyle
  2
Realistic
 70
     8
 71
     2
 72
     2
 73
     0
 90
        0
 40
-0.6
 41
-30.0
 62
     5
 63
     7
 74
     1
 91
        0
 64
     7
 65
   257
 75
     1
175
     1
 42
1.0
 92
        8
 66
     8
 43
1.0
 76
     1
 77
     6
 78
     2
 67
     7
 79
     5
170
     0
171
     0
290
     0
174
     0
 93
       13
 44
0.0
173
     0
291
     0
 45
0.0
1001
ACAD
1000
AcDbSavedByObjectVersion
1070
     0
  0
VISUALSTYLE
  5
37
102
{ACAD_REACTORS
330
2A
102
}
330
2A
100
AcDbVisualStyle
  2
Thicken
 70
    13
 71
     2
 72
     2
 73
     0
 90
        0
 40
-0.6
 41
-30.0
 62
     5
 63
     7
 74
     1
 91
        4
 64
     7
 65
   257
 75
     1
175
     1
 42
1.0
 92
       12
 66
     7
 43
1.0
 76
     1
 77
     6
 78
     2
 67
     7
 79
     5
170
     0
171
     0
290
     0
174
     0
 93
        1
 44
0.0
173
     0
291
     1
 45
0.0
1001
ACAD
1000
AcDbSavedByObjectVersion
1070
     0
  0
DICTIONARYVAR
  5
213
102
{ACAD_REACTORS
330
211
102
}
330
211
100
DictionaryVariables
280
     0
  1
80.000000
  0
DICTIONARYVAR
  5
212
102
{ACAD_REACTORS
330
211
102
}
330
211
100
DictionaryVariables
280
     0
  1
5.000000
  0
ENDSEC
  0
EOF
