  0
SECTION
  2
HEADER
  9
$ACADVER
  1
AC1015
  9
$ACADMAINTVER
 70
     6
  9
$DWGCODEPAGE
  3
ANSI_1252
  9
$INSBASE
 10
0.0
 20
0.0
 30
0.0
  9
$EXTMIN
 10
0.0
 20
0.0
 30
0.0
  9
$EXTMAX
 10
297.0
 20
210.0
 30
0.0
  9
$LIMMIN
 10
0.0
 20
0.0
  9
$LIMMAX
 10
297.0
 20
210.0
  9
$ORTHOMODE
 70
     0
  9
$REGENMODE
 70
     1
  9
$FILLMODE
 70
     1
  9
$QTEXTMODE
 70
     0
  9
$MIRRTEXT
 70
     1
  9
$LTSCALE
 40
1.0
  9
$ATTMODE
 70
     1
  9
$TEXTSIZE
 40
2.0
  9
$TRACEWID
 40
1.0
  9
$TEXTSTYLE
  7
Standard
  9
$CLAYER
  8
0
  9
$CELTYPE
  6
ByLayer
  9
$CECOLOR
 62
   256
  9
$CELTSCALE
 40
1.0
  9
$DISPSILH
 70
     0
  9
$DIMSCALE
 40
1.0
  9
$DIMASZ
 40
3.0
  9
$DIMEXO
 40
0.0
  9
$DIMDLI
 40
3.75
  9
$DIMRND
 40
0.0
  9
$DIMDLE
 40
0.0
  9
$DIMEXE
 40
1.0
  9
$DIMTP
 40
0.0
  9
$DIMTM
 40
0.0
  9
$DIMTXT
 40
2.0
  9
$DIMCEN
 40
2.5
  9
$DIMTSZ
 40
0.0
  9
$DIMTOL
 70
     0
  9
$DIMLIM
 70
     0
  9
$DIMTIH
 70
     1
  9
$DIMTOH
 70
     1
  9
$DIMSE1
 70
     0
  9
$DIMSE2
 70
     0
  9
$DIMTAD
 70
     1
  9
$DIMZIN
 70
     0
  9
$DIMBLK
  1

  9
$DIMASO
 70
     1
  9
$DIMSHO
 70
     1
  9
$DIMPOST
  1

  9
$DIMAPOST
  1

  9
$DIMALT
 70
     0
  9
$DIMALTD
 70
     3
  9
$DIMALTF
 40
0.0393700787
  9
$DIMLFAC
 40
1.0
  9
$DIMTOFL
 70
     1
  9
$DIMTVP
 40
0.0
  9
$DIMTIX
 70
     0
  9
$DIMSOXD
 70
     0
  9
$DIMSAH
 70
     0
  9
$DIMBLK1
  1

  9
$DIMBLK2
  1

  9
$DIMSTYLE
  2
ISO-25
  9
$DIMCLRD
 70
     0
  9
$DIMCLRE
 70
     0
  9
$DIMCLRT
 70
     0
  9
$DIMTFAC
 40
1.0
  9
$DIMGAP
 40
1.524
  9
$DIMJUST
 70
     0
  9
$DIMSD1
 70
     0
  9
$DIMSD2
 70
     0
  9
$DIMTOLJ
 70
     0
  9
$DIMTZIN
 70
     0
  9
$DIMALTZ
 70
     0
  9
$DIMALTTZ
 70
     0
  9
$DIMUPT
 70
     0
  9
$DIMDEC
 70
     2
  9
$DIMTDEC
 70
     3
  9
$DIMALTU
 70
     2
  9
$DIMALTTD
 70
     3
  9
$DIMTXSTY
  7
Standard
  9
$DIMAUNIT
 70
     0
  9
$DIMADEC
 70
     2
  9
$DIMALTRND
 40
0.0
  9
$DIMAZIN
 70
     0
  9
$DIMDSEP
 70
    44
  9
$DIMATFIT
 70
     3
  9
$DIMFRAC
 70
     0
  9
$DIMLDRBLK
  1

  9
$DIMLUNIT
 70
     2
  9
$DIMLWD
 70
    -2
  9
$DIMLWE
 70
    -2
  9
$DIMTMOVE
 70
     0
  9
$LUNITS
 70
     2
  9
$LUPREC
 70
     2
  9
$SKETCHINC
 40
1.0
  9
$FILLETRAD
 40
10.0
  9
$AUNITS
 70
     0
  9
$AUPREC
 70
     2
  9
$MENU
  1
.
  9
$ELEVATION
 40
0.0
  9
$PELEVATION
 40
0.0
  9
$THICKNESS
 40
0.0
  9
$LIMCHECK
 70
     0
  9
$CHAMFERA
 40
10.0
  9
$CHAMFERB
 40
10.0
  9
$CHAMFERC
 40
20.0
  9
$CHAMFERD
 40
0.0
  9
$SKPOLY
 70
     0
  9
$TDCREATE
 40
2455684.355027361
  9
$TDUCREATE
 40
2455684.271694028
  9
$TDUPDATE
 40
2455684.355027372
  9
$TDUUPDATE
 40
2455684.271694039
  9
$TDINDWG
 40
0.0000000116
  9
$TDUSRTIMER
 40
0.0000000116
  9
$USRTIMER
 70
     1
  9
$ANGBASE
 50
0.0
  9
$ANGDIR
 70
     0
  9
$PDMODE
 70
     0
  9
$PDSIZE
 40
-1.0
  9
$PLINEWID
 40
0.0
  9
$SPLFRAME
 70
     0
  9
$SPLINETYPE
 70
     6
  9
$SPLINESEGS
 70
     8
  9
$HANDSEED
  5
20E
  9
$SURFTAB1
 70
     6
  9
$SURFTAB2
 70
     6
  9
$SURFTYPE
 70
     6
  9
$SURFU
 70
     6
  9
$SURFV
 70
     6
  9
$UCSBASE
  2

  9
$UCSNAME
  2

  9
$UCSORG
 10
0.0
 20
0.0
 30
0.0
  9
$UCSXDIR
 10
1.0
 20
0.0
 30
0.0
  9
$UCSYDIR
 10
0.0
 20
1.0
 30
0.0
  9
$UCSORTHOREF
  2

  9
$UCSORTHOVIEW
 70
     0
  9
$UCSORGTOP
 10
0.0
 20
0.0
 30
0.0
  9
$UCSORGBOTTOM
 10
0.0
 20
0.0
 30
0.0
  9
$UCSORGLEFT
 10
0.0
 20
0.0
 30
0.0
  9
$UCSORGRIGHT
 10
0.0
 20
0.0
 30
0.0
  9
$UCSORGFRONT
 10
0.0
 20
0.0
 30
0.0
  9
$UCSORGBACK
 10
0.0
 20
0.0
 30
0.0
  9
$PUCSBASE
  2

  9
$PUCSNAME
  2

  9
$PUCSORG
 10
0.0
 20
0.0
 30
0.0
  9
$PUCSXDIR
 10
1.0
 20
0.0
 30
0.0
  9
$PUCSYDIR
 10
0.0
 20
1.0
 30
0.0
  9
$PUCSORTHOREF
  2

  9
$PUCSORTHOVIEW
 70
     0
  9
$PUCSORGTOP
 10
0.0
 20
0.0
 30
0.0
  9
$PUCSORGBOTTOM
 10
0.0
 20
0.0
 30
0.0
  9
$PUCSORGLEFT
 10
0.0
 20
0.0
 30
0.0
  9
$PUCSORGRIGHT
 10
0.0
 20
0.0
 30
0.0
  9
$PUCSORGFRONT
 10
0.0
 20
0.0
 30
0.0
  9
$PUCSORGBACK
 10
0.0
 20
0.0
 30
0.0
  9
$USERI1
 70
     0
  9
$USERI2
 70
     0
  9
$USERI3
 70
     0
  9
$USERI4
 70
     0
  9
$USERI5
 70
     0
  9
$USERR1
 40
0.0
  9
$USERR2
 40
0.0
  9
$USERR3
 40
0.0
  9
$USERR4
 40
0.0
  9
$USERR5
 40
0.0
  9
$WORLDVIEW
 70
     1
  9
$SHADEDGE
 70
     3
  9
$SHADEDIF
 70
    70
  9
$TILEMODE
 70
     1
  9
$MAXACTVP
 70
    64
  9
$PINSBASE
 10
0.0
 20
0.0
 30
0.0
  9
$PLIMCHECK
 70
     0
  9
$PEXTMIN
 10
1.0000000000E+20
 20
1.0000000000E+20
 30
1.0000000000E+20
  9
$PEXTMAX
 10
-1.0000000000E+20
 20
-1.0000000000E+20
 30
-1.0000000000E+20
  9
$PLIMMIN
 10
0.0
 20
0.0
  9
$PLIMMAX
 10
420.0
 20
297.0
  9
$UNITMODE
 70
     0
  9
$VISRETAIN
 70
     1
  9
$PLINEGEN
 70
     0
  9
$PSLTSCALE
 70
     1
  9
$TREEDEPTH
 70
  3020
  9
$CMLSTYLE
  2
Standard
  9
$CMLJUST
 70
     0
  9
$CMLSCALE
 40
20.0
  9
$PROXYGRAPHICS
 70
     1
  9
$MEASUREMENT
 70
     1
  9
$CELWEIGHT
370
    -1
  9
$ENDCAPS
280
     0
  9
$JOINSTYLE
280
     0
  9
$LWDISPLAY
290
     1
  9
$INSUNITS
 70
     4
  9
$HYPERLINKBASE
  1

  9
$STYLESHEET
  1

  9
$XEDIT
290
     1
  9
$CEPSNTYPE
380
     0
  9
$PSTYLEMODE
290
     1
  9
$FINGERPRINTGUID
  2
{014268CA-07E6-4ABD-A0DF-164B35B604FC}
  9
$VERSIONGUID
  2
{FAEB1C32-E019-11D5-929B-00C0DF256EC4}
  9
$EXTNAMES
290
     1
  9
$PSVPSCALE
 40
0.0
  9
$OLESTARTUP
290
     0
  0
ENDSEC
  0
SECTION
  2
CLASSES
  0
CLASS
  1
ACDBDICTIONARYWDFLT
  2
AcDbDictionaryWithDefault
  3
ObjectDBX Classes
 90
        0
280
     0
281
     0
  0
CLASS
  1
VISUALSTYLE
  2
AcDbVisualStyle
  3
ObjectDBX Classes
 90
     4095
280
     0
281
     0
  0
CLASS
  1
DICTIONARYVAR
  2
AcDbDictionaryVar
  3
ObjectDBX Classes
 90
        0
280
     0
281
     0
  0
CLASS
  1
ACDBPLACEHOLDER
  2
AcDbPlaceHolder
  3
ObjectDBX Classes
 90
        0
280
     0
281
     0
  0
CLASS
  1
LAYOUT
  2
AcDbLayout
  3
ObjectDBX Classes
 90
        0
280
     0
281
     0
  0
ENDSEC
  0
SECTION
  2
TABLES
  0
TABLE
  2
VPORT
  5
8
330
0
100
AcDbSymbolTable
 70
     1
  0
VPORT
  5
29
330
8
100
AcDbSymbolTableRecord
100
AcDbViewportTableRecord
  2
*Active
 70
     0
 10
0.0
 20
0.0
 11
1.0
 21
1.0
 12
148.5
 22
105.0
 13
0.0
 23
0.0
 14
10.0
 24
10.0
 15
10.0
 25
10.0
 16
0.0
 26
0.0
 36
1.0
 17
0.0
 27
0.0
 37
0.0
 40
210.0
 41
1.4142857143
 42
50.0
 43
0.0
 44
0.0
 50
0.0
 51
0.0
 71
     0
 72
  2000
 73
     1
 74
     3
 75
     0
 76
     0
 77
     0
 78
     0
281
     0
 65
     1
110
0.0
120
0.0
130
0.0
111
1.0
121
0.0
131
0.0
112
0.0
122
1.0
132
0.0
 79
     0
146
0.0
  0
ENDTAB
  0
TABLE
  2
LTYPE
  5
5
330
0
100
AcDbSymbolTable
 70
     6
  0
LTYPE
  5
14
330
5
100
AcDbSymbolTableRecord
100
AcDbLinetypeTableRecord
  2
ByBlock
 70
     0
  3

 72
    65
 73
     0
 40
0.0
  0
LTYPE
  5
15
330
5
100
AcDbSymbolTableRecord
100
AcDbLinetypeTableRecord
  2
ByLayer
 70
     0
  3

 72
    65
 73
     0
 40
0.0
  0
LTYPE
  5
16
330
5
100
AcDbSymbolTableRecord
100
AcDbLinetypeTableRecord
  2
Continuous
 70
     0
  3
Solid line
 72
    65
 73
     0
 40
0.0
  0
LTYPE
  5
3B
330
5
100
AcDbSymbolTableRecord
100
AcDbLinetypeTableRecord
  2
HIDDEN
 70
     0
  3
Hidden __ __ __ __ __ __ __ __ __ __ __ __ __ __
 72
    65
 73
     2
 40
1.905
 49
1.27
 74
     0
 49
-0.635
 74
     0
  0
LTYPE
  5
3C
330
5
100
AcDbSymbolTableRecord
100
AcDbLinetypeTableRecord
  2
PHANTOM
 70
     0
  3
Phantom ______  __  __  ______  __  __  ______
 72
    65
 73
     6
 40
12.7
 49
6.35
 74
     0
 49
-1.27
 74
     0
 49
1.27
 74
     0
 49
-1.27
 74
     0
 49
1.27
 74
     0
 49
-1.27
 74
     0
  0
LTYPE
  5
3D
330
5
100
AcDbSymbolTableRecord
100
AcDbLinetypeTableRecord
  2
CENTER
 70
     0
  3
Center ____ _ ____ _ ____ _ ____ _ ____ _ ____
 72
    65
 73
     4
 40
10.16
 49
6.35
 74
     0
 49
-1.27
 74
     0
 49
1.27
 74
     0
 49
-1.27
 74
     0
  0
LTYPE
  5
3E
330
5
100
AcDbSymbolTableRecord
100
AcDbLinetypeTableRecord
  2
CENTERX2
 70
     0
  3
Center (2x) ________  __  ________  __  _____
 72
    65
 73
     4
 40
20.32
 49
12.7
 74
     0
 49
-2.54
 74
     0
 49
2.54
 74
     0
 49
-2.54
 74
     0
  0
LTYPE
  5
3F
330
5
100
AcDbSymbolTableRecord
100
AcDbLinetypeTableRecord
  2
DOT2
 70
     0
  3
Dot (.5x) ........................................
 72
    65
 73
     2
 40
0.635
 49
0.0
 74
     0
 49
-0.635
 74
     0
  0
ENDTAB
  0
TABLE
  2
LAYER
  5
2
330
0
100
AcDbSymbolTable
 70
     5
  0
LAYER
  5
10
330
2
100
AcDbSymbolTableRecord
100
AcDbLayerTableRecord
  2
0
 70
     0
 62
     7
  6
Continuous
370
    -3
390
F
  0
LAYER
  5
40
330
2
100
AcDbSymbolTableRecord
100
AcDbLayerTableRecord
  2
FORMAT
 70
     0
 62
     7
  6
Continuous
370
    -3
390
F
  0
LAYER
  5
41
330
2
100
AcDbSymbolTableRecord
100
AcDbLayerTableRecord
  2
VERMASSUNG
 70
     0
 62
     7
  6
Continuous
370
    -3
390
F
  0
LAYER
  5
42
330
2
100
AcDbSymbolTableRecord
100
AcDbLayerTableRecord
  2
KOPF_DÜNN
 70
     0
 62
     7
  6
Continuous
370
    -3
390
F
  0
LAYER
  5
43
330
2
100
AcDbSymbolTableRecord
100
AcDbLayerTableRecord
  2
KOPF_DICK
 70
     0
 62
     7
  6
Continuous
370
    15
390
F
  0
ENDTAB
  0
TABLE
  2
STYLE
  5
3
330
0
100
AcDbSymbolTable
 70
     3
  0
STYLE
  5
11
330
3
100
AcDbSymbolTableRecord
100
AcDbTextStyleTableRecord
  2
Standard
 70
     0
 40
0.0
 41
1.0
 50
0.0
 71
     0
 42
2.5
  3
txt
  4

  0
STYLE
  5
44
330
3
100
AcDbSymbolTableRecord
100
AcDbTextStyleTableRecord
  2
SLDTEXTSTYLE0
 70
     0
 40
0.0
 41
0.7
 50
0.0
 71
     0
 42
0.2
  3
TXT
  4

  0
STYLE
  5
48
330
3
100
AcDbSymbolTableRecord
100
AcDbTextStyleTableRecord
  2
SLDTEXTSTYLE1
 70
     0
 40
0.0
 41
0.65
 50
0.0
 71
     0
 42
0.2
  3
TXT
  4

  0
ENDTAB
  0
TABLE
  2
VIEW
  5
6
330
0
100
AcDbSymbolTable
 70
     0
  0
ENDTAB
  0
TABLE
  2
UCS
  5
7
330
0
100
AcDbSymbolTable
 70
     0
  0
ENDTAB
  0
TABLE
  2
APPID
  5
9
330
0
100
AcDbSymbolTable
 70
     1
  0
APPID
  5
12
330
9
100
AcDbSymbolTableRecord
100
AcDbRegAppTableRecord
  2
ACAD
 70
     0
  0
ENDTAB
  0
TABLE
  2
DIMSTYLE
  5
A
330
0
100
AcDbSymbolTable
 70
     5
100
AcDbDimStyleTable
  0
DIMSTYLE
105
27
330
A
100
AcDbSymbolTableRecord
100
AcDbDimStyleTableRecord
  2
ISO-25
 70
     0
 41
2.5
 42
0.625
 43
3.75
 44
1.25
 73
     0
 74
     0
 77
     1
 78
     8
140
2.5
141
2.5
143
0.0393700787
147
0.625
171
     3
172
     1
271
     2
272
     2
274
     3
278
    44
283
     0
284
     8
340
11
  0
DIMSTYLE
105
1AE
102
{ACAD_REACTORS
330
1AD
330
1DE
330
1E8
330
1F2
330
1FC
102
}
330
A
100
AcDbSymbolTableRecord
100
AcDbDimStyleTableRecord
  2
SLDDIMSTYLE0
 70
     0
 41
3.0
 44
0.0
 45
0.000000001
 73
     0
 74
     0
 77
     1
 78
    12
140
2.0
147
0.5
173
     1
271
     2
272
     3
284
    12
340
44
  0
DIMSTYLE
105
1BB
102
{ACAD_REACTORS
330
1BA
102
}
330
A
100
AcDbSymbolTableRecord
100
AcDbDimStyleTableRecord
  2
SLDDIMSTYLE1
 70
     0
 41
3.0
 44
0.0
 45
0.000000001
 73
     0
 74
     0
 77
     1
 78
    12
140
2.0
147
0.5
173
     1
271
     2
272
     2
284
    12
340
44
  0
DIMSTYLE
105
1C6
102
{ACAD_REACTORS
330
1C5
102
}
330
A
100
AcDbSymbolTableRecord
100
AcDbDimStyleTableRecord
  2
SLDDIMSTYLE2
 70
     0
 41
3.0
 44
0.0
 45
0.000000001
 73
     0
 74
     0
 77
     1
 78
    12
140
2.0
147
0.5
173
     1
271
     2
272
     2
284
    12
340
44
  0
DIMSTYLE
105
1D3
102
{ACAD_REACTORS
330
1D2
102
}
330
A
100
AcDbSymbolTableRecord
100
AcDbDimStyleTableRecord
  2
SLDDIMSTYLE3
 70
     0
 41
3.0
 44
0.0
 45
0.000000001
 73
     0
 74
     0
 77
     1
 78
    12
140
2.0
147
0.5
173
     1
271
     2
272
     3
284
    12
340
44
  0
ENDTAB
  0
TABLE
  2
BLOCK_RECORD
  5
1
330
0
100
AcDbSymbolTable
 70
     9
  0
BLOCK_RECORD
  5
1F
330
1
100
AcDbSymbolTableRecord
100
AcDbBlockTableRecord
  2
*Model_Space
340
22
  0
BLOCK_RECORD
  5
1B
330
1
100
AcDbSymbolTableRecord
100
AcDbBlockTableRecord
  2
*Paper_Space
340
1E
  0
BLOCK_RECORD
  5
23
330
1
100
AcDbSymbolTableRecord
100
AcDbBlockTableRecord
  2
*Paper_Space0
340
26
  0
BLOCK_RECORD
  5
1AF
330
1
100
AcDbSymbolTableRecord
100
AcDbBlockTableRecord
  2
*D1
340
0
  0
BLOCK_RECORD
  5
1BC
330
1
100
AcDbSymbolTableRecord
100
AcDbBlockTableRecord
  2
*D2
340
0
  0
BLOCK_RECORD
  5
1C7
330
1
100
AcDbSymbolTableRecord
100
AcDbBlockTableRecord
  2
*D3
340
0
  0
BLOCK_RECORD
  5
1D4
330
1
100
AcDbSymbolTableRecord
100
AcDbBlockTableRecord
  2
*D4
340
0
  0
BLOCK_RECORD
  5
1DF
330
1
100
AcDbSymbolTableRecord
100
AcDbBlockTableRecord
  2
*D5
340
0
  0
BLOCK_RECORD
  5
1E9
330
1
100
AcDbSymbolTableRecord
100
AcDbBlockTableRecord
  2
*D6
340
0
  0
BLOCK_RECORD
  5
1F3
330
1
100
AcDbSymbolTableRecord
100
AcDbBlockTableRecord
  2
*D7
340
0
  0
BLOCK_RECORD
  5
1FD
330
1
100
AcDbSymbolTableRecord
100
AcDbBlockTableRecord
  2
*D8
340
0
  0
ENDTAB
  0
ENDSEC
  0
SECTION
  2
BLOCKS
  0
BLOCK
  5
20
330
1F
100
AcDbEntity
  8
0
100
AcDbBlockBegin
  2
*Model_Space
 70
     0
 10
0.0
 20
0.0
 30
0.0
  3
*Model_Space
  1

  0
ENDBLK
  5
21
330
1F
100
AcDbEntity
  8
0
100
AcDbBlockEnd
  0
BLOCK
  5
1C
330
1B
100
AcDbEntity
 67
     1
  8
0
100
AcDbBlockBegin
  2
*Paper_Space
 70
     0
 10
0.0
 20
0.0
 30
0.0
  3
*Paper_Space
  1

  0
ENDBLK
  5
1D
330
1B
100
AcDbEntity
 67
     1
  8
0
100
AcDbBlockEnd
  0
BLOCK
  5
24
330
23
100
AcDbEntity
  8
0
100
AcDbBlockBegin
  2
*Paper_Space0
 70
     0
 10
0.0
 20
0.0
 30
0.0
  3
*Paper_Space0
  1

  0
ENDBLK
  5
25
330
23
100
AcDbEntity
  8
0
100
AcDbBlockEnd
  0
BLOCK
  5
1B0
330
1AF
100
AcDbEntity
  8
0
100
AcDbBlockBegin
  2
*D1
 70
     1
 10
0.0
 20
0.0
 30
0.0
  3
*D1
  1

  0
SOLID
  5
1B2
330
1AF
100
AcDbEntity
  8
VERMASSUNG
100
AcDbTrace
 10
32.4653304442
 20
161.1498374865
 30
0.0
 11
32.0153304442
 21
158.1498374865
 31
0.0
 12
32.9153304442
 22
158.1498374865
 32
0.0
 13
32.9153304442
 23
158.1498374865
 33
0.0
  0
SOLID
  5
1B3
330
1AF
100
AcDbEntity
  8
VERMASSUNG
100
AcDbTrace
 10
32.4653304442
 20
61.1498374865
 30
0.0
 11
32.9153304442
 21
64.1498374865
 31
0.0
 12
32.0153304442
 22
64.1498374865
 32
0.0
 13
32.0153304442
 23
64.1498374865
 33
0.0
  0
LINE
  5
1B4
330
1AF
100
AcDbEntity
  8
VERMASSUNG
100
AcDbLine
 10
87.7544176643
 20
161.1498374865
 30
0.0
 11
31.4653304442
 21
161.1498374865
 31
0.0
  0
LINE
  5
1B5
330
1AF
100
AcDbEntity
  8
VERMASSUNG
100
AcDbLine
 10
87.7544176643
 20
61.1498374865
 30
0.0
 11
31.4653304442
 21
61.1498374865
 31
0.0
  0
LINE
  5
1B6
330
1AF
100
AcDbEntity
  8
VERMASSUNG
100
AcDbLine
 10
32.4653304442
 20
161.1498374865
 30
0.0
 11
32.4653304442
 21
61.1498374865
 31
0.0
  0
MTEXT
  5
1B7
330
1AF
100
AcDbEntity
  8
VERMASSUNG
100
AcDbMText
 10
29.6871949552
 20
102.9461863489
 30
0.0
 40
2.0
 41
0.0
 71
     1
 72
     1
  1
HSK A 
  7
SLDTEXTSTYLE0
 11
-7.044195017643634E-15
 21
1.0
 31
0.0
 73
     1
 44
1.0
  0
MTEXT
  5
1B8
330
1AF
100
AcDbEntity
  8
VERMASSUNG
100
AcDbMText
 10
29.8871949647
 20
111.9461868928
 30
0.0
 40
2.0
 41
0.0
 71
     1
 72
     1
  1
%%c
  7
SLDTEXTSTYLE0
 11
-7.044195017643634E-15
 21
1.0
 31
0.0
 73
     1
 44
1.0
  0
MTEXT
  5
1B9
330
1AF
100
AcDbEntity
  8
VERMASSUNG
100
AcDbMText
 10
29.8871950811
 20
115.5545135428
 30
0.0
 40
2.0
 41
0.0
 71
     1
 72
     1
  1
100
  7
SLDTEXTSTYLE0
 11
-7.044195017643634E-15
 21
1.0
 31
0.0
 73
     1
 44
1.0
  0
ENDBLK
  5
1B1
330
1AF
100
AcDbEntity
  8
0
100
AcDbBlockEnd
  0
BLOCK
  5
1BD
330
1BC
100
AcDbEntity
  8
0
100
AcDbBlockBegin
  2
*D2
 70
     1
 10
0.0
 20
0.0
 30
0.0
  3
*D2
  1

  0
SOLID
  5
1BF
330
1BC
100
AcDbEntity
  8
VERMASSUNG
100
AcDbTrace
 10
197.7544176643
 20
159.1498374865
 30
0.0
 11
200.7544176643
 21
158.6998374865
 31
0.0
 12
200.7544176643
 22
159.5998374865
 32
0.0
 13
200.7544176643
 23
159.5998374865
 33
0.0
  0
SOLID
  5
1C0
330
1BC
100
AcDbEntity
  8
VERMASSUNG
100
AcDbTrace
 10
247.2544176643
 20
159.1498374865
 30
0.0
 11
244.2544176643
 21
159.5998374865
 31
0.0
 12
244.2544176643
 22
158.6998374865
 32
0.0
 13
244.2544176643
 23
158.6998374865
 33
0.0
  0
LINE
  5
1C1
330
1BC
100
AcDbEntity
  8
VERMASSUNG
100
AcDbLine
 10
197.7544176643
 20
120.0498374865
 30
0.0
 11
197.7544176643
 21
160.1498374865
 31
0.0
  0
LINE
  5
1C2
330
1BC
100
AcDbEntity
  8
VERMASSUNG
100
AcDbLine
 10
247.2544176643
 20
125.8010565031
 30
0.0
 11
247.2544176643
 21
160.1498374865
 31
0.0
  0
LINE
  5
1C3
330
1BC
100
AcDbEntity
  8
VERMASSUNG
100
AcDbLine
 10
197.7544176643
 20
159.1498374865
 30
0.0
 11
247.2544176643
 21
159.1498374865
 31
0.0
  0
MTEXT
  5
1C4
330
1BC
100
AcDbEntity
  8
VERMASSUNG
100
AcDbMText
 10
220.0050308821
 20
161.7279728496
 30
0.0
 40
2.0
 41
0.0
 71
     1
 72
     1
  1
49.5
  7
SLDTEXTSTYLE0
 73
     1
 44
1.0
  0
ENDBLK
  5
1BE
330
1BC
100
AcDbEntity
  8
0
100
AcDbBlockEnd
  0
BLOCK
  5
1C8
330
1C7
100
AcDbEntity
  8
0
100
AcDbBlockBegin
  2
*D3
 70
     1
 10
0.0
 20
0.0
 30
0.0
  3
*D3
  1

  0
SOLID
  5
1CA
330
1C7
100
AcDbEntity
  8
VERMASSUNG
100
AcDbTrace
 10
257.3643073846
 20
102.1498374865
 30
0.0
 11
257.8143073846
 21
105.1498374865
 31
0.0
 12
256.9143073846
 22
105.1498374865
 32
0.0
 13
256.9143073846
 23
105.1498374865
 33
0.0
  0
SOLID
  5
1CB
330
1C7
100
AcDbEntity
  8
VERMASSUNG
100
AcDbTrace
 10
257.3643073846
 20
120.1498374865
 30
0.0
 11
256.9143073846
 21
117.1498374865
 31
0.0
 12
257.8143073846
 22
117.1498374865
 32
0.0
 13
257.8143073846
 23
117.1498374865
 33
0.0
  0
LINE
  5
1CC
330
1C7
100
AcDbEntity
  8
VERMASSUNG
100
AcDbLine
 10
243.7544176643
 20
102.1498374865
 30
0.0
 11
258.3643073846
 21
102.1498374865
 31
0.0
  0
LINE
  5
1CD
330
1C7
100
AcDbEntity
  8
VERMASSUNG
100
AcDbLine
 10
243.7544176643
 20
120.1498374865
 30
0.0
 11
258.3643073846
 21
120.1498374865
 31
0.0
  0
LINE
  5
1CE
330
1C7
100
AcDbEntity
  8
VERMASSUNG
100
AcDbLine
 10
257.3643073846
 20
102.1498374865
 30
0.0
 11
257.3643073846
 21
120.1498374865
 31
0.0
  0
MTEXT
  5
1CF
330
1C7
100
AcDbEntity
  8
VERMASSUNG
100
AcDbMText
 10
254.7861719051
 20
107.5458006501
 30
0.0
 40
2.0
 41
0.0
 71
     1
 72
     1
  1
%%c
  7
SLDTEXTSTYLE0
 11
6.123233995736766E-17
 21
1.0
 31
0.0
 73
     1
 44
1.0
  0
MTEXT
  5
1D0
330
1C7
100
AcDbEntity
  8
VERMASSUNG
100
AcDbMText
 10
254.7861720215
 20
111.1544788732
 30
0.0
 40
2.0
 41
0.0
 71
     1
 72
     1
  1
18
  7
SLDTEXTSTYLE0
 11
6.123233995736766E-17
 21
1.0
 31
0.0
 73
     1
 44
1.0
  0
MTEXT
  5
1D1
330
1C7
100
AcDbEntity
  8
VERMASSUNG
100
AcDbMText
 10
254.7861720215
 20
113.5540758397
 30
0.0
 40
2.0
 41
0.0
 71
     1
 72
     1
  1
 
  7
SLDTEXTSTYLE0
 11
6.123233995736766E-17
 21
1.0
 31
0.0
 73
     1
 44
1.0
  0
ENDBLK
  5
1C9
330
1C7
100
AcDbEntity
  8
0
100
AcDbBlockEnd
  0
BLOCK
  5
1D5
330
1D4
100
AcDbEntity
  8
0
100
AcDbBlockBegin
  2
*D4
 70
     1
 10
0.0
 20
0.0
 30
0.0
  3
*D4
  1

  0
SOLID
  5
1D7
330
1D4
100
AcDbEntity
  8
VERMASSUNG
100
AcDbTrace
 10
263.3643073846
 20
94.6498374865
 30
0.0
 11
263.8143073846
 21
97.6498374865
 31
0.0
 12
262.9143073846
 22
97.6498374865
 32
0.0
 13
262.9143073846
 23
97.6498374865
 33
0.0
  0
SOLID
  5
1D8
330
1D4
100
AcDbEntity
  8
VERMASSUNG
100
AcDbTrace
 10
263.3643073846
 20
127.6498374865
 30
0.0
 11
262.9143073846
 21
124.6498374865
 31
0.0
 12
263.8143073846
 22
124.6498374865
 32
0.0
 13
263.8143073846
 23
124.6498374865
 33
0.0
  0
LINE
  5
1D9
330
1D4
100
AcDbEntity
  8
VERMASSUNG
100
AcDbLine
 10
247.2544176643
 20
94.6498374865
 30
0.0
 11
264.3643073846
 21
94.6498374865
 31
0.0
  0
LINE
  5
1DA
330
1D4
100
AcDbEntity
  8
VERMASSUNG
100
AcDbLine
 10
247.2544176643
 20
127.6498374865
 30
0.0
 11
264.3643073846
 21
127.6498374865
 31
0.0
  0
LINE
  5
1DB
330
1D4
100
AcDbEntity
  8
VERMASSUNG
100
AcDbLine
 10
263.3643073846
 20
94.6498374865
 30
0.0
 11
263.3643073846
 21
127.6498374865
 31
0.0
  0
MTEXT
  5
1DC
330
1D4
100
AcDbEntity
  8
VERMASSUNG
100
AcDbMText
 10
260.7861719051
 20
107.94612026
 30
0.0
 40
2.0
 41
0.0
 71
     1
 72
     1
  1
%%c
  7
SLDTEXTSTYLE0
 11
6.123233995736766E-17
 21
1.0
 31
0.0
 73
     1
 44
1.0
  0
MTEXT
  5
1DD
330
1D4
100
AcDbEntity
  8
VERMASSUNG
100
AcDbMText
 10
260.7861720215
 20
111.5547984832
 30
0.0
 40
2.0
 41
0.0
 71
     1
 72
     1
  1
33
  7
SLDTEXTSTYLE0
 11
6.123233995736766E-17
 21
1.0
 31
0.0
 73
     1
 44
1.0
  0
ENDBLK
  5
1D6
330
1D4
100
AcDbEntity
  8
0
100
AcDbBlockEnd
  0
BLOCK
  5
1E0
330
1DF
100
AcDbEntity
  8
0
100
AcDbBlockBegin
  2
*D5
 70
     1
 10
0.0
 20
0.0
 30
0.0
  3
*D5
  1

  0
SOLID
  5
1E2
330
1DF
100
AcDbEntity
  8
VERMASSUNG
100
AcDbTrace
 10
87.2544176643
 20
171.1498374865
 30
0.0
 11
90.2544176643
 21
170.6998374865
 31
0.0
 12
90.2544176643
 22
171.5998374865
 32
0.0
 13
90.2544176643
 23
171.5998374865
 33
0.0
  0
SOLID
  5
1E3
330
1DF
100
AcDbEntity
  8
VERMASSUNG
100
AcDbTrace
 10
247.2544176643
 20
171.1498374865
 30
0.0
 11
244.2544176643
 21
171.5998374865
 31
0.0
 12
244.2544176643
 22
170.6998374865
 32
0.0
 13
244.2544176643
 23
170.6998374865
 33
0.0
  0
LINE
  5
1E4
330
1DF
100
AcDbEntity
  8
VERMASSUNG
100
AcDbLine
 10
87.2544176643
 20
160.6498374865
 30
0.0
 11
87.2544176643
 21
172.1498374865
 31
0.0
  0
LINE
  5
1E5
330
1DF
100
AcDbEntity
  8
VERMASSUNG
100
AcDbLine
 10
247.2544176643
 20
125.8010565031
 30
0.0
 11
247.2544176643
 21
172.1498374865
 31
0.0
  0
LINE
  5
1E6
330
1DF
100
AcDbEntity
  8
VERMASSUNG
100
AcDbLine
 10
87.2544176643
 20
171.1498374865
 30
0.0
 11
247.2544176643
 21
171.1498374865
 31
0.0
  0
MTEXT
  5
1E7
330
1DF
100
AcDbEntity
  8
VERMASSUNG
100
AcDbMText
 10
165.3549301237
 20
173.7279728496
 30
0.0
 40
2.0
 41
0.0
 71
     1
 72
     1
  1
160
  7
SLDTEXTSTYLE0
 73
     1
 44
1.0
  0
ENDBLK
  5
1E1
330
1DF
100
AcDbEntity
  8
0
100
AcDbBlockEnd
  0
BLOCK
  5
1EA
330
1E9
100
AcDbEntity
  8
0
100
AcDbBlockBegin
  2
*D6
 70
     1
 10
0.0
 20
0.0
 30
0.0
  3
*D6
  1

  0
SOLID
  5
1EC
330
1E9
100
AcDbEntity
  8
VERMASSUNG
100
AcDbTrace
 10
116.2044176643
 20
165.1498374865
 30
0.0
 11
119.2044176643
 21
164.6998374865
 31
0.0
 12
119.2044176643
 22
165.5998374865
 32
0.0
 13
119.2044176643
 23
165.5998374865
 33
0.0
  0
SOLID
  5
1ED
330
1E9
100
AcDbEntity
  8
VERMASSUNG
100
AcDbTrace
 10
247.2544176643
 20
165.1498374865
 30
0.0
 11
244.2544176643
 21
165.5998374865
 31
0.0
 12
244.2544176643
 22
164.6998374865
 32
0.0
 13
244.2544176643
 23
164.6998374865
 33
0.0
  0
LINE
  5
1EE
330
1E9
100
AcDbEntity
  8
VERMASSUNG
100
AcDbLine
 10
116.2044176643
 20
159.1185773073
 30
0.0
 11
116.2044176643
 21
166.1498374865
 31
0.0
  0
LINE
  5
1EF
330
1E9
100
AcDbEntity
  8
VERMASSUNG
100
AcDbLine
 10
247.2544176643
 20
125.8010565031
 30
0.0
 11
247.2544176643
 21
166.1498374865
 31
0.0
  0
LINE
  5
1F0
330
1E9
100
AcDbEntity
  8
VERMASSUNG
100
AcDbLine
 10
116.2044176643
 20
165.1498374865
 30
0.0
 11
247.2544176643
 21
165.1498374865
 31
0.0
  0
MTEXT
  5
1F1
330
1E9
100
AcDbEntity
  8
VERMASSUNG
100
AcDbMText
 10
178.3296018463
 20
167.7279728496
 30
0.0
 40
2.0
 41
0.0
 71
     1
 72
     1
  1
131.05
  7
SLDTEXTSTYLE0
 73
     1
 44
1.0
  0
ENDBLK
  5
1EB
330
1E9
100
AcDbEntity
  8
0
100
AcDbBlockEnd
  0
BLOCK
  5
1F4
330
1F3
100
AcDbEntity
  8
0
100
AcDbBlockBegin
  2
*D7
 70
     1
 10
0.0
 20
0.0
 30
0.0
  3
*D7
  1

  0
SOLID
  5
1F6
330
1F3
100
AcDbEntity
  8
VERMASSUNG
100
AcDbTrace
 10
37.3544176643
 20
177.1498374865
 30
0.0
 11
40.3544176643
 21
176.6998374865
 31
0.0
 12
40.3544176643
 22
177.5998374865
 32
0.0
 13
40.3544176643
 23
177.5998374865
 33
0.0
  0
SOLID
  5
1F7
330
1F3
100
AcDbEntity
  8
VERMASSUNG
100
AcDbTrace
 10
247.2544176643
 20
177.1498374865
 30
0.0
 11
244.2544176643
 21
177.5998374865
 31
0.0
 12
244.2544176643
 22
176.6998374865
 32
0.0
 13
244.2544176643
 23
176.6998374865
 33
0.0
  0
LINE
  5
1F8
330
1F3
100
AcDbEntity
  8
VERMASSUNG
100
AcDbLine
 10
37.3544176643
 20
141.652507229
 30
0.0
 11
37.3544176643
 21
178.1498374865
 31
0.0
  0
LINE
  5
1F9
330
1F3
100
AcDbEntity
  8
VERMASSUNG
100
AcDbLine
 10
247.2544176643
 20
125.8010565031
 30
0.0
 11
247.2544176643
 21
178.1498374865
 31
0.0
  0
LINE
  5
1FA
330
1F3
100
AcDbEntity
  8
VERMASSUNG
100
AcDbLine
 10
37.3544176643
 20
177.1498374865
 30
0.0
 11
247.2544176643
 21
177.1498374865
 31
0.0
  0
MTEXT
  5
1FB
330
1F3
100
AcDbEntity
  8
VERMASSUNG
100
AcDbMText
 10
139.2051316405
 20
179.7279728496
 30
0.0
 40
2.0
 41
0.0
 71
     1
 72
     1
  1
209.9
  7
SLDTEXTSTYLE0
 73
     1
 44
1.0
  0
ENDBLK
  5
1F5
330
1F3
100
AcDbEntity
  8
0
100
AcDbBlockEnd
  0
BLOCK
  5
1FE
330
1FD
100
AcDbEntity
  8
0
100
AcDbBlockBegin
  2
*D8
 70
     1
 10
0.0
 20
0.0
 30
0.0
  3
*D8
  1

  0
SOLID
  5
200
330
1FD
100
AcDbEntity
  8
VERMASSUNG
100
AcDbTrace
 10
269.3643073846
 20
133.1498374865
 30
0.0
 11
268.9143073846
 21
130.1498374865
 31
0.0
 12
269.8143073846
 22
130.1498374865
 32
0.0
 13
269.8143073846
 23
130.1498374865
 33
0.0
  0
SOLID
  5
201
330
1FD
100
AcDbEntity
  8
VERMASSUNG
100
AcDbTrace
 10
269.3643073846
 20
89.1498374865
 30
0.0
 11
269.8143073846
 21
92.1498374865
 31
0.0
 12
268.9143073846
 22
92.1498374865
 32
0.0
 13
268.9143073846
 23
92.1498374865
 33
0.0
  0
LINE
  5
202
330
1FD
100
AcDbEntity
  8
VERMASSUNG
100
AcDbLine
 10
165.2044176643
 20
133.1498374865
 30
0.0
 11
270.3643073846
 21
133.1498374865
 31
0.0
  0
LINE
  5
203
330
1FD
100
AcDbEntity
  8
VERMASSUNG
100
AcDbLine
 10
165.2044176643
 20
89.1498374865
 30
0.0
 11
270.3643073846
 21
89.1498374865
 31
0.0
  0
LINE
  5
204
330
1FD
100
AcDbEntity
  8
VERMASSUNG
100
AcDbLine
 10
269.3643073846
 20
133.1498374865
 30
0.0
 11
269.3643073846
 21
89.1498374865
 31
0.0
  0
MTEXT
  5
205
330
1FD
100
AcDbEntity
  8
VERMASSUNG
100
AcDbMText
 10
266.7861719051
 20
107.7465406284
 30
0.0
 40
2.0
 41
0.0
 71
     1
 72
     1
  1
%%c
  7
SLDTEXTSTYLE0
 11
-7.044195017643634E-15
 21
1.0
 31
0.0
 73
     1
 44
1.0
  0
MTEXT
  5
206
330
1FD
100
AcDbEntity
  8
VERMASSUNG
100
AcDbMText
 10
266.7861720215
 20
111.3552188516
 30
0.0
 40
2.0
 41
0.0
 71
     1
 72
     1
  1
44
  7
SLDTEXTSTYLE0
 11
-7.044195017643634E-15
 21
1.0
 31
0.0
 73
     1
 44
1.0
  0
ENDBLK
  5
1FF
330
1FD
100
AcDbEntity
  8
0
100
AcDbBlockEnd
  0
ENDSEC
  0
SECTION
  2
ENTITIES
  0
MTEXT
  5
45
330
1F
100
AcDbEntity
  8
KOPF_DÜNN
100
AcDbMText
 10
13.8892156294
 20
23.8442973028
 30
0.0
 40
3.0
 41
0.0
 71
     1
 72
     1
  1
HA0.S18.K21.160
  7
SLDTEXTSTYLE0
 73
     1
 44
1.0
  0
MTEXT
  5
46
330
1F
100
AcDbEntity
  8
VERMASSUNG
100
AcDbMText
 10
13.9329988022
 20
28.8834360957
 30
0.0
 40
3.0
 41
0.0
 71
     1
 72
     1
  1
Schrumpffutter_Heat shrink chuck
  7
SLDTEXTSTYLE0
 73
     1
 44
1.0
  0
MTEXT
  5
47
330
1F
100
AcDbEntity
  8
VERMASSUNG
100
AcDbMText
 10
98.8601118557
 20
13.8365368179
 30
0.0
 40
2.0
 41
0.0
 71
     1
 72
     1
  1
Datum: 02.05.2011
  7
SLDTEXTSTYLE0
 73
     1
 44
1.0
  0
MTEXT
  5
49
330
1F
100
AcDbEntity
  8
VERMASSUNG
100
AcDbMText
 10
13.933048693
 20
18.0482802738
 30
0.0
 40
2.0
 41
0.0
 71
     1
 72
     1
  1
DIN 69 893 HSK A 100
  7
SLDTEXTSTYLE1
 73
     1
 44
1.0
  0
MTEXT
  5
4A
330
1F
100
AcDbEntity
  8
VERMASSUNG
100
AcDbMText
 10
13.9808475933
 20
13.9090973692
 30
0.0
 40
2.0
 41
0.0
 71
     1
 72
     1
  1
Gewicht: 3236g
  7
SLDTEXTSTYLE0
 73
     1
 44
1.0
  0
LINE
  5
4B
330
1F
100
AcDbEntity
  8
0
  6
Continuous
 62
     7
370
    15
100
AcDbLine
 10
87.7544176643
 20
61.1498374865
 30
0.0
 11
92.2044176643
 21
61.1498374865
 31
0.0
  0
LINE
  5
4C
330
1F
100
AcDbEntity
  8
0
  6
Continuous
 62
     7
370
    15
100
AcDbLine
 10
92.2197956358
 20
161.1498374865
 30
0.0
 11
87.7544176643
 21
161.1498374865
 31
0.0
  0
ARC
  5
4D
330
1F
100
AcDbEntity
  8
0
  6
Continuous
 62
     7
370
    15
100
AcDbCircle
 10
87.7544176643
 20
61.6498374865
 30
0.0
 40
0.5
100
AcDbArc
 50
180.0
 51
270.0
  0
ARC
  5
4E
330
1F
100
AcDbEntity
  8
0
  6
Continuous
 62
     7
370
    15
100
AcDbCircle
 10
87.7544176643
 20
160.6498374865
 30
0.0
 40
0.5
100
AcDbArc
 50
90.0
 51
180.0
  0
ARC
  5
4F
330
1F
100
AcDbEntity
  8
0
  6
Continuous
 62
     7
370
    15
100
AcDbCircle
 10
86.3574807459
 20
72.521352162
 30
0.0
 40
0.9962338214386983
100
AcDbArc
 50
25.7988228126
 51
90.0
  0
ARC
  5
50
330
1F
100
AcDbEntity
  8
0
  6
Continuous
 62
     7
370
    15
100
AcDbCircle
 10
86.3574807459
 20
149.7783228109
 30
0.0
 40
0.9962338214387216
100
AcDbArc
 50
270.0
 51
334.2011771874
  0
LINE
  5
51
330
1F
100
AcDbEntity
  8
0
  6
Continuous
 62
     7
370
    15
100
AcDbLine
 10
84.7544176643
 20
73.2675859835
 30
0.0
 11
85.5602638187
 21
73.4835118097
 31
0.0
  0
LINE
  5
52
330
1F
100
AcDbEntity
  8
0
  6
Continuous
 62
     7
370
    15
100
AcDbLine
 10
85.5602638187
 20
148.8161631632
 30
0.0
 11
84.7544176643
 21
149.0320889895
 31
0.0
  0
LINE
  5
53
330
1F
100
AcDbEntity
  8
0
  6
Continuous
 62
     7
370
    15
100
AcDbLine
 10
65.7737387457
 20
148.0811531719
 30
0.0
 11
47.4544176643
 21
147.1633515145
 31
0.0
  0
LINE
  5
54
330
1F
100
AcDbEntity
  8
0
  6
Continuous
 62
     7
370
    15
100
AcDbLine
 10
84.7544176643
 20
149.0320889895
 30
0.0
 11
78.6863785098
 21
148.7280790118
 31
0.0
  0
LINE
  5
55
330
1F
100
AcDbEntity
  8
0
  6
Continuous
 62
     7
370
    15
100
AcDbLine
 10
78.6865017863
 20
73.571589785
 30
0.0
 11
84.7544176643
 21
73.2675859835
 31
0.0
  0
LINE
  5
56
330
1F
100
AcDbEntity
  8
0
  6
Continuous
 62
     7
370
    15
100
AcDbLine
 10
52.4544176643
 20
74.8858224564
 30
0.0
 11
65.7743688182
 21
74.2184902343
 31
0.0
  0
ARC
  5
57
330
1F
100
AcDbEntity
  8
0
  6
Continuous
 62
     7
370
    15
100
AcDbCircle
 10
85.8190828638
 20
72.5175859835
 30
0.0
 40
1.000000000000009
100
AcDbArc
 50
90.0
 51
105.0
  0
ARC
  5
58
330
1F
100
AcDbEntity
  8
0
  6
Continuous
 62
     7
370
    15
100
AcDbCircle
 10
85.8190828638
 20
149.7820889895
 30
0.0
 40
1.0
100
AcDbArc
 50
255.0
 51
270.0
  0
LINE
  5
59
330
1F
100
AcDbEntity
  8
0
  6
Continuous
 62
     7
370
    15
100
AcDbLine
 10
85.8190828638
 20
73.5175859835
 30
0.0
 11
86.3574807459
 21
73.5175859835
 31
0.0
  0
LINE
  5
5A
330
1F
100
AcDbEntity
  8
0
  6
Continuous
 62
     7
370
    15
100
AcDbLine
 10
86.3574807459
 20
148.7820889895
 30
0.0
 11
85.8190828638
 21
148.7820889895
 31
0.0
  0
ARC
  5
5B
330
1F
100
AcDbEntity
  8
0
  6
Continuous
 62
     7
370
    15
100
AcDbCircle
 10
121.2044176643
 20
80.2322177803
 30
0.0
 40
4.999999999999986
100
AcDbArc
 50
106.5116637356
 51
180.0
  0
ARC
  5
5C
330
1F
100
AcDbEntity
  8
0
  6
Continuous
 62
     7
370
    15
100
AcDbCircle
 10
121.2044176643
 20
142.0674571926
 30
0.0
 40
4.999999999999986
100
AcDbArc
 50
180.0
 51
253.4883362644
  0
ARC
  5
5D
330
1F
100
AcDbEntity
  8
0
  6
Continuous
 62
     7
370
    15
100
AcDbCircle
 10
148.2044176643
 20
-10.8501625135
 30
0.0
 40
100.0
100
AcDbArc
 50
90.0
 51
106.5116637356
  0
ARC
  5
5E
330
1F
100
AcDbEntity
  8
0
  6
Continuous
 62
     7
370
    15
100
AcDbCircle
 10
148.2044176643
 20
233.1498374865
 30
0.0
 40
100.0
100
AcDbArc
 50
253.4883362644
 51
270.0
  0
LINE
  5
5F
330
1F
100
AcDbEntity
  8
0
  6
Continuous
 62
     7
370
    15
100
AcDbLine
 10
159.7032339353
 20
89.1498374865
 30
0.0
 11
165.2044176643
 21
89.1498374865
 31
0.0
  0
LINE
  5
60
330
1F
100
AcDbEntity
  8
0
  6
Continuous
 62
     7
370
    15
100
AcDbLine
 10
148.2044176643
 20
89.1498374865
 30
0.0
 11
152.7150374531
 21
89.1498374865
 31
0.0
  0
LINE
  5
61
330
1F
100
AcDbEntity
  8
0
  6
Continuous
 62
     7
370
    15
100
AcDbLine
 10
152.7048824556
 20
133.1498374865
 30
0.0
 11
148.2044176643
 21
133.1498374865
 31
0.0
  0
LINE
  5
62
330
1F
100
AcDbEntity
  8
0
  6
Continuous
 62
     7
370
    15
100
AcDbLine
 10
165.2044176643
 20
133.1498374865
 30
0.0
 11
159.6943715154
 21
133.1498374865
 31
0.0
  0
ARC
  5
63
330
1F
100
AcDbEntity
  8
0
  6
Continuous
 62
     7
370
    15
100
AcDbCircle
 10
193.0925871991
 20
-169.3501625135
 30
0.0
 40
260.0
100
AcDbArc
 50
90.0
 51
96.1575167571
  0
ARC
  5
64
330
1F
100
AcDbEntity
  8
0
  6
Continuous
 62
     7
370
    15
100
AcDbCircle
 10
193.0925871991
 20
391.6498374865
 30
0.0
 40
260.0000000000001
100
AcDbArc
 50
263.8424832429
 51
270.0
  0
LINE
  5
65
330
1F
100
AcDbEntity
  8
0
  6
Continuous
 62
     7
370
    15
100
AcDbLine
 10
193.0925871991
 20
90.6498374865
 30
0.0
 11
196.4295987196
 21
90.6498374865
 31
0.0
  0
LINE
  5
66
330
1F
100
AcDbEntity
  8
0
  6
Continuous
 62
     7
370
    15
100
AcDbLine
 10
196.4295987196
 20
131.6498374865
 30
0.0
 11
193.0925871991
 21
131.6498374865
 31
0.0
  0
LINE
  5
67
330
1F
100
AcDbEntity
  8
0
  6
Continuous
 62
     7
370
    15
100
AcDbLine
 10
196.4295987196
 20
90.6498374865
 30
0.0
 11
245.4113358558
 21
94.5047838023
 31
0.0
  0
LINE
  5
68
330
1F
100
AcDbEntity
  8
0
  6
Continuous
 62
     7
370
    15
100
AcDbLine
 10
245.4113358558
 20
127.7948911706
 30
0.0
 11
196.4295987196
 21
131.6498374865
 31
0.0
  0
LINE
  5
69
330
1F
100
AcDbEntity
  8
0
  6
Continuous
 62
     7
370
    15
100
AcDbLine
 10
39.0044176643
 20
78.8998374865
 30
0.0
 11
50.5544176643
 21
78.8998374865
 31
0.0
  0
ARC
  5
6A
330
1F
100
AcDbEntity
  8
0
  6
Continuous
 62
     7
370
    15
100
AcDbCircle
 10
245.2544176643
 20
96.4986184698
 30
0.0
 40
2.000000000000004
100
AcDbArc
 50
274.5
 51
0.0
  0
ARC
  5
6B
330
1F
100
AcDbEntity
  8
0
  6
Continuous
 62
     7
370
    15
100
AcDbCircle
 10
245.2544176643
 20
125.8010565031
 30
0.0
 40
2.0
100
AcDbArc
 50
0.0
 51
85.5
  0
ARC
  5
6C
330
1F
100
AcDbEntity
  8
0
  6
Continuous
 62
     7
370
    15
100
AcDbCircle
 10
50.5544176643
 20
76.9998374865
 30
0.0
 40
1.899999999999993
100
AcDbArc
 50
35.6630613694
 51
90.0
  0
ARC
  5
6D
330
1F
100
AcDbEntity
  8
0
  6
Continuous
 62
     7
370
    15
100
AcDbCircle
 10
45.5544176643
 20
145.2998374865
 30
0.0
 40
1.9
100
AcDbArc
 50
270.0
 51
312.7708047792
  0
LINE
  5
6E
330
1F
100
AcDbEntity
  8
0
  6
Continuous
 62
     7
370
    15
100
AcDbLine
 10
39.0044176643
 20
143.3998374865
 30
0.0
 11
37.4112013024
 21
141.8066211245
 31
0.0
  0
LINE
  5
6F
330
1F
100
AcDbEntity
  8
0
  6
Continuous
 62
     7
370
    15
100
AcDbLine
 10
37.4119405648
 20
80.492314586
 30
0.0
 11
39.0044176643
 21
78.8998374865
 31
0.0
  0
LINE
  5
70
330
1F
100
AcDbEntity
  8
0
  6
Continuous
 62
     7
370
    15
100
AcDbLine
 10
45.5544176643
 20
143.3998374865
 30
0.0
 11
39.0044176643
 21
143.3998374865
 31
0.0
  0
LINE
  5
71
330
1F
100
AcDbEntity
  8
0
  6
Continuous
 62
     7
370
    15
100
AcDbLine
 10
247.2728501478
 20
124.8695541879
 30
0.0
 11
247.2544176643
 21
124.9045885765
 31
0.0
  0
LINE
  5
72
330
1F
100
AcDbEntity
  8
0
  6
Continuous
 62
     7
370
    15
100
AcDbLine
 10
247.2544176643
 20
97.2854692261
 30
0.0
 11
247.3317398714
 21
97.4324345685
 31
0.0
  0
SPLINE
  5
73
330
1F
100
AcDbEntity
  8
0
  6
Continuous
 62
     7
370
    15
100
AcDbSpline
210
0.0
220
0.0
230
1.0
 70
     8
 71
     3
 72
    80
 73
    76
 74
     0
 42
0.00000001
 43
0.00000001
 40
-0.0312499999999993
 40
-0.0312499999999993
 40
0.0
 40
0.0
 40
0.0312500000000006
 40
0.0312500000000006
 40
0.0468750000000008
 40
0.0468750000000008
 40
0.062500000000001
 40
0.062500000000001
 40
0.0937500000000012
 40
0.0937500000000012
 40
0.1250000000000014
 40
0.1250000000000014
 40
0.1562500000000016
 40
0.1562500000000016
 40
0.1875000000000017
 40
0.1875000000000017
 40
0.2187500000000019
 40
0.2187500000000019
 40
0.2500000000000021
 40
0.2500000000000021
 40
0.2812500000000023
 40
0.2812500000000023
 40
0.3125000000000025
 40
0.3125000000000025
 40
0.3281250000000026
 40
0.3281250000000026
 40
0.3437500000000028
 40
0.3437500000000028
 40
0.3750000000000032
 40
0.3750000000000032
 40
0.4062500000000037
 40
0.4062500000000037
 40
0.4218750000000038
 40
0.4218750000000038
 40
0.4375000000000038
 40
0.4375000000000038
 40
0.4687500000000037
 40
0.4687500000000037
 40
0.5000000000000036
 40
0.5000000000000036
 40
0.5312500000000036
 40
0.5312500000000036
 40
0.5625000000000034
 40
0.5625000000000034
 40
0.5937500000000034
 40
0.5937500000000034
 40
0.6250000000000034
 40
0.6250000000000034
 40
0.6562500000000033
 40
0.6562500000000033
 40
0.6875000000000033
 40
0.6875000000000033
 40
0.7031250000000033
 40
0.7031250000000033
 40
0.7187500000000033
 40
0.7187500000000033
 40
0.7500000000000036
 40
0.7500000000000036
 40
0.7812500000000039
 40
0.7812500000000039
 40
0.7968750000000038
 40
0.7968750000000038
 40
0.8125000000000037
 40
0.8125000000000037
 40
0.8437500000000031
 40
0.8437500000000031
 40
0.8750000000000024
 40
0.8750000000000024
 40
0.9062500000000019
 40
0.9062500000000019
 40
0.9375000000000013
 40
0.9375000000000013
 40
0.9687500000000007
 40
0.9687500000000007
 40
1.0
 40
1.0
 40
1.031250000000001
 40
1.031250000000001
 10
95.92387235153069
 20
154.5644669500886
 30
0.0
 10
96.58496297708326
 20
154.5644669500886
 30
0.0
 10
96.90994310633491
 20
154.5806751814707
 30
0.0
 10
97.38941651758134
 20
154.6280398134903
 30
0.0
 10
97.54789833542215
 20
154.6476940253809
 30
0.0
 10
97.86211786792643
 20
154.6948051815736
 30
0.0
 10
98.01823815160682
 20
154.7223865010683
 30
0.0
 10
98.4722921805634
 20
154.814922287862
 30
0.0
 10
98.75939556350325
 20
154.8899927214586
 30
0.0
 10
99.30275011953024
 20
155.0652310300691
 30
0.0
 10
99.55985373073582
 20
155.1662323279074
 30
0.0
 10
100.0207599856746
 20
155.3835885263683
 30
0.0
 10
100.2276576948896
 20
155.5007528581405
 30
0.0
 10
100.5931830088818
 20
155.7508227823692
 30
0.0
 10
100.7483885310077
 20
155.8817688711281
 30
0.0
 10
100.9978189176074
 20
156.1475038148405
 30
0.0
 10
101.0939088733926
 20
156.2842574081515
 30
0.0
 10
101.2224277225862
 20
156.5583229829904
 30
0.0
 10
101.254238592764
 20
156.6932630734593
 30
0.0
 10
101.2545952425373
 20
156.958734710528
 30
0.0
 10
101.2220979903402
 20
157.0905591876693
 30
0.0
 10
101.0944725166257
 20
157.3400087872897
 30
0.0
 10
101.0000441155738
 20
157.4584414792177
 30
0.0
 10
100.8121832955882
 20
157.6273106763117
 30
0.0
 10
100.7413552967851
 20
157.682396671432
 30
0.0
 10
100.5866334048198
 20
157.7876494999204
 30
0.0
 10
100.5026569346364
 20
157.8379847286807
 30
0.0
 10
100.2313332649919
 20
157.9825605612187
 30
0.0
 10
100.0247840463896
 20
158.0704221476358
 30
0.0
 10
99.55817390620058
 20
158.2301432406353
 30
0.0
 10
99.30580833657514
 20
158.2993815371025
 30
0.0
 10
98.89990699489641
 20
158.3891689263323
 30
0.0
 10
98.76000637741895
 20
158.4167348884186
 30
0.0
 10
98.47078244217201
 20
158.4672256893448
 30
0.0
 10
98.32094298588274
 20
158.4901891281955
 30
0.0
 10
97.86682641627195
 20
158.5508196446144
 30
0.0
 10
97.55517519753509
 20
158.5808936734102
 30
0.0
 10
96.91417873262272
 20
158.6214832606689
 30
0.0
 10
96.58265110467055
 20
158.6317954908849
 30
0.0
 10
95.92986005959905
 20
158.6318710580506
 30
0.0
 10
95.60532385456725
 20
158.6219694525829
 30
0.0
 10
94.96005440515081
 20
158.5814829220577
 30
0.0
 10
94.6443113989881
 20
158.551021622173
 30
0.0
 10
94.0424221040044
 20
158.4708709507364
 30
0.0
 10
93.75167287319294
 20
158.4205887189292
 30
0.0
 10
93.20476108150844
 20
158.2999185361563
 30
0.0
 10
92.95298371767153
 20
158.2306946769862
 30
0.0
 10
92.49159572505039
 20
158.0732429493456
 30
0.0
 10
92.28032644545229
 20
157.9838944746718
 30
0.0
 10
91.9170220930761
 20
157.790646603971
 30
0.0
 10
91.76321544463332
 20
157.6865186120917
 30
0.0
 10
91.5745959750359
 20
157.5178942259083
 30
0.0
 10
91.5185654888268
 20
157.4592658242333
 30
0.0
 10
91.42299172709063
 20
157.3398109094071
 30
0.0
 10
91.38322881006563
 20
157.2788911205689
 30
0.0
 10
91.28745705975349
 20
157.092486394395
 30
0.0
 10
91.25473422062738
 20
156.9633735766
 30
0.0
 10
91.2541056342983
 20
156.6947166536441
 30
0.0
 10
91.28629177903308
 20
156.5593459128873
 30
0.0
 10
91.38120248088866
 20
156.3557956046513
 30
0.0
 10
91.42066926428761
 20
156.2878236805879
 30
0.0
 10
91.5155992630085
 20
156.151731457457
 30
0.0
 10
91.57135609077187
 20
156.0833813572476
 30
0.0
 10
91.75929620874176
 20
155.8826783442055
 30
0.0
 10
91.91265767845793
 20
155.7532900703928
 30
0.0
 10
92.27492191333829
 20
155.5046246383429
 30
0.0
 10
92.48577038680419
 20
155.3848149959747
 30
0.0
 10
92.94644035712312
 20
155.1672927084021
 30
0.0
 10
93.19781473670695
 20
155.0682076085661
 30
0.0
 10
93.74372262360507
 20
154.8915351346493
 30
0.0
 10
94.0345451982563
 20
154.8154780465153
 30
0.0
 10
94.63587181303633
 20
154.6926330691623
 30
0.0
 10
94.95039039764872
 20
154.6449269441092
 30
0.0
 10
95.59697185376866
 20
154.5806784089895
 30
0.0
 10
95.92387235153069
 20
154.5644669500886
 30
0.0
 10
96.58496297708326
 20
154.5644669500886
 30
0.0
  0
LINE
  5
74
330
1F
100
AcDbEntity
  8
0
  6
Continuous
 62
     7
370
    15
100
AcDbLine
 10
92.2044176643
 20
142.4998374865
 30
0.0
 11
103.9923886434
 21
142.4998374865
 31
0.0
  0
LINE
  5
75
330
1F
100
AcDbEntity
  8
0
  6
Continuous
 62
     7
370
    15
100
AcDbLine
 10
103.9923886434
 20
62.3748438934
 30
0.0
 11
103.9923886434
 21
142.4998374865
 31
0.0
  0
LINE
  5
76
330
1F
100
AcDbEntity
  8
0
  6
Continuous
 62
     7
370
    15
100
AcDbLine
 10
103.9923886434
 20
62.3748438934
 30
0.0
 11
102.2044176643
 21
62.3748438934
 31
0.0
  0
SPLINE
  5
77
330
1F
100
AcDbEntity
  8
0
  6
Continuous
 62
     7
370
    15
100
AcDbSpline
210
0.0
220
0.0
230
1.0
 70
     8
 71
     3
 72
    30
 73
    26
 74
     0
 42
0.00000001
 43
0.00000001
 40
0.0
 40
0.0
 40
0.0
 40
0.0
 40
0.1249999999999998
 40
0.1249999999999998
 40
0.1874999999999996
 40
0.1874999999999996
 40
0.2499999999999995
 40
0.2499999999999995
 40
0.3749999999999994
 40
0.3749999999999994
 40
0.4374999999999993
 40
0.4374999999999993
 40
0.4999999999999992
 40
0.4999999999999992
 40
0.6249999999999996
 40
0.6249999999999996
 40
0.6874999999999997
 40
0.6874999999999997
 40
0.7499999999999998
 40
0.7499999999999998
 40
0.8124999999999999
 40
0.8124999999999999
 40
0.8749999999999999
 40
0.8749999999999999
 40
1.0
 40
1.0
 40
1.0
 40
1.0
 10
102.204417664307
 20
62.37484389342846
 30
0.0
 10
101.5416729704619
 20
62.37484389342846
 30
0.0
 10
100.8904171113462
 20
62.36000381683964
 30
0.0
 10
99.92996657308797
 20
62.31763425261005
 30
0.0
 10
99.61257512985499
 20
62.30015614983084
 30
0.0
 10
98.98341162830013
 20
62.25882786327858
 30
0.0
 10
98.67126344185839
 20
62.23490258982085
 30
0.0
 10
97.76395614001015
 20
62.15609607335394
 30
0.0
 10
97.1905311823689
 20
62.09379005337748
 30
0.0
 10
96.37665431279423
 20
61.99066073313809
 30
0.0
 10
96.11184811622437
 20
61.95447681409161
 30
0.0
 10
95.60494070541003
 20
61.8806820298911
 30
0.0
 10
95.36354655405654
 20
61.84320817111946
 30
0.0
 10
94.6744050819242
 20
61.73049622777972
 30
0.0
 10
94.26135026705997
 20
61.65496013030595
 30
0.0
 10
93.7131954476849
 20
61.54656687328846
 30
0.0
 10
93.54373284033932
 20
61.51149464162519
 30
0.0
 10
93.23571559232394
 20
61.44525918102534
 30
0.0
 10
93.09633557171558
 20
61.41393248427063
 30
0.0
 10
92.84655005908884
 20
61.3555237126897
 30
0.0
 10
92.73614394643492
 20
61.32844047750685
 30
0.0
 10
92.54488609279721
 20
61.27918072289324
 30
0.0
 10
92.46376657451292
 20
61.25691874308561
 30
0.0
 10
92.26961965440451
 20
61.19935183591732
 30
0.0
 10
92.20441766430696
 20
61.17309223113132
 30
0.0
 10
92.20441766430696
 20
61.15983848665731
 30
0.0
  0
LINE
  5
78
330
1F
100
AcDbEntity
  8
0
  6
Continuous
 62
     7
370
    15
100
AcDbLine
 10
92.2044176643
 20
61.1598384867
 30
0.0
 11
92.2044176643
 21
61.1498374865
 31
0.0
  0
SPLINE
  5
79
330
1F
100
AcDbEntity
  8
0
  6
Continuous
 62
     7
370
    15
100
AcDbSpline
210
0.0
220
0.0
230
1.0
 70
     8
 71
     3
 72
    23
 73
    19
 74
     0
 42
0.00000001
 43
0.00000001
 40
0.0
 40
0.0
 40
0.0
 40
0.0
 40
0.0520256687590417
 40
0.1044186119084699
 40
0.1579654762732602
 40
0.2119084390155454
 40
0.2639329008030785
 40
0.3697142245600879
 40
0.4235868577364619
 40
0.4762679679182532
 40
0.5833878371337097
 40
0.6379530306539525
 40
0.6910551819358518
 40
0.7445319929992283
 40
0.7992014233075213
 40
0.8542881036302086
 40
0.9066815619543735
 40
1.0
 40
1.0
 40
1.0
 40
1.0
 10
102.204417664307
 20
160.1396323421208
 30
0.0
 10
101.931405267112
 20
160.1409539106277
 30
0.0
 10
101.3834531459978
 20
160.1436063772334
 30
0.0
 10
100.5603067885425
 20
160.165081265661
 30
0.0
 10
99.73906168795034
 20
160.1992989843291
 30
0.0
 10
98.93763287784216
 20
160.2463508944964
 30
0.0
 10
97.9052496236992
 20
160.3233398453223
 30
0.0
 10
96.9280016090752
 20
160.4192170959828
 30
0.0
 10
96.02695459781921
 20
160.5261465437709
 30
0.0
 10
95.17798081871781
 20
160.6379933516114
 30
0.0
 10
94.42041237310958
 20
160.7522219503407
 30
0.0
 10
93.77542408266008
 20
160.8588016967045
 30
0.0
 10
93.3508502094623
 20
160.9327316531057
 30
0.0
 10
92.9882935598132
 20
160.9986222111625
 30
0.0
 10
92.68709200268952
 20
161.0553185623767
 30
0.0
 10
92.45983843065477
 20
161.0992548086114
 30
0.0
 10
92.25373113343227
 20
161.1399132554394
 30
0.0
 10
92.23304419539924
 20
161.1440966948288
 30
0.0
 10
92.21979563578753
 20
161.1467758997477
 30
0.0
  0
LINE
  5
7A
330
1F
100
AcDbEntity
  8
0
  6
Continuous
 62
     7
370
    15
100
AcDbLine
 10
103.9923886434
 20
160.1396323421
 30
0.0
 11
102.2044176643
 21
160.1396323421
 31
0.0
  0
LINE
  5
7B
330
1F
100
AcDbEntity
  8
0
  6
Continuous
 62
     7
370
    15
100
AcDbLine
 10
103.9923886434
 20
150.1008002473
 30
0.0
 11
103.9923886434
 21
160.1396323421
 31
0.0
  0
LINE
  5
7C
330
1F
100
AcDbEntity
  8
0
  6
Continuous
 62
     7
370
    15
100
AcDbLine
 10
101.9123845125
 20
150.1008002473
 30
0.0
 11
103.9923886434
 21
150.1008002473
 31
0.0
  0
SPLINE
  5
7D
330
1F
100
AcDbEntity
  8
0
  6
Continuous
 62
     7
370
    15
100
AcDbSpline
210
0.0
220
0.0
230
1.0
 70
     8
 71
     3
 72
    22
 73
    18
 74
     0
 42
0.00000001
 43
0.00000001
 40
0.0
 40
0.0
 40
0.0
 40
0.0
 40
0.2500000000000009
 40
0.2500000000000009
 40
0.3750000000000009
 40
0.3750000000000009
 40
0.500000000000001
 40
0.500000000000001
 40
0.6250000000000009
 40
0.6250000000000009
 40
0.7500000000000007
 40
0.7500000000000007
 40
0.8750000000000004
 40
0.8750000000000004
 40
0.9375000000000002
 40
0.9375000000000002
 40
1.0
 40
1.0
 40
1.0
 40
1.0
 10
92.20441766430696
 20
142.4998374864573
 30
0.0
 10
92.40714262022605
 20
143.5190838283219
 30
0.0
 10
92.72188634202143
 20
144.4781919782612
 30
0.0
 10
93.4299418116924
 20
145.8206710557704
 30
0.0
 10
93.70840444191005
 20
146.2548796385105
 30
0.0
 10
94.34717184854723
 20
147.0665073540126
 30
0.0
 10
94.70758552833745
 20
147.4457876469494
 30
0.0
 10
95.52511776032672
 20
148.1487462259704
 30
0.0
 10
95.98628574361385
 20
148.4737750436711
 30
0.0
 10
96.98427599009764
 20
149.0387903670619
 30
0.0
 10
97.52403518408994
 20
149.2824939612684
 30
0.0
 10
98.69862814812124
 20
149.6866938889134
 30
0.0
 10
99.31036433411312
 20
149.8391310819589
 30
0.0
 10
100.2622735589748
 20
149.9944586295676
 30
0.0
 10
100.5855067232355
 20
150.0339634096177
 30
0.0
 10
101.2445698945107
 20
150.0872725302864
 30
0.0
 10
101.5786339050847
 20
150.1008002473442
 30
0.0
 10
101.9123845124863
 20
150.1008002473442
 30
0.0
  0
LINE
  5
7E
330
1F
100
AcDbEntity
  8
0
  6
Continuous
 62
     7
370
    15
100
AcDbLine
 10
105.3444176643
 20
64.7784491994
 30
0.0
 11
105.3444176643
 21
142.4998374865
 31
0.0
  0
SPLINE
  5
7F
330
1F
100
AcDbEntity
  8
0
  6
Continuous
 62
     7
370
    15
100
AcDbSpline
210
0.0
220
0.0
230
1.0
 70
     8
 71
     3
 72
     8
 73
     4
 74
     0
 42
0.00000001
 43
0.00000001
 40
0.0
 40
0.0
 40
0.0
 40
0.0
 40
1.0
 40
1.0
 40
1.0
 40
1.0
 10
105.344417664307
 20
64.7784491994338
 30
0.0
 10
104.8941912000292
 20
63.97699383680904
 30
0.0
 10
104.4434933727858
 20
63.17580382524836
 30
0.0
 10
103.9923886433856
 20
62.37484389342845
 30
0.0
  0
SPLINE
  5
80
330
1F
100
AcDbEntity
  8
0
  6
Continuous
 62
     7
370
    15
100
AcDbSpline
210
0.0
220
0.0
230
1.0
 70
    24
 71
     3
 72
     8
 73
     4
 74
     0
 42
0.00000001
 43
0.00000001
 40
0.0
 40
0.0
 40
0.0
 40
0.0
 40
1.0
 40
1.0
 40
1.0
 40
1.0
 10
103.9923886433856
 20
142.4998374864573
 30
0.0
 10
104.4491902157138
 20
142.4998374864573
 30
0.0
 10
104.900204781953
 20
142.4998374864573
 30
0.0
 10
105.344417664307
 20
142.4998374864573
 30
0.0
  0
LINE
  5
81
330
1F
100
AcDbEntity
  8
0
  6
Continuous
 62
     7
370
    15
100
AcDbLine
 10
87.2544176643
 20
61.6498374865
 30
0.0
 11
87.2544176643
 21
160.6498374837
 31
0.0
  0
LINE
  5
82
330
1F
100
AcDbEntity
  8
0
  6
Continuous
 62
     7
370
    15
100
AcDbLine
 10
116.2044176643
 20
63.4004919412
 30
0.0
 11
116.2044176643
 21
142.4998374865
 31
0.0
  0
SPLINE
  5
83
330
1F
100
AcDbEntity
  8
0
  6
Continuous
 62
     7
370
    15
100
AcDbSpline
210
0.0
220
0.0
230
1.0
 70
     8
 71
     3
 72
    14
 73
    10
 74
     0
 42
0.00000001
 43
0.00000001
 40
0.0
 40
0.0
 40
0.0
 40
0.0
 40
0.25
 40
0.25
 40
0.5
 40
0.5
 40
0.75
 40
0.75
 40
1.0
 40
1.0
 40
1.0
 40
1.0
 10
116.204417664307
 20
63.40049194120398
 30
0.0
 10
116.204417664307
 20
63.26706624514944
 30
0.0
 10
116.1791065643961
 20
63.13521843730507
 30
0.0
 10
116.0807718005514
 20
62.88869588861098
 30
0.0
 10
116.0076277962953
 20
62.77489070037043
 30
0.0
 10
115.8241897351996
 20
62.58443352342316
 30
0.0
 10
115.712503400861
 20
62.50679865957324
 30
0.0
 10
115.4699999705547
 20
62.40250724946078
 30
0.0
 10
115.3366255418605
 20
62.37484389342842
 30
0.0
 10
115.204417664307
 20
62.37484389342843
 30
0.0
  0
SPLINE
  5
84
330
1F
100
AcDbEntity
  8
0
  6
Continuous
 62
     7
370
    15
100
AcDbSpline
210
0.0
220
0.0
230
1.0
 70
    24
 71
     3
 72
    12
 73
     8
 74
     0
 42
0.00000001
 43
0.00000001
 40
0.0
 40
0.0
 40
0.0
 40
0.0
 40
0.2500000000000032
 40
0.2500000000000032
 40
0.5000000000000064
 40
0.5000000000000064
 40
1.0
 40
1.0
 40
1.0
 40
1.0
 10
115.204417664307
 20
142.4998374864573
 30
0.0
 10
115.356507901252
 20
142.4998374864573
 30
0.0
 10
115.5049671623274
 20
142.4998374864573
 30
0.0
 10
115.7623707945931
 20
142.4998374864573
 30
0.0
 10
115.871475542435
 20
142.4998374864573
 30
0.0
 10
116.1255350188425
 20
142.4998374864573
 30
0.0
 10
116.204417664307
 20
142.4998374864573
 30
0.0
 10
116.204417664307
 20
142.4998374864573
 30
0.0
  0
LINE
  5
85
330
1F
100
AcDbEntity
  8
0
  6
Continuous
 62
     7
370
    15
100
AcDbLine
 10
110.5164466852
 20
62.3748438934
 30
0.0
 11
110.5164466852
 21
142.4998374865
 31
0.0
  0
SPLINE
  5
86
330
1F
100
AcDbEntity
  8
0
  6
Continuous
 62
     7
370
    15
100
AcDbSpline
210
0.0
220
0.0
230
1.0
 70
     8
 71
     3
 72
     8
 73
     4
 74
     0
 42
0.00000001
 43
0.00000001
 40
0.0
 40
0.0
 40
0.0
 40
0.0
 40
1.0
 40
1.0
 40
1.0
 40
1.0
 10
110.5164466852283
 20
62.37484389342846
 30
0.0
 10
110.0653419558281
 20
63.17580382524837
 30
0.0
 10
109.6146441285848
 20
63.97699383680905
 30
0.0
 10
109.164417664307
 20
64.77844919943381
 30
0.0
  0
LINE
  5
87
330
1F
100
AcDbEntity
  8
0
  6
Continuous
 62
     7
370
    15
100
AcDbLine
 10
109.1644176643
 20
64.7784491994
 30
0.0
 11
109.1644176643
 21
142.4998374865
 31
0.0
  0
SPLINE
  5
88
330
1F
100
AcDbEntity
  8
0
  6
Continuous
 62
     7
370
    15
100
AcDbSpline
210
0.0
220
0.0
230
1.0
 70
    24
 71
     3
 72
     8
 73
     4
 74
     0
 42
0.00000001
 43
0.00000001
 40
0.0
 40
0.0
 40
0.0
 40
0.0
 40
1.0
 40
1.0
 40
1.0
 40
1.0
 10
109.164417664307
 20
142.4998374864573
 30
0.0
 10
109.6086305466609
 20
142.4998374864573
 30
0.0
 10
110.0596451129001
 20
142.4998374864573
 30
0.0
 10
110.5164466852283
 20
142.4998374864573
 30
0.0
  0
LINE
  5
89
330
1F
100
AcDbEntity
  8
0
  6
Continuous
 62
     7
370
    15
100
AcDbLine
 10
115.2044176643
 20
62.3748438934
 30
0.0
 11
110.5164466852
 21
62.3748438934
 31
0.0
  0
LINE
  5
8A
330
1F
100
AcDbEntity
  8
0
  6
Continuous
 62
     7
370
    15
100
AcDbLine
 10
110.5164466852
 20
142.4998374865
 30
0.0
 11
115.2044176643
 21
142.4998374865
 31
0.0
  0
SPLINE
  5
8B
330
1F
100
AcDbEntity
  8
0
  6
Continuous
 62
     7
370
    15
100
AcDbSpline
210
0.0
220
0.0
230
1.0
 70
     8
 71
     3
 72
    14
 73
    10
 74
     0
 42
0.00000001
 43
0.00000001
 40
0.0
 40
0.0
 40
0.0
 40
0.0
 40
0.25
 40
0.25
 40
0.5
 40
0.5
 40
0.75
 40
0.75
 40
1.0
 40
1.0
 40
1.0
 40
1.0
 10
109.164417664307
 20
65.68665870406237
 30
0.0
 10
109.164417664307
 20
65.79370278505677
 30
0.0
 10
109.1442999771488
 20
65.89893792529922
 30
0.0
 10
109.0658087878832
 20
66.09678841214689
 30
0.0
 10
109.007652163082
 20
66.18784017571181
 30
0.0
 10
108.8611369074639
 20
66.3410062696366
 30
0.0
 10
108.7724943588228
 20
66.403300715846
 30
0.0
 10
108.5767710360225
 20
66.488094501382
 30
0.0
 10
108.4715398449516
 20
66.51016202840762
 30
0.0
 10
108.364417664307
 20
66.51016202840762
 30
0.0
  0
SPLINE
  5
8C
330
1F
100
AcDbEntity
  8
0
  6
Continuous
 62
     7
370
    15
100
AcDbSpline
210
0.0
220
0.0
230
1.0
 70
    24
 71
     3
 72
    14
 73
    10
 74
     0
 42
0.00000001
 43
0.00000001
 40
0.0
 40
0.0
 40
0.0
 40
0.0
 40
0.25
 40
0.25
 40
0.5
 40
0.5
 40
0.75
 40
0.75
 40
1.0
 40
1.0
 40
1.0
 40
1.0
 10
108.364417664307
 20
142.4998374864573
 30
0.0
 10
108.4881874290721
 20
142.4998374864573
 30
0.0
 10
108.612554533079
 20
142.4998374864573
 30
0.0
 10
108.818911001805
 20
142.4998374864573
 30
0.0
 10
108.9042391452234
 20
142.4998374864573
 30
0.0
 10
109.0364312039386
 20
142.4998374864573
 30
0.0
 10
109.0850764476892
 20
142.4998374864573
 30
0.0
 10
109.148612239418
 20
142.4998374864573
 30
0.0
 10
109.164417664307
 20
142.4998374864573
 30
0.0
 10
109.164417664307
 20
142.4998374864573
 30
0.0
  0
SPLINE
  5
8D
330
1F
100
AcDbEntity
  8
0
  6
Continuous
 62
     7
370
    15
100
AcDbSpline
210
0.0
220
0.0
230
1.0
 70
     8
 71
     3
 72
    12
 73
     8
 74
     0
 42
0.00000001
 43
0.00000001
 40
0.0
 40
0.0
 40
0.0
 40
0.0
 40
0.250000000000003
 40
0.250000000000003
 40
0.500000000000006
 40
0.500000000000006
 40
1.0
 40
1.0
 40
1.0
 40
1.0
 10
106.144417664307
 20
66.51016202840762
 30
0.0
 10
106.038657010958
 20
66.51016202840762
 30
0.0
 10
105.9306693827751
 20
66.48762252240722
 30
0.0
 10
105.7360747175095
 20
66.4030518904119
 30
0.0
 10
105.6472028046706
 20
66.34057023765308
 30
0.0
 10
105.4280105123447
 20
66.11118128618085
 30
0.0
 10
105.3444176643069
 20
65.89859794865843
 30
0.0
 10
105.3444176643069
 20
65.68665870406224
 30
0.0
  0
SPLINE
  5
8E
330
1F
100
AcDbEntity
  8
0
  6
Continuous
 62
     7
370
    15
100
AcDbSpline
210
0.0
220
0.0
230
1.0
 70
    24
 71
     3
 72
    14
 73
    10
 74
     0
 42
0.00000001
 43
0.00000001
 40
0.0
 40
0.0
 40
0.0
 40
0.0
 40
0.25
 40
0.25
 40
0.5
 40
0.5
 40
0.75
 40
0.75
 40
1.0
 40
1.0
 40
1.0
 40
1.0
 10
105.3444176643069
 20
142.4998374864573
 30
0.0
 10
105.3444176643069
 20
142.4998374864573
 30
0.0
 10
105.3601319847729
 20
142.4998374864573
 30
0.0
 10
105.4238159632413
 20
142.4998374864573
 30
0.0
 10
105.4724191576517
 20
142.4998374864573
 30
0.0
 10
105.6051026800773
 20
142.4998374864573
 30
0.0
 10
105.690204784388
 20
142.4998374864573
 30
0.0
 10
105.896647019298
 20
142.4998374864573
 30
0.0
 10
106.0207279609211
 20
142.4998374864573
 30
0.0
 10
106.144417664307
 20
142.4998374864573
 30
0.0
  0
LINE
  5
8F
330
1F
100
AcDbEntity
  8
0
  6
Continuous
 62
     7
370
    15
100
AcDbLine
 10
108.3644176643
 20
66.5101620284
 30
0.0
 11
106.1444176643
 21
66.5101620284
 31
0.0
  0
LINE
  5
90
330
1F
100
AcDbEntity
  8
0
  6
Continuous
 62
     7
370
    15
100
AcDbLine
 10
106.1444176643
 20
142.4998374865
 30
0.0
 11
108.3644176643
 21
142.4998374865
 31
0.0
  0
LINE
  5
91
330
1F
100
AcDbEntity
  8
0
  6
Continuous
 62
     7
370
    15
100
AcDbLine
 10
84.7544176643
 20
73.2675859835
 30
0.0
 11
84.7544176643
 21
149.0320889895
 31
0.0
  0
LINE
  5
92
330
1F
100
AcDbEntity
  8
0
  6
Continuous
 62
     7
370
    15
100
AcDbLine
 10
52.4544176643
 20
74.8858224564
 30
0.0
 11
52.4544176643
 21
77.2805042211
 31
0.0
  0
SPLINE
  5
93
330
1F
100
AcDbEntity
  8
0
  6
Continuous
 62
     7
370
    15
100
AcDbSpline
210
0.0
220
0.0
230
1.0
 70
     8
 71
     3
 72
    14
 73
    10
 74
     0
 42
0.00000001
 43
0.00000001
 40
0.0
 40
0.0
 40
0.0
 40
0.0
 40
0.25
 40
0.25
 40
0.5
 40
0.5
 40
0.75
 40
0.75
 40
1.0
 40
1.0
 40
1.0
 40
1.0
 10
51.44999519297001
 20
78.98335614271373
 30
0.0
 10
51.53876377091533
 20
78.82482201140579
 30
0.0
 10
51.66048160959424
 20
78.67237933451723
 30
0.0
 10
51.89553121945108
 20
78.3752447106883
 30
0.0
 10
52.01116140566797
 20
78.23056206707095
 30
0.0
 10
52.2115663390958
 20
77.94727286456754
 30
0.0
 10
52.2969666310801
 20
77.80871887153069
 30
0.0
 10
52.41867226479735
 20
77.53733484149717
 30
0.0
 10
52.45441766430999
 20
77.40519897286254
 30
0.0
 10
52.45441766430997
 20
77.28050422109177
 30
0.0
  0
SPLINE
  5
94
330
1F
100
AcDbEntity
  8
0
  6
Continuous
 62
     7
370
    15
100
AcDbSpline
210
0.0
220
0.0
230
1.0
 70
     8
 71
     3
 72
    14
 73
    10
 74
     0
 42
0.00000001
 43
0.00000001
 40
0.0
 40
0.0
 40
0.0
 40
0.0
 40
0.124999999999999
 40
0.124999999999999
 40
0.249999999999998
 40
0.249999999999998
 40
0.5000000000000007
 40
0.5000000000000007
 40
1.0
 40
1.0
 40
1.0
 40
1.0
 10
50.55441766430696
 20
79.61218608181385
 30
0.0
 10
50.62199996409146
 20
79.61934196691526
 30
0.0
 10
50.69448754183937
 20
79.61491749687622
 30
0.0
 10
50.8267786511053
 20
79.58521133910587
 30
0.0
 10
50.88405603049548
 20
79.56192705752765
 30
0.0
 10
51.03370645769576
 20
79.48444181767734
 30
0.0
 10
51.10741975321725
 20
79.42258999077596
 30
0.0
 10
51.2952277365435
 20
79.23791253812765
 30
0.0
 10
51.37926804290495
 20
79.10966961483642
 30
0.0
 10
51.44999519297122
 20
78.98335614271384
 30
0.0
  0
SPLINE
  5
95
330
1F
100
AcDbEntity
  8
0
  6
Continuous
 62
     7
370
    15
100
AcDbSpline
210
0.0
220
0.0
230
1.0
 70
     8
 71
     3
 72
     8
 73
     4
 74
     0
 42
0.00000001
 43
0.00000001
 40
0.0
 40
0.0
 40
0.0
 40
0.0
 40
1.0
 40
1.0
 40
1.0
 40
1.0
 10
47.00977727622618
 20
79.19413749702206
 30
0.0
 10
48.17507558693505
 20
79.34932496890868
 30
0.0
 10
49.35969080097487
 20
79.485683607219
 30
0.0
 10
50.55441766430696
 20
79.61218608181386
 30
0.0
  0
SPLINE
  5
96
330
1F
100
AcDbEntity
  8
0
  6
Continuous
 62
     7
370
    15
100
AcDbSpline
210
0.0
220
0.0
230
1.0
 70
     8
 71
     3
 72
    14
 73
    10
 74
     0
 42
0.00000001
 43
0.00000001
 40
0.0
 40
0.0
 40
0.0
 40
0.0
 40
0.5000000000000012
 40
0.5000000000000012
 40
0.7500000000000018
 40
0.7500000000000018
 40
0.8750000000000009
 40
0.8750000000000009
 40
1.0
 40
1.0
 40
1.0
 40
1.0
 10
39.25434278027662
 20
78.90400531789213
 30
0.0
 10
40.56264434281065
 20
78.91102004163325
 30
0.0
 10
41.86770371746776
 20
78.92642861807774
 30
0.0
 10
43.81357976895644
 20
78.98032517354439
 30
0.0
 10
44.46027727269559
 20
79.00335673814709
 30
0.0
 10
45.42411963655015
 20
79.05429926301785
 30
0.0
 10
45.74435832848428
 20
79.07403418525105
 30
0.0
 10
46.38105355482683
 20
79.12352131372263
 30
0.0
 10
46.69776896310984
 20
79.15258609265187
 30
0.0
 10
47.00977727622621
 20
79.19413749702203
 30
0.0
  0
SPLINE
  5
97
330
1F
100
AcDbEntity
  8
0
  6
Continuous
 62
     7
370
    15
100
AcDbSpline
210
0.0
220
0.0
230
1.0
 70
     8
 71
     3
 72
    12
 73
     8
 74
     0
 42
0.00000001
 43
0.00000001
 40
0.0
 40
0.0
 40
0.0
 40
0.0
 40
0.2500000000000001
 40
0.2500000000000001
 40
0.5000000000000001
 40
0.5000000000000001
 40
1.0
 40
1.0
 40
1.0
 40
1.0
 10
45.55441766430697
 20
143.2363603779537
 30
0.0
 10
45.03571884247879
 20
143.2688831528019
 30
0.0
 10
44.51400726927379
 20
143.2921798939724
 30
0.0
 10
43.46771525277823
 20
143.3300254083945
 30
0.0
 10
42.94304362710795
 20
143.3442938828907
 30
0.0
 10
41.36619760456873
 20
143.378503370349
 30
0.0
 10
40.31124229002184
 20
143.3900028742929
 30
0.0
 10
39.25434278027662
 20
143.3956696550224
 30
0.0
  0
SPLINE
  5
98
330
1F
100
AcDbEntity
  8
0
  6
Continuous
 62
     7
370
    15
100
AcDbSpline
210
0.0
220
0.0
230
1.0
 70
     8
 71
     3
 72
    20
 73
    16
 74
     0
 42
0.00000001
 43
0.00000001
 40
0.0
 40
0.0
 40
0.0
 40
0.0
 40
0.2500000000000011
 40
0.2500000000000011
 40
0.5000000000000021
 40
0.5000000000000021
 40
0.7500000000000031
 40
0.7500000000000031
 40
0.8750000000000008
 40
0.8750000000000008
 40
0.9375000000000006
 40
0.9375000000000006
 40
0.9687500000000003
 40
0.9687500000000003
 40
1.0
 40
1.0
 40
1.0
 40
1.0
 10
47.45441766430697
 20
144.8944462234418
 30
0.0
 10
47.45441766430697
 20
144.758763903695
 30
0.0
 10
47.40570587509034
 20
144.617676917555
 30
0.0
 10
47.23654445186515
 20
144.3256051988244
 30
0.0
 10
47.11476403794684
 20
144.173956456734
 30
0.0
 10
46.81721694319732
 20
143.8715480165809
 30
0.0
 10
46.64330433749456
 20
143.7189593804576
 30
0.0
 10
46.32388950361273
 20
143.4936886166153
 30
0.0
 10
46.20884872816547
 20
143.4189655221046
 30
0.0
 10
46.00176440414905
 20
143.3195551128476
 30
0.0
 10
45.92565656934266
 20
143.287990020503
 30
0.0
 10
45.79426202978931
 20
143.2535466363101
 30
0.0
 10
45.74770881078785
 20
143.2444950645424
 30
0.0
 10
45.65137545970714
 20
143.234319415704
 30
0.0
 10
45.6021160363517
 20
143.2333696570289
 30
0.0
 10
45.55441766430499
 20
143.2363603779435
 30
0.0
  0
LINE
  5
99
330
1F
100
AcDbEntity
  8
0
  6
Continuous
 62
     7
370
    15
100
AcDbLine
 10
47.4544176643
 20
144.8944462234
 30
0.0
 11
47.4544176643
 21
147.1633515145
 31
0.0
  0
SPLINE
  5
9A
330
1F
100
AcDbEntity
  8
0
  6
Continuous
 62
     7
370
    15
100
AcDbSpline
210
0.0
220
0.0
230
1.0
 70
     8
 71
     3
 72
    22
 73
    18
 74
     0
 42
0.00000001
 43
0.00000001
 40
0.0
 40
0.0
 40
0.0
 40
0.0
 40
0.0002937850458186
 40
0.0628841327416245
 40
0.1261981682954119
 40
0.2510182590426545
 40
0.3131038291609287
 40
0.3757650688901397
 40
0.4382989835656159
 40
0.5000628079113862
 40
0.5617337561138577
 40
0.6246555685552369
 40
0.7491916976530832
 40
0.8115302181310354
 40
0.8745847230190956
 40
0.937822758820794
 40
1.0
 40
1.0
 40
1.0
 40
1.0
 10
65.77437392814639
 20
74.21859222814489
 30
0.0
 10
65.77417907473618
 20
74.21856792082504
 30
0.0
 10
65.73247107125552
 20
74.2133649850382
 30
0.0
 10
65.87773417443947
 20
74.23197919292609
 30
0.0
 10
66.34788035160979
 20
74.28850514352209
 30
0.0
 10
67.31633643419389
 20
74.39472677294752
 30
0.0
 10
68.62879624375526
 20
74.48035958037894
 30
0.0
 10
69.76091995238781
 20
74.51901564647784
 30
0.0
 10
70.9831067290098
 20
74.52267695425633
 30
0.0
 10
72.25040511653916
 20
74.48029153948646
 30
0.0
 10
73.51711677077225
 20
74.39191456181112
 30
0.0
 10
75.13277476663681
 20
74.22186543318726
 30
0.0
 10
76.57273737666043
 20
73.99968369863382
 30
0.0
 10
77.63860653282433
 20
73.79668759049927
 30
0.0
 10
78.22780691626227
 20
73.67266215754994
 30
0.0
 10
78.61652643155286
 20
73.58774131710503
 30
0.0
 10
78.66331214438227
 20
73.57701459930068
 30
0.0
 10
78.68650713800953
 20
73.57169660506554
 30
0.0
  0
SPLINE
  5
9B
330
1F
100
AcDbEntity
  8
0
  6
Continuous
 62
     7
370
    15
100
AcDbSpline
210
0.0
220
0.0
230
1.0
 70
     8
 71
     3
 72
    41
 73
    37
 74
     0
 42
0.00000001
 43
0.00000001
 40
0.0
 40
0.0
 40
0.0
 40
0.0
 40
0.0619930061482746
 40
0.1254347783466151
 40
0.1886508898234768
 40
0.2510246408607227
 40
0.3131658188976554
 40
0.3756581641417402
 40
0.4382227146727798
 40
0.4998044922940677
 40
0.56151641971787
 40
0.6240683094121985
 40
0.686725723240935
 40
0.7488365305144522
 40
0.8110685944253986
 40
0.8741742884451361
 40
0.9373212787645211
 40
0.9685511709617411
 40
0.9842086872487193
 40
0.9920641182531791
 40
0.996000486125535
 40
0.9979710794120144
 40
0.9989570090489596
 40
0.9994501359395065
 40
0.9996967403802177
 40
0.9998200529090742
 40
0.9998817117580818
 40
0.999912541829664
 40
0.9999279570273361
 40
0.9999356646666602
 40
0.9999395184964466
 40
0.9999414454138695
 40
0.9999424088732151
 40
0.9999433723329806
 40
0.9999501697010513
 40
1.0
 40
1.0
 40
1.0
 40
1.0
 10
78.68638580753154
 20
148.7279333498975
 30
0.0
 10
78.66281416218794
 20
148.7226238702476
 30
0.0
 10
78.61512000614287
 20
148.7118808293081
 30
0.0
 10
78.22307801671732
 20
148.6266516928526
 30
0.0
 10
77.63256396744713
 20
148.5020829142119
 30
0.0
 10
76.82852652140204
 20
148.34913596806
 30
0.0
 10
75.85245112122053
 20
148.1873794141065
 30
0.0
 10
74.73064238594003
 20
148.0351466461742
 30
0.0
 10
73.51711146615278
 20
147.9073667049729
 30
0.0
 10
72.25228075975357
 20
147.8195181532903
 30
0.0
 10
70.98423772231084
 20
147.7771326694196
 30
0.0
 10
69.76073036460973
 20
147.7808684773913
 30
0.0
 10
68.62723182419572
 20
147.8194639478394
 30
0.0
 10
67.64112601322152
 20
147.8839033191305
 30
0.0
 10
66.83249820443429
 20
147.9574131264117
 30
0.0
 10
66.23587950932509
 20
148.0247268112235
 30
0.0
 10
65.92048821986702
 20
148.0626913624914
 30
0.0
 10
65.81042165106909
 20
148.0764904218233
 30
0.0
 10
65.7830022632549
 20
148.0799764957439
 30
0.0
 10
65.7760802124254
 20
148.0808557214373
 30
0.0
 10
65.77431197224199
 20
148.0810764960436
 30
0.0
 10
65.77385159306861
 20
148.0811316987544
 30
0.0
 10
65.77372743438382
 20
148.0811454385414
 30
0.0
 10
65.77369187989063
 20
148.0811488343724
 30
0.0
 10
65.77368073582055
 20
148.0811496626927
 30
0.0
 10
65.77367682262442
 20
148.0811498592815
 30
0.0
 10
65.77367528041961
 20
148.0811499032116
 30
0.0
 10
65.7736746134181
 20
148.0811499115184
 30
0.0
 10
65.77367430524035
 20
148.0811499123486
 30
0.0
 10
65.7736741584743
 20
148.0811499118034
 30
0.0
 10
65.77367408552185
 20
148.0811499114735
 30
0.0
 10
65.77367405112946
 20
148.0811499110363
 30
0.0
 10
65.7736740288843
 20
148.0811499111248
 30
0.0
 10
65.77367400177486
 20
148.0811499082898
 30
0.0
 10
65.77367148221352
 20
148.0811501951449
 30
0.0
 10
65.77370757213156
 20
148.0811455750442
 30
0.0
 10
65.7737393299542
 20
148.0811415095228
 30
0.0
  0
SPLINE
  5
9C
330
1F
100
AcDbEntity
  8
0
  6
Continuous
 62
     7
370
    15
100
AcDbSpline
210
0.0
220
0.0
230
1.0
 70
     8
 71
     3
 72
    20
 73
    16
 74
     0
 42
0.00000001
 43
0.00000001
 40
0.0
 40
0.0
 40
0.0
 40
0.0
 40
0.249999999999986
 40
0.249999999999986
 40
0.3749999999999789
 40
0.3749999999999789
 40
0.4374999999999789
 40
0.4374999999999789
 40
0.4999999999999789
 40
0.4999999999999789
 40
0.6249999999999835
 40
0.6249999999999835
 40
0.7499999999999879
 40
0.7499999999999879
 40
1.0
 40
1.0
 40
1.0
 40
1.0
 10
37.64523189602298
 20
80.47135433375658
 30
0.0
 10
37.67150411323639
 20
80.49067227483903
 30
0.0
 10
37.70218425549123
 20
80.5050609859408
 30
0.0
 10
37.77365512587315
 20
80.49815662410478
 30
0.0
 10
37.80168216291749
 20
80.49099062075638
 30
0.0
 10
37.85676575241499
 20
80.46129159405278
 30
0.0
 10
37.87765708096742
 20
80.44781795149144
 30
0.0
 10
37.92286572841289
 20
80.41261968597543
 30
0.0
 10
37.94726994080845
 20
80.39071145724817
 30
0.0
 10
38.01860225885989
 20
80.31858659725263
 30
0.0
 10
38.06049904368017
 20
80.26624605630258
 30
0.0
 10
38.13207500253604
 20
80.16876266440183
 30
0.0
 10
38.16290299235334
 20
80.1220088945234
 30
0.0
 10
38.24600292518891
 20
79.98871567868429
 30
0.0
 10
38.29085783055922
 20
79.90607828076908
 30
0.0
 10
38.33096990601179
 20
79.8269713859783
 30
0.0
  0
SPLINE
  5
9D
330
1F
100
AcDbEntity
  8
0
  6
Continuous
 62
     7
370
    15
100
AcDbSpline
210
0.0
220
0.0
230
1.0
 70
     8
 71
     3
 72
    14
 73
    10
 74
     0
 42
0.00000001
 43
0.00000001
 40
0.0
 40
0.0
 40
0.0
 40
0.0
 40
0.2499999999999994
 40
0.2499999999999994
 40
0.4999999999999988
 40
0.4999999999999988
 40
0.7499999999999982
 40
0.7499999999999982
 40
1.0
 40
1.0
 40
1.0
 40
1.0
 10
37.35441766430697
 20
80.64716774388934
 30
0.0
 10
37.35441766430697
 20
80.605920812865
 30
0.0
 10
37.36302738068822
 20
80.56901384058251
 30
0.0
 10
37.39411356025857
 20
80.5081137806831
 30
0.0
 10
37.41650311374264
 20
80.48393286114342
 30
0.0
 10
37.47124704491875
 20
80.44996527026015
 30
0.0
 10
37.50369728450394
 20
80.44004518629197
 30
0.0
 10
37.57369879923201
 20
80.43869397738712
 30
0.0
 10
37.61190929935453
 20
80.44685225408327
 30
0.0
 10
37.64523189602763
 20
80.47135433375136
 30
0.0
  0
LINE
  5
9E
330
1F
100
AcDbEntity
  8
0
  6
Continuous
 62
     7
370
    15
100
AcDbLine
 10
37.3544176643
 20
80.6471677439
 30
0.0
 11
37.3544176643
 21
141.652507229
 31
0.0
  0
SPLINE
  5
9F
330
1F
100
AcDbEntity
  8
0
  6
Continuous
 62
     7
370
    15
100
AcDbSpline
210
0.0
220
0.0
230
1.0
 70
     8
 71
     3
 72
    10
 73
     6
 74
     0
 42
0.00000001
 43
0.00000001
 40
0.0
 40
0.0
 40
0.0
 40
0.0
 40
0.0592402688376383
 40
0.6438088530391344
 40
1.0
 40
1.0
 40
1.0
 40
1.0
 10
37.64523189602762
 20
141.8283206391631
 30
0.0
 10
37.64039963840641
 20
141.8315695457948
 30
0.0
 10
37.58788383627168
 20
141.8668778739504
 30
0.0
 10
37.4889336385929
 20
141.873132170509
 30
0.0
 10
37.43950511370156
 20
141.8179319328201
 30
0.0
 10
37.42079044895726
 20
141.7970319778969
 30
0.0
  0
SPLINE
  5
A0
330
1F
100
AcDbEntity
  8
0
  6
Continuous
 62
     7
370
    15
100
AcDbSpline
210
0.0
220
0.0
230
1.0
 70
     8
 71
     3
 72
     8
 73
     4
 74
     0
 42
0.00000001
 43
0.00000001
 40
0.0
 40
0.0
 40
0.0
 40
0.0
 40
1.0
 40
1.0
 40
1.0
 40
1.0
 10
37.37805133324318
 20
141.7600867300949
 30
0.0
 10
37.36270229460714
 20
141.7295766750989
 30
0.0
 10
37.35441766430697
 20
141.6932651195866
 30
0.0
 10
37.35441766430697
 20
141.6525072290252
 30
0.0
  0
SPLINE
  5
A1
330
1F
100
AcDbEntity
  8
0
  6
Continuous
 62
     7
370
    15
100
AcDbSpline
210
0.0
220
0.0
230
1.0
 70
     8
 71
     3
 72
    20
 73
    16
 74
     0
 42
0.00000001
 43
0.00000001
 40
0.0
 40
0.0
 40
0.0
 40
0.0
 40
0.2500000000000037
 40
0.2500000000000037
 40
0.3750000000000055
 40
0.3750000000000055
 40
0.5000000000000073
 40
0.5000000000000073
 40
0.5625000000000057
 40
0.5625000000000057
 40
0.625000000000004
 40
0.625000000000004
 40
0.7500000000000027
 40
0.7500000000000027
 40
1.0
 40
1.0
 40
1.0
 40
1.0
 10
38.3309699060094
 20
142.4727035869354
 30
0.0
 10
38.29097368818557
 20
142.393825180378
 30
0.0
 10
38.24586006034792
 20
142.3106955336865
 30
0.0
 10
38.16260584598138
 20
142.1772068693355
 30
0.0
 10
38.13238651736088
 20
142.1313418134536
 30
0.0
 10
38.06029828221946
 20
142.0331502610487
 30
0.0
 10
38.01838096480837
 20
141.9808404415251
 30
0.0
 10
37.94713036025691
 20
141.9088345387906
 30
0.0
 10
37.92289454787759
 20
141.887064326489
 30
0.0
 10
37.87729635769293
 20
141.85158966816
 30
0.0
 10
37.85649386809322
 20
141.8382194839824
 30
0.0
 10
37.8015528696741
 20
141.8086495718472
 30
0.0
 10
37.7734838815873
 20
141.8015230495452
 30
0.0
 10
37.70298105152446
 20
141.7946486780626
 30
0.0
 10
37.67155696373359
 20
141.8089638371497
 30
0.0
 10
37.64523189602499
 20
141.8283206391603
 30
0.0
  0
SPLINE
  5
A2
330
1F
100
AcDbEntity
  8
0
  6
Continuous
 62
     7
370
    15
100
AcDbSpline
210
0.0
220
0.0
230
1.0
 70
     8
 71
     3
 72
    10
 73
     6
 74
     0
 42
0.00000001
 43
0.00000001
 40
0.0
 40
0.0
 40
0.0
 40
0.0
 40
0.4999999999999989
 40
0.4999999999999989
 40
1.0
 40
1.0
 40
1.0
 40
1.0
 10
39.00441766430698
 20
143.3981226882773
 30
0.0
 10
38.87952939355678
 20
143.2671264102058
 30
0.0
 10
38.75807927549634
 20
143.1234135735408
 30
0.0
 10
38.52849530053889
 20
142.8128432808516
 30
0.0
 10
38.41822032514292
 20
142.6447742077885
 30
0.0
 10
38.3309699060094
 20
142.4727035869354
 30
0.0
  0
SPLINE
  5
A3
330
1F
100
AcDbEntity
  8
0
  6
Continuous
 62
     7
370
    15
100
AcDbSpline
210
0.0
220
0.0
230
1.0
 70
     8
 71
     3
 72
     8
 73
     4
 74
     0
 42
0.00000001
 43
0.00000001
 40
0.0
 40
0.0
 40
0.0
 40
0.0
 40
1.0
 40
1.0
 40
1.0
 40
1.0
 10
39.25434278027274
 20
143.3956696550219
 30
0.0
 10
39.16732475042436
 20
143.396136219809
 30
0.0
 10
39.08437072404441
 20
143.3971762393851
 30
0.0
 10
39.00441766430467
 20
143.3981226882773
 30
0.0
  0
SPLINE
  5
A4
330
1F
100
AcDbEntity
  8
0
  6
Continuous
 62
     7
370
    15
100
AcDbSpline
210
0.0
220
0.0
230
1.0
 70
     8
 71
     3
 72
     8
 73
     4
 74
     0
 42
0.00000001
 43
0.00000001
 40
0.0
 40
0.0
 40
0.0
 40
0.0
 40
1.0
 40
1.0
 40
1.0
 40
1.0
 10
39.00441766430467
 20
78.90155228463719
 30
0.0
 10
39.08437072404443
 20
78.90249873352944
 30
0.0
 10
39.16732475042439
 20
78.90353875310558
 30
0.0
 10
39.25434278027276
 20
78.90400531789265
 30
0.0
  0
SPLINE
  5
A5
330
1F
100
AcDbEntity
  8
0
  6
Continuous
 62
     7
370
    15
100
AcDbSpline
210
0.0
220
0.0
230
1.0
 70
     8
 71
     3
 72
    10
 73
     6
 74
     0
 42
0.00000001
 43
0.00000001
 40
0.0
 40
0.0
 40
0.0
 40
0.0
 40
0.4999999999999989
 40
0.4999999999999989
 40
1.0
 40
1.0
 40
1.0
 40
1.0
 10
38.33096990600847
 20
79.82697138598087
 30
0.0
 10
38.41822032514195
 20
79.6549007651275
 30
0.0
 10
38.5284953005381
 20
79.48683169206406
 30
0.0
 10
38.75807927549593
 20
79.17626139937425
 30
0.0
 10
38.87952939355657
 20
79.03254856270897
 30
0.0
 10
39.00441766430698
 20
78.90155228463728
 30
0.0
  0
SPLINE
  5
A6
330
1F
100
AcDbEntity
  8
0
  6
Continuous
 62
     7
370
    15
100
AcDbSpline
210
0.0
220
0.0
230
1.0
 70
     8
 71
     3
 72
     8
 73
     4
 74
     0
 42
0.00000001
 43
0.00000001
 40
0.0
 40
0.0
 40
0.0
 40
0.0
 40
1.0
 40
1.0
 40
1.0
 40
1.0
 10
103.9923886433856
 20
150.1008002473442
 30
0.0
 10
104.4493149971851
 20
149.0848822776699
 30
0.0
 10
104.9005206389881
 20
148.0660864485787
 30
0.0
 10
105.344417664307
 20
147.0452849925951
 30
0.0
  0
LINE
  5
A7
330
1F
100
AcDbEntity
  8
0
  6
Continuous
 62
     7
370
    15
100
AcDbLine
 10
105.3444176643
 20
147.0452849926
 30
0.0
 11
105.3444176643
 21
145.864072679
 31
0.0
  0
SPLINE
  5
A8
330
1F
100
AcDbEntity
  8
0
  6
Continuous
 62
     7
370
    15
100
AcDbSpline
210
0.0
220
0.0
230
1.0
 70
     8
 71
     3
 72
    14
 73
    10
 74
     0
 42
0.00000001
 43
0.00000001
 40
0.0
 40
0.0
 40
0.0
 40
0.0
 40
0.25
 40
0.25
 40
0.5
 40
0.5
 40
0.75
 40
0.75
 40
1.0
 40
1.0
 40
1.0
 40
1.0
 10
105.3444176643069
 20
145.8640726789543
 30
0.0
 10
105.3444176643069
 20
145.7402058021651
 30
0.0
 10
105.3602767919346
 20
145.6159461253276
 30
0.0
 10
105.4236384374544
 20
145.3783377629217
 30
0.0
 10
105.4722281455038
 20
145.2615573781693
 30
0.0
 10
105.6045137502787
 20
145.0527548495603
 30
0.0
 10
105.6898385415392
 20
144.9582441459677
 30
0.0
 10
105.8967297898454
 20
144.8202873451654
 30
0.0
 10
106.0206977357354
 20
144.7783688995297
 30
0.0
 10
106.144417664307
 20
144.7783688995297
 30
0.0
  0
LINE
  5
A9
330
1F
100
AcDbEntity
  8
0
  6
Continuous
 62
     7
370
    15
100
AcDbLine
 10
106.1444176643
 20
144.7783688995
 30
0.0
 11
108.3644176643
 21
144.7783688995
 31
0.0
  0
SPLINE
  5
AA
330
1F
100
AcDbEntity
  8
0
  6
Continuous
 62
     7
370
    15
100
AcDbSpline
210
0.0
220
0.0
230
1.0
 70
     8
 71
     3
 72
    12
 73
     8
 74
     0
 42
0.00000001
 43
0.00000001
 40
0.0
 40
0.0
 40
0.0
 40
0.0
 40
0.250000000000002
 40
0.250000000000002
 40
0.500000000000004
 40
0.500000000000004
 40
1.0
 40
1.0
 40
1.0
 40
1.0
 10
108.364417664309
 20
144.7783688995298
 30
0.0
 10
108.4881186142888
 20
144.7783688995302
 30
0.0
 10
108.6122152265587
 20
144.820362511263
 30
0.0
 10
108.8188703896451
 20
144.9581578379077
 30
0.0
 10
108.9039111563718
 20
145.0521314363725
 30
0.0
 10
109.1033897248448
 20
145.3669196425932
 30
0.0
 10
109.164417664307
 20
145.6171586348204
 30
0.0
 10
109.164417664307
 20
145.8640726789543
 30
0.0
  0
LINE
  5
AB
330
1F
100
AcDbEntity
  8
0
  6
Continuous
 62
     7
370
    15
100
AcDbLine
 10
109.1644176643
 20
145.864072679
 30
0.0
 11
109.1644176643
 21
147.0452849926
 31
0.0
  0
SPLINE
  5
AC
330
1F
100
AcDbEntity
  8
0
  6
Continuous
 62
     7
370
    15
100
AcDbSpline
210
0.0
220
0.0
230
1.0
 70
     8
 71
     3
 72
     8
 73
     4
 74
     0
 42
0.00000001
 43
0.00000001
 40
0.0
 40
0.0
 40
0.0
 40
0.0
 40
1.0
 40
1.0
 40
1.0
 40
1.0
 10
109.164417664307
 20
147.0452849925951
 30
0.0
 10
109.6085676753325
 20
148.0666682235467
 30
0.0
 10
110.0596419855904
 20
149.0851527603151
 30
0.0
 10
110.5164466852284
 20
150.1008002473442
 30
0.0
  0
LINE
  5
AD
330
1F
100
AcDbEntity
  8
0
  6
Continuous
 62
     7
370
    15
100
AcDbLine
 10
110.5164466852
 20
150.1008002473
 30
0.0
 11
115.2044176643
 21
150.1008002473
 31
0.0
  0
SPLINE
  5
AE
330
1F
100
AcDbEntity
  8
0
  6
Continuous
 62
     7
370
    15
100
AcDbSpline
210
0.0
220
0.0
230
1.0
 70
     8
 71
     3
 72
    16
 73
    12
 74
     0
 42
0.00000001
 43
0.00000001
 40
0.0
 40
0.0
 40
0.0
 40
0.0
 40
0.125
 40
0.125
 40
0.25
 40
0.25
 40
0.5
 40
0.5
 40
0.75
 40
0.75
 40
1.0
 40
1.0
 40
1.0
 40
1.0
 10
115.204417664306
 20
150.1008002473442
 30
0.0
 10
115.2800553707172
 20
150.1008002473443
 30
0.0
 10
115.3563710351355
 20
150.0894552472094
 30
0.0
 10
115.5007817730276
 20
150.0468026965711
 30
0.0
 10
115.569228222136
 20
150.0158683718883
 30
0.0
 10
115.7641594747494
 20
149.8966120001207
 30
0.0
 10
115.8720006485304
 20
149.7864599865002
 30
0.0
 10
116.0407133967426
 20
149.538323900842
 30
0.0
 10
116.1030778094662
 20
149.3979815768383
 30
0.0
 10
116.1843817339747
 20
149.1097098853495
 30
0.0
 10
116.204417664307
 20
148.9589049123696
 30
0.0
 10
116.204417664307
 20
148.8085350210242
 30
0.0
  0
LINE
  5
AF
330
1F
100
AcDbEntity
  8
0
  6
Continuous
 62
     7
370
    15
100
AcDbLine
 10
116.2044176643
 20
148.808535021
 30
0.0
 11
116.2044176643
 21
142.4998374865
 31
0.0
  0
LINE
  5
B0
330
1F
100
AcDbEntity
  8
0
  6
Continuous
 62
     7
370
    15
100
AcDbLine
 10
115.2044176643
 20
160.1396323421
 30
0.0
 11
110.5164466852
 21
160.1396323421
 31
0.0
  0
LINE
  5
B1
330
1F
100
AcDbEntity
  8
0
  6
Continuous
 62
     7
370
    15
100
AcDbLine
 10
110.5164466852
 20
150.1008002473
 30
0.0
 11
110.5164466852
 21
160.1396323421
 31
0.0
  0
SPLINE
  5
B2
330
1F
100
AcDbEntity
  8
0
  6
Continuous
 62
     7
370
    15
100
AcDbSpline
210
0.0
220
0.0
230
1.0
 70
     8
 71
     3
 72
    12
 73
     8
 74
     0
 42
0.00000001
 43
0.00000001
 40
0.0
 40
0.0
 40
0.0
 40
0.0
 40
0.5
 40
0.5
 40
0.75
 40
0.75
 40
1.0
 40
1.0
 40
1.0
 40
1.0
 10
116.204417664307
 20
159.1185773073031
 30
0.0
 10
116.204417664307
 20
159.3838467400695
 30
0.0
 10
116.0998109208205
 20
159.6463618457219
 30
0.0
 10
115.8231425690752
 20
159.9318994517592
 30
0.0
 10
115.7127773097232
 20
160.0082210686206
 30
0.0
 10
115.4687052611075
 20
160.1125632334607
 30
0.0
 10
115.3369527997757
 20
160.1396323421208
 30
0.0
 10
115.204417664307
 20
160.1396323421208
 30
0.0
  0
LINE
  5
B3
330
1F
100
AcDbEntity
  8
0
  6
Continuous
 62
     7
370
    15
100
AcDbLine
 10
116.2044176643
 20
148.808535021
 30
0.0
 11
116.2044176643
 21
159.1185773073
 31
0.0
  0
SPLINE
  5
B4
330
1F
100
AcDbEntity
  8
0
  6
Continuous
 62
     7
370
    15
100
AcDbSpline
210
0.0
220
0.0
230
1.0
 70
     8
 71
     3
 72
    14
 73
    10
 74
     0
 42
0.00000001
 43
0.00000001
 40
0.0
 40
0.0
 40
0.0
 40
0.0
 40
0.25
 40
0.25
 40
0.5
 40
0.5
 40
0.75
 40
0.75
 40
1.0
 40
1.0
 40
1.0
 40
1.0
 10
109.164417664307
 20
156.8433887273052
 30
0.0
 10
109.164417664307
 20
156.7370320335529
 30
0.0
 10
109.1440301081657
 20
156.6311915457927
 30
0.0
 10
109.0653957627042
 20
156.4346266322563
 30
0.0
 10
109.0066644030655
 20
156.3434558899691
 30
0.0
 10
108.8600554974629
 20
156.1915448009375
 30
0.0
 10
108.7706501774363
 20
156.1294759641179
 30
0.0
 10
108.5767594448359
 20
156.0462079163593
 30
0.0
 10
108.4702544549461
 20
156.0241132466296
 30
0.0
 10
108.3644176643067
 20
156.0241132466297
 30
0.0
  0
SPLINE
  5
B5
330
1F
100
AcDbEntity
  8
0
  6
Continuous
 62
     7
370
    15
100
AcDbSpline
210
0.0
220
0.0
230
1.0
 70
     8
 71
     3
 72
     8
 73
     4
 74
     0
 42
0.00000001
 43
0.00000001
 40
0.0
 40
0.0
 40
0.0
 40
0.0
 40
1.0
 40
1.0
 40
1.0
 40
1.0
 10
110.5164466852283
 20
160.1396323421208
 30
0.0
 10
110.0654197165151
 20
159.342321771933
 30
0.0
 10
109.6147258999915
 20
158.5448234722758
 30
0.0
 10
109.164417664307
 20
157.7471083471622
 30
0.0
  0
LINE
  5
B6
330
1F
100
AcDbEntity
  8
0
  6
Continuous
 62
     7
370
    15
100
AcDbLine
 10
109.1644176643
 20
147.0452849926
 30
0.0
 11
109.1644176643
 21
157.7471083472
 31
0.0
  0
SPLINE
  5
B7
330
1F
100
AcDbEntity
  8
0
  6
Continuous
 62
     7
370
    15
100
AcDbSpline
210
0.0
220
0.0
230
1.0
 70
     8
 71
     3
 72
     8
 73
     4
 74
     0
 42
0.00000001
 43
0.00000001
 40
0.0
 40
0.0
 40
0.0
 40
0.0
 40
1.0
 40
1.0
 40
1.0
 40
1.0
 10
105.344417664307
 20
157.7471083471622
 30
0.0
 10
104.8941094286224
 20
158.5448234722758
 30
0.0
 10
104.4434156120988
 20
159.342321771933
 30
0.0
 10
103.9923886433856
 20
160.1396323421209
 30
0.0
  0
LINE
  5
B8
330
1F
100
AcDbEntity
  8
0
  6
Continuous
 62
     7
370
    15
100
AcDbLine
 10
105.3444176643
 20
147.0452849926
 30
0.0
 11
105.3444176643
 21
157.7471083472
 31
0.0
  0
SPLINE
  5
B9
330
1F
100
AcDbEntity
  8
0
  6
Continuous
 62
     7
370
    15
100
AcDbSpline
210
0.0
220
0.0
230
1.0
 70
     8
 71
     3
 72
    10
 73
     6
 74
     0
 42
0.00000001
 43
0.00000001
 40
0.0
 40
0.0
 40
0.0
 40
0.0
 40
0.5
 40
0.5
 40
1.0
 40
1.0
 40
1.0
 40
1.0
 10
106.144417664307
 20
156.0241132466297
 30
0.0
 10
105.9318813504506
 20
156.0241132466297
 30
0.0
 10
105.7219451787966
 20
156.1155258332599
 30
0.0
 10
105.4282380377853
 20
156.4202706991641
 30
0.0
 10
105.3444176643069
 20
156.6324256690727
 30
0.0
 10
105.3444176643069
 20
156.8433887273052
 30
0.0
  0
LINE
  5
BA
330
1F
100
AcDbEntity
  8
0
  6
Continuous
 62
     7
370
    15
100
AcDbLine
 10
108.3644176643
 20
156.0241132466
 30
0.0
 11
106.1444176643
 21
156.0241132466
 31
0.0
  0
ARC
  5
BB
330
1F
100
AcDbEntity
  8
0
  6
Continuous
 62
     7
370
    15
100
AcDbCircle
 10
96.2546749428
 20
143.7453918773
 30
0.0
 40
11.42053516404105
100
AcDbArc
 50
77.6340603254
 51
102.4327561028
  0
SPLINE
  5
BC
330
1F
100
AcDbEntity
  8
0
  6
Continuous
 62
     7
370
    15
100
AcDbSpline
210
0.0
220
0.0
230
1.0
 70
     8
 71
     3
 72
    70
 73
    66
 74
     0
 42
0.00000001
 43
0.00000001
 40
-0.03125
 40
-0.03125
 40
0.0
 40
0.0
 40
0.03125
 40
0.03125
 40
0.0625
 40
0.0625
 40
0.09375
 40
0.09375
 40
0.125
 40
0.125
 40
0.15625
 40
0.15625
 40
0.1875
 40
0.1875
 40
0.21875
 40
0.21875
 40
0.25
 40
0.25
 40
0.28125
 40
0.28125
 40
0.3125
 40
0.3125
 40
0.34375
 40
0.34375
 40
0.375
 40
0.375
 40
0.40625
 40
0.40625
 40
0.4375
 40
0.4375
 40
0.46875
 40
0.46875
 40
0.5
 40
0.5
 40
0.53125
 40
0.53125
 40
0.5625
 40
0.5625
 40
0.59375
 40
0.59375
 40
0.625
 40
0.625
 40
0.65625
 40
0.65625
 40
0.6875
 40
0.6875
 40
0.71875
 40
0.71875
 40
0.75
 40
0.75
 40
0.78125
 40
0.78125
 40
0.8125
 40
0.8125
 40
0.84375
 40
0.84375
 40
0.875
 40
0.875
 40
0.90625
 40
0.90625
 40
0.9375
 40
0.9375
 40
0.96875
 40
0.96875
 40
1.0
 40
1.0
 40
1.03125
 40
1.03125
 10
153.678404008024
 20
113.3099831218751
 30
0.0
 10
154.0167978085946
 20
113.5853211105864
 30
0.0
 10
154.1963096920437
 20
113.7047775509443
 30
0.0
 10
154.5740931924341
 20
113.910738966488
 30
0.0
 10
154.7737508790895
 20
113.9976480852003
 30
0.0
 10
155.1859767509884
 20
114.1359493369911
 30
0.0
 10
155.3957013534652
 20
114.1866667437818
 30
0.0
 10
155.8220659198729
 20
114.2529068881522
 30
0.0
 10
156.0406984921456
 20
114.2683208603197
 30
0.0
 10
156.4744208939415
 20
114.2623920331884
 30
0.0
 10
156.6888433440164
 20
114.2414617764869
 30
0.0
 10
157.112863172165
 20
114.1640130777295
 30
0.0
 10
157.3244893073864
 20
114.1066697787219
 30
0.0
 10
157.7309906301197
 20
113.9575854699502
 30
0.0
 10
157.9256046352453
 20
113.8664392165324
 30
0.0
 10
158.2972328493592
 20
113.6501590559097
 30
0.0
 10
158.4761348764662
 20
113.5232909794716
 30
0.0
 10
158.8030760406651
 20
113.2405204360646
 30
0.0
 10
158.9511614507707
 20
113.0853624640668
 30
0.0
 10
159.214935044165
 20
112.7459002732294
 30
0.0
 10
159.3317212987201
 20
112.5587615347698
 30
0.0
 10
159.5183650540564
 20
112.169384366434
 30
0.0
 10
159.5895125947671
 20
111.9665819416058
 30
0.0
 10
159.6845623049401
 20
111.5436447657171
 30
0.0
 10
159.7073677607941
 20
111.324134770745
 30
0.0
 10
159.7008399341293
 20
110.89254395155
 30
0.0
 10
159.671645882292
 20
110.6748049286994
 30
0.0
 10
159.5637199792394
 20
110.2532571947507
 30
0.0
 10
159.4862390233556
 20
110.0514748720623
 30
0.0
 10
159.2868039903344
 20
109.6648655326956
 30
0.0
 10
159.1656171821665
 20
109.4825610425582
 30
0.0
 10
158.8911950550729
 20
109.148825379863
 30
0.0
 10
158.7352571451042
 20
108.9942884534608
 30
0.0
 10
158.3996872726429
 20
108.7199325817642
 30
0.0
 10
158.2204038528153
 20
108.599712026794
 30
0.0
 10
157.8400040599853
 20
108.3913028220406
 30
0.0
 10
157.6389013319688
 20
108.3036489178984
 30
0.0
 10
157.2296247111278
 20
108.1656629084987
 30
0.0
 10
157.0197001651701
 20
108.1142915818758
 30
0.0
 10
156.5892188789354
 20
108.0468908631644
 30
0.0
 10
156.3716399211515
 20
108.0315677575683
 30
0.0
 10
155.94023588613
 20
108.0369474241866
 30
0.0
 10
155.7251069472042
 20
108.0574315029132
 30
0.0
 10
155.2960424354538
 20
108.1354983191493
 30
0.0
 10
155.086244138525
 20
108.1925068002033
 30
0.0
 10
154.6819807755361
 20
108.3403777871653
 30
0.0
 10
154.4865110441409
 20
108.4313923404843
 30
0.0
 10
154.1099379108761
 20
108.6504192612314
 30
0.0
 10
153.9330678163198
 20
108.7762179331092
 30
0.0
 10
153.6081172432807
 20
109.0569647426631
 30
0.0
 10
153.4590411182902
 20
109.2124213289423
 30
0.0
 10
153.1910981155995
 20
109.5575132605371
 30
0.0
 10
153.0770394257254
 20
109.7411797752829
 30
0.0
 10
152.8911102936443
 20
110.1288450340172
 30
0.0
 10
152.8183538234204
 20
110.3359936942567
 30
0.0
 10
152.7234909639898
 20
110.7609469283888
 30
0.0
 10
152.7013659865483
 20
110.9756661519602
 30
0.0
 10
152.7081373002928
 20
111.4096296447845
 30
0.0
 10
152.7379786166848
 20
111.6288399479894
 30
0.0
 10
152.8457552901434
 20
112.0480179682089
 30
0.0
 10
152.9247694563343
 20
112.253288679477
 30
0.0
 10
153.1249566518001
 20
112.6395817124602
 30
0.0
 10
153.244889341056
 20
112.8196330902534
 30
0.0
 10
153.5217876119893
 20
113.1553962357283
 30
0.0
 10
153.678404008024
 20
113.3099831218751
 30
0.0
 10
154.0167978085946
 20
113.5853211105864
 30
0.0
  0
CIRCLE
  5
BD
330
1F
100
AcDbEntity
  8
0
  6
Continuous
 62
     7
370
    15
100
AcDbCircle
 10
156.2044176643
 20
111.1498374865
 30
0.0
 40
2.500000000000014
  0
LINE
  5
BE
330
1F
100
AcDbEntity
  8
0
  6
Continuous
 62
     7
370
    15
100
AcDbLine
 10
165.2044176643
 20
89.1498374865
 30
0.0
 11
165.2044176643
 21
133.1498374865
 31
0.0
  0
LINE
  5
BF
330
1F
100
AcDbEntity
  8
0
  6
Continuous
 62
     7
370
    15
100
AcDbLine
 10
153.8476009072
 20
133.0295095115
 30
0.0
 11
153.9604440679
 21
133.0203376264
 31
0.0
  0
SPLINE
  5
C0
330
1F
100
AcDbEntity
  8
0
  6
Continuous
 62
     7
370
    15
100
AcDbSpline
210
0.0
220
0.0
230
1.0
 70
     8
 71
     3
 72
    36
 73
    32
 74
     0
 42
0.00000001
 43
0.00000001
 40
0.0
 40
0.0
 40
0.0
 40
0.0
 40
0.028913728475156
 40
0.0526699238863738
 40
0.0744530527947867
 40
0.1187081143260497
 40
0.1412152299067695
 40
0.1640806903627418
 40
0.2104647274183365
 40
0.2340111865346908
 40
0.2593224913604521
 40
0.3106599740269839
 40
0.3367196506674519
 40
0.3647910180471324
 40
0.4217753538040718
 40
0.4507376620440366
 40
0.4807536775406153
 40
0.5417641359401683
 40
0.5728283269033239
 40
0.6034196977578872
 40
0.6342296417302051
 40
0.6657472591478855
 40
0.6975187685051429
 40
0.7271608847170833
 40
0.7876220121800097
 40
0.8185658977406421
 40
0.8454977048403112
 40
0.9005175710482236
 40
0.9287305010300764
 40
0.9523406030672542
 40
0.9999999999999999
 40
0.9999999999999999
 40
0.9999999999999999
 40
0.9999999999999999
 10
159.6943715153619
 20
133.148586611072
 30
0.0
 10
159.695551584549
 20
133.1487319803432
 30
0.0
 10
159.6977012261739
 20
133.1489967884068
 30
0.0
 10
159.6538630857852
 20
133.1435614432125
 30
0.0
 10
159.5811683357474
 20
133.1346746514211
 30
0.0
 10
159.4717473206802
 20
133.1215932573234
 30
0.0
 10
159.3285745601465
 20
133.1052597531898
 30
0.0
 10
159.1603596928133
 20
133.0867388628839
 30
0.0
 10
158.959040294329
 20
133.0658986529976
 30
0.0
 10
158.7258600638976
 20
133.0438522918124
 30
0.0
 10
158.4626851513971
 20
133.0206751016192
 30
0.0
 10
158.1668288544871
 20
132.9977941115543
 30
0.0
 10
157.8431907610754
 20
132.9769156232819
 30
0.0
 10
157.4894457734596
 20
132.95731741404
 30
0.0
 10
157.1089066169807
 20
132.9418837398359
 30
0.0
 10
156.7126251319623
 20
132.932252977525
 30
0.0
 10
156.2981676209577
 20
132.9267974397791
 30
0.0
 10
155.8729059970637
 20
132.9286480579607
 30
0.0
 10
155.4524723089223
 20
132.9378588243096
 30
0.0
 10
155.1407171979382
 20
132.9482792265229
 30
0.0
 10
154.8350002982029
 20
132.9619292572866
 30
0.0
 10
154.5355337146273
 20
132.978594005805
 30
0.0
 10
154.2524363280704
 20
132.9973710862218
 30
0.0
 10
153.9008512557836
 20
133.0241133865574
 30
0.0
 10
153.5840436105296
 20
133.0526301272344
 30
0.0
 10
153.318355836805
 20
133.0794390589467
 30
0.0
 10
153.0944289513043
 20
133.1034331583504
 30
0.0
 10
152.9200354999901
 20
133.1235956997829
 30
0.0
 10
152.8041732559034
 20
133.13753239801
 30
0.0
 10
152.7250612737279
 20
133.1472456933199
 30
0.0
 10
152.7129688865188
 20
133.1487643215499
 30
0.0
 10
152.7048824555743
 20
133.1497798598468
 30
0.0
  0
SPLINE
  5
C1
330
1F
100
AcDbEntity
  8
0
  6
Continuous
 62
     7
370
    15
100
AcDbSpline
210
0.0
220
0.0
230
1.0
 70
     8
 71
     3
 72
     9
 73
     5
 74
     0
 42
0.00000001
 43
0.00000001
 40
0.0
 40
0.0
 40
0.0
 40
0.0
 40
0.3768304639708344
 40
1.0
 40
1.0
 40
1.0
 40
1.0
 10
153.5390252175937
 20
133.057684430326
 30
0.0
 10
153.5754405402994
 20
133.0541548254562
 30
0.0
 10
153.6720763651261
 20
133.0447882662014
 30
0.0
 10
153.7802132776398
 20
133.0353753525581
 30
0.0
 10
153.8476009072386
 20
133.0295095115304
 30
0.0
  0
LINE
  5
C2
330
1F
100
AcDbEntity
  8
0
  6
Continuous
 62
     7
370
    15
100
AcDbLine
 10
153.8476009076
 20
89.2701654614
 30
0.0
 11
153.7894666796
 21
89.2649907585
 31
0.0
  0
SPLINE
  5
C3
330
1F
100
AcDbEntity
  8
0
  6
Continuous
 62
     7
370
    15
100
AcDbSpline
210
0.0
220
0.0
230
1.0
 70
     8
 71
     3
 72
    38
 73
    34
 74
     0
 42
0.00000001
 43
0.00000001
 40
0.0
 40
0.0
 40
0.0
 40
0.0
 40
0.0258008254549798
 40
0.0496281096181511
 40
0.0714072079754189
 40
0.1156575565807768
 40
0.1381645295546209
 40
0.1609638311610609
 40
0.2072149327081086
 40
0.2306946308047538
 40
0.2559088415902516
 40
0.307048692840337
 40
0.3330074506050113
 40
0.3609905886081461
 40
0.4177935323279764
 40
0.4466620191916487
 40
0.4766313433202676
 40
0.5068000742068324
 40
0.5375958932437129
 40
0.568608402690558
 40
0.5992016349238828
 40
0.6300128904966781
 40
0.6615292241960542
 40
0.6932981411054582
 40
0.7229999339321631
 40
0.783578014032317
 40
0.8145782759022272
 40
0.8416235463823143
 40
0.896874692196362
 40
0.9252064631743574
 40
0.948912446793844
 40
0.9972684220379696
 40
1.0
 40
1.0
 40
1.0
 40
1.0
 10
152.7150374530797
 20
89.1511600481916
 30
0.0
 10
152.7130375464968
 20
89.15091200440523
 30
0.0
 10
152.7091907089878
 20
89.15043489004924
 30
0.0
 10
152.7490059672508
 20
89.15537754056488
 30
0.0
 10
152.8181466840914
 20
89.1638467122911
 30
0.0
 10
152.9244501923628
 20
89.17659565888513
 30
0.0
 10
153.0645633040002
 20
89.19264917228308
 30
0.0
 10
153.2295906014114
 20
89.21091385717612
 30
0.0
 10
153.4277206814745
 20
89.23156430491285
 30
0.0
 10
153.65778119839
 20
89.25350786752534
 30
0.0
 10
153.9176903160276
 20
89.27663777487196
 30
0.0
 10
154.2103467070218
 20
89.2995847627193
 30
0.0
 10
154.5310293768282
 20
89.32065844657697
 30
0.0
 10
154.8819917879466
 20
89.3405552392836
 30
0.0
 10
155.2601206924996
 20
89.35642551089396
 30
0.0
 10
155.6545230529881
 20
89.3666078234475
 30
0.0
 10
155.9617395792282
 20
89.37112353742533
 30
0.0
 10
156.277198076634
 20
89.37212827362886
 30
0.0
 10
156.5958074497644
 20
89.36941818169772
 30
0.0
 10
156.9131682934859
 20
89.3629789414364
 30
0.0
 10
157.2256154008823
 20
89.35302528045662
 30
0.0
 10
157.5325437126785
 20
89.33979074454594
 30
0.0
 10
157.8335445725452
 20
89.32348251896948
 30
0.0
 10
158.1186824879232
 20
89.30496811569324
 30
0.0
 10
158.4736589563295
 20
89.27843019454117
 30
0.0
 10
158.7945861145841
 20
89.24990936623419
 30
0.0
 10
159.0649477048574
 20
89.22288536579788
 30
0.0
 10
159.2939750159498
 20
89.19852930867158
 30
0.0
 10
159.473093542157
 20
89.17793478508783
 30
0.0
 10
159.5952771242485
 20
89.1632803581455
 30
0.0
 10
159.6753475201497
 20
89.1534819548351
 30
0.0
 10
159.7106280322106
 20
89.14906362862905
 30
0.0
 10
159.7036092210326
 20
89.14993819482628
 30
0.0
 10
159.703233935298
 20
89.14998495662246
 30
0.0
  0
LINE
  5
C4
330
1F
100
AcDbEntity
  8
0
  6
Continuous
 62
     7
370
    15
100
AcDbLine
 10
196.4295987196
 20
90.6498374865
 30
0.0
 11
196.4295987196
 21
131.6498374865
 31
0.0
  0
LINE
  5
C5
330
1F
100
AcDbEntity
  8
0
  6
Continuous
 62
     7
370
    15
100
AcDbLine
 10
39.0044176643
 20
78.8998374865
 30
0.0
 11
39.0044176643
 21
78.9015522846
 31
0.0
  0
LINE
  5
C6
330
1F
100
AcDbEntity
  8
0
  6
Continuous
 62
     7
370
    15
100
AcDbLine
 10
247.2544176643
 20
96.4986184698
 30
0.0
 11
247.2544176643
 21
125.8010564564
 31
0.0
  0
LINE
  5
C7
330
1F
100
AcDbEntity
  8
0
  6
Continuous
 62
     7
370
    15
100
AcDbLine
 10
39.0044176643
 20
143.3998374865
 30
0.0
 11
39.0044176643
 21
143.3981226883
 31
0.0
  0
LINE
  5
C8
330
1F
100
AcDbEntity
  8
0
  6
Continuous
 62
     7
370
    15
100
AcDbLine
 10
247.2728501478
 20
124.8695541879
 30
0.0
 11
247.2544176643
 21
124.4004161554
 31
0.0
  0
LINE
  5
C9
330
1F
100
AcDbEntity
  8
0
  6
Continuous
 62
     7
370
    15
100
AcDbLine
 10
247.2544176643
 20
99.4004161554
 30
0.0
 11
247.3317398714
 21
97.4324345685
 31
0.0
  0
SPLINE
  5
CA
330
1F
100
AcDbEntity
  8
0
  6
HIDDEN
 62
     7
370
     0
100
AcDbSpline
210
0.0
220
0.0
230
1.0
 70
     8
 71
     3
 72
    80
 73
    76
 74
     0
 42
0.00000001
 43
0.00000001
 40
-0.0312500000000007
 40
-0.0312500000000007
 40
0.0
 40
0.0
 40
0.0312499999999999
 40
0.0312499999999999
 40
0.0468749999999997
 40
0.0468749999999997
 40
0.0624999999999995
 40
0.0624999999999995
 40
0.0937499999999991
 40
0.0937499999999991
 40
0.1249999999999987
 40
0.1249999999999987
 40
0.1562499999999983
 40
0.1562499999999983
 40
0.1874999999999979
 40
0.1874999999999979
 40
0.2187499999999975
 40
0.2187499999999975
 40
0.2499999999999971
 40
0.2499999999999971
 40
0.2812499999999969
 40
0.2812499999999969
 40
0.3124999999999967
 40
0.3124999999999967
 40
0.3281249999999967
 40
0.3281249999999967
 40
0.3437499999999967
 40
0.3437499999999967
 40
0.3749999999999966
 40
0.3749999999999966
 40
0.4062499999999966
 40
0.4062499999999966
 40
0.4218749999999964
 40
0.4218749999999964
 40
0.4374999999999962
 40
0.4374999999999962
 40
0.4687499999999959
 40
0.4687499999999959
 40
0.4999999999999956
 40
0.4999999999999956
 40
0.5312499999999952
 40
0.5312499999999952
 40
0.5624999999999949
 40
0.5624999999999949
 40
0.5937499999999946
 40
0.5937499999999946
 40
0.6249999999999942
 40
0.6249999999999942
 40
0.6562499999999939
 40
0.6562499999999939
 40
0.6874999999999936
 40
0.6874999999999936
 40
0.7031249999999936
 40
0.7031249999999936
 40
0.7187499999999937
 40
0.7187499999999937
 40
0.7499999999999942
 40
0.7499999999999942
 40
0.7812499999999947
 40
0.7812499999999947
 40
0.7968749999999951
 40
0.7968749999999951
 40
0.8124999999999954
 40
0.8124999999999954
 40
0.8437499999999962
 40
0.8437499999999962
 40
0.874999999999997
 40
0.874999999999997
 40
0.9062499999999978
 40
0.9062499999999978
 40
0.9374999999999986
 40
0.9374999999999986
 40
0.9687499999999993
 40
0.9687499999999993
 40
1.0
 40
1.0
 40
1.03125
 40
1.03125
 10
95.92387235153066
 20
160.0093867429353
 30
0.0
 10
96.58496297708326
 20
160.0093867429352
 30
0.0
 10
96.9099431063349
 20
160.0024885971084
 30
0.0
 10
97.38941651758134
 20
159.9819621691279
 30
0.0
 10
97.54789833542213
 20
159.9734059420404
 30
0.0
 10
97.86211786792643
 20
159.9526795668227
 30
0.0
 10
98.01823815160682
 20
159.9404522666164
 30
0.0
 10
98.47229218056339
 20
159.8988829727871
 30
0.0
 10
98.75939556350322
 20
159.8645386876893
 30
0.0
 10
99.30275011953024
 20
159.7812145633671
 30
0.0
 10
99.55985373073581
 20
159.7317763405925
 30
0.0
 10
100.0207599856746
 20
159.6203966108326
 30
0.0
 10
100.2276576948896
 20
159.5581020973205
 30
0.0
 10
100.5931830088818
 20
159.4181724544495
 30
0.0
 10
100.7483885310077
 20
159.3415565567005
 30
0.0
 10
100.9978189176074
 20
159.1775979368447
 30
0.0
 10
101.0939088733926
 20
159.089041082749
 30
0.0
 10
101.2224277225862
 20
158.9015604006432
 30
0.0
 10
101.254238592764
 20
158.8043239391888
 30
0.0
 10
101.2545952425372
 20
158.6026912998617
 30
0.0
 10
101.2220979903402
 20
158.4971425080236
 30
0.0
 10
101.0944725166257
 20
158.2870277253351
 30
0.0
 10
101.0000441155738
 20
158.1819622173661
 30
0.0
 10
100.8121832955882
 20
158.0250845101151
 30
0.0
 10
100.741355296785
 20
157.9726507764094
 30
0.0
 10
100.5866334048198
 20
157.8702123307796
 30
0.0
 10
100.5026569346364
 20
157.8200646021278
 30
0.0
 10
100.2313332649919
 20
157.6730486456943
 30
0.0
 10
100.0247840463896
 20
157.5795608252598
 30
0.0
 10
99.55817390620058
 20
157.4037739676455
 30
0.0
 10
99.30580833657515
 20
157.3243954925618
 30
0.0
 10
98.89990699489641
 20
157.2189130550677
 30
0.0
 10
98.76000637741893
 20
157.1860274902276
 30
0.0
 10
98.470782442172
 20
157.1251120109989
 30
0.0
 10
98.32094298588274
 20
157.0970314393564
 30
0.0
 10
97.86682641627193
 20
157.0222293973137
 30
0.0
 10
97.55517519753509
 20
156.9841913390675
 30
0.0
 10
96.91417873262273
 20
156.9325794125434
 30
0.0
 10
96.58265110467055
 20
156.9192654790219
 30
0.0
 10
95.92986005959905
 20
156.9191683926939
 30
0.0
 10
95.60532385456725
 20
156.931956477855
 30
0.0
 10
94.96005440515083
 20
156.9834466674509
 30
0.0
 10
94.64431139898811
 20
157.021971246771
 30
0.0
 10
94.04242210400442
 20
157.120873809629
 30
0.0
 10
93.75167287319294
 20
157.181977907554
 30
0.0
 10
93.20476108150844
 20
157.3237873406647
 30
0.0
 10
92.95298371767154
 20
157.4031218252439
 30
0.0
 10
92.4915957250504
 20
157.5765005699054
 30
0.0
 10
92.2803264454523
 20
157.6716605146594
 30
0.0
 10
91.91702209307611
 20
157.8682330380353
 30
0.0
 10
91.76321544463333
 20
157.9699892664417
 30
0.0
 10
91.57459597503592
 20
158.1267752292271
 30
0.0
 10
91.51856548882681
 20
158.1800292629772
 30
0.0
 10
91.42299172709065
 20
158.2858338245299
 30
0.0
 10
91.38322881006565
 20
158.3384868888855
 30
0.0
 10
91.2874570597535
 20
158.4955606083446
 30
0.0
 10
91.25473422062741
 20
158.5990856436717
 30
0.0
 10
91.25410563429831
 20
158.8033003778989
 30
0.0
 10
91.28629177903308
 20
158.9008042154836
 30
0.0
 10
91.38120248088867
 20
159.0401312658353
 30
0.0
 10
91.42066926428762
 20
159.0854479973398
 30
0.0
 10
91.51559926300851
 20
159.1738878183286
 30
0.0
 10
91.57135609077189
 20
159.2171420687885
 30
0.0
 10
91.75929620874176
 20
159.3410335433785
 30
0.0
 10
91.91265767845795
 20
159.4167358341525
 30
0.0
 10
92.2749219133383
 20
159.5559902056108
 30
0.0
 10
92.4857703868042
 20
159.6197520471395
 30
0.0
 10
92.94644035712312
 20
159.7312488866073
 30
0.0
 10
93.19781473670695
 20
159.779774958924
 30
0.0
 10
93.74372262360508
 20
159.8638289423045
 30
0.0
 10
94.03454519825631
 20
159.8986274959711
 30
0.0
 10
94.63587181303635
 20
159.9538239607349
 30
0.0
 10
94.95039039764873
 20
159.9746418094888
 30
0.0
 10
95.59697185376866
 20
160.0024891423996
 30
0.0
 10
95.92387235153066
 20
160.0093867429353
 30
0.0
 10
96.58496297708326
 20
160.0093867429352
 30
0.0
  0
LINE
  5
CB
330
1F
100
AcDbEntity
  8
0
  6
HIDDEN
 62
     7
370
     0
100
AcDbLine
 10
103.9923886434
 20
150.1008002473
 30
0.0
 11
103.9923886434
 21
142.4998374865
 31
0.0
  0
SPLINE
  5
CC
330
1F
100
AcDbEntity
  8
0
  6
HIDDEN
 62
     7
370
     0
100
AcDbSpline
210
0.0
220
0.0
230
1.0
 70
     8
 71
     3
 72
     9
 73
     5
 74
     0
 42
0.00000001
 43
0.00000001
 40
0.0
 40
0.0
 40
0.0
 40
0.0
 40
0.5038163044167481
 40
1.0
 40
1.0
 40
1.0
 40
1.0
 10
67.66784241373432
 20
74.41403112418314
 30
0.0
 10
67.38416322899582
 20
74.38987795008443
 30
0.0
 10
66.8211024819505
 20
74.34193751249437
 30
0.0
 10
66.46474144014128
 20
74.30062516420853
 30
0.0
 10
66.28792090145448
 20
74.28012665056283
 30
0.0
  0
SPLINE
  5
CD
330
1F
100
AcDbEntity
  8
0
  6
HIDDEN
 62
     7
370
     0
100
AcDbSpline
210
0.0
220
0.0
230
1.0
 70
     8
 71
     3
 72
    12
 73
     8
 74
     0
 42
0.00000001
 43
0.00000001
 40
0.0
 40
0.0
 40
0.0
 40
0.0
 40
0.1661348616735903
 40
0.3322013257393936
 40
0.5008932044678248
 40
0.752137078264078
 40
1.0
 40
1.0
 40
1.0
 40
1.0
 10
65.7737393299542
 20
148.0811415095228
 30
0.0
 10
65.78413195406226
 20
148.0797633854613
 30
0.0
 10
65.8049129236422
 20
148.0770077047112
 30
0.0
 10
65.97821241308912
 20
148.0554043297492
 30
0.0
 10
66.30016400233285
 20
148.0175393778074
 30
0.0
 10
66.82132983825217
 20
147.9571556110912
 30
0.0
 10
67.3868877780899
 20
147.9093624739418
 30
0.0
 10
67.66775120177795
 20
147.8856277808484
 30
0.0
  0
SPLINE
  5
CE
330
1F
100
AcDbEntity
  8
0
  6
HIDDEN
 62
     7
370
     0
100
AcDbSpline
210
0.0
220
0.0
230
1.0
 70
     8
 71
     3
 72
    33
 73
    29
 74
     0
 42
0.00000001
 43
0.00000001
 40
0.0
 40
0.0
 40
0.0
 40
0.0
 40
0.0315773698875104
 40
0.0633753287769057
 40
0.0958656851178231
 40
0.1285943208117605
 40
0.1601713694082662
 40
0.2244011681247345
 40
0.2571344568799636
 40
0.2885965627565487
 40
0.3526214070085076
 40
0.3852675959519929
 40
0.4162212184009612
 40
0.4791910353915302
 40
0.5112817741273479
 40
0.5421256322990662
 40
0.6048360558905652
 40
0.6367710793564881
 40
0.6680663384719832
 40
0.7316979547407203
 40
0.7641081282919966
 40
0.7957194290717577
 40
0.8275524266255816
 40
0.8600900250720824
 40
0.8928737620729298
 40
0.9241775068323748
 40
0.9878778414776339
 40
1.0
 40
1.0
 40
1.0
 40
1.0
 10
77.50762331949801
 20
79.78351526571021
 30
0.0
 10
77.42375217249275
 20
79.79738900409193
 30
0.0
 10
77.25542398254882
 20
79.82523339817668
 30
0.0
 10
76.95606938620732
 20
79.87166603840708
 30
0.0
 10
76.62206991894847
 20
79.92027864042791
 30
0.0
 10
76.25629995706119
 20
79.96942657361515
 30
0.0
 10
75.73292004237233
 20
80.03349235920778
 30
0.0
 10
75.15649283377773
 20
80.09327387361292
 30
0.0
 10
74.54135568692618
 20
80.14327348107697
 30
0.0
 10
73.90503996084327
 20
80.18541347376038
 30
0.0
 10
73.24125942340457
 20
80.2140481984984
 30
0.0
 10
72.56919367182145
 20
80.22630764958201
 30
0.0
 10
71.89974508838971
 20
80.22763694069029
 30
0.0
 10
71.23456052127577
 20
80.21277641778083
 30
0.0
 10
70.58826928238527
 20
80.18291845339166
 30
0.0
 10
69.9590793315269
 20
80.14417522533037
 30
0.0
 10
69.35936363934762
 20
80.09359699157051
 30
0.0
 10
68.8010640732258
 20
80.03519697710398
 30
0.0
 10
68.27086920283824
 20
79.97287374573446
 30
0.0
 10
67.79170250052665
 20
79.9074651711989
 30
0.0
 10
67.3767845153318
 20
79.84467626759293
 30
0.0
 10
67.09951213140576
 20
79.80017166877154
 30
0.0
 10
66.85795684584458
 20
79.75946271933658
 30
0.0
 10
66.65246484149617
 20
79.7234055886871
 30
0.0
 10
66.48830041775193
 20
79.69364856373473
 30
0.0
 10
66.32886647118664
 20
79.66406325031032
 30
0.0
 10
66.25062824323803
 20
79.64911397130547
 30
0.0
 10
66.25835303358285
 20
79.65058639390668
 30
0.0
 10
66.2595880382523
 20
79.65082179819686
 30
0.0
  0
SPLINE
  5
CF
330
1F
100
AcDbEntity
  8
0
  6
HIDDEN
 62
     7
370
     0
100
AcDbSpline
210
0.0
220
0.0
230
1.0
 70
     8
 71
     3
 72
    32
 73
    28
 74
     0
 42
0.00000001
 43
0.00000001
 40
0.0
 40
0.0
 40
0.0
 40
0.0
 40
0.020356822172105
 40
0.0512207857583794
 40
0.1139954454389432
 40
0.1459779869097674
 40
0.1769364677636727
 40
0.2398766914470389
 40
0.2719275468465721
 40
0.3033698011481659
 40
0.3673099924152954
 40
0.3998847012176188
 40
0.4314690120325909
 40
0.4957360700021212
 40
0.5285028301030422
 40
0.5596434488300034
 40
0.6230067766607702
 40
0.6553079823205556
 40
0.6861132872619372
 40
0.748756262689177
 40
0.7806634244345373
 40
0.8117607067089887
 40
0.8749825776111492
 40
0.9071778073885584
 40
0.9301738434827028
 40
0.9765719131095674
 40
1.0
 40
1.0
 40
1.0
 40
1.0
 10
66.2595880382523
 20
142.6488531747177
 30
0.0
 10
66.25923098634605
 20
142.6489206536446
 30
0.0
 10
66.25833259075955
 20
142.6490904406392
 30
0.0
 10
66.32092633731219
 20
142.6371961994519
 30
0.0
 10
66.4627375187757
 20
142.6105493225323
 30
0.0
 10
66.68678211065121
 20
142.5701672511196
 30
0.0
 10
66.96132422648543
 20
142.5222980093692
 30
0.0
 10
67.31001551549298
 20
142.4648281240894
 30
0.0
 10
67.72629147787039
 20
142.4023335770349
 30
0.0
 10
68.18788552473318
 20
142.3378078953956
 30
0.0
 10
68.71142347382833
 20
142.2732275184123
 30
0.0
 10
69.28362094828309
 20
142.2144721535275
 30
0.0
 10
69.88582731873505
 20
142.1610992971453
 30
0.0
 10
70.52705382551653
 20
142.1182367353131
 30
0.0
 10
71.18813914351269
 20
142.090172689292
 30
0.0
 10
71.85485009795924
 20
142.0725840317523
 30
0.0
 10
72.52873931856618
 20
142.0711373835116
 30
0.0
 10
73.19308880251397
 20
142.0860629226494
 30
0.0
 10
73.84462307667361
 20
142.1110696478731
 30
0.0
 10
74.47528228932961
 20
142.150173690555
 30
0.0
 10
75.07282126515209
 20
142.2002748483387
 30
0.0
 10
75.64681923310684
 20
142.2564460148218
 30
0.0
 10
76.17776894650015
 20
142.3193600435106
 30
0.0
 10
76.62114982776424
 20
142.3794635455642
 30
0.0
 10
76.97267047533788
 20
142.4303532625495
 30
0.0
 10
77.26233798531473
 20
142.4754757390874
 30
0.0
 10
77.44600074971243
 20
142.5059387509748
 30
0.0
 10
77.50762331949801
 20
142.5161597072043
 30
0.0
  0
SPLINE
  5
D0
330
1F
100
AcDbEntity
  8
0
  6
HIDDEN
 62
     7
370
     0
100
AcDbSpline
210
0.0
220
0.0
230
1.0
 70
     8
 71
     3
 72
    13
 73
     9
 74
     0
 42
0.00000001
 43
0.00000001
 40
0.0
 40
0.0
 40
0.0
 40
0.0
 40
0.1623799816591789
 40
0.3258962967501759
 40
0.4929818113643412
 40
0.6612959817031199
 40
0.8237063551432365
 40
1.0
 40
1.0
 40
1.0
 40
1.0
 10
77.50762331949801
 20
142.5161597072043
 30
0.0
 10
77.58321282845536
 20
142.5285354794612
 30
0.0
 10
77.73492082097178
 20
142.5533736295013
 30
0.0
 10
77.91781972081665
 20
142.580631977425
 30
0.0
 10
78.06688197025908
 20
142.6017518250734
 30
0.0
 10
78.1708325107023
 20
142.6157382528088
 30
0.0
 10
78.24616445581965
 20
142.6255312262495
 30
0.0
 10
78.23793465715255
 20
142.6244598892262
 30
0.0
 10
78.23365109060155
 20
142.6239022639884
 30
0.0
  0
SPLINE
  5
D1
330
1F
100
AcDbEntity
  8
0
  6
HIDDEN
 62
     7
370
     0
100
AcDbSpline
210
0.0
220
0.0
230
1.0
 70
     8
 71
     3
 72
    13
 73
     9
 74
     0
 42
0.00000001
 43
0.00000001
 40
0.0
 40
0.0
 40
0.0
 40
0.0
 40
0.1540223516861439
 40
0.3222978879394844
 40
0.4885662367489577
 40
0.6560437831874955
 40
0.8273549263198314
 40
1.0
 40
1.0
 40
1.0
 40
1.0
 10
78.23365073932581
 20
79.67577275436798
 30
0.0
 10
78.23883641029524
 20
79.67510092493134
 30
0.0
 10
78.24968763274896
 20
79.67369509515326
 30
0.0
 10
78.18034619444015
 20
79.68268198802485
 30
0.0
 10
78.08022873022718
 20
79.69609610416059
 30
0.0
 10
77.93370096219714
 20
79.71673665252771
 30
0.0
 10
77.74748706430185
 20
79.74430211344216
 30
0.0
 10
77.58778435404628
 20
79.7704104638308
 30
0.0
 10
77.50762331949801
 20
79.7835152657102
 30
0.0
  0
LINE
  5
D2
330
1F
100
AcDbEntity
  8
0
  6
HIDDEN
 62
     7
370
     0
100
AcDbLine
 10
57.2510419913
 20
84.6498374865
 30
0.0
 11
57.2510419913
 21
137.6498374865
 31
0.0
  0
LINE
  5
D3
330
1F
100
AcDbEntity
  8
0
  6
HIDDEN
 62
     7
370
     0
100
AcDbLine
 10
96.5384952827
 20
84.6498374865
 30
0.0
 11
96.5384952827
 21
137.6498374865
 31
0.0
  0
LINE
  5
D4
330
1F
100
AcDbEntity
  8
0
  6
HIDDEN
 62
     7
370
     0
100
AcDbLine
 10
99.7044176643
 20
86.2748374865
 30
0.0
 11
99.7044176643
 21
136.0248374865
 31
0.0
  0
SPLINE
  5
D5
330
1F
100
AcDbEntity
  8
0
  6
HIDDEN
 62
     7
370
     0
100
AcDbSpline
210
0.0
220
0.0
230
1.0
 70
     8
 71
     3
 72
    20
 73
    16
 74
     0
 42
0.00000001
 43
0.00000001
 40
0.0
 40
0.0
 40
0.0
 40
0.0
 40
0.2499999999999963
 40
0.2499999999999963
 40
0.3749999999999969
 40
0.3749999999999969
 40
0.4999999999999976
 40
0.4999999999999976
 40
0.6249999999999981
 40
0.6249999999999981
 40
0.7499999999999988
 40
0.7499999999999988
 40
0.8749999999999993
 40
0.8749999999999993
 40
1.0
 40
1.0
 40
1.0
 40
1.0
 10
47.45441766430697
 20
136.3783511168716
 30
0.0
 10
47.45441766430697
 20
136.2991481303393
 30
0.0
 10
47.40743516909424
 20
136.2180519119364
 30
0.0
 10
47.26961357831667
 20
136.0978552201854
 30
0.0
 10
47.21333129440668
 20
136.0589285161833
 30
0.0
 10
47.08024644293947
 20
135.983739783759
 30
0.0
 10
47.00240650070641
 20
135.947097578417
 30
0.0
 10
46.82977414459205
 20
135.8795070455852
 30
0.0
 10
46.73538114750097
 20
135.8485488638096
 30
0.0
 10
46.52994384118583
 20
135.7930244424398
 30
0.0
 10
46.41759760119865
 20
135.7683159286066
 30
0.0
 10
46.18535673729901
 20
135.7285197014984
 30
0.0
 10
46.06464609487629
 20
135.7130998641014
 30
0.0
 10
45.81357523560725
 20
135.6920198892618
 30
0.0
 10
45.68405323919148
 20
135.6865426442408
 30
0.0
 10
45.55441766430698
 20
135.6865426442408
 30
0.0
  0
LINE
  5
D6
330
1F
100
AcDbEntity
  8
0
  6
HIDDEN
 62
     7
370
     0
100
AcDbLine
 10
45.5544176643
 20
135.6865426442
 30
0.0
 11
39.0044176643
 21
135.6865426442
 31
0.0
  0
LINE
  5
D7
330
1F
100
AcDbEntity
  8
0
  6
HIDDEN
 62
     7
370
     0
100
AcDbLine
 10
39.0044176643
 20
86.6131323287
 30
0.0
 11
50.5544176643
 21
86.6131323287
 31
0.0
  0
SPLINE
  5
D8
330
1F
100
AcDbEntity
  8
0
  6
HIDDEN
 62
     7
370
     0
100
AcDbSpline
210
0.0
220
0.0
230
1.0
 70
     8
 71
     3
 72
    18
 73
    14
 74
     0
 42
0.00000001
 43
0.00000001
 40
0.0
 40
0.0
 40
0.0
 40
0.0
 40
0.1249999999999979
 40
0.1249999999999979
 40
0.2499999999999958
 40
0.2499999999999958
 40
0.4999999999999977
 40
0.4999999999999977
 40
0.7499999999999994
 40
0.7499999999999994
 40
0.8749999999999998
 40
0.8749999999999998
 40
1.0
 40
1.0
 40
1.0
 40
1.0
 10
50.55441766430696
 20
86.61313232867376
 30
0.0
 10
50.6838849772642
 20
86.61313232867377
 30
0.0
 10
50.81089572616082
 20
86.60777933008112
 30
0.0
 10
51.06025904735806
 20
86.58704135739231
 30
0.0
 10
51.18388270198651
 20
86.57136945313802
 30
0.0
 10
51.53291503892055
 20
86.51167472473594
 30
0.0
 10
51.74342680372735
 20
86.45390954505496
 30
0.0
 10
52.08734348142685
 20
86.31938770377747
 30
0.0
 10
52.22369388294467
 20
86.24171859027206
 30
0.0
 10
52.3607319395072
 20
86.12242745618471
 30
0.0
 10
52.39595095822008
 20
86.08150844704966
 30
0.0
 10
52.44257453515866
 20
86.00085245375963
 30
0.0
 10
52.45441766430697
 20
85.96088393356676
 30
0.0
 10
52.45441766430697
 20
85.92132385604296
 30
0.0
  0
LINE
  5
D9
330
1F
100
AcDbEntity
  8
0
  6
HIDDEN
 62
     7
370
     0
100
AcDbLine
 10
39.0044176643
 20
86.6131323287
 30
0.0
 11
39.0044176643
 21
135.6865426442
 31
0.0
  0
LWPOLYLINE
  5
DA
330
1F
100
AcDbEntity
  8
0
  6
HIDDEN
 62
     7
370
     0
100
AcDbPolyline
 90
       13
 70
   128
 43
0.0
 10
96.2544176643
 20
151.0935680498
 10
97.407497018
 20
151.148386244
 10
98.4984135653
 20
151.3098855638
 10
99.4683557127
 20
151.5693595389
 10
100.2650336281
 20
151.9128198603
 10
100.8454981987
 20
152.321750493
 10
101.1784564294
 20
152.7741058808
 10
101.2459584557
 20
153.2454994278
 10
101.0443652259
 20
153.7105181856
 10
100.5845446832
 20
154.1440928728
 10
99.8912858722
 20
154.5228493658
 10
99.0019625547
 20
154.8263688039
 10
98.7004361327
 20
154.9009678658
  0
LWPOLYLINE
  5
DB
330
1F
100
AcDbEntity
  8
0
  6
HIDDEN
 62
     7
370
     0
100
AcDbPolyline
 90
       13
 70
   128
 43
0.0
 10
93.795906158
 20
154.8981081157
 10
93.506872774
 20
154.8263688039
 10
92.6175494564
 20
154.5228493658
 10
91.9242906454
 20
154.1440928728
 10
91.4644701027
 20
153.7105181856
 10
91.262876873
 20
153.2454994278
 10
91.3303788992
 20
152.7741058808
 10
91.6633371299
 20
152.321750493
 10
92.2438017005
 20
151.9128198603
 10
93.0404796159
 20
151.5693595389
 10
94.0104217633
 20
151.3098855638
 10
95.1013383106
 20
151.148386244
 10
96.2544176643
 20
151.0935680498
  0
LINE
  5
DC
330
1F
100
AcDbEntity
  8
0
  6
HIDDEN
 62
     7
370
     0
100
AcDbLine
 10
39.0044176643
 20
83.7798374865
 30
0.0
 11
39.0044176643
 21
78.9015522846
 31
0.0
  0
LINE
  5
DD
330
1F
100
AcDbEntity
  8
0
  6
HIDDEN
 62
     7
370
     0
100
AcDbLine
 10
52.4544176643
 20
83.7798374865
 30
0.0
 11
52.4544176643
 21
77.2805042211
 31
0.0
  0
LINE
  5
DE
330
1F
100
AcDbEntity
  8
0
  6
HIDDEN
 62
     7
370
     0
100
AcDbLine
 10
47.4544176643
 20
138.5198374865
 30
0.0
 11
47.4544176643
 21
144.8944462234
 31
0.0
  0
LINE
  5
DF
330
1F
100
AcDbEntity
  8
0
  6
HIDDEN
 62
     7
370
     0
100
AcDbLine
 10
39.0044176643
 20
138.5198374865
 30
0.0
 11
39.0044176643
 21
143.3981226883
 31
0.0
  0
LINE
  5
E0
330
1F
100
AcDbEntity
  8
0
  6
HIDDEN
 62
     7
370
     0
100
AcDbLine
 10
111.5544176643
 20
98.1498374865
 30
0.0
 11
111.5544176643
 21
124.1498374865
 31
0.0
  0
LINE
  5
E1
330
1F
100
AcDbEntity
  8
0
  6
HIDDEN
 62
     7
370
     0
100
AcDbLine
 10
115.5544176643
 20
98.1498374865
 30
0.0
 11
115.5544176643
 21
124.1498374865
 31
0.0
  0
LINE
  5
E2
330
1F
100
AcDbEntity
  8
0
  6
HIDDEN
 62
     7
370
     0
100
AcDbLine
 10
100.4544176643
 20
99.8998374865
 30
0.0
 11
100.4544176643
 21
122.3998374865
 31
0.0
  0
ELLIPSE
  5
E3
330
1F
100
AcDbEntity
  8
0
  6
HIDDEN
 62
     7
370
     0
100
AcDbEllipse
 10
31.069744464
 20
111.1498374865
 30
0.0
 11
31.08108570811669
 21
1.421085471520200E-14
 31
0.0
210
0.0
220
0.0
230
1.0
 40
0.8164965809
 41
1.312649268214807
 42
1.367189972061492
  0
ELLIPSE
  5
E4
330
1F
100
AcDbEntity
  8
0
  6
HIDDEN
 62
     7
370
     0
100
AcDbEllipse
 10
31.069744464
 20
111.1498374865
 30
0.0
 11
31.08108570811669
 21
-1.421085471520200E-14
 31
0.0
210
0.0
220
0.0
230
1.0
 40
0.8164965809
 41
4.915995335118105
 42
4.970536038964791
  0
LINE
  5
E5
330
1F
100
AcDbEntity
  8
0
  6
HIDDEN
 62
     7
370
     0
100
AcDbLine
 10
116.2044176643
 20
67.2498374865
 30
0.0
 11
102.2044176643
 21
67.2498374865
 31
0.0
  0
LINE
  5
E6
330
1F
100
AcDbEntity
  8
0
  6
HIDDEN
 62
     7
370
     0
100
AcDbLine
 10
92.2044176643
 20
61.1598384867
 30
0.0
 11
92.2044176643
 21
67.2498374865
 31
0.0
  0
LINE
  5
E7
330
1F
100
AcDbEntity
  8
0
  6
HIDDEN
 62
     7
370
     0
100
AcDbLine
 10
102.2044176643
 20
67.2498374865
 30
0.0
 11
92.2044176643
 21
67.2498374865
 31
0.0
  0
LINE
  5
E8
330
1F
100
AcDbEntity
  8
0
  6
HIDDEN
 62
     7
370
     0
100
AcDbLine
 10
52.4544176643
 20
83.7798374865
 30
0.0
 11
52.4544176643
 21
85.921323856
 31
0.0
  0
LINE
  5
E9
330
1F
100
AcDbEntity
  8
0
  6
HIDDEN
 62
     7
370
     0
100
AcDbLine
 10
39.0044176643
 20
83.7798374865
 30
0.0
 11
39.0044176643
 21
86.6131323287
 31
0.0
  0
LINE
  5
EA
330
1F
100
AcDbEntity
  8
0
  6
HIDDEN
 62
     7
370
     0
100
AcDbLine
 10
47.4544176643
 20
138.5198374865
 30
0.0
 11
47.4544176643
 21
136.3783511169
 31
0.0
  0
LINE
  5
EB
330
1F
100
AcDbEntity
  8
0
  6
HIDDEN
 62
     7
370
     0
100
AcDbLine
 10
39.0044176643
 20
138.5198374865
 30
0.0
 11
39.0044176643
 21
135.6865426442
 31
0.0
  0
LINE
  5
EC
330
1F
100
AcDbEntity
  8
0
  6
HIDDEN
 62
     7
370
     0
100
AcDbLine
 10
102.2044176643
 20
155.0498374865
 30
0.0
 11
92.2044176643
 21
155.0498374865
 31
0.0
  0
LINE
  5
ED
330
1F
100
AcDbEntity
  8
0
  6
HIDDEN
 62
     7
370
     0
100
AcDbLine
 10
116.2044176643
 20
155.0498374865
 30
0.0
 11
102.2044176643
 21
155.0498374865
 31
0.0
  0
LINE
  5
EE
330
1F
100
AcDbEntity
  8
0
  6
HIDDEN
 62
     7
370
     0
100
AcDbLine
 10
243.7544176643
 20
102.1498374865
 30
0.0
 11
243.7544176643
 21
120.1498374865
 31
0.0
  0
LINE
  5
EF
330
1F
100
AcDbEntity
  8
0
  6
HIDDEN
 62
     7
370
     0
100
AcDbLine
 10
197.7544176643
 20
102.2498374865
 30
0.0
 11
197.7544176643
 21
120.0498371564
 31
0.0
  0
SPLINE
  5
F0
330
1F
100
AcDbEntity
  8
0
  6
HIDDEN
 62
     7
370
     0
100
AcDbSpline
210
0.0
220
0.0
230
1.0
 70
     8
 71
     3
 72
    23
 73
    19
 74
     0
 42
0.00000001
 43
0.00000001
 40
0.0
 40
0.0
 40
0.0
 40
0.0
 40
0.0522829417081072
 40
0.1049327902071003
 40
0.1587369660447998
 40
0.212938306997432
 40
0.26522046547845
 40
0.3715380198005856
 40
0.4256935205333029
 40
0.4784036824697717
 40
0.5855940487357149
 40
0.6402014146239847
 40
0.6931812674221319
 40
0.7465328693562449
 40
0.8010640323607549
 40
0.8560061005691798
 40
0.908521613167751
 40
1.0
 40
1.0
 40
1.0
 40
1.0
 10
199.754417664307
 20
120.3280726109243
 30
0.0
 10
199.7955348762672
 20
120.3282326033739
 30
0.0
 10
199.8780578490679
 20
120.3285537110545
 30
0.0
 10
200.0020262702825
 20
120.3311537338234
 30
0.0
 10
200.1257112620583
 20
120.3352975096991
 30
0.0
 10
200.2464232867283
 20
120.340997807612
 30
0.0
 10
200.4019449358038
 20
120.3503301510897
 30
0.0
 10
200.5491668493303
 20
120.3619612192368
 30
0.0
 10
200.6846754880858
 20
120.3749216936636
 30
0.0
 10
200.8120033329983
 20
120.3884447874457
 30
0.0
 10
200.9253879595916
 20
120.4022312411279
 30
0.0
 10
201.0216942639047
 20
120.4150676270133
 30
0.0
 10
201.0849307326781
 20
120.4239502216823
 30
0.0
 10
201.1387960642074
 20
120.4318474599854
 30
0.0
 10
201.1834688531203
 20
120.4386312008319
 30
0.0
 10
201.2171244424553
 20
120.4438803245902
 30
0.0
 10
201.2473406346035
 20
120.4486889988502
 30
0.0
 10
201.250072813672
 20
120.449135090481
 30
0.0
 10
201.2518085492462
 20
120.4494184895897
 30
0.0
  0
LINE
  5
F1
330
1F
100
AcDbEntity
  8
0
  6
HIDDEN
 62
     7
370
     0
100
AcDbLine
 10
199.7938536207
 20
120.3283372943
 30
0.0
 11
199.5641967138
 21
120.3301378198
 31
0.0
  0
SPLINE
  5
F2
330
1F
100
AcDbEntity
  8
0
  6
HIDDEN
 62
     7
370
     0
100
AcDbSpline
210
0.0
220
0.0
230
1.0
 70
     8
 71
     3
 72
    22
 73
    18
 74
     0
 42
0.00000001
 43
0.00000001
 40
0.0
 40
0.0
 40
0.0
 40
0.0
 40
0.0460148675521923
 40
0.1521002441435816
 40
0.2061569604607348
 40
0.2582804518632511
 40
0.3642660572201158
 40
0.418247110411711
 40
0.4709324903197069
 40
0.5780707832775962
 40
0.6326502598323707
 40
0.685637031420594
 40
0.7389952700317574
 40
0.7935321737463682
 40
0.8484797419338078
 40
0.9236878998243215
 40
1.0
 40
1.0
 40
1.0
 40
1.0
 10
198.2549415172033
 20
120.4497530893541
 30
0.0
 10
198.2555333319506
 20
120.4496577096115
 30
0.0
 10
198.2574895511538
 20
120.4493424358116
 30
0.0
 10
198.2842521476227
 20
120.4450334729315
 30
0.0
 10
198.3304323026504
 20
120.4378522614682
 30
0.0
 10
198.3900227776613
 20
120.4288381948246
 30
0.0
 10
198.4686421098759
 20
120.4175004164341
 30
0.0
 10
198.5649252587368
 20
120.4047262481089
 30
0.0
 10
198.6727707729939
 20
120.391299013457
 30
0.0
 10
198.7967431652263
 20
120.3774748155092
 30
0.0
 10
198.9338507336561
 20
120.3644784875445
 30
0.0
 10
199.0425000995454
 20
120.355422030504
 30
0.0
 10
199.1561667132509
 20
120.347305755568
 30
0.0
 10
199.2756150096
 20
120.3402754131283
 30
0.0
 10
199.4151340452443
 20
120.3339646252097
 30
0.0
 10
199.5751895565431
 20
120.3290900551514
 30
0.0
 10
199.6943854835424
 20
120.3284134023131
 30
0.0
 10
199.754417664307
 20
120.3280726109243
 30
0.0
  0
SPLINE
  5
F3
330
1F
100
AcDbEntity
  8
0
  6
HIDDEN
 62
     7
370
     0
100
AcDbSpline
210
0.0
220
0.0
230
1.0
 70
     8
 71
     3
 72
    26
 73
    22
 74
     0
 42
0.00000001
 43
0.00000001
 40
0.0
 40
0.0
 40
0.0
 40
0.0
 40
0.0524570954627009
 40
0.1064474027299412
 40
0.1589011412007675
 40
0.2128533973697887
 40
0.2657246152652235
 40
0.3201108869408749
 40
0.3732641153094279
 40
0.4279842021114396
 40
0.4806728790408916
 40
0.5349194888436082
 40
0.5871203781963061
 40
0.640822955592419
 40
0.6932731670089014
 40
0.747210298526881
 40
0.8002553927445205
 40
0.8548352252683857
 40
0.9079001265484417
 40
0.9625372372977373
 40
1.0
 40
1.0
 40
1.0
 40
1.0
 10
201.254417664307
 20
101.8498374864573
 30
0.0
 10
201.2504683850178
 20
101.8504786366531
 30
0.0
 10
201.2424543972191
 20
101.8517796765315
 30
0.0
 10
201.1780255122124
 20
101.8619733914286
 30
0.0
 10
201.076229663804
 20
101.8771585530434
 30
0.0
 10
200.9377146358341
 20
101.8960714639653
 30
0.0
 10
200.7645417383205
 20
101.9168097353053
 30
0.0
 10
200.5636263023163
 20
101.9368254686952
 30
0.0
 10
200.3371847900351
 20
101.9541180908306
 30
0.0
 10
200.0961569103833
 20
101.9663578794311
 30
0.0
 10
199.8436448899016
 20
101.9723320786916
 30
0.0
 10
199.592372084702
 20
101.9713142792893
 30
0.0
 10
199.3443226412708
 20
101.963501271175
 30
0.0
 10
199.110497595487
 20
101.9499691184095
 30
0.0
 10
198.892408261406
 20
101.9319751333032
 30
0.0
 10
198.6991782924685
 20
101.9117150256209
 30
0.0
 10
198.5333571111491
 20
101.8911285490613
 30
0.0
 10
198.4024115770975
 20
101.8727706224279
 30
0.0
 10
198.3103196978252
 20
101.8587836458266
 30
0.0
 10
198.2598568317338
 20
101.8507180682107
 30
0.0
 10
198.2589581920184
 20
101.8505695516779
 30
0.0
 10
198.258592659199
 20
101.8505091407412
 30
0.0
  0
LINE
  5
F4
330
1F
100
AcDbEntity
  8
0
  6
HIDDEN
 62
     7
370
     0
100
AcDbLine
 10
208.2544176643
 20
102.1498374865
 30
0.0
 11
208.2544176643
 21
120.1498374865
 31
0.0
  0
SPLINE
  5
F5
330
1F
100
AcDbEntity
  8
0
  6
HIDDEN
 62
     7
370
     0
100
AcDbSpline
210
0.0
220
0.0
230
1.0
 70
     8
 71
     3
 72
    30
 73
    26
 74
     0
 42
0.00000001
 43
0.00000001
 40
0.0
 40
0.0
 40
0.0
 40
0.0
 40
0.0531668058201402
 40
0.1125460448581936
 40
0.1779415820675611
 40
0.2129647235110038
 40
0.2495168671261858
 40
0.2912815898244916
 40
0.3261230015431953
 40
0.354037390001696
 40
0.3750221080319175
 40
0.4414779845000282
 40
0.5001940042390156
 40
0.5547072404188675
 40
0.6144498352371234
 40
0.6794734232755085
 40
0.7140294936864189
 40
0.749925502478629
 40
0.7913888933624464
 40
0.8260548988053471
 40
0.853919735095508
 40
0.8749805502089496
 40
0.9411652362924504
 40
0.9999141591659431
 40
1.0
 40
1.0
 40
1.0
 40
1.0
 10
78.25399451758959
 20
74.04990049706753
 30
0.0
 10
78.2377929859858
 20
74.05480264964822
 30
0.0
 10
78.20349680673407
 20
74.06517976137683
 30
0.0
 10
77.90215019225529
 20
74.14084102895904
 30
0.0
 10
77.4599779236022
 20
74.23712816226227
 30
0.0
 10
76.96514575273645
 20
74.33679287193074
 30
0.0
 10
76.49466995232443
 20
74.42907104481209
 30
0.0
 10
75.96374856652388
 20
74.52470306968051
 30
0.0
 10
75.42559805539868
 20
74.61035331456364
 30
0.0
 10
74.96755072291138
 20
74.6776451072189
 30
0.0
 10
74.31198640153089
 20
74.76599327627228
 30
0.0
 10
73.42867996396009
 20
74.86265136044473
 30
0.0
 10
72.30001823109302
 20
74.94942653722846
 30
0.0
 10
71.21025648119867
 20
74.98750523496494
 30
0.0
 10
70.11422820271471
 20
74.98935566973638
 30
0.0
 10
69.20883695580969
 20
74.96319421414559
 30
0.0
 10
68.51253424546807
 20
74.92658698900517
 30
0.0
 10
67.98585451767131
 20
74.88757011354433
 30
0.0
 10
67.51920840310066
 20
74.84536098610414
 30
0.0
 10
67.14799312752334
 20
74.80835689656205
 30
0.0
 10
66.89394664984657
 20
74.77965613609285
 30
0.0
 10
66.59289149679297
 20
74.74327618547515
 30
0.0
 10
66.33740770177809
 20
74.71049601845527
 30
0.0
 10
66.23818697680497
 20
74.69415813374965
 30
0.0
 10
66.25446753408757
 20
74.69675171991739
 30
0.0
 10
66.25449128767349
 20
74.69675550399987
 30
0.0
  0
SPLINE
  5
F6
330
1F
100
AcDbEntity
  8
0
  6
HIDDEN
 62
     7
370
     0
100
AcDbSpline
210
0.0
220
0.0
230
1.0
 70
     8
 71
     3
 72
    30
 73
    26
 74
     0
 42
0.00000001
 43
0.00000001
 40
0.0
 40
0.0
 40
0.0
 40
0.0
 40
0.0001123288057695
 40
0.0285431152663135
 40
0.0588466796063202
 40
0.091027196450477
 40
0.1250880910051604
 40
0.1546766141497773
 40
0.1963554560485685
 40
0.2501101496291966
 40
0.320525387238388
 40
0.3856104300246703
 40
0.445403860889207
 40
0.4999571692316274
 40
0.5283494388508946
 40
0.558634027028705
 40
0.5908185964995195
 40
0.6249094714581434
 40
0.6541844575853767
 40
0.6958630078636641
 40
0.7499307292180327
 40
0.8215905285694356
 40
0.8871422909715975
 40
0.9466378748868088
 40
1.0
 40
1.0
 40
1.0
 40
1.0
 10
66.25451299640685
 20
147.6028491954856
 30
0.0
 10
66.2544811366487
 20
147.6028561426118
 30
0.0
 10
66.24638546837784
 20
147.604621430004
 30
0.0
 10
66.27504694604724
 20
147.5991665112791
 30
0.0
 10
66.34843379220148
 20
147.5886236639329
 30
0.0
 10
66.49209033575221
 20
147.5689384562795
 30
0.0
 10
66.69312603570971
 20
147.5440991924242
 30
0.0
 10
66.97575658497874
 20
147.5098907272855
 30
0.0
 10
67.3891657105534
 20
147.4662108305254
 30
0.0
 10
68.06545321173563
 20
147.4031677629922
 30
0.0
 10
69.00388411265158
 20
147.3418705925594
 30
0.0
 10
70.11337732614747
 20
147.3105821490589
 30
0.0
 10
71.2108580568362
 20
147.3122373166556
 30
0.0
 10
72.1108892952935
 20
147.3435435187529
 30
0.0
 10
72.82223022114444
 20
147.3903766675554
 30
0.0
 10
73.38764712213522
 20
147.4375435294513
 30
0.0
 10
73.97657054496354
 20
147.4969825360013
 30
0.0
 10
74.54098019744103
 20
147.5633397426093
 30
0.0
 10
75.13517639137721
 20
147.6452591490408
 30
0.0
 10
75.80178455234771
 20
147.7469071317913
 30
0.0
 10
76.60311729804795
 20
147.8890460423916
 30
0.0
 10
77.35562728255586
 20
148.0402906131579
 30
0.0
 10
77.90091377752204
 20
148.1581414864173
 30
0.0
 10
78.20363530902088
 20
148.2343707181666
 30
0.0
 10
78.23792575963391
 20
148.2448230276611
 30
0.0
 10
78.25413919628393
 20
148.2497651574613
 30
0.0
  0
LINE
  5
F7
330
1F
100
AcDbEntity
  8
0
  6
HIDDEN
 62
     7
370
     0
100
AcDbLine
 10
177.4539873548
 20
105.1498374865
 30
0.0
 11
177.4539873548
 21
117.1498374865
 31
0.0
  0
LINE
  5
F8
330
1F
100
AcDbEntity
  8
0
  6
HIDDEN
 62
     7
370
     0
100
AcDbLine
 10
177.7544176643
 20
105.6498374865
 30
0.0
 11
177.7544176643
 21
116.6498374865
 31
0.0
  0
LINE
  5
F9
330
1F
100
AcDbEntity
  8
0
  6
HIDDEN
 62
     7
370
     0
100
AcDbLine
 10
156.2044176643
 20
132.5724872173
 30
0.0
 11
158.7044176643
 21
132.5724872173
 31
0.0
  0
LINE
  5
FA
330
1F
100
AcDbEntity
  8
0
  6
HIDDEN
 62
     7
370
     0
100
AcDbLine
 10
153.7044176643
 20
132.5724872173
 30
0.0
 11
156.2044176643
 21
132.5724872173
 31
0.0
  0
LINE
  5
FB
330
1F
100
AcDbEntity
  8
0
  6
HIDDEN
 62
     7
370
     0
100
AcDbLine
 10
158.7044176643
 20
89.7271877556
 30
0.0
 11
153.7044176643
 21
89.7271877556
 31
0.0
  0
LINE
  5
FC
330
1F
100
AcDbEntity
  8
0
  6
HIDDEN
 62
     7
370
     0
100
AcDbLine
 10
156.2044176643
 20
121.1498374865
 30
0.0
 11
158.7044176643
 21
121.1498374865
 31
0.0
  0
LINE
  5
FD
330
1F
100
AcDbEntity
  8
0
  6
HIDDEN
 62
     7
370
     0
100
AcDbLine
 10
153.7044176643
 20
121.1498374865
 30
0.0
 11
156.2044176643
 21
121.1498374865
 31
0.0
  0
LINE
  5
FE
330
1F
100
AcDbEntity
  8
0
  6
HIDDEN
 62
     7
370
     0
100
AcDbLine
 10
158.7044176643
 20
101.1498374865
 30
0.0
 11
153.7044176643
 21
101.1498374865
 31
0.0
  0
SPLINE
  5
FF
330
1F
100
AcDbEntity
  8
0
  6
HIDDEN
 62
     7
370
     0
100
AcDbSpline
210
0.0
220
0.0
230
1.0
 70
    11
 71
     3
 72
    42
 73
    38
 74
     0
 42
0.00000001
 43
0.00000001
 40
0.0
 40
0.0
 40
0.0
 40
0.0
 40
0.0624999999999985
 40
0.0624999999999985
 40
0.1249999999999971
 40
0.1249999999999971
 40
0.1874999999999956
 40
0.1874999999999956
 40
0.2187499999999949
 40
0.2187499999999949
 40
0.2499999999999942
 40
0.2499999999999942
 40
0.312499999999994
 40
0.312499999999994
 40
0.3749999999999939
 40
0.3749999999999939
 40
0.4374999999999938
 40
0.4374999999999938
 40
0.4999999999999937
 40
0.4999999999999937
 40
0.5624999999999936
 40
0.5624999999999936
 40
0.6249999999999933
 40
0.6249999999999933
 40
0.6874999999999932
 40
0.6874999999999932
 40
0.7499999999999931
 40
0.7499999999999931
 40
0.7812499999999937
 40
0.7812499999999937
 40
0.8124999999999943
 40
0.8124999999999943
 40
0.8749999999999961
 40
0.8749999999999961
 40
0.937499999999998
 40
0.937499999999998
 40
1.0
 40
1.0
 40
1.0
 40
1.0
 10
198.3933065203313
 20
126.6498374864572
 30
0.0
 10
198.4470010406305
 20
126.5799679596684
 30
0.0
 10
198.5122016147708
 20
126.4930690906386
 30
0.0
 10
198.6472082169219
 20
126.2970309724984
 30
0.0
 10
198.7181270492961
 20
126.1871068602275
 30
0.0
 10
198.8428081720708
 20
125.9443671824919
 30
0.0
 10
198.8974990708549
 20
125.8090122237427
 30
0.0
 10
198.9271894367111
 20
125.5919869131839
 30
0.0
 10
198.9277848558885
 20
125.5170634958844
 30
0.0
 10
198.9097491373064
 20
125.3727148916516
 30
0.0
 10
198.8910983618188
 20
125.3012270582801
 30
0.0
 10
198.8188163439845
 20
125.1010717222405
 30
0.0
 10
198.749350132465
 20
124.9809387584231
 30
0.0
 10
198.6107503735018
 20
124.7682616107296
 30
0.0
 10
198.5387562789061
 20
124.6725584738167
 30
0.0
 10
198.4123067887562
 20
124.5113123996636
 30
0.0
 10
198.3564744334982
 20
124.4443282278437
 30
0.0
 10
198.2771579671672
 20
124.3502765243575
 30
0.0
 10
198.2546725656362
 20
124.3243843842809
 30
0.0
 10
198.2541672686857
 20
124.3237974128711
 30
0.0
 10
198.276178406921
 20
124.3491379896132
 30
0.0
 10
198.3547374975232
 20
124.4422463842743
 30
0.0
 10
198.4105452341524
 20
124.5091051158456
 30
0.0
 10
198.5388939715367
 20
124.6726955294063
 30
0.0
 10
198.6097933790506
 20
124.7667907714388
 30
0.0
 10
198.7503382624127
 20
124.9824573747165
 30
0.0
 10
198.8189740848569
 20
125.1010512524906
 30
0.0
 10
198.8916691504398
 20
125.3030393295324
 30
0.0
 10
198.9099106791302
 20
125.3729472528782
 30
0.0
 10
198.9280019680359
 20
125.5198839497341
 30
0.0
 10
198.9271509527252
 20
125.5930300051316
 30
0.0
 10
198.8970566127903
 20
125.8107028444459
 30
0.0
 10
198.8420040749588
 20
125.946246062749
 30
0.0
 10
198.7169611205224
 20
126.1890584058757
 30
0.0
 10
198.647120179264
 20
126.2972104228686
 30
0.0
 10
198.5110112479713
 20
126.4947454769914
 30
0.0
 10
198.4472606069024
 20
126.5796302013184
 30
0.0
 10
198.3933065203313
 20
126.6498374864572
 30
0.0
  0
SPLINE
  5
100
330
1F
100
AcDbEntity
  8
0
  6
HIDDEN
 62
     7
370
     0
100
AcDbSpline
210
0.0
220
0.0
230
1.0
 70
     8
 71
     3
 72
    28
 73
    24
 74
     0
 42
0.00000001
 43
0.00000001
 40
0.0
 40
0.0
 40
0.0
 40
0.0
 40
0.0624999999999998
 40
0.0624999999999998
 40
0.1249999999999995
 40
0.1249999999999995
 40
0.2499999999999984
 40
0.2499999999999984
 40
0.3749999999999973
 40
0.3749999999999973
 40
0.4999999999999963
 40
0.4999999999999963
 40
0.5624999999999958
 40
0.5624999999999958
 40
0.6249999999999952
 40
0.6249999999999952
 40
0.6874999999999946
 40
0.6874999999999946
 40
0.749999999999994
 40
0.749999999999994
 40
0.874999999999997
 40
0.874999999999997
 40
1.0
 40
1.0
 40
1.0
 40
1.0
 10
201.2544176643069
 20
124.2062179605563
 30
0.0
 10
201.254417664307
 20
124.2062179605563
 30
0.0
 10
201.2480450410171
 20
124.2141015488697
 30
0.0
 10
201.223781443172
 20
124.2443561395895
 30
0.0
 10
201.2055785145216
 20
124.2671220419718
 30
0.0
 10
201.1381211307851
 20
124.3526717273247
 30
0.0
 10
201.0748139429326
 20
124.4340300839163
 30
0.0
 10
200.9364365607022
 20
124.624384067573
 30
0.0
 10
200.8591870455475
 20
124.7357505994714
 30
0.0
 10
200.7161053060977
 20
124.9813598973645
 30
0.0
 10
200.6470527628603
 20
125.1193071460653
 30
0.0
 10
200.5913552287812
 20
125.3478396485271
 30
0.0
 10
200.5817210745806
 20
125.427647391607
 30
0.0
 10
200.5860548334591
 20
125.5850921779702
 30
0.0
 10
200.600183155283
 20
125.6646825101777
 30
0.0
 10
200.6447961106906
 20
125.8137357057979
 30
0.0
 10
200.6752365641717
 20
125.8850234096248
 30
0.0
 10
200.7419766103219
 20
126.0173677774899
 30
0.0
 10
200.7785593440269
 20
126.0793231779989
 30
0.0
 10
200.8915691524633
 20
126.2559335867308
 30
0.0
 10
200.969100981733
 20
126.3586586766081
 30
0.0
 10
201.1068392887878
 20
126.5338254626744
 30
0.0
 10
201.1657499332604
 20
126.6039540309235
 30
0.0
 10
201.2046167620046
 20
126.6498374864573
 30
0.0
  0
LINE
  5
101
330
1F
100
AcDbEntity
  8
0
  6
HIDDEN
 62
     7
370
     0
100
AcDbLine
 10
201.204616762
 20
126.6498374865
 30
0.0
 11
198.3933065203
 21
126.6498374865
 31
0.0
  0
SPLINE
  5
102
330
1F
100
AcDbEntity
  8
0
  6
HIDDEN
 62
     7
370
     0
100
AcDbSpline
210
0.0
220
0.0
230
1.0
 70
    11
 71
     3
 72
    30
 73
    26
 74
     0
 42
0.00000001
 43
0.00000001
 40
0.0
 40
0.0
 40
0.0
 40
0.0
 40
0.0625000000000004
 40
0.0625000000000004
 40
0.1250000000000007
 40
0.1250000000000007
 40
0.2500000000000014
 40
0.2500000000000014
 40
0.3750000000000022
 40
0.3750000000000022
 40
0.4375000000000024
 40
0.4375000000000024
 40
0.5000000000000028
 40
0.5000000000000028
 40
0.6250000000000034
 40
0.6250000000000034
 40
0.6875000000000021
 40
0.6875000000000021
 40
0.7500000000000007
 40
0.7500000000000007
 40
0.8750000000000022
 40
0.8750000000000022
 40
0.9375000000000012
 40
0.9375000000000012
 40
1.0
 40
1.0
 40
1.0
 40
1.0
 10
198.9191538831022
 20
96.64983748645727
 30
0.0
 10
198.9300901509073
 20
96.7409367465377
 30
0.0
 10
198.9258913566491
 20
96.8325693281416
 30
0.0
 10
198.889724170792
 20
97.01032542434294
 30
0.0
 10
198.8587884925665
 20
97.09457986020544
 30
0.0
 10
198.7496076341338
 20
97.32954956296727
 30
0.0
 10
198.6568701520068
 20
97.46497176900486
 30
0.0
 10
198.4861996766702
 20
97.69775370611
 30
0.0
 10
198.4055502271914
 20
97.79615227427843
 30
0.0
 10
198.3184865585768
 20
97.90058261851165
 30
0.0
 10
198.2947240167602
 20
97.92851608766806
 30
0.0
 10
198.2629865576487
 20
97.96566662236022
 30
0.0
 10
198.2544934248047
 20
97.97549868521818
 30
0.0
 10
198.2542676593292
 20
97.97576094250878
 30
0.0
 10
198.2889993350514
 20
97.93594094002454
 30
0.0
 10
198.376171592294
 20
97.83139641370293
 30
0.0
 10
198.4112146656329
 20
97.78879642365423
 30
0.0
 10
198.4870692149391
 20
97.69348441174854
 30
0.0
 10
198.5282011418736
 20
97.64044809478075
 30
0.0
 10
198.657065976946
 20
97.46474185463448
 30
0.0
 10
198.7491095391041
 20
97.33055005017563
 30
0.0
 10
198.8588733299253
 20
97.0944329354862
 30
0.0
 10
198.8895981960951
 20
97.01076486614208
 30
0.0
 10
198.9258731033091
 20
96.83283803090022
 30
0.0
 10
198.9301013960343
 20
96.74103041860738
 30
0.0
 10
198.9191538831012
 20
96.64983748645727
 30
0.0
  0
LINE
  5
103
330
1F
100
AcDbEntity
  8
0
  6
HIDDEN
 62
     7
370
     0
100
AcDbLine
 10
198.9191538831
 20
96.6498374865
 30
0.0
 11
200.6001891852
 21
96.6498374865
 31
0.0
  0
SPLINE
  5
104
330
1F
100
AcDbEntity
  8
0
  6
HIDDEN
 62
     7
370
     0
100
AcDbSpline
210
0.0
220
0.0
230
1.0
 70
    11
 71
     3
 72
    32
 73
    28
 74
     0
 42
0.00000001
 43
0.00000001
 40
0.0
 40
0.0
 40
0.0
 40
0.0
 40
0.0624999999999997
 40
0.0624999999999997
 40
0.1249999999999993
 40
0.1249999999999993
 40
0.2499999999999997
 40
0.2499999999999997
 40
0.375
 40
0.375
 40
0.4375000000000002
 40
0.4375000000000002
 40
0.5000000000000003
 40
0.5000000000000003
 40
0.6250000000000007
 40
0.6250000000000007
 40
0.6875000000000006
 40
0.6875000000000006
 40
0.7500000000000004
 40
0.7500000000000004
 40
0.8125000000000003
 40
0.8125000000000003
 40
0.8750000000000002
 40
0.8750000000000002
 40
0.9375000000000001
 40
0.9375000000000001
 40
1.0
 40
1.0
 40
1.0
 40
1.0
 10
200.6001891852184
 20
96.64983748645727
 30
0.0
 10
200.5816006005523
 20
96.74342238510026
 30
0.0
 10
200.5787168962343
 20
96.83979651233241
 30
0.0
 10
200.6049962497437
 20
97.02828594305822
 30
0.0
 10
200.6332051942956
 20
97.11902440902172
 30
0.0
 10
200.7375931223961
 20
97.37194035723964
 30
0.0
 10
200.8318040997298
 20
97.52004309696807
 30
0.0
 10
201.0066001770804
 20
97.77598395145384
 30
0.0
 10
201.0914506074039
 20
97.88677771475629
 30
0.0
 10
201.1845870286623
 20
98.00615498666659
 30
0.0
 10
201.2103137995849
 20
98.03845922896727
 30
0.0
 10
201.245012298415
 20
98.08183297263712
 30
0.0
 10
201.254387878889
 20
98.09342007200623
 30
0.0
 10
201.2544770142734
 20
98.09353061913633
 30
0.0
 10
201.2164572870448
 20
98.04699335101337
 30
0.0
 10
201.1226423774421
 20
97.92676321564164
 30
0.0
 10
201.0862991808839
 20
97.87953220376437
 30
0.0
 10
201.0067418141983
 20
97.77259377519256
 30
0.0
 10
200.963187701088
 20
97.71240980115323
 30
0.0
 10
200.8755247952568
 20
97.58406852029708
 30
0.0
 10
200.830988689156
 20
97.51548885949724
 30
0.0
 10
200.7447952678377
 20
97.36759428538927
 30
0.0
 10
200.7029392154322
 20
97.28792168250098
 30
0.0
 10
200.6333343231369
 20
97.11939461468802
 30
0.0
 10
200.6050748474285
 20
97.02832399003304
 30
0.0
 10
200.5788280893957
 20
96.84111594731009
 30
0.0
 10
200.5815907456624
 20
96.74347199988776
 30
0.0
 10
200.6001891852164
 20
96.64983748645727
 30
0.0
  0
LINE
  5
105
330
1F
100
AcDbEntity
  8
0
  6
HIDDEN
 62
     7
370
     0
100
AcDbLine
 10
198.2431201188
 20
97.9751428096
 30
0.0
 11
198.3412696582
 21
95.477070219
 31
0.0
  0
SPLINE
  5
106
330
1F
100
AcDbEntity
  8
0
  6
HIDDEN
 62
     7
370
     0
100
AcDbSpline
210
0.0
220
0.0
230
1.0
 70
     8
 71
     3
 72
    12
 73
     8
 74
     0
 42
0.00000001
 43
0.00000001
 40
0.0
 40
0.0
 40
0.0
 40
0.0
 40
0.25
 40
0.25
 40
0.5
 40
0.5
 40
1.0
 40
1.0
 40
1.0
 40
1.0
 10
198.9191538831035
 20
96.6498374864575
 30
0.0
 10
199.0558385149314
 20
96.60195582838944
 30
0.0
 10
199.1935266474115
 20
96.55931301981566
 30
0.0
 10
199.473813844891
 20
96.49652109831207
 30
0.0
 10
199.618053786741
 20
96.47689514660514
 30
0.0
 10
200.0540017071149
 20
96.47610419115968
 30
0.0
 10
200.3290937121355
 20
96.55218252455025
 30
0.0
 10
200.600189185217
 20
96.64983748645749
 30
0.0
  0
SPLINE
  5
107
330
1F
100
AcDbEntity
  8
0
  6
HIDDEN
 62
     7
370
     0
100
AcDbSpline
210
0.0
220
0.0
230
1.0
 70
     8
 71
     3
 72
     9
 73
     5
 74
     0
 42
0.00000001
 43
0.00000001
 40
0.0
 40
0.0
 40
0.0
 40
0.0
 40
0.9208243725541497
 40
1.0
 40
1.0
 40
1.0
 40
1.0
 10
201.2046167620046
 20
126.6498374864573
 30
0.0
 10
201.2338505221715
 20
126.684050473898
 30
0.0
 10
201.2655979009748
 20
126.721205210958
 30
0.0
 10
201.2522667361218
 20
126.705637546751
 30
0.0
 10
201.25121123278
 20
126.7044049671695
 30
0.0
  0
SPLINE
  5
108
330
1F
100
AcDbEntity
  8
0
  6
HIDDEN
 62
     7
370
     0
100
AcDbSpline
210
0.0
220
0.0
230
1.0
 70
     8
 71
     3
 72
     9
 73
     5
 74
     0
 42
0.00000001
 43
0.00000001
 40
0.0
 40
0.0
 40
0.0
 40
0.0
 40
0.7274607234698042
 40
1.0
 40
1.0
 40
1.0
 40
1.0
 10
198.264059779307
 20
126.6931795391425
 30
0.0
 10
198.267351163248
 20
126.6928059324954
 30
0.0
 10
198.2718756466116
 20
126.6922923561125
 30
0.0
 10
198.3232980775621
 20
126.7155539822281
 30
0.0
 10
198.3373127096907
 20
126.7218936889806
 30
0.0
  0
LINE
  5
109
330
1F
100
AcDbEntity
  8
0
  6
HIDDEN
 62
     7
370
     0
100
AcDbLine
 10
198.3373127097
 20
126.721893689
 30
0.0
 11
198.2442039749
 21
124.3521181438
 31
0.0
  0
SPLINE
  5
10A
330
1F
100
AcDbEntity
  8
0
  6
HIDDEN
 62
     7
370
     0
100
AcDbSpline
210
0.0
220
0.0
230
1.0
 70
     8
 71
     3
 72
     8
 73
     4
 74
     0
 42
0.00000001
 43
0.00000001
 40
0.0
 40
0.0
 40
0.0
 40
0.0
 40
1.0
 40
1.0
 40
1.0
 40
1.0
 10
198.3373127096907
 20
126.7218936889806
 30
0.0
 10
198.3542296478998
 20
126.7003524638183
 30
0.0
 10
198.3730206793265
 20
126.6762342603482
 30
0.0
 10
198.3933065203313
 20
126.6498374864572
 30
0.0
  0
LINE
  5
10B
330
1F
100
AcDbEntity
  8
0
  6
HIDDEN
 62
     7
370
     0
100
AcDbLine
 10
198.3933065203
 20
126.6498374865
 30
0.0
 11
198.2544176643
 21
126.6498374865
 31
0.0
  0
LINE
  5
10C
330
1F
100
AcDbEntity
  8
0
  6
HIDDEN
 62
     7
370
     0
100
AcDbLine
 10
201.2544176643
 20
126.6498374865
 30
0.0
 11
201.204616762
 21
126.6498374865
 31
0.0
  0
LWPOLYLINE
  5
10D
330
1F
100
AcDbEntity
  8
0
  6
HIDDEN
 62
     7
370
     0
100
AcDbPolyline
 90
       28
 70
   128
 43
0.0
 10
96.2544176643
 20
156.4625433382
 10
97.407497018
 20
156.4208953729
 10
98.4984135653
 20
156.2981967293
 10
99.4683557127
 20
156.1010621232
 10
100.2650336281
 20
155.8401191322
 10
100.8454981987
 20
155.5294352605
 10
101.1784564294
 20
155.1857595561
 10
101.2459584557
 20
154.827619665
 10
101.0443652259
 20
154.4743230016
 10
100.5845446832
 20
154.1449158804
 10
99.8912858722
 20
153.8571567246
 10
99.0019625547
 20
153.6265587048
 10
97.9645183809
 20
153.4655534198
 10
96.8348822349
 20
153.3828207063
 10
95.6739530937
 20
153.3828207063
 10
94.5443169477
 20
153.4655534198
 10
93.506872774
 20
153.6265587048
 10
92.6175494564
 20
153.8571567246
 10
91.9242906454
 20
154.1449158804
 10
91.4644701027
 20
154.4743230016
 10
91.262876873
 20
154.827619665
 10
91.3303788992
 20
155.1857595561
 10
91.6633371299
 20
155.5294352605
 10
92.2438017005
 20
155.8401191322
 10
93.0404796159
 20
156.1010621232
 10
94.0104217633
 20
156.2981967293
 10
95.1013383106
 20
156.4208953729
 10
96.2544176643
 20
156.4625433382
  0
LINE
  5
10E
330
1F
100
AcDbEntity
  8
0
  6
HIDDEN
 62
     7
370
     0
100
AcDbLine
 10
109.1644176643
 20
145.864072679
 30
0.0
 11
109.1644176643
 21
142.4998374865
 31
0.0
  0
LINE
  5
10F
330
1F
100
AcDbEntity
  8
0
  6
HIDDEN
 62
     7
370
     0
100
AcDbLine
 10
105.3444176643
 20
145.864072679
 30
0.0
 11
105.3444176643
 21
142.4998374865
 31
0.0
  0
LINE
  5
110
330
1F
100
AcDbEntity
  8
0
  6
HIDDEN
 62
     7
370
     0
100
AcDbLine
 10
110.5164466852
 20
150.1008002473
 30
0.0
 11
110.5164466852
 21
142.4998374865
 31
0.0
  0
CIRCLE
  5
111
330
1F
100
AcDbEntity
  8
0
  6
HIDDEN
 62
     7
370
     0
100
AcDbCircle
 10
94.2544176643
 20
111.1498374865
 30
0.0
 40
5.0
  0
LINE
  5
112
330
1F
100
AcDbEntity
  8
0
  6
HIDDEN
 62
     7
370
     0
100
AcDbLine
 10
247.1220406307
 20
125.1561959322
 30
0.0
 11
247.0042611834
 21
122.1585088235
 31
0.0
  0
LINE
  5
113
330
1F
100
AcDbEntity
  8
0
  6
HIDDEN
 62
     7
370
     0
100
AcDbLine
 10
241.7881028268
 20
125.3657669193
 30
0.0
 11
241.6703233795
 21
122.3680798105
 31
0.0
  0
LINE
  5
114
330
1F
100
AcDbEntity
  8
0
  6
HIDDEN
 62
     7
370
     0
100
AcDbLine
 10
241.2688584008
 20
124.885782309
 30
0.0
 11
241.1903387693
 21
122.8873242365
 31
0.0
  0
LINE
  5
115
330
1F
100
AcDbEntity
  8
0
  6
HIDDEN
 62
     7
370
     0
100
AcDbLine
 10
247.2544176643
 20
124.4004161554
 30
0.0
 11
247.1770954572
 21
122.4324345685
 31
0.0
  0
LINE
  5
116
330
1F
100
AcDbEntity
  8
0
  6
HIDDEN
 62
     7
370
     0
100
AcDbLine
 10
245.22651473
 20
123.7295140097
 30
0.0
 11
245.2559595918
 21
124.4789357869
 31
0.0
  0
LINE
  5
117
330
1F
100
AcDbEntity
  8
0
  6
HIDDEN
 62
     7
370
     0
100
AcDbLine
 10
245.22651473
 20
123.7295140097
 30
0.0
 11
247.2249728025
 21
123.6509943782
 31
0.0
  0
LINE
  5
118
330
1F
100
AcDbEntity
  8
0
  6
HIDDEN
 62
     7
370
     0
100
AcDbLine
 10
245.1970698682
 20
122.9800922326
 30
0.0
 11
245.22651473
 21
123.7295140097
 31
0.0
  0
LINE
  5
119
330
1F
100
AcDbEntity
  8
0
  6
HIDDEN
 62
     7
370
     0
100
AcDbLine
 10
245.1970698682
 20
122.9800922326
 30
0.0
 11
247.1955279407
 21
122.901572601
 31
0.0
  0
LINE
  5
11A
330
1F
100
AcDbEntity
  8
0
  6
HIDDEN
 62
     7
370
     0
100
AcDbLine
 10
245.2559595918
 20
124.4789357869
 30
0.0
 11
247.2544176643
 21
124.4004161554
 31
0.0
  0
LINE
  5
11B
330
1F
100
AcDbEntity
  8
0
  6
HIDDEN
 62
     7
370
     0
100
AcDbLine
 10
247.071040634
 20
99.942672973
 30
0.0
 11
247.1809303543
 21
97.1457928243
 31
0.0
  0
LINE
  5
11C
330
1F
100
AcDbEntity
  8
0
  6
HIDDEN
 62
     7
370
     0
100
AcDbLine
 10
247.0631509071
 20
100.143479933
 30
0.0
 11
247.071040634
 21
99.942672973
 31
0.0
  0
LINE
  5
11D
330
1F
100
AcDbEntity
  8
0
  6
HIDDEN
 62
     7
370
     0
100
AcDbLine
 10
241.7371028301
 20
99.7331019859
 30
0.0
 11
241.8469925504
 21
96.9362218372
 31
0.0
  0
LINE
  5
11E
330
1F
100
AcDbEntity
  8
0
  6
HIDDEN
 62
     7
370
     0
100
AcDbLine
 10
241.7292131032
 20
99.9339089459
 30
0.0
 11
241.7371028301
 21
99.7331019859
 31
0.0
  0
LINE
  5
11F
330
1F
100
AcDbEntity
  8
0
  6
HIDDEN
 62
     7
370
     0
100
AcDbLine
 10
247.2423995288
 20
99.7062981295
 30
0.0
 11
247.2544176643
 21
99.4004161554
 31
0.0
  0
LINE
  5
120
330
1F
100
AcDbEntity
  8
0
  6
HIDDEN
 62
     7
370
     0
100
AcDbLine
 10
247.2359851808
 20
99.8695541879
 30
0.0
 11
247.2423995288
 21
99.7062981295
 31
0.0
  0
LINE
  5
121
330
1F
100
AcDbEntity
  8
0
  6
HIDDEN
 62
     7
370
     0
100
AcDbLine
 10
241.2544883109
 20
99.2807932133
 30
0.0
 11
241.3277481244
 21
97.4162064474
 31
0.0
  0
LINE
  5
122
330
1F
100
AcDbEntity
  8
0
  6
HIDDEN
 62
     7
370
     0
100
AcDbLine
 10
241.2492284929
 20
99.4146645199
 30
0.0
 11
241.2544883109
 21
99.2807932133
 31
0.0
  0
LINE
  5
123
330
1F
100
AcDbEntity
  8
0
  6
HIDDEN
 62
     7
370
     0
100
AcDbLine
 10
245.2854044536
 20
98.5724747467
 30
0.0
 11
245.2559595918
 21
99.3218965239
 31
0.0
  0
LINE
  5
124
330
1F
100
AcDbEntity
  8
0
  6
HIDDEN
 62
     7
370
     0
100
AcDbLine
 10
245.2854044536
 20
98.5724747467
 30
0.0
 11
245.3148493155
 21
97.8230529695
 31
0.0
  0
LINE
  5
125
330
1F
100
AcDbEntity
  8
0
  6
HIDDEN
 62
     7
370
     0
100
AcDbLine
 10
245.2854044536
 20
98.5724747467
 30
0.0
 11
247.2838625261
 21
98.6509943782
 31
0.0
  0
LINE
  5
126
330
1F
100
AcDbEntity
  8
0
  6
HIDDEN
 62
     7
370
     0
100
AcDbLine
 10
245.2559595918
 20
99.3218965239
 30
0.0
 11
247.2544176643
 21
99.4004161554
 31
0.0
  0
LINE
  5
127
330
1F
100
AcDbEntity
  8
0
  6
HIDDEN
 62
     7
370
     0
100
AcDbLine
 10
245.3148493155
 20
97.8230529695
 30
0.0
 11
247.3133073879
 21
97.901572601
 31
0.0
  0
LINE
  5
128
330
1F
100
AcDbEntity
  8
0
  6
HIDDEN
 62
     7
370
     0
100
AcDbLine
 10
197.2544176643
 20
105.1498374865
 30
0.0
 11
197.2544176643
 21
117.1498374865
 31
0.0
  0
LINE
  5
129
330
1F
100
AcDbEntity
  8
0
  6
HIDDEN
 62
     7
370
     0
100
AcDbLine
 10
182.2544176643
 20
105.1498374865
 30
0.0
 11
182.2544176643
 21
117.1498374865
 31
0.0
  0
LINE
  5
12A
330
1F
100
AcDbEntity
  8
0
  6
HIDDEN
 62
     7
370
     0
100
AcDbLine
 10
181.7544176643
 20
105.6498374865
 30
0.0
 11
181.7544176643
 21
116.6498374865
 31
0.0
  0
LINE
  5
12B
330
1F
100
AcDbEntity
  8
0
  6
HIDDEN
 62
     7
370
     0
100
AcDbLine
 10
201.7544176643
 20
109.6498374865
 30
0.0
 11
199.7544176643
 21
109.6498374865
 31
0.0
  0
LINE
  5
12C
330
1F
100
AcDbEntity
  8
0
  6
HIDDEN
 62
     7
370
     0
100
AcDbLine
 10
201.7544176643
 20
105.6498374865
 30
0.0
 11
201.7544176643
 21
109.6498374865
 31
0.0
  0
LINE
  5
12D
330
1F
100
AcDbEntity
  8
0
  6
HIDDEN
 62
     7
370
     0
100
AcDbLine
 10
201.7544176643
 20
112.6498374865
 30
0.0
 11
201.7544176643
 21
116.6498374865
 31
0.0
  0
LINE
  5
12E
330
1F
100
AcDbEntity
  8
0
  6
HIDDEN
 62
     7
370
     0
100
AcDbLine
 10
199.7544176643
 20
112.6498374865
 30
0.0
 11
201.7544176643
 21
112.6498374865
 31
0.0
  0
LINE
  5
12F
330
1F
100
AcDbEntity
  8
0
  6
HIDDEN
 62
     7
370
     0
100
AcDbLine
 10
199.7544176643
 20
109.6498374865
 30
0.0
 11
199.7544176643
 21
112.6498374865
 31
0.0
  0
LINE
  5
130
330
1F
100
AcDbEntity
  8
0
  6
HIDDEN
 62
     7
370
     0
100
AcDbLine
 10
188.7544176642
 20
111.1498374865
 30
0.0
 11
181.7544176643
 21
111.1498374865
 31
0.0
  0
LINE
  5
131
330
1F
100
AcDbEntity
  8
0
  6
HIDDEN
 62
     7
370
     0
100
AcDbLine
 10
194.7544176643
 20
111.1498374865
 30
0.0
 11
194.7544176643
 21
109.6498374865
 31
0.0
  0
LINE
  5
132
330
1F
100
AcDbEntity
  8
0
  6
HIDDEN
 62
     7
370
     0
100
AcDbLine
 10
188.7544176642
 20
109.6498374865
 30
0.0
 11
188.7544176642
 21
111.1498374865
 31
0.0
  0
LINE
  5
133
330
1F
100
AcDbEntity
  8
0
  6
HIDDEN
 62
     7
370
     0
100
AcDbLine
 10
188.7544176642
 20
111.1498374865
 30
0.0
 11
188.7544176642
 21
112.6498374865
 31
0.0
  0
LINE
  5
134
330
1F
100
AcDbEntity
  8
0
  6
HIDDEN
 62
     7
370
     0
100
AcDbLine
 10
194.7544176643
 20
112.6498374865
 30
0.0
 11
194.7544176643
 21
111.1498374865
 31
0.0
  0
LINE
  5
135
330
1F
100
AcDbEntity
  8
0
  6
HIDDEN
 62
     7
370
     0
100
AcDbLine
 10
194.7544176643
 20
111.1498374865
 30
0.0
 11
199.7544176643
 21
111.1498374865
 31
0.0
  0
LINE
  5
136
330
1F
100
AcDbEntity
  8
0
  6
HIDDEN
 62
     7
370
     0
100
AcDbLine
 10
194.7544176643
 20
109.6498374865
 30
0.0
 11
194.7544176643
 21
108.1498374865
 31
0.0
  0
LINE
  5
137
330
1F
100
AcDbEntity
  8
0
  6
HIDDEN
 62
     7
370
     0
100
AcDbLine
 10
188.7544176642
 20
112.6498374865
 30
0.0
 11
188.7544176642
 21
114.1498374865
 31
0.0
  0
LINE
  5
138
330
1F
100
AcDbEntity
  8
0
  6
HIDDEN
 62
     7
370
     0
100
AcDbLine
 10
194.7544176643
 20
114.1498374865
 30
0.0
 11
194.7544176643
 21
112.6498374865
 31
0.0
  0
LINE
  5
139
330
1F
100
AcDbEntity
  8
0
  6
HIDDEN
 62
     7
370
     0
100
AcDbLine
 10
188.7544176642
 20
108.1498374865
 30
0.0
 11
188.7544176642
 21
109.6498374865
 31
0.0
  0
LINE
  5
13A
330
1F
100
AcDbEntity
  8
0
  6
HIDDEN
 62
     7
370
     0
100
AcDbLine
 10
188.7544176642
 20
108.1498374865
 30
0.0
 11
181.7544176642
 21
108.1498374865
 31
0.0
  0
LINE
  5
13B
330
1F
100
AcDbEntity
  8
0
  6
HIDDEN
 62
     7
370
     0
100
AcDbLine
 10
188.7544176642
 20
114.1498374865
 30
0.0
 11
181.7544176642
 21
114.1498374865
 31
0.0
  0
LINE
  5
13C
330
1F
100
AcDbEntity
  8
0
  6
HIDDEN
 62
     7
370
     0
100
AcDbLine
 10
194.7544176643
 20
108.1498374865
 30
0.0
 11
201.7544176643
 21
108.1498374865
 31
0.0
  0
LINE
  5
13D
330
1F
100
AcDbEntity
  8
0
  6
HIDDEN
 62
     7
370
     0
100
AcDbLine
 10
194.7544176643
 20
114.1498374865
 30
0.0
 11
201.7544176643
 21
114.1498374865
 31
0.0
  0
LINE
  5
13E
330
1F
100
AcDbEntity
  8
0
  6
HIDDEN
 62
     7
370
     0
100
AcDbLine
 10
87.2544176643
 20
71.7451545299
 30
0.0
 11
87.3440192882
 21
72.3827032118
 31
0.0
  0
LINE
  5
13F
330
1F
100
AcDbEntity
  8
0
  6
HIDDEN
 62
     7
370
     0
100
AcDbLine
 10
87.3440192882
 20
149.9169717611
 30
0.0
 11
87.2544176643
 21
150.554520443
 31
0.0
  0
ARC
  5
140
330
1F
100
AcDbEntity
  8
0
  6
HIDDEN
 62
     7
370
     0
100
AcDbCircle
 10
86.3574807459
 20
72.521352162
 30
0.0
 40
0.9962338214386963
100
AcDbArc
 50
352.0
 51
0.0
  0
ARC
  5
141
330
1F
100
AcDbEntity
  8
0
  6
HIDDEN
 62
     7
370
     0
100
AcDbCircle
 10
86.3574807459
 20
72.521352162
 30
0.0
 40
0.9962338214386983
100
AcDbArc
 50
0.0
 51
25.7988228126
  0
ARC
  5
142
330
1F
100
AcDbEntity
  8
0
  6
HIDDEN
 62
     7
370
     0
100
AcDbCircle
 10
86.3574807459
 20
149.7783228109
 30
0.0
 40
0.9962338214386993
100
AcDbArc
 50
348.75
 51
8.0
  0
LWPOLYLINE
  5
143
330
1F
100
AcDbEntity
  8
0
  6
HIDDEN
 62
     7
370
     0
100
AcDbPolyline
 90
        3
 70
   128
 43
0.0
 10
87.3345722138
 20
149.5839672339
 10
87.2778807831
 20
149.3970806327
 10
87.2544176643
 20
149.3447492978
  0
LINE
  5
144
330
1F
100
AcDbEntity
  8
0
  6
HIDDEN
 62
     7
370
     0
100
AcDbLine
 10
87.3537145673
 20
72.521352162
 30
0.0
 11
87.3537145673
 21
149.7783228109
 31
0.0
  0
LINE
  5
145
330
1F
100
AcDbEntity
  8
0
  6
HIDDEN
 62
     7
370
     0
100
AcDbLine
 10
60.7151436065
 20
79.6498374865
 30
0.0
 11
66.2595880383
 21
79.6498374865
 31
0.0
  0
LINE
  5
146
330
1F
100
AcDbEntity
  8
0
  6
HIDDEN
 62
     7
370
     0
100
AcDbLine
 10
66.2595880383
 20
142.6498374865
 30
0.0
 11
60.7151436065
 21
142.6498374865
 31
0.0
  0
ARC
  5
147
330
1F
100
AcDbEntity
  8
0
  6
HIDDEN
 62
     7
370
     0
100
AcDbCircle
 10
60.7151436065
 20
80.6498374865
 30
0.0
 40
1.000000000000016
100
AcDbArc
 50
210.0
 51
270.0
  0
ARC
  5
148
330
1F
100
AcDbEntity
  8
0
  6
HIDDEN
 62
     7
370
     0
100
AcDbCircle
 10
60.7151436065
 20
141.6498374865
 30
0.0
 40
1.000000000000002
100
AcDbArc
 50
90.0
 51
150.0
  0
ARC
  5
149
330
1F
100
AcDbEntity
  8
0
  6
HIDDEN
 62
     7
370
     0
100
AcDbCircle
 10
77.5076233195
 20
91.6498374865
 30
0.0
 40
12.0
100
AcDbArc
 50
273.4752677657
 51
324.3146652873
  0
ARC
  5
14A
330
1F
100
AcDbEntity
  8
0
  6
HIDDEN
 62
     7
370
     0
100
AcDbCircle
 10
77.5076233195
 20
130.6498374865
 30
0.0
 40
12.00000000000002
100
AcDbArc
 50
35.6853347127
 51
86.5206515763
  0
LINE
  5
14B
330
1F
100
AcDbEntity
  8
0
  6
HIDDEN
 62
     7
370
     0
100
AcDbLine
 10
59.8491182027
 20
142.1498374865
 30
0.0
 11
57.2510419913
 21
137.6498374865
 31
0.0
  0
LINE
  5
14C
330
1F
100
AcDbEntity
  8
0
  6
HIDDEN
 62
     7
370
     0
100
AcDbLine
 10
57.2510419913
 20
84.6498374865
 30
0.0
 11
59.8491182027
 21
80.1498374865
 31
0.0
  0
ARC
  5
14D
330
1F
100
AcDbEntity
  8
0
  6
HIDDEN
 62
     7
370
     0
100
AcDbCircle
 10
97.7044176643
 20
86.2748374865
 30
0.0
 40
2.0
100
AcDbArc
 50
234.3409123039
 51
0.0
  0
ARC
  5
14E
330
1F
100
AcDbEntity
  8
0
  6
HIDDEN
 62
     7
370
     0
100
AcDbCircle
 10
97.7044176643
 20
136.0248374865
 30
0.0
 40
2.000000000000003
100
AcDbArc
 50
0.0
 51
125.6590876961
  0
LINE
  5
14F
330
1F
100
AcDbEntity
  8
0
  6
HIDDEN
 62
     7
370
     0
100
AcDbLine
 10
52.4544176643
 20
84.6498374865
 30
0.0
 11
57.2510419913
 21
84.6498374865
 31
0.0
  0
LINE
  5
150
330
1F
100
AcDbEntity
  8
0
  6
HIDDEN
 62
     7
370
     0
100
AcDbLine
 10
57.2510419913
 20
137.6498374865
 30
0.0
 11
47.4544176643
 21
137.6498374865
 31
0.0
  0
LINE
  5
151
330
1F
100
AcDbEntity
  8
0
  6
HIDDEN
 62
     7
370
     0
100
AcDbLine
 10
87.2544176643
 20
84.6498374865
 30
0.0
 11
96.5384952827
 21
84.6498374865
 31
0.0
  0
LINE
  5
152
330
1F
100
AcDbEntity
  8
0
  6
HIDDEN
 62
     7
370
     0
100
AcDbLine
 10
96.5384952827
 20
137.6498374865
 30
0.0
 11
87.2544176643
 21
137.6498374865
 31
0.0
  0
LINE
  5
153
330
1F
100
AcDbEntity
  8
0
  6
HIDDEN
 62
     7
370
     0
100
AcDbLine
 10
91.2544176643
 20
156.8270003686
 30
0.0
 11
91.2544176643
 21
153.1272512651
 31
0.0
  0
LINE
  5
154
330
1F
100
AcDbEntity
  8
0
  6
HIDDEN
 62
     7
370
     0
100
AcDbLine
 10
101.2544176643
 20
153.1272512651
 30
0.0
 11
101.2544176643
 21
156.8256284193
 31
0.0
  0
LINE
  5
155
330
1F
100
AcDbEntity
  8
0
  6
HIDDEN
 62
     7
370
     0
100
AcDbLine
 10
111.5544176643
 20
98.1498374865
 30
0.0
 11
115.5544176643
 21
98.1498374865
 31
0.0
  0
LINE
  5
156
330
1F
100
AcDbEntity
  8
0
  6
HIDDEN
 62
     7
370
     0
100
AcDbLine
 10
115.5544176643
 20
124.1498374865
 30
0.0
 11
111.5544176643
 21
124.1498374865
 31
0.0
  0
LINE
  5
157
330
1F
100
AcDbEntity
  8
0
  6
HIDDEN
 62
     7
370
     0
100
AcDbLine
 10
99.7044176643
 20
99.1498374865
 30
0.0
 11
100.4544176643
 21
99.8998374865
 31
0.0
  0
LINE
  5
158
330
1F
100
AcDbEntity
  8
0
  6
HIDDEN
 62
     7
370
     0
100
AcDbLine
 10
100.4544176643
 20
122.3998374865
 30
0.0
 11
99.7044176643
 21
123.1498374865
 31
0.0
  0
LINE
  5
159
330
1F
100
AcDbEntity
  8
0
  6
HIDDEN
 62
     7
370
     0
100
AcDbLine
 10
100.4544176643
 20
99.8998374865
 30
0.0
 11
111.5544176643
 21
99.8998374865
 31
0.0
  0
LINE
  5
15A
330
1F
100
AcDbEntity
  8
0
  6
HIDDEN
 62
     7
370
     0
100
AcDbLine
 10
111.5544176643
 20
122.3998374865
 30
0.0
 11
100.4544176643
 21
122.3998374865
 31
0.0
  0
ARC
  5
15B
330
1F
100
AcDbEntity
  8
0
  6
HIDDEN
 62
     7
370
     0
100
AcDbCircle
 10
246.7544176643
 20
101.1131432384
 30
0.0
 40
0.4999999999999966
100
AcDbArc
 50
0.0
 51
80.0
  0
ARC
  5
15C
330
1F
100
AcDbEntity
  8
0
  6
HIDDEN
 62
     7
370
     0
100
AcDbCircle
 10
246.7544176643
 20
121.1865317345
 30
0.0
 40
0.4999999999999966
100
AcDbArc
 50
280.0
 51
0.0
  0
LINE
  5
15D
330
1F
100
AcDbEntity
  8
0
  6
HIDDEN
 62
     7
370
     0
100
AcDbLine
 10
92.2044176643
 20
161.1498374865
 30
0.0
 11
92.2044176643
 21
155.0498374865
 31
0.0
  0
LINE
  5
15E
330
1F
100
AcDbEntity
  8
0
  6
HIDDEN
 62
     7
370
     0
100
AcDbLine
 10
246.8412417531
 20
120.694127858
 30
0.0
 11
243.7544176643
 21
120.1498374865
 31
0.0
  0
LINE
  5
15F
330
1F
100
AcDbEntity
  8
0
  6
HIDDEN
 62
     7
370
     0
100
AcDbLine
 10
243.7544176643
 20
102.1498374865
 30
0.0
 11
246.8412417531
 21
101.6055471149
 31
0.0
  0
ARC
  5
160
330
1F
100
AcDbEntity
  8
0
  6
HIDDEN
 62
     7
370
     0
100
AcDbCircle
 10
198.1544176643
 20
102.2498374865
 30
0.0
 40
0.4000000000000057
100
AcDbArc
 50
180.0
 51
270.0
  0
ARC
  5
161
330
1F
100
AcDbEntity
  8
0
  6
HIDDEN
 62
     7
370
     0
100
AcDbCircle
 10
198.1544176643
 20
120.0498374865
 30
0.0
 40
0.4000000000000199
100
AcDbArc
 50
90.0
 51
180.0
  0
LINE
  5
162
330
1F
100
AcDbEntity
  8
0
  6
HIDDEN
 62
     7
370
     0
100
AcDbLine
 10
201.2544176643
 20
101.8498374865
 30
0.0
 11
207.3596436462
 21
101.8498374865
 31
0.0
  0
LINE
  5
163
330
1F
100
AcDbEntity
  8
0
  6
HIDDEN
 62
     7
370
     0
100
AcDbLine
 10
198.1544176643
 20
101.8498374865
 30
0.0
 11
198.2585926592
 21
101.8498374865
 31
0.0
  0
LINE
  5
164
330
1F
100
AcDbEntity
  8
0
  6
HIDDEN
 62
     7
370
     0
100
AcDbLine
 10
198.2549415172
 20
120.4498374865
 30
0.0
 11
198.1544176643
 21
120.4498374865
 31
0.0
  0
LINE
  5
165
330
1F
100
AcDbEntity
  8
0
  6
HIDDEN
 62
     7
370
     0
100
AcDbLine
 10
207.3596436462
 20
120.4498374865
 30
0.0
 11
201.2518085492
 21
120.4498374865
 31
0.0
  0
ARC
  5
166
330
1F
100
AcDbEntity
  8
0
  6
HIDDEN
 62
     7
370
     0
100
AcDbCircle
 10
207.3596436462
 20
102.2498374865
 30
0.0
 40
0.4000000000000057
100
AcDbArc
 50
270.0
 51
290.0
  0
ARC
  5
167
330
1F
100
AcDbEntity
  8
0
  6
HIDDEN
 62
     7
370
     0
100
AcDbCircle
 10
207.3596436462
 20
120.0498374865
 30
0.0
 40
0.4000000000000199
100
AcDbArc
 50
70.0
 51
90.0
  0
LINE
  5
168
330
1F
100
AcDbEntity
  8
0
  6
HIDDEN
 62
     7
370
     0
100
AcDbLine
 10
207.4964517035
 20
101.8739604381
 30
0.0
 11
208.2544176643
 21
102.1498374865
 31
0.0
  0
LINE
  5
169
330
1F
100
AcDbEntity
  8
0
  6
HIDDEN
 62
     7
370
     0
100
AcDbLine
 10
208.2544176643
 20
120.1498374865
 30
0.0
 11
207.4964517035
 21
120.4257145348
 31
0.0
  0
LINE
  5
16A
330
1F
100
AcDbEntity
  8
0
  6
HIDDEN
 62
     7
370
     0
100
AcDbLine
 10
208.2544176643
 20
102.1498374865
 30
0.0
 11
243.7544176643
 21
102.1498374865
 31
0.0
  0
LINE
  5
16B
330
1F
100
AcDbEntity
  8
0
  6
HIDDEN
 62
     7
370
     0
100
AcDbLine
 10
243.7544176643
 20
120.1498374865
 30
0.0
 11
208.2544176643
 21
120.1498374865
 31
0.0
  0
LINE
  5
16C
330
1F
100
AcDbEntity
  8
0
  6
HIDDEN
 62
     7
370
     0
100
AcDbLine
 10
78.6871302804
 20
73.5715579159
 30
0.0
 11
78.2544209939
 21
74.0497826332
 31
0.0
  0
LINE
  5
16D
330
1F
100
AcDbEntity
  8
0
  6
HIDDEN
 62
     7
370
     0
100
AcDbLine
 10
66.2544181223
 20
74.6967439899
 30
0.0
 11
65.7737908171
 21
74.2185192791
 31
0.0
  0
LINE
  5
16E
330
1F
100
AcDbEntity
  8
0
  6
HIDDEN
 62
     7
370
     0
100
AcDbLine
 10
65.7736724756
 20
148.0811497777
 30
0.0
 11
66.2544179397
 21
147.6028701058
 31
0.0
  0
LINE
  5
16F
330
1F
100
AcDbEntity
  8
0
  6
HIDDEN
 62
     7
370
     0
100
AcDbLine
 10
78.2544176664
 20
148.2498424932
 30
0.0
 11
78.6872393362
 21
148.7281221661
 31
0.0
  0
LINE
  5
170
330
1F
100
AcDbEntity
  8
0
  6
HIDDEN
 62
     7
370
     0
100
AcDbLine
 10
78.2544176643
 20
142.6239023804
 30
0.0
 11
78.2544176643
 21
148.3498463192
 31
0.0
  0
LINE
  5
171
330
1F
100
AcDbEntity
  8
0
  6
HIDDEN
 62
     7
370
     0
100
AcDbLine
 10
66.2544176643
 20
147.6028596066
 30
0.0
 11
66.2544176643
 21
142.6488532871
 31
0.0
  0
LINE
  5
172
330
1F
100
AcDbEntity
  8
0
  6
HIDDEN
 62
     7
370
     0
100
AcDbLine
 10
78.2544176643
 20
73.9496537907
 30
0.0
 11
78.2544176643
 21
79.6757725925
 31
0.0
  0
LINE
  5
173
330
1F
100
AcDbEntity
  8
0
  6
HIDDEN
 62
     7
370
     0
100
AcDbLine
 10
66.2544176643
 20
79.6508216858
 30
0.0
 11
66.2544176643
 21
74.6967824044
 31
0.0
  0
LINE
  5
174
330
1F
100
AcDbEntity
  8
0
  6
HIDDEN
 62
     7
370
     0
100
AcDbLine
 10
197.7544176643
 20
117.1498374865
 30
0.0
 11
197.2544176643
 21
116.6498374865
 31
0.0
  0
LINE
  5
175
330
1F
100
AcDbEntity
  8
0
  6
HIDDEN
 62
     7
370
     0
100
AcDbLine
 10
197.2544176643
 20
105.6498374865
 30
0.0
 11
197.7544176643
 21
105.1498374865
 31
0.0
  0
LINE
  5
176
330
1F
100
AcDbEntity
  8
0
  6
HIDDEN
 62
     7
370
     0
100
AcDbLine
 10
115.5544176643
 20
105.1498374865
 30
0.0
 11
177.4539873548
 21
105.1498374865
 31
0.0
  0
LINE
  5
177
330
1F
100
AcDbEntity
  8
0
  6
HIDDEN
 62
     7
370
     0
100
AcDbLine
 10
177.4539873548
 20
117.1498374865
 30
0.0
 11
115.5544176643
 21
117.1498374865
 31
0.0
  0
LINE
  5
178
330
1F
100
AcDbEntity
  8
0
  6
HIDDEN
 62
     7
370
     0
100
AcDbLine
 10
177.4539873548
 20
105.1498374865
 30
0.0
 11
177.7544176643
 21
105.6498374865
 31
0.0
  0
LINE
  5
179
330
1F
100
AcDbEntity
  8
0
  6
HIDDEN
 62
     7
370
     0
100
AcDbLine
 10
177.7544176643
 20
116.6498374865
 30
0.0
 11
177.4539873548
 21
117.1498374865
 31
0.0
  0
LINE
  5
17A
330
1F
100
AcDbEntity
  8
0
  6
HIDDEN
 62
     7
370
     0
100
AcDbLine
 10
177.7544176643
 20
105.6498374865
 30
0.0
 11
197.2544176643
 21
105.6498374865
 31
0.0
  0
LINE
  5
17B
330
1F
100
AcDbEntity
  8
0
  6
HIDDEN
 62
     7
370
     0
100
AcDbLine
 10
197.2544176643
 20
116.6498374865
 30
0.0
 11
177.7544176643
 21
116.6498374865
 31
0.0
  0
LINE
  5
17C
330
1F
100
AcDbEntity
  8
0
  6
HIDDEN
 62
     7
370
     0
100
AcDbLine
 10
152.7044176643
 20
133.1498374865
 30
0.0
 11
153.7044176643
 21
132.5724872173
 31
0.0
  0
LINE
  5
17D
330
1F
100
AcDbEntity
  8
0
  6
HIDDEN
 62
     7
370
     0
100
AcDbLine
 10
158.7044176643
 20
132.5724872173
 30
0.0
 11
159.7044176643
 21
133.1498374865
 31
0.0
  0
LINE
  5
17E
330
1F
100
AcDbEntity
  8
0
  6
HIDDEN
 62
     7
370
     0
100
AcDbLine
 10
159.7044176643
 20
89.1498374865
 30
0.0
 11
158.7044176643
 21
89.7271877556
 31
0.0
  0
LINE
  5
17F
330
1F
100
AcDbEntity
  8
0
  6
HIDDEN
 62
     7
370
     0
100
AcDbLine
 10
153.7044176643
 20
89.7271877556
 30
0.0
 11
152.7044176643
 21
89.1498374865
 31
0.0
  0
LINE
  5
180
330
1F
100
AcDbEntity
  8
0
  6
HIDDEN
 62
     7
370
     0
100
AcDbLine
 10
153.7044176643
 20
132.5724872173
 30
0.0
 11
153.7044176643
 21
121.1498374865
 31
0.0
  0
LINE
  5
181
330
1F
100
AcDbEntity
  8
0
  6
HIDDEN
 62
     7
370
     0
100
AcDbLine
 10
158.7044176643
 20
121.1498374865
 30
0.0
 11
158.7044176643
 21
132.5724872173
 31
0.0
  0
LINE
  5
182
330
1F
100
AcDbEntity
  8
0
  6
HIDDEN
 62
     7
370
     0
100
AcDbLine
 10
153.7044176643
 20
121.1498374865
 30
0.0
 11
156.2044176643
 21
119.6476859389
 31
0.0
  0
LINE
  5
183
330
1F
100
AcDbEntity
  8
0
  6
HIDDEN
 62
     7
370
     0
100
AcDbLine
 10
156.2044176643
 20
119.6476859389
 30
0.0
 11
158.7044176643
 21
121.1498374865
 31
0.0
  0
LINE
  5
184
330
1F
100
AcDbEntity
  8
0
  6
HIDDEN
 62
     7
370
     0
100
AcDbLine
 10
158.7044176643
 20
101.1498374865
 30
0.0
 11
156.2044176643
 21
102.651989034
 31
0.0
  0
LINE
  5
185
330
1F
100
AcDbEntity
  8
0
  6
HIDDEN
 62
     7
370
     0
100
AcDbLine
 10
156.2044176643
 20
102.651989034
 30
0.0
 11
153.7044176643
 21
101.1498374865
 31
0.0
  0
LINE
  5
186
330
1F
100
AcDbEntity
  8
0
  6
HIDDEN
 62
     7
370
     0
100
AcDbLine
 10
158.7044176643
 20
89.7271877556
 30
0.0
 11
158.7044176643
 21
101.1498374865
 31
0.0
  0
LINE
  5
187
330
1F
100
AcDbEntity
  8
0
  6
HIDDEN
 62
     7
370
     0
100
AcDbLine
 10
153.7044176643
 20
101.1498374865
 30
0.0
 11
153.7044176643
 21
89.7271877556
 31
0.0
  0
LINE
  5
188
330
1F
100
AcDbEntity
  8
0
  6
HIDDEN
 62
     7
370
     0
100
AcDbLine
 10
198.2544176643
 20
124.3247387081
 30
0.0
 11
198.2544176643
 21
120.4497531702
 31
0.0
  0
LINE
  5
189
330
1F
100
AcDbEntity
  8
0
  6
HIDDEN
 62
     7
370
     0
100
AcDbLine
 10
201.2544176643
 20
120.4494199548
 30
0.0
 11
201.2544176643
 21
124.2062179606
 31
0.0
  0
LINE
  5
18A
330
1F
100
AcDbEntity
  8
0
  6
HIDDEN
 62
     7
370
     0
100
AcDbLine
 10
198.2544176643
 20
101.8505083237
 30
0.0
 11
198.2544176643
 21
97.9734059885
 31
0.0
  0
LINE
  5
18B
330
1F
100
AcDbEntity
  8
0
  6
HIDDEN
 62
     7
370
     0
100
AcDbLine
 10
201.2544176643
 20
98.0831237113
 30
0.0
 11
201.2544176643
 21
101.8498374865
 31
0.0
  0
LINE
  5
18C
330
1F
100
AcDbEntity
  8
0
  6
HIDDEN
 62
     7
370
     0
100
AcDbLine
 10
198.3412696582
 20
95.477070219
 30
0.0
 11
247.2544176643
 21
97.3988730382
 31
0.0
  0
LINE
  5
18D
330
1F
100
AcDbEntity
  8
0
  6
HIDDEN
 62
     7
370
     0
100
AcDbLine
 10
247.2544176643
 20
99.9008019347
 30
0.0
 11
201.2457139799
 21
98.0931150437
 31
0.0
  0
LINE
  5
18E
330
1F
100
AcDbEntity
  8
0
  6
HIDDEN
 62
     7
370
     0
100
AcDbLine
 10
201.2544176643
 20
124.2062179606
 30
0.0
 11
247.2544176643
 21
122.3988730382
 31
0.0
  0
LINE
  5
18F
330
1F
100
AcDbEntity
  8
0
  6
HIDDEN
 62
     7
370
     0
100
AcDbLine
 10
247.2544176643
 20
124.9008019347
 30
0.0
 11
201.2513629676
 21
126.7082668764
 31
0.0
  0
LINE
  5
190
330
1F
100
AcDbEntity
  8
0
  6
HIDDEN
 62
     7
370
     0
100
AcDbLine
 10
198.2431201188
 20
97.9751428096
 30
0.0
 11
197.5416981669
 21
96.6966194178
 31
0.0
  0
LINE
  5
191
330
1F
100
AcDbEntity
  8
0
  6
HIDDEN
 62
     7
370
     0
100
AcDbLine
 10
197.5416981669
 20
96.6966194178
 30
0.0
 11
198.3412696582
 21
95.477070219
 31
0.0
  0
LINE
  5
192
330
1F
100
AcDbEntity
  8
0
  6
HIDDEN
 62
     7
370
     0
100
AcDbLine
 10
198.2587130539
 20
126.696685006
 30
0.0
 11
197.5416981669
 21
125.6030555552
 31
0.0
  0
LINE
  5
193
330
1F
100
AcDbEntity
  8
0
  6
HIDDEN
 62
     7
370
     0
100
AcDbLine
 10
197.5416981669
 20
125.6030555552
 30
0.0
 11
198.2431201188
 21
124.3245321634
 31
0.0
  0
LINE
  5
194
330
1F
100
AcDbEntity
  8
0
  6
HIDDEN
 62
     7
370
     0
100
AcDbLine
 10
198.2544176643
 20
126.6931631782
 30
0.0
 11
198.2544176643
 21
126.6498374865
 31
0.0
  0
LINE
  5
195
330
1F
100
AcDbEntity
  8
0
  6
HIDDEN
 62
     7
370
     0
100
AcDbLine
 10
91.2544176643
 20
158.7025487845
 30
0.0
 11
91.2544176643
 21
156.8270003686
 31
0.0
  0
LINE
  5
196
330
1F
100
AcDbEntity
  8
0
  6
HIDDEN
 62
     7
370
     0
100
AcDbLine
 10
101.2544176643
 20
156.8256284193
 30
0.0
 11
101.2544176643
 21
158.7011205017
 31
0.0
  0
LINE
  5
197
330
1F
100
AcDbEntity
  8
0
  6
HIDDEN
 62
     7
370
     0
100
AcDbLine
 10
247.1220406307
 20
125.1561959322
 30
0.0
 11
241.7881028268
 21
125.3657669193
 31
0.0
  0
LINE
  5
198
330
1F
100
AcDbEntity
  8
0
  6
HIDDEN
 62
     7
370
     0
100
AcDbLine
 10
241.6703233795
 20
122.3680798105
 30
0.0
 11
247.0042611834
 21
122.1585088235
 31
0.0
  0
LINE
  5
199
330
1F
100
AcDbEntity
  8
0
  6
HIDDEN
 62
     7
370
     0
100
AcDbLine
 10
241.7881028268
 20
125.3657669193
 30
0.0
 11
241.2688584008
 21
124.885782309
 31
0.0
  0
LINE
  5
19A
330
1F
100
AcDbEntity
  8
0
  6
HIDDEN
 62
     7
370
     0
100
AcDbLine
 10
241.1903387693
 20
122.8873242365
 30
0.0
 11
241.6703233795
 21
122.3680798105
 31
0.0
  0
LINE
  5
19B
330
1F
100
AcDbEntity
  8
0
  6
HIDDEN
 62
     7
370
     0
100
AcDbLine
 10
247.0042611834
 20
122.1585088235
 30
0.0
 11
247.1770954572
 21
122.4324345685
 31
0.0
  0
LINE
  5
19C
330
1F
100
AcDbEntity
  8
0
  6
HIDDEN
 62
     7
370
     0
100
AcDbLine
 10
247.2544176643
 20
124.9045885765
 30
0.0
 11
247.1220406307
 21
125.1561959322
 31
0.0
  0
LINE
  5
19D
330
1F
100
AcDbEntity
  8
0
  6
HIDDEN
 62
     7
370
     0
100
AcDbLine
 10
247.0631509071
 20
100.143479933
 30
0.0
 11
241.7292131032
 21
99.9339089459
 31
0.0
  0
LINE
  5
19E
330
1F
100
AcDbEntity
  8
0
  6
HIDDEN
 62
     7
370
     0
100
AcDbLine
 10
241.8469925504
 20
96.9362218372
 30
0.0
 11
247.1809303543
 21
97.1457928243
 31
0.0
  0
LINE
  5
19F
330
1F
100
AcDbEntity
  8
0
  6
HIDDEN
 62
     7
370
     0
100
AcDbLine
 10
247.1809303543
 20
97.1457928243
 30
0.0
 11
247.2544176643
 21
97.2854692261
 31
0.0
  0
LINE
  5
1A0
330
1F
100
AcDbEntity
  8
0
  6
HIDDEN
 62
     7
370
     0
100
AcDbLine
 10
247.2359851808
 20
99.8695541879
 30
0.0
 11
247.0631509071
 21
100.143479933
 31
0.0
  0
LINE
  5
1A1
330
1F
100
AcDbEntity
  8
0
  6
HIDDEN
 62
     7
370
     0
100
AcDbLine
 10
241.7292131032
 20
99.9339089459
 30
0.0
 11
241.2492284929
 21
99.4146645199
 31
0.0
  0
LINE
  5
1A2
330
1F
100
AcDbEntity
  8
0
  6
HIDDEN
 62
     7
370
     0
100
AcDbLine
 10
241.3277481244
 20
97.4162064474
 30
0.0
 11
241.8469925504
 21
96.9362218372
 31
0.0
  0
LINE
  5
1A3
330
1F
100
AcDbEntity
  8
0
  6
HIDDEN
 62
     7
370
     0
100
AcDbLine
 10
197.2544176643
 20
105.1498374865
 30
0.0
 11
197.7544176643
 21
105.6498374865
 31
0.0
  0
LINE
  5
1A4
330
1F
100
AcDbEntity
  8
0
  6
HIDDEN
 62
     7
370
     0
100
AcDbLine
 10
197.7544176643
 20
116.6498374865
 30
0.0
 11
197.2544176643
 21
117.1498374865
 31
0.0
  0
LINE
  5
1A5
330
1F
100
AcDbEntity
  8
0
  6
HIDDEN
 62
     7
370
     0
100
AcDbLine
 10
182.2544176643
 20
105.1498374865
 30
0.0
 11
197.2544176643
 21
105.1498374865
 31
0.0
  0
LINE
  5
1A6
330
1F
100
AcDbEntity
  8
0
  6
HIDDEN
 62
     7
370
     0
100
AcDbLine
 10
197.2544176643
 20
117.1498374865
 30
0.0
 11
182.2544176643
 21
117.1498374865
 31
0.0
  0
LINE
  5
1A7
330
1F
100
AcDbEntity
  8
0
  6
HIDDEN
 62
     7
370
     0
100
AcDbLine
 10
182.2544176643
 20
117.1498374865
 30
0.0
 11
181.7544176643
 21
116.6498374865
 31
0.0
  0
LINE
  5
1A8
330
1F
100
AcDbEntity
  8
0
  6
HIDDEN
 62
     7
370
     0
100
AcDbLine
 10
181.7544176643
 20
105.6498374865
 30
0.0
 11
182.2544176643
 21
105.1498374865
 31
0.0
  0
LINE
  5
1A9
330
1F
100
AcDbEntity
  8
0
  6
HIDDEN
 62
     7
370
     0
100
AcDbLine
 10
197.7544176643
 20
105.6498374865
 30
0.0
 11
201.7544176643
 21
105.6498374865
 31
0.0
  0
LINE
  5
1AA
330
1F
100
AcDbEntity
  8
0
  6
HIDDEN
 62
     7
370
     0
100
AcDbLine
 10
201.7544176643
 20
116.6498374865
 30
0.0
 11
197.7544176643
 21
116.6498374865
 31
0.0
  0
LINE
  5
1AB
330
1F
100
AcDbEntity
  8
0
  6
HIDDEN
 62
     7
370
     0
100
AcDbLine
 10
188.7544176642
 20
108.1498374865
 30
0.0
 11
194.7544176643
 21
108.1498374865
 31
0.0
  0
LINE
  5
1AC
330
1F
100
AcDbEntity
  8
0
  6
HIDDEN
 62
     7
370
     0
100
AcDbLine
 10
194.7544176643
 20
114.1498374865
 30
0.0
 11
188.7544176642
 21
114.1498374865
 31
0.0
  0
DIMENSION
  5
1AD
330
1F
100
AcDbEntity
  8
VERMASSUNG
100
AcDbDimension
  2
*D1
 10
32.4653304442
 20
61.1498374865
 30
0.0
 11
32.4653304442
 21
111.1498374865
 31
0.0
 70
   160
  1
HSK A %%c<>
 71
     2
 42
-1.0
  3
SLDDIMSTYLE0
100
AcDbAlignedDimension
 13
87.7544176643
 23
161.1498374865
 33
0.0
 14
87.7544176643
 24
61.1498374865
 34
0.0
 50
90.0
100
AcDbRotatedDimension
  0
DIMENSION
  5
1BA
330
1F
100
AcDbEntity
  8
VERMASSUNG
100
AcDbDimension
  2
*D2
 10
247.2544176643
 20
159.1498374865
 30
0.0
 11
222.5044176643
 21
159.1498374865
 31
0.0
 70
   160
 71
     2
 42
-1.0
  3
SLDDIMSTYLE1
100
AcDbAlignedDimension
 13
197.7544176643
 23
120.0498374865
 33
0.0
 14
247.2544176643
 24
125.8010565031
 34
0.0
100
AcDbRotatedDimension
  0
DIMENSION
  5
1C5
330
1F
100
AcDbEntity
  8
VERMASSUNG
100
AcDbDimension
  2
*D3
 10
257.3643073846
 20
120.1498374865
 30
0.0
 11
257.3643073846
 21
111.1498374865
 31
0.0
 70
   160
  1
%%c<> 
 71
     2
 42
-1.0
  3
SLDDIMSTYLE2
100
AcDbAlignedDimension
 13
243.7544176643
 23
102.1498374865
 33
0.0
 14
243.7544176643
 24
120.1498374865
 34
0.0
 50
90.0
100
AcDbRotatedDimension
  0
DIMENSION
  5
1D2
330
1F
100
AcDbEntity
  8
VERMASSUNG
100
AcDbDimension
  2
*D4
 10
263.3643073846
 20
127.6498374865
 30
0.0
 11
263.3643073846
 21
111.1498374865
 31
0.0
 70
   160
  1
%%c<>
 71
     2
 42
-1.0
  3
SLDDIMSTYLE3
100
AcDbAlignedDimension
 13
247.2544176643
 23
94.6498374865
 33
0.0
 14
247.2544176643
 24
127.6498374865
 34
0.0
 50
90.0
100
AcDbRotatedDimension
  0
DIMENSION
  5
1DE
330
1F
100
AcDbEntity
  8
VERMASSUNG
100
AcDbDimension
  2
*D5
 10
247.2544176643
 20
171.1498374865
 30
0.0
 11
167.2544176643
 21
171.1498374865
 31
0.0
 70
   160
 71
     2
 42
-1.0
  3
SLDDIMSTYLE0
100
AcDbAlignedDimension
 13
87.2544176643
 23
160.6498374865
 33
0.0
 14
247.2544176643
 24
125.8010565031
 34
0.0
100
AcDbRotatedDimension
  0
DIMENSION
  5
1E8
330
1F
100
AcDbEntity
  8
VERMASSUNG
100
AcDbDimension
  2
*D6
 10
247.2544176643
 20
165.1498374865
 30
0.0
 11
181.7294176643
 21
165.1498374865
 31
0.0
 70
   160
 71
     2
 42
-1.0
  3
SLDDIMSTYLE0
100
AcDbAlignedDimension
 13
116.2044176643
 23
159.1185773073
 33
0.0
 14
247.2544176643
 24
125.8010565031
 34
0.0
100
AcDbRotatedDimension
  0
DIMENSION
  5
1F2
330
1F
100
AcDbEntity
  8
VERMASSUNG
100
AcDbDimension
  2
*D7
 10
247.2544176643
 20
177.1498374865
 30
0.0
 11
142.3044176643
 21
177.1498374865
 31
0.0
 70
   160
 71
     2
 42
-1.0
  3
SLDDIMSTYLE0
100
AcDbAlignedDimension
 13
37.3544176643
 23
141.652507229
 33
0.0
 14
247.2544176643
 24
125.8010565031
 34
0.0
100
AcDbRotatedDimension
  0
DIMENSION
  5
1FC
330
1F
100
AcDbEntity
  8
VERMASSUNG
100
AcDbDimension
  2
*D8
 10
269.3643073846
 20
89.1498374865
 30
0.0
 11
269.3643073846
 21
111.1498374865
 31
0.0
 70
   160
  1
%%c<>
 71
     2
 42
-1.0
  3
SLDDIMSTYLE0
100
AcDbAlignedDimension
 13
165.2044176643
 23
133.1498374865
 33
0.0
 14
165.2044176643
 24
89.1498374865
 34
0.0
 50
90.0
100
AcDbRotatedDimension
  0
LINE
  5
207
330
1F
100
AcDbEntity
  8
VERMASSUNG
  6
CENTERX2
370
     0
100
AcDbLine
 10
35.1039483033
 20
111.1498374865
 30
0.0
 11
249.4501625135
 21
111.1498374865
 31
0.0
  0
OLE2FRAME
  5
208
330
1F
100
AcDbEntity
  8
0
100
AcDbOle2Frame
 70
     2
  3
Bitmap Image
 10
13.8511154363
 20
38.264191557
 30
0.0
 11
51.6290888628
 21
31.9806341108
 31
0.0
 71
     2
 72
     0
 73
     1
 90
    12928
310
80552BED0767C5B32B40DDAF6807D121434000000000000000006FFBDDFB85D0
310
4940DDAF6807D121434000000000000000006FFBDDFB85D04940416F4BD60AFB
310
3F4000000000000000002BED0767C5B32B40416F4BD60AFB3F40000000000000
310
0000000000000100000000010000010000000100000000000100000000320000
310
D0CF11E0A1B11AE1000000000000000000000000000000003E000300FEFF0900
310
0600000000000000000000000100000001000000000000000010000002000000
310
01000000FEFFFFFF0000000000000000FFFFFFFFFFFFFFFFFFFFFFFFFFFFFFFF
310
FFFFFFFFFFFFFFFFFFFFFFFFFFFFFFFFFFFFFFFFFFFFFFFFFFFFFFFFFFFFFFFF
310
FFFFFFFFFFFFFFFFFFFFFFFFFFFFFFFFFFFFFFFFFFFFFFFFFFFFFFFFFFFFFFFF
310
FFFFFFFFFFFFFFFFFFFFFFFFFFFFFFFFFFFFFFFFFFFFFFFFFFFFFFFFFFFFFFFF
310
FFFFFFFFFFFFFFFFFFFFFFFFFFFFFFFFFFFFFFFFFFFFFFFFFFFFFFFFFFFFFFFF
310
FFFFFFFFFFFFFFFFFFFFFFFFFFFFFFFFFFFFFFFFFFFFFFFFFFFFFFFFFFFFFFFF
310
FFFFFFFFFFFFFFFFFFFFFFFFFFFFFFFFFFFFFFFFFFFFFFFFFFFFFFFFFFFFFFFF
310
FFFFFFFFFFFFFFFFFFFFFFFFFFFFFFFFFFFFFFFFFFFFFFFFFFFFFFFFFFFFFFFF
310
FFFFFFFFFFFFFFFFFFFFFFFFFFFFFFFFFFFFFFFFFFFFFFFFFFFFFFFFFFFFFFFF
310
FFFFFFFFFFFFFFFFFFFFFFFFFFFFFFFFFFFFFFFFFFFFFFFFFFFFFFFFFFFFFFFF
310
FFFFFFFFFFFFFFFFFFFFFFFFFFFFFFFFFFFFFFFFFFFFFFFFFFFFFFFFFFFFFFFF
310
FFFFFFFFFFFFFFFFFFFFFFFFFFFFFFFFFFFFFFFFFFFFFFFFFFFFFFFFFFFFFFFF
310
FFFFFFFFFFFFFFFFFFFFFFFFFFFFFFFFFFFFFFFFFFFFFFFFFFFFFFFFFFFFFFFF
310
FFFFFFFFFFFFFFFFFFFFFFFFFFFFFFFFFFFFFFFFFFFFFFFFFFFFFFFFFFFFFFFF
310
FDFFFFFFFEFFFFFFFEFFFFFFFEFFFFFF05000000060000000700000008000000
310
090000000A0000000B0000000C0000000D0000000E0000000F00000010000000
310
11000000120000001300000014000000150000001600000017000000FEFFFFFF
310
FFFFFFFFFFFFFFFFFFFFFFFFFFFFFFFFFFFFFFFFFFFFFFFFFFFFFFFFFFFFFFFF
310
FFFFFFFFFFFFFFFFFFFFFFFFFFFFFFFFFFFFFFFFFFFFFFFFFFFFFFFFFFFFFFFF
310
FFFFFFFFFFFFFFFFFFFFFFFFFFFFFFFFFFFFFFFFFFFFFFFFFFFFFFFFFFFFFFFF
310
FFFFFFFFFFFFFFFFFFFFFFFFFFFFFFFFFFFFFFFFFFFFFFFFFFFFFFFFFFFFFFFF
310
FFFFFFFFFFFFFFFFFFFFFFFFFFFFFFFFFFFFFFFFFFFFFFFFFFFFFFFFFFFFFFFF
310
FFFFFFFFFFFFFFFFFFFFFFFFFFFFFFFFFFFFFFFFFFFFFFFFFFFFFFFFFFFFFFFF
310
FFFFFFFFFFFFFFFFFFFFFFFFFFFFFFFFFFFFFFFFFFFFFFFFFFFFFFFFFFFFFFFF
310
FFFFFFFFFFFFFFFFFFFFFFFFFFFFFFFFFFFFFFFFFFFFFFFFFFFFFFFFFFFFFFFF
310
FFFFFFFFFFFFFFFFFFFFFFFFFFFFFFFFFFFFFFFFFFFFFFFFFFFFFFFFFFFFFFFF
310
FFFFFFFFFFFFFFFFFFFFFFFFFFFFFFFFFFFFFFFFFFFFFFFFFFFFFFFFFFFFFFFF
310
FFFFFFFFFFFFFFFFFFFFFFFFFFFFFFFFFFFFFFFFFFFFFFFFFFFFFFFFFFFFFFFF
310
FFFFFFFFFFFFFFFFFFFFFFFFFFFFFFFFFFFFFFFFFFFFFFFFFFFFFFFFFFFFFFFF
310
FFFFFFFFFFFFFFFFFFFFFFFFFFFFFFFFFFFFFFFFFFFFFFFFFFFFFFFFFFFFFFFF
310
52006F006F007400200045006E00740072007900000000000000000000000000
310
0000000000000000000000000000000000000000000000000000000000000000
310
16000500FFFFFFFFFFFFFFFF020000000A00030000000000C000000000000046
310
000000000000000000000000806E1A899208CC0103000000C000000000000000
310
01004F006C006500000000000000000000000000000000000000000000000000
310
0000000000000000000000000000000000000000000000000000000000000000
310
0A000200FFFFFFFFFFFFFFFFFFFFFFFF00000000000000000000000000000000
310
0000000000000000000000000000000000000000000000001400000000000000
310
010043006F006D0070004F0062006A0000000000000000000000000000000000
310
0000000000000000000000000000000000000000000000000000000000000000
310
120002010100000003000000FFFFFFFF00000000000000000000000000000000
310
0000000000000000000000000000000000000000010000004D00000000000000
310
01004F006C006500310030004E00610074006900760065000000000000000000
310
0000000000000000000000000000000000000000000000000000000000000000
310
1A000200FFFFFFFFFFFFFFFFFFFFFFFF00000000000000000000000000000000
310
0000000000000000000000000000000000000000040000002426000000000000
310
FEFFFFFF02000000FEFFFFFFFFFFFFFFFFFFFFFFFFFFFFFFFFFFFFFFFFFFFFFF
310
FFFFFFFFFFFFFFFFFFFFFFFFFFFFFFFFFFFFFFFFFFFFFFFFFFFFFFFFFFFFFFFF
310
FFFFFFFFFFFFFFFFFFFFFFFFFFFFFFFFFFFFFFFFFFFFFFFFFFFFFFFFFFFFFFFF
310
FFFFFFFFFFFFFFFFFFFFFFFFFFFFFFFFFFFFFFFFFFFFFFFFFFFFFFFFFFFFFFFF
310
FFFFFFFFFFFFFFFFFFFFFFFFFFFFFFFFFFFFFFFFFFFFFFFFFFFFFFFFFFFFFFFF
310
FFFFFFFFFFFFFFFFFFFFFFFFFFFFFFFFFFFFFFFFFFFFFFFFFFFFFFFFFFFFFFFF
310
FFFFFFFFFFFFFFFFFFFFFFFFFFFFFFFFFFFFFFFFFFFFFFFFFFFFFFFFFFFFFFFF
310
FFFFFFFFFFFFFFFFFFFFFFFFFFFFFFFFFFFFFFFFFFFFFFFFFFFFFFFFFFFFFFFF
310
FFFFFFFFFFFFFFFFFFFFFFFFFFFFFFFFFFFFFFFFFFFFFFFFFFFFFFFFFFFFFFFF
310
FFFFFFFFFFFFFFFFFFFFFFFFFFFFFFFFFFFFFFFFFFFFFFFFFFFFFFFFFFFFFFFF
310
FFFFFFFFFFFFFFFFFFFFFFFFFFFFFFFFFFFFFFFFFFFFFFFFFFFFFFFFFFFFFFFF
310
FFFFFFFFFFFFFFFFFFFFFFFFFFFFFFFFFFFFFFFFFFFFFFFFFFFFFFFFFFFFFFFF
310
FFFFFFFFFFFFFFFFFFFFFFFFFFFFFFFFFFFFFFFFFFFFFFFFFFFFFFFFFFFFFFFF
310
FFFFFFFFFFFFFFFFFFFFFFFFFFFFFFFFFFFFFFFFFFFFFFFFFFFFFFFFFFFFFFFF
310
FFFFFFFFFFFFFFFFFFFFFFFFFFFFFFFFFFFFFFFFFFFFFFFFFFFFFFFFFFFFFFFF
310
FFFFFFFFFFFFFFFFFFFFFFFFFFFFFFFFFFFFFFFFFFFFFFFFFFFFFFFFFFFFFFFF
310
0100000200000000000000000000000000000000838383FF8000820083008305
310
50AD073600000000C802250000000000838383FF838383FF838383FF838383FF
310
0100FEFF030A0000FFFFFFFF0A00030000000000C00000000000004607000000
310
5042727573680007000000504272757368000700000050427275736800F439B2
310
710000000000000000000000008383FF838383FF838383FF838383FF838383FF
310
838383FF838383FF838383FF838383FF838383FF838383FF838383FF838383FF
310
838383FF838383FF838383FF838383FF838383FF838383FF838383FF838383FF
310
838383FF838383FF838383FF838383FF838383FF838383FF838383FF838383FF
310
838383FF838383FF838383FF838383FF838383FF838383FF838383FF838383FF
310
838383FF838383FF838383FF838383FF838383FF838383FF838383FF838383FF
310
838383FF838383FF838383FF838383FF838383FF838383FF838383FF838383FF
310
838383FF838383FF838383FF838383FF838383FF838383FF838383FF838383FF
310
838383FF838383FF838383FF838383FF838383FF838383FF838383FF838383FF
310
838383FF838383FF838383FF838383FF838383FF838383FF838383FF838383FF
310
838383FF838383FF838383FF838383FF838383FF838383FF838383FF838383FF
310
838383FF838383FF838383FF838383FF838383FF838383FF838383FF838383FF
310
20260000424D0E260000000000003E00000028000000B40200006E0000000100
310
01000000000000000000130B0000130B00000200000002000000000000FFFFFF
310
FFFFFFFFFFFFFFFFFFFFFFFFFFFFFFFFFFFFFFFFFFFFFFFFFFFFFFFFFFFFFFFF
310
FFFFFFFFFFFFFFFFFFFFFFFFFFFFFFFFFFFFFFFFFFFFFFFFFFFFFFFFFFFFFFFF
310
FFFFFFFFFFFFFFFFFFFFFFFFFFFFFFFFFFFFFFFFFFFFFFFFF000FFFFFFFFFFFF
310
FFFFFFFFFFFFFFFFFFFFFFFFFFFFFFFFFFFFFFFFFFFFFFFFFFFFFFFFFFFFFFFF
310
FFFFFFFFFFFFFFFFFFFFFFFFFFFFFFFFFFFFFFFFFFFFFFFFFFFFFFFFFFFFFFFF
310
FFFFFFFFFFFFFFFFFFFFFFFFFFFFFFFFF000FFFFFFFFFFFFFFFFFFFFFFFFFFFF
310
FFFFFFFFFFFFFFFFFFFFFFFFFFFFFFFFFFFFFFFFFFFFFFFFFFFFFFFFFFFFFFFF
310
FFFFFFFFFFFFFFFFFFFFFFFFFFFFFFFFFFFFFFFFFFFFFFFFFFFFFFFFFFFFFFFF
310
FFFFFFFFFFFFFFFFF000FFFFFFFFFFFFFFFFFFFFFFFFFFFFFFFFFFFFFFFFFFFF
310
FFFFFFFFFFFFFFFFFFFFFFFFFFFFFFFFFFFFFFFFFFFFFFFFFFFFFFFFFFFFFFFF
310
FFFFFFFFFFFFFFFFFFFFFFFFFFFFFFFFFFFFFFFFFFFFFFFFFFFFFFFFFFFFFFFF
310
F000FFFFFFFFFFFFFFFFFFFFFFFFFFFFFFFFFFFFFFFFFFFFFFFFFFFFFFFFFFFF
310
FFFFFFFFFFFFFFFFFFFFFFFFFFFFFFFFFFFFFFFFFFFFFFFFFFFFFFFFFFFFFFFF
310
FFFFFFFFFFFFFFFFFFFFFFFFFFFFFFFFFFFFFFFFFFFFFFFFF000FFFFFFFFFFFF
310
FFFFFFFFFFFFFFFFFFFFFFFFFFFFFFFFFFFFFFFFFFFFFFFFFFFFFFFFFFFFFFFF
310
FFFFFFFFFFFFFFFFFFFFFFFFFFFFFFFFFFFFFFFFFFFFFFFFFFFFFFFFFFFFFFFF
310
FFFFFFFFFFFFFFFFFFFFFFFFFFFFFFFFF000FFFFFFFFFFFFFFFFFFFFFFFFFFFF
310
FFFFFFFFFFFFFFFFFFFFFFFFFFFFFFFFFFFFFFFFFFFFFFFFFFFFFFFFFFFFFFFF
310
FFFFFFFFFFFFFFFFFFFFFFFFFFFFFFFFFFFFFFFFFFFFFFFFFFFFFFFFFFFFFFFF
310
FFFFFFFFFFFFFFFFF000FFFFFFFFFFFFFFFFFFFFFFFFFFFFFFFFFFFFFFFFFFFF
310
FFFFFFFFFFFFFFFFFFFFFFFFFFFFFFFFFFFFFFFFFFFFFFFFFFFFFFFFFFFFFFFF
310
FFFFFFFFFFFFFFFFFFFFFFFFFFFFFFFFFFFFFFFFFFFFFFFFFFFFFFFFFFFFFFFF
310
F000FFFFFFFFFFFFFFFFFFFFFFFFFFFFFFFFFFFFFFFFFFFFFFFFFFFFFFFFFFFF
310
FFFFFFFFFFFFFFFFFFFFFFFFFFFFFFFFFFFFFFFFFFFFFFFFFFFFFFFFFFFFFFFF
310
FFFFFFFFFFFFFFFFFFFFFFFFFFFFFFFFFFFFFFFFFFFFFFFFF000FFFFFFFFFFFF
310
FFFFFFFFFFFFFFFFFFFFFFFFFFFFFFFFFFFFFFFFFFFFFFFFFFFFFFFFFFFFFFFF
310
FFFFFFFFFFFFFFFFFFFFFFFFFFFFFFFFFFFFFFFFFFFFFFFFFFFFFFFFFFFFFFFF
310
FFFFFFFFFFFFFFFFFFFFFFFFFFFFFFFFF000FFFFFFFFFFFFFFFFFFFFFFFFFFFF
310
FFFFFFFFFFFFFFFFFFFFFFFFFFFFFFFFFFFFFFFFFFFFFFFFFFFFFFFFFFFFFFFF
310
FFFFFFFFFFFFFFFFFFFFFFFFFFFFFFFFFFFFFFFFFFFFFFFFFFFFFFFFFFFFFFFF
310
FFFFFFFFFFFFFFFFF000FFFFFFFFFFFFFFFFFFFFFFFFFFFFFFFFFFFFFFFFFFFF
310
FFFFFFFFFFFFFFFFFFFFFFFFFFFFFFFFFFFFFFFFFFFFFFFFFFFFFFFFFFFFFFFF
310
FFFFFFFFFFFFFFFFFFFFFFFFFFFFFFFFFFFFFFFFFFFFFFFFFFFFFFFFFFFFFFFF
310
F000FFFFFFFFFFFFFFFFFFFFFFFFFFFFFFFFFFFFFFFFFFFFFFFFFFFFFFFFFFFF
310
FFFFFFFFFFFFFFFFFFFFFFFFFFFFFFFFFFFFFFFFFFFFFFFFFFFFFFFFFFFFFFFF
310
FFFFFFFFFFFFFFFFFFFFFFFFFFFFFFFFFFFFFFFFFFFFFFFFF000FFFFFFFFFFFF
310
FFFFFFFFFFFFFFFFFFFFFFFFFFFFFFFFFFFFFFFFFFFFFFFFFFFFFFFFFFFFFFFF
310
FFFFFFFFFFFFFFFFFFFFFFFFFFFFFFFFFFFFFFFFFFFFFFFFFFFFFFFFFFFFFFFF
310
FFFFFFFFFFFFFFFFFFFFFFFFFFFFFFFFF000FFFFFFFFFFFFFFFFFFFFFFFFFFFF
310
FFFFFFFFFFFFFFFFFFFFFFFFFFFFFFFFFFFFFFFFFFFFFFFFFFFFFFFFFFFFFFFF
310
FFFFFFFFFFFFFFFFFFFFFFFFFFFFFFFFFFFFFFFFFFFFFFFFFFFFFFFFFFFFFFFF
310
FFFFFFFFFFFFFFFFF000FFFFFFFFFFFFFFFFFFFFFFFFFFFFFFFFFFFFFFFFFFFF
310
FFFFFFFFFFFFFFFFFFFFFFFFFFFFFFFFFFFFFFFFFFFFFFFFFFFFFFFFFFFFFFFF
310
FFFFFFFFFFFFFFFFFFFFFFFFFFFFFFFFFFFFFFFFFFFFFFFFFFFFFFFFFFFFFFFF
310
F000FFFFFFFFFFFFFFFFFFFFFFFFFFFFFFFFFFFFFFFFFFFFFFFFFFFFFFFFFFFF
310
FFFFFFFFFFFFFFFFFFFFFFFFFFFFFFFFFFFFFFFFFFFFFFFFFFFFFFFFFFFFFFFF
310
FFFFFFFFFFFFFFFFFFFFFFFFFFFFFFFFFFFFFFFFFFFFFFFFF000FFFFFFFFFFFF
310
FFFFFFFFFFFFFFFFFFFFFFFFFFFFFFFFFFFFFFFFFFFFFFFFFFFFFFFFFFFFFFFF
310
FFFFFFFFFFFFFFFFFFFFFFFFFFFFFFFFFFFFFFFFFFFFFFFFFFFFFFFFFFFFFFFF
310
FFFFFFFFFFFFFFFFFFFFFFFFFFFFFFFFF000FFFFFFFFFFFFFFFFFFFFFFFFFFFF
310
FFFFFFFFFFFFFFFFFFFFFFFFFFFFFFFFFFFFFFFFFFFFFFFFFFFFFFFFFFFFFFFF
310
FFFFFFFFFFFFFFFFFFFFFFFFFFFFFFFFFFFFFFFFFFFFFFFFFFFFFFFFFFFFFFFF
310
FFFFFFFFFFFFFFFFF000FFFFF80003FFFFFFFFFFFFFFFFFFFFFFFFFFFFFFFFFF
310
FFFFF00007FFFFFFFFFF00007FFFFFF800000000000000007FFFFFFFFFFFFFFF
310
FFFFFFFC001FFFFFFFFFFFFFFC001FFFFFFFFFFFFFFFFFFFFFFFFFFE0007FFFF
310
F000FFFF8000007FFFFFFFF8000FFFFFC0007FFFFF80007FFFFF0000007FFFFF
310
FFF8000007FFFFF800000000000000007FFFFFF0001FFFFFFFFFFFC00001FFFF
310
FFFFFFFFC00001FFFFFFFF000000000003FFFFE000007FFFF000FFFE0000000F
310
FFFFFFF0000FFFFF80007FFFFF80007FFFFC0000001FFFFFFFC0000001FFFFF8
310
00000000000000007FFFFFF0001FFFFFFFFFFE0000003FFFFFFFFFFE0000003F
310
FFFFFF000000000003FFFF0000000FFFF000FFF800000003FFFFFFF00007FFFF
310
80007FFFFF80007FFFF000000007FFFFFF000000003FFFF80000000000000000
310
7FFFFFF0001FFFFFFFFFF80000000FFFFFFFFFF80000000FFFFFFF0000000000
310
03FFFC00000003FFF000FFE000000000FFFFFFF00007FFFF80003FFFFF80007F
310
FFC000000001FFFFFC000000001FFFF800000000000000007FFFFFF0001FFFFF
310
FFFFE000000003FFFFFFFFE000000003FFFFFF000000000003FFF000000000FF
310
F000FF80000000007FFFFFF00007FFFF80003FFFFF80007FFF8000000000FFFF
310
F80000000007FFF800000000000000007FFFFFF0001FFFFFFFFFC000000001FF
310
FFFFFFC000000001FFFFFF000000000003FFC0000000007FF000FF0000000000
310
3FFFFFE00007FFFF00003FFFFF80007FFE00000000003FFFF00000000003FFF8
310
00000000000000007FFFFFF0001FFFFFFFFF8000000000FFFFFFFF8000000000
310
FFFFFF000000000003FF80000000003FF000FE00000000001FFFFFE00003FFFF
310
00003FFFFF80007FFC00000000001FFFE00000000001FFF8000001FFFE000000
310
7FFFFFF0001FFFFFFFFE00000000003FFFFFFE00000000003FFFFF0000000000
310
03FF00000000001FF000FC00000000000FFFFFE00003FFFF00001FFFFF80007F
310
F800000000001FFFC00000000000FFF8000001FFFE0000007FFFFFF0001FFFFF
310
FFFC00000000001FFFFFFC00000000001FFFFF000000000003FE00000000000F
310
F000F8000000000007FFFFE00003FFFF00001FFFFF80007FF800000000000FFF
310
800000000000FFF8000001FFFE0000007FFFFFF0001FFFFFFFF800000000000F
310
FFFFF800000000000FFFFF000000000003FC000000000007F000F80000000000
310
03FFFFC00003FFFE00001FFFFF80007FF0000000000007FF0000000000007FF8
310
000001FFFE0000007FFFFFF0001FFFFFFFF0000000000007FFFFF00000000000
310
07FFFF000000000003F8000000000003F000F0000000000003FFFFC00001FFFE
310
00001FFFFF80007FE0000000000007FE0000000000003FF8000001FFFE000000
310
7FFFFFF0001FFFFFFFF0000000000007FFFFF0000000000007FFFF0000000000
310
03F800001F800003F000E00001FFF00001FFFFC00001FFFE00000FFFFF80007F
310
E00001FFE00003FE00001FFF00003FF8000001FFFE0000007FFFFFF0001FFFFF
310
FFE000003E000003FFFFE000003E000003FFFF000000000003F00001FFF80001
310
F000E00007FFFC0001FFFFC00001FFFE00000FFFFF80007FC0000FFFFC0003FC
310
0000FFFFC0001FF8000001FFFE0000007FFFFFF0001FFFFFFFC00003FFE00001
310
FFFFC00003FFE00001FFFF0001FFFFFFFFF00007FFFE0001F000E0000FFFFF00
310
00FFFF800001FFFC00000FFFFF80007FC0001FFFFE0001FC0001FFFFE0001FF8
310
000001FFFE0000007FFFFFF0001FFFFFFF80000FFFF80000FFFF80000FFFF800
310
00FFFF0003FFFFFFFFE0000FFFFF8000F000C0003FFFFF8000FFFF800000FFFC
310
000007FFFF80007F80003FFFFF0001FC0003FFFFF0001FF8000001FFFE000000
310
7FFFFFF0001FFFFFFF80003FFFFE0000FFFF80003FFFFE0000FFFF0003FFFFFF
310
FFE0003FFFFF8000F000C0003FFFFF8000FFFF800000FFFC000007FFFF80007F
310
80007FFFFF8001F80007FFFFF8000FF8000001FFFE0000007FFFFFF0001FFFFF
310
FF00007FFFFF00007FFF00007FFFFF00007FFF0003FFFFFFFFE0003FFFFFC000
310
F000C0007FFFFFC000FFFF000000FFFC000007FFFF80007F8000FFFFFF8000F8
310
000FFFFFF8000FF8000001FFFE0000007FFFFFF0001FFFFFFF0000FFFFFF8000
310
7FFF0000FFFFFF80007FFF0003FFFFFFFFC0007FFFFFC00070008000FFFFFFC0
310
00FFFF000000FFF8000007FFFF80007F8000FFFFFF8000F8000FFFFFF8000FF8
310
000001FFFE0000007FFFFFF0001FFFFFFE0001FFFFFFC0003FFE0001FFFFFFC0
310
003FFF0003FFFFFFFFC0007FFFFFE00070008000FFFFFFC0007FFF0000007FF8
310
000003FFFF80007F0001FFFFFF8000F8000FFFFFF8000FF8000001FFFE000000
310
7FFFFFF0001FFFFFFE0001FFFFFFC0003FFE0001FFFFFFC0003FFF0003FFFFFF
310
FFC000FFFFFFE00070008000FFFFFFC0007FFF0000007FF8000003FFFF80007F
310
0001FFFFFF8000F8001FFFFFF8000FF8000001FFFE0000007FFFFFF0001FFFFF
310
FE0003FFFFFFE0003FFE0003FFFFFFE0003FFF0003FFFFFFFFC000FFFFFFE000
310
70008000FFFFFFC0007FFE0000007FF8000003FFFF80007F0001FFFFFF8000F0
310
001FFFFFF8000FF8000001FFFE0000007FFFFFF0001FFFFFFC0003FFFFFFE000
310
1FFC0003FFFFFFE0001FFF0003FFFFFFFFC000FFFFFFC00070008000FFFFFF80
310
007FFE0000007FF0000003FFFF80007F0001FFFFFF0000F0001FFFFFF8000FF8
310
000001FFFE0000007FFFFFF0001FFFFFFC0007FFFFFFF0001FFC0007FFFFFFF0
310
001FFF0003FFFFFFFFC000FFFFFFC00070008001FFFFFF0000FFFE0000003FF0
310
000001FFFF80007F0001FFFFFF0000F8001FFFFFF0000FF8000001FFFE000000
310
7FFFFFF0001FFFFFFC0007FFFFFFF0001FFC0007FFFFFFF0001FFF0003FFFFFF
310
FFC001FFFFFF80007000FFFFFFFFFE0000FFFE0008003FF0008001FFFF80007F
310
FFFFFFFFFC0000FFFFFFFFFFE0000FF8000001FFFE0000007FFFFFF0001FFFFF
310
F8000FFFFFFFF8000FF8000FFFFFFFF8000FFF0003FFFFFFFFFFFFFFFFFF0000
310
7000FFFFFFFFFC0000FFFC0008003FF0008001FFFF80007FFFFFFFFFF80001FF
310
FFFFFFFF80000FF8000001FFFE0000007FFFFFF0001FFFFFF8000FFFFFFFF800
310
0FF8000FFFFFFFF8000FFF0003FFFFFFFFFFFFFFFFFE0000F000FFFFFFFFE000
310
00FFFC000C003FE000C001FFFF80007FFFFFFFFFC00001FFFFFFFFFE00001FF8
310
000001FFFE0000007FFFFFF0001FFFFFF8000FFFFFFFF8000FF8000FFFFFFFF8
310
000FFF0003FFFFFFFFFFFFFFFFF00000F000FFFFFFFE000001FFFC000C001FE0
310
00C000FFFF80007FFFFFFFFE000001FFFFFFFFE000001FF80FFFFFFFFFFFFFC0
310
7FFFFFF0001FFFFFF8000FFFFFFFF8000FF8000FFFFFFFF8000FFF0003FFFFFF
310
FFFFFFFFFF800000F000FFFFFFC0000001FFFC001C001FE001C000FFFF80007F
310
FFFFFF80000003FFFFFFF80000001FF80FFFFFFFFFFFFFC07FFFFFF0001FFFFF
310
F8001FFFFFFFFC000FF8001FFFFFFFFC000FFF0003FFFFFFFFFFFFFFF0000001
310
F000FFFFF800000001FFF8001C001FE001C000FFFF80007FFFFFF800000003FF
310
FFFF800000003FF80FFFFFFFFFFFFFC07FFFFFF0001FFFFFF8001FFFFFFFFC00
310
0FF8001FFFFFFFFC000FFF0003FFFFFFFFFFFFFE00000001F000FFFFC0000000
310
03FFF8001E001FC001E000FFFF80007FFFFF8000000007FFFFFC000000003FF8
310
0FFFFFFFFFFFFFC07FFFFFF0001FFFFFF8001FFFFFFFFC000FF8001FFFFFFFFC
310
000FFF0003FFFFFFFFFFFFE000000003F000FFFE0000000007FFF8001E000FC0
310
01E0007FFF80007FFFFE0000000007FFFFE0000000007FF80FFFFFFFFFFFFFC0
310
7FFFFFF0001FFFFFF0001FFFFFFFFC0007F0001FFFFFFFFC0007FF0003FFFFFF
310
FFFFFF0000000003F000FFF80000000007FFF8001E000FC003E0007FFF80007F
310
FFF0000000000FFFFF8000000000FFF80FFFFFFFFFFFFFC07FFFFFF0001FFFFF
310
F0001FFFFFFFFC0007F0001FFFFFFFFC0007FF0003FFFFFFFFFFFC0000000007
310
F000FFE0000000000FFFF0003E000FC003E0007FFF80007FFFC0000000001FFF
310
FE0000000001FFF80FFFFFFFFFFFFFC07FFFFFF0001FFFFFF0001FFFFFFFFC00
310
07F0001FFFFFFFFC0007FF0003FFFFFFFFFFF0000000000FF000FFC000000000
310
1FFFF0003F000F8003F0003FFF80007FFF80000000003FFFF80000000003FFF8
310
0FFFFFFFFFFFFFC07FFFFFF0001FFFFFF0001FFFFFFFFC0007F0001FFFFFFFFC
310
0007FF0003FFFFFFFFFFE0000000001FF000FF00000000007FFFF0003F000780
310
03F0003FFF80007FFF00000000007FFFF00000000007FFF80FFFFFFFFFFFFFC0
310
7FFFFFF0001FFFFFF0001FFFFFFFFC0007F0001FFFFFFFFC0007FF0003FFFFFF
310
FFFF80000000007FF000FE0000000000FFFFE0003F00078007F0003FFF80007F
310
FE0000000001FFFFE0000000001FFFF80FFFFFFFFFFFFFC07FFFFFF0001FFFFF
310
F0001FFFFFFFFC0007F0001FFFFFFFFC0007FF0003FFFFFFFFFF0000000000FF
310
F000FC0000000003FFFFE0007F00078007F0003FFF80007FFC0000000007FFFF
310
C0000000007FFFF80FFFFFFFFFFFFFC07FFFFFF0001FFFFFF8001FFFFFFFFC00
310
0FF8001FFFFFFFFC000FFF0003FFFFFFFFFE0000000003FFF000FC000000000F
310
FFFFE0007F80070007F8001FFF80007FF8000000001FFFFF8000000001FFFFF8
310
0FFFFFFFFFFFFFC07FFFFFF0001FFFFFF8001FFFFFFFFC000FF8001FFFFFFFFC
310
000FFF0003FFFFFFFFFC000000000FFFF000F8000000007FFFFFE0007F800700
310
07F8001FFF80007FF000000000FFFFFF800000000FFFFFF80FFFFFFFFFFFFFC0
310
7FFFFFF0001FFFFFF8000FFFFFFFF8000FF8000FFFFFFFF8000FFF0003FFFFFF
310
FFFC000000007FFFF000F800000007FFFFFFC0007F8003000FF8001FFF80007F
310
F000000007FFFFFF000000007FFFFFF80FFFFFFFFFFFFFC07FFFFFF0001FFFFF
310
F8000FFFFFFFF8000FF8000FFFFFFFF8000FFF0003FFFFFFFFF80000000FFFFF
310
F000F0000000FFFFFFFFC000FF8003000FF8001FFF80007FE0000000FFFFFFFF
310
0000000FFFFFFFF8000001FFFE0000007FFFFFF0001FFFFFF8000FFFFFFFF800
310
0FF8000FFFFFFFF8000FFF0003FFFFFFFFF8000000FFFFFFF000F000000FFFFF
310
FFFFC000FFC002000FF8000FFF80007FE000001FFFFFFFFE000001FFFFFFFFF8
310
000001FFFE0000007FFFFFF0001FFFFFF8000FFFFFFFF8000FF8000FFFFFFFF8
310
000FFF0003FFFFFFFFF000001FFFFFFFF000E00000FFFFFFFFFFC000FFC00200
310
0FFC000FFF80007FE00001FFFFFFFFFE00001FFFFFFFFFF8000001FFFE000000
310
7FFFFFF0001FFFFFFC000FFFFFFFF8001FFC000FFFFFFFF8001FFF0003FFFFFF
310
FFF00001FFFFFFFFF000E00007FFFFFFFFFF8000FFC000001FFC000FFF80007F
310
C0000FFFFFFFFFFE0000FFFFFFFFFFF8000001FFFE0000007FFFFFF0001FFFFF
310
FC0007FFFFFFF0001FFC0007FFFFFFF0001FFF0003FFFFFFFFF00007FFFFFFFF
310
F000E0001FFFFFFFFFFF8000FFC000001FFC000FFF80007FC0003FFFFFFFFFFE
310
0001FFFFFFFFFFF8000001FFFE0000007FFFFFF0001FFFFFFC0007FFFFFFF000
310
1FFC0007FFFFFFF0001FFF0003FFFFFFFFF0001FFFFFFFFFF000E0003FFFFF00
310
03FF8001FFE000001FFC0007FF80007FC0007FFFFF0007FC0003FFFFF0003FF8
310
000001FFFE0000007FFFFFF0001FFFFFFC0003FFFFFFE0001FFC0003FFFFFFE0
310
001FFF0003FFFFFFFFF0003FFFFFFFFFF000E0003FFFFF0001FF8001FFE00000
310
1FFE0007FF80007FC0007FFFFE0003FC0007FFFFE0003FF8000001FFFE000000
310
7FFFFFF0001FFFFFFE0003FFFFFFE0003FFE0003FFFFFFE0003FFF0003FFFFFF
310
FFF0003FFFFF8001F000E0003FFFFF0001FF0001FFE000001FFE0007FF80007F
310
C0007FFFFE0003FC0007FFFFE0003FF8000001FFFE0000007FFFFFF0001FFFFF
310
FE0001FFFFFFC0003FFE0001FFFFFFC0003FFF0003FFFFFFFFF0003FFFFF0001
310
F000E0003FFFFF0003FF0001FFE000003FFE0007FF80007FC0007FFFFE0003FC
310
0007FFFFE0003FF8000001FFFE0000007FFFFFF0001FFFFFFF0001FFFFFFC000
310
7FFF0001FFFFFFC0007FFF0003FFFFFFFFF0003FFFFF0001F000E0003FFFFE00
310
03FF0003FFF000003FFE0003FF80007FC0007FFFFC0003FE0007FFFFE0003FF8
310
000001FFFE0000007FFFFFF0001FFFFFFF0000FFFFFF80007FFF0000FFFFFF80
310
007FFF0003FFFFFFFFF0003FFFFF0001F000E0003FFFFE0003FF0003FFF00000
310
3FFF0003FF80007FC0007FFFFC0007FE0007FFFFC0003FF8000001FFFE000000
310
7FFFFFF0001FFFFFFF80007FFFFF0000FFFF80007FFFFF0000FFFF0003FFFFFF
310
FFF0003FFFFF0003F000E0003FFFFC0003FE0003FFF000003FFF0003FF80007F
310
E0003FFFF80007FE0003FFFFC0007FF8000001FFFE0000007FFFFFF0001FFFFF
310
FF80003FFFFE0000FFFF80003FFFFE0000FFFF0003FFFFFFFFF0001FFFFE0003
310
F000F0001FFFF80003FE0003FFF000007FFF0001FF80007FE0003FFFF00007FE
310
0001FFFF80007FF8000001FFFE0000007FFFFFF0001FFFFFFFC0000FFFF80001
310
FFFFC0000FFFF80001FFFF0003FFFFFFFFF0001FFFFC0003F000F0000FFFF000
310
07FE0007FFF800007FFF0001FF80007FE0001FFFE00007FF0000FFFE00007FF8
310
000001FFFE0000007FFFFFF0001FFFFFFFC00003FFE00001FFFFC00003FFE000
310
01FFFF0003FFFFFFFFF8000FFFF80003F000F00003FFC00007FC0007FFF80000
310
7FFF8001FF80007FF00007FF80000FFF00007FF80000FFF8000001FFFE000000
310
7F80000000000001FFE000003E000003FFFFE000003E000003FFFF0003FFFFFF
310
FFF80003FFE00007F000F800000000000FFC0007FFF800007FFF8001FF80007F
310
F000000000000FFF000000000000FFF8000001FFFE0000007F80000000000001
310
FFF0000000000007FFFFF0000000000007FFFF0003FFFFFFFFFC00007E000007
310
F000F800000000000FFC0007FFF80000FFFF8000FF80007FF800000000001FFF
310
800000000001FFF8000001FFFE0000007F80000000000001FFF800000000000F
310
FFFFF800000000000FFFFF0003FFFFFFFFFC00000000000FF000FC0000000000
310
1FFC0007FFFC0000FFFF8000FF80007FF800000000003FFFC00000000001FFF8
310
000001FFFE0000007F80000000000001FFF800000000000FFFFFF80000000000
310
0FFFFF0003FFFFFFFFFE00000000001FF000FE00000000003FF8000FFFFC0000
310
FFFF8000FF80007FFC00000000003FFFC00000000003FFF8000001FFFE000000
310
7F80000000000001FFFC00000000001FFFFFFC00000000001FFFFF0003FFFFFF
310
FFFF00000000001FF000FF00000000003FF8000FFFFC0000FFFFC000FF80007F
310
FE00000000007FFFE00000000007FFF8000001FFFE0000007F80000000000001
310
FFFE00000000003FFFFFFE00000000003FFFFF0003FFFFFFFFFF80000000003F
310
F000FF80000000007FF8000FFFFC0001FFFFC0007F80007FFF0000000000FFFF
310
F0000000000FFFF800000000000000007F80000000000001FFFF8000000000FF
310
FFFFFF8000000000FFFFFF0003FFFFFFFFFFC0000000007FF000FFC000000000
310
FFF8000FFFFE0001FFFFC0007F80007FFF8000000001FFFFF8000000001FFFF8
310
00000000000000007F80000000000001FFFFC000000001FFFFFFFFC000000001
310
FFFFFF0003FFFFFFFFFFE000000000FFF000FFE000000003FFF0001FFFFE0001
310
FFFFC0007F80007FFFC000000007FFFFFE000000003FFFF80000000000000000
310
7F80000000000001FFFFE000000003FFFFFFFFE000000003FFFFFF0003FFFFFF
310
FFFFF000000003FFF000FFF80000000FFFF0001FFFFE0001FFFFE0007F80007F
310
FFF00000000FFFFFFF00000000FFFFF800000000000000007F80000000000001
310
FFFFF80000000FFFFFFFFFF80000000FFFFFFF0003FFFFFFFFFFFC0000000FFF
310
F000FFFE0000003FFFF0001FFFFE0003FFFFE0003F80007FFFFC0000003FFFFF
310
FFC0000003FFFFF800000000000000007F80000000000001FFFFFE0000003FFF
310
FFFFFFFE0000003FFFFFFF0003FFFFFFFFFFFF0000003FFFF000FFFF800000FF
310
FFF0001FFFFF0003FFFFE0003F80007FFFFF000001FFFFFFFFF800001FFFFFF8
310
00000000000000007F80000000000001FFFFFFC00001FFFFFFFFFFFFC00001FF
310
FFFFFF0003FFFFFFFFFFFFC00000FFFFF000FFFFF8000FFFFFFFFFFFFFFFFFFF
310
FFFFFFFFFFFFFFFFFFFFF0001FFFFFFFFFFF0000FFFFFFF80000000000000000
310
7FFFFFFFFFFFFFFFFFFFFFFC001FFFFFFFFFFFFFFC001FFFFFFFFFFFFFFFFFFF
310
FFFFFFFC001FFFFFF000FFFFFFFFFFFFFFFFFFFFFFFFFFFFFFFFFFFFFFFFFFFF
310
FFFFFFFFFFFFFFFFFFFFFFFFFFFFFFFFFFFFFFFFFFFFFFFFFFFFFFFFFFFFFFFF
310
FFFFFFFFFFFFFFFFFFFFFFFFFFFFFFFFFFFFFFFFFFFFFFFFFFFFFFFFFFFFFFFF
310
F000FFFFFFFFFFFFFFFFFFFFFFFFFFFFFFFFFFFFFFFFFFFFFFFFFFFFFFFFFFFF
310
FFFFFFFFFFFFFFFFFFFFFFFFFFFFFFFFFFFFFFFFFFFFFFFFFFFFFFFFFFFFFFFF
310
FFFFFFFFFFFFFFFFFFFFFFFFFFFFFFFFFFFFFFFFFFFFFFFFF000FFFFFFFFFFFF
310
FFFFFFFFFFFFFFFFFFFFFFFFFFFFFFFFFFFFFFFFFFFFFFFFFFFFFFFFFFFFFFFF
310
FFFFFFFFFFFFFFFFFFFFFFFFFFFFFFFFFFFFFFFFFFFFFFFFFFFFFFFFFFFFFFFF
310
FFFFFFFFFFFFFFFFFFFFFFFFFFFFFFFFF000FFFFFFFFFFFFFFFFFFFFFFFFFFFF
310
FFFFFFFFFFFFFFFFFFFFFFFFFFFFFFFFFFFFFFFFFFFFFFFFFFFFFFFFFFFFFFFF
310
FFFFFFFFFFFFFFFFFFFFFFFFFFFFFFFFFFFFFFFFFFFFFFFFFFFFFFFFFFFFFFFF
310
FFFFFFFFFFFFFFFFF000FFFFFFFFFFFFFFFFFFFFFFFFFFFFFFFFFFFFFFFFFFFF
310
FFFFFFFFFFFFFFFFFFFFFFFFFFFFFFFFFFFFFFFFFFFFFFFFFFFFFFFFFFFFFFFF
310
FFFFFFFFFFFFFFFFFFFFFFFFFFFFFFFFFFFFFFFFFFFFFFFFFFFFFFFFFFFFFFFF
310
F000FFFFFFFFFFFFFFFFFFFFFFFFFFFFFFFFFFFFFFFFFFFFFFFFFFFFFFFFFFFF
310
FFFFFFFFFFFFFFFFFFFFFFFFFFFFFFFFFFFFFFFFFFFFFFFFFFFFFFFFFFFFFFFF
310
FFFFFFFFFFFFFFFFFFFFFFFFFFFFFFFFFFFFFFFFFFFFFFFFF000FFFFFFFFFFFF
310
FFFFFFFFFFFFFFFFFFFFFFFFFFFFFFFFFFFFFFFFFFFFFFFFFFFFFFFFFFFFFFFF
310
FFFFFFFFFFFFFFFFFFFFFFFFFFFFFFFFFFFFFFFFFFFFFFFFFFFFFFFFFFFFFFFF
310
FFFFFFFFFFFFFFFFFFFFFFFFFFFFFFFFF000FFFFFFFFFFFFFFFFFFFFFFFFFFFF
310
FFFFFFFFFFFFFFFFFFFFFFFFFFFFFFFFFFFFFFFFFFFFFFFFFFFFFFFFFFFFFFFF
310
FFFFFFFFFFFFFFFFFFFFFFFFFFFFFFFFFFFFFFFFFFFFFFFFFFFFFFFFFFFFFFFF
310
FFFFFFFFFFFFFFFFF000FFFFFFFFFFFFFFFFFFFFFFFFFFFFFFFFFFFFFFFFFFFF
310
FFFFFFFFFFFFFFFFFFFFFFFFFFFFFFFFFFFFFFFFFFFFFFFFFFFFFFFFFFFFFFFF
310
FFFFFFFFFFFFFFFFFFFFFFFFFFFFFFFFFFFFFFFFFFFFFFFFFFFFFFFFFFFFFFFF
310
F000FFFFFFFFFFFFFFFFFFFFFFFFFFFFFFFFFFFFFFFFFFFFFFFFFFFFFFFFFFFF
310
FFFFFFFFFFFFFFFFFFFFFFFFFFFFFFFFFFFFFFFFFFFFFFFFFFFFFFFFFFFFFFFF
310
FFFFFFFFFFFFFFFFFFFFFFFFFFFFFFFFFFFFFFFFFFFFFFFFF000FFFFFFFFFFFF
310
FFFFFFFFFFFFFFFFFFFFFFFFFFFFFFFFFFFFFFFFFFFFFFFFFFFFFFFFFFFFFFFF
310
FFFFFFFFFFFFFFFFFFFFFFFFFFFFFFFFFFFFFFFFFFFFFFFFFFFFFFFFFFFFFFFF
310
FFFFFFFFFFFFFFFFFFFFFFFFFFFFFFFFF000FFFFFFFFFFFFFFFFFFFFFFFFFFFF
310
FFFFFFFFFFFFFFFFFFFFFFFFFFFFFFFFFFFFFFFFFFFFFFFFFFFFFFFFFFFFFFFF
310
FFFFFFFFFFFFFFFFFFFFFFFFFFFFFFFFFFFFFFFFFFFFFFFFFFFFFFFFFFFFFFFF
310
FFFFFFFFFFFFFFFFF000FFFFFFFFFFFFFFFFFFFFFFFFFFFFFFFFFFFFFFFFFFFF
310
FFFFFFFFFFFFFFFFFFFFFFFFFFFFFFFFFFFFFFFFFFFFFFFFFFFFFFFFFFFFFFFF
310
FFFFFFFFFFFFFFFFFFFFFFFFFFFFFFFFFFFFFFFFFFFFFFFFFFFFFFFFFFFFFFFF
310
F000FFFFFFFFFFFFFFFFFFFFFFFFFFFFFFFFFFFFFFFFFFFFFFFFFFFFFFFFFFFF
310
FFFFFFFFFFFFFFFFFFFFFFFFFFFFFFFFFFFFFFFFFFFFFFFFFFFFFFFFFFFFFFFF
310
FFFFFFFFFFFFFFFFFFFFFFFFFFFFFFFFFFFFFFFFFFFFFFFFF000FFFFFFFFFFFF
310
FFFFFFFFFFFFFFFFFFFFFFFFFFFFFFFFFFFFFFFFFFFFFFFFFFFFFFFFFFFFFFFF
310
FFFFFFFFFFFFFFFFFFFFFFFFFFFFFFFFFFFFFFFFFFFFFFFFFFFFFFFFFFFFFFFF
310
FFFFFFFFFFFFFFFFFFFFFFFFFFFFFFFFF000FFFFFFFFFFFFFFFFFFFFFFFFFFFF
310
FFFFFFFFFFFFFFFFFFFFFFFFFFFFFFFFFFFFFFFFFFFFFFFFFFFFFFFFFFFFFFFF
310
FFFFFFFFFFFFFFFFFFFFFFFFFFFFFFFFFFFFFFFFFFFFFFFFFFFFFFFFFFFFFFFF
310
FFFFFFFFFFFFFFFFF000FFFFFFFFFFFFFFFFFFFFFFFFFFFFFFFFFFFFFFFFFFFF
310
FFFFFFFFFFFFFFFFFFFFFFFFFFFFFFFFFFFFFFFFFFFFFFFFFFFFFFFFFFFFFFFF
310
FFFFFFFFFFFFFFFFFFFFFFFFFFFFFFFFFFFFFFFFFFFFFFFFFFFFFFFFFFFFFFFF
310
F000FFFFFFFFFFFFFFFFFFFFFFFFFFFFFFFFFFFFFFFFFFFFFFFFFFFFFFFFFFFF
310
FFFFFFFFFFFFFFFFFFFFFFFFFFFFFFFFFFFFFFFFFFFFFFFFFFFFFFFFFFFFFFFF
310
FFFFFFFFFFFFFFFFFFFFFFFFFFFFFFFFFFFFFFFFFFFFFFFFF000FFFFFFFFFFFF
310
FFFFFFFFFFFFFFFFFFFFFFFFFFFFFFFFFFFFFFFFFFFFFFFFFFFFFFFFFFFFFFFF
310
FFFFFFFFFFFFFFFFFFFFFFFFFFFFFFFFFFFFFFFFFFFFFFFFFFFFFFFFFFFFFFFF
310
FFFFFFFFFFFFFFFFFFFFFFFFFFFFFFFFF000FFFFFFFFFFFFFFFFFFFFFFFFFFFF
310
FFFFFFFFFFFFFFFFFFFFFFFFFFFFFFFFFFFFFFFFFFFFFFFFFFFFFFFFFFFFFFFF
310
FFFFFFFFFFFFFFFFFFFFFFFFFFFFFFFFFFFFFFFFFFFFFFFFFFFFFFFFFFFFFFFF
310
FFFFFFFFFFFFFFFFF000FFFFFFFFFFFFFFFFFFFFFFFFFFFFFFFFFFFFFFFFFFFF
310
FFFFFFFFFFFFFFFFFFFFFFFFFFFFFFFFFFFFFFFFFFFFFFFFFFFFFFFFFFFFFFFF
310
FFFFFFFFFFFFFFFFFFFFFFFFFFFFFFFFFFFFFFFFFFFFFFFFFFFFFFFFFFFFFFFF
310
F000FFFFFFFFFFFFFFFFFFFFFFFFFFFFFFFFFFFFFFFFFFFFFFFFFFFFFFFFFFFF
310
FFFFFFFFFFFFFFFFFFFFFFFFFFFFFFFFFFFFFFFFFFFFFFFFFFFFFFFFFFFFFFFF
310
FFFFFFFFFFFFFFFFFFFFFFFFFFFFFFFFFFFFFFFFFFFFFFFFF000FFFFFFFFFFFF
310
FFFFFFFFFFFFFFFFFFFFFFFFFFFFFFFFFFFFFFFFFFFFFFFFFFFFFFFFFFFFFFFF
310
FFFFFFFFFFFFFFFFFFFFFFFFFFFFFFFFFFFFFFFFFFFFFFFFFFFFFFFFFFFFFFFF
310
FFFFFFFFFFFFFFFFFFFFFFFFFFFFFFFFF0000000000000000000000000000000
310
0000000001000000010000000100000000000000010000000100000001000000
310
0100000001000000010000000100000001000000010000000100000001000000
310
0100000001000000010000000100000001000000010000000100000001000000
310
0100000001000000010000000100000001000000010000000100000001000000
310
0100000001000000010000000100000001000000010000000000000001000000
310
0100000001000000010000000100000001000000010000000100000001000000
310
0100000001000000010000000100000001000000010000000100000001000000
310
0100000001000000010000000100000001000000010000000100000001000000
310
0100000001000000010000000100000001000000010000000100000001000000
310
0000000001000000010000000100000001000000010000000100000001000000
310
0100000001000000010000000100000001000000010000000100000001000000
310
0100000001000000010000000100000001000000010000000100000001000000
310
0100000001000000010000000100000001000000010000000100000001000000
310
0100000000000000010000000100000001000000010000000100000001000000
310
0100000001000000010000000100000000000000010000000000000001000000
  1
OLE
  0
ENDSEC
  0
SECTION
  2
OBJECTS
  0
DICTIONARY
  5
C
330
0
100
AcDbDictionary
281
     1
  3
ACAD_GROUP
350
D
  3
ACAD_LAYOUT
350
1A
  3
ACAD_MLEADERSTYLE
350
20A
  3
ACAD_MLINESTYLE
350
17
  3
ACAD_PLOTSETTINGS
350
19
  3
ACAD_PLOTSTYLENAME
350
E
  3
ACAD_TABLESTYLE
350
209
  3
ACAD_VISUALSTYLE
350
2A
  3
AcDbVariableDictionary
350
20B
  0
DICTIONARY
  5
D
102
{ACAD_REACTORS
330
C
102
}
330
C
100
AcDbDictionary
281
     1
  0
DICTIONARY
  5
1A
102
{ACAD_REACTORS
330
C
102
}
330
C
100
AcDbDictionary
281
     1
  3
Layout1
350
1E
  3
Layout2
350
26
  3
Model
350
22
  0
DICTIONARY
  5
20A
102
{ACAD_REACTORS
330
C
102
}
330
C
100
AcDbDictionary
281
     1
  0
DICTIONARY
  5
17
102
{ACAD_REACTORS
330
C
102
}
330
C
100
AcDbDictionary
281
     1
  3
Standard
350
18
  0
DICTIONARY
  5
19
102
{ACAD_REACTORS
330
C
102
}
330
C
100
AcDbDictionary
281
     1
  0
ACDBDICTIONARYWDFLT
  5
E
102
{ACAD_REACTORS
330
C
102
}
330
C
100
AcDbDictionary
281
     1
  3
Normal
350
F
100
AcDbDictionaryWithDefault
340
F
  0
DICTIONARY
  5
209
102
{ACAD_REACTORS
330
C
102
}
330
C
100
AcDbDictionary
281
     1
  0
DICTIONARY
  5
2A
102
{ACAD_REACTORS
330
C
102
}
330
C
100
AcDbDictionary
281
     1
  3
2dWireframe
350
2F
  3
3D Hidden
350
31
  3
3dWireframe
350
30
  3
Basic
350
32
  3
Brighten
350
36
  3
ColorChange
350
3A
  3
Conceptual
350
34
  3
Dim
350
35
  3
Facepattern
350
39
  3
Flat
350
2B
  3
FlatWithEdges
350
2C
  3
Gouraud
350
2D
  3
GouraudWithEdges
350
2E
  3
Linepattern
350
38
  3
Realistic
350
33
  3
Thicken
350
37
  0
DICTIONARY
  5
20B
102
{ACAD_REACTORS
330
C
102
}
330
C
100
AcDbDictionary
281
     1
  3
PSOLHEIGHT
350
20D
  3
PSOLWIDTH
350
20C
  0
LAYOUT
  5
1E
102
{ACAD_REACTORS
330
1A
102
}
330
1A
100
AcDbPlotSettings
  1

  2
none_device
  4

  6

 40
0.0
 41
0.0
 42
0.0
 43
0.0
 44
0.0
 45
0.0
 46
0.0
 47
0.0
 48
0.0
 49
0.0
140
0.0
141
0.0
142
1.0
143
1.0
 70
   688
 72
     0
 73
     0
 74
     5
  7

 75
    16
147
1.0
148
0.0
149
0.0
100
AcDbLayout
  1
Layout1
 70
     1
 71
     1
 10
0.0
 20
0.0
 11
420.0
 21
297.0
 12
0.0
 22
0.0
 32
0.0
 14
1.0000000000E+20
 24
1.0000000000E+20
 34
1.0000000000E+20
 15
-1.0000000000E+20
 25
-1.0000000000E+20
 35
-1.0000000000E+20
146
0.0
 13
0.0
 23
0.0
 33
0.0
 16
1.0
 26
0.0
 36
0.0
 17
0.0
 27
1.0
 37
0.0
 76
     0
330
1B
  0
LAYOUT
  5
26
102
{ACAD_REACTORS
330
1A
102
}
330
1A
100
AcDbPlotSettings
  1

  2
none_device
  4

  6

 40
0.0
 41
0.0
 42
0.0
 43
0.0
 44
0.0
 45
0.0
 46
0.0
 47
0.0
 48
0.0
 49
0.0
140
0.0
141
0.0
142
1.0
143
1.0
 70
   688
 72
     0
 73
     0
 74
     5
  7

 75
    16
147
1.0
148
0.0
149
0.0
100
AcDbLayout
  1
Layout2
 70
     1
 71
     2
 10
0.0
 20
0.0
 11
0.0
 21
0.0
 12
0.0
 22
0.0
 32
0.0
 14
0.0
 24
0.0
 34
0.0
 15
0.0
 25
0.0
 35
0.0
146
0.0
 13
0.0
 23
0.0
 33
0.0
 16
1.0
 26
0.0
 36
0.0
 17
0.0
 27
1.0
 37
0.0
 76
     0
330
23
  0
LAYOUT
  5
22
102
{ACAD_REACTORS
330
1A
102
}
330
1A
100
AcDbPlotSettings
  1

  2
none_device
  4

  6

 40
0.0
 41
0.0
 42
0.0
 43
0.0
 44
0.0
 45
0.0
 46
0.0
 47
0.0
 48
0.0
 49
0.0
140
0.0
141
0.0
142
1.0
143
1.0
 70
  1712
 72
     0
 73
     0
 74
     0
  7

 75
     0
147
1.0
148
0.0
149
0.0
100
AcDbLayout
  1
Model
 70
     1
 71
     0
 10
0.0
 20
0.0
 11
297.0
 21
210.0
 12
0.0
 22
0.0
 32
0.0
 14
0.0
 24
0.0
 34
0.0
 15
297.0
 25
210.0
 35
0.0
146
0.0
 13
0.0
 23
0.0
 33
0.0
 16
1.0
 26
0.0
 36
0.0
 17
0.0
 27
1.0
 37
0.0
 76
     0
330
1F
331
29
  0
MLINESTYLE
  5
18
102
{ACAD_REACTORS
330
17
102
}
330
17
100
AcDbMlineStyle
  2
Standard
 70
     0
  3

 62
   256
 51
90.0
 52
90.0
 71
     2
 49
0.5
 62
   256
  6
BYLAYER
 49
-0.5
 62
   256
  6
BYLAYER
  0
ACDBPLACEHOLDER
  5
F
102
{ACAD_REACTORS
330
E
102
}
330
E
  0
VISUALSTYLE
  5
2F
102
{ACAD_REACTORS
330
2A
102
}
330
2A
100
AcDbVisualStyle
  2
2dWireframe
 70
     4
 71
     0
 72
     2
 73
     0
 90
        0
 40
-0.6
 41
-30.0
 62
     5
 63
     7
 74
     1
 91
        4
 64
     7
 65
   257
 75
     1
175
     1
 42
1.0
 92
        0
 66
   257
 43
1.0
 76
     1
 77
     6
 78
     2
 67
     7
 79
     5
170
     0
171
     0
290
     0
174
     0
 93
        1
 44
0.0
173
     0
291
     0
 45
0.0
1001
ACAD
1000
AcDbSavedByObjectVersion
1070
     0
  0
VISUALSTYLE
  5
31
102
{ACAD_REACTORS
330
2A
102
}
330
2A
100
AcDbVisualStyle
  2
3D Hidden
 70
     6
 71
     1
 72
     2
 73
     2
 90
        0
 40
-0.6
 41
-30.0
 62
     5
 63
     7
 74
     2
 91
        2
 64
     7
 65
   257
 75
     2
175
     1
 42
40.0
 92
        0
 66
   257
 43
1.0
 76
     1
 77
     6
 78
     2
 67
     7
 79
     3
170
     0
171
     0
290
     0
174
     0
 93
        1
 44
0.0
173
     0
291
     0
 45
0.0
1001
ACAD
1000
AcDbSavedByObjectVersion
1070
     0
  0
VISUALSTYLE
  5
30
102
{ACAD_REACTORS
330
2A
102
}
330
2A
100
AcDbVisualStyle
  2
3dWireframe
 70
     5
 71
     0
 72
     2
 73
     0
 90
        0
 40
-0.6
 41
-30.0
 62
     5
 63
     7
 74
     1
 91
        4
 64
     7
 65
   257
 75
     1
175
     1
 42
1.0
 92
        0
 66
   257
 43
1.0
 76
     1
 77
     6
 78
     2
 67
     7
 79
     5
170
     0
171
     0
290
     0
174
     0
 93
        1
 44
0.0
173
     0
291
     0
 45
0.0
1001
ACAD
1000
AcDbSavedByObjectVersion
1070
     0
  0
VISUALSTYLE
  5
32
102
{ACAD_REACTORS
330
2A
102
}
330
2A
100
AcDbVisualStyle
  2
Basic
 70
     7
 71
     1
 72
     0
 73
     1
 90
        0
 40
-0.6
 41
-30.0
 62
     5
 63
     7
 74
     0
 91
        4
 64
     7
 65
   257
 75
     1
175
     1
 42
1.0
 92
        8
 66
     7
 43
1.0
 76
     1
 77
     6
 78
     2
 67
     7
 79
     5
170
     0
171
     0
290
     0
174
     0
 93
        1
 44
0.0
173
     0
291
     1
 45
0.0
1001
ACAD
1000
AcDbSavedByObjectVersion
1070
     0
  0
VISUALSTYLE
  5
36
102
{ACAD_REACTORS
330
2A
102
}
330
2A
100
AcDbVisualStyle
  2
Brighten
 70
    12
 71
     2
 72
     2
 73
     0
 90
        0
 40
-0.6
 41
-30.0
 62
     5
 63
     7
 74
     1
 91
        4
 64
     7
 65
   257
 75
     1
175
     1
 42
1.0
 92
        8
 66
     7
 43
1.0
 76
     1
 77
     6
 78
     2
 67
     7
 79
     5
170
     0
171
     0
290
     0
174
     0
 93
        1
 44
50.0
173
     0
291
     1
 45
0.0
1001
ACAD
1000
AcDbSavedByObjectVersion
1070
     0
  0
VISUALSTYLE
  5
3A
102
{ACAD_REACTORS
330
2A
102
}
330
2A
100
AcDbVisualStyle
  2
ColorChange
 70
    16
 71
     2
 72
     2
 73
     3
 90
        0
 40
-0.6
 41
-30.0
 62
     5
 63
     8
 74
     1
 91
        4
 64
     7
 65
   257
 75
     1
175
     1
 42
1.0
 92
        8
 66
     8
 43
1.0
 76
     1
 77
     6
 78
     2
 67
     7
 79
     5
170
     0
171
     0
290
     0
174
     0
 93
        1
 44
0.0
173
     0
291
     1
 45
0.0
1001
ACAD
1000
AcDbSavedByObjectVersion
1070
     0
  0
VISUALSTYLE
  5
34
102
{ACAD_REACTORS
330
2A
102
}
330
2A
100
AcDbVisualStyle
  2
Conceptual
 70
     9
 71
     3
 72
     2
 73
     0
 90
        0
 40
-0.6
 41
-30.0
 62
     5
 63
     7
 74
     2
 91
        2
 64
     7
 65
   257
 75
     1
175
     1
 42
40.0
 92
        8
 66
     7
 43
1.0
 76
     1
 77
     6
 78
     2
 67
     7
 79
     3
170
     0
171
     0
290
     0
174
     0
 93
        1
 44
0.0
173
     0
291
     0
 45
0.0
1001
ACAD
1000
AcDbSavedByObjectVersion
1070
     0
  0
VISUALSTYLE
  5
35
102
{ACAD_REACTORS
330
2A
102
}
330
2A
100
AcDbVisualStyle
  2
Dim
 70
    11
 71
     2
 72
     2
 73
     0
 90
        0
 40
-0.6
 41
-30.0
 62
     5
 63
     7
 74
     1
 91
        4
 64
     7
 65
   257
 75
     1
175
     1
 42
1.0
 92
        8
 66
     7
 43
1.0
 76
     1
 77
     6
 78
     2
 67
     7
 79
     5
170
     0
171
     0
290
     0
174
     0
 93
        1
 44
-50.0
173
     0
291
     1
 45
0.0
1001
ACAD
1000
AcDbSavedByObjectVersion
1070
     0
  0
VISUALSTYLE
  5
39
102
{ACAD_REACTORS
330
2A
102
}
330
2A
100
AcDbVisualStyle
  2
Facepattern
 70
    15
 71
     2
 72
     2
 73
     0
 90
        0
 40
-0.6
 41
-30.0
 62
     5
 63
     7
 74
     1
 91
        4
 64
     7
 65
   257
 75
     1
175
     1
 42
1.0
 92
        8
 66
     7
 43
1.0
 76
     1
 77
     6
 78
     2
 67
     7
 79
     5
170
     0
171
     0
290
     0
174
     0
 93
        1
 44
0.0
173
     0
291
     1
 45
0.0
1001
ACAD
1000
AcDbSavedByObjectVersion
1070
     0
  0
VISUALSTYLE
  5
2B
102
{ACAD_REACTORS
330
2A
102
}
330
2A
100
AcDbVisualStyle
  2
Flat
 70
     0
 71
     2
 72
     1
 73
     1
 90
        2
 40
-0.6
 41
30.0
 62
     5
 63
     7
 74
     0
 91
        4
 64
     7
 65
   257
 75
     1
175
     1
 42
1.0
 92
        8
 66
     7
 43
1.0
 76
     1
 77
     6
 78
     2
 67
     7
 79
     5
170
     0
171
     0
290
     0
174
     0
 93
       13
 44
0.0
173
     0
291
     1
 45
0.0
1001
ACAD
1000
AcDbSavedByObjectVersion
1070
     0
  0
VISUALSTYLE
  5
2C
102
{ACAD_REACTORS
330
2A
102
}
330
2A
100
AcDbVisualStyle
  2
FlatWithEdges
 70
     1
 71
     2
 72
     1
 73
     1
 90
        2
 40
-0.6
 41
30.0
 62
     5
 63
     7
 74
     1
 91
        4
 64
     7
 65
   257
 75
     1
175
     1
 42
1.0
 92
        0
 66
   257
 43
1.0
 76
     1
 77
     6
 78
     2
 67
     7
 79
     5
170
     0
171
     0
290
     0
174
     0
 93
       13
 44
0.0
173
     0
291
     1
 45
0.0
1001
ACAD
1000
AcDbSavedByObjectVersion
1070
     0
  0
VISUALSTYLE
  5
2D
102
{ACAD_REACTORS
330
2A
102
}
330
2A
100
AcDbVisualStyle
  2
Gouraud
 70
     2
 71
     2
 72
     2
 73
     1
 90
        2
 40
-0.6
 41
30.0
 62
     5
 63
     7
 74
     0
 91
        4
 64
     7
 65
   257
 75
     1
175
     1
 42
1.0
 92
        0
 66
     7
 43
1.0
 76
     1
 77
     6
 78
     2
 67
     7
 79
     5
170
     0
171
     0
290
     0
174
     0
 93
       13
 44
0.0
173
     0
291
     1
 45
0.0
1001
ACAD
1000
AcDbSavedByObjectVersion
1070
     0
  0
VISUALSTYLE
  5
2E
102
{ACAD_REACTORS
330
2A
102
}
330
2A
100
AcDbVisualStyle
  2
GouraudWithEdges
 70
     3
 71
     2
 72
     2
 73
     1
 90
        2
 40
-0.6
 41
30.0
 62
     5
 63
     7
 74
     1
 91
        4
 64
     7
 65
   257
 75
     1
175
     1
 42
1.0
 92
        0
 66
   257
 43
1.0
 76
     1
 77
     6
 78
     2
 67
     7
 79
     5
170
     0
171
     0
290
     0
174
     0
 93
       13
 44
0.0
173
     0
291
     1
 45
0.0
1001
ACAD
1000
AcDbSavedByObjectVersion
1070
     0
  0
VISUALSTYLE
  5
38
102
{ACAD_REACTORS
330
2A
102
}
330
2A
100
AcDbVisualStyle
  2
Linepattern
 70
    14
 71
     2
 72
     2
 73
     0
 90
        0
 40
-0.6
 41
-30.0
 62
     5
 63
     7
 74
     1
 91
        4
 64
     7
 65
   257
 75
     7
175
     7
 42
1.0
 92
        8
 66
     7
 43
1.0
 76
     1
 77
     6
 78
     2
 67
     7
 79
     5
170
     0
171
     0
290
     0
174
     0
 93
        1
 44
0.0
173
     0
291
     1
 45
0.0
1001
ACAD
1000
AcDbSavedByObjectVersion
1070
     0
  0
VISUALSTYLE
  5
33
102
{ACAD_REACTORS
330
2A
102
}
330
2A
100
AcDbVisualStyle
  2
Realistic
 70
     8
 71
     2
 72
     2
 73
     0
 90
        0
 40
-0.6
 41
-30.0
 62
     5
 63
     7
 74
     1
 91
        0
 64
     7
 65
   257
 75
     1
175
     1
 42
1.0
 92
        8
 66
     8
 43
1.0
 76
     1
 77
     6
 78
     2
 67
     7
 79
     5
170
     0
171
     0
290
     0
174
     0
 93
       13
 44
0.0
173
     0
291
     0
 45
0.0
1001
ACAD
1000
AcDbSavedByObjectVersion
1070
     0
  0
VISUALSTYLE
  5
37
102
{ACAD_REACTORS
330
2A
102
}
330
2A
100
AcDbVisualStyle
  2
Thicken
 70
    13
 71
     2
 72
     2
 73
     0
 90
        0
 40
-0.6
 41
-30.0
 62
     5
 63
     7
 74
     1
 91
        4
 64
     7
 65
   257
 75
     1
175
     1
 42
1.0
 92
       12
 66
     7
 43
1.0
 76
     1
 77
     6
 78
     2
 67
     7
 79
     5
170
     0
171
     0
290
     0
174
     0
 93
        1
 44
0.0
173
     0
291
     1
 45
0.0
1001
ACAD
1000
AcDbSavedByObjectVersion
1070
     0
  0
DICTIONARYVAR
  5
20D
102
{ACAD_REACTORS
330
20B
102
}
330
20B
100
DictionaryVariables
280
     0
  1
80.000000
  0
DICTIONARYVAR
  5
20C
102
{ACAD_REACTORS
330
20B
102
}
330
20B
100
DictionaryVariables
280
     0
  1
5.000000
  0
ENDSEC
  0
EOF
