  0
SECTION
  2
HEADER
  9
$ACADVER
  1
AC1015
  9
$ACADMAINTVER
 70
     6
  9
$DWGCODEPAGE
  3
ANSI_1252
  9
$INSBASE
 10
0.0
 20
0.0
 30
0.0
  9
$EXTMIN
 10
0.0
 20
0.0
 30
0.0
  9
$EXTMAX
 10
297.0
 20
210.0
 30
0.0
  9
$LIMMIN
 10
0.0
 20
0.0
  9
$LIMMAX
 10
297.0
 20
210.0
  9
$ORTHOMODE
 70
     0
  9
$REGENMODE
 70
     1
  9
$FILLMODE
 70
     1
  9
$QTEXTMODE
 70
     0
  9
$MIRRTEXT
 70
     1
  9
$LTSCALE
 40
1.0
  9
$ATTMODE
 70
     1
  9
$TEXTSIZE
 40
2.0
  9
$TRACEWID
 40
1.0
  9
$TEXTSTYLE
  7
Standard
  9
$CLAYER
  8
0
  9
$CELTYPE
  6
ByLayer
  9
$CECOLOR
 62
   256
  9
$CELTSCALE
 40
1.0
  9
$DISPSILH
 70
     0
  9
$DIMSCALE
 40
1.0
  9
$DIMASZ
 40
3.0
  9
$DIMEXO
 40
0.0
  9
$DIMDLI
 40
3.75
  9
$DIMRND
 40
0.0
  9
$DIMDLE
 40
0.0
  9
$DIMEXE
 40
1.0
  9
$DIMTP
 40
0.0
  9
$DIMTM
 40
0.0
  9
$DIMTXT
 40
2.0
  9
$DIMCEN
 40
2.5
  9
$DIMTSZ
 40
0.0
  9
$DIMTOL
 70
     0
  9
$DIMLIM
 70
     0
  9
$DIMTIH
 70
     1
  9
$DIMTOH
 70
     1
  9
$DIMSE1
 70
     0
  9
$DIMSE2
 70
     0
  9
$DIMTAD
 70
     1
  9
$DIMZIN
 70
     0
  9
$DIMBLK
  1

  9
$DIMASO
 70
     1
  9
$DIMSHO
 70
     1
  9
$DIMPOST
  1

  9
$DIMAPOST
  1

  9
$DIMALT
 70
     0
  9
$DIMALTD
 70
     3
  9
$DIMALTF
 40
0.0393700787
  9
$DIMLFAC
 40
1.0
  9
$DIMTOFL
 70
     1
  9
$DIMTVP
 40
0.0
  9
$DIMTIX
 70
     0
  9
$DIMSOXD
 70
     0
  9
$DIMSAH
 70
     0
  9
$DIMBLK1
  1

  9
$DIMBLK2
  1

  9
$DIMSTYLE
  2
ISO-25
  9
$DIMCLRD
 70
     0
  9
$DIMCLRE
 70
     0
  9
$DIMCLRT
 70
     0
  9
$DIMTFAC
 40
1.0
  9
$DIMGAP
 40
1.524
  9
$DIMJUST
 70
     0
  9
$DIMSD1
 70
     0
  9
$DIMSD2
 70
     0
  9
$DIMTOLJ
 70
     0
  9
$DIMTZIN
 70
     0
  9
$DIMALTZ
 70
     0
  9
$DIMALTTZ
 70
     0
  9
$DIMUPT
 70
     0
  9
$DIMDEC
 70
     2
  9
$DIMTDEC
 70
     3
  9
$DIMALTU
 70
     2
  9
$DIMALTTD
 70
     3
  9
$DIMTXSTY
  7
Standard
  9
$DIMAUNIT
 70
     0
  9
$DIMADEC
 70
     2
  9
$DIMALTRND
 40
0.0
  9
$DIMAZIN
 70
     0
  9
$DIMDSEP
 70
    44
  9
$DIMATFIT
 70
     3
  9
$DIMFRAC
 70
     0
  9
$DIMLDRBLK
  1

  9
$DIMLUNIT
 70
     2
  9
$DIMLWD
 70
    -2
  9
$DIMLWE
 70
    -2
  9
$DIMTMOVE
 70
     0
  9
$LUNITS
 70
     2
  9
$LUPREC
 70
     2
  9
$SKETCHINC
 40
1.0
  9
$FILLETRAD
 40
10.0
  9
$AUNITS
 70
     0
  9
$AUPREC
 70
     2
  9
$MENU
  1
.
  9
$ELEVATION
 40
0.0
  9
$PELEVATION
 40
0.0
  9
$THICKNESS
 40
0.0
  9
$LIMCHECK
 70
     0
  9
$CHAMFERA
 40
10.0
  9
$CHAMFERB
 40
10.0
  9
$CHAMFERC
 40
20.0
  9
$CHAMFERD
 40
0.0
  9
$SKPOLY
 70
     0
  9
$TDCREATE
 40
2455684.424784306
  9
$TDUCREATE
 40
2455684.341450972
  9
$TDUPDATE
 40
2455684.424784317
  9
$TDUUPDATE
 40
2455684.341450984
  9
$TDINDWG
 40
0.0000000116
  9
$TDUSRTIMER
 40
0.0000000116
  9
$USRTIMER
 70
     1
  9
$ANGBASE
 50
0.0
  9
$ANGDIR
 70
     0
  9
$PDMODE
 70
     0
  9
$PDSIZE
 40
-1.0
  9
$PLINEWID
 40
0.0
  9
$SPLFRAME
 70
     0
  9
$SPLINETYPE
 70
     6
  9
$SPLINESEGS
 70
     8
  9
$HANDSEED
  5
207
  9
$SURFTAB1
 70
     6
  9
$SURFTAB2
 70
     6
  9
$SURFTYPE
 70
     6
  9
$SURFU
 70
     6
  9
$SURFV
 70
     6
  9
$UCSBASE
  2

  9
$UCSNAME
  2

  9
$UCSORG
 10
0.0
 20
0.0
 30
0.0
  9
$UCSXDIR
 10
1.0
 20
0.0
 30
0.0
  9
$UCSYDIR
 10
0.0
 20
1.0
 30
0.0
  9
$UCSORTHOREF
  2

  9
$UCSORTHOVIEW
 70
     0
  9
$UCSORGTOP
 10
0.0
 20
0.0
 30
0.0
  9
$UCSORGBOTTOM
 10
0.0
 20
0.0
 30
0.0
  9
$UCSORGLEFT
 10
0.0
 20
0.0
 30
0.0
  9
$UCSORGRIGHT
 10
0.0
 20
0.0
 30
0.0
  9
$UCSORGFRONT
 10
0.0
 20
0.0
 30
0.0
  9
$UCSORGBACK
 10
0.0
 20
0.0
 30
0.0
  9
$PUCSBASE
  2

  9
$PUCSNAME
  2

  9
$PUCSORG
 10
0.0
 20
0.0
 30
0.0
  9
$PUCSXDIR
 10
1.0
 20
0.0
 30
0.0
  9
$PUCSYDIR
 10
0.0
 20
1.0
 30
0.0
  9
$PUCSORTHOREF
  2

  9
$PUCSORTHOVIEW
 70
     0
  9
$PUCSORGTOP
 10
0.0
 20
0.0
 30
0.0
  9
$PUCSORGBOTTOM
 10
0.0
 20
0.0
 30
0.0
  9
$PUCSORGLEFT
 10
0.0
 20
0.0
 30
0.0
  9
$PUCSORGRIGHT
 10
0.0
 20
0.0
 30
0.0
  9
$PUCSORGFRONT
 10
0.0
 20
0.0
 30
0.0
  9
$PUCSORGBACK
 10
0.0
 20
0.0
 30
0.0
  9
$USERI1
 70
     0
  9
$USERI2
 70
     0
  9
$USERI3
 70
     0
  9
$USERI4
 70
     0
  9
$USERI5
 70
     0
  9
$USERR1
 40
0.0
  9
$USERR2
 40
0.0
  9
$USERR3
 40
0.0
  9
$USERR4
 40
0.0
  9
$USERR5
 40
0.0
  9
$WORLDVIEW
 70
     1
  9
$SHADEDGE
 70
     3
  9
$SHADEDIF
 70
    70
  9
$TILEMODE
 70
     1
  9
$MAXACTVP
 70
    64
  9
$PINSBASE
 10
0.0
 20
0.0
 30
0.0
  9
$PLIMCHECK
 70
     0
  9
$PEXTMIN
 10
1.0000000000E+20
 20
1.0000000000E+20
 30
1.0000000000E+20
  9
$PEXTMAX
 10
-1.0000000000E+20
 20
-1.0000000000E+20
 30
-1.0000000000E+20
  9
$PLIMMIN
 10
0.0
 20
0.0
  9
$PLIMMAX
 10
420.0
 20
297.0
  9
$UNITMODE
 70
     0
  9
$VISRETAIN
 70
     1
  9
$PLINEGEN
 70
     0
  9
$PSLTSCALE
 70
     1
  9
$TREEDEPTH
 70
  3020
  9
$CMLSTYLE
  2
Standard
  9
$CMLJUST
 70
     0
  9
$CMLSCALE
 40
20.0
  9
$PROXYGRAPHICS
 70
     1
  9
$MEASUREMENT
 70
     1
  9
$CELWEIGHT
370
    -1
  9
$ENDCAPS
280
     0
  9
$JOINSTYLE
280
     0
  9
$LWDISPLAY
290
     1
  9
$INSUNITS
 70
     4
  9
$HYPERLINKBASE
  1

  9
$STYLESHEET
  1

  9
$XEDIT
290
     1
  9
$CEPSNTYPE
380
     0
  9
$PSTYLEMODE
290
     1
  9
$FINGERPRINTGUID
  2
{63034C81-E70B-4878-B363-448FF72F8AD4}
  9
$VERSIONGUID
  2
{FAEB1C32-E019-11D5-929B-00C0DF256EC4}
  9
$EXTNAMES
290
     1
  9
$PSVPSCALE
 40
0.0
  9
$OLESTARTUP
290
     0
  0
ENDSEC
  0
SECTION
  2
CLASSES
  0
CLASS
  1
ACDBDICTIONARYWDFLT
  2
AcDbDictionaryWithDefault
  3
ObjectDBX Classes
 90
        0
280
     0
281
     0
  0
CLASS
  1
VISUALSTYLE
  2
AcDbVisualStyle
  3
ObjectDBX Classes
 90
     4095
280
     0
281
     0
  0
CLASS
  1
DICTIONARYVAR
  2
AcDbDictionaryVar
  3
ObjectDBX Classes
 90
        0
280
     0
281
     0
  0
CLASS
  1
ACDBPLACEHOLDER
  2
AcDbPlaceHolder
  3
ObjectDBX Classes
 90
        0
280
     0
281
     0
  0
CLASS
  1
LAYOUT
  2
AcDbLayout
  3
ObjectDBX Classes
 90
        0
280
     0
281
     0
  0
ENDSEC
  0
SECTION
  2
TABLES
  0
TABLE
  2
VPORT
  5
8
330
0
100
AcDbSymbolTable
 70
     1
  0
VPORT
  5
29
330
8
100
AcDbSymbolTableRecord
100
AcDbViewportTableRecord
  2
*Active
 70
     0
 10
0.0
 20
0.0
 11
1.0
 21
1.0
 12
148.5
 22
105.0
 13
0.0
 23
0.0
 14
10.0
 24
10.0
 15
10.0
 25
10.0
 16
0.0
 26
0.0
 36
1.0
 17
0.0
 27
0.0
 37
0.0
 40
210.0
 41
1.4142857143
 42
50.0
 43
0.0
 44
0.0
 50
0.0
 51
0.0
 71
     0
 72
  2000
 73
     1
 74
     3
 75
     0
 76
     0
 77
     0
 78
     0
281
     0
 65
     1
110
0.0
120
0.0
130
0.0
111
1.0
121
0.0
131
0.0
112
0.0
122
1.0
132
0.0
 79
     0
146
0.0
  0
ENDTAB
  0
TABLE
  2
LTYPE
  5
5
330
0
100
AcDbSymbolTable
 70
     6
  0
LTYPE
  5
14
330
5
100
AcDbSymbolTableRecord
100
AcDbLinetypeTableRecord
  2
ByBlock
 70
     0
  3

 72
    65
 73
     0
 40
0.0
  0
LTYPE
  5
15
330
5
100
AcDbSymbolTableRecord
100
AcDbLinetypeTableRecord
  2
ByLayer
 70
     0
  3

 72
    65
 73
     0
 40
0.0
  0
LTYPE
  5
16
330
5
100
AcDbSymbolTableRecord
100
AcDbLinetypeTableRecord
  2
Continuous
 70
     0
  3
Solid line
 72
    65
 73
     0
 40
0.0
  0
LTYPE
  5
3B
330
5
100
AcDbSymbolTableRecord
100
AcDbLinetypeTableRecord
  2
HIDDEN
 70
     0
  3
Hidden __ __ __ __ __ __ __ __ __ __ __ __ __ __
 72
    65
 73
     2
 40
1.905
 49
1.27
 74
     0
 49
-0.635
 74
     0
  0
LTYPE
  5
3C
330
5
100
AcDbSymbolTableRecord
100
AcDbLinetypeTableRecord
  2
PHANTOM
 70
     0
  3
Phantom ______  __  __  ______  __  __  ______
 72
    65
 73
     6
 40
12.7
 49
6.35
 74
     0
 49
-1.27
 74
     0
 49
1.27
 74
     0
 49
-1.27
 74
     0
 49
1.27
 74
     0
 49
-1.27
 74
     0
  0
LTYPE
  5
3D
330
5
100
AcDbSymbolTableRecord
100
AcDbLinetypeTableRecord
  2
CENTER
 70
     0
  3
Center ____ _ ____ _ ____ _ ____ _ ____ _ ____
 72
    65
 73
     4
 40
10.16
 49
6.35
 74
     0
 49
-1.27
 74
     0
 49
1.27
 74
     0
 49
-1.27
 74
     0
  0
LTYPE
  5
3E
330
5
100
AcDbSymbolTableRecord
100
AcDbLinetypeTableRecord
  2
CENTERX2
 70
     0
  3
Center (2x) ________  __  ________  __  _____
 72
    65
 73
     4
 40
20.32
 49
12.7
 74
     0
 49
-2.54
 74
     0
 49
2.54
 74
     0
 49
-2.54
 74
     0
  0
LTYPE
  5
3F
330
5
100
AcDbSymbolTableRecord
100
AcDbLinetypeTableRecord
  2
DOT2
 70
     0
  3
Dot (.5x) ........................................
 72
    65
 73
     2
 40
0.635
 49
0.0
 74
     0
 49
-0.635
 74
     0
  0
ENDTAB
  0
TABLE
  2
LAYER
  5
2
330
0
100
AcDbSymbolTable
 70
     5
  0
LAYER
  5
10
330
2
100
AcDbSymbolTableRecord
100
AcDbLayerTableRecord
  2
0
 70
     0
 62
     7
  6
Continuous
370
    -3
390
F
  0
LAYER
  5
40
330
2
100
AcDbSymbolTableRecord
100
AcDbLayerTableRecord
  2
FORMAT
 70
     0
 62
     7
  6
Continuous
370
    -3
390
F
  0
LAYER
  5
41
330
2
100
AcDbSymbolTableRecord
100
AcDbLayerTableRecord
  2
VERMASSUNG
 70
     0
 62
     7
  6
Continuous
370
    -3
390
F
  0
LAYER
  5
42
330
2
100
AcDbSymbolTableRecord
100
AcDbLayerTableRecord
  2
KOPF_DÜNN
 70
     0
 62
     7
  6
Continuous
370
    -3
390
F
  0
LAYER
  5
43
330
2
100
AcDbSymbolTableRecord
100
AcDbLayerTableRecord
  2
KOPF_DICK
 70
     0
 62
     7
  6
Continuous
370
    15
390
F
  0
ENDTAB
  0
TABLE
  2
STYLE
  5
3
330
0
100
AcDbSymbolTable
 70
     3
  0
STYLE
  5
11
330
3
100
AcDbSymbolTableRecord
100
AcDbTextStyleTableRecord
  2
Standard
 70
     0
 40
0.0
 41
1.0
 50
0.0
 71
     0
 42
2.5
  3
txt
  4

  0
STYLE
  5
44
330
3
100
AcDbSymbolTableRecord
100
AcDbTextStyleTableRecord
  2
SLDTEXTSTYLE0
 70
     0
 40
0.0
 41
0.7
 50
0.0
 71
     0
 42
0.2
  3
TXT
  4

  0
STYLE
  5
48
330
3
100
AcDbSymbolTableRecord
100
AcDbTextStyleTableRecord
  2
SLDTEXTSTYLE1
 70
     0
 40
0.0
 41
0.65
 50
0.0
 71
     0
 42
0.2
  3
TXT
  4

  0
ENDTAB
  0
TABLE
  2
VIEW
  5
6
330
0
100
AcDbSymbolTable
 70
     0
  0
ENDTAB
  0
TABLE
  2
UCS
  5
7
330
0
100
AcDbSymbolTable
 70
     0
  0
ENDTAB
  0
TABLE
  2
APPID
  5
9
330
0
100
AcDbSymbolTable
 70
     1
  0
APPID
  5
12
330
9
100
AcDbSymbolTableRecord
100
AcDbRegAppTableRecord
  2
ACAD
 70
     0
  0
ENDTAB
  0
TABLE
  2
DIMSTYLE
  5
A
330
0
100
AcDbSymbolTable
 70
     5
100
AcDbDimStyleTable
  0
DIMSTYLE
105
27
330
A
100
AcDbSymbolTableRecord
100
AcDbDimStyleTableRecord
  2
ISO-25
 70
     0
 41
2.5
 42
0.625
 43
3.75
 44
1.25
 73
     0
 74
     0
 77
     1
 78
     8
140
2.5
141
2.5
143
0.0393700787
147
0.625
171
     3
172
     1
271
     2
272
     2
274
     3
278
    44
283
     0
284
     8
340
11
  0
DIMSTYLE
105
1A8
102
{ACAD_REACTORS
330
1A7
330
1E2
330
1EC
330
1F6
102
}
330
A
100
AcDbSymbolTableRecord
100
AcDbDimStyleTableRecord
  2
SLDDIMSTYLE0
 70
     0
 41
3.0
 44
0.0
 45
0.000000001
 73
     0
 74
     0
 77
     1
 78
    12
140
2.0
147
0.5
173
     1
271
     2
272
     3
284
    12
340
44
  0
DIMSTYLE
105
1B5
102
{ACAD_REACTORS
330
1B4
102
}
330
A
100
AcDbSymbolTableRecord
100
AcDbDimStyleTableRecord
  2
SLDDIMSTYLE1
 70
     0
 41
3.0
 44
0.0
 45
0.000000001
 73
     0
 74
     0
 77
     1
 78
    12
140
2.0
147
0.5
173
     1
271
     1
272
     1
284
    12
340
44
  0
DIMSTYLE
105
1C0
102
{ACAD_REACTORS
330
1BF
102
}
330
A
100
AcDbSymbolTableRecord
100
AcDbDimStyleTableRecord
  2
SLDDIMSTYLE2
 70
     0
 41
3.0
 44
0.0
 45
0.000000001
 73
     0
 74
     0
 77
     1
 78
    12
140
2.0
147
0.5
173
     1
271
     2
272
     2
284
    12
340
44
  0
DIMSTYLE
105
1CC
102
{ACAD_REACTORS
330
1CB
330
1D7
102
}
330
A
100
AcDbSymbolTableRecord
100
AcDbDimStyleTableRecord
  2
SLDDIMSTYLE3
 70
     0
 41
3.0
 44
0.0
 45
0.000000001
 73
     0
 74
     0
 77
     1
 78
    12
140
2.0
147
0.5
173
     1
271
     2
272
     3
284
    12
340
44
  0
ENDTAB
  0
TABLE
  2
BLOCK_RECORD
  5
1
330
0
100
AcDbSymbolTable
 70
     9
  0
BLOCK_RECORD
  5
1F
330
1
100
AcDbSymbolTableRecord
100
AcDbBlockTableRecord
  2
*Model_Space
340
22
  0
BLOCK_RECORD
  5
1B
330
1
100
AcDbSymbolTableRecord
100
AcDbBlockTableRecord
  2
*Paper_Space
340
1E
  0
BLOCK_RECORD
  5
23
330
1
100
AcDbSymbolTableRecord
100
AcDbBlockTableRecord
  2
*Paper_Space0
340
26
  0
BLOCK_RECORD
  5
1A9
330
1
100
AcDbSymbolTableRecord
100
AcDbBlockTableRecord
  2
*D1
340
0
  0
BLOCK_RECORD
  5
1B6
330
1
100
AcDbSymbolTableRecord
100
AcDbBlockTableRecord
  2
*D2
340
0
  0
BLOCK_RECORD
  5
1C1
330
1
100
AcDbSymbolTableRecord
100
AcDbBlockTableRecord
  2
*D3
340
0
  0
BLOCK_RECORD
  5
1CD
330
1
100
AcDbSymbolTableRecord
100
AcDbBlockTableRecord
  2
*D4
340
0
  0
BLOCK_RECORD
  5
1D8
330
1
100
AcDbSymbolTableRecord
100
AcDbBlockTableRecord
  2
*D5
340
0
  0
BLOCK_RECORD
  5
1E3
330
1
100
AcDbSymbolTableRecord
100
AcDbBlockTableRecord
  2
*D6
340
0
  0
BLOCK_RECORD
  5
1ED
330
1
100
AcDbSymbolTableRecord
100
AcDbBlockTableRecord
  2
*D7
340
0
  0
BLOCK_RECORD
  5
1F7
330
1
100
AcDbSymbolTableRecord
100
AcDbBlockTableRecord
  2
*D8
340
0
  0
ENDTAB
  0
ENDSEC
  0
SECTION
  2
BLOCKS
  0
BLOCK
  5
20
330
1F
100
AcDbEntity
  8
0
100
AcDbBlockBegin
  2
*Model_Space
 70
     0
 10
0.0
 20
0.0
 30
0.0
  3
*Model_Space
  1

  0
ENDBLK
  5
21
330
1F
100
AcDbEntity
  8
0
100
AcDbBlockEnd
  0
BLOCK
  5
1C
330
1B
100
AcDbEntity
 67
     1
  8
0
100
AcDbBlockBegin
  2
*Paper_Space
 70
     0
 10
0.0
 20
0.0
 30
0.0
  3
*Paper_Space
  1

  0
ENDBLK
  5
1D
330
1B
100
AcDbEntity
 67
     1
  8
0
100
AcDbBlockEnd
  0
BLOCK
  5
24
330
23
100
AcDbEntity
  8
0
100
AcDbBlockBegin
  2
*Paper_Space0
 70
     0
 10
0.0
 20
0.0
 30
0.0
  3
*Paper_Space0
  1

  0
ENDBLK
  5
25
330
23
100
AcDbEntity
  8
0
100
AcDbBlockEnd
  0
BLOCK
  5
1AA
330
1A9
100
AcDbEntity
  8
0
100
AcDbBlockBegin
  2
*D1
 70
     1
 10
0.0
 20
0.0
 30
0.0
  3
*D1
  1

  0
SOLID
  5
1AC
330
1A9
100
AcDbEntity
  8
VERMASSUNG
100
AcDbTrace
 10
50.3346695558
 20
159.2932827736
 30
0.0
 11
49.8846695558
 21
156.2932827736
 31
0.0
 12
50.7846695558
 22
156.2932827736
 32
0.0
 13
50.7846695558
 23
156.2932827736
 33
0.0
  0
SOLID
  5
1AD
330
1A9
100
AcDbEntity
  8
VERMASSUNG
100
AcDbTrace
 10
50.3346695558
 20
59.2932827736
 30
0.0
 11
50.7846695558
 21
62.2932827736
 31
0.0
 12
49.8846695558
 22
62.2932827736
 32
0.0
 13
49.8846695558
 23
62.2932827736
 33
0.0
  0
LINE
  5
1AE
330
1A9
100
AcDbEntity
  8
VERMASSUNG
100
AcDbLine
 10
106.4108194964
 20
159.2932827736
 30
0.0
 11
49.3346695558
 21
159.2932827736
 31
0.0
  0
LINE
  5
1AF
330
1A9
100
AcDbEntity
  8
VERMASSUNG
100
AcDbLine
 10
106.4108194964
 20
59.2932827736
 30
0.0
 11
49.3346695558
 21
59.2932827736
 31
0.0
  0
LINE
  5
1B0
330
1A9
100
AcDbEntity
  8
VERMASSUNG
100
AcDbLine
 10
50.3346695558
 20
159.2932827736
 30
0.0
 11
50.3346695558
 21
59.2932827736
 31
0.0
  0
MTEXT
  5
1B1
330
1A9
100
AcDbEntity
  8
VERMASSUNG
100
AcDbMText
 10
47.5565340668
 20
101.089631636
 30
0.0
 40
2.0
 41
0.0
 71
     1
 72
     1
  1
HSK A 
  7
SLDTEXTSTYLE0
 11
-7.044195017643634E-15
 21
1.0
 31
0.0
 73
     1
 44
1.0
  0
MTEXT
  5
1B2
330
1A9
100
AcDbEntity
  8
VERMASSUNG
100
AcDbMText
 10
47.7565340763
 20
110.0896321799
 30
0.0
 40
2.0
 41
0.0
 71
     1
 72
     1
  1
%%c
  7
SLDTEXTSTYLE0
 11
-7.044195017643634E-15
 21
1.0
 31
0.0
 73
     1
 44
1.0
  0
MTEXT
  5
1B3
330
1A9
100
AcDbEntity
  8
VERMASSUNG
100
AcDbMText
 10
47.7565341927
 20
113.6979588299
 30
0.0
 40
2.0
 41
0.0
 71
     1
 72
     1
  1
100
  7
SLDTEXTSTYLE0
 11
-7.044195017643634E-15
 21
1.0
 31
0.0
 73
     1
 44
1.0
  0
ENDBLK
  5
1AB
330
1A9
100
AcDbEntity
  8
0
100
AcDbBlockEnd
  0
BLOCK
  5
1B7
330
1B6
100
AcDbEntity
  8
0
100
AcDbBlockBegin
  2
*D2
 70
     1
 10
0.0
 20
0.0
 30
0.0
  3
*D2
  1

  0
SOLID
  5
1B9
330
1B6
100
AcDbEntity
  8
VERMASSUNG
100
AcDbTrace
 10
159.9108194964
 20
159.1881906826
 30
0.0
 11
162.9108194964
 21
158.7381906826
 31
0.0
 12
162.9108194964
 22
159.6381906826
 32
0.0
 13
162.9108194964
 23
159.6381906826
 33
0.0
  0
SOLID
  5
1BA
330
1B6
100
AcDbEntity
  8
VERMASSUNG
100
AcDbTrace
 10
230.9108194964
 20
159.1881906826
 30
0.0
 11
227.9108194964
 21
159.6381906826
 31
0.0
 12
227.9108194964
 22
158.7381906826
 32
0.0
 13
227.9108194964
 23
158.7381906826
 33
0.0
  0
LINE
  5
1BB
330
1B6
100
AcDbEntity
  8
VERMASSUNG
100
AcDbLine
 10
159.9108194964
 20
129.1932827736
 30
0.0
 11
159.9108194964
 21
160.1881906826
 31
0.0
  0
LINE
  5
1BC
330
1B6
100
AcDbEntity
  8
VERMASSUNG
100
AcDbLine
 10
230.9108194964
 20
136.9823065444
 30
0.0
 11
230.9108194964
 21
160.1881906826
 31
0.0
  0
LINE
  5
1BD
330
1B6
100
AcDbEntity
  8
VERMASSUNG
100
AcDbLine
 10
159.9108194964
 20
159.1881906826
 30
0.0
 11
230.9108194964
 21
159.1881906826
 31
0.0
  0
MTEXT
  5
1BE
330
1B6
100
AcDbEntity
  8
VERMASSUNG
100
AcDbMText
 10
194.2110210132
 20
161.7663260457
 30
0.0
 40
2.0
 41
0.0
 71
     1
 72
     1
  1
71
  7
SLDTEXTSTYLE0
 73
     1
 44
1.0
  0
ENDBLK
  5
1B8
330
1B6
100
AcDbEntity
  8
0
100
AcDbBlockEnd
  0
BLOCK
  5
1C2
330
1C1
100
AcDbEntity
  8
0
100
AcDbBlockBegin
  2
*D3
 70
     1
 10
0.0
 20
0.0
 30
0.0
  3
*D3
  1

  0
SOLID
  5
1C4
330
1C1
100
AcDbEntity
  8
VERMASSUNG
100
AcDbTrace
 10
238.1463705309
 20
89.2932827736
 30
0.0
 11
238.5963705309
 21
92.2932827736
 31
0.0
 12
237.6963705309
 22
92.2932827736
 32
0.0
 13
237.6963705309
 23
92.2932827736
 33
0.0
  0
SOLID
  5
1C5
330
1C1
100
AcDbEntity
  8
VERMASSUNG
100
AcDbTrace
 10
238.1463705309
 20
129.2932827736
 30
0.0
 11
237.6963705309
 21
126.2932827736
 31
0.0
 12
238.5963705309
 22
126.2932827736
 32
0.0
 13
238.5963705309
 23
126.2932827736
 33
0.0
  0
LINE
  5
1C6
330
1C1
100
AcDbEntity
  8
VERMASSUNG
100
AcDbLine
 10
227.4108194964
 20
89.2932827736
 30
0.0
 11
239.1463705309
 21
89.2932827736
 31
0.0
  0
LINE
  5
1C7
330
1C1
100
AcDbEntity
  8
VERMASSUNG
100
AcDbLine
 10
227.4108194964
 20
129.2932827736
 30
0.0
 11
239.1463705309
 21
129.2932827736
 31
0.0
  0
LINE
  5
1C8
330
1C1
100
AcDbEntity
  8
VERMASSUNG
100
AcDbLine
 10
238.1463705309
 20
89.2932827736
 30
0.0
 11
238.1463705309
 21
129.2932827736
 31
0.0
  0
MTEXT
  5
1C9
330
1C1
100
AcDbEntity
  8
VERMASSUNG
100
AcDbMText
 10
235.5682350513
 20
105.9897757313
 30
0.0
 40
2.0
 41
0.0
 71
     1
 72
     1
  1
%%c
  7
SLDTEXTSTYLE0
 11
6.123233995736766E-17
 21
1.0
 31
0.0
 73
     1
 44
1.0
  0
MTEXT
  5
1CA
330
1C1
100
AcDbEntity
  8
VERMASSUNG
100
AcDbMText
 10
235.5682351677
 20
109.5984539545
 30
0.0
 40
2.0
 41
0.0
 71
     1
 72
     1
  1
40
  7
SLDTEXTSTYLE0
 11
6.123233995736766E-17
 21
1.0
 31
0.0
 73
     1
 44
1.0
  0
ENDBLK
  5
1C3
330
1C1
100
AcDbEntity
  8
0
100
AcDbBlockEnd
  0
BLOCK
  5
1CE
330
1CD
100
AcDbEntity
  8
0
100
AcDbBlockBegin
  2
*D4
 70
     1
 10
0.0
 20
0.0
 30
0.0
  3
*D4
  1

  0
SOLID
  5
1D0
330
1CD
100
AcDbEntity
  8
VERMASSUNG
100
AcDbTrace
 10
244.1463705309
 20
79.2932827736
 30
0.0
 11
244.5963705309
 21
82.2932827736
 31
0.0
 12
243.6963705309
 22
82.2932827736
 32
0.0
 13
243.6963705309
 23
82.2932827736
 33
0.0
  0
SOLID
  5
1D1
330
1CD
100
AcDbEntity
  8
VERMASSUNG
100
AcDbTrace
 10
244.1463705309
 20
139.2932827736
 30
0.0
 11
243.6963705309
 21
136.2932827736
 31
0.0
 12
244.5963705309
 22
136.2932827736
 32
0.0
 13
244.5963705309
 23
136.2932827736
 33
0.0
  0
LINE
  5
1D2
330
1CD
100
AcDbEntity
  8
VERMASSUNG
100
AcDbLine
 10
230.9108194964
 20
79.2932827736
 30
0.0
 11
245.1463705309
 21
79.2932827736
 31
0.0
  0
LINE
  5
1D3
330
1CD
100
AcDbEntity
  8
VERMASSUNG
100
AcDbLine
 10
230.9108194964
 20
139.2932827736
 30
0.0
 11
245.1463705309
 21
139.2932827736
 31
0.0
  0
LINE
  5
1D4
330
1CD
100
AcDbEntity
  8
VERMASSUNG
100
AcDbLine
 10
244.1463705309
 20
79.2932827736
 30
0.0
 11
244.1463705309
 21
139.2932827736
 31
0.0
  0
MTEXT
  5
1D5
330
1CD
100
AcDbEntity
  8
VERMASSUNG
100
AcDbMText
 10
241.5682350513
 20
106.0895655471
 30
0.0
 40
2.0
 41
0.0
 71
     1
 72
     1
  1
%%c
  7
SLDTEXTSTYLE0
 11
6.123233995736766E-17
 21
1.0
 31
0.0
 73
     1
 44
1.0
  0
MTEXT
  5
1D6
330
1CD
100
AcDbEntity
  8
VERMASSUNG
100
AcDbMText
 10
241.5682351677
 20
109.6982437703
 30
0.0
 40
2.0
 41
0.0
 71
     1
 72
     1
  1
60
  7
SLDTEXTSTYLE0
 11
6.123233995736766E-17
 21
1.0
 31
0.0
 73
     1
 44
1.0
  0
ENDBLK
  5
1CF
330
1CD
100
AcDbEntity
  8
0
100
AcDbBlockEnd
  0
BLOCK
  5
1D9
330
1D8
100
AcDbEntity
  8
0
100
AcDbBlockBegin
  2
*D5
 70
     1
 10
0.0
 20
0.0
 30
0.0
  3
*D5
  1

  0
SOLID
  5
1DB
330
1D8
100
AcDbEntity
  8
VERMASSUNG
100
AcDbTrace
 10
250.1463705309
 20
74.2932827736
 30
0.0
 11
250.5963705309
 21
77.2932827736
 31
0.0
 12
249.6963705309
 22
77.2932827736
 32
0.0
 13
249.6963705309
 23
77.2932827736
 33
0.0
  0
SOLID
  5
1DC
330
1D8
100
AcDbEntity
  8
VERMASSUNG
100
AcDbTrace
 10
250.1463705309
 20
144.2932827736
 30
0.0
 11
249.6963705309
 21
141.2932827736
 31
0.0
 12
250.5963705309
 22
141.2932827736
 32
0.0
 13
250.5963705309
 23
141.2932827736
 33
0.0
  0
LINE
  5
1DD
330
1D8
100
AcDbEntity
  8
VERMASSUNG
100
AcDbLine
 10
154.4108194964
 20
74.2932827736
 30
0.0
 11
251.1463705309
 21
74.2932827736
 31
0.0
  0
LINE
  5
1DE
330
1D8
100
AcDbEntity
  8
VERMASSUNG
100
AcDbLine
 10
154.4108194964
 20
144.2932827736
 30
0.0
 11
251.1463705309
 21
144.2932827736
 31
0.0
  0
LINE
  5
1DF
330
1D8
100
AcDbEntity
  8
VERMASSUNG
100
AcDbLine
 10
250.1463705309
 20
74.2932827736
 30
0.0
 11
250.1463705309
 21
144.2932827736
 31
0.0
  0
MTEXT
  5
1E0
330
1D8
100
AcDbEntity
  8
VERMASSUNG
100
AcDbMText
 10
247.5682350513
 20
106.0895655471
 30
0.0
 40
2.0
 41
0.0
 71
     1
 72
     1
  1
%%c
  7
SLDTEXTSTYLE0
 11
6.123233995736766E-17
 21
1.0
 31
0.0
 73
     1
 44
1.0
  0
MTEXT
  5
1E1
330
1D8
100
AcDbEntity
  8
VERMASSUNG
100
AcDbMText
 10
247.5682351677
 20
109.6982437703
 30
0.0
 40
2.0
 41
0.0
 71
     1
 72
     1
  1
70
  7
SLDTEXTSTYLE0
 11
6.123233995736766E-17
 21
1.0
 31
0.0
 73
     1
 44
1.0
  0
ENDBLK
  5
1DA
330
1D8
100
AcDbEntity
  8
0
100
AcDbBlockEnd
  0
BLOCK
  5
1E4
330
1E3
100
AcDbEntity
  8
0
100
AcDbBlockBegin
  2
*D6
 70
     1
 10
0.0
 20
0.0
 30
0.0
  3
*D6
  1

  0
SOLID
  5
1E6
330
1E3
100
AcDbEntity
  8
VERMASSUNG
100
AcDbTrace
 10
105.9108194964
 20
171.1881906826
 30
0.0
 11
108.9108194964
 21
170.7381906826
 31
0.0
 12
108.9108194964
 22
171.6381906826
 32
0.0
 13
108.9108194964
 23
171.6381906826
 33
0.0
  0
SOLID
  5
1E7
330
1E3
100
AcDbEntity
  8
VERMASSUNG
100
AcDbTrace
 10
230.9108194964
 20
171.1881906826
 30
0.0
 11
227.9108194964
 21
171.6381906826
 31
0.0
 12
227.9108194964
 22
170.7381906826
 32
0.0
 13
227.9108194964
 23
170.7381906826
 33
0.0
  0
LINE
  5
1E8
330
1E3
100
AcDbEntity
  8
VERMASSUNG
100
AcDbLine
 10
105.9108194964
 20
109.2932827736
 30
0.0
 11
105.9108194964
 21
172.1881906826
 31
0.0
  0
LINE
  5
1E9
330
1E3
100
AcDbEntity
  8
VERMASSUNG
100
AcDbLine
 10
230.9108194964
 20
136.9823065444
 30
0.0
 11
230.9108194964
 21
172.1881906826
 31
0.0
  0
LINE
  5
1EA
330
1E3
100
AcDbEntity
  8
VERMASSUNG
100
AcDbLine
 10
105.9108194964
 20
171.1881906826
 30
0.0
 11
230.9108194964
 21
171.1881906826
 31
0.0
  0
MTEXT
  5
1EB
330
1E3
100
AcDbEntity
  8
VERMASSUNG
100
AcDbMText
 10
166.5113319558
 20
173.7663260457
 30
0.0
 40
2.0
 41
0.0
 71
     1
 72
     1
  1
125
  7
SLDTEXTSTYLE0
 73
     1
 44
1.0
  0
ENDBLK
  5
1E5
330
1E3
100
AcDbEntity
  8
0
100
AcDbBlockEnd
  0
BLOCK
  5
1EE
330
1ED
100
AcDbEntity
  8
0
100
AcDbBlockBegin
  2
*D7
 70
     1
 10
0.0
 20
0.0
 30
0.0
  3
*D7
  1

  0
SOLID
  5
1F0
330
1ED
100
AcDbEntity
  8
VERMASSUNG
100
AcDbTrace
 10
134.8608194964
 20
165.1881906826
 30
0.0
 11
137.8608194964
 21
164.7381906826
 31
0.0
 12
137.8608194964
 22
165.6381906826
 32
0.0
 13
137.8608194964
 23
165.6381906826
 33
0.0
  0
SOLID
  5
1F1
330
1ED
100
AcDbEntity
  8
VERMASSUNG
100
AcDbTrace
 10
230.9108194964
 20
165.1881906826
 30
0.0
 11
227.9108194964
 21
165.6381906826
 31
0.0
 12
227.9108194964
 22
164.7381906826
 32
0.0
 13
227.9108194964
 23
164.7381906826
 33
0.0
  0
LINE
  5
1F2
330
1ED
100
AcDbEntity
  8
VERMASSUNG
100
AcDbLine
 10
134.8608194964
 20
157.2620225944
 30
0.0
 11
134.8608194964
 21
166.1881906826
 31
0.0
  0
LINE
  5
1F3
330
1ED
100
AcDbEntity
  8
VERMASSUNG
100
AcDbLine
 10
230.9108194964
 20
136.9823065444
 30
0.0
 11
230.9108194964
 21
166.1881906826
 31
0.0
  0
LINE
  5
1F4
330
1ED
100
AcDbEntity
  8
VERMASSUNG
100
AcDbLine
 10
134.8608194964
 20
165.1881906826
 30
0.0
 11
230.9108194964
 21
165.1881906826
 31
0.0
  0
MTEXT
  5
1F5
330
1ED
100
AcDbEntity
  8
VERMASSUNG
100
AcDbMText
 10
179.7865334726
 20
167.7663260457
 30
0.0
 40
2.0
 41
0.0
 71
     1
 72
     1
  1
96.05
  7
SLDTEXTSTYLE0
 73
     1
 44
1.0
  0
ENDBLK
  5
1EF
330
1ED
100
AcDbEntity
  8
0
100
AcDbBlockEnd
  0
BLOCK
  5
1F8
330
1F7
100
AcDbEntity
  8
0
100
AcDbBlockBegin
  2
*D8
 70
     1
 10
0.0
 20
0.0
 30
0.0
  3
*D8
  1

  0
SOLID
  5
1FA
330
1F7
100
AcDbEntity
  8
VERMASSUNG
100
AcDbTrace
 10
56.0108194964
 20
177.1881906826
 30
0.0
 11
59.0108194964
 21
176.7381906826
 31
0.0
 12
59.0108194964
 22
177.6381906826
 32
0.0
 13
59.0108194964
 23
177.6381906826
 33
0.0
  0
SOLID
  5
1FB
330
1F7
100
AcDbEntity
  8
VERMASSUNG
100
AcDbTrace
 10
230.9108194964
 20
177.1881906826
 30
0.0
 11
227.9108194964
 21
177.6381906826
 31
0.0
 12
227.9108194964
 22
176.7381906826
 32
0.0
 13
227.9108194964
 23
176.7381906826
 33
0.0
  0
LINE
  5
1FC
330
1F7
100
AcDbEntity
  8
VERMASSUNG
100
AcDbLine
 10
56.0108194964
 20
139.7959525161
 30
0.0
 11
56.0108194964
 21
178.1881906826
 31
0.0
  0
LINE
  5
1FD
330
1F7
100
AcDbEntity
  8
VERMASSUNG
100
AcDbLine
 10
230.9108194964
 20
136.9823065444
 30
0.0
 11
230.9108194964
 21
178.1881906826
 31
0.0
  0
LINE
  5
1FE
330
1F7
100
AcDbEntity
  8
VERMASSUNG
100
AcDbLine
 10
56.0108194964
 20
177.1881906826
 30
0.0
 11
230.9108194964
 21
177.1881906826
 31
0.0
  0
MTEXT
  5
1FF
330
1F7
100
AcDbEntity
  8
VERMASSUNG
100
AcDbMText
 10
140.4613232884
 20
179.7663260457
 30
0.0
 40
2.0
 41
0.0
 71
     1
 72
     1
  1
174.9
  7
SLDTEXTSTYLE0
 73
     1
 44
1.0
  0
ENDBLK
  5
1F9
330
1F7
100
AcDbEntity
  8
0
100
AcDbBlockEnd
  0
ENDSEC
  0
SECTION
  2
ENTITIES
  0
MTEXT
  5
45
330
1F
100
AcDbEntity
  8
KOPF_DÜNN
100
AcDbMText
 10
13.8892156294
 20
23.8442973028
 30
0.0
 40
3.0
 41
0.0
 71
     1
 72
     1
  1
HA0.S40.K21.125
  7
SLDTEXTSTYLE0
 73
     1
 44
1.0
  0
MTEXT
  5
46
330
1F
100
AcDbEntity
  8
VERMASSUNG
100
AcDbMText
 10
13.9329988022
 20
28.8834360957
 30
0.0
 40
3.0
 41
0.0
 71
     1
 72
     1
  1
Schrumpffutter_Heat shrink chuck
  7
SLDTEXTSTYLE0
 73
     1
 44
1.0
  0
MTEXT
  5
47
330
1F
100
AcDbEntity
  8
VERMASSUNG
100
AcDbMText
 10
98.8601118557
 20
13.8365368179
 30
0.0
 40
2.0
 41
0.0
 71
     1
 72
     1
  1
Datum: 02.05.2011
  7
SLDTEXTSTYLE0
 73
     1
 44
1.0
  0
MTEXT
  5
49
330
1F
100
AcDbEntity
  8
VERMASSUNG
100
AcDbMText
 10
13.933048693
 20
18.0482802738
 30
0.0
 40
2.0
 41
0.0
 71
     1
 72
     1
  1
DIN 69 893 HSK A 100
  7
SLDTEXTSTYLE1
 73
     1
 44
1.0
  0
MTEXT
  5
4A
330
1F
100
AcDbEntity
  8
VERMASSUNG
100
AcDbMText
 10
13.9808475933
 20
13.9090973692
 30
0.0
 40
2.0
 41
0.0
 71
     1
 72
     1
  1
Gewicht: 3902g
  7
SLDTEXTSTYLE0
 73
     1
 44
1.0
  0
LINE
  5
4B
330
1F
100
AcDbEntity
  8
0
  6
Continuous
 62
     7
370
    15
100
AcDbLine
 10
106.4108194964
 20
59.2932827736
 30
0.0
 11
110.8608194964
 21
59.2932827736
 31
0.0
  0
LINE
  5
4C
330
1F
100
AcDbEntity
  8
0
  6
Continuous
 62
     7
370
    15
100
AcDbLine
 10
110.8761974679
 20
159.2932827736
 30
0.0
 11
106.4108194964
 21
159.2932827736
 31
0.0
  0
ARC
  5
4D
330
1F
100
AcDbEntity
  8
0
  6
Continuous
 62
     7
370
    15
100
AcDbCircle
 10
106.4108194964
 20
59.7932827736
 30
0.0
 40
0.5
100
AcDbArc
 50
180.0
 51
270.0
  0
ARC
  5
4E
330
1F
100
AcDbEntity
  8
0
  6
Continuous
 62
     7
370
    15
100
AcDbCircle
 10
106.4108194964
 20
158.7932827736
 30
0.0
 40
0.5
100
AcDbArc
 50
90.0
 51
180.0
  0
ARC
  5
4F
330
1F
100
AcDbEntity
  8
0
  6
Continuous
 62
     7
370
    15
100
AcDbCircle
 10
139.8608194964
 20
69.2932827736
 30
0.0
 40
5.0
100
AcDbArc
 50
90.0
 51
180.0
  0
ARC
  5
50
330
1F
100
AcDbEntity
  8
0
  6
Continuous
 62
     7
370
    15
100
AcDbCircle
 10
139.8608194964
 20
149.2932827736
 30
0.0
 40
5.000000000000028
100
AcDbArc
 50
180.0
 51
270.0
  0
ARC
  5
51
330
1F
100
AcDbEntity
  8
0
  6
Continuous
 62
     7
370
    15
100
AcDbCircle
 10
105.0138825779
 20
70.6647974491
 30
0.0
 40
0.9962338214386793
100
AcDbArc
 50
25.7988228126
 51
90.0
  0
ARC
  5
52
330
1F
100
AcDbEntity
  8
0
  6
Continuous
 62
     7
370
    15
100
AcDbCircle
 10
105.0138825779
 20
147.921768098
 30
0.0
 40
0.9962338214386793
100
AcDbArc
 50
270.0
 51
334.2011771874
  0
LINE
  5
53
330
1F
100
AcDbEntity
  8
0
  6
Continuous
 62
     7
370
    15
100
AcDbLine
 10
103.4108194964
 20
71.4110312706
 30
0.0
 11
104.2166656508
 21
71.6269570968
 31
0.0
  0
LINE
  5
54
330
1F
100
AcDbEntity
  8
0
  6
Continuous
 62
     7
370
    15
100
AcDbLine
 10
104.2166656508
 20
146.9596084503
 30
0.0
 11
103.4108194964
 21
147.1755342766
 31
0.0
  0
LINE
  5
55
330
1F
100
AcDbEntity
  8
0
  6
Continuous
 62
     7
370
    15
100
AcDbLine
 10
84.4301405778
 20
146.224598459
 30
0.0
 11
66.1108194964
 21
145.3067968016
 31
0.0
  0
LINE
  5
56
330
1F
100
AcDbEntity
  8
0
  6
Continuous
 62
     7
370
    15
100
AcDbLine
 10
103.4108194964
 20
147.1755342766
 30
0.0
 11
97.3427803419
 21
146.8715242989
 31
0.0
  0
LINE
  5
57
330
1F
100
AcDbEntity
  8
0
  6
Continuous
 62
     7
370
    15
100
AcDbLine
 10
97.3429036184
 20
71.7150350721
 30
0.0
 11
103.4108194964
 21
71.4110312706
 31
0.0
  0
LINE
  5
58
330
1F
100
AcDbEntity
  8
0
  6
Continuous
 62
     7
370
    15
100
AcDbLine
 10
71.1108194964
 20
73.0292677435
 30
0.0
 11
84.4307706503
 21
72.3619355214
 31
0.0
  0
ARC
  5
59
330
1F
100
AcDbEntity
  8
0
  6
Continuous
 62
     7
370
    15
100
AcDbCircle
 10
104.4754846959
 20
70.6610312706
 30
0.0
 40
0.9999999999999858
100
AcDbArc
 50
90.0
 51
105.0
  0
ARC
  5
5A
330
1F
100
AcDbEntity
  8
0
  6
Continuous
 62
     7
370
    15
100
AcDbCircle
 10
104.4754846959
 20
147.9255342766
 30
0.0
 40
0.9999999999999716
100
AcDbArc
 50
255.0
 51
270.0
  0
LINE
  5
5B
330
1F
100
AcDbEntity
  8
0
  6
Continuous
 62
     7
370
    15
100
AcDbLine
 10
104.4754846959
 20
71.6610312706
 30
0.0
 11
105.0138825779
 21
71.6610312706
 31
0.0
  0
LINE
  5
5C
330
1F
100
AcDbEntity
  8
0
  6
Continuous
 62
     7
370
    15
100
AcDbLine
 10
105.0138825779
 20
146.9255342766
 30
0.0
 11
104.4754846959
 21
146.9255342766
 31
0.0
  0
LINE
  5
5D
330
1F
100
AcDbEntity
  8
0
  6
Continuous
 62
     7
370
    15
100
AcDbLine
 10
151.3257713862
 20
74.2932827736
 30
0.0
 11
167.3797958155
 21
74.2932827736
 31
0.0
  0
LINE
  5
5E
330
1F
100
AcDbEntity
  8
0
  6
Continuous
 62
     7
370
    15
100
AcDbLine
 10
139.8608194964
 20
74.2932827736
 30
0.0
 11
144.4050006212
 21
74.2932827736
 31
0.0
  0
LINE
  5
5F
330
1F
100
AcDbEntity
  8
0
  6
Continuous
 62
     7
370
    15
100
AcDbLine
 10
144.3673022535
 20
144.2932827736
 30
0.0
 11
139.8608194964
 21
144.2932827736
 31
0.0
  0
LINE
  5
60
330
1F
100
AcDbEntity
  8
0
  6
Continuous
 62
     7
370
    15
100
AcDbLine
 10
167.3797958155
 20
144.2932827736
 30
0.0
 11
151.3520249559
 21
144.2932827736
 31
0.0
  0
LINE
  5
61
330
1F
100
AcDbEntity
  8
0
  6
Continuous
 62
     7
370
    15
100
AcDbLine
 10
167.3797958155
 20
74.2932827736
 30
0.0
 11
228.6069672357
 21
79.1119656684
 31
0.0
  0
LINE
  5
62
330
1F
100
AcDbEntity
  8
0
  6
Continuous
 62
     7
370
    15
100
AcDbLine
 10
228.6069672357
 20
139.4745998788
 30
0.0
 11
167.3797958155
 21
144.2932827736
 31
0.0
  0
ARC
  5
63
330
1F
100
AcDbEntity
  8
0
  6
Continuous
 62
     7
370
    15
100
AcDbCircle
 10
228.4108194964
 20
81.6042590027
 30
0.0
 40
2.5
100
AcDbArc
 50
274.5
 51
0.0
  0
ARC
  5
64
330
1F
100
AcDbEntity
  8
0
  6
Continuous
 62
     7
370
    15
100
AcDbCircle
 10
228.4108194964
 20
136.9823065444
 30
0.0
 40
2.500000000000007
100
AcDbArc
 50
0.0
 51
85.5
  0
LINE
  5
65
330
1F
100
AcDbEntity
  8
0
  6
Continuous
 62
     7
370
    15
100
AcDbLine
 10
57.6608194964
 20
77.0432827736
 30
0.0
 11
69.2108194964
 21
77.0432827736
 31
0.0
  0
ARC
  5
66
330
1F
100
AcDbEntity
  8
0
  6
Continuous
 62
     7
370
    15
100
AcDbCircle
 10
69.2108194964
 20
75.1432827736
 30
0.0
 40
1.900000000000007
100
AcDbArc
 50
35.6630613694
 51
90.0
  0
ARC
  5
67
330
1F
100
AcDbEntity
  8
0
  6
Continuous
 62
     7
370
    15
100
AcDbCircle
 10
64.2108194964
 20
143.4432827736
 30
0.0
 40
1.900000000000006
100
AcDbArc
 50
270.0
 51
312.7708047792
  0
LINE
  5
68
330
1F
100
AcDbEntity
  8
0
  6
Continuous
 62
     7
370
    15
100
AcDbLine
 10
57.6608194964
 20
141.5432827736
 30
0.0
 11
56.0676031344
 21
139.9500664116
 31
0.0
  0
LINE
  5
69
330
1F
100
AcDbEntity
  8
0
  6
Continuous
 62
     7
370
    15
100
AcDbLine
 10
56.0683423968
 20
78.6357598731
 30
0.0
 11
57.6608194964
 21
77.0432827736
 31
0.0
  0
LINE
  5
6A
330
1F
100
AcDbEntity
  8
0
  6
Continuous
 62
     7
370
    15
100
AcDbLine
 10
64.2108194964
 20
141.5432827736
 30
0.0
 11
57.6608194964
 21
141.5432827736
 31
0.0
  0
LINE
  5
6B
330
1F
100
AcDbEntity
  8
0
  6
Continuous
 62
     7
370
    15
100
AcDbLine
 10
230.934767984
 20
134.9035840443
 30
0.0
 11
230.9108194964
 21
134.9491026322
 31
0.0
  0
LINE
  5
6C
330
1F
100
AcDbEntity
  8
0
  6
Continuous
 62
     7
370
    15
100
AcDbLine
 10
230.9108194964
 20
83.4913066879
 30
0.0
 11
231.0132876155
 21
83.6860665476
 31
0.0
  0
LINE
  5
6D
330
1F
100
AcDbEntity
  8
0
  6
Continuous
 62
     7
370
    15
100
AcDbLine
 10
129.1728485173
 20
60.5182891805
 30
0.0
 11
129.1728485173
 21
140.6432827736
 31
0.0
  0
SPLINE
  5
6E
330
1F
100
AcDbEntity
  8
0
  6
Continuous
 62
     7
370
    15
100
AcDbSpline
210
0.0
220
0.0
230
1.0
 70
     8
 71
     3
 72
     8
 73
     4
 74
     0
 42
0.00000001
 43
0.00000001
 40
0.0
 40
0.0
 40
0.0
 40
0.0
 40
1.0
 40
1.0
 40
1.0
 40
1.0
 10
129.1728485173134
 20
60.51828918053572
 30
0.0
 10
128.7217437879132
 20
61.31924911235564
 30
0.0
 10
128.2710459606698
 20
62.1204391239163
 30
0.0
 10
127.820819496392
 20
62.92189448654106
 30
0.0
  0
LINE
  5
6F
330
1F
100
AcDbEntity
  8
0
  6
Continuous
 62
     7
370
    15
100
AcDbLine
 10
127.8208194964
 20
62.9218944865
 30
0.0
 11
127.8208194964
 21
140.6432827736
 31
0.0
  0
SPLINE
  5
70
330
1F
100
AcDbEntity
  8
0
  6
Continuous
 62
     7
370
    15
100
AcDbSpline
210
0.0
220
0.0
230
1.0
 70
    24
 71
     3
 72
     8
 73
     4
 74
     0
 42
0.00000001
 43
0.00000001
 40
0.0
 40
0.0
 40
0.0
 40
0.0
 40
1.0
 40
1.0
 40
1.0
 40
1.0
 10
127.820819496392
 20
140.6432827735645
 30
0.0
 10
128.265032378746
 20
140.6432827735645
 30
0.0
 10
128.7160469449852
 20
140.6432827735645
 30
0.0
 10
129.1728485173134
 20
140.6432827735645
 30
0.0
  0
SPLINE
  5
71
330
1F
100
AcDbEntity
  8
0
  6
Continuous
 62
     7
370
    15
100
AcDbSpline
210
0.0
220
0.0
230
1.0
 70
     8
 71
     3
 72
    80
 73
    76
 74
     0
 42
0.00000001
 43
0.00000001
 40
-0.0312500000000001
 40
-0.0312500000000001
 40
0.0
 40
0.0
 40
0.0312499999999995
 40
0.0312499999999995
 40
0.0468749999999993
 40
0.0468749999999993
 40
0.0624999999999991
 40
0.0624999999999991
 40
0.0937499999999988
 40
0.0937499999999988
 40
0.1249999999999986
 40
0.1249999999999986
 40
0.1562499999999983
 40
0.1562499999999983
 40
0.1874999999999981
 40
0.1874999999999981
 40
0.2187499999999978
 40
0.2187499999999978
 40
0.2499999999999976
 40
0.2499999999999976
 40
0.2812499999999973
 40
0.2812499999999973
 40
0.3124999999999971
 40
0.3124999999999971
 40
0.3281249999999971
 40
0.3281249999999971
 40
0.3437499999999971
 40
0.3437499999999971
 40
0.3749999999999973
 40
0.3749999999999973
 40
0.4062499999999975
 40
0.4062499999999975
 40
0.4218749999999975
 40
0.4218749999999975
 40
0.4374999999999974
 40
0.4374999999999974
 40
0.4687499999999973
 40
0.4687499999999973
 40
0.4999999999999972
 40
0.4999999999999972
 40
0.531249999999997
 40
0.531249999999997
 40
0.562499999999997
 40
0.562499999999997
 40
0.5937499999999969
 40
0.5937499999999969
 40
0.6249999999999969
 40
0.6249999999999969
 40
0.6562499999999968
 40
0.6562499999999968
 40
0.6874999999999968
 40
0.6874999999999968
 40
0.7031249999999968
 40
0.7031249999999968
 40
0.7187499999999969
 40
0.7187499999999969
 40
0.7499999999999973
 40
0.7499999999999973
 40
0.7812499999999979
 40
0.7812499999999979
 40
0.7968749999999982
 40
0.7968749999999982
 40
0.8124999999999984
 40
0.8124999999999984
 40
0.8437499999999988
 40
0.8437499999999988
 40
0.874999999999999
 40
0.874999999999999
 40
0.9062499999999993
 40
0.9062499999999993
 40
0.9374999999999996
 40
0.9374999999999996
 40
0.9687499999999999
 40
0.9687499999999999
 40
1.0
 40
1.0
 40
1.03125
 40
1.03125
 10
114.5802741836157
 20
152.7079122371958
 30
0.0
 10
115.2413648091683
 20
152.7079122371958
 30
0.0
 10
115.5663449384199
 20
152.724120468578
 30
0.0
 10
116.0458183496664
 20
152.7714851005976
 30
0.0
 10
116.2043001675072
 20
152.7911393124882
 30
0.0
 10
116.5185197000115
 20
152.8382504686808
 30
0.0
 10
116.6746399836918
 20
152.8658317881755
 30
0.0
 10
117.1286940126484
 20
152.9583675749693
 30
0.0
 10
117.4157973955883
 20
153.0334380085658
 30
0.0
 10
117.9591519516153
 20
153.2086763171764
 30
0.0
 10
118.2162555628209
 20
153.3096776150147
 30
0.0
 10
118.6771618177596
 20
153.5270338134756
 30
0.0
 10
118.8840595269746
 20
153.6441981452478
 30
0.0
 10
119.2495848409668
 20
153.8942680694764
 30
0.0
 10
119.4047903630928
 20
154.0252141582354
 30
0.0
 10
119.6542207496925
 20
154.2909491019478
 30
0.0
 10
119.7503107054776
 20
154.4277026952587
 30
0.0
 10
119.8788295546712
 20
154.7017682700977
 30
0.0
 10
119.910640424849
 20
154.8367083605665
 30
0.0
 10
119.9109970746223
 20
155.1021799976353
 30
0.0
 10
119.8784998224252
 20
155.2340044747765
 30
0.0
 10
119.7508743487107
 20
155.4834540743969
 30
0.0
 10
119.6564459476588
 20
155.601886766325
 30
0.0
 10
119.4685851276733
 20
155.770755963419
 30
0.0
 10
119.3977571288701
 20
155.8258419585392
 30
0.0
 10
119.2430352369048
 20
155.9310947870276
 30
0.0
 10
119.1590587667214
 20
155.981430015788
 30
0.0
 10
118.887735097077
 20
156.126005848326
 30
0.0
 10
118.6811858784747
 20
156.2138674347431
 30
0.0
 10
118.2145757382856
 20
156.3735885277426
 30
0.0
 10
117.9622101686602
 20
156.4428268242097
 30
0.0
 10
117.5563088269815
 20
156.5326142134396
 30
0.0
 10
117.416408209504
 20
156.5601801755258
 30
0.0
 10
117.127184274257
 20
156.6106709764521
 30
0.0
 10
116.9773448179678
 20
156.6336344153028
 30
0.0
 10
116.523228248357
 20
156.6942649317216
 30
0.0
 10
116.2115770296201
 20
156.7243389605174
 30
0.0
 10
115.5705805647078
 20
156.7649285477761
 30
0.0
 10
115.2390529367556
 20
156.7752407779921
 30
0.0
 10
114.5862618916841
 20
156.7753163451579
 30
0.0
 10
114.2617256866523
 20
156.7654147396902
 30
0.0
 10
113.6164562372359
 20
156.7249282091649
 30
0.0
 10
113.3007132310731
 20
156.6944669092802
 30
0.0
 10
112.6988239360894
 20
156.6143162378437
 30
0.0
 10
112.408074705278
 20
156.5640340060365
 30
0.0
 10
111.8611629135935
 20
156.4433638232635
 30
0.0
 10
111.6093855497566
 20
156.3741399640935
 30
0.0
 10
111.1479975571354
 20
156.2166882364529
 30
0.0
 10
110.9367282775373
 20
156.1273397617791
 30
0.0
 10
110.5734239251612
 20
155.9340918910783
 30
0.0
 10
110.4196172767183
 20
155.829963899199
 30
0.0
 10
110.2309978071209
 20
155.6613395130155
 30
0.0
 10
110.1749673209118
 20
155.6027111113406
 30
0.0
 10
110.0793935591757
 20
155.4832561965143
 30
0.0
 10
110.0396306421507
 20
155.4223364076761
 30
0.0
 10
109.9438588918385
 20
155.2359316815023
 30
0.0
 10
109.9111360527124
 20
155.1068188637072
 30
0.0
 10
109.9105074663833
 20
154.8381619407513
 30
0.0
 10
109.9426936111181
 20
154.7027911999946
 30
0.0
 10
110.0376043129737
 20
154.4992408917586
 30
0.0
 10
110.0770710963726
 20
154.4312689676952
 30
0.0
 10
110.1720010950935
 20
154.2951767445643
 30
0.0
 10
110.2277579228569
 20
154.2268266443549
 30
0.0
 10
110.4156980408268
 20
154.0261236313127
 30
0.0
 10
110.569059510543
 20
153.8967353575
 30
0.0
 10
110.9313237454233
 20
153.6480699254502
 30
0.0
 10
111.1421722188892
 20
153.528260283082
 30
0.0
 10
111.6028421892081
 20
153.3107379955093
 30
0.0
 10
111.854216568792
 20
153.2116528956734
 30
0.0
 10
112.4001244556901
 20
153.0349804217566
 30
0.0
 10
112.6909470303413
 20
152.9589233336226
 30
0.0
 10
113.2922736451214
 20
152.8360783562696
 30
0.0
 10
113.6067922297337
 20
152.7883722312164
 30
0.0
 10
114.2533736858537
 20
152.7241236960968
 30
0.0
 10
114.5802741836157
 20
152.7079122371958
 30
0.0
 10
115.2413648091683
 20
152.7079122371958
 30
0.0
  0
LINE
  5
72
330
1F
100
AcDbEntity
  8
0
  6
Continuous
 62
     7
370
    15
100
AcDbLine
 10
110.8608194964
 20
140.6432827736
 30
0.0
 11
122.6487904755
 21
140.6432827736
 31
0.0
  0
LINE
  5
73
330
1F
100
AcDbEntity
  8
0
  6
Continuous
 62
     7
370
    15
100
AcDbLine
 10
122.6487904755
 20
60.5182891805
 30
0.0
 11
122.6487904755
 21
140.6432827736
 31
0.0
  0
LINE
  5
74
330
1F
100
AcDbEntity
  8
0
  6
Continuous
 62
     7
370
    15
100
AcDbLine
 10
122.6487904755
 20
60.5182891805
 30
0.0
 11
120.8608194964
 21
60.5182891805
 31
0.0
  0
SPLINE
  5
75
330
1F
100
AcDbEntity
  8
0
  6
Continuous
 62
     7
370
    15
100
AcDbSpline
210
0.0
220
0.0
230
1.0
 70
     8
 71
     3
 72
    30
 73
    26
 74
     0
 42
0.00000001
 43
0.00000001
 40
0.0
 40
0.0
 40
0.0
 40
0.0
 40
0.1250000000000002
 40
0.1250000000000002
 40
0.1875000000000003
 40
0.1875000000000003
 40
0.2500000000000004
 40
0.2500000000000004
 40
0.3750000000000001
 40
0.3750000000000001
 40
0.4374999999999998
 40
0.4374999999999998
 40
0.4999999999999996
 40
0.4999999999999996
 40
0.6249999999999996
 40
0.6249999999999996
 40
0.6874999999999997
 40
0.6874999999999997
 40
0.7499999999999997
 40
0.7499999999999997
 40
0.8124999999999998
 40
0.8124999999999998
 40
0.8749999999999999
 40
0.8749999999999999
 40
1.0
 40
1.0
 40
1.0
 40
1.0
 10
120.860819496392
 20
60.51828918053572
 30
0.0
 10
120.198074802547
 20
60.51828918053573
 30
0.0
 10
119.5468189434312
 20
60.50344910394691
 30
0.0
 10
118.586368405173
 20
60.46107953971729
 30
0.0
 10
118.26897696194
 20
60.44360143693812
 30
0.0
 10
117.6398134603852
 20
60.40227315038582
 30
0.0
 10
117.3276652739434
 20
60.37834787692812
 30
0.0
 10
116.4203579720952
 20
60.29954136046121
 30
0.0
 10
115.8469330144539
 20
60.23723534048474
 30
0.0
 10
115.0330561448793
 20
60.13410602024538
 30
0.0
 10
114.7682499483094
 20
60.09792210119888
 30
0.0
 10
114.2613425374951
 20
60.02412731699837
 30
0.0
 10
114.0199483861416
 20
59.98665345822672
 30
0.0
 10
113.3308069140092
 20
59.87394151488699
 30
0.0
 10
112.917752099145
 20
59.79840541741321
 30
0.0
 10
112.3695972797699
 20
59.69001216039571
 30
0.0
 10
112.2001346724243
 20
59.65493992873245
 30
0.0
 10
111.892117424409
 20
59.5887044681326
 30
0.0
 10
111.7527374038006
 20
59.55737777137788
 30
0.0
 10
111.5029518911739
 20
59.49896899979694
 30
0.0
 10
111.3925457785199
 20
59.47188576461409
 30
0.0
 10
111.2012879248822
 20
59.42262601000051
 30
0.0
 10
111.1201684065979
 20
59.40036403019287
 30
0.0
 10
110.9260214864895
 20
59.3427971230246
 30
0.0
 10
110.860819496392
 20
59.3165375182386
 30
0.0
 10
110.860819496392
 20
59.30328377376457
 30
0.0
  0
LINE
  5
76
330
1F
100
AcDbEntity
  8
0
  6
Continuous
 62
     7
370
    15
100
AcDbLine
 10
110.8608194964
 20
59.3032837738
 30
0.0
 11
110.8608194964
 21
59.2932827736
 31
0.0
  0
SPLINE
  5
77
330
1F
100
AcDbEntity
  8
0
  6
Continuous
 62
     7
370
    15
100
AcDbSpline
210
0.0
220
0.0
230
1.0
 70
     8
 71
     3
 72
    23
 73
    19
 74
     0
 42
0.00000001
 43
0.00000001
 40
0.0
 40
0.0
 40
0.0
 40
0.0
 40
0.0520256687590417
 40
0.1044186119084699
 40
0.1579654762732603
 40
0.2119084390155455
 40
0.2639329008030786
 40
0.3697142245600881
 40
0.4235868577364621
 40
0.4762679679182533
 40
0.5833878371337101
 40
0.6379530306539528
 40
0.6910551819358521
 40
0.7445319929992287
 40
0.7992014233075218
 40
0.8542881036302091
 40
0.9066815619543741
 40
1.0
 40
1.0
 40
1.0
 40
1.0
 10
120.860819496392
 20
158.2830776292281
 30
0.0
 10
120.587807099197
 20
158.2843991977349
 30
0.0
 10
120.0398549780828
 20
158.2870516643407
 30
0.0
 10
119.2167086206276
 20
158.3085265527682
 30
0.0
 10
118.3954635200354
 20
158.3427442714363
 30
0.0
 10
117.5940347099272
 20
158.3897961816037
 30
0.0
 10
116.5616514557842
 20
158.4667851324295
 30
0.0
 10
115.5844034411602
 20
158.56266238309
 30
0.0
 10
114.6833564299042
 20
158.6695918308782
 30
0.0
 10
113.8343826508028
 20
158.7814386387187
 30
0.0
 10
113.0768142051946
 20
158.895667237448
 30
0.0
 10
112.4318259147451
 20
159.0022469838118
 30
0.0
 10
112.0072520415473
 20
159.076176940213
 30
0.0
 10
111.6446953918982
 20
159.1420674982698
 30
0.0
 10
111.3434938347746
 20
159.198763849484
 30
0.0
 10
111.1162402627398
 20
159.2427000957186
 30
0.0
 10
110.9101329655173
 20
159.2833585425467
 30
0.0
 10
110.8894460274843
 20
159.2875419819361
 30
0.0
 10
110.8761974678726
 20
159.2902211868549
 30
0.0
  0
LINE
  5
78
330
1F
100
AcDbEntity
  8
0
  6
Continuous
 62
     7
370
    15
100
AcDbLine
 10
122.6487904755
 20
158.2830776292
 30
0.0
 11
120.8608194964
 21
158.2830776292
 31
0.0
  0
LINE
  5
79
330
1F
100
AcDbEntity
  8
0
  6
Continuous
 62
     7
370
    15
100
AcDbLine
 10
122.6487904755
 20
148.2442455345
 30
0.0
 11
122.6487904755
 21
158.2830776292
 31
0.0
  0
LINE
  5
7A
330
1F
100
AcDbEntity
  8
0
  6
Continuous
 62
     7
370
    15
100
AcDbLine
 10
120.5687863446
 20
148.2442455345
 30
0.0
 11
122.6487904755
 21
148.2442455345
 31
0.0
  0
SPLINE
  5
7B
330
1F
100
AcDbEntity
  8
0
  6
Continuous
 62
     7
370
    15
100
AcDbSpline
210
0.0
220
0.0
230
1.0
 70
     8
 71
     3
 72
    22
 73
    18
 74
     0
 42
0.00000001
 43
0.00000001
 40
0.0
 40
0.0
 40
0.0
 40
0.0
 40
0.2500000000000002
 40
0.2500000000000002
 40
0.3750000000000003
 40
0.3750000000000003
 40
0.5000000000000004
 40
0.5000000000000004
 40
0.6250000000000004
 40
0.6250000000000004
 40
0.7500000000000004
 40
0.7500000000000004
 40
0.8750000000000004
 40
0.8750000000000004
 40
0.9375000000000002
 40
0.9375000000000002
 40
1.0
 40
1.0
 40
1.0
 40
1.0
 10
110.860819496392
 20
140.6432827735645
 30
0.0
 10
111.0635444523111
 20
141.6625291154292
 30
0.0
 10
111.3782881741065
 20
142.6216372653684
 30
0.0
 10
112.0863436437774
 20
143.9641163428777
 30
0.0
 10
112.3648062739951
 20
144.3983249256177
 30
0.0
 10
113.0035736806323
 20
145.2099526411199
 30
0.0
 10
113.3639873604225
 20
145.5892329340567
 30
0.0
 10
114.1815195924118
 20
146.2921915130777
 30
0.0
 10
114.6426875756989
 20
146.6172203307783
 30
0.0
 10
115.6406778221827
 20
147.1822356541691
 30
0.0
 10
116.180437016175
 20
147.4259392483757
 30
0.0
 10
117.3550299802063
 20
147.8301391760207
 30
0.0
 10
117.9667661661982
 20
147.9825763690662
 30
0.0
 10
118.9186753910598
 20
148.1379039166749
 30
0.0
 10
119.2419085553205
 20
148.1774086967249
 30
0.0
 10
119.9009717265958
 20
148.2307178173936
 30
0.0
 10
120.2350357371698
 20
148.2442455344515
 30
0.0
 10
120.5687863445713
 20
148.2442455344515
 30
0.0
  0
LINE
  5
7C
330
1F
100
AcDbEntity
  8
0
  6
Continuous
 62
     7
370
    15
100
AcDbLine
 10
105.9108194964
 20
59.7932827736
 30
0.0
 11
105.9108194964
 21
158.7932827655
 31
0.0
  0
LINE
  5
7D
330
1F
100
AcDbEntity
  8
0
  6
Continuous
 62
     7
370
    15
100
AcDbLine
 10
134.8608194964
 20
61.5439372283
 30
0.0
 11
134.8608194964
 21
140.6432827736
 31
0.0
  0
SPLINE
  5
7E
330
1F
100
AcDbEntity
  8
0
  6
Continuous
 62
     7
370
    15
100
AcDbSpline
210
0.0
220
0.0
230
1.0
 70
     8
 71
     3
 72
    14
 73
    10
 74
     0
 42
0.00000001
 43
0.00000001
 40
0.0
 40
0.0
 40
0.0
 40
0.0
 40
0.25
 40
0.25
 40
0.5
 40
0.5
 40
0.75
 40
0.75
 40
1.0
 40
1.0
 40
1.0
 40
1.0
 10
134.860819496392
 20
61.54393722831123
 30
0.0
 10
134.860819496392
 20
61.41051153225669
 30
0.0
 10
134.8355083964811
 20
61.27866372441234
 30
0.0
 10
134.7371736326364
 20
61.03214117571824
 30
0.0
 10
134.6640296283803
 20
60.9183359874777
 30
0.0
 10
134.4805915672846
 20
60.72787881053042
 30
0.0
 10
134.368905232946
 20
60.6502439466805
 30
0.0
 10
134.1264018026397
 20
60.54595253656803
 30
0.0
 10
133.9930273739455
 20
60.51828918053568
 30
0.0
 10
133.860819496392
 20
60.51828918053569
 30
0.0
  0
SPLINE
  5
7F
330
1F
100
AcDbEntity
  8
0
  6
Continuous
 62
     7
370
    15
100
AcDbSpline
210
0.0
220
0.0
230
1.0
 70
    24
 71
     3
 72
    12
 73
     8
 74
     0
 42
0.00000001
 43
0.00000001
 40
0.0
 40
0.0
 40
0.0
 40
0.0
 40
0.2500000000000032
 40
0.2500000000000032
 40
0.5000000000000064
 40
0.5000000000000064
 40
1.0
 40
1.0
 40
1.0
 40
1.0
 10
133.860819496392
 20
140.6432827735645
 30
0.0
 10
134.012909733337
 20
140.6432827735645
 30
0.0
 10
134.1613689944124
 20
140.6432827735645
 30
0.0
 10
134.4187726266781
 20
140.6432827735645
 30
0.0
 10
134.52787737452
 20
140.6432827735645
 30
0.0
 10
134.7819368509276
 20
140.6432827735645
 30
0.0
 10
134.860819496392
 20
140.6432827735645
 30
0.0
 10
134.860819496392
 20
140.6432827735645
 30
0.0
  0
LINE
  5
80
330
1F
100
AcDbEntity
  8
0
  6
Continuous
 62
     7
370
    15
100
AcDbLine
 10
124.0008194964
 20
62.9218944865
 30
0.0
 11
124.0008194964
 21
140.6432827736
 31
0.0
  0
SPLINE
  5
81
330
1F
100
AcDbEntity
  8
0
  6
Continuous
 62
     7
370
    15
100
AcDbSpline
210
0.0
220
0.0
230
1.0
 70
     8
 71
     3
 72
     8
 73
     4
 74
     0
 42
0.00000001
 43
0.00000001
 40
0.0
 40
0.0
 40
0.0
 40
0.0
 40
1.0
 40
1.0
 40
1.0
 40
1.0
 10
124.000819496392
 20
62.92189448654105
 30
0.0
 10
123.5505930321142
 20
62.12043912391629
 30
0.0
 10
123.0998952048708
 20
61.31924911235562
 30
0.0
 10
122.6487904754706
 20
60.51828918053572
 30
0.0
  0
SPLINE
  5
82
330
1F
100
AcDbEntity
  8
0
  6
Continuous
 62
     7
370
    15
100
AcDbSpline
210
0.0
220
0.0
230
1.0
 70
    24
 71
     3
 72
     8
 73
     4
 74
     0
 42
0.00000001
 43
0.00000001
 40
0.0
 40
0.0
 40
0.0
 40
0.0
 40
1.0
 40
1.0
 40
1.0
 40
1.0
 10
122.6487904754706
 20
140.6432827735645
 30
0.0
 10
123.1055920477989
 20
140.6432827735645
 30
0.0
 10
123.5566066140381
 20
140.6432827735645
 30
0.0
 10
124.000819496392
 20
140.6432827735645
 30
0.0
  0
LINE
  5
83
330
1F
100
AcDbEntity
  8
0
  6
Continuous
 62
     7
370
    15
100
AcDbLine
 10
133.8608194964
 20
60.5182891805
 30
0.0
 11
129.1728485173
 21
60.5182891805
 31
0.0
  0
LINE
  5
84
330
1F
100
AcDbEntity
  8
0
  6
Continuous
 62
     7
370
    15
100
AcDbLine
 10
129.1728485173
 20
140.6432827736
 30
0.0
 11
133.8608194964
 21
140.6432827736
 31
0.0
  0
SPLINE
  5
85
330
1F
100
AcDbEntity
  8
0
  6
Continuous
 62
     7
370
    15
100
AcDbSpline
210
0.0
220
0.0
230
1.0
 70
     8
 71
     3
 72
    14
 73
    10
 74
     0
 42
0.00000001
 43
0.00000001
 40
0.0
 40
0.0
 40
0.0
 40
0.0
 40
0.25
 40
0.25
 40
0.5
 40
0.5
 40
0.75
 40
0.75
 40
1.0
 40
1.0
 40
1.0
 40
1.0
 10
127.820819496392
 20
63.83010399116964
 30
0.0
 10
127.820819496392
 20
63.93714807216402
 30
0.0
 10
127.8007018092338
 20
64.04238321240646
 30
0.0
 10
127.7222106199682
 20
64.24023369925416
 30
0.0
 10
127.664053995167
 20
64.33128546281908
 30
0.0
 10
127.5175387395489
 20
64.48445155674386
 30
0.0
 10
127.4288961909079
 20
64.54674600295327
 30
0.0
 10
127.2331728681075
 20
64.63153978848926
 30
0.0
 10
127.1279416770366
 20
64.65360731551488
 30
0.0
 10
127.020819496392
 20
64.65360731551489
 30
0.0
  0
SPLINE
  5
86
330
1F
100
AcDbEntity
  8
0
  6
Continuous
 62
     7
370
    15
100
AcDbSpline
210
0.0
220
0.0
230
1.0
 70
    24
 71
     3
 72
    14
 73
    10
 74
     0
 42
0.00000001
 43
0.00000001
 40
0.0
 40
0.0
 40
0.0
 40
0.0
 40
0.25
 40
0.25
 40
0.5
 40
0.5
 40
0.75
 40
0.75
 40
1.0
 40
1.0
 40
1.0
 40
1.0
 10
127.020819496392
 20
140.6432827735645
 30
0.0
 10
127.1445892611571
 20
140.6432827735645
 30
0.0
 10
127.268956365164
 20
140.6432827735645
 30
0.0
 10
127.4753128338901
 20
140.6432827735645
 30
0.0
 10
127.5606409773084
 20
140.6432827735645
 30
0.0
 10
127.6928330360237
 20
140.6432827735645
 30
0.0
 10
127.7414782797743
 20
140.6432827735645
 30
0.0
 10
127.805014071503
 20
140.6432827735645
 30
0.0
 10
127.820819496392
 20
140.6432827735645
 30
0.0
 10
127.820819496392
 20
140.6432827735645
 30
0.0
  0
SPLINE
  5
87
330
1F
100
AcDbEntity
  8
0
  6
Continuous
 62
     7
370
    15
100
AcDbSpline
210
0.0
220
0.0
230
1.0
 70
     8
 71
     3
 72
    12
 73
     8
 74
     0
 42
0.00000001
 43
0.00000001
 40
0.0
 40
0.0
 40
0.0
 40
0.0
 40
0.25
 40
0.25
 40
0.5
 40
0.5
 40
1.0
 40
1.0
 40
1.0
 40
1.0
 10
124.800819496392
 20
64.65360731551489
 30
0.0
 10
124.6950588430431
 20
64.65360731551486
 30
0.0
 10
124.5870712148601
 20
64.63106780951448
 30
0.0
 10
124.3924765495945
 20
64.54649717751917
 30
0.0
 10
124.3036046367557
 20
64.48401552476038
 30
0.0
 10
124.0844123444298
 20
64.25462657328822
 30
0.0
 10
124.000819496392
 20
64.04204323576583
 30
0.0
 10
124.000819496392
 20
63.83010399116964
 30
0.0
  0
SPLINE
  5
88
330
1F
100
AcDbEntity
  8
0
  6
Continuous
 62
     7
370
    15
100
AcDbSpline
210
0.0
220
0.0
230
1.0
 70
    24
 71
     3
 72
    14
 73
    10
 74
     0
 42
0.00000001
 43
0.00000001
 40
0.0
 40
0.0
 40
0.0
 40
0.0
 40
0.25
 40
0.25
 40
0.5
 40
0.5
 40
0.75
 40
0.75
 40
1.0
 40
1.0
 40
1.0
 40
1.0
 10
124.000819496392
 20
140.6432827735645
 30
0.0
 10
124.000819496392
 20
140.6432827735645
 30
0.0
 10
124.0165338168579
 20
140.6432827735645
 30
0.0
 10
124.0802177953263
 20
140.6432827735645
 30
0.0
 10
124.1288209897368
 20
140.6432827735645
 30
0.0
 10
124.2615045121623
 20
140.6432827735645
 30
0.0
 10
124.346606616473
 20
140.6432827735645
 30
0.0
 10
124.5530488513831
 20
140.6432827735645
 30
0.0
 10
124.6771297930061
 20
140.6432827735645
 30
0.0
 10
124.800819496392
 20
140.6432827735645
 30
0.0
  0
LINE
  5
89
330
1F
100
AcDbEntity
  8
0
  6
Continuous
 62
     7
370
    15
100
AcDbLine
 10
127.0208194964
 20
64.6536073155
 30
0.0
 11
124.8008194964
 21
64.6536073155
 31
0.0
  0
LINE
  5
8A
330
1F
100
AcDbEntity
  8
0
  6
Continuous
 62
     7
370
    15
100
AcDbLine
 10
124.8008194964
 20
140.6432827736
 30
0.0
 11
127.0208194964
 21
140.6432827736
 31
0.0
  0
LINE
  5
8B
330
1F
100
AcDbEntity
  8
0
  6
Continuous
 62
     7
370
    15
100
AcDbLine
 10
103.4108194964
 20
71.4110312706
 30
0.0
 11
103.4108194964
 21
147.1755342766
 31
0.0
  0
LINE
  5
8C
330
1F
100
AcDbEntity
  8
0
  6
Continuous
 62
     7
370
    15
100
AcDbLine
 10
71.1108194964
 20
73.0292677435
 30
0.0
 11
71.1108194964
 21
75.4239495082
 31
0.0
  0
SPLINE
  5
8D
330
1F
100
AcDbEntity
  8
0
  6
Continuous
 62
     7
370
    15
100
AcDbSpline
210
0.0
220
0.0
230
1.0
 70
     8
 71
     3
 72
    14
 73
    10
 74
     0
 42
0.00000001
 43
0.00000001
 40
0.0
 40
0.0
 40
0.0
 40
0.0
 40
0.25
 40
0.25
 40
0.5
 40
0.5
 40
0.75
 40
0.75
 40
1.0
 40
1.0
 40
1.0
 40
1.0
 10
70.10639702505505
 20
77.126801429821
 30
0.0
 10
70.19516560300036
 20
76.96826729851306
 30
0.0
 10
70.31688344167927
 20
76.81582462162449
 30
0.0
 10
70.55193305153611
 20
76.51868999779558
 30
0.0
 10
70.667563237753
 20
76.3740073541782
 30
0.0
 10
70.86796817118082
 20
76.09071815167479
 30
0.0
 10
70.95336846316513
 20
75.95216415863796
 30
0.0
 10
71.07507409688237
 20
75.68078012860441
 30
0.0
 10
71.11081949639501
 20
75.54864425996979
 30
0.0
 10
71.110819496395
 20
75.42394950819903
 30
0.0
  0
SPLINE
  5
8E
330
1F
100
AcDbEntity
  8
0
  6
Continuous
 62
     7
370
    15
100
AcDbSpline
210
0.0
220
0.0
230
1.0
 70
     8
 71
     3
 72
    14
 73
    10
 74
     0
 42
0.00000001
 43
0.00000001
 40
0.0
 40
0.0
 40
0.0
 40
0.0
 40
0.124999999999999
 40
0.124999999999999
 40
0.249999999999998
 40
0.249999999999998
 40
0.5000000000000007
 40
0.5000000000000007
 40
1.0
 40
1.0
 40
1.0
 40
1.0
 10
69.21081949639199
 20
77.7556313689211
 30
0.0
 10
69.2784017961765
 20
77.7627872540225
 30
0.0
 10
69.35088937392439
 20
77.75836278398349
 30
0.0
 10
69.48318048319032
 20
77.72865662621314
 30
0.0
 10
69.54045786258051
 20
77.70537234463491
 30
0.0
 10
69.69010828978078
 20
77.62788710478459
 30
0.0
 10
69.76382158530228
 20
77.56603527788322
 30
0.0
 10
69.95162956862852
 20
77.3813578252349
 30
0.0
 10
70.03566987498998
 20
77.2531149019437
 30
0.0
 10
70.10639702505625
 20
77.1268014298211
 30
0.0
  0
SPLINE
  5
8F
330
1F
100
AcDbEntity
  8
0
  6
Continuous
 62
     7
370
    15
100
AcDbSpline
210
0.0
220
0.0
230
1.0
 70
     8
 71
     3
 72
     8
 73
     4
 74
     0
 42
0.00000001
 43
0.00000001
 40
0.0
 40
0.0
 40
0.0
 40
0.0
 40
1.0
 40
1.0
 40
1.0
 40
1.0
 10
65.66617910831121
 20
77.33758278412934
 30
0.0
 10
66.83147741902009
 20
77.49277025601594
 30
0.0
 10
68.0160926330599
 20
77.62912889432627
 30
0.0
 10
69.21081949639199
 20
77.7556313689211
 30
0.0
  0
SPLINE
  5
90
330
1F
100
AcDbEntity
  8
0
  6
Continuous
 62
     7
370
    15
100
AcDbSpline
210
0.0
220
0.0
230
1.0
 70
     8
 71
     3
 72
    14
 73
    10
 74
     0
 42
0.00000001
 43
0.00000001
 40
0.0
 40
0.0
 40
0.0
 40
0.0
 40
0.4999999999999972
 40
0.4999999999999972
 40
0.7499999999999971
 40
0.7499999999999971
 40
0.8749999999999986
 40
0.8749999999999986
 40
1.0
 40
1.0
 40
1.0
 40
1.0
 10
57.9107446123633
 20
77.0474506049994
 30
0.0
 10
59.21904617489704
 20
77.05446532874052
 30
0.0
 10
60.52410554955386
 20
77.06987390518502
 30
0.0
 10
62.46998160104219
 20
77.1237704606517
 30
0.0
 10
63.11667910478118
 20
77.14680202525439
 30
0.0
 10
64.08052146863552
 20
77.19774455012514
 30
0.0
 10
64.4007601605696
 20
77.21747947235832
 30
0.0
 10
65.03745538691201
 20
77.2669666008299
 30
0.0
 10
65.35417079519493
 20
77.29603137975913
 30
0.0
 10
65.66617910831124
 20
77.33758278412928
 30
0.0
  0
SPLINE
  5
91
330
1F
100
AcDbEntity
  8
0
  6
Continuous
 62
     7
370
    15
100
AcDbSpline
210
0.0
220
0.0
230
1.0
 70
     8
 71
     3
 72
    12
 73
     8
 74
     0
 42
0.00000001
 43
0.00000001
 40
0.0
 40
0.0
 40
0.0
 40
0.0
 40
0.2500000000000009
 40
0.2500000000000009
 40
0.5000000000000018
 40
0.5000000000000018
 40
1.0
 40
1.0
 40
1.0
 40
1.0
 10
64.210819496392
 20
141.379805665061
 30
0.0
 10
63.69212067456381
 20
141.4123284399092
 30
0.0
 10
63.17040910135882
 20
141.4356251810797
 30
0.0
 10
62.12411708486324
 20
141.4734706955018
 30
0.0
 10
61.59944545919298
 20
141.4877391699979
 30
0.0
 10
60.02259943665375
 20
141.5219486574562
 30
0.0
 10
58.96764412210684
 20
141.5334481614001
 30
0.0
 10
57.9107446123616
 20
141.5391149421297
 30
0.0
  0
SPLINE
  5
92
330
1F
100
AcDbEntity
  8
0
  6
Continuous
 62
     7
370
    15
100
AcDbSpline
210
0.0
220
0.0
230
1.0
 70
     8
 71
     3
 72
    20
 73
    16
 74
     0
 42
0.00000001
 43
0.00000001
 40
0.0
 40
0.0
 40
0.0
 40
0.0
 40
0.2500000000000011
 40
0.2500000000000011
 40
0.5000000000000021
 40
0.5000000000000021
 40
0.7500000000000031
 40
0.7500000000000031
 40
0.8750000000000008
 40
0.8750000000000008
 40
0.9375000000000006
 40
0.9375000000000006
 40
0.9687500000000003
 40
0.9687500000000003
 40
1.0
 40
1.0
 40
1.0
 40
1.0
 10
66.110819496392
 20
143.0378915105491
 30
0.0
 10
66.110819496392
 20
142.9022091908023
 30
0.0
 10
66.06210770717537
 20
142.7611222046623
 30
0.0
 10
65.89294628395018
 20
142.4690504859317
 30
0.0
 10
65.77116587003188
 20
142.3174017438413
 30
0.0
 10
65.47361877528235
 20
142.0149933036882
 30
0.0
 10
65.29970616957958
 20
141.8624046675649
 30
0.0
 10
64.98029133569776
 20
141.6371339037226
 30
0.0
 10
64.8652505602505
 20
141.5624108092118
 30
0.0
 10
64.65816623623408
 20
141.4630003999549
 30
0.0
 10
64.58205840142769
 20
141.4314353076103
 30
0.0
 10
64.45066386187435
 20
141.3969919234173
 30
0.0
 10
64.40411064287288
 20
141.3879403516497
 30
0.0
 10
64.30777729179216
 20
141.3777647028112
 30
0.0
 10
64.25851786843673
 20
141.3768149441362
 30
0.0
 10
64.21081949639002
 20
141.3798056650508
 30
0.0
  0
LINE
  5
93
330
1F
100
AcDbEntity
  8
0
  6
Continuous
 62
     7
370
    15
100
AcDbLine
 10
66.1108194964
 20
143.0378915105
 30
0.0
 11
66.1108194964
 21
145.3067968016
 31
0.0
  0
SPLINE
  5
94
330
1F
100
AcDbEntity
  8
0
  6
Continuous
 62
     7
370
    15
100
AcDbSpline
210
0.0
220
0.0
230
1.0
 70
     8
 71
     3
 72
    24
 73
    20
 74
     0
 42
0.00000001
 43
0.00000001
 40
0.0
 40
0.0
 40
0.0
 40
0.0
 40
0.0002934293894791
 40
0.062808005175641
 40
0.1260453927228619
 40
0.18907467666103
 40
0.2513200540860133
 40
0.3133304633786588
 40
0.3759158453762907
 40
0.4383740564599686
 40
0.5000631094857209
 40
0.5616593988040849
 40
0.6245050380644152
 40
0.6872231506510951
 40
0.7494953263230465
 40
0.8117583797535242
 40
0.8747365508229858
 40
0.9378980306234599
 40
1.0
 40
1.0
 40
1.0
 40
1.0
 10
84.43077576023141
 20
72.36203751525217
 30
0.0
 10
84.43058090734665
 20
72.36201320785818
 30
0.0
 10
84.3888730163355
 20
72.35681025620397
 30
0.0
 10
84.53399140786593
 20
72.37544487953447
 30
0.0
 10
84.88907034940519
 20
72.4179646580832
 30
0.0
 10
85.49364598694834
 20
72.48610094168504
 30
0.0
 10
86.30008129576453
 20
72.5593564787009
 30
0.0
 10
87.28555871968351
 20
72.62387581951879
 30
0.0
 10
88.41722831636305
 20
72.66244004757986
 30
0.0
 10
89.63952078652532
 20
72.66613455358126
 30
0.0
 10
90.90684946797717
 20
72.62370857353228
 30
0.0
 10
92.17333499840369
 20
72.5354614327513
 30
0.0
 10
93.38947236222361
 20
72.40706816248463
 30
0.0
 10
94.5148828580644
 20
72.25442717389211
 30
0.0
 10
95.49229991961836
 20
72.09265255878778
 30
0.0
 10
96.29556539816086
 20
71.94012366568688
 30
0.0
 10
96.88405892116208
 20
71.81610992241949
 30
0.0
 10
97.27296503281413
 20
71.7311859961432
 30
0.0
 10
97.31972616355216
 20
71.72045968486441
 30
0.0
 10
97.34290897009457
 20
71.71514189217282
 30
0.0
  0
SPLINE
  5
95
330
1F
100
AcDbEntity
  8
0
  6
Continuous
 62
     7
370
    15
100
AcDbSpline
210
0.0
220
0.0
230
1.0
 70
     8
 71
     3
 72
    41
 73
    37
 74
     0
 42
0.00000001
 43
0.00000001
 40
0.0
 40
0.0
 40
0.0
 40
0.0
 40
0.0619930061482746
 40
0.1254347783466151
 40
0.1886508898234768
 40
0.2510246408607227
 40
0.3131658188976554
 40
0.3756581641417402
 40
0.4382227146727798
 40
0.4998044922940677
 40
0.56151641971787
 40
0.6240683094121985
 40
0.686725723240935
 40
0.7488365305144522
 40
0.8110685944253986
 40
0.8741742884451361
 40
0.9373212787645211
 40
0.9685511709617411
 40
0.9842086872487193
 40
0.9920641182531791
 40
0.996000486125535
 40
0.9979710794120144
 40
0.9989570090489596
 40
0.9994501359395065
 40
0.9996967403802177
 40
0.9998200529090742
 40
0.9998817117580818
 40
0.999912541829664
 40
0.9999279570273361
 40
0.9999356646666602
 40
0.9999395184964466
 40
0.9999414454138695
 40
0.9999424088732151
 40
0.9999433723329806
 40
0.9999501697010513
 40
1.0
 40
1.0
 40
1.0
 40
1.0
 10
97.34278763961657
 20
146.8713786370047
 30
0.0
 10
97.31921599427297
 20
146.8660691573549
 30
0.0
 10
97.2715218382279
 20
146.8553261164153
 30
0.0
 10
96.87947984880235
 20
146.7700969799599
 30
0.0
 10
96.28896579953215
 20
146.6455282013191
 30
0.0
 10
95.48492835348706
 20
146.4925812551673
 30
0.0
 10
94.50885295330555
 20
146.3308247012137
 30
0.0
 10
93.38704421802505
 20
146.1785919332815
 30
0.0
 10
92.17351329823781
 20
146.0508119920802
 30
0.0
 10
90.9086825918386
 20
145.9629634403975
 30
0.0
 10
89.64063955439588
 20
145.9205779565269
 30
0.0
 10
88.41713219669475
 20
145.9243137644985
 30
0.0
 10
87.28363365628076
 20
145.9629092349467
 30
0.0
 10
86.29752784530655
 20
146.0273486062378
 30
0.0
 10
85.48890003651933
 20
146.100858413519
 30
0.0
 10
84.89228134141013
 20
146.1681720983308
 30
0.0
 10
84.57689005195205
 20
146.2061366495987
 30
0.0
 10
84.46682348315413
 20
146.2199357089305
 30
0.0
 10
84.43940409533992
 20
146.2234217828512
 30
0.0
 10
84.43248204451042
 20
146.2243010085446
 30
0.0
 10
84.43071380432701
 20
146.2245217831509
 30
0.0
 10
84.43025342515365
 20
146.2245769858616
 30
0.0
 10
84.43012926646884
 20
146.2245907256487
 30
0.0
 10
84.43009371197566
 20
146.2245941214797
 30
0.0
 10
84.43008256790557
 20
146.2245949498
 30
0.0
 10
84.43007865470946
 20
146.2245951463888
 30
0.0
 10
84.43007711250463
 20
146.2245951903189
 30
0.0
 10
84.43007644550313
 20
146.2245951986256
 30
0.0
 10
84.43007613732539
 20
146.2245951994559
 30
0.0
 10
84.43007599055932
 20
146.2245951989107
 30
0.0
 10
84.43007591760687
 20
146.2245951985808
 30
0.0
 10
84.4300758832145
 20
146.2245951981435
 30
0.0
 10
84.43007586096932
 20
146.2245951982321
 30
0.0
 10
84.43007583385989
 20
146.2245951953971
 30
0.0
 10
84.43007331429854
 20
146.2245954822521
 30
0.0
 10
84.43010940421658
 20
146.2245908621515
 30
0.0
 10
84.43014116203923
 20
146.2245867966301
 30
0.0
  0
SPLINE
  5
96
330
1F
100
AcDbEntity
  8
0
  6
Continuous
 62
     7
370
    15
100
AcDbSpline
210
0.0
220
0.0
230
1.0
 70
     8
 71
     3
 72
    20
 73
    16
 74
     0
 42
0.00000001
 43
0.00000001
 40
0.0
 40
0.0
 40
0.0
 40
0.0
 40
0.249999999999986
 40
0.249999999999986
 40
0.3749999999999789
 40
0.3749999999999789
 40
0.4374999999999789
 40
0.4374999999999789
 40
0.4999999999999789
 40
0.4999999999999789
 40
0.6249999999999835
 40
0.6249999999999835
 40
0.7499999999999879
 40
0.7499999999999879
 40
1.0
 40
1.0
 40
1.0
 40
1.0
 10
56.30163372810801
 20
78.61479962086382
 30
0.0
 10
56.32790594532142
 20
78.63411756194628
 30
0.0
 10
56.35858608757626
 20
78.64850627304806
 30
0.0
 10
56.43005695795818
 20
78.64160191121205
 30
0.0
 10
56.45808399500252
 20
78.63443590786363
 30
0.0
 10
56.51316758450002
 20
78.60473688116004
 30
0.0
 10
56.53405891305245
 20
78.5912632385987
 30
0.0
 10
56.57926756049791
 20
78.5560649730827
 30
0.0
 10
56.60367177289348
 20
78.53415674435543
 30
0.0
 10
56.67500409094492
 20
78.46203188435987
 30
0.0
 10
56.7169008757652
 20
78.40969134340983
 30
0.0
 10
56.78847683462107
 20
78.3122079515091
 30
0.0
 10
56.81930482443837
 20
78.26545418163067
 30
0.0
 10
56.90240475727394
 20
78.13216096579156
 30
0.0
 10
56.94725966264424
 20
78.04952356787634
 30
0.0
 10
56.98737173809681
 20
77.97041667308557
 30
0.0
  0
SPLINE
  5
97
330
1F
100
AcDbEntity
  8
0
  6
Continuous
 62
     7
370
    15
100
AcDbSpline
210
0.0
220
0.0
230
1.0
 70
     8
 71
     3
 72
    14
 73
    10
 74
     0
 42
0.00000001
 43
0.00000001
 40
0.0
 40
0.0
 40
0.0
 40
0.0
 40
0.25
 40
0.25
 40
0.5
 40
0.5
 40
0.75
 40
0.75
 40
1.0
 40
1.0
 40
1.0
 40
1.0
 10
56.010819496392
 20
78.79061303099661
 30
0.0
 10
56.01081949639202
 20
78.74936609997225
 30
0.0
 10
56.01942921277325
 20
78.71245912768977
 30
0.0
 10
56.0505153923436
 20
78.65155906779037
 30
0.0
 10
56.07290494582766
 20
78.62737814825067
 30
0.0
 10
56.12764887700378
 20
78.59341055736742
 30
0.0
 10
56.16009911658897
 20
78.58349047339922
 30
0.0
 10
56.23010063131703
 20
78.58213926449439
 30
0.0
 10
56.26831113143957
 20
78.59029754119054
 30
0.0
 10
56.30163372811266
 20
78.61479962085863
 30
0.0
  0
LINE
  5
98
330
1F
100
AcDbEntity
  8
0
  6
Continuous
 62
     7
370
    15
100
AcDbLine
 10
56.0108194964
 20
78.790613031
 30
0.0
 11
56.0108194964
 21
139.7959525161
 31
0.0
  0
SPLINE
  5
99
330
1F
100
AcDbEntity
  8
0
  6
Continuous
 62
     7
370
    15
100
AcDbSpline
210
0.0
220
0.0
230
1.0
 70
     8
 71
     3
 72
    10
 73
     6
 74
     0
 42
0.00000001
 43
0.00000001
 40
0.0
 40
0.0
 40
0.0
 40
0.0
 40
0.0592402688376383
 40
0.6438088530391344
 40
1.0
 40
1.0
 40
1.0
 40
1.0
 10
56.30163372811264
 20
139.9717659262704
 30
0.0
 10
56.29680147049145
 20
139.975014832902
 30
0.0
 10
56.24428566835671
 20
140.0103231610577
 30
0.0
 10
56.14533547067794
 20
140.0165774576163
 30
0.0
 10
56.09590694578659
 20
139.9613772199274
 30
0.0
 10
56.07719228104229
 20
139.9404772650041
 30
0.0
  0
SPLINE
  5
9A
330
1F
100
AcDbEntity
  8
0
  6
Continuous
 62
     7
370
    15
100
AcDbSpline
210
0.0
220
0.0
230
1.0
 70
     8
 71
     3
 72
     8
 73
     4
 74
     0
 42
0.00000001
 43
0.00000001
 40
0.0
 40
0.0
 40
0.0
 40
0.0
 40
1.0
 40
1.0
 40
1.0
 40
1.0
 10
56.03445316532821
 20
139.9035320172021
 30
0.0
 10
56.01910412669217
 20
139.8730219622062
 30
0.0
 10
56.010819496392
 20
139.8367104066938
 30
0.0
 10
56.010819496392
 20
139.7959525161324
 30
0.0
  0
SPLINE
  5
9B
330
1F
100
AcDbEntity
  8
0
  6
Continuous
 62
     7
370
    15
100
AcDbSpline
210
0.0
220
0.0
230
1.0
 70
     8
 71
     3
 72
    20
 73
    16
 74
     0
 42
0.00000001
 43
0.00000001
 40
0.0
 40
0.0
 40
0.0
 40
0.0
 40
0.2500000000000037
 40
0.2500000000000037
 40
0.3750000000000055
 40
0.3750000000000055
 40
0.5000000000000073
 40
0.5000000000000073
 40
0.5625000000000057
 40
0.5625000000000057
 40
0.625000000000004
 40
0.625000000000004
 40
0.7500000000000027
 40
0.7500000000000027
 40
1.0
 40
1.0
 40
1.0
 40
1.0
 10
56.98737173809442
 20
140.6161488740427
 30
0.0
 10
56.9473755202706
 20
140.5372704674852
 30
0.0
 10
56.90226189243294
 20
140.4541408207938
 30
0.0
 10
56.81900767806641
 20
140.3206521564428
 30
0.0
 10
56.78878834944591
 20
140.2747871005608
 30
0.0
 10
56.71670011430449
 20
140.1765955481559
 30
0.0
 10
56.67478279689339
 20
140.1242857286323
 30
0.0
 10
56.60353219234193
 20
140.0522798258978
 30
0.0
 10
56.57929637996262
 20
140.0305096135963
 30
0.0
 10
56.53369818977797
 20
139.9950349552673
 30
0.0
 10
56.51289570017826
 20
139.9816647710897
 30
0.0
 10
56.45795470175913
 20
139.9520948589545
 30
0.0
 10
56.42988571367233
 20
139.9449683366525
 30
0.0
 10
56.35938288360949
 20
139.9380939651698
 30
0.0
 10
56.32795879581862
 20
139.952409124257
 30
0.0
 10
56.30163372811002
 20
139.9717659262675
 30
0.0
  0
SPLINE
  5
9C
330
1F
100
AcDbEntity
  8
0
  6
Continuous
 62
     7
370
    15
100
AcDbSpline
210
0.0
220
0.0
230
1.0
 70
     8
 71
     3
 72
    10
 73
     6
 74
     0
 42
0.00000001
 43
0.00000001
 40
0.0
 40
0.0
 40
0.0
 40
0.0
 40
0.4999999999999989
 40
0.4999999999999989
 40
1.0
 40
1.0
 40
1.0
 40
1.0
 10
57.66081949639202
 20
141.5415679753845
 30
0.0
 10
57.53593122564181
 20
141.4105716973131
 30
0.0
 10
57.41448110758137
 20
141.2668588606481
 30
0.0
 10
57.18489713262392
 20
140.9562885679588
 30
0.0
 10
57.07462215722794
 20
140.7882194948957
 30
0.0
 10
56.98737173809442
 20
140.6161488740427
 30
0.0
  0
SPLINE
  5
9D
330
1F
100
AcDbEntity
  8
0
  6
Continuous
 62
     7
370
    15
100
AcDbSpline
210
0.0
220
0.0
230
1.0
 70
     8
 71
     3
 72
     8
 73
     4
 74
     0
 42
0.00000001
 43
0.00000001
 40
0.0
 40
0.0
 40
0.0
 40
0.0
 40
1.0
 40
1.0
 40
1.0
 40
1.0
 10
57.91074461235773
 20
141.5391149421291
 30
0.0
 10
57.82372658250938
 20
141.5395815069162
 30
0.0
 10
57.74077255612944
 20
141.5406215264923
 30
0.0
 10
57.66081949638969
 20
141.5415679753846
 30
0.0
  0
SPLINE
  5
9E
330
1F
100
AcDbEntity
  8
0
  6
Continuous
 62
     7
370
    15
100
AcDbSpline
210
0.0
220
0.0
230
1.0
 70
     8
 71
     3
 72
     8
 73
     4
 74
     0
 42
0.00000001
 43
0.00000001
 40
0.0
 40
0.0
 40
0.0
 40
0.0
 40
1.0
 40
1.0
 40
1.0
 40
1.0
 10
57.66081949638969
 20
77.04499757174445
 30
0.0
 10
57.74077255612997
 20
77.04594402063672
 30
0.0
 10
57.82372658251045
 20
77.04698404021285
 30
0.0
 10
57.91074461235943
 20
77.04745060499991
 30
0.0
  0
SPLINE
  5
9F
330
1F
100
AcDbEntity
  8
0
  6
Continuous
 62
     7
370
    15
100
AcDbSpline
210
0.0
220
0.0
230
1.0
 70
     8
 71
     3
 72
    10
 73
     6
 74
     0
 42
0.00000001
 43
0.00000001
 40
0.0
 40
0.0
 40
0.0
 40
0.0
 40
0.4999999999999989
 40
0.4999999999999989
 40
1.0
 40
1.0
 40
1.0
 40
1.0
 10
56.9873717380935
 20
77.97041667308812
 30
0.0
 10
57.07462215722698
 20
77.79834605223476
 30
0.0
 10
57.18489713262314
 20
77.63027697917133
 30
0.0
 10
57.41448110758096
 20
77.3197066864815
 30
0.0
 10
57.5359312256416
 20
77.17599384981622
 30
0.0
 10
57.66081949639202
 20
77.04499757174452
 30
0.0
  0
LINE
  5
A0
330
1F
100
AcDbEntity
  8
0
  6
Continuous
 62
     7
370
    15
100
AcDbLine
 10
167.3797958155
 20
74.2932827736
 30
0.0
 11
167.3797958155
 21
144.2932827736
 31
0.0
  0
SPLINE
  5
A1
330
1F
100
AcDbEntity
  8
0
  6
Continuous
 62
     7
370
    15
100
AcDbSpline
210
0.0
220
0.0
230
1.0
 70
     8
 71
     3
 72
    34
 73
    30
 74
     0
 42
0.00000001
 43
0.00000001
 40
0.0
 40
0.0
 40
0.0
 40
0.0
 40
0.0378318648331653
 40
0.0846207268146862
 40
0.1327178740514287
 40
0.1805179528683853
 40
0.2295463350434396
 40
0.2804658679404246
 40
0.332668457865213
 40
0.3873746223902691
 40
0.4435106486419121
 40
0.4722491696964463
 40
0.5011801379441214
 40
0.5307161180280001
 40
0.5604609372184813
 40
0.5897218736968947
 40
0.6191896819873765
 40
0.6493216497799124
 40
0.6796889673346923
 40
0.7083520137988321
 40
0.737230211684677
 40
0.7668137984076238
 40
0.7966536418959155
 40
0.8236109783816927
 40
0.8507794053843593
 40
0.8786432323960529
 40
0.9067601587129757
 40
0.9565416650907478
 40
1.0
 40
1.0
 40
1.0
 40
1.0
 10
151.3520249558616
 20
144.2925353414909
 30
0.0
 10
151.3503741501315
 20
144.2923922703461
 30
0.0
 10
151.3466816971868
 20
144.2920722548165
 30
0.0
 10
151.2375488933815
 20
144.2828675522001
 30
0.0
 10
151.0513480888399
 20
144.2678397092537
 30
0.0
 10
150.7850820088859
 20
144.2477874445582
 30
0.0
 10
150.4474642355653
 20
144.2248078803425
 30
0.0
 10
150.0394976576258
 20
144.2007186364912
 30
0.0
 10
149.5646729148278
 20
144.1777955865721
 30
0.0
 10
149.0323979142649
 20
144.1586813025012
 30
0.0
 10
148.5517452576514
 20
144.1480717403197
 30
0.0
 10
148.1527065175647
 20
144.1436901163089
 30
0.0
 10
147.8449009749685
 20
144.1426264295151
 30
0.0
 10
147.5336537117501
 20
144.1439382908955
 30
0.0
 10
147.2235168000576
 20
144.1476463082965
 30
0.0
 10
146.9180917961575
 20
144.1536231480906
 30
0.0
 10
146.6179645123687
 20
144.1617260904865
 30
0.0
 10
146.3231828355918
 20
144.1718461952578
 30
0.0
 10
146.0425327041091
 20
144.1834918281971
 30
0.0
 10
145.7792282308441
 20
144.196167296906
 30
0.0
 10
145.5333362360526
 20
144.2095109857878
 30
0.0
 10
145.3018835966244
 20
144.2234157919961
 30
0.0
 10
145.0954279890022
 20
144.2369361148925
 30
0.0
 10
144.9154326195969
 20
144.2495553621594
 30
0.0
 10
144.7607368857861
 20
144.2610088293289
 30
0.0
 10
144.6269520166301
 20
144.2713796335204
 30
0.0
 10
144.4904842425705
 20
144.2823518715149
 30
0.0
 10
144.3805320370382
 20
144.2915934695841
 30
0.0
 10
144.3715081937461
 20
144.2923704004473
 30
0.0
 10
144.3673022534684
 20
144.2927325216305
 30
0.0
  0
LINE
  5
A2
330
1F
100
AcDbEntity
  8
0
  6
Continuous
 62
     7
370
    15
100
AcDbLine
 10
145.3744951297
 20
144.2192602787
 30
0.0
 11
145.4700305929
 21
144.213408196
 31
0.0
  0
SPLINE
  5
A3
330
1F
100
AcDbEntity
  8
0
  6
Continuous
 62
     7
370
    15
100
AcDbSpline
210
0.0
220
0.0
230
1.0
 70
     8
 71
     3
 72
    68
 73
    64
 74
     0
 42
0.00000001
 43
0.00000001
 40
-0.0312499999999998
 40
-0.0312499999999998
 40
0.0
 40
0.0
 40
0.0312500000000002
 40
0.0312500000000002
 40
0.0625000000000003
 40
0.0625000000000003
 40
0.0937500000000005
 40
0.0937500000000005
 40
0.1250000000000007
 40
0.1250000000000007
 40
0.1562500000000008
 40
0.1562500000000008
 40
0.187500000000001
 40
0.187500000000001
 40
0.2187500000000012
 40
0.2187500000000012
 40
0.2500000000000013
 40
0.2500000000000013
 40
0.2812500000000015
 40
0.2812500000000015
 40
0.3125000000000017
 40
0.3125000000000017
 40
0.3437500000000018
 40
0.3437500000000018
 40
0.375000000000002
 40
0.375000000000002
 40
0.4062500000000022
 40
0.4062500000000022
 40
0.4375000000000023
 40
0.4375000000000023
 40
0.4687500000000025
 40
0.4687500000000025
 40
0.5000000000000027
 40
0.5000000000000027
 40
0.5312500000000029
 40
0.5312500000000029
 40
0.562500000000003
 40
0.562500000000003
 40
0.6250000000000033
 40
0.6250000000000033
 40
0.656250000000003
 40
0.656250000000003
 40
0.6875000000000028
 40
0.6875000000000028
 40
0.7187500000000024
 40
0.7187500000000024
 40
0.7500000000000022
 40
0.7500000000000022
 40
0.7812500000000019
 40
0.7812500000000019
 40
0.8125000000000017
 40
0.8125000000000017
 40
0.8437500000000013
 40
0.8437500000000013
 40
0.8750000000000011
 40
0.8750000000000011
 40
0.9062500000000008
 40
0.9062500000000008
 40
0.9375000000000006
 40
0.9375000000000006
 40
0.9687500000000002
 40
0.9687500000000002
 40
1.0
 40
1.0
 40
1.03125
 40
1.03125
 10
145.3019661199829
 20
111.5107831711009
 30
0.0
 10
145.6380950668861
 20
111.8022357933155
 30
0.0
 10
145.8174531500108
 20
111.9293605913118
 30
0.0
 10
146.1970040600629
 20
112.149371475268
 30
0.0
 10
146.3990122163177
 20
112.2428288740756
 30
0.0
 10
146.8158239309923
 20
112.391436514668
 30
0.0
 10
147.0285723985936
 20
112.4462613450947
 30
0.0
 10
147.4624550858411
 20
112.518343075664
 30
0.0
 10
147.685716266187
 20
112.5353996905009
 30
0.0
 10
148.1265090301227
 20
112.5300913985645
 30
0.0
 10
148.3447991178151
 20
112.5082559154808
 30
0.0
 10
148.7771598744114
 20
112.4261403833418
 30
0.0
 10
148.9927614801555
 20
112.3649650533637
 30
0.0
 10
149.4031481416634
 20
112.2072857526331
 30
0.0
 10
149.5997662281862
 20
112.1107326014836
 30
0.0
 10
149.9752575675337
 20
111.8808997248285
 30
0.0
 10
150.1545953130613
 20
111.7465574084213
 30
0.0
 10
150.4785574301764
 20
111.4508669388372
 30
0.0
 10
150.6253980217183
 20
111.2884425653667
 30
0.0
 10
150.8867295857075
 20
110.9323739631111
 30
0.0
 10
150.9997767506291
 20
110.7396043015581
 30
0.0
 10
151.1803705888494
 20
110.3402552592482
 30
0.0
 10
151.2497147280502
 20
110.1310462299978
 30
0.0
 10
151.3419361292373
 20
109.6952985199186
 30
0.0
 10
151.363303416157
 20
109.4764023151463
 30
0.0
 10
151.3578823121891
 20
109.0366194452868
 30
0.0
 10
151.3301465068616
 20
108.8133073874319
 30
0.0
 10
151.2279993934762
 20
108.3844972961442
 30
0.0
 10
151.154094882157
 20
108.1772030522608
 30
0.0
 10
150.9609510356186
 20
107.7767162126395
 30
0.0
 10
150.8440509271349
 20
107.5887864590832
 30
0.0
 10
150.575371886788
 20
107.2403023578633
 30
0.0
 10
150.4213258412175
 20
107.0775882880342
 30
0.0
 10
150.0884261670908
 20
106.7881976675388
 30
0.0
 10
149.90943855137
 20
106.6605757490877
 30
0.0
 10
149.5271671782043
 20
106.4383424828188
 30
0.0
 10
149.3245606694247
 20
106.3446566712132
 30
0.0
 10
148.7037105252227
 20
106.1226164664202
 30
0.0
 10
148.2583556567931
 20
106.0489231478468
 30
0.0
 10
147.599688425609
 20
106.0562040282646
 30
0.0
 10
147.3791748192416
 20
106.0778934103033
 30
0.0
 10
146.943027977453
 20
106.1606735851178
 30
0.0
 10
146.7316486610091
 20
106.2207548152866
 30
0.0
 10
146.3220453790441
 20
106.377698371051
 30
0.0
 10
146.1221448528082
 20
106.4756073333192
 30
0.0
 10
145.7447290376531
 20
106.7067365125487
 30
0.0
 10
145.5692718573843
 20
106.8382311513043
 30
0.0
 10
145.2451755231492
 20
107.1335340461129
 30
0.0
 10
145.0949725437054
 20
107.2996536519536
 30
0.0
 10
144.8341325621064
 20
107.6554491861613
 30
0.0
 10
144.7231850298134
 20
107.8443872433964
 30
0.0
 10
144.5416248882628
 20
108.2451741330921
 30
0.0
 10
144.4711347065606
 20
108.4589834737421
 30
0.0
 10
144.3801787516456
 20
108.8892858872586
 30
0.0
 10
144.3582698411192
 20
109.1080453668563
 30
0.0
 10
144.3638356212094
 20
109.5531275296375
 30
0.0
 10
144.3914771697584
 20
109.7730241416618
 30
0.0
 10
144.4934049560283
 20
110.2012525322732
 30
0.0
 10
144.5690748654293
 20
110.4128943689138
 30
0.0
 10
144.7610807743399
 20
110.8103024119234
 30
0.0
 10
144.8771419940225
 20
110.9973461133196
 30
0.0
 10
145.1483166227297
 20
111.3487750126996
 30
0.0
 10
145.3019661199829
 20
111.5107831711009
 30
0.0
 10
145.6380950668861
 20
111.8022357933155
 30
0.0
  0
SPLINE
  5
A4
330
1F
100
AcDbEntity
  8
0
  6
Continuous
 62
     7
370
    15
100
AcDbSpline
210
0.0
220
0.0
230
1.0
 70
     8
 71
     3
 72
    21
 73
    17
 74
     0
 42
0.00000001
 43
0.00000001
 40
0.0
 40
0.0
 40
0.0
 40
0.0
 40
0.0544543257826518
 40
0.1491841047136354
 40
0.2468086185587165
 40
0.3512064572633274
 40
0.4632147556310563
 40
0.5213131651361468
 40
0.5810523717642818
 40
0.6398337055654884
 40
0.7004063432227225
 40
0.75758224040621
 40
0.816643322843023
 40
0.8700926250271849
 40
0.925363997985438
 40
1.0
 40
1.0
 40
1.0
 40
1.0
 10
144.4050006212302
 20
74.29702426663262
 30
0.0
 10
144.398611339854
 20
74.29649314253395
 30
0.0
 10
144.3811071432969
 20
74.29503806487
 30
0.0
 10
144.7345810090237
 20
74.32457095285255
 30
0.0
 10
145.3904147646564
 20
74.37090523346096
 30
0.0
 10
146.335930249627
 20
74.4195205640455
 30
0.0
 10
147.2859408611677
 20
74.44294258662576
 30
0.0
 10
148.0977837645503
 20
74.44445115165816
 30
0.0
 10
148.7158507489683
 20
74.43606048104375
 30
0.0
 10
149.3179892193882
 20
74.41873639786917
 30
0.0
 10
149.869922406327
 20
74.39489667862578
 30
0.0
 10
150.3622571568947
 20
74.36734046485368
 30
0.0
 10
150.7626394620673
 20
74.340496160589
 30
0.0
 10
151.0660807919658
 20
74.31764994066637
 30
0.0
 10
151.3119432137545
 20
74.2975265538967
 30
0.0
 10
151.3207256129494
 20
74.29670710826437
 30
0.0
 10
151.3257713862486
 20
74.29623631016013
 30
0.0
  0
SPLINE
  5
A5
330
1F
100
AcDbEntity
  8
0
  6
Continuous
 62
     7
370
    15
100
AcDbSpline
210
0.0
220
0.0
230
1.0
 70
     8
 71
     3
 72
     9
 73
     5
 74
     0
 42
0.00000001
 43
0.00000001
 40
0.0
 40
0.0
 40
0.0
 40
0.0
 40
0.1033216149501472
 40
1.0
 40
1.0
 40
1.0
 40
1.0
 10
146.2819830317788
 20
74.41222020156069
 30
0.0
 10
146.2509244607114
 20
74.41119036585343
 30
0.0
 10
145.9503235546732
 20
74.40122308352089
 30
0.0
 10
145.6970950867546
 20
74.38642577647543
 30
0.0
 10
145.4700305930927
 20
74.37315735109082
 30
0.0
  0
CIRCLE
  5
A6
330
1F
100
AcDbEntity
  8
0
  6
Continuous
 62
     7
370
    15
100
AcDbCircle
 10
147.8608194964
 20
109.2932827736
 30
0.0
 40
2.499999999999986
  0
LINE
  5
A7
330
1F
100
AcDbEntity
  8
0
  6
Continuous
 62
     7
370
    15
100
AcDbLine
 10
133.8608194964
 20
158.2830776292
 30
0.0
 11
129.1728485173
 21
158.2830776292
 31
0.0
  0
LINE
  5
A8
330
1F
100
AcDbEntity
  8
0
  6
Continuous
 62
     7
370
    15
100
AcDbLine
 10
129.1728485173
 20
148.2442455345
 30
0.0
 11
133.8608194964
 21
148.2442455345
 31
0.0
  0
LINE
  5
A9
330
1F
100
AcDbEntity
  8
0
  6
Continuous
 62
     7
370
    15
100
AcDbLine
 10
129.1728485173
 20
148.2442455345
 30
0.0
 11
129.1728485173
 21
158.2830776292
 31
0.0
  0
SPLINE
  5
AA
330
1F
100
AcDbEntity
  8
0
  6
Continuous
 62
     7
370
    15
100
AcDbSpline
210
0.0
220
0.0
230
1.0
 70
     8
 71
     3
 72
    14
 73
    10
 74
     0
 42
0.00000001
 43
0.00000001
 40
0.0
 40
0.0
 40
0.0
 40
0.0
 40
0.25
 40
0.25
 40
0.5
 40
0.5
 40
0.75
 40
0.75
 40
1.0
 40
1.0
 40
1.0
 40
1.0
 10
127.820819496392
 20
154.9868340144125
 30
0.0
 10
127.820819496392
 20
154.8804773206602
 30
0.0
 10
127.8004319402508
 20
154.7746368329001
 30
0.0
 10
127.7217975947892
 20
154.5780719193636
 30
0.0
 10
127.6630662351506
 20
154.4869011770765
 30
0.0
 10
127.516457329548
 20
154.3349900880449
 30
0.0
 10
127.4270520095215
 20
154.2729212512253
 30
0.0
 10
127.2331612769212
 20
154.1896532034665
 30
0.0
 10
127.1266562870314
 20
154.167558533737
 30
0.0
 10
127.020819496392
 20
154.1675585337369
 30
0.0
  0
SPLINE
  5
AB
330
1F
100
AcDbEntity
  8
0
  6
Continuous
 62
     7
370
    15
100
AcDbSpline
210
0.0
220
0.0
230
1.0
 70
     8
 71
     3
 72
    12
 73
     8
 74
     0
 42
0.00000001
 43
0.00000001
 40
0.0
 40
0.0
 40
0.0
 40
0.0
 40
0.250000000000002
 40
0.250000000000002
 40
0.500000000000004
 40
0.500000000000004
 40
1.0
 40
1.0
 40
1.0
 40
1.0
 10
127.020819496392
 20
142.921814186637
 30
0.0
 10
127.144520446372
 20
142.921814186637
 30
0.0
 10
127.2686170586422
 20
142.9638077983695
 30
0.0
 10
127.4752722217292
 20
143.1016031250139
 30
0.0
 10
127.560312988456
 20
143.1955767234788
 30
0.0
 10
127.7597915569297
 20
143.5103649296997
 30
0.0
 10
127.820819496392
 20
143.7606039219273
 30
0.0
 10
127.820819496392
 20
144.0075179660616
 30
0.0
  0
SPLINE
  5
AC
330
1F
100
AcDbEntity
  8
0
  6
Continuous
 62
     7
370
    15
100
AcDbSpline
210
0.0
220
0.0
230
1.0
 70
     8
 71
     3
 72
     8
 73
     4
 74
     0
 42
0.00000001
 43
0.00000001
 40
0.0
 40
0.0
 40
0.0
 40
0.0
 40
1.0
 40
1.0
 40
1.0
 40
1.0
 10
129.1728485173134
 20
158.2830776292281
 30
0.0
 10
128.7218215486002
 20
157.4857670590402
 30
0.0
 10
128.2711277320766
 20
156.688268759383
 30
0.0
 10
127.820819496392
 20
155.8905536342694
 30
0.0
  0
SPLINE
  5
AD
330
1F
100
AcDbEntity
  8
0
  6
Continuous
 62
     7
370
    15
100
AcDbSpline
210
0.0
220
0.0
230
1.0
 70
     8
 71
     3
 72
     8
 73
     4
 74
     0
 42
0.00000001
 43
0.00000001
 40
0.0
 40
0.0
 40
0.0
 40
0.0
 40
1.0
 40
1.0
 40
1.0
 40
1.0
 10
127.820819496392
 20
145.1887302797024
 30
0.0
 10
128.2649695074175
 20
146.210113510654
 30
0.0
 10
128.7160438176754
 20
147.2285980474223
 30
0.0
 10
129.1728485173134
 20
148.2442455344515
 30
0.0
  0
LINE
  5
AE
330
1F
100
AcDbEntity
  8
0
  6
Continuous
 62
     7
370
    15
100
AcDbLine
 10
127.8208194964
 20
145.1887302797
 30
0.0
 11
127.8208194964
 21
155.8905536343
 31
0.0
  0
SPLINE
  5
AF
330
1F
100
AcDbEntity
  8
0
  6
Continuous
 62
     7
370
    15
100
AcDbSpline
210
0.0
220
0.0
230
1.0
 70
     8
 71
     3
 72
    12
 73
     8
 74
     0
 42
0.00000001
 43
0.00000001
 40
0.0
 40
0.0
 40
0.0
 40
0.0
 40
0.4999999999999953
 40
0.4999999999999953
 40
0.7499999999999977
 40
0.7499999999999977
 40
1.0
 40
1.0
 40
1.0
 40
1.0
 10
134.860819496392
 20
157.2620225944104
 30
0.0
 10
134.860819496392
 20
157.5272920271768
 30
0.0
 10
134.7562127529055
 20
157.7898071328292
 30
0.0
 10
134.4795444011602
 20
158.0753447388664
 30
0.0
 10
134.3691791418082
 20
158.1516663557278
 30
0.0
 10
134.1251070931925
 20
158.256008520568
 30
0.0
 10
133.9933546318608
 20
158.2830776292281
 30
0.0
 10
133.860819496392
 20
158.2830776292281
 30
0.0
  0
SPLINE
  5
B0
330
1F
100
AcDbEntity
  8
0
  6
Continuous
 62
     7
370
    15
100
AcDbSpline
210
0.0
220
0.0
230
1.0
 70
     8
 71
     3
 72
    16
 73
    12
 74
     0
 42
0.00000001
 43
0.00000001
 40
0.0
 40
0.0
 40
0.0
 40
0.0
 40
0.1249999999999978
 40
0.1249999999999978
 40
0.2499999999999955
 40
0.2499999999999955
 40
0.499999999999997
 40
0.499999999999997
 40
0.7499999999999984
 40
0.7499999999999984
 40
1.0
 40
1.0
 40
1.0
 40
1.0
 10
133.860819496392
 20
148.2442455344515
 30
0.0
 10
133.9364572028032
 20
148.2442455344515
 30
0.0
 10
134.0127728672214
 20
148.2329005343165
 30
0.0
 10
134.1571836051134
 20
148.190247983678
 30
0.0
 10
134.2256300542218
 20
148.1593136589952
 30
0.0
 10
134.4205613068349
 20
148.0400572872275
 30
0.0
 10
134.5284024806158
 20
147.929905273607
 30
0.0
 10
134.6971152288278
 20
147.6817691879489
 30
0.0
 10
134.7594796415514
 20
147.5414268639452
 30
0.0
 10
134.8407835660598
 20
147.2531551724566
 30
0.0
 10
134.860819496392
 20
147.1023501994768
 30
0.0
 10
134.860819496392
 20
146.9519803081315
 30
0.0
  0
LINE
  5
B1
330
1F
100
AcDbEntity
  8
0
  6
Continuous
 62
     7
370
    15
100
AcDbLine
 10
134.8608194964
 20
146.9519803081
 30
0.0
 11
134.8608194964
 21
157.2620225944
 31
0.0
  0
SPLINE
  5
B2
330
1F
100
AcDbEntity
  8
0
  6
Continuous
 62
     7
370
    15
100
AcDbSpline
210
0.0
220
0.0
230
1.0
 70
     8
 71
     3
 72
     8
 73
     4
 74
     0
 42
0.00000001
 43
0.00000001
 40
0.0
 40
0.0
 40
0.0
 40
0.0
 40
1.0
 40
1.0
 40
1.0
 40
1.0
 10
124.000819496392
 20
155.8905536342694
 30
0.0
 10
123.5505112607075
 20
156.688268759383
 30
0.0
 10
123.0998174441839
 20
157.4857670590402
 30
0.0
 10
122.6487904754706
 20
158.2830776292281
 30
0.0
  0
LINE
  5
B3
330
1F
100
AcDbEntity
  8
0
  6
Continuous
 62
     7
370
    15
100
AcDbLine
 10
124.0008194964
 20
145.1887302797
 30
0.0
 11
124.0008194964
 21
155.8905536343
 31
0.0
  0
SPLINE
  5
B4
330
1F
100
AcDbEntity
  8
0
  6
Continuous
 62
     7
370
    15
100
AcDbSpline
210
0.0
220
0.0
230
1.0
 70
     8
 71
     3
 72
     8
 73
     4
 74
     0
 42
0.00000001
 43
0.00000001
 40
0.0
 40
0.0
 40
0.0
 40
0.0
 40
1.0
 40
1.0
 40
1.0
 40
1.0
 10
122.6487904754706
 20
148.2442455344515
 30
0.0
 10
123.1057168292701
 20
147.2283275647772
 30
0.0
 10
123.5569224710732
 20
146.209531735686
 30
0.0
 10
124.000819496392
 20
145.1887302797024
 30
0.0
  0
LINE
  5
B5
330
1F
100
AcDbEntity
  8
0
  6
Continuous
 62
     7
370
    15
100
AcDbLine
 10
124.0008194964
 20
145.1887302797
 30
0.0
 11
124.0008194964
 21
144.0075179661
 31
0.0
  0
SPLINE
  5
B6
330
1F
100
AcDbEntity
  8
0
  6
Continuous
 62
     7
370
    15
100
AcDbSpline
210
0.0
220
0.0
230
1.0
 70
     8
 71
     3
 72
    14
 73
    10
 74
     0
 42
0.00000001
 43
0.00000001
 40
0.0
 40
0.0
 40
0.0
 40
0.0
 40
0.25
 40
0.25
 40
0.5
 40
0.5
 40
0.75
 40
0.75
 40
1.0
 40
1.0
 40
1.0
 40
1.0
 10
124.000819496392
 20
144.0075179660616
 30
0.0
 10
124.000819496392
 20
143.8836510892724
 30
0.0
 10
124.0166786240196
 20
143.7593914124349
 30
0.0
 10
124.0800402695395
 20
143.521783050029
 30
0.0
 10
124.1286299775888
 20
143.4050026652765
 30
0.0
 10
124.2609155823637
 20
143.1962001366675
 30
0.0
 10
124.3462403736243
 20
143.1016894330749
 30
0.0
 10
124.5531316219305
 20
142.9637326322726
 30
0.0
 10
124.6770995678205
 20
142.921814186637
 30
0.0
 10
124.800819496392
 20
142.9218141866369
 30
0.0
  0
LINE
  5
B7
330
1F
100
AcDbEntity
  8
0
  6
Continuous
 62
     7
370
    15
100
AcDbLine
 10
124.8008194964
 20
142.9218141866
 30
0.0
 11
127.0208194964
 21
142.9218141866
 31
0.0
  0
LINE
  5
B8
330
1F
100
AcDbEntity
  8
0
  6
Continuous
 62
     7
370
    15
100
AcDbLine
 10
127.8208194964
 20
144.0075179661
 30
0.0
 11
127.8208194964
 21
145.1887302797
 31
0.0
  0
LINE
  5
B9
330
1F
100
AcDbEntity
  8
0
  6
Continuous
 62
     7
370
    15
100
AcDbLine
 10
134.8608194964
 20
146.9519803081
 30
0.0
 11
134.8608194964
 21
140.6432827736
 31
0.0
  0
SPLINE
  5
BA
330
1F
100
AcDbEntity
  8
0
  6
Continuous
 62
     7
370
    15
100
AcDbSpline
210
0.0
220
0.0
230
1.0
 70
     8
 71
     3
 72
    10
 73
     6
 74
     0
 42
0.00000001
 43
0.00000001
 40
0.0
 40
0.0
 40
0.0
 40
0.0
 40
0.5
 40
0.5
 40
1.0
 40
1.0
 40
1.0
 40
1.0
 10
124.800819496392
 20
154.167558533737
 30
0.0
 10
124.5882831825356
 20
154.167558533737
 30
0.0
 10
124.3783470108816
 20
154.2589711203671
 30
0.0
 10
124.0846398698704
 20
154.5637159862713
 30
0.0
 10
124.000819496392
 20
154.77587095618
 30
0.0
 10
124.000819496392
 20
154.9868340144125
 30
0.0
  0
LINE
  5
BB
330
1F
100
AcDbEntity
  8
0
  6
Continuous
 62
     7
370
    15
100
AcDbLine
 10
127.0208194964
 20
154.1675585337
 30
0.0
 11
124.8008194964
 21
154.1675585337
 31
0.0
  0
LINE
  5
BC
330
1F
100
AcDbEntity
  8
0
  6
Continuous
 62
     7
370
    15
100
AcDbLine
 10
230.9108194964
 20
81.6042590027
 30
0.0
 11
230.9108194964
 21
136.9823065383
 31
0.0
  0
ARC
  5
BD
330
1F
100
AcDbEntity
  8
0
  6
Continuous
 62
     7
370
    15
100
AcDbCircle
 10
114.9110935565
 20
141.8600562891
 30
0.0
 40
11.44864639011339
100
AcDbArc
 50
77.6649884509
 51
102.4018279774
  0
LINE
  5
BE
330
1F
100
AcDbEntity
  8
0
  6
Continuous
 62
     7
370
    15
100
AcDbLine
 10
57.6608194964
 20
77.0432827736
 30
0.0
 11
57.6608194964
 21
77.0449975717
 31
0.0
  0
LINE
  5
BF
330
1F
100
AcDbEntity
  8
0
  6
Continuous
 62
     7
370
    15
100
AcDbLine
 10
57.6608194964
 20
141.5432827736
 30
0.0
 11
57.6608194964
 21
141.5415679754
 31
0.0
  0
LINE
  5
C0
330
1F
100
AcDbEntity
  8
0
  6
Continuous
 62
     7
370
    15
100
AcDbLine
 10
230.934767984
 20
134.9035840443
 30
0.0
 11
230.9108194964
 21
134.2940543322
 31
0.0
  0
LINE
  5
C1
330
1F
100
AcDbEntity
  8
0
  6
Continuous
 62
     7
370
    15
100
AcDbLine
 10
230.9108194964
 20
86.2940543322
 30
0.0
 11
231.0132876155
 21
83.6860665476
 31
0.0
  0
SPLINE
  5
C2
330
1F
100
AcDbEntity
  8
0
  6
HIDDEN
 62
     7
370
     0
100
AcDbSpline
210
0.0
220
0.0
230
1.0
 70
     8
 71
     3
 72
    80
 73
    76
 74
     0
 42
0.00000001
 43
0.00000001
 40
-0.03125
 40
-0.03125
 40
0.0
 40
0.0
 40
0.0312500000000002
 40
0.0312500000000002
 40
0.0468750000000002
 40
0.0468750000000002
 40
0.0625000000000001
 40
0.0625000000000001
 40
0.0937499999999999
 40
0.0937499999999999
 40
0.1249999999999997
 40
0.1249999999999997
 40
0.1562499999999995
 40
0.1562499999999995
 40
0.1874999999999993
 40
0.1874999999999993
 40
0.2187499999999991
 40
0.2187499999999991
 40
0.2499999999999989
 40
0.2499999999999989
 40
0.2812499999999987
 40
0.2812499999999987
 40
0.3124999999999984
 40
0.3124999999999984
 40
0.3281249999999985
 40
0.3281249999999985
 40
0.3437499999999986
 40
0.3437499999999986
 40
0.3749999999999986
 40
0.3749999999999986
 40
0.4062499999999987
 40
0.4062499999999987
 40
0.4218749999999989
 40
0.4218749999999989
 40
0.4374999999999991
 40
0.4374999999999991
 40
0.4687499999999993
 40
0.4687499999999993
 40
0.4999999999999994
 40
0.4999999999999994
 40
0.5312499999999997
 40
0.5312499999999997
 40
0.5624999999999998
 40
0.5624999999999998
 40
0.59375
 40
0.59375
 40
0.6250000000000001
 40
0.6250000000000001
 40
0.6562500000000003
 40
0.6562500000000003
 40
0.6875000000000006
 40
0.6875000000000006
 40
0.7031250000000007
 40
0.7031250000000007
 40
0.7187500000000007
 40
0.7187500000000007
 40
0.7500000000000003
 40
0.7500000000000003
 40
0.78125
 40
0.78125
 40
0.7968749999999998
 40
0.7968749999999998
 40
0.8124999999999997
 40
0.8124999999999997
 40
0.8437499999999998
 40
0.8437499999999998
 40
0.8749999999999998
 40
0.8749999999999998
 40
0.9062499999999999
 40
0.9062499999999999
 40
0.9375
 40
0.9375
 40
0.96875
 40
0.96875
 40
1.0
 40
1.0
 40
1.03125
 40
1.03125
 10
114.5802741836157
 20
158.1528320300425
 30
0.0
 10
115.2413648091683
 20
158.1528320300425
 30
0.0
 10
115.5663449384199
 20
158.1459338842157
 30
0.0
 10
116.0458183496664
 20
158.1254074562352
 30
0.0
 10
116.2043001675072
 20
158.1168512291476
 30
0.0
 10
116.5185197000114
 20
158.09612485393
 30
0.0
 10
116.6746399836918
 20
158.0838975537236
 30
0.0
 10
117.1286940126484
 20
158.0423282598944
 30
0.0
 10
117.4157973955883
 20
158.0079839747966
 30
0.0
 10
117.9591519516153
 20
157.9246598504743
 30
0.0
 10
118.2162555628208
 20
157.8752216276998
 30
0.0
 10
118.6771618177596
 20
157.7638418979399
 30
0.0
 10
118.8840595269746
 20
157.7015473844278
 30
0.0
 10
119.2495848409668
 20
157.5616177415568
 30
0.0
 10
119.4047903630928
 20
157.4850018438078
 30
0.0
 10
119.6542207496925
 20
157.321043223952
 30
0.0
 10
119.7503107054776
 20
157.2324863698563
 30
0.0
 10
119.8788295546712
 20
157.0450056877505
 30
0.0
 10
119.910640424849
 20
156.9477692262961
 30
0.0
 10
119.9109970746223
 20
156.746136586969
 30
0.0
 10
119.8784998224252
 20
156.6405877951308
 30
0.0
 10
119.7508743487107
 20
156.4304730124423
 30
0.0
 10
119.6564459476588
 20
156.3254075044734
 30
0.0
 10
119.4685851276733
 20
156.1685297972223
 30
0.0
 10
119.3977571288701
 20
156.1160960635166
 30
0.0
 10
119.2430352369048
 20
156.0136576178868
 30
0.0
 10
119.1590587667214
 20
155.963509889235
 30
0.0
 10
118.887735097077
 20
155.8164939328015
 30
0.0
 10
118.6811858784747
 20
155.723006112367
 30
0.0
 10
118.2145757382856
 20
155.5472192547527
 30
0.0
 10
117.9622101686601
 20
155.467840779669
 30
0.0
 10
117.5563088269814
 20
155.362358342175
 30
0.0
 10
117.4164082095039
 20
155.3294727773348
 30
0.0
 10
117.127184274257
 20
155.2685572981061
 30
0.0
 10
116.9773448179678
 20
155.2404767264637
 30
0.0
 10
116.523228248357
 20
155.1656746844209
 30
0.0
 10
116.2115770296201
 20
155.1276366261748
 30
0.0
 10
115.5705805647077
 20
155.0760246996507
 30
0.0
 10
115.2390529367556
 20
155.0627107661292
 30
0.0
 10
114.5862618916841
 20
155.0626136798012
 30
0.0
 10
114.2617256866523
 20
155.0754017649622
 30
0.0
 10
113.6164562372359
 20
155.1268919545581
 30
0.0
 10
113.3007132310731
 20
155.1654165338782
 30
0.0
 10
112.6988239360894
 20
155.2643190967362
 30
0.0
 10
112.408074705278
 20
155.3254231946613
 30
0.0
 10
111.8611629135935
 20
155.4672326277719
 30
0.0
 10
111.6093855497566
 20
155.5465671123511
 30
0.0
 10
111.1479975571354
 20
155.7199458570126
 30
0.0
 10
110.9367282775373
 20
155.8151058017666
 30
0.0
 10
110.5734239251612
 20
156.0116783251425
 30
0.0
 10
110.4196172767184
 20
156.1134345535489
 30
0.0
 10
110.230997807121
 20
156.2702205163344
 30
0.0
 10
110.1749673209118
 20
156.3234745500844
 30
0.0
 10
110.0793935591757
 20
156.4292791116372
 30
0.0
 10
110.0396306421507
 20
156.4819321759927
 30
0.0
 10
109.9438588918386
 20
156.6390058954519
 30
0.0
 10
109.9111360527124
 20
156.742530930779
 30
0.0
 10
109.9105074663833
 20
156.9467456650061
 30
0.0
 10
109.9426936111181
 20
157.0442495025909
 30
0.0
 10
110.0376043129737
 20
157.1835765529425
 30
0.0
 10
110.0770710963727
 20
157.228893284447
 30
0.0
 10
110.1720010950935
 20
157.3173331054358
 30
0.0
 10
110.2277579228569
 20
157.3605873558958
 30
0.0
 10
110.4156980408268
 20
157.4844788304858
 30
0.0
 10
110.569059510543
 20
157.5601811212598
 30
0.0
 10
110.9313237454233
 20
157.699435492718
 30
0.0
 10
111.1421722188893
 20
157.7631973342467
 30
0.0
 10
111.6028421892082
 20
157.8746941737146
 30
0.0
 10
111.854216568792
 20
157.9232202460312
 30
0.0
 10
112.4001244556901
 20
158.0072742294117
 30
0.0
 10
112.6909470303413
 20
158.0420727830784
 30
0.0
 10
113.2922736451214
 20
158.0972692478422
 30
0.0
 10
113.6067922297338
 20
158.1180870965961
 30
0.0
 10
114.2533736858537
 20
158.1459344295068
 30
0.0
 10
114.5802741836157
 20
158.1528320300425
 30
0.0
 10
115.2413648091683
 20
158.1528320300425
 30
0.0
  0
LINE
  5
C3
330
1F
100
AcDbEntity
  8
0
  6
HIDDEN
 62
     7
370
     0
100
AcDbLine
 10
122.6487904755
 20
148.2442455345
 30
0.0
 11
122.6487904755
 21
140.6432827736
 31
0.0
  0
LINE
  5
C4
330
1F
100
AcDbEntity
  8
0
  6
HIDDEN
 62
     7
370
     0
100
AcDbLine
 10
86.3242442458
 20
72.5574764113
 30
0.0
 11
86.054288545
 21
72.533550312
 31
0.0
  0
SPLINE
  5
C5
330
1F
100
AcDbEntity
  8
0
  6
HIDDEN
 62
     7
370
     0
100
AcDbSpline
210
0.0
220
0.0
230
1.0
 70
     8
 71
     3
 72
    12
 73
     8
 74
     0
 42
0.00000001
 43
0.00000001
 40
0.0
 40
0.0
 40
0.0
 40
0.0
 40
0.1661348616735903
 40
0.3322013257393936
 40
0.5008932044678248
 40
0.752137078264078
 40
1.0
 40
1.0
 40
1.0
 40
1.0
 10
84.43014116203923
 20
146.2245867966301
 30
0.0
 10
84.44053378614728
 20
146.2232086725686
 30
0.0
 10
84.46131475572724
 20
146.2204529918185
 30
0.0
 10
84.63461424517416
 20
146.1988496168565
 30
0.0
 10
84.95656583441787
 20
146.1609846649146
 30
0.0
 10
85.4777316703372
 20
146.1006008981984
 30
0.0
 10
86.04328961017494
 20
146.052807761049
 30
0.0
 10
86.32415303386297
 20
146.0290730679557
 30
0.0
  0
SPLINE
  5
C6
330
1F
100
AcDbEntity
  8
0
  6
HIDDEN
 62
     7
370
     0
100
AcDbSpline
210
0.0
220
0.0
230
1.0
 70
     8
 71
     3
 72
    13
 73
     9
 74
     0
 42
0.00000001
 43
0.00000001
 40
0.0
 40
0.0
 40
0.0
 40
0.0
 40
0.1623840256695346
 40
0.3259044130708298
 40
0.4929940888848208
 40
0.6613124510226187
 40
0.8237268692299866
 40
1.0
 40
1.0
 40
1.0
 40
1.0
 10
96.16402515158303
 20
140.6596049943116
 30
0.0
 10
96.2396146622276
 20
140.6719807667879
 30
0.0
 10
96.39132265813022
 20
140.6968189172682
 30
0.0
 10
96.57422153225608
 20
140.7240772618478
 30
0.0
 10
96.7232838818827
 20
140.7451971225225
 30
0.0
 10
96.82723404807072
 20
140.7591835015962
 30
0.0
 10
96.90256368244715
 20
140.7689761746813
 30
0.0
 10
96.89433512665049
 20
140.7679049993532
 30
0.0
 10
96.89005249714027
 20
140.767347496046
 30
0.0
  0
SPLINE
  5
C7
330
1F
100
AcDbEntity
  8
0
  6
HIDDEN
 62
     7
370
     0
100
AcDbSpline
210
0.0
220
0.0
230
1.0
 70
     8
 71
     3
 72
    13
 73
     9
 74
     0
 42
0.00000001
 43
0.00000001
 40
0.0
 40
0.0
 40
0.0
 40
0.0
 40
0.1539950181193802
 40
0.322275991361055
 40
0.4885497123065674
 40
0.6560326699503611
 40
0.8273493481515934
 40
1.0
 40
1.0
 40
1.0
 40
1.0
 10
96.89005312354895
 20
77.81921797004935
 30
0.0
 10
96.89523726758539
 20
77.81854633845168
 30
0.0
 10
96.90608648322304
 20
77.81714076870264
 30
0.0
 10
96.83674758679275
 20
77.82612733211887
 30
0.0
 10
96.73663068035884
 20
77.83954137596969
 30
0.0
 10
96.59010276190716
 20
77.8601819438306
 30
0.0
 10
96.403888904631
 20
77.88774739948104
 30
0.0
 10
96.24418618888645
 20
77.91385575058102
 30
0.0
 10
96.16402515158303
 20
77.92696055281745
 30
0.0
  0
SPLINE
  5
C8
330
1F
100
AcDbEntity
  8
0
  6
HIDDEN
 62
     7
370
     0
100
AcDbSpline
210
0.0
220
0.0
230
1.0
 70
     8
 71
     3
 72
    33
 73
    29
 74
     0
 42
0.00000001
 43
0.00000001
 40
0.0
 40
0.0
 40
0.0
 40
0.0
 40
0.0315773698875104
 40
0.0633753287769057
 40
0.0958656851178231
 40
0.1285943208117605
 40
0.1601713694082662
 40
0.2244011681247345
 40
0.2571344568799636
 40
0.2885965627565487
 40
0.3526214070085076
 40
0.3852675959519929
 40
0.4162212184009612
 40
0.4791910353915302
 40
0.5112817741273479
 40
0.5421256322990662
 40
0.6048360558905652
 40
0.6367710793564881
 40
0.6680663384719832
 40
0.7316979547407203
 40
0.7641081282919966
 40
0.7957194290717577
 40
0.8275524266255816
 40
0.8600900250720824
 40
0.8928737620729298
 40
0.9241775068323748
 40
0.9878778414776339
 40
1.0
 40
1.0
 40
1.0
 40
1.0
 10
96.16402515158303
 20
77.92696055281745
 30
0.0
 10
96.08015400457778
 20
77.9408342911992
 30
0.0
 10
95.91182581463386
 20
77.96867868528393
 30
0.0
 10
95.61247121829234
 20
78.01511132551434
 30
0.0
 10
95.2784717510335
 20
78.06372392753518
 30
0.0
 10
94.91270178914621
 20
78.11287186072241
 30
0.0
 10
94.38932187445734
 20
78.17693764631504
 30
0.0
 10
93.81289466586276
 20
78.23671916072017
 30
0.0
 10
93.19775751901122
 20
78.28671876818422
 30
0.0
 10
92.5614417929283
 20
78.32885876086765
 30
0.0
 10
91.8976612554896
 20
78.35749348560567
 30
0.0
 10
91.22559550390648
 20
78.36975293668927
 30
0.0
 10
90.55614692047475
 20
78.37108222779756
 30
0.0
 10
89.89096235336079
 20
78.3562217048881
 30
0.0
 10
89.2446711144703
 20
78.32636374049892
 30
0.0
 10
88.61548116361193
 20
78.28762051243764
 30
0.0
 10
88.01576547143266
 20
78.23704227867776
 30
0.0
 10
87.45746590531084
 20
78.17864226421125
 30
0.0
 10
86.92727103492328
 20
78.11631903284172
 30
0.0
 10
86.44810433261169
 20
78.05091045830618
 30
0.0
 10
86.03318634741683
 20
77.9881215547002
 30
0.0
 10
85.75591396349078
 20
77.94361695587881
 30
0.0
 10
85.51435867792961
 20
77.90290800644384
 30
0.0
 10
85.3088666735812
 20
77.86685087579436
 30
0.0
 10
85.14470224983695
 20
77.83709385084201
 30
0.0
 10
84.98526830327168
 20
77.80750853741758
 30
0.0
 10
84.90703007532306
 20
77.79255925841272
 30
0.0
 10
84.91475486566787
 20
77.79403168101392
 30
0.0
 10
84.91598987033733
 20
77.79426708530411
 30
0.0
  0
SPLINE
  5
C9
330
1F
100
AcDbEntity
  8
0
  6
HIDDEN
 62
     7
370
     0
100
AcDbSpline
210
0.0
220
0.0
230
1.0
 70
     8
 71
     3
 72
    32
 73
    28
 74
     0
 42
0.00000001
 43
0.00000001
 40
0.0
 40
0.0
 40
0.0
 40
0.0
 40
0.020356822172105
 40
0.0512207857583794
 40
0.1139954454389432
 40
0.1459779869097674
 40
0.1769364677636727
 40
0.2398766914470389
 40
0.2719275468465721
 40
0.3033698011481659
 40
0.3673099924152954
 40
0.3998847012176188
 40
0.4314690120325909
 40
0.4957360700021212
 40
0.5285028301030422
 40
0.5596434488300034
 40
0.6230067766607702
 40
0.6553079823205556
 40
0.6861132872619372
 40
0.748756262689177
 40
0.7806634244345373
 40
0.8117607067089887
 40
0.8749825776111492
 40
0.9071778073885584
 40
0.9301738434827028
 40
0.9765719131095674
 40
1.0
 40
1.0
 40
1.0
 40
1.0
 10
84.91598987033733
 20
140.7922984618249
 30
0.0
 10
84.91563281843108
 20
140.7923659407518
 30
0.0
 10
84.91473442284459
 20
140.7925357277465
 30
0.0
 10
84.97732816939721
 20
140.7806414865591
 30
0.0
 10
85.11913935086072
 20
140.7539946096395
 30
0.0
 10
85.34318394273625
 20
140.7136125382269
 30
0.0
 10
85.61772605857045
 20
140.6657432964765
 30
0.0
 10
85.96641734757802
 20
140.6082734111967
 30
0.0
 10
86.38269330995541
 20
140.5457788641421
 30
0.0
 10
86.8442873568182
 20
140.4812531825028
 30
0.0
 10
87.36782530591336
 20
140.4166728055196
 30
0.0
 10
87.94002278036811
 20
140.3579174406347
 30
0.0
 10
88.54222915082008
 20
140.3045445842526
 30
0.0
 10
89.18345565760157
 20
140.2616820224203
 30
0.0
 10
89.84454097559771
 20
140.2336179763993
 30
0.0
 10
90.51125193004428
 20
140.2160293188596
 30
0.0
 10
91.1851411506512
 20
140.2145826706189
 30
0.0
 10
91.84949063459901
 20
140.2295082097567
 30
0.0
 10
92.50102490875864
 20
140.2545149349803
 30
0.0
 10
93.13168412141465
 20
140.2936189776622
 30
0.0
 10
93.72922309723712
 20
140.3437201354459
 30
0.0
 10
94.30322106519188
 20
140.3998913019291
 30
0.0
 10
94.83417077858516
 20
140.4628053306179
 30
0.0
 10
95.27755165984928
 20
140.5229088326714
 30
0.0
 10
95.6290723074229
 20
140.5737985496567
 30
0.0
 10
95.91873981739977
 20
140.6189210261946
 30
0.0
 10
96.10240258179745
 20
140.649384038082
 30
0.0
 10
96.16402515158303
 20
140.6596049943116
 30
0.0
  0
LINE
  5
CA
330
1F
100
AcDbEntity
  8
0
  6
HIDDEN
 62
     7
370
     0
100
AcDbLine
 10
75.9074438234
 20
82.7932827736
 30
0.0
 11
75.9074438234
 21
135.7932827736
 31
0.0
  0
LINE
  5
CB
330
1F
100
AcDbEntity
  8
0
  6
HIDDEN
 62
     7
370
     0
100
AcDbLine
 10
115.1948971148
 20
82.7932827736
 30
0.0
 11
115.1948971148
 21
135.7932827736
 31
0.0
  0
LINE
  5
CC
330
1F
100
AcDbEntity
  8
0
  6
HIDDEN
 62
     7
370
     0
100
AcDbLine
 10
118.3608194964
 20
84.4182827736
 30
0.0
 11
118.3608194964
 21
134.1682827736
 31
0.0
  0
SPLINE
  5
CD
330
1F
100
AcDbEntity
  8
0
  6
HIDDEN
 62
     7
370
     0
100
AcDbSpline
210
0.0
220
0.0
230
1.0
 70
     8
 71
     3
 72
    20
 73
    16
 74
     0
 42
0.00000001
 43
0.00000001
 40
0.0
 40
0.0
 40
0.0
 40
0.0
 40
0.2499999999999978
 40
0.2499999999999978
 40
0.3749999999999982
 40
0.3749999999999982
 40
0.4999999999999986
 40
0.4999999999999986
 40
0.6249999999999989
 40
0.6249999999999989
 40
0.7499999999999992
 40
0.7499999999999992
 40
0.8749999999999997
 40
0.8749999999999997
 40
1.0
 40
1.0
 40
1.0
 40
1.0
 10
66.110819496392
 20
134.5217964039788
 30
0.0
 10
66.110819496392
 20
134.4425934174465
 30
0.0
 10
66.06383700117927
 20
134.3614971990436
 30
0.0
 10
65.92601541040169
 20
134.2413005072927
 30
0.0
 10
65.86973312649171
 20
134.2023738032906
 30
0.0
 10
65.73664827502448
 20
134.1271850708662
 30
0.0
 10
65.65880833279142
 20
134.0905428655243
 30
0.0
 10
65.48617597667707
 20
134.0229523326924
 30
0.0
 10
65.39178297958601
 20
133.9919941509168
 30
0.0
 10
65.18634567327086
 20
133.9364697295471
 30
0.0
 10
65.07399943328367
 20
133.9117612157139
 30
0.0
 10
64.84175856938404
 20
133.8719649886056
 30
0.0
 10
64.72104792696132
 20
133.8565451512086
 30
0.0
 10
64.4699770676923
 20
133.835465176369
 30
0.0
 10
64.34045507127651
 20
133.829987931348
 30
0.0
 10
64.21081949639202
 20
133.829987931348
 30
0.0
  0
LINE
  5
CE
330
1F
100
AcDbEntity
  8
0
  6
HIDDEN
 62
     7
370
     0
100
AcDbLine
 10
64.2108194964
 20
133.8299879313
 30
0.0
 11
57.6608194964
 21
133.8299879313
 31
0.0
  0
LINE
  5
CF
330
1F
100
AcDbEntity
  8
0
  6
HIDDEN
 62
     7
370
     0
100
AcDbLine
 10
57.6608194964
 20
84.7565776158
 30
0.0
 11
69.2108194964
 21
84.7565776158
 31
0.0
  0
SPLINE
  5
D0
330
1F
100
AcDbEntity
  8
0
  6
HIDDEN
 62
     7
370
     0
100
AcDbSpline
210
0.0
220
0.0
230
1.0
 70
     8
 71
     3
 72
    18
 73
    14
 74
     0
 42
0.00000001
 43
0.00000001
 40
0.0
 40
0.0
 40
0.0
 40
0.0
 40
0.1249999999999982
 40
0.1249999999999982
 40
0.2499999999999964
 40
0.2499999999999964
 40
0.4999999999999988
 40
0.4999999999999988
 40
0.7500000000000011
 40
0.7500000000000011
 40
0.8750000000000006
 40
0.8750000000000006
 40
1.0
 40
1.0
 40
1.0
 40
1.0
 10
69.21081949639199
 20
84.75657761578101
 30
0.0
 10
69.34028680934922
 20
84.75657761578101
 30
0.0
 10
69.46729755824585
 20
84.75122461718837
 30
0.0
 10
69.7166608794431
 20
84.73048664449959
 30
0.0
 10
69.84028453407154
 20
84.7148147402453
 30
0.0
 10
70.18931687100557
 20
84.65512001184321
 30
0.0
 10
70.39982863581237
 20
84.59735483216221
 30
0.0
 10
70.74374531351188
 20
84.46283299088472
 30
0.0
 10
70.88009571502971
 20
84.38516387737933
 30
0.0
 10
71.01713377159223
 20
84.26587274329198
 30
0.0
 10
71.05235279030514
 20
84.22495373415694
 30
0.0
 10
71.0989763672437
 20
84.1442977408669
 30
0.0
 10
71.11081949639201
 20
84.10432922067405
 30
0.0
 10
71.110819496392
 20
84.06476914315023
 30
0.0
  0
LINE
  5
D1
330
1F
100
AcDbEntity
  8
0
  6
HIDDEN
 62
     7
370
     0
100
AcDbLine
 10
57.6608194964
 20
84.7565776158
 30
0.0
 11
57.6608194964
 21
133.8299879313
 31
0.0
  0
LWPOLYLINE
  5
D2
330
1F
100
AcDbEntity
  8
0
  6
HIDDEN
 62
     7
370
     0
100
AcDbPolyline
 90
       14
 70
   128
 43
0.0
 10
114.9108194964
 20
149.2370133369
 10
115.9856716974
 20
149.2845597203
 10
117.0102650042
 20
149.4249756546
 10
117.9366905724
 20
149.6516954466
 10
118.721629772
 20
149.954117931
 10
119.3283797186
 20
150.3181021684
 10
119.728569459
 20
150.7266286605
 10
119.9034865656
 20
151.1605951626
 10
119.8449521091
 20
151.5997098832
 10
119.5557030955
 20
152.0234403061
 10
119.0492644872
 20
152.4119732678
 10
118.3493167907
 20
152.7471413986
 10
117.4885887823
 20
153.0132726094
 10
117.3568379648
 20
153.0444131529
  0
LWPOLYLINE
  5
D3
330
1F
100
AcDbEntity
  8
0
  6
HIDDEN
 62
     7
370
     0
100
AcDbPolyline
 90
       14
 70
   128
 43
0.0
 10
112.4523079901
 20
153.0415534028
 10
112.3330502105
 20
153.0132726094
 10
111.4723222021
 20
152.7471413986
 10
110.7723745056
 20
152.4119732678
 10
110.2659358973
 20
152.0234403061
 10
109.9766868837
 20
151.5997098832
 10
109.9181524271
 20
151.1605951626
 10
110.0930695338
 20
150.7266286605
 10
110.4932592742
 20
150.3181021684
 10
111.1000092208
 20
149.954117931
 10
111.8849484204
 20
149.6516954466
 10
112.8113739886
 20
149.4249756546
 10
113.8359672953
 20
149.2845597203
 10
114.9108194964
 20
149.2370133369
  0
LINE
  5
D4
330
1F
100
AcDbEntity
  8
0
  6
HIDDEN
 62
     7
370
     0
100
AcDbLine
 10
227.4108194964
 20
89.2932827736
 30
0.0
 11
227.4108194964
 21
129.2932827736
 31
0.0
  0
SPLINE
  5
D5
330
1F
100
AcDbEntity
  8
0
  6
HIDDEN
 62
     7
370
     0
100
AcDbSpline
210
0.0
220
0.0
230
1.0
 70
     8
 71
     3
 72
    15
 73
    11
 74
     0
 42
0.00000001
 43
0.00000001
 40
0.0
 40
0.0
 40
0.0
 40
0.0
 40
0.1056547119409389
 40
0.2143825832049195
 40
0.42797614294195
 40
0.64222242012965
 40
0.7483968233694552
 40
0.8576694141382799
 40
0.9634931911263622
 40
1.0
 40
1.0
 40
1.0
 40
1.0
 10
162.910819496392
 20
129.4945203594156
 30
0.0
 10
163.0213741426238
 20
129.4950537014185
 30
0.0
 10
163.245699117905
 20
129.496135898646
 30
0.0
 10
163.6806232759566
 20
129.5073104764203
 30
0.0
 10
164.1813287509478
 20
129.5320404650862
 30
0.0
 10
164.5595737918674
 20
129.5611348452054
 30
0.0
 10
164.767656021207
 20
129.5795454344772
 30
0.0
 10
164.8671351876338
 20
129.5889802058252
 30
0.0
 10
164.9131396717634
 20
129.5935104759472
 30
0.0
 10
164.9061151982425
 20
129.5928203386721
 30
0.0
 10
164.9043134694664
 20
129.5926433232439
 30
0.0
  0
LINE
  5
D6
330
1F
100
AcDbEntity
  8
0
  6
HIDDEN
 62
     7
370
     0
100
AcDbLine
 10
163.0211193839
 20
129.4954214663
 30
0.0
 11
162.8659527504
 21
129.4950069746
 31
0.0
  0
SPLINE
  5
D7
330
1F
100
AcDbEntity
  8
0
  6
HIDDEN
 62
     7
370
     0
100
AcDbSpline
210
0.0
220
0.0
230
1.0
 70
     8
 71
     3
 72
    14
 73
    10
 74
     0
 42
0.00000001
 43
0.00000001
 40
0.0
 40
0.0
 40
0.0
 40
0.0
 40
0.002002471512275
 40
0.2155782002788374
 40
0.4291327167179829
 40
0.6435776003540224
 40
0.7498487125756849
 40
0.8592209744116225
 40
0.9999999999999999
 40
0.9999999999999999
 40
0.9999999999999999
 40
0.9999999999999999
 10
160.9113459386848
 20
129.5932312626298
 30
0.0
 10
160.9111716535211
 20
129.5932483175423
 30
0.0
 10
160.8924087988761
 20
129.5950843822794
 30
0.0
 10
160.9976985862971
 20
129.5845204923122
 30
0.0
 10
161.3175619160429
 20
129.5558431323451
 30
0.0
 10
161.745180750707
 20
129.5264493928836
 30
0.0
 10
162.1453370504586
 20
129.5082917929251
 30
0.0
 10
162.5017608586255
 20
129.4971019863049
 30
0.0
 10
162.7635122282769
 20
129.4954500364087
 30
0.0
 10
162.910819496392
 20
129.4945203594156
 30
0.0
  0
SPLINE
  5
D8
330
1F
100
AcDbEntity
  8
0
  6
HIDDEN
 62
     7
370
     0
100
AcDbSpline
210
0.0
220
0.0
230
1.0
 70
     8
 71
     3
 72
    22
 73
    18
 74
     0
 42
0.00000001
 43
0.00000001
 40
0.0
 40
0.0
 40
0.0
 40
0.0
 40
0.0528309752471064
 40
0.1071985695145349
 40
0.214002777603032
 40
0.3211299650889702
 40
0.3742204050693473
 40
0.428860017147887
 40
0.4817751594454788
 40
0.5362357381964937
 40
0.6428541801817109
 40
0.7496618288410763
 40
0.8027157140797087
 40
0.8573071699235446
 40
0.9103625292614855
 40
0.9649689915380631
 40
1.0
 40
1.0
 40
1.0
 40
1.0
 10
164.910819496392
 20
88.99328277356453
 30
0.0
 10
164.9054765706922
 20
88.99381338582529
 30
0.0
 10
164.8946353172541
 20
88.99489004350679
 30
0.0
 10
164.7792880358733
 20
89.00601658080268
 30
0.0
 10
164.5053623102502
 20
89.03065801930754
 30
0.0
 10
164.0805974566912
 20
89.05982007635993
 30
0.0
 10
163.6806853271859
 20
89.07818408081357
 30
0.0
 10
163.3593363297211
 20
89.08797172445396
 30
0.0
 10
163.0224953463558
 20
89.09267267413651
 30
0.0
 10
162.5735427785795
 20
89.09144242121437
 30
0.0
 10
162.0249069823424
 20
89.07576573657525
 30
0.0
 10
161.5624189625937
 20
89.04811926356771
 30
0.0
 10
161.2724471396132
 20
89.02602958663283
 30
0.0
 10
161.1004461743377
 20
89.01125643039123
 30
0.0
 10
160.9807885645232
 20
89.00012934827382
 30
0.0
 10
160.9166838550516
 20
88.99386258392599
 30
0.0
 10
160.9168816056056
 20
88.99387962270248
 30
0.0
 10
160.9169588880331
 20
88.99388628158653
 30
0.0
  0
LINE
  5
D9
330
1F
100
AcDbEntity
  8
0
  6
HIDDEN
 62
     7
370
     0
100
AcDbLine
 10
159.9108194964
 20
89.3932827736
 30
0.0
 11
159.9108194964
 21
129.1932827158
 31
0.0
  0
LINE
  5
DA
330
1F
100
AcDbEntity
  8
0
  6
HIDDEN
 62
     7
370
     0
100
AcDbLine
 10
170.4108194964
 20
89.2932827736
 30
0.0
 11
170.4108194964
 21
129.2932827736
 31
0.0
  0
LINE
  5
DB
330
1F
100
AcDbEntity
  8
0
  6
HIDDEN
 62
     7
370
     0
100
AcDbLine
 10
57.6608194964
 20
81.9232827736
 30
0.0
 11
57.6608194964
 21
77.0449975717
 31
0.0
  0
LINE
  5
DC
330
1F
100
AcDbEntity
  8
0
  6
HIDDEN
 62
     7
370
     0
100
AcDbLine
 10
71.1108194964
 20
81.9232827736
 30
0.0
 11
71.1108194964
 21
75.4239495082
 31
0.0
  0
LINE
  5
DD
330
1F
100
AcDbEntity
  8
0
  6
HIDDEN
 62
     7
370
     0
100
AcDbLine
 10
66.1108194964
 20
136.6632827736
 30
0.0
 11
66.1108194964
 21
143.0378915105
 31
0.0
  0
LINE
  5
DE
330
1F
100
AcDbEntity
  8
0
  6
HIDDEN
 62
     7
370
     0
100
AcDbLine
 10
57.6608194964
 20
136.6632827736
 30
0.0
 11
57.6608194964
 21
141.5415679754
 31
0.0
  0
LINE
  5
DF
330
1F
100
AcDbEntity
  8
0
  6
HIDDEN
 62
     7
370
     0
100
AcDbLine
 10
130.2108194964
 20
96.2932827736
 30
0.0
 11
130.2108194964
 21
122.2932827736
 31
0.0
  0
LINE
  5
E0
330
1F
100
AcDbEntity
  8
0
  6
HIDDEN
 62
     7
370
     0
100
AcDbLine
 10
134.2108194964
 20
96.2932827736
 30
0.0
 11
134.2108194964
 21
122.2932827736
 31
0.0
  0
LINE
  5
E1
330
1F
100
AcDbEntity
  8
0
  6
HIDDEN
 62
     7
370
     0
100
AcDbLine
 10
119.1108194964
 20
98.0432827736
 30
0.0
 11
119.1108194964
 21
120.5432827736
 31
0.0
  0
ELLIPSE
  5
E2
330
1F
100
AcDbEntity
  8
0
  6
HIDDEN
 62
     7
370
     0
100
AcDbEllipse
 10
49.7261462961
 20
109.2932827736
 30
0.0
 11
31.08108570811661
 21
-1.421085471520200E-14
 31
0.0
210
0.0
220
0.0
230
1.0
 40
0.8164965809
 41
4.915995335118103
 42
4.970536038964788
  0
ELLIPSE
  5
E3
330
1F
100
AcDbEntity
  8
0
  6
HIDDEN
 62
     7
370
     0
100
AcDbEllipse
 10
49.7261462961
 20
109.2932827736
 30
0.0
 11
31.08108570811661
 21
1.421085471520200E-14
 31
0.0
210
0.0
220
0.0
230
1.0
 40
0.8164965809
 41
1.31264926821481
 42
1.367189972061495
  0
LINE
  5
E4
330
1F
100
AcDbEntity
  8
0
  6
HIDDEN
 62
     7
370
     0
100
AcDbLine
 10
134.8608194964
 20
65.3932827736
 30
0.0
 11
120.8608194964
 21
65.3932827736
 31
0.0
  0
LINE
  5
E5
330
1F
100
AcDbEntity
  8
0
  6
HIDDEN
 62
     7
370
     0
100
AcDbLine
 10
110.8608194964
 20
59.3032837738
 30
0.0
 11
110.8608194964
 21
65.3932827736
 31
0.0
  0
LINE
  5
E6
330
1F
100
AcDbEntity
  8
0
  6
HIDDEN
 62
     7
370
     0
100
AcDbLine
 10
120.8608194964
 20
65.3932827736
 30
0.0
 11
110.8608194964
 21
65.3932827736
 31
0.0
  0
LINE
  5
E7
330
1F
100
AcDbEntity
  8
0
  6
HIDDEN
 62
     7
370
     0
100
AcDbLine
 10
71.1108194964
 20
81.9232827736
 30
0.0
 11
71.1108194964
 21
84.0647691432
 31
0.0
  0
LINE
  5
E8
330
1F
100
AcDbEntity
  8
0
  6
HIDDEN
 62
     7
370
     0
100
AcDbLine
 10
57.6608194964
 20
81.9232827736
 30
0.0
 11
57.6608194964
 21
84.7565776158
 31
0.0
  0
LINE
  5
E9
330
1F
100
AcDbEntity
  8
0
  6
HIDDEN
 62
     7
370
     0
100
AcDbLine
 10
66.1108194964
 20
136.6632827736
 30
0.0
 11
66.1108194964
 21
134.521796404
 31
0.0
  0
LINE
  5
EA
330
1F
100
AcDbEntity
  8
0
  6
HIDDEN
 62
     7
370
     0
100
AcDbLine
 10
57.6608194964
 20
136.6632827736
 30
0.0
 11
57.6608194964
 21
133.8299879313
 31
0.0
  0
LINE
  5
EB
330
1F
100
AcDbEntity
  8
0
  6
HIDDEN
 62
     7
370
     0
100
AcDbLine
 10
120.8608194964
 20
153.1932827736
 30
0.0
 11
110.8608194964
 21
153.1932827736
 31
0.0
  0
LINE
  5
EC
330
1F
100
AcDbEntity
  8
0
  6
HIDDEN
 62
     7
370
     0
100
AcDbLine
 10
134.8608194964
 20
153.1932827736
 30
0.0
 11
120.8608194964
 21
153.1932827736
 31
0.0
  0
SPLINE
  5
ED
330
1F
100
AcDbEntity
  8
0
  6
HIDDEN
 62
     7
370
     0
100
AcDbSpline
210
0.0
220
0.0
230
1.0
 70
     8
 71
     3
 72
    30
 73
    26
 74
     0
 42
0.00000001
 43
0.00000001
 40
0.0
 40
0.0
 40
0.0
 40
0.0
 40
0.0531412105426404
 40
0.1125220547564473
 40
0.177919359767445
 40
0.2129434479686884
 40
0.2494965796719966
 40
0.2912624313576555
 40
0.3261047849215136
 40
0.354019927982635
 40
0.3750052133013965
 40
0.441462886254971
 40
0.5001804932209545
 40
0.5546952030221791
 40
0.6144394128306422
 40
0.6794647586238324
 40
0.7140217631763512
 40
0.7499187423335812
 40
0.7913832541692272
 40
0.8260501967523777
 40
0.8539157862688489
 40
0.8749771706175085
 40
0.9411636458691016
 40
0.9999141568454469
 40
1.0
 40
1.0
 40
1.0
 40
1.0
 10
96.91035390292119
 20
72.19335751378213
 30
0.0
 10
96.89415769728564
 20
72.19825787204624
 30
0.0
 10
96.85986359072012
 20
72.2086339695286
 30
0.0
 10
96.55854861237759
 20
72.284287134175
 30
0.0
 10
96.11638023072025
 20
72.38057333545234
 30
0.0
 10
95.62154748725821
 20
72.48023818241872
 30
0.0
 10
95.15107181546153
 20
72.57251632447488
 30
0.0
 10
94.62015039157676
 20
72.66814835849772
 30
0.0
 10
94.08199988922212
 20
72.75379860129465
 30
0.0
 10
93.62395255500468
 20
72.82109039435719
 30
0.0
 10
92.96838823384213
 20
72.90943856332424
 30
0.0
 10
92.08508179588087
 20
73.00609664757368
 30
0.0
 10
90.95642006315458
 20
73.09287182433702
 30
0.0
 10
89.86665831341227
 20
73.13095052204986
 30
0.0
 10
88.77063003498084
 20
73.13280095681341
 30
0.0
 10
87.86523878803732
 20
73.10663950122829
 30
0.0
 10
87.16893607762223
 20
73.0700322760994
 30
0.0
 10
86.64225634934719
 20
73.03101540062235
 30
0.0
 10
86.17561023431452
 20
72.98880627315039
 30
0.0
 10
85.80439495859073
 20
72.95180218358102
 30
0.0
 10
85.55034848134866
 20
72.92310142313669
 30
0.0
 10
85.2492933286393
 20
72.88672147254688
 30
0.0
 10
84.99380953383525
 20
72.85394130555929
 30
0.0
 10
84.89458880889019
 20
72.83760342085336
 30
0.0
 10
84.9108693661726
 20
72.84019700702466
 30
0.0
 10
84.91089311975857
 20
72.84020079110718
 30
0.0
  0
SPLINE
  5
EE
330
1F
100
AcDbEntity
  8
0
  6
HIDDEN
 62
     7
370
     0
100
AcDbSpline
210
0.0
220
0.0
230
1.0
 70
     8
 71
     3
 72
    30
 73
    26
 74
     0
 42
0.00000001
 43
0.00000001
 40
0.0
 40
0.0
 40
0.0
 40
0.0
 40
0.0001123288057695
 40
0.0285431152663135
 40
0.0588466796063202
 40
0.091027196450477
 40
0.1250880910051604
 40
0.1546766141497773
 40
0.1963554560485685
 40
0.2501101496291966
 40
0.320525387238388
 40
0.3856104300246703
 40
0.445403860889207
 40
0.4999571692316274
 40
0.5283494388508946
 40
0.558634027028705
 40
0.5908185964995195
 40
0.6249094714581434
 40
0.6541844575853767
 40
0.6958630078636641
 40
0.7499307292180327
 40
0.8215905285694356
 40
0.8871422909715975
 40
0.9466378748868088
 40
1.0
 40
1.0
 40
1.0
 40
1.0
 10
84.91091482849188
 20
145.7462944825929
 30
0.0
 10
84.91088296873374
 20
145.7463014297191
 30
0.0
 10
84.90278730046288
 20
145.7480667171113
 30
0.0
 10
84.93144877813228
 20
145.7426117983863
 30
0.0
 10
85.0048356242865
 20
145.7320689510402
 30
0.0
 10
85.14849216783723
 20
145.7123837433867
 30
0.0
 10
85.34952786779473
 20
145.6875444795315
 30
0.0
 10
85.63215841706378
 20
145.6533360143927
 30
0.0
 10
86.04556754263842
 20
145.6096561176327
 30
0.0
 10
86.72185504382065
 20
145.5466130500994
 30
0.0
 10
87.6602859447366
 20
145.4853158796667
 30
0.0
 10
88.76977915823251
 20
145.4540274361662
 30
0.0
 10
89.86725988892124
 20
145.4556826037629
 30
0.0
 10
90.76729112737854
 20
145.4869888058602
 30
0.0
 10
91.47863205322946
 20
145.5338219546626
 30
0.0
 10
92.04404895422024
 20
145.5809888165586
 30
0.0
 10
92.63297237704856
 20
145.6404278231086
 30
0.0
 10
93.19738202952607
 20
145.7067850297166
 30
0.0
 10
93.79157822346224
 20
145.7887044361481
 30
0.0
 10
94.45818638443274
 20
145.8903524188985
 30
0.0
 10
95.25951913013297
 20
146.0324913294988
 30
0.0
 10
96.0120291146409
 20
146.1837359002652
 30
0.0
 10
96.55731560960706
 20
146.3015867735246
 30
0.0
 10
96.86003714110592
 20
146.3778160052738
 30
0.0
 10
96.89432759171893
 20
146.3882683147684
 30
0.0
 10
96.91054102836897
 20
146.3932104445686
 30
0.0
  0
LINE
  5
EF
330
1F
100
AcDbEntity
  8
0
  6
HIDDEN
 62
     7
370
     0
100
AcDbLine
 10
143.0108194964
 20
103.2932827736
 30
0.0
 11
143.0108194964
 21
115.2932827736
 31
0.0
  0
LINE
  5
F0
330
1F
100
AcDbEntity
  8
0
  6
HIDDEN
 62
     7
370
     0
100
AcDbLine
 10
143.3112498059
 20
103.7932827736
 30
0.0
 11
143.3112498059
 21
114.7932827736
 31
0.0
  0
LINE
  5
F1
330
1F
100
AcDbEntity
  8
0
  6
HIDDEN
 62
     7
370
     0
100
AcDbLine
 10
159.4108194964
 20
103.7932827736
 30
0.0
 11
159.4108194964
 21
114.7932827736
 31
0.0
  0
LINE
  5
F2
330
1F
100
AcDbEntity
  8
0
  6
HIDDEN
 62
     7
370
     0
100
AcDbLine
 10
150.3608194964
 20
74.8706330428
 30
0.0
 11
145.3608194964
 21
74.8706330428
 31
0.0
  0
LINE
  5
F3
330
1F
100
AcDbEntity
  8
0
  6
HIDDEN
 62
     7
370
     0
100
AcDbLine
 10
147.8608194964
 20
143.7159325044
 30
0.0
 11
150.3608194964
 21
143.7159325044
 31
0.0
  0
LINE
  5
F4
330
1F
100
AcDbEntity
  8
0
  6
HIDDEN
 62
     7
370
     0
100
AcDbLine
 10
145.3608194964
 20
143.7159325044
 30
0.0
 11
147.8608194964
 21
143.7159325044
 31
0.0
  0
LINE
  5
F5
330
1F
100
AcDbEntity
  8
0
  6
HIDDEN
 62
     7
370
     0
100
AcDbLine
 10
147.8608194964
 20
130.2932827736
 30
0.0
 11
150.3608194964
 21
130.2932827736
 31
0.0
  0
LINE
  5
F6
330
1F
100
AcDbEntity
  8
0
  6
HIDDEN
 62
     7
370
     0
100
AcDbLine
 10
145.3608194964
 20
130.2932827736
 30
0.0
 11
147.8608194964
 21
130.2932827736
 31
0.0
  0
LINE
  5
F7
330
1F
100
AcDbEntity
  8
0
  6
HIDDEN
 62
     7
370
     0
100
AcDbLine
 10
150.3608194964
 20
88.2932827736
 30
0.0
 11
145.3608194964
 21
88.2932827736
 31
0.0
  0
LINE
  5
F8
330
1F
100
AcDbEntity
  8
0
  6
HIDDEN
 62
     7
370
     0
100
AcDbLine
 10
162.9108194964
 20
139.1932827736
 30
0.0
 11
160.9108194964
 21
139.1932827736
 31
0.0
  0
LINE
  5
F9
330
1F
100
AcDbEntity
  8
0
  6
HIDDEN
 62
     7
370
     0
100
AcDbLine
 10
164.9108194964
 20
139.1932827736
 30
0.0
 11
162.9108194964
 21
139.1932827736
 31
0.0
  0
LWPOLYLINE
  5
FA
330
1F
100
AcDbEntity
  8
0
  6
HIDDEN
 62
     7
370
     0
100
AcDbPolyline
 90
       13
 70
   128
 43
0.0
 10
160.9120775404
 20
134.3938025187
 10
160.9588112478
 20
134.4489880613
 10
161.0908629753
 20
134.6089720132
 10
161.3592167685
 20
134.9621515671
 10
161.6447786284
 20
135.4439099223
 10
161.7582211768
 20
135.7843276457
 10
161.7710860285
 20
136.156506202
 10
161.6697165535
 20
136.5268445149
 10
161.4020980946
 20
137.0244288835
 10
161.1171713038
 20
137.4292789836
 10
160.9638458399
 20
137.6280395783
 10
160.9108194964
 20
137.6948633358
 10
160.9108194964
 20
137.6948633358
  0
SPLINE
  5
FB
330
1F
100
AcDbEntity
  8
0
  6
HIDDEN
 62
     7
370
     0
100
AcDbSpline
210
0.0
220
0.0
230
1.0
 70
     8
 71
     3
 72
    20
 73
    16
 74
     0
 42
0.00000001
 43
0.00000001
 40
0.0
 40
0.0
 40
0.0
 40
0.0
 40
0.0862583769161393
 40
0.172175780809006
 40
0.2873763823924431
 40
0.3452037076301517
 40
0.4047342707447967
 40
0.4684382158513316
 40
0.5325895595511939
 40
0.6080666899278852
 40
0.7280987267363396
 40
0.7896458146624362
 40
0.8531932637492272
 40
0.938429304142187
 40
1.0
 40
1.0
 40
1.0
 40
1.0
 10
164.910819496392
 20
137.5377029077661
 30
0.0
 10
164.8994605859369
 20
137.5244741651553
 30
0.0
 10
164.8767876659648
 20
137.4980689721805
 30
0.0
 10
164.6975080039122
 20
137.2828868802341
 30
0.0
 10
164.4766693453829
 20
136.9983135827599
 30
0.0
 10
164.2736224462148
 20
136.6831903899144
 30
0.0
 10
164.1312260099737
 20
136.4052114679149
 30
0.0
 10
164.0329721992343
 20
136.0763020852492
 30
0.0
 10
164.0426271701097
 20
135.6934877117384
 30
0.0
 10
164.2006373505311
 20
135.2491243779114
 30
0.0
 10
164.4277368141058
 20
134.8847071517405
 30
0.0
 10
164.6299670050912
 20
134.5989627792406
 30
0.0
 10
164.7795361651274
 20
134.4009204753485
 30
0.0
 10
164.8953872574841
 20
134.2543973274296
 30
0.0
 10
164.8983497818439
 20
134.250772823585
 30
0.0
 10
164.8995922635651
 20
134.2492527078904
 30
0.0
  0
LINE
  5
FC
330
1F
100
AcDbEntity
  8
0
  6
HIDDEN
 62
     7
370
     0
100
AcDbLine
 10
162.9108194964
 20
79.7932827736
 30
0.0
 11
164.9108194964
 21
79.7932827736
 31
0.0
  0
LINE
  5
FD
330
1F
100
AcDbEntity
  8
0
  6
HIDDEN
 62
     7
370
     0
100
AcDbLine
 10
160.9108194964
 20
79.7932827736
 30
0.0
 11
162.9108194964
 21
79.7932827736
 31
0.0
  0
SPLINE
  5
FE
330
1F
100
AcDbEntity
  8
0
  6
HIDDEN
 62
     7
370
     0
100
AcDbSpline
210
0.0
220
0.0
230
1.0
 70
     8
 71
     3
 72
    20
 73
    16
 74
     0
 42
0.00000001
 43
0.00000001
 40
0.0
 40
0.0
 40
0.0
 40
0.0
 40
0.0240833611976054
 40
0.1011984151502367
 40
0.1816681104137784
 40
0.3019093469154059
 40
0.4243937651580898
 40
0.4874465103963645
 40
0.55090650897079
 40
0.6272980195160338
 40
0.7446436330348697
 40
0.8040836473587971
 40
0.8655204583687964
 40
0.951227902638892
 40
1.0
 40
1.0
 40
1.0
 40
1.0
 10
164.8995922635651
 20
84.33731283923868
 30
0.0
 10
164.9029174233073
 20
84.3414892913596
 30
0.0
 10
164.9168897626858
 20
84.35903876595827
 30
0.0
 10
164.8418474690946
 20
84.26503077315742
 30
0.0
 10
164.6737476772638
 20
84.04826201014895
 30
0.0
 10
164.3964008395599
 20
83.66379836498379
 30
0.0
 10
164.1341168768846
 20
83.20436185793234
 30
0.0
 10
164.0260531509327
 20
82.75797910387726
 30
0.0
 10
164.0570037227436
 20
82.3777863144667
 30
0.0
 10
164.2329510599888
 20
81.95021895144262
 30
0.0
 10
164.4647415436359
 20
81.60850562292525
 30
0.0
 10
164.6608749231945
 20
81.35138172770934
 30
0.0
 10
164.8045493039405
 20
81.17424522952238
 30
0.0
 10
164.8972027129823
 20
81.06482590893424
 30
0.0
 10
164.9071954137379
 20
81.05311123512998
 30
0.0
 10
164.910819496392
 20
81.04886263936288
 30
0.0
  0
SPLINE
  5
FF
330
1F
100
AcDbEntity
  8
0
  6
HIDDEN
 62
     7
370
     0
100
AcDbSpline
210
0.0
220
0.0
230
1.0
 70
     8
 71
     3
 72
    19
 73
    15
 74
     0
 42
0.00000001
 43
0.00000001
 40
0.0
 40
0.0
 40
0.0
 40
0.0
 40
0.0842370229743162
 40
0.1680990403005496
 40
0.2844695418496846
 40
0.4032237137816468
 40
0.4701616865023176
 40
0.5377393992815742
 40
0.596035308605997
 40
0.6985739384103408
 40
0.8067844865951687
 40
0.9020386211938919
 40
0.9978973071625423
 40
1.0
 40
1.0
 40
1.0
 40
1.0
 10
160.910819496392
 20
80.89170221133219
 30
0.0
 10
160.9216458542515
 20
80.9051825114694
 30
0.0
 10
160.9432503732845
 20
80.93208310026066
 30
0.0
 10
161.1156310502045
 20
81.15204167703536
 30
0.0
 10
161.3778202660475
 20
81.51030931848314
 30
0.0
 10
161.6422170304835
 20
81.94884758977646
 30
0.0
 10
161.784371370131
 20
82.38676465437015
 30
0.0
 10
161.7850961718067
 20
82.75085091102413
 30
0.0
 10
161.661233402803
 20
83.14758007260522
 30
0.0
 10
161.4277209160685
 20
83.54100047918918
 30
0.0
 10
161.1570929913032
 20
83.89878397128801
 30
0.0
 10
160.9712100439054
 20
84.12377225335976
 30
0.0
 10
160.8922157147082
 20
84.21621375274628
 30
0.0
 10
160.9116601746565
 20
84.1932558093649
 30
0.0
 10
160.9120775404302
 20
84.19276302839653
 30
0.0
  0
LINE
  5
100
330
1F
100
AcDbEntity
  8
0
  6
HIDDEN
 62
     7
370
     0
100
AcDbLine
 10
160.0303366193
 20
137.7294576023
 30
0.0
 11
159.9007792273
 21
134.4320017827
 31
0.0
  0
LINE
  5
101
330
1F
100
AcDbEntity
  8
0
  6
HIDDEN
 62
     7
370
     0
100
AcDbLine
 10
160.0303366193
 20
80.8571079449
 30
0.0
 11
159.9007792273
 21
84.1545637645
 31
0.0
  0
LWPOLYLINE
  5
102
330
1F
100
AcDbEntity
  8
0
  6
HIDDEN
 62
     7
370
     0
100
AcDbPolyline
 90
       30
 70
   128
 43
0.0
 10
114.9108194964
 20
154.6059886253
 10
115.9856716974
 20
154.5698653973
 10
117.0102650042
 20
154.4631847952
 10
117.9366905724
 20
154.2909350855
 10
118.721629772
 20
154.0611704731
 10
119.3283797186
 20
153.7846344959
 10
119.728569459
 20
153.4742576689
 10
119.9034865656
 20
153.1445528675
 10
119.8449521091
 20
152.8109367219
 10
119.5557030955
 20
152.4890087521
 10
119.0492644872
 20
152.1938219524
 10
118.3493167907
 20
151.9391789292
 10
117.4885887823
 20
151.7369865075
 10
116.5073271471
 20
151.5966989801
 10
115.4514145885
 20
151.5248760359
 10
114.3702244043
 20
151.5248760359
 10
113.3143118457
 20
151.5966989801
 10
112.3330502105
 20
151.7369865075
 10
111.4723222021
 20
151.9391789292
 10
110.7723745056
 20
152.1938219524
 10
110.2659358973
 20
152.4890087521
 10
109.9766868837
 20
152.8109367219
 10
109.9181524271
 20
153.1445528675
 10
110.0930695338
 20
153.4742576689
 10
110.4932592742
 20
153.7846344959
 10
111.1000092208
 20
154.0611704731
 10
111.8849484204
 20
154.2909350855
 10
112.8113739886
 20
154.4631847952
 10
113.8359672953
 20
154.5698653973
 10
114.9108194964
 20
154.6059886253
  0
LINE
  5
103
330
1F
100
AcDbEntity
  8
0
  6
HIDDEN
 62
     7
370
     0
100
AcDbLine
 10
129.1728485173
 20
148.2442455345
 30
0.0
 11
129.1728485173
 21
140.6432827736
 31
0.0
  0
LINE
  5
104
330
1F
100
AcDbEntity
  8
0
  6
HIDDEN
 62
     7
370
     0
100
AcDbLine
 10
124.0008194964
 20
144.0075179661
 30
0.0
 11
124.0008194964
 21
140.6432827736
 31
0.0
  0
LINE
  5
105
330
1F
100
AcDbEntity
  8
0
  6
HIDDEN
 62
     7
370
     0
100
AcDbLine
 10
127.8208194964
 20
144.0075179661
 30
0.0
 11
127.8208194964
 21
140.6432827736
 31
0.0
  0
CIRCLE
  5
106
330
1F
100
AcDbEntity
  8
0
  6
HIDDEN
 62
     7
370
     0
100
AcDbCircle
 10
112.9108194964
 20
109.2932827736
 30
0.0
 40
5.000000000000014
  0
LINE
  5
107
330
1F
100
AcDbEntity
  8
0
  6
HIDDEN
 62
     7
370
     0
100
AcDbLine
 10
230.9108194964
 20
134.2940543322
 30
0.0
 11
230.8083513773
 21
131.6860665476
 31
0.0
  0
LINE
  5
108
330
1F
100
AcDbEntity
  8
0
  6
HIDDEN
 62
     7
370
     0
100
AcDbLine
 10
230.7250863025
 20
135.3021233678
 30
0.0
 11
230.5680470394
 21
131.3052072229
 31
0.0
  0
LINE
  5
109
330
1F
100
AcDbEntity
  8
0
  6
HIDDEN
 62
     7
370
     0
100
AcDbLine
 10
223.7056687994
 20
135.5779170327
 30
0.0
 11
223.5486295364
 21
131.5810008877
 31
0.0
  0
LINE
  5
10A
330
1F
100
AcDbEntity
  8
0
  6
HIDDEN
 62
     7
370
     0
100
AcDbLine
 10
222.9268021604
 20
134.8579401173
 30
0.0
 11
222.828652621
 21
132.3598675267
 31
0.0
  0
LINE
  5
10B
330
1F
100
AcDbEntity
  8
0
  6
HIDDEN
 62
     7
370
     0
100
AcDbLine
 10
228.37348709
 20
133.3929748353
 30
0.0
 11
230.8715596806
 21
133.2948252959
 31
0.0
  0
LINE
  5
10C
330
1F
100
AcDbEntity
  8
0
  6
HIDDEN
 62
     7
370
     0
100
AcDbLine
 10
228.3342272743
 20
132.3937457991
 30
0.0
 11
228.37348709
 21
133.3929748353
 31
0.0
  0
LINE
  5
10D
330
1F
100
AcDbEntity
  8
0
  6
HIDDEN
 62
     7
370
     0
100
AcDbLine
 10
228.4127469058
 20
134.3922038716
 30
0.0
 11
228.37348709
 21
133.3929748353
 31
0.0
  0
LINE
  5
10E
330
1F
100
AcDbEntity
  8
0
  6
HIDDEN
 62
     7
370
     0
100
AcDbLine
 10
228.4127469058
 20
134.3922038716
 30
0.0
 11
230.9108194964
 21
134.2940543322
 31
0.0
  0
LINE
  5
10F
330
1F
100
AcDbEntity
  8
0
  6
HIDDEN
 62
     7
370
     0
100
AcDbLine
 10
228.3342272743
 20
132.3937457991
 30
0.0
 11
230.8322998649
 21
132.2955962597
 31
0.0
  0
LINE
  5
110
330
1F
100
AcDbEntity
  8
0
  6
HIDDEN
 62
     7
370
     0
100
AcDbLine
 10
230.6465666709
 20
87.284443369
 30
0.0
 11
230.803605934
 21
83.287527224
 31
0.0
  0
LINE
  5
111
330
1F
100
AcDbEntity
  8
0
  6
HIDDEN
 62
     7
370
     0
100
AcDbLine
 10
223.6271491679
 20
87.0086497042
 30
0.0
 11
223.7841884309
 21
83.0117335592
 31
0.0
  0
LINE
  5
112
330
1F
100
AcDbEntity
  8
0
  6
HIDDEN
 62
     7
370
     0
100
AcDbLine
 10
222.9071722525
 20
86.2297830652
 30
0.0
 11
223.0053217919
 21
83.7317104746
 31
0.0
  0
LINE
  5
113
330
1F
100
AcDbEntity
  8
0
  6
HIDDEN
 62
     7
370
     0
100
AcDbLine
 10
230.8868710088
 20
86.9035840443
 30
0.0
 11
230.9108194964
 21
86.2940543322
 31
0.0
  0
LINE
  5
114
330
1F
100
AcDbEntity
  8
0
  6
HIDDEN
 62
     7
370
     0
100
AcDbLine
 10
228.4127469058
 20
86.1959047928
 30
0.0
 11
228.4520067215
 21
85.1966757565
 31
0.0
  0
LINE
  5
115
330
1F
100
AcDbEntity
  8
0
  6
HIDDEN
 62
     7
370
     0
100
AcDbLine
 10
228.4520067215
 20
85.1966757565
 30
0.0
 11
230.9500793122
 21
85.2948252959
 31
0.0
  0
LINE
  5
116
330
1F
100
AcDbEntity
  8
0
  6
HIDDEN
 62
     7
370
     0
100
AcDbLine
 10
228.4912665373
 20
84.1974467203
 30
0.0
 11
228.4520067215
 21
85.1966757565
 31
0.0
  0
LINE
  5
117
330
1F
100
AcDbEntity
  8
0
  6
HIDDEN
 62
     7
370
     0
100
AcDbLine
 10
228.4127469058
 20
86.1959047928
 30
0.0
 11
230.9108194964
 21
86.2940543322
 31
0.0
  0
LINE
  5
118
330
1F
100
AcDbEntity
  8
0
  6
HIDDEN
 62
     7
370
     0
100
AcDbLine
 10
228.4912665373
 20
84.1974467203
 30
0.0
 11
230.9893391279
 21
84.2955962597
 31
0.0
  0
LINE
  5
119
330
1F
100
AcDbEntity
  8
0
  6
HIDDEN
 62
     7
370
     0
100
AcDbLine
 10
170.9108194964
 20
103.7932827736
 30
0.0
 11
170.9108194964
 21
114.7932827736
 31
0.0
  0
LINE
  5
11A
330
1F
100
AcDbEntity
  8
0
  6
HIDDEN
 62
     7
370
     0
100
AcDbLine
 10
155.4108194964
 20
103.2932827736
 30
0.0
 11
155.4108194964
 21
115.2932827736
 31
0.0
  0
LINE
  5
11B
330
1F
100
AcDbEntity
  8
0
  6
HIDDEN
 62
     7
370
     0
100
AcDbLine
 10
154.9108194964
 20
103.7932827736
 30
0.0
 11
154.9108194964
 21
114.7932827736
 31
0.0
  0
LINE
  5
11C
330
1F
100
AcDbEntity
  8
0
  6
HIDDEN
 62
     7
370
     0
100
AcDbLine
 10
174.9108194964
 20
107.7932827736
 30
0.0
 11
172.9108194964
 21
107.7932827736
 31
0.0
  0
LINE
  5
11D
330
1F
100
AcDbEntity
  8
0
  6
HIDDEN
 62
     7
370
     0
100
AcDbLine
 10
174.9108194964
 20
103.7932827736
 30
0.0
 11
174.9108194964
 21
107.7932827736
 31
0.0
  0
LINE
  5
11E
330
1F
100
AcDbEntity
  8
0
  6
HIDDEN
 62
     7
370
     0
100
AcDbLine
 10
174.9108194964
 20
110.7932827736
 30
0.0
 11
174.9108194964
 21
114.7932827736
 31
0.0
  0
LINE
  5
11F
330
1F
100
AcDbEntity
  8
0
  6
HIDDEN
 62
     7
370
     0
100
AcDbLine
 10
172.9108194964
 20
110.7932827736
 30
0.0
 11
174.9108194964
 21
110.7932827736
 31
0.0
  0
LINE
  5
120
330
1F
100
AcDbEntity
  8
0
  6
HIDDEN
 62
     7
370
     0
100
AcDbLine
 10
172.9108194964
 20
107.7932827736
 30
0.0
 11
172.9108194964
 21
110.7932827736
 31
0.0
  0
LINE
  5
121
330
1F
100
AcDbEntity
  8
0
  6
HIDDEN
 62
     7
370
     0
100
AcDbLine
 10
167.9108194964
 20
110.7932827736
 30
0.0
 11
167.9108194964
 21
109.2932827736
 31
0.0
  0
LINE
  5
122
330
1F
100
AcDbEntity
  8
0
  6
HIDDEN
 62
     7
370
     0
100
AcDbLine
 10
161.9108194963
 20
109.2932827736
 30
0.0
 11
154.9108194964
 21
109.2932827736
 31
0.0
  0
LINE
  5
123
330
1F
100
AcDbEntity
  8
0
  6
HIDDEN
 62
     7
370
     0
100
AcDbLine
 10
167.9108194964
 20
109.2932827736
 30
0.0
 11
167.9108194964
 21
107.7932827736
 31
0.0
  0
LINE
  5
124
330
1F
100
AcDbEntity
  8
0
  6
HIDDEN
 62
     7
370
     0
100
AcDbLine
 10
167.9108194964
 20
109.2932827736
 30
0.0
 11
172.9108194964
 21
109.2932827736
 31
0.0
  0
LINE
  5
125
330
1F
100
AcDbEntity
  8
0
  6
HIDDEN
 62
     7
370
     0
100
AcDbLine
 10
161.9108194963
 20
107.7932827736
 30
0.0
 11
161.9108194963
 21
109.2932827736
 31
0.0
  0
LINE
  5
126
330
1F
100
AcDbEntity
  8
0
  6
HIDDEN
 62
     7
370
     0
100
AcDbLine
 10
161.9108194963
 20
109.2932827736
 30
0.0
 11
161.9108194963
 21
110.7932827736
 31
0.0
  0
LINE
  5
127
330
1F
100
AcDbEntity
  8
0
  6
HIDDEN
 62
     7
370
     0
100
AcDbLine
 10
167.9108194964
 20
112.2932827736
 30
0.0
 11
167.9108194964
 21
110.7932827736
 31
0.0
  0
LINE
  5
128
330
1F
100
AcDbEntity
  8
0
  6
HIDDEN
 62
     7
370
     0
100
AcDbLine
 10
161.9108194963
 20
110.7932827736
 30
0.0
 11
161.9108194963
 21
112.2932827736
 31
0.0
  0
LINE
  5
129
330
1F
100
AcDbEntity
  8
0
  6
HIDDEN
 62
     7
370
     0
100
AcDbLine
 10
161.9108194963
 20
106.2932827736
 30
0.0
 11
161.9108194963
 21
107.7932827736
 31
0.0
  0
LINE
  5
12A
330
1F
100
AcDbEntity
  8
0
  6
HIDDEN
 62
     7
370
     0
100
AcDbLine
 10
167.9108194964
 20
107.7932827736
 30
0.0
 11
167.9108194964
 21
106.2932827736
 31
0.0
  0
LINE
  5
12B
330
1F
100
AcDbEntity
  8
0
  6
HIDDEN
 62
     7
370
     0
100
AcDbLine
 10
167.9108194964
 20
112.2932827736
 30
0.0
 11
174.9108194964
 21
112.2932827736
 31
0.0
  0
LINE
  5
12C
330
1F
100
AcDbEntity
  8
0
  6
HIDDEN
 62
     7
370
     0
100
AcDbLine
 10
161.9108194963
 20
106.2932827736
 30
0.0
 11
154.9108194963
 21
106.2932827736
 31
0.0
  0
LINE
  5
12D
330
1F
100
AcDbEntity
  8
0
  6
HIDDEN
 62
     7
370
     0
100
AcDbLine
 10
161.9108194963
 20
112.2932827736
 30
0.0
 11
154.9108194963
 21
112.2932827736
 31
0.0
  0
LINE
  5
12E
330
1F
100
AcDbEntity
  8
0
  6
HIDDEN
 62
     7
370
     0
100
AcDbLine
 10
167.9108194964
 20
106.2932827736
 30
0.0
 11
174.9108194964
 21
106.2932827736
 31
0.0
  0
LINE
  5
12F
330
1F
100
AcDbEntity
  8
0
  6
HIDDEN
 62
     7
370
     0
100
AcDbLine
 10
105.9108194964
 20
69.888599817
 30
0.0
 11
106.0004211203
 21
70.5261484989
 31
0.0
  0
LINE
  5
130
330
1F
100
AcDbEntity
  8
0
  6
HIDDEN
 62
     7
370
     0
100
AcDbLine
 10
106.0004211203
 20
148.0604170482
 30
0.0
 11
105.9108194964
 21
148.6979657302
 31
0.0
  0
ARC
  5
131
330
1F
100
AcDbEntity
  8
0
  6
HIDDEN
 62
     7
370
     0
100
AcDbCircle
 10
105.0138825779
 20
70.6647974491
 30
0.0
 40
0.9962338214386932
100
AcDbArc
 50
352.0
 51
0.0
  0
ARC
  5
132
330
1F
100
AcDbEntity
  8
0
  6
HIDDEN
 62
     7
370
     0
100
AcDbCircle
 10
105.0138825779
 20
70.6647974491
 30
0.0
 40
0.9962338214386932
100
AcDbArc
 50
0.0
 51
25.7988228126
  0
ARC
  5
133
330
1F
100
AcDbEntity
  8
0
  6
HIDDEN
 62
     7
370
     0
100
AcDbCircle
 10
105.0138825779
 20
147.921768098
 30
0.0
 40
0.9962338214386901
100
AcDbArc
 50
348.75
 51
8.0
  0
LWPOLYLINE
  5
134
330
1F
100
AcDbEntity
  8
0
  6
HIDDEN
 62
     7
370
     0
100
AcDbPolyline
 90
        3
 70
   128
 43
0.0
 10
105.9909740458
 20
147.727412521
 10
105.9342826152
 20
147.5405259198
 10
105.9108194964
 20
147.4881945849
  0
LINE
  5
135
330
1F
100
AcDbEntity
  8
0
  6
HIDDEN
 62
     7
370
     0
100
AcDbLine
 10
106.0101163994
 20
70.6647974491
 30
0.0
 11
106.0101163994
 21
147.921768098
 31
0.0
  0
ARC
  5
136
330
1F
100
AcDbEntity
  8
0
  6
HIDDEN
 62
     7
370
     0
100
AcDbCircle
 10
96.1640251516
 20
89.7932827736
 30
0.0
 40
11.99999999999999
100
AcDbArc
 50
273.4717192994
 51
324.3146652873
  0
ARC
  5
137
330
1F
100
AcDbEntity
  8
0
  6
HIDDEN
 62
     7
370
     0
100
AcDbCircle
 10
96.1640251516
 20
128.7932827736
 30
0.0
 40
11.99999999999999
100
AcDbArc
 50
35.6853347127
 51
86.5305557401
  0
LINE
  5
138
330
1F
100
AcDbEntity
  8
0
  6
HIDDEN
 62
     7
370
     0
100
AcDbLine
 10
79.3715454386
 20
77.7932827736
 30
0.0
 11
84.9159898703
 21
77.7932827736
 31
0.0
  0
LINE
  5
139
330
1F
100
AcDbEntity
  8
0
  6
HIDDEN
 62
     7
370
     0
100
AcDbLine
 10
84.9159898703
 20
140.7932827736
 30
0.0
 11
79.3715454386
 21
140.7932827736
 31
0.0
  0
ARC
  5
13A
330
1F
100
AcDbEntity
  8
0
  6
HIDDEN
 62
     7
370
     0
100
AcDbCircle
 10
79.3715454386
 20
78.7932827736
 30
0.0
 40
1.000000000000008
100
AcDbArc
 50
210.0
 51
270.0
  0
ARC
  5
13B
330
1F
100
AcDbEntity
  8
0
  6
HIDDEN
 62
     7
370
     0
100
AcDbCircle
 10
79.3715454386
 20
139.7932827736
 30
0.0
 40
1.000000000000008
100
AcDbArc
 50
90.0
 51
150.0
  0
LINE
  5
13C
330
1F
100
AcDbEntity
  8
0
  6
HIDDEN
 62
     7
370
     0
100
AcDbLine
 10
78.5055200348
 20
140.2932827736
 30
0.0
 11
75.9074438234
 21
135.7932827736
 31
0.0
  0
LINE
  5
13D
330
1F
100
AcDbEntity
  8
0
  6
HIDDEN
 62
     7
370
     0
100
AcDbLine
 10
75.9074438234
 20
82.7932827736
 30
0.0
 11
78.5055200348
 21
78.2932827736
 31
0.0
  0
ARC
  5
13E
330
1F
100
AcDbEntity
  8
0
  6
HIDDEN
 62
     7
370
     0
100
AcDbCircle
 10
116.3608194964
 20
84.4182827736
 30
0.0
 40
2.000000000000015
100
AcDbArc
 50
234.3409123039
 51
0.0
  0
ARC
  5
13F
330
1F
100
AcDbEntity
  8
0
  6
HIDDEN
 62
     7
370
     0
100
AcDbCircle
 10
116.3608194964
 20
134.1682827736
 30
0.0
 40
2.000000000000003
100
AcDbArc
 50
0.0
 51
125.6590876961
  0
LINE
  5
140
330
1F
100
AcDbEntity
  8
0
  6
HIDDEN
 62
     7
370
     0
100
AcDbLine
 10
105.9108194964
 20
82.7932827736
 30
0.0
 11
115.1948971148
 21
82.7932827736
 31
0.0
  0
LINE
  5
141
330
1F
100
AcDbEntity
  8
0
  6
HIDDEN
 62
     7
370
     0
100
AcDbLine
 10
115.1948971148
 20
135.7932827736
 30
0.0
 11
105.9108194964
 21
135.7932827736
 31
0.0
  0
LINE
  5
142
330
1F
100
AcDbEntity
  8
0
  6
HIDDEN
 62
     7
370
     0
100
AcDbLine
 10
71.1108194964
 20
82.7932827736
 30
0.0
 11
75.9074438234
 21
82.7932827736
 31
0.0
  0
LINE
  5
143
330
1F
100
AcDbEntity
  8
0
  6
HIDDEN
 62
     7
370
     0
100
AcDbLine
 10
75.9074438234
 20
135.7932827736
 30
0.0
 11
66.1108194964
 21
135.7932827736
 31
0.0
  0
LINE
  5
144
330
1F
100
AcDbEntity
  8
0
  6
HIDDEN
 62
     7
370
     0
100
AcDbLine
 10
109.9108194964
 20
154.9704456557
 30
0.0
 11
109.9108194964
 21
151.2706965522
 31
0.0
  0
LINE
  5
145
330
1F
100
AcDbEntity
  8
0
  6
HIDDEN
 62
     7
370
     0
100
AcDbLine
 10
119.9108194964
 20
151.2706965522
 30
0.0
 11
119.9108194964
 21
154.9690737064
 31
0.0
  0
ARC
  5
146
330
1F
100
AcDbEntity
  8
0
  6
HIDDEN
 62
     7
370
     0
100
AcDbCircle
 10
230.4108194964
 20
88.2565885255
 30
0.0
 40
0.5000000000000105
100
AcDbArc
 50
0.0
 51
80.0
  0
ARC
  5
147
330
1F
100
AcDbEntity
  8
0
  6
HIDDEN
 62
     7
370
     0
100
AcDbCircle
 10
230.4108194964
 20
130.3299770216
 30
0.0
 40
0.5000000000000245
100
AcDbArc
 50
280.0
 51
0.0
  0
LINE
  5
148
330
1F
100
AcDbEntity
  8
0
  6
HIDDEN
 62
     7
370
     0
100
AcDbLine
 10
230.4976435852
 20
129.8375731451
 30
0.0
 11
227.4108194964
 21
129.2932827736
 31
0.0
  0
LINE
  5
149
330
1F
100
AcDbEntity
  8
0
  6
HIDDEN
 62
     7
370
     0
100
AcDbLine
 10
227.4108194964
 20
89.2932827736
 30
0.0
 11
230.4976435852
 21
88.748992402
 31
0.0
  0
LINE
  5
14A
330
1F
100
AcDbEntity
  8
0
  6
HIDDEN
 62
     7
370
     0
100
AcDbLine
 10
164.9108194964
 20
88.9932827736
 30
0.0
 11
169.5160454783
 21
88.9932827736
 31
0.0
  0
LINE
  5
14B
330
1F
100
AcDbEntity
  8
0
  6
HIDDEN
 62
     7
370
     0
100
AcDbLine
 10
160.3108194964
 20
88.9932827736
 30
0.0
 11
160.916958888
 21
88.9932827736
 31
0.0
  0
LINE
  5
14C
330
1F
100
AcDbEntity
  8
0
  6
HIDDEN
 62
     7
370
     0
100
AcDbLine
 10
160.9113459387
 20
129.5932827736
 30
0.0
 11
160.3108194964
 21
129.5932827736
 31
0.0
  0
LINE
  5
14D
330
1F
100
AcDbEntity
  8
0
  6
HIDDEN
 62
     7
370
     0
100
AcDbLine
 10
169.5160454783
 20
129.5932827736
 30
0.0
 11
164.9043134695
 21
129.5932827736
 31
0.0
  0
ARC
  5
14E
330
1F
100
AcDbEntity
  8
0
  6
HIDDEN
 62
     7
370
     0
100
AcDbCircle
 10
160.3108194964
 20
89.3932827736
 30
0.0
 40
0.4000000000000341
100
AcDbArc
 50
180.0
 51
270.0
  0
ARC
  5
14F
330
1F
100
AcDbEntity
  8
0
  6
HIDDEN
 62
     7
370
     0
100
AcDbCircle
 10
160.3108194964
 20
129.1932827736
 30
0.0
 40
0.4000000000000341
100
AcDbArc
 50
90.0
 51
180.0
  0
ARC
  5
150
330
1F
100
AcDbEntity
  8
0
  6
HIDDEN
 62
     7
370
     0
100
AcDbCircle
 10
169.5160454783
 20
89.3932827736
 30
0.0
 40
0.3999999999999977
100
AcDbArc
 50
270.0
 51
290.0
  0
ARC
  5
151
330
1F
100
AcDbEntity
  8
0
  6
HIDDEN
 62
     7
370
     0
100
AcDbCircle
 10
169.5160454783
 20
129.1932827736
 30
0.0
 40
0.4000000000000111
100
AcDbArc
 50
70.0
 51
90.0
  0
LINE
  5
152
330
1F
100
AcDbEntity
  8
0
  6
HIDDEN
 62
     7
370
     0
100
AcDbLine
 10
169.6528535356
 20
89.0174057253
 30
0.0
 11
170.4108194964
 21
89.2932827736
 31
0.0
  0
LINE
  5
153
330
1F
100
AcDbEntity
  8
0
  6
HIDDEN
 62
     7
370
     0
100
AcDbLine
 10
170.4108194964
 20
129.2932827736
 30
0.0
 11
169.6528535356
 21
129.5691598219
 31
0.0
  0
LINE
  5
154
330
1F
100
AcDbEntity
  8
0
  6
HIDDEN
 62
     7
370
     0
100
AcDbLine
 10
170.4108194964
 20
89.2932827736
 30
0.0
 11
227.4108194964
 21
89.2932827736
 31
0.0
  0
LINE
  5
155
330
1F
100
AcDbEntity
  8
0
  6
HIDDEN
 62
     7
370
     0
100
AcDbLine
 10
227.4108194964
 20
129.2932827736
 30
0.0
 11
170.4108194964
 21
129.2932827736
 31
0.0
  0
LINE
  5
156
330
1F
100
AcDbEntity
  8
0
  6
HIDDEN
 62
     7
370
     0
100
AcDbLine
 10
130.2108194964
 20
96.2932827736
 30
0.0
 11
134.2108194964
 21
96.2932827736
 31
0.0
  0
LINE
  5
157
330
1F
100
AcDbEntity
  8
0
  6
HIDDEN
 62
     7
370
     0
100
AcDbLine
 10
134.2108194964
 20
122.2932827736
 30
0.0
 11
130.2108194964
 21
122.2932827736
 31
0.0
  0
LINE
  5
158
330
1F
100
AcDbEntity
  8
0
  6
HIDDEN
 62
     7
370
     0
100
AcDbLine
 10
118.3608194964
 20
97.2932827736
 30
0.0
 11
119.1108194964
 21
98.0432827736
 31
0.0
  0
LINE
  5
159
330
1F
100
AcDbEntity
  8
0
  6
HIDDEN
 62
     7
370
     0
100
AcDbLine
 10
119.1108194964
 20
120.5432827736
 30
0.0
 11
118.3608194964
 21
121.2932827736
 31
0.0
  0
LINE
  5
15A
330
1F
100
AcDbEntity
  8
0
  6
HIDDEN
 62
     7
370
     0
100
AcDbLine
 10
119.1108194964
 20
98.0432827736
 30
0.0
 11
130.2108194964
 21
98.0432827736
 31
0.0
  0
LINE
  5
15B
330
1F
100
AcDbEntity
  8
0
  6
HIDDEN
 62
     7
370
     0
100
AcDbLine
 10
130.2108194964
 20
120.5432827736
 30
0.0
 11
119.1108194964
 21
120.5432827736
 31
0.0
  0
LINE
  5
15C
330
1F
100
AcDbEntity
  8
0
  6
HIDDEN
 62
     7
370
     0
100
AcDbLine
 10
110.8608194964
 20
159.2932827736
 30
0.0
 11
110.8608194964
 21
153.1932827736
 31
0.0
  0
LINE
  5
15D
330
1F
100
AcDbEntity
  8
0
  6
HIDDEN
 62
     7
370
     0
100
AcDbLine
 10
97.3435321124
 20
71.715003203
 30
0.0
 11
96.9108228259
 21
72.1932279203
 31
0.0
  0
LINE
  5
15E
330
1F
100
AcDbEntity
  8
0
  6
HIDDEN
 62
     7
370
     0
100
AcDbLine
 10
84.9108199544
 20
72.840189277
 30
0.0
 11
84.4301926492
 21
72.3619645662
 31
0.0
  0
LINE
  5
15F
330
1F
100
AcDbEntity
  8
0
  6
HIDDEN
 62
     7
370
     0
100
AcDbLine
 10
84.4300743077
 20
146.2245950648
 30
0.0
 11
84.9108197718
 21
145.7463153929
 31
0.0
  0
LINE
  5
160
330
1F
100
AcDbEntity
  8
0
  6
HIDDEN
 62
     7
370
     0
100
AcDbLine
 10
96.9108194985
 20
146.3932877803
 30
0.0
 11
97.3436411682
 21
146.8715674532
 31
0.0
  0
LINE
  5
161
330
1F
100
AcDbEntity
  8
0
  6
HIDDEN
 62
     7
370
     0
100
AcDbLine
 10
96.9108194964
 20
72.0930990778
 30
0.0
 11
96.9108194964
 21
77.8192178796
 31
0.0
  0
LINE
  5
162
330
1F
100
AcDbEntity
  8
0
  6
HIDDEN
 62
     7
370
     0
100
AcDbLine
 10
84.9108194964
 20
77.7942669729
 30
0.0
 11
84.9108194964
 21
72.8402276915
 31
0.0
  0
LINE
  5
163
330
1F
100
AcDbEntity
  8
0
  6
HIDDEN
 62
     7
370
     0
100
AcDbLine
 10
96.9108194964
 20
140.7673476675
 30
0.0
 11
96.9108194964
 21
146.4932916063
 31
0.0
  0
LINE
  5
164
330
1F
100
AcDbEntity
  8
0
  6
HIDDEN
 62
     7
370
     0
100
AcDbLine
 10
84.9108194964
 20
145.7463048937
 30
0.0
 11
84.9108194964
 21
140.7922985742
 31
0.0
  0
LINE
  5
165
330
1F
100
AcDbEntity
  8
0
  6
HIDDEN
 62
     7
370
     0
100
AcDbLine
 10
134.2108194964
 20
103.2932827736
 30
0.0
 11
143.0108194964
 21
103.2932827736
 31
0.0
  0
LINE
  5
166
330
1F
100
AcDbEntity
  8
0
  6
HIDDEN
 62
     7
370
     0
100
AcDbLine
 10
143.0108194964
 20
115.2932827736
 30
0.0
 11
134.2108194964
 21
115.2932827736
 31
0.0
  0
LINE
  5
167
330
1F
100
AcDbEntity
  8
0
  6
HIDDEN
 62
     7
370
     0
100
AcDbLine
 10
143.0108194964
 20
103.2932827736
 30
0.0
 11
143.3112498059
 21
103.7932827736
 31
0.0
  0
LINE
  5
168
330
1F
100
AcDbEntity
  8
0
  6
HIDDEN
 62
     7
370
     0
100
AcDbLine
 10
143.3112498059
 20
114.7932827736
 30
0.0
 11
143.0108194964
 21
115.2932827736
 31
0.0
  0
LINE
  5
169
330
1F
100
AcDbEntity
  8
0
  6
HIDDEN
 62
     7
370
     0
100
AcDbLine
 10
159.9108194964
 20
115.2932827736
 30
0.0
 11
159.4108194964
 21
114.7932827736
 31
0.0
  0
LINE
  5
16A
330
1F
100
AcDbEntity
  8
0
  6
HIDDEN
 62
     7
370
     0
100
AcDbLine
 10
159.4108194964
 20
103.7932827736
 30
0.0
 11
159.9108194964
 21
103.2932827736
 31
0.0
  0
LINE
  5
16B
330
1F
100
AcDbEntity
  8
0
  6
HIDDEN
 62
     7
370
     0
100
AcDbLine
 10
143.3112498059
 20
103.7932827736
 30
0.0
 11
159.4108194964
 21
103.7932827736
 31
0.0
  0
LINE
  5
16C
330
1F
100
AcDbEntity
  8
0
  6
HIDDEN
 62
     7
370
     0
100
AcDbLine
 10
159.4108194964
 20
114.7932827736
 30
0.0
 11
143.3112498059
 21
114.7932827736
 31
0.0
  0
LINE
  5
16D
330
1F
100
AcDbEntity
  8
0
  6
HIDDEN
 62
     7
370
     0
100
AcDbLine
 10
151.3608194964
 20
74.2932827736
 30
0.0
 11
150.3608194964
 21
74.8706330428
 31
0.0
  0
LINE
  5
16E
330
1F
100
AcDbEntity
  8
0
  6
HIDDEN
 62
     7
370
     0
100
AcDbLine
 10
145.3608194964
 20
74.8706330428
 30
0.0
 11
144.3608194964
 21
74.2932827736
 31
0.0
  0
LINE
  5
16F
330
1F
100
AcDbEntity
  8
0
  6
HIDDEN
 62
     7
370
     0
100
AcDbLine
 10
144.3608194964
 20
144.2932827736
 30
0.0
 11
145.3608194964
 21
143.7159325044
 31
0.0
  0
LINE
  5
170
330
1F
100
AcDbEntity
  8
0
  6
HIDDEN
 62
     7
370
     0
100
AcDbLine
 10
150.3608194964
 20
143.7159325044
 30
0.0
 11
151.3608194964
 21
144.2932827736
 31
0.0
  0
LINE
  5
171
330
1F
100
AcDbEntity
  8
0
  6
HIDDEN
 62
     7
370
     0
100
AcDbLine
 10
145.3608194964
 20
143.7159325044
 30
0.0
 11
145.3608194964
 21
130.2932827736
 31
0.0
  0
LINE
  5
172
330
1F
100
AcDbEntity
  8
0
  6
HIDDEN
 62
     7
370
     0
100
AcDbLine
 10
150.3608194964
 20
130.2932827736
 30
0.0
 11
150.3608194964
 21
143.7159325044
 31
0.0
  0
LINE
  5
173
330
1F
100
AcDbEntity
  8
0
  6
HIDDEN
 62
     7
370
     0
100
AcDbLine
 10
145.3608194964
 20
130.2932827736
 30
0.0
 11
147.8608194964
 21
128.791131226
 31
0.0
  0
LINE
  5
174
330
1F
100
AcDbEntity
  8
0
  6
HIDDEN
 62
     7
370
     0
100
AcDbLine
 10
147.8608194964
 20
128.791131226
 30
0.0
 11
150.3608194964
 21
130.2932827736
 31
0.0
  0
LINE
  5
175
330
1F
100
AcDbEntity
  8
0
  6
HIDDEN
 62
     7
370
     0
100
AcDbLine
 10
150.3608194964
 20
74.8706330428
 30
0.0
 11
150.3608194964
 21
88.2932827736
 31
0.0
  0
LINE
  5
176
330
1F
100
AcDbEntity
  8
0
  6
HIDDEN
 62
     7
370
     0
100
AcDbLine
 10
145.3608194964
 20
88.2932827736
 30
0.0
 11
145.3608194964
 21
74.8706330428
 31
0.0
  0
LINE
  5
177
330
1F
100
AcDbEntity
  8
0
  6
HIDDEN
 62
     7
370
     0
100
AcDbLine
 10
150.3608194964
 20
88.2932827736
 30
0.0
 11
147.8608194964
 21
89.7954343211
 31
0.0
  0
LINE
  5
178
330
1F
100
AcDbEntity
  8
0
  6
HIDDEN
 62
     7
370
     0
100
AcDbLine
 10
147.8608194964
 20
89.7954343211
 30
0.0
 11
145.3608194964
 21
88.2932827736
 31
0.0
  0
LINE
  5
179
330
1F
100
AcDbEntity
  8
0
  6
HIDDEN
 62
     7
370
     0
100
AcDbLine
 10
160.9108194964
 20
134.3938025187
 30
0.0
 11
160.9108194964
 21
129.5932316088
 31
0.0
  0
LINE
  5
17A
330
1F
100
AcDbEntity
  8
0
  6
HIDDEN
 62
     7
370
     0
100
AcDbLine
 10
160.9108194964
 20
139.1932827736
 30
0.0
 11
160.9108194964
 21
137.6948633358
 31
0.0
  0
LINE
  5
17B
330
1F
100
AcDbEntity
  8
0
  6
HIDDEN
 62
     7
370
     0
100
AcDbLine
 10
164.9108194964
 20
137.5377029078
 30
0.0
 11
164.9108194964
 21
139.1932827736
 31
0.0
  0
LINE
  5
17C
330
1F
100
AcDbEntity
  8
0
  6
HIDDEN
 62
     7
370
     0
100
AcDbLine
 10
164.9108194964
 20
129.5926438271
 30
0.0
 11
164.9108194964
 21
134.2492527079
 31
0.0
  0
LINE
  5
17D
330
1F
100
AcDbEntity
  8
0
  6
HIDDEN
 62
     7
370
     0
100
AcDbLine
 10
160.9108194964
 20
80.8917022113
 30
0.0
 11
160.9108194964
 21
79.7932827736
 31
0.0
  0
LINE
  5
17E
330
1F
100
AcDbEntity
  8
0
  6
HIDDEN
 62
     7
370
     0
100
AcDbLine
 10
160.9108194964
 20
88.9938858438
 30
0.0
 11
160.9108194964
 21
84.1927630284
 31
0.0
  0
LINE
  5
17F
330
1F
100
AcDbEntity
  8
0
  6
HIDDEN
 62
     7
370
     0
100
AcDbLine
 10
164.9108194964
 20
84.3373128392
 30
0.0
 11
164.9108194964
 21
88.9932827736
 31
0.0
  0
LINE
  5
180
330
1F
100
AcDbEntity
  8
0
  6
HIDDEN
 62
     7
370
     0
100
AcDbLine
 10
164.9108194964
 20
79.7932827736
 30
0.0
 11
164.9108194964
 21
81.0488626394
 31
0.0
  0
LINE
  5
181
330
1F
100
AcDbEntity
  8
0
  6
HIDDEN
 62
     7
370
     0
100
AcDbLine
 10
160.9108194964
 20
79.7932827736
 30
0.0
 11
162.9108194964
 21
78.5915615355
 31
0.0
  0
LINE
  5
182
330
1F
100
AcDbEntity
  8
0
  6
HIDDEN
 62
     7
370
     0
100
AcDbLine
 10
162.9108194964
 20
78.5915615355
 30
0.0
 11
164.9108194964
 21
79.7932827736
 31
0.0
  0
LINE
  5
183
330
1F
100
AcDbEntity
  8
0
  6
HIDDEN
 62
     7
370
     0
100
AcDbLine
 10
230.9108194964
 20
86.9445558453
 30
0.0
 11
164.8990715174
 21
84.3509472034
 31
0.0
  0
LINE
  5
184
330
1F
100
AcDbEntity
  8
0
  6
HIDDEN
 62
     7
370
     0
100
AcDbLine
 10
164.9108194964
 20
81.0488626394
 30
0.0
 11
230.9108194964
 21
83.6420097019
 31
0.0
  0
LINE
  5
185
330
1F
100
AcDbEntity
  8
0
  6
HIDDEN
 62
     7
370
     0
100
AcDbLine
 10
230.9108194964
 20
134.9445558453
 30
0.0
 11
164.9108194964
 21
137.5377029078
 31
0.0
  0
LINE
  5
186
330
1F
100
AcDbEntity
  8
0
  6
HIDDEN
 62
     7
370
     0
100
AcDbLine
 10
164.8990715174
 20
134.2356183437
 30
0.0
 11
230.9108194964
 21
131.6420097019
 31
0.0
  0
LINE
  5
187
330
1F
100
AcDbEntity
  8
0
  6
HIDDEN
 62
     7
370
     0
100
AcDbLine
 10
160.9108194964
 20
137.6948633358
 30
0.0
 11
160.0303366193
 21
137.7294576023
 31
0.0
  0
LINE
  5
188
330
1F
100
AcDbEntity
  8
0
  6
HIDDEN
 62
     7
370
     0
100
AcDbLine
 10
159.9007792273
 20
134.4320017827
 30
0.0
 11
160.9120107429
 21
134.3922703882
 31
0.0
  0
LINE
  5
189
330
1F
100
AcDbEntity
  8
0
  6
HIDDEN
 62
     7
370
     0
100
AcDbLine
 10
160.9120107429
 20
84.1942951589
 30
0.0
 11
159.9007792273
 21
84.1545637645
 31
0.0
  0
LINE
  5
18A
330
1F
100
AcDbEntity
  8
0
  6
HIDDEN
 62
     7
370
     0
100
AcDbLine
 10
160.0303366193
 20
80.8571079449
 30
0.0
 11
160.9108194964
 21
80.8917022113
 31
0.0
  0
LINE
  5
18B
330
1F
100
AcDbEntity
  8
0
  6
HIDDEN
 62
     7
370
     0
100
AcDbLine
 10
160.0303366193
 20
137.7294576023
 30
0.0
 11
158.9749022508
 21
136.1196526598
 31
0.0
  0
LINE
  5
18C
330
1F
100
AcDbEntity
  8
0
  6
HIDDEN
 62
     7
370
     0
100
AcDbLine
 10
158.9749022508
 20
136.1196526598
 30
0.0
 11
159.9007792273
 21
134.4320017827
 31
0.0
  0
LINE
  5
18D
330
1F
100
AcDbEntity
  8
0
  6
HIDDEN
 62
     7
370
     0
100
AcDbLine
 10
159.9007792273
 20
84.1545637645
 30
0.0
 11
158.9749022508
 21
82.4669128873
 31
0.0
  0
LINE
  5
18E
330
1F
100
AcDbEntity
  8
0
  6
HIDDEN
 62
     7
370
     0
100
AcDbLine
 10
158.9749022508
 20
82.4669128873
 30
0.0
 11
160.0303366193
 21
80.8571079449
 31
0.0
  0
LINE
  5
18F
330
1F
100
AcDbEntity
  8
0
  6
HIDDEN
 62
     7
370
     0
100
AcDbLine
 10
109.9108194964
 20
156.8459940716
 30
0.0
 11
109.9108194964
 21
154.9704456557
 31
0.0
  0
LINE
  5
190
330
1F
100
AcDbEntity
  8
0
  6
HIDDEN
 62
     7
370
     0
100
AcDbLine
 10
119.9108194964
 20
154.9690737064
 30
0.0
 11
119.9108194964
 21
156.8445657888
 31
0.0
  0
LINE
  5
191
330
1F
100
AcDbEntity
  8
0
  6
HIDDEN
 62
     7
370
     0
100
AcDbLine
 10
230.5680470394
 20
131.3052072229
 30
0.0
 11
230.8083513773
 21
131.6860665476
 31
0.0
  0
LINE
  5
192
330
1F
100
AcDbEntity
  8
0
  6
HIDDEN
 62
     7
370
     0
100
AcDbLine
 10
230.9108194964
 20
134.9491026322
 30
0.0
 11
230.7250863025
 21
135.3021233678
 31
0.0
  0
LINE
  5
193
330
1F
100
AcDbEntity
  8
0
  6
HIDDEN
 62
     7
370
     0
100
AcDbLine
 10
230.7250863025
 20
135.3021233678
 30
0.0
 11
223.7056687994
 21
135.5779170327
 31
0.0
  0
LINE
  5
194
330
1F
100
AcDbEntity
  8
0
  6
HIDDEN
 62
     7
370
     0
100
AcDbLine
 10
223.5486295364
 20
131.5810008877
 30
0.0
 11
230.5680470394
 21
131.3052072229
 31
0.0
  0
LINE
  5
195
330
1F
100
AcDbEntity
  8
0
  6
HIDDEN
 62
     7
370
     0
100
AcDbLine
 10
223.7056687994
 20
135.5779170327
 30
0.0
 11
222.9268021604
 21
134.8579401173
 31
0.0
  0
LINE
  5
196
330
1F
100
AcDbEntity
  8
0
  6
HIDDEN
 62
     7
370
     0
100
AcDbLine
 10
222.828652621
 20
132.3598675267
 30
0.0
 11
223.5486295364
 21
131.5810008877
 31
0.0
  0
LINE
  5
197
330
1F
100
AcDbEntity
  8
0
  6
HIDDEN
 62
     7
370
     0
100
AcDbLine
 10
230.6465666709
 20
87.284443369
 30
0.0
 11
223.6271491679
 21
87.0086497042
 31
0.0
  0
LINE
  5
198
330
1F
100
AcDbEntity
  8
0
  6
HIDDEN
 62
     7
370
     0
100
AcDbLine
 10
223.7841884309
 20
83.0117335592
 30
0.0
 11
230.803605934
 21
83.287527224
 31
0.0
  0
LINE
  5
199
330
1F
100
AcDbEntity
  8
0
  6
HIDDEN
 62
     7
370
     0
100
AcDbLine
 10
223.6271491679
 20
87.0086497042
 30
0.0
 11
222.9071722525
 21
86.2297830652
 31
0.0
  0
LINE
  5
19A
330
1F
100
AcDbEntity
  8
0
  6
HIDDEN
 62
     7
370
     0
100
AcDbLine
 10
223.0053217919
 20
83.7317104746
 30
0.0
 11
223.7841884309
 21
83.0117335592
 31
0.0
  0
LINE
  5
19B
330
1F
100
AcDbEntity
  8
0
  6
HIDDEN
 62
     7
370
     0
100
AcDbLine
 10
230.803605934
 20
83.287527224
 30
0.0
 11
230.9108194964
 21
83.4913066879
 31
0.0
  0
LINE
  5
19C
330
1F
100
AcDbEntity
  8
0
  6
HIDDEN
 62
     7
370
     0
100
AcDbLine
 10
230.8868710088
 20
86.9035840443
 30
0.0
 11
230.6465666709
 21
87.284443369
 31
0.0
  0
LINE
  5
19D
330
1F
100
AcDbEntity
  8
0
  6
HIDDEN
 62
     7
370
     0
100
AcDbLine
 10
170.4108194964
 20
103.2932827736
 30
0.0
 11
170.9108194964
 21
103.7932827736
 31
0.0
  0
LINE
  5
19E
330
1F
100
AcDbEntity
  8
0
  6
HIDDEN
 62
     7
370
     0
100
AcDbLine
 10
170.9108194964
 20
114.7932827736
 30
0.0
 11
170.4108194964
 21
115.2932827736
 31
0.0
  0
LINE
  5
19F
330
1F
100
AcDbEntity
  8
0
  6
HIDDEN
 62
     7
370
     0
100
AcDbLine
 10
155.4108194964
 20
103.2932827736
 30
0.0
 11
170.4108194964
 21
103.2932827736
 31
0.0
  0
LINE
  5
1A0
330
1F
100
AcDbEntity
  8
0
  6
HIDDEN
 62
     7
370
     0
100
AcDbLine
 10
170.4108194964
 20
115.2932827736
 30
0.0
 11
155.4108194964
 21
115.2932827736
 31
0.0
  0
LINE
  5
1A1
330
1F
100
AcDbEntity
  8
0
  6
HIDDEN
 62
     7
370
     0
100
AcDbLine
 10
155.4108194964
 20
115.2932827736
 30
0.0
 11
154.9108194964
 21
114.7932827736
 31
0.0
  0
LINE
  5
1A2
330
1F
100
AcDbEntity
  8
0
  6
HIDDEN
 62
     7
370
     0
100
AcDbLine
 10
154.9108194964
 20
103.7932827736
 30
0.0
 11
155.4108194964
 21
103.2932827736
 31
0.0
  0
LINE
  5
1A3
330
1F
100
AcDbEntity
  8
0
  6
HIDDEN
 62
     7
370
     0
100
AcDbLine
 10
170.9108194964
 20
103.7932827736
 30
0.0
 11
174.9108194964
 21
103.7932827736
 31
0.0
  0
LINE
  5
1A4
330
1F
100
AcDbEntity
  8
0
  6
HIDDEN
 62
     7
370
     0
100
AcDbLine
 10
174.9108194964
 20
114.7932827736
 30
0.0
 11
170.9108194964
 21
114.7932827736
 31
0.0
  0
LINE
  5
1A5
330
1F
100
AcDbEntity
  8
0
  6
HIDDEN
 62
     7
370
     0
100
AcDbLine
 10
161.9108194963
 20
106.2932827736
 30
0.0
 11
167.9108194964
 21
106.2932827736
 31
0.0
  0
LINE
  5
1A6
330
1F
100
AcDbEntity
  8
0
  6
HIDDEN
 62
     7
370
     0
100
AcDbLine
 10
167.9108194964
 20
112.2932827736
 30
0.0
 11
161.9108194963
 21
112.2932827736
 31
0.0
  0
DIMENSION
  5
1A7
330
1F
100
AcDbEntity
  8
VERMASSUNG
100
AcDbDimension
  2
*D1
 10
50.3346695558
 20
59.2932827736
 30
0.0
 11
50.3346695558
 21
109.2932827736
 31
0.0
 70
   160
  1
HSK A %%c<>
 71
     2
 42
-1.0
  3
SLDDIMSTYLE0
100
AcDbAlignedDimension
 13
106.4108194964
 23
159.2932827736
 33
0.0
 14
106.4108194964
 24
59.2932827736
 34
0.0
 50
90.0
100
AcDbRotatedDimension
  0
DIMENSION
  5
1B4
330
1F
100
AcDbEntity
  8
VERMASSUNG
100
AcDbDimension
  2
*D2
 10
230.9108194964
 20
159.1881906826
 30
0.0
 11
195.4108194964
 21
159.1881906826
 31
0.0
 70
   160
 71
     2
 42
-1.0
  3
SLDDIMSTYLE1
100
AcDbAlignedDimension
 13
159.9108194964
 23
129.1932827736
 33
0.0
 14
230.9108194964
 24
136.9823065444
 34
0.0
100
AcDbRotatedDimension
  0
DIMENSION
  5
1BF
330
1F
100
AcDbEntity
  8
VERMASSUNG
100
AcDbDimension
  2
*D3
 10
238.1463705309
 20
129.2932827736
 30
0.0
 11
238.1463705309
 21
109.2932827736
 31
0.0
 70
   160
  1
%%c<>
 71
     2
 42
-1.0
  3
SLDDIMSTYLE2
100
AcDbAlignedDimension
 13
227.4108194964
 23
89.2932827736
 33
0.0
 14
227.4108194964
 24
129.2932827736
 34
0.0
 50
90.0
100
AcDbRotatedDimension
  0
DIMENSION
  5
1CB
330
1F
100
AcDbEntity
  8
VERMASSUNG
100
AcDbDimension
  2
*D4
 10
244.1463705309
 20
139.2932827736
 30
0.0
 11
244.1463705309
 21
109.2932827736
 31
0.0
 70
   160
  1
%%c<>
 71
     2
 42
-1.0
  3
SLDDIMSTYLE3
100
AcDbAlignedDimension
 13
230.9108194964
 23
79.2932827736
 33
0.0
 14
230.9108194964
 24
139.2932827736
 34
0.0
 50
90.0
100
AcDbRotatedDimension
  0
DIMENSION
  5
1D7
330
1F
100
AcDbEntity
  8
VERMASSUNG
100
AcDbDimension
  2
*D5
 10
250.1463705309
 20
144.2932827736
 30
0.0
 11
250.1463705309
 21
109.2932827736
 31
0.0
 70
   160
  1
%%c<>
 71
     2
 42
-1.0
  3
SLDDIMSTYLE3
100
AcDbAlignedDimension
 13
154.4108194964
 23
74.2932827736
 33
0.0
 14
154.4108194964
 24
144.2932827736
 34
0.0
 50
90.0
100
AcDbRotatedDimension
  0
DIMENSION
  5
1E2
330
1F
100
AcDbEntity
  8
VERMASSUNG
100
AcDbDimension
  2
*D6
 10
230.9108194964
 20
171.1881906826
 30
0.0
 11
168.4108194964
 21
171.1881906826
 31
0.0
 70
   160
 71
     2
 42
-1.0
  3
SLDDIMSTYLE0
100
AcDbAlignedDimension
 13
105.9108194964
 23
109.2932827736
 33
0.0
 14
230.9108194964
 24
136.9823065444
 34
0.0
 50
0.0
100
AcDbRotatedDimension
  0
DIMENSION
  5
1EC
330
1F
100
AcDbEntity
  8
VERMASSUNG
100
AcDbDimension
  2
*D7
 10
230.9108194964
 20
165.1881906826
 30
0.0
 11
182.8858194964
 21
165.1881906826
 31
0.0
 70
   160
 71
     2
 42
-1.0
  3
SLDDIMSTYLE0
100
AcDbAlignedDimension
 13
134.8608194964
 23
157.2620225944
 33
0.0
 14
230.9108194964
 24
136.9823065444
 34
0.0
100
AcDbRotatedDimension
  0
DIMENSION
  5
1F6
330
1F
100
AcDbEntity
  8
VERMASSUNG
100
AcDbDimension
  2
*D8
 10
230.9108194964
 20
177.1881906826
 30
0.0
 11
143.4608194964
 21
177.1881906826
 31
0.0
 70
   160
 71
     2
 42
-1.0
  3
SLDDIMSTYLE0
100
AcDbAlignedDimension
 13
56.0108194964
 23
139.7959525161
 33
0.0
 14
230.9108194964
 24
136.9823065444
 34
0.0
100
AcDbRotatedDimension
  0
LINE
  5
200
330
1F
100
AcDbEntity
  8
VERMASSUNG
  6
CENTERX2
370
     0
100
AcDbLine
 10
52.887432286
 20
109.2932827736
 30
0.0
 11
232.9108194964
 21
109.2932827736
 31
0.0
  0
OLE2FRAME
  5
201
330
1F
100
AcDbEntity
  8
0
100
AcDbOle2Frame
 70
     2
  3
Bitmap Image
 10
13.8511154363
 20
38.264191557
 30
0.0
 11
51.6290888628
 21
31.9806341108
 31
0.0
 71
     2
 72
     0
 73
     1
 90
    12928
310
80552BED0767C5B32B40DDAF6807D121434000000000000000006FFBDDFB85D0
310
4940DDAF6807D121434000000000000000006FFBDDFB85D04940416F4BD60AFB
310
3F4000000000000000002BED0767C5B32B40416F4BD60AFB3F40000000000000
310
0000000000000100000000010000010000000100000000000100000000320000
310
D0CF11E0A1B11AE1000000000000000000000000000000003E000300FEFF0900
310
0600000000000000000000000100000001000000000000000010000002000000
310
01000000FEFFFFFF0000000000000000FFFFFFFFFFFFFFFFFFFFFFFFFFFFFFFF
310
FFFFFFFFFFFFFFFFFFFFFFFFFFFFFFFFFFFFFFFFFFFFFFFFFFFFFFFFFFFFFFFF
310
FFFFFFFFFFFFFFFFFFFFFFFFFFFFFFFFFFFFFFFFFFFFFFFFFFFFFFFFFFFFFFFF
310
FFFFFFFFFFFFFFFFFFFFFFFFFFFFFFFFFFFFFFFFFFFFFFFFFFFFFFFFFFFFFFFF
310
FFFFFFFFFFFFFFFFFFFFFFFFFFFFFFFFFFFFFFFFFFFFFFFFFFFFFFFFFFFFFFFF
310
FFFFFFFFFFFFFFFFFFFFFFFFFFFFFFFFFFFFFFFFFFFFFFFFFFFFFFFFFFFFFFFF
310
FFFFFFFFFFFFFFFFFFFFFFFFFFFFFFFFFFFFFFFFFFFFFFFFFFFFFFFFFFFFFFFF
310
FFFFFFFFFFFFFFFFFFFFFFFFFFFFFFFFFFFFFFFFFFFFFFFFFFFFFFFFFFFFFFFF
310
FFFFFFFFFFFFFFFFFFFFFFFFFFFFFFFFFFFFFFFFFFFFFFFFFFFFFFFFFFFFFFFF
310
FFFFFFFFFFFFFFFFFFFFFFFFFFFFFFFFFFFFFFFFFFFFFFFFFFFFFFFFFFFFFFFF
310
FFFFFFFFFFFFFFFFFFFFFFFFFFFFFFFFFFFFFFFFFFFFFFFFFFFFFFFFFFFFFFFF
310
FFFFFFFFFFFFFFFFFFFFFFFFFFFFFFFFFFFFFFFFFFFFFFFFFFFFFFFFFFFFFFFF
310
FFFFFFFFFFFFFFFFFFFFFFFFFFFFFFFFFFFFFFFFFFFFFFFFFFFFFFFFFFFFFFFF
310
FFFFFFFFFFFFFFFFFFFFFFFFFFFFFFFFFFFFFFFFFFFFFFFFFFFFFFFFFFFFFFFF
310
FDFFFFFFFEFFFFFFFEFFFFFFFEFFFFFF05000000060000000700000008000000
310
090000000A0000000B0000000C0000000D0000000E0000000F00000010000000
310
11000000120000001300000014000000150000001600000017000000FEFFFFFF
310
FFFFFFFFFFFFFFFFFFFFFFFFFFFFFFFFFFFFFFFFFFFFFFFFFFFFFFFFFFFFFFFF
310
FFFFFFFFFFFFFFFFFFFFFFFFFFFFFFFFFFFFFFFFFFFFFFFFFFFFFFFFFFFFFFFF
310
FFFFFFFFFFFFFFFFFFFFFFFFFFFFFFFFFFFFFFFFFFFFFFFFFFFFFFFFFFFFFFFF
310
FFFFFFFFFFFFFFFFFFFFFFFFFFFFFFFFFFFFFFFFFFFFFFFFFFFFFFFFFFFFFFFF
310
FFFFFFFFFFFFFFFFFFFFFFFFFFFFFFFFFFFFFFFFFFFFFFFFFFFFFFFFFFFFFFFF
310
FFFFFFFFFFFFFFFFFFFFFFFFFFFFFFFFFFFFFFFFFFFFFFFFFFFFFFFFFFFFFFFF
310
FFFFFFFFFFFFFFFFFFFFFFFFFFFFFFFFFFFFFFFFFFFFFFFFFFFFFFFFFFFFFFFF
310
FFFFFFFFFFFFFFFFFFFFFFFFFFFFFFFFFFFFFFFFFFFFFFFFFFFFFFFFFFFFFFFF
310
FFFFFFFFFFFFFFFFFFFFFFFFFFFFFFFFFFFFFFFFFFFFFFFFFFFFFFFFFFFFFFFF
310
FFFFFFFFFFFFFFFFFFFFFFFFFFFFFFFFFFFFFFFFFFFFFFFFFFFFFFFFFFFFFFFF
310
FFFFFFFFFFFFFFFFFFFFFFFFFFFFFFFFFFFFFFFFFFFFFFFFFFFFFFFFFFFFFFFF
310
FFFFFFFFFFFFFFFFFFFFFFFFFFFFFFFFFFFFFFFFFFFFFFFFFFFFFFFFFFFFFFFF
310
FFFFFFFFFFFFFFFFFFFFFFFFFFFFFFFFFFFFFFFFFFFFFFFFFFFFFFFFFFFFFFFF
310
52006F006F007400200045006E00740072007900000000000000000000000000
310
0000000000000000000000000000000000000000000000000000000000000000
310
16000500FFFFFFFFFFFFFFFF020000000A00030000000000C000000000000046
310
00000000000000000000000020307091A008CC0103000000C000000000000000
310
01004F006C006500000000000000000000000000000000000000000000000000
310
0000000000000000000000000000000000000000000000000000000000000000
310
0A000200FFFFFFFFFFFFFFFFFFFFFFFF00000000000000000000000000000000
310
0000000000000000000000000000000000000000000000001400000000000000
310
010043006F006D0070004F0062006A0000000000000000000000000000000000
310
0000000000000000000000000000000000000000000000000000000000000000
310
120002010100000003000000FFFFFFFF00000000000000000000000000000000
310
0000000000000000000000000000000000000000010000004D00000000000000
310
01004F006C006500310030004E00610074006900760065000000000000000000
310
0000000000000000000000000000000000000000000000000000000000000000
310
1A000200FFFFFFFFFFFFFFFFFFFFFFFF00000000000000000000000000000000
310
0000000000000000000000000000000000000000040000002426000000000000
310
FEFFFFFF02000000FEFFFFFFFFFFFFFFFFFFFFFFFFFFFFFFFFFFFFFFFFFFFFFF
310
FFFFFFFFFFFFFFFFFFFFFFFFFFFFFFFFFFFFFFFFFFFFFFFFFFFFFFFFFFFFFFFF
310
FFFFFFFFFFFFFFFFFFFFFFFFFFFFFFFFFFFFFFFFFFFFFFFFFFFFFFFFFFFFFFFF
310
FFFFFFFFFFFFFFFFFFFFFFFFFFFFFFFFFFFFFFFFFFFFFFFFFFFFFFFFFFFFFFFF
310
FFFFFFFFFFFFFFFFFFFFFFFFFFFFFFFFFFFFFFFFFFFFFFFFFFFFFFFFFFFFFFFF
310
FFFFFFFFFFFFFFFFFFFFFFFFFFFFFFFFFFFFFFFFFFFFFFFFFFFFFFFFFFFFFFFF
310
FFFFFFFFFFFFFFFFFFFFFFFFFFFFFFFFFFFFFFFFFFFFFFFFFFFFFFFFFFFFFFFF
310
FFFFFFFFFFFFFFFFFFFFFFFFFFFFFFFFFFFFFFFFFFFFFFFFFFFFFFFFFFFFFFFF
310
FFFFFFFFFFFFFFFFFFFFFFFFFFFFFFFFFFFFFFFFFFFFFFFFFFFFFFFFFFFFFFFF
310
FFFFFFFFFFFFFFFFFFFFFFFFFFFFFFFFFFFFFFFFFFFFFFFFFFFFFFFFFFFFFFFF
310
FFFFFFFFFFFFFFFFFFFFFFFFFFFFFFFFFFFFFFFFFFFFFFFFFFFFFFFFFFFFFFFF
310
FFFFFFFFFFFFFFFFFFFFFFFFFFFFFFFFFFFFFFFFFFFFFFFFFFFFFFFFFFFFFFFF
310
FFFFFFFFFFFFFFFFFFFFFFFFFFFFFFFFFFFFFFFFFFFFFFFFFFFFFFFFFFFFFFFF
310
FFFFFFFFFFFFFFFFFFFFFFFFFFFFFFFFFFFFFFFFFFFFFFFFFFFFFFFFFFFFFFFF
310
FFFFFFFFFFFFFFFFFFFFFFFFFFFFFFFFFFFFFFFFFFFFFFFFFFFFFFFFFFFFFFFF
310
FFFFFFFFFFFFFFFFFFFFFFFFFFFFFFFFFFFFFFFFFFFFFFFFFFFFFFFFFFFFFFFF
310
01000002000000000000000000000000000000006C0065007300000000000000
310
0000000000000000000000000000000000000000000000000000000000000000
310
0100FEFF030A0000FFFFFFFF0A00030000000000C00000000000004607000000
310
5042727573680007000000504272757368000700000050427275736800F439B2
310
7100000000000000000000000000570058007000720065007300730000000000
310
0000000000000000000000000000000000000000000000000000000000000000
310
1E000201FFFFFFFFFFFFFFFFFFFFFFFF00000000000000000000000000000000
310
000000000000000000000000000000000000000079000000C502000000000000
310
430069006D0053007700420072006F0077007300650072005000610072007400
310
0000000000000000000000000000000000000000000000000000000000000000
310
220002001100000026000000FFFFFFFF00000000000000000000000000000000
310
0000000000000000000000000000000000000000FEFFFFFF0000000000000000
310
500077003200530074006F007200610067006500530074007200650061006D00
310
2E0031002E003300350000000000000000000000000000000000000000000000
310
2C000200FFFFFFFFFFFFFFFFFFFFFFFF00000000000000000000000000000000
310
00000000000000000000000000000000000000005F0000006406000000000000
310
20260000424D0E260000000000003E00000028000000B40200006E0000000100
310
01000000000000000000130B0000130B00000200000002000000000000FFFFFF
310
FFFFFFFFFFFFFFFFFFFFFFFFFFFFFFFFFFFFFFFFFFFFFFFFFFFFFFFFFFFFFFFF
310
FFFFFFFFFFFFFFFFFFFFFFFFFFFFFFFFFFFFFFFFFFFFFFFFFFFFFFFFFFFFFFFF
310
FFFFFFFFFFFFFFFFFFFFFFFFFFFFFFFFFFFFFFFFFFFFFFFFF000FFFFFFFFFFFF
310
FFFFFFFFFFFFFFFFFFFFFFFFFFFFFFFFFFFFFFFFFFFFFFFFFFFFFFFFFFFFFFFF
310
FFFFFFFFFFFFFFFFFFFFFFFFFFFFFFFFFFFFFFFFFFFFFFFFFFFFFFFFFFFFFFFF
310
FFFFFFFFFFFFFFFFFFFFFFFFFFFFFFFFF000FFFFFFFFFFFFFFFFFFFFFFFFFFFF
310
FFFFFFFFFFFFFFFFFFFFFFFFFFFFFFFFFFFFFFFFFFFFFFFFFFFFFFFFFFFFFFFF
310
FFFFFFFFFFFFFFFFFFFFFFFFFFFFFFFFFFFFFFFFFFFFFFFFFFFFFFFFFFFFFFFF
310
FFFFFFFFFFFFFFFFF000FFFFFFFFFFFFFFFFFFFFFFFFFFFFFFFFFFFFFFFFFFFF
310
FFFFFFFFFFFFFFFFFFFFFFFFFFFFFFFFFFFFFFFFFFFFFFFFFFFFFFFFFFFFFFFF
310
FFFFFFFFFFFFFFFFFFFFFFFFFFFFFFFFFFFFFFFFFFFFFFFFFFFFFFFFFFFFFFFF
310
F000FFFFFFFFFFFFFFFFFFFFFFFFFFFFFFFFFFFFFFFFFFFFFFFFFFFFFFFFFFFF
310
FFFFFFFFFFFFFFFFFFFFFFFFFFFFFFFFFFFFFFFFFFFFFFFFFFFFFFFFFFFFFFFF
310
FFFFFFFFFFFFFFFFFFFFFFFFFFFFFFFFFFFFFFFFFFFFFFFFF000FFFFFFFFFFFF
310
FFFFFFFFFFFFFFFFFFFFFFFFFFFFFFFFFFFFFFFFFFFFFFFFFFFFFFFFFFFFFFFF
310
FFFFFFFFFFFFFFFFFFFFFFFFFFFFFFFFFFFFFFFFFFFFFFFFFFFFFFFFFFFFFFFF
310
FFFFFFFFFFFFFFFFFFFFFFFFFFFFFFFFF000FFFFFFFFFFFFFFFFFFFFFFFFFFFF
310
FFFFFFFFFFFFFFFFFFFFFFFFFFFFFFFFFFFFFFFFFFFFFFFFFFFFFFFFFFFFFFFF
310
FFFFFFFFFFFFFFFFFFFFFFFFFFFFFFFFFFFFFFFFFFFFFFFFFFFFFFFFFFFFFFFF
310
FFFFFFFFFFFFFFFFF000FFFFFFFFFFFFFFFFFFFFFFFFFFFFFFFFFFFFFFFFFFFF
310
FFFFFFFFFFFFFFFFFFFFFFFFFFFFFFFFFFFFFFFFFFFFFFFFFFFFFFFFFFFFFFFF
310
FFFFFFFFFFFFFFFFFFFFFFFFFFFFFFFFFFFFFFFFFFFFFFFFFFFFFFFFFFFFFFFF
310
F000FFFFFFFFFFFFFFFFFFFFFFFFFFFFFFFFFFFFFFFFFFFFFFFFFFFFFFFFFFFF
310
FFFFFFFFFFFFFFFFFFFFFFFFFFFFFFFFFFFFFFFFFFFFFFFFFFFFFFFFFFFFFFFF
310
FFFFFFFFFFFFFFFFFFFFFFFFFFFFFFFFFFFFFFFFFFFFFFFFF000FFFFFFFFFFFF
310
FFFFFFFFFFFFFFFFFFFFFFFFFFFFFFFFFFFFFFFFFFFFFFFFFFFFFFFFFFFFFFFF
310
FFFFFFFFFFFFFFFFFFFFFFFFFFFFFFFFFFFFFFFFFFFFFFFFFFFFFFFFFFFFFFFF
310
FFFFFFFFFFFFFFFFFFFFFFFFFFFFFFFFF000FFFFFFFFFFFFFFFFFFFFFFFFFFFF
310
FFFFFFFFFFFFFFFFFFFFFFFFFFFFFFFFFFFFFFFFFFFFFFFFFFFFFFFFFFFFFFFF
310
FFFFFFFFFFFFFFFFFFFFFFFFFFFFFFFFFFFFFFFFFFFFFFFFFFFFFFFFFFFFFFFF
310
FFFFFFFFFFFFFFFFF000FFFFFFFFFFFFFFFFFFFFFFFFFFFFFFFFFFFFFFFFFFFF
310
FFFFFFFFFFFFFFFFFFFFFFFFFFFFFFFFFFFFFFFFFFFFFFFFFFFFFFFFFFFFFFFF
310
FFFFFFFFFFFFFFFFFFFFFFFFFFFFFFFFFFFFFFFFFFFFFFFFFFFFFFFFFFFFFFFF
310
F000FFFFFFFFFFFFFFFFFFFFFFFFFFFFFFFFFFFFFFFFFFFFFFFFFFFFFFFFFFFF
310
FFFFFFFFFFFFFFFFFFFFFFFFFFFFFFFFFFFFFFFFFFFFFFFFFFFFFFFFFFFFFFFF
310
FFFFFFFFFFFFFFFFFFFFFFFFFFFFFFFFFFFFFFFFFFFFFFFFF000FFFFFFFFFFFF
310
FFFFFFFFFFFFFFFFFFFFFFFFFFFFFFFFFFFFFFFFFFFFFFFFFFFFFFFFFFFFFFFF
310
FFFFFFFFFFFFFFFFFFFFFFFFFFFFFFFFFFFFFFFFFFFFFFFFFFFFFFFFFFFFFFFF
310
FFFFFFFFFFFFFFFFFFFFFFFFFFFFFFFFF000FFFFFFFFFFFFFFFFFFFFFFFFFFFF
310
FFFFFFFFFFFFFFFFFFFFFFFFFFFFFFFFFFFFFFFFFFFFFFFFFFFFFFFFFFFFFFFF
310
FFFFFFFFFFFFFFFFFFFFFFFFFFFFFFFFFFFFFFFFFFFFFFFFFFFFFFFFFFFFFFFF
310
FFFFFFFFFFFFFFFFF000FFFFFFFFFFFFFFFFFFFFFFFFFFFFFFFFFFFFFFFFFFFF
310
FFFFFFFFFFFFFFFFFFFFFFFFFFFFFFFFFFFFFFFFFFFFFFFFFFFFFFFFFFFFFFFF
310
FFFFFFFFFFFFFFFFFFFFFFFFFFFFFFFFFFFFFFFFFFFFFFFFFFFFFFFFFFFFFFFF
310
F000FFFFFFFFFFFFFFFFFFFFFFFFFFFFFFFFFFFFFFFFFFFFFFFFFFFFFFFFFFFF
310
FFFFFFFFFFFFFFFFFFFFFFFFFFFFFFFFFFFFFFFFFFFFFFFFFFFFFFFFFFFFFFFF
310
FFFFFFFFFFFFFFFFFFFFFFFFFFFFFFFFFFFFFFFFFFFFFFFFF000FFFFFFFFFFFF
310
FFFFFFFFFFFFFFFFFFFFFFFFFFFFFFFFFFFFFFFFFFFFFFFFFFFFFFFFFFFFFFFF
310
FFFFFFFFFFFFFFFFFFFFFFFFFFFFFFFFFFFFFFFFFFFFFFFFFFFFFFFFFFFFFFFF
310
FFFFFFFFFFFFFFFFFFFFFFFFFFFFFFFFF000FFFFFFFFFFFFFFFFFFFFFFFFFFFF
310
FFFFFFFFFFFFFFFFFFFFFFFFFFFFFFFFFFFFFFFFFFFFFFFFFFFFFFFFFFFFFFFF
310
FFFFFFFFFFFFFFFFFFFFFFFFFFFFFFFFFFFFFFFFFFFFFFFFFFFFFFFFFFFFFFFF
310
FFFFFFFFFFFFFFFFF000FFFFF80003FFFFFFFFFFFFFFFFFFFFFFFFFFFFFFFFFF
310
FFFFF00007FFFFFFFFFF00007FFFFFF800000000000000007FFFFFFFFFFFFFFF
310
FFFFFFFC001FFFFFFFFFFFFFFC001FFFFFFFFFFFFFFFFFFFFFFFFFFE0007FFFF
310
F000FFFF8000007FFFFFFFF8000FFFFFC0007FFFFF80007FFFFF0000007FFFFF
310
FFF8000007FFFFF800000000000000007FFFFFF0001FFFFFFFFFFFC00001FFFF
310
FFFFFFFFC00001FFFFFFFF000000000003FFFFE000007FFFF000FFFE0000000F
310
FFFFFFF0000FFFFF80007FFFFF80007FFFFC0000001FFFFFFFC0000001FFFFF8
310
00000000000000007FFFFFF0001FFFFFFFFFFE0000003FFFFFFFFFFE0000003F
310
FFFFFF000000000003FFFF0000000FFFF000FFF800000003FFFFFFF00007FFFF
310
80007FFFFF80007FFFF000000007FFFFFF000000003FFFF80000000000000000
310
7FFFFFF0001FFFFFFFFFF80000000FFFFFFFFFF80000000FFFFFFF0000000000
310
03FFFC00000003FFF000FFE000000000FFFFFFF00007FFFF80003FFFFF80007F
310
FFC000000001FFFFFC000000001FFFF800000000000000007FFFFFF0001FFFFF
310
FFFFE000000003FFFFFFFFE000000003FFFFFF000000000003FFF000000000FF
310
F000FF80000000007FFFFFF00007FFFF80003FFFFF80007FFF8000000000FFFF
310
F80000000007FFF800000000000000007FFFFFF0001FFFFFFFFFC000000001FF
310
FFFFFFC000000001FFFFFF000000000003FFC0000000007FF000FF0000000000
310
3FFFFFE00007FFFF00003FFFFF80007FFE00000000003FFFF00000000003FFF8
310
00000000000000007FFFFFF0001FFFFFFFFF8000000000FFFFFFFF8000000000
310
FFFFFF000000000003FF80000000003FF000FE00000000001FFFFFE00003FFFF
310
00003FFFFF80007FFC00000000001FFFE00000000001FFF8000001FFFE000000
310
7FFFFFF0001FFFFFFFFE00000000003FFFFFFE00000000003FFFFF0000000000
310
03FF00000000001FF000FC00000000000FFFFFE00003FFFF00001FFFFF80007F
310
F800000000001FFFC00000000000FFF8000001FFFE0000007FFFFFF0001FFFFF
310
FFFC00000000001FFFFFFC00000000001FFFFF000000000003FE00000000000F
310
F000F8000000000007FFFFE00003FFFF00001FFFFF80007FF800000000000FFF
310
800000000000FFF8000001FFFE0000007FFFFFF0001FFFFFFFF800000000000F
310
FFFFF800000000000FFFFF000000000003FC000000000007F000F80000000000
310
03FFFFC00003FFFE00001FFFFF80007FF0000000000007FF0000000000007FF8
310
000001FFFE0000007FFFFFF0001FFFFFFFF0000000000007FFFFF00000000000
310
07FFFF000000000003F8000000000003F000F0000000000003FFFFC00001FFFE
310
00001FFFFF80007FE0000000000007FE0000000000003FF8000001FFFE000000
310
7FFFFFF0001FFFFFFFF0000000000007FFFFF0000000000007FFFF0000000000
310
03F800001F800003F000E00001FFF00001FFFFC00001FFFE00000FFFFF80007F
310
E00001FFE00003FE00001FFF00003FF8000001FFFE0000007FFFFFF0001FFFFF
310
FFE000003E000003FFFFE000003E000003FFFF000000000003F00001FFF80001
310
F000E00007FFFC0001FFFFC00001FFFE00000FFFFF80007FC0000FFFFC0003FC
310
0000FFFFC0001FF8000001FFFE0000007FFFFFF0001FFFFFFFC00003FFE00001
310
FFFFC00003FFE00001FFFF0001FFFFFFFFF00007FFFE0001F000E0000FFFFF00
310
00FFFF800001FFFC00000FFFFF80007FC0001FFFFE0001FC0001FFFFE0001FF8
310
000001FFFE0000007FFFFFF0001FFFFFFF80000FFFF80000FFFF80000FFFF800
310
00FFFF0003FFFFFFFFE0000FFFFF8000F000C0003FFFFF8000FFFF800000FFFC
310
000007FFFF80007F80003FFFFF0001FC0003FFFFF0001FF8000001FFFE000000
310
7FFFFFF0001FFFFFFF80003FFFFE0000FFFF80003FFFFE0000FFFF0003FFFFFF
310
FFE0003FFFFF8000F000C0003FFFFF8000FFFF800000FFFC000007FFFF80007F
310
80007FFFFF8001F80007FFFFF8000FF8000001FFFE0000007FFFFFF0001FFFFF
310
FF00007FFFFF00007FFF00007FFFFF00007FFF0003FFFFFFFFE0003FFFFFC000
310
F000C0007FFFFFC000FFFF000000FFFC000007FFFF80007F8000FFFFFF8000F8
310
000FFFFFF8000FF8000001FFFE0000007FFFFFF0001FFFFFFF0000FFFFFF8000
310
7FFF0000FFFFFF80007FFF0003FFFFFFFFC0007FFFFFC00070008000FFFFFFC0
310
00FFFF000000FFF8000007FFFF80007F8000FFFFFF8000F8000FFFFFF8000FF8
310
000001FFFE0000007FFFFFF0001FFFFFFE0001FFFFFFC0003FFE0001FFFFFFC0
310
003FFF0003FFFFFFFFC0007FFFFFE00070008000FFFFFFC0007FFF0000007FF8
310
000003FFFF80007F0001FFFFFF8000F8000FFFFFF8000FF8000001FFFE000000
310
7FFFFFF0001FFFFFFE0001FFFFFFC0003FFE0001FFFFFFC0003FFF0003FFFFFF
310
FFC000FFFFFFE00070008000FFFFFFC0007FFF0000007FF8000003FFFF80007F
310
0001FFFFFF8000F8001FFFFFF8000FF8000001FFFE0000007FFFFFF0001FFFFF
310
FE0003FFFFFFE0003FFE0003FFFFFFE0003FFF0003FFFFFFFFC000FFFFFFE000
310
70008000FFFFFFC0007FFE0000007FF8000003FFFF80007F0001FFFFFF8000F0
310
001FFFFFF8000FF8000001FFFE0000007FFFFFF0001FFFFFFC0003FFFFFFE000
310
1FFC0003FFFFFFE0001FFF0003FFFFFFFFC000FFFFFFC00070008000FFFFFF80
310
007FFE0000007FF0000003FFFF80007F0001FFFFFF0000F0001FFFFFF8000FF8
310
000001FFFE0000007FFFFFF0001FFFFFFC0007FFFFFFF0001FFC0007FFFFFFF0
310
001FFF0003FFFFFFFFC000FFFFFFC00070008001FFFFFF0000FFFE0000003FF0
310
000001FFFF80007F0001FFFFFF0000F8001FFFFFF0000FF8000001FFFE000000
310
7FFFFFF0001FFFFFFC0007FFFFFFF0001FFC0007FFFFFFF0001FFF0003FFFFFF
310
FFC001FFFFFF80007000FFFFFFFFFE0000FFFE0008003FF0008001FFFF80007F
310
FFFFFFFFFC0000FFFFFFFFFFE0000FF8000001FFFE0000007FFFFFF0001FFFFF
310
F8000FFFFFFFF8000FF8000FFFFFFFF8000FFF0003FFFFFFFFFFFFFFFFFF0000
310
7000FFFFFFFFFC0000FFFC0008003FF0008001FFFF80007FFFFFFFFFF80001FF
310
FFFFFFFF80000FF8000001FFFE0000007FFFFFF0001FFFFFF8000FFFFFFFF800
310
0FF8000FFFFFFFF8000FFF0003FFFFFFFFFFFFFFFFFE0000F000FFFFFFFFE000
310
00FFFC000C003FE000C001FFFF80007FFFFFFFFFC00001FFFFFFFFFE00001FF8
310
000001FFFE0000007FFFFFF0001FFFFFF8000FFFFFFFF8000FF8000FFFFFFFF8
310
000FFF0003FFFFFFFFFFFFFFFFF00000F000FFFFFFFE000001FFFC000C001FE0
310
00C000FFFF80007FFFFFFFFE000001FFFFFFFFE000001FF80FFFFFFFFFFFFFC0
310
7FFFFFF0001FFFFFF8000FFFFFFFF8000FF8000FFFFFFFF8000FFF0003FFFFFF
310
FFFFFFFFFF800000F000FFFFFFC0000001FFFC001C001FE001C000FFFF80007F
310
FFFFFF80000003FFFFFFF80000001FF80FFFFFFFFFFFFFC07FFFFFF0001FFFFF
310
F8001FFFFFFFFC000FF8001FFFFFFFFC000FFF0003FFFFFFFFFFFFFFF0000001
310
F000FFFFF800000001FFF8001C001FE001C000FFFF80007FFFFFF800000003FF
310
FFFF800000003FF80FFFFFFFFFFFFFC07FFFFFF0001FFFFFF8001FFFFFFFFC00
310
0FF8001FFFFFFFFC000FFF0003FFFFFFFFFFFFFE00000001F000FFFFC0000000
310
03FFF8001E001FC001E000FFFF80007FFFFF8000000007FFFFFC000000003FF8
310
0FFFFFFFFFFFFFC07FFFFFF0001FFFFFF8001FFFFFFFFC000FF8001FFFFFFFFC
310
000FFF0003FFFFFFFFFFFFE000000003F000FFFE0000000007FFF8001E000FC0
310
01E0007FFF80007FFFFE0000000007FFFFE0000000007FF80FFFFFFFFFFFFFC0
310
7FFFFFF0001FFFFFF0001FFFFFFFFC0007F0001FFFFFFFFC0007FF0003FFFFFF
310
FFFFFF0000000003F000FFF80000000007FFF8001E000FC003E0007FFF80007F
310
FFF0000000000FFFFF8000000000FFF80FFFFFFFFFFFFFC07FFFFFF0001FFFFF
310
F0001FFFFFFFFC0007F0001FFFFFFFFC0007FF0003FFFFFFFFFFFC0000000007
310
F000FFE0000000000FFFF0003E000FC003E0007FFF80007FFFC0000000001FFF
310
FE0000000001FFF80FFFFFFFFFFFFFC07FFFFFF0001FFFFFF0001FFFFFFFFC00
310
07F0001FFFFFFFFC0007FF0003FFFFFFFFFFF0000000000FF000FFC000000000
310
1FFFF0003F000F8003F0003FFF80007FFF80000000003FFFF80000000003FFF8
310
0FFFFFFFFFFFFFC07FFFFFF0001FFFFFF0001FFFFFFFFC0007F0001FFFFFFFFC
310
0007FF0003FFFFFFFFFFE0000000001FF000FF00000000007FFFF0003F000780
310
03F0003FFF80007FFF00000000007FFFF00000000007FFF80FFFFFFFFFFFFFC0
310
7FFFFFF0001FFFFFF0001FFFFFFFFC0007F0001FFFFFFFFC0007FF0003FFFFFF
310
FFFF80000000007FF000FE0000000000FFFFE0003F00078007F0003FFF80007F
310
FE0000000001FFFFE0000000001FFFF80FFFFFFFFFFFFFC07FFFFFF0001FFFFF
310
F0001FFFFFFFFC0007F0001FFFFFFFFC0007FF0003FFFFFFFFFF0000000000FF
310
F000FC0000000003FFFFE0007F00078007F0003FFF80007FFC0000000007FFFF
310
C0000000007FFFF80FFFFFFFFFFFFFC07FFFFFF0001FFFFFF8001FFFFFFFFC00
310
0FF8001FFFFFFFFC000FFF0003FFFFFFFFFE0000000003FFF000FC000000000F
310
FFFFE0007F80070007F8001FFF80007FF8000000001FFFFF8000000001FFFFF8
310
0FFFFFFFFFFFFFC07FFFFFF0001FFFFFF8001FFFFFFFFC000FF8001FFFFFFFFC
310
000FFF0003FFFFFFFFFC000000000FFFF000F8000000007FFFFFE0007F800700
310
07F8001FFF80007FF000000000FFFFFF800000000FFFFFF80FFFFFFFFFFFFFC0
310
7FFFFFF0001FFFFFF8000FFFFFFFF8000FF8000FFFFFFFF8000FFF0003FFFFFF
310
FFFC000000007FFFF000F800000007FFFFFFC0007F8003000FF8001FFF80007F
310
F000000007FFFFFF000000007FFFFFF80FFFFFFFFFFFFFC07FFFFFF0001FFFFF
310
F8000FFFFFFFF8000FF8000FFFFFFFF8000FFF0003FFFFFFFFF80000000FFFFF
310
F000F0000000FFFFFFFFC000FF8003000FF8001FFF80007FE0000000FFFFFFFF
310
0000000FFFFFFFF8000001FFFE0000007FFFFFF0001FFFFFF8000FFFFFFFF800
310
0FF8000FFFFFFFF8000FFF0003FFFFFFFFF8000000FFFFFFF000F000000FFFFF
310
FFFFC000FFC002000FF8000FFF80007FE000001FFFFFFFFE000001FFFFFFFFF8
310
000001FFFE0000007FFFFFF0001FFFFFF8000FFFFFFFF8000FF8000FFFFFFFF8
310
000FFF0003FFFFFFFFF000001FFFFFFFF000E00000FFFFFFFFFFC000FFC00200
310
0FFC000FFF80007FE00001FFFFFFFFFE00001FFFFFFFFFF8000001FFFE000000
310
7FFFFFF0001FFFFFFC000FFFFFFFF8001FFC000FFFFFFFF8001FFF0003FFFFFF
310
FFF00001FFFFFFFFF000E00007FFFFFFFFFF8000FFC000001FFC000FFF80007F
310
C0000FFFFFFFFFFE0000FFFFFFFFFFF8000001FFFE0000007FFFFFF0001FFFFF
310
FC0007FFFFFFF0001FFC0007FFFFFFF0001FFF0003FFFFFFFFF00007FFFFFFFF
310
F000E0001FFFFFFFFFFF8000FFC000001FFC000FFF80007FC0003FFFFFFFFFFE
310
0001FFFFFFFFFFF8000001FFFE0000007FFFFFF0001FFFFFFC0007FFFFFFF000
310
1FFC0007FFFFFFF0001FFF0003FFFFFFFFF0001FFFFFFFFFF000E0003FFFFF00
310
03FF8001FFE000001FFC0007FF80007FC0007FFFFF0007FC0003FFFFF0003FF8
310
000001FFFE0000007FFFFFF0001FFFFFFC0003FFFFFFE0001FFC0003FFFFFFE0
310
001FFF0003FFFFFFFFF0003FFFFFFFFFF000E0003FFFFF0001FF8001FFE00000
310
1FFE0007FF80007FC0007FFFFE0003FC0007FFFFE0003FF8000001FFFE000000
310
7FFFFFF0001FFFFFFE0003FFFFFFE0003FFE0003FFFFFFE0003FFF0003FFFFFF
310
FFF0003FFFFF8001F000E0003FFFFF0001FF0001FFE000001FFE0007FF80007F
310
C0007FFFFE0003FC0007FFFFE0003FF8000001FFFE0000007FFFFFF0001FFFFF
310
FE0001FFFFFFC0003FFE0001FFFFFFC0003FFF0003FFFFFFFFF0003FFFFF0001
310
F000E0003FFFFF0003FF0001FFE000003FFE0007FF80007FC0007FFFFE0003FC
310
0007FFFFE0003FF8000001FFFE0000007FFFFFF0001FFFFFFF0001FFFFFFC000
310
7FFF0001FFFFFFC0007FFF0003FFFFFFFFF0003FFFFF0001F000E0003FFFFE00
310
03FF0003FFF000003FFE0003FF80007FC0007FFFFC0003FE0007FFFFE0003FF8
310
000001FFFE0000007FFFFFF0001FFFFFFF0000FFFFFF80007FFF0000FFFFFF80
310
007FFF0003FFFFFFFFF0003FFFFF0001F000E0003FFFFE0003FF0003FFF00000
310
3FFF0003FF80007FC0007FFFFC0007FE0007FFFFC0003FF8000001FFFE000000
310
7FFFFFF0001FFFFFFF80007FFFFF0000FFFF80007FFFFF0000FFFF0003FFFFFF
310
FFF0003FFFFF0003F000E0003FFFFC0003FE0003FFF000003FFF0003FF80007F
310
E0003FFFF80007FE0003FFFFC0007FF8000001FFFE0000007FFFFFF0001FFFFF
310
FF80003FFFFE0000FFFF80003FFFFE0000FFFF0003FFFFFFFFF0001FFFFE0003
310
F000F0001FFFF80003FE0003FFF000007FFF0001FF80007FE0003FFFF00007FE
310
0001FFFF80007FF8000001FFFE0000007FFFFFF0001FFFFFFFC0000FFFF80001
310
FFFFC0000FFFF80001FFFF0003FFFFFFFFF0001FFFFC0003F000F0000FFFF000
310
07FE0007FFF800007FFF0001FF80007FE0001FFFE00007FF0000FFFE00007FF8
310
000001FFFE0000007FFFFFF0001FFFFFFFC00003FFE00001FFFFC00003FFE000
310
01FFFF0003FFFFFFFFF8000FFFF80003F000F00003FFC00007FC0007FFF80000
310
7FFF8001FF80007FF00007FF80000FFF00007FF80000FFF8000001FFFE000000
310
7F80000000000001FFE000003E000003FFFFE000003E000003FFFF0003FFFFFF
310
FFF80003FFE00007F000F800000000000FFC0007FFF800007FFF8001FF80007F
310
F000000000000FFF000000000000FFF8000001FFFE0000007F80000000000001
310
FFF0000000000007FFFFF0000000000007FFFF0003FFFFFFFFFC00007E000007
310
F000F800000000000FFC0007FFF80000FFFF8000FF80007FF800000000001FFF
310
800000000001FFF8000001FFFE0000007F80000000000001FFF800000000000F
310
FFFFF800000000000FFFFF0003FFFFFFFFFC00000000000FF000FC0000000000
310
1FFC0007FFFC0000FFFF8000FF80007FF800000000003FFFC00000000001FFF8
310
000001FFFE0000007F80000000000001FFF800000000000FFFFFF80000000000
310
0FFFFF0003FFFFFFFFFE00000000001FF000FE00000000003FF8000FFFFC0000
310
FFFF8000FF80007FFC00000000003FFFC00000000003FFF8000001FFFE000000
310
7F80000000000001FFFC00000000001FFFFFFC00000000001FFFFF0003FFFFFF
310
FFFF00000000001FF000FF00000000003FF8000FFFFC0000FFFFC000FF80007F
310
FE00000000007FFFE00000000007FFF8000001FFFE0000007F80000000000001
310
FFFE00000000003FFFFFFE00000000003FFFFF0003FFFFFFFFFF80000000003F
310
F000FF80000000007FF8000FFFFC0001FFFFC0007F80007FFF0000000000FFFF
310
F0000000000FFFF800000000000000007F80000000000001FFFF8000000000FF
310
FFFFFF8000000000FFFFFF0003FFFFFFFFFFC0000000007FF000FFC000000000
310
FFF8000FFFFE0001FFFFC0007F80007FFF8000000001FFFFF8000000001FFFF8
310
00000000000000007F80000000000001FFFFC000000001FFFFFFFFC000000001
310
FFFFFF0003FFFFFFFFFFE000000000FFF000FFE000000003FFF0001FFFFE0001
310
FFFFC0007F80007FFFC000000007FFFFFE000000003FFFF80000000000000000
310
7F80000000000001FFFFE000000003FFFFFFFFE000000003FFFFFF0003FFFFFF
310
FFFFF000000003FFF000FFF80000000FFFF0001FFFFE0001FFFFE0007F80007F
310
FFF00000000FFFFFFF00000000FFFFF800000000000000007F80000000000001
310
FFFFF80000000FFFFFFFFFF80000000FFFFFFF0003FFFFFFFFFFFC0000000FFF
310
F000FFFE0000003FFFF0001FFFFE0003FFFFE0003F80007FFFFC0000003FFFFF
310
FFC0000003FFFFF800000000000000007F80000000000001FFFFFE0000003FFF
310
FFFFFFFE0000003FFFFFFF0003FFFFFFFFFFFF0000003FFFF000FFFF800000FF
310
FFF0001FFFFF0003FFFFE0003F80007FFFFF000001FFFFFFFFF800001FFFFFF8
310
00000000000000007F80000000000001FFFFFFC00001FFFFFFFFFFFFC00001FF
310
FFFFFF0003FFFFFFFFFFFFC00000FFFFF000FFFFF8000FFFFFFFFFFFFFFFFFFF
310
FFFFFFFFFFFFFFFFFFFFF0001FFFFFFFFFFF0000FFFFFFF80000000000000000
310
7FFFFFFFFFFFFFFFFFFFFFFC001FFFFFFFFFFFFFFC001FFFFFFFFFFFFFFFFFFF
310
FFFFFFFC001FFFFFF000FFFFFFFFFFFFFFFFFFFFFFFFFFFFFFFFFFFFFFFFFFFF
310
FFFFFFFFFFFFFFFFFFFFFFFFFFFFFFFFFFFFFFFFFFFFFFFFFFFFFFFFFFFFFFFF
310
FFFFFFFFFFFFFFFFFFFFFFFFFFFFFFFFFFFFFFFFFFFFFFFFFFFFFFFFFFFFFFFF
310
F000FFFFFFFFFFFFFFFFFFFFFFFFFFFFFFFFFFFFFFFFFFFFFFFFFFFFFFFFFFFF
310
FFFFFFFFFFFFFFFFFFFFFFFFFFFFFFFFFFFFFFFFFFFFFFFFFFFFFFFFFFFFFFFF
310
FFFFFFFFFFFFFFFFFFFFFFFFFFFFFFFFFFFFFFFFFFFFFFFFF000FFFFFFFFFFFF
310
FFFFFFFFFFFFFFFFFFFFFFFFFFFFFFFFFFFFFFFFFFFFFFFFFFFFFFFFFFFFFFFF
310
FFFFFFFFFFFFFFFFFFFFFFFFFFFFFFFFFFFFFFFFFFFFFFFFFFFFFFFFFFFFFFFF
310
FFFFFFFFFFFFFFFFFFFFFFFFFFFFFFFFF000FFFFFFFFFFFFFFFFFFFFFFFFFFFF
310
FFFFFFFFFFFFFFFFFFFFFFFFFFFFFFFFFFFFFFFFFFFFFFFFFFFFFFFFFFFFFFFF
310
FFFFFFFFFFFFFFFFFFFFFFFFFFFFFFFFFFFFFFFFFFFFFFFFFFFFFFFFFFFFFFFF
310
FFFFFFFFFFFFFFFFF000FFFFFFFFFFFFFFFFFFFFFFFFFFFFFFFFFFFFFFFFFFFF
310
FFFFFFFFFFFFFFFFFFFFFFFFFFFFFFFFFFFFFFFFFFFFFFFFFFFFFFFFFFFFFFFF
310
FFFFFFFFFFFFFFFFFFFFFFFFFFFFFFFFFFFFFFFFFFFFFFFFFFFFFFFFFFFFFFFF
310
F000FFFFFFFFFFFFFFFFFFFFFFFFFFFFFFFFFFFFFFFFFFFFFFFFFFFFFFFFFFFF
310
FFFFFFFFFFFFFFFFFFFFFFFFFFFFFFFFFFFFFFFFFFFFFFFFFFFFFFFFFFFFFFFF
310
FFFFFFFFFFFFFFFFFFFFFFFFFFFFFFFFFFFFFFFFFFFFFFFFF000FFFFFFFFFFFF
310
FFFFFFFFFFFFFFFFFFFFFFFFFFFFFFFFFFFFFFFFFFFFFFFFFFFFFFFFFFFFFFFF
310
FFFFFFFFFFFFFFFFFFFFFFFFFFFFFFFFFFFFFFFFFFFFFFFFFFFFFFFFFFFFFFFF
310
FFFFFFFFFFFFFFFFFFFFFFFFFFFFFFFFF000FFFFFFFFFFFFFFFFFFFFFFFFFFFF
310
FFFFFFFFFFFFFFFFFFFFFFFFFFFFFFFFFFFFFFFFFFFFFFFFFFFFFFFFFFFFFFFF
310
FFFFFFFFFFFFFFFFFFFFFFFFFFFFFFFFFFFFFFFFFFFFFFFFFFFFFFFFFFFFFFFF
310
FFFFFFFFFFFFFFFFF000FFFFFFFFFFFFFFFFFFFFFFFFFFFFFFFFFFFFFFFFFFFF
310
FFFFFFFFFFFFFFFFFFFFFFFFFFFFFFFFFFFFFFFFFFFFFFFFFFFFFFFFFFFFFFFF
310
FFFFFFFFFFFFFFFFFFFFFFFFFFFFFFFFFFFFFFFFFFFFFFFFFFFFFFFFFFFFFFFF
310
F000FFFFFFFFFFFFFFFFFFFFFFFFFFFFFFFFFFFFFFFFFFFFFFFFFFFFFFFFFFFF
310
FFFFFFFFFFFFFFFFFFFFFFFFFFFFFFFFFFFFFFFFFFFFFFFFFFFFFFFFFFFFFFFF
310
FFFFFFFFFFFFFFFFFFFFFFFFFFFFFFFFFFFFFFFFFFFFFFFFF000FFFFFFFFFFFF
310
FFFFFFFFFFFFFFFFFFFFFFFFFFFFFFFFFFFFFFFFFFFFFFFFFFFFFFFFFFFFFFFF
310
FFFFFFFFFFFFFFFFFFFFFFFFFFFFFFFFFFFFFFFFFFFFFFFFFFFFFFFFFFFFFFFF
310
FFFFFFFFFFFFFFFFFFFFFFFFFFFFFFFFF000FFFFFFFFFFFFFFFFFFFFFFFFFFFF
310
FFFFFFFFFFFFFFFFFFFFFFFFFFFFFFFFFFFFFFFFFFFFFFFFFFFFFFFFFFFFFFFF
310
FFFFFFFFFFFFFFFFFFFFFFFFFFFFFFFFFFFFFFFFFFFFFFFFFFFFFFFFFFFFFFFF
310
FFFFFFFFFFFFFFFFF000FFFFFFFFFFFFFFFFFFFFFFFFFFFFFFFFFFFFFFFFFFFF
310
FFFFFFFFFFFFFFFFFFFFFFFFFFFFFFFFFFFFFFFFFFFFFFFFFFFFFFFFFFFFFFFF
310
FFFFFFFFFFFFFFFFFFFFFFFFFFFFFFFFFFFFFFFFFFFFFFFFFFFFFFFFFFFFFFFF
310
F000FFFFFFFFFFFFFFFFFFFFFFFFFFFFFFFFFFFFFFFFFFFFFFFFFFFFFFFFFFFF
310
FFFFFFFFFFFFFFFFFFFFFFFFFFFFFFFFFFFFFFFFFFFFFFFFFFFFFFFFFFFFFFFF
310
FFFFFFFFFFFFFFFFFFFFFFFFFFFFFFFFFFFFFFFFFFFFFFFFF000FFFFFFFFFFFF
310
FFFFFFFFFFFFFFFFFFFFFFFFFFFFFFFFFFFFFFFFFFFFFFFFFFFFFFFFFFFFFFFF
310
FFFFFFFFFFFFFFFFFFFFFFFFFFFFFFFFFFFFFFFFFFFFFFFFFFFFFFFFFFFFFFFF
310
FFFFFFFFFFFFFFFFFFFFFFFFFFFFFFFFF000FFFFFFFFFFFFFFFFFFFFFFFFFFFF
310
FFFFFFFFFFFFFFFFFFFFFFFFFFFFFFFFFFFFFFFFFFFFFFFFFFFFFFFFFFFFFFFF
310
FFFFFFFFFFFFFFFFFFFFFFFFFFFFFFFFFFFFFFFFFFFFFFFFFFFFFFFFFFFFFFFF
310
FFFFFFFFFFFFFFFFF000FFFFFFFFFFFFFFFFFFFFFFFFFFFFFFFFFFFFFFFFFFFF
310
FFFFFFFFFFFFFFFFFFFFFFFFFFFFFFFFFFFFFFFFFFFFFFFFFFFFFFFFFFFFFFFF
310
FFFFFFFFFFFFFFFFFFFFFFFFFFFFFFFFFFFFFFFFFFFFFFFFFFFFFFFFFFFFFFFF
310
F000FFFFFFFFFFFFFFFFFFFFFFFFFFFFFFFFFFFFFFFFFFFFFFFFFFFFFFFFFFFF
310
FFFFFFFFFFFFFFFFFFFFFFFFFFFFFFFFFFFFFFFFFFFFFFFFFFFFFFFFFFFFFFFF
310
FFFFFFFFFFFFFFFFFFFFFFFFFFFFFFFFFFFFFFFFFFFFFFFFF000FFFFFFFFFFFF
310
FFFFFFFFFFFFFFFFFFFFFFFFFFFFFFFFFFFFFFFFFFFFFFFFFFFFFFFFFFFFFFFF
310
FFFFFFFFFFFFFFFFFFFFFFFFFFFFFFFFFFFFFFFFFFFFFFFFFFFFFFFFFFFFFFFF
310
FFFFFFFFFFFFFFFFFFFFFFFFFFFFFFFFF000FFFFFFFFFFFFFFFFFFFFFFFFFFFF
310
FFFFFFFFFFFFFFFFFFFFFFFFFFFFFFFFFFFFFFFFFFFFFFFFFFFFFFFFFFFFFFFF
310
FFFFFFFFFFFFFFFFFFFFFFFFFFFFFFFFFFFFFFFFFFFFFFFFFFFFFFFFFFFFFFFF
310
FFFFFFFFFFFFFFFFF000FFFFFFFFFFFFFFFFFFFFFFFFFFFFFFFFFFFFFFFFFFFF
310
FFFFFFFFFFFFFFFFFFFFFFFFFFFFFFFFFFFFFFFFFFFFFFFFFFFFFFFFFFFFFFFF
310
FFFFFFFFFFFFFFFFFFFFFFFFFFFFFFFFFFFFFFFFFFFFFFFFFFFFFFFFFFFFFFFF
310
F000FFFFFFFFFFFFFFFFFFFFFFFFFFFFFFFFFFFFFFFFFFFFFFFFFFFFFFFFFFFF
310
FFFFFFFFFFFFFFFFFFFFFFFFFFFFFFFFFFFFFFFFFFFFFFFFFFFFFFFFFFFFFFFF
310
FFFFFFFFFFFFFFFFFFFFFFFFFFFFFFFFFFFFFFFFFFFFFFFFF000FFFFFFFFFFFF
310
FFFFFFFFFFFFFFFFFFFFFFFFFFFFFFFFFFFFFFFFFFFFFFFFFFFFFFFFFFFFFFFF
310
FFFFFFFFFFFFFFFFFFFFFFFFFFFFFFFFFFFFFFFFFFFFFFFFFFFFFFFFFFFFFFFF
310
FFFFFFFFFFFFFFFFFFFFFFFFFFFFFFFFF0000000000000000000000000000000
310
0000000001000000010000000100000001000000010000000100000000000000
310
0100000001000000010000000100000001000000010000000100000001000000
310
0100000001000000010000000100000001000000010000000100000001000000
310
0100000001000000010000000100000001000000010000000100000001000000
310
0100000000000000010000000100000001000000010000000100000001000000
310
0100000001000000010000000100000001000000010000000100000001000000
310
0100000001000000010000000100000001000000010000000100000001000000
310
0100000001000000010000000100000001000000010000000100000001000000
310
0100000001000000010000000100000000000000010000000100000001000000
310
0100000001000000010000000100000001000000010000000100000001000000
310
0100000001000000010000000100000001000000010000000100000001000000
310
0100000001000000010000000100000001000000010000000100000001000000
310
0100000001000000010000000100000001000000010000000100000000000000
310
0100000001000000010000000100000001000000010000000100000001000000
310
0100000001000000010000000100000001000000010000000100000001000000
  1
OLE
  0
ENDSEC
  0
SECTION
  2
OBJECTS
  0
DICTIONARY
  5
C
330
0
100
AcDbDictionary
281
     1
  3
ACAD_GROUP
350
D
  3
ACAD_LAYOUT
350
1A
  3
ACAD_MLEADERSTYLE
350
203
  3
ACAD_MLINESTYLE
350
17
  3
ACAD_PLOTSETTINGS
350
19
  3
ACAD_PLOTSTYLENAME
350
E
  3
ACAD_TABLESTYLE
350
202
  3
ACAD_VISUALSTYLE
350
2A
  3
AcDbVariableDictionary
350
204
  0
DICTIONARY
  5
D
102
{ACAD_REACTORS
330
C
102
}
330
C
100
AcDbDictionary
281
     1
  0
DICTIONARY
  5
1A
102
{ACAD_REACTORS
330
C
102
}
330
C
100
AcDbDictionary
281
     1
  3
Layout1
350
1E
  3
Layout2
350
26
  3
Model
350
22
  0
DICTIONARY
  5
203
102
{ACAD_REACTORS
330
C
102
}
330
C
100
AcDbDictionary
281
     1
  0
DICTIONARY
  5
17
102
{ACAD_REACTORS
330
C
102
}
330
C
100
AcDbDictionary
281
     1
  3
Standard
350
18
  0
DICTIONARY
  5
19
102
{ACAD_REACTORS
330
C
102
}
330
C
100
AcDbDictionary
281
     1
  0
ACDBDICTIONARYWDFLT
  5
E
102
{ACAD_REACTORS
330
C
102
}
330
C
100
AcDbDictionary
281
     1
  3
Normal
350
F
100
AcDbDictionaryWithDefault
340
F
  0
DICTIONARY
  5
202
102
{ACAD_REACTORS
330
C
102
}
330
C
100
AcDbDictionary
281
     1
  0
DICTIONARY
  5
2A
102
{ACAD_REACTORS
330
C
102
}
330
C
100
AcDbDictionary
281
     1
  3
2dWireframe
350
2F
  3
3D Hidden
350
31
  3
3dWireframe
350
30
  3
Basic
350
32
  3
Brighten
350
36
  3
ColorChange
350
3A
  3
Conceptual
350
34
  3
Dim
350
35
  3
Facepattern
350
39
  3
Flat
350
2B
  3
FlatWithEdges
350
2C
  3
Gouraud
350
2D
  3
GouraudWithEdges
350
2E
  3
Linepattern
350
38
  3
Realistic
350
33
  3
Thicken
350
37
  0
DICTIONARY
  5
204
102
{ACAD_REACTORS
330
C
102
}
330
C
100
AcDbDictionary
281
     1
  3
PSOLHEIGHT
350
206
  3
PSOLWIDTH
350
205
  0
LAYOUT
  5
1E
102
{ACAD_REACTORS
330
1A
102
}
330
1A
100
AcDbPlotSettings
  1

  2
none_device
  4

  6

 40
0.0
 41
0.0
 42
0.0
 43
0.0
 44
0.0
 45
0.0
 46
0.0
 47
0.0
 48
0.0
 49
0.0
140
0.0
141
0.0
142
1.0
143
1.0
 70
   688
 72
     0
 73
     0
 74
     5
  7

 75
    16
147
1.0
148
0.0
149
0.0
100
AcDbLayout
  1
Layout1
 70
     1
 71
     1
 10
0.0
 20
0.0
 11
420.0
 21
297.0
 12
0.0
 22
0.0
 32
0.0
 14
1.0000000000E+20
 24
1.0000000000E+20
 34
1.0000000000E+20
 15
-1.0000000000E+20
 25
-1.0000000000E+20
 35
-1.0000000000E+20
146
0.0
 13
0.0
 23
0.0
 33
0.0
 16
1.0
 26
0.0
 36
0.0
 17
0.0
 27
1.0
 37
0.0
 76
     0
330
1B
  0
LAYOUT
  5
26
102
{ACAD_REACTORS
330
1A
102
}
330
1A
100
AcDbPlotSettings
  1

  2
none_device
  4

  6

 40
0.0
 41
0.0
 42
0.0
 43
0.0
 44
0.0
 45
0.0
 46
0.0
 47
0.0
 48
0.0
 49
0.0
140
0.0
141
0.0
142
1.0
143
1.0
 70
   688
 72
     0
 73
     0
 74
     5
  7

 75
    16
147
1.0
148
0.0
149
0.0
100
AcDbLayout
  1
Layout2
 70
     1
 71
     2
 10
0.0
 20
0.0
 11
0.0
 21
0.0
 12
0.0
 22
0.0
 32
0.0
 14
0.0
 24
0.0
 34
0.0
 15
0.0
 25
0.0
 35
0.0
146
0.0
 13
0.0
 23
0.0
 33
0.0
 16
1.0
 26
0.0
 36
0.0
 17
0.0
 27
1.0
 37
0.0
 76
     0
330
23
  0
LAYOUT
  5
22
102
{ACAD_REACTORS
330
1A
102
}
330
1A
100
AcDbPlotSettings
  1

  2
none_device
  4

  6

 40
0.0
 41
0.0
 42
0.0
 43
0.0
 44
0.0
 45
0.0
 46
0.0
 47
0.0
 48
0.0
 49
0.0
140
0.0
141
0.0
142
1.0
143
1.0
 70
  1712
 72
     0
 73
     0
 74
     0
  7

 75
     0
147
1.0
148
0.0
149
0.0
100
AcDbLayout
  1
Model
 70
     1
 71
     0
 10
0.0
 20
0.0
 11
297.0
 21
210.0
 12
0.0
 22
0.0
 32
0.0
 14
0.0
 24
0.0
 34
0.0
 15
297.0
 25
210.0
 35
0.0
146
0.0
 13
0.0
 23
0.0
 33
0.0
 16
1.0
 26
0.0
 36
0.0
 17
0.0
 27
1.0
 37
0.0
 76
     0
330
1F
331
29
  0
MLINESTYLE
  5
18
102
{ACAD_REACTORS
330
17
102
}
330
17
100
AcDbMlineStyle
  2
Standard
 70
     0
  3

 62
   256
 51
90.0
 52
90.0
 71
     2
 49
0.5
 62
   256
  6
BYLAYER
 49
-0.5
 62
   256
  6
BYLAYER
  0
ACDBPLACEHOLDER
  5
F
102
{ACAD_REACTORS
330
E
102
}
330
E
  0
VISUALSTYLE
  5
2F
102
{ACAD_REACTORS
330
2A
102
}
330
2A
100
AcDbVisualStyle
  2
2dWireframe
 70
     4
 71
     0
 72
     2
 73
     0
 90
        0
 40
-0.6
 41
-30.0
 62
     5
 63
     7
 74
     1
 91
        4
 64
     7
 65
   257
 75
     1
175
     1
 42
1.0
 92
        0
 66
   257
 43
1.0
 76
     1
 77
     6
 78
     2
 67
     7
 79
     5
170
     0
171
     0
290
     0
174
     0
 93
        1
 44
0.0
173
     0
291
     0
 45
0.0
1001
ACAD
1000
AcDbSavedByObjectVersion
1070
     0
  0
VISUALSTYLE
  5
31
102
{ACAD_REACTORS
330
2A
102
}
330
2A
100
AcDbVisualStyle
  2
3D Hidden
 70
     6
 71
     1
 72
     2
 73
     2
 90
        0
 40
-0.6
 41
-30.0
 62
     5
 63
     7
 74
     2
 91
        2
 64
     7
 65
   257
 75
     2
175
     1
 42
40.0
 92
        0
 66
   257
 43
1.0
 76
     1
 77
     6
 78
     2
 67
     7
 79
     3
170
     0
171
     0
290
     0
174
     0
 93
        1
 44
0.0
173
     0
291
     0
 45
0.0
1001
ACAD
1000
AcDbSavedByObjectVersion
1070
     0
  0
VISUALSTYLE
  5
30
102
{ACAD_REACTORS
330
2A
102
}
330
2A
100
AcDbVisualStyle
  2
3dWireframe
 70
     5
 71
     0
 72
     2
 73
     0
 90
        0
 40
-0.6
 41
-30.0
 62
     5
 63
     7
 74
     1
 91
        4
 64
     7
 65
   257
 75
     1
175
     1
 42
1.0
 92
        0
 66
   257
 43
1.0
 76
     1
 77
     6
 78
     2
 67
     7
 79
     5
170
     0
171
     0
290
     0
174
     0
 93
        1
 44
0.0
173
     0
291
     0
 45
0.0
1001
ACAD
1000
AcDbSavedByObjectVersion
1070
     0
  0
VISUALSTYLE
  5
32
102
{ACAD_REACTORS
330
2A
102
}
330
2A
100
AcDbVisualStyle
  2
Basic
 70
     7
 71
     1
 72
     0
 73
     1
 90
        0
 40
-0.6
 41
-30.0
 62
     5
 63
     7
 74
     0
 91
        4
 64
     7
 65
   257
 75
     1
175
     1
 42
1.0
 92
        8
 66
     7
 43
1.0
 76
     1
 77
     6
 78
     2
 67
     7
 79
     5
170
     0
171
     0
290
     0
174
     0
 93
        1
 44
0.0
173
     0
291
     1
 45
0.0
1001
ACAD
1000
AcDbSavedByObjectVersion
1070
     0
  0
VISUALSTYLE
  5
36
102
{ACAD_REACTORS
330
2A
102
}
330
2A
100
AcDbVisualStyle
  2
Brighten
 70
    12
 71
     2
 72
     2
 73
     0
 90
        0
 40
-0.6
 41
-30.0
 62
     5
 63
     7
 74
     1
 91
        4
 64
     7
 65
   257
 75
     1
175
     1
 42
1.0
 92
        8
 66
     7
 43
1.0
 76
     1
 77
     6
 78
     2
 67
     7
 79
     5
170
     0
171
     0
290
     0
174
     0
 93
        1
 44
50.0
173
     0
291
     1
 45
0.0
1001
ACAD
1000
AcDbSavedByObjectVersion
1070
     0
  0
VISUALSTYLE
  5
3A
102
{ACAD_REACTORS
330
2A
102
}
330
2A
100
AcDbVisualStyle
  2
ColorChange
 70
    16
 71
     2
 72
     2
 73
     3
 90
        0
 40
-0.6
 41
-30.0
 62
     5
 63
     8
 74
     1
 91
        4
 64
     7
 65
   257
 75
     1
175
     1
 42
1.0
 92
        8
 66
     8
 43
1.0
 76
     1
 77
     6
 78
     2
 67
     7
 79
     5
170
     0
171
     0
290
     0
174
     0
 93
        1
 44
0.0
173
     0
291
     1
 45
0.0
1001
ACAD
1000
AcDbSavedByObjectVersion
1070
     0
  0
VISUALSTYLE
  5
34
102
{ACAD_REACTORS
330
2A
102
}
330
2A
100
AcDbVisualStyle
  2
Conceptual
 70
     9
 71
     3
 72
     2
 73
     0
 90
        0
 40
-0.6
 41
-30.0
 62
     5
 63
     7
 74
     2
 91
        2
 64
     7
 65
   257
 75
     1
175
     1
 42
40.0
 92
        8
 66
     7
 43
1.0
 76
     1
 77
     6
 78
     2
 67
     7
 79
     3
170
     0
171
     0
290
     0
174
     0
 93
        1
 44
0.0
173
     0
291
     0
 45
0.0
1001
ACAD
1000
AcDbSavedByObjectVersion
1070
     0
  0
VISUALSTYLE
  5
35
102
{ACAD_REACTORS
330
2A
102
}
330
2A
100
AcDbVisualStyle
  2
Dim
 70
    11
 71
     2
 72
     2
 73
     0
 90
        0
 40
-0.6
 41
-30.0
 62
     5
 63
     7
 74
     1
 91
        4
 64
     7
 65
   257
 75
     1
175
     1
 42
1.0
 92
        8
 66
     7
 43
1.0
 76
     1
 77
     6
 78
     2
 67
     7
 79
     5
170
     0
171
     0
290
     0
174
     0
 93
        1
 44
-50.0
173
     0
291
     1
 45
0.0
1001
ACAD
1000
AcDbSavedByObjectVersion
1070
     0
  0
VISUALSTYLE
  5
39
102
{ACAD_REACTORS
330
2A
102
}
330
2A
100
AcDbVisualStyle
  2
Facepattern
 70
    15
 71
     2
 72
     2
 73
     0
 90
        0
 40
-0.6
 41
-30.0
 62
     5
 63
     7
 74
     1
 91
        4
 64
     7
 65
   257
 75
     1
175
     1
 42
1.0
 92
        8
 66
     7
 43
1.0
 76
     1
 77
     6
 78
     2
 67
     7
 79
     5
170
     0
171
     0
290
     0
174
     0
 93
        1
 44
0.0
173
     0
291
     1
 45
0.0
1001
ACAD
1000
AcDbSavedByObjectVersion
1070
     0
  0
VISUALSTYLE
  5
2B
102
{ACAD_REACTORS
330
2A
102
}
330
2A
100
AcDbVisualStyle
  2
Flat
 70
     0
 71
     2
 72
     1
 73
     1
 90
        2
 40
-0.6
 41
30.0
 62
     5
 63
     7
 74
     0
 91
        4
 64
     7
 65
   257
 75
     1
175
     1
 42
1.0
 92
        8
 66
     7
 43
1.0
 76
     1
 77
     6
 78
     2
 67
     7
 79
     5
170
     0
171
     0
290
     0
174
     0
 93
       13
 44
0.0
173
     0
291
     1
 45
0.0
1001
ACAD
1000
AcDbSavedByObjectVersion
1070
     0
  0
VISUALSTYLE
  5
2C
102
{ACAD_REACTORS
330
2A
102
}
330
2A
100
AcDbVisualStyle
  2
FlatWithEdges
 70
     1
 71
     2
 72
     1
 73
     1
 90
        2
 40
-0.6
 41
30.0
 62
     5
 63
     7
 74
     1
 91
        4
 64
     7
 65
   257
 75
     1
175
     1
 42
1.0
 92
        0
 66
   257
 43
1.0
 76
     1
 77
     6
 78
     2
 67
     7
 79
     5
170
     0
171
     0
290
     0
174
     0
 93
       13
 44
0.0
173
     0
291
     1
 45
0.0
1001
ACAD
1000
AcDbSavedByObjectVersion
1070
     0
  0
VISUALSTYLE
  5
2D
102
{ACAD_REACTORS
330
2A
102
}
330
2A
100
AcDbVisualStyle
  2
Gouraud
 70
     2
 71
     2
 72
     2
 73
     1
 90
        2
 40
-0.6
 41
30.0
 62
     5
 63
     7
 74
     0
 91
        4
 64
     7
 65
   257
 75
     1
175
     1
 42
1.0
 92
        0
 66
     7
 43
1.0
 76
     1
 77
     6
 78
     2
 67
     7
 79
     5
170
     0
171
     0
290
     0
174
     0
 93
       13
 44
0.0
173
     0
291
     1
 45
0.0
1001
ACAD
1000
AcDbSavedByObjectVersion
1070
     0
  0
VISUALSTYLE
  5
2E
102
{ACAD_REACTORS
330
2A
102
}
330
2A
100
AcDbVisualStyle
  2
GouraudWithEdges
 70
     3
 71
     2
 72
     2
 73
     1
 90
        2
 40
-0.6
 41
30.0
 62
     5
 63
     7
 74
     1
 91
        4
 64
     7
 65
   257
 75
     1
175
     1
 42
1.0
 92
        0
 66
   257
 43
1.0
 76
     1
 77
     6
 78
     2
 67
     7
 79
     5
170
     0
171
     0
290
     0
174
     0
 93
       13
 44
0.0
173
     0
291
     1
 45
0.0
1001
ACAD
1000
AcDbSavedByObjectVersion
1070
     0
  0
VISUALSTYLE
  5
38
102
{ACAD_REACTORS
330
2A
102
}
330
2A
100
AcDbVisualStyle
  2
Linepattern
 70
    14
 71
     2
 72
     2
 73
     0
 90
        0
 40
-0.6
 41
-30.0
 62
     5
 63
     7
 74
     1
 91
        4
 64
     7
 65
   257
 75
     7
175
     7
 42
1.0
 92
        8
 66
     7
 43
1.0
 76
     1
 77
     6
 78
     2
 67
     7
 79
     5
170
     0
171
     0
290
     0
174
     0
 93
        1
 44
0.0
173
     0
291
     1
 45
0.0
1001
ACAD
1000
AcDbSavedByObjectVersion
1070
     0
  0
VISUALSTYLE
  5
33
102
{ACAD_REACTORS
330
2A
102
}
330
2A
100
AcDbVisualStyle
  2
Realistic
 70
     8
 71
     2
 72
     2
 73
     0
 90
        0
 40
-0.6
 41
-30.0
 62
     5
 63
     7
 74
     1
 91
        0
 64
     7
 65
   257
 75
     1
175
     1
 42
1.0
 92
        8
 66
     8
 43
1.0
 76
     1
 77
     6
 78
     2
 67
     7
 79
     5
170
     0
171
     0
290
     0
174
     0
 93
       13
 44
0.0
173
     0
291
     0
 45
0.0
1001
ACAD
1000
AcDbSavedByObjectVersion
1070
     0
  0
VISUALSTYLE
  5
37
102
{ACAD_REACTORS
330
2A
102
}
330
2A
100
AcDbVisualStyle
  2
Thicken
 70
    13
 71
     2
 72
     2
 73
     0
 90
        0
 40
-0.6
 41
-30.0
 62
     5
 63
     7
 74
     1
 91
        4
 64
     7
 65
   257
 75
     1
175
     1
 42
1.0
 92
       12
 66
     7
 43
1.0
 76
     1
 77
     6
 78
     2
 67
     7
 79
     5
170
     0
171
     0
290
     0
174
     0
 93
        1
 44
0.0
173
     0
291
     1
 45
0.0
1001
ACAD
1000
AcDbSavedByObjectVersion
1070
     0
  0
DICTIONARYVAR
  5
206
102
{ACAD_REACTORS
330
204
102
}
330
204
100
DictionaryVariables
280
     0
  1
80.000000
  0
DICTIONARYVAR
  5
205
102
{ACAD_REACTORS
330
204
102
}
330
204
100
DictionaryVariables
280
     0
  1
5.000000
  0
ENDSEC
  0
EOF
