  0
SECTION
  2
HEADER
  9
$ACADVER
  1
AC1015
  9
$ACADMAINTVER
 70
     6
  9
$DWGCODEPAGE
  3
ANSI_1252
  9
$INSBASE
 10
0.0
 20
0.0
 30
0.0
  9
$EXTMIN
 10
0.0
 20
0.0
 30
0.0
  9
$EXTMAX
 10
297.0
 20
210.0
 30
0.0
  9
$LIMMIN
 10
0.0
 20
0.0
  9
$LIMMAX
 10
297.0
 20
210.0
  9
$ORTHOMODE
 70
     0
  9
$REGENMODE
 70
     1
  9
$FILLMODE
 70
     1
  9
$QTEXTMODE
 70
     0
  9
$MIRRTEXT
 70
     1
  9
$LTSCALE
 40
1.0
  9
$ATTMODE
 70
     1
  9
$TEXTSIZE
 40
2.0
  9
$TRACEWID
 40
1.0
  9
$TEXTSTYLE
  7
Standard
  9
$CLAYER
  8
0
  9
$CELTYPE
  6
ByLayer
  9
$CECOLOR
 62
   256
  9
$CELTSCALE
 40
1.0
  9
$DISPSILH
 70
     0
  9
$DIMSCALE
 40
1.0
  9
$DIMASZ
 40
3.0
  9
$DIMEXO
 40
0.0
  9
$DIMDLI
 40
3.75
  9
$DIMRND
 40
0.0
  9
$DIMDLE
 40
0.0
  9
$DIMEXE
 40
1.0
  9
$DIMTP
 40
0.0
  9
$DIMTM
 40
0.0
  9
$DIMTXT
 40
2.0
  9
$DIMCEN
 40
2.5
  9
$DIMTSZ
 40
0.0
  9
$DIMTOL
 70
     0
  9
$DIMLIM
 70
     0
  9
$DIMTIH
 70
     1
  9
$DIMTOH
 70
     1
  9
$DIMSE1
 70
     0
  9
$DIMSE2
 70
     0
  9
$DIMTAD
 70
     1
  9
$DIMZIN
 70
     0
  9
$DIMBLK
  1

  9
$DIMASO
 70
     1
  9
$DIMSHO
 70
     1
  9
$DIMPOST
  1

  9
$DIMAPOST
  1

  9
$DIMALT
 70
     0
  9
$DIMALTD
 70
     3
  9
$DIMALTF
 40
0.0393700787
  9
$DIMLFAC
 40
1.0
  9
$DIMTOFL
 70
     1
  9
$DIMTVP
 40
0.0
  9
$DIMTIX
 70
     0
  9
$DIMSOXD
 70
     0
  9
$DIMSAH
 70
     0
  9
$DIMBLK1
  1

  9
$DIMBLK2
  1

  9
$DIMSTYLE
  2
ISO-25
  9
$DIMCLRD
 70
     0
  9
$DIMCLRE
 70
     0
  9
$DIMCLRT
 70
     0
  9
$DIMTFAC
 40
1.0
  9
$DIMGAP
 40
1.524
  9
$DIMJUST
 70
     0
  9
$DIMSD1
 70
     0
  9
$DIMSD2
 70
     0
  9
$DIMTOLJ
 70
     0
  9
$DIMTZIN
 70
     0
  9
$DIMALTZ
 70
     0
  9
$DIMALTTZ
 70
     0
  9
$DIMUPT
 70
     0
  9
$DIMDEC
 70
     2
  9
$DIMTDEC
 70
     3
  9
$DIMALTU
 70
     2
  9
$DIMALTTD
 70
     3
  9
$DIMTXSTY
  7
Standard
  9
$DIMAUNIT
 70
     0
  9
$DIMADEC
 70
     2
  9
$DIMALTRND
 40
0.0
  9
$DIMAZIN
 70
     0
  9
$DIMDSEP
 70
    44
  9
$DIMATFIT
 70
     3
  9
$DIMFRAC
 70
     0
  9
$DIMLDRBLK
  1

  9
$DIMLUNIT
 70
     2
  9
$DIMLWD
 70
    -2
  9
$DIMLWE
 70
    -2
  9
$DIMTMOVE
 70
     0
  9
$LUNITS
 70
     2
  9
$LUPREC
 70
     2
  9
$SKETCHINC
 40
1.0
  9
$FILLETRAD
 40
10.0
  9
$AUNITS
 70
     0
  9
$AUPREC
 70
     2
  9
$MENU
  1
.
  9
$ELEVATION
 40
0.0
  9
$PELEVATION
 40
0.0
  9
$THICKNESS
 40
0.0
  9
$LIMCHECK
 70
     0
  9
$CHAMFERA
 40
10.0
  9
$CHAMFERB
 40
10.0
  9
$CHAMFERC
 40
20.0
  9
$CHAMFERD
 40
0.0
  9
$SKPOLY
 70
     0
  9
$TDCREATE
 40
2455673.47261941
  9
$TDUCREATE
 40
2455673.389286076
  9
$TDUPDATE
 40
2455673.472619421
  9
$TDUUPDATE
 40
2455673.389286088
  9
$TDINDWG
 40
0.0000000116
  9
$TDUSRTIMER
 40
0.0000000116
  9
$USRTIMER
 70
     1
  9
$ANGBASE
 50
0.0
  9
$ANGDIR
 70
     0
  9
$PDMODE
 70
     0
  9
$PDSIZE
 40
-1.0
  9
$PLINEWID
 40
0.0
  9
$SPLFRAME
 70
     0
  9
$SPLINETYPE
 70
     6
  9
$SPLINESEGS
 70
     8
  9
$HANDSEED
  5
200
  9
$SURFTAB1
 70
     6
  9
$SURFTAB2
 70
     6
  9
$SURFTYPE
 70
     6
  9
$SURFU
 70
     6
  9
$SURFV
 70
     6
  9
$UCSBASE
  2

  9
$UCSNAME
  2

  9
$UCSORG
 10
0.0
 20
0.0
 30
0.0
  9
$UCSXDIR
 10
1.0
 20
0.0
 30
0.0
  9
$UCSYDIR
 10
0.0
 20
1.0
 30
0.0
  9
$UCSORTHOREF
  2

  9
$UCSORTHOVIEW
 70
     0
  9
$UCSORGTOP
 10
0.0
 20
0.0
 30
0.0
  9
$UCSORGBOTTOM
 10
0.0
 20
0.0
 30
0.0
  9
$UCSORGLEFT
 10
0.0
 20
0.0
 30
0.0
  9
$UCSORGRIGHT
 10
0.0
 20
0.0
 30
0.0
  9
$UCSORGFRONT
 10
0.0
 20
0.0
 30
0.0
  9
$UCSORGBACK
 10
0.0
 20
0.0
 30
0.0
  9
$PUCSBASE
  2

  9
$PUCSNAME
  2

  9
$PUCSORG
 10
0.0
 20
0.0
 30
0.0
  9
$PUCSXDIR
 10
1.0
 20
0.0
 30
0.0
  9
$PUCSYDIR
 10
0.0
 20
1.0
 30
0.0
  9
$PUCSORTHOREF
  2

  9
$PUCSORTHOVIEW
 70
     0
  9
$PUCSORGTOP
 10
0.0
 20
0.0
 30
0.0
  9
$PUCSORGBOTTOM
 10
0.0
 20
0.0
 30
0.0
  9
$PUCSORGLEFT
 10
0.0
 20
0.0
 30
0.0
  9
$PUCSORGRIGHT
 10
0.0
 20
0.0
 30
0.0
  9
$PUCSORGFRONT
 10
0.0
 20
0.0
 30
0.0
  9
$PUCSORGBACK
 10
0.0
 20
0.0
 30
0.0
  9
$USERI1
 70
     0
  9
$USERI2
 70
     0
  9
$USERI3
 70
     0
  9
$USERI4
 70
     0
  9
$USERI5
 70
     0
  9
$USERR1
 40
0.0
  9
$USERR2
 40
0.0
  9
$USERR3
 40
0.0
  9
$USERR4
 40
0.0
  9
$USERR5
 40
0.0
  9
$WORLDVIEW
 70
     1
  9
$SHADEDGE
 70
     3
  9
$SHADEDIF
 70
    70
  9
$TILEMODE
 70
     1
  9
$MAXACTVP
 70
    64
  9
$PINSBASE
 10
0.0
 20
0.0
 30
0.0
  9
$PLIMCHECK
 70
     0
  9
$PEXTMIN
 10
1.0000000000E+20
 20
1.0000000000E+20
 30
1.0000000000E+20
  9
$PEXTMAX
 10
-1.0000000000E+20
 20
-1.0000000000E+20
 30
-1.0000000000E+20
  9
$PLIMMIN
 10
0.0
 20
0.0
  9
$PLIMMAX
 10
420.0
 20
297.0
  9
$UNITMODE
 70
     0
  9
$VISRETAIN
 70
     1
  9
$PLINEGEN
 70
     0
  9
$PSLTSCALE
 70
     1
  9
$TREEDEPTH
 70
  3020
  9
$CMLSTYLE
  2
Standard
  9
$CMLJUST
 70
     0
  9
$CMLSCALE
 40
20.0
  9
$PROXYGRAPHICS
 70
     1
  9
$MEASUREMENT
 70
     1
  9
$CELWEIGHT
370
    -1
  9
$ENDCAPS
280
     0
  9
$JOINSTYLE
280
     0
  9
$LWDISPLAY
290
     1
  9
$INSUNITS
 70
     4
  9
$HYPERLINKBASE
  1

  9
$STYLESHEET
  1

  9
$XEDIT
290
     1
  9
$CEPSNTYPE
380
     0
  9
$PSTYLEMODE
290
     1
  9
$FINGERPRINTGUID
  2
{C92D8296-1622-4BE1-BBDF-CBA236E5957B}
  9
$VERSIONGUID
  2
{FAEB1C32-E019-11D5-929B-00C0DF256EC4}
  9
$EXTNAMES
290
     1
  9
$PSVPSCALE
 40
0.0
  9
$OLESTARTUP
290
     0
  0
ENDSEC
  0
SECTION
  2
CLASSES
  0
CLASS
  1
ACDBDICTIONARYWDFLT
  2
AcDbDictionaryWithDefault
  3
ObjectDBX Classes
 90
        0
280
     0
281
     0
  0
CLASS
  1
VISUALSTYLE
  2
AcDbVisualStyle
  3
ObjectDBX Classes
 90
     4095
280
     0
281
     0
  0
CLASS
  1
DICTIONARYVAR
  2
AcDbDictionaryVar
  3
ObjectDBX Classes
 90
        0
280
     0
281
     0
  0
CLASS
  1
ACDBPLACEHOLDER
  2
AcDbPlaceHolder
  3
ObjectDBX Classes
 90
        0
280
     0
281
     0
  0
CLASS
  1
LAYOUT
  2
AcDbLayout
  3
ObjectDBX Classes
 90
        0
280
     0
281
     0
  0
ENDSEC
  0
SECTION
  2
TABLES
  0
TABLE
  2
VPORT
  5
8
330
0
100
AcDbSymbolTable
 70
     1
  0
VPORT
  5
29
330
8
100
AcDbSymbolTableRecord
100
AcDbViewportTableRecord
  2
*Active
 70
     0
 10
0.0
 20
0.0
 11
1.0
 21
1.0
 12
148.5
 22
105.0
 13
0.0
 23
0.0
 14
10.0
 24
10.0
 15
10.0
 25
10.0
 16
0.0
 26
0.0
 36
1.0
 17
0.0
 27
0.0
 37
0.0
 40
210.0
 41
1.4142857143
 42
50.0
 43
0.0
 44
0.0
 50
0.0
 51
0.0
 71
     0
 72
  2000
 73
     1
 74
     3
 75
     0
 76
     0
 77
     0
 78
     0
281
     0
 65
     1
110
0.0
120
0.0
130
0.0
111
1.0
121
0.0
131
0.0
112
0.0
122
1.0
132
0.0
 79
     0
146
0.0
  0
ENDTAB
  0
TABLE
  2
LTYPE
  5
5
330
0
100
AcDbSymbolTable
 70
     6
  0
LTYPE
  5
14
330
5
100
AcDbSymbolTableRecord
100
AcDbLinetypeTableRecord
  2
ByBlock
 70
     0
  3

 72
    65
 73
     0
 40
0.0
  0
LTYPE
  5
15
330
5
100
AcDbSymbolTableRecord
100
AcDbLinetypeTableRecord
  2
ByLayer
 70
     0
  3

 72
    65
 73
     0
 40
0.0
  0
LTYPE
  5
16
330
5
100
AcDbSymbolTableRecord
100
AcDbLinetypeTableRecord
  2
Continuous
 70
     0
  3
Solid line
 72
    65
 73
     0
 40
0.0
  0
LTYPE
  5
3B
330
5
100
AcDbSymbolTableRecord
100
AcDbLinetypeTableRecord
  2
HIDDEN
 70
     0
  3
Hidden __ __ __ __ __ __ __ __ __ __ __ __ __ __
 72
    65
 73
     2
 40
1.905
 49
1.27
 74
     0
 49
-0.635
 74
     0
  0
LTYPE
  5
3C
330
5
100
AcDbSymbolTableRecord
100
AcDbLinetypeTableRecord
  2
PHANTOM
 70
     0
  3
Phantom ______  __  __  ______  __  __  ______
 72
    65
 73
     6
 40
12.7
 49
6.35
 74
     0
 49
-1.27
 74
     0
 49
1.27
 74
     0
 49
-1.27
 74
     0
 49
1.27
 74
     0
 49
-1.27
 74
     0
  0
LTYPE
  5
3D
330
5
100
AcDbSymbolTableRecord
100
AcDbLinetypeTableRecord
  2
CENTER
 70
     0
  3
Center ____ _ ____ _ ____ _ ____ _ ____ _ ____
 72
    65
 73
     4
 40
10.16
 49
6.35
 74
     0
 49
-1.27
 74
     0
 49
1.27
 74
     0
 49
-1.27
 74
     0
  0
LTYPE
  5
3E
330
5
100
AcDbSymbolTableRecord
100
AcDbLinetypeTableRecord
  2
CENTERX2
 70
     0
  3
Center (2x) ________  __  ________  __  _____
 72
    65
 73
     4
 40
20.32
 49
12.7
 74
     0
 49
-2.54
 74
     0
 49
2.54
 74
     0
 49
-2.54
 74
     0
  0
LTYPE
  5
3F
330
5
100
AcDbSymbolTableRecord
100
AcDbLinetypeTableRecord
  2
DOT2
 70
     0
  3
Dot (.5x) ........................................
 72
    65
 73
     2
 40
0.635
 49
0.0
 74
     0
 49
-0.635
 74
     0
  0
ENDTAB
  0
TABLE
  2
LAYER
  5
2
330
0
100
AcDbSymbolTable
 70
     5
  0
LAYER
  5
10
330
2
100
AcDbSymbolTableRecord
100
AcDbLayerTableRecord
  2
0
 70
     0
 62
     7
  6
Continuous
370
    -3
390
F
  0
LAYER
  5
40
330
2
100
AcDbSymbolTableRecord
100
AcDbLayerTableRecord
  2
FORMAT
 70
     0
 62
     7
  6
Continuous
370
    -3
390
F
  0
LAYER
  5
41
330
2
100
AcDbSymbolTableRecord
100
AcDbLayerTableRecord
  2
VERMASSUNG
 70
     0
 62
     7
  6
Continuous
370
    -3
390
F
  0
LAYER
  5
42
330
2
100
AcDbSymbolTableRecord
100
AcDbLayerTableRecord
  2
KOPF_DÜNN
 70
     0
 62
     7
  6
Continuous
370
    -3
390
F
  0
LAYER
  5
43
330
2
100
AcDbSymbolTableRecord
100
AcDbLayerTableRecord
  2
KOPF_DICK
 70
     0
 62
     7
  6
Continuous
370
    15
390
F
  0
ENDTAB
  0
TABLE
  2
STYLE
  5
3
330
0
100
AcDbSymbolTable
 70
     3
  0
STYLE
  5
11
330
3
100
AcDbSymbolTableRecord
100
AcDbTextStyleTableRecord
  2
Standard
 70
     0
 40
0.0
 41
1.0
 50
0.0
 71
     0
 42
2.5
  3
txt
  4

  0
STYLE
  5
44
330
3
100
AcDbSymbolTableRecord
100
AcDbTextStyleTableRecord
  2
SLDTEXTSTYLE0
 70
     0
 40
0.0
 41
0.7
 50
0.0
 71
     0
 42
0.2
  3
TXT
  4

  0
STYLE
  5
48
330
3
100
AcDbSymbolTableRecord
100
AcDbTextStyleTableRecord
  2
SLDTEXTSTYLE1
 70
     0
 40
0.0
 41
0.65
 50
0.0
 71
     0
 42
0.2
  3
TXT
  4

  0
ENDTAB
  0
TABLE
  2
VIEW
  5
6
330
0
100
AcDbSymbolTable
 70
     0
  0
ENDTAB
  0
TABLE
  2
UCS
  5
7
330
0
100
AcDbSymbolTable
 70
     0
  0
ENDTAB
  0
TABLE
  2
APPID
  5
9
330
0
100
AcDbSymbolTable
 70
     1
  0
APPID
  5
12
330
9
100
AcDbSymbolTableRecord
100
AcDbRegAppTableRecord
  2
ACAD
 70
     0
  0
ENDTAB
  0
TABLE
  2
DIMSTYLE
  5
A
330
0
100
AcDbSymbolTable
 70
     3
100
AcDbDimStyleTable
  0
DIMSTYLE
105
27
330
A
100
AcDbSymbolTableRecord
100
AcDbDimStyleTableRecord
  2
ISO-25
 70
     0
 41
2.5
 42
0.625
 43
3.75
 44
1.25
 73
     0
 74
     0
 77
     1
 78
     8
140
2.5
141
2.5
143
0.0393700787
147
0.625
171
     3
172
     1
271
     2
272
     2
274
     3
278
    44
283
     0
284
     8
340
11
  0
DIMSTYLE
105
1B6
102
{ACAD_REACTORS
330
1B5
330
1D0
330
1DA
330
1E4
330
1EE
102
}
330
A
100
AcDbSymbolTableRecord
100
AcDbDimStyleTableRecord
  2
SLDDIMSTYLE0
 70
     0
 41
3.0
 44
0.0
 45
0.000000001
 73
     0
 74
     0
 77
     1
 78
    12
140
2.0
147
0.5
173
     1
271
     2
272
     3
284
    12
340
44
  0
DIMSTYLE
105
1C3
102
{ACAD_REACTORS
330
1C2
102
}
330
A
100
AcDbSymbolTableRecord
100
AcDbDimStyleTableRecord
  2
SLDDIMSTYLE1
 70
     0
 41
3.0
 44
0.0
 45
0.000000001
 73
     0
 74
     0
 77
     1
 78
    12
140
2.0
147
0.5
173
     1
271
     2
272
     3
284
    12
340
44
  0
ENDTAB
  0
TABLE
  2
BLOCK_RECORD
  5
1
330
0
100
AcDbSymbolTable
 70
     7
  0
BLOCK_RECORD
  5
1F
330
1
100
AcDbSymbolTableRecord
100
AcDbBlockTableRecord
  2
*Model_Space
340
22
  0
BLOCK_RECORD
  5
1B
330
1
100
AcDbSymbolTableRecord
100
AcDbBlockTableRecord
  2
*Paper_Space
340
1E
  0
BLOCK_RECORD
  5
23
330
1
100
AcDbSymbolTableRecord
100
AcDbBlockTableRecord
  2
*Paper_Space0
340
26
  0
BLOCK_RECORD
  5
1B7
330
1
100
AcDbSymbolTableRecord
100
AcDbBlockTableRecord
  2
*D1
340
0
  0
BLOCK_RECORD
  5
1C4
330
1
100
AcDbSymbolTableRecord
100
AcDbBlockTableRecord
  2
*D2
340
0
  0
BLOCK_RECORD
  5
1D1
330
1
100
AcDbSymbolTableRecord
100
AcDbBlockTableRecord
  2
*D3
340
0
  0
BLOCK_RECORD
  5
1DB
330
1
100
AcDbSymbolTableRecord
100
AcDbBlockTableRecord
  2
*D4
340
0
  0
BLOCK_RECORD
  5
1E5
330
1
100
AcDbSymbolTableRecord
100
AcDbBlockTableRecord
  2
*D5
340
0
  0
BLOCK_RECORD
  5
1EF
330
1
100
AcDbSymbolTableRecord
100
AcDbBlockTableRecord
  2
*D6
340
0
  0
ENDTAB
  0
ENDSEC
  0
SECTION
  2
BLOCKS
  0
BLOCK
  5
20
330
1F
100
AcDbEntity
  8
0
100
AcDbBlockBegin
  2
*Model_Space
 70
     0
 10
0.0
 20
0.0
 30
0.0
  3
*Model_Space
  1

  0
ENDBLK
  5
21
330
1F
100
AcDbEntity
  8
0
100
AcDbBlockEnd
  0
BLOCK
  5
1C
330
1B
100
AcDbEntity
 67
     1
  8
0
100
AcDbBlockBegin
  2
*Paper_Space
 70
     0
 10
0.0
 20
0.0
 30
0.0
  3
*Paper_Space
  1

  0
ENDBLK
  5
1D
330
1B
100
AcDbEntity
 67
     1
  8
0
100
AcDbBlockEnd
  0
BLOCK
  5
24
330
23
100
AcDbEntity
  8
0
100
AcDbBlockBegin
  2
*Paper_Space0
 70
     0
 10
0.0
 20
0.0
 30
0.0
  3
*Paper_Space0
  1

  0
ENDBLK
  5
25
330
23
100
AcDbEntity
  8
0
100
AcDbBlockEnd
  0
BLOCK
  5
1B8
330
1B7
100
AcDbEntity
  8
0
100
AcDbBlockBegin
  2
*D1
 70
     1
 10
0.0
 20
0.0
 30
0.0
  3
*D1
  1

  0
SOLID
  5
1BA
330
1B7
100
AcDbEntity
  8
VERMASSUNG
100
AcDbTrace
 10
40.8005937638
 20
159.7885954258
 30
0.0
 11
40.3505937638
 21
156.7885954258
 31
0.0
 12
41.2505937638
 22
156.7885954258
 32
0.0
 13
41.2505937638
 23
156.7885954258
 33
0.0
  0
SOLID
  5
1BB
330
1B7
100
AcDbEntity
  8
VERMASSUNG
100
AcDbTrace
 10
40.8005937638
 20
59.7885954258
 30
0.0
 11
41.2505937638
 21
62.7885954258
 31
0.0
 12
40.3505937638
 22
62.7885954258
 32
0.0
 13
40.3505937638
 23
62.7885954258
 33
0.0
  0
LINE
  5
1BC
330
1B7
100
AcDbEntity
  8
VERMASSUNG
100
AcDbLine
 10
96.6587094961
 20
159.7885954258
 30
0.0
 11
39.8005937638
 21
159.7885954258
 31
0.0
  0
LINE
  5
1BD
330
1B7
100
AcDbEntity
  8
VERMASSUNG
100
AcDbLine
 10
96.6587094961
 20
59.7885954258
 30
0.0
 11
39.8005937638
 21
59.7885954258
 31
0.0
  0
LINE
  5
1BE
330
1B7
100
AcDbEntity
  8
VERMASSUNG
100
AcDbLine
 10
40.8005937638
 20
159.7885954258
 30
0.0
 11
40.8005937638
 21
59.7885954258
 31
0.0
  0
MTEXT
  5
1BF
330
1B7
100
AcDbEntity
  8
VERMASSUNG
100
AcDbMText
 10
38.0224582748
 20
101.5849442882
 30
0.0
 40
2.0
 41
0.0
 71
     1
 72
     1
  1
HSK A 
  7
SLDTEXTSTYLE0
 11
-7.044195017643634E-15
 21
1.0
 31
0.0
 73
     1
 44
1.0
  0
MTEXT
  5
1C0
330
1B7
100
AcDbEntity
  8
VERMASSUNG
100
AcDbMText
 10
38.2224582843
 20
110.5849448321
 30
0.0
 40
2.0
 41
0.0
 71
     1
 72
     1
  1
%%c
  7
SLDTEXTSTYLE0
 11
-7.044195017643634E-15
 21
1.0
 31
0.0
 73
     1
 44
1.0
  0
MTEXT
  5
1C1
330
1B7
100
AcDbEntity
  8
VERMASSUNG
100
AcDbMText
 10
38.2224584007
 20
114.1932714821
 30
0.0
 40
2.0
 41
0.0
 71
     1
 72
     1
  1
100
  7
SLDTEXTSTYLE0
 11
-7.044195017643634E-15
 21
1.0
 31
0.0
 73
     1
 44
1.0
  0
ENDBLK
  5
1B9
330
1B7
100
AcDbEntity
  8
0
100
AcDbBlockEnd
  0
BLOCK
  5
1C5
330
1C4
100
AcDbEntity
  8
0
100
AcDbBlockBegin
  2
*D2
 70
     1
 10
0.0
 20
0.0
 30
0.0
  3
*D2
  1

  0
SOLID
  5
1C7
330
1C4
100
AcDbEntity
  8
VERMASSUNG
100
AcDbTrace
 10
262.5123444476
 20
113.7885954258
 30
0.0
 11
262.9623444476
 21
116.7885954258
 31
0.0
 12
262.0623444476
 22
116.7885954258
 32
0.0
 13
262.0623444476
 23
116.7885954258
 33
0.0
  0
SOLID
  5
1C8
330
1C4
100
AcDbEntity
  8
VERMASSUNG
100
AcDbTrace
 10
262.5123444476
 20
105.7885954258
 30
0.0
 11
262.0623444476
 21
102.7885954258
 31
0.0
 12
262.9623444476
 22
102.7885954258
 32
0.0
 13
262.9623444476
 23
102.7885954258
 33
0.0
  0
LINE
  5
1C9
330
1C4
100
AcDbEntity
  8
VERMASSUNG
100
AcDbLine
 10
255.8587094961
 20
113.7885954258
 30
0.0
 11
263.5123444476
 21
113.7885954258
 31
0.0
  0
LINE
  5
1CA
330
1C4
100
AcDbEntity
  8
VERMASSUNG
100
AcDbLine
 10
255.8587094961
 20
105.7885954258
 30
0.0
 11
263.5123444476
 21
105.7885954258
 31
0.0
  0
LINE
  5
1CB
330
1C4
100
AcDbEntity
  8
VERMASSUNG
100
AcDbLine
 10
262.5123444476
 20
113.7885954258
 30
0.0
 11
262.5123444476
 21
119.7885954258
 31
0.0
  0
LINE
  5
1CC
330
1C4
100
AcDbEntity
  8
VERMASSUNG
100
AcDbLine
 10
262.5123444476
 20
113.7885954258
 30
0.0
 11
262.5123444476
 21
105.7885954258
 31
0.0
  0
LINE
  5
1CD
330
1C4
100
AcDbEntity
  8
VERMASSUNG
100
AcDbLine
 10
262.5123444476
 20
105.7885954258
 30
0.0
 11
262.5123444476
 21
99.7885954258
 31
0.0
  0
MTEXT
  5
1CE
330
1C4
100
AcDbEntity
  8
VERMASSUNG
100
AcDbMText
 10
259.9342089681
 20
107.2845672568
 30
0.0
 40
2.0
 41
0.0
 71
     1
 72
     1
  1
%%c
  7
SLDTEXTSTYLE0
 11
-7.044195017643634E-15
 21
1.0
 31
0.0
 73
     1
 44
1.0
  0
MTEXT
  5
1CF
330
1C4
100
AcDbEntity
  8
VERMASSUNG
100
AcDbMText
 10
259.9342090845
 20
110.89324548
 30
0.0
 40
2.0
 41
0.0
 71
     1
 72
     1
  1
8
  7
SLDTEXTSTYLE0
 11
-7.044195017643634E-15
 21
1.0
 31
0.0
 73
     1
 44
1.0
  0
ENDBLK
  5
1C6
330
1C4
100
AcDbEntity
  8
0
100
AcDbBlockEnd
  0
BLOCK
  5
1D2
330
1D1
100
AcDbEntity
  8
0
100
AcDbBlockBegin
  2
*D3
 70
     1
 10
0.0
 20
0.0
 30
0.0
  3
*D3
  1

  0
SOLID
  5
1D4
330
1D1
100
AcDbEntity
  8
VERMASSUNG
100
AcDbTrace
 10
46.2587094961
 20
178.5394850844
 30
0.0
 11
49.2587094961
 21
178.0894850844
 31
0.0
 12
49.2587094961
 22
178.9894850844
 32
0.0
 13
49.2587094961
 23
178.9894850844
 33
0.0
  0
SOLID
  5
1D5
330
1D1
100
AcDbEntity
  8
VERMASSUNG
100
AcDbTrace
 10
256.1587094961
 20
178.5394850844
 30
0.0
 11
253.1587094961
 21
178.9894850844
 31
0.0
 12
253.1587094961
 22
178.0894850844
 32
0.0
 13
253.1587094961
 23
178.0894850844
 33
0.0
  0
LINE
  5
1D6
330
1D1
100
AcDbEntity
  8
VERMASSUNG
100
AcDbLine
 10
46.2587094961
 20
140.2912651684
 30
0.0
 11
46.2587094961
 21
179.5394850844
 31
0.0
  0
LINE
  5
1D7
330
1D1
100
AcDbEntity
  8
VERMASSUNG
100
AcDbLine
 10
256.1587094961
 20
118.5144549042
 30
0.0
 11
256.1587094961
 21
179.5394850844
 31
0.0
  0
LINE
  5
1D8
330
1D1
100
AcDbEntity
  8
VERMASSUNG
100
AcDbLine
 10
46.2587094961
 20
178.5394850844
 30
0.0
 11
256.1587094961
 21
178.5394850844
 31
0.0
  0
MTEXT
  5
1D9
330
1D1
100
AcDbEntity
  8
VERMASSUNG
100
AcDbMText
 10
148.1094234723
 20
181.1176204476
 30
0.0
 40
2.0
 41
0.0
 71
     1
 72
     1
  1
209.9
  7
SLDTEXTSTYLE0
 73
     1
 44
1.0
  0
ENDBLK
  5
1D3
330
1D1
100
AcDbEntity
  8
0
100
AcDbBlockEnd
  0
BLOCK
  5
1DC
330
1DB
100
AcDbEntity
  8
0
100
AcDbBlockBegin
  2
*D4
 70
     1
 10
0.0
 20
0.0
 30
0.0
  3
*D4
  1

  0
SOLID
  5
1DE
330
1DB
100
AcDbEntity
  8
VERMASSUNG
100
AcDbTrace
 10
96.1587094961
 20
172.5394850844
 30
0.0
 11
99.1587094961
 21
172.0894850844
 31
0.0
 12
99.1587094961
 22
172.9894850844
 32
0.0
 13
99.1587094961
 23
172.9894850844
 33
0.0
  0
SOLID
  5
1DF
330
1DB
100
AcDbEntity
  8
VERMASSUNG
100
AcDbTrace
 10
256.1587094961
 20
172.5394850844
 30
0.0
 11
253.1587094961
 21
172.9894850844
 31
0.0
 12
253.1587094961
 22
172.0894850844
 32
0.0
 13
253.1587094961
 23
172.0894850844
 33
0.0
  0
LINE
  5
1E0
330
1DB
100
AcDbEntity
  8
VERMASSUNG
100
AcDbLine
 10
96.1587094961
 20
159.2885954258
 30
0.0
 11
96.1587094961
 21
173.5394850844
 31
0.0
  0
LINE
  5
1E1
330
1DB
100
AcDbEntity
  8
VERMASSUNG
100
AcDbLine
 10
256.1587094961
 20
118.5144549042
 30
0.0
 11
256.1587094961
 21
173.5394850844
 31
0.0
  0
LINE
  5
1E2
330
1DB
100
AcDbEntity
  8
VERMASSUNG
100
AcDbLine
 10
96.1587094961
 20
172.5394850844
 30
0.0
 11
256.1587094961
 21
172.5394850844
 31
0.0
  0
MTEXT
  5
1E3
330
1DB
100
AcDbEntity
  8
VERMASSUNG
100
AcDbMText
 10
174.2592219555
 20
175.1176204476
 30
0.0
 40
2.0
 41
0.0
 71
     1
 72
     1
  1
160
  7
SLDTEXTSTYLE0
 73
     1
 44
1.0
  0
ENDBLK
  5
1DD
330
1DB
100
AcDbEntity
  8
0
100
AcDbBlockEnd
  0
BLOCK
  5
1E6
330
1E5
100
AcDbEntity
  8
0
100
AcDbBlockBegin
  2
*D5
 70
     1
 10
0.0
 20
0.0
 30
0.0
  3
*D5
  1

  0
SOLID
  5
1E8
330
1E5
100
AcDbEntity
  8
VERMASSUNG
100
AcDbTrace
 10
125.1087094961
 20
166.5394850844
 30
0.0
 11
128.1087094961
 21
166.0894850844
 31
0.0
 12
128.1087094961
 22
166.9894850844
 32
0.0
 13
128.1087094961
 23
166.9894850844
 33
0.0
  0
SOLID
  5
1E9
330
1E5
100
AcDbEntity
  8
VERMASSUNG
100
AcDbTrace
 10
256.1587094961
 20
166.5394850844
 30
0.0
 11
253.1587094961
 21
166.9894850844
 31
0.0
 12
253.1587094961
 22
166.0894850844
 32
0.0
 13
253.1587094961
 23
166.0894850844
 33
0.0
  0
LINE
  5
1EA
330
1E5
100
AcDbEntity
  8
VERMASSUNG
100
AcDbLine
 10
125.1087094961
 20
157.7573352466
 30
0.0
 11
125.1087094961
 21
167.5394850844
 31
0.0
  0
LINE
  5
1EB
330
1E5
100
AcDbEntity
  8
VERMASSUNG
100
AcDbLine
 10
256.1587094961
 20
118.5144549042
 30
0.0
 11
256.1587094961
 21
167.5394850844
 31
0.0
  0
LINE
  5
1EC
330
1E5
100
AcDbEntity
  8
VERMASSUNG
100
AcDbLine
 10
125.1087094961
 20
166.5394850844
 30
0.0
 11
256.1587094961
 21
166.5394850844
 31
0.0
  0
MTEXT
  5
1ED
330
1E5
100
AcDbEntity
  8
VERMASSUNG
100
AcDbMText
 10
187.2338936781
 20
169.1176204476
 30
0.0
 40
2.0
 41
0.0
 71
     1
 72
     1
  1
131.05
  7
SLDTEXTSTYLE0
 73
     1
 44
1.0
  0
ENDBLK
  5
1E7
330
1E5
100
AcDbEntity
  8
0
100
AcDbBlockEnd
  0
BLOCK
  5
1F0
330
1EF
100
AcDbEntity
  8
0
100
AcDbBlockBegin
  2
*D6
 70
     1
 10
0.0
 20
0.0
 30
0.0
  3
*D6
  1

  0
SOLID
  5
1F2
330
1EF
100
AcDbEntity
  8
VERMASSUNG
100
AcDbTrace
 10
268.5123444476
 20
125.7885954258
 30
0.0
 11
268.0623444476
 21
122.7885954258
 31
0.0
 12
268.9623444476
 22
122.7885954258
 32
0.0
 13
268.9623444476
 23
122.7885954258
 33
0.0
  0
SOLID
  5
1F3
330
1EF
100
AcDbEntity
  8
VERMASSUNG
100
AcDbTrace
 10
268.5123444476
 20
93.7885954258
 30
0.0
 11
268.9623444476
 21
96.7885954258
 31
0.0
 12
268.0623444476
 22
96.7885954258
 32
0.0
 13
268.0623444476
 23
96.7885954258
 33
0.0
  0
LINE
  5
1F4
330
1EF
100
AcDbEntity
  8
VERMASSUNG
100
AcDbLine
 10
243.291667973
 20
125.7885954258
 30
0.0
 11
269.5123444476
 21
125.7885954258
 31
0.0
  0
LINE
  5
1F5
330
1EF
100
AcDbEntity
  8
VERMASSUNG
100
AcDbLine
 10
243.291667973
 20
93.7885954258
 30
0.0
 11
269.5123444476
 21
93.7885954258
 31
0.0
  0
LINE
  5
1F6
330
1EF
100
AcDbEntity
  8
VERMASSUNG
100
AcDbLine
 10
268.5123444476
 20
125.7885954258
 30
0.0
 11
268.5123444476
 21
93.7885954258
 31
0.0
  0
MTEXT
  5
1F7
330
1EF
100
AcDbEntity
  8
VERMASSUNG
100
AcDbMText
 10
265.9342089681
 20
106.5848781993
 30
0.0
 40
2.0
 41
0.0
 71
     1
 72
     1
  1
%%c
  7
SLDTEXTSTYLE0
 11
-7.044195017643634E-15
 21
1.0
 31
0.0
 73
     1
 44
1.0
  0
MTEXT
  5
1F8
330
1EF
100
AcDbEntity
  8
VERMASSUNG
100
AcDbMText
 10
265.9342090845
 20
110.1935564225
 30
0.0
 40
2.0
 41
0.0
 71
     1
 72
     1
  1
32
  7
SLDTEXTSTYLE0
 11
-7.044195017643634E-15
 21
1.0
 31
0.0
 73
     1
 44
1.0
  0
ENDBLK
  5
1F1
330
1EF
100
AcDbEntity
  8
0
100
AcDbBlockEnd
  0
ENDSEC
  0
SECTION
  2
ENTITIES
  0
MTEXT
  5
45
330
1F
100
AcDbEntity
  8
KOPF_DÜNN
100
AcDbMText
 10
13.8892156294
 20
23.8442973028
 30
0.0
 40
3.0
 41
0.0
 71
     1
 72
     1
  1
HA0.W08.K21.160
  7
SLDTEXTSTYLE0
 73
     1
 44
1.0
  0
MTEXT
  5
46
330
1F
100
AcDbEntity
  8
VERMASSUNG
100
AcDbMText
 10
13.9329988022
 20
28.8834360957
 30
0.0
 40
3.0
 41
0.0
 71
     1
 72
     1
  1
Flächenspannfutter_End mill adapter Weldon ø8
  7
SLDTEXTSTYLE0
 73
     1
 44
1.0
  0
MTEXT
  5
47
330
1F
100
AcDbEntity
  8
VERMASSUNG
100
AcDbMText
 10
98.8601118557
 20
13.8365368179
 30
0.0
 40
2.0
 41
0.0
 71
     1
 72
     1
  1
Datum: 09.10.2006
  7
SLDTEXTSTYLE0
 73
     1
 44
1.0
  0
MTEXT
  5
49
330
1F
100
AcDbEntity
  8
VERMASSUNG
100
AcDbMText
 10
13.933048693
 20
18.0482802738
 30
0.0
 40
2.0
 41
0.0
 71
     1
 72
     1
  1
DIN 69 893 HSK A 100
  7
SLDTEXTSTYLE1
 73
     1
 44
1.0
  0
MTEXT
  5
4A
330
1F
100
AcDbEntity
  8
VERMASSUNG
100
AcDbMText
 10
13.9808475933
 20
13.9090973692
 30
0.0
 40
2.0
 41
0.0
 71
     1
 72
     1
  1
Gewicht: 2774g
  7
SLDTEXTSTYLE0
 73
     1
 44
1.0
  0
LINE
  5
4B
330
1F
100
AcDbEntity
  8
0
  6
Continuous
 62
     7
370
    15
100
AcDbLine
 10
256.1647207081
 20
115.9567342465
 30
0.0
 11
256.1587094961
 21
115.9678655304
 31
0.0
  0
LINE
  5
4C
330
1F
100
AcDbEntity
  8
0
  6
Continuous
 62
     7
370
    15
100
AcDbLine
 10
256.1587094961
 20
103.5019121511
 30
0.0
 11
256.2236104317
 21
103.6220926971
 31
0.0
  0
ARC
  5
4D
330
1F
100
AcDbEntity
  8
0
  6
Continuous
 62
     7
370
    15
100
AcDbCircle
 10
96.6587094961
 20
60.2885954258
 30
0.0
 40
0.5
100
AcDbArc
 50
180.0
 51
270.0
  0
ARC
  5
4E
330
1F
100
AcDbEntity
  8
0
  6
Continuous
 62
     7
370
    15
100
AcDbCircle
 10
96.6587094961
 20
159.2885954258
 30
0.0
 40
0.5
100
AcDbArc
 50
90.0
 51
180.0
  0
LINE
  5
4F
330
1F
100
AcDbEntity
  8
0
  6
Continuous
 62
     7
370
    15
100
AcDbLine
 10
96.6587094961
 20
59.7885954258
 30
0.0
 11
101.1087094961
 21
59.7885954258
 31
0.0
  0
LINE
  5
50
330
1F
100
AcDbEntity
  8
0
  6
Continuous
 62
     7
370
    15
100
AcDbLine
 10
101.1427823286
 20
159.7885954258
 30
0.0
 11
96.6587094961
 21
159.7885954258
 31
0.0
  0
ARC
  5
51
330
1F
100
AcDbEntity
  8
0
  6
Continuous
 62
     7
370
    15
100
AcDbCircle
 10
95.2617725776
 20
71.1601101013
 30
0.0
 40
0.9962338214386793
100
AcDbArc
 50
25.7988228126
 51
90.0
  0
ARC
  5
52
330
1F
100
AcDbEntity
  8
0
  6
Continuous
 62
     7
370
    15
100
AcDbCircle
 10
95.2617725776
 20
148.4170807502
 30
0.0
 40
0.9962338214386793
100
AcDbArc
 50
270.0
 51
334.2011771874
  0
LINE
  5
53
330
1F
100
AcDbEntity
  8
0
  6
Continuous
 62
     7
370
    15
100
AcDbLine
 10
93.6587094961
 20
71.9063439228
 30
0.0
 11
94.4645556505
 21
72.1222697491
 31
0.0
  0
LINE
  5
54
330
1F
100
AcDbEntity
  8
0
  6
Continuous
 62
     7
370
    15
100
AcDbLine
 10
94.4645556505
 20
147.4549211025
 30
0.0
 11
93.6587094961
 21
147.6708469288
 31
0.0
  0
LINE
  5
55
330
1F
100
AcDbEntity
  8
0
  6
Continuous
 62
     7
370
    15
100
AcDbLine
 10
74.6780305775
 20
146.7199111112
 30
0.0
 11
56.3587094961
 21
145.8021094538
 31
0.0
  0
LINE
  5
56
330
1F
100
AcDbEntity
  8
0
  6
Continuous
 62
     7
370
    15
100
AcDbLine
 10
93.6587094961
 20
147.6708469288
 30
0.0
 11
87.5906703416
 21
147.3668369511
 31
0.0
  0
LINE
  5
57
330
1F
100
AcDbEntity
  8
0
  6
Continuous
 62
     7
370
    15
100
AcDbLine
 10
87.5907936181
 20
72.2103477243
 30
0.0
 11
93.6587094961
 21
71.9063439228
 31
0.0
  0
LINE
  5
58
330
1F
100
AcDbEntity
  8
0
  6
Continuous
 62
     7
370
    15
100
AcDbLine
 10
61.3587094961
 20
73.5245803957
 30
0.0
 11
74.67866065
 21
72.8572481736
 31
0.0
  0
ARC
  5
59
330
1F
100
AcDbEntity
  8
0
  6
Continuous
 62
     7
370
    15
100
AcDbCircle
 10
94.7233746956
 20
71.1563439228
 30
0.0
 40
0.9999999999999858
100
AcDbArc
 50
90.0
 51
105.0
  0
ARC
  5
5A
330
1F
100
AcDbEntity
  8
0
  6
Continuous
 62
     7
370
    15
100
AcDbCircle
 10
94.7233746956
 20
148.4208469288
 30
0.0
 40
0.9999999999999719
100
AcDbArc
 50
255.0
 51
270.0
  0
LINE
  5
5B
330
1F
100
AcDbEntity
  8
0
  6
Continuous
 62
     7
370
    15
100
AcDbLine
 10
94.7233746956
 20
72.1563439228
 30
0.0
 11
95.2617725776
 21
72.1563439228
 31
0.0
  0
LINE
  5
5C
330
1F
100
AcDbEntity
  8
0
  6
Continuous
 62
     7
370
    15
100
AcDbLine
 10
95.2617725776
 20
147.4208469288
 30
0.0
 11
94.7233746956
 21
147.4208469288
 31
0.0
  0
ARC
  5
5D
330
1F
100
AcDbEntity
  8
0
  6
Continuous
 62
     7
370
    15
100
AcDbCircle
 10
130.1087094961
 20
84.8709757197
 30
0.0
 40
4.999999999999998
100
AcDbArc
 50
106.5116637356
 51
180.0
  0
ARC
  5
5E
330
1F
100
AcDbEntity
  8
0
  6
Continuous
 62
     7
370
    15
100
AcDbCircle
 10
130.1087094961
 20
134.7062151319
 30
0.0
 40
4.999999999999998
100
AcDbArc
 50
180.0
 51
253.4883362644
  0
ARC
  5
5F
330
1F
100
AcDbEntity
  8
0
  6
Continuous
 62
     7
370
    15
100
AcDbCircle
 10
157.1087094961
 20
-6.2114045742
 30
0.0
 40
100.0
100
AcDbArc
 50
90.0
 51
106.5116637356
  0
ARC
  5
60
330
1F
100
AcDbEntity
  8
0
  6
Continuous
 62
     7
370
    15
100
AcDbCircle
 10
157.1087094961
 20
225.7885954258
 30
0.0
 40
100.0
100
AcDbArc
 50
253.4883362644
 51
270.0
  0
LINE
  5
61
330
1F
100
AcDbEntity
  8
0
  6
Continuous
 62
     7
370
    15
100
AcDbLine
 10
47.9087094961
 20
77.5385954258
 30
0.0
 11
59.4587094961
 21
77.5385954258
 31
0.0
  0
ARC
  5
62
330
1F
100
AcDbEntity
  8
0
  6
Continuous
 62
     7
370
    15
100
AcDbCircle
 10
59.4587094961
 20
75.6385954258
 30
0.0
 40
1.900000000000006
100
AcDbArc
 50
35.6630613694
 51
90.0
  0
ARC
  5
63
330
1F
100
AcDbEntity
  8
0
  6
Continuous
 62
     7
370
    15
100
AcDbCircle
 10
54.4587094961
 20
143.9385954258
 30
0.0
 40
1.900000000000017
100
AcDbArc
 50
270.0
 51
310.9212832533
  0
LINE
  5
64
330
1F
100
AcDbEntity
  8
0
  6
Continuous
 62
     7
370
    15
100
AcDbLine
 10
47.9087094961
 20
142.0385954258
 30
0.0
 11
46.3093933772
 21
140.4392793069
 31
0.0
  0
LINE
  5
65
330
1F
100
AcDbEntity
  8
0
  6
Continuous
 62
     7
370
    15
100
AcDbLine
 10
46.3102307471
 20
79.1370741747
 30
0.0
 11
47.9087094961
 21
77.5385954258
 31
0.0
  0
LINE
  5
66
330
1F
100
AcDbEntity
  8
0
  6
Continuous
 62
     7
370
    15
100
AcDbLine
 10
54.4587094961
 20
142.0385954258
 30
0.0
 11
47.9087094961
 21
142.0385954258
 31
0.0
  0
LINE
  5
67
330
1F
100
AcDbEntity
  8
0
  6
Continuous
 62
     7
370
    15
100
AcDbLine
 10
168.5856861438
 20
93.7885954258
 30
0.0
 11
243.291667973
 21
93.7885954258
 31
0.0
  0
LINE
  5
68
330
1F
100
AcDbEntity
  8
0
  6
Continuous
 62
     7
370
    15
100
AcDbLine
 10
157.1087094961
 20
93.7885954258
 30
0.0
 11
161.6455366
 21
93.7885954258
 31
0.0
  0
LINE
  5
69
330
1F
100
AcDbEntity
  8
0
  6
Continuous
 62
     7
370
    15
100
AcDbLine
 10
161.6126062087
 20
125.7885954258
 30
0.0
 11
157.1087094961
 21
125.7885954258
 31
0.0
  0
LINE
  5
6A
330
1F
100
AcDbEntity
  8
0
  6
Continuous
 62
     7
370
    15
100
AcDbLine
 10
243.291667973
 20
125.7885954258
 30
0.0
 11
168.569928194
 21
125.7885954258
 31
0.0
  0
LINE
  5
6B
330
1F
100
AcDbEntity
  8
0
  6
Continuous
 62
     7
370
    15
100
AcDbLine
 10
243.291667973
 20
93.7885954258
 30
0.0
 11
255.0039460196
 21
99.2501203733
 31
0.0
  0
LINE
  5
6C
330
1F
100
AcDbEntity
  8
0
  6
Continuous
 62
     7
370
    15
100
AcDbLine
 10
255.0039460196
 20
120.3270704782
 30
0.0
 11
243.291667973
 21
125.7885954258
 31
0.0
  0
ARC
  5
6D
330
1F
100
AcDbEntity
  8
0
  6
Continuous
 62
     7
370
    15
100
AcDbCircle
 10
254.1587094961
 20
101.0627359474
 30
0.0
 40
2.000000000000001
100
AcDbArc
 50
295.0
 51
0.0
  0
ARC
  5
6E
330
1F
100
AcDbEntity
  8
0
  6
Continuous
 62
     7
370
    15
100
AcDbCircle
 10
254.1587094961
 20
118.5144549042
 30
0.0
 40
2.000000000000001
100
AcDbArc
 50
0.0
 51
65.0
  0
CIRCLE
  5
6F
330
1F
100
AcDbEntity
  8
0
  6
Continuous
 62
     7
370
    15
100
AcDbCircle
 10
238.6587094961
 20
109.7885954258
 30
0.0
 40
3.399999999999972
  0
LINE
  5
70
330
1F
100
AcDbEntity
  8
0
  6
Continuous
 62
     7
370
    15
100
AcDbLine
 10
238.8259392007
 20
112.0919337768
 30
0.0
 11
240.7370738739
 21
110.7954394288
 31
0.0
  0
LINE
  5
71
330
1F
100
AcDbEntity
  8
0
  6
Continuous
 62
     7
370
    15
100
AcDbLine
 10
238.4914797915
 20
107.4852570748
 30
0.0
 11
240.5698441693
 21
108.4921010778
 31
0.0
  0
LINE
  5
72
330
1F
100
AcDbEntity
  8
0
  6
Continuous
 62
     7
370
    15
100
AcDbLine
 10
240.5698441693
 20
108.4921010778
 30
0.0
 11
240.7370738739
 21
110.7954394288
 31
0.0
  0
LINE
  5
73
330
1F
100
AcDbEntity
  8
0
  6
Continuous
 62
     7
370
    15
100
AcDbLine
 10
238.4914797915
 20
107.4852570748
 30
0.0
 11
236.5803451183
 21
108.7817514228
 31
0.0
  0
LINE
  5
74
330
1F
100
AcDbEntity
  8
0
  6
Continuous
 62
     7
370
    15
100
AcDbLine
 10
236.7475748229
 20
111.0850897738
 30
0.0
 11
236.5803451183
 21
108.7817514228
 31
0.0
  0
LINE
  5
75
330
1F
100
AcDbEntity
  8
0
  6
Continuous
 62
     7
370
    15
100
AcDbLine
 10
236.7475748229
 20
111.0850897738
 30
0.0
 11
238.8259392007
 21
112.0919337768
 31
0.0
  0
LWPOLYLINE
  5
76
330
1F
100
AcDbEntity
  8
0
  6
Continuous
 62
     7
370
    15
100
AcDbPolyline
 90
        7
 70
   128
 43
0.0
 10
256.1587094961
 20
114.5891261879
 10
256.1631190298
 20
114.738690845
 10
256.1734975337
 20
115.205229177
 10
256.1771419796
 20
115.6008128448
 10
256.1734975337
 20
115.8652178211
 10
256.1631190298
 20
115.958190845
 10
256.1587094961
 20
115.9490381336
  0
ARC
  5
77
330
1F
100
AcDbEntity
  8
0
  6
Continuous
 62
     7
370
    15
100
AcDbCircle
 10
236.6800864431
 20
104.3141649095
 30
0.0
 40
19.55577392589286
100
AcDbArc
 50
357.9718982864
 51
5.0911211554
  0
LINE
  5
78
330
1F
100
AcDbEntity
  8
0
  6
Continuous
 62
     7
370
    15
100
AcDbLine
 10
124.1087094961
 20
61.0136018328
 30
0.0
 11
119.420738517
 21
61.0136018328
 31
0.0
  0
LINE
  5
79
330
1F
100
AcDbEntity
  8
0
  6
Continuous
 62
     7
370
    15
100
AcDbLine
 10
119.420738517
 20
61.0136018328
 30
0.0
 11
119.420738517
 21
141.1385954258
 31
0.0
  0
LINE
  5
7A
330
1F
100
AcDbEntity
  8
0
  6
Continuous
 62
     7
370
    15
100
AcDbLine
 10
119.420738517
 20
141.1385954258
 30
0.0
 11
124.1087094961
 21
141.1385954258
 31
0.0
  0
LINE
  5
7B
330
1F
100
AcDbEntity
  8
0
  6
Continuous
 62
     7
370
    15
100
AcDbLine
 10
125.1087094961
 20
62.0392498805
 30
0.0
 11
125.1087094961
 21
141.1385954258
 31
0.0
  0
SPLINE
  5
7C
330
1F
100
AcDbEntity
  8
0
  6
Continuous
 62
     7
370
    15
100
AcDbSpline
210
0.0
220
0.0
230
1.0
 70
     8
 71
     3
 72
    14
 73
    10
 74
     0
 42
0.00000001
 43
0.00000001
 40
0.0
 40
0.0
 40
0.0
 40
0.0
 40
0.25
 40
0.25
 40
0.5
 40
0.5
 40
0.75
 40
0.75
 40
1.0
 40
1.0
 40
1.0
 40
1.0
 10
125.108709496093
 20
62.0392498805297
 30
0.0
 10
125.108709496093
 20
61.90582418447516
 30
0.0
 10
125.0833983961821
 20
61.77397637663081
 30
0.0
 10
124.9850636323374
 20
61.52745382793671
 30
0.0
 10
124.9119196280813
 20
61.41364863969616
 30
0.0
 10
124.7284815669856
 20
61.22319146274889
 30
0.0
 10
124.616795232647
 20
61.14555659889898
 30
0.0
 10
124.3742918023407
 20
61.0412651887865
 30
0.0
 10
124.2409173736465
 20
61.01360183275415
 30
0.0
 10
124.108709496093
 20
61.01360183275415
 30
0.0
  0
SPLINE
  5
7D
330
1F
100
AcDbEntity
  8
0
  6
Continuous
 62
     7
370
    15
100
AcDbSpline
210
0.0
220
0.0
230
1.0
 70
    24
 71
     3
 72
    12
 73
     8
 74
     0
 42
0.00000001
 43
0.00000001
 40
0.0
 40
0.0
 40
0.0
 40
0.0
 40
0.2500000000000032
 40
0.2500000000000032
 40
0.5000000000000064
 40
0.5000000000000064
 40
1.0
 40
1.0
 40
1.0
 40
1.0
 10
124.108709496093
 20
141.138595425783
 30
0.0
 10
124.260799733038
 20
141.138595425783
 30
0.0
 10
124.4092589941134
 20
141.138595425783
 30
0.0
 10
124.6666626263791
 20
141.138595425783
 30
0.0
 10
124.775767374221
 20
141.138595425783
 30
0.0
 10
125.0298268506286
 20
141.138595425783
 30
0.0
 10
125.108709496093
 20
141.138595425783
 30
0.0
 10
125.108709496093
 20
141.138595425783
 30
0.0
  0
LINE
  5
7E
330
1F
100
AcDbEntity
  8
0
  6
Continuous
 62
     7
370
    15
100
AcDbLine
 10
114.2487094961
 20
63.4172071388
 30
0.0
 11
114.2487094961
 21
141.1385954258
 31
0.0
  0
SPLINE
  5
7F
330
1F
100
AcDbEntity
  8
0
  6
Continuous
 62
     7
370
    15
100
AcDbSpline
210
0.0
220
0.0
230
1.0
 70
     8
 71
     3
 72
     8
 73
     4
 74
     0
 42
0.00000001
 43
0.00000001
 40
0.0
 40
0.0
 40
0.0
 40
0.0
 40
1.0
 40
1.0
 40
1.0
 40
1.0
 10
114.248709496093
 20
63.41720713875954
 30
0.0
 10
113.7984830318152
 20
62.61575177613476
 30
0.0
 10
113.3477852045718
 20
61.81456176457411
 30
0.0
 10
112.8966804751716
 20
61.01360183275419
 30
0.0
  0
LINE
  5
80
330
1F
100
AcDbEntity
  8
0
  6
Continuous
 62
     7
370
    15
100
AcDbLine
 10
112.8966804752
 20
61.0136018328
 30
0.0
 11
112.8966804752
 21
141.1385954258
 31
0.0
  0
SPLINE
  5
81
330
1F
100
AcDbEntity
  8
0
  6
Continuous
 62
     7
370
    15
100
AcDbSpline
210
0.0
220
0.0
230
1.0
 70
    24
 71
     3
 72
     8
 73
     4
 74
     0
 42
0.00000001
 43
0.00000001
 40
0.0
 40
0.0
 40
0.0
 40
0.0
 40
1.0
 40
1.0
 40
1.0
 40
1.0
 10
112.8966804751716
 20
141.138595425783
 30
0.0
 10
113.3534820474998
 20
141.138595425783
 30
0.0
 10
113.804496613739
 20
141.138595425783
 30
0.0
 10
114.248709496093
 20
141.138595425783
 30
0.0
  0
LINE
  5
82
330
1F
100
AcDbEntity
  8
0
  6
Continuous
 62
     7
370
    15
100
AcDbLine
 10
96.1587094961
 20
60.2885954258
 30
0.0
 11
96.1587094961
 21
159.2885954231
 31
0.0
  0
LINE
  5
83
330
1F
100
AcDbEntity
  8
0
  6
Continuous
 62
     7
370
    15
100
AcDbLine
 10
101.1087094961
 20
141.1385954258
 30
0.0
 11
112.8966804752
 21
141.1385954258
 31
0.0
  0
LINE
  5
84
330
1F
100
AcDbEntity
  8
0
  6
Continuous
 62
     7
370
    15
100
AcDbLine
 10
112.8966804752
 20
61.0136018328
 30
0.0
 11
111.1087094961
 21
61.0136018328
 31
0.0
  0
SPLINE
  5
85
330
1F
100
AcDbEntity
  8
0
  6
Continuous
 62
     7
370
    15
100
AcDbSpline
210
0.0
220
0.0
230
1.0
 70
     8
 71
     3
 72
    30
 73
    26
 74
     0
 42
0.00000001
 43
0.00000001
 40
0.0
 40
0.0
 40
0.0
 40
0.0
 40
0.1250000000000002
 40
0.1250000000000002
 40
0.1875000000000003
 40
0.1875000000000003
 40
0.2500000000000004
 40
0.2500000000000004
 40
0.3750000000000001
 40
0.3750000000000001
 40
0.4374999999999998
 40
0.4374999999999998
 40
0.4999999999999996
 40
0.4999999999999996
 40
0.6249999999999996
 40
0.6249999999999996
 40
0.6874999999999997
 40
0.6874999999999997
 40
0.7499999999999997
 40
0.7499999999999997
 40
0.8124999999999998
 40
0.8124999999999998
 40
0.8749999999999999
 40
0.8749999999999999
 40
1.0
 40
1.0
 40
1.0
 40
1.0
 10
111.108709496093
 20
61.01360183275419
 30
0.0
 10
110.4459648022479
 20
61.0136018327542
 30
0.0
 10
109.7947089431322
 20
60.99876175616539
 30
0.0
 10
108.834258404874
 20
60.95639219193576
 30
0.0
 10
108.516866961641
 20
60.9389140891566
 30
0.0
 10
107.8877034600861
 20
60.89758580260428
 30
0.0
 10
107.5755552736444
 20
60.87366052914659
 30
0.0
 10
106.6682479717961
 20
60.79485401267968
 30
0.0
 10
106.0948230141549
 20
60.73254799270322
 30
0.0
 10
105.2809461445802
 20
60.62941867246386
 30
0.0
 10
105.0161399480104
 20
60.59323475341734
 30
0.0
 10
104.509232537196
 20
60.51943996921684
 30
0.0
 10
104.2678383858425
 20
60.48196611044519
 30
0.0
 10
103.5786969137102
 20
60.36925416710546
 30
0.0
 10
103.165642098846
 20
60.29371806963168
 30
0.0
 10
102.6174872794709
 20
60.18532481261418
 30
0.0
 10
102.4480246721253
 20
60.15025258095092
 30
0.0
 10
102.14000742411
 20
60.08401712035107
 30
0.0
 10
102.0006274035016
 20
60.05269042359635
 30
0.0
 10
101.7508418908748
 20
59.99428165201542
 30
0.0
 10
101.6404357782209
 20
59.96719841683257
 30
0.0
 10
101.4491779245832
 20
59.91793866221899
 30
0.0
 10
101.3680584062989
 20
59.89567668241133
 30
0.0
 10
101.1739114861905
 20
59.83810977524306
 30
0.0
 10
101.108709496093
 20
59.81185017045707
 30
0.0
 10
101.108709496093
 20
59.79859642598304
 30
0.0
  0
LINE
  5
86
330
1F
100
AcDbEntity
  8
0
  6
Continuous
 62
     7
370
    15
100
AcDbLine
 10
101.1087094961
 20
59.798596426
 30
0.0
 11
101.1087094961
 21
59.7885954258
 31
0.0
  0
SPLINE
  5
87
330
1F
100
AcDbEntity
  8
0
  6
Continuous
 62
     7
370
    15
100
AcDbSpline
210
0.0
220
0.0
230
1.0
 70
     8
 71
     3
 72
    17
 73
    13
 74
     0
 42
0.00000001
 43
0.00000001
 40
0.0
 40
0.0
 40
0.0
 40
0.0
 40
0.104384384054747
 40
0.2118345768143993
 40
0.316208200519045
 40
0.4235375806108392
 40
0.5292276236193852
 40
0.6379275864803491
 40
0.7444714844189683
 40
0.8541836219421859
 40
0.9593080534965217
 40
1.0
 40
1.0
 40
1.0
 40
1.0
 10
111.108709496093
 20
158.7783902814465
 30
0.0
 10
110.5607710482336
 20
158.7837584851953
 30
0.0
 10
109.4488009937689
 20
158.7946525588603
 30
0.0
 10
107.8359450805539
 20
158.8798299331192
 30
0.0
 10
106.302431863577
 20
159.0062046394118
 30
0.0
 10
104.9114110142404
 20
159.1631074599886
 30
0.0
 10
103.67589449701
 20
159.3348062895091
 30
0.0
 10
102.6525387298548
 20
159.5001425656102
 30
0.0
 10
101.8521967315896
 20
159.6438560451968
 30
0.0
 10
101.3418646296761
 20
159.7420108523759
 30
0.0
 10
101.1019562008515
 20
159.7899392492458
 30
0.0
 10
101.1338749802713
 20
159.7835718500062
 30
0.0
 10
101.1427823285535
 20
159.781794944883
 30
0.0
  0
LINE
  5
88
330
1F
100
AcDbEntity
  8
0
  6
Continuous
 62
     7
370
    15
100
AcDbLine
 10
112.8966804752
 20
158.7783902814
 30
0.0
 11
111.1087094961
 21
158.7783902814
 31
0.0
  0
LINE
  5
89
330
1F
100
AcDbEntity
  8
0
  6
Continuous
 62
     7
370
    15
100
AcDbLine
 10
112.8966804752
 20
148.7395581867
 30
0.0
 11
112.8966804752
 21
158.7783902814
 31
0.0
  0
LINE
  5
8A
330
1F
100
AcDbEntity
  8
0
  6
Continuous
 62
     7
370
    15
100
AcDbLine
 10
110.8166763443
 20
148.7395581867
 30
0.0
 11
112.8966804752
 21
148.7395581867
 31
0.0
  0
SPLINE
  5
8B
330
1F
100
AcDbEntity
  8
0
  6
Continuous
 62
     7
370
    15
100
AcDbSpline
210
0.0
220
0.0
230
1.0
 70
     8
 71
     3
 72
    22
 73
    18
 74
     0
 42
0.00000001
 43
0.00000001
 40
0.0
 40
0.0
 40
0.0
 40
0.0
 40
0.2500000000000002
 40
0.2500000000000002
 40
0.3750000000000003
 40
0.3750000000000003
 40
0.5000000000000004
 40
0.5000000000000004
 40
0.6250000000000004
 40
0.6250000000000004
 40
0.7500000000000004
 40
0.7500000000000004
 40
0.8750000000000004
 40
0.8750000000000004
 40
0.9375000000000002
 40
0.9375000000000002
 40
1.0
 40
1.0
 40
1.0
 40
1.0
 10
101.108709496093
 20
141.138595425783
 30
0.0
 10
101.3114344520121
 20
142.1578417676476
 30
0.0
 10
101.6261781738074
 20
143.1169499175869
 30
0.0
 10
102.3342336434784
 20
144.4594289950962
 30
0.0
 10
102.612696273696
 20
144.8936375778362
 30
0.0
 10
103.2514636803332
 20
145.7052652933383
 30
0.0
 10
103.6118773601234
 20
146.0845455862751
 30
0.0
 10
104.4294095921127
 20
146.7875041652962
 30
0.0
 10
104.8905775753998
 20
147.1125329829968
 30
0.0
 10
105.8885678218836
 20
147.6775483063876
 30
0.0
 10
106.4283270158759
 20
147.9212519005942
 30
0.0
 10
107.6029199799072
 20
148.3254518282391
 30
0.0
 10
108.2146561658991
 20
148.4778890212846
 30
0.0
 10
109.1665653907608
 20
148.6332165688933
 30
0.0
 10
109.4897985550215
 20
148.6727213489434
 30
0.0
 10
110.1488617262967
 20
148.7260304696121
 30
0.0
 10
110.4829257368707
 20
148.7395581866699
 30
0.0
 10
110.8166763442723
 20
148.7395581866699
 30
0.0
  0
SPLINE
  5
8C
330
1F
100
AcDbEntity
  8
0
  6
Continuous
 62
     7
370
    15
100
AcDbSpline
210
0.0
220
0.0
230
1.0
 70
     8
 71
     3
 72
    80
 73
    76
 74
     0
 42
0.00000001
 43
0.00000001
 40
-0.0312499999999993
 40
-0.0312499999999993
 40
0.0
 40
0.0
 40
0.03125
 40
0.03125
 40
0.046875
 40
0.046875
 40
0.0625
 40
0.0625
 40
0.09375
 40
0.09375
 40
0.1250000000000001
 40
0.1250000000000001
 40
0.1562500000000001
 40
0.1562500000000001
 40
0.1875000000000001
 40
0.1875000000000001
 40
0.2187500000000002
 40
0.2187500000000002
 40
0.2500000000000002
 40
0.2500000000000002
 40
0.2812500000000003
 40
0.2812500000000003
 40
0.3125000000000003
 40
0.3125000000000003
 40
0.3281250000000004
 40
0.3281250000000004
 40
0.3437500000000006
 40
0.3437500000000006
 40
0.3750000000000011
 40
0.3750000000000011
 40
0.4062500000000016
 40
0.4062500000000016
 40
0.4218750000000018
 40
0.4218750000000018
 40
0.437500000000002
 40
0.437500000000002
 40
0.4687500000000023
 40
0.4687500000000023
 40
0.5000000000000027
 40
0.5000000000000027
 40
0.531250000000003
 40
0.531250000000003
 40
0.5625000000000033
 40
0.5625000000000033
 40
0.5937500000000037
 40
0.5937500000000037
 40
0.6250000000000039
 40
0.6250000000000039
 40
0.6562500000000042
 40
0.6562500000000042
 40
0.6875000000000046
 40
0.6875000000000046
 40
0.7031250000000047
 40
0.7031250000000047
 40
0.7187500000000048
 40
0.7187500000000048
 40
0.7500000000000048
 40
0.7500000000000048
 40
0.7812500000000048
 40
0.7812500000000048
 40
0.7968750000000044
 40
0.7968750000000044
 40
0.8125000000000041
 40
0.8125000000000041
 40
0.8437500000000034
 40
0.8437500000000034
 40
0.8750000000000027
 40
0.8750000000000027
 40
0.906250000000002
 40
0.906250000000002
 40
0.9375000000000013
 40
0.9375000000000013
 40
0.9687500000000007
 40
0.9687500000000007
 40
1.0
 40
1.0
 40
1.03125
 40
1.03125
 10
105.4892548088692
 20
153.2032248894143
 30
0.0
 10
104.8281641833167
 20
153.2032248894143
 30
0.0
 10
104.503184054065
 20
153.2194331207965
 30
0.0
 10
104.0237106428186
 20
153.266797752816
 30
0.0
 10
103.8652288249778
 20
153.2864519647067
 30
0.0
 10
103.5510092924735
 20
153.3335631208993
 30
0.0
 10
103.3948890087931
 20
153.361144440394
 30
0.0
 10
102.9408349798365
 20
153.4536802271878
 30
0.0
 10
102.6537315968967
 20
153.5287506607843
 30
0.0
 10
102.1103770408697
 20
153.7039889693949
 30
0.0
 10
101.8532734296641
 20
153.8049902672332
 30
0.0
 10
101.3923671747253
 20
154.022346465694
 30
0.0
 10
101.1854694655104
 20
154.1395107974662
 30
0.0
 10
100.8199441515182
 20
154.3895807216949
 30
0.0
 10
100.6647386293922
 20
154.5205268104539
 30
0.0
 10
100.4153082427925
 20
154.7862617541662
 30
0.0
 10
100.3192182870073
 20
154.9230153474772
 30
0.0
 10
100.1906994378137
 20
155.1970809223162
 30
0.0
 10
100.158888567636
 20
155.332021012785
 30
0.0
 10
100.1585319178627
 20
155.5974926498538
 30
0.0
 10
100.1910291700598
 20
155.729317126995
 30
0.0
 10
100.3186546437743
 20
155.9787667266154
 30
0.0
 10
100.4130830448261
 20
156.0971994185434
 30
0.0
 10
100.6009438648117
 20
156.2660686156375
 30
0.0
 10
100.6717718636149
 20
156.3211546107577
 30
0.0
 10
100.8264937555802
 20
156.4264074392461
 30
0.0
 10
100.9104702257635
 20
156.4767426680064
 30
0.0
 10
101.181793895408
 20
156.6213185005445
 30
0.0
 10
101.3883431140103
 20
156.7091800869615
 30
0.0
 10
101.8549532541993
 20
156.868901179961
 30
0.0
 10
102.1073188238248
 20
156.9381394764282
 30
0.0
 10
102.5132201655035
 20
157.027926865658
 30
0.0
 10
102.653120782981
 20
157.0554928277442
 30
0.0
 10
102.9423447182279
 20
157.1059836286706
 30
0.0
 10
103.0921841745172
 20
157.1289470675212
 30
0.0
 10
103.546300744128
 20
157.1895775839401
 30
0.0
 10
103.8579519628648
 20
157.2196516127359
 30
0.0
 10
104.4989484277772
 20
157.2602411999945
 30
0.0
 10
104.8304760557294
 20
157.2705534302106
 30
0.0
 10
105.4832671008009
 20
157.2706289973764
 30
0.0
 10
105.8078033058327
 20
157.2607273919086
 30
0.0
 10
106.4530727552491
 20
157.2202408613834
 30
0.0
 10
106.7688157614118
 20
157.1897795614987
 30
0.0
 10
107.3707050563955
 20
157.1096288900621
 30
0.0
 10
107.661454287207
 20
157.059346658255
 30
0.0
 10
108.2083660788915
 20
156.938676475482
 30
0.0
 10
108.4601434427284
 20
156.869452616312
 30
0.0
 10
108.9215314353496
 20
156.7120008886713
 30
0.0
 10
109.1328007149476
 20
156.6226524139976
 30
0.0
 10
109.4961050673238
 20
156.4294045432967
 30
0.0
 10
109.6499117157666
 20
156.3252765514175
 30
0.0
 10
109.838531185364
 20
156.156652165234
 30
0.0
 10
109.8945616715731
 20
156.098023763559
 30
0.0
 10
109.9901354333093
 20
155.9785688487328
 30
0.0
 10
110.0298983503343
 20
155.9176490598946
 30
0.0
 10
110.1256701006464
 20
155.7312443337207
 30
0.0
 10
110.1583929397726
 20
155.6021315159257
 30
0.0
 10
110.1590215261016
 20
155.3334745929698
 30
0.0
 10
110.1268353813669
 20
155.198103852213
 30
0.0
 10
110.0319246795113
 20
154.9945535439771
 30
0.0
 10
109.9924578961123
 20
154.9265816199136
 30
0.0
 10
109.8975278973914
 20
154.7904893967828
 30
0.0
 10
109.8417710696281
 20
154.7221392965733
 30
0.0
 10
109.6538309516582
 20
154.5214362835312
 30
0.0
 10
109.500469481942
 20
154.3920480097185
 30
0.0
 10
109.1382052470616
 20
154.1433825776686
 30
0.0
 10
108.9273567735957
 20
154.0235729353005
 30
0.0
 10
108.4666868032768
 20
153.8060506477278
 30
0.0
 10
108.215312423693
 20
153.7069655478919
 30
0.0
 10
107.6694045367949
 20
153.530293073975
 30
0.0
 10
107.3785819621436
 20
153.454235985841
 30
0.0
 10
106.7772553473636
 20
153.331391008488
 30
0.0
 10
106.4627367627512
 20
153.2836848834349
 30
0.0
 10
105.8161553066313
 20
153.2194363483153
 30
0.0
 10
105.4892548088692
 20
153.2032248894143
 30
0.0
 10
104.8281641833167
 20
153.2032248894143
 30
0.0
  0
SPLINE
  5
8D
330
1F
100
AcDbEntity
  8
0
  6
Continuous
 62
     7
370
    15
100
AcDbSpline
210
0.0
220
0.0
230
1.0
 70
     8
 71
     3
 72
     8
 73
     4
 74
     0
 42
0.00000001
 43
0.00000001
 40
0.0
 40
0.0
 40
0.0
 40
0.0
 40
1.0
 40
1.0
 40
1.0
 40
1.0
 10
119.4207385170143
 20
61.01360183275419
 30
0.0
 10
118.9696337876141
 20
61.81456176457411
 30
0.0
 10
118.5189359603707
 20
62.61575177613476
 30
0.0
 10
118.068709496093
 20
63.41720713875954
 30
0.0
  0
LINE
  5
8E
330
1F
100
AcDbEntity
  8
0
  6
Continuous
 62
     7
370
    15
100
AcDbLine
 10
118.0687094961
 20
63.4172071388
 30
0.0
 11
118.0687094961
 21
141.1385954258
 31
0.0
  0
SPLINE
  5
8F
330
1F
100
AcDbEntity
  8
0
  6
Continuous
 62
     7
370
    15
100
AcDbSpline
210
0.0
220
0.0
230
1.0
 70
    24
 71
     3
 72
     8
 73
     4
 74
     0
 42
0.00000001
 43
0.00000001
 40
0.0
 40
0.0
 40
0.0
 40
0.0
 40
1.0
 40
1.0
 40
1.0
 40
1.0
 10
118.068709496093
 20
141.138595425783
 30
0.0
 10
118.5129223784469
 20
141.138595425783
 30
0.0
 10
118.9639369446861
 20
141.138595425783
 30
0.0
 10
119.4207385170143
 20
141.138595425783
 30
0.0
  0
SPLINE
  5
90
330
1F
100
AcDbEntity
  8
0
  6
Continuous
 62
     7
370
    15
100
AcDbSpline
210
0.0
220
0.0
230
1.0
 70
     8
 71
     3
 72
    12
 73
     8
 74
     0
 42
0.00000001
 43
0.00000001
 40
0.0
 40
0.0
 40
0.0
 40
0.0
 40
0.250000000000003
 40
0.250000000000003
 40
0.500000000000006
 40
0.500000000000006
 40
1.0
 40
1.0
 40
1.0
 40
1.0
 10
115.048709496093
 20
65.14891996773336
 30
0.0
 10
114.942948842744
 20
65.14891996773335
 30
0.0
 10
114.8349612145611
 20
65.12638046173295
 30
0.0
 10
114.6403665492955
 20
65.04180982973762
 30
0.0
 10
114.5514946364566
 20
64.9793281769788
 30
0.0
 10
114.3323023441307
 20
64.7499392255066
 30
0.0
 10
114.2487094960929
 20
64.53735588798418
 30
0.0
 10
114.2487094960929
 20
64.32541664338795
 30
0.0
  0
SPLINE
  5
91
330
1F
100
AcDbEntity
  8
0
  6
Continuous
 62
     7
370
    15
100
AcDbSpline
210
0.0
220
0.0
230
1.0
 70
    24
 71
     3
 72
    14
 73
    10
 74
     0
 42
0.00000001
 43
0.00000001
 40
0.0
 40
0.0
 40
0.0
 40
0.0
 40
0.25
 40
0.25
 40
0.5
 40
0.5
 40
0.75
 40
0.75
 40
1.0
 40
1.0
 40
1.0
 40
1.0
 10
114.2487094960929
 20
141.138595425783
 30
0.0
 10
114.2487094960929
 20
141.138595425783
 30
0.0
 10
114.2644238165589
 20
141.138595425783
 30
0.0
 10
114.3281077950273
 20
141.138595425783
 30
0.0
 10
114.3767109894377
 20
141.138595425783
 30
0.0
 10
114.5093945118633
 20
141.138595425783
 30
0.0
 10
114.594496616174
 20
141.138595425783
 30
0.0
 10
114.800938851084
 20
141.138595425783
 30
0.0
 10
114.9250197927071
 20
141.138595425783
 30
0.0
 10
115.048709496093
 20
141.138595425783
 30
0.0
  0
SPLINE
  5
92
330
1F
100
AcDbEntity
  8
0
  6
Continuous
 62
     7
370
    15
100
AcDbSpline
210
0.0
220
0.0
230
1.0
 70
     8
 71
     3
 72
    14
 73
    10
 74
     0
 42
0.00000001
 43
0.00000001
 40
0.0
 40
0.0
 40
0.0
 40
0.0
 40
0.25
 40
0.25
 40
0.5
 40
0.5
 40
0.75
 40
0.75
 40
1.0
 40
1.0
 40
1.0
 40
1.0
 10
118.068709496093
 20
64.32541664338812
 30
0.0
 10
118.068709496093
 20
64.4324607243825
 30
0.0
 10
118.0485918089348
 20
64.53769586462494
 30
0.0
 10
117.9701006196692
 20
64.73554635147264
 30
0.0
 10
117.911943994868
 20
64.82659811503754
 30
0.0
 10
117.7654287392499
 20
64.97976420896232
 30
0.0
 10
117.6767861906088
 20
65.04205865517173
 30
0.0
 10
117.4810628678085
 20
65.12685244070774
 30
0.0
 10
117.3758316767376
 20
65.14891996773335
 30
0.0
 10
117.268709496093
 20
65.14891996773336
 30
0.0
  0
SPLINE
  5
93
330
1F
100
AcDbEntity
  8
0
  6
Continuous
 62
     7
370
    15
100
AcDbSpline
210
0.0
220
0.0
230
1.0
 70
    24
 71
     3
 72
    14
 73
    10
 74
     0
 42
0.00000001
 43
0.00000001
 40
0.0
 40
0.0
 40
0.0
 40
0.0
 40
0.25
 40
0.25
 40
0.5
 40
0.5
 40
0.75
 40
0.75
 40
1.0
 40
1.0
 40
1.0
 40
1.0
 10
117.268709496093
 20
141.138595425783
 30
0.0
 10
117.3924792608581
 20
141.138595425783
 30
0.0
 10
117.516846364865
 20
141.138595425783
 30
0.0
 10
117.723202833591
 20
141.138595425783
 30
0.0
 10
117.8085309770094
 20
141.138595425783
 30
0.0
 10
117.9407230357246
 20
141.138595425783
 30
0.0
 10
117.9893682794752
 20
141.138595425783
 30
0.0
 10
118.052904071204
 20
141.138595425783
 30
0.0
 10
118.068709496093
 20
141.138595425783
 30
0.0
 10
118.068709496093
 20
141.138595425783
 30
0.0
  0
LINE
  5
94
330
1F
100
AcDbEntity
  8
0
  6
Continuous
 62
     7
370
    15
100
AcDbLine
 10
117.2687094961
 20
65.1489199677
 30
0.0
 11
115.0487094961
 21
65.1489199677
 31
0.0
  0
LINE
  5
95
330
1F
100
AcDbEntity
  8
0
  6
Continuous
 62
     7
370
    15
100
AcDbLine
 10
115.0487094961
 20
141.1385954258
 30
0.0
 11
117.2687094961
 21
141.1385954258
 31
0.0
  0
LINE
  5
96
330
1F
100
AcDbEntity
  8
0
  6
Continuous
 62
     7
370
    15
100
AcDbLine
 10
93.6587094961
 20
71.9063439228
 30
0.0
 11
93.6587094961
 21
147.6708469288
 31
0.0
  0
LINE
  5
97
330
1F
100
AcDbEntity
  8
0
  6
Continuous
 62
     7
370
    15
100
AcDbLine
 10
61.3587094961
 20
73.5245803957
 30
0.0
 11
61.3587094961
 21
75.9192621604
 31
0.0
  0
SPLINE
  5
98
330
1F
100
AcDbEntity
  8
0
  6
Continuous
 62
     7
370
    15
100
AcDbSpline
210
0.0
220
0.0
230
1.0
 70
     8
 71
     3
 72
    14
 73
    10
 74
     0
 42
0.00000001
 43
0.00000001
 40
0.0
 40
0.0
 40
0.0
 40
0.0
 40
0.25
 40
0.25
 40
0.5
 40
0.5
 40
0.75
 40
0.75
 40
1.0
 40
1.0
 40
1.0
 40
1.0
 10
60.35428702475601
 20
77.62211408203947
 30
0.0
 10
60.44305560270133
 20
77.46357995073153
 30
0.0
 10
60.56477344138024
 20
77.31113727384296
 30
0.0
 10
60.79982305123707
 20
77.01400265001404
 30
0.0
 10
60.91545323745397
 20
76.86932000639668
 30
0.0
 10
61.11585817088178
 20
76.58603080389327
 30
0.0
 10
61.20125846286611
 20
76.44747681085643
 30
0.0
 10
61.32296409658333
 20
76.17609278082288
 30
0.0
 10
61.35870949609598
 20
76.04395691218826
 30
0.0
 10
61.35870949609597
 20
75.9192621604175
 30
0.0
  0
SPLINE
  5
99
330
1F
100
AcDbEntity
  8
0
  6
Continuous
 62
     7
370
    15
100
AcDbSpline
210
0.0
220
0.0
230
1.0
 70
     8
 71
     3
 72
    14
 73
    10
 74
     0
 42
0.00000001
 43
0.00000001
 40
0.0
 40
0.0
 40
0.0
 40
0.0
 40
0.124999999999999
 40
0.124999999999999
 40
0.249999999999998
 40
0.249999999999998
 40
0.5000000000000007
 40
0.5000000000000007
 40
1.0
 40
1.0
 40
1.0
 40
1.0
 10
59.45870949609297
 20
78.25094402113957
 30
0.0
 10
59.52629179587746
 20
78.25809990624097
 30
0.0
 10
59.59877937362536
 20
78.25367543620196
 30
0.0
 10
59.7310704828913
 20
78.22396927843161
 30
0.0
 10
59.78834786228148
 20
78.20068499685338
 30
0.0
 10
59.93799828948176
 20
78.12319975700306
 30
0.0
 10
60.01171158500326
 20
78.06134793010169
 30
0.0
 10
60.1995195683295
 20
77.87667047745337
 30
0.0
 10
60.28355987469094
 20
77.74842755416216
 30
0.0
 10
60.35428702475723
 20
77.62211408203957
 30
0.0
  0
SPLINE
  5
9A
330
1F
100
AcDbEntity
  8
0
  6
Continuous
 62
     7
370
    15
100
AcDbSpline
210
0.0
220
0.0
230
1.0
 70
     8
 71
     3
 72
     8
 73
     4
 74
     0
 42
0.00000001
 43
0.00000001
 40
0.0
 40
0.0
 40
0.0
 40
0.0
 40
1.0
 40
1.0
 40
1.0
 40
1.0
 10
55.91406910801218
 20
77.8328954363478
 30
0.0
 10
57.07936741872105
 20
77.98808290823442
 30
0.0
 10
58.26398263276086
 20
78.12444154654474
 30
0.0
 10
59.45870949609294
 20
78.25094402113957
 30
0.0
  0
SPLINE
  5
9B
330
1F
100
AcDbEntity
  8
0
  6
Continuous
 62
     7
370
    15
100
AcDbSpline
210
0.0
220
0.0
230
1.0
 70
     8
 71
     3
 72
    14
 73
    10
 74
     0
 42
0.00000001
 43
0.00000001
 40
0.0
 40
0.0
 40
0.0
 40
0.0
 40
0.5000000000000012
 40
0.5000000000000012
 40
0.7500000000000018
 40
0.7500000000000018
 40
0.8750000000000009
 40
0.8750000000000009
 40
1.0
 40
1.0
 40
1.0
 40
1.0
 10
48.15863461206263
 20
77.54276325721787
 30
0.0
 10
49.46693617459663
 20
77.54977798095898
 30
0.0
 10
50.77199554925374
 20
77.56518655740346
 30
0.0
 10
52.71787160074243
 20
77.61908311287011
 30
0.0
 10
53.36456910448159
 20
77.64211467747283
 30
0.0
 10
54.32841146833614
 20
77.69305720234358
 30
0.0
 10
54.64865016027029
 20
77.71279212457678
 30
0.0
 10
55.28534538661284
 20
77.76227925304836
 30
0.0
 10
55.60206079489583
 20
77.7913440319776
 30
0.0
 10
55.91406910801222
 20
77.83289543634775
 30
0.0
  0
SPLINE
  5
9C
330
1F
100
AcDbEntity
  8
0
  6
Continuous
 62
     7
370
    15
100
AcDbSpline
210
0.0
220
0.0
230
1.0
 70
     8
 71
     3
 72
    12
 73
     8
 74
     0
 42
0.00000001
 43
0.00000001
 40
0.0
 40
0.0
 40
0.0
 40
0.0
 40
0.2500000000000001
 40
0.2500000000000001
 40
0.5000000000000001
 40
0.5000000000000001
 40
1.0
 40
1.0
 40
1.0
 40
1.0
 10
54.45870949609296
 20
141.8751183172794
 30
0.0
 10
53.94001067426478
 20
141.9076410921277
 30
0.0
 10
53.41829910105979
 20
141.9309378332981
 30
0.0
 10
52.37200708456422
 20
141.9687833477203
 30
0.0
 10
51.84733545889394
 20
141.9830518222164
 30
0.0
 10
50.27048943635473
 20
142.0172613096747
 30
0.0
 10
49.21553412180785
 20
142.0287608136186
 30
0.0
 10
48.15863461206261
 20
142.0344275943481
 30
0.0
  0
SPLINE
  5
9D
330
1F
100
AcDbEntity
  8
0
  6
Continuous
 62
     7
370
    15
100
AcDbSpline
210
0.0
220
0.0
230
1.0
 70
     8
 71
     3
 72
    20
 73
    16
 74
     0
 42
0.00000001
 43
0.00000001
 40
0.0
 40
0.0
 40
0.0
 40
0.0
 40
0.2500000000000011
 40
0.2500000000000011
 40
0.5000000000000021
 40
0.5000000000000021
 40
0.7500000000000031
 40
0.7500000000000031
 40
0.8750000000000008
 40
0.8750000000000008
 40
0.9375000000000006
 40
0.9375000000000006
 40
0.9687500000000003
 40
0.9687500000000003
 40
1.0
 40
1.0
 40
1.0
 40
1.0
 10
56.35870949609296
 20
143.5332041627676
 30
0.0
 10
56.35870949609295
 20
143.3975218430208
 30
0.0
 10
56.30999770687634
 20
143.2564348568807
 30
0.0
 10
56.14083628365115
 20
142.9643631381502
 30
0.0
 10
56.01905586973282
 20
142.8127143960598
 30
0.0
 10
55.72150877498333
 20
142.5103059559066
 30
0.0
 10
55.54759616928054
 20
142.3577173197833
 30
0.0
 10
55.22818133539872
 20
142.132446555941
 30
0.0
 10
55.11314055995147
 20
142.0577234614303
 30
0.0
 10
54.90605623593505
 20
141.9583130521733
 30
0.0
 10
54.82994840112865
 20
141.9267479598287
 30
0.0
 10
54.69855386157532
 20
141.8923045756358
 30
0.0
 10
54.65200064257386
 20
141.8832530038681
 30
0.0
 10
54.55566729149314
 20
141.8730773550297
 30
0.0
 10
54.50640786813771
 20
141.8721275963547
 30
0.0
 10
54.45870949609097
 20
141.8751183172692
 30
0.0
  0
LINE
  5
9E
330
1F
100
AcDbEntity
  8
0
  6
Continuous
 62
     7
370
    15
100
AcDbLine
 10
56.3587094961
 20
143.5332041628
 30
0.0
 11
56.3587094961
 21
145.8021094538
 31
0.0
  0
SPLINE
  5
9F
330
1F
100
AcDbEntity
  8
0
  6
Continuous
 62
     7
370
    15
100
AcDbSpline
210
0.0
220
0.0
230
1.0
 70
     8
 71
     3
 72
    22
 73
    18
 74
     0
 42
0.00000001
 43
0.00000001
 40
0.0
 40
0.0
 40
0.0
 40
0.0
 40
0.0002937850458186
 40
0.0628841327416245
 40
0.1261981682954119
 40
0.2510182590426545
 40
0.3131038291609287
 40
0.3757650688901397
 40
0.4382989835656159
 40
0.5000628079113862
 40
0.5617337561138577
 40
0.6246555685552369
 40
0.7491916976530832
 40
0.8115302181310354
 40
0.8745847230190956
 40
0.937822758820794
 40
1.0
 40
1.0
 40
1.0
 40
1.0
 10
74.67866575993239
 20
72.85735016747064
 30
0.0
 10
74.67847090652216
 20
72.85732586015077
 30
0.0
 10
74.63676290304151
 20
72.85212292436394
 30
0.0
 10
74.78202600622546
 20
72.87073713225182
 30
0.0
 10
75.25217218339579
 20
72.9272630828478
 30
0.0
 10
76.22062826597985
 20
73.03348471227325
 30
0.0
 10
77.53308807554126
 20
73.11911751970467
 30
0.0
 10
78.6652117841738
 20
73.15777358580355
 30
0.0
 10
79.8873985607958
 20
73.16143489358204
 30
0.0
 10
81.15469694832515
 20
73.1190494788122
 30
0.0
 10
82.42140860255826
 20
73.03067250113685
 30
0.0
 10
84.03706659842281
 20
72.860623372513
 30
0.0
 10
85.47702920844642
 20
72.63844163795955
 30
0.0
 10
86.54289836461032
 20
72.435445529825
 30
0.0
 10
87.13209874804826
 20
72.31142009687566
 30
0.0
 10
87.52081826333885
 20
72.22649925643076
 30
0.0
 10
87.56760397616827
 20
72.21577253862642
 30
0.0
 10
87.59079896979553
 20
72.21045454439128
 30
0.0
  0
SPLINE
  5
A0
330
1F
100
AcDbEntity
  8
0
  6
Continuous
 62
     7
370
    15
100
AcDbSpline
210
0.0
220
0.0
230
1.0
 70
     8
 71
     3
 72
    41
 73
    37
 74
     0
 42
0.00000001
 43
0.00000001
 40
0.0
 40
0.0
 40
0.0
 40
0.0
 40
0.0619930061482746
 40
0.1254347783466151
 40
0.1886508898234768
 40
0.2510246408607227
 40
0.3131658188976554
 40
0.3756581641417402
 40
0.4382227146727798
 40
0.4998044922940677
 40
0.56151641971787
 40
0.6240683094121985
 40
0.686725723240935
 40
0.7488365305144522
 40
0.8110685944253986
 40
0.8741742884451361
 40
0.9373212787645211
 40
0.9685511709617411
 40
0.9842086872487193
 40
0.9920641182531791
 40
0.996000486125535
 40
0.9979710794120144
 40
0.9989570090489596
 40
0.9994501359395065
 40
0.9996967403802177
 40
0.9998200529090742
 40
0.9998817117580818
 40
0.999912541829664
 40
0.9999279570273361
 40
0.9999356646666602
 40
0.9999395184964466
 40
0.9999414454138695
 40
0.9999424088732151
 40
0.9999433723329806
 40
0.9999501697010513
 40
1.0
 40
1.0
 40
1.0
 40
1.0
 10
87.59067763931753
 20
147.3666912892232
 30
0.0
 10
87.56710599397394
 20
147.3613818095733
 30
0.0
 10
87.51941183792887
 20
147.3506387686338
 30
0.0
 10
87.12736984850333
 20
147.2654096321783
 30
0.0
 10
86.53685579923312
 20
147.1408408535376
 30
0.0
 10
85.73281835318804
 20
146.9878939073858
 30
0.0
 10
84.75674295300652
 20
146.8261373534322
 30
0.0
 10
83.63493421772603
 20
146.6739045854999
 30
0.0
 10
82.42140329793878
 20
146.5461246442986
 30
0.0
 10
81.15657259153956
 20
146.458276092616
 30
0.0
 10
79.88852955409683
 20
146.4158906087453
 30
0.0
 10
78.66502219639573
 20
146.419626416717
 30
0.0
 10
77.5315236559817
 20
146.4582218871651
 30
0.0
 10
76.5454178450075
 20
146.5226612584563
 30
0.0
 10
75.73679003622028
 20
146.5961710657375
 30
0.0
 10
75.14017134111108
 20
146.6634847505492
 30
0.0
 10
74.82478005165302
 20
146.7014493018172
 30
0.0
 10
74.71471348285509
 20
146.715248361149
 30
0.0
 10
74.6872940950409
 20
146.7187344350697
 30
0.0
 10
74.6803720442114
 20
146.719613660763
 30
0.0
 10
74.67860380402797
 20
146.7198344353694
 30
0.0
 10
74.67814342485461
 20
146.7198896380801
 30
0.0
 10
74.6780192661698
 20
146.7199033778672
 30
0.0
 10
74.67798371167663
 20
146.7199067736982
 30
0.0
 10
74.67797256760655
 20
146.7199076020185
 30
0.0
 10
74.67796865441042
 20
146.7199077986073
 30
0.0
 10
74.67796711220561
 20
146.7199078425373
 30
0.0
 10
74.67796644520409
 20
146.7199078508441
 30
0.0
 10
74.67796613702635
 20
146.7199078516743
 30
0.0
 10
74.67796599026028
 20
146.7199078511291
 30
0.0
 10
74.67796591730784
 20
146.7199078507993
 30
0.0
 10
74.67796588291544
 20
146.719907850362
 30
0.0
 10
74.6779658606703
 20
146.7199078504505
 30
0.0
 10
74.67796583356086
 20
146.7199078476155
 30
0.0
 10
74.67796331399951
 20
146.7199081344706
 30
0.0
 10
74.67799940391757
 20
146.71990351437
 30
0.0
 10
74.6780311617402
 20
146.7198994488485
 30
0.0
  0
SPLINE
  5
A1
330
1F
100
AcDbEntity
  8
0
  6
Continuous
 62
     7
370
    15
100
AcDbSpline
210
0.0
220
0.0
230
1.0
 70
     8
 71
     3
 72
    20
 73
    16
 74
     0
 42
0.00000001
 43
0.00000001
 40
0.0
 40
0.0
 40
0.0
 40
0.0
 40
0.249999999999986
 40
0.249999999999986
 40
0.3749999999999789
 40
0.3749999999999789
 40
0.4374999999999789
 40
0.4374999999999789
 40
0.4999999999999789
 40
0.4999999999999789
 40
0.6249999999999835
 40
0.6249999999999835
 40
0.7499999999999879
 40
0.7499999999999879
 40
1.0
 40
1.0
 40
1.0
 40
1.0
 10
46.54952372780897
 20
79.1101122730823
 30
0.0
 10
46.57579594502239
 20
79.12943021416476
 30
0.0
 10
46.60647608727722
 20
79.14381892526653
 30
0.0
 10
46.67794695765915
 20
79.13691456343052
 30
0.0
 10
46.70597399470347
 20
79.1297485600821
 30
0.0
 10
46.76105758420099
 20
79.10004953337851
 30
0.0
 10
46.78194891275342
 20
79.08657589081717
 30
0.0
 10
46.82715756019887
 20
79.05137762530116
 30
0.0
 10
46.85156177259444
 20
79.0294693965739
 30
0.0
 10
46.9228940906459
 20
78.95734453657835
 30
0.0
 10
46.96479087546615
 20
78.9050039956283
 30
0.0
 10
47.03636683432204
 20
78.80752060372755
 30
0.0
 10
47.06719482413935
 20
78.76076683384913
 30
0.0
 10
47.15029475697491
 20
78.62747361801001
 30
0.0
 10
47.19514966234521
 20
78.54483622009481
 30
0.0
 10
47.2352617377978
 20
78.46572932530403
 30
0.0
  0
SPLINE
  5
A2
330
1F
100
AcDbEntity
  8
0
  6
Continuous
 62
     7
370
    15
100
AcDbSpline
210
0.0
220
0.0
230
1.0
 70
     8
 71
     3
 72
     8
 73
     4
 74
     0
 42
0.00000001
 43
0.00000001
 40
0.0
 40
0.0
 40
0.0
 40
0.0
 40
1.0
 40
1.0
 40
1.0
 40
1.0
 10
46.25870949609298
 20
79.28592568321507
 30
0.0
 10
46.25870949609298
 20
79.26064562598772
 30
0.0
 10
46.26189630052721
 20
79.23704605674966
 30
0.0
 10
46.26799929747463
 20
79.21546861505765
 30
0.0
  0
SPLINE
  5
A3
330
1F
100
AcDbEntity
  8
0
  6
Continuous
 62
     7
370
    15
100
AcDbSpline
210
0.0
220
0.0
230
1.0
 70
     8
 71
     3
 72
     9
 73
     5
 74
     0
 42
0.00000001
 43
0.00000001
 40
0.0
 40
0.0
 40
0.0
 40
0.0
 40
0.7766521846938914
 40
0.9999999999999999
 40
0.9999999999999999
 40
0.9999999999999999
 40
0.9999999999999999
 10
46.3440401225867
 20
79.1708835501926
 30
0.0
 10
46.38722724888028
 20
79.1186854288069
 30
0.0
 10
46.44283402775078
 20
79.05147629399158
 30
0.0
 10
46.53004528421273
 20
79.09940704463492
 30
0.0
 10
46.54952372781362
 20
79.11011227307708
 30
0.0
  0
LINE
  5
A4
330
1F
100
AcDbEntity
  8
0
  6
Continuous
 62
     7
370
    15
100
AcDbLine
 10
46.2587094961
 20
79.2859256832
 30
0.0
 11
46.2587094961
 21
140.2912651684
 31
0.0
  0
SPLINE
  5
A5
330
1F
100
AcDbEntity
  8
0
  6
Continuous
 62
     7
370
    15
100
AcDbSpline
210
0.0
220
0.0
230
1.0
 70
     8
 71
     3
 72
     9
 73
     5
 74
     0
 42
0.00000001
 43
0.00000001
 40
0.0
 40
0.0
 40
0.0
 40
0.0
 40
0.0592950272321202
 40
1.0
 40
1.0
 40
1.0
 40
1.0
 10
46.54952372781361
 20
140.4670785784889
 30
0.0
 10
46.54464088635142
 20
140.4703714238824
 30
0.0
 10
46.46229264080507
 20
140.5259046708881
 30
0.0
 10
46.39616059032353
 20
140.4686152683755
 30
0.0
 10
46.33394984157624
 20
140.414722842545
 30
0.0
  0
SPLINE
  5
A6
330
1F
100
AcDbEntity
  8
0
  6
Continuous
 62
     7
370
    15
100
AcDbSpline
210
0.0
220
0.0
230
1.0
 70
     8
 71
     3
 72
     8
 73
     4
 74
     0
 42
0.00000001
 43
0.00000001
 40
0.0
 40
0.0
 40
0.0
 40
0.0
 40
1.0
 40
1.0
 40
1.0
 40
1.0
 10
46.28234316502918
 20
140.3988446694206
 30
0.0
 10
46.26699412639314
 20
140.3683346144246
 30
0.0
 10
46.25870949609298
 20
140.3320230589123
 30
0.0
 10
46.25870949609298
 20
140.2912651683509
 30
0.0
  0
SPLINE
  5
A7
330
1F
100
AcDbEntity
  8
0
  6
Continuous
 62
     7
370
    15
100
AcDbSpline
210
0.0
220
0.0
230
1.0
 70
     8
 71
     3
 72
    20
 73
    16
 74
     0
 42
0.00000001
 43
0.00000001
 40
0.0
 40
0.0
 40
0.0
 40
0.0
 40
0.2500000000000037
 40
0.2500000000000037
 40
0.3750000000000055
 40
0.3750000000000055
 40
0.5000000000000073
 40
0.5000000000000073
 40
0.5625000000000057
 40
0.5625000000000057
 40
0.625000000000004
 40
0.625000000000004
 40
0.7500000000000027
 40
0.7500000000000027
 40
1.0
 40
1.0
 40
1.0
 40
1.0
 10
47.23526173779538
 20
141.1114615262612
 30
0.0
 10
47.19526551997155
 20
141.0325831197037
 30
0.0
 10
47.1501518921339
 20
140.9494534730122
 30
0.0
 10
47.06689767776736
 20
140.8159648086613
 30
0.0
 10
47.03667834914688
 20
140.7700997527793
 30
0.0
 10
46.96459011400545
 20
140.6719082003744
 30
0.0
 10
46.92267279659437
 20
140.6195983808508
 30
0.0
 10
46.8514221920429
 20
140.5475924781163
 30
0.0
 10
46.82718637966359
 20
140.5258222658147
 30
0.0
 10
46.78158818947895
 20
140.4903476074857
 30
0.0
 10
46.76078569987922
 20
140.4769774233082
 30
0.0
 10
46.70584470146011
 20
140.4474075111729
 30
0.0
 10
46.67777571337328
 20
140.440280988871
 30
0.0
 10
46.60727288331046
 20
140.4334066173883
 30
0.0
 10
46.57584879551958
 20
140.4477217764755
 30
0.0
 10
46.54952372781099
 20
140.467078578486
 30
0.0
  0
SPLINE
  5
A8
330
1F
100
AcDbEntity
  8
0
  6
Continuous
 62
     7
370
    15
100
AcDbSpline
210
0.0
220
0.0
230
1.0
 70
     8
 71
     3
 72
    10
 73
     6
 74
     0
 42
0.00000001
 43
0.00000001
 40
0.0
 40
0.0
 40
0.0
 40
0.0
 40
0.4999999999999989
 40
0.4999999999999989
 40
1.0
 40
1.0
 40
1.0
 40
1.0
 10
47.90870949609297
 20
142.036880627603
 30
0.0
 10
47.78382122534278
 20
141.9058843495315
 30
0.0
 10
47.66237110728233
 20
141.7621715128665
 30
0.0
 10
47.4327871323249
 20
141.4516012201773
 30
0.0
 10
47.32251215692892
 20
141.2835321471142
 30
0.0
 10
47.2352617377954
 20
141.1114615262612
 30
0.0
  0
SPLINE
  5
A9
330
1F
100
AcDbEntity
  8
0
  6
Continuous
 62
     7
370
    15
100
AcDbSpline
210
0.0
220
0.0
230
1.0
 70
     8
 71
     3
 72
     8
 73
     4
 74
     0
 42
0.00000001
 43
0.00000001
 40
0.0
 40
0.0
 40
0.0
 40
0.0
 40
1.0
 40
1.0
 40
1.0
 40
1.0
 10
48.15863461205874
 20
142.0344275943476
 30
0.0
 10
48.07161658221037
 20
142.0348941591347
 30
0.0
 10
47.98866255583042
 20
142.0359341787108
 30
0.0
 10
47.90870949609067
 20
142.0368806276031
 30
0.0
  0
SPLINE
  5
AA
330
1F
100
AcDbEntity
  8
0
  6
Continuous
 62
     7
370
    15
100
AcDbSpline
210
0.0
220
0.0
230
1.0
 70
     8
 71
     3
 72
     8
 73
     4
 74
     0
 42
0.00000001
 43
0.00000001
 40
0.0
 40
0.0
 40
0.0
 40
0.0
 40
1.0
 40
1.0
 40
1.0
 40
1.0
 10
47.90870949609067
 20
77.54031022396292
 30
0.0
 10
47.98866255583042
 20
77.5412566728552
 30
0.0
 10
48.07161658221037
 20
77.54229669243132
 30
0.0
 10
48.15863461205875
 20
77.54276325721837
 30
0.0
  0
SPLINE
  5
AB
330
1F
100
AcDbEntity
  8
0
  6
Continuous
 62
     7
370
    15
100
AcDbSpline
210
0.0
220
0.0
230
1.0
 70
     8
 71
     3
 72
    10
 73
     6
 74
     0
 42
0.00000001
 43
0.00000001
 40
0.0
 40
0.0
 40
0.0
 40
0.0
 40
0.4999999999999989
 40
0.4999999999999989
 40
1.0
 40
1.0
 40
1.0
 40
1.0
 10
47.23526173779447
 20
78.4657293253066
 30
0.0
 10
47.32251215692796
 20
78.29365870445324
 30
0.0
 10
47.4327871323241
 20
78.1255896313898
 30
0.0
 10
47.66237110728194
 20
77.81501933869997
 30
0.0
 10
47.78382122534259
 20
77.6713065020347
 30
0.0
 10
47.90870949609297
 20
77.54031022396299
 30
0.0
  0
SPLINE
  5
AC
330
1F
100
AcDbEntity
  8
0
  6
Continuous
 62
     7
370
    15
100
AcDbSpline
210
0.0
220
0.0
230
1.0
 70
     8
 71
     3
 72
     8
 73
     4
 74
     0
 42
0.00000001
 43
0.00000001
 40
0.0
 40
0.0
 40
0.0
 40
0.0
 40
1.0
 40
1.0
 40
1.0
 40
1.0
 10
119.4207385170143
 20
158.7783902814465
 30
0.0
 10
118.9697115483011
 20
157.9810797112587
 30
0.0
 10
118.5190177317775
 20
157.1835814116015
 30
0.0
 10
118.068709496093
 20
156.3858662864879
 30
0.0
  0
LINE
  5
AD
330
1F
100
AcDbEntity
  8
0
  6
Continuous
 62
     7
370
    15
100
AcDbLine
 10
119.420738517
 20
148.7395581867
 30
0.0
 11
119.420738517
 21
158.7783902814
 31
0.0
  0
SPLINE
  5
AE
330
1F
100
AcDbEntity
  8
0
  6
Continuous
 62
     7
370
    15
100
AcDbSpline
210
0.0
220
0.0
230
1.0
 70
     8
 71
     3
 72
     8
 73
     4
 74
     0
 42
0.00000001
 43
0.00000001
 40
0.0
 40
0.0
 40
0.0
 40
0.0
 40
1.0
 40
1.0
 40
1.0
 40
1.0
 10
118.068709496093
 20
145.6840429319208
 30
0.0
 10
118.5128595071185
 20
146.7054261628725
 30
0.0
 10
118.9639338173764
 20
147.7239106996408
 30
0.0
 10
119.4207385170144
 20
148.7395581866699
 30
0.0
  0
LINE
  5
AF
330
1F
100
AcDbEntity
  8
0
  6
Continuous
 62
     7
370
    15
100
AcDbLine
 10
118.0687094961
 20
145.6840429319
 30
0.0
 11
118.0687094961
 21
156.3858662865
 31
0.0
  0
SPLINE
  5
B0
330
1F
100
AcDbEntity
  8
0
  6
Continuous
 62
     7
370
    15
100
AcDbSpline
210
0.0
220
0.0
230
1.0
 70
     8
 71
     3
 72
    12
 73
     8
 74
     0
 42
0.00000001
 43
0.00000001
 40
0.0
 40
0.0
 40
0.0
 40
0.0
 40
0.5
 40
0.5
 40
0.75
 40
0.75
 40
1.0
 40
1.0
 40
1.0
 40
1.0
 10
125.108709496093
 20
157.7573352466288
 30
0.0
 10
125.108709496093
 20
158.0226046793952
 30
0.0
 10
125.0041027526065
 20
158.2851197850476
 30
0.0
 10
124.7274344008612
 20
158.5706573910849
 30
0.0
 10
124.6170691415092
 20
158.6469790079463
 30
0.0
 10
124.3729970928935
 20
158.7513211727864
 30
0.0
 10
124.2412446315617
 20
158.7783902814466
 30
0.0
 10
124.108709496093
 20
158.7783902814466
 30
0.0
  0
SPLINE
  5
B1
330
1F
100
AcDbEntity
  8
0
  6
Continuous
 62
     7
370
    15
100
AcDbSpline
210
0.0
220
0.0
230
1.0
 70
     8
 71
     3
 72
    16
 73
    12
 74
     0
 42
0.00000001
 43
0.00000001
 40
0.0
 40
0.0
 40
0.0
 40
0.0
 40
0.125
 40
0.125
 40
0.25
 40
0.25
 40
0.5
 40
0.5
 40
0.75
 40
0.75
 40
1.0
 40
1.0
 40
1.0
 40
1.0
 10
124.108709496092
 20
148.7395581866699
 30
0.0
 10
124.1843472025032
 20
148.73955818667
 30
0.0
 10
124.2606628669215
 20
148.7282131865352
 30
0.0
 10
124.4050736048136
 20
148.6855606358968
 30
0.0
 10
124.473520053922
 20
148.654626311214
 30
0.0
 10
124.6684513065354
 20
148.5353699394465
 30
0.0
 10
124.7762924803164
 20
148.4252179258259
 30
0.0
 10
124.9450052285286
 20
148.1770818401677
 30
0.0
 10
125.0073696412522
 20
148.036739516164
 30
0.0
 10
125.0886735657607
 20
147.7484678246752
 30
0.0
 10
125.108709496093
 20
147.5976628516953
 30
0.0
 10
125.108709496093
 20
147.44729296035
 30
0.0
  0
LINE
  5
B2
330
1F
100
AcDbEntity
  8
0
  6
Continuous
 62
     7
370
    15
100
AcDbLine
 10
125.1087094961
 20
147.4472929603
 30
0.0
 11
125.1087094961
 21
157.7573352466
 31
0.0
  0
SPLINE
  5
B3
330
1F
100
AcDbEntity
  8
0
  6
Continuous
 62
     7
370
    15
100
AcDbSpline
210
0.0
220
0.0
230
1.0
 70
     8
 71
     3
 72
     8
 73
     4
 74
     0
 42
0.00000001
 43
0.00000001
 40
0.0
 40
0.0
 40
0.0
 40
0.0
 40
1.0
 40
1.0
 40
1.0
 40
1.0
 10
114.248709496093
 20
156.3858662864879
 30
0.0
 10
113.7984012604084
 20
157.1835814116015
 30
0.0
 10
113.3477074438848
 20
157.9810797112587
 30
0.0
 10
112.8966804751716
 20
158.7783902814465
 30
0.0
  0
LINE
  5
B4
330
1F
100
AcDbEntity
  8
0
  6
Continuous
 62
     7
370
    15
100
AcDbLine
 10
114.2487094961
 20
145.6840429319
 30
0.0
 11
114.2487094961
 21
156.3858662865
 31
0.0
  0
SPLINE
  5
B5
330
1F
100
AcDbEntity
  8
0
  6
Continuous
 62
     7
370
    15
100
AcDbSpline
210
0.0
220
0.0
230
1.0
 70
     8
 71
     3
 72
     8
 73
     4
 74
     0
 42
0.00000001
 43
0.00000001
 40
0.0
 40
0.0
 40
0.0
 40
0.0
 40
1.0
 40
1.0
 40
1.0
 40
1.0
 10
112.8966804751716
 20
148.7395581866699
 30
0.0
 10
113.3536068289711
 20
147.7236402169956
 30
0.0
 10
113.8048124707742
 20
146.7048443879045
 30
0.0
 10
114.248709496093
 20
145.6840429319208
 30
0.0
  0
LINE
  5
B6
330
1F
100
AcDbEntity
  8
0
  6
Continuous
 62
     7
370
    15
100
AcDbLine
 10
114.2487094961
 20
145.6840429319
 30
0.0
 11
114.2487094961
 21
144.5028306183
 31
0.0
  0
SPLINE
  5
B7
330
1F
100
AcDbEntity
  8
0
  6
Continuous
 62
     7
370
    15
100
AcDbSpline
210
0.0
220
0.0
230
1.0
 70
     8
 71
     3
 72
    14
 73
    10
 74
     0
 42
0.00000001
 43
0.00000001
 40
0.0
 40
0.0
 40
0.0
 40
0.0
 40
0.25
 40
0.25
 40
0.5
 40
0.5
 40
0.75
 40
0.75
 40
1.0
 40
1.0
 40
1.0
 40
1.0
 10
114.2487094960929
 20
144.50283061828
 30
0.0
 10
114.2487094960929
 20
144.3789637414908
 30
0.0
 10
114.2645686237206
 20
144.2547040646533
 30
0.0
 10
114.3279302692405
 20
144.0170957022475
 30
0.0
 10
114.3765199772898
 20
143.900315317495
 30
0.0
 10
114.5088055820647
 20
143.691512788886
 30
0.0
 10
114.5941303733252
 20
143.5970020852934
 30
0.0
 10
114.8010216216314
 20
143.4590452844911
 30
0.0
 10
114.9249895675214
 20
143.4171268388554
 30
0.0
 10
115.048709496093
 20
143.4171268388554
 30
0.0
  0
LINE
  5
B8
330
1F
100
AcDbEntity
  8
0
  6
Continuous
 62
     7
370
    15
100
AcDbLine
 10
115.0487094961
 20
143.4171268389
 30
0.0
 11
117.2687094961
 21
143.4171268388
 31
0.0
  0
SPLINE
  5
B9
330
1F
100
AcDbEntity
  8
0
  6
Continuous
 62
     7
370
    15
100
AcDbSpline
210
0.0
220
0.0
230
1.0
 70
     8
 71
     3
 72
    12
 73
     8
 74
     0
 42
0.00000001
 43
0.00000001
 40
0.0
 40
0.0
 40
0.0
 40
0.0
 40
0.250000000000002
 40
0.250000000000002
 40
0.500000000000004
 40
0.500000000000004
 40
1.0
 40
1.0
 40
1.0
 40
1.0
 10
117.268709496095
 20
143.4171268388555
 30
0.0
 10
117.3924104460748
 20
143.4171268388559
 30
0.0
 10
117.5165070583447
 20
143.4591204505888
 30
0.0
 10
117.7231622214311
 20
143.5969157772334
 30
0.0
 10
117.8082029881578
 20
143.6908893756982
 30
0.0
 10
118.0076815566308
 20
144.0056775819189
 30
0.0
 10
118.068709496093
 20
144.2559165741462
 30
0.0
 10
118.068709496093
 20
144.50283061828
 30
0.0
  0
LINE
  5
BA
330
1F
100
AcDbEntity
  8
0
  6
Continuous
 62
     7
370
    15
100
AcDbLine
 10
118.0687094961
 20
144.5028306183
 30
0.0
 11
118.0687094961
 21
145.6840429319
 31
0.0
  0
LINE
  5
BB
330
1F
100
AcDbEntity
  8
0
  6
Continuous
 62
     7
370
    15
100
AcDbLine
 10
119.420738517
 20
148.7395581867
 30
0.0
 11
124.1087094961
 21
148.7395581867
 31
0.0
  0
LINE
  5
BC
330
1F
100
AcDbEntity
  8
0
  6
Continuous
 62
     7
370
    15
100
AcDbLine
 10
125.1087094961
 20
147.4472929603
 30
0.0
 11
125.1087094961
 21
141.1385954258
 31
0.0
  0
LINE
  5
BD
330
1F
100
AcDbEntity
  8
0
  6
Continuous
 62
     7
370
    15
100
AcDbLine
 10
124.1087094961
 20
158.7783902814
 30
0.0
 11
119.420738517
 21
158.7783902814
 31
0.0
  0
SPLINE
  5
BE
330
1F
100
AcDbEntity
  8
0
  6
Continuous
 62
     7
370
    15
100
AcDbSpline
210
0.0
220
0.0
230
1.0
 70
     8
 71
     3
 72
    14
 73
    10
 74
     0
 42
0.00000001
 43
0.00000001
 40
0.0
 40
0.0
 40
0.0
 40
0.0
 40
0.25
 40
0.25
 40
0.5
 40
0.5
 40
0.75
 40
0.75
 40
1.0
 40
1.0
 40
1.0
 40
1.0
 10
118.068709496093
 20
155.482146666631
 30
0.0
 10
118.068709496093
 20
155.3757899728786
 30
0.0
 10
118.0483219399517
 20
155.2699494851185
 30
0.0
 10
117.9696875944902
 20
155.073384571582
 30
0.0
 10
117.9109562348515
 20
154.9822138292949
 30
0.0
 10
117.7643473292489
 20
154.8303027402632
 30
0.0
 10
117.6749420092223
 20
154.7682339034437
 30
0.0
 10
117.4810512766219
 20
154.684965855685
 30
0.0
 10
117.3745462867321
 20
154.6628711859554
 30
0.0
 10
117.2687094960927
 20
154.6628711859554
 30
0.0
  0
SPLINE
  5
BF
330
1F
100
AcDbEntity
  8
0
  6
Continuous
 62
     7
370
    15
100
AcDbSpline
210
0.0
220
0.0
230
1.0
 70
     8
 71
     3
 72
    10
 73
     6
 74
     0
 42
0.00000001
 43
0.00000001
 40
0.0
 40
0.0
 40
0.0
 40
0.0
 40
0.5
 40
0.5
 40
1.0
 40
1.0
 40
1.0
 40
1.0
 10
115.048709496093
 20
154.6628711859554
 30
0.0
 10
114.8361731822366
 20
154.6628711859554
 30
0.0
 10
114.6262370105826
 20
154.7542837725856
 30
0.0
 10
114.3325298695713
 20
155.0590286384898
 30
0.0
 10
114.2487094960929
 20
155.2711836083984
 30
0.0
 10
114.2487094960929
 20
155.482146666631
 30
0.0
  0
LINE
  5
C0
330
1F
100
AcDbEntity
  8
0
  6
Continuous
 62
     7
370
    15
100
AcDbLine
 10
117.2687094961
 20
154.662871186
 30
0.0
 11
115.0487094961
 21
154.662871186
 31
0.0
  0
ARC
  5
C1
330
1F
100
AcDbEntity
  8
0
  6
Continuous
 62
     7
370
    15
100
AcDbCircle
 10
105.1587761422
 20
142.3541659267
 30
0.0
 40
11.45027678818655
100
AcDbArc
 50
77.9103159805
 51
102.108234864
  0
LINE
  5
C2
330
1F
100
AcDbEntity
  8
0
  6
Continuous
 62
     7
370
    15
100
AcDbLine
 10
47.9087094961
 20
77.5385954258
 30
0.0
 11
47.9087094961
 21
77.540310224
 31
0.0
  0
LINE
  5
C3
330
1F
100
AcDbEntity
  8
0
  6
Continuous
 62
     7
370
    15
100
AcDbLine
 10
47.9087094961
 20
142.0385954258
 30
0.0
 11
47.9087094961
 21
142.0368806276
 31
0.0
  0
SPLINE
  5
C4
330
1F
100
AcDbEntity
  8
0
  6
Continuous
 62
     7
370
    15
100
AcDbSpline
210
0.0
220
0.0
230
1.0
 70
     8
 71
     3
 72
    39
 73
    35
 74
     0
 42
0.00000001
 43
0.00000001
 40
-0.0931102473286335
 40
-0.0619213968680599
 40
-0.0306708306487107
 40
0.0
 40
0.0306856150685336
 40
0.0619482236497936
 40
0.0931389682144477
 40
0.1242353660049498
 40
0.1553791717811417
 40
0.1869236166023575
 40
0.2186032199250568
 40
0.2499252161707961
 40
0.2812618749400587
 40
0.3130058611570385
 40
0.3446066213873729
 40
0.3758050985221391
 40
0.4068941952435687
 40
0.4380461897407766
 40
0.4692609185498014
 40
0.5000121821429347
 40
0.530742755004124
 40
0.5620031531144588
 40
0.5931559557622248
 40
0.6242689070960685
 40
0.6554398400984075
 40
0.68703427071862
 40
0.7187291690333724
 40
0.7500762020617532
 40
0.7813835916559055
 40
0.813103736889947
 40
0.8446515541925755
 40
0.8758210372251541
 40
0.9068897526713665
 40
0.9380786031319401
 40
0.9693291693512893
 40
1.0
 40
1.030685615068534
 40
1.061948223649794
 40
1.093138968214448
 10
239.4064897261141
 20
105.9596261201367
 30
0.0
 10
238.6585855286825
 20
105.8839317509843
 30
0.0
 10
237.9106116641865
 20
105.9597829353245
 30
0.0
 10
237.1921719284405
 20
106.1876604056801
 30
0.0
 10
236.5280536199885
 20
106.5459135097909
 30
0.0
 10
235.9515465359314
 20
107.0291699914873
 30
0.0
 10
235.47802768078
 20
107.6173299904325
 30
0.0
 10
235.1277111729603
 20
108.2930955673389
 30
0.0
 10
234.9052713874409
 20
109.0250937460601
 30
0.0
 10
234.831702978903
 20
109.7868808689782
 30
0.0
 10
234.9056272843357
 20
110.5491345133129
 30
0.0
 10
235.1280971547017
 20
111.2822375286729
 30
0.0
 10
235.4784299141717
 20
111.9595886269309
 30
0.0
 10
235.9521620922752
 20
112.5486652871485
 30
0.0
 10
236.528413934435
 20
113.0322903163384
 30
0.0
 10
237.191703677383
 20
113.3905462249332
 30
0.0
 10
237.9101981424784
 20
113.6178575590715
 30
0.0
 10
238.6588271813928
 20
113.693147756392
 30
0.0
 10
239.4078112928352
 20
113.6176995159346
 30
0.0
 10
240.1264221914705
 20
113.3900554615186
 30
0.0
 10
240.7901727737861
 20
113.0314817132623
 30
0.0
 10
241.3662468657701
 20
112.5476489798358
 30
0.0
 10
241.8397159041937
 20
111.9584876838355
 30
0.0
 10
242.1896687200842
 20
111.2816785941397
 30
0.0
 10
242.4118107672776
 20
110.5488690887467
 30
0.0
 10
242.4857072402327
 20
109.7870535916508
 30
0.0
 10
242.4121669651407
 20
109.0249661042405
 30
0.0
 10
242.1895203820208
 20
108.2927719189358
 30
0.0
 10
241.8389276584859
 20
107.6165264761124
 30
0.0
 10
241.3652086467702
 20
107.0284911526669
 30
0.0
 10
240.7885775837608
 20
106.5454453379285
 30
0.0
 10
240.1246894298836
 20
106.1874879691541
 30
0.0
 10
239.4064897261141
 20
105.9596261201367
 30
0.0
 10
238.6585855286825
 20
105.8839317509843
 30
0.0
 10
237.9106116641865
 20
105.9597829353245
 30
0.0
  0
LINE
  5
C5
330
1F
100
AcDbEntity
  8
0
  6
Continuous
 62
     7
370
    15
100
AcDbLine
 10
243.291667973
 20
93.7885954258
 30
0.0
 11
243.291667973
 21
125.7885954258
 31
0.0
  0
SPLINE
  5
C6
330
1F
100
AcDbEntity
  8
0
  6
Continuous
 62
     7
370
    15
100
AcDbSpline
210
0.0
220
0.0
230
1.0
 70
     8
 71
     3
 72
    58
 73
    54
 74
     0
 42
0.00000001
 43
0.00000001
 40
-0.0312500000000002
 40
-0.0312500000000002
 40
0.0
 40
0.0
 40
0.0624999999999971
 40
0.0624999999999971
 40
0.0937499999999957
 40
0.0937499999999957
 40
0.1249999999999942
 40
0.1249999999999942
 40
0.1874999999999934
 40
0.1874999999999934
 40
0.2499999999999925
 40
0.2499999999999925
 40
0.2812499999999928
 40
0.2812499999999928
 40
0.3124999999999932
 40
0.3124999999999932
 40
0.3437499999999935
 40
0.3437499999999935
 40
0.3749999999999938
 40
0.3749999999999938
 40
0.4062499999999942
 40
0.4062499999999942
 40
0.4374999999999946
 40
0.4374999999999946
 40
0.468749999999995
 40
0.468749999999995
 40
0.4999999999999954
 40
0.4999999999999954
 40
0.5624999999999978
 40
0.5624999999999978
 40
0.593749999999998
 40
0.593749999999998
 40
0.6249999999999982
 40
0.6249999999999982
 40
0.6562499999999984
 40
0.6562499999999984
 40
0.6874999999999987
 40
0.6874999999999987
 40
0.7499999999999989
 40
0.7499999999999989
 40
0.8124999999999992
 40
0.8124999999999992
 40
0.8437499999999993
 40
0.8437499999999993
 40
0.8749999999999994
 40
0.8749999999999994
 40
0.9062499999999996
 40
0.9062499999999996
 40
0.9374999999999997
 40
0.9374999999999997
 40
0.9687499999999998
 40
0.9687499999999998
 40
1.0
 40
1.0
 40
1.062499999999997
 40
1.062499999999997
 10
162.60759891078
 20
111.8912061489082
 30
0.0
 10
163.1165113513528
 20
112.2838521207852
 30
0.0
 10
163.4945617120825
 20
112.4772534171817
 30
0.0
 10
164.1061024967321
 20
112.672964522824
 30
0.0
 10
164.313002982228
 20
112.7206869040449
 30
0.0
 10
164.7326192802385
 20
112.7829404601994
 30
0.0
 10
164.9467460625035
 20
112.7974223917834
 30
0.0
 10
165.5884571639289
 20
112.7890942021165
 30
0.0
 10
166.0079656454222
 20
112.7164910442898
 30
0.0
 10
166.815543940915
 20
112.43431762068
 30
0.0
 10
167.1864360210988
 20
112.2317437754034
 30
0.0
 10
167.6832533745202
 20
111.8248949097842
 30
0.0
 10
167.8332036094385
 20
111.6761578100636
 30
0.0
 10
168.1006121819084
 20
111.3512247401175
 30
0.0
 10
168.2187713398122
 20
111.173837103465
 30
0.0
 10
168.4138955530943
 20
110.791705350156
 30
0.0
 10
168.4882703404563
 20
110.5925848499172
 30
0.0
 10
168.587740915659
 20
110.1771527428298
 30
0.0
 10
168.6117356759578
 20
109.961192032036
 30
0.0
 10
168.6050563844827
 20
109.5362175639795
 30
0.0
 10
168.5743163027513
 20
109.3212078338983
 30
0.0
 10
168.4621676462431
 20
108.9088216994937
 30
0.0
 10
168.3818178343391
 20
108.7116873733577
 30
0.0
 10
168.1753665048188
 20
108.3344130929727
 30
0.0
 10
168.0525840627467
 20
108.1603762980204
 30
0.0
 10
167.7733331477606
 20
107.8390534239796
 30
0.0
 10
167.6157136392914
 20
107.6913119194279
 30
0.0
 10
167.1122504758092
 20
107.3005824446793
 30
0.0
 10
166.7257242938349
 20
107.1016165631025
 30
0.0
 10
166.11924231598
 20
106.906390769904
 30
0.0
 10
165.9101741429517
 20
106.8575584067988
 30
0.0
 10
165.4862404374648
 20
106.7942673130091
 30
0.0
 10
165.2740872626645
 20
106.7799917643625
 30
0.0
 10
164.8494206531185
 20
106.7849741067665
 30
0.0
 10
164.6356465375451
 20
106.8044621427335
 30
0.0
 10
164.2133894780742
 20
106.8779825818214
 30
0.0
 10
164.0079195318718
 20
106.9312647647465
 30
0.0
 10
163.4082808546217
 20
107.1403423098807
 30
0.0
 10
163.0260223387723
 20
107.3495008758674
 30
0.0
 10
162.3734385932196
 20
107.883925477747
 30
0.0
 10
162.0920781801038
 20
108.2189007664398
 30
0.0
 10
161.8025551936132
 20
108.7881325768836
 30
0.0
 10
161.7266921273648
 20
108.9924232638311
 30
0.0
 10
161.6288514551776
 20
109.4060155393071
 30
0.0
 10
161.6052486311852
 20
109.6182402426032
 30
0.0
 10
161.612985576204
 20
110.0499260444702
 30
0.0
 10
161.6439940267981
 20
110.2607898915346
 30
0.0
 10
161.7569858998195
 20
110.6731819560838
 30
0.0
 10
161.839640333054
 20
110.874015171575
 30
0.0
 10
162.0451018986722
 20
111.2471801370762
 30
0.0
 10
162.1701096942641
 20
111.4238441384505
 30
0.0
 10
162.4512223645457
 20
111.7453455783414
 30
0.0
 10
162.60759891078
 20
111.8912061489082
 30
0.0
 10
163.1165113513528
 20
112.2838521207852
 30
0.0
  0
LINE
  5
C7
330
1F
100
AcDbEntity
  8
0
  6
Continuous
 62
     7
370
    15
100
AcDbLine
 10
162.777236391
 20
93.945252645
 30
0.0
 11
162.5545121765
 21
93.9174343256
 31
0.0
  0
SPLINE
  5
C8
330
1F
100
AcDbEntity
  8
0
  6
Continuous
 62
     7
370
    15
100
AcDbSpline
210
0.0
220
0.0
230
1.0
 70
     8
 71
     3
 72
    18
 73
    14
 74
     0
 42
0.00000001
 43
0.00000001
 40
0.0
 40
0.0
 40
0.0
 40
0.0
 40
0.0302893140338267
 40
0.1134066324329664
 40
0.1995968817072181
 40
0.2969534159609983
 40
0.408980344668433
 40
0.5329648600597403
 40
0.6619921757607394
 40
0.789382882267585
 40
0.8864279546731125
 40
0.9839364537931711
 40
1.0
 40
1.0
 40
1.0
 40
1.0
 10
161.6455366000209
 20
93.7943971042414
 30
0.0
 10
161.6352960337439
 20
93.79278653606214
 30
0.0
 10
161.5969541903341
 20
93.78675638584782
 30
0.0
 10
161.8423312147333
 20
93.82556398858
 30
0.0
 10
162.3443091293424
 20
93.89681312924976
 30
0.0
 10
163.1424840888154
 20
93.98855721299908
 30
0.0
 10
164.2064825767735
 20
94.06535833544712
 30
0.0
 10
165.4668090477905
 20
94.08426864766412
 30
0.0
 10
166.7400321424234
 20
94.02198833069527
 30
0.0
 10
167.7640992948145
 20
93.9121880859905
 30
0.0
 10
168.3861627931172
 20
93.82422437306282
 30
0.0
 10
168.6437624413206
 20
93.78309616276488
 30
0.0
 10
168.5928825570088
 20
93.79107968476183
 30
0.0
 10
168.5856861437515
 20
93.79220886821646
 30
0.0
  0
SPLINE
  5
C9
330
1F
100
AcDbEntity
  8
0
  6
Continuous
 62
     7
370
    15
100
AcDbSpline
210
0.0
220
0.0
230
1.0
 70
     8
 71
     3
 72
     9
 73
     5
 74
     0
 42
0.00000001
 43
0.00000001
 40
0.0
 40
0.0
 40
0.0
 40
0.0
 40
0.2400490182224918
 40
1.0
 40
1.0
 40
1.0
 40
1.0
 10
163.0140581900782
 20
93.96813101131141
 30
0.0
 10
162.9929999816772
 20
93.96665366758525
 30
0.0
 10
162.9052753637765
 20
93.96049932570492
 30
0.0
 10
162.832523920619
 20
93.95183620079482
 30
0.0
 10
162.7772363899657
 20
93.94525265051415
 30
0.0
  0
LINE
  5
CA
330
1F
100
AcDbEntity
  8
0
  6
Continuous
 62
     7
370
    15
100
AcDbLine
 10
162.777236391
 20
125.6319382066
 30
0.0
 11
162.9990947245
 21
125.6131849707
 31
0.0
  0
SPLINE
  5
CB
330
1F
100
AcDbEntity
  8
0
  6
Continuous
 62
     7
370
    15
100
AcDbSpline
210
0.0
220
0.0
230
1.0
 70
     8
 71
     3
 72
    17
 73
    13
 74
     0
 42
0.00000001
 43
0.00000001
 40
0.0
 40
0.0
 40
0.0
 40
0.0
 40
0.0473276040834784
 40
0.1302566093869129
 40
0.2182311812385667
 40
0.3185084491974753
 40
0.4334470159742117
 40
0.5590938495884955
 40
0.6883816834202425
 40
0.8145032600588011
 40
0.9081027427505445
 40
1.0
 40
1.0
 40
1.0
 40
1.0
 10
168.56992819402
 20
125.7824746783901
 30
0.0
 10
168.5760652897729
 20
125.7834307794028
 30
0.0
 10
168.5929560092537
 20
125.7860621924768
 30
0.0
 10
168.294352177119
 20
125.7394264935399
 30
0.0
 10
167.7334398346786
 20
125.6623627153501
 30
0.0
 10
166.8793982328604
 20
125.5705110373557
 30
0.0
 10
165.7654327520698
 20
125.5019086543576
 30
0.0
 10
164.4862844112984
 20
125.499033059721
 30
0.0
 10
163.2313796804031
 20
125.5768769895121
 30
0.0
 10
162.290567874208
 20
125.6861883201221
 30
0.0
 10
161.7124040679739
 20
125.7717875885881
 30
0.0
 10
161.6456680255893
 20
125.7826227426969
 30
0.0
 10
161.6126062086712
 20
125.7879906049288
 30
0.0
  0
LINE
  5
CC
330
1F
100
AcDbEntity
  8
0
  6
Continuous
 62
     7
370
    15
100
AcDbLine
 10
162.3464049276
 20
125.6845473159
 30
0.0
 11
162.7772363897
 21
125.6319382011
 31
0.0
  0
CIRCLE
  5
CD
330
1F
100
AcDbEntity
  8
0
  6
Continuous
 62
     7
370
    15
100
AcDbCircle
 10
165.1087094961
 20
109.7885954258
 30
0.0
 40
2.500000000000014
  0
LINE
  5
CE
330
1F
100
AcDbEntity
  8
0
  6
Continuous
 62
     7
370
    15
100
AcDbLine
 10
256.1587094961
 20
101.0627359474
 30
0.0
 11
256.1587094961
 21
118.5144544591
 31
0.0
  0
CIRCLE
  5
CF
330
1F
100
AcDbEntity
  8
0
  6
HIDDEN
 62
     7
370
     0
100
AcDbCircle
 10
238.6587094961
 20
109.7885954258
 30
0.0
 40
3.999999999999967
  0
CIRCLE
  5
D0
330
1F
100
AcDbEntity
  8
0
  6
HIDDEN
 62
     7
370
     0
100
AcDbCircle
 10
238.6587094961
 20
109.7885954258
 30
0.0
 40
1.850000000000009
  0
CIRCLE
  5
D1
330
1F
100
AcDbEntity
  8
0
  6
HIDDEN
 62
     7
370
     0
100
AcDbCircle
 10
238.6587094961
 20
109.7885954258
 30
0.0
 40
2.750000000000003
  0
LWPOLYLINE
  5
D2
330
1F
100
AcDbEntity
  8
0
  6
HIDDEN
 62
     7
370
     0
100
AcDbPolyline
 90
        3
 70
   128
 43
0.0
 10
256.1292646343
 20
113.8768442205
 10
256.1475865011
 20
114.2722240807
 10
256.1587094961
 20
114.5891261879
  0
LWPOLYLINE
  5
D3
330
1F
100
AcDbEntity
  8
0
  6
HIDDEN
 62
     7
370
     0
100
AcDbPolyline
 90
       12
 70
   128
 43
0.0
 10
256.1587094961
 20
115.9490381336
 10
256.1475865011
 20
115.8655776163
 10
256.1292646343
 20
115.6014776598
 10
256.1109427674
 20
115.2060977995
 10
256.0954102387
 20
114.7396310353
 10
256.0850317349
 20
114.2730927033
 10
256.081387289
 20
113.8775090354
 10
256.0850317349
 20
113.6131040591
 10
256.0954102387
 20
113.5201310353
 10
256.1109427674
 20
113.6127442639
 10
256.1292646343
 20
113.8768442205
 10
256.1292646343
 20
113.8768442205
  0
LWPOLYLINE
  5
D4
330
1F
100
AcDbEntity
  8
0
  6
HIDDEN
 62
     7
370
     0
100
AcDbPolyline
 90
       17
 70
   128
 43
0.0
 10
255.9674427388
 20
113.682996553
 10
255.9899788604
 20
114.1693186443
 10
256.0090840618
 20
114.7430785019
 10
256.0218497492
 20
115.3169263888
 10
256.0263324625
 20
115.803499166
 10
256.0218497492
 20
116.128720539
 10
256.0090840618
 20
116.2430785019
 10
255.9899788604
 20
116.1291630916
 10
255.9674427388
 20
115.8043168965
 10
255.9449066173
 20
115.3179948052
 10
255.9258014159
 20
114.7442349476
 10
255.9130357285
 20
114.1703870607
 10
255.9085530152
 20
113.6838142835
 10
255.9130357285
 20
113.3585929105
 10
255.9258014159
 20
113.2442349476
 10
255.9449066173
 20
113.3581503579
 10
255.9674427388
 20
113.682996553
  0
LWPOLYLINE
  5
D5
330
1F
100
AcDbEntity
  8
0
  6
HIDDEN
 62
     7
370
     0
100
AcDbPolyline
 90
       17
 70
   128
 43
0.0
 10
250.6335049349
 20
113.8311856191
 10
250.6560410565
 20
114.3175077104
 10
250.6751462579
 20
114.891267568
 10
250.6879119453
 20
115.4651154549
 10
250.6923946586
 20
115.9516882321
 10
250.6879119453
 20
116.2769096051
 10
250.6751462579
 20
116.391267568
 10
250.6560410565
 20
116.2773521577
 10
250.6335049349
 20
115.9525059626
 10
250.6109688134
 20
115.4661838713
 10
250.591863612
 20
114.8924240137
 10
250.5790979246
 20
114.3185761268
 10
250.5746152113
 20
113.8320033496
 10
250.5790979246
 20
113.5067819766
 10
250.591863612
 20
113.3924240137
 10
250.6109688134
 20
113.506339424
 10
250.6335049349
 20
113.8311856191
  0
LWPOLYLINE
  5
D6
330
1F
100
AcDbEntity
  8
0
  6
HIDDEN
 62
     7
370
     0
100
AcDbPolyline
 90
       17
 70
   128
 43
0.0
 10
250.1338904168
 20
114.1986194506
 10
250.1489144979
 20
114.5228341782
 10
250.1616512988
 20
114.9053407499
 10
250.1701617571
 20
115.2879060078
 10
250.1731502326
 20
115.6122878593
 10
250.1701617571
 20
115.829102108
 10
250.1616512988
 20
115.9053407499
 10
250.1489144979
 20
115.829397143
 10
250.1338904168
 20
115.612833013
 10
250.1188663358
 20
115.2886182855
 10
250.1061295349
 20
114.9061117137
 10
250.0976190766
 20
114.5235464558
 10
250.0946306011
 20
114.1991646043
 10
250.0976190766
 20
113.9823503557
 10
250.1061295349
 20
113.9061117137
 10
250.1188663358
 20
113.9820553206
 10
250.1338904168
 20
114.1986194506
  0
LINE
  5
D7
330
1F
100
AcDbEntity
  8
0
  6
HIDDEN
 62
     7
370
     0
100
AcDbLine
 10
256.1587094961
 20
115.5752683786
 30
0.0
 11
256.1292646343
 21
115.3515333758
 31
0.0
  0
LINE
  5
D8
330
1F
100
AcDbEntity
  8
0
  6
HIDDEN
 62
     7
370
     0
100
AcDbLine
 10
256.0998197725
 20
114.5154259373
 30
0.0
 11
256.1292646343
 21
115.3515333758
 31
0.0
  0
LINE
  5
D9
330
1F
100
AcDbEntity
  8
0
  6
HIDDEN
 62
     7
370
     0
100
AcDbLine
 10
256.0998197725
 20
113.9030535017
 30
0.0
 11
256.0998197725
 21
114.5154259373
 31
0.0
  0
LINE
  5
DA
330
1F
100
AcDbEntity
  8
0
  6
HIDDEN
 62
     7
370
     0
100
AcDbLine
 10
256.0998197725
 20
113.9030535017
 30
0.0
 11
256.1292646343
 21
114.1267885044
 31
0.0
  0
LINE
  5
DB
330
1F
100
AcDbEntity
  8
0
  6
HIDDEN
 62
     7
370
     0
100
AcDbLine
 10
256.1587094961
 20
114.9628959429
 30
0.0
 11
256.1292646343
 21
114.1267885044
 31
0.0
  0
LINE
  5
DC
330
1F
100
AcDbEntity
  8
0
  6
HIDDEN
 62
     7
370
     0
100
AcDbLine
 10
254.1013617
 20
113.9585752656
 30
0.0
 11
254.1308065618
 21
114.1823102683
 31
0.0
  0
LINE
  5
DD
330
1F
100
AcDbEntity
  8
0
  6
HIDDEN
 62
     7
370
     0
100
AcDbLine
 10
254.1013617
 20
113.9585752656
 30
0.0
 11
254.1013617
 21
114.5709477013
 31
0.0
  0
LINE
  5
DE
330
1F
100
AcDbEntity
  8
0
  6
HIDDEN
 62
     7
370
     0
100
AcDbLine
 10
254.1602514236
 20
115.6307901425
 30
0.0
 11
254.1308065618
 21
115.4070551397
 31
0.0
  0
LINE
  5
DF
330
1F
100
AcDbEntity
  8
0
  6
HIDDEN
 62
     7
370
     0
100
AcDbLine
 10
254.1602514236
 20
115.0184177068
 30
0.0
 11
254.1602514236
 21
115.6307901425
 31
0.0
  0
LINE
  5
E0
330
1F
100
AcDbEntity
  8
0
  6
HIDDEN
 62
     7
370
     0
100
AcDbLine
 10
254.1602514236
 20
115.0184177068
 30
0.0
 11
254.1308065618
 21
114.1823102683
 31
0.0
  0
LINE
  5
E1
330
1F
100
AcDbEntity
  8
0
  6
HIDDEN
 62
     7
370
     0
100
AcDbLine
 10
254.1013617
 20
114.5709477013
 30
0.0
 11
254.1308065618
 21
115.4070551397
 31
0.0
  0
LINE
  5
E2
330
1F
100
AcDbEntity
  8
0
  6
HIDDEN
 62
     7
370
     0
100
AcDbLine
 10
254.1013617
 20
114.5709477013
 30
0.0
 11
256.0998197725
 21
114.5154259373
 31
0.0
  0
LINE
  5
E3
330
1F
100
AcDbEntity
  8
0
  6
HIDDEN
 62
     7
370
     0
100
AcDbLine
 10
254.1308065618
 20
115.4070551397
 30
0.0
 11
256.1292646343
 21
115.3515333758
 31
0.0
  0
LINE
  5
E4
330
1F
100
AcDbEntity
  8
0
  6
HIDDEN
 62
     7
370
     0
100
AcDbLine
 10
254.1308065618
 20
114.1823102683
 30
0.0
 11
256.1292646343
 21
114.1267885044
 31
0.0
  0
LINE
  5
E5
330
1F
100
AcDbEntity
  8
0
  6
HIDDEN
 62
     7
370
     0
100
AcDbLine
 10
254.1013617
 20
113.9585752656
 30
0.0
 11
256.0998197725
 21
113.9030535017
 31
0.0
  0
LINE
  5
E6
330
1F
100
AcDbEntity
  8
0
  6
HIDDEN
 62
     7
370
     0
100
AcDbLine
 10
254.1602514236
 20
115.0184177068
 30
0.0
 11
256.1587094961
 21
114.9628959429
 31
0.0
  0
LINE
  5
E7
330
1F
100
AcDbEntity
  8
0
  6
HIDDEN
 62
     7
370
     0
100
AcDbLine
 10
254.1602514236
 20
115.6307901425
 30
0.0
 11
256.1587094961
 21
115.5752683786
 31
0.0
  0
LWPOLYLINE
  5
E8
330
1F
100
AcDbEntity
  8
0
  6
HIDDEN
 62
     7
370
     0
100
AcDbPolyline
 90
       17
 70
   128
 43
0.0
 10
250.6923946586
 20
103.626320981
 10
250.669858537
 20
104.1126430723
 10
250.6507533357
 20
104.6864029299
 10
250.6379876482
 20
105.2602508168
 10
250.6335049349
 20
105.746823594
 10
250.6379876482
 20
106.072044967
 10
250.6507533357
 20
106.1864029299
 10
250.669858537
 20
106.0724875196
 10
250.6923946586
 20
105.7476413245
 10
250.7149307802
 20
105.2613192333
 10
250.7340359815
 20
104.6875593756
 10
250.7468016689
 20
104.1137114887
 10
250.7512843822
 20
103.6271387115
 10
250.7468016689
 20
103.3019173385
 10
250.7340359815
 20
103.1875593756
 10
250.7149307802
 20
103.3014747859
 10
250.6923946586
 20
103.626320981
  0
LWPOLYLINE
  5
E9
330
1F
100
AcDbEntity
  8
0
  6
HIDDEN
 62
     7
370
     0
100
AcDbPolyline
 90
       17
 70
   128
 43
0.0
 10
250.1927801405
 20
103.9659939306
 10
250.1777560594
 20
104.2902086581
 10
250.1650192585
 20
104.6727152299
 10
250.1565088002
 20
105.0552804878
 10
250.1535203247
 20
105.3796623393
 10
250.1565088002
 20
105.596476588
 10
250.1650192585
 20
105.6727152299
 10
250.1777560594
 20
105.596771623
 10
250.1927801405
 20
105.380207493
 10
250.2078042215
 20
105.0559927654
 10
250.2205410224
 20
104.6734861937
 10
250.2290514807
 20
104.2909209358
 10
250.2320399562
 20
103.9665390843
 10
250.2290514807
 20
103.7497248356
 10
250.2205410224
 20
103.6734861937
 10
250.2078042215
 20
103.7494298006
 10
250.1927801405
 20
103.9659939306
  0
LWPOLYLINE
  5
EA
330
1F
100
AcDbEntity
  8
0
  6
HIDDEN
 62
     7
370
     0
100
AcDbPolyline
 90
       17
 70
   128
 43
0.0
 10
256.0263324625
 20
103.7745100471
 10
256.0037963409
 20
104.2608321384
 10
255.9846911396
 20
104.8345919961
 10
255.9719254521
 20
105.4084398829
 10
255.9674427388
 20
105.8950126601
 10
255.9719254521
 20
106.2202340331
 10
255.9846911396
 20
106.3345919961
 10
256.0037963409
 20
106.2206765857
 10
256.0263324625
 20
105.8958303907
 10
256.0488685841
 20
105.4095082994
 10
256.0679737854
 20
104.8357484417
 10
256.0807394728
 20
104.2619005549
 10
256.0852221861
 20
103.7753277777
 10
256.0807394728
 20
103.4501064046
 10
256.0679737854
 20
103.3357484417
 10
256.0488685841
 20
103.449663852
 10
256.0263324625
 20
103.7745100471
  0
LWPOLYLINE
  5
EB
330
1F
100
AcDbEntity
  8
0
  6
HIDDEN
 62
     7
370
     0
100
AcDbPolyline
 90
        8
 70
   128
 43
0.0
 10
256.1881543579
 20
103.9773492838
 10
256.1698324911
 20
104.3727291441
 10
256.1542999624
 20
104.8391959083
 10
256.1439214585
 20
105.3057342404
 10
256.1402770126
 20
105.7013179082
 10
256.1439214585
 20
105.9657228845
 10
256.1542999624
 20
106.0586959083
 10
256.1587094961
 20
106.049543197
  0
LWPOLYLINE
  5
EC
330
1F
100
AcDbEntity
  8
0
  6
HIDDEN
 62
     7
370
     0
100
AcDbPolyline
 90
        4
 70
   128
 43
0.0
 10
256.2236104317
 20
103.6220926971
 10
256.2220087535
 20
103.6206360987
 10
256.2064762248
 20
103.7132493273
 10
256.1881543579
 20
103.9773492838
  0
LINE
  5
ED
330
1F
100
AcDbEntity
  8
0
  6
HIDDEN
 62
     7
370
     0
100
AcDbLine
 10
254.2191411473
 20
104.5604092368
 30
0.0
 11
254.1896962854
 21
105.3965166753
 31
0.0
  0
LINE
  5
EE
330
1F
100
AcDbEntity
  8
0
  6
HIDDEN
 62
     7
370
     0
100
AcDbLine
 10
256.2175992197
 20
104.6159310007
 30
0.0
 11
256.1881543579
 21
105.4520384392
 31
0.0
  0
LINE
  5
EF
330
1F
100
AcDbEntity
  8
0
  6
HIDDEN
 62
     7
370
     0
100
AcDbLine
 10
254.2191411473
 20
104.5604092368
 30
0.0
 11
256.2175992197
 21
104.6159310007
 31
0.0
  0
LINE
  5
F0
330
1F
100
AcDbEntity
  8
0
  6
HIDDEN
 62
     7
370
     0
100
AcDbLine
 10
254.2191411473
 20
103.9480368011
 30
0.0
 11
254.2191411473
 21
104.5604092368
 31
0.0
  0
LINE
  5
F1
330
1F
100
AcDbEntity
  8
0
  6
HIDDEN
 62
     7
370
     0
100
AcDbLine
 10
256.2175992197
 20
104.003558565
 30
0.0
 11
256.2175992197
 21
104.6159310007
 31
0.0
  0
LINE
  5
F2
330
1F
100
AcDbEntity
  8
0
  6
HIDDEN
 62
     7
370
     0
100
AcDbLine
 10
254.1896962854
 20
105.3965166753
 30
0.0
 11
256.1881543579
 21
105.4520384392
 31
0.0
  0
LINE
  5
F3
330
1F
100
AcDbEntity
  8
0
  6
HIDDEN
 62
     7
370
     0
100
AcDbLine
 10
254.1602514236
 20
105.6202516781
 30
0.0
 11
254.1896962854
 21
105.3965166753
 31
0.0
  0
LINE
  5
F4
330
1F
100
AcDbEntity
  8
0
  6
HIDDEN
 62
     7
370
     0
100
AcDbLine
 10
256.1587094961
 20
105.675773442
 30
0.0
 11
256.1881543579
 21
105.4520384392
 31
0.0
  0
LINE
  5
F5
330
1F
100
AcDbEntity
  8
0
  6
HIDDEN
 62
     7
370
     0
100
AcDbLine
 10
254.1896962854
 20
104.1717718039
 30
0.0
 11
256.1881543579
 21
104.2272935678
 31
0.0
  0
LINE
  5
F6
330
1F
100
AcDbEntity
  8
0
  6
HIDDEN
 62
     7
370
     0
100
AcDbLine
 10
254.2191411473
 20
103.9480368011
 30
0.0
 11
256.2175992197
 21
104.003558565
 31
0.0
  0
LINE
  5
F7
330
1F
100
AcDbEntity
  8
0
  6
HIDDEN
 62
     7
370
     0
100
AcDbLine
 10
254.2191411473
 20
103.9480368011
 30
0.0
 11
254.1896962854
 21
104.1717718039
 31
0.0
  0
LINE
  5
F8
330
1F
100
AcDbEntity
  8
0
  6
HIDDEN
 62
     7
370
     0
100
AcDbLine
 10
256.2175992197
 20
104.003558565
 30
0.0
 11
256.1881543579
 21
104.2272935678
 31
0.0
  0
LINE
  5
F9
330
1F
100
AcDbEntity
  8
0
  6
HIDDEN
 62
     7
370
     0
100
AcDbLine
 10
254.1602514236
 20
105.0078792424
 30
0.0
 11
256.1587094961
 21
105.0634010063
 31
0.0
  0
LINE
  5
FA
330
1F
100
AcDbEntity
  8
0
  6
HIDDEN
 62
     7
370
     0
100
AcDbLine
 10
254.1602514236
 20
105.6202516781
 30
0.0
 11
256.1587094961
 21
105.675773442
 31
0.0
  0
LINE
  5
FB
330
1F
100
AcDbEntity
  8
0
  6
HIDDEN
 62
     7
370
     0
100
AcDbLine
 10
254.1602514236
 20
105.0078792424
 30
0.0
 11
254.1602514236
 21
105.6202516781
 31
0.0
  0
LINE
  5
FC
330
1F
100
AcDbEntity
  8
0
  6
HIDDEN
 62
     7
370
     0
100
AcDbLine
 10
254.1602514236
 20
105.0078792424
 30
0.0
 11
254.1896962854
 21
104.1717718039
 31
0.0
  0
LINE
  5
FD
330
1F
100
AcDbEntity
  8
0
  6
HIDDEN
 62
     7
370
     0
100
AcDbLine
 10
256.1587094961
 20
105.0634010063
 30
0.0
 11
256.1881543579
 21
104.2272935678
 31
0.0
  0
LINE
  5
FE
330
1F
100
AcDbEntity
  8
0
  6
HIDDEN
 62
     7
370
     0
100
AcDbLine
 10
112.8966804752
 20
148.7395581867
 30
0.0
 11
112.8966804752
 21
141.1385954258
 31
0.0
  0
SPLINE
  5
FF
330
1F
100
AcDbEntity
  8
0
  6
HIDDEN
 62
     7
370
     0
100
AcDbSpline
210
0.0
220
0.0
230
1.0
 70
     8
 71
     3
 72
    80
 73
    76
 74
     0
 42
0.00000001
 43
0.00000001
 40
-0.0312500000000003
 40
-0.0312500000000003
 40
0.0
 40
0.0
 40
0.03125
 40
0.03125
 40
0.046875
 40
0.046875
 40
0.0624999999999999
 40
0.0624999999999999
 40
0.0937499999999998
 40
0.0937499999999998
 40
0.1249999999999996
 40
0.1249999999999996
 40
0.1562499999999995
 40
0.1562499999999995
 40
0.1874999999999994
 40
0.1874999999999994
 40
0.2187499999999993
 40
0.2187499999999993
 40
0.2499999999999992
 40
0.2499999999999992
 40
0.2812499999999991
 40
0.2812499999999991
 40
0.3124999999999989
 40
0.3124999999999989
 40
0.3281249999999988
 40
0.3281249999999988
 40
0.3437499999999986
 40
0.3437499999999986
 40
0.3749999999999983
 40
0.3749999999999983
 40
0.4062499999999981
 40
0.4062499999999981
 40
0.4218749999999979
 40
0.4218749999999979
 40
0.4374999999999978
 40
0.4374999999999978
 40
0.4687499999999977
 40
0.4687499999999977
 40
0.4999999999999975
 40
0.4999999999999975
 40
0.5312499999999972
 40
0.5312499999999972
 40
0.562499999999997
 40
0.562499999999997
 40
0.5937499999999968
 40
0.5937499999999968
 40
0.6249999999999966
 40
0.6249999999999966
 40
0.6562499999999964
 40
0.6562499999999964
 40
0.6874999999999962
 40
0.6874999999999962
 40
0.7031249999999962
 40
0.7031249999999962
 40
0.7187499999999963
 40
0.7187499999999963
 40
0.7499999999999968
 40
0.7499999999999968
 40
0.7812499999999972
 40
0.7812499999999972
 40
0.7968749999999976
 40
0.7968749999999976
 40
0.8124999999999978
 40
0.8124999999999978
 40
0.8437499999999981
 40
0.8437499999999981
 40
0.8749999999999984
 40
0.8749999999999984
 40
0.9062499999999989
 40
0.9062499999999989
 40
0.9374999999999992
 40
0.9374999999999992
 40
0.9687499999999997
 40
0.9687499999999997
 40
1.0
 40
1.0
 40
1.03125
 40
1.03125
 10
105.4892548088693
 20
158.6481446822609
 30
0.0
 10
104.8281641833167
 20
158.6481446822609
 30
0.0
 10
104.503184054065
 20
158.6412465364341
 30
0.0
 10
104.0237106428186
 20
158.6207201084536
 30
0.0
 10
103.8652288249778
 20
158.6121638813661
 30
0.0
 10
103.5510092924735
 20
158.5914375061484
 30
0.0
 10
103.3948890087931
 20
158.5792102059421
 30
0.0
 10
102.9408349798366
 20
158.5376409121128
 30
0.0
 10
102.6537315968967
 20
158.5032966270151
 30
0.0
 10
102.1103770408697
 20
158.4199725026928
 30
0.0
 10
101.8532734296641
 20
158.3705342799183
 30
0.0
 10
101.3923671747253
 20
158.2591545501584
 30
0.0
 10
101.1854694655104
 20
158.1968600366462
 30
0.0
 10
100.8199441515182
 20
158.0569303937752
 30
0.0
 10
100.6647386293922
 20
157.9803144960262
 30
0.0
 10
100.4153082427925
 20
157.8163558761705
 30
0.0
 10
100.3192182870073
 20
157.7277990220747
 30
0.0
 10
100.1906994378137
 20
157.540318339969
 30
0.0
 10
100.158888567636
 20
157.4430818785146
 30
0.0
 10
100.1585319178627
 20
157.2414492391875
 30
0.0
 10
100.1910291700598
 20
157.1359004473493
 30
0.0
 10
100.3186546437743
 20
156.9257856646608
 30
0.0
 10
100.4130830448262
 20
156.8207201566919
 30
0.0
 10
100.6009438648117
 20
156.6638424494408
 30
0.0
 10
100.6717718636149
 20
156.611408715735
 30
0.0
 10
100.8264937555802
 20
156.5089702701053
 30
0.0
 10
100.9104702257636
 20
156.4588225414535
 30
0.0
 10
101.181793895408
 20
156.31180658502
 30
0.0
 10
101.3883431140103
 20
156.2183187645855
 30
0.0
 10
101.8549532541994
 20
156.0425319069712
 30
0.0
 10
102.1073188238248
 20
155.9631534318875
 30
0.0
 10
102.5132201655035
 20
155.8576709943934
 30
0.0
 10
102.653120782981
 20
155.8247854295533
 30
0.0
 10
102.9423447182279
 20
155.7638699503246
 30
0.0
 10
103.0921841745172
 20
155.7357893786822
 30
0.0
 10
103.546300744128
 20
155.6609873366394
 30
0.0
 10
103.8579519628649
 20
155.6229492783933
 30
0.0
 10
104.4989484277772
 20
155.5713373518692
 30
0.0
 10
104.8304760557294
 20
155.5580234183477
 30
0.0
 10
105.4832671008009
 20
155.5579263320196
 30
0.0
 10
105.8078033058327
 20
155.5707144171807
 30
0.0
 10
106.4530727552491
 20
155.6222046067766
 30
0.0
 10
106.7688157614118
 20
155.6607291860967
 30
0.0
 10
107.3707050563955
 20
155.7596317489547
 30
0.0
 10
107.661454287207
 20
155.8207358468797
 30
0.0
 10
108.2083660788915
 20
155.9625452799904
 30
0.0
 10
108.4601434427284
 20
156.0418797645696
 30
0.0
 10
108.9215314353496
 20
156.2152585092311
 30
0.0
 10
109.1328007149476
 20
156.3104184539851
 30
0.0
 10
109.4961050673238
 20
156.506990977361
 30
0.0
 10
109.6499117157666
 20
156.6087472057674
 30
0.0
 10
109.838531185364
 20
156.7655331685529
 30
0.0
 10
109.8945616715731
 20
156.8187872023029
 30
0.0
 10
109.9901354333093
 20
156.9245917638557
 30
0.0
 10
110.0298983503343
 20
156.9772448282112
 30
0.0
 10
110.1256701006464
 20
157.1343185476703
 30
0.0
 10
110.1583929397725
 20
157.2378435829975
 30
0.0
 10
110.1590215261016
 20
157.4420583172246
 30
0.0
 10
110.1268353813668
 20
157.5395621548093
 30
0.0
 10
110.0319246795113
 20
157.678889205161
 30
0.0
 10
109.9924578961123
 20
157.7242059366654
 30
0.0
 10
109.8975278973914
 20
157.8126457576543
 30
0.0
 10
109.8417710696281
 20
157.8559000081142
 30
0.0
 10
109.6538309516582
 20
157.9797914827043
 30
0.0
 10
109.500469481942
 20
158.0554937734783
 30
0.0
 10
109.1382052470616
 20
158.1947481449365
 30
0.0
 10
108.9273567735957
 20
158.2585099864652
 30
0.0
 10
108.4666868032768
 20
158.370006825933
 30
0.0
 10
108.215312423693
 20
158.4185328982497
 30
0.0
 10
107.6694045367949
 20
158.5025868816302
 30
0.0
 10
107.3785819621436
 20
158.5373854352968
 30
0.0
 10
106.7772553473636
 20
158.5925819000607
 30
0.0
 10
106.4627367627512
 20
158.6133997488145
 30
0.0
 10
105.8161553066313
 20
158.6412470817253
 30
0.0
 10
105.4892548088693
 20
158.6481446822609
 30
0.0
 10
104.8281641833167
 20
158.6481446822609
 30
0.0
  0
SPLINE
  5
100
330
1F
100
AcDbEntity
  8
0
  6
HIDDEN
 62
     7
370
     0
100
AcDbSpline
210
0.0
220
0.0
230
1.0
 70
     8
 71
     3
 72
     9
 73
     5
 74
     0
 42
0.00000001
 43
0.00000001
 40
0.0
 40
0.0
 40
0.0
 40
0.0
 40
0.5038163044167481
 40
1.0
 40
1.0
 40
1.0
 40
1.0
 10
76.57213424552032
 20
73.05278906350887
 30
0.0
 10
76.28845506078181
 20
73.02863588941014
 30
0.0
 10
75.72539431373649
 20
72.9806954518201
 30
0.0
 10
75.36903327192728
 20
72.93938310353425
 30
0.0
 10
75.19221273324048
 20
72.91888458988858
 30
0.0
  0
SPLINE
  5
101
330
1F
100
AcDbEntity
  8
0
  6
HIDDEN
 62
     7
370
     0
100
AcDbSpline
210
0.0
220
0.0
230
1.0
 70
     8
 71
     3
 72
    12
 73
     8
 74
     0
 42
0.00000001
 43
0.00000001
 40
0.0
 40
0.0
 40
0.0
 40
0.0
 40
0.1661348616735903
 40
0.3322013257393936
 40
0.5008932044678248
 40
0.752137078264078
 40
1.0
 40
1.0
 40
1.0
 40
1.0
 10
74.6780311617402
 20
146.7198994488485
 30
0.0
 10
74.68842378584826
 20
146.7185213247871
 30
0.0
 10
74.7092047554282
 20
146.715765644037
 30
0.0
 10
74.88250424487512
 20
146.694162269075
 30
0.0
 10
75.20445583411885
 20
146.6562973171331
 30
0.0
 10
75.72562167003817
 20
146.5959135504169
 30
0.0
 10
76.2911796098759
 20
146.5481204132675
 30
0.0
 10
76.57204303356393
 20
146.5243857201741
 30
0.0
  0
SPLINE
  5
102
330
1F
100
AcDbEntity
  8
0
  6
HIDDEN
 62
     7
370
     0
100
AcDbSpline
210
0.0
220
0.0
230
1.0
 70
     8
 71
     3
 72
     9
 73
     5
 74
     0
 42
0.00000001
 43
0.00000001
 40
0.0
 40
0.0
 40
0.0
 40
0.0
 40
0.661217565271851
 40
1.0
 40
1.0
 40
1.0
 40
1.0
 10
86.411915151284
 20
141.1549176465301
 30
0.0
 10
86.70341725756927
 20
141.1987031419224
 30
0.0
 10
87.14427382520361
 20
141.2649226401511
 30
0.0
 10
87.09286153803023
 20
141.2571174177976
 30
0.0
 10
87.0754439582067
 20
141.254473145565
 30
0.0
  0
SPLINE
  5
103
330
1F
100
AcDbEntity
  8
0
  6
HIDDEN
 62
     7
370
     0
100
AcDbSpline
210
0.0
220
0.0
230
1.0
 70
     8
 71
     3
 72
     9
 73
     5
 74
     0
 42
0.00000001
 43
0.00000001
 40
0.0
 40
0.0
 40
0.0
 40
0.0
 40
0.3224758141376582
 40
0.9999999999999999
 40
0.9999999999999999
 40
0.9999999999999999
 40
0.9999999999999999
 10
87.07544378202883
 20
78.32271772936835
 30
0.0
 10
87.09408567405359
 20
78.31994974244597
 30
0.0
 10
87.15189432576473
 20
78.31136619353768
 30
0.0
 10
86.71078046241955
 20
78.37747970321638
 30
0.0
 10
86.411915151284
 20
78.42227320503592
 30
0.0
  0
SPLINE
  5
104
330
1F
100
AcDbEntity
  8
0
  6
HIDDEN
 62
     7
370
     0
100
AcDbSpline
210
0.0
220
0.0
230
1.0
 70
     8
 71
     3
 72
    15
 73
    11
 74
     0
 42
0.00000001
 43
0.00000001
 40
0.0
 40
0.0
 40
0.0
 40
0.0
 40
0.1285821516379736
 40
0.2571635483376876
 40
0.385323567199189
 40
0.5113778119466696
 40
0.6369260966772228
 40
0.7643185820319293
 40
0.8930603485208921
 40
1.0
 40
1.0
 40
1.0
 40
1.0
 10
86.411915151284
 20
78.42227320503592
 30
0.0
 10
86.02639303004385
 20
78.48407899561985
 30
0.0
 10
85.2553510510612
 20
78.60769021391033
 30
0.0
 10
83.4767932043046
 20
78.79843879791608
 30
0.0
 10
81.48298190886494
 20
78.88608623502141
 30
0.0
 10
79.45894400163021
 20
78.83918107231896
 30
0.0
 10
77.63083543467123
 20
78.67893086457745
 30
0.0
 10
76.19940421339216
 20
78.47775150669838
 30
0.0
 10
75.2955207359166
 20
78.31520977205165
 30
0.0
 10
75.23293679816045
 20
78.30280948535132
 30
0.0
 10
75.20453954669478
 20
78.29718289692782
 30
0.0
  0
SPLINE
  5
105
330
1F
100
AcDbEntity
  8
0
  6
HIDDEN
 62
     7
370
     0
100
AcDbSpline
210
0.0
220
0.0
230
1.0
 70
     8
 71
     3
 72
    16
 73
    12
 74
     0
 42
0.00000001
 43
0.00000001
 40
0.0
 40
0.0
 40
0.0
 40
0.0
 40
0.0205567982654305
 40
0.1461296737692548
 40
0.2720439921275847
 40
0.3999539720187822
 40
0.528504097482051
 40
0.655245546444081
 40
0.7805594897978894
 40
0.9070378665747952
 40
1.0
 40
1.0
 40
1.0
 40
1.0
 10
75.20453954669478
 20
141.2800079546382
 30
0.0
 10
75.18987233441177
 20
141.2827543312429
 30
0.0
 10
75.08560926200407
 20
141.3022771728892
 30
0.0
 10
75.5363892728507
 20
141.2159026151323
 30
0.0
 10
76.54962840342556
 20
141.0447700131983
 30
0.0
 10
78.14395672140685
 20
140.8412292282609
 30
0.0
 10
80.07045608354137
 20
140.7088382622862
 30
0.0
 10
82.11694788409297
 20
140.7050420835954
 30
0.0
 10
84.0301072998159
 20
140.8278186562251
 30
0.0
 10
85.51481568521513
 20
141.0096335163466
 30
0.0
 10
86.14496388834955
 20
141.1116852252616
 30
0.0
 10
86.411915151284
 20
141.15491764653
 30
0.0
  0
LINE
  5
106
330
1F
100
AcDbEntity
  8
0
  6
HIDDEN
 62
     7
370
     0
100
AcDbLine
 10
66.1553338231
 20
83.2885954258
 30
0.0
 11
66.1553338231
 21
136.2885954258
 31
0.0
  0
LINE
  5
107
330
1F
100
AcDbEntity
  8
0
  6
HIDDEN
 62
     7
370
     0
100
AcDbLine
 10
105.4427871145
 20
83.2885954258
 30
0.0
 11
105.4427871145
 21
136.2885954258
 31
0.0
  0
LINE
  5
108
330
1F
100
AcDbEntity
  8
0
  6
HIDDEN
 62
     7
370
     0
100
AcDbLine
 10
108.6087094961
 20
84.9135954258
 30
0.0
 11
108.6087094961
 21
134.6635954258
 31
0.0
  0
SPLINE
  5
109
330
1F
100
AcDbEntity
  8
0
  6
HIDDEN
 62
     7
370
     0
100
AcDbSpline
210
0.0
220
0.0
230
1.0
 70
     8
 71
     3
 72
    20
 73
    16
 74
     0
 42
0.00000001
 43
0.00000001
 40
0.0
 40
0.0
 40
0.0
 40
0.0
 40
0.2499999999999978
 40
0.2499999999999978
 40
0.3749999999999982
 40
0.3749999999999982
 40
0.4999999999999986
 40
0.4999999999999986
 40
0.6249999999999989
 40
0.6249999999999989
 40
0.7499999999999992
 40
0.7499999999999992
 40
0.8749999999999997
 40
0.8749999999999997
 40
1.0
 40
1.0
 40
1.0
 40
1.0
 10
56.35870949609296
 20
135.0171090561973
 30
0.0
 10
56.35870949609298
 20
134.937906069665
 30
0.0
 10
56.31172700088023
 20
134.8568098512621
 30
0.0
 10
56.17390541010266
 20
134.7366131595112
 30
0.0
 10
56.11762312619268
 20
134.6976864555091
 30
0.0
 10
55.98453827472545
 20
134.6224977230847
 30
0.0
 10
55.9066983324924
 20
134.5858555177427
 30
0.0
 10
55.73406597637805
 20
134.5182649849109
 30
0.0
 10
55.63967297928696
 20
134.4873068031353
 30
0.0
 10
55.43423567297182
 20
134.4317823817656
 30
0.0
 10
55.32188943298465
 20
134.4070738679324
 30
0.0
 10
55.08964856908502
 20
134.3672776408241
 30
0.0
 10
54.9689379266623
 20
134.3518578034271
 30
0.0
 10
54.71786706739326
 20
134.3307778285875
 30
0.0
 10
54.58834507097748
 20
134.3253005835665
 30
0.0
 10
54.45870949609296
 20
134.3253005835665
 30
0.0
  0
LINE
  5
10A
330
1F
100
AcDbEntity
  8
0
  6
HIDDEN
 62
     7
370
     0
100
AcDbLine
 10
54.4587094961
 20
134.3253005836
 30
0.0
 11
47.9087094961
 21
134.3253005836
 31
0.0
  0
LINE
  5
10B
330
1F
100
AcDbEntity
  8
0
  6
HIDDEN
 62
     7
370
     0
100
AcDbLine
 10
47.9087094961
 20
85.251890268
 30
0.0
 11
59.4587094961
 21
85.251890268
 31
0.0
  0
SPLINE
  5
10C
330
1F
100
AcDbEntity
  8
0
  6
HIDDEN
 62
     7
370
     0
100
AcDbSpline
210
0.0
220
0.0
230
1.0
 70
     8
 71
     3
 72
    18
 73
    14
 74
     0
 42
0.00000001
 43
0.00000001
 40
0.0
 40
0.0
 40
0.0
 40
0.0
 40
0.1249999999999982
 40
0.1249999999999982
 40
0.2499999999999964
 40
0.2499999999999964
 40
0.4999999999999988
 40
0.4999999999999988
 40
0.7500000000000011
 40
0.7500000000000011
 40
0.8750000000000006
 40
0.8750000000000006
 40
1.0
 40
1.0
 40
1.0
 40
1.0
 10
59.45870949609297
 20
85.25189026799949
 30
0.0
 10
59.58817680905018
 20
85.25189026799949
 30
0.0
 10
59.71518755794682
 20
85.24653726940684
 30
0.0
 10
59.96455087914407
 20
85.22579929671805
 30
0.0
 10
60.08817453377251
 20
85.21012739246376
 30
0.0
 10
60.43720687070655
 20
85.15043266406168
 30
0.0
 10
60.64771863551334
 20
85.09266748438068
 30
0.0
 10
60.99163531321286
 20
84.9581456431032
 30
0.0
 10
61.12798571473066
 20
84.88047652959779
 30
0.0
 10
61.2650237712932
 20
84.76118539551045
 30
0.0
 10
61.30024279000611
 20
84.7202663863754
 30
0.0
 10
61.34686636694467
 20
84.63961039308538
 30
0.0
 10
61.35870949609298
 20
84.5996418728925
 30
0.0
 10
61.35870949609297
 20
84.5600817953687
 30
0.0
  0
LINE
  5
10D
330
1F
100
AcDbEntity
  8
0
  6
HIDDEN
 62
     7
370
     0
100
AcDbLine
 10
47.9087094961
 20
85.251890268
 30
0.0
 11
47.9087094961
 21
134.3253005836
 31
0.0
  0
LWPOLYLINE
  5
10E
330
1F
100
AcDbEntity
  8
0
  6
HIDDEN
 62
     7
370
     0
100
AcDbPolyline
 90
       13
 70
   128
 43
0.0
 10
105.1587094961
 20
149.7323259891
 10
106.3117888498
 20
149.7871441834
 10
107.4027053971
 20
149.9486435031
 10
108.3726475445
 20
150.2081174783
 10
109.1693254599
 20
150.5515777996
 10
109.7497900305
 20
150.9605084323
 10
110.0827482612
 20
151.4128638202
 10
110.1502502874
 20
151.8842573671
 10
109.9486570577
 20
152.3492761249
 10
109.488836515
 20
152.7828508121
 10
108.795577704
 20
153.1616073051
 10
107.9062543864
 20
153.4651267432
 10
107.5569508731
 20
153.5504865941
  0
LWPOLYLINE
  5
10F
330
1F
100
AcDbEntity
  8
0
  6
HIDDEN
 62
     7
370
     0
100
AcDbPolyline
 90
       13
 70
   128
 43
0.0
 10
102.7569764672
 20
153.5497095423
 10
102.4111646057
 20
153.4651267432
 10
101.5218412882
 20
153.1616073051
 10
100.8285824772
 20
152.7828508121
 10
100.3687619345
 20
152.3492761249
 10
100.1671687047
 20
151.8842573671
 10
100.234670731
 20
151.4128638202
 10
100.5676289617
 20
150.9605084323
 10
101.1480935323
 20
150.5515777996
 10
101.9447714477
 20
150.2081174783
 10
102.9147135951
 20
149.9486435031
 10
104.0056301424
 20
149.7871441834
 10
105.1587094961
 20
149.7323259891
  0
LINE
  5
110
330
1F
100
AcDbEntity
  8
0
  6
HIDDEN
 62
     7
370
     0
100
AcDbLine
 10
47.9087094961
 20
82.4185954258
 30
0.0
 11
47.9087094961
 21
77.540310224
 31
0.0
  0
LINE
  5
111
330
1F
100
AcDbEntity
  8
0
  6
HIDDEN
 62
     7
370
     0
100
AcDbLine
 10
61.3587094961
 20
82.4185954258
 30
0.0
 11
61.3587094961
 21
75.9192621604
 31
0.0
  0
LINE
  5
112
330
1F
100
AcDbEntity
  8
0
  6
HIDDEN
 62
     7
370
     0
100
AcDbLine
 10
56.3587094961
 20
137.1585954258
 30
0.0
 11
56.3587094961
 21
143.5332041628
 31
0.0
  0
LINE
  5
113
330
1F
100
AcDbEntity
  8
0
  6
HIDDEN
 62
     7
370
     0
100
AcDbLine
 10
47.9087094961
 20
137.1585954258
 30
0.0
 11
47.9087094961
 21
142.0368806276
 31
0.0
  0
SPLINE
  5
114
330
1F
100
AcDbEntity
  8
0
  6
HIDDEN
 62
     7
370
     0
100
AcDbSpline
210
0.0
220
0.0
230
1.0
 70
     8
 71
     3
 72
    44
 73
    40
 74
     0
 42
0.00000001
 43
0.00000001
 40
-0.0542986170245601
 40
-0.03437200135678
 40
-0.0162772998243957
 40
0.0
 40
0.0197533517029062
 40
0.0421172912116266
 40
0.0671142568495604
 40
0.0947596943526743
 40
0.1250644115378905
 40
0.1550045412104301
 40
0.1824618030922977
 40
0.20744773680874
 40
0.2299783173726178
 40
0.2500760254514737
 40
0.2849173337317717
 40
0.3265109732475475
 40
0.3749208740782596
 40
0.4004148468408676
 40
0.4240456092331163
 40
0.4458191306704612
 40
0.4657433144461283
 40
0.4838287567072015
 40
0.5000899210327506
 40
0.5343674268990256
 40
0.5759569854545108
 40
0.6249181002958414
 40
0.6500699256061989
 40
0.6734973768540814
 40
0.6952068738889612
 40
0.7152066970111901
 40
0.7335076558363322
 40
0.7501240871983477
 40
0.7849044257233077
 40
0.8264538241655885
 40
0.874836290057932
 40
0.9003125129972903
 40
0.9239322054291594
 40
0.9457013829754399
 40
0.96562799864322
 40
0.9837227001756043
 40
1.0
 40
1.019753351702906
 40
1.042117291211627
 40
1.06711425684956
 10
238.2968580555959
 20
106.4012111566557
 30
0.0
 10
238.6835251090143
 20
106.3813426668806
 30
0.0
 10
239.1008263612765
 20
106.4073689887872
 30
0.0
 10
239.5717652161628
 20
106.5004037644746
 30
0.0
 10
240.0761221965641
 20
106.6810710356569
 30
0.0
 10
240.5926999411713
 20
106.9694990610395
 30
0.0
 10
241.0750217236635
 20
107.3680954829154
 30
0.0
 10
241.4733684519445
 20
107.8487804164824
 30
0.0
 10
241.7614335061369
 20
108.3609870851188
 30
0.0
 10
241.9439093589477
 20
108.8644962247004
 30
0.0
 10
242.0391470156076
 20
109.3387614300625
 30
0.0
 10
242.074608761337
 20
109.8921624897308
 30
0.0
 10
241.9986477385509
 20
110.583204750004
 30
0.0
 10
241.6902818254622
 20
111.426651129852
 30
0.0
 10
241.1975548473508
 20
112.0969077896117
 30
0.0
 10
240.6705180405511
 20
112.546083563102
 30
0.0
 10
240.2408318175513
 20
112.8110736919783
 30
0.0
 10
239.8137698490279
 20
112.99672737321
 30
0.0
 10
239.4035159488961
 20
113.11433991775
 30
0.0
 10
239.0204947647962
 20
113.1759673258067
 30
0.0
 10
238.5303716262431
 20
113.2012126660105
 30
0.0
 10
237.8708856602733
 20
113.1296421113711
 30
0.0
 10
237.026749606698
 20
112.8240986810786
 30
0.0
 10
236.354313114823
 20
112.331330860815
 30
0.0
 10
235.9047166335745
 20
111.8046827093229
 30
0.0
 10
235.6409109056428
 20
111.379340060678
 30
0.0
 10
235.4543526714383
 20
110.954107731408
 30
0.0
 10
235.33491567799
 20
110.5426295624445
 30
0.0
 10
235.2716265028174
 20
110.1551436054214
 30
0.0
 10
235.2456975113766
 20
109.6573356388565
 30
0.0
 10
235.3193428555673
 20
108.9919565474811
 30
0.0
 10
235.6277335670267
 20
108.1496028342448
 30
0.0
 10
236.1201927353611
 20
107.479979305515
 30
0.0
 10
236.6469364630637
 20
107.0311013198994
 30
0.0
 10
237.0764073106469
 20
106.7662207817362
 30
0.0
 10
237.5033645284985
 20
106.5805655441972
 30
0.0
 10
237.913667688904
 20
106.4629021804483
 30
0.0
 10
238.2968580555959
 20
106.4012111566557
 30
0.0
 10
238.6835251090143
 20
106.3813426668806
 30
0.0
 10
239.1008263612765
 20
106.4073689887872
 30
0.0
  0
SPLINE
  5
115
330
1F
100
AcDbEntity
  8
0
  6
HIDDEN
 62
     7
370
     0
100
AcDbSpline
210
0.0
220
0.0
230
1.0
 70
     8
 71
     3
 72
    81
 73
    77
 74
     0
 42
0.00000001
 43
0.00000001
 40
-0.0312500000000014
 40
-0.0312500000000014
 40
0.0
 40
0.0
 40
0.0312499999999975
 40
0.0312499999999975
 40
0.0624999999999949
 40
0.0624999999999949
 40
0.0937499999999924
 40
0.0937499999999924
 40
0.1093749999999923
 40
0.1093749999999923
 40
0.1249999999999921
 40
0.1249999999999921
 40
0.1562499999999918
 40
0.1562499999999918
 40
0.1874999999999914
 40
0.1874999999999914
 40
0.218749999999991
 40
0.218749999999991
 40
0.2343749999999906
 40
0.2343749999999906
 40
0.2499999999999901
 40
0.2656249999999897
 40
0.2656249999999897
 40
0.2812499999999892
 40
0.2812499999999892
 40
0.3124999999999883
 40
0.3124999999999883
 40
0.3281249999999873
 40
0.3281249999999873
 40
0.3437499999999863
 40
0.3437499999999863
 40
0.3593749999999854
 40
0.3593749999999854
 40
0.3749999999999844
 40
0.3749999999999844
 40
0.4062499999999843
 40
0.4062499999999843
 40
0.4374999999999843
 40
0.4374999999999843
 40
0.4687499999999843
 40
0.4687499999999843
 40
0.4999999999999842
 40
0.4999999999999842
 40
0.5312499999999841
 40
0.5312499999999841
 40
0.562499999999984
 40
0.562499999999984
 40
0.593749999999984
 40
0.593749999999984
 40
0.6249999999999839
 40
0.6249999999999839
 40
0.6406249999999839
 40
0.6406249999999839
 40
0.6562499999999838
 40
0.6562499999999838
 40
0.6874999999999852
 40
0.6874999999999852
 40
0.7187499999999868
 40
0.7187499999999868
 40
0.7499999999999882
 40
0.7499999999999882
 40
0.7812499999999897
 40
0.7812499999999897
 40
0.8124999999999911
 40
0.8124999999999911
 40
0.8437499999999927
 40
0.8437499999999927
 40
0.8749999999999941
 40
0.8749999999999941
 40
0.9062499999999956
 40
0.9062499999999956
 40
0.937499999999997
 40
0.937499999999997
 40
0.9687499999999986
 40
0.9687499999999986
 40
1.0
 40
1.0
 40
1.031249999999998
 40
1.031249999999998
 10
236.5038017077343
 20
104.8241798995019
 30
0.0
 10
235.8136172844517
 20
104.8241798995019
 30
0.0
 10
235.4736838143864
 20
104.8533485667971
 30
0.0
 10
234.8037646828001
 20
104.9682390697921
 30
0.0
 10
234.4716089737836
 20
105.0547531514333
 30
0.0
 10
233.827730233108
 20
105.2856867088013
 30
0.0
 10
233.5210274273853
 20
105.4278605497018
 30
0.0
 10
233.0836999992626
 20
105.6818632711249
 30
0.0
 10
232.9417367141404
 20
105.7733672011215
 30
0.0
 10
232.665735848128
 20
105.9707709690414
 30
0.0
 10
232.5312539206035
 20
106.0771658889991
 30
0.0
 10
232.1489495446064
 20
106.4117535056843
 30
0.0
 10
231.9192273043084
 20
106.6569155096579
 30
0.0
 10
231.5111065195317
 20
107.1935076890214
 30
0.0
 10
231.3313321948903
 20
107.4889635921476
 30
0.0
 10
231.0433049019822
 20
108.1029569438266
 30
0.0
 10
230.9327660654579
 20
108.4230538400598
 30
0.0
 10
230.8193404504941
 20
108.92398582416
 30
0.0
 10
230.790359486764
 20
109.0952353761466
 30
0.0
 10
230.7519396086834
 20
109.4358277632625
 30
0.0
 10
230.732445790798
 20
109.7764890274287
 30
0.0
 10
230.7501759830065
 20
110.1172859303636
 30
0.0
 10
230.7868470768813
 20
110.4581517721356
 30
0.0
 10
230.8149348545618
 20
110.629512671776
 30
0.0
 10
230.9259223885063
 20
111.131555535735
 30
0.0
 10
231.0351907989082
 20
111.4534397591337
 30
0.0
 10
231.2506360262315
 20
111.9178042102446
 30
0.0
 10
231.3315231486725
 20
112.0699965320895
 30
0.0
 10
231.5069870931812
 20
112.3616228718596
 30
0.0
 10
231.6018641420742
 20
112.5018619869054
 30
0.0
 10
231.8054325725519
 20
112.7716849464373
 30
0.0
 10
231.914125691341
 20
112.9012672355101
 30
0.0
 10
232.1452889224288
 20
113.1499351271937
 30
0.0
 10
232.2682981273134
 20
113.2694044335485
 30
0.0
 10
232.6507230619991
 20
113.605508605801
 30
0.0
 10
232.9251058725497
 20
113.8022509597907
 30
0.0
 10
233.5112284534441
 20
114.1445666051192
 30
0.0
 10
233.8240723792164
 20
114.289781212334
 30
0.0
 10
234.4630771277121
 20
114.5197809083082
 30
0.0
 10
234.7920441923764
 20
114.6064524360654
 30
0.0
 10
235.4690699131514
 20
114.723528635146
 30
0.0
 10
235.8122220261671
 20
114.7526778257176
 30
0.0
 10
236.4934364360517
 20
114.7533383765037
 30
0.0
 10
236.8337136707115
 20
114.7252574382518
 30
0.0
 10
237.5135307643472
 20
114.6092719987554
 30
0.0
 10
237.8427408429267
 20
114.5231221796413
 30
0.0
 10
238.480367305695
 20
114.2952556722223
 30
0.0
 10
238.7905501425947
 20
114.1525283409605
 30
0.0
 10
239.3807167343056
 20
113.8101434803159
 30
0.0
 10
239.6549350173015
 20
113.614260663425
 30
0.0
 10
240.0350351481918
 20
113.2825152807667
 30
0.0
 10
240.1564957674912
 20
113.1655708263422
 30
0.0
 10
240.388485924415
 20
112.9182324254337
 30
0.0
 10
240.4994734770542
 20
112.7871094355194
 30
0.0
 10
240.8077503081354
 20
112.3817964293837
 30
0.0
 10
240.9829713429671
 20
112.0937583289741
 30
0.0
 10
241.2716548184125
 20
111.4805653243722
 30
0.0
 10
241.3853197795434
 20
111.1515176026643
 30
0.0
 10
241.5356574573406
 20
110.4869151803878
 30
0.0
 10
241.5745674771611
 20
110.1483957295392
 30
0.0
 10
241.5767514416989
 20
109.4583213938768
 30
0.0
 10
241.5394988759341
 20
109.116089083086
 30
0.0
 10
241.3927225593332
 20
108.450211252631
 30
0.0
 10
241.2810982531984
 20
108.1209728231509
 30
0.0
 10
240.9943955520832
 20
107.5037097613119
 30
0.0
 10
240.8196212964863
 20
107.2132675930523
 30
0.0
 10
240.4079431541568
 20
106.6675979023445
 30
0.0
 10
240.1761048460754
 20
106.4194650300855
 30
0.0
 10
239.6684768996389
 20
105.9731722752221
 30
0.0
 10
239.3888785642347
 20
105.7726245376738
 30
0.0
 10
238.8021976290104
 20
105.4306056505277
 30
0.0
 10
238.4948619855544
 20
105.2879549313796
 30
0.0
 10
237.8528222531648
 20
105.056863125449
 30
0.0
 10
237.5179330795571
 20
104.9691409630268
 30
0.0
 10
236.8451489836213
 20
104.8534243611703
 30
0.0
 10
236.5038017077343
 20
104.8241798995019
 30
0.0
 10
235.8136172844517
 20
104.8241798995019
 30
0.0
  0
LINE
  5
116
330
1F
100
AcDbEntity
  8
0
  6
HIDDEN
 62
     7
370
     0
100
AcDbLine
 10
120.4587094961
 20
96.7885954258
 30
0.0
 11
120.4587094961
 21
122.7885954258
 31
0.0
  0
LINE
  5
117
330
1F
100
AcDbEntity
  8
0
  6
HIDDEN
 62
     7
370
     0
100
AcDbLine
 10
124.4587094961
 20
96.7885954258
 30
0.0
 11
124.4587094961
 21
122.7885954258
 31
0.0
  0
LINE
  5
118
330
1F
100
AcDbEntity
  8
0
  6
HIDDEN
 62
     7
370
     0
100
AcDbLine
 10
109.3587094961
 20
98.5385954258
 30
0.0
 11
109.3587094961
 21
121.0385954258
 31
0.0
  0
ELLIPSE
  5
119
330
1F
100
AcDbEntity
  8
0
  6
HIDDEN
 62
     7
370
     0
100
AcDbEllipse
 10
39.9740362958
 20
109.7885954258
 30
0.0
 11
31.08108570811662
 21
-1.421085471520200E-14
 31
0.0
210
0.0
220
0.0
230
1.0
 40
0.8164965809
 41
4.915995335118103
 42
4.970536038964787
  0
ELLIPSE
  5
11A
330
1F
100
AcDbEntity
  8
0
  6
HIDDEN
 62
     7
370
     0
100
AcDbEllipse
 10
39.9740362958
 20
109.7885954258
 30
0.0
 11
31.08108570811662
 21
1.421085471520200E-14
 31
0.0
210
0.0
220
0.0
230
1.0
 40
0.8164965809
 41
1.312649268214811
 42
1.367189972061495
  0
LINE
  5
11B
330
1F
100
AcDbEntity
  8
0
  6
HIDDEN
 62
     7
370
     0
100
AcDbLine
 10
125.1087094961
 20
65.8885954258
 30
0.0
 11
111.1087094961
 21
65.8885954258
 31
0.0
  0
LINE
  5
11C
330
1F
100
AcDbEntity
  8
0
  6
HIDDEN
 62
     7
370
     0
100
AcDbLine
 10
101.1087094961
 20
59.798596426
 30
0.0
 11
101.1087094961
 21
65.8885954258
 31
0.0
  0
LINE
  5
11D
330
1F
100
AcDbEntity
  8
0
  6
HIDDEN
 62
     7
370
     0
100
AcDbLine
 10
111.1087094961
 20
65.8885954258
 30
0.0
 11
101.1087094961
 21
65.8885954258
 31
0.0
  0
LINE
  5
11E
330
1F
100
AcDbEntity
  8
0
  6
HIDDEN
 62
     7
370
     0
100
AcDbLine
 10
61.3587094961
 20
82.4185954258
 30
0.0
 11
61.3587094961
 21
84.5600817954
 31
0.0
  0
LINE
  5
11F
330
1F
100
AcDbEntity
  8
0
  6
HIDDEN
 62
     7
370
     0
100
AcDbLine
 10
47.9087094961
 20
82.4185954258
 30
0.0
 11
47.9087094961
 21
85.251890268
 31
0.0
  0
LINE
  5
120
330
1F
100
AcDbEntity
  8
0
  6
HIDDEN
 62
     7
370
     0
100
AcDbLine
 10
47.9087094961
 20
137.1585954258
 30
0.0
 11
47.9087094961
 21
134.3253005836
 31
0.0
  0
LINE
  5
121
330
1F
100
AcDbEntity
  8
0
  6
HIDDEN
 62
     7
370
     0
100
AcDbLine
 10
56.3587094961
 20
137.1585954258
 30
0.0
 11
56.3587094961
 21
135.0171090562
 31
0.0
  0
LINE
  5
122
330
1F
100
AcDbEntity
  8
0
  6
HIDDEN
 62
     7
370
     0
100
AcDbLine
 10
125.1087094961
 20
153.6885954258
 30
0.0
 11
111.1087094961
 21
153.6885954258
 31
0.0
  0
LINE
  5
123
330
1F
100
AcDbEntity
  8
0
  6
HIDDEN
 62
     7
370
     0
100
AcDbLine
 10
111.1087094961
 20
153.6885954258
 30
0.0
 11
101.1087094961
 21
153.6885954258
 31
0.0
  0
LWPOLYLINE
  5
124
330
1F
100
AcDbEntity
  8
0
  6
HIDDEN
 62
     7
370
     0
100
AcDbPolyline
 90
       17
 70
   128
 43
0.0
 10
221.1587094961
 20
101.1618926953
 10
220.5846843475
 20
101.2426306434
 10
220.0980493243
 20
101.4725528671
 10
219.7728901973
 20
101.816655792
 10
219.6587094961
 20
102.2225528671
 10
219.7728901973
 20
102.6284499422
 10
220.0980493243
 20
102.9725528671
 10
220.5846843475
 20
103.2024750907
 10
221.1587094961
 20
103.2832130389
 10
221.7327346446
 20
103.2024750907
 10
222.2193696679
 20
102.9725528671
 10
222.5445287949
 20
102.6284499422
 10
222.6587094961
 20
102.2225528671
 10
222.5445287949
 20
101.816655792
 10
222.2193696679
 20
101.4725528671
 10
221.7327346446
 20
101.2426306434
 10
221.1587094961
 20
101.1618926953
  0
SPLINE
  5
125
330
1F
100
AcDbEntity
  8
0
  6
HIDDEN
 62
     7
370
     0
100
AcDbSpline
210
0.0
220
0.0
230
1.0
 70
     8
 71
     3
 72
    14
 73
    10
 74
     0
 42
0.00000001
 43
0.00000001
 40
0.0
 40
0.0
 40
0.0
 40
0.0
 40
0.25
 40
0.25
 40
0.5
 40
0.5
 40
0.75
 40
0.75
 40
1.0
 40
1.0
 40
1.0
 40
1.0
 10
220.1649592901422
 20
103.4319813984776
 30
0.0
 10
220.1303948637398
 20
103.3955220047077
 30
0.0
 10
220.0970046599917
 20
103.3605494734808
 30
0.0
 10
220.0414079143268
 20
103.2819630852898
 30
0.0
 10
220.0182755865964
 20
103.2369533878848
 30
0.0
 10
220.0297118761294
 20
103.0937010068462
 30
0.0
 10
220.0607554566807
 20
103.0085326790876
 30
0.0
 10
220.1276115656211
 20
102.8465367893323
 30
0.0
 10
220.1656136939814
 20
102.7664460388101
 30
0.0
 10
220.2049673582329
 20
102.6878033423066
 30
0.0
  0
SPLINE
  5
126
330
1F
100
AcDbEntity
  8
0
  6
HIDDEN
 62
     7
370
     0
100
AcDbSpline
210
0.0
220
0.0
230
1.0
 70
     8
 71
     3
 72
    14
 73
    10
 74
     0
 42
0.00000001
 43
0.00000001
 40
0.0
 40
0.0
 40
0.0
 40
0.0
 40
0.25
 40
0.25
 40
0.5
 40
0.5
 40
0.75
 40
0.75
 40
1.0
 40
1.0
 40
1.0
 40
1.0
 10
220.2049673582351
 20
102.6878033423049
 30
0.0
 10
220.2427143358224
 20
102.7209190142285
 30
0.0
 10
220.2758135280226
 20
102.7615886719932
 30
0.0
 10
220.3217839819291
 20
102.8628593546901
 30
0.0
 10
220.3330119528504
 20
102.9215049343668
 30
0.0
 10
220.3241580514327
 20
103.0551766831952
 30
0.0
 10
220.3041386016579
 20
103.1276646493602
 30
0.0
 10
220.2445809077914
 20
103.2779472219717
 30
0.0
 10
220.20641470449
 20
103.3539854181314
 30
0.0
 10
220.1649592901422
 20
103.4319813984778
 30
0.0
  0
SPLINE
  5
127
330
1F
100
AcDbEntity
  8
0
  6
HIDDEN
 62
     7
370
     0
100
AcDbSpline
210
0.0
220
0.0
230
1.0
 70
     8
 71
     3
 72
    10
 73
     6
 74
     0
 42
0.00000001
 43
0.00000001
 40
0.0
 40
0.0
 40
0.0
 40
0.0
 40
0.5
 40
0.5
 40
1.0
 40
1.0
 40
1.0
 40
1.0
 10
219.6587094960925
 20
104.1056946419294
 30
0.0
 10
219.6587094960925
 20
104.1305181727054
 30
0.0
 10
219.6599396450006
 20
104.1530567308439
 30
0.0
 10
219.6646744336787
 20
104.1938050281053
 30
0.0
 10
219.6681800611225
 20
104.2120168459899
 30
0.0
 10
219.6727493013337
 20
104.2280255567995
 30
0.0
  0
SPLINE
  5
128
330
1F
100
AcDbEntity
  8
0
  6
HIDDEN
 62
     7
370
     0
100
AcDbSpline
210
0.0
220
0.0
230
1.0
 70
     8
 71
     3
 72
    18
 73
    14
 74
     0
 42
0.00000001
 43
0.00000001
 40
0.0
 40
0.0
 40
0.0
 40
0.0
 40
0.0772759599426407
 40
0.1655767670744053
 40
0.2251187958671503
 40
0.2700431158235964
 40
0.3151044203741024
 40
0.374837607808631
 40
0.4788024122396583
 40
0.6283518597251512
 40
0.7774437918839827
 40
0.912009898605118
 40
1.0
 40
1.0
 40
1.0
 40
1.0
 10
219.6903871753594
 20
104.2587792533121
 30
0.0
 10
219.6965826884856
 20
104.2723160506146
 30
0.0
 10
219.7098576194547
 20
104.301320920118
 30
0.0
 10
219.7354908872965
 20
104.3027803489537
 30
0.0
 10
219.7532385889267
 20
104.2836523149511
 30
0.0
 10
219.7601870554331
 20
104.2462887542976
 30
0.0
 10
219.7572924988601
 20
104.1895500291771
 30
0.0
 10
219.7412046998101
 20
104.0949538601804
 30
0.0
 10
219.7082092241189
 20
103.9465499647201
 30
0.0
 10
219.6709177790184
 20
103.7590853761922
 30
0.0
 10
219.6543412681179
 20
103.583950155148
 30
0.0
 10
219.6636452146366
 20
103.4703939989517
 30
0.0
 10
219.6824203094585
 20
103.4409975001565
 30
0.0
 10
219.6898432544802
 20
103.4293752635469
 30
0.0
  0
LWPOLYLINE
  5
129
330
1F
100
AcDbEntity
  8
0
  6
HIDDEN
 62
     7
370
     0
100
AcDbPolyline
 90
       10
 70
   128
 43
0.0
 10
219.6999548852
 20
103.4089062219
 10
219.7367669462
 20
103.4026829785
 10
219.7518248475
 20
103.4234641296
 10
219.7585755641
 20
103.459070558
 10
219.7561247264
 20
103.5138871884
 10
219.74406624
 20
103.5871152013
 10
219.7161140852
 20
103.7156066228
 10
219.6766879034
 20
103.9130709683
 10
219.6587094961
 20
104.1056946419
 10
219.6587094961
 20
104.1056946419
  0
SPLINE
  5
12A
330
1F
100
AcDbEntity
  8
0
  6
HIDDEN
 62
     7
370
     0
100
AcDbSpline
210
0.0
220
0.0
230
1.0
 70
     8
 71
     3
 72
     8
 73
     4
 74
     0
 42
0.00000001
 43
0.00000001
 40
0.0
 40
0.0
 40
0.0
 40
0.0
 40
1.0
 40
1.0
 40
1.0
 40
1.0
 10
222.4007435353035
 20
107.4188648739923
 30
0.0
 10
222.3591291720091
 20
107.4601145569619
 30
0.0
 10
222.3134349700539
 20
107.5035100934944
 30
0.0
 10
222.2639354779732
 20
107.5509128326648
 30
0.0
  0
SPLINE
  5
12B
330
1F
100
AcDbEntity
  8
0
  6
HIDDEN
 62
     7
370
     0
100
AcDbSpline
210
0.0
220
0.0
230
1.0
 70
     8
 71
     3
 72
    32
 73
    28
 74
     0
 42
0.00000001
 43
0.00000001
 40
0.0
 40
0.0
 40
0.0
 40
0.0
 40
0.0625000000000049
 40
0.0625000000000049
 40
0.1250000000000098
 40
0.1250000000000098
 40
0.1875000000000147
 40
0.1875000000000147
 40
0.2500000000000139
 40
0.2500000000000139
 40
0.3750000000000123
 40
0.3750000000000123
 40
0.4375000000000131
 40
0.4375000000000131
 40
0.500000000000014
 40
0.500000000000014
 40
0.6250000000000158
 40
0.6250000000000158
 40
0.7500000000000177
 40
0.7500000000000177
 40
0.8125000000000132
 40
0.8125000000000132
 40
0.8750000000000088
 40
0.8750000000000088
 40
0.9375000000000044
 40
0.9375000000000044
 40
1.0
 40
1.0
 40
1.0
 40
1.0
 10
222.2639354779732
 20
107.5509128326648
 30
0.0
 10
222.1624341968859
 20
107.6481146129376
 30
0.0
 10
222.047294217707
 20
107.7330227385842
 30
0.0
 10
221.7890070595508
 20
107.8740720191715
 30
0.0
 10
221.6489854530418
 20
107.9279051267689
 30
0.0
 10
221.3562317714982
 20
107.9942653158576
 30
0.0
 10
221.2030256446369
 20
108.0063676806914
 30
0.0
 10
220.9026811358083
 20
107.9857660077828
 30
0.0
 10
220.7526667267005
 20
107.952791497097
 30
0.0
 10
220.3347383906627
 20
107.7978266994455
 30
0.0
 10
220.0903136490983
 20
107.6162620078097
 30
0.0
 10
219.8383294058791
 20
107.3046187271661
 30
0.0
 10
219.7714046390142
 20
107.1920794033804
 30
0.0
 10
219.6821813549971
 20
106.9687543270139
 30
0.0
 10
219.6588358822153
 20
106.8558198221486
 30
0.0
 10
219.6584582843522
 20
106.5351194965512
 30
0.0
 10
219.7518380714152
 20
106.3479699569406
 30
0.0
 10
220.0905825188512
 20
106.0686127179265
 30
0.0
 10
220.330289526533
 20
105.9766238774545
 30
0.0
 10
220.7501753376278
 20
105.9000202220562
 30
0.0
 10
220.8983592995712
 20
105.88508294155
 30
0.0
 10
221.1991455627404
 20
105.8752509651483
 30
0.0
 10
221.3525692690537
 20
105.8804833790032
 30
0.0
 10
221.6453251772841
 20
105.9112794222986
 30
0.0
 10
221.7872340361041
 20
105.937171550001
 30
0.0
 10
222.0443538508567
 20
106.0098994858563
 30
0.0
 10
222.1623941523649
 20
106.0574463631145
 30
0.0
 10
222.2639354779732
 20
106.1167053658199
 30
0.0
  0
SPLINE
  5
12C
330
1F
100
AcDbEntity
  8
0
  6
HIDDEN
 62
     7
370
     0
100
AcDbSpline
210
0.0
220
0.0
230
1.0
 70
     8
 71
     3
 72
     8
 73
     4
 74
     0
 42
0.00000001
 43
0.00000001
 40
0.0
 40
0.0
 40
0.0
 40
0.0
 40
1.0
 40
1.0
 40
1.0
 40
1.0
 10
222.2639354779732
 20
106.1167053658199
 30
0.0
 10
222.3134349700539
 20
106.1455930183845
 30
0.0
 10
222.3591291720091
 20
106.1837908463805
 30
0.0
 10
222.4007435353035
 20
106.2294520394874
 30
0.0
  0
SPLINE
  5
12D
330
1F
100
AcDbEntity
  8
0
  6
HIDDEN
 62
     7
370
     0
100
AcDbSpline
210
0.0
220
0.0
230
1.0
 70
     8
 71
     3
 72
    12
 73
     8
 74
     0
 42
0.00000001
 43
0.00000001
 40
0.0
 40
0.0
 40
0.0
 40
0.0
 40
0.2500000000000001
 40
0.2500000000000001
 40
0.5000000000000002
 40
0.5000000000000002
 40
1.0
 40
1.0
 40
1.0
 40
1.0
 10
222.4007435353035
 20
106.2294520394874
 30
0.0
 10
222.4848360829068
 20
106.3217222498425
 30
0.0
 10
222.548662278693
 20
106.4176081260062
 30
0.0
 10
222.6363457028923
 20
106.6207573456841
 30
0.0
 10
222.6585739002039
 20
106.7254557411775
 30
0.0
 10
222.6589788311343
 20
107.0406541265777
 30
0.0
 10
222.5689194714532
 20
107.2521627187721
 30
0.0
 10
222.4007435353035
 20
107.4188648739923
 30
0.0
  0
SPLINE
  5
12E
330
1F
100
AcDbEntity
  8
0
  6
HIDDEN
 62
     7
370
     0
100
AcDbSpline
210
0.0
220
0.0
230
1.0
 70
     8
 71
     3
 72
    18
 73
    14
 74
     0
 42
0.00000001
 43
0.00000001
 40
0.0
 40
0.0
 40
0.0
 40
0.0
 40
0.2500000000000108
 40
0.2500000000000108
 40
0.3750000000000107
 40
0.3750000000000107
 40
0.5000000000000105
 40
0.5000000000000105
 40
0.6250000000000104
 40
0.6250000000000104
 40
0.7500000000000102
 40
0.7500000000000102
 40
1.0
 40
1.0
 40
1.0
 40
1.0
 10
220.2049673582351
 20
104.3251035191049
 30
0.0
 10
220.1655189821066
 20
104.3579774131831
 30
0.0
 10
220.127362301603
 20
104.388865912278
 30
0.0
 10
220.0771320203689
 20
104.4391002796243
 30
0.0
 10
220.0616027085317
 20
104.4564964628599
 30
0.0
 10
220.0363433045407
 20
104.4977393985637
 30
0.0
 10
220.0267716352309
 20
104.5222049530533
 30
0.0
 10
220.0211875273142
 20
104.5835311912813
 30
0.0
 10
220.0255188740875
 20
104.620969391803
 30
0.0
 10
220.0429220081798
 20
104.6988528385676
 30
0.0
 10
220.0555310532979
 20
104.7396063968569
 30
0.0
 10
220.0972320001716
 20
104.8607257660498
 30
0.0
 10
220.1304711973714
 20
104.9414652862344
 30
0.0
 10
220.1649592901422
 20
105.0209814162075
 30
0.0
  0
SPLINE
  5
12F
330
1F
100
AcDbEntity
  8
0
  6
HIDDEN
 62
     7
370
     0
100
AcDbSpline
210
0.0
220
0.0
230
1.0
 70
     8
 71
     3
 72
    12
 73
     8
 74
     0
 42
0.00000001
 43
0.00000001
 40
0.0
 40
0.0
 40
0.0
 40
0.0
 40
0.4999999999999991
 40
0.4999999999999991
 40
0.7499999999999996
 40
0.7499999999999996
 40
1.0
 40
1.0
 40
1.0
 40
1.0
 10
220.1649592901422
 20
105.0209814162075
 30
0.0
 10
220.2477659353754
 20
104.9687589380971
 30
0.0
 10
220.3193493794901
 20
104.88209900569
 30
0.0
 10
220.3331159492021
 20
104.6929598354248
 30
0.0
 10
220.3217755096858
 20
104.6237043518792
 30
0.0
 10
220.2758128469
 20
104.4769808621671
 30
0.0
 10
220.2427171244977
 20
104.4022007970108
 30
0.0
 10
220.2049673582351
 20
104.3251035191048
 30
0.0
  0
SPLINE
  5
130
330
1F
100
AcDbEntity
  8
0
  6
HIDDEN
 62
     7
370
     0
100
AcDbSpline
210
0.0
220
0.0
230
1.0
 70
     8
 71
     3
 72
    48
 73
    44
 74
     0
 42
0.00000001
 43
0.00000001
 40
-0.0625000000000038
 40
-0.0625000000000038
 40
0.0
 40
0.0
 40
0.0312499999999996
 40
0.0312499999999996
 40
0.0624999999999993
 40
0.0624999999999993
 40
0.1249999999999985
 40
0.1249999999999985
 40
0.1874999999999977
 40
0.1874999999999977
 40
0.2499999999999968
 40
0.2499999999999968
 40
0.312499999999996
 40
0.312499999999996
 40
0.3437499999999956
 40
0.3437499999999956
 40
0.3749999999999951
 40
0.3749999999999951
 40
0.4062499999999946
 40
0.4062499999999946
 40
0.4374999999999942
 40
0.4374999999999942
 40
0.4999999999999933
 40
0.4999999999999933
 40
0.5624999999999926
 40
0.5624999999999926
 40
0.6249999999999917
 40
0.6249999999999917
 40
0.6874999999999909
 40
0.6874999999999909
 40
0.7499999999999901
 40
0.7499999999999901
 40
0.8124999999999892
 40
0.8124999999999892
 40
0.843749999999991
 40
0.843749999999991
 40
0.8749999999999928
 40
0.8749999999999928
 40
0.9062499999999946
 40
0.9062499999999946
 40
0.9374999999999962
 40
0.9374999999999962
 40
1.0
 40
1.0
 40
1.03125
 40
1.03125
 10
222.2894994734445
 20
102.6474010495468
 30
0.0
 10
222.4115673039616
 20
102.6507923747687
 30
0.0
 10
222.4500296338792
 20
102.659239190715
 30
0.0
 10
222.5201791096457
 20
102.6915140547692
 30
0.0
 10
222.5521962424208
 20
102.715786812235
 30
0.0
 10
222.6309318293385
 20
102.8126094737563
 30
0.0
 10
222.6606602301594
 20
102.9117591114912
 30
0.0
 10
222.6565484761292
 20
103.160680913261
 30
0.0
 10
222.6225023834638
 20
103.3112823603555
 30
0.0
 10
222.5111362249391
 20
103.620197530884
 30
0.0
 10
222.4347373013484
 20
103.7789574105099
 30
0.0
 10
222.271564121084
 20
104.0867286573482
 30
0.0
 10
222.1829246550685
 20
104.2374661902583
 30
0.0
 10
222.0737105543397
 20
104.4553914037808
 30
0.0
 10
222.0407890066277
 20
104.5285470634733
 30
0.0
 10
221.9963382936278
 20
104.6680837071191
 30
0.0
 10
221.9851054752038
 20
104.7360843424876
 30
0.0
 10
221.9918932736277
 20
104.8560178539988
 30
0.0
 10
222.0096402369133
 20
104.9094365886536
 30
0.0
 10
222.0617907633861
 20
104.9975836669832
 30
0.0
 10
222.0961639278532
 20
105.0337058530675
 30
0.0
 10
222.2081105885513
 20
105.1198052034183
 30
0.0
 10
222.2935945657047
 20
105.1489022208126
 30
0.0
 10
222.4517460436052
 20
105.1524408162473
 30
0.0
 10
222.5239909190401
 20
105.1264759627671
 30
0.0
 10
222.629680975425
 20
105.0047788988198
 30
0.0
 10
222.6601800211833
 20
104.9079301395921
 30
0.0
 10
222.6571236452654
 20
104.6587810691249
 30
0.0
 10
222.623200994871
 20
104.5058457462581
 30
0.0
 10
222.5132355672728
 20
104.1929648500919
 30
0.0
 10
222.43808030188
 20
104.0320089280326
 30
0.0
 10
222.2793203721336
 20
103.7225064658286
 30
0.0
 10
222.1926756514919
 20
103.5696279992978
 30
0.0
 10
222.0842055170462
 20
103.3510043838058
 30
0.0
 10
222.0512559503954
 20
103.2788573980207
 30
0.0
 10
222.002466410635
 20
103.1365093881588
 30
0.0
 10
221.9878748165114
 20
103.0682207362379
 30
0.0
 10
221.9878565796799
 20
102.9431399742486
 30
0.0
 10
222.002538806639
 20
102.888278418768
 30
0.0
 10
222.0525511826637
 20
102.7963323953205
 30
0.0
 10
222.0865374886945
 20
102.7600138302481
 30
0.0
 10
222.200835057287
 20
102.6735407413091
 30
0.0
 10
222.2894994734445
 20
102.6474010495468
 30
0.0
 10
222.4115673039616
 20
102.6507923747687
 30
0.0
  0
ARC
  5
131
330
1F
100
AcDbEntity
  8
0
  6
HIDDEN
 62
     7
370
     0
100
AcDbCircle
 10
207.1462982843
 20
103.9234112451
 30
0.0
 40
13.06484575744486
100
AcDbArc
 50
1.7618960119
 51
4.8190653226
  0
SPLINE
  5
132
330
1F
100
AcDbEntity
  8
0
  6
HIDDEN
 62
     7
370
     0
100
AcDbSpline
210
0.0
220
0.0
230
1.0
 70
     8
 71
     3
 72
    30
 73
    26
 74
     0
 42
0.00000001
 43
0.00000001
 40
0.0
 40
0.0
 40
0.0
 40
0.0
 40
0.0531667895944306
 40
0.1125460296559538
 40
0.1779415679821296
 40
0.2129647100201478
 40
0.2495168542536672
 40
0.2912815776497699
 40
0.3261229899598991
 40
0.3540373789034075
 40
0.3750220973121863
 40
0.4414779749354779
 40
0.5001939956662949
 40
0.5547072327721178
 40
0.6144498286121054
 40
0.679473417768819
 40
0.7140294887762105
 40
0.7499254981893783
 40
0.7913888898760563
 40
0.8260548959441428
 40
0.8539197326816724
 40
0.8749805480645612
 40
0.9411652353121804
 40
0.9999141591644691
 40
1.0
 40
1.0
 40
1.0
 40
1.0
 10
87.15828632244208
 20
72.68865844383586
 30
0.0
 10
87.14208479420843
 20
72.6935605952854
 30
0.0
 10
87.10778861625666
 20
72.7039377063848
 30
0.0
 10
86.80644202176639
 20
72.77959896882605
 30
0.0
 10
86.36426975554764
 20
72.87588610153497
 30
0.0
 10
85.86943758436462
 20
72.97555081128154
 30
0.0
 10
85.39896178416664
 20
73.06782898412548
 30
0.0
 10
84.8680403985147
 20
73.16346100898093
 30
0.0
 10
84.32988988751653
 20
73.24911125385036
 30
0.0
 10
83.87184255494304
 20
73.31640304651874
 30
0.0
 10
83.21627823334178
 20
73.40475121559098
 30
0.0
 10
82.33297179564846
 20
73.50140929977618
 30
0.0
 10
81.20431006284002
 20
73.5881844765592
 30
0.0
 10
80.1145483131177
 20
73.62626317426727
 30
0.0
 10
79.01852003468042
 20
73.62811360903223
 30
0.0
 10
78.11312878773849
 20
73.60195215344673
 30
0.0
 10
77.41682607732315
 20
73.56534492831787
 30
0.0
 10
76.89014634904815
 20
73.5263280528408
 30
0.0
 10
76.4235002340155
 20
73.48411892536888
 30
0.0
 10
76.0522849582917
 20
73.4471148357995
 30
0.0
 10
75.79823848104964
 20
73.41841407535513
 30
0.0
 10
75.49718332834024
 20
73.38203412476544
 30
0.0
 10
75.24169953353662
 20
73.34925395777657
 30
0.0
 10
75.14247880859045
 20
73.33291607307406
 30
0.0
 10
75.15875936587358
 20
73.33550965924313
 30
0.0
 10
75.15878311945953
 20
73.33551344332564
 30
0.0
  0
SPLINE
  5
133
330
1F
100
AcDbEntity
  8
0
  6
HIDDEN
 62
     7
370
     0
100
AcDbSpline
210
0.0
220
0.0
230
1.0
 70
     8
 71
     3
 72
    30
 73
    26
 74
     0
 42
0.00000001
 43
0.00000001
 40
0.0
 40
0.0
 40
0.0
 40
0.0
 40
0.0001123288057695
 40
0.0285431152663135
 40
0.0588466796063202
 40
0.091027196450477
 40
0.1250880910051604
 40
0.1546766141497773
 40
0.1963554560485685
 40
0.2501101496291966
 40
0.320525387238388
 40
0.3856104300246703
 40
0.445403860889207
 40
0.4999571692316274
 40
0.5283494388508946
 40
0.558634027028705
 40
0.5908185964995195
 40
0.6249094714581434
 40
0.6541844575853767
 40
0.6958630078636641
 40
0.7499307292180327
 40
0.8215905285694356
 40
0.8871422909715975
 40
0.9466378748868088
 40
1.0
 40
1.0
 40
1.0
 40
1.0
 10
75.15880482819284
 20
146.2416071348113
 30
0.0
 10
75.1587729684347
 20
146.2416140819376
 30
0.0
 10
75.15067730016384
 20
146.2433793693297
 30
0.0
 10
75.17933877783324
 20
146.2379244506048
 30
0.0
 10
75.25272562398746
 20
146.2273816032587
 30
0.0
 10
75.3963821675382
 20
146.2076963956052
 30
0.0
 10
75.59741786749571
 20
146.18285713175
 30
0.0
 10
75.88004841676474
 20
146.1486486666112
 30
0.0
 10
76.29345754233941
 20
146.1049687698512
 30
0.0
 10
76.96974504352163
 20
146.0419257023179
 30
0.0
 10
77.90817594443756
 20
145.9806285318851
 30
0.0
 10
79.01766915793345
 20
145.9493400883847
 30
0.0
 10
80.1151498886222
 20
145.9509952559813
 30
0.0
 10
81.0151811270795
 20
145.9823014580786
 30
0.0
 10
81.72652205293043
 20
146.0291346068811
 30
0.0
 10
82.2919389539212
 20
146.076301468777
 30
0.0
 10
82.88086237674953
 20
146.1357404753271
 30
0.0
 10
83.44527202922703
 20
146.202097681935
 30
0.0
 10
84.03946822316321
 20
146.2840170883666
 30
0.0
 10
84.70607638413371
 20
146.385665071117
 30
0.0
 10
85.50740912983395
 20
146.5278039817173
 30
0.0
 10
86.25991911434186
 20
146.6790485524837
 30
0.0
 10
86.80520560930803
 20
146.796899425743
 30
0.0
 10
87.10792714080688
 20
146.8731286574923
 30
0.0
 10
87.14221759141991
 20
146.8835809669868
 30
0.0
 10
87.15843102806994
 20
146.888523096787
 30
0.0
  0
LINE
  5
134
330
1F
100
AcDbEntity
  8
0
  6
HIDDEN
 62
     7
370
     0
100
AcDbLine
 10
154.2587094961
 20
103.7885954258
 30
0.0
 11
154.2587094961
 21
115.7885954258
 31
0.0
  0
LINE
  5
135
330
1F
100
AcDbEntity
  8
0
  6
HIDDEN
 62
     7
370
     0
100
AcDbLine
 10
156.3617216627
 20
107.2885954258
 30
0.0
 11
156.3617216627
 21
112.2885954258
 31
0.0
  0
ARC
  5
136
330
1F
100
AcDbEntity
  8
0
  6
HIDDEN
 62
     7
370
     0
100
AcDbCircle
 10
236.2950424151
 20
103.9259930783
 30
0.0
 40
16.13764633263235
100
AcDbArc
 50
181.7542339436
 51
184.4004458048
  0
SPLINE
  5
137
330
1F
100
AcDbEntity
  8
0
  6
HIDDEN
 62
     7
370
     0
100
AcDbSpline
210
0.0
220
0.0
230
1.0
 70
     8
 71
     3
 72
    32
 73
    28
 74
     0
 42
0.00000001
 43
0.00000001
 40
0.0
 40
0.0
 40
0.0
 40
0.0
 40
0.0625000000000043
 40
0.0625000000000043
 40
0.1250000000000087
 40
0.1250000000000087
 40
0.187500000000013
 40
0.187500000000013
 40
0.2500000000000115
 40
0.2500000000000115
 40
0.3750000000000088
 40
0.3750000000000088
 40
0.4375000000000089
 40
0.4375000000000089
 40
0.5000000000000091
 40
0.5000000000000091
 40
0.6250000000000094
 40
0.6250000000000094
 40
0.7500000000000098
 40
0.7500000000000098
 40
0.8125000000000073
 40
0.8125000000000073
 40
0.8750000000000049
 40
0.8750000000000049
 40
0.9375000000000024
 40
0.9375000000000024
 40
1.0
 40
1.0
 40
1.0
 40
1.0
 10
222.2639354779732
 20
112.0262780189012
 30
0.0
 10
222.1624341968859
 20
111.9290762386284
 30
0.0
 10
222.0472942177069
 20
111.8441681129818
 30
0.0
 10
221.7890070595508
 20
111.7031188323945
 30
0.0
 10
221.6489854530418
 20
111.6492857247971
 30
0.0
 10
221.3562317714982
 20
111.5829255357084
 30
0.0
 10
221.203025644637
 20
111.5708231708746
 30
0.0
 10
220.9026811358083
 20
111.5914248437832
 30
0.0
 10
220.7526667267005
 20
111.624399354469
 30
0.0
 10
220.3347383906627
 20
111.7793641521205
 30
0.0
 10
220.0903136490983
 20
111.9609288437562
 30
0.0
 10
219.8383294058791
 20
112.2725721243999
 30
0.0
 10
219.7714046390142
 20
112.3851114481856
 30
0.0
 10
219.6821813549971
 20
112.6084365245521
 30
0.0
 10
219.6588358822153
 20
112.7213710294174
 30
0.0
 10
219.6584582843522
 20
113.0420713550148
 30
0.0
 10
219.7518380714152
 20
113.2292208946254
 30
0.0
 10
220.0905825188512
 20
113.5085781336395
 30
0.0
 10
220.3302895265329
 20
113.6005669741115
 30
0.0
 10
220.7501753376279
 20
113.6771706295097
 30
0.0
 10
220.8983592995712
 20
113.692107910016
 30
0.0
 10
221.1991455627404
 20
113.7019398864177
 30
0.0
 10
221.3525692690536
 20
113.6967074725628
 30
0.0
 10
221.6453251772841
 20
113.6659114292674
 30
0.0
 10
221.7872340361041
 20
113.640019301565
 30
0.0
 10
222.0443538508567
 20
113.5672913657097
 30
0.0
 10
222.1623941523649
 20
113.5197444884515
 30
0.0
 10
222.2639354779732
 20
113.4604854857461
 30
0.0
  0
LINE
  5
138
330
1F
100
AcDbEntity
  8
0
  6
HIDDEN
 62
     7
370
     0
100
AcDbLine
 10
219.1587094961
 20
105.8885954258
 30
0.0
 11
219.1587094961
 21
113.6885954258
 31
0.0
  0
SPLINE
  5
139
330
1F
100
AcDbEntity
  8
0
  6
HIDDEN
 62
     7
370
     0
100
AcDbSpline
210
0.0
220
0.0
230
1.0
 70
     8
 71
     3
 72
     8
 73
     4
 74
     0
 42
0.00000001
 43
0.00000001
 40
0.0
 40
0.0
 40
0.0
 40
0.0
 40
1.0
 40
1.0
 40
1.0
 40
1.0
 10
222.2639354779732
 20
113.4604854857461
 30
0.0
 10
222.3134349700539
 20
113.4315978331815
 30
0.0
 10
222.359129172009
 20
113.3934000051855
 30
0.0
 10
222.4007435353035
 20
113.3477388120785
 30
0.0
  0
SPLINE
  5
13A
330
1F
100
AcDbEntity
  8
0
  6
HIDDEN
 62
     7
370
     0
100
AcDbSpline
210
0.0
220
0.0
230
1.0
 70
     8
 71
     3
 72
    12
 73
     8
 74
     0
 42
0.00000001
 43
0.00000001
 40
0.0
 40
0.0
 40
0.0
 40
0.0
 40
0.2499999999999999
 40
0.2499999999999999
 40
0.4999999999999998
 40
0.4999999999999998
 40
1.0
 40
1.0
 40
1.0
 40
1.0
 10
222.4007435353035
 20
113.3477388120785
 30
0.0
 10
222.4848360829069
 20
113.2554686017235
 30
0.0
 10
222.548662278693
 20
113.1595827255598
 30
0.0
 10
222.6363457028922
 20
112.9564335058819
 30
0.0
 10
222.6585739002039
 20
112.8517351103885
 30
0.0
 10
222.6589788311343
 20
112.5365367249883
 30
0.0
 10
222.5689194714533
 20
112.3250281327939
 30
0.0
 10
222.4007435353035
 20
112.1583259775737
 30
0.0
  0
LINE
  5
13B
330
1F
100
AcDbEntity
  8
0
  6
HIDDEN
 62
     7
370
     0
100
AcDbLine
 10
223.1587094961
 20
105.7885954258
 30
0.0
 11
223.1587094961
 21
113.7885954258
 31
0.0
  0
LINE
  5
13C
330
1F
100
AcDbEntity
  8
0
  6
HIDDEN
 62
     7
370
     0
100
AcDbLine
 10
167.6087094961
 20
94.365945695
 30
0.0
 11
162.6087094961
 21
94.365945695
 31
0.0
  0
LINE
  5
13D
330
1F
100
AcDbEntity
  8
0
  6
HIDDEN
 62
     7
370
     0
100
AcDbLine
 10
165.1087094961
 20
125.2112451566
 30
0.0
 11
167.6087094961
 21
125.2112451566
 31
0.0
  0
LINE
  5
13E
330
1F
100
AcDbEntity
  8
0
  6
HIDDEN
 62
     7
370
     0
100
AcDbLine
 10
162.6087094961
 20
125.2112451566
 30
0.0
 11
165.1087094961
 21
125.2112451566
 31
0.0
  0
LINE
  5
13F
330
1F
100
AcDbEntity
  8
0
  6
HIDDEN
 62
     7
370
     0
100
AcDbLine
 10
165.1087094961
 20
116.7885954258
 30
0.0
 11
167.6087094961
 21
116.7885954258
 31
0.0
  0
LINE
  5
140
330
1F
100
AcDbEntity
  8
0
  6
HIDDEN
 62
     7
370
     0
100
AcDbLine
 10
162.6087094961
 20
116.7885954258
 30
0.0
 11
165.1087094961
 21
116.7885954258
 31
0.0
  0
LINE
  5
141
330
1F
100
AcDbEntity
  8
0
  6
HIDDEN
 62
     7
370
     0
100
AcDbLine
 10
167.6087094961
 20
102.7885954258
 30
0.0
 11
162.6087094961
 21
102.7885954258
 31
0.0
  0
SPLINE
  5
142
330
1F
100
AcDbEntity
  8
0
  6
HIDDEN
 62
     7
370
     0
100
AcDbSpline
210
0.0
220
0.0
230
1.0
 70
     8
 71
     3
 72
     8
 73
     4
 74
     0
 42
0.00000001
 43
0.00000001
 40
0.0
 40
0.0
 40
0.0
 40
0.0
 40
1.0
 40
1.0
 40
1.0
 40
1.0
 10
222.4007435353035
 20
112.1583259775737
 30
0.0
 10
222.359129172009
 20
112.117076294604
 30
0.0
 10
222.3134349700539
 20
112.0736807580716
 30
0.0
 10
222.2639354779732
 20
112.0262780189012
 30
0.0
  0
SPLINE
  5
143
330
1F
100
AcDbEntity
  8
0
  6
HIDDEN
 62
     7
370
     0
100
AcDbSpline
210
0.0
220
0.0
230
1.0
 70
     8
 71
     3
 72
    48
 73
    44
 74
     0
 42
0.00000001
 43
0.00000001
 40
-0.0625000000000064
 40
-0.0625000000000064
 40
0.0
 40
0.0
 40
0.0624999999999958
 40
0.0624999999999958
 40
0.1249999999999915
 40
0.1249999999999915
 40
0.1874999999999873
 40
0.1874999999999873
 40
0.249999999999983
 40
0.249999999999983
 40
0.3124999999999788
 40
0.3124999999999788
 40
0.3437499999999784
 40
0.3437499999999784
 40
0.374999999999978
 40
0.374999999999978
 40
0.4062499999999776
 40
0.4062499999999776
 40
0.4374999999999771
 40
0.4374999999999771
 40
0.4999999999999764
 40
0.4999999999999764
 40
0.5624999999999756
 40
0.5624999999999756
 40
0.6249999999999747
 40
0.6249999999999747
 40
0.6562499999999744
 40
0.6562499999999744
 40
0.687499999999974
 40
0.687499999999974
 40
0.7499999999999775
 40
0.7499999999999775
 40
0.8124999999999808
 40
0.8124999999999808
 40
0.843749999999984
 40
0.843749999999984
 40
0.8749999999999871
 40
0.8749999999999871
 40
0.9062499999999903
 40
0.9062499999999903
 40
0.9374999999999936
 40
0.9374999999999936
 40
1.0
 40
1.0
 40
1.062499999999996
 40
1.062499999999996
 10
222.4524557051178
 20
115.834023113339
 30
0.0
 10
222.2893003491274
 20
115.5219989858868
 30
0.0
 10
222.2015964398761
 20
115.372667732587
 30
0.0
 10
222.0496046104252
 20
115.0771836960024
 30
0.0
 10
221.9887169927336
 20
114.9322203690402
 30
0.0
 10
221.9870331562884
 20
114.6809782821803
 30
0.0
 10
222.0454798567921
 20
114.5886826905955
 30
0.0
 10
222.1905029261512
 20
114.4658867987749
 30
0.0
 10
222.2760220344118
 20
114.4331268711529
 30
0.0
 10
222.4353143766896
 20
114.4215349837822
 30
0.0
 10
222.5100284184745
 20
114.4432821550083
 30
0.0
 10
222.5936828255252
 20
114.5278387170013
 30
0.0
 10
222.6162461833563
 20
114.5642309452179
 30
0.0
 10
222.6480831566876
 20
114.6541604000975
 30
0.0
 10
222.6572341553045
 20
114.7084088783874
 30
0.0
 10
222.6598459294941
 20
114.8289722312908
 30
0.0
 10
222.653390942101
 20
114.8970680189953
 30
0.0
 10
222.6262035916244
 20
115.0409571543948
 30
0.0
 10
222.6056838071545
 20
115.1166563897378
 30
0.0
 10
222.527268237634
 20
115.3510056975826
 30
0.0
 10
222.4540822432571
 20
115.5117126823304
 30
0.0
 10
222.2971029875343
 20
115.8218588802043
 30
0.0
 10
222.2107276864847
 20
115.9748198666787
 30
0.0
 10
222.0616262322297
 20
116.2687803615916
 30
0.0
 10
221.9968738829618
 20
116.4160254964548
 30
0.0
 10
221.9847013456966
 20
116.6078150121898
 30
0.0
 10
221.9950825735617
 20
116.6649374707563
 30
0.0
 10
222.0387235049144
 20
116.7619327664697
 30
0.0
 10
222.0705223791925
 20
116.8007371075373
 30
0.0
 10
222.1805759382545
 20
116.8945376144258
 30
0.0
 10
222.2682424451839
 20
116.9248599244672
 30
0.0
 10
222.4329791128026
 20
116.9301066657069
 30
0.0
 10
222.5082923044567
 20
116.9042511941735
 30
0.0
 10
222.593006250391
 20
116.8149263220845
 30
0.0
 10
222.6157033183149
 20
116.777402907329
 30
0.0
 10
222.6479565863261
 20
116.6852756994834
 30
0.0
 10
222.6571153279739
 20
116.6308354582212
 30
0.0
 10
222.659914626807
 20
116.5102377438931
 30
0.0
 10
222.6535206851046
 20
116.4422949387237
 30
0.0
 10
222.6264276210222
 20
116.2998379244871
 30
0.0
 10
222.6058058492318
 20
116.2247094815285
 30
0.0
 10
222.5267110328915
 20
115.9928404776701
 30
0.0
 10
222.4524557051178
 20
115.834023113339
 30
0.0
 10
222.2893003491274
 20
115.5219989858868
 30
0.0
  0
SPLINE
  5
144
330
1F
100
AcDbEntity
  8
0
  6
HIDDEN
 62
     7
370
     0
100
AcDbSpline
210
0.0
220
0.0
230
1.0
 70
     8
 71
     3
 72
    18
 73
    14
 74
     0
 42
0.00000001
 43
0.00000001
 40
0.0
 40
0.0
 40
0.0
 40
0.0
 40
0.2499999999999875
 40
0.2499999999999875
 40
0.3749999999999877
 40
0.3749999999999877
 40
0.499999999999988
 40
0.499999999999988
 40
0.6249999999999882
 40
0.6249999999999882
 40
0.7499999999999886
 40
0.7499999999999886
 40
1.0
 40
1.0
 40
1.0
 40
1.0
 10
220.2049673582351
 20
115.2520873324612
 30
0.0
 10
220.1655189821066
 20
115.219213438383
 30
0.0
 10
220.127362301603
 20
115.188324939288
 30
0.0
 10
220.0771320203689
 20
115.1380905719417
 30
0.0
 10
220.0616027085316
 20
115.1206943887062
 30
0.0
 10
220.0363433045406
 20
115.0794514530024
 30
0.0
 10
220.0267716352308
 20
115.0549858985128
 30
0.0
 10
220.0211875273141
 20
114.9936596602848
 30
0.0
 10
220.0255188740874
 20
114.9562214597631
 30
0.0
 10
220.0429220081798
 20
114.8783380129984
 30
0.0
 10
220.0555310532978
 20
114.8375844547091
 30
0.0
 10
220.0972320001716
 20
114.7164650855162
 30
0.0
 10
220.1304711973714
 20
114.6357255653315
 30
0.0
 10
220.1649592901422
 20
114.5562094353584
 30
0.0
  0
SPLINE
  5
145
330
1F
100
AcDbEntity
  8
0
  6
HIDDEN
 62
     7
370
     0
100
AcDbSpline
210
0.0
220
0.0
230
1.0
 70
     8
 71
     3
 72
    12
 73
     8
 74
     0
 42
0.00000001
 43
0.00000001
 40
0.0
 40
0.0
 40
0.0
 40
0.0
 40
0.5
 40
0.5
 40
0.75
 40
0.75
 40
1.0
 40
1.0
 40
1.0
 40
1.0
 10
220.1649592901422
 20
114.5562094353584
 30
0.0
 10
220.2477659353755
 20
114.6084319134687
 30
0.0
 10
220.3193493794901
 20
114.6950918458759
 30
0.0
 10
220.3331159492021
 20
114.8842310161412
 30
0.0
 10
220.3217755096859
 20
114.9534864996867
 30
0.0
 10
220.2758128469
 20
115.1002099893989
 30
0.0
 10
220.2427171244976
 20
115.1749900545554
 30
0.0
 10
220.204967358235
 20
115.2520873324614
 30
0.0
  0
LWPOLYLINE
  5
146
330
1F
100
AcDbEntity
  8
0
  6
HIDDEN
 62
     7
370
     0
100
AcDbPolyline
 90
       17
 70
   128
 43
0.0
 10
221.1587094961
 20
115.7990030659
 10
221.7327346446
 20
115.879741014
 10
222.2193696679
 20
116.1096632376
 10
222.5445287949
 20
116.4537661625
 10
222.6587094961
 20
116.8596632376
 10
222.5445287949
 20
117.2655603128
 10
222.2193696679
 20
117.6096632376
 10
221.7327346446
 20
117.8395854613
 10
221.1587094961
 20
117.9203234094
 10
220.5846843475
 20
117.8395854613
 10
220.0980493243
 20
117.6096632376
 10
219.7728901973
 20
117.2655603128
 10
219.6587094961
 20
116.8596632376
 10
219.7728901973
 20
116.4537661625
 10
220.0980493243
 20
116.1096632376
 10
220.5846843475
 20
115.879741014
 10
221.1587094961
 20
115.7990030659
  0
SPLINE
  5
147
330
1F
100
AcDbEntity
  8
0
  6
HIDDEN
 62
     7
370
     0
100
AcDbSpline
210
0.0
220
0.0
230
1.0
 70
     8
 71
     3
 72
    10
 73
     6
 74
     0
 42
0.00000001
 43
0.00000001
 40
0.0
 40
0.0
 40
0.0
 40
0.0
 40
0.5
 40
0.5
 40
1.0
 40
1.0
 40
1.0
 40
1.0
 10
219.6782537917314
 20
115.7925592457348
 30
0.0
 10
219.6682715464405
 20
115.8544776441772
 30
0.0
 10
219.6617009161971
 20
115.911378967625
 30
0.0
 10
219.6573157677021
 20
116.0141803239601
 30
0.0
 10
219.6596634127252
 20
116.056909576941
 30
0.0
 10
219.6661755977111
 20
116.0910998530408
 30
0.0
  0
SPLINE
  5
148
330
1F
100
AcDbEntity
  8
0
  6
HIDDEN
 62
     7
370
     0
100
AcDbSpline
210
0.0
220
0.0
230
1.0
 70
     8
 71
     3
 72
    18
 73
    14
 74
     0
 42
0.00000001
 43
0.00000001
 40
0.0
 40
0.0
 40
0.0
 40
0.0
 40
0.0196114411167804
 40
0.1648741297061564
 40
0.2236902984682665
 40
0.2831430743180756
 40
0.334740642648656
 40
0.3933560174137456
 40
0.4938616378942523
 40
0.6439170356197725
 40
0.794742614305492
 40
0.941556143574689
 40
1.0
 40
1.0
 40
1.0
 40
1.0
 10
219.6893455317185
 20
116.1506467703069
 30
0.0
 10
219.6906602227481
 20
116.1542739160863
 30
0.0
 10
219.7017128801251
 20
116.1847674683001
 30
0.0
 10
219.7284654303702
 20
116.1849023204645
 30
0.0
 10
219.7520086013563
 20
116.1602146314883
 30
0.0
 10
219.7609497819013
 20
116.1197028596813
 30
0.0
 10
219.7562193428241
 20
116.0530531923707
 30
0.0
 10
219.7379111282007
 20
115.9561329485667
 30
0.0
 10
219.7039577810282
 20
115.8107753132817
 30
0.0
 10
219.6674819991191
 20
115.628775982068
 30
0.0
 10
219.6541820351746
 20
115.4579264256306
 30
0.0
 10
219.6655173762685
 20
115.3497693721166
 30
0.0
 10
219.6847558952697
 20
115.3252097727072
 30
0.0
 10
219.6902337651088
 20
115.3182168077676
 30
0.0
  0
LWPOLYLINE
  5
149
330
1F
100
AcDbEntity
  8
0
  6
HIDDEN
 62
     7
370
     0
100
AcDbPolyline
 90
        8
 70
   128
 43
0.0
 10
219.7136667886
 20
115.2816420089
 10
219.7389856288
 20
115.2805693544
 10
219.7538462315
 20
115.3024874922
 10
219.7588255082
 20
115.3372080516
 10
219.7560449214
 20
115.3872141851
 10
219.7427532928
 20
115.4691249963
 10
219.711047195
 20
115.6205442344
 10
219.6782537917
 20
115.7925592457
  0
SPLINE
  5
14A
330
1F
100
AcDbEntity
  8
0
  6
HIDDEN
 62
     7
370
     0
100
AcDbSpline
210
0.0
220
0.0
230
1.0
 70
     8
 71
     3
 72
    14
 73
    10
 74
     0
 42
0.00000001
 43
0.00000001
 40
0.0
 40
0.0
 40
0.0
 40
0.0
 40
0.25
 40
0.25
 40
0.5
 40
0.5
 40
0.75
 40
0.75
 40
1.0
 40
1.0
 40
1.0
 40
1.0
 10
220.1649592901422
 20
116.1452094530884
 30
0.0
 10
220.1303948637398
 20
116.1816688468584
 30
0.0
 10
220.0970046599917
 20
116.2166413780853
 30
0.0
 10
220.0414079143268
 20
116.2952277662763
 30
0.0
 10
220.0182755865965
 20
116.3402374636813
 30
0.0
 10
220.0297118761295
 20
116.4834898447199
 30
0.0
 10
220.0607554566808
 20
116.5686581724785
 30
0.0
 10
220.1276115656212
 20
116.7306540622337
 30
0.0
 10
220.1656136939814
 20
116.8107448127558
 30
0.0
 10
220.2049673582329
 20
116.8893875092593
 30
0.0
  0
SPLINE
  5
14B
330
1F
100
AcDbEntity
  8
0
  6
HIDDEN
 62
     7
370
     0
100
AcDbSpline
210
0.0
220
0.0
230
1.0
 70
     8
 71
     3
 72
    14
 73
    10
 74
     0
 42
0.00000001
 43
0.00000001
 40
0.0
 40
0.0
 40
0.0
 40
0.0
 40
0.25
 40
0.25
 40
0.5
 40
0.5
 40
0.75
 40
0.75
 40
1.0
 40
1.0
 40
1.0
 40
1.0
 10
220.2049673582351
 20
116.889387509261
 30
0.0
 10
220.2427143358223
 20
116.8562718373373
 30
0.0
 10
220.2758135280225
 20
116.8156021795727
 30
0.0
 10
220.3217839819289
 20
116.7143314968758
 30
0.0
 10
220.3330119528503
 20
116.6556859171991
 30
0.0
 10
220.3241580514326
 20
116.5220141683708
 30
0.0
 10
220.3041386016578
 20
116.4495262022058
 30
0.0
 10
220.2445809077914
 20
116.2992436295943
 30
0.0
 10
220.2064147044899
 20
116.2232054334346
 30
0.0
 10
220.1649592901422
 20
116.1452094530882
 30
0.0
  0
ARC
  5
14C
330
1F
100
AcDbEntity
  8
0
  6
HIDDEN
 62
     7
370
     0
100
AcDbCircle
 10
236.2950424149
 20
115.6511977733
 30
0.0
 40
16.13764633245139
100
AcDbArc
 50
175.5995541952
 51
178.2457660564
  0
ARC
  5
14D
330
1F
100
AcDbEntity
  8
0
  6
HIDDEN
 62
     7
370
     0
100
AcDbCircle
 10
207.1462982843
 20
115.6537796065
 30
0.0
 40
13.06484575744428
100
AcDbArc
 50
355.1809346774
 51
358.2381039881
  0
LWPOLYLINE
  5
14E
330
1F
100
AcDbEntity
  8
0
  6
HIDDEN
 62
     7
370
     0
100
AcDbPolyline
 90
       28
 70
   128
 43
0.0
 10
105.1587094961
 20
155.1013012776
 10
106.3117888498
 20
155.0596533122
 10
107.4027053971
 20
154.9369546686
 10
108.3726475445
 20
154.7398200625
 10
109.1693254599
 20
154.4788770716
 10
109.7497900305
 20
154.1681931999
 10
110.0827482612
 20
153.8245174954
 10
110.1502502874
 20
153.4663776043
 10
109.9486570577
 20
153.1130809409
 10
109.488836515
 20
152.7836738197
 10
108.795577704
 20
152.4959146639
 10
107.9062543864
 20
152.2653166441
 10
106.8688102127
 20
152.1043113591
 10
105.7391740667
 20
152.0215786456
 10
104.5782449255
 20
152.0215786456
 10
103.4486087795
 20
152.1043113591
 10
102.4111646057
 20
152.2653166441
 10
101.5218412882
 20
152.4959146639
 10
100.8285824772
 20
152.7836738197
 10
100.3687619345
 20
153.1130809409
 10
100.1671687047
 20
153.4663776043
 10
100.234670731
 20
153.8245174954
 10
100.5676289617
 20
154.1681931999
 10
101.1480935323
 20
154.4788770716
 10
101.9447714477
 20
154.7398200625
 10
102.9147135951
 20
154.9369546686
 10
104.0056301424
 20
155.0596533122
 10
105.1587094961
 20
155.1013012776
  0
LINE
  5
14F
330
1F
100
AcDbEntity
  8
0
  6
HIDDEN
 62
     7
370
     0
100
AcDbLine
 10
119.420738517
 20
148.7395581867
 30
0.0
 11
119.420738517
 21
141.1385954258
 31
0.0
  0
LINE
  5
150
330
1F
100
AcDbEntity
  8
0
  6
HIDDEN
 62
     7
370
     0
100
AcDbLine
 10
114.2487094961
 20
144.5028306183
 30
0.0
 11
114.2487094961
 21
141.1385954258
 31
0.0
  0
LINE
  5
151
330
1F
100
AcDbEntity
  8
0
  6
HIDDEN
 62
     7
370
     0
100
AcDbLine
 10
118.0687094961
 20
144.5028306183
 30
0.0
 11
118.0687094961
 21
141.1385954258
 31
0.0
  0
CIRCLE
  5
152
330
1F
100
AcDbEntity
  8
0
  6
HIDDEN
 62
     7
370
     0
100
AcDbCircle
 10
103.1587094961
 20
109.7885954258
 30
0.0
 40
5.000000000000014
  0
LINE
  5
153
330
1F
100
AcDbEntity
  8
0
  6
HIDDEN
 62
     7
370
     0
100
AcDbLine
 10
255.9278358317
 20
113.2459153273
 30
0.0
 11
256.0970642188
 21
113.521497184
 31
0.0
  0
LINE
  5
154
330
1F
100
AcDbEntity
  8
0
  6
HIDDEN
 62
     7
370
     0
100
AcDbLine
 10
256.1587094961
 20
115.9678655304
 30
0.0
 11
256.0110541457
 21
116.241286868
 31
0.0
  0
LINE
  5
155
330
1F
100
AcDbEntity
  8
0
  6
HIDDEN
 62
     7
370
     0
100
AcDbLine
 10
256.0091001168
 20
116.2430781674
 30
0.0
 11
250.6751623129
 21
116.3912672336
 31
0.0
  0
LINE
  5
156
330
1F
100
AcDbEntity
  8
0
  6
HIDDEN
 62
     7
370
     0
100
AcDbLine
 10
250.591847557
 20
113.3924243481
 30
0.0
 11
255.9257853608
 21
113.244235282
 31
0.0
  0
LINE
  5
157
330
1F
100
AcDbEntity
  8
0
  6
HIDDEN
 62
     7
370
     0
100
AcDbLine
 10
250.673990246
 20
116.3907210157
 30
0.0
 11
250.1608806242
 21
115.9049763818
 31
0.0
  0
LINE
  5
158
330
1F
100
AcDbEntity
  8
0
  6
HIDDEN
 62
     7
370
     0
100
AcDbLine
 10
250.1053588768
 20
113.9065189037
 30
0.0
 11
250.5907076249
 21
113.3930347986
 31
0.0
  0
LINE
  5
159
330
1F
100
AcDbEntity
  8
0
  6
HIDDEN
 62
     7
370
     0
100
AcDbLine
 10
250.6495973485
 20
106.185792145
 30
0.0
 11
250.1642486004
 21
105.67230804
 31
0.0
  0
LINE
  5
15A
330
1F
100
AcDbEntity
  8
0
  6
HIDDEN
 62
     7
370
     0
100
AcDbLine
 10
250.2197703478
 20
103.6738505619
 30
0.0
 11
250.7328799696
 21
103.1881059279
 31
0.0
  0
LINE
  5
15B
330
1F
100
AcDbEntity
  8
0
  6
HIDDEN
 62
     7
370
     0
100
AcDbLine
 10
255.9846750845
 20
106.3345916616
 30
0.0
 11
250.6507372806
 21
106.1864025955
 31
0.0
  0
LINE
  5
15C
330
1F
100
AcDbEntity
  8
0
  6
HIDDEN
 62
     7
370
     0
100
AcDbLine
 10
250.7340520366
 20
103.1875597101
 30
0.0
 11
256.0679898405
 21
103.3357487762
 31
0.0
  0
LINE
  5
15D
330
1F
100
AcDbEntity
  8
0
  6
HIDDEN
 62
     7
370
     0
100
AcDbLine
 10
256.0699438694
 20
103.3375400757
 30
0.0
 11
256.1587094961
 21
103.5019121511
 31
0.0
  0
LINE
  5
15E
330
1F
100
AcDbEntity
  8
0
  6
HIDDEN
 62
     7
370
     0
100
AcDbLine
 10
256.1559539424
 20
106.0573297596
 30
0.0
 11
255.9867255553
 21
106.3329116163
 31
0.0
  0
LINE
  5
15F
330
1F
100
AcDbEntity
  8
0
  6
HIDDEN
 62
     7
370
     0
100
AcDbLine
 10
96.1587094961
 20
70.3839124692
 30
0.0
 11
96.24831112
 21
71.0214611511
 31
0.0
  0
LINE
  5
160
330
1F
100
AcDbEntity
  8
0
  6
HIDDEN
 62
     7
370
     0
100
AcDbLine
 10
96.24831112
 20
148.5557297004
 30
0.0
 11
96.1587094961
 21
149.1932783824
 31
0.0
  0
ARC
  5
161
330
1F
100
AcDbEntity
  8
0
  6
HIDDEN
 62
     7
370
     0
100
AcDbCircle
 10
95.2617725776
 20
71.1601101013
 30
0.0
 40
0.9962338214386862
100
AcDbArc
 50
352.0
 51
0.0
  0
ARC
  5
162
330
1F
100
AcDbEntity
  8
0
  6
HIDDEN
 62
     7
370
     0
100
AcDbCircle
 10
95.2617725776
 20
71.1601101013
 30
0.0
 40
0.9962338214386793
100
AcDbArc
 50
0.0
 51
25.7988228126
  0
ARC
  5
163
330
1F
100
AcDbEntity
  8
0
  6
HIDDEN
 62
     7
370
     0
100
AcDbCircle
 10
95.2617725776
 20
148.4170807502
 30
0.0
 40
0.9962338214386901
100
AcDbArc
 50
348.75
 51
8.0
  0
LWPOLYLINE
  5
164
330
1F
100
AcDbEntity
  8
0
  6
HIDDEN
 62
     7
370
     0
100
AcDbPolyline
 90
        3
 70
   128
 43
0.0
 10
96.2388640456
 20
148.2227251732
 10
96.1821726149
 20
148.035838572
 10
96.1587094961
 20
147.9835072371
  0
LINE
  5
165
330
1F
100
AcDbEntity
  8
0
  6
HIDDEN
 62
     7
370
     0
100
AcDbLine
 10
96.2580063991
 20
71.1601101013
 30
0.0
 11
96.2580063991
 21
148.4170807502
 31
0.0
  0
ARC
  5
166
330
1F
100
AcDbEntity
  8
0
  6
HIDDEN
 62
     7
370
     0
100
AcDbCircle
 10
86.4119151513
 20
90.2885954258
 30
0.0
 40
11.99999999999999
100
AcDbArc
 50
273.1770759295
 51
324.3146652873
  0
ARC
  5
167
330
1F
100
AcDbEntity
  8
0
  6
HIDDEN
 62
     7
370
     0
100
AcDbCircle
 10
86.4119151513
 20
129.2885954258
 30
0.0
 40
12.00000000000001
100
AcDbArc
 50
35.6853347127
 51
86.8211274387
  0
LINE
  5
168
330
1F
100
AcDbEntity
  8
0
  6
HIDDEN
 62
     7
370
     0
100
AcDbLine
 10
69.6194354383
 20
78.2885954258
 30
0.0
 11
75.2045395467
 21
78.2885954258
 31
0.0
  0
LINE
  5
169
330
1F
100
AcDbEntity
  8
0
  6
HIDDEN
 62
     7
370
     0
100
AcDbLine
 10
75.2045395467
 20
141.2885954258
 30
0.0
 11
69.6194354383
 21
141.2885954258
 31
0.0
  0
ARC
  5
16A
330
1F
100
AcDbEntity
  8
0
  6
HIDDEN
 62
     7
370
     0
100
AcDbCircle
 10
69.6194354383
 20
79.2885954258
 30
0.0
 40
1.000000000000008
100
AcDbArc
 50
210.0
 51
270.0
  0
ARC
  5
16B
330
1F
100
AcDbEntity
  8
0
  6
HIDDEN
 62
     7
370
     0
100
AcDbCircle
 10
69.6194354383
 20
140.2885954258
 30
0.0
 40
1.000000000000008
100
AcDbArc
 50
90.0
 51
150.0
  0
LINE
  5
16C
330
1F
100
AcDbEntity
  8
0
  6
HIDDEN
 62
     7
370
     0
100
AcDbLine
 10
68.7534100345
 20
140.7885954258
 30
0.0
 11
66.1553338231
 21
136.2885954258
 31
0.0
  0
LINE
  5
16D
330
1F
100
AcDbEntity
  8
0
  6
HIDDEN
 62
     7
370
     0
100
AcDbLine
 10
66.1553338231
 20
83.2885954258
 30
0.0
 11
68.7534100345
 21
78.7885954258
 31
0.0
  0
ARC
  5
16E
330
1F
100
AcDbEntity
  8
0
  6
HIDDEN
 62
     7
370
     0
100
AcDbCircle
 10
106.6087094961
 20
84.9135954258
 30
0.0
 40
2.000000000000007
100
AcDbArc
 50
234.3409123039
 51
0.0
  0
ARC
  5
16F
330
1F
100
AcDbEntity
  8
0
  6
HIDDEN
 62
     7
370
     0
100
AcDbCircle
 10
106.6087094961
 20
134.6635954258
 30
0.0
 40
2.0
100
AcDbArc
 50
0.0
 51
125.6590876961
  0
LINE
  5
170
330
1F
100
AcDbEntity
  8
0
  6
HIDDEN
 62
     7
370
     0
100
AcDbLine
 10
61.3587094961
 20
83.2885954258
 30
0.0
 11
66.1553338231
 21
83.2885954258
 31
0.0
  0
LINE
  5
171
330
1F
100
AcDbEntity
  8
0
  6
HIDDEN
 62
     7
370
     0
100
AcDbLine
 10
66.1553338231
 20
136.2885954258
 30
0.0
 11
56.3587094961
 21
136.2885954258
 31
0.0
  0
LINE
  5
172
330
1F
100
AcDbEntity
  8
0
  6
HIDDEN
 62
     7
370
     0
100
AcDbLine
 10
96.1587094961
 20
83.2885954258
 30
0.0
 11
105.4427871145
 21
83.2885954258
 31
0.0
  0
LINE
  5
173
330
1F
100
AcDbEntity
  8
0
  6
HIDDEN
 62
     7
370
     0
100
AcDbLine
 10
105.4427871145
 20
136.2885954258
 30
0.0
 11
96.1587094961
 21
136.2885954258
 31
0.0
  0
LINE
  5
174
330
1F
100
AcDbEntity
  8
0
  6
HIDDEN
 62
     7
370
     0
100
AcDbLine
 10
100.1587094961
 20
155.4601488049
 30
0.0
 11
100.1587094961
 21
151.7660092045
 31
0.0
  0
LINE
  5
175
330
1F
100
AcDbEntity
  8
0
  6
HIDDEN
 62
     7
370
     0
100
AcDbLine
 10
110.1587094961
 20
151.7660092045
 30
0.0
 11
110.1587094961
 21
155.4656570633
 31
0.0
  0
LINE
  5
176
330
1F
100
AcDbEntity
  8
0
  6
HIDDEN
 62
     7
370
     0
100
AcDbLine
 10
120.4587094961
 20
96.7885954258
 30
0.0
 11
124.4587094961
 21
96.7885954258
 31
0.0
  0
LINE
  5
177
330
1F
100
AcDbEntity
  8
0
  6
HIDDEN
 62
     7
370
     0
100
AcDbLine
 10
124.4587094961
 20
122.7885954258
 30
0.0
 11
120.4587094961
 21
122.7885954258
 31
0.0
  0
LINE
  5
178
330
1F
100
AcDbEntity
  8
0
  6
HIDDEN
 62
     7
370
     0
100
AcDbLine
 10
108.6087094961
 20
97.7885954258
 30
0.0
 11
109.3587094961
 21
98.5385954258
 31
0.0
  0
LINE
  5
179
330
1F
100
AcDbEntity
  8
0
  6
HIDDEN
 62
     7
370
     0
100
AcDbLine
 10
109.3587094961
 20
121.0385954258
 30
0.0
 11
108.6087094961
 21
121.7885954258
 31
0.0
  0
LINE
  5
17A
330
1F
100
AcDbEntity
  8
0
  6
HIDDEN
 62
     7
370
     0
100
AcDbLine
 10
109.3587094961
 20
98.5385954258
 30
0.0
 11
120.4587094961
 21
98.5385954258
 31
0.0
  0
LINE
  5
17B
330
1F
100
AcDbEntity
  8
0
  6
HIDDEN
 62
     7
370
     0
100
AcDbLine
 10
120.4587094961
 20
121.0385954258
 30
0.0
 11
109.3587094961
 21
121.0385954258
 31
0.0
  0
LINE
  5
17C
330
1F
100
AcDbEntity
  8
0
  6
HIDDEN
 62
     7
370
     0
100
AcDbLine
 10
101.1087094961
 20
159.7885954258
 30
0.0
 11
101.1087094961
 21
153.6885954258
 31
0.0
  0
LINE
  5
17D
330
1F
100
AcDbEntity
  8
0
  6
HIDDEN
 62
     7
370
     0
100
AcDbLine
 10
222.6587094961
 20
104.7842863866
 30
0.0
 11
222.6587094961
 21
106.8313735527
 31
0.0
  0
LINE
  5
17E
330
1F
100
AcDbEntity
  8
0
  6
HIDDEN
 62
     7
370
     0
100
AcDbLine
 10
222.6587094961
 20
102.2225528671
 30
0.0
 11
222.6587094961
 21
103.0320902374
 31
0.0
  0
LINE
  5
17F
330
1F
100
AcDbEntity
  8
0
  6
HIDDEN
 62
     7
370
     0
100
AcDbLine
 10
219.6587094961
 20
103.5795070777
 30
0.0
 11
219.6587094961
 21
102.2225528671
 31
0.0
  0
LINE
  5
180
330
1F
100
AcDbEntity
  8
0
  6
HIDDEN
 62
     7
370
     0
100
AcDbLine
 10
219.6587094961
 20
106.7513181684
 30
0.0
 11
219.6587094961
 21
104.1056946419
 31
0.0
  0
LINE
  5
181
330
1F
100
AcDbEntity
  8
0
  6
HIDDEN
 62
     7
370
     0
100
AcDbLine
 10
222.3708780271
 20
102.649661933
 30
0.0
 11
256.1587094961
 21
103.5883656404
 31
0.0
  0
LINE
  5
182
330
1F
100
AcDbEntity
  8
0
  6
HIDDEN
 62
     7
370
     0
100
AcDbLine
 10
256.1587094961
 20
106.0893302746
 30
0.0
 11
222.3664977839
 21
105.150504874
 31
0.0
  0
LINE
  5
183
330
1F
100
AcDbEntity
  8
0
  6
HIDDEN
 62
     7
370
     0
100
AcDbLine
 10
87.5914221121
 20
72.2103158552
 30
0.0
 11
87.1587128256
 21
72.6885405726
 31
0.0
  0
LINE
  5
184
330
1F
100
AcDbEntity
  8
0
  6
HIDDEN
 62
     7
370
     0
100
AcDbLine
 10
75.1587099541
 20
73.3355019292
 30
0.0
 11
74.6780826489
 21
72.8572772184
 31
0.0
  0
LINE
  5
185
330
1F
100
AcDbEntity
  8
0
  6
HIDDEN
 62
     7
370
     0
100
AcDbLine
 10
74.6779643074
 20
146.719907717
 30
0.0
 11
75.1587097715
 21
146.2416280452
 31
0.0
  0
LINE
  5
186
330
1F
100
AcDbEntity
  8
0
  6
HIDDEN
 62
     7
370
     0
100
AcDbLine
 10
87.1587094982
 20
146.8886004325
 30
0.0
 11
87.5915311679
 21
147.3668801054
 31
0.0
  0
LINE
  5
187
330
1F
100
AcDbEntity
  8
0
  6
HIDDEN
 62
     7
370
     0
100
AcDbLine
 10
219.6853147492
 20
104.2616352282
 30
0.0
 11
219.4359674698
 21
103.8186056813
 31
0.0
  0
LINE
  5
188
330
1F
100
AcDbEntity
  8
0
  6
HIDDEN
 62
     7
370
     0
100
AcDbLine
 10
219.4359674698
 20
103.8186056813
 30
0.0
 11
219.6860219482
 21
103.4269231714
 31
0.0
  0
LINE
  5
189
330
1F
100
AcDbEntity
  8
0
  6
HIDDEN
 62
     7
370
     0
100
AcDbLine
 10
87.1587094961
 20
141.2544733529
 30
0.0
 11
87.1587094961
 21
146.9886042585
 31
0.0
  0
LINE
  5
18A
330
1F
100
AcDbEntity
  8
0
  6
HIDDEN
 62
     7
370
     0
100
AcDbLine
 10
75.1587094961
 20
146.2416175459
 30
0.0
 11
75.1587094961
 21
141.2801160578
 31
0.0
  0
LINE
  5
18B
330
1F
100
AcDbEntity
  8
0
  6
HIDDEN
 62
     7
370
     0
100
AcDbLine
 10
87.1587094961
 20
72.58841173
 30
0.0
 11
87.1587094961
 21
78.3227174987
 31
0.0
  0
LINE
  5
18C
330
1F
100
AcDbEntity
  8
0
  6
HIDDEN
 62
     7
370
     0
100
AcDbLine
 10
75.1587094961
 20
78.2970747938
 30
0.0
 11
75.1587094961
 21
73.3355403438
 31
0.0
  0
LINE
  5
18D
330
1F
100
AcDbEntity
  8
0
  6
HIDDEN
 62
     7
370
     0
100
AcDbLine
 10
124.4587094961
 20
103.7885954258
 30
0.0
 11
154.2587094961
 21
103.7885954258
 31
0.0
  0
LINE
  5
18E
330
1F
100
AcDbEntity
  8
0
  6
HIDDEN
 62
     7
370
     0
100
AcDbLine
 10
154.2587094961
 20
115.7885954258
 30
0.0
 11
124.4587094961
 21
115.7885954258
 31
0.0
  0
LINE
  5
18F
330
1F
100
AcDbEntity
  8
0
  6
HIDDEN
 62
     7
370
     0
100
AcDbLine
 10
154.2587094961
 20
103.7885954258
 30
0.0
 11
156.3617216627
 21
107.2885954258
 31
0.0
  0
LINE
  5
190
330
1F
100
AcDbEntity
  8
0
  6
HIDDEN
 62
     7
370
     0
100
AcDbLine
 10
156.3617216627
 20
112.2885954258
 30
0.0
 11
154.2587094961
 21
115.7885954258
 31
0.0
  0
LINE
  5
191
330
1F
100
AcDbEntity
  8
0
  6
HIDDEN
 62
     7
370
     0
100
AcDbLine
 10
219.5587094961
 20
105.4885954258
 30
0.0
 11
222.263935478
 21
105.4885954258
 31
0.0
  0
LINE
  5
192
330
1F
100
AcDbEntity
  8
0
  6
HIDDEN
 62
     7
370
     0
100
AcDbLine
 10
222.263935478
 20
114.0885954258
 30
0.0
 11
219.5587094961
 21
114.0885954258
 31
0.0
  0
ARC
  5
193
330
1F
100
AcDbEntity
  8
0
  6
HIDDEN
 62
     7
370
     0
100
AcDbCircle
 10
219.5587094961
 20
105.8885954258
 30
0.0
 40
0.4000000000000341
100
AcDbArc
 50
180.0
 51
270.0
  0
ARC
  5
194
330
1F
100
AcDbEntity
  8
0
  6
HIDDEN
 62
     7
370
     0
100
AcDbCircle
 10
219.5587094961
 20
113.6885954258
 30
0.0
 40
0.4000000000000341
100
AcDbArc
 50
90.0
 51
180.0
  0
ARC
  5
195
330
1F
100
AcDbEntity
  8
0
  6
HIDDEN
 62
     7
370
     0
100
AcDbCircle
 10
222.263935478
 20
113.6885954258
 30
0.0
 40
0.4000000000000171
100
AcDbArc
 50
70.0
 51
90.0
  0
ARC
  5
196
330
1F
100
AcDbEntity
  8
0
  6
HIDDEN
 62
     7
370
     0
100
AcDbCircle
 10
255.8587094961
 20
105.4885954258
 30
0.0
 40
0.3000000000000114
100
AcDbArc
 50
0.0
 51
90.0
  0
ARC
  5
197
330
1F
100
AcDbEntity
  8
0
  6
HIDDEN
 62
     7
370
     0
100
AcDbCircle
 10
255.8587094961
 20
114.0885954258
 30
0.0
 40
0.3000000000000114
100
AcDbArc
 50
270.0
 51
0.0
  0
LINE
  5
198
330
1F
100
AcDbEntity
  8
0
  6
HIDDEN
 62
     7
370
     0
100
AcDbLine
 10
222.4007435353
 20
105.5127183775
 30
0.0
 11
223.1587094961
 21
105.7885954258
 31
0.0
  0
LINE
  5
199
330
1F
100
AcDbEntity
  8
0
  6
HIDDEN
 62
     7
370
     0
100
AcDbLine
 10
223.1587094961
 20
113.7885954258
 30
0.0
 11
222.4007435353
 21
114.0644724741
 31
0.0
  0
LINE
  5
19A
330
1F
100
AcDbEntity
  8
0
  6
HIDDEN
 62
     7
370
     0
100
AcDbLine
 10
223.1587094961
 20
105.7885954258
 30
0.0
 11
255.8587094961
 21
105.7885954258
 31
0.0
  0
LINE
  5
19B
330
1F
100
AcDbEntity
  8
0
  6
HIDDEN
 62
     7
370
     0
100
AcDbLine
 10
255.8587094961
 20
113.7885954258
 30
0.0
 11
223.1587094961
 21
113.7885954258
 31
0.0
  0
LINE
  5
19C
330
1F
100
AcDbEntity
  8
0
  6
HIDDEN
 62
     7
370
     0
100
AcDbLine
 10
168.6087094961
 20
93.7885954258
 30
0.0
 11
167.6087094961
 21
94.365945695
 31
0.0
  0
LINE
  5
19D
330
1F
100
AcDbEntity
  8
0
  6
HIDDEN
 62
     7
370
     0
100
AcDbLine
 10
162.6087094961
 20
94.365945695
 30
0.0
 11
161.6087094961
 21
93.7885954258
 31
0.0
  0
LINE
  5
19E
330
1F
100
AcDbEntity
  8
0
  6
HIDDEN
 62
     7
370
     0
100
AcDbLine
 10
161.6087094961
 20
125.7885954258
 30
0.0
 11
162.6087094961
 21
125.2112451566
 31
0.0
  0
LINE
  5
19F
330
1F
100
AcDbEntity
  8
0
  6
HIDDEN
 62
     7
370
     0
100
AcDbLine
 10
167.6087094961
 20
125.2112451566
 30
0.0
 11
168.6087094961
 21
125.7885954258
 31
0.0
  0
LINE
  5
1A0
330
1F
100
AcDbEntity
  8
0
  6
HIDDEN
 62
     7
370
     0
100
AcDbLine
 10
162.6087094961
 20
125.2112451566
 30
0.0
 11
162.6087094961
 21
116.7885954258
 31
0.0
  0
LINE
  5
1A1
330
1F
100
AcDbEntity
  8
0
  6
HIDDEN
 62
     7
370
     0
100
AcDbLine
 10
167.6087094961
 20
116.7885954258
 30
0.0
 11
167.6087094961
 21
125.2112451566
 31
0.0
  0
LINE
  5
1A2
330
1F
100
AcDbEntity
  8
0
  6
HIDDEN
 62
     7
370
     0
100
AcDbLine
 10
162.6087094961
 20
116.7885954258
 30
0.0
 11
165.1087094961
 21
115.2864438782
 31
0.0
  0
LINE
  5
1A3
330
1F
100
AcDbEntity
  8
0
  6
HIDDEN
 62
     7
370
     0
100
AcDbLine
 10
165.1087094961
 20
115.2864438782
 30
0.0
 11
167.6087094961
 21
116.7885954258
 31
0.0
  0
LINE
  5
1A4
330
1F
100
AcDbEntity
  8
0
  6
HIDDEN
 62
     7
370
     0
100
AcDbLine
 10
156.3617216627
 20
107.2885954258
 30
0.0
 11
219.1587094961
 21
107.2885954258
 31
0.0
  0
LINE
  5
1A5
330
1F
100
AcDbEntity
  8
0
  6
HIDDEN
 62
     7
370
     0
100
AcDbLine
 10
219.1587094961
 20
112.2885954258
 30
0.0
 11
156.3617216627
 21
112.2885954258
 31
0.0
  0
LINE
  5
1A6
330
1F
100
AcDbEntity
  8
0
  6
HIDDEN
 62
     7
370
     0
100
AcDbLine
 10
167.6087094961
 20
102.7885954258
 30
0.0
 11
165.1087094961
 21
104.2907469734
 31
0.0
  0
LINE
  5
1A7
330
1F
100
AcDbEntity
  8
0
  6
HIDDEN
 62
     7
370
     0
100
AcDbLine
 10
165.1087094961
 20
104.2907469734
 30
0.0
 11
162.6087094961
 21
102.7885954258
 31
0.0
  0
LINE
  5
1A8
330
1F
100
AcDbEntity
  8
0
  6
HIDDEN
 62
     7
370
     0
100
AcDbLine
 10
167.6087094961
 20
94.365945695
 30
0.0
 11
167.6087094961
 21
102.7885954258
 31
0.0
  0
LINE
  5
1A9
330
1F
100
AcDbEntity
  8
0
  6
HIDDEN
 62
     7
370
     0
100
AcDbLine
 10
162.6087094961
 20
102.7885954258
 30
0.0
 11
162.6087094961
 21
94.365945695
 31
0.0
  0
ARC
  5
1AA
330
1F
100
AcDbEntity
  8
0
  6
HIDDEN
 62
     7
370
     0
100
AcDbCircle
 10
222.263935478
 20
105.8885954258
 30
0.0
 40
0.4000000000000171
100
AcDbArc
 50
270.0
 51
290.0
  0
LINE
  5
1AB
330
1F
100
AcDbEntity
  8
0
  6
HIDDEN
 62
     7
370
     0
100
AcDbLine
 10
222.6587094961
 20
116.5451596351
 30
0.0
 11
222.6587094961
 21
116.8596632376
 31
0.0
  0
LINE
  5
1AC
330
1F
100
AcDbEntity
  8
0
  6
HIDDEN
 62
     7
370
     0
100
AcDbLine
 10
222.6587094961
 20
112.7458172989
 30
0.0
 11
222.6587094961
 21
114.7932398253
 31
0.0
  0
LINE
  5
1AD
330
1F
100
AcDbEntity
  8
0
  6
HIDDEN
 62
     7
370
     0
100
AcDbLine
 10
219.6587094961
 20
115.4728881591
 30
0.0
 11
219.6587094961
 21
112.8258726831
 31
0.0
  0
LINE
  5
1AE
330
1F
100
AcDbEntity
  8
0
  6
HIDDEN
 62
     7
370
     0
100
AcDbLine
 10
219.6587094961
 20
116.8596632376
 30
0.0
 11
219.6587094961
 21
115.9946901467
 31
0.0
  0
LINE
  5
1AF
330
1F
100
AcDbEntity
  8
0
  6
HIDDEN
 62
     7
370
     0
100
AcDbLine
 10
222.3697007939
 20
114.4265969906
 30
0.0
 11
256.1587094961
 21
113.487860577
 31
0.0
  0
LINE
  5
1B0
330
1F
100
AcDbEntity
  8
0
  6
HIDDEN
 62
     7
370
     0
100
AcDbLine
 10
256.1587094961
 20
115.9888252112
 30
0.0
 11
222.3672990807
 21
116.9276283499
 31
0.0
  0
LINE
  5
1B1
330
1F
100
AcDbEntity
  8
0
  6
HIDDEN
 62
     7
370
     0
100
AcDbLine
 10
219.6871628413
 20
116.1520547622
 30
0.0
 11
219.4359674698
 21
115.7585851702
 31
0.0
  0
LINE
  5
1B2
330
1F
100
AcDbEntity
  8
0
  6
HIDDEN
 62
     7
370
     0
100
AcDbLine
 10
219.4359674698
 20
115.7585851702
 30
0.0
 11
219.6853636481
 21
115.3154687418
 31
0.0
  0
LINE
  5
1B3
330
1F
100
AcDbEntity
  8
0
  6
HIDDEN
 62
     7
370
     0
100
AcDbLine
 10
100.1587094961
 20
157.3354668892
 30
0.0
 11
100.1587094961
 21
155.4601488049
 31
0.0
  0
LINE
  5
1B4
330
1F
100
AcDbEntity
  8
0
  6
HIDDEN
 62
     7
370
     0
100
AcDbLine
 10
110.1587094961
 20
155.4656570633
 30
0.0
 11
110.1587094961
 21
157.341201322
 31
0.0
  0
DIMENSION
  5
1B5
330
1F
100
AcDbEntity
  8
VERMASSUNG
100
AcDbDimension
  2
*D1
 10
40.8005937638
 20
59.7885954258
 30
0.0
 11
40.8005937638
 21
109.7885954258
 31
0.0
 70
   160
  1
HSK A %%c<>
 71
     2
 42
-1.0
  3
SLDDIMSTYLE0
100
AcDbAlignedDimension
 13
96.6587094961
 23
159.7885954258
 33
0.0
 14
96.6587094961
 24
59.7885954258
 34
0.0
 50
90.0
100
AcDbRotatedDimension
  0
DIMENSION
  5
1C2
330
1F
100
AcDbEntity
  8
VERMASSUNG
100
AcDbDimension
  2
*D2
 10
262.5123444476
 20
105.7885954258
 30
0.0
 11
262.5123444476
 21
109.7885954258
 31
0.0
 70
   160
  1
%%c<>
 71
     2
 42
-1.0
  3
SLDDIMSTYLE1
100
AcDbAlignedDimension
 13
255.8587094961
 23
113.7885954258
 33
0.0
 14
255.8587094961
 24
105.7885954258
 34
0.0
 50
90.0
100
AcDbRotatedDimension
  0
DIMENSION
  5
1D0
330
1F
100
AcDbEntity
  8
VERMASSUNG
100
AcDbDimension
  2
*D3
 10
256.1587094961
 20
178.5394850844
 30
0.0
 11
151.2087094961
 21
178.5394850844
 31
0.0
 70
   160
 71
     2
 42
-1.0
  3
SLDDIMSTYLE0
100
AcDbAlignedDimension
 13
46.2587094961
 23
140.2912651684
 33
0.0
 14
256.1587094961
 24
118.5144549042
 34
0.0
100
AcDbRotatedDimension
  0
DIMENSION
  5
1DA
330
1F
100
AcDbEntity
  8
VERMASSUNG
100
AcDbDimension
  2
*D4
 10
256.1587094961
 20
172.5394850844
 30
0.0
 11
176.1587094961
 21
172.5394850844
 31
0.0
 70
   160
 71
     2
 42
-1.0
  3
SLDDIMSTYLE0
100
AcDbAlignedDimension
 13
96.1587094961
 23
159.2885954258
 33
0.0
 14
256.1587094961
 24
118.5144549042
 34
0.0
100
AcDbRotatedDimension
  0
DIMENSION
  5
1E4
330
1F
100
AcDbEntity
  8
VERMASSUNG
100
AcDbDimension
  2
*D5
 10
256.1587094961
 20
166.5394850844
 30
0.0
 11
190.6337094961
 21
166.5394850844
 31
0.0
 70
   160
 71
     2
 42
-1.0
  3
SLDDIMSTYLE0
100
AcDbAlignedDimension
 13
125.1087094961
 23
157.7573352466
 33
0.0
 14
256.1587094961
 24
118.5144549042
 34
0.0
100
AcDbRotatedDimension
  0
DIMENSION
  5
1EE
330
1F
100
AcDbEntity
  8
VERMASSUNG
100
AcDbDimension
  2
*D6
 10
268.5123444476
 20
93.7885954258
 30
0.0
 11
268.5123444476
 21
109.7885954258
 31
0.0
 70
   160
  1
%%c<>
 71
     2
 42
-1.0
  3
SLDDIMSTYLE0
100
AcDbAlignedDimension
 13
243.291667973
 23
125.7885954258
 33
0.0
 14
243.291667973
 24
93.7885954258
 34
0.0
 50
90.0
100
AcDbRotatedDimension
  0
LINE
  5
1F9
330
1F
100
AcDbEntity
  8
VERMASSUNG
  6
CENTERX2
 62
     7
370
     0
100
AcDbLine
 10
44.0082401351
 20
109.7885954258
 30
0.0
 11
257.3978783653
 21
109.7885954258
 31
0.0
  0
OLE2FRAME
  5
1FA
330
1F
100
AcDbEntity
  8
0
100
AcDbOle2Frame
 70
     2
  3
Bitmap Image
 10
13.8511154363
 20
38.264191557
 30
0.0
 11
51.6290888628
 21
31.9806341108
 31
0.0
 71
     2
 72
     0
 73
     1
 90
    12928
310
80552BED0767C5B32B40DDAF6807D121434000000000000000006FFBDDFB85D0
310
4940DDAF6807D121434000000000000000006FFBDDFB85D04940416F4BD60AFB
310
3F4000000000000000002BED0767C5B32B40416F4BD60AFB3F40000000000000
310
0000000000000100000000010000010000000100000000000100000000320000
310
D0CF11E0A1B11AE1000000000000000000000000000000003E000300FEFF0900
310
0600000000000000000000000100000001000000000000000010000002000000
310
01000000FEFFFFFF0000000000000000FFFFFFFFFFFFFFFFFFFFFFFFFFFFFFFF
310
FFFFFFFFFFFFFFFFFFFFFFFFFFFFFFFFFFFFFFFFFFFFFFFFFFFFFFFFFFFFFFFF
310
FFFFFFFFFFFFFFFFFFFFFFFFFFFFFFFFFFFFFFFFFFFFFFFFFFFFFFFFFFFFFFFF
310
FFFFFFFFFFFFFFFFFFFFFFFFFFFFFFFFFFFFFFFFFFFFFFFFFFFFFFFFFFFFFFFF
310
FFFFFFFFFFFFFFFFFFFFFFFFFFFFFFFFFFFFFFFFFFFFFFFFFFFFFFFFFFFFFFFF
310
FFFFFFFFFFFFFFFFFFFFFFFFFFFFFFFFFFFFFFFFFFFFFFFFFFFFFFFFFFFFFFFF
310
FFFFFFFFFFFFFFFFFFFFFFFFFFFFFFFFFFFFFFFFFFFFFFFFFFFFFFFFFFFFFFFF
310
FFFFFFFFFFFFFFFFFFFFFFFFFFFFFFFFFFFFFFFFFFFFFFFFFFFFFFFFFFFFFFFF
310
FFFFFFFFFFFFFFFFFFFFFFFFFFFFFFFFFFFFFFFFFFFFFFFFFFFFFFFFFFFFFFFF
310
FFFFFFFFFFFFFFFFFFFFFFFFFFFFFFFFFFFFFFFFFFFFFFFFFFFFFFFFFFFFFFFF
310
FFFFFFFFFFFFFFFFFFFFFFFFFFFFFFFFFFFFFFFFFFFFFFFFFFFFFFFFFFFFFFFF
310
FFFFFFFFFFFFFFFFFFFFFFFFFFFFFFFFFFFFFFFFFFFFFFFFFFFFFFFFFFFFFFFF
310
FFFFFFFFFFFFFFFFFFFFFFFFFFFFFFFFFFFFFFFFFFFFFFFFFFFFFFFFFFFFFFFF
310
FFFFFFFFFFFFFFFFFFFFFFFFFFFFFFFFFFFFFFFFFFFFFFFFFFFFFFFFFFFFFFFF
310
FDFFFFFFFEFFFFFFFEFFFFFFFEFFFFFF05000000060000000700000008000000
310
090000000A0000000B0000000C0000000D0000000E0000000F00000010000000
310
11000000120000001300000014000000150000001600000017000000FEFFFFFF
310
FFFFFFFFFFFFFFFFFFFFFFFFFFFFFFFFFFFFFFFFFFFFFFFFFFFFFFFFFFFFFFFF
310
FFFFFFFFFFFFFFFFFFFFFFFFFFFFFFFFFFFFFFFFFFFFFFFFFFFFFFFFFFFFFFFF
310
FFFFFFFFFFFFFFFFFFFFFFFFFFFFFFFFFFFFFFFFFFFFFFFFFFFFFFFFFFFFFFFF
310
FFFFFFFFFFFFFFFFFFFFFFFFFFFFFFFFFFFFFFFFFFFFFFFFFFFFFFFFFFFFFFFF
310
FFFFFFFFFFFFFFFFFFFFFFFFFFFFFFFFFFFFFFFFFFFFFFFFFFFFFFFFFFFFFFFF
310
FFFFFFFFFFFFFFFFFFFFFFFFFFFFFFFFFFFFFFFFFFFFFFFFFFFFFFFFFFFFFFFF
310
FFFFFFFFFFFFFFFFFFFFFFFFFFFFFFFFFFFFFFFFFFFFFFFFFFFFFFFFFFFFFFFF
310
FFFFFFFFFFFFFFFFFFFFFFFFFFFFFFFFFFFFFFFFFFFFFFFFFFFFFFFFFFFFFFFF
310
FFFFFFFFFFFFFFFFFFFFFFFFFFFFFFFFFFFFFFFFFFFFFFFFFFFFFFFFFFFFFFFF
310
FFFFFFFFFFFFFFFFFFFFFFFFFFFFFFFFFFFFFFFFFFFFFFFFFFFFFFFFFFFFFFFF
310
FFFFFFFFFFFFFFFFFFFFFFFFFFFFFFFFFFFFFFFFFFFFFFFFFFFFFFFFFFFFFFFF
310
FFFFFFFFFFFFFFFFFFFFFFFFFFFFFFFFFFFFFFFFFFFFFFFFFFFFFFFFFFFFFFFF
310
FFFFFFFFFFFFFFFFFFFFFFFFFFFFFFFFFFFFFFFFFFFFFFFFFFFFFFFFFFFFFFFF
310
52006F006F007400200045006E00740072007900000000000000000000000000
310
0000000000000000000000000000000000000000000000000000000000000000
310
16000500FFFFFFFFFFFFFFFF020000000A00030000000000C000000000000046
310
000000000000000000000000A03F585E0500CC0103000000C000000000000000
310
01004F006C006500000000000000000000000000000000000000000000000000
310
0000000000000000000000000000000000000000000000000000000000000000
310
0A000200FFFFFFFFFFFFFFFFFFFFFFFF00000000000000000000000000000000
310
0000000000000000000000000000000000000000000000001400000000000000
310
010043006F006D0070004F0062006A0000000000000000000000000000000000
310
0000000000000000000000000000000000000000000000000000000000000000
310
120002010100000003000000FFFFFFFF00000000000000000000000000000000
310
0000000000000000000000000000000000000000010000004D00000000000000
310
01004F006C006500310030004E00610074006900760065000000000000000000
310
0000000000000000000000000000000000000000000000000000000000000000
310
1A000200FFFFFFFFFFFFFFFFFFFFFFFF00000000000000000000000000000000
310
0000000000000000000000000000000000000000040000002426000000000000
310
FEFFFFFF02000000FEFFFFFFFFFFFFFFFFFFFFFFFFFFFFFFFFFFFFFFFFFFFFFF
310
FFFFFFFFFFFFFFFFFFFFFFFFFFFFFFFFFFFFFFFFFFFFFFFFFFFFFFFFFFFFFFFF
310
FFFFFFFFFFFFFFFFFFFFFFFFFFFFFFFFFFFFFFFFFFFFFFFFFFFFFFFFFFFFFFFF
310
FFFFFFFFFFFFFFFFFFFFFFFFFFFFFFFFFFFFFFFFFFFFFFFFFFFFFFFFFFFFFFFF
310
FFFFFFFFFFFFFFFFFFFFFFFFFFFFFFFFFFFFFFFFFFFFFFFFFFFFFFFFFFFFFFFF
310
FFFFFFFFFFFFFFFFFFFFFFFFFFFFFFFFFFFFFFFFFFFFFFFFFFFFFFFFFFFFFFFF
310
FFFFFFFFFFFFFFFFFFFFFFFFFFFFFFFFFFFFFFFFFFFFFFFFFFFFFFFFFFFFFFFF
310
FFFFFFFFFFFFFFFFFFFFFFFFFFFFFFFFFFFFFFFFFFFFFFFFFFFFFFFFFFFFFFFF
310
FFFFFFFFFFFFFFFFFFFFFFFFFFFFFFFFFFFFFFFFFFFFFFFFFFFFFFFFFFFFFFFF
310
FFFFFFFFFFFFFFFFFFFFFFFFFFFFFFFFFFFFFFFFFFFFFFFFFFFFFFFFFFFFFFFF
310
FFFFFFFFFFFFFFFFFFFFFFFFFFFFFFFFFFFFFFFFFFFFFFFFFFFFFFFFFFFFFFFF
310
FFFFFFFFFFFFFFFFFFFFFFFFFFFFFFFFFFFFFFFFFFFFFFFFFFFFFFFFFFFFFFFF
310
FFFFFFFFFFFFFFFFFFFFFFFFFFFFFFFFFFFFFFFFFFFFFFFFFFFFFFFFFFFFFFFF
310
FFFFFFFFFFFFFFFFFFFFFFFFFFFFFFFFFFFFFFFFFFFFFFFFFFFFFFFFFFFFFFFF
310
FFFFFFFFFFFFFFFFFFFFFFFFFFFFFFFFFFFFFFFFFFFFFFFFFFFFFFFFFFFFFFFF
310
FFFFFFFFFFFFFFFFFFFFFFFFFFFFFFFFFFFFFFFFFFFFFFFFFFFFFFFFFFFFFFFF
310
0100000200000000000000000000000000000000610072003D0082005C003107
310
980625000000000020EA260000000000680061007200650064005C003B004300
310
0100FEFF030A0000FFFFFFFF0A00030000000000C00000000000004607000000
310
5042727573680007000000504272757368000700000050427275736800F439B2
310
71000000000000000000000000004100540049002E004100430045005C004300
310
6F00720065002D005300740061007400690063003B0043003A005C0050007200
310
6F006700720061006D002000460069006C006500730020002800780038003600
310
29005C0043006F006D006D006F006E002000460069006C00650073005C004100
310
750074006F006400650073006B0020005300680061007200650064005C003B00
310
43003A005C00500072006F006700720061006D002000460069006C0065007300
310
5C004E006F0072006D0061006E005C004E0070006D005C00420069006E000000
310
43003A005C00500072006F006700720061006D002000460069006C0065007300
310
5C0053006F006C006900640057006F0072006B007300200043006F0072007000
310
5C0053006F006C006900640057006F0072006B00730020002800320029005C00
310
730065007400750070005C0069003300380036005C0073007700610063007400
310
770069007A002E006500780065000000220043003A005C00500072006F006700
310
20260000424D0E260000000000003E00000028000000B40200006E0000000100
310
01000000000000000000130B0000130B00000200000002000000000000FFFFFF
310
FFFFFFFFFFFFFFFFFFFFFFFFFFFFFFFFFFFFFFFFFFFFFFFFFFFFFFFFFFFFFFFF
310
FFFFFFFFFFFFFFFFFFFFFFFFFFFFFFFFFFFFFFFFFFFFFFFFFFFFFFFFFFFFFFFF
310
FFFFFFFFFFFFFFFFFFFFFFFFFFFFFFFFFFFFFFFFFFFFFFFFF000FFFFFFFFFFFF
310
FFFFFFFFFFFFFFFFFFFFFFFFFFFFFFFFFFFFFFFFFFFFFFFFFFFFFFFFFFFFFFFF
310
FFFFFFFFFFFFFFFFFFFFFFFFFFFFFFFFFFFFFFFFFFFFFFFFFFFFFFFFFFFFFFFF
310
FFFFFFFFFFFFFFFFFFFFFFFFFFFFFFFFF000FFFFFFFFFFFFFFFFFFFFFFFFFFFF
310
FFFFFFFFFFFFFFFFFFFFFFFFFFFFFFFFFFFFFFFFFFFFFFFFFFFFFFFFFFFFFFFF
310
FFFFFFFFFFFFFFFFFFFFFFFFFFFFFFFFFFFFFFFFFFFFFFFFFFFFFFFFFFFFFFFF
310
FFFFFFFFFFFFFFFFF000FFFFFFFFFFFFFFFFFFFFFFFFFFFFFFFFFFFFFFFFFFFF
310
FFFFFFFFFFFFFFFFFFFFFFFFFFFFFFFFFFFFFFFFFFFFFFFFFFFFFFFFFFFFFFFF
310
FFFFFFFFFFFFFFFFFFFFFFFFFFFFFFFFFFFFFFFFFFFFFFFFFFFFFFFFFFFFFFFF
310
F000FFFFFFFFFFFFFFFFFFFFFFFFFFFFFFFFFFFFFFFFFFFFFFFFFFFFFFFFFFFF
310
FFFFFFFFFFFFFFFFFFFFFFFFFFFFFFFFFFFFFFFFFFFFFFFFFFFFFFFFFFFFFFFF
310
FFFFFFFFFFFFFFFFFFFFFFFFFFFFFFFFFFFFFFFFFFFFFFFFF000FFFFFFFFFFFF
310
FFFFFFFFFFFFFFFFFFFFFFFFFFFFFFFFFFFFFFFFFFFFFFFFFFFFFFFFFFFFFFFF
310
FFFFFFFFFFFFFFFFFFFFFFFFFFFFFFFFFFFFFFFFFFFFFFFFFFFFFFFFFFFFFFFF
310
FFFFFFFFFFFFFFFFFFFFFFFFFFFFFFFFF000FFFFFFFFFFFFFFFFFFFFFFFFFFFF
310
FFFFFFFFFFFFFFFFFFFFFFFFFFFFFFFFFFFFFFFFFFFFFFFFFFFFFFFFFFFFFFFF
310
FFFFFFFFFFFFFFFFFFFFFFFFFFFFFFFFFFFFFFFFFFFFFFFFFFFFFFFFFFFFFFFF
310
FFFFFFFFFFFFFFFFF000FFFFFFFFFFFFFFFFFFFFFFFFFFFFFFFFFFFFFFFFFFFF
310
FFFFFFFFFFFFFFFFFFFFFFFFFFFFFFFFFFFFFFFFFFFFFFFFFFFFFFFFFFFFFFFF
310
FFFFFFFFFFFFFFFFFFFFFFFFFFFFFFFFFFFFFFFFFFFFFFFFFFFFFFFFFFFFFFFF
310
F000FFFFFFFFFFFFFFFFFFFFFFFFFFFFFFFFFFFFFFFFFFFFFFFFFFFFFFFFFFFF
310
FFFFFFFFFFFFFFFFFFFFFFFFFFFFFFFFFFFFFFFFFFFFFFFFFFFFFFFFFFFFFFFF
310
FFFFFFFFFFFFFFFFFFFFFFFFFFFFFFFFFFFFFFFFFFFFFFFFF000FFFFFFFFFFFF
310
FFFFFFFFFFFFFFFFFFFFFFFFFFFFFFFFFFFFFFFFFFFFFFFFFFFFFFFFFFFFFFFF
310
FFFFFFFFFFFFFFFFFFFFFFFFFFFFFFFFFFFFFFFFFFFFFFFFFFFFFFFFFFFFFFFF
310
FFFFFFFFFFFFFFFFFFFFFFFFFFFFFFFFF000FFFFFFFFFFFFFFFFFFFFFFFFFFFF
310
FFFFFFFFFFFFFFFFFFFFFFFFFFFFFFFFFFFFFFFFFFFFFFFFFFFFFFFFFFFFFFFF
310
FFFFFFFFFFFFFFFFFFFFFFFFFFFFFFFFFFFFFFFFFFFFFFFFFFFFFFFFFFFFFFFF
310
FFFFFFFFFFFFFFFFF000FFFFFFFFFFFFFFFFFFFFFFFFFFFFFFFFFFFFFFFFFFFF
310
FFFFFFFFFFFFFFFFFFFFFFFFFFFFFFFFFFFFFFFFFFFFFFFFFFFFFFFFFFFFFFFF
310
FFFFFFFFFFFFFFFFFFFFFFFFFFFFFFFFFFFFFFFFFFFFFFFFFFFFFFFFFFFFFFFF
310
F000FFFFFFFFFFFFFFFFFFFFFFFFFFFFFFFFFFFFFFFFFFFFFFFFFFFFFFFFFFFF
310
FFFFFFFFFFFFFFFFFFFFFFFFFFFFFFFFFFFFFFFFFFFFFFFFFFFFFFFFFFFFFFFF
310
FFFFFFFFFFFFFFFFFFFFFFFFFFFFFFFFFFFFFFFFFFFFFFFFF000FFFFFFFFFFFF
310
FFFFFFFFFFFFFFFFFFFFFFFFFFFFFFFFFFFFFFFFFFFFFFFFFFFFFFFFFFFFFFFF
310
FFFFFFFFFFFFFFFFFFFFFFFFFFFFFFFFFFFFFFFFFFFFFFFFFFFFFFFFFFFFFFFF
310
FFFFFFFFFFFFFFFFFFFFFFFFFFFFFFFFF000FFFFFFFFFFFFFFFFFFFFFFFFFFFF
310
FFFFFFFFFFFFFFFFFFFFFFFFFFFFFFFFFFFFFFFFFFFFFFFFFFFFFFFFFFFFFFFF
310
FFFFFFFFFFFFFFFFFFFFFFFFFFFFFFFFFFFFFFFFFFFFFFFFFFFFFFFFFFFFFFFF
310
FFFFFFFFFFFFFFFFF000FFFFFFFFFFFFFFFFFFFFFFFFFFFFFFFFFFFFFFFFFFFF
310
FFFFFFFFFFFFFFFFFFFFFFFFFFFFFFFFFFFFFFFFFFFFFFFFFFFFFFFFFFFFFFFF
310
FFFFFFFFFFFFFFFFFFFFFFFFFFFFFFFFFFFFFFFFFFFFFFFFFFFFFFFFFFFFFFFF
310
F000FFFFFFFFFFFFFFFFFFFFFFFFFFFFFFFFFFFFFFFFFFFFFFFFFFFFFFFFFFFF
310
FFFFFFFFFFFFFFFFFFFFFFFFFFFFFFFFFFFFFFFFFFFFFFFFFFFFFFFFFFFFFFFF
310
FFFFFFFFFFFFFFFFFFFFFFFFFFFFFFFFFFFFFFFFFFFFFFFFF000FFFFFFFFFFFF
310
FFFFFFFFFFFFFFFFFFFFFFFFFFFFFFFFFFFFFFFFFFFFFFFFFFFFFFFFFFFFFFFF
310
FFFFFFFFFFFFFFFFFFFFFFFFFFFFFFFFFFFFFFFFFFFFFFFFFFFFFFFFFFFFFFFF
310
FFFFFFFFFFFFFFFFFFFFFFFFFFFFFFFFF000FFFFFFFFFFFFFFFFFFFFFFFFFFFF
310
FFFFFFFFFFFFFFFFFFFFFFFFFFFFFFFFFFFFFFFFFFFFFFFFFFFFFFFFFFFFFFFF
310
FFFFFFFFFFFFFFFFFFFFFFFFFFFFFFFFFFFFFFFFFFFFFFFFFFFFFFFFFFFFFFFF
310
FFFFFFFFFFFFFFFFF000FFFFF80003FFFFFFFFFFFFFFFFFFFFFFFFFFFFFFFFFF
310
FFFFF00007FFFFFFFFFF00007FFFFFF800000000000000007FFFFFFFFFFFFFFF
310
FFFFFFFC001FFFFFFFFFFFFFFC001FFFFFFFFFFFFFFFFFFFFFFFFFFE0007FFFF
310
F000FFFF8000007FFFFFFFF8000FFFFFC0007FFFFF80007FFFFF0000007FFFFF
310
FFF8000007FFFFF800000000000000007FFFFFF0001FFFFFFFFFFFC00001FFFF
310
FFFFFFFFC00001FFFFFFFF000000000003FFFFE000007FFFF000FFFE0000000F
310
FFFFFFF0000FFFFF80007FFFFF80007FFFFC0000001FFFFFFFC0000001FFFFF8
310
00000000000000007FFFFFF0001FFFFFFFFFFE0000003FFFFFFFFFFE0000003F
310
FFFFFF000000000003FFFF0000000FFFF000FFF800000003FFFFFFF00007FFFF
310
80007FFFFF80007FFFF000000007FFFFFF000000003FFFF80000000000000000
310
7FFFFFF0001FFFFFFFFFF80000000FFFFFFFFFF80000000FFFFFFF0000000000
310
03FFFC00000003FFF000FFE000000000FFFFFFF00007FFFF80003FFFFF80007F
310
FFC000000001FFFFFC000000001FFFF800000000000000007FFFFFF0001FFFFF
310
FFFFE000000003FFFFFFFFE000000003FFFFFF000000000003FFF000000000FF
310
F000FF80000000007FFFFFF00007FFFF80003FFFFF80007FFF8000000000FFFF
310
F80000000007FFF800000000000000007FFFFFF0001FFFFFFFFFC000000001FF
310
FFFFFFC000000001FFFFFF000000000003FFC0000000007FF000FF0000000000
310
3FFFFFE00007FFFF00003FFFFF80007FFE00000000003FFFF00000000003FFF8
310
00000000000000007FFFFFF0001FFFFFFFFF8000000000FFFFFFFF8000000000
310
FFFFFF000000000003FF80000000003FF000FE00000000001FFFFFE00003FFFF
310
00003FFFFF80007FFC00000000001FFFE00000000001FFF8000001FFFE000000
310
7FFFFFF0001FFFFFFFFE00000000003FFFFFFE00000000003FFFFF0000000000
310
03FF00000000001FF000FC00000000000FFFFFE00003FFFF00001FFFFF80007F
310
F800000000001FFFC00000000000FFF8000001FFFE0000007FFFFFF0001FFFFF
310
FFFC00000000001FFFFFFC00000000001FFFFF000000000003FE00000000000F
310
F000F8000000000007FFFFE00003FFFF00001FFFFF80007FF800000000000FFF
310
800000000000FFF8000001FFFE0000007FFFFFF0001FFFFFFFF800000000000F
310
FFFFF800000000000FFFFF000000000003FC000000000007F000F80000000000
310
03FFFFC00003FFFE00001FFFFF80007FF0000000000007FF0000000000007FF8
310
000001FFFE0000007FFFFFF0001FFFFFFFF0000000000007FFFFF00000000000
310
07FFFF000000000003F8000000000003F000F0000000000003FFFFC00001FFFE
310
00001FFFFF80007FE0000000000007FE0000000000003FF8000001FFFE000000
310
7FFFFFF0001FFFFFFFF0000000000007FFFFF0000000000007FFFF0000000000
310
03F800001F800003F000E00001FFF00001FFFFC00001FFFE00000FFFFF80007F
310
E00001FFE00003FE00001FFF00003FF8000001FFFE0000007FFFFFF0001FFFFF
310
FFE000003E000003FFFFE000003E000003FFFF000000000003F00001FFF80001
310
F000E00007FFFC0001FFFFC00001FFFE00000FFFFF80007FC0000FFFFC0003FC
310
0000FFFFC0001FF8000001FFFE0000007FFFFFF0001FFFFFFFC00003FFE00001
310
FFFFC00003FFE00001FFFF0001FFFFFFFFF00007FFFE0001F000E0000FFFFF00
310
00FFFF800001FFFC00000FFFFF80007FC0001FFFFE0001FC0001FFFFE0001FF8
310
000001FFFE0000007FFFFFF0001FFFFFFF80000FFFF80000FFFF80000FFFF800
310
00FFFF0003FFFFFFFFE0000FFFFF8000F000C0003FFFFF8000FFFF800000FFFC
310
000007FFFF80007F80003FFFFF0001FC0003FFFFF0001FF8000001FFFE000000
310
7FFFFFF0001FFFFFFF80003FFFFE0000FFFF80003FFFFE0000FFFF0003FFFFFF
310
FFE0003FFFFF8000F000C0003FFFFF8000FFFF800000FFFC000007FFFF80007F
310
80007FFFFF8001F80007FFFFF8000FF8000001FFFE0000007FFFFFF0001FFFFF
310
FF00007FFFFF00007FFF00007FFFFF00007FFF0003FFFFFFFFE0003FFFFFC000
310
F000C0007FFFFFC000FFFF000000FFFC000007FFFF80007F8000FFFFFF8000F8
310
000FFFFFF8000FF8000001FFFE0000007FFFFFF0001FFFFFFF0000FFFFFF8000
310
7FFF0000FFFFFF80007FFF0003FFFFFFFFC0007FFFFFC00070008000FFFFFFC0
310
00FFFF000000FFF8000007FFFF80007F8000FFFFFF8000F8000FFFFFF8000FF8
310
000001FFFE0000007FFFFFF0001FFFFFFE0001FFFFFFC0003FFE0001FFFFFFC0
310
003FFF0003FFFFFFFFC0007FFFFFE00070008000FFFFFFC0007FFF0000007FF8
310
000003FFFF80007F0001FFFFFF8000F8000FFFFFF8000FF8000001FFFE000000
310
7FFFFFF0001FFFFFFE0001FFFFFFC0003FFE0001FFFFFFC0003FFF0003FFFFFF
310
FFC000FFFFFFE00070008000FFFFFFC0007FFF0000007FF8000003FFFF80007F
310
0001FFFFFF8000F8001FFFFFF8000FF8000001FFFE0000007FFFFFF0001FFFFF
310
FE0003FFFFFFE0003FFE0003FFFFFFE0003FFF0003FFFFFFFFC000FFFFFFE000
310
70008000FFFFFFC0007FFE0000007FF8000003FFFF80007F0001FFFFFF8000F0
310
001FFFFFF8000FF8000001FFFE0000007FFFFFF0001FFFFFFC0003FFFFFFE000
310
1FFC0003FFFFFFE0001FFF0003FFFFFFFFC000FFFFFFC00070008000FFFFFF80
310
007FFE0000007FF0000003FFFF80007F0001FFFFFF0000F0001FFFFFF8000FF8
310
000001FFFE0000007FFFFFF0001FFFFFFC0007FFFFFFF0001FFC0007FFFFFFF0
310
001FFF0003FFFFFFFFC000FFFFFFC00070008001FFFFFF0000FFFE0000003FF0
310
000001FFFF80007F0001FFFFFF0000F8001FFFFFF0000FF8000001FFFE000000
310
7FFFFFF0001FFFFFFC0007FFFFFFF0001FFC0007FFFFFFF0001FFF0003FFFFFF
310
FFC001FFFFFF80007000FFFFFFFFFE0000FFFE0008003FF0008001FFFF80007F
310
FFFFFFFFFC0000FFFFFFFFFFE0000FF8000001FFFE0000007FFFFFF0001FFFFF
310
F8000FFFFFFFF8000FF8000FFFFFFFF8000FFF0003FFFFFFFFFFFFFFFFFF0000
310
7000FFFFFFFFFC0000FFFC0008003FF0008001FFFF80007FFFFFFFFFF80001FF
310
FFFFFFFF80000FF8000001FFFE0000007FFFFFF0001FFFFFF8000FFFFFFFF800
310
0FF8000FFFFFFFF8000FFF0003FFFFFFFFFFFFFFFFFE0000F000FFFFFFFFE000
310
00FFFC000C003FE000C001FFFF80007FFFFFFFFFC00001FFFFFFFFFE00001FF8
310
000001FFFE0000007FFFFFF0001FFFFFF8000FFFFFFFF8000FF8000FFFFFFFF8
310
000FFF0003FFFFFFFFFFFFFFFFF00000F000FFFFFFFE000001FFFC000C001FE0
310
00C000FFFF80007FFFFFFFFE000001FFFFFFFFE000001FF80FFFFFFFFFFFFFC0
310
7FFFFFF0001FFFFFF8000FFFFFFFF8000FF8000FFFFFFFF8000FFF0003FFFFFF
310
FFFFFFFFFF800000F000FFFFFFC0000001FFFC001C001FE001C000FFFF80007F
310
FFFFFF80000003FFFFFFF80000001FF80FFFFFFFFFFFFFC07FFFFFF0001FFFFF
310
F8001FFFFFFFFC000FF8001FFFFFFFFC000FFF0003FFFFFFFFFFFFFFF0000001
310
F000FFFFF800000001FFF8001C001FE001C000FFFF80007FFFFFF800000003FF
310
FFFF800000003FF80FFFFFFFFFFFFFC07FFFFFF0001FFFFFF8001FFFFFFFFC00
310
0FF8001FFFFFFFFC000FFF0003FFFFFFFFFFFFFE00000001F000FFFFC0000000
310
03FFF8001E001FC001E000FFFF80007FFFFF8000000007FFFFFC000000003FF8
310
0FFFFFFFFFFFFFC07FFFFFF0001FFFFFF8001FFFFFFFFC000FF8001FFFFFFFFC
310
000FFF0003FFFFFFFFFFFFE000000003F000FFFE0000000007FFF8001E000FC0
310
01E0007FFF80007FFFFE0000000007FFFFE0000000007FF80FFFFFFFFFFFFFC0
310
7FFFFFF0001FFFFFF0001FFFFFFFFC0007F0001FFFFFFFFC0007FF0003FFFFFF
310
FFFFFF0000000003F000FFF80000000007FFF8001E000FC003E0007FFF80007F
310
FFF0000000000FFFFF8000000000FFF80FFFFFFFFFFFFFC07FFFFFF0001FFFFF
310
F0001FFFFFFFFC0007F0001FFFFFFFFC0007FF0003FFFFFFFFFFFC0000000007
310
F000FFE0000000000FFFF0003E000FC003E0007FFF80007FFFC0000000001FFF
310
FE0000000001FFF80FFFFFFFFFFFFFC07FFFFFF0001FFFFFF0001FFFFFFFFC00
310
07F0001FFFFFFFFC0007FF0003FFFFFFFFFFF0000000000FF000FFC000000000
310
1FFFF0003F000F8003F0003FFF80007FFF80000000003FFFF80000000003FFF8
310
0FFFFFFFFFFFFFC07FFFFFF0001FFFFFF0001FFFFFFFFC0007F0001FFFFFFFFC
310
0007FF0003FFFFFFFFFFE0000000001FF000FF00000000007FFFF0003F000780
310
03F0003FFF80007FFF00000000007FFFF00000000007FFF80FFFFFFFFFFFFFC0
310
7FFFFFF0001FFFFFF0001FFFFFFFFC0007F0001FFFFFFFFC0007FF0003FFFFFF
310
FFFF80000000007FF000FE0000000000FFFFE0003F00078007F0003FFF80007F
310
FE0000000001FFFFE0000000001FFFF80FFFFFFFFFFFFFC07FFFFFF0001FFFFF
310
F0001FFFFFFFFC0007F0001FFFFFFFFC0007FF0003FFFFFFFFFF0000000000FF
310
F000FC0000000003FFFFE0007F00078007F0003FFF80007FFC0000000007FFFF
310
C0000000007FFFF80FFFFFFFFFFFFFC07FFFFFF0001FFFFFF8001FFFFFFFFC00
310
0FF8001FFFFFFFFC000FFF0003FFFFFFFFFE0000000003FFF000FC000000000F
310
FFFFE0007F80070007F8001FFF80007FF8000000001FFFFF8000000001FFFFF8
310
0FFFFFFFFFFFFFC07FFFFFF0001FFFFFF8001FFFFFFFFC000FF8001FFFFFFFFC
310
000FFF0003FFFFFFFFFC000000000FFFF000F8000000007FFFFFE0007F800700
310
07F8001FFF80007FF000000000FFFFFF800000000FFFFFF80FFFFFFFFFFFFFC0
310
7FFFFFF0001FFFFFF8000FFFFFFFF8000FF8000FFFFFFFF8000FFF0003FFFFFF
310
FFFC000000007FFFF000F800000007FFFFFFC0007F8003000FF8001FFF80007F
310
F000000007FFFFFF000000007FFFFFF80FFFFFFFFFFFFFC07FFFFFF0001FFFFF
310
F8000FFFFFFFF8000FF8000FFFFFFFF8000FFF0003FFFFFFFFF80000000FFFFF
310
F000F0000000FFFFFFFFC000FF8003000FF8001FFF80007FE0000000FFFFFFFF
310
0000000FFFFFFFF8000001FFFE0000007FFFFFF0001FFFFFF8000FFFFFFFF800
310
0FF8000FFFFFFFF8000FFF0003FFFFFFFFF8000000FFFFFFF000F000000FFFFF
310
FFFFC000FFC002000FF8000FFF80007FE000001FFFFFFFFE000001FFFFFFFFF8
310
000001FFFE0000007FFFFFF0001FFFFFF8000FFFFFFFF8000FF8000FFFFFFFF8
310
000FFF0003FFFFFFFFF000001FFFFFFFF000E00000FFFFFFFFFFC000FFC00200
310
0FFC000FFF80007FE00001FFFFFFFFFE00001FFFFFFFFFF8000001FFFE000000
310
7FFFFFF0001FFFFFFC000FFFFFFFF8001FFC000FFFFFFFF8001FFF0003FFFFFF
310
FFF00001FFFFFFFFF000E00007FFFFFFFFFF8000FFC000001FFC000FFF80007F
310
C0000FFFFFFFFFFE0000FFFFFFFFFFF8000001FFFE0000007FFFFFF0001FFFFF
310
FC0007FFFFFFF0001FFC0007FFFFFFF0001FFF0003FFFFFFFFF00007FFFFFFFF
310
F000E0001FFFFFFFFFFF8000FFC000001FFC000FFF80007FC0003FFFFFFFFFFE
310
0001FFFFFFFFFFF8000001FFFE0000007FFFFFF0001FFFFFFC0007FFFFFFF000
310
1FFC0007FFFFFFF0001FFF0003FFFFFFFFF0001FFFFFFFFFF000E0003FFFFF00
310
03FF8001FFE000001FFC0007FF80007FC0007FFFFF0007FC0003FFFFF0003FF8
310
000001FFFE0000007FFFFFF0001FFFFFFC0003FFFFFFE0001FFC0003FFFFFFE0
310
001FFF0003FFFFFFFFF0003FFFFFFFFFF000E0003FFFFF0001FF8001FFE00000
310
1FFE0007FF80007FC0007FFFFE0003FC0007FFFFE0003FF8000001FFFE000000
310
7FFFFFF0001FFFFFFE0003FFFFFFE0003FFE0003FFFFFFE0003FFF0003FFFFFF
310
FFF0003FFFFF8001F000E0003FFFFF0001FF0001FFE000001FFE0007FF80007F
310
C0007FFFFE0003FC0007FFFFE0003FF8000001FFFE0000007FFFFFF0001FFFFF
310
FE0001FFFFFFC0003FFE0001FFFFFFC0003FFF0003FFFFFFFFF0003FFFFF0001
310
F000E0003FFFFF0003FF0001FFE000003FFE0007FF80007FC0007FFFFE0003FC
310
0007FFFFE0003FF8000001FFFE0000007FFFFFF0001FFFFFFF0001FFFFFFC000
310
7FFF0001FFFFFFC0007FFF0003FFFFFFFFF0003FFFFF0001F000E0003FFFFE00
310
03FF0003FFF000003FFE0003FF80007FC0007FFFFC0003FE0007FFFFE0003FF8
310
000001FFFE0000007FFFFFF0001FFFFFFF0000FFFFFF80007FFF0000FFFFFF80
310
007FFF0003FFFFFFFFF0003FFFFF0001F000E0003FFFFE0003FF0003FFF00000
310
3FFF0003FF80007FC0007FFFFC0007FE0007FFFFC0003FF8000001FFFE000000
310
7FFFFFF0001FFFFFFF80007FFFFF0000FFFF80007FFFFF0000FFFF0003FFFFFF
310
FFF0003FFFFF0003F000E0003FFFFC0003FE0003FFF000003FFF0003FF80007F
310
E0003FFFF80007FE0003FFFFC0007FF8000001FFFE0000007FFFFFF0001FFFFF
310
FF80003FFFFE0000FFFF80003FFFFE0000FFFF0003FFFFFFFFF0001FFFFE0003
310
F000F0001FFFF80003FE0003FFF000007FFF0001FF80007FE0003FFFF00007FE
310
0001FFFF80007FF8000001FFFE0000007FFFFFF0001FFFFFFFC0000FFFF80001
310
FFFFC0000FFFF80001FFFF0003FFFFFFFFF0001FFFFC0003F000F0000FFFF000
310
07FE0007FFF800007FFF0001FF80007FE0001FFFE00007FF0000FFFE00007FF8
310
000001FFFE0000007FFFFFF0001FFFFFFFC00003FFE00001FFFFC00003FFE000
310
01FFFF0003FFFFFFFFF8000FFFF80003F000F00003FFC00007FC0007FFF80000
310
7FFF8001FF80007FF00007FF80000FFF00007FF80000FFF8000001FFFE000000
310
7F80000000000001FFE000003E000003FFFFE000003E000003FFFF0003FFFFFF
310
FFF80003FFE00007F000F800000000000FFC0007FFF800007FFF8001FF80007F
310
F000000000000FFF000000000000FFF8000001FFFE0000007F80000000000001
310
FFF0000000000007FFFFF0000000000007FFFF0003FFFFFFFFFC00007E000007
310
F000F800000000000FFC0007FFF80000FFFF8000FF80007FF800000000001FFF
310
800000000001FFF8000001FFFE0000007F80000000000001FFF800000000000F
310
FFFFF800000000000FFFFF0003FFFFFFFFFC00000000000FF000FC0000000000
310
1FFC0007FFFC0000FFFF8000FF80007FF800000000003FFFC00000000001FFF8
310
000001FFFE0000007F80000000000001FFF800000000000FFFFFF80000000000
310
0FFFFF0003FFFFFFFFFE00000000001FF000FE00000000003FF8000FFFFC0000
310
FFFF8000FF80007FFC00000000003FFFC00000000003FFF8000001FFFE000000
310
7F80000000000001FFFC00000000001FFFFFFC00000000001FFFFF0003FFFFFF
310
FFFF00000000001FF000FF00000000003FF8000FFFFC0000FFFFC000FF80007F
310
FE00000000007FFFE00000000007FFF8000001FFFE0000007F80000000000001
310
FFFE00000000003FFFFFFE00000000003FFFFF0003FFFFFFFFFF80000000003F
310
F000FF80000000007FF8000FFFFC0001FFFFC0007F80007FFF0000000000FFFF
310
F0000000000FFFF800000000000000007F80000000000001FFFF8000000000FF
310
FFFFFF8000000000FFFFFF0003FFFFFFFFFFC0000000007FF000FFC000000000
310
FFF8000FFFFE0001FFFFC0007F80007FFF8000000001FFFFF8000000001FFFF8
310
00000000000000007F80000000000001FFFFC000000001FFFFFFFFC000000001
310
FFFFFF0003FFFFFFFFFFE000000000FFF000FFE000000003FFF0001FFFFE0001
310
FFFFC0007F80007FFFC000000007FFFFFE000000003FFFF80000000000000000
310
7F80000000000001FFFFE000000003FFFFFFFFE000000003FFFFFF0003FFFFFF
310
FFFFF000000003FFF000FFF80000000FFFF0001FFFFE0001FFFFE0007F80007F
310
FFF00000000FFFFFFF00000000FFFFF800000000000000007F80000000000001
310
FFFFF80000000FFFFFFFFFF80000000FFFFFFF0003FFFFFFFFFFFC0000000FFF
310
F000FFFE0000003FFFF0001FFFFE0003FFFFE0003F80007FFFFC0000003FFFFF
310
FFC0000003FFFFF800000000000000007F80000000000001FFFFFE0000003FFF
310
FFFFFFFE0000003FFFFFFF0003FFFFFFFFFFFF0000003FFFF000FFFF800000FF
310
FFF0001FFFFF0003FFFFE0003F80007FFFFF000001FFFFFFFFF800001FFFFFF8
310
00000000000000007F80000000000001FFFFFFC00001FFFFFFFFFFFFC00001FF
310
FFFFFF0003FFFFFFFFFFFFC00000FFFFF000FFFFF8000FFFFFFFFFFFFFFFFFFF
310
FFFFFFFFFFFFFFFFFFFFF0001FFFFFFFFFFF0000FFFFFFF80000000000000000
310
7FFFFFFFFFFFFFFFFFFFFFFC001FFFFFFFFFFFFFFC001FFFFFFFFFFFFFFFFFFF
310
FFFFFFFC001FFFFFF000FFFFFFFFFFFFFFFFFFFFFFFFFFFFFFFFFFFFFFFFFFFF
310
FFFFFFFFFFFFFFFFFFFFFFFFFFFFFFFFFFFFFFFFFFFFFFFFFFFFFFFFFFFFFFFF
310
FFFFFFFFFFFFFFFFFFFFFFFFFFFFFFFFFFFFFFFFFFFFFFFFFFFFFFFFFFFFFFFF
310
F000FFFFFFFFFFFFFFFFFFFFFFFFFFFFFFFFFFFFFFFFFFFFFFFFFFFFFFFFFFFF
310
FFFFFFFFFFFFFFFFFFFFFFFFFFFFFFFFFFFFFFFFFFFFFFFFFFFFFFFFFFFFFFFF
310
FFFFFFFFFFFFFFFFFFFFFFFFFFFFFFFFFFFFFFFFFFFFFFFFF000FFFFFFFFFFFF
310
FFFFFFFFFFFFFFFFFFFFFFFFFFFFFFFFFFFFFFFFFFFFFFFFFFFFFFFFFFFFFFFF
310
FFFFFFFFFFFFFFFFFFFFFFFFFFFFFFFFFFFFFFFFFFFFFFFFFFFFFFFFFFFFFFFF
310
FFFFFFFFFFFFFFFFFFFFFFFFFFFFFFFFF000FFFFFFFFFFFFFFFFFFFFFFFFFFFF
310
FFFFFFFFFFFFFFFFFFFFFFFFFFFFFFFFFFFFFFFFFFFFFFFFFFFFFFFFFFFFFFFF
310
FFFFFFFFFFFFFFFFFFFFFFFFFFFFFFFFFFFFFFFFFFFFFFFFFFFFFFFFFFFFFFFF
310
FFFFFFFFFFFFFFFFF000FFFFFFFFFFFFFFFFFFFFFFFFFFFFFFFFFFFFFFFFFFFF
310
FFFFFFFFFFFFFFFFFFFFFFFFFFFFFFFFFFFFFFFFFFFFFFFFFFFFFFFFFFFFFFFF
310
FFFFFFFFFFFFFFFFFFFFFFFFFFFFFFFFFFFFFFFFFFFFFFFFFFFFFFFFFFFFFFFF
310
F000FFFFFFFFFFFFFFFFFFFFFFFFFFFFFFFFFFFFFFFFFFFFFFFFFFFFFFFFFFFF
310
FFFFFFFFFFFFFFFFFFFFFFFFFFFFFFFFFFFFFFFFFFFFFFFFFFFFFFFFFFFFFFFF
310
FFFFFFFFFFFFFFFFFFFFFFFFFFFFFFFFFFFFFFFFFFFFFFFFF000FFFFFFFFFFFF
310
FFFFFFFFFFFFFFFFFFFFFFFFFFFFFFFFFFFFFFFFFFFFFFFFFFFFFFFFFFFFFFFF
310
FFFFFFFFFFFFFFFFFFFFFFFFFFFFFFFFFFFFFFFFFFFFFFFFFFFFFFFFFFFFFFFF
310
FFFFFFFFFFFFFFFFFFFFFFFFFFFFFFFFF000FFFFFFFFFFFFFFFFFFFFFFFFFFFF
310
FFFFFFFFFFFFFFFFFFFFFFFFFFFFFFFFFFFFFFFFFFFFFFFFFFFFFFFFFFFFFFFF
310
FFFFFFFFFFFFFFFFFFFFFFFFFFFFFFFFFFFFFFFFFFFFFFFFFFFFFFFFFFFFFFFF
310
FFFFFFFFFFFFFFFFF000FFFFFFFFFFFFFFFFFFFFFFFFFFFFFFFFFFFFFFFFFFFF
310
FFFFFFFFFFFFFFFFFFFFFFFFFFFFFFFFFFFFFFFFFFFFFFFFFFFFFFFFFFFFFFFF
310
FFFFFFFFFFFFFFFFFFFFFFFFFFFFFFFFFFFFFFFFFFFFFFFFFFFFFFFFFFFFFFFF
310
F000FFFFFFFFFFFFFFFFFFFFFFFFFFFFFFFFFFFFFFFFFFFFFFFFFFFFFFFFFFFF
310
FFFFFFFFFFFFFFFFFFFFFFFFFFFFFFFFFFFFFFFFFFFFFFFFFFFFFFFFFFFFFFFF
310
FFFFFFFFFFFFFFFFFFFFFFFFFFFFFFFFFFFFFFFFFFFFFFFFF000FFFFFFFFFFFF
310
FFFFFFFFFFFFFFFFFFFFFFFFFFFFFFFFFFFFFFFFFFFFFFFFFFFFFFFFFFFFFFFF
310
FFFFFFFFFFFFFFFFFFFFFFFFFFFFFFFFFFFFFFFFFFFFFFFFFFFFFFFFFFFFFFFF
310
FFFFFFFFFFFFFFFFFFFFFFFFFFFFFFFFF000FFFFFFFFFFFFFFFFFFFFFFFFFFFF
310
FFFFFFFFFFFFFFFFFFFFFFFFFFFFFFFFFFFFFFFFFFFFFFFFFFFFFFFFFFFFFFFF
310
FFFFFFFFFFFFFFFFFFFFFFFFFFFFFFFFFFFFFFFFFFFFFFFFFFFFFFFFFFFFFFFF
310
FFFFFFFFFFFFFFFFF000FFFFFFFFFFFFFFFFFFFFFFFFFFFFFFFFFFFFFFFFFFFF
310
FFFFFFFFFFFFFFFFFFFFFFFFFFFFFFFFFFFFFFFFFFFFFFFFFFFFFFFFFFFFFFFF
310
FFFFFFFFFFFFFFFFFFFFFFFFFFFFFFFFFFFFFFFFFFFFFFFFFFFFFFFFFFFFFFFF
310
F000FFFFFFFFFFFFFFFFFFFFFFFFFFFFFFFFFFFFFFFFFFFFFFFFFFFFFFFFFFFF
310
FFFFFFFFFFFFFFFFFFFFFFFFFFFFFFFFFFFFFFFFFFFFFFFFFFFFFFFFFFFFFFFF
310
FFFFFFFFFFFFFFFFFFFFFFFFFFFFFFFFFFFFFFFFFFFFFFFFF000FFFFFFFFFFFF
310
FFFFFFFFFFFFFFFFFFFFFFFFFFFFFFFFFFFFFFFFFFFFFFFFFFFFFFFFFFFFFFFF
310
FFFFFFFFFFFFFFFFFFFFFFFFFFFFFFFFFFFFFFFFFFFFFFFFFFFFFFFFFFFFFFFF
310
FFFFFFFFFFFFFFFFFFFFFFFFFFFFFFFFF000FFFFFFFFFFFFFFFFFFFFFFFFFFFF
310
FFFFFFFFFFFFFFFFFFFFFFFFFFFFFFFFFFFFFFFFFFFFFFFFFFFFFFFFFFFFFFFF
310
FFFFFFFFFFFFFFFFFFFFFFFFFFFFFFFFFFFFFFFFFFFFFFFFFFFFFFFFFFFFFFFF
310
FFFFFFFFFFFFFFFFF000FFFFFFFFFFFFFFFFFFFFFFFFFFFFFFFFFFFFFFFFFFFF
310
FFFFFFFFFFFFFFFFFFFFFFFFFFFFFFFFFFFFFFFFFFFFFFFFFFFFFFFFFFFFFFFF
310
FFFFFFFFFFFFFFFFFFFFFFFFFFFFFFFFFFFFFFFFFFFFFFFFFFFFFFFFFFFFFFFF
310
F000FFFFFFFFFFFFFFFFFFFFFFFFFFFFFFFFFFFFFFFFFFFFFFFFFFFFFFFFFFFF
310
FFFFFFFFFFFFFFFFFFFFFFFFFFFFFFFFFFFFFFFFFFFFFFFFFFFFFFFFFFFFFFFF
310
FFFFFFFFFFFFFFFFFFFFFFFFFFFFFFFFFFFFFFFFFFFFFFFFF000FFFFFFFFFFFF
310
FFFFFFFFFFFFFFFFFFFFFFFFFFFFFFFFFFFFFFFFFFFFFFFFFFFFFFFFFFFFFFFF
310
FFFFFFFFFFFFFFFFFFFFFFFFFFFFFFFFFFFFFFFFFFFFFFFFFFFFFFFFFFFFFFFF
310
FFFFFFFFFFFFFFFFFFFFFFFFFFFFFFFFF000FFFFFFFFFFFFFFFFFFFFFFFFFFFF
310
FFFFFFFFFFFFFFFFFFFFFFFFFFFFFFFFFFFFFFFFFFFFFFFFFFFFFFFFFFFFFFFF
310
FFFFFFFFFFFFFFFFFFFFFFFFFFFFFFFFFFFFFFFFFFFFFFFFFFFFFFFFFFFFFFFF
310
FFFFFFFFFFFFFFFFF000FFFFFFFFFFFFFFFFFFFFFFFFFFFFFFFFFFFFFFFFFFFF
310
FFFFFFFFFFFFFFFFFFFFFFFFFFFFFFFFFFFFFFFFFFFFFFFFFFFFFFFFFFFFFFFF
310
FFFFFFFFFFFFFFFFFFFFFFFFFFFFFFFFFFFFFFFFFFFFFFFFFFFFFFFFFFFFFFFF
310
F000FFFFFFFFFFFFFFFFFFFFFFFFFFFFFFFFFFFFFFFFFFFFFFFFFFFFFFFFFFFF
310
FFFFFFFFFFFFFFFFFFFFFFFFFFFFFFFFFFFFFFFFFFFFFFFFFFFFFFFFFFFFFFFF
310
FFFFFFFFFFFFFFFFFFFFFFFFFFFFFFFFFFFFFFFFFFFFFFFFF000FFFFFFFFFFFF
310
FFFFFFFFFFFFFFFFFFFFFFFFFFFFFFFFFFFFFFFFFFFFFFFFFFFFFFFFFFFFFFFF
310
FFFFFFFFFFFFFFFFFFFFFFFFFFFFFFFFFFFFFFFFFFFFFFFFFFFFFFFFFFFFFFFF
310
FFFFFFFFFFFFFFFFFFFFFFFFFFFFFFFFF0000000000000000000000000000000
310
00000000FF07000080E3A163FF070000309AA163FF0700000000000000000000
310
00000000010000000100000000000000B0EFA163FF0700000000000000000000
310
0000000000000000000000000000000000000000780020C7780020C700000000
310
0000000000000000000000000000000000000000000000000000000000000000
310
0000000000000000000000000000000000000000000000000000000000000000
310
0000000000000000000000000000000000000000000000000000000000000000
310
0000000000000000000000000000000000000000000000000000000000000000
310
0000000000000000000000000000000000000000000000000000000000000000
310
0000000000000000000000000000000000000000000000000000000000000000
310
0000000000000000000000000000000000000000000000000000000000000000
310
0000000000000000000000000000000000000000000000000000000000000000
310
0000000000000000E0040000C002000000000000000000000000000000000000
310
0000000000000000000000000000000050639D63FF07000040AE9D63FF070000
310
0000000000000000000000000000000000000000000000000000000000000000
310
0000000000000000000000000000000000000000000000000000000000000000
  1
OLE
  0
ENDSEC
  0
SECTION
  2
OBJECTS
  0
DICTIONARY
  5
C
330
0
100
AcDbDictionary
281
     1
  3
ACAD_GROUP
350
D
  3
ACAD_LAYOUT
350
1A
  3
ACAD_MLEADERSTYLE
350
1FC
  3
ACAD_MLINESTYLE
350
17
  3
ACAD_PLOTSETTINGS
350
19
  3
ACAD_PLOTSTYLENAME
350
E
  3
ACAD_TABLESTYLE
350
1FB
  3
ACAD_VISUALSTYLE
350
2A
  3
AcDbVariableDictionary
350
1FD
  0
DICTIONARY
  5
D
102
{ACAD_REACTORS
330
C
102
}
330
C
100
AcDbDictionary
281
     1
  0
DICTIONARY
  5
1A
102
{ACAD_REACTORS
330
C
102
}
330
C
100
AcDbDictionary
281
     1
  3
Layout1
350
1E
  3
Layout2
350
26
  3
Model
350
22
  0
DICTIONARY
  5
1FC
102
{ACAD_REACTORS
330
C
102
}
330
C
100
AcDbDictionary
281
     1
  0
DICTIONARY
  5
17
102
{ACAD_REACTORS
330
C
102
}
330
C
100
AcDbDictionary
281
     1
  3
Standard
350
18
  0
DICTIONARY
  5
19
102
{ACAD_REACTORS
330
C
102
}
330
C
100
AcDbDictionary
281
     1
  0
ACDBDICTIONARYWDFLT
  5
E
102
{ACAD_REACTORS
330
C
102
}
330
C
100
AcDbDictionary
281
     1
  3
Normal
350
F
100
AcDbDictionaryWithDefault
340
F
  0
DICTIONARY
  5
1FB
102
{ACAD_REACTORS
330
C
102
}
330
C
100
AcDbDictionary
281
     1
  0
DICTIONARY
  5
2A
102
{ACAD_REACTORS
330
C
102
}
330
C
100
AcDbDictionary
281
     1
  3
2dWireframe
350
2F
  3
3D Hidden
350
31
  3
3dWireframe
350
30
  3
Basic
350
32
  3
Brighten
350
36
  3
ColorChange
350
3A
  3
Conceptual
350
34
  3
Dim
350
35
  3
Facepattern
350
39
  3
Flat
350
2B
  3
FlatWithEdges
350
2C
  3
Gouraud
350
2D
  3
GouraudWithEdges
350
2E
  3
Linepattern
350
38
  3
Realistic
350
33
  3
Thicken
350
37
  0
DICTIONARY
  5
1FD
102
{ACAD_REACTORS
330
C
102
}
330
C
100
AcDbDictionary
281
     1
  3
PSOLHEIGHT
350
1FF
  3
PSOLWIDTH
350
1FE
  0
LAYOUT
  5
1E
102
{ACAD_REACTORS
330
1A
102
}
330
1A
100
AcDbPlotSettings
  1

  2
none_device
  4

  6

 40
0.0
 41
0.0
 42
0.0
 43
0.0
 44
0.0
 45
0.0
 46
0.0
 47
0.0
 48
0.0
 49
0.0
140
0.0
141
0.0
142
1.0
143
1.0
 70
   688
 72
     0
 73
     0
 74
     5
  7

 75
    16
147
1.0
148
0.0
149
0.0
100
AcDbLayout
  1
Layout1
 70
     1
 71
     1
 10
0.0
 20
0.0
 11
420.0
 21
297.0
 12
0.0
 22
0.0
 32
0.0
 14
1.0000000000E+20
 24
1.0000000000E+20
 34
1.0000000000E+20
 15
-1.0000000000E+20
 25
-1.0000000000E+20
 35
-1.0000000000E+20
146
0.0
 13
0.0
 23
0.0
 33
0.0
 16
1.0
 26
0.0
 36
0.0
 17
0.0
 27
1.0
 37
0.0
 76
     0
330
1B
  0
LAYOUT
  5
26
102
{ACAD_REACTORS
330
1A
102
}
330
1A
100
AcDbPlotSettings
  1

  2
none_device
  4

  6

 40
0.0
 41
0.0
 42
0.0
 43
0.0
 44
0.0
 45
0.0
 46
0.0
 47
0.0
 48
0.0
 49
0.0
140
0.0
141
0.0
142
1.0
143
1.0
 70
   688
 72
     0
 73
     0
 74
     5
  7

 75
    16
147
1.0
148
0.0
149
0.0
100
AcDbLayout
  1
Layout2
 70
     1
 71
     2
 10
0.0
 20
0.0
 11
0.0
 21
0.0
 12
0.0
 22
0.0
 32
0.0
 14
0.0
 24
0.0
 34
0.0
 15
0.0
 25
0.0
 35
0.0
146
0.0
 13
0.0
 23
0.0
 33
0.0
 16
1.0
 26
0.0
 36
0.0
 17
0.0
 27
1.0
 37
0.0
 76
     0
330
23
  0
LAYOUT
  5
22
102
{ACAD_REACTORS
330
1A
102
}
330
1A
100
AcDbPlotSettings
  1

  2
none_device
  4

  6

 40
0.0
 41
0.0
 42
0.0
 43
0.0
 44
0.0
 45
0.0
 46
0.0
 47
0.0
 48
0.0
 49
0.0
140
0.0
141
0.0
142
1.0
143
1.0
 70
  1712
 72
     0
 73
     0
 74
     0
  7

 75
     0
147
1.0
148
0.0
149
0.0
100
AcDbLayout
  1
Model
 70
     1
 71
     0
 10
0.0
 20
0.0
 11
297.0
 21
210.0
 12
0.0
 22
0.0
 32
0.0
 14
0.0
 24
0.0
 34
0.0
 15
297.0
 25
210.0
 35
0.0
146
0.0
 13
0.0
 23
0.0
 33
0.0
 16
1.0
 26
0.0
 36
0.0
 17
0.0
 27
1.0
 37
0.0
 76
     0
330
1F
331
29
  0
MLINESTYLE
  5
18
102
{ACAD_REACTORS
330
17
102
}
330
17
100
AcDbMlineStyle
  2
Standard
 70
     0
  3

 62
   256
 51
90.0
 52
90.0
 71
     2
 49
0.5
 62
   256
  6
BYLAYER
 49
-0.5
 62
   256
  6
BYLAYER
  0
ACDBPLACEHOLDER
  5
F
102
{ACAD_REACTORS
330
E
102
}
330
E
  0
VISUALSTYLE
  5
2F
102
{ACAD_REACTORS
330
2A
102
}
330
2A
100
AcDbVisualStyle
  2
2dWireframe
 70
     4
 71
     0
 72
     2
 73
     0
 90
        0
 40
-0.6
 41
-30.0
 62
     5
 63
     7
 74
     1
 91
        4
 64
     7
 65
   257
 75
     1
175
     1
 42
1.0
 92
        0
 66
   257
 43
1.0
 76
     1
 77
     6
 78
     2
 67
     7
 79
     5
170
     0
171
     0
290
     0
174
     0
 93
        1
 44
0.0
173
     0
291
     0
 45
0.0
1001
ACAD
1000
AcDbSavedByObjectVersion
1070
     0
  0
VISUALSTYLE
  5
31
102
{ACAD_REACTORS
330
2A
102
}
330
2A
100
AcDbVisualStyle
  2
3D Hidden
 70
     6
 71
     1
 72
     2
 73
     2
 90
        0
 40
-0.6
 41
-30.0
 62
     5
 63
     7
 74
     2
 91
        2
 64
     7
 65
   257
 75
     2
175
     1
 42
40.0
 92
        0
 66
   257
 43
1.0
 76
     1
 77
     6
 78
     2
 67
     7
 79
     3
170
     0
171
     0
290
     0
174
     0
 93
        1
 44
0.0
173
     0
291
     0
 45
0.0
1001
ACAD
1000
AcDbSavedByObjectVersion
1070
     0
  0
VISUALSTYLE
  5
30
102
{ACAD_REACTORS
330
2A
102
}
330
2A
100
AcDbVisualStyle
  2
3dWireframe
 70
     5
 71
     0
 72
     2
 73
     0
 90
        0
 40
-0.6
 41
-30.0
 62
     5
 63
     7
 74
     1
 91
        4
 64
     7
 65
   257
 75
     1
175
     1
 42
1.0
 92
        0
 66
   257
 43
1.0
 76
     1
 77
     6
 78
     2
 67
     7
 79
     5
170
     0
171
     0
290
     0
174
     0
 93
        1
 44
0.0
173
     0
291
     0
 45
0.0
1001
ACAD
1000
AcDbSavedByObjectVersion
1070
     0
  0
VISUALSTYLE
  5
32
102
{ACAD_REACTORS
330
2A
102
}
330
2A
100
AcDbVisualStyle
  2
Basic
 70
     7
 71
     1
 72
     0
 73
     1
 90
        0
 40
-0.6
 41
-30.0
 62
     5
 63
     7
 74
     0
 91
        4
 64
     7
 65
   257
 75
     1
175
     1
 42
1.0
 92
        8
 66
     7
 43
1.0
 76
     1
 77
     6
 78
     2
 67
     7
 79
     5
170
     0
171
     0
290
     0
174
     0
 93
        1
 44
0.0
173
     0
291
     1
 45
0.0
1001
ACAD
1000
AcDbSavedByObjectVersion
1070
     0
  0
VISUALSTYLE
  5
36
102
{ACAD_REACTORS
330
2A
102
}
330
2A
100
AcDbVisualStyle
  2
Brighten
 70
    12
 71
     2
 72
     2
 73
     0
 90
        0
 40
-0.6
 41
-30.0
 62
     5
 63
     7
 74
     1
 91
        4
 64
     7
 65
   257
 75
     1
175
     1
 42
1.0
 92
        8
 66
     7
 43
1.0
 76
     1
 77
     6
 78
     2
 67
     7
 79
     5
170
     0
171
     0
290
     0
174
     0
 93
        1
 44
50.0
173
     0
291
     1
 45
0.0
1001
ACAD
1000
AcDbSavedByObjectVersion
1070
     0
  0
VISUALSTYLE
  5
3A
102
{ACAD_REACTORS
330
2A
102
}
330
2A
100
AcDbVisualStyle
  2
ColorChange
 70
    16
 71
     2
 72
     2
 73
     3
 90
        0
 40
-0.6
 41
-30.0
 62
     5
 63
     8
 74
     1
 91
        4
 64
     7
 65
   257
 75
     1
175
     1
 42
1.0
 92
        8
 66
     8
 43
1.0
 76
     1
 77
     6
 78
     2
 67
     7
 79
     5
170
     0
171
     0
290
     0
174
     0
 93
        1
 44
0.0
173
     0
291
     1
 45
0.0
1001
ACAD
1000
AcDbSavedByObjectVersion
1070
     0
  0
VISUALSTYLE
  5
34
102
{ACAD_REACTORS
330
2A
102
}
330
2A
100
AcDbVisualStyle
  2
Conceptual
 70
     9
 71
     3
 72
     2
 73
     0
 90
        0
 40
-0.6
 41
-30.0
 62
     5
 63
     7
 74
     2
 91
        2
 64
     7
 65
   257
 75
     1
175
     1
 42
40.0
 92
        8
 66
     7
 43
1.0
 76
     1
 77
     6
 78
     2
 67
     7
 79
     3
170
     0
171
     0
290
     0
174
     0
 93
        1
 44
0.0
173
     0
291
     0
 45
0.0
1001
ACAD
1000
AcDbSavedByObjectVersion
1070
     0
  0
VISUALSTYLE
  5
35
102
{ACAD_REACTORS
330
2A
102
}
330
2A
100
AcDbVisualStyle
  2
Dim
 70
    11
 71
     2
 72
     2
 73
     0
 90
        0
 40
-0.6
 41
-30.0
 62
     5
 63
     7
 74
     1
 91
        4
 64
     7
 65
   257
 75
     1
175
     1
 42
1.0
 92
        8
 66
     7
 43
1.0
 76
     1
 77
     6
 78
     2
 67
     7
 79
     5
170
     0
171
     0
290
     0
174
     0
 93
        1
 44
-50.0
173
     0
291
     1
 45
0.0
1001
ACAD
1000
AcDbSavedByObjectVersion
1070
     0
  0
VISUALSTYLE
  5
39
102
{ACAD_REACTORS
330
2A
102
}
330
2A
100
AcDbVisualStyle
  2
Facepattern
 70
    15
 71
     2
 72
     2
 73
     0
 90
        0
 40
-0.6
 41
-30.0
 62
     5
 63
     7
 74
     1
 91
        4
 64
     7
 65
   257
 75
     1
175
     1
 42
1.0
 92
        8
 66
     7
 43
1.0
 76
     1
 77
     6
 78
     2
 67
     7
 79
     5
170
     0
171
     0
290
     0
174
     0
 93
        1
 44
0.0
173
     0
291
     1
 45
0.0
1001
ACAD
1000
AcDbSavedByObjectVersion
1070
     0
  0
VISUALSTYLE
  5
2B
102
{ACAD_REACTORS
330
2A
102
}
330
2A
100
AcDbVisualStyle
  2
Flat
 70
     0
 71
     2
 72
     1
 73
     1
 90
        2
 40
-0.6
 41
30.0
 62
     5
 63
     7
 74
     0
 91
        4
 64
     7
 65
   257
 75
     1
175
     1
 42
1.0
 92
        8
 66
     7
 43
1.0
 76
     1
 77
     6
 78
     2
 67
     7
 79
     5
170
     0
171
     0
290
     0
174
     0
 93
       13
 44
0.0
173
     0
291
     1
 45
0.0
1001
ACAD
1000
AcDbSavedByObjectVersion
1070
     0
  0
VISUALSTYLE
  5
2C
102
{ACAD_REACTORS
330
2A
102
}
330
2A
100
AcDbVisualStyle
  2
FlatWithEdges
 70
     1
 71
     2
 72
     1
 73
     1
 90
        2
 40
-0.6
 41
30.0
 62
     5
 63
     7
 74
     1
 91
        4
 64
     7
 65
   257
 75
     1
175
     1
 42
1.0
 92
        0
 66
   257
 43
1.0
 76
     1
 77
     6
 78
     2
 67
     7
 79
     5
170
     0
171
     0
290
     0
174
     0
 93
       13
 44
0.0
173
     0
291
     1
 45
0.0
1001
ACAD
1000
AcDbSavedByObjectVersion
1070
     0
  0
VISUALSTYLE
  5
2D
102
{ACAD_REACTORS
330
2A
102
}
330
2A
100
AcDbVisualStyle
  2
Gouraud
 70
     2
 71
     2
 72
     2
 73
     1
 90
        2
 40
-0.6
 41
30.0
 62
     5
 63
     7
 74
     0
 91
        4
 64
     7
 65
   257
 75
     1
175
     1
 42
1.0
 92
        0
 66
     7
 43
1.0
 76
     1
 77
     6
 78
     2
 67
     7
 79
     5
170
     0
171
     0
290
     0
174
     0
 93
       13
 44
0.0
173
     0
291
     1
 45
0.0
1001
ACAD
1000
AcDbSavedByObjectVersion
1070
     0
  0
VISUALSTYLE
  5
2E
102
{ACAD_REACTORS
330
2A
102
}
330
2A
100
AcDbVisualStyle
  2
GouraudWithEdges
 70
     3
 71
     2
 72
     2
 73
     1
 90
        2
 40
-0.6
 41
30.0
 62
     5
 63
     7
 74
     1
 91
        4
 64
     7
 65
   257
 75
     1
175
     1
 42
1.0
 92
        0
 66
   257
 43
1.0
 76
     1
 77
     6
 78
     2
 67
     7
 79
     5
170
     0
171
     0
290
     0
174
     0
 93
       13
 44
0.0
173
     0
291
     1
 45
0.0
1001
ACAD
1000
AcDbSavedByObjectVersion
1070
     0
  0
VISUALSTYLE
  5
38
102
{ACAD_REACTORS
330
2A
102
}
330
2A
100
AcDbVisualStyle
  2
Linepattern
 70
    14
 71
     2
 72
     2
 73
     0
 90
        0
 40
-0.6
 41
-30.0
 62
     5
 63
     7
 74
     1
 91
        4
 64
     7
 65
   257
 75
     7
175
     7
 42
1.0
 92
        8
 66
     7
 43
1.0
 76
     1
 77
     6
 78
     2
 67
     7
 79
     5
170
     0
171
     0
290
     0
174
     0
 93
        1
 44
0.0
173
     0
291
     1
 45
0.0
1001
ACAD
1000
AcDbSavedByObjectVersion
1070
     0
  0
VISUALSTYLE
  5
33
102
{ACAD_REACTORS
330
2A
102
}
330
2A
100
AcDbVisualStyle
  2
Realistic
 70
     8
 71
     2
 72
     2
 73
     0
 90
        0
 40
-0.6
 41
-30.0
 62
     5
 63
     7
 74
     1
 91
        0
 64
     7
 65
   257
 75
     1
175
     1
 42
1.0
 92
        8
 66
     8
 43
1.0
 76
     1
 77
     6
 78
     2
 67
     7
 79
     5
170
     0
171
     0
290
     0
174
     0
 93
       13
 44
0.0
173
     0
291
     0
 45
0.0
1001
ACAD
1000
AcDbSavedByObjectVersion
1070
     0
  0
VISUALSTYLE
  5
37
102
{ACAD_REACTORS
330
2A
102
}
330
2A
100
AcDbVisualStyle
  2
Thicken
 70
    13
 71
     2
 72
     2
 73
     0
 90
        0
 40
-0.6
 41
-30.0
 62
     5
 63
     7
 74
     1
 91
        4
 64
     7
 65
   257
 75
     1
175
     1
 42
1.0
 92
       12
 66
     7
 43
1.0
 76
     1
 77
     6
 78
     2
 67
     7
 79
     5
170
     0
171
     0
290
     0
174
     0
 93
        1
 44
0.0
173
     0
291
     1
 45
0.0
1001
ACAD
1000
AcDbSavedByObjectVersion
1070
     0
  0
DICTIONARYVAR
  5
1FF
102
{ACAD_REACTORS
330
1FD
102
}
330
1FD
100
DictionaryVariables
280
     0
  1
80.000000
  0
DICTIONARYVAR
  5
1FE
102
{ACAD_REACTORS
330
1FD
102
}
330
1FD
100
DictionaryVariables
280
     0
  1
5.000000
  0
ENDSEC
  0
EOF
