  0
SECTION
  2
HEADER
  9
$ACADVER
  1
AC1015
  9
$ACADMAINTVER
 70
     6
  9
$DWGCODEPAGE
  3
ANSI_1252
  9
$INSBASE
 10
0.0
 20
0.0
 30
0.0
  9
$EXTMIN
 10
0.0
 20
0.0
 30
0.0
  9
$EXTMAX
 10
297.0
 20
210.0
 30
0.0
  9
$LIMMIN
 10
0.0
 20
0.0
  9
$LIMMAX
 10
297.0
 20
210.0
  9
$ORTHOMODE
 70
     0
  9
$REGENMODE
 70
     1
  9
$FILLMODE
 70
     1
  9
$QTEXTMODE
 70
     0
  9
$MIRRTEXT
 70
     1
  9
$LTSCALE
 40
1.0
  9
$ATTMODE
 70
     1
  9
$TEXTSIZE
 40
2.0
  9
$TRACEWID
 40
1.0
  9
$TEXTSTYLE
  7
Standard
  9
$CLAYER
  8
0
  9
$CELTYPE
  6
ByLayer
  9
$CECOLOR
 62
   256
  9
$CELTSCALE
 40
1.0
  9
$DISPSILH
 70
     0
  9
$DIMSCALE
 40
1.0
  9
$DIMASZ
 40
3.0
  9
$DIMEXO
 40
0.0
  9
$DIMDLI
 40
3.75
  9
$DIMRND
 40
0.0
  9
$DIMDLE
 40
0.0
  9
$DIMEXE
 40
1.0
  9
$DIMTP
 40
0.0
  9
$DIMTM
 40
0.0
  9
$DIMTXT
 40
2.0
  9
$DIMCEN
 40
2.5
  9
$DIMTSZ
 40
0.0
  9
$DIMTOL
 70
     0
  9
$DIMLIM
 70
     0
  9
$DIMTIH
 70
     1
  9
$DIMTOH
 70
     1
  9
$DIMSE1
 70
     0
  9
$DIMSE2
 70
     0
  9
$DIMTAD
 70
     1
  9
$DIMZIN
 70
     0
  9
$DIMBLK
  1

  9
$DIMASO
 70
     1
  9
$DIMSHO
 70
     1
  9
$DIMPOST
  1

  9
$DIMAPOST
  1

  9
$DIMALT
 70
     0
  9
$DIMALTD
 70
     3
  9
$DIMALTF
 40
0.0393700787
  9
$DIMLFAC
 40
1.0
  9
$DIMTOFL
 70
     1
  9
$DIMTVP
 40
0.0
  9
$DIMTIX
 70
     0
  9
$DIMSOXD
 70
     0
  9
$DIMSAH
 70
     0
  9
$DIMBLK1
  1

  9
$DIMBLK2
  1

  9
$DIMSTYLE
  2
ISO-25
  9
$DIMCLRD
 70
     0
  9
$DIMCLRE
 70
     0
  9
$DIMCLRT
 70
     0
  9
$DIMTFAC
 40
1.0
  9
$DIMGAP
 40
1.524
  9
$DIMJUST
 70
     0
  9
$DIMSD1
 70
     0
  9
$DIMSD2
 70
     0
  9
$DIMTOLJ
 70
     0
  9
$DIMTZIN
 70
     0
  9
$DIMALTZ
 70
     0
  9
$DIMALTTZ
 70
     0
  9
$DIMUPT
 70
     0
  9
$DIMDEC
 70
     2
  9
$DIMTDEC
 70
     3
  9
$DIMALTU
 70
     2
  9
$DIMALTTD
 70
     3
  9
$DIMTXSTY
  7
Standard
  9
$DIMAUNIT
 70
     0
  9
$DIMADEC
 70
     2
  9
$DIMALTRND
 40
0.0
  9
$DIMAZIN
 70
     0
  9
$DIMDSEP
 70
    44
  9
$DIMATFIT
 70
     3
  9
$DIMFRAC
 70
     0
  9
$DIMLDRBLK
  1

  9
$DIMLUNIT
 70
     2
  9
$DIMLWD
 70
    -2
  9
$DIMLWE
 70
    -2
  9
$DIMTMOVE
 70
     0
  9
$LUNITS
 70
     2
  9
$LUPREC
 70
     2
  9
$SKETCHINC
 40
1.0
  9
$FILLETRAD
 40
10.0
  9
$AUNITS
 70
     0
  9
$AUPREC
 70
     2
  9
$MENU
  1
.
  9
$ELEVATION
 40
0.0
  9
$PELEVATION
 40
0.0
  9
$THICKNESS
 40
0.0
  9
$LIMCHECK
 70
     0
  9
$CHAMFERA
 40
10.0
  9
$CHAMFERB
 40
10.0
  9
$CHAMFERC
 40
20.0
  9
$CHAMFERD
 40
0.0
  9
$SKPOLY
 70
     0
  9
$TDCREATE
 40
2456036.402311065
  9
$TDUCREATE
 40
2456036.318977731
  9
$TDUPDATE
 40
2456036.402312697
  9
$TDUUPDATE
 40
2456036.318979363
  9
$TDINDWG
 40
0.0000000116
  9
$TDUSRTIMER
 40
0.0000000116
  9
$USRTIMER
 70
     1
  9
$ANGBASE
 50
0.0
  9
$ANGDIR
 70
     0
  9
$PDMODE
 70
     0
  9
$PDSIZE
 40
-1.0
  9
$PLINEWID
 40
0.0
  9
$SPLFRAME
 70
     0
  9
$SPLINETYPE
 70
     6
  9
$SPLINESEGS
 70
     8
  9
$HANDSEED
  5
2F2
  9
$SURFTAB1
 70
     6
  9
$SURFTAB2
 70
     6
  9
$SURFTYPE
 70
     6
  9
$SURFU
 70
     6
  9
$SURFV
 70
     6
  9
$UCSBASE
  2

  9
$UCSNAME
  2

  9
$UCSORG
 10
0.0
 20
0.0
 30
0.0
  9
$UCSXDIR
 10
1.0
 20
0.0
 30
0.0
  9
$UCSYDIR
 10
0.0
 20
1.0
 30
0.0
  9
$UCSORTHOREF
  2

  9
$UCSORTHOVIEW
 70
     0
  9
$UCSORGTOP
 10
0.0
 20
0.0
 30
0.0
  9
$UCSORGBOTTOM
 10
0.0
 20
0.0
 30
0.0
  9
$UCSORGLEFT
 10
0.0
 20
0.0
 30
0.0
  9
$UCSORGRIGHT
 10
0.0
 20
0.0
 30
0.0
  9
$UCSORGFRONT
 10
0.0
 20
0.0
 30
0.0
  9
$UCSORGBACK
 10
0.0
 20
0.0
 30
0.0
  9
$PUCSBASE
  2

  9
$PUCSNAME
  2

  9
$PUCSORG
 10
0.0
 20
0.0
 30
0.0
  9
$PUCSXDIR
 10
1.0
 20
0.0
 30
0.0
  9
$PUCSYDIR
 10
0.0
 20
1.0
 30
0.0
  9
$PUCSORTHOREF
  2

  9
$PUCSORTHOVIEW
 70
     0
  9
$PUCSORGTOP
 10
0.0
 20
0.0
 30
0.0
  9
$PUCSORGBOTTOM
 10
0.0
 20
0.0
 30
0.0
  9
$PUCSORGLEFT
 10
0.0
 20
0.0
 30
0.0
  9
$PUCSORGRIGHT
 10
0.0
 20
0.0
 30
0.0
  9
$PUCSORGFRONT
 10
0.0
 20
0.0
 30
0.0
  9
$PUCSORGBACK
 10
0.0
 20
0.0
 30
0.0
  9
$USERI1
 70
     0
  9
$USERI2
 70
     0
  9
$USERI3
 70
     0
  9
$USERI4
 70
     0
  9
$USERI5
 70
     0
  9
$USERR1
 40
0.0
  9
$USERR2
 40
0.0
  9
$USERR3
 40
0.0
  9
$USERR4
 40
0.0
  9
$USERR5
 40
0.0
  9
$WORLDVIEW
 70
     1
  9
$SHADEDGE
 70
     3
  9
$SHADEDIF
 70
    70
  9
$TILEMODE
 70
     1
  9
$MAXACTVP
 70
    64
  9
$PINSBASE
 10
0.0
 20
0.0
 30
0.0
  9
$PLIMCHECK
 70
     0
  9
$PEXTMIN
 10
1.0000000000E+20
 20
1.0000000000E+20
 30
1.0000000000E+20
  9
$PEXTMAX
 10
-1.0000000000E+20
 20
-1.0000000000E+20
 30
-1.0000000000E+20
  9
$PLIMMIN
 10
0.0
 20
0.0
  9
$PLIMMAX
 10
420.0
 20
297.0
  9
$UNITMODE
 70
     0
  9
$VISRETAIN
 70
     1
  9
$PLINEGEN
 70
     0
  9
$PSLTSCALE
 70
     1
  9
$TREEDEPTH
 70
  3020
  9
$CMLSTYLE
  2
Standard
  9
$CMLJUST
 70
     0
  9
$CMLSCALE
 40
20.0
  9
$PROXYGRAPHICS
 70
     1
  9
$MEASUREMENT
 70
     1
  9
$CELWEIGHT
370
    -1
  9
$ENDCAPS
280
     0
  9
$JOINSTYLE
280
     0
  9
$LWDISPLAY
290
     1
  9
$INSUNITS
 70
     4
  9
$HYPERLINKBASE
  1

  9
$STYLESHEET
  1

  9
$XEDIT
290
     1
  9
$CEPSNTYPE
380
     0
  9
$PSTYLEMODE
290
     1
  9
$FINGERPRINTGUID
  2
{B7D941E3-B908-4608-A4B3-AB48BCC8DF66}
  9
$VERSIONGUID
  2
{FAEB1C32-E019-11D5-929B-00C0DF256EC4}
  9
$EXTNAMES
290
     1
  9
$PSVPSCALE
 40
0.0
  9
$OLESTARTUP
290
     0
  0
ENDSEC
  0
SECTION
  2
CLASSES
  0
CLASS
  1
ACDBDICTIONARYWDFLT
  2
AcDbDictionaryWithDefault
  3
ObjectDBX Classes
 90
        0
280
     0
281
     0
  0
CLASS
  1
VISUALSTYLE
  2
AcDbVisualStyle
  3
ObjectDBX Classes
 90
     4095
280
     0
281
     0
  0
CLASS
  1
MATERIAL
  2
AcDbMaterial
  3
ObjectDBX Classes
 90
     1153
280
     0
281
     0
  0
CLASS
  1
ACDBPLACEHOLDER
  2
AcDbPlaceHolder
  3
ObjectDBX Classes
 90
        0
280
     0
281
     0
  0
CLASS
  1
LAYOUT
  2
AcDbLayout
  3
ObjectDBX Classes
 90
        0
280
     0
281
     0
  0
ENDSEC
  0
SECTION
  2
TABLES
  0
TABLE
  2
VPORT
  5
8
330
0
100
AcDbSymbolTable
 70
     1
  0
VPORT
  5
29
330
8
100
AcDbSymbolTableRecord
100
AcDbViewportTableRecord
  2
*Active
 70
     0
 10
0.0
 20
0.0
 11
1.0
 21
1.0
 12
148.5
 22
105.0
 13
0.0
 23
0.0
 14
10.0
 24
10.0
 15
10.0
 25
10.0
 16
0.0
 26
0.0
 36
1.0
 17
0.0
 27
0.0
 37
0.0
 40
210.0
 41
1.4142857143
 42
50.0
 43
0.0
 44
0.0
 50
0.0
 51
0.0
 71
     0
 72
  2000
 73
     1
 74
     3
 75
     0
 76
     0
 77
     0
 78
     0
281
     0
 65
     1
110
0.0
120
0.0
130
0.0
111
1.0
121
0.0
131
0.0
112
0.0
122
1.0
132
0.0
 79
     0
146
0.0
  0
ENDTAB
  0
TABLE
  2
LTYPE
  5
5
330
0
100
AcDbSymbolTable
 70
     6
  0
LTYPE
  5
14
330
5
100
AcDbSymbolTableRecord
100
AcDbLinetypeTableRecord
  2
ByBlock
 70
     0
  3

 72
    65
 73
     0
 40
0.0
  0
LTYPE
  5
15
330
5
100
AcDbSymbolTableRecord
100
AcDbLinetypeTableRecord
  2
ByLayer
 70
     0
  3

 72
    65
 73
     0
 40
0.0
  0
LTYPE
  5
16
330
5
100
AcDbSymbolTableRecord
100
AcDbLinetypeTableRecord
  2
Continuous
 70
     0
  3
Solid line
 72
    65
 73
     0
 40
0.0
  0
LTYPE
  5
3F
330
5
100
AcDbSymbolTableRecord
100
AcDbLinetypeTableRecord
  2
HIDDEN
 70
     0
  3
Hidden __ __ __ __ __ __ __ __ __ __ __ __ __ __
 72
    65
 73
     2
 40
1.905
 49
1.27
 74
     0
 49
-0.635
 74
     0
  0
LTYPE
  5
40
330
5
100
AcDbSymbolTableRecord
100
AcDbLinetypeTableRecord
  2
PHANTOM
 70
     0
  3
Phantom ______  __  __  ______  __  __  ______
 72
    65
 73
     6
 40
12.7
 49
6.35
 74
     0
 49
-1.27
 74
     0
 49
1.27
 74
     0
 49
-1.27
 74
     0
 49
1.27
 74
     0
 49
-1.27
 74
     0
  0
LTYPE
  5
41
330
5
100
AcDbSymbolTableRecord
100
AcDbLinetypeTableRecord
  2
CENTER
 70
     0
  3
Center ____ _ ____ _ ____ _ ____ _ ____ _ ____
 72
    65
 73
     4
 40
10.16
 49
6.35
 74
     0
 49
-1.27
 74
     0
 49
1.27
 74
     0
 49
-1.27
 74
     0
  0
LTYPE
  5
42
330
5
100
AcDbSymbolTableRecord
100
AcDbLinetypeTableRecord
  2
CENTERX2
 70
     0
  3
Center (2x) ________  __  ________  __  _____
 72
    65
 73
     4
 40
20.32
 49
12.7
 74
     0
 49
-2.54
 74
     0
 49
2.54
 74
     0
 49
-2.54
 74
     0
  0
LTYPE
  5
43
330
5
100
AcDbSymbolTableRecord
100
AcDbLinetypeTableRecord
  2
DOT2
 70
     0
  3
Dot (.5x) ........................................
 72
    65
 73
     2
 40
0.635
 49
0.0
 74
     0
 49
-0.635
 74
     0
  0
ENDTAB
  0
TABLE
  2
LAYER
  5
2
330
0
100
AcDbSymbolTable
 70
     5
  0
LAYER
  5
10
330
2
100
AcDbSymbolTableRecord
100
AcDbLayerTableRecord
  2
0
 70
     0
 62
     7
  6
Continuous
370
    -3
390
F
  0
LAYER
  5
44
330
2
100
AcDbSymbolTableRecord
100
AcDbLayerTableRecord
  2
FORMAT
 70
     0
 62
     7
  6
Continuous
370
    -3
390
F
  0
LAYER
  5
45
330
2
100
AcDbSymbolTableRecord
100
AcDbLayerTableRecord
  2
VERMASSUNG
 70
     0
 62
     7
  6
Continuous
370
    -3
390
F
  0
LAYER
  5
46
330
2
100
AcDbSymbolTableRecord
100
AcDbLayerTableRecord
  2
KOPF_DÜNN
 70
     0
 62
     7
  6
Continuous
370
    -3
390
F
  0
LAYER
  5
47
330
2
100
AcDbSymbolTableRecord
100
AcDbLayerTableRecord
  2
KOPF_DICK
 70
     0
 62
     7
  6
Continuous
370
    15
390
F
  0
ENDTAB
  0
TABLE
  2
STYLE
  5
3
330
0
100
AcDbSymbolTable
 70
     3
  0
STYLE
  5
11
330
3
100
AcDbSymbolTableRecord
100
AcDbTextStyleTableRecord
  2
Standard
 70
     0
 40
0.0
 41
1.0
 50
0.0
 71
     0
 42
2.0
  3
txt
  4

  0
STYLE
  5
48
330
3
100
AcDbSymbolTableRecord
100
AcDbTextStyleTableRecord
  2
SLDTEXTSTYLE0
 70
     0
 40
0.0
 41
0.7
 50
0.0
 71
     0
 42
0.2
  3
TXT
  4

  0
STYLE
  5
4C
330
3
100
AcDbSymbolTableRecord
100
AcDbTextStyleTableRecord
  2
SLDTEXTSTYLE1
 70
     0
 40
0.0
 41
0.65
 50
0.0
 71
     0
 42
0.2
  3
TXT
  4

  0
ENDTAB
  0
TABLE
  2
VIEW
  5
6
330
0
100
AcDbSymbolTable
 70
     0
  0
ENDTAB
  0
TABLE
  2
UCS
  5
7
330
0
100
AcDbSymbolTable
 70
     0
  0
ENDTAB
  0
TABLE
  2
APPID
  5
9
330
0
100
AcDbSymbolTable
 70
     1
  0
APPID
  5
12
330
9
100
AcDbSymbolTableRecord
100
AcDbRegAppTableRecord
  2
ACAD
 70
     0
  0
ENDTAB
  0
TABLE
  2
DIMSTYLE
  5
A
330
0
100
AcDbSymbolTable
 70
     3
100
AcDbDimStyleTable
  0
DIMSTYLE
105
27
330
A
100
AcDbSymbolTableRecord
100
AcDbDimStyleTableRecord
  2
ISO-25
 70
     0
 41
2.5
 42
0.625
 43
3.75
 44
1.25
 73
     0
 74
     0
 77
     1
 78
     8
140
2.5
141
2.5
143
0.0393700787
147
0.625
171
     3
172
     1
178
     0
271
     2
272
     2
274
     3
278
    44
283
     0
284
     8
340
11
  0
DIMSTYLE
105
1CB
102
{ACAD_REACTORS
330
1CA
102
}
330
A
100
AcDbSymbolTableRecord
100
AcDbDimStyleTableRecord
  2
SLDDIMSTYLE0
 70
     0
 41
3.0
 44
0.0
 45
0.000000001
 73
     0
 74
     0
 77
     1
 78
    12
 79
     3
140
2.0
147
0.5
172
     1
173
     1
178
     0
271
     2
272
     3
276
     2
284
    12
289
     0
340
48
  0
DIMSTYLE
105
1D9
102
{ACAD_REACTORS
330
1D8
330
1E4
330
1F0
330
1FA
330
204
330
20E
330
218
330
222
330
22C
102
}
330
A
100
AcDbSymbolTableRecord
100
AcDbDimStyleTableRecord
  2
SLDDIMSTYLE1
 70
     0
 41
3.0
 44
0.0
 45
0.000000001
 73
     0
 74
     0
 77
     1
 78
    12
 79
     3
140
2.0
147
0.5
173
     1
178
     0
271
     2
272
     3
276
     2
284
    12
340
48
  0
ENDTAB
  0
TABLE
  2
BLOCK_RECORD
  5
1
330
0
100
AcDbSymbolTable
 70
    12
  0
BLOCK_RECORD
  5
1F
330
1
100
AcDbSymbolTableRecord
100
AcDbBlockTableRecord
  2
*Model_Space
340
22
  0
BLOCK_RECORD
  5
1B
330
1
100
AcDbSymbolTableRecord
100
AcDbBlockTableRecord
  2
*Paper_Space
340
1E
  0
BLOCK_RECORD
  5
23
330
1
100
AcDbSymbolTableRecord
100
AcDbBlockTableRecord
  2
*Paper_Space0
340
26
  0
BLOCK_RECORD
  5
1CC
330
1
100
AcDbSymbolTableRecord
100
AcDbBlockTableRecord
  2
_D
340
0
  0
BLOCK_RECORD
  5
1DA
330
1
100
AcDbSymbolTableRecord
100
AcDbBlockTableRecord
  2
_D_1
340
0
  0
BLOCK_RECORD
  5
1E5
330
1
100
AcDbSymbolTableRecord
100
AcDbBlockTableRecord
  2
_D_2
340
0
  0
BLOCK_RECORD
  5
1F1
330
1
100
AcDbSymbolTableRecord
100
AcDbBlockTableRecord
  2
_D_3
340
0
  0
BLOCK_RECORD
  5
1FB
330
1
100
AcDbSymbolTableRecord
100
AcDbBlockTableRecord
  2
_D_4
340
0
  0
BLOCK_RECORD
  5
205
330
1
100
AcDbSymbolTableRecord
100
AcDbBlockTableRecord
  2
_D_5
340
0
  0
BLOCK_RECORD
  5
20F
330
1
100
AcDbSymbolTableRecord
100
AcDbBlockTableRecord
  2
_D_6
340
0
  0
BLOCK_RECORD
  5
219
330
1
100
AcDbSymbolTableRecord
100
AcDbBlockTableRecord
  2
_D_7
340
0
  0
BLOCK_RECORD
  5
223
330
1
100
AcDbSymbolTableRecord
100
AcDbBlockTableRecord
  2
_D_8
340
0
  0
BLOCK_RECORD
  5
22D
330
1
100
AcDbSymbolTableRecord
100
AcDbBlockTableRecord
  2
_D_9
340
0
  0
BLOCK_RECORD
  5
2E5
330
1
100
AcDbSymbolTableRecord
100
AcDbBlockTableRecord
  2
SW_CENTERMARKSYMBOL_0
340
0
102
{BLKREFS
331
2F0
102
}
  0
ENDTAB
  0
ENDSEC
  0
SECTION
  2
BLOCKS
  0
BLOCK
  5
20
330
1F
100
AcDbEntity
  8
0
100
AcDbBlockBegin
  2
*Model_Space
 70
     0
 10
0.0
 20
0.0
 30
0.0
  3
*Model_Space
  1

  0
ENDBLK
  5
21
330
1F
100
AcDbEntity
  8
0
100
AcDbBlockEnd
  0
BLOCK
  5
1C
330
1B
100
AcDbEntity
 67
     1
  8
0
100
AcDbBlockBegin
  2
*Paper_Space
 70
     0
 10
0.0
 20
0.0
 30
0.0
  3
*Paper_Space
  1

  0
ENDBLK
  5
1D
330
1B
100
AcDbEntity
 67
     1
  8
0
100
AcDbBlockEnd
  0
BLOCK
  5
24
330
23
100
AcDbEntity
  8
0
100
AcDbBlockBegin
  2
*Paper_Space0
 70
     0
 10
0.0
 20
0.0
 30
0.0
  3
*Paper_Space0
  1

  0
ENDBLK
  5
25
330
23
100
AcDbEntity
  8
0
100
AcDbBlockEnd
  0
BLOCK
  5
1CD
330
1CC
100
AcDbEntity
  8
0
100
AcDbBlockBegin
  2
_D
 70
     0
 10
0.0
 20
0.0
 30
0.0
  3
_D
  1

  0
SOLID
  5
1CF
330
1CC
100
AcDbEntity
  8
VERMASSUNG
100
AcDbTrace
 10
225.8771938153
 20
105.4447884919
 30
0.0
 11
226.3271938153
 21
108.4447884919
 31
0.0
 12
225.4271938153
 22
108.4447884919
 32
0.0
 13
225.4271938153
 23
108.4447884919
 33
0.0
  0
SOLID
  5
1D0
330
1CC
100
AcDbEntity
  8
VERMASSUNG
100
AcDbTrace
 10
225.8771938153
 20
99.4447884919
 30
0.0
 11
225.4271938153
 21
96.4447884919
 31
0.0
 12
226.3271938153
 22
96.4447884919
 32
0.0
 13
226.3271938153
 23
96.4447884919
 33
0.0
  0
LINE
  5
1D1
330
1CC
100
AcDbEntity
  8
VERMASSUNG
100
AcDbLine
 10
219.4604250522
 20
105.4447884919
 30
0.0
 11
226.8771938153
 21
105.4447884919
 31
0.0
  0
LINE
  5
1D2
330
1CC
100
AcDbEntity
  8
VERMASSUNG
100
AcDbLine
 10
219.4604250522
 20
99.4447884919
 30
0.0
 11
226.8771938153
 21
99.4447884919
 31
0.0
  0
LINE
  5
1D3
330
1CC
100
AcDbEntity
  8
VERMASSUNG
100
AcDbLine
 10
225.8771938153
 20
105.4447884919
 30
0.0
 11
225.8771938153
 21
111.4447884919
 31
0.0
  0
LINE
  5
1D4
330
1CC
100
AcDbEntity
  8
VERMASSUNG
100
AcDbLine
 10
225.8771938153
 20
105.4447884919
 30
0.0
 11
225.8771938153
 21
99.4447884919
 31
0.0
  0
LINE
  5
1D5
330
1CC
100
AcDbEntity
  8
VERMASSUNG
100
AcDbLine
 10
225.8771938153
 20
99.4447884919
 30
0.0
 11
225.8771938153
 21
93.4447884919
 31
0.0
  0
MTEXT
  5
1D6
330
1CC
100
AcDbEntity
  8
VERMASSUNG
100
AcDbMText
 10
223.2990583357
 20
99.9420225456
 30
0.0
 40
2.0
 41
0.0
 71
     1
 72
     1
  1
%%c
  7
SLDTEXTSTYLE0
 11
-7.044195017643634E-15
 21
1.0
 31
0.0
 73
     1
 44
1.0
  0
MTEXT
  5
1D7
330
1CC
100
AcDbEntity
  8
VERMASSUNG
100
AcDbMText
 10
223.2990584522
 20
103.5500709148
 30
0.0
 40
2.0
 41
0.0
 71
     1
 72
     1
  1
6
  7
SLDTEXTSTYLE0
 11
-7.044195017643634E-15
 21
1.0
 31
0.0
 73
     1
 44
1.0
  0
ENDBLK
  5
1CE
330
1CC
100
AcDbEntity
  8
0
100
AcDbBlockEnd
  0
BLOCK
  5
1DB
330
1DA
100
AcDbEntity
  8
0
100
AcDbBlockBegin
  2
_D_1
 70
     0
 10
0.0
 20
0.0
 30
0.0
  3
_D_1
  1

  0
SOLID
  5
1DD
330
1DA
100
AcDbEntity
  8
VERMASSUNG
100
AcDbTrace
 10
231.8771938153
 20
119.4447884919
 30
0.0
 11
231.4271938153
 21
116.4447884919
 31
0.0
 12
232.3271938153
 22
116.4447884919
 32
0.0
 13
232.3271938153
 23
116.4447884919
 33
0.0
  0
SOLID
  5
1DE
330
1DA
100
AcDbEntity
  8
VERMASSUNG
100
AcDbTrace
 10
231.8771938153
 20
85.4447884919
 30
0.0
 11
232.3271938153
 21
88.4447884919
 31
0.0
 12
231.4271938153
 22
88.4447884919
 32
0.0
 13
231.4271938153
 23
88.4447884919
 33
0.0
  0
LINE
  5
1DF
330
1DA
100
AcDbEntity
  8
VERMASSUNG
100
AcDbLine
 10
218.7604250522
 20
119.4447884919
 30
0.0
 11
232.8771938153
 21
119.4447884919
 31
0.0
  0
LINE
  5
1E0
330
1DA
100
AcDbEntity
  8
VERMASSUNG
100
AcDbLine
 10
218.7604250522
 20
85.4447884919
 30
0.0
 11
232.8771938153
 21
85.4447884919
 31
0.0
  0
LINE
  5
1E1
330
1DA
100
AcDbEntity
  8
VERMASSUNG
100
AcDbLine
 10
231.8771938153
 20
119.4447884919
 30
0.0
 11
231.8771938153
 21
85.4447884919
 31
0.0
  0
MTEXT
  5
1E2
330
1DA
100
AcDbEntity
  8
VERMASSUNG
100
AcDbMText
 10
229.2990583357
 20
99.1416456187
 30
0.0
 40
2.0
 41
0.0
 71
     1
 72
     1
  1
%%c
  7
SLDTEXTSTYLE0
 11
-7.044195017643634E-15
 21
1.0
 31
0.0
 73
     1
 44
1.0
  0
MTEXT
  5
1E3
330
1DA
100
AcDbEntity
  8
VERMASSUNG
100
AcDbMText
 10
229.2990584522
 20
102.7496939878
 30
0.0
 40
2.0
 41
0.0
 71
     1
 72
     1
  1
34
  7
SLDTEXTSTYLE0
 11
-7.044195017643634E-15
 21
1.0
 31
0.0
 73
     1
 44
1.0
  0
ENDBLK
  5
1DC
330
1DA
100
AcDbEntity
  8
0
100
AcDbBlockEnd
  0
BLOCK
  5
1E6
330
1E5
100
AcDbEntity
  8
0
100
AcDbBlockBegin
  2
_D_2
 70
     0
 10
0.0
 20
0.0
 30
0.0
  3
_D_2
  1

  0
SOLID
  5
1E8
330
1E5
100
AcDbEntity
  8
VERMASSUNG
100
AcDbTrace
 10
140.6276013095
 20
122.4447884919
 30
0.0
 11
140.1776013095
 21
119.4447884919
 31
0.0
 12
141.0776013095
 22
119.4447884919
 32
0.0
 13
141.0776013095
 23
119.4447884919
 33
0.0
  0
SOLID
  5
1E9
330
1E5
100
AcDbEntity
  8
VERMASSUNG
100
AcDbTrace
 10
140.6276013095
 20
82.4447884919
 30
0.0
 11
141.0776013095
 21
85.4447884919
 31
0.0
 12
140.1776013095
 22
85.4447884919
 32
0.0
 13
140.1776013095
 23
85.4447884919
 33
0.0
  0
LINE
  5
1EA
330
1E5
100
AcDbEntity
  8
VERMASSUNG
100
AcDbLine
 10
165.0604250522
 20
122.4447884919
 30
0.0
 11
139.6276013095
 21
122.4447884919
 31
0.0
  0
LINE
  5
1EB
330
1E5
100
AcDbEntity
  8
VERMASSUNG
100
AcDbLine
 10
165.0604250522
 20
82.4447884919
 30
0.0
 11
139.6276013095
 21
82.4447884919
 31
0.0
  0
LINE
  5
1EC
330
1E5
100
AcDbEntity
  8
VERMASSUNG
100
AcDbLine
 10
140.6276013095
 20
122.4447884919
 30
0.0
 11
140.6276013095
 21
82.4447884919
 31
0.0
  0
MTEXT
  5
1ED
330
1E5
100
AcDbEntity
  8
VERMASSUNG
100
AcDbMText
 10
137.8494658204
 20
96.1408673623
 30
0.0
 40
2.0
 41
0.0
 71
     1
 72
     1
  1
HSK
  7
SLDTEXTSTYLE0
 11
-7.044195017643634E-15
 21
1.0
 31
0.0
 73
     1
 44
1.0
  0
MTEXT
  5
1EE
330
1E5
100
AcDbEntity
  8
VERMASSUNG
100
AcDbMText
 10
138.0494658299
 20
102.1408674145
 30
0.0
 40
2.0
 41
0.0
 71
     1
 72
     1
  1
%%c
  7
SLDTEXTSTYLE0
 11
-7.044195017643634E-15
 21
1.0
 31
0.0
 73
     1
 44
1.0
  0
MTEXT
  5
1EF
330
1E5
100
AcDbEntity
  8
VERMASSUNG
100
AcDbMText
 10
138.0494659464
 20
105.7504722442
 30
0.0
 40
2.0
 41
0.0
 71
     1
 72
     1
  1
40
  7
SLDTEXTSTYLE0
 11
-7.044195017643634E-15
 21
1.0
 31
0.0
 73
     1
 44
1.0
  0
ENDBLK
  5
1E7
330
1E5
100
AcDbEntity
  8
0
100
AcDbBlockEnd
  0
BLOCK
  5
1F2
330
1F1
100
AcDbEntity
  8
0
100
AcDbBlockBegin
  2
_D_3
 70
     0
 10
0.0
 20
0.0
 30
0.0
  3
_D_3
  1

  0
SOLID
  5
1F4
330
1F1
100
AcDbEntity
  8
VERMASSUNG
100
AcDbTrace
 10
144.8604250522
 20
138.0527108396
 30
0.0
 11
147.8604250522
 21
137.6027108396
 31
0.0
 12
147.8604250522
 22
138.5027108396
 32
0.0
 13
147.8604250522
 23
138.5027108396
 33
0.0
  0
SOLID
  5
1F5
330
1F1
100
AcDbEntity
  8
VERMASSUNG
100
AcDbTrace
 10
219.7604250522
 20
138.0527108396
 30
0.0
 11
216.7604250522
 21
138.5027108396
 31
0.0
 12
216.7604250522
 22
137.6027108396
 32
0.0
 13
216.7604250522
 23
137.6027108396
 33
0.0
  0
LINE
  5
1F6
330
1F1
100
AcDbEntity
  8
VERMASSUNG
100
AcDbLine
 10
144.8604250522
 20
114.3747884919
 30
0.0
 11
144.8604250522
 21
139.0527108396
 31
0.0
  0
LINE
  5
1F7
330
1F1
100
AcDbEntity
  8
VERMASSUNG
100
AcDbLine
 10
219.7604250522
 20
118.4447884919
 30
0.0
 11
219.7604250522
 21
139.0527108396
 31
0.0
  0
LINE
  5
1F8
330
1F1
100
AcDbEntity
  8
VERMASSUNG
100
AcDbLine
 10
144.8604250522
 20
138.0527108396
 30
0.0
 11
219.7604250522
 21
138.0527108396
 31
0.0
  0
MTEXT
  5
1F9
330
1F1
100
AcDbEntity
  8
VERMASSUNG
100
AcDbMText
 10
179.8114704247
 20
140.6308462027
 30
0.0
 40
2.0
 41
0.0
 71
     1
 72
     1
  1
74.9
  7
SLDTEXTSTYLE0
 73
     1
 44
1.0
  0
ENDBLK
  5
1F3
330
1F1
100
AcDbEntity
  8
0
100
AcDbBlockEnd
  0
BLOCK
  5
1FC
330
1FB
100
AcDbEntity
  8
0
100
AcDbBlockBegin
  2
_D_4
 70
     0
 10
0.0
 20
0.0
 30
0.0
  3
_D_4
  1

  0
SOLID
  5
1FE
330
1FB
100
AcDbEntity
  8
VERMASSUNG
100
AcDbTrace
 10
164.7604250522
 20
132.0527108396
 30
0.0
 11
167.7604250522
 21
131.6027108396
 31
0.0
 12
167.7604250522
 22
132.5027108396
 32
0.0
 13
167.7604250522
 23
132.5027108396
 33
0.0
  0
SOLID
  5
1FF
330
1FB
100
AcDbEntity
  8
VERMASSUNG
100
AcDbTrace
 10
219.7604250522
 20
132.0527108396
 30
0.0
 11
216.7604250522
 21
132.5027108396
 31
0.0
 12
216.7604250522
 22
131.6027108396
 32
0.0
 13
216.7604250522
 23
131.6027108396
 33
0.0
  0
LINE
  5
200
330
1FB
100
AcDbEntity
  8
VERMASSUNG
100
AcDbLine
 10
164.7604250522
 20
122.1447884919
 30
0.0
 11
164.7604250522
 21
133.0527108396
 31
0.0
  0
LINE
  5
201
330
1FB
100
AcDbEntity
  8
VERMASSUNG
100
AcDbLine
 10
219.7604250522
 20
118.4447884919
 30
0.0
 11
219.7604250522
 21
133.0527108396
 31
0.0
  0
LINE
  5
202
330
1FB
100
AcDbEntity
  8
VERMASSUNG
100
AcDbLine
 10
164.7604250522
 20
132.0527108396
 30
0.0
 11
219.7604250522
 21
132.0527108396
 31
0.0
  0
MTEXT
  5
203
330
1FB
100
AcDbEntity
  8
VERMASSUNG
100
AcDbMText
 10
190.8616710894
 20
134.6308462027
 30
0.0
 40
2.0
 41
0.0
 71
     1
 72
     1
  1
55
  7
SLDTEXTSTYLE0
 73
     1
 44
1.0
  0
ENDBLK
  5
1FD
330
1FB
100
AcDbEntity
  8
0
100
AcDbBlockEnd
  0
BLOCK
  5
206
330
205
100
AcDbEntity
  8
0
100
AcDbBlockBegin
  2
_D_5
 70
     0
 10
0.0
 20
0.0
 30
0.0
  3
_D_5
  1

  0
SOLID
  5
208
330
205
100
AcDbEntity
  8
VERMASSUNG
100
AcDbTrace
 10
184.7104250522
 20
126.0527108396
 30
0.0
 11
187.7104250522
 21
125.6027108396
 31
0.0
 12
187.7104250522
 22
126.5027108396
 32
0.0
 13
187.7104250522
 23
126.5027108396
 33
0.0
  0
SOLID
  5
209
330
205
100
AcDbEntity
  8
VERMASSUNG
100
AcDbTrace
 10
219.7604250522
 20
126.0527108396
 30
0.0
 11
216.7604250522
 21
126.5027108396
 31
0.0
 12
216.7604250522
 22
125.6027108396
 32
0.0
 13
216.7604250522
 23
125.6027108396
 33
0.0
  0
LINE
  5
20A
330
205
100
AcDbEntity
  8
VERMASSUNG
100
AcDbLine
 10
184.7104250522
 20
114.2947884919
 30
0.0
 11
184.7104250522
 21
127.0527108396
 31
0.0
  0
LINE
  5
20B
330
205
100
AcDbEntity
  8
VERMASSUNG
100
AcDbLine
 10
219.7604250522
 20
118.4447884919
 30
0.0
 11
219.7604250522
 21
127.0527108396
 31
0.0
  0
LINE
  5
20C
330
205
100
AcDbEntity
  8
VERMASSUNG
100
AcDbLine
 10
184.7104250522
 20
126.0527108396
 30
0.0
 11
219.7604250522
 21
126.0527108396
 31
0.0
  0
MTEXT
  5
20D
330
205
100
AcDbEntity
  8
VERMASSUNG
100
AcDbMText
 10
199.1355525097
 20
128.6308462027
 30
0.0
 40
2.0
 41
0.0
 71
     1
 72
     1
  1
35.05
  7
SLDTEXTSTYLE0
 73
     1
 44
1.0
  0
ENDBLK
  5
207
330
205
100
AcDbEntity
  8
0
100
AcDbBlockEnd
  0
BLOCK
  5
210
330
20F
100
AcDbEntity
  8
0
100
AcDbBlockBegin
  2
_D_6
 70
     0
 10
0.0
 20
0.0
 30
0.0
  3
_D_6
  1

  0
SOLID
  5
212
330
20F
100
AcDbEntity
  8
VERMASSUNG
100
AcDbTrace
 10
219.7604250522
 20
73.9605809418
 30
0.0
 11
216.7604250522
 21
74.4105809418
 31
0.0
 12
216.7604250522
 22
73.5105809418
 32
0.0
 13
216.7604250522
 23
73.5105809418
 33
0.0
  0
SOLID
  5
213
330
20F
100
AcDbEntity
  8
VERMASSUNG
100
AcDbTrace
 10
183.7604250522
 20
73.9605809418
 30
0.0
 11
186.7604250522
 21
73.5105809418
 31
0.0
 12
186.7604250522
 22
74.4105809418
 32
0.0
 13
186.7604250522
 23
74.4105809418
 33
0.0
  0
LINE
  5
214
330
20F
100
AcDbEntity
  8
VERMASSUNG
100
AcDbLine
 10
219.7604250522
 20
86.4447884919
 30
0.0
 11
219.7604250522
 21
72.9605809418
 31
0.0
  0
LINE
  5
215
330
20F
100
AcDbEntity
  8
VERMASSUNG
100
AcDbLine
 10
183.7604250522
 20
99.5447884919
 30
0.0
 11
183.7604250522
 21
72.9605809418
 31
0.0
  0
LINE
  5
216
330
20F
100
AcDbEntity
  8
VERMASSUNG
100
AcDbLine
 10
219.7604250522
 20
73.9605809418
 30
0.0
 11
183.7604250522
 21
73.9605809418
 31
0.0
  0
MTEXT
  5
217
330
20F
100
AcDbEntity
  8
VERMASSUNG
100
AcDbMText
 10
200.3616710894
 20
76.5387163049
 30
0.0
 40
2.0
 41
0.0
 71
     1
 72
     1
  1
36
  7
SLDTEXTSTYLE0
 73
     1
 44
1.0
  0
ENDBLK
  5
211
330
20F
100
AcDbEntity
  8
0
100
AcDbBlockEnd
  0
BLOCK
  5
21A
330
219
100
AcDbEntity
  8
0
100
AcDbBlockBegin
  2
_D_7
 70
     0
 10
0.0
 20
0.0
 30
0.0
  3
_D_7
  1

  0
SOLID
  5
21C
330
219
100
AcDbEntity
  8
VERMASSUNG
100
AcDbTrace
 10
219.7604250522
 20
78.8168881326
 30
0.0
 11
216.7604250522
 21
79.2668881326
 31
0.0
 12
216.7604250522
 22
78.3668881326
 32
0.0
 13
216.7604250522
 23
78.3668881326
 33
0.0
  0
SOLID
  5
21D
330
219
100
AcDbEntity
  8
VERMASSUNG
100
AcDbTrace
 10
211.7604250522
 20
78.8168881326
 30
0.0
 11
214.7604250522
 21
78.3668881326
 31
0.0
 12
214.7604250522
 22
79.2668881326
 32
0.0
 13
214.7604250522
 23
79.2668881326
 33
0.0
  0
LINE
  5
21E
330
219
100
AcDbEntity
  8
VERMASSUNG
100
AcDbLine
 10
219.7604250522
 20
86.4447884919
 30
0.0
 11
219.7604250522
 21
77.8168881326
 31
0.0
  0
LINE
  5
21F
330
219
100
AcDbEntity
  8
VERMASSUNG
100
AcDbLine
 10
211.7604250522
 20
103.4447884919
 30
0.0
 11
211.7604250522
 21
77.8168881326
 31
0.0
  0
LINE
  5
220
330
219
100
AcDbEntity
  8
VERMASSUNG
100
AcDbLine
 10
219.7604250522
 20
78.8168881326
 30
0.0
 11
211.7604250522
 21
78.8168881326
 31
0.0
  0
MTEXT
  5
221
330
219
100
AcDbEntity
  8
VERMASSUNG
100
AcDbMText
 10
215.0616832906
 20
81.3950234958
 30
0.0
 40
2.0
 41
0.0
 71
     1
 72
     1
  1
8
  7
SLDTEXTSTYLE0
 73
     1
 44
1.0
  0
ENDBLK
  5
21B
330
219
100
AcDbEntity
  8
0
100
AcDbBlockEnd
  0
BLOCK
  5
224
330
223
100
AcDbEntity
  8
0
100
AcDbBlockBegin
  2
_D_8
 70
     0
 10
0.0
 20
0.0
 30
0.0
  3
_D_8
  1

  0
SOLID
  5
226
330
223
100
AcDbEntity
  8
VERMASSUNG
100
AcDbTrace
 10
211.7604250522
 20
78.8168881326
 30
0.0
 11
208.7604250522
 21
79.2668881326
 31
0.0
 12
208.7604250522
 22
78.3668881326
 32
0.0
 13
208.7604250522
 23
78.3668881326
 33
0.0
  0
SOLID
  5
227
330
223
100
AcDbEntity
  8
VERMASSUNG
100
AcDbTrace
 10
201.7604250522
 20
78.8168881326
 30
0.0
 11
204.7604250522
 21
78.3668881326
 31
0.0
 12
204.7604250522
 22
79.2668881326
 32
0.0
 13
204.7604250522
 23
79.2668881326
 33
0.0
  0
LINE
  5
228
330
223
100
AcDbEntity
  8
VERMASSUNG
100
AcDbLine
 10
211.7604250522
 20
103.4447884919
 30
0.0
 11
211.7604250522
 21
77.8168881326
 31
0.0
  0
LINE
  5
229
330
223
100
AcDbEntity
  8
VERMASSUNG
100
AcDbLine
 10
201.7604250522
 20
103.4447884919
 30
0.0
 11
201.7604250522
 21
77.8168881326
 31
0.0
  0
LINE
  5
22A
330
223
100
AcDbEntity
  8
VERMASSUNG
100
AcDbLine
 10
211.7604250522
 20
78.8168881326
 30
0.0
 11
201.7604250522
 21
78.8168881326
 31
0.0
  0
MTEXT
  5
22B
330
223
100
AcDbEntity
  8
VERMASSUNG
100
AcDbMText
 10
205.5611301013
 20
81.3950234958
 30
0.0
 40
2.0
 41
0.0
 71
     1
 72
     1
  1
10
  7
SLDTEXTSTYLE0
 73
     1
 44
1.0
  0
ENDBLK
  5
225
330
223
100
AcDbEntity
  8
0
100
AcDbBlockEnd
  0
BLOCK
  5
22E
330
22D
100
AcDbEntity
  8
0
100
AcDbBlockBegin
  2
_D_9
 70
     0
 10
0.0
 20
0.0
 30
0.0
  3
_D_9
  1

  0
SOLID
  5
230
330
22D
100
AcDbEntity
  8
VERMASSUNG
100
AcDbTrace
 10
201.7604250522
 20
78.8168881326
 30
0.0
 11
198.7604250522
 21
79.2668881326
 31
0.0
 12
198.7604250522
 22
78.3668881326
 32
0.0
 13
198.7604250522
 23
78.3668881326
 33
0.0
  0
SOLID
  5
231
330
22D
100
AcDbEntity
  8
VERMASSUNG
100
AcDbTrace
 10
191.7604250522
 20
78.8168881326
 30
0.0
 11
194.7604250522
 21
78.3668881326
 31
0.0
 12
194.7604250522
 22
79.2668881326
 32
0.0
 13
194.7604250522
 23
79.2668881326
 33
0.0
  0
LINE
  5
232
330
22D
100
AcDbEntity
  8
VERMASSUNG
100
AcDbLine
 10
201.7604250522
 20
103.4447884919
 30
0.0
 11
201.7604250522
 21
77.8168881326
 31
0.0
  0
LINE
  5
233
330
22D
100
AcDbEntity
  8
VERMASSUNG
100
AcDbLine
 10
191.7604250522
 20
103.4447884919
 30
0.0
 11
191.7604250522
 21
77.8168881326
 31
0.0
  0
LINE
  5
234
330
22D
100
AcDbEntity
  8
VERMASSUNG
100
AcDbLine
 10
201.7604250522
 20
78.8168881326
 30
0.0
 11
191.7604250522
 21
78.8168881326
 31
0.0
  0
MTEXT
  5
235
330
22D
100
AcDbEntity
  8
VERMASSUNG
100
AcDbMText
 10
195.5611301013
 20
81.3950234958
 30
0.0
 40
2.0
 41
0.0
 71
     1
 72
     1
  1
10
  7
SLDTEXTSTYLE0
 73
     1
 44
1.0
  0
ENDBLK
  5
22F
330
22D
100
AcDbEntity
  8
0
100
AcDbBlockEnd
  0
BLOCK
  5
2E6
330
2E5
100
AcDbEntity
  8
0
100
AcDbBlockBegin
  2
SW_CENTERMARKSYMBOL_0
 70
     0
 10
0.0
 20
0.0
 30
0.0
  3
SW_CENTERMARKSYMBOL_0
  1

  0
LINE
  5
2E8
330
2E5
100
AcDbEntity
  8
VERMASSUNG
 62
     0
100
AcDbLine
 10
0.0
 20
0.0
 30
0.0
 11
0.0
 21
2.5
 31
0.0
  0
LINE
  5
2E9
330
2E5
100
AcDbEntity
  8
VERMASSUNG
 62
     0
100
AcDbLine
 10
0.0
 20
0.0
 30
0.0
 11
-2.5
 21
0.0
 31
0.0
  0
LINE
  5
2EA
330
2E5
100
AcDbEntity
  8
VERMASSUNG
 62
     0
100
AcDbLine
 10
0.0
 20
0.0
 30
0.0
 11
0.0
 21
-2.5
 31
0.0
  0
LINE
  5
2EB
330
2E5
100
AcDbEntity
  8
VERMASSUNG
 62
     0
100
AcDbLine
 10
0.0
 20
0.0
 30
0.0
 11
2.5
 21
0.0
 31
0.0
  0
LINE
  5
2EC
330
2E5
100
AcDbEntity
  8
VERMASSUNG
 62
     0
100
AcDbLine
 10
0.0
 20
5.0
 30
0.0
 11
0.0
 21
22.5
 31
0.0
  0
LINE
  5
2ED
330
2E5
100
AcDbEntity
  8
VERMASSUNG
 62
     0
100
AcDbLine
 10
-5.0
 20
0.0
 30
0.0
 11
-22.5
 21
0.0
 31
0.0
  0
LINE
  5
2EE
330
2E5
100
AcDbEntity
  8
VERMASSUNG
 62
     0
100
AcDbLine
 10
0.0
 20
-5.0
 30
0.0
 11
0.0
 21
-22.5
 31
0.0
  0
LINE
  5
2EF
330
2E5
100
AcDbEntity
  8
VERMASSUNG
 62
     0
100
AcDbLine
 10
5.0
 20
0.0
 30
0.0
 11
22.5
 21
0.0
 31
0.0
  0
ENDBLK
  5
2E7
330
2E5
100
AcDbEntity
  8
0
100
AcDbBlockEnd
  0
ENDSEC
  0
SECTION
  2
ENTITIES
  0
MTEXT
  5
49
330
1F
100
AcDbEntity
  8
KOPF_DÜNN
100
AcDbMText
 10
13.8892156294
 20
23.8442973028
 30
0.0
 40
3.0
 41
0.0
 71
     1
 72
     1
  1
HA4.B06.K01.055
  7
SLDTEXTSTYLE0
 73
     1
 44
1.0
  0
MTEXT
  5
4A
330
1F
100
AcDbEntity
  8
VERMASSUNG
100
AcDbMText
 10
13.9329988022
 20
28.8834360957
 30
0.0
 40
3.0
 41
0.0
 71
     1
 72
     1
  1
Bohrstangenhalter_Boring bar holder
  7
SLDTEXTSTYLE0
 73
     1
 44
1.0
  0
MTEXT
  5
4B
330
1F
100
AcDbEntity
  8
VERMASSUNG
100
AcDbMText
 10
98.8601118557
 20
13.8365368179
 30
0.0
 40
2.0
 41
0.0
 71
     1
 72
     1
  1
Datum: 09.02.2009
  7
SLDTEXTSTYLE0
 73
     1
 44
1.0
  0
MTEXT
  5
4D
330
1F
100
AcDbEntity
  8
VERMASSUNG
100
AcDbMText
 10
13.933048693
 20
18.0482802738
 30
0.0
 40
2.0
 41
0.0
 71
     1
 72
     1
  1
DIN 69893 HSK 40 A ICTM / ø6
  7
SLDTEXTSTYLE1
 73
     1
 44
1.0
  0
MTEXT
  5
4E
330
1F
100
AcDbEntity
  8
VERMASSUNG
100
AcDbMText
 10
13.9808475933
 20
13.9090973692
 30
0.0
 40
2.0
 41
0.0
 71
     1
 72
     1
  1
Gewicht: 407g
  7
SLDTEXTSTYLE0
 73
     1
 44
1.0
  0
LINE
  5
4F
330
1F
100
AcDbEntity
  8
0
  6
Continuous
 62
     7
370
    15
100
AcDbLine
 10
165.0604250665
 20
82.4447889389
 30
0.0
 11
172.7104255171
 21
82.4447889389
 31
0.0
  0
LINE
  5
50
330
1F
100
AcDbEntity
  8
0
  6
Continuous
 62
     7
370
    15
100
AcDbLine
 10
172.7259525271
 20
122.4447880448
 30
0.0
 11
165.0604250665
 21
122.4447880448
 31
0.0
  0
ARC
  5
51
330
1F
100
AcDbEntity
  8
0
  6
Continuous
 62
     7
370
    15
100
AcDbCircle
 10
165.0604250522
 20
82.7447884919
 30
0.0
 40
0.3000000000000114
100
AcDbArc
 50
180.0
 51
270.0
  0
ARC
  5
52
330
1F
100
AcDbEntity
  8
0
  6
Continuous
 62
     7
370
    15
100
AcDbCircle
 10
165.0604250522
 20
122.1447884919
 30
0.0
 40
0.3000000000000114
100
AcDbArc
 50
90.0
 51
180.0
  0
ARC
  5
53
330
1F
100
AcDbEntity
  8
0
  6
Continuous
 62
     7
370
    15
100
AcDbCircle
 10
185.7104250522
 20
84.9447884919
 30
0.0
 40
1.000000000000015
100
AcDbArc
 50
90.0
 51
143.1137328946
  0
ARC
  5
54
330
1F
100
AcDbEntity
  8
0
  6
Continuous
 62
     7
370
    15
100
AcDbCircle
 10
185.7104250522
 20
119.9447884919
 30
0.0
 40
1.000000000000011
100
AcDbArc
 50
216.8998129703
 51
270.0
  0
LINE
  5
55
330
1F
100
AcDbEntity
  8
0
  6
Continuous
 62
     7
370
    15
100
AcDbLine
 10
209.2629962774
 20
119.4447894157
 30
0.0
 11
204.228061548
 21
119.4447894157
 31
0.0
  0
LINE
  5
56
330
1F
100
AcDbEntity
  8
0
  6
Continuous
 62
     7
370
    15
100
AcDbLine
 10
218.7604264529
 20
119.4447894157
 30
0.0
 11
214.2291844995
 21
119.4447894157
 31
0.0
  0
LINE
  5
57
330
1F
100
AcDbEntity
  8
0
  6
Continuous
 62
     7
370
    15
100
AcDbLine
 10
200.4218616696
 20
85.444787568
 30
0.0
 11
218.7604264529
 21
85.444787568
 31
0.0
  0
ARC
  5
58
330
1F
100
AcDbEntity
  8
0
  6
Continuous
 62
     7
370
    15
100
AcDbCircle
 10
218.7604250522
 20
118.4447884919
 30
0.0
 40
1.0
100
AcDbArc
 50
0.0
 51
90.0
  0
ARC
  5
59
330
1F
100
AcDbEntity
  8
0
  6
Continuous
 62
     7
370
    15
100
AcDbCircle
 10
218.7604250522
 20
86.4447884919
 30
0.0
 40
1.0
100
AcDbArc
 50
270.0
 51
0.0
  0
ARC
  5
5A
330
1F
100
AcDbEntity
  8
0
  6
Continuous
 62
     7
370
    15
100
AcDbCircle
 10
200.42186288
 20
86.4447884919
 30
0.0
 40
1.00000000000002
100
AcDbArc
 50
228.5903778907
 51
270.0
  0
ARC
  5
5B
330
1F
100
AcDbEntity
  8
0
  6
Continuous
 62
     7
370
    15
100
AcDbCircle
 10
199.0989872244
 20
119.9447884919
 30
0.0
 40
1.0
100
AcDbArc
 50
270.0
 51
280.9799519123
  0
ARC
  5
5C
330
1F
100
AcDbEntity
  8
0
  6
Continuous
 62
     7
370
    15
100
AcDbCircle
 10
199.0989872244
 20
84.9447884919
 30
0.0
 40
1.0
100
AcDbArc
 50
48.5903778907
 51
90.0
  0
LINE
  5
5D
330
1F
100
AcDbEntity
  8
0
  6
Continuous
 62
     7
370
    15
100
AcDbLine
 10
185.7104257853
 20
85.9447885813
 30
0.0
 11
199.0989887329
 21
85.9447885813
 31
0.0
  0
LINE
  5
5E
330
1F
100
AcDbEntity
  8
0
  6
Continuous
 62
     7
370
    15
100
AcDbLine
 10
189.2916162671
 20
118.9447884024
 30
0.0
 11
185.7104257853
 21
118.9447884024
 31
0.0
  0
LINE
  5
5F
330
1F
100
AcDbEntity
  8
0
  6
Continuous
 62
     7
370
    15
100
AcDbLine
 10
199.0989887329
 20
118.9447884024
 30
0.0
 11
194.2574338229
 21
118.9447884024
 31
0.0
  0
ARC
  5
60
330
1F
100
AcDbEntity
  8
0
  6
Continuous
 62
     7
370
    15
100
AcDbCircle
 10
164.2604182995
 20
86.9910813384
 30
0.0
 40
0.6000067526677203
100
AcDbArc
 50
33.5571153394
 51
90.0
  0
ARC
  5
61
330
1F
100
AcDbEntity
  8
0
  6
Continuous
 62
     7
370
    15
100
AcDbCircle
 10
164.2604182995
 20
117.8984956453
 30
0.0
 40
0.6000067526677203
100
AcDbArc
 50
270.0
 51
326.4428846606
  0
LINE
  5
62
330
1F
100
AcDbEntity
  8
0
  6
Continuous
 62
     7
370
    15
100
AcDbLine
 10
162.7604249572
 20
87.3410879211
 30
0.0
 11
163.6171369521
 21
87.5706431032
 31
0.0
  0
LINE
  5
63
330
1F
100
AcDbEntity
  8
0
  6
Continuous
 62
     7
370
    15
100
AcDbLine
 10
163.6171369521
 20
117.3189338805
 30
0.0
 11
162.7604249572
 21
117.5484890626
 31
0.0
  0
LINE
  5
64
330
1F
100
AcDbEntity
  8
0
  6
Continuous
 62
     7
370
    15
100
AcDbLine
 10
155.9444920333
 20
117.2070093961
 30
0.0
 11
148.4604248019
 21
116.8320561336
 31
0.0
  0
LINE
  5
65
330
1F
100
AcDbEntity
  8
0
  6
Continuous
 62
     7
370
    15
100
AcDbLine
 10
162.7604249572
 20
117.5484890626
 30
0.0
 11
161.5256923889
 21
117.4866287546
 31
0.0
  0
LINE
  5
66
330
1F
100
AcDbEntity
  8
0
  6
Continuous
 62
     7
370
    15
100
AcDbLine
 10
161.5266884384
 20
87.402898869
 30
0.0
 11
162.7604249572
 21
87.3410879211
 31
0.0
  0
LINE
  5
67
330
1F
100
AcDbEntity
  8
0
  6
Continuous
 62
     7
370
    15
100
AcDbLine
 10
150.9604252116
 20
87.932270071
 30
0.0
 11
155.9449549006
 21
87.6825443046
 31
0.0
  0
ARC
  5
68
330
1F
100
AcDbEntity
  8
0
  6
Continuous
 62
     7
370
    15
100
AcDbCircle
 10
163.7724301417
 20
86.9910813384
 30
0.0
 40
0.600006752667717
100
AcDbArc
 50
90.0
 51
105.0
  0
ARC
  5
69
330
1F
100
AcDbEntity
  8
0
  6
Continuous
 62
     7
370
    15
100
AcDbCircle
 10
163.7724301417
 20
117.8984956453
 30
0.0
 40
0.600006752667717
100
AcDbArc
 50
255.0
 51
270.0
  0
LINE
  5
6A
330
1F
100
AcDbEntity
  8
0
  6
Continuous
 62
     7
370
    15
100
AcDbLine
 10
163.7724301019
 20
87.5910884277
 30
0.0
 11
164.2604182764
 21
87.5910884277
 31
0.0
  0
LINE
  5
6B
330
1F
100
AcDbEntity
  8
0
  6
Continuous
 62
     7
370
    15
100
AcDbLine
 10
164.2604182764
 20
117.298488556
 30
0.0
 11
163.7724301019
 21
117.298488556
 31
0.0
  0
ARC
  5
6C
330
1F
100
AcDbEntity
  8
0
  6
Continuous
 62
     7
370
    15
100
AcDbCircle
 10
147.5604250522
 20
116.2247884919
 30
0.0
 40
0.8999999999999915
100
AcDbArc
 50
270.0
 51
311.1792132368
  0
ARC
  5
6D
330
1F
100
AcDbEntity
  8
0
  6
Continuous
 62
     7
370
    15
100
AcDbCircle
 10
150.0604250522
 20
88.6647884919
 30
0.0
 40
0.9000000000000057
100
AcDbArc
 50
34.6391318474
 51
90.0
  0
LINE
  5
6E
330
1F
100
AcDbEntity
  8
0
  6
Continuous
 62
     7
370
    15
100
AcDbLine
 10
145.8104246469
 20
115.3247887777
 30
0.0
 11
144.8604253294
 21
114.3747885288
 31
0.0
  0
LINE
  5
6F
330
1F
100
AcDbEntity
  8
0
  6
Continuous
 62
     7
370
    15
100
AcDbLine
 10
147.5604244681
 20
115.3247887777
 30
0.0
 11
145.8104246469
 21
115.3247887777
 31
0.0
  0
LINE
  5
70
330
1F
100
AcDbEntity
  8
0
  6
Continuous
 62
     7
370
    15
100
AcDbLine
 10
145.8694257946
 20
89.564788206
 30
0.0
 11
150.0604248779
 21
89.564788206
 31
0.0
  0
LINE
  5
71
330
1F
100
AcDbEntity
  8
0
  6
Continuous
 62
     7
370
    15
100
AcDbLine
 10
144.8604253294
 20
90.5737886713
 30
0.0
 11
145.8694257946
 21
89.564788206
 31
0.0
  0
CIRCLE
  5
72
330
1F
100
AcDbEntity
  8
0
  6
Continuous
 62
     7
370
    15
100
AcDbCircle
 10
211.7604250522
 20
102.4447884919
 30
0.0
 40
2.445500000000001
  0
LINE
  5
73
330
1F
100
AcDbEntity
  8
0
  6
Continuous
 62
     7
370
    15
100
AcDbLine
 10
213.2039883347
 20
103.4019308789
 30
0.0
 11
211.6532989951
 21
104.1735231919
 31
0.0
  0
LINE
  5
74
330
1F
100
AcDbEntity
  8
0
  6
Continuous
 62
     7
370
    15
100
AcDbLine
 10
210.2097341032
 20
103.216380863
 30
0.0
 11
211.6532989951
 21
104.1735231919
 31
0.0
  0
LINE
  5
75
330
1F
100
AcDbEntity
  8
0
  6
Continuous
 62
     7
370
    15
100
AcDbLine
 10
210.3168622764
 20
101.4876461048
 30
0.0
 11
210.2097341032
 21
103.216380863
 31
0.0
  0
LINE
  5
76
330
1F
100
AcDbEntity
  8
0
  6
Continuous
 62
     7
370
    15
100
AcDbLine
 10
210.3168622764
 20
101.4876461048
 30
0.0
 11
211.867551616
 21
100.7160537918
 31
0.0
  0
LINE
  5
77
330
1F
100
AcDbEntity
  8
0
  6
Continuous
 62
     7
370
    15
100
AcDbLine
 10
213.3111165078
 20
101.6731961207
 30
0.0
 11
211.867551616
 21
100.7160537918
 31
0.0
  0
LINE
  5
78
330
1F
100
AcDbEntity
  8
0
  6
Continuous
 62
     7
370
    15
100
AcDbLine
 10
213.3111165078
 20
101.6731961207
 30
0.0
 11
213.2039883347
 21
103.4019308789
 31
0.0
  0
CIRCLE
  5
79
330
1F
100
AcDbEntity
  8
0
  6
Continuous
 62
     7
370
    15
100
AcDbCircle
 10
191.7604250522
 20
102.4447884919
 30
0.0
 40
2.445500000000003
  0
LINE
  5
7A
330
1F
100
AcDbEntity
  8
0
  6
Continuous
 62
     7
370
    15
100
AcDbLine
 10
193.2039887817
 20
103.4019308789
 30
0.0
 11
191.6532975794
 21
104.1735231919
 31
0.0
  0
LINE
  5
7B
330
1F
100
AcDbEntity
  8
0
  6
Continuous
 62
     7
370
    15
100
AcDbLine
 10
190.2097326876
 20
103.216380863
 30
0.0
 11
191.6532975794
 21
104.1735231919
 31
0.0
  0
LINE
  5
7C
330
1F
100
AcDbEntity
  8
0
  6
Continuous
 62
     7
370
    15
100
AcDbLine
 10
190.3168608607
 20
101.4876461048
 30
0.0
 11
190.2097326876
 21
103.216380863
 31
0.0
  0
LINE
  5
7D
330
1F
100
AcDbEntity
  8
0
  6
Continuous
 62
     7
370
    15
100
AcDbLine
 10
190.3168608607
 20
101.4876461048
 30
0.0
 11
191.867552063
 21
100.7160537918
 31
0.0
  0
LINE
  5
7E
330
1F
100
AcDbEntity
  8
0
  6
Continuous
 62
     7
370
    15
100
AcDbLine
 10
193.3111169548
 20
101.6731961207
 30
0.0
 11
191.867552063
 21
100.7160537918
 31
0.0
  0
LINE
  5
7F
330
1F
100
AcDbEntity
  8
0
  6
Continuous
 62
     7
370
    15
100
AcDbLine
 10
193.3111169548
 20
101.6731961207
 30
0.0
 11
193.2039887817
 21
103.4019308789
 31
0.0
  0
LINE
  5
80
330
1F
100
AcDbEntity
  8
0
  6
Continuous
 62
     7
370
    15
100
AcDbLine
 10
191.9116799893
 20
118.7812015922
 30
0.0
 11
192.6307243468
 21
118.7812015922
 31
0.0
  0
LINE
  5
81
330
1F
100
AcDbEntity
  8
0
  6
Continuous
 62
     7
370
    15
100
AcDbLine
 10
190.8426110806
 20
118.7812015922
 30
0.0
 11
191.9116799893
 21
118.7812015922
 31
0.0
  0
CIRCLE
  5
82
330
1F
100
AcDbEntity
  8
0
  6
Continuous
 62
     7
370
    15
100
AcDbCircle
 10
201.7604250522
 20
102.4447884919
 30
0.0
 40
2.445499999999999
  0
LINE
  5
83
330
1F
100
AcDbEntity
  8
0
  6
Continuous
 62
     7
370
    15
100
AcDbLine
 10
203.2039904209
 20
103.4019308789
 30
0.0
 11
201.6532973559
 21
104.1735231919
 31
0.0
  0
LINE
  5
84
330
1F
100
AcDbEntity
  8
0
  6
Continuous
 62
     7
370
    15
100
AcDbLine
 10
200.2097324641
 20
103.216380863
 30
0.0
 11
201.6532973559
 21
104.1735231919
 31
0.0
  0
LINE
  5
85
330
1F
100
AcDbEntity
  8
0
  6
Continuous
 62
     7
370
    15
100
AcDbLine
 10
200.3168606372
 20
101.4876461048
 30
0.0
 11
200.2097324641
 21
103.216380863
 31
0.0
  0
LINE
  5
86
330
1F
100
AcDbEntity
  8
0
  6
Continuous
 62
     7
370
    15
100
AcDbLine
 10
200.3168606372
 20
101.4876461048
 30
0.0
 11
201.8675537022
 21
100.7160537918
 31
0.0
  0
LINE
  5
87
330
1F
100
AcDbEntity
  8
0
  6
Continuous
 62
     7
370
    15
100
AcDbLine
 10
203.311118594
 20
101.6731961207
 30
0.0
 11
201.8675537022
 21
100.7160537918
 31
0.0
  0
LINE
  5
88
330
1F
100
AcDbEntity
  8
0
  6
Continuous
 62
     7
370
    15
100
AcDbLine
 10
203.311118594
 20
101.6731961207
 30
0.0
 11
203.2039904209
 21
103.4019308789
 31
0.0
  0
LINE
  5
89
330
1F
100
AcDbEntity
  8
0
  6
Continuous
 62
     7
370
    15
100
AcDbLine
 10
179.7204253437
 20
85.0156657906
 30
0.0
 11
179.7204253437
 21
114.294788851
 31
0.0
  0
SPLINE
  5
8A
330
1F
100
AcDbEntity
  8
0
  6
Continuous
 62
     7
370
    15
100
AcDbSpline
210
0.0
220
0.0
230
1.0
 70
     8
 71
     3
 72
     8
 73
     4
 74
     0
 42
0.00000001
 43
0.00000001
 12
1.0
 22
0.0
 32
0.0
 13
1.0
 23
0.0
 33
0.0
 40
0.0
 40
0.0
 40
0.0
 40
0.0
 40
1.0
 40
1.0
 40
1.0
 40
1.0
 10
179.7204250522048
 20
85.01566510386105
 30
0.0
 10
179.3897864255902
 20
84.41514475275007
 30
0.0
 10
179.0579706250167
 20
83.81527564204502
 30
0.0
 10
178.7252653533114
 20
83.21590396882137
 30
0.0
  0
LINE
  5
8B
330
1F
100
AcDbEntity
  8
0
  6
Continuous
 62
     7
370
    15
100
AcDbLine
 10
178.7252652632
 20
83.2159035416
 30
0.0
 11
178.7252652632
 21
114.294788851
 31
0.0
  0
SPLINE
  5
8C
330
1F
100
AcDbEntity
  8
0
  6
Continuous
 62
     7
370
    15
100
AcDbSpline
210
0.0
220
0.0
230
1.0
 70
    24
 71
     3
 72
     8
 73
     4
 74
     0
 42
0.00000001
 43
0.00000001
 12
1.0
 22
0.0
 32
0.0
 13
1.0
 23
0.0
 33
0.0
 40
0.0
 40
0.0
 40
0.0
 40
0.0
 40
1.0
 40
1.0
 40
1.0
 40
1.0
 10
178.7252653533114
 20
114.2947884918508
 30
0.0
 10
179.064298175066
 20
114.2947884918508
 30
0.0
 10
179.3967883965826
 20
114.2947884918508
 30
0.0
 10
179.7204250522048
 20
114.2947884918508
 30
0.0
  0
LINE
  5
8D
330
1F
100
AcDbEntity
  8
0
  6
Continuous
 62
     7
370
    15
100
AcDbLine
 10
184.7104256214
 20
83.8407557966
 30
0.0
 11
184.7104256214
 21
114.294788851
 31
0.0
  0
SPLINE
  5
8E
330
1F
100
AcDbEntity
  8
0
  6
Continuous
 62
     7
370
    15
100
AcDbSpline
210
0.0
220
0.0
230
1.0
 70
     8
 71
     3
 72
    10
 73
     6
 74
     0
 42
0.00000001
 43
0.00000001
 12
1.0
 22
0.0
 32
0.0
 13
1.0
 23
0.0
 33
0.0
 40
0.0
 40
0.0
 40
0.0
 40
0.0
 40
0.5
 40
0.5
 40
1.0
 40
1.0
 40
1.0
 40
1.0
 10
184.7104250522048
 20
83.84075667076425
 30
0.0
 10
184.7104250522048
 20
83.68112450186102
 30
0.0
 10
184.6487885384995
 20
83.52007486809696
 30
0.0
 10
184.4297621722567
 20
83.28708398442036
 30
0.0
 10
184.2721452842092
 20
83.21590396882137
 30
0.0
 10
184.1104250522048
 20
83.21590396882137
 30
0.0
  0
SPLINE
  5
8F
330
1F
100
AcDbEntity
  8
0
  6
Continuous
 62
     7
370
    15
100
AcDbSpline
210
0.0
220
0.0
230
1.0
 70
    24
 71
     3
 72
    12
 73
     8
 74
     0
 42
0.00000001
 43
0.00000001
 12
1.0
 22
0.0
 32
0.0
 13
1.0
 23
0.0
 33
0.0
 40
0.0
 40
0.0
 40
0.0
 40
0.0
 40
0.250000000000002
 40
0.250000000000002
 40
0.500000000000004
 40
0.500000000000004
 40
1.0
 40
1.0
 40
1.0
 40
1.0
 10
184.1104250522048
 20
114.2947884918508
 30
0.0
 10
184.1986119175737
 20
114.2947884918508
 30
0.0
 10
184.287299310875
 20
114.2947884918508
 30
0.0
 10
184.4415518039938
 20
114.2947884918508
 30
0.0
 10
184.5068977850698
 20
114.2947884918508
 30
0.0
 10
184.6613076550209
 20
114.2947884918508
 30
0.0
 10
184.7104250522048
 20
114.2947884918508
 30
0.0
 10
184.7104250522048
 20
114.2947884918508
 30
0.0
  0
LINE
  5
90
330
1F
100
AcDbEntity
  8
0
  6
Continuous
 62
     7
370
    15
100
AcDbLine
 10
184.110424778
 20
83.2159035416
 30
0.0
 11
182.7955854298
 21
83.2159035416
 31
0.0
  0
LINE
  5
91
330
1F
100
AcDbEntity
  8
0
  6
Continuous
 62
     7
370
    15
100
AcDbLine
 10
182.7955854298
 20
83.2159035416
 30
0.0
 11
182.7955854298
 21
114.294788851
 31
0.0
  0
LINE
  5
92
330
1F
100
AcDbEntity
  8
0
  6
Continuous
 62
     7
370
    15
100
AcDbLine
 10
182.7955854298
 20
114.294788851
 30
0.0
 11
184.110424778
 21
114.294788851
 31
0.0
  0
SPLINE
  5
93
330
1F
100
AcDbEntity
  8
0
  6
Continuous
 62
     7
370
    15
100
AcDbSpline
210
0.0
220
0.0
230
1.0
 70
     8
 71
     3
 72
     8
 73
     4
 74
     0
 42
0.00000001
 43
0.00000001
 12
1.0
 22
0.0
 32
0.0
 13
1.0
 23
0.0
 33
0.0
 40
0.0
 40
0.0
 40
0.0
 40
0.0
 40
1.0
 40
1.0
 40
1.0
 40
1.0
 10
182.7955847510983
 20
83.21590396882137
 30
0.0
 10
182.4628794793929
 20
83.81527564204502
 30
0.0
 10
182.1310636788194
 20
84.41514475275007
 30
0.0
 10
181.8004250522048
 20
85.01566510386105
 30
0.0
  0
LINE
  5
94
330
1F
100
AcDbEntity
  8
0
  6
Continuous
 62
     7
370
    15
100
AcDbLine
 10
181.800424418
 20
85.0156657906
 30
0.0
 11
181.800424418
 21
114.294788851
 31
0.0
  0
SPLINE
  5
95
330
1F
100
AcDbEntity
  8
0
  6
Continuous
 62
     7
370
    15
100
AcDbSpline
210
0.0
220
0.0
230
1.0
 70
    24
 71
     3
 72
     8
 73
     4
 74
     0
 42
0.00000001
 43
0.00000001
 12
1.0
 22
0.0
 32
0.0
 13
1.0
 23
0.0
 33
0.0
 40
0.0
 40
0.0
 40
0.0
 40
0.0
 40
1.0
 40
1.0
 40
1.0
 40
1.0
 10
181.8004250522048
 20
114.2947884918508
 30
0.0
 10
182.1240617078271
 20
114.2947884918508
 30
0.0
 10
182.4565519293437
 20
114.2947884918508
 30
0.0
 10
182.7955847510983
 20
114.2947884918508
 30
0.0
  0
LINE
  5
96
330
1F
100
AcDbEntity
  8
0
  6
Continuous
 62
     7
370
    15
100
AcDbLine
 10
172.7104255171
 20
114.294788851
 30
0.0
 11
178.7252652632
 21
114.294788851
 31
0.0
  0
LINE
  5
97
330
1F
100
AcDbEntity
  8
0
  6
Continuous
 62
     7
370
    15
100
AcDbLine
 10
178.7252652632
 20
83.2159035416
 30
0.0
 11
177.2104253234
 21
83.2159035416
 31
0.0
  0
SPLINE
  5
98
330
1F
100
AcDbEntity
  8
0
  6
Continuous
 62
     7
370
    15
100
AcDbSpline
210
0.0
220
0.0
230
1.0
 70
     8
 71
     3
 72
    22
 73
    18
 74
     0
 42
0.00000001
 43
0.00000001
 12
1.0
 22
0.0
 32
0.0
 13
1.0
 23
0.0
 33
0.0
 40
0.0
 40
0.0
 40
0.0
 40
0.0
 40
0.125
 40
0.125
 40
0.25
 40
0.25
 40
0.375
 40
0.375
 40
0.5
 40
0.5
 40
0.625
 40
0.625
 40
0.75
 40
0.75
 40
0.875
 40
0.875
 40
1.0
 40
1.0
 40
1.0
 40
1.0
 10
177.2104250522048
 20
83.21590396882137
 30
0.0
 10
176.9113006231642
 20
83.21590396882137
 30
0.0
 10
176.6174781749154
 20
83.20738986775497
 30
0.0
 10
176.0399138986691
 20
83.17494609887308
 30
0.0
 10
175.7530962208551
 20
83.15061221017105
 30
0.0
 10
175.2086336919558
 20
83.09015218541421
 30
0.0
 10
174.9506784213345
 20
83.05423876463571
 30
0.0
 10
174.4626204779745
 20
82.97452873856659
 30
0.0
 10
174.2329221793108
 20
82.93065043737724
 30
0.0
 10
173.8205031963582
 20
82.84240681500707
 30
0.0
 10
173.6349762534981
 20
82.7975984735461
 30
0.0
 10
173.3064562085973
 20
82.71027746562693
 30
0.0
 10
173.1680423216978
 20
82.66898667705127
 30
0.0
 10
172.9434501750819
 20
82.59464845375744
 30
0.0
 10
172.8563713629576
 20
82.56123832802277
 30
0.0
 10
172.7398695550026
 20
82.50621892649663
 30
0.0
 10
172.7104250522048
 20
82.4847571600304
 30
0.0
 10
172.7104250522048
 20
82.4698041364126
 30
0.0
  0
LINE
  5
99
330
1F
100
AcDbEntity
  8
0
  6
Continuous
 62
     7
370
    15
100
AcDbLine
 10
172.7104255171
 20
82.4698042632
 30
0.0
 11
172.7104255171
 21
82.4447889389
 31
0.0
  0
SPLINE
  5
9A
330
1F
100
AcDbEntity
  8
0
  6
Continuous
 62
     7
370
    15
100
AcDbSpline
210
0.0
220
0.0
230
1.0
 70
     8
 71
     3
 72
    17
 73
    13
 74
     0
 42
0.00000001
 43
0.00000001
 12
1.0
 22
0.0
 32
0.0
 13
1.0
 23
0.0
 33
0.0
 40
0.0
 40
0.0
 40
0.0
 40
0.0
 40
0.1039928149931941
 40
0.211050797947968
 40
0.315030024669631
 40
0.4219351868122974
 40
0.5275775927633417
 40
0.6362134531400181
 40
0.7429488821168505
 40
0.8528788227495517
 40
0.9578277247781112
 40
1.0
 40
1.0
 40
1.0
 40
1.0
 10
177.210425323406
 20
121.9319645823297
 30
0.0
 10
176.964608239181
 20
121.9346804169227
 30
0.0
 10
176.4657286600645
 20
121.9401921348043
 30
0.0
 10
175.7422451165399
 20
121.9832758935799
 30
0.0
 10
175.0544497603321
 20
122.0471425057614
 30
0.0
 10
174.4297043881978
 20
122.1264780217863
 30
0.0
 10
173.8737535851355
 20
122.2134168135546
 30
0.0
 10
173.4117670785683
 20
122.2973764048735
 30
0.0
 10
173.0495019472966
 20
122.3705392739646
 30
0.0
 10
172.8177229765429
 20
122.4206763142562
 30
0.0
 10
172.7081570322597
 20
122.4452964116387
 30
0.0
 10
172.7219879076242
 20
122.4421912635734
 30
0.0
 10
172.7259525270851
 20
122.4413011730966
 30
0.0
  0
LINE
  5
9B
330
1F
100
AcDbEntity
  8
0
  6
Continuous
 62
     7
370
    15
100
AcDbLine
 10
178.7252652632
 20
121.9319645823
 30
0.0
 11
177.2104253234
 21
121.9319645823
 31
0.0
  0
LINE
  5
9C
330
1F
100
AcDbEntity
  8
0
  6
Continuous
 62
     7
370
    15
100
AcDbLine
 10
178.7252652632
 20
118.5561977835
 30
0.0
 11
178.7252652632
 21
121.9319645823
 31
0.0
  0
LINE
  5
9D
330
1F
100
AcDbEntity
  8
0
  6
Continuous
 62
     7
370
    15
100
AcDbLine
 10
177.2040951239
 20
118.5561977835
 30
0.0
 11
178.7252652632
 21
118.5561977835
 31
0.0
  0
SPLINE
  5
9E
330
1F
100
AcDbEntity
  8
0
  6
Continuous
 62
     7
370
    15
100
AcDbSpline
210
0.0
220
0.0
230
1.0
 70
     8
 71
     3
 72
    22
 73
    18
 74
     0
 42
0.00000001
 43
0.00000001
 12
1.0
 22
0.0
 32
0.0
 13
1.0
 23
0.0
 33
0.0
 40
0.0
 40
0.0
 40
0.0
 40
0.0
 40
0.2500000000000002
 40
0.2500000000000002
 40
0.3750000000000001
 40
0.3750000000000001
 40
0.5000000000000001
 40
0.5000000000000001
 40
0.6250000000000001
 40
0.6250000000000001
 40
0.75
 40
0.75
 40
0.875
 40
0.875
 40
0.9375000000000001
 40
0.9375000000000001
 40
1.0
 40
1.0
 40
1.0
 40
1.0
 10
172.7104250522048
 20
114.2947884918508
 30
0.0
 10
172.7324060701915
 20
114.8576611337488
 30
0.0
 10
172.8113829535462
 20
115.3882860174783
 30
0.0
 10
173.0577808465786
 20
116.1339970083999
 30
0.0
 10
173.1623054616695
 20
116.3756172347986
 30
0.0
 10
173.424152056976
 20
116.8344760101245
 30
0.0
 10
173.5793686791419
 20
117.0486546825943
 30
0.0
 10
173.9479604322057
 20
117.4458832417399
 30
0.0
 10
174.1640941246707
 20
117.6303280767597
 30
0.0
 10
174.6479886196576
 20
117.9514079246433
 30
0.0
 10
174.9184541646653
 20
118.0907587547493
 30
0.0
 10
175.5146807301755
 20
118.3200642891749
 30
0.0
 10
175.8301739968954
 20
118.4066002986512
 30
0.0
 10
176.330890644914
 20
118.4954899029825
 30
0.0
 10
176.5036870795291
 20
118.5182984088441
 30
0.0
 10
176.8520558523111
 20
118.5485895715403
 30
0.0
 10
177.0274568812216
 20
118.5561974929282
 30
0.0
 10
177.2040955269096
 20
118.5561974929282
 30
0.0
  0
LINE
  5
9F
330
1F
100
AcDbEntity
  8
0
  6
Continuous
 62
     7
370
    15
100
AcDbLine
 10
164.7604250522
 20
82.7447884293
 30
0.0
 11
164.7604250522
 21
122.1447885544
 31
0.0
  0
SPLINE
  5
A0
330
1F
100
AcDbEntity
  8
0
  6
Continuous
 62
     7
370
    15
100
AcDbSpline
210
0.0
220
0.0
230
1.0
 70
    24
 71
     3
 72
    16
 73
    12
 74
     0
 42
0.00000001
 43
0.00000001
 12
1.0
 22
0.0
 32
0.0
 13
1.0
 23
0.0
 33
0.0
 40
0.0
 40
0.0
 40
0.0
 40
0.0
 40
0.5000000000000001
 40
0.5000000000000001
 40
0.7499999999999993
 40
0.7499999999999993
 40
0.8749999999999983
 40
0.8749999999999983
 40
0.9374999999999991
 40
0.9374999999999991
 40
1.0
 40
1.0
 40
1.0
 40
1.0
 10
181.7652026516236
 20
85.54478849185078
 30
0.0
 10
181.7351662320969
 20
85.54478849185078
 30
0.0
 10
181.6885321348921
 20
85.54478849185078
 30
0.0
 10
181.5781477233134
 20
85.54478849185078
 30
0.0
 10
181.5348100747928
 20
85.54478849185078
 30
0.0
 10
181.4463284404082
 20
85.54478849185078
 30
0.0
 10
181.4129529357915
 20
85.54478849185078
 30
0.0
 10
181.348460726341
 20
85.54478849185078
 30
0.0
 10
181.3242563891544
 20
85.54478849185078
 30
0.0
 10
181.268502579344
 20
85.54478849185078
 30
0.0
 10
181.2349185532758
 20
85.54478849185078
 30
0.0
 10
181.2004250522048
 20
85.54478849185078
 30
0.0
  0
SPLINE
  5
A1
330
1F
100
AcDbEntity
  8
0
  6
Continuous
 62
     7
370
    15
100
AcDbSpline
210
0.0
220
0.0
230
1.0
 70
    24
 71
     3
 72
    12
 73
     8
 74
     0
 42
0.00000001
 43
0.00000001
 12
1.0
 22
0.0
 32
0.0
 13
1.0
 23
0.0
 33
0.0
 40
0.0
 40
0.0
 40
0.0
 40
0.0
 40
0.249999999999999
 40
0.249999999999999
 40
0.499999999999998
 40
0.499999999999998
 40
1.0
 40
1.0
 40
1.0
 40
1.0
 10
181.2004250522048
 20
114.2947884918508
 30
0.0
 10
181.2930831417111
 20
114.2947884918508
 30
0.0
 10
181.3851465512688
 20
114.2947884918508
 30
0.0
 10
181.5393041017595
 20
114.2947884918508
 30
0.0
 10
181.6037930351243
 20
114.2947884918508
 30
0.0
 10
181.7538445840738
 20
114.2947884918508
 30
0.0
 10
181.8004250522048
 20
114.2947884918508
 30
0.0
 10
181.8004250522048
 20
114.2947884918508
 30
0.0
  0
SPLINE
  5
A2
330
1F
100
AcDbEntity
  8
0
  6
Continuous
 62
     7
370
    15
100
AcDbSpline
210
0.0
220
0.0
230
1.0
 70
    24
 71
     3
 72
    16
 73
    12
 74
     0
 42
0.00000001
 43
0.00000001
 12
1.0
 22
0.0
 32
0.0
 13
1.0
 23
0.0
 33
0.0
 40
0.0
 40
0.0
 40
0.0
 40
0.0
 40
0.0625000000000002
 40
0.0625000000000002
 40
0.1250000000000005
 40
0.1250000000000005
 40
0.2500000000000009
 40
0.2500000000000009
 40
0.5000000000000004
 40
0.5000000000000004
 40
1.0
 40
1.0
 40
1.0
 40
1.0
 10
180.3204250521783
 20
85.54478849185078
 30
0.0
 10
180.2859463849931
 20
85.54478849185078
 30
0.0
 10
180.2521262081562
 20
85.54478849185078
 30
0.0
 10
180.1956041409725
 20
85.54478849185078
 30
0.0
 10
180.1712780614462
 20
85.54478849185078
 30
0.0
 10
180.106825161895
 20
85.54478849185078
 30
0.0
 10
180.0731968865364
 20
85.54478849185078
 30
0.0
 10
179.9851195710115
 20
85.54478849185078
 30
0.0
 10
179.9423001177439
 20
85.54478849185078
 30
0.0
 10
179.8316434835469
 20
85.54478849185078
 30
0.0
 10
179.7854108976029
 20
85.54478849185078
 30
0.0
 10
179.7556474527862
 20
85.54478849185078
 30
0.0
  0
SPLINE
  5
A3
330
1F
100
AcDbEntity
  8
0
  6
Continuous
 62
     7
370
    15
100
AcDbSpline
210
0.0
220
0.0
230
1.0
 70
    24
 71
     3
 72
    12
 73
     8
 74
     0
 42
0.00000001
 43
0.00000001
 12
1.0
 22
0.0
 32
0.0
 13
1.0
 23
0.0
 33
0.0
 40
0.0
 40
0.0
 40
0.0
 40
0.0
 40
0.5000000000000013
 40
0.5000000000000013
 40
0.7500000000000007
 40
0.7500000000000007
 40
1.0
 40
1.0
 40
1.0
 40
1.0
 10
179.7204250522048
 20
114.2947884918508
 30
0.0
 10
179.7204250522048
 20
114.2947884918508
 30
0.0
 10
179.7674211497131
 20
114.2947884918508
 30
0.0
 10
179.9169270877134
 20
114.2947884918508
 30
0.0
 10
179.9814457102718
 20
114.2947884918508
 30
0.0
 10
180.1358854030008
 20
114.2947884918508
 30
0.0
 10
180.2268237910038
 20
114.2947884918508
 30
0.0
 10
180.3204250522048
 20
114.2947884918508
 30
0.0
  0
SPLINE
  5
A4
330
1F
100
AcDbEntity
  8
0
  6
Continuous
 62
     7
370
    15
100
AcDbSpline
210
0.0
220
0.0
230
1.0
 70
     8
 71
     3
 72
    10
 73
     6
 74
     0
 42
0.00000001
 43
0.00000001
 12
1.0
 22
0.0
 32
0.0
 13
1.0
 23
0.0
 33
0.0
 40
0.0
 40
0.0
 40
0.0
 40
0.0
 40
0.0000100224852105
 40
0.8297491912727495
 40
1.0
 40
1.0
 40
1.0
 40
1.0
 10
184.9104252816827
 20
119.3447877229509
 30
0.0
 10
184.9104252816844
 20
119.3447877229509
 30
0.0
 10
184.9104254194084
 20
119.3447877231305
 30
0.0
 10
184.8692489664886
 20
119.3447877229373
 30
0.0
 10
184.8167406563965
 20
119.3447877229489
 30
0.0
 10
184.8078009845407
 20
119.3447877229509
 30
0.0
  0
LINE
  5
A5
330
1F
100
AcDbEntity
  8
0
  6
Continuous
 62
     7
370
    15
100
AcDbLine
 10
184.713813773
 20
119.344787723
 30
0.0
 11
184.7104870887
 21
119.344787723
 31
0.0
  0
SPLINE
  5
A6
330
1F
100
AcDbEntity
  8
0
  6
Continuous
 62
     7
370
    15
100
AcDbSpline
210
0.0
220
0.0
230
1.0
 70
     8
 71
     3
 72
    10
 73
     6
 74
     0
 42
0.00000001
 43
0.00000001
 12
1.0
 22
0.0
 32
0.0
 13
1.0
 23
0.0
 33
0.0
 40
0.0
 40
0.0
 40
0.0
 40
0.0
 40
0.0000098434885725
 40
0.8383950128568723
 40
1.0
 40
1.0
 40
1.0
 40
1.0
 10
184.9104252816827
 20
85.54478926075069
 30
0.0
 10
184.9104252816843
 20
85.54478926075069
 30
0.0
 10
184.9104254151971
 20
85.54478926098578
 30
0.0
 10
184.8696537950516
 20
85.54478926073403
 30
0.0
 10
184.817830068531
 20
85.54478926074837
 30
0.0
 10
184.8094550134332
 20
85.54478926075069
 30
0.0
  0
SPLINE
  5
A7
330
1F
100
AcDbEntity
  8
0
  6
Continuous
 62
     7
370
    15
100
AcDbSpline
210
0.0
220
0.0
230
1.0
 70
    24
 71
     3
 72
    12
 73
     8
 74
     0
 42
0.00000001
 43
0.00000001
 12
1.0
 22
0.0
 32
0.0
 13
1.0
 23
0.0
 33
0.0
 40
0.0
 40
0.0
 40
0.0
 40
0.0
 40
0.5
 40
0.5
 40
0.75
 40
0.75
 40
1.0
 40
1.0
 40
1.0
 40
1.0
 10
184.7104250522048
 20
114.2947884918508
 30
0.0
 10
184.7104250522048
 20
114.2947884918508
 30
0.0
 10
184.7376458003324
 20
114.2947884918508
 30
0.0
 10
184.8180922461054
 20
114.2947884918508
 30
0.0
 10
184.8515394745834
 20
114.2947884918508
 30
0.0
 10
184.9339490443577
 20
114.2947884918508
 30
0.0
 10
184.9832321412413
 20
114.2947884918508
 30
0.0
 10
185.0395487638779
 20
114.2947884918508
 30
0.0
  0
SPLINE
  5
A8
330
1F
100
AcDbEntity
  8
0
  6
Continuous
 62
     7
370
    15
100
AcDbSpline
210
0.0
220
0.0
230
1.0
 70
     8
 71
     3
 72
    10
 73
     6
 74
     0
 42
0.00000001
 43
0.00000001
 12
1.0
 22
0.0
 32
0.0
 13
1.0
 23
0.0
 33
0.0
 40
0.0
 40
0.0
 40
0.0
 40
0.0
 40
0.5
 40
0.5
 40
1.0
 40
1.0
 40
1.0
 40
1.0
 10
184.7104250522048
 20
115.3221911802814
 30
0.0
 10
184.7104250522048
 20
115.1394824681464
 30
0.0
 10
184.7373983859129
 20
114.9559741783856
 30
0.0
 10
184.8449887536987
 20
114.607670200065
 30
0.0
 10
184.9264532980418
 20
114.4394826175221
 30
0.0
 10
185.0395487638776
 20
114.2947884918493
 30
0.0
  0
LINE
  5
A9
330
1F
100
AcDbEntity
  8
0
  6
Continuous
 62
     7
370
    15
100
AcDbLine
 10
181.2004254373
 20
85.5447892608
 30
0.0
 11
180.3204252558
 21
85.5447892608
 31
0.0
  0
LINE
  5
AA
330
1F
100
AcDbEntity
  8
0
  6
Continuous
 62
     7
370
    15
100
AcDbLine
 10
180.3204252558
 20
114.294788851
 30
0.0
 11
181.2004254373
 21
114.294788851
 31
0.0
  0
SPLINE
  5
AB
330
1F
100
AcDbEntity
  8
0
  6
Continuous
 62
     7
370
    15
100
AcDbSpline
210
0.0
220
0.0
230
1.0
 70
     8
 71
     3
 72
    12
 73
     8
 74
     0
 42
0.00000001
 43
0.00000001
 12
1.0
 22
0.0
 32
0.0
 13
1.0
 23
0.0
 33
0.0
 40
0.0
 40
0.0
 40
0.0
 40
0.0
 40
0.2132550301787141
 40
0.4264532804488896
 40
0.6411061758812359
 40
0.8567306435556965
 40
1.0
 40
1.0
 40
1.0
 40
1.0
 10
211.7604234428794
 20
119.2599610002097
 30
0.0
 10
212.0396953150361
 20
119.2641202397235
 30
0.0
 10
212.5981647022224
 20
119.2724376113386
 30
0.0
 10
213.3452557302511
 20
119.3307637616535
 30
0.0
 10
213.9069201466573
 20
119.3941917995441
 30
0.0
 10
214.2291049746936
 20
119.4401299807877
 30
0.0
 10
214.2291618107535
 20
119.4402065462652
 30
0.0
 10
214.229184499541
 20
119.440237110978
 30
0.0
  0
SPLINE
  5
AC
330
1F
100
AcDbEntity
  8
0
  6
Continuous
 62
     7
370
    15
100
AcDbSpline
210
0.0
220
0.0
230
1.0
 70
     8
 71
     3
 72
    12
 73
     8
 74
     0
 42
0.00000001
 43
0.00000001
 12
1.0
 22
0.0
 32
0.0
 13
1.0
 23
0.0
 33
0.0
 40
0.0
 40
0.0
 40
0.0
 40
0.0
 40
0.2086259647335136
 40
0.4211486573380677
 40
0.6356068888381583
 40
0.8511134216880202
 40
1.0
 40
1.0
 40
1.0
 40
1.0
 10
209.2629962773712
 20
119.4444206119832
 30
0.0
 10
209.2881523384795
 20
119.4406240552291
 30
0.0
 10
209.3389343270649
 20
119.4329600294136
 30
0.0
 10
209.7565549908073
 20
119.3761412452646
 30
0.0
 10
210.380407815816
 20
119.3118776599427
 30
0.0
 10
211.0895393559431
 20
119.2669230368098
 30
0.0
 10
211.5658206986128
 20
119.2619804719105
 30
0.0
 10
211.7604234428794
 20
119.2599610002097
 30
0.0
  0
SPLINE
  5
AD
330
1F
100
AcDbEntity
  8
0
  6
Continuous
 62
     7
370
    15
100
AcDbSpline
210
0.0
220
0.0
230
1.0
 70
     8
 71
     3
 72
    68
 73
    64
 74
     0
 42
0.00000001
 43
0.00000001
 12
1.0
 22
0.0
 32
0.0
 13
1.0
 23
0.0
 33
0.0
 40
-0.0312500000000004
 40
-0.0312500000000004
 40
0.0
 40
0.0
 40
0.0312499999999999
 40
0.0312499999999999
 40
0.0624999999999999
 40
0.0624999999999999
 40
0.0937499999999998
 40
0.0937499999999998
 40
0.1249999999999998
 40
0.1249999999999998
 40
0.1562499999999997
 40
0.1562499999999997
 40
0.1874999999999996
 40
0.1874999999999996
 40
0.2187499999999996
 40
0.2187499999999996
 40
0.2499999999999995
 40
0.2499999999999995
 40
0.2812499999999994
 40
0.2812499999999994
 40
0.3124999999999994
 40
0.3124999999999994
 40
0.3437499999999993
 40
0.3437499999999993
 40
0.3749999999999992
 40
0.3749999999999992
 40
0.4062499999999992
 40
0.4062499999999992
 40
0.4374999999999991
 40
0.4374999999999991
 40
0.4687499999999991
 40
0.4687499999999991
 40
0.499999999999999
 40
0.499999999999999
 40
0.5312499999999989
 40
0.5312499999999989
 40
0.5624999999999989
 40
0.5624999999999989
 40
0.5937499999999988
 40
0.5937499999999988
 40
0.6249999999999988
 40
0.6249999999999988
 40
0.6562499999999987
 40
0.6562499999999987
 40
0.6874999999999987
 40
0.6874999999999987
 40
0.7187499999999986
 40
0.7187499999999986
 40
0.7499999999999984
 40
0.7499999999999984
 40
0.7812499999999984
 40
0.7812499999999984
 40
0.8124999999999983
 40
0.8124999999999983
 40
0.8437499999999983
 40
0.8437499999999983
 40
0.8749999999999982
 40
0.8749999999999982
 40
0.9374999999999991
 40
0.9374999999999991
 40
0.9687499999999996
 40
0.9687499999999996
 40
1.0
 40
1.0
 40
1.03125
 40
1.03125
 10
211.5950226355696
 20
99.94478849185096
 30
0.0
 10
211.9258274688401
 20
99.94478849185096
 30
0.0
 10
212.088420422846
 20
99.9610410726667
 30
0.0
 10
212.4082313311675
 20
100.0246791491966
 30
0.0
 10
212.5671234472969
 20
100.0728533234089
 30
0.0
 10
212.8697620892081
 20
100.198411390323
 30
0.0
 10
213.0132641806892
 20
100.2752123039296
 30
0.0
 10
213.2848470250421
 20
100.4566224108136
 30
0.0
 10
213.4132588229805
 20
100.5620630990861
 30
0.0
 10
213.6435132785603
 20
100.7923681124864
 30
0.0
 10
213.7469182763278
 20
100.9180749259962
 30
0.0
 10
213.9296865452694
 20
101.1912677635187
 30
0.0
 10
214.0072133868834
 20
101.336437891805
 30
0.0
 10
214.1319705404658
 20
101.637155610785
 30
0.0
 10
214.1800887140111
 20
101.7949327647651
 30
0.0
 10
214.244398191527
 20
102.1177378147104
 30
0.0
 10
214.2603324772929
 20
102.2800921568519
 30
0.0
 10
214.2605168304291
 20
102.606662261276
 30
0.0
 10
214.2442364158848
 20
102.7725517080195
 30
0.0
 10
214.1803664757
 20
103.0933493009282
 30
0.0
 10
214.1331119296345
 20
103.2492955724313
 30
0.0
 10
214.0077367373077
 20
103.5522472274392
 30
0.0
 10
213.9295566219002
 20
103.698324898492
 30
0.0
 10
213.7487354165388
 20
103.9689627550196
 30
0.0
 10
213.6452496269983
 20
104.095419411194
 30
0.0
 10
213.4123209445335
 20
104.3285045188954
 30
0.0
 10
213.2863129733722
 20
104.4317840614484
 30
0.0
 10
213.0158308343006
 20
104.612838690496
 30
0.0
 10
212.8695891848825
 20
104.6912452715014
 30
0.0
 10
212.5670893318193
 20
104.8167298646614
 30
0.0
 10
212.4112691401724
 20
104.8641183116772
 30
0.0
 10
212.0904882971448
 20
104.9282967077187
 30
0.0
 10
211.9246439653914
 20
104.9447256608914
 30
0.0
 10
211.5981247673419
 20
104.944850954697
 30
0.0
 10
211.4357070183717
 20
104.9290759818498
 30
0.0
 10
211.1125980524085
 20
104.8650046625258
 30
0.0
 10
210.9550039292466
 20
104.8170910355987
 30
0.0
 10
210.6540391996224
 20
104.6925502429235
 30
0.0
 10
210.5083797870317
 20
104.6148840932847
 30
0.0
 10
210.2354380422836
 20
104.4325880000952
 30
0.0
 10
210.1096664084431
 20
104.3293440892386
 30
0.0
 10
209.8789971353033
 20
104.0991109794883
 30
0.0
 10
209.7734089639662
 20
103.9706901008057
 30
0.0
 10
209.5919743802602
 20
103.6995515525412
 30
0.0
 10
209.515037959204
 20
103.556147901017
 30
0.0
 10
209.3891206606276
 20
103.2533665129738
 30
0.0
 10
209.3408920062673
 20
103.0947291295509
 30
0.0
 10
209.2769873410261
 20
102.7750915763256
 30
0.0
 10
209.2605670306794
 20
102.6121758729374
 30
0.0
 10
209.2602848955027
 20
102.2816693330199
 30
0.0
 10
209.2763701924234
 20
102.1191075705724
 30
0.0
 10
209.3397329860317
 20
101.799151961243
 30
0.0
 10
209.3878247302449
 20
101.6400681809566
 30
0.0
 10
209.5130450371366
 20
101.3374989477829
 30
0.0
 10
209.5897079990964
 20
101.1939124042716
 30
0.0
 10
209.7710090451808
 20
100.9219859891836
 30
0.0
 10
209.8762899826237
 20
100.7935669947609
 30
0.0
 10
210.2213343733698
 20
100.447993696727
 30
0.0
 10
210.4997696153582
 20
100.2614999194294
 30
0.0
 10
210.9506919165027
 20
100.0739589895089
 30
0.0
 10
211.1085137528148
 20
100.0256673214083
 30
0.0
 10
211.4315710879875
 20
99.9610432050361
 30
0.0
 10
211.5950226355696
 20
99.94478849185096
 30
0.0
 10
211.9258274688401
 20
99.94478849185096
 30
0.0
  0
SPLINE
  5
AE
330
1F
100
AcDbEntity
  8
0
  6
Continuous
 62
     7
370
    15
100
AcDbSpline
210
0.0
220
0.0
230
1.0
 70
     8
 71
     3
 72
    14
 73
    10
 74
     0
 42
0.00000001
 43
0.00000001
 12
1.0
 22
0.0
 32
0.0
 13
1.0
 23
0.0
 33
0.0
 40
0.0
 40
0.0
 40
0.0
 40
0.0
 40
0.156962222305323
 40
0.3139663017069812
 40
0.4701071342479862
 40
0.6268259615371349
 40
0.7850499110918664
 40
0.9433760631282678
 40
1.0
 40
1.0
 40
1.0
 40
1.0
 10
200.4218616695793
 20
119.3131544203815
 30
0.0
 10
200.6722802283502
 20
119.2962049560945
 30
0.0
 10
201.1731841249781
 20
119.2623015076091
 30
0.0
 10
202.0306188780263
 20
119.2552133170966
 30
0.0
 10
202.8444692333987
 20
119.2889637793024
 30
0.0
 10
203.5463890546484
 20
119.3510822292872
 30
0.0
 10
204.0327914425188
 20
119.4113887543903
 30
0.0
 10
204.2694854358518
 20
119.446098459481
 30
0.0
 10
204.2366985434238
 20
119.4413265333192
 30
0.0
 10
204.2280615480335
 20
119.4400694729146
 30
0.0
  0
SPLINE
  5
AF
330
1F
100
AcDbEntity
  8
0
  6
Continuous
 62
     7
370
    15
100
AcDbSpline
210
0.0
220
0.0
230
1.0
 70
     8
 71
     3
 72
    38
 73
    34
 74
     0
 42
0.00000001
 43
0.00000001
 12
1.0
 22
0.0
 32
0.0
 13
1.0
 23
0.0
 33
0.0
 40
0.0
 40
0.0
 40
0.0
 40
0.0
 40
0.0625
 40
0.0625
 40
0.125
 40
0.125
 40
0.1875
 40
0.1875
 40
0.25
 40
0.25
 40
0.3125
 40
0.3125
 40
0.375
 40
0.375
 40
0.4375
 40
0.4375
 40
0.5
 40
0.5
 40
0.5625
 40
0.5625
 40
0.625
 40
0.625
 40
0.6875
 40
0.6875
 40
0.75
 40
0.75
 40
0.8125
 40
0.8125
 40
0.875
 40
0.875
 40
0.9375
 40
0.9375
 40
1.0
 40
1.0
 40
1.0
 40
1.0
 10
200.421862879971
 20
100.3333313383514
 30
0.0
 10
200.6113182120327
 20
100.2132257797775
 30
0.0
 10
200.8125111911571
 20
100.1207848376259
 30
0.0
 10
201.2379517858263
 20
99.98988414366596
 30
0.0
 10
201.4608542202371
 20
99.95291788868678
 30
0.0
 10
201.9040877323557
 20
99.93909042133019
 30
0.0
 10
202.1302051250905
 20
99.96236783459418
 30
0.0
 10
202.5612758030819
 20
100.0661780368378
 30
0.0
 10
202.7715525528868
 20
100.1475935983954
 30
0.0
 10
203.1612617722641
 20
100.3622084369942
 30
0.0
 10
203.339270810027
 20
100.4935222964762
 30
0.0
 10
203.6610557106701
 20
100.8053383424695
 30
0.0
 10
203.798071449586
 20
100.9794083057078
 30
0.0
 10
204.0245149259058
 20
101.3616269274913
 30
0.0
 10
204.1126937702365
 20
101.5696383761866
 30
0.0
 10
204.2299145813044
 20
101.9968182780586
 30
0.0
 10
204.2603466950993
 20
102.2220258661779
 30
0.0
 10
204.2605030987603
 20
102.6657888745214
 30
0.0
 10
204.2307275330589
 20
102.8890190547475
 30
0.0
 10
204.1130925345807
 20
103.3192545330991
 30
0.0
 10
204.0269431297479
 20
103.5232087858837
 30
0.0
 10
203.7993386052422
 20
103.9086621372355
 30
0.0
 10
203.661645843478
 20
104.0832566227508
 30
0.0
 10
203.3434100117341
 20
104.3924478386177
 30
0.0
 10
203.16183323417
 20
104.52685096024
 30
0.0
 10
202.7744832385028
 20
104.740570495778
 30
0.0
 10
202.5630333430496
 20
104.822819025571
 30
0.0
 10
202.1317722417411
 20
104.9269872253655
 30
0.0
 10
201.9083604517714
 20
104.9503918189283
 30
0.0
 10
201.4616503838762
 20
104.9369093983623
 30
0.0
 10
201.243009703601
 20
104.9008681429969
 30
0.0
 10
200.8151633761944
 20
104.7699823030439
 30
0.0
 10
200.6113266197756
 20
104.6763565340285
 30
0.0
 10
200.421862879971
 20
104.5562456453505
 30
0.0
  0
LINE
  5
B0
330
1F
100
AcDbEntity
  8
0
  6
Continuous
 62
     7
370
    15
100
AcDbLine
 10
219.7604247542
 20
102.4447884919
 30
0.0
 11
219.7604247542
 21
86.4447877319
 31
0.0
  0
LINE
  5
B1
330
1F
100
AcDbEntity
  8
0
  6
Continuous
 62
     7
370
    15
100
AcDbLine
 10
219.7604247542
 20
118.4447892518
 30
0.0
 11
219.7604247542
 21
102.4447884919
 31
0.0
  0
SPLINE
  5
B2
330
1F
100
AcDbEntity
  8
0
  6
Continuous
 62
     7
370
    15
100
AcDbSpline
210
0.0
220
0.0
230
1.0
 70
     8
 71
     3
 72
    10
 73
     6
 74
     0
 42
0.00000001
 43
0.00000001
 12
1.0
 22
0.0
 32
0.0
 13
1.0
 23
0.0
 33
0.0
 40
0.0
 40
0.0
 40
0.0
 40
0.0
 40
0.5
 40
0.5
 40
1.0
 40
1.0
 40
1.0
 40
1.0
 10
199.7604250522048
 20
119.1274891125536
 30
0.0
 10
199.8458419281563
 20
119.1928834325327
 30
0.0
 10
199.9431732759147
 20
119.243043730133
 30
0.0
 10
200.1665685512964
 20
119.3090586114345
 30
0.0
 10
200.2894542978421
 20
119.3236608868338
 30
0.0
 10
200.421862879971
 20
119.3131538154065
 30
0.0
  0
SPLINE
  5
B3
330
1F
100
AcDbEntity
  8
0
  6
Continuous
 62
     7
370
    15
100
AcDbSpline
210
0.0
220
0.0
230
1.0
 70
     8
 71
     3
 72
    10
 73
     6
 74
     0
 42
0.00000001
 43
0.00000001
 12
1.0
 22
0.0
 32
0.0
 13
1.0
 23
0.0
 33
0.0
 40
0.0
 40
0.0
 40
0.0
 40
0.0
 40
0.5
 40
0.5
 40
1.0
 40
1.0
 40
1.0
 40
1.0
 10
200.421862879971
 20
104.5562456453505
 30
0.0
 10
200.2893124913734
 20
104.4722150810563
 30
0.0
 10
200.167800362901
 20
104.3778820449211
 30
0.0
 10
199.9444300888519
 20
104.1697425141305
 30
0.0
 10
199.845901104794
 20
104.0587565619698
 30
0.0
 10
199.7604250522048
 20
103.9447884918509
 30
0.0
  0
SPLINE
  5
B4
330
1F
100
AcDbEntity
  8
0
  6
Continuous
 62
     7
370
    15
100
AcDbSpline
210
0.0
220
0.0
230
1.0
 70
     8
 71
     3
 72
    10
 73
     6
 74
     0
 42
0.00000001
 43
0.00000001
 12
1.0
 22
0.0
 32
0.0
 13
1.0
 23
0.0
 33
0.0
 40
0.0
 40
0.0
 40
0.0
 40
0.0
 40
0.5
 40
0.5
 40
1.0
 40
1.0
 40
1.0
 40
1.0
 10
199.7604250522048
 20
100.944788491851
 30
0.0
 10
199.8458419281563
 20
100.8308993239157
 30
0.0
 10
199.9431732759147
 20
100.7211484813978
 30
0.0
 10
200.1665685512964
 20
100.5127014444909
 30
0.0
 10
200.2894542978421
 20
100.4172720041722
 30
0.0
 10
200.421862879971
 20
100.3333313383514
 30
0.0
  0
SPLINE
  5
B5
330
1F
100
AcDbEntity
  8
0
  6
Continuous
 62
     7
370
    15
100
AcDbSpline
210
0.0
220
0.0
230
1.0
 70
     8
 71
     3
 72
    11
 73
     7
 74
     0
 42
0.00000001
 43
0.00000001
 12
1.0
 22
0.0
 32
0.0
 13
1.0
 23
0.0
 33
0.0
 40
0.0
 40
0.0
 40
0.0
 40
0.0
 40
0.239402640410751
 40
0.4946792394258021
 40
0.7585841133025261
 40
1.0
 40
1.0
 40
1.0
 40
1.0
 10
199.29003652052
 20
118.9587526531276
 30
0.0
 10
199.2835275753445
 20
118.9582531649971
 30
0.0
 10
199.2700780994183
 20
118.9572210694109
 30
0.0
 10
199.3828160752786
 20
118.9656933355849
 30
0.0
 10
199.5421279272618
 20
118.993912114152
 30
0.0
 10
199.6898508827496
 20
119.0843047793572
 30
0.0
 10
199.7604252012165
 20
119.1274896771964
 30
0.0
  0
SPLINE
  5
B6
330
1F
100
AcDbEntity
  8
0
  6
Continuous
 62
     7
370
    15
100
AcDbSpline
210
0.0
220
0.0
230
1.0
 70
     8
 71
     3
 72
    18
 73
    14
 74
     0
 42
0.00000001
 43
0.00000001
 12
1.0
 22
0.0
 32
0.0
 13
1.0
 23
0.0
 33
0.0
 40
0.0
 40
0.0
 40
0.0
 40
0.0
 40
0.1249999999999999
 40
0.1249999999999999
 40
0.2499999999999998
 40
0.2499999999999998
 40
0.4999999999999999
 40
0.4999999999999999
 40
0.7499999999999999
 40
0.7499999999999999
 40
0.875
 40
0.875
 40
1.0
 40
1.0
 40
1.0
 40
1.0
 10
199.7604250522048
 20
103.9447884918509
 30
0.0
 10
199.6852598197386
 20
103.8445681818959
 30
0.0
 10
199.6145579006659
 20
103.7344409209941
 30
0.0
 10
199.4890191206163
 20
103.497719787802
 30
0.0
 10
199.4347452512217
 20
103.3718484381074
 30
0.0
 10
199.3052790965247
 20
102.9880794442165
 30
0.0
 10
199.2603934306215
 20
102.7147579770165
 30
0.0
 10
199.2604567080497
 20
102.1742336728971
 30
0.0
 10
199.3055908082868
 20
101.9006737626192
 30
0.0
 10
199.4344466663899
 20
101.518563600347
 30
0.0
 10
199.4875344712351
 20
101.3949236821869
 30
0.0
 10
199.613893592232
 20
101.1561262385904
 30
0.0
 10
199.685291244475
 20
101.0449669021574
 30
0.0
 10
199.7604250522048
 20
100.944788491851
 30
0.0
  0
SPLINE
  5
B7
330
1F
100
AcDbEntity
  8
0
  6
Continuous
 62
     7
370
    15
100
AcDbSpline
210
0.0
220
0.0
230
1.0
 70
     8
 71
     3
 72
    12
 73
     8
 74
     0
 42
0.00000001
 43
0.00000001
 12
1.0
 22
0.0
 32
0.0
 13
1.0
 23
0.0
 33
0.0
 40
0.0
 40
0.0
 40
0.0
 40
0.0
 40
0.2131571389401284
 40
0.4262543842971611
 40
0.6408950111004981
 40
0.8565689637897677
 40
1.0
 40
1.0
 40
1.0
 40
1.0
 10
191.7604257525594
 20
118.754295683032
 30
0.0
 10
191.4812587770226
 20
118.758581357516
 30
0.0
 10
190.9230032671898
 20
118.7671515022815
 30
0.0
 10
190.1761306217313
 20
118.8272353865196
 30
0.0
 10
189.6143637344163
 20
118.8925953212393
 30
0.0
 10
189.2918677216737
 20
118.9399711615673
 30
0.0
 10
189.2916880358825
 20
118.9400686407684
 30
0.0
 10
189.2916162671239
 20
118.9401075751838
 30
0.0
  0
SPLINE
  5
B8
330
1F
100
AcDbEntity
  8
0
  6
Continuous
 62
     7
370
    15
100
AcDbSpline
210
0.0
220
0.0
230
1.0
 70
     8
 71
     3
 72
    12
 73
     8
 74
     0
 42
0.00000001
 43
0.00000001
 12
1.0
 22
0.0
 32
0.0
 13
1.0
 23
0.0
 33
0.0
 40
0.0
 40
0.0
 40
0.0
 40
0.0
 40
0.2078364452556778
 40
0.4202245482928882
 40
0.6346605798910971
 40
0.8502208931918869
 40
1.0
 40
1.0
 40
1.0
 40
1.0
 10
194.2574338229091
 20
118.9443469555434
 30
0.0
 10
194.2326399500317
 20
118.9404910872198
 30
0.0
 10
194.182509213733
 20
118.932694906321
 30
0.0
 10
193.76638030909
 20
118.8743247232365
 30
0.0
 10
193.1435857429821
 20
118.8080976568836
 30
0.0
 10
192.4337838445043
 20
118.7615448935794
 30
0.0
 10
191.9562155917973
 20
118.7564035091421
 30
0.0
 10
191.7604257525594
 20
118.754295683032
 30
0.0
  0
SPLINE
  5
B9
330
1F
100
AcDbEntity
  8
0
  6
Continuous
 62
     7
370
    15
100
AcDbSpline
210
0.0
220
0.0
230
1.0
 70
     8
 71
     3
 72
    66
 73
    62
 74
     0
 42
0.00000001
 43
0.00000001
 12
1.0
 22
0.0
 32
0.0
 13
1.0
 23
0.0
 33
0.0
 40
-0.0312500000000001
 40
-0.0312500000000001
 40
0.0
 40
0.0
 40
0.0312499999999999
 40
0.0312499999999999
 40
0.0624999999999997
 40
0.0624999999999997
 40
0.0937499999999996
 40
0.0937499999999996
 40
0.1249999999999994
 40
0.1249999999999994
 40
0.1562499999999993
 40
0.1562499999999993
 40
0.1874999999999991
 40
0.1874999999999991
 40
0.218749999999999
 40
0.218749999999999
 40
0.2499999999999989
 40
0.2499999999999989
 40
0.2812499999999988
 40
0.2812499999999988
 40
0.3124999999999987
 40
0.3124999999999987
 40
0.3437499999999985
 40
0.3437499999999985
 40
0.3749999999999983
 40
0.3749999999999983
 40
0.4062499999999982
 40
0.4062499999999982
 40
0.4374999999999981
 40
0.4374999999999981
 40
0.4687499999999979
 40
0.4687499999999979
 40
0.4999999999999978
 40
0.4999999999999978
 40
0.5624999999999981
 40
0.5624999999999981
 40
0.5937499999999983
 40
0.5937499999999983
 40
0.6249999999999986
 40
0.6249999999999986
 40
0.6562499999999987
 40
0.6562499999999987
 40
0.6874999999999989
 40
0.6874999999999989
 40
0.7187499999999991
 40
0.7187499999999991
 40
0.7499999999999992
 40
0.7499999999999992
 40
0.7812499999999994
 40
0.7812499999999994
 40
0.8124999999999997
 40
0.8124999999999997
 40
0.8437499999999999
 40
0.8437499999999999
 40
0.875
 40
0.875
 40
0.9375
 40
0.9375
 40
0.9687499999999999
 40
0.9687499999999999
 40
1.0
 40
1.0
 40
1.03125
 40
1.03125
 10
191.9258424118808
 20
99.94478849185096
 30
0.0
 10
191.5950076925289
 20
99.94478849185096
 30
0.0
 10
191.4324029110227
 20
99.9610439547618
 30
0.0
 10
191.1125734180953
 20
100.0246906196963
 30
0.0
 10
190.9536734755993
 20
100.0728715884328
 30
0.0
 10
190.6510422642862
 20
100.1984341714139
 30
0.0
 10
190.5075459112699
 20
100.275235766931
 30
0.0
 10
190.2359739709424
 20
100.4566451195472
 30
0.0
 10
190.1075784835299
 20
100.5620757051957
 30
0.0
 10
189.877346636362
 20
100.792358494422
 30
0.0
 10
189.7739465881293
 20
100.9180559174778
 30
0.0
 10
189.5911775257429
 20
101.191243833362
 30
0.0
 10
189.5136595497784
 20
101.3363918833057
 30
0.0
 10
189.3888974401692
 20
101.6371034975118
 30
0.0
 10
189.3407708660954
 20
101.7948965458444
 30
0.0
 10
189.276455593494
 20
102.1177079971208
 30
0.0
 10
189.2605179727546
 20
102.2800715965004
 30
0.0
 10
189.2603329341268
 20
102.6066725942932
 30
0.0
 10
189.2766169756864
 20
102.7725795604604
 30
0.0
 10
189.3404935640465
 20
103.093387858377
 30
0.0
 10
189.3877528183354
 20
103.2493410378652
 30
0.0
 10
189.5131436908079
 20
103.5523104155125
 30
0.0
 10
189.5913174884232
 20
103.6983652023485
 30
0.0
 10
189.7721321625082
 20
103.9689845347333
 30
0.0
 10
189.8756423088231
 20
104.0954637765791
 30
0.0
 10
190.1085253371289
 20
104.3284981872909
 30
0.0
 10
190.234515306743
 20
104.4317667861086
 30
0.0
 10
190.5049845207403
 20
104.6128180961467
 30
0.0
 10
190.6512356920535
 20
104.691231809791
 30
0.0
 10
190.9537079337723
 20
104.8167109417253
 30
0.0
 10
191.109527757312
 20
104.8641051772955
 30
0.0
 10
191.4303418654801
 20
104.9282952067223
 30
0.0
 10
191.5961941760712
 20
104.9447253629228
 30
0.0
 10
192.0859953852634
 20
104.9449141923535
 30
0.0
 10
192.4154046264524
 20
104.8793512779011
 30
0.0
 10
192.8668567132226
 20
104.6925279184689
 30
0.0
 10
193.0125451410828
 20
104.6148385207336
 30
0.0
 10
193.2854300109118
 20
104.4325716089803
 30
0.0
 10
193.4111889601719
 20
104.3293394086659
 30
0.0
 10
193.6418565230155
 20
104.0991068585983
 30
0.0
 10
193.7474366631735
 20
103.970693355542
 30
0.0
 10
193.9288476238657
 20
103.6995969815703
 30
0.0
 10
194.0057882803411
 20
103.5561991624214
 30
0.0
 10
194.1317257778639
 20
103.2533814508936
 30
0.0
 10
194.1799466869967
 20
103.09477260431
 30
0.0
 10
194.2438581385728
 20
102.7751283065997
 30
0.0
 10
194.2602849632889
 20
102.6121339200823
 30
0.0
 10
194.2605633669209
 20
102.2816551884331
 30
0.0
 10
194.2444788933534
 20
102.119091215352
 30
0.0
 10
194.1811051646704
 20
101.7991028138641
 30
0.0
 10
194.1329969052349
 20
101.639988231974
 30
0.0
 10
194.0077836835864
 20
101.3374584425688
 30
0.0
 10
193.9311218931488
 20
101.1938755222969
 30
0.0
 10
193.7497994357728
 20
100.9219301285465
 30
0.0
 10
193.6445390046982
 20
100.7935451837073
 30
0.0
 10
193.2995427447142
 20
100.4480220750457
 30
0.0
 10
193.021125906747
 20
100.2615260939767
 30
0.0
 10
192.5702070084858
 20
100.0739756525624
 30
0.0
 10
192.4123244342056
 20
100.0256650475935
 30
0.0
 10
192.0892941482077
 20
99.96104612185701
 30
0.0
 10
191.9258424118808
 20
99.94478849185096
 30
0.0
 10
191.5950076925289
 20
99.94478849185096
 30
0.0
  0
LINE
  5
BA
330
1F
100
AcDbEntity
  8
0
  6
Continuous
 62
     7
370
    15
100
AcDbLine
 10
162.7604249572
 20
87.3410879211
 30
0.0
 11
162.7604249572
 21
117.5484890626
 31
0.0
  0
LINE
  5
BB
330
1F
100
AcDbEntity
  8
0
  6
Continuous
 62
     7
370
    15
100
AcDbLine
 10
150.9604252116
 20
87.932270071
 30
0.0
 11
150.9604252116
 21
88.808042048
 31
0.0
  0
SPLINE
  5
BC
330
1F
100
AcDbEntity
  8
0
  6
Continuous
 62
     7
370
    15
100
AcDbSpline
210
0.0
220
0.0
230
1.0
 70
     8
 71
     3
 72
    12
 73
     8
 74
     0
 42
0.00000001
 43
0.00000001
 12
1.0
 22
0.0
 32
0.0
 13
1.0
 23
0.0
 33
0.0
 40
0.0
 40
0.0
 40
0.0
 40
0.0
 40
0.2499999999999994
 40
0.2499999999999994
 40
0.4999999999999988
 40
0.4999999999999988
 40
1.0
 40
1.0
 40
1.0
 40
1.0
 10
150.592689959348
 20
89.51441262896603
 30
0.0
 10
150.6181141762419
 20
89.44752703589225
 30
0.0
 10
150.6587260158112
 20
89.38307854620864
 30
0.0
 10
150.7433271620833
 20
89.25807788613079
 30
0.0
 10
150.7874239583689
 20
89.19755914093867
 30
0.0
 10
150.9034930668549
 20
89.02135308483024
 30
0.0
 10
150.9604250522048
 20
88.91095866985845
 30
0.0
 10
150.9604250522048
 20
88.8080417937653
 30
0.0
  0
SPLINE
  5
BD
330
1F
100
AcDbEntity
  8
0
  6
Continuous
 62
     7
370
    15
100
AcDbSpline
210
0.0
220
0.0
230
1.0
 70
     8
 71
     3
 72
    14
 73
    10
 74
     0
 42
0.00000001
 43
0.00000001
 12
1.0
 22
0.0
 32
0.0
 13
1.0
 23
0.0
 33
0.0
 40
0.0
 40
0.0
 40
0.0
 40
0.0
 40
0.1249999999999997
 40
0.1249999999999997
 40
0.2499999999999994
 40
0.2499999999999994
 40
0.4999999999999996
 40
0.4999999999999996
 40
1.0
 40
1.0
 40
1.0
 40
1.0
 10
150.0604250522048
 20
90.00441844433976
 30
0.0
 10
150.1094373750162
 20
90.00894350349492
 30
0.0
 10
150.1622436000117
 20
90.00082411794041
 30
0.0
 10
150.2473106917411
 20
89.97049404278897
 30
0.0
 10
150.2818948770819
 20
89.94983908571248
 30
0.0
 10
150.3704505624192
 20
89.88530296238565
 30
0.0
 10
150.4113862637404
 20
89.83806478233302
 30
0.0
 10
150.5152667906433
 20
89.69826868104934
 30
0.0
 10
150.5584905900754
 20
89.60438374218005
 30
0.0
 10
150.592689959348
 20
89.51441262896603
 30
0.0
  0
SPLINE
  5
BE
330
1F
100
AcDbEntity
  8
0
  6
Continuous
 62
     7
370
    15
100
AcDbSpline
210
0.0
220
0.0
230
1.0
 70
     8
 71
     3
 72
    10
 73
     6
 74
     0
 42
0.00000001
 43
0.00000001
 12
1.0
 22
0.0
 32
0.0
 13
1.0
 23
0.0
 33
0.0
 40
0.0
 40
0.0
 40
0.0
 40
0.0
 40
0.5
 40
0.5
 40
1.0
 40
1.0
 40
1.0
 40
1.0
 10
147.1396016605063
 20
89.67816636477328
 30
0.0
 10
147.612506091096
 20
89.74519927789677
 30
0.0
 10
148.0955110239404
 20
89.80306777906262
 30
0.0
 10
149.0713254022933
 20
89.90990892742282
 30
0.0
 10
149.5647996153174
 20
89.95865986176153
 30
0.0
 10
150.0604250522048
 20
90.00441844433979
 30
0.0
  0
SPLINE
  5
BF
330
1F
100
AcDbEntity
  8
0
  6
Continuous
 62
     7
370
    15
100
AcDbSpline
210
0.0
220
0.0
230
1.0
 70
     8
 71
     3
 72
    10
 73
     6
 74
     0
 42
0.00000001
 43
0.00000001
 12
1.0
 22
0.0
 32
0.0
 13
1.0
 23
0.0
 33
0.0
 40
0.0
 40
0.0
 40
0.0
 40
0.0
 40
0.5
 40
0.5
 40
1.0
 40
1.0
 40
1.0
 40
1.0
 10
145.8694250522048
 20
89.59372161429451
 30
0.0
 10
146.0847840827622
 20
89.60073444526503
 30
0.0
 10
146.2992254210862
 20
89.60950916892033
 30
0.0
 10
146.7242166397067
 20
89.63456234646814
 30
0.0
 10
146.9355893714294
 20
89.64924817926848
 30
0.0
 10
147.1396016605063
 20
89.67816636477326
 30
0.0
  0
SPLINE
  5
C0
330
1F
100
AcDbEntity
  8
0
  6
Continuous
 62
     7
370
    15
100
AcDbSpline
210
0.0
220
0.0
230
1.0
 70
     8
 71
     3
 72
     8
 73
     4
 74
     0
 42
0.00000001
 43
0.00000001
 12
1.0
 22
0.0
 32
0.0
 13
1.0
 23
0.0
 33
0.0
 40
0.0
 40
0.0
 40
0.0
 40
0.0
 40
1.0
 40
1.0
 40
1.0
 40
1.0
 10
145.8019089026357
 20
89.7416107923072
 30
0.0
 10
145.8160433472639
 20
89.69081446867398
 30
0.0
 10
145.8391007224125
 20
89.64157571811374
 30
0.0
 10
145.8694250522048
 20
89.59372161429451
 30
0.0
  0
ELLIPSE
  5
C1
330
1F
100
AcDbEntity
  8
0
  6
Continuous
 62
     7
370
    15
100
AcDbEllipse
 10
132.3336828444
 20
101.8054908141
 30
0.0
 11
13.37355272666619
 21
-13.37146352987013
 31
0.0
210
0.0
220
0.0
230
1.0
 40
0.1761188775
 41
0.3023035477142476
 42
0.3822730435340295
  0
ELLIPSE
  5
C2
330
1F
100
AcDbEntity
  8
0
  6
Continuous
 62
     7
370
    15
100
AcDbEllipse
 10
132.2543044137
 20
103.0838989432
 30
0.0
 11
13.36963611134303
 21
13.36754752639484
 31
0.0
210
0.0
220
0.0
230
1.0
 40
0.1761188775
 41
5.933076931846602
 42
5.976720052691201
  0
SPLINE
  5
C3
330
1F
100
AcDbEntity
  8
0
  6
Continuous
 62
     7
370
    15
100
AcDbSpline
210
0.0
220
0.0
230
1.0
 70
     8
 71
     3
 72
     8
 73
     4
 74
     0
 42
0.00000001
 43
0.00000001
 12
1.0
 22
0.0
 32
0.0
 13
1.0
 23
0.0
 33
0.0
 40
0.0
 40
0.0
 40
0.0
 40
0.0
 40
1.0
 40
1.0
 40
1.0
 40
1.0
 10
145.8104250522048
 20
115.3103690388291
 30
0.0
 10
145.7646601445155
 20
115.2488486596703
 30
0.0
 10
145.7302730228855
 20
115.1849537999209
 30
0.0
 10
145.7112577692126
 20
115.1182238548771
 30
0.0
  0
SPLINE
  5
C4
330
1F
100
AcDbEntity
  8
0
  6
Continuous
 62
     7
370
    15
100
AcDbSpline
210
0.0
220
0.0
230
1.0
 70
     8
 71
     3
 72
    12
 73
     8
 74
     0
 42
0.00000001
 43
0.00000001
 12
1.0
 22
0.0
 32
0.0
 13
1.0
 23
0.0
 33
0.0
 40
0.0
 40
0.0
 40
0.0
 40
0.0
 40
0.2499999999999986
 40
0.2499999999999986
 40
0.4999999999999971
 40
0.4999999999999971
 40
1.0
 40
1.0
 40
1.0
 40
1.0
 10
147.5604250522048
 20
115.22558235051
 30
0.0
 10
147.4183826490156
 20
115.2414080786862
 30
0.0
 10
147.2742645425115
 20
115.2524292124615
 30
0.0
 10
146.984510028839
 20
115.2709655743287
 30
0.0
 10
146.8387681254802
 20
115.2782362800644
 30
0.0
 10
146.4000878863004
 20
115.2966971303924
 30
0.0
 10
146.1057122702292
 20
115.304575997216
 30
0.0
 10
145.8104250522048
 20
115.3103690388291
 30
0.0
  0
SPLINE
  5
C5
330
1F
100
AcDbEntity
  8
0
  6
Continuous
 62
     7
370
    15
100
AcDbSpline
210
0.0
220
0.0
230
1.0
 70
     8
 71
     3
 72
    20
 73
    16
 74
     0
 42
0.00000001
 43
0.00000001
 12
1.0
 22
0.0
 32
0.0
 13
1.0
 23
0.0
 33
0.0
 40
0.0
 40
0.0
 40
0.0
 40
0.0
 40
0.2500000000000001
 40
0.2500000000000001
 40
0.5000000000000001
 40
0.5000000000000001
 40
0.7500000000000002
 40
0.7500000000000002
 40
0.8750000000000016
 40
0.8750000000000016
 40
0.9375000000000006
 40
0.9375000000000006
 40
0.9687500000000003
 40
0.9687500000000003
 40
1.0
 40
1.0
 40
1.0
 40
1.0
 10
148.4604250522057
 20
116.0023126135986
 30
0.0
 10
148.4604250522058
 20
115.9417032139012
 30
0.0
 10
148.4350300326289
 20
115.8758772484977
 30
0.0
 10
148.3487368468469
 20
115.7418294791511
 30
0.0
 10
148.2881008681637
 20
115.6731341210093
 30
0.0
 10
148.1399990739424
 20
115.5327355693549
 30
0.0
 10
148.0532294671638
 20
115.4610320647735
 30
0.0
 10
147.9045916718346
 20
115.3548686630246
 30
0.0
 10
147.8523024549484
 20
115.3193403143931
 30
0.0
 10
147.7615386266384
 20
115.2696363838776
 30
0.0
 10
147.7291726341865
 20
115.2533753858625
 30
0.0
 10
147.6714834785202
 20
115.2342628175166
 30
0.0
 10
147.6504964506328
 20
115.228871675435
 30
0.0
 10
147.6052074716423
 20
115.2231343070425
 30
0.0
 10
147.5821932028038
 20
115.2231570406959
 30
0.0
 10
147.5604250522042
 20
115.2255823505088
 30
0.0
  0
LINE
  5
C6
330
1F
100
AcDbEntity
  8
0
  6
Continuous
 62
     7
370
    15
100
AcDbLine
 10
148.4604248019
 20
116.0023129122
 30
0.0
 11
148.4604248019
 21
116.8320561336
 31
0.0
  0
SPLINE
  5
C7
330
1F
100
AcDbEntity
  8
0
  6
Continuous
 62
     7
370
    15
100
AcDbSpline
210
0.0
220
0.0
230
1.0
 70
     8
 71
     3
 72
    24
 73
    20
 74
     0
 42
0.00000001
 43
0.00000001
 12
1.0
 22
0.0
 32
0.0
 13
1.0
 23
0.0
 33
0.0
 40
0.0
 40
0.0
 40
0.0
 40
0.0
 40
0.0016643193296813
 40
0.0648792890554526
 40
0.127882629835479
 40
0.1913652263153964
 40
0.2543782098387403
 40
0.3163193264594876
 40
0.3777469775702122
 40
0.4397082275190884
 40
0.5014189034197821
 40
0.562536076452263
 40
0.6237133677268287
 40
0.6863020174790898
 40
0.7490598999921412
 40
0.811592469235191
 40
0.8743360189604256
 40
0.9379727054607176
 40
1.0
 40
1.0
 40
1.0
 40
1.0
 10
155.9449679391177
 20
87.68282183868257
 30
0.0
 10
155.9444905482921
 20
87.6827534278476
 30
0.0
 10
155.9258806716841
 20
87.68008660408543
 30
0.0
 10
155.9890212084932
 20
87.68980116692352
 30
0.0
 10
156.1410639655758
 20
87.71200587313147
 30
0.0
 10
156.4089894808407
 20
87.7464416246649
 30
0.0
 10
156.7583032580275
 20
87.78490463533413
 30
0.0
 10
157.1853543199515
 20
87.8191326882815
 30
0.0
 10
157.6727939483665
 20
87.84158524812162
 30
0.0
 10
158.2044443133078
 20
87.84517923585264
 30
0.0
 10
158.7555649158088
 20
87.82816560659943
 30
0.0
 10
159.3030229065955
 20
87.78821984115626
 30
0.0
 10
159.827657136351
 20
87.7291122284996
 30
0.0
 10
160.309445534751
 20
87.65674779107844
 30
0.0
 10
160.7343941267606
 20
87.58042711960032
 30
0.0
 10
161.0806104402215
 20
87.50844317360924
 30
0.0
 10
161.3356887523527
 20
87.45005614744554
 30
0.0
 10
161.4958841444901
 20
87.410396491139
 30
0.0
 10
161.5165182068868
 20
87.40557181567526
 30
0.0
 10
161.52670310677
 20
87.40319037300912
 30
0.0
  0
SPLINE
  5
C8
330
1F
100
AcDbEntity
  8
0
  6
Continuous
 62
     7
370
    15
100
AcDbSpline
210
0.0
220
0.0
230
1.0
 70
     8
 71
     3
 72
    24
 73
    20
 74
     0
 42
0.00000001
 43
0.00000001
 12
1.0
 22
0.0
 32
0.0
 13
1.0
 23
0.0
 33
0.0
 40
0.0
 40
0.0
 40
0.0
 40
0.0
 40
0.0629034706215385
 40
0.1256338688179741
 40
0.1890239793713884
 40
0.2513957684939822
 40
0.3139906836130308
 40
0.3762905044722344
 40
0.4374458894592898
 40
0.498543195540241
 40
0.5603281747675228
 40
0.6223344559749604
 40
0.6838864964282686
 40
0.7458035579052691
 40
0.8089499376965126
 40
0.8723245876864573
 40
0.9353799443000518
 40
0.9988635323362688
 40
1.0
 40
1.0
 40
1.0
 40
1.0
 10
161.5257042633088
 20
117.486387542015
 30
0.0
 10
161.5162336370338
 20
117.4839647527464
 30
0.0
 10
161.4973184419375
 20
117.4791258402645
 30
0.0
 10
161.3352671455333
 20
117.4391542490871
 30
0.0
 10
161.0787419047876
 20
117.3808102535147
 30
0.0
 10
160.7326857684943
 20
117.3085751555264
 30
0.0
 10
160.308786375601
 20
117.2324259040143
 30
0.0
 10
159.8278034147631
 20
117.1603066025018
 30
0.0
 10
159.303819857783
 20
117.101419089194
 30
0.0
 10
158.7562219725759
 20
117.0615075665897
 30
0.0
 10
158.2047456565198
 20
117.0444718189746
 30
0.0
 10
157.6723043767385
 20
117.0480352900662
 30
0.0
 10
157.1843221650525
 20
117.0704685550332
 30
0.0
 10
156.75681001142
 20
117.1047585699102
 30
0.0
 10
156.4079084566476
 20
117.1432623646969
 30
0.0
 10
156.1406538361569
 20
117.1777183926515
 30
0.0
 10
155.9877195316361
 20
117.1998011799896
 30
0.0
 10
155.9266098804726
 20
117.2096298917403
 30
0.0
 10
155.9441930441607
 20
117.2068661493442
 30
0.0
 10
155.9445022778304
 20
117.2068175436315
 30
0.0
  0
SPLINE
  5
C9
330
1F
100
AcDbEntity
  8
0
  6
Continuous
 62
     7
370
    15
100
AcDbSpline
210
0.0
220
0.0
230
1.0
 70
     8
 71
     3
 72
    26
 73
    22
 74
     0
 42
0.00000001
 43
0.00000001
 12
1.0
 22
0.0
 32
0.0
 13
1.0
 23
0.0
 33
0.0
 40
0.0
 40
0.0
 40
0.0
 40
0.0
 40
0.2499999999999967
 40
0.2499999999999967
 40
0.3749999999999953
 40
0.3749999999999953
 40
0.4374999999999952
 40
0.4374999999999952
 40
0.4687499999999957
 40
0.4687499999999957
 40
0.4999999999999962
 40
0.4999999999999962
 40
0.5312499999999967
 40
0.5312499999999967
 40
0.5624999999999971
 40
0.5624999999999971
 40
0.6249999999999974
 40
0.6249999999999974
 40
0.7499999999999983
 40
0.7499999999999983
 40
1.0
 40
1.0
 40
1.0
 40
1.0
 10
145.6203950985927
 20
114.8328690714637
 30
0.0
 10
145.5730069891642
 20
114.6972133294406
 30
0.0
 10
145.5153656872598
 20
114.5532519311114
 30
0.0
 10
145.3933178747165
 20
114.310479357857
 30
0.0
 10
145.34726886694
 20
114.2254397174076
 30
0.0
 10
145.2566155827744
 20
114.0850637443672
 30
0.0
 10
145.2222630824888
 20
114.0351523670284
 30
0.0
 10
145.1598279100983
 20
113.9586171021742
 30
0.0
 10
145.1365338913002
 20
113.9322126231873
 30
0.0
 10
145.0874813541737
 20
113.8846178579262
 30
0.0
 10
145.0630499045168
 20
113.8651752440744
 30
0.0
 10
145.0224203088971
 20
113.8402674664063
 30
0.0
 10
145.0062580270459
 20
113.8341976350954
 30
0.0
 10
144.9792759829427
 20
113.8285087635015
 30
0.0
 10
144.9685264601199
 20
113.8288992715823
 30
0.0
 10
144.9404904859628
 20
113.8350416183707
 30
0.0
 10
144.9276292539301
 20
113.8457056247887
 30
0.0
 10
144.8966263927698
 20
113.8847184151489
 30
0.0
 10
144.8857669107007
 20
113.9207704055532
 30
0.0
 10
144.8624896547627
 20
114.0384498030523
 30
0.0
 10
144.8604250522047
 20
114.1297797033853
 30
0.0
 10
144.8604250522047
 20
114.2230199562916
 30
0.0
  0
SPLINE
  5
CA
330
1F
100
AcDbEntity
  8
0
  6
Continuous
 62
     7
370
    15
100
AcDbSpline
210
0.0
220
0.0
230
1.0
 70
     8
 71
     3
 72
    24
 73
    20
 74
     0
 42
0.00000001
 43
0.00000001
 12
1.0
 22
0.0
 32
0.0
 13
1.0
 23
0.0
 33
0.0
 40
0.0
 40
0.0
 40
0.0
 40
0.0
 40
0.2499999999999946
 40
0.2499999999999946
 40
0.3749999999999926
 40
0.3749999999999926
 40
0.4374999999999917
 40
0.4374999999999917
 40
0.4999999999999909
 40
0.4999999999999909
 40
0.5312499999999909
 40
0.5312499999999909
 40
0.5624999999999909
 40
0.5624999999999909
 40
0.624999999999993
 40
0.624999999999993
 40
0.7499999999999954
 40
0.7499999999999954
 40
1.0
 40
1.0
 40
1.0
 40
1.0
 10
144.8604250522048
 20
90.89727529062941
 30
0.0
 10
144.8604250522048
 20
90.98218424429899
 30
0.0
 10
144.8631496806372
 20
91.06451394034588
 30
0.0
 10
144.8895070017552
 20
91.16692632776488
 30
0.0
 10
144.9017207200274
 20
91.19774342414927
 30
0.0
 10
144.9363313701598
 20
91.22684094022621
 30
0.0
 10
144.9507180805272
 20
91.23379858086483
 30
0.0
 10
144.9919665636295
 20
91.23268883958796
 30
0.0
 10
145.0205061135604
 20
91.2243954339792
 30
0.0
 10
145.0814287790717
 20
91.17981200011796
 30
0.0
 10
145.1044947492116
 20
91.15935028686066
 30
0.0
 10
145.1483906292178
 20
91.11473766858032
 30
0.0
 10
145.169270664778
 20
91.09086159037393
 30
0.0
 10
145.2264809280711
 20
91.02096449321192
 30
0.0
 10
145.2588275518475
 20
90.97538690442745
 30
0.0
 10
145.3449934953393
 20
90.84650341680859
 30
0.0
 10
145.3906575153793
 20
90.76667023967653
 30
0.0
 10
145.5112050788305
 20
90.5408894305642
 30
0.0
 10
145.5702651675317
 20
90.40605804559289
 30
0.0
 10
145.6203950985927
 20
90.27780290692536
 30
0.0
  0
LINE
  5
CB
330
1F
100
AcDbEntity
  8
0
  6
Continuous
 62
     7
370
    15
100
AcDbLine
 10
144.8604253294
 20
90.8972751857
 30
0.0
 11
144.8604253294
 21
114.223020202
 31
0.0
  0
SPLINE
  5
CC
330
1F
100
AcDbEntity
  8
0
  6
Continuous
 62
     7
370
    15
100
AcDbSpline
210
0.0
220
0.0
230
1.0
 70
     8
 71
     3
 72
    10
 73
     6
 74
     0
 42
0.00000001
 43
0.00000001
 12
1.0
 22
0.0
 32
0.0
 13
1.0
 23
0.0
 33
0.0
 40
0.0
 40
0.0
 40
0.0
 40
0.0
 40
0.5
 40
0.5
 40
1.0
 40
1.0
 40
1.0
 40
1.0
 10
184.7104250522048
 20
121.3156655249937
 30
0.0
 10
184.7104250522048
 20
121.4740999678815
 30
0.0
 10
184.6482638357218
 20
121.6331206626835
 30
0.0
 10
184.4277544950502
 20
121.8631284869391
 30
0.0
 10
184.2688393921051
 20
121.9319637617559
 30
0.0
 10
184.1104250522048
 20
121.9319637617559
 30
0.0
  0
LINE
  5
CD
330
1F
100
AcDbEntity
  8
0
  6
Continuous
 62
     7
370
    15
100
AcDbLine
 10
184.7104256214
 20
117.8050460802
 30
0.0
 11
184.7104256214
 21
121.3156655939
 31
0.0
  0
SPLINE
  5
CE
330
1F
100
AcDbEntity
  8
0
  6
Continuous
 62
     7
370
    15
100
AcDbSpline
210
0.0
220
0.0
230
1.0
 70
     8
 71
     3
 72
    12
 73
     8
 74
     0
 42
0.00000001
 43
0.00000001
 12
1.0
 22
0.0
 32
0.0
 13
1.0
 23
0.0
 33
0.0
 40
0.0
 40
0.0
 40
0.0
 40
0.0
 40
0.25
 40
0.25
 40
0.5
 40
0.5
 40
1.0
 40
1.0
 40
1.0
 40
1.0
 10
184.1104250522048
 20
118.5561974929283
 30
0.0
 10
184.1997134112486
 20
118.5561974929282
 30
0.0
 10
184.2877722421508
 20
118.5305728603235
 30
0.0
 10
184.4404259553999
 20
118.4420294873917
 30
0.0
 10
184.5062194487419
 20
118.379147004277
 30
0.0
 10
184.661660095458
 20
118.1617858163434
 30
0.0
 10
184.7104250522048
 20
117.9831388063321
 30
0.0
 10
184.7104250522048
 20
117.8050456511564
 30
0.0
  0
LINE
  5
CF
330
1F
100
AcDbEntity
  8
0
  6
Continuous
 62
     7
370
    15
100
AcDbLine
 10
181.2004254373
 20
119.344787723
 30
0.0
 11
180.3204252558
 21
119.344787723
 31
0.0
  0
LINE
  5
D0
330
1F
100
AcDbEntity
  8
0
  6
Continuous
 62
     7
370
    15
100
AcDbLine
 10
180.3204252558
 20
115.1517993347
 30
0.0
 11
181.2004254373
 21
115.1517993347
 31
0.0
  0
SPLINE
  5
D1
330
1F
100
AcDbEntity
  8
0
  6
Continuous
 62
     7
370
    15
100
AcDbSpline
210
0.0
220
0.0
230
1.0
 70
     8
 71
     3
 72
     8
 73
     4
 74
     0
 42
0.00000001
 43
0.00000001
 12
1.0
 22
0.0
 32
0.0
 13
1.0
 23
0.0
 33
0.0
 40
0.0
 40
0.0
 40
0.0
 40
0.0
 40
1.0
 40
1.0
 40
1.0
 40
1.0
 10
178.7252653533114
 20
118.5561974929282
 30
0.0
 10
179.064688394593
 20
117.8264066314089
 30
0.0
 10
179.3971991380881
 20
117.0942382759872
 30
0.0
 10
179.7204250522048
 20
116.3588763913062
 30
0.0
  0
LINE
  5
D2
330
1F
100
AcDbEntity
  8
0
  6
Continuous
 62
     7
370
    15
100
AcDbLine
 10
179.7204253437
 20
116.3588762791
 30
0.0
 11
179.7204253437
 21
115.9606352956
 31
0.0
  0
SPLINE
  5
D3
330
1F
100
AcDbEntity
  8
0
  6
Continuous
 62
     7
370
    15
100
AcDbSpline
210
0.0
220
0.0
230
1.0
 70
     8
 71
     3
 72
    12
 73
     8
 74
     0
 42
0.00000001
 43
0.00000001
 12
1.0
 22
0.0
 32
0.0
 13
1.0
 23
0.0
 33
0.0
 40
0.0
 40
0.0
 40
0.0
 40
0.0
 40
0.5000000000000032
 40
0.5000000000000032
 40
0.7500000000000016
 40
0.7500000000000016
 40
1.0
 40
1.0
 40
1.0
 40
1.0
 10
179.7204250522048
 20
115.9606356721055
 30
0.0
 10
179.7204250522048
 20
115.7748695955274
 30
0.0
 10
179.7669707974614
 20
115.5896962835372
 30
0.0
 10
179.9170717458511
 20
115.3552856801936
 30
0.0
 10
179.9810085621452
 20
115.2851897827815
 30
0.0
 10
180.1363762938748
 20
115.1825092649774
 30
0.0
 10
180.2276195767928
 20
115.151799352002
 30
0.0
 10
180.3204250522048
 20
115.151799352002
 30
0.0
  0
SPLINE
  5
D4
330
1F
100
AcDbEntity
  8
0
  6
Continuous
 62
     7
370
    15
100
AcDbSpline
210
0.0
220
0.0
230
1.0
 70
     8
 71
     3
 72
    12
 73
     8
 74
     0
 42
0.00000001
 43
0.00000001
 12
1.0
 22
0.0
 32
0.0
 13
1.0
 23
0.0
 33
0.0
 40
0.0
 40
0.0
 40
0.0
 40
0.0
 40
0.25
 40
0.25
 40
0.5
 40
0.5
 40
1.0
 40
1.0
 40
1.0
 40
1.0
 10
181.2004250522048
 20
115.151799352002
 30
0.0
 10
181.2929670189266
 20
115.151799352002
 30
0.0
 10
181.385176396071
 20
115.1828326989183
 30
0.0
 10
181.5403133564479
 20
115.2856435647431
 30
0.0
 10
181.6041232539089
 20
115.3558163790888
 30
0.0
 10
181.75324968971
 20
115.5887288626167
 30
0.0
 10
181.8004250522048
 20
115.7755242246866
 30
0.0
 10
181.8004250522048
 20
115.9606356721055
 30
0.0
  0
LINE
  5
D5
330
1F
100
AcDbEntity
  8
0
  6
Continuous
 62
     7
370
    15
100
AcDbLine
 10
181.800424418
 20
115.9606352956
 30
0.0
 11
181.800424418
 21
116.3588762791
 31
0.0
  0
SPLINE
  5
D6
330
1F
100
AcDbEntity
  8
0
  6
Continuous
 62
     7
370
    15
100
AcDbSpline
210
0.0
220
0.0
230
1.0
 70
     8
 71
     3
 72
     8
 73
     4
 74
     0
 42
0.00000001
 43
0.00000001
 12
1.0
 22
0.0
 32
0.0
 13
1.0
 23
0.0
 33
0.0
 40
0.0
 40
0.0
 40
0.0
 40
0.0
 40
1.0
 40
1.0
 40
1.0
 40
1.0
 10
181.8004250522048
 20
116.3588763913061
 30
0.0
 10
182.1239826104597
 20
117.0949927899287
 30
0.0
 10
182.4564769306767
 20
117.8270843853474
 30
0.0
 10
182.7955847510983
 20
118.5561974929282
 30
0.0
  0
LINE
  5
D7
330
1F
100
AcDbEntity
  8
0
  6
Continuous
 62
     7
370
    15
100
AcDbLine
 10
182.7955854298
 20
118.5561977835
 30
0.0
 11
184.110424778
 21
118.5561977835
 31
0.0
  0
LINE
  5
D8
330
1F
100
AcDbEntity
  8
0
  6
Continuous
 62
     7
370
    15
100
AcDbLine
 10
184.7104256214
 20
117.8050460802
 30
0.0
 11
184.7104256214
 21
115.322191319
 31
0.0
  0
SPLINE
  5
D9
330
1F
100
AcDbEntity
  8
0
  6
Continuous
 62
     7
370
    15
100
AcDbSpline
210
0.0
220
0.0
230
1.0
 70
     8
 71
     3
 72
     8
 73
     4
 74
     0
 42
0.00000001
 43
0.00000001
 12
1.0
 22
0.0
 32
0.0
 13
1.0
 23
0.0
 33
0.0
 40
0.0
 40
0.0
 40
0.0
 40
0.0
 40
1.0
 40
1.0
 40
1.0
 40
1.0
 10
179.7204250522048
 20
120.158465187381
 30
0.0
 10
179.3894047211852
 20
120.7500208838387
 30
0.0
 10
179.0576234497011
 20
121.3411535480839
 30
0.0
 10
178.7252653533114
 20
121.9319637617559
 30
0.0
  0
LINE
  5
DA
330
1F
100
AcDbEntity
  8
0
  6
Continuous
 62
     7
370
    15
100
AcDbLine
 10
179.7204253437
 20
116.3588762791
 30
0.0
 11
179.7204253437
 21
120.1584656299
 31
0.0
  0
SPLINE
  5
DB
330
1F
100
AcDbEntity
  8
0
  6
Continuous
 62
     7
370
    15
100
AcDbSpline
210
0.0
220
0.0
230
1.0
 70
     8
 71
     3
 72
     8
 73
     4
 74
     0
 42
0.00000001
 43
0.00000001
 12
1.0
 22
0.0
 32
0.0
 13
1.0
 23
0.0
 33
0.0
 40
0.0
 40
0.0
 40
0.0
 40
0.0
 40
1.0
 40
1.0
 40
1.0
 40
1.0
 10
182.7955847510983
 20
121.9319637617559
 30
0.0
 10
182.4632266547086
 20
121.3411535480839
 30
0.0
 10
182.1314453832245
 20
120.7500208838387
 30
0.0
 10
181.8004250522048
 20
120.158465187381
 30
0.0
  0
LINE
  5
DC
330
1F
100
AcDbEntity
  8
0
  6
Continuous
 62
     7
370
    15
100
AcDbLine
 10
182.7955854298
 20
118.5561977835
 30
0.0
 11
182.7955854298
 21
121.9319645823
 31
0.0
  0
LINE
  5
DD
330
1F
100
AcDbEntity
  8
0
  6
Continuous
 62
     7
370
    15
100
AcDbLine
 10
181.800424418
 20
116.3588762791
 30
0.0
 11
181.800424418
 21
120.1584656299
 31
0.0
  0
SPLINE
  5
DE
330
1F
100
AcDbEntity
  8
0
  6
Continuous
 62
     7
370
    15
100
AcDbSpline
210
0.0
220
0.0
230
1.0
 70
     8
 71
     3
 72
    10
 73
     6
 74
     0
 42
0.00000001
 43
0.00000001
 12
1.0
 22
0.0
 32
0.0
 13
1.0
 23
0.0
 33
0.0
 40
0.0
 40
0.0
 40
0.0
 40
0.0
 40
0.5
 40
0.5
 40
1.0
 40
1.0
 40
1.0
 40
1.0
 10
179.9687694379548
 20
119.3447884918508
 30
0.0
 10
179.8914447060805
 20
119.4026704927124
 30
0.0
 10
179.828064880544
 20
119.4797438373463
 30
0.0
 10
179.742494431771
 20
119.6542468955402
 30
0.0
 10
179.7204250522048
 20
119.7510520990206
 30
0.0
 10
179.7204250522048
 20
119.8473924636706
 30
0.0
  0
SPLINE
  5
DF
330
1F
100
AcDbEntity
  8
0
  6
Continuous
 62
     7
370
    15
100
AcDbSpline
210
0.0
220
0.0
230
1.0
 70
    24
 71
     3
 72
    12
 73
     8
 74
     0
 42
0.00000001
 43
0.00000001
 12
1.0
 22
0.0
 32
0.0
 13
1.0
 23
0.0
 33
0.0
 40
0.0
 40
0.0
 40
0.0
 40
0.0
 40
0.2499999999999989
 40
0.2499999999999989
 40
0.4999999999999978
 40
0.4999999999999978
 40
1.0
 40
1.0
 40
1.0
 40
1.0
 10
180.3204250522048
 20
119.3447884918508
 30
0.0
 10
180.2688328519302
 20
119.3447884918508
 30
0.0
 10
180.2219278431357
 20
119.3447884918508
 30
0.0
 10
180.1485941172592
 20
119.3447884918508
 30
0.0
 10
180.1193642878102
 20
119.3447884918508
 30
0.0
 10
180.0411315077473
 20
119.3447884918508
 30
0.0
 10
180.0026973498396
 20
119.3447884918508
 30
0.0
 10
179.9687694379548
 20
119.3447884918508
 30
0.0
  0
LINE
  5
E0
330
1F
100
AcDbEntity
  8
0
  6
Continuous
 62
     7
370
    15
100
AcDbLine
 10
184.110424778
 20
121.9319645823
 30
0.0
 11
182.7955854298
 21
121.9319645823
 31
0.0
  0
SPLINE
  5
E1
330
1F
100
AcDbEntity
  8
0
  6
Continuous
 62
     7
370
    15
100
AcDbSpline
210
0.0
220
0.0
230
1.0
 70
    24
 71
     3
 72
    12
 73
     8
 74
     0
 42
0.00000001
 43
0.00000001
 12
1.0
 22
0.0
 32
0.0
 13
1.0
 23
0.0
 33
0.0
 40
0.0
 40
0.0
 40
0.0
 40
0.0
 40
0.5
 40
0.5
 40
0.75
 40
0.75
 40
1.0
 40
1.0
 40
1.0
 40
1.0
 10
181.5520806664548
 20
119.3447884918508
 30
0.0
 10
181.5179349181638
 20
119.3447884918508
 30
0.0
 10
181.4787417597588
 20
119.3447884918508
 30
0.0
 10
181.4008941011051
 20
119.3447884918508
 30
0.0
 10
181.3714896423198
 20
119.3447884918508
 30
0.0
 10
181.2984821210139
 20
119.3447884918508
 30
0.0
 10
181.2515768032061
 20
119.3447884918508
 30
0.0
 10
181.2004250522048
 20
119.3447884918508
 30
0.0
  0
SPLINE
  5
E2
330
1F
100
AcDbEntity
  8
0
  6
Continuous
 62
     7
370
    15
100
AcDbSpline
210
0.0
220
0.0
230
1.0
 70
     8
 71
     3
 72
    10
 73
     6
 74
     0
 42
0.00000001
 43
0.00000001
 12
1.0
 22
0.0
 32
0.0
 13
1.0
 23
0.0
 33
0.0
 40
0.0
 40
0.0
 40
0.0
 40
0.0
 40
0.5
 40
0.5
 40
1.0
 40
1.0
 40
1.0
 40
1.0
 10
181.8004250522048
 20
119.8473924636695
 30
0.0
 10
181.8004250522047
 20
119.750849916193
 30
0.0
 10
181.7784844296232
 20
119.6543887159228
 30
0.0
 10
181.6923542442313
 20
119.4789861216786
 30
0.0
 10
181.6292719370877
 20
119.4025705893115
 30
0.0
 10
181.5520806664548
 20
119.3447884918508
 30
0.0
  0
LINE
  5
E3
330
1F
100
AcDbEntity
  8
0
  6
Continuous
 62
     7
370
    15
100
AcDbLine
 10
144.8604253294
 20
90.6263161959
 30
0.0
 11
144.8604253294
 21
90.8972751857
 31
0.0
  0
LINE
  5
E4
330
1F
100
AcDbEntity
  8
0
  6
Continuous
 62
     7
370
    15
100
AcDbLine
 10
144.8604253294
 20
114.3187024207
 30
0.0
 11
144.8604253294
 21
114.223020202
 31
0.0
  0
LINE
  5
E5
330
1F
100
AcDbEntity
  8
0
  6
Continuous
 62
     7
370
    15
100
AcDbLine
 10
145.8104246469
 20
115.3247887777
 30
0.0
 11
145.8104246469
 21
115.3103691102
 31
0.0
  0
LINE
  5
E6
330
1F
100
AcDbEntity
  8
0
  6
Continuous
 62
     7
370
    15
100
AcDbLine
 10
144.8604253294
 20
114.3747885288
 30
0.0
 11
144.8604253294
 21
114.3187024207
 31
0.0
  0
LINE
  5
E7
330
1F
100
AcDbEntity
  8
0
  6
Continuous
 62
     7
370
    15
100
AcDbLine
 10
145.8694257946
 20
89.564788206
 30
0.0
 11
145.8694257946
 21
89.5937216045
 31
0.0
  0
LINE
  5
E8
330
1F
100
AcDbEntity
  8
0
  6
Continuous
 62
     7
370
    15
100
AcDbLine
 10
144.8604253294
 20
90.5737886713
 30
0.0
 11
144.8604253294
 21
90.6263161959
 31
0.0
  0
LINE
  5
E9
330
1F
100
AcDbEntity
  8
0
  6
HIDDEN
 62
     7
370
     0
100
AcDbLine
 10
213.2039883347
 20
101.4876461048
 30
0.0
 11
211.6532989951
 21
100.7160537918
 31
0.0
  0
LINE
  5
EA
330
1F
100
AcDbEntity
  8
0
  6
HIDDEN
 62
     7
370
     0
100
AcDbLine
 10
210.2097341032
 20
101.6731961207
 30
0.0
 11
211.6532989951
 21
100.7160537918
 31
0.0
  0
LINE
  5
EB
330
1F
100
AcDbEntity
  8
0
  6
HIDDEN
 62
     7
370
     0
100
AcDbLine
 10
213.3111165078
 20
103.216380863
 30
0.0
 11
213.2039883347
 21
101.4876461048
 31
0.0
  0
LINE
  5
EC
330
1F
100
AcDbEntity
  8
0
  6
HIDDEN
 62
     7
370
     0
100
AcDbLine
 10
210.3168622764
 20
103.4019308789
 30
0.0
 11
210.2097341032
 21
101.6731961207
 31
0.0
  0
LINE
  5
ED
330
1F
100
AcDbEntity
  8
0
  6
HIDDEN
 62
     7
370
     0
100
AcDbLine
 10
213.3111165078
 20
103.216380863
 30
0.0
 11
211.867551616
 21
104.1735231919
 31
0.0
  0
LINE
  5
EE
330
1F
100
AcDbEntity
  8
0
  6
HIDDEN
 62
     7
370
     0
100
AcDbLine
 10
210.3168622764
 20
103.4019308789
 30
0.0
 11
211.867551616
 21
104.1735231919
 31
0.0
  0
LINE
  5
EF
330
1F
100
AcDbEntity
  8
0
  6
HIDDEN
 62
     7
370
     0
100
AcDbLine
 10
203.2039904209
 20
101.4876461048
 30
0.0
 11
201.6532973559
 21
100.7160537918
 31
0.0
  0
LINE
  5
F0
330
1F
100
AcDbEntity
  8
0
  6
HIDDEN
 62
     7
370
     0
100
AcDbLine
 10
200.2097324641
 20
101.6731961207
 30
0.0
 11
201.6532973559
 21
100.7160537918
 31
0.0
  0
LINE
  5
F1
330
1F
100
AcDbEntity
  8
0
  6
HIDDEN
 62
     7
370
     0
100
AcDbLine
 10
203.311118594
 20
103.216380863
 30
0.0
 11
203.2039904209
 21
101.4876461048
 31
0.0
  0
LINE
  5
F2
330
1F
100
AcDbEntity
  8
0
  6
HIDDEN
 62
     7
370
     0
100
AcDbLine
 10
200.3168606372
 20
103.4019308789
 30
0.0
 11
200.2097324641
 21
101.6731961207
 31
0.0
  0
LINE
  5
F3
330
1F
100
AcDbEntity
  8
0
  6
HIDDEN
 62
     7
370
     0
100
AcDbLine
 10
203.311118594
 20
103.216380863
 30
0.0
 11
201.8675537022
 21
104.1735231919
 31
0.0
  0
LINE
  5
F4
330
1F
100
AcDbEntity
  8
0
  6
HIDDEN
 62
     7
370
     0
100
AcDbLine
 10
200.3168606372
 20
103.4019308789
 30
0.0
 11
201.8675537022
 21
104.1735231919
 31
0.0
  0
LINE
  5
F5
330
1F
100
AcDbEntity
  8
0
  6
HIDDEN
 62
     7
370
     0
100
AcDbLine
 10
211.9459764274
 20
109.781201514
 30
0.0
 11
214.7604257973
 21
109.781201514
 31
0.0
  0
LINE
  5
F6
330
1F
100
AcDbEntity
  8
0
  6
HIDDEN
 62
     7
370
     0
100
AcDbLine
 10
208.7604248138
 20
109.781201514
 30
0.0
 11
211.9459764274
 21
109.781201514
 31
0.0
  0
LINE
  5
F7
330
1F
100
AcDbEntity
  8
0
  6
HIDDEN
 62
     7
370
     0
100
AcDbLine
 10
211.8841254325
 20
108.7812013501
 30
0.0
 11
213.7604237707
 21
108.7812013501
 31
0.0
  0
LINE
  5
F8
330
1F
100
AcDbEntity
  8
0
  6
HIDDEN
 62
     7
370
     0
100
AcDbLine
 10
209.7604268403
 20
108.7812013501
 30
0.0
 11
211.8841254325
 21
108.7812013501
 31
0.0
  0
LINE
  5
F9
330
1F
100
AcDbEntity
  8
0
  6
HIDDEN
 62
     7
370
     0
100
AcDbLine
 10
211.9459764274
 20
118.4610613198
 30
0.0
 11
214.7604257973
 21
118.4610613198
 31
0.0
  0
LINE
  5
FA
330
1F
100
AcDbEntity
  8
0
  6
HIDDEN
 62
     7
370
     0
100
AcDbLine
 10
208.7604248138
 20
118.4610613198
 30
0.0
 11
211.9459764274
 21
118.4610613198
 31
0.0
  0
LINE
  5
FB
330
1F
100
AcDbEntity
  8
0
  6
HIDDEN
 62
     7
370
     0
100
AcDbLine
 10
211.9116776796
 20
118.7812015922
 30
0.0
 11
214.2059237869
 21
118.7812015922
 31
0.0
  0
LINE
  5
FC
330
1F
100
AcDbEntity
  8
0
  6
HIDDEN
 62
     7
370
     0
100
AcDbLine
 10
209.3149268241
 20
118.7812015922
 30
0.0
 11
211.9116776796
 21
118.7812015922
 31
0.0
  0
LINE
  5
FD
330
1F
100
AcDbEntity
  8
0
  6
HIDDEN
 62
     7
370
     0
100
AcDbLine
 10
210.3168622764
 20
115.2812010185
 30
0.0
 11
211.867551616
 21
115.2812010185
 31
0.0
  0
LINE
  5
FE
330
1F
100
AcDbEntity
  8
0
  6
HIDDEN
 62
     7
370
     0
100
AcDbLine
 10
213.3111165078
 20
115.2812010185
 30
0.0
 11
211.867551616
 21
115.2812010185
 31
0.0
  0
LINE
  5
FF
330
1F
100
AcDbEntity
  8
0
  6
HIDDEN
 62
     7
370
     0
100
AcDbLine
 10
211.867551616
 20
115.2812010185
 30
0.0
 11
211.867551616
 21
118.7812015922
 31
0.0
  0
LINE
  5
100
330
1F
100
AcDbEntity
  8
0
  6
HIDDEN
 62
     7
370
     0
100
AcDbLine
 10
210.3168622764
 20
115.2812010185
 30
0.0
 11
210.2097341032
 21
115.2812010185
 31
0.0
  0
LINE
  5
101
330
1F
100
AcDbEntity
  8
0
  6
HIDDEN
 62
     7
370
     0
100
AcDbLine
 10
210.3168622764
 20
115.2812010185
 30
0.0
 11
210.3168622764
 21
118.7812015922
 31
0.0
  0
LINE
  5
102
330
1F
100
AcDbEntity
  8
0
  6
HIDDEN
 62
     7
370
     0
100
AcDbLine
 10
213.2039883347
 20
115.2812010185
 30
0.0
 11
213.2039883347
 21
118.7812015922
 31
0.0
  0
LINE
  5
103
330
1F
100
AcDbEntity
  8
0
  6
HIDDEN
 62
     7
370
     0
100
AcDbLine
 10
213.3111165078
 20
115.2812010185
 30
0.0
 11
213.3111165078
 21
118.7812015922
 31
0.0
  0
LINE
  5
104
330
1F
100
AcDbEntity
  8
0
  6
HIDDEN
 62
     7
370
     0
100
AcDbLine
 10
211.6532989951
 20
115.2812010185
 30
0.0
 11
211.6532989951
 21
118.7812015922
 31
0.0
  0
LINE
  5
105
330
1F
100
AcDbEntity
  8
0
  6
HIDDEN
 62
     7
370
     0
100
AcDbLine
 10
210.2097341032
 20
115.2812010185
 30
0.0
 11
210.2097341032
 21
118.7812015922
 31
0.0
  0
LINE
  5
106
330
1F
100
AcDbEntity
  8
0
  6
HIDDEN
 62
     7
370
     0
100
AcDbLine
 10
201.9459747882
 20
109.781201514
 30
0.0
 11
204.7604241581
 21
109.781201514
 31
0.0
  0
LINE
  5
107
330
1F
100
AcDbEntity
  8
0
  6
HIDDEN
 62
     7
370
     0
100
AcDbLine
 10
198.7604268999
 20
109.781201514
 30
0.0
 11
201.9459747882
 21
109.781201514
 31
0.0
  0
LINE
  5
108
330
1F
100
AcDbEntity
  8
0
  6
HIDDEN
 62
     7
370
     0
100
AcDbLine
 10
201.8841237934
 20
108.7812013501
 30
0.0
 11
203.7604258569
 21
108.7812013501
 31
0.0
  0
LINE
  5
109
330
1F
100
AcDbEntity
  8
0
  6
HIDDEN
 62
     7
370
     0
100
AcDbLine
 10
199.7604252012
 20
108.7812013501
 30
0.0
 11
201.8841237934
 21
108.7812013501
 31
0.0
  0
LINE
  5
10A
330
1F
100
AcDbEntity
  8
0
  6
HIDDEN
 62
     7
370
     0
100
AcDbLine
 10
201.9459747882
 20
118.4610613198
 30
0.0
 11
204.7604241581
 21
118.4610613198
 31
0.0
  0
LINE
  5
10B
330
1F
100
AcDbEntity
  8
0
  6
HIDDEN
 62
     7
370
     0
100
AcDbLine
 10
198.7604268999
 20
118.4610613198
 30
0.0
 11
201.9459747882
 21
118.4610613198
 31
0.0
  0
LINE
  5
10C
330
1F
100
AcDbEntity
  8
0
  6
HIDDEN
 62
     7
370
     0
100
AcDbLine
 10
201.9116797657
 20
118.7812015922
 30
0.0
 11
204.2059258731
 21
118.7812015922
 31
0.0
  0
LINE
  5
10D
330
1F
100
AcDbEntity
  8
0
  6
HIDDEN
 62
     7
370
     0
100
AcDbLine
 10
199.314925185
 20
118.7812015922
 30
0.0
 11
201.9116797657
 21
118.7812015922
 31
0.0
  0
LINE
  5
10E
330
1F
100
AcDbEntity
  8
0
  6
HIDDEN
 62
     7
370
     0
100
AcDbLine
 10
200.3168606372
 20
115.2812010185
 30
0.0
 11
201.8675537022
 21
115.2812010185
 31
0.0
  0
LINE
  5
10F
330
1F
100
AcDbEntity
  8
0
  6
HIDDEN
 62
     7
370
     0
100
AcDbLine
 10
201.8675537022
 20
115.2812010185
 30
0.0
 11
201.8675537022
 21
118.7812015922
 31
0.0
  0
LINE
  5
110
330
1F
100
AcDbEntity
  8
0
  6
HIDDEN
 62
     7
370
     0
100
AcDbLine
 10
203.311118594
 20
115.2812010185
 30
0.0
 11
201.8675537022
 21
115.2812010185
 31
0.0
  0
LINE
  5
111
330
1F
100
AcDbEntity
  8
0
  6
HIDDEN
 62
     7
370
     0
100
AcDbLine
 10
200.3168606372
 20
115.2812010185
 30
0.0
 11
200.3168606372
 21
118.7812015922
 31
0.0
  0
LINE
  5
112
330
1F
100
AcDbEntity
  8
0
  6
HIDDEN
 62
     7
370
     0
100
AcDbLine
 10
200.3168606372
 20
115.2812010185
 30
0.0
 11
200.2097324641
 21
115.2812010185
 31
0.0
  0
LINE
  5
113
330
1F
100
AcDbEntity
  8
0
  6
HIDDEN
 62
     7
370
     0
100
AcDbLine
 10
203.2039904209
 20
115.2812010185
 30
0.0
 11
203.2039904209
 21
118.7812015922
 31
0.0
  0
LINE
  5
114
330
1F
100
AcDbEntity
  8
0
  6
HIDDEN
 62
     7
370
     0
100
AcDbLine
 10
203.311118594
 20
115.2812010185
 30
0.0
 11
203.311118594
 21
118.7812015922
 31
0.0
  0
LINE
  5
115
330
1F
100
AcDbEntity
  8
0
  6
HIDDEN
 62
     7
370
     0
100
AcDbLine
 10
201.6532973559
 20
115.2812010185
 30
0.0
 11
201.6532973559
 21
118.7812015922
 31
0.0
  0
LINE
  5
116
330
1F
100
AcDbEntity
  8
0
  6
HIDDEN
 62
     7
370
     0
100
AcDbLine
 10
200.2097324641
 20
115.2812010185
 30
0.0
 11
200.2097324641
 21
118.7812015922
 31
0.0
  0
CIRCLE
  5
117
330
1F
100
AcDbEntity
  8
0
  6
HIDDEN
 62
     7
370
     0
100
AcDbCircle
 10
211.7604250522
 20
102.4447884919
 30
0.0
 40
3.000000000000004
  0
CIRCLE
  5
118
330
1F
100
AcDbEntity
  8
0
  6
HIDDEN
 62
     7
370
     0
100
AcDbCircle
 10
211.7604250522
 20
102.4447884919
 30
0.0
 40
2.000000000000005
  0
LINE
  5
119
330
1F
100
AcDbEntity
  8
0
  6
HIDDEN
 62
     7
370
     0
100
AcDbLine
 10
193.2039887817
 20
101.4876461048
 30
0.0
 11
191.6532975794
 21
100.7160537918
 31
0.0
  0
LINE
  5
11A
330
1F
100
AcDbEntity
  8
0
  6
HIDDEN
 62
     7
370
     0
100
AcDbLine
 10
190.2097326876
 20
101.6731961207
 30
0.0
 11
191.6532975794
 21
100.7160537918
 31
0.0
  0
LINE
  5
11B
330
1F
100
AcDbEntity
  8
0
  6
HIDDEN
 62
     7
370
     0
100
AcDbLine
 10
193.3111169548
 20
103.216380863
 30
0.0
 11
193.2039887817
 21
101.4876461048
 31
0.0
  0
LINE
  5
11C
330
1F
100
AcDbEntity
  8
0
  6
HIDDEN
 62
     7
370
     0
100
AcDbLine
 10
190.3168608607
 20
103.4019308789
 30
0.0
 11
190.2097326876
 21
101.6731961207
 31
0.0
  0
LINE
  5
11D
330
1F
100
AcDbEntity
  8
0
  6
HIDDEN
 62
     7
370
     0
100
AcDbLine
 10
193.3111169548
 20
103.216380863
 30
0.0
 11
191.867552063
 21
104.1735231919
 31
0.0
  0
LINE
  5
11E
330
1F
100
AcDbEntity
  8
0
  6
HIDDEN
 62
     7
370
     0
100
AcDbLine
 10
190.3168608607
 20
103.4019308789
 30
0.0
 11
191.867552063
 21
104.1735231919
 31
0.0
  0
CIRCLE
  5
11F
330
1F
100
AcDbEntity
  8
0
  6
HIDDEN
 62
     7
370
     0
100
AcDbCircle
 10
191.7604250522
 20
102.4447884919
 30
0.0
 40
3.000000000000006
  0
CIRCLE
  5
120
330
1F
100
AcDbEntity
  8
0
  6
HIDDEN
 62
     7
370
     0
100
AcDbCircle
 10
191.7604250522
 20
102.4447884919
 30
0.0
 40
2.000000000000004
  0
LINE
  5
121
330
1F
100
AcDbEntity
  8
0
  6
HIDDEN
 62
     7
370
     0
100
AcDbLine
 10
191.9459750117
 20
109.781201514
 30
0.0
 11
194.7604243817
 21
109.781201514
 31
0.0
  0
LINE
  5
122
330
1F
100
AcDbEntity
  8
0
  6
HIDDEN
 62
     7
370
     0
100
AcDbLine
 10
188.7604252608
 20
109.781201514
 30
0.0
 11
191.9459750117
 21
109.781201514
 31
0.0
  0
LINE
  5
123
330
1F
100
AcDbEntity
  8
0
  6
HIDDEN
 62
     7
370
     0
100
AcDbLine
 10
191.8841258796
 20
108.7812013501
 30
0.0
 11
193.7604242177
 21
108.7812013501
 31
0.0
  0
LINE
  5
124
330
1F
100
AcDbEntity
  8
0
  6
HIDDEN
 62
     7
370
     0
100
AcDbLine
 10
189.7604254247
 20
108.7812013501
 30
0.0
 11
191.8841258796
 21
108.7812013501
 31
0.0
  0
LINE
  5
125
330
1F
100
AcDbEntity
  8
0
  6
HIDDEN
 62
     7
370
     0
100
AcDbLine
 10
191.9459750117
 20
118.4610613198
 30
0.0
 11
194.7604243817
 21
118.4610613198
 31
0.0
  0
LINE
  5
126
330
1F
100
AcDbEntity
  8
0
  6
HIDDEN
 62
     7
370
     0
100
AcDbLine
 10
188.7604252608
 20
118.4610613198
 30
0.0
 11
191.9459750117
 21
118.4610613198
 31
0.0
  0
LINE
  5
127
330
1F
100
AcDbEntity
  8
0
  6
HIDDEN
 62
     7
370
     0
100
AcDbLine
 10
192.6307243468
 20
118.7812015922
 30
0.0
 11
194.205924234
 21
118.7812015922
 31
0.0
  0
LINE
  5
128
330
1F
100
AcDbEntity
  8
0
  6
HIDDEN
 62
     7
370
     0
100
AcDbLine
 10
189.3149254085
 20
118.7812015922
 30
0.0
 11
190.8426110806
 21
118.7812015922
 31
0.0
  0
LINE
  5
129
330
1F
100
AcDbEntity
  8
0
  6
HIDDEN
 62
     7
370
     0
100
AcDbLine
 10
190.3168608607
 20
115.2812010185
 30
0.0
 11
191.867552063
 21
115.2812010185
 31
0.0
  0
LINE
  5
12A
330
1F
100
AcDbEntity
  8
0
  6
HIDDEN
 62
     7
370
     0
100
AcDbLine
 10
191.867552063
 20
115.2812010185
 30
0.0
 11
191.867552063
 21
118.7812015922
 31
0.0
  0
LINE
  5
12B
330
1F
100
AcDbEntity
  8
0
  6
HIDDEN
 62
     7
370
     0
100
AcDbLine
 10
193.3111169548
 20
115.2812010185
 30
0.0
 11
191.867552063
 21
115.2812010185
 31
0.0
  0
LINE
  5
12C
330
1F
100
AcDbEntity
  8
0
  6
HIDDEN
 62
     7
370
     0
100
AcDbLine
 10
190.3168608607
 20
115.2812010185
 30
0.0
 11
190.3168608607
 21
118.7812015922
 31
0.0
  0
LINE
  5
12D
330
1F
100
AcDbEntity
  8
0
  6
HIDDEN
 62
     7
370
     0
100
AcDbLine
 10
190.3168608607
 20
115.2812010185
 30
0.0
 11
190.2097326876
 21
115.2812010185
 31
0.0
  0
LINE
  5
12E
330
1F
100
AcDbEntity
  8
0
  6
HIDDEN
 62
     7
370
     0
100
AcDbLine
 10
193.2039887817
 20
115.2812010185
 30
0.0
 11
193.2039887817
 21
118.7812015922
 31
0.0
  0
LINE
  5
12F
330
1F
100
AcDbEntity
  8
0
  6
HIDDEN
 62
     7
370
     0
100
AcDbLine
 10
193.3111169548
 20
115.2812010185
 30
0.0
 11
193.3111169548
 21
118.7812015922
 31
0.0
  0
LINE
  5
130
330
1F
100
AcDbEntity
  8
0
  6
HIDDEN
 62
     7
370
     0
100
AcDbLine
 10
191.6532975794
 20
115.2812010185
 30
0.0
 11
191.6532975794
 21
118.7812015922
 31
0.0
  0
LINE
  5
131
330
1F
100
AcDbEntity
  8
0
  6
HIDDEN
 62
     7
370
     0
100
AcDbLine
 10
190.2097326876
 20
115.2812010185
 30
0.0
 11
190.2097326876
 21
118.7812015922
 31
0.0
  0
CIRCLE
  5
132
330
1F
100
AcDbEntity
  8
0
  6
HIDDEN
 62
     7
370
     0
100
AcDbCircle
 10
201.7604250522
 20
102.4447884919
 30
0.0
 40
3.000000000000003
  0
CIRCLE
  5
133
330
1F
100
AcDbEntity
  8
0
  6
HIDDEN
 62
     7
370
     0
100
AcDbCircle
 10
201.7604250522
 20
102.4447884919
 30
0.0
 40
2.000000000000002
  0
LINE
  5
134
330
1F
100
AcDbEntity
  8
0
  6
HIDDEN
 62
     7
370
     0
100
AcDbLine
 10
178.7252652632
 20
118.5561977835
 30
0.0
 11
178.7252652632
 21
114.294788851
 31
0.0
  0
LINE
  5
135
330
1F
100
AcDbEntity
  8
0
  6
HIDDEN
 62
     7
370
     0
100
AcDbLine
 10
184.7104256214
 20
115.322191319
 30
0.0
 11
184.7104256214
 21
114.294788851
 31
0.0
  0
LINE
  5
136
330
1F
100
AcDbEntity
  8
0
  6
HIDDEN
 62
     7
370
     0
100
AcDbLine
 10
211.9063393386
 20
119.263526103
 30
0.0
 11
211.2729803832
 21
119.2683466287
 31
0.0
  0
LINE
  5
137
330
1F
100
AcDbEntity
  8
0
  6
HIDDEN
 62
     7
370
     0
100
AcDbLine
 10
191.6136865677
 20
118.757991171
 30
0.0
 11
192.2387120487
 21
118.7628303231
 31
0.0
  0
LINE
  5
138
330
1F
100
AcDbEntity
  8
0
  6
HIDDEN
 62
     7
370
     0
100
AcDbLine
 10
156.4094166444
 20
87.7460334958
 30
0.0
 11
156.2104582028
 21
87.7203550698
 31
0.0
  0
SPLINE
  5
139
330
1F
100
AcDbEntity
  8
0
  6
HIDDEN
 62
     7
370
     0
100
AcDbSpline
210
0.0
220
0.0
230
1.0
 70
     8
 71
     3
 72
     9
 73
     5
 74
     0
 42
0.00000001
 43
0.00000001
 12
1.0
 22
0.0
 32
0.0
 13
1.0
 23
0.0
 33
0.0
 40
0.0
 40
0.0
 40
0.0
 40
0.0
 40
0.0295948964519587
 40
1.0
 40
1.0
 40
1.0
 40
1.0
 10
156.7669290290864
 20
87.78370176864235
 30
0.0
 10
156.7626031415758
 20
87.78336704635076
 30
0.0
 10
156.6164330910215
 20
87.7720569107625
 30
0.0
 10
156.5113702051127
 20
87.75884977131376
 30
0.0
 10
156.4094166444333
 20
87.74603349578945
 30
0.0
  0
SPLINE
  5
13A
330
1F
100
AcDbEntity
  8
0
  6
HIDDEN
 62
     7
370
     0
100
AcDbSpline
210
0.0
220
0.0
230
1.0
 70
     8
 71
     3
 72
     9
 73
     5
 74
     0
 42
0.00000001
 43
0.00000001
 12
1.0
 22
0.0
 32
0.0
 13
1.0
 23
0.0
 33
0.0
 40
0.0
 40
0.0
 40
0.0
 40
0.0
 40
0.985348532497498
 40
1.0
 40
1.0
 40
1.0
 40
1.0
 10
156.4092983664663
 20
117.1435285867509
 30
0.0
 10
156.5114255982628
 20
117.1307419158489
 30
0.0
 10
156.6150713930535
 20
117.1177651157824
 30
0.0
 10
156.7589462682276
 20
117.1066077252964
 30
0.0
 10
156.7610542462857
 20
117.1064442531523
 30
0.0
  0
LWPOLYLINE
  5
13B
330
1F
100
AcDbEntity
  8
0
  6
HIDDEN
 62
     7
370
     0
100
AcDbPolyline
 90
        3
 70
   128
 43
0.0
 10
155.9952174486
 20
117.1988454224
 10
156.1504540207
 20
117.1764098616
 10
156.4092983665
 20
117.1435285868
  0
SPLINE
  5
13C
330
1F
100
AcDbEntity
  8
0
  6
HIDDEN
 62
     7
370
     0
100
AcDbSpline
210
0.0
220
0.0
230
1.0
 70
     8
 71
     3
 72
    15
 73
    11
 74
     0
 42
0.00000001
 43
0.00000001
 12
1.0
 22
0.0
 32
0.0
 13
1.0
 23
0.0
 33
0.0
 40
0.0
 40
0.0
 40
0.0
 40
0.0
 40
0.1360947993897038
 40
0.2722233504338452
 40
0.4072157477284721
 40
0.5405337273204607
 40
0.674528402193116
 40
0.8104813419156445
 40
0.9466524598609822
 40
1.0
 40
1.0
 40
1.0
 40
1.0
 10
160.5846018703373
 20
89.77197860789863
 30
0.0
 10
160.4067016085288
 20
89.79592100441639
 30
0.0
 10
160.0508569654586
 20
89.8438117351916
 30
0.0
 10
159.3165337849586
 20
89.89952122354379
 30
0.0
 10
158.5371251310841
 20
89.90997201500866
 30
0.0
 10
157.7853389506748
 20
89.87277149221042
 30
0.0
 10
157.1380450440411
 20
89.80341716398421
 30
0.0
 10
156.6822456736508
 20
89.73460988682669
 30
0.0
 10
156.4560235138516
 20
89.69401346707906
 30
0.0
 10
156.4834730459137
 20
89.698917163519
 30
0.0
 10
156.4911998050005
 20
89.7002975032982
 30
0.0
  0
SPLINE
  5
13D
330
1F
100
AcDbEntity
  8
0
  6
HIDDEN
 62
     7
370
     0
100
AcDbSpline
210
0.0
220
0.0
230
1.0
 70
     8
 71
     3
 72
    15
 73
    11
 74
     0
 42
0.00000001
 43
0.00000001
 12
1.0
 22
0.0
 32
0.0
 13
1.0
 23
0.0
 33
0.0
 40
0.0
 40
0.0
 40
0.0
 40
0.0
 40
0.0809850953378773
 40
0.2142994841332234
 40
0.3489242590596051
 40
0.4852277276366004
 40
0.6209655570397145
 40
0.7547097406923156
 40
0.8881684412294678
 40
1.0
 40
1.0
 40
1.0
 40
1.0
 10
156.4911998050005
 20
115.1892794804033
 30
0.0
 10
156.4882365261369
 20
115.1897876090431
 30
0.0
 10
156.480395217447
 20
115.1911321985002
 30
0.0
 10
156.7518862189125
 20
115.1434084659234
 30
0.0
 10
157.2458692359571
 20
115.0722445517205
 30
0.0
 10
157.9242466380952
 20
115.0061513718659
 30
0.0
 10
158.6958871203579
 20
114.977609400751
 30
0.0
 10
159.466255634109
 20
114.9981640556506
 30
0.0
 10
160.1277677111144
 20
115.0554289186246
 30
0.0
 10
160.4415457098359
 20
115.0981302084936
 30
0.0
 10
160.5846018703373
 20
115.1175983758029
 30
0.0
  0
SPLINE
  5
13E
330
1F
100
AcDbEntity
  8
0
  6
HIDDEN
 62
     7
370
     0
100
AcDbSpline
210
0.0
220
0.0
230
1.0
 70
     8
 71
     3
 72
     9
 73
     5
 74
     0
 42
0.00000001
 43
0.00000001
 12
1.0
 22
0.0
 32
0.0
 13
1.0
 23
0.0
 33
0.0
 40
0.0
 40
0.0
 40
0.0
 40
0.0
 40
0.5108162292355561
 40
1.0
 40
1.0
 40
1.0
 40
1.0
 10
160.5846018703373
 20
115.1175983758029
 30
0.0
 10
160.7245896390684
 20
115.134940978585
 30
0.0
 10
160.9986368613752
 20
115.1688917455918
 30
0.0
 10
161.0366363018926
 20
115.1707217428275
 30
0.0
 10
161.0552250114919
 20
115.1716169477758
 30
0.0
  0
SPLINE
  5
13F
330
1F
100
AcDbEntity
  8
0
  6
HIDDEN
 62
     7
370
     0
100
AcDbSpline
210
0.0
220
0.0
230
1.0
 70
     8
 71
     3
 72
    10
 73
     6
 74
     0
 42
0.00000001
 43
0.00000001
 12
1.0
 22
0.0
 32
0.0
 13
1.0
 23
0.0
 33
0.0
 40
0.0
 40
0.0
 40
0.0
 40
0.0
 40
0.0213446420092497
 40
0.5331818962574534
 40
1.0
 40
1.0
 40
1.0
 40
1.0
 10
161.0553058037252
 20
89.71795258534519
 30
0.0
 10
161.0570042215305
 20
89.71779650519444
 30
0.0
 10
161.0994301205302
 20
89.71389767612493
 30
0.0
 10
160.9599402645017
 20
89.72377275793771
 30
0.0
 10
160.705818040723
 20
89.75641044697159
 30
0.0
 10
160.5846018703373
 20
89.77197860789863
 30
0.0
  0
LINE
  5
140
330
1F
100
AcDbEntity
  8
0
  6
HIDDEN
 62
     7
370
     0
100
AcDbLine
 10
152.7630745606
 20
91.9447886334
 30
0.0
 11
152.7630745606
 21
112.9447883503
 31
0.0
  0
LINE
  5
141
330
1F
100
AcDbEntity
  8
0
  6
HIDDEN
 62
     7
370
     0
100
AcDbLine
 10
170.9298000844
 20
91.9447886334
 30
0.0
 11
170.9298000844
 21
112.9447883503
 31
0.0
  0
LINE
  5
142
330
1F
100
AcDbEntity
  8
0
  6
HIDDEN
 62
     7
370
     0
100
AcDbLine
 10
172.7104255171
 20
92.5697880374
 30
0.0
 11
172.7104255171
 21
112.3197889463
 31
0.0
  0
SPLINE
  5
143
330
1F
100
AcDbEntity
  8
0
  6
HIDDEN
 62
     7
370
     0
100
AcDbSpline
210
0.0
220
0.0
230
1.0
 70
     8
 71
     3
 72
    14
 73
    10
 74
     0
 42
0.00000001
 43
0.00000001
 12
1.0
 22
0.0
 32
0.0
 13
1.0
 23
0.0
 33
0.0
 40
0.0
 40
0.0
 40
0.0
 40
0.0
 40
0.2499999999999999
 40
0.2499999999999999
 40
0.4999999999999998
 40
0.4999999999999998
 40
0.7499999999999997
 40
0.7499999999999997
 40
1.0
 40
1.0
 40
1.0
 40
1.0
 10
148.4604250522048
 20
112.4689779852712
 30
0.0
 10
148.4604250522048
 20
112.4325061207374
 30
0.0
 10
148.4380544204008
 20
112.3947703682249
 30
0.0
 10
148.3508388891525
 20
112.3196346465254
 30
0.0
 10
148.2868176830759
 20
112.2832623603033
 30
0.0
 10
148.1233323853346
 20
112.2190388211412
 30
0.0
 10
148.0240175111614
 20
112.1915158585188
 30
0.0
 10
147.8041912404563
 20
112.1533436916317
 30
0.0
 10
147.6831876781471
 20
112.142694193599
 30
0.0
 10
147.5604250522048
 20
112.142694193599
 30
0.0
  0
LINE
  5
144
330
1F
100
AcDbEntity
  8
0
  6
HIDDEN
 62
     7
370
     0
100
AcDbLine
 10
147.5604244681
 20
112.1426942335
 30
0.0
 11
145.8104246469
 21
112.1426942335
 31
0.0
  0
ARC
  5
145
330
1F
100
AcDbEntity
  8
0
  6
HIDDEN
 62
     7
370
     0
100
AcDbCircle
 10
149.8354250522
 20
102.4447884919
 30
0.0
 40
10.49999999999998
100
AcDbArc
 50
247.4596895365
 51
247.8078280674
  0
LINE
  5
146
330
1F
100
AcDbEntity
  8
0
  6
HIDDEN
 62
     7
370
     0
100
AcDbLine
 10
145.8694257946
 20
92.7226050333
 30
0.0
 11
150.0604248779
 21
92.7226050333
 31
0.0
  0
SPLINE
  5
147
330
1F
100
AcDbEntity
  8
0
  6
HIDDEN
 62
     7
370
     0
100
AcDbSpline
210
0.0
220
0.0
230
1.0
 70
     8
 71
     3
 72
    14
 73
    10
 74
     0
 42
0.00000001
 43
0.00000001
 12
1.0
 22
0.0
 32
0.0
 13
1.0
 23
0.0
 33
0.0
 40
0.0
 40
0.0
 40
0.0
 40
0.0
 40
0.25
 40
0.25
 40
0.5
 40
0.5
 40
0.75
 40
0.75
 40
1.0
 40
1.0
 40
1.0
 40
1.0
 10
150.0604250522048
 20
92.72260540367556
 30
0.0
 10
150.1828931401238
 20
92.72260540367556
 30
0.0
 10
150.3031042189926
 20
92.71226838395567
 30
0.0
 10
150.5233105382452
 20
92.67480115537771
 30
0.0
 10
150.6229659909432
 20
92.64766998708846
 30
0.0
 10
150.785953343899
 20
92.58490294088163
 30
0.0
 10
150.8506907046455
 20
92.54883924695471
 30
0.0
 10
150.9375260547625
 20
92.47564657708664
 30
0.0
 10
150.9604250522048
 20
92.43810379157564
 30
0.0
 10
150.9604250522048
 20
92.4023961473942
 30
0.0
  0
LINE
  5
148
330
1F
100
AcDbEntity
  8
0
  6
HIDDEN
 62
     7
370
     0
100
AcDbLine
 10
145.8104246469
 20
92.7468827502
 30
0.0
 11
145.8104246469
 21
112.1426942335
 31
0.0
  0
LINE
  5
149
330
1F
100
AcDbEntity
  8
0
  6
HIDDEN
 62
     7
370
     0
100
AcDbLine
 10
148.4604248019
 20
113.4447884322
 30
0.0
 11
148.4604248019
 21
116.0023129122
 31
0.0
  0
LINE
  5
14A
330
1F
100
AcDbEntity
  8
0
  6
HIDDEN
 62
     7
370
     0
100
AcDbLine
 10
150.9604252116
 20
91.4447885515
 30
0.0
 11
150.9604252116
 21
88.808042048
 31
0.0
  0
LINE
  5
14B
330
1F
100
AcDbEntity
  8
0
  6
HIDDEN
 62
     7
370
     0
100
AcDbLine
 10
145.8104246469
 20
113.4447884322
 30
0.0
 11
145.8104246469
 21
115.3103691102
 31
0.0
  0
LINE
  5
14C
330
1F
100
AcDbEntity
  8
0
  6
HIDDEN
 62
     7
370
     0
100
AcDbLine
 10
145.8694257946
 20
91.4447885515
 30
0.0
 11
145.8694257946
 21
89.5937216045
 31
0.0
  0
LINE
  5
14D
330
1F
100
AcDbEntity
  8
0
  6
HIDDEN
 62
     7
370
     0
100
AcDbLine
 10
178.0604248108
 20
96.1947883987
 30
0.0
 11
178.0604248108
 21
108.694788585
 31
0.0
  0
LINE
  5
14E
330
1F
100
AcDbEntity
  8
0
  6
HIDDEN
 62
     7
370
     0
100
AcDbLine
 10
180.5604242893
 20
96.1947883987
 30
0.0
 11
180.5604242893
 21
108.694788585
 31
0.0
  0
LINE
  5
14F
330
1F
100
AcDbEntity
  8
0
  6
HIDDEN
 62
     7
370
     0
100
AcDbLine
 10
173.2104246678
 20
96.9447885217
 30
0.0
 11
173.2104246678
 21
107.944788462
 31
0.0
  0
LINE
  5
150
330
1F
100
AcDbEntity
  8
0
  6
HIDDEN
 62
     7
370
     0
100
AcDbLine
 10
172.7104255171
 20
82.4698042632
 30
0.0
 11
172.7104255171
 21
85.5447892608
 31
0.0
  0
LINE
  5
151
330
1F
100
AcDbEntity
  8
0
  6
HIDDEN
 62
     7
370
     0
100
AcDbLine
 10
177.2104253234
 20
85.5447892608
 30
0.0
 11
172.7104255171
 21
85.5447892608
 31
0.0
  0
LINE
  5
152
330
1F
100
AcDbEntity
  8
0
  6
HIDDEN
 62
     7
370
     0
100
AcDbLine
 10
179.7556470321
 20
85.5447892608
 30
0.0
 11
177.2104253234
 21
85.5447892608
 31
0.0
  0
LINE
  5
153
330
1F
100
AcDbEntity
  8
0
  6
HIDDEN
 62
     7
370
     0
100
AcDbLine
 10
184.7104256214
 20
85.5447892608
 30
0.0
 11
181.7652017982
 21
85.5447892608
 31
0.0
  0
ELLIPSE
  5
154
330
1F
100
AcDbEntity
  8
0
  6
HIDDEN
 62
     7
370
     0
100
AcDbEllipse
 10
142.7546583125
 20
102.4447884919
 30
0.0
 11
12.26424774976724
 21
0.0
 31
0.0
210
0.0
220
0.0
230
1.0
 40
0.8164965809
 41
4.884943637108979
 42
4.96420235431327
  0
ELLIPSE
  5
155
330
1F
100
AcDbEntity
  8
0
  6
HIDDEN
 62
     7
370
     0
100
AcDbEllipse
 10
142.7546583125
 20
102.4447884919
 30
0.0
 11
12.26424774976724
 21
0.0
 31
0.0
210
0.0
220
0.0
230
1.0
 40
0.8164965809
 41
1.318982952866329
 42
1.398241670070619
  0
LINE
  5
156
330
1F
100
AcDbEntity
  8
0
  6
HIDDEN
 62
     7
370
     0
100
AcDbLine
 10
184.7104870887
 20
119.344787723
 30
0.0
 11
181.5520798029
 21
119.344787723
 31
0.0
  0
LINE
  5
157
330
1F
100
AcDbEntity
  8
0
  6
HIDDEN
 62
     7
370
     0
100
AcDbLine
 10
179.9687690275
 20
119.344787723
 30
0.0
 11
177.2104253234
 21
119.344787723
 31
0.0
  0
LINE
  5
158
330
1F
100
AcDbEntity
  8
0
  6
HIDDEN
 62
     7
370
     0
100
AcDbLine
 10
177.2104253234
 20
119.344787723
 30
0.0
 11
172.7104255171
 21
119.344787723
 31
0.0
  0
LINE
  5
159
330
1F
100
AcDbEntity
  8
0
  6
HIDDEN
 62
     7
370
     0
100
AcDbLine
 10
145.8104246469
 20
113.4447884322
 30
0.0
 11
145.8104246469
 21
112.1426942335
 31
0.0
  0
LINE
  5
15A
330
1F
100
AcDbEntity
  8
0
  6
HIDDEN
 62
     7
370
     0
100
AcDbLine
 10
148.4604248019
 20
113.4447884322
 30
0.0
 11
148.4604248019
 21
112.4689784409
 31
0.0
  0
LINE
  5
15B
330
1F
100
AcDbEntity
  8
0
  6
HIDDEN
 62
     7
370
     0
100
AcDbLine
 10
145.8694257946
 20
91.4447885515
 30
0.0
 11
145.8694257946
 21
92.7226050333
 31
0.0
  0
LINE
  5
15C
330
1F
100
AcDbEntity
  8
0
  6
HIDDEN
 62
     7
370
     0
100
AcDbLine
 10
150.9604252116
 20
91.4447885515
 30
0.0
 11
150.9604252116
 21
92.4023958431
 31
0.0
  0
LINE
  5
15D
330
1F
100
AcDbEntity
  8
0
  6
HIDDEN
 62
     7
370
     0
100
AcDbLine
 10
186.9361822666
 20
102.4447884919
 30
0.0
 11
186.9361822666
 21
99.1447885097
 31
0.0
  0
LINE
  5
15E
330
1F
100
AcDbEntity
  8
0
  6
HIDDEN
 62
     7
370
     0
100
AcDbLine
 10
186.9361822666
 20
105.744788474
 30
0.0
 11
186.9361822666
 21
102.4447884919
 31
0.0
  0
LINE
  5
15F
330
1F
100
AcDbEntity
  8
0
  6
HIDDEN
 62
     7
370
     0
100
AcDbLine
 10
183.7604244413
 20
102.4447884919
 30
0.0
 11
183.7604244413
 21
99.5447885287
 31
0.0
  0
LINE
  5
160
330
1F
100
AcDbEntity
  8
0
  6
HIDDEN
 62
     7
370
     0
100
AcDbLine
 10
183.7604244413
 20
105.344788455
 30
0.0
 11
183.7604244413
 21
102.4447884919
 31
0.0
  0
LINE
  5
161
330
1F
100
AcDbEntity
  8
0
  6
HIDDEN
 62
     7
370
     0
100
AcDbLine
 10
187.7604250969
 20
102.4447884919
 30
0.0
 11
187.7604250969
 21
99.4447884658
 31
0.0
  0
LINE
  5
162
330
1F
100
AcDbEntity
  8
0
  6
HIDDEN
 62
     7
370
     0
100
AcDbLine
 10
187.7604250969
 20
105.4447885179
 30
0.0
 11
187.7604250969
 21
102.4447884919
 31
0.0
  0
SPLINE
  5
163
330
1F
100
AcDbEntity
  8
0
  6
HIDDEN
 62
     7
370
     0
100
AcDbSpline
210
0.0
220
0.0
230
1.0
 70
     8
 71
     3
 72
    11
 73
     7
 74
     0
 42
0.00000001
 43
0.00000001
 12
1.0
 22
0.0
 32
0.0
 13
1.0
 23
0.0
 33
0.0
 40
0.0
 40
0.0
 40
0.0
 40
0.0
 40
0.3851954207689286
 40
0.7128710471912713
 40
0.8994964148501966
 40
1.0
 40
1.0
 40
1.0
 40
1.0
 10
156.8447987721951
 20
88.23896390808193
 30
0.0
 10
156.963896186635
 20
88.25366453262193
 30
0.0
 10
157.1843066431769
 20
88.28087059231308
 30
0.0
 10
157.5608521625376
 20
88.30757186344907
 30
0.0
 10
157.8377017987141
 20
88.32200709093054
 30
0.0
 10
157.9750474932337
 20
88.32533360700508
 30
0.0
 10
158.0231225290985
 20
88.32649798554746
 30
0.0
  0
SPLINE
  5
164
330
1F
100
AcDbEntity
  8
0
  6
HIDDEN
 62
     7
370
     0
100
AcDbSpline
210
0.0
220
0.0
230
1.0
 70
     8
 71
     3
 72
    47
 73
    43
 74
     0
 42
0.00000001
 43
0.00000001
 12
1.0
 22
0.0
 32
0.0
 13
1.0
 23
0.0
 33
0.0
 40
0.0
 40
0.0
 40
0.0
 40
0.0
 40
0.0182122804094397
 40
0.0624448888913288
 40
0.1155365812666187
 40
0.1647116657566212
 40
0.2142756530941617
 40
0.2663047472127114
 40
0.2933053730812618
 40
0.3070544418654313
 40
0.3139913229007735
 40
0.3174753543239188
 40
0.3192212732913209
 40
0.3200951985320444
 40
0.320532423062788
 40
0.320751087774848
 40
0.3208604272255246
 40
0.3209151136903841
 40
0.3209424402139943
 40
0.3209561272532988
 40
0.3209629415338613
 40
0.3209663767731347
 40
0.3209680667149318
 40
0.3209697861499929
 40
0.3331880103050143
 40
0.354741258642743
 40
0.3856232817702322
 40
0.4258251384720916
 40
0.4839331640236783
 40
0.5304173375396024
 40
0.6310367048986809
 40
0.6837627536442641
 40
0.7017116201314695
 40
0.7198390830370592
 40
0.7381481522544765
 40
0.7732779671676913
 40
0.8035933918408729
 40
0.8423937621150215
 40
0.9003272826475642
 40
0.9465659639703125
 40
0.9934971731573979
 40
1.0
 40
1.0
 40
1.0
 40
1.0
 10
160.6194533580632
 20
88.0195377902445
 30
0.0
 10
160.6517600471497
 20
88.01155051932344
 30
0.0
 10
160.7625307779475
 20
87.98416436920945
 30
0.0
 10
160.9062494326452
 20
87.94372009964476
 30
0.0
 10
161.031569890166
 20
87.908160785127
 30
0.0
 10
161.0736425056651
 20
87.89502427991555
 30
0.0
 10
161.0345908976522
 20
87.90808500544559
 30
0.0
 10
160.9305189762647
 20
87.93714808011637
 30
0.0
 10
160.8189368339825
 20
87.9670354543821
 30
0.0
 10
160.7524323588221
 20
87.98456505244916
 30
0.0
 10
160.7164493427327
 20
87.99399399258301
 30
0.0
 10
160.6977687592079
 20
87.99887320594185
 30
0.0
 10
160.688256009824
 20
88.0013553085003
 30
0.0
 10
160.6834559398568
 20
88.00260713842013
 30
0.0
 10
160.681045340237
 20
88.00323391743622
 30
0.0
 10
160.6798368536328
 20
88.00354988599862
 30
0.0
 10
160.6792327314003
 20
88.00370646284233
 30
0.0
 10
160.678929497559
 20
88.00378658380407
 30
0.0
 10
160.6787791522013
 20
88.0038252574192
 30
0.0
 10
160.6787025988947
 20
88.00384528326231
 30
0.0
 10
160.6786653199873
 20
88.00385435711975
 30
0.0
 10
160.6786462114705
 20
88.00386031333053
 30
0.0
 10
160.6786356912603
 20
88.00386269739688
 30
0.0
 10
160.6585591541704
 20
88.00830738095313
 30
0.0
 10
160.6047438678583
 20
88.02432104201053
 30
0.0
 10
160.4887903430221
 20
88.0525473021209
 30
0.0
 10
160.3046703196629
 20
88.09486394563878
 30
0.0
 10
160.0140125341537
 20
88.15418729287587
 30
0.0
 10
159.6443754478147
 20
88.21821266640154
 30
0.0
 10
159.0778684494936
 20
88.29512774322872
 30
0.0
 10
158.4826433569197
 20
88.33086460962224
 30
0.0
 10
158.0029784074618
 20
88.3295275047806
 30
0.0
 10
157.7672626879368
 20
88.32213899111746
 30
0.0
 10
157.627578773969
 20
88.31553515153296
 30
0.0
 10
157.4509103354477
 20
88.30425528404038
 30
0.0
 10
157.2576836019756
 20
88.2862450668717
 30
0.0
 10
157.0416709434976
 20
88.26422930860839
 30
0.0
 10
156.8141111735653
 20
88.23627989989647
 30
0.0
 10
156.6179284040625
 20
88.20671385569558
 30
0.0
 10
156.4992945935855
 20
88.18488784668678
 30
0.0
 10
156.4509156897618
 20
88.17748212330348
 30
0.0
 10
156.4635672661547
 20
88.17999501588594
 30
0.0
 10
156.4651069404275
 20
88.18030083042947
 30
0.0
  0
LINE
  5
165
330
1F
100
AcDbEntity
  8
0
  6
HIDDEN
 62
     7
370
     0
100
AcDbLine
 10
156.6351580606
 20
88.208414665
 30
0.0
 11
156.8447987722
 21
88.2389639081
 31
0.0
  0
LINE
  5
166
330
1F
100
AcDbEntity
  8
0
  6
HIDDEN
 62
     7
370
     0
100
AcDbLine
 10
156.8447959782
 20
116.6505422951
 30
0.0
 11
156.618855259
 21
116.6834719987
 31
0.0
  0
SPLINE
  5
167
330
1F
100
AcDbEntity
  8
0
  6
HIDDEN
 62
     7
370
     0
100
AcDbSpline
210
0.0
220
0.0
230
1.0
 70
     8
 71
     3
 72
    34
 73
    30
 74
     0
 42
0.00000001
 43
0.00000001
 12
1.0
 22
0.0
 32
0.0
 13
1.0
 23
0.0
 33
0.0
 40
0.0
 40
0.0
 40
0.0
 40
0.0
 40
0.0077735237215272
 40
0.0638902873435168
 40
0.0897951517558809
 40
0.1192470649964356
 40
0.1522485328055876
 40
0.1888010115365523
 40
0.2401530487985731
 40
0.2787948771248354
 40
0.2939614921233621
 40
0.305632830616814
 40
0.3138086198827356
 40
0.378892550012822
 40
0.4421142314457697
 40
0.5035807916542783
 40
0.5634086816489073
 40
0.5894863646997414
 40
0.6190295260818357
 40
0.652042647769004
 40
0.6885286081075601
 40
0.7415723635082843
 40
0.7806448788747163
 40
0.795532567687233
 40
0.8065779827713049
 40
0.8137808796439034
 40
0.8792325130979002
 40
0.9417217629281065
 40
1.0
 40
1.0
 40
1.0
 40
1.0
 10
156.4650929705889
 20
116.7092342437562
 30
0.0
 10
156.4635456734991
 20
116.7095411343694
 30
0.0
 10
156.4508284992527
 20
116.7120634563129
 30
0.0
 10
156.4885000359741
 20
116.7063629069735
 30
0.0
 10
156.5503291084628
 20
116.6950123173223
 30
0.0
 10
156.6197415800704
 20
116.683102388782
 30
0.0
 10
156.7185596697927
 20
116.6677067563431
 30
0.0
 10
156.8677772029438
 20
116.646373504787
 30
0.0
 10
157.0590896858581
 20
116.6232334603797
 30
0.0
 10
157.2442253529924
 20
116.6045795248517
 30
0.0
 10
157.367989033427
 20
116.5932706681158
 30
0.0
 10
157.4363320850931
 20
116.5873761584907
 30
0.0
 10
157.6057774255252
 20
116.5740345423373
 30
0.0
 10
157.9004074086314
 20
116.5603671948099
 30
0.0
 10
158.3444066448426
 20
116.5591580990315
 30
0.0
 10
158.7914948019009
 20
116.5770349154725
 30
0.0
 10
159.146745415132
 20
116.607279340469
 30
0.0
 10
159.4158585090108
 20
116.6404042591587
 30
0.0
 10
159.6169662240126
 20
116.6689767525227
 30
0.0
 10
159.8327925830257
 20
116.7036100163125
 30
0.0
 10
160.0846989788963
 20
116.7496043018015
 30
0.0
 10
160.3251687765701
 20
116.798992008579
 30
0.0
 10
160.4998195725598
 20
116.8394628425306
 30
0.0
 10
160.5958181800515
 20
116.8637547895459
 30
0.0
 10
160.6422033065139
 20
116.8760150772017
 30
0.0
 10
160.7548269050805
 20
116.9058748535287
 30
0.0
 10
160.9058848407943
 20
116.9451383007913
 30
0.0
 10
161.0372515305222
 20
116.9821265012554
 30
0.0
 10
161.0523126135086
 20
116.9873028360771
 30
0.0
 10
161.0595805743427
 20
116.9898007572946
 30
0.0
  0
SPLINE
  5
168
330
1F
100
AcDbEntity
  8
0
  6
HIDDEN
 62
     7
370
     0
100
AcDbSpline
210
0.0
220
0.0
230
1.0
 70
     8
 71
     3
 72
    10
 73
     6
 74
     0
 42
0.00000001
 43
0.00000001
 12
1.0
 22
0.0
 32
0.0
 13
1.0
 23
0.0
 33
0.0
 40
0.0
 40
0.0
 40
0.0
 40
0.0
 40
0.2531748020364187
 40
0.5868561163861409
 40
1.0
 40
1.0
 40
1.0
 40
1.0
 10
157.9154080884249
 20
116.5632671253142
 30
0.0
 10
157.8077833329858
 20
116.5679827787434
 30
0.0
 10
157.5583104569494
 20
116.5789136061221
 30
0.0
 10
157.1768599243269
 20
116.6095866231101
 30
0.0
 10
156.9630665342952
 20
116.6359551947645
 30
0.0
 10
156.8447959782274
 20
116.6505422951039
 30
0.0
  0
SPLINE
  5
169
330
1F
100
AcDbEntity
  8
0
  6
HIDDEN
 62
     7
370
     0
100
AcDbSpline
210
0.0
220
0.0
230
1.0
 70
     8
 71
     3
 72
    11
 73
     7
 74
     0
 42
0.00000001
 43
0.00000001
 12
1.0
 22
0.0
 32
0.0
 13
1.0
 23
0.0
 33
0.0
 40
0.0
 40
0.0
 40
0.0
 40
0.0
 40
0.3162877582222217
 40
0.6267047237317591
 40
0.8831421677181871
 40
1.0
 40
1.0
 40
1.0
 40
1.0
 10
190.4375490905435
 20
104.5661087190118
 30
0.0
 10
190.235260791837
 20
104.7030477066802
 30
0.0
 10
189.8344389798655
 20
104.9743838814255
 30
0.0
 10
189.4539283753546
 20
105.2852389811509
 30
0.0
 10
189.2621737578395
 20
105.4431929494906
 30
0.0
 10
189.2791566356275
 20
105.4291689484351
 30
0.0
 10
189.2844730229766
 20
105.4247788195815
 30
0.0
  0
LINE
  5
16A
330
1F
100
AcDbEntity
  8
0
  6
HIDDEN
 62
     7
370
     0
100
AcDbLine
 10
190.4375490905
 20
104.566108719
 30
0.0
 11
190.170835069
 21
104.3371578488
 31
0.0
  0
SPLINE
  5
16B
330
1F
100
AcDbEntity
  8
0
  6
HIDDEN
 62
     7
370
     0
100
AcDbSpline
210
0.0
220
0.0
230
1.0
 70
     8
 71
     3
 72
     9
 73
     5
 74
     0
 42
0.00000001
 43
0.00000001
 12
1.0
 22
0.0
 32
0.0
 13
1.0
 23
0.0
 33
0.0
 40
0.0
 40
0.0
 40
0.0
 40
0.0
 40
0.8087805769235025
 40
1.0
 40
1.0
 40
1.0
 40
1.0
 10
191.7158936323316
 20
99.9523199205604
 30
0.0
 10
191.8652830227308
 20
99.9478409247918
 30
0.0
 10
192.0499924416531
 20
99.94230296320322
 30
0.0
 10
192.2102146329762
 20
99.99201155457061
 30
0.0
 10
192.2408522279651
 20
100.0015168027338
 30
0.0
  0
SPLINE
  5
16C
330
1F
100
AcDbEntity
  8
0
  6
HIDDEN
 62
     7
370
     0
100
AcDbSpline
210
0.0
220
0.0
230
1.0
 70
     8
 71
     3
 72
     9
 73
     5
 74
     0
 42
0.00000001
 43
0.00000001
 12
1.0
 22
0.0
 32
0.0
 13
1.0
 23
0.0
 33
0.0
 40
0.0
 40
0.0
 40
0.0
 40
0.0
 40
0.4001319051684787
 40
1.0
 40
1.0
 40
1.0
 40
1.0
 10
193.6532271267564
 20
104.0634768358749
 30
0.0
 10
193.5864842703727
 20
104.1422952036927
 30
0.0
 10
193.4196821345729
 20
104.3392761662197
 30
0.0
 10
193.2094263117776
 20
104.4810582003292
 30
0.0
 10
193.0833005519302
 20
104.5661087190118
 30
0.0
  0
SPLINE
  5
16D
330
1F
100
AcDbEntity
  8
0
  6
HIDDEN
 62
     7
370
     0
100
AcDbSpline
210
0.0
220
0.0
230
1.0
 70
     8
 71
     3
 72
    12
 73
     8
 74
     0
 42
0.00000001
 43
0.00000001
 12
1.0
 22
0.0
 32
0.0
 13
1.0
 23
0.0
 33
0.0
 40
0.0
 40
0.0
 40
0.0
 40
0.0
 40
0.1206518232004701
 40
0.3607259443121782
 40
0.6184903165874395
 40
0.8065441181228181
 40
1.0
 40
1.0
 40
1.0
 40
1.0
 10
194.2359631122739
 20
105.4244339973983
 30
0.0
 10
194.2412467826434
 20
105.4288301848551
 30
0.0
 10
194.2570439495069
 20
105.4419739470433
 30
0.0
 10
194.0881787432261
 20
105.3014147025745
 30
0.0
 10
193.8044522739875
 20
105.0749292240058
 30
0.0
 10
193.4577729510683
 20
104.8118961178486
 30
0.0
 10
193.2092974682453
 20
104.6488076158967
 30
0.0
 10
193.0833005519302
 20
104.5661087190118
 30
0.0
  0
SPLINE
  5
16E
330
1F
100
AcDbEntity
  8
0
  6
HIDDEN
 62
     7
370
     0
100
AcDbSpline
210
0.0
220
0.0
230
1.0
 70
     8
 71
     3
 72
    11
 73
     7
 74
     0
 42
0.00000001
 43
0.00000001
 12
1.0
 22
0.0
 32
0.0
 13
1.0
 23
0.0
 33
0.0
 40
0.0
 40
0.0
 40
0.0
 40
0.0
 40
0.3162885049596608
 40
0.6267052943843291
 40
0.8831422428001799
 40
1.0
 40
1.0
 40
1.0
 40
1.0
 10
210.4375505061538
 20
104.5661087190118
 30
0.0
 10
210.235260937029
 20
104.7030476263837
 30
0.0
 10
209.8344371891492
 20
104.9743832484863
 30
0.0
 10
209.4539241116531
 20
105.2852388529775
 30
0.0
 10
209.2621768218433
 20
105.4431929689153
 30
0.0
 10
209.279157022075
 20
105.4291689560291
 30
0.0
 10
209.2844725759418
 20
105.4247788195815
 30
0.0
  0
SPLINE
  5
16F
330
1F
100
AcDbEntity
  8
0
  6
HIDDEN
 62
     7
370
     0
100
AcDbSpline
210
0.0
220
0.0
230
1.0
 70
     8
 71
     3
 72
     9
 73
     5
 74
     0
 42
0.00000001
 43
0.00000001
 12
1.0
 22
0.0
 32
0.0
 13
1.0
 23
0.0
 33
0.0
 40
0.0
 40
0.0
 40
0.0
 40
0.0
 40
0.9562952604075747
 40
1.0
 40
1.0
 40
1.0
 40
1.0
 10
210.4375505061538
 20
104.5661087190118
 30
0.0
 10
210.2211702099335
 20
104.4305563300771
 30
0.0
 10
209.9949008711855
 20
104.2888089069255
 30
0.0
 10
209.8512861984445
 20
104.0533652857093
 30
0.0
 10
209.8450095565708
 20
104.0430752835554
 30
0.0
  0
SPLINE
  5
170
330
1F
100
AcDbEntity
  8
0
  6
HIDDEN
 62
     7
370
     0
100
AcDbSpline
210
0.0
220
0.0
230
1.0
 70
     8
 71
     3
 72
     9
 73
     5
 74
     0
 42
0.00000001
 43
0.00000001
 12
1.0
 22
0.0
 32
0.0
 13
1.0
 23
0.0
 33
0.0
 40
0.0
 40
0.0
 40
0.0
 40
0.0
 40
0.5711769149468314
 40
0.9999999999999999
 40
0.9999999999999999
 40
0.9999999999999999
 40
0.9999999999999999
 10
211.7023238153846
 20
99.95160722596017
 30
0.0
 10
211.8547862520776
 20
99.9506374170242
 30
0.0
 10
212.1217130705524
 20
99.94893950362714
 30
0.0
 10
212.3528766717289
 20
100.0279278777361
 30
0.0
 10
212.4520049603374
 20
100.0617999160048
 30
0.0
  0
SPLINE
  5
171
330
1F
100
AcDbEntity
  8
0
  6
HIDDEN
 62
     7
370
     0
100
AcDbSpline
210
0.0
220
0.0
230
1.0
 70
     8
 71
     3
 72
     9
 73
     5
 74
     0
 42
0.00000001
 43
0.00000001
 12
1.0
 22
0.0
 32
0.0
 13
1.0
 23
0.0
 33
0.0
 40
0.0
 40
0.0
 40
0.0
 40
0.0
 40
0.1615326600779819
 40
1.0
 40
1.0
 40
1.0
 40
1.0
 10
213.5058821351917
 20
104.2253536214438
 30
0.0
 10
213.4862060914856
 20
104.2476106617249
 30
0.0
 10
213.3643976367955
 20
104.3853972880973
 30
0.0
 10
213.2114998801717
 20
104.4836918984993
 30
0.0
 10
213.0833001048954
 20
104.5661087190118
 30
0.0
  0
SPLINE
  5
172
330
1F
100
AcDbEntity
  8
0
  6
HIDDEN
 62
     7
370
     0
100
AcDbSpline
210
0.0
220
0.0
230
1.0
 70
     8
 71
     3
 72
    12
 73
     8
 74
     0
 42
0.00000001
 43
0.00000001
 12
1.0
 22
0.0
 32
0.0
 13
1.0
 23
0.0
 33
0.0
 40
0.0
 40
0.0
 40
0.0
 40
0.0
 40
0.1206518321817065
 40
0.3607257989483001
 40
0.6184898738852613
 40
0.8065441037220991
 40
1.0
 40
1.0
 40
1.0
 40
1.0
 10
214.235960802594
 20
105.4244339973983
 30
0.0
 10
214.2412444259153
 20
105.4288301849661
 30
0.0
 10
214.2570414445718
 20
105.4419739412111
 30
0.0
 10
214.0881783873489
 20
105.3014148811436
 30
0.0
 10
213.8044541754072
 20
105.0749286252822
 30
0.0
 10
213.4577723033753
 20
104.811896475188
 30
0.0
 10
213.2092968629066
 20
104.6488076765386
 30
0.0
 10
213.0833001048954
 20
104.5661087190118
 30
0.0
  0
SPLINE
  5
173
330
1F
100
AcDbEntity
  8
0
  6
HIDDEN
 62
     7
370
     0
100
AcDbSpline
210
0.0
220
0.0
230
1.0
 70
     8
 71
     3
 72
    11
 73
     7
 74
     0
 42
0.00000001
 43
0.00000001
 12
1.0
 22
0.0
 32
0.0
 13
1.0
 23
0.0
 33
0.0
 40
0.0
 40
0.0
 40
0.0
 40
0.0
 40
0.3162877554394765
 40
0.6267047182179208
 40
0.8831421599481754
 40
1.0
 40
1.0
 40
1.0
 40
1.0
 10
200.4375488670261
 20
104.5661087190118
 30
0.0
 10
200.2352605217003
 20
104.7030477066368
 30
0.0
 10
199.8344386173556
 20
104.9743838812962
 30
0.0
 10
199.4539286564504
 20
105.2852389816205
 30
0.0
 10
199.2621723469012
 20
105.4431929504205
 30
0.0
 10
199.2791575473769
 20
105.4291689488298
 30
0.0
 10
199.2844746621044
 20
105.4247788195815
 30
0.0
  0
LINE
  5
174
330
1F
100
AcDbEntity
  8
0
  6
HIDDEN
 62
     7
370
     0
100
AcDbLine
 10
200.437548867
 20
104.566108719
 30
0.0
 11
199.9063634487
 21
104.1101323716
 31
0.0
  0
LINE
  5
175
330
1F
100
AcDbEntity
  8
0
  6
HIDDEN
 62
     7
370
     0
100
AcDbLine
 10
199.8399340721
 20
104.0348705645
 30
0.0
 11
199.4870410474
 21
103.4644827522
 31
0.0
  0
LINE
  5
176
330
1F
100
AcDbEntity
  8
0
  6
HIDDEN
 62
     7
370
     0
100
AcDbLine
 10
199.4995170446
 20
101.3972203289
 30
0.0
 11
199.7851276012
 21
100.9177179584
 31
0.0
  0
LINE
  5
177
330
1F
100
AcDbEntity
  8
0
  6
HIDDEN
 62
     7
370
     0
100
AcDbLine
 10
200.2311044546
 20
100.4783413881
 30
0.0
 11
200.4479573281
 21
100.3223786173
 31
0.0
  0
LINE
  5
178
330
1F
100
AcDbEntity
  8
0
  6
HIDDEN
 62
     7
370
     0
100
AcDbLine
 10
203.2893591733
 20
104.4098849451
 30
0.0
 11
203.0833021911
 21
104.566108719
 31
0.0
  0
SPLINE
  5
179
330
1F
100
AcDbEntity
  8
0
  6
HIDDEN
 62
     7
370
     0
100
AcDbSpline
210
0.0
220
0.0
230
1.0
 70
     8
 71
     3
 72
    12
 73
     8
 74
     0
 42
0.00000001
 43
0.00000001
 12
1.0
 22
0.0
 32
0.0
 13
1.0
 23
0.0
 33
0.0
 40
0.0
 40
0.0
 40
0.0
 40
0.0
 40
0.1206518905977499
 40
0.3607263180351918
 40
0.6184905177738831
 40
0.8065440100564841
 40
0.9999999999999999
 40
0.9999999999999999
 40
0.9999999999999999
 40
0.9999999999999999
 10
204.2359628887565
 20
105.4244339973983
 30
0.0
 10
204.2412466341456
 20
105.4288301781451
 30
0.0
 10
204.2570440328453
 20
105.441973926547
 30
0.0
 10
204.088175707622
 20
105.301414911131
 30
0.0
 10
203.8044520136448
 20
105.0749294121447
 30
0.0
 10
203.4577746134557
 20
104.8118957941211
 30
0.0
 10
203.2092992059885
 20
104.6488075665638
 30
0.0
 10
203.0833021910579
 20
104.5661087190118
 30
0.0
  0
LINE
  5
17A
330
1F
100
AcDbEntity
  8
0
  6
HIDDEN
 62
     7
370
     0
100
AcDbLine
 10
181.800424418
 20
115.9606352956
 30
0.0
 11
181.800424418
 21
114.294788851
 31
0.0
  0
LINE
  5
17B
330
1F
100
AcDbEntity
  8
0
  6
HIDDEN
 62
     7
370
     0
100
AcDbLine
 10
179.7204253437
 20
115.9606352956
 30
0.0
 11
179.7204253437
 21
114.294788851
 31
0.0
  0
LINE
  5
17C
330
1F
100
AcDbEntity
  8
0
  6
HIDDEN
 62
     7
370
     0
100
AcDbLine
 10
182.7955854298
 20
118.5561977835
 30
0.0
 11
182.7955854298
 21
114.294788851
 31
0.0
  0
SPLINE
  5
17D
330
1F
100
AcDbEntity
  8
0
  6
HIDDEN
 62
     7
370
     0
100
AcDbSpline
210
0.0
220
0.0
230
1.0
 70
     8
 71
     3
 72
    12
 73
     8
 74
     0
 42
0.00000001
 43
0.00000001
 12
1.0
 22
0.0
 32
0.0
 13
1.0
 23
0.0
 33
0.0
 40
0.0
 40
0.0
 40
0.0
 40
0.0
 40
0.4999999999999991
 40
0.4999999999999991
 40
0.7499999999999996
 40
0.7499999999999996
 40
1.0
 40
1.0
 40
1.0
 40
1.0
 10
144.8604250522048
 20
90.89727529062941
 30
0.0
 10
144.8604250522048
 20
90.96608536339143
 30
0.0
 10
144.8626341684005
 20
91.03280418594133
 30
0.0
 10
144.8772585485775
 20
91.12217518937048
 30
0.0
 10
144.8840684094588
 20
91.15025200839506
 30
0.0
 10
144.9054889728004
 20
91.19833461684603
 30
0.0
 10
144.9194078127148
 20
91.21903391463054
 30
0.0
 10
144.9439564969919
 20
91.22866125871222
 30
0.0
  0
CIRCLE
  5
17E
330
1F
100
AcDbEntity
  8
0
  6
HIDDEN
 62
     7
370
     0
100
AcDbCircle
 10
171.7604250522
 20
102.4447884919
 30
0.0
 40
5.0
  0
LINE
  5
17F
330
1F
100
AcDbEntity
  8
0
  6
HIDDEN
 62
     7
370
     0
100
AcDbLine
 10
208.7604248138
 20
109.781201514
 30
0.0
 11
209.7604268403
 21
108.7812013501
 31
0.0
  0
LINE
  5
180
330
1F
100
AcDbEntity
  8
0
  6
HIDDEN
 62
     7
370
     0
100
AcDbLine
 10
213.7604237707
 20
108.7812013501
 30
0.0
 11
214.7604257973
 21
109.781201514
 31
0.0
  0
LINE
  5
181
330
1F
100
AcDbEntity
  8
0
  6
HIDDEN
 62
     7
370
     0
100
AcDbLine
 10
208.7604248138
 20
118.4610613198
 30
0.0
 11
208.7604248138
 21
109.781201514
 31
0.0
  0
LINE
  5
182
330
1F
100
AcDbEntity
  8
0
  6
HIDDEN
 62
     7
370
     0
100
AcDbLine
 10
214.7604257973
 20
109.781201514
 30
0.0
 11
214.7604257973
 21
118.4610613198
 31
0.0
  0
LINE
  5
183
330
1F
100
AcDbEntity
  8
0
  6
HIDDEN
 62
     7
370
     0
100
AcDbLine
 10
214.7604257973
 20
118.4610613198
 30
0.0
 11
214.2059237869
 21
118.7812015922
 31
0.0
  0
LINE
  5
184
330
1F
100
AcDbEntity
  8
0
  6
HIDDEN
 62
     7
370
     0
100
AcDbLine
 10
209.3149268241
 20
118.7812015922
 30
0.0
 11
208.7604248138
 21
118.4610613198
 31
0.0
  0
LINE
  5
185
330
1F
100
AcDbEntity
  8
0
  6
HIDDEN
 62
     7
370
     0
100
AcDbLine
 10
198.7604268999
 20
109.781201514
 30
0.0
 11
199.7604252012
 21
108.7812013501
 31
0.0
  0
LINE
  5
186
330
1F
100
AcDbEntity
  8
0
  6
HIDDEN
 62
     7
370
     0
100
AcDbLine
 10
203.7604258569
 20
108.7812013501
 30
0.0
 11
204.7604241581
 21
109.781201514
 31
0.0
  0
LINE
  5
187
330
1F
100
AcDbEntity
  8
0
  6
HIDDEN
 62
     7
370
     0
100
AcDbLine
 10
198.7604268999
 20
118.4610613198
 30
0.0
 11
198.7604268999
 21
109.781201514
 31
0.0
  0
LINE
  5
188
330
1F
100
AcDbEntity
  8
0
  6
HIDDEN
 62
     7
370
     0
100
AcDbLine
 10
204.7604241581
 20
109.781201514
 30
0.0
 11
204.7604241581
 21
118.4610613198
 31
0.0
  0
LINE
  5
189
330
1F
100
AcDbEntity
  8
0
  6
HIDDEN
 62
     7
370
     0
100
AcDbLine
 10
204.7604241581
 20
118.4610613198
 30
0.0
 11
204.2059258731
 21
118.7812015922
 31
0.0
  0
LINE
  5
18A
330
1F
100
AcDbEntity
  8
0
  6
HIDDEN
 62
     7
370
     0
100
AcDbLine
 10
199.314925185
 20
118.7812015922
 30
0.0
 11
198.7604268999
 21
118.4610613198
 31
0.0
  0
LINE
  5
18B
330
1F
100
AcDbEntity
  8
0
  6
HIDDEN
 62
     7
370
     0
100
AcDbLine
 10
188.7604252608
 20
109.781201514
 30
0.0
 11
189.7604254247
 21
108.7812013501
 31
0.0
  0
LINE
  5
18C
330
1F
100
AcDbEntity
  8
0
  6
HIDDEN
 62
     7
370
     0
100
AcDbLine
 10
193.7604242177
 20
108.7812013501
 30
0.0
 11
194.7604243817
 21
109.781201514
 31
0.0
  0
LINE
  5
18D
330
1F
100
AcDbEntity
  8
0
  6
HIDDEN
 62
     7
370
     0
100
AcDbLine
 10
188.7604252608
 20
118.4610613198
 30
0.0
 11
188.7604252608
 21
109.781201514
 31
0.0
  0
LINE
  5
18E
330
1F
100
AcDbEntity
  8
0
  6
HIDDEN
 62
     7
370
     0
100
AcDbLine
 10
194.7604243817
 20
109.781201514
 30
0.0
 11
194.7604243817
 21
118.4610613198
 31
0.0
  0
LINE
  5
18F
330
1F
100
AcDbEntity
  8
0
  6
HIDDEN
 62
     7
370
     0
100
AcDbLine
 10
194.7604243817
 20
118.4610613198
 30
0.0
 11
194.205924234
 21
118.7812015922
 31
0.0
  0
LINE
  5
190
330
1F
100
AcDbEntity
  8
0
  6
HIDDEN
 62
     7
370
     0
100
AcDbLine
 10
189.3149254085
 20
118.7812015922
 30
0.0
 11
188.7604252608
 21
118.4610613198
 31
0.0
  0
LINE
  5
191
330
1F
100
AcDbEntity
  8
0
  6
HIDDEN
 62
     7
370
     0
100
AcDbLine
 10
164.7604250522
 20
86.2375870855
 30
0.0
 11
164.8545858245
 21
86.9075768204
 31
0.0
  0
LINE
  5
192
330
1F
100
AcDbEntity
  8
0
  6
HIDDEN
 62
     7
370
     0
100
AcDbLine
 10
164.8545858245
 20
117.9820001633
 30
0.0
 11
164.7604250522
 21
118.6519898982
 31
0.0
  0
ARC
  5
193
330
1F
100
AcDbEntity
  8
0
  6
HIDDEN
 62
     7
370
     0
100
AcDbCircle
 10
164.2604182995
 20
86.9910813384
 30
0.0
 40
0.6000067526677062
100
AcDbArc
 50
352.0
 51
0.0
  0
ARC
  5
194
330
1F
100
AcDbEntity
  8
0
  6
HIDDEN
 62
     7
370
     0
100
AcDbCircle
 10
164.2604182995
 20
86.9910813384
 30
0.0
 40
0.6000067526677203
100
AcDbArc
 50
0.0
 51
33.5571153394
  0
ARC
  5
195
330
1F
100
AcDbEntity
  8
0
  6
HIDDEN
 62
     7
370
     0
100
AcDbCircle
 10
164.2604182995
 20
117.8984956453
 30
0.0
 40
0.6000067526677062
100
AcDbArc
 50
348.75
 51
8.0
  0
LWPOLYLINE
  5
196
330
1F
100
AcDbEntity
  8
0
  6
HIDDEN
 62
     7
370
     0
100
AcDbPolyline
 90
        3
 70
   128
 43
0.0
 10
164.8488960911
 20
117.7814398469
 10
164.8147522594
 20
117.6688829945
 10
164.7604250522
 20
117.5668314607
  0
LINE
  5
197
330
1F
100
AcDbEntity
  8
0
  6
HIDDEN
 62
     7
370
     0
100
AcDbLine
 10
164.8604250497
 20
86.9910810651
 30
0.0
 11
164.8604250497
 21
117.8984959186
 31
0.0
  0
LINE
  5
198
330
1F
100
AcDbEntity
  8
0
  6
HIDDEN
 62
     7
370
     0
100
AcDbLine
 10
154.2930531488
 20
89.6947887303
 30
0.0
 11
156.491199805
 21
89.6947887303
 31
0.0
  0
LINE
  5
199
330
1F
100
AcDbEntity
  8
0
  6
HIDDEN
 62
     7
370
     0
100
AcDbLine
 10
156.491199805
 20
115.1947882534
 30
0.0
 11
154.2930531488
 21
115.1947882534
 31
0.0
  0
ARC
  5
19A
330
1F
100
AcDbEntity
  8
0
  6
HIDDEN
 62
     7
370
     0
100
AcDbCircle
 10
154.2930529964
 20
90.0947884919
 30
0.0
 40
0.3999999999999927
100
AcDbArc
 50
210.0
 51
270.0
  0
ARC
  5
19B
330
1F
100
AcDbEntity
  8
0
  6
HIDDEN
 62
     7
370
     0
100
AcDbCircle
 10
154.2930529964
 20
114.7947884919
 30
0.0
 40
0.3999999999999927
100
AcDbArc
 50
90.0
 51
150.0
  0
ARC
  5
19C
330
1F
100
AcDbEntity
  8
0
  6
HIDDEN
 62
     7
370
     0
100
AcDbCircle
 10
160.5846017801
 20
94.6947884919
 30
0.0
 40
5.000000000000034
100
AcDbArc
 50
275.3987916986
 51
326.6329870308
  0
ARC
  5
19D
330
1F
100
AcDbEntity
  8
0
  6
HIDDEN
 62
     7
370
     0
100
AcDbCircle
 10
160.5846017801
 20
110.1947884919
 30
0.0
 40
5.000000000000034
100
AcDbArc
 50
33.3670129692
 51
84.5928143067
  0
LINE
  5
19E
330
1F
100
AcDbEntity
  8
0
  6
HIDDEN
 62
     7
370
     0
100
AcDbLine
 10
153.9466430606
 20
114.9947885932
 30
0.0
 11
152.7630745606
 21
112.9447883503
 31
0.0
  0
LINE
  5
19F
330
1F
100
AcDbEntity
  8
0
  6
HIDDEN
 62
     7
370
     0
100
AcDbLine
 10
152.7630745606
 20
91.9447886334
 30
0.0
 11
153.9466430606
 21
89.8947883905
 31
0.0
  0
ARC
  5
1A0
330
1F
100
AcDbEntity
  8
0
  6
HIDDEN
 62
     7
370
     0
100
AcDbCircle
 10
171.7104250522
 20
92.5697884919
 30
0.0
 40
1.0
100
AcDbArc
 50
218.6821874535
 51
0.0
  0
ARC
  5
1A1
330
1F
100
AcDbEntity
  8
0
  6
HIDDEN
 62
     7
370
     0
100
AcDbCircle
 10
171.7104250522
 20
112.3197884919
 30
0.0
 40
1.0
100
AcDbArc
 50
0.0
 51
141.3178125465
  0
LINE
  5
1A2
330
1F
100
AcDbEntity
  8
0
  6
HIDDEN
 62
     7
370
     0
100
AcDbLine
 10
150.9604252116
 20
91.9447886334
 30
0.0
 11
152.7630745606
 21
91.9447886334
 31
0.0
  0
LINE
  5
1A3
330
1F
100
AcDbEntity
  8
0
  6
HIDDEN
 62
     7
370
     0
100
AcDbLine
 10
152.7630745606
 20
112.9447883503
 30
0.0
 11
148.4604248019
 21
112.9447883503
 31
0.0
  0
LINE
  5
1A4
330
1F
100
AcDbEntity
  8
0
  6
HIDDEN
 62
     7
370
     0
100
AcDbLine
 10
164.7604250522
 20
91.9447886334
 30
0.0
 11
170.9298000844
 21
91.9447886334
 31
0.0
  0
LINE
  5
1A5
330
1F
100
AcDbEntity
  8
0
  6
HIDDEN
 62
     7
370
     0
100
AcDbLine
 10
170.9298000844
 20
112.9447883503
 30
0.0
 11
164.7604250522
 21
112.9447883503
 31
0.0
  0
LINE
  5
1A6
330
1F
100
AcDbEntity
  8
0
  6
HIDDEN
 62
     7
370
     0
100
AcDbLine
 10
178.0604248108
 20
96.1947883987
 30
0.0
 11
180.5604242893
 21
96.1947883987
 31
0.0
  0
LINE
  5
1A7
330
1F
100
AcDbEntity
  8
0
  6
HIDDEN
 62
     7
370
     0
100
AcDbLine
 10
180.5604242893
 20
108.694788585
 30
0.0
 11
178.0604248108
 21
108.694788585
 31
0.0
  0
LINE
  5
1A8
330
1F
100
AcDbEntity
  8
0
  6
HIDDEN
 62
     7
370
     0
100
AcDbLine
 10
172.7104255171
 20
96.4447884397
 30
0.0
 11
173.2104246678
 21
96.9447885217
 31
0.0
  0
LINE
  5
1A9
330
1F
100
AcDbEntity
  8
0
  6
HIDDEN
 62
     7
370
     0
100
AcDbLine
 10
173.2104246678
 20
107.944788462
 30
0.0
 11
172.7104255171
 21
108.444788544
 31
0.0
  0
LINE
  5
1AA
330
1F
100
AcDbEntity
  8
0
  6
HIDDEN
 62
     7
370
     0
100
AcDbLine
 10
173.2104246678
 20
96.9447885217
 30
0.0
 11
178.0604248108
 21
96.9447885217
 31
0.0
  0
LINE
  5
1AB
330
1F
100
AcDbEntity
  8
0
  6
HIDDEN
 62
     7
370
     0
100
AcDbLine
 10
178.0604248108
 20
107.944788462
 30
0.0
 11
173.2104246678
 21
107.944788462
 31
0.0
  0
LINE
  5
1AC
330
1F
100
AcDbEntity
  8
0
  6
HIDDEN
 62
     7
370
     0
100
AcDbLine
 10
172.7104255171
 20
122.4447880448
 30
0.0
 11
172.7104255171
 21
119.344787723
 31
0.0
  0
ARC
  5
1AD
330
1F
100
AcDbEntity
  8
0
  6
HIDDEN
 62
     7
370
     0
100
AcDbCircle
 10
219.4604250522
 20
105.7447884919
 30
0.0
 40
0.2999999999999829
100
AcDbArc
 50
270.0
 51
0.0
  0
ARC
  5
1AE
330
1F
100
AcDbEntity
  8
0
  6
HIDDEN
 62
     7
370
     0
100
AcDbCircle
 10
219.4604250522
 20
99.1447884919
 30
0.0
 40
0.2999999999999972
100
AcDbArc
 50
0.0
 51
90.0
  0
LINE
  5
1AF
330
1F
100
AcDbEntity
  8
0
  6
HIDDEN
 62
     7
370
     0
100
AcDbLine
 10
186.9361822666
 20
105.744788474
 30
0.0
 11
184.1604256244
 21
105.744788474
 31
0.0
  0
LINE
  5
1B0
330
1F
100
AcDbEntity
  8
0
  6
HIDDEN
 62
     7
370
     0
100
AcDbLine
 10
184.1604256244
 20
99.1447885097
 30
0.0
 11
186.9361822666
 21
99.1447885097
 31
0.0
  0
ARC
  5
1B1
330
1F
100
AcDbEntity
  8
0
  6
HIDDEN
 62
     7
370
     0
100
AcDbCircle
 10
184.1604250522
 20
105.3447884919
 30
0.0
 40
0.4000000000000057
100
AcDbArc
 50
90.0
 51
180.0
  0
ARC
  5
1B2
330
1F
100
AcDbEntity
  8
0
  6
HIDDEN
 62
     7
370
     0
100
AcDbCircle
 10
184.1604250522
 20
99.5447884919
 30
0.0
 40
0.4000000000000199
100
AcDbArc
 50
180.0
 51
270.0
  0
LINE
  5
1B3
330
1F
100
AcDbEntity
  8
0
  6
HIDDEN
 62
     7
370
     0
100
AcDbLine
 10
186.9361822666
 20
99.1447885097
 30
0.0
 11
187.7604250969
 21
99.4447884658
 31
0.0
  0
LINE
  5
1B4
330
1F
100
AcDbEntity
  8
0
  6
HIDDEN
 62
     7
370
     0
100
AcDbLine
 10
187.7604250969
 20
105.4447885179
 30
0.0
 11
186.9361822666
 21
105.744788474
 31
0.0
  0
LINE
  5
1B5
330
1F
100
AcDbEntity
  8
0
  6
HIDDEN
 62
     7
370
     0
100
AcDbLine
 10
161.5276043942
 20
87.4034837396
 30
0.0
 11
161.0596758021
 21
87.8993208097
 31
0.0
  0
LINE
  5
1B6
330
1F
100
AcDbEntity
  8
0
  6
HIDDEN
 62
     7
370
     0
100
AcDbLine
 10
156.461770943
 20
88.1791739301
 30
0.0
 11
155.9442973869
 21
87.6833489673
 31
0.0
  0
LINE
  5
1B7
330
1F
100
AcDbEntity
  8
0
  6
HIDDEN
 62
     7
370
     0
100
AcDbLine
 10
155.9436631562
 20
117.2062783079
 30
0.0
 11
156.4613490538
 21
116.7103909464
 31
0.0
  0
LINE
  5
1B8
330
1F
100
AcDbEntity
  8
0
  6
HIDDEN
 62
     7
370
     0
100
AcDbLine
 10
161.058989883
 20
116.9900382446
 30
0.0
 11
161.5268937951
 21
117.4859321253
 31
0.0
  0
LINE
  5
1B9
330
1F
100
AcDbEntity
  8
0
  6
HIDDEN
 62
     7
370
     0
100
AcDbLine
 10
189.284473023
 20
105.4447885179
 30
0.0
 11
187.7604250969
 21
105.4447885179
 31
0.0
  0
LINE
  5
1BA
330
1F
100
AcDbEntity
  8
0
  6
HIDDEN
 62
     7
370
     0
100
AcDbLine
 10
199.2844746621
 20
105.4447885179
 30
0.0
 11
194.2359631123
 21
105.4447885179
 31
0.0
  0
LINE
  5
1BB
330
1F
100
AcDbEntity
  8
0
  6
HIDDEN
 62
     7
370
     0
100
AcDbLine
 10
209.2844725759
 20
105.4447885179
 30
0.0
 11
204.2359628888
 21
105.4447885179
 31
0.0
  0
LINE
  5
1BC
330
1F
100
AcDbEntity
  8
0
  6
HIDDEN
 62
     7
370
     0
100
AcDbLine
 10
219.4604234012
 20
105.4447885179
 30
0.0
 11
214.2359608026
 21
105.4447885179
 31
0.0
  0
LINE
  5
1BD
330
1F
100
AcDbEntity
  8
0
  6
HIDDEN
 62
     7
370
     0
100
AcDbLine
 10
187.7604250969
 20
99.4447884658
 30
0.0
 11
219.4604234012
 21
99.4447884658
 31
0.0
  0
LINE
  5
1BE
330
1F
100
AcDbEntity
  8
0
  6
HIDDEN
 62
     7
370
     0
100
AcDbLine
 10
209.2604258271
 20
119.4447894157
 30
0.0
 11
209.2604258271
 21
105.4247797509
 31
0.0
  0
LINE
  5
1BF
330
1F
100
AcDbEntity
  8
0
  6
HIDDEN
 62
     7
370
     0
100
AcDbLine
 10
214.260424784
 20
105.4244346959
 30
0.0
 11
214.260424784
 21
119.4447894157
 31
0.0
  0
LINE
  5
1C0
330
1F
100
AcDbEntity
  8
0
  6
HIDDEN
 62
     7
370
     0
100
AcDbLine
 10
199.2604241879
 20
118.9587526531
 30
0.0
 11
199.2604241879
 21
105.4247797509
 31
0.0
  0
LINE
  5
1C1
330
1F
100
AcDbEntity
  8
0
  6
HIDDEN
 62
     7
370
     0
100
AcDbLine
 10
204.2604268701
 20
105.4244346959
 30
0.0
 11
204.2604268701
 21
119.4447894157
 31
0.0
  0
LINE
  5
1C2
330
1F
100
AcDbEntity
  8
0
  6
HIDDEN
 62
     7
370
     0
100
AcDbLine
 10
189.2604244115
 20
118.9447884024
 30
0.0
 11
189.2604244115
 21
105.4247797509
 31
0.0
  0
LINE
  5
1C3
330
1F
100
AcDbEntity
  8
0
  6
HIDDEN
 62
     7
370
     0
100
AcDbLine
 10
194.260425231
 20
105.4244346959
 30
0.0
 11
194.260425231
 21
118.9447884024
 31
0.0
  0
LINE
  5
1C4
330
1F
100
AcDbEntity
  8
0
  6
HIDDEN
 62
     7
370
     0
100
AcDbLine
 10
161.0604250511
 20
87.8995648162
 30
0.0
 11
161.0604250511
 21
89.7179339589
 31
0.0
  0
LINE
  5
1C5
330
1F
100
AcDbEntity
  8
0
  6
HIDDEN
 62
     7
370
     0
100
AcDbLine
 10
156.4604251818
 20
89.700290984
 30
0.0
 11
156.4604251818
 21
88.1802617149
 31
0.0
  0
LINE
  5
1C6
330
1F
100
AcDbEntity
  8
0
  6
HIDDEN
 62
     7
370
     0
100
AcDbLine
 10
161.0604250511
 20
115.1716430248
 30
0.0
 11
161.0604250511
 21
116.9898277656
 31
0.0
  0
LINE
  5
1C7
330
1F
100
AcDbEntity
  8
0
  6
HIDDEN
 62
     7
370
     0
100
AcDbLine
 10
156.4604251818
 20
116.7092854665
 30
0.0
 11
156.4604251818
 21
115.1892859997
 31
0.0
  0
LINE
  5
1C8
330
1F
100
AcDbEntity
  8
0
  6
HIDDEN
 62
     7
370
     0
100
AcDbLine
 10
180.5604242893
 20
100.3447885667
 30
0.0
 11
183.7604244413
 21
100.3447885667
 31
0.0
  0
LINE
  5
1C9
330
1F
100
AcDbEntity
  8
0
  6
HIDDEN
 62
     7
370
     0
100
AcDbLine
 10
183.7604244413
 20
104.544788417
 30
0.0
 11
180.5604242893
 21
104.544788417
 31
0.0
  0
DIMENSION
  5
1CA
330
1F
100
AcDbEntity
  8
VERMASSUNG
100
AcDbDimension
  2
_D
 10
225.8771938153
 20
99.4447884919
 30
0.0
 11
225.8771938153
 21
102.4447884919
 31
0.0
 70
   160
  1
%%c<>
 71
     2
 42
-1.0
  3
SLDDIMSTYLE0
100
AcDbAlignedDimension
 13
219.4604250522
 23
105.4447884919
 33
0.0
 14
219.4604250522
 24
99.4447884919
 34
0.0
 50
90.0
100
AcDbRotatedDimension
  0
DIMENSION
  5
1D8
330
1F
100
AcDbEntity
  8
VERMASSUNG
100
AcDbDimension
  2
_D_1
 10
231.8771938153
 20
85.4447884919
 30
0.0
 11
231.8771938153
 21
102.4447884919
 31
0.0
 70
   160
  1
%%c<>
 71
     2
 42
-1.0
  3
SLDDIMSTYLE1
100
AcDbAlignedDimension
 13
218.7604250522
 23
119.4447884919
 33
0.0
 14
218.7604250522
 24
85.4447884919
 34
0.0
 50
90.0
100
AcDbRotatedDimension
  0
DIMENSION
  5
1E4
330
1F
100
AcDbEntity
  8
VERMASSUNG
100
AcDbDimension
  2
_D_2
 10
140.6276013095
 20
82.4447884919
 30
0.0
 11
140.6276013095
 21
102.4447884919
 31
0.0
 70
   160
  1
HSK %%c<>
 71
     2
 42
-1.0
  3
SLDDIMSTYLE1
100
AcDbAlignedDimension
 13
165.0604250522
 23
122.4447884919
 33
0.0
 14
165.0604250522
 24
82.4447884919
 34
0.0
 50
90.0
100
AcDbRotatedDimension
  0
DIMENSION
  5
1F0
330
1F
100
AcDbEntity
  8
VERMASSUNG
100
AcDbDimension
  2
_D_3
 10
219.7604250522
 20
138.0527108396
 30
0.0
 11
182.3104250522
 21
138.0527108396
 31
0.0
 70
   160
  1
<>
 71
     2
 42
-1.0
  3
SLDDIMSTYLE1
100
AcDbAlignedDimension
 13
144.8604250522
 23
114.3747884919
 33
0.0
 14
219.7604250522
 24
118.4447884919
 34
0.0
100
AcDbRotatedDimension
  0
DIMENSION
  5
1FA
330
1F
100
AcDbEntity
  8
VERMASSUNG
100
AcDbDimension
  2
_D_4
 10
219.7604250522
 20
132.0527108396
 30
0.0
 11
192.2604250522
 21
132.0527108396
 31
0.0
 70
   160
  1
<>
 71
     2
 42
-1.0
  3
SLDDIMSTYLE1
100
AcDbAlignedDimension
 13
164.7604250522
 23
122.1447884919
 33
0.0
 14
219.7604250522
 24
118.4447884919
 34
0.0
100
AcDbRotatedDimension
  0
DIMENSION
  5
204
330
1F
100
AcDbEntity
  8
VERMASSUNG
100
AcDbDimension
  2
_D_5
 10
219.7604250522
 20
126.0527108396
 30
0.0
 11
202.2354250522
 21
126.0527108396
 31
0.0
 70
   160
  1
<>
 71
     2
 42
-1.0
  3
SLDDIMSTYLE1
100
AcDbAlignedDimension
 13
184.7104250522
 23
114.2947884919
 33
0.0
 14
219.7604250522
 24
118.4447884919
 34
0.0
100
AcDbRotatedDimension
  0
DIMENSION
  5
20E
330
1F
100
AcDbEntity
  8
VERMASSUNG
100
AcDbDimension
  2
_D_6
 10
183.7604250522
 20
73.9605809418
 30
0.0
 11
201.7604250522
 21
73.9605809418
 31
0.0
 70
   160
  1
<>
 71
     2
 42
-1.0
  3
SLDDIMSTYLE1
100
AcDbAlignedDimension
 13
219.7604250522
 23
86.4447884919
 33
0.0
 14
183.7604250522
 24
99.5447884919
 34
0.0
100
AcDbRotatedDimension
  0
DIMENSION
  5
218
330
1F
100
AcDbEntity
  8
VERMASSUNG
100
AcDbDimension
  2
_D_7
 10
211.7604250522
 20
78.8168881326
 30
0.0
 11
215.7604250522
 21
78.8168881326
 31
0.0
 70
   160
  1
<>
 71
     2
 42
-1.0
  3
SLDDIMSTYLE1
100
AcDbAlignedDimension
 13
219.7604250522
 23
86.4447884919
 33
0.0
 14
211.7604250522
 24
103.4447884919
 34
0.0
100
AcDbRotatedDimension
  0
DIMENSION
  5
222
330
1F
100
AcDbEntity
  8
VERMASSUNG
100
AcDbDimension
  2
_D_8
 10
201.7604250522
 20
78.8168881326
 30
0.0
 11
206.7604250522
 21
78.8168881326
 31
0.0
 70
   160
  1
<>
 71
     2
 42
-1.0
  3
SLDDIMSTYLE1
100
AcDbAlignedDimension
 13
211.7604250522
 23
103.4447884919
 33
0.0
 14
201.7604250522
 24
103.4447884919
 34
0.0
100
AcDbRotatedDimension
  0
DIMENSION
  5
22C
330
1F
100
AcDbEntity
  8
VERMASSUNG
100
AcDbDimension
  2
_D_9
 10
191.7604250522
 20
78.8168881326
 30
0.0
 11
196.7604250522
 21
78.8168881326
 31
0.0
 70
   160
  1
<>
 71
     2
 42
-1.0
  3
SLDDIMSTYLE1
100
AcDbAlignedDimension
 13
201.7604250522
 23
103.4447884919
 33
0.0
 14
191.7604250522
 24
103.4447884919
 34
0.0
100
AcDbRotatedDimension
  0
LINE
  5
236
330
1F
100
AcDbEntity
  8
VERMASSUNG
  6
CENTERX2
370
     0
100
AcDbLine
 10
143.6382975534
 20
102.4447884919
 30
0.0
 11
220.3060409646
 21
102.4447884919
 31
0.0
  0
LINE
  5
237
330
1F
100
AcDbEntity
  8
VERMASSUNG
  6
CENTERX2
370
     0
100
AcDbLine
 10
191.7604250522
 20
120.9447884919
 30
0.0
 11
191.7604250522
 21
103.4447884919
 31
0.0
  0
LINE
  5
238
330
1F
100
AcDbEntity
  8
VERMASSUNG
  6
CENTERX2
370
     0
100
AcDbLine
 10
201.7604250522
 20
103.4447884919
 30
0.0
 11
201.7604250522
 21
121.2013470496
 31
0.0
  0
LINE
  5
239
330
1F
100
AcDbEntity
  8
VERMASSUNG
  6
CENTERX2
370
     0
100
AcDbLine
 10
211.7604250522
 20
103.4447884919
 30
0.0
 11
211.7604250522
 21
121.4447884919
 31
0.0
  0
CIRCLE
  5
23A
330
1F
100
AcDbEntity
  8
0
  6
Continuous
 62
     7
370
    15
100
AcDbCircle
 10
85.5604545349
 20
102.4447884919
 30
0.0
 40
17.0
  0
CIRCLE
  5
23B
330
1F
100
AcDbEntity
  8
0
  6
Continuous
 62
     7
370
    15
100
AcDbCircle
 10
85.5604545349
 20
102.4447884919
 30
0.0
 40
3.0
  0
SPLINE
  5
23C
330
1F
100
AcDbEntity
  8
0
  6
Continuous
 62
     7
370
    15
100
AcDbSpline
210
0.0
220
0.0
230
1.0
 70
    24
 71
     3
 72
     9
 73
     5
 74
     0
 42
0.00000001
 43
0.00000001
 12
1.0
 22
0.0
 32
0.0
 13
1.0
 23
0.0
 33
0.0
 40
0.0
 40
0.0
 40
0.0
 40
0.0
 40
0.5
 40
1.0
 40
1.0
 40
1.0
 40
1.0
 10
81.0604545349403
 20
119.3447884918508
 30
0.0
 10
81.0604545349403
 20
119.3467113601847
 30
0.0
 10
81.0604545349403
 20
119.3505566491736
 30
0.0
 10
81.0604545349403
 20
119.3544010434941
 30
0.0
 10
81.0604545349403
 20
119.3563230171385
 30
0.0
  0
SPLINE
  5
23D
330
1F
100
AcDbEntity
  8
0
  6
Continuous
 62
     7
370
    15
100
AcDbSpline
210
0.0
220
0.0
230
1.0
 70
    24
 71
     3
 72
     9
 73
     5
 74
     0
 42
0.00000001
 43
0.00000001
 12
1.0
 22
0.0
 32
0.0
 13
1.0
 23
0.0
 33
0.0
 40
0.0
 40
0.0
 40
0.0
 40
0.0
 40
0.855160935275258
 40
1.0
 40
1.0
 40
1.0
 40
1.0
 10
90.0604543412252
 20
119.3447877229509
 30
0.0
 10
89.46882749101172
 20
119.3447877229508
 30
0.0
 10
88.77699648492974
 20
119.3447877229508
 30
0.0
 10
88.08612695777506
 20
119.3447877229509
 30
0.0
 10
87.98606206161516
 20
119.3447877229509
 30
0.0
  0
SPLINE
  5
23E
330
1F
100
AcDbEntity
  8
0
  6
Continuous
 62
     7
370
    15
100
AcDbSpline
210
0.0
220
0.0
230
1.0
 70
    24
 71
     3
 72
     9
 73
     5
 74
     0
 42
0.00000001
 43
0.00000001
 12
1.0
 22
0.0
 32
0.0
 13
1.0
 23
0.0
 33
0.0
 40
0.0
 40
0.0
 40
0.0
 40
0.0
 40
0.4379152891967029
 40
1.0
 40
1.0
 40
1.0
 40
1.0
 10
83.28398947102563
 20
119.3447877229509
 30
0.0
 10
82.95980333551849
 20
119.3447877229509
 30
0.0
 10
82.2195091656076
 20
119.3447877229509
 30
0.0
 10
81.47751711553742
 20
119.3447877229509
 30
0.0
 10
81.06045472865539
 20
119.3447877229509
 30
0.0
  0
SPLINE
  5
23F
330
1F
100
AcDbEntity
  8
0
  6
Continuous
 62
     7
370
    15
100
AcDbSpline
210
0.0
220
0.0
230
1.0
 70
    24
 71
     3
 72
     9
 73
     5
 74
     0
 42
0.00000001
 43
0.00000001
 12
1.0
 22
0.0
 32
0.0
 13
1.0
 23
0.0
 33
0.0
 40
0.0
 40
0.0
 40
0.0
 40
0.0
 40
0.5
 40
1.0
 40
1.0
 40
1.0
 40
1.0
 10
90.0604545349403
 20
119.3563230171385
 30
0.0
 10
90.0604545349403
 20
119.3543998926555
 30
0.0
 10
90.0604545349403
 20
119.3505543478106
 30
0.0
 10
90.0604545349403
 20
119.3467102096331
 30
0.0
 10
90.0604545349403
 20
119.3447884918508
 30
0.0
  0
SPLINE
  5
240
330
1F
100
AcDbEntity
  8
0
  6
Continuous
 62
     7
370
    15
100
AcDbSpline
210
0.0
220
0.0
230
1.0
 70
    24
 71
     3
 72
     9
 73
     5
 74
     0
 42
0.00000001
 43
0.00000001
 12
1.0
 22
0.0
 32
0.0
 13
1.0
 23
0.0
 33
0.0
 40
0.0
 40
0.0
 40
0.0
 40
0.0
 40
0.602316368958265
 40
1.0
 40
1.0
 40
1.0
 40
1.0
 10
90.10358109568791
 20
85.54478926075069
 30
0.0
 10
89.5048207187065
 20
85.54478926075069
 30
0.0
 10
88.51072457946823
 20
85.5447892607507
 30
0.0
 10
87.51810115607974
 20
85.54478926075069
 30
0.0
 10
87.1233510688095
 20
85.54478926075069
 30
0.0
  0
SPLINE
  5
241
330
1F
100
AcDbEntity
  8
0
  6
Continuous
 62
     7
370
    15
100
AcDbSpline
210
0.0
220
0.0
230
1.0
 70
    24
 71
     3
 72
    10
 73
     6
 74
     0
 42
0.00000001
 43
0.00000001
 12
1.0
 22
0.0
 32
0.0
 13
1.0
 23
0.0
 33
0.0
 40
0.0
 40
0.0
 40
0.0
 40
0.0
 40
0.1136994756915817
 40
0.5569669064533532
 40
1.0
 40
1.0
 40
1.0
 40
1.0
 10
83.88689347972708
 20
85.54478926075069
 30
0.0
 10
83.77805864763413
 20
85.54478926075069
 30
0.0
 10
83.24492162675976
 20
85.54478926075069
 30
0.0
 10
82.29052683285077
 20
85.54478926075069
 30
0.0
 10
81.44165277985095
 20
85.54478926075069
 30
0.0
 10
81.01732797419267
 20
85.54478926075069
 30
0.0
  0
SPLINE
  5
242
330
1F
100
AcDbEntity
  8
0
  6
Continuous
 62
     7
370
    15
100
AcDbSpline
210
0.0
220
0.0
230
1.0
 70
    24
 71
     3
 72
     9
 73
     5
 74
     0
 42
0.00000001
 43
0.00000001
 12
1.0
 22
0.0
 32
0.0
 13
1.0
 23
0.0
 33
0.0
 40
0.0
 40
0.0
 40
0.0
 40
0.0
 40
0.3720509437450013
 40
1.0
 40
1.0
 40
1.0
 40
1.0
 10
72.68305170779662
 20
114.2947888509688
 30
0.0
 10
72.77362753451398
 20
114.2947888509688
 30
0.0
 10
73.01707760026474
 20
114.2947888509688
 30
0.0
 10
73.242939218696
 20
114.2947888509688
 30
0.0
 10
73.38476880883412
 20
114.2947888509688
 30
0.0
  0
SPLINE
  5
243
330
1F
100
AcDbEntity
  8
0
  6
Continuous
 62
     7
370
    15
100
AcDbSpline
210
0.0
220
0.0
230
1.0
 70
    24
 71
     3
 72
     9
 73
     5
 74
     0
 42
0.00000001
 43
0.00000001
 12
1.0
 22
0.0
 32
0.0
 13
1.0
 23
0.0
 33
0.0
 40
0.0
 40
0.0
 40
0.0
 40
0.0
 40
0.1865655654198226
 40
1.0
 40
1.0
 40
1.0
 40
1.0
 10
73.7104541758223
 20
115.3221913189944
 30
0.0
 10
73.7104541758223
 20
115.2764826312992
 30
0.0
 10
73.71045417582232
 20
115.0314819657564
 30
0.0
 10
73.7104541758223
 20
114.7966219052346
 30
0.0
 10
73.7104541758223
 20
114.6055786446985
 30
0.0
  0
SPLINE
  5
244
330
1F
100
AcDbEntity
  8
0
  6
Continuous
 62
     7
370
    15
100
AcDbSpline
210
0.0
220
0.0
230
1.0
 70
    24
 71
     3
 72
    10
 73
     6
 74
     0
 42
0.00000001
 43
0.00000001
 12
1.0
 22
0.0
 32
0.0
 13
1.0
 23
0.0
 33
0.0
 40
0.0
 40
0.0
 40
0.0
 40
0.0
 40
0.5
 40
0.5
 40
1.0
 40
1.0
 40
1.0
 40
1.0
 10
81.0604545349403
 20
121.3156655249937
 30
0.0
 10
81.0604545349403
 20
121.4740999678815
 30
0.0
 10
81.0604545349403
 20
121.6331206626835
 30
0.0
 10
81.0604545349403
 20
121.8631284869391
 30
0.0
 10
81.0604545349403
 20
121.9319637617559
 30
0.0
 10
81.0604545349403
 20
121.9319637617559
 30
0.0
  0
ARC
  5
245
330
1F
100
AcDbEntity
  8
0
  6
Continuous
 62
     7
370
    15
100
AcDbCircle
 10
85.5604545349
 20
102.4447884919
 30
0.0
 40
20.00000000000001
100
AcDbArc
 50
103.0028781629
 51
126.3346172154
  0
SPLINE
  5
246
330
1F
100
AcDbEntity
  8
0
  6
Continuous
 62
     7
370
    15
100
AcDbSpline
210
0.0
220
0.0
230
1.0
 70
    24
 71
     3
 72
    12
 73
     8
 74
     0
 42
0.00000001
 43
0.00000001
 12
1.0
 22
0.0
 32
0.0
 13
1.0
 23
0.0
 33
0.0
 40
0.0
 40
0.0
 40
0.0
 40
0.0
 40
0.25
 40
0.25
 40
0.5
 40
0.5
 40
1.0
 40
1.0
 40
1.0
 40
1.0
 10
73.7104545349403
 20
118.5561974929283
 30
0.0
 10
73.7104545349403
 20
118.5561974929282
 30
0.0
 10
73.7104545349403
 20
118.5305728603235
 30
0.0
 10
73.7104545349403
 20
118.4420294873917
 30
0.0
 10
73.7104545349403
 20
118.379147004277
 30
0.0
 10
73.7104545349403
 20
118.1617858163434
 30
0.0
 10
73.7104545349403
 20
117.9831388063321
 30
0.0
 10
73.7104545349403
 20
117.8050456511564
 30
0.0
  0
ARC
  5
247
330
1F
100
AcDbEntity
  8
0
  6
Continuous
 62
     7
370
    15
100
AcDbCircle
 10
85.5604545349
 20
102.4447884919
 30
0.0
 40
20.0
100
AcDbArc
 50
143.6653827846
 51
254.0379858372
  0
SPLINE
  5
248
330
1F
100
AcDbEntity
  8
0
  6
Continuous
 62
     7
370
    15
100
AcDbSpline
210
0.0
220
0.0
230
1.0
 70
    24
 71
     3
 72
    10
 73
     6
 74
     0
 42
0.00000001
 43
0.00000001
 12
1.0
 22
0.0
 32
0.0
 13
1.0
 23
0.0
 33
0.0
 40
0.0
 40
0.0
 40
0.0
 40
0.0
 40
0.5
 40
0.5
 40
1.0
 40
1.0
 40
1.0
 40
1.0
 10
80.0604545349403
 20
83.84075667076425
 30
0.0
 10
80.0604545349403
 20
83.68112450186102
 30
0.0
 10
80.0604545349403
 20
83.52007486809696
 30
0.0
 10
80.0604545349403
 20
83.28708398442036
 30
0.0
 10
80.0604545349403
 20
83.21590396882137
 30
0.0
 10
80.0604545349403
 20
83.21590396882137
 30
0.0
  0
SPLINE
  5
249
330
1F
100
AcDbEntity
  8
0
  6
Continuous
 62
     7
370
    15
100
AcDbSpline
210
0.0
220
0.0
230
1.0
 70
    24
 71
     3
 72
    12
 73
     8
 74
     0
 42
0.00000001
 43
0.00000001
 12
1.0
 22
0.0
 32
0.0
 13
1.0
 23
0.0
 33
0.0
 40
0.0
 40
0.0
 40
0.0
 40
0.0
 40
0.250000000000002
 40
0.250000000000002
 40
0.500000000000004
 40
0.500000000000004
 40
1.0
 40
1.0
 40
1.0
 40
1.0
 10
69.44904553386283
 20
114.2947884918508
 30
0.0
 10
69.44904553386283
 20
114.2947884918508
 30
0.0
 10
69.47432568402729
 20
114.2947884918508
 30
0.0
 10
69.56393702952904
 20
114.2947884918508
 30
0.0
 10
69.62692266645506
 20
114.2947884918508
 30
0.0
 10
69.84320938821261
 20
114.2947884918508
 30
0.0
 10
70.023189145633
 20
114.2947884918508
 30
0.0
 10
70.2001973756347
 20
114.2947884918508
 30
0.0
  0
SPLINE
  5
24A
330
1F
100
AcDbEntity
  8
0
  6
Continuous
 62
     7
370
    15
100
AcDbSpline
210
0.0
220
0.0
230
1.0
 70
    24
 71
     3
 72
    10
 73
     6
 74
     0
 42
0.00000001
 43
0.00000001
 12
1.0
 22
0.0
 32
0.0
 13
1.0
 23
0.0
 33
0.0
 40
0.0
 40
0.0
 40
0.0
 40
0.0
 40
0.5
 40
0.5
 40
1.0
 40
1.0
 40
1.0
 40
1.0
 10
90.0604545349403
 20
121.9319637617559
 30
0.0
 10
90.0604545349403
 20
121.9319637617559
 30
0.0
 10
90.0604545349403
 20
121.86337835925
 30
0.0
 10
90.0604545349403
 20
121.6336050899304
 30
0.0
 10
90.0604545349403
 20
121.4751068882627
 30
0.0
 10
90.0604545349403
 20
121.3156655249937
 30
0.0
  0
ARC
  5
24B
330
1F
100
AcDbEntity
  8
0
  6
Continuous
 62
     7
370
    15
100
AcDbCircle
 10
85.5604545349
 20
102.4447884919
 30
0.0
 40
20.00000000000001
100
AcDbArc
 50
285.9620141628
 51
76.9971218371
  0
SPLINE
  5
24C
330
1F
100
AcDbEntity
  8
0
  6
Continuous
 62
     7
370
    15
100
AcDbSpline
210
0.0
220
0.0
230
1.0
 70
    24
 71
     3
 72
    12
 73
     8
 74
     0
 42
0.00000001
 43
0.00000001
 12
1.0
 22
0.0
 32
0.0
 13
1.0
 23
0.0
 33
0.0
 40
0.0
 40
0.0
 40
0.0
 40
0.0
 40
0.2499999999999962
 40
0.2499999999999962
 40
0.4999999999999925
 40
0.4999999999999925
 40
1.0
 40
1.0
 40
1.0
 40
1.0
 10
91.0604545349403
 20
83.21590396882137
 30
0.0
 10
91.0604545349403
 20
83.21590396882137
 30
0.0
 10
91.0604545349403
 20
83.23287956517947
 30
0.0
 10
91.0604545349403
 20
83.29735506263866
 30
0.0
 10
91.0604545349403
 20
83.34446869443326
 30
0.0
 10
91.0604545349403
 20
83.52107860842075
 30
0.0
 10
91.0604545349403
 20
83.6809274842289
 30
0.0
 10
91.0604545349403
 20
83.84075667076394
 30
0.0
  0
LINE
  5
24D
330
1F
100
AcDbEntity
  8
0
  6
Continuous
 62
     7
370
    15
100
AcDbLine
 10
91.0604545051
 20
83.8407557966
 30
0.0
 11
91.0604545051
 21
85.5447892608
 31
0.0
  0
LINE
  5
24E
330
1F
100
AcDbEntity
  8
0
  6
Continuous
 62
     7
370
    15
100
AcDbLine
 10
90.0604543412
 20
121.3156655939
 30
0.0
 11
90.0604543412
 21
119.3563230844
 31
0.0
  0
LINE
  5
24F
330
1F
100
AcDbEntity
  8
0
  6
Continuous
 62
     7
370
    15
100
AcDbLine
 10
91.0604545051
 20
85.5447892608
 30
0.0
 11
90.1035810957
 21
85.5447892608
 31
0.0
  0
LINE
  5
250
330
1F
100
AcDbEntity
  8
0
  6
Continuous
 62
     7
370
    15
100
AcDbLine
 10
80.0604545647
 20
85.5447892608
 30
0.0
 11
80.0604545647
 21
83.8407557966
 31
0.0
  0
LINE
  5
251
330
1F
100
AcDbEntity
  8
0
  6
Continuous
 62
     7
370
    15
100
AcDbLine
 10
81.0173279742
 20
85.5447892608
 30
0.0
 11
80.0604545647
 21
85.5447892608
 31
0.0
  0
LINE
  5
252
330
1F
100
AcDbEntity
  8
0
  6
Continuous
 62
     7
370
    15
100
AcDbLine
 10
70.2001969466
 20
114.294788851
 30
0.0
 11
72.6830517078
 21
114.294788851
 31
0.0
  0
LINE
  5
253
330
1F
100
AcDbEntity
  8
0
  6
Continuous
 62
     7
370
    15
100
AcDbLine
 10
81.0604547287
 20
119.3563230844
 30
0.0
 11
81.0604547287
 21
121.3156655939
 31
0.0
  0
LINE
  5
254
330
1F
100
AcDbEntity
  8
0
  6
Continuous
 62
     7
370
    15
100
AcDbLine
 10
73.7104541758
 20
117.8050460802
 30
0.0
 11
73.7104541758
 21
115.322191319
 31
0.0
  0
CIRCLE
  5
255
330
1F
100
AcDbEntity
  8
0
  6
Continuous
 62
     7
370
    15
100
AcDbCircle
 10
85.5604545349
 20
102.4447884919
 30
0.0
 40
2.099999999999994
  0
SPLINE
  5
256
330
1F
100
AcDbEntity
  8
0
  6
Continuous
 62
     7
370
    15
100
AcDbSpline
210
0.0
220
0.0
230
1.0
 70
     8
 71
     3
 72
    22
 73
    18
 74
     0
 42
0.00000001
 43
0.00000001
 12
1.0
 22
0.0
 32
0.0
 13
1.0
 23
0.0
 33
0.0
 40
0.0
 40
0.0
 40
0.0
 40
0.0
 40
0.2500000000000002
 40
0.2500000000000002
 40
0.3750000000000001
 40
0.3750000000000001
 40
0.5000000000000001
 40
0.5000000000000001
 40
0.6250000000000001
 40
0.6250000000000001
 40
0.75
 40
0.75
 40
0.875
 40
0.875
 40
0.9375000000000001
 40
0.9375000000000001
 40
1.0
 40
1.0
 40
1.0
 40
1.0
 10
69.44904553386284
 20
114.2947884918508
 30
0.0
 10
69.86304041202933
 20
114.8576611337488
 30
0.0
 10
70.29885021333826
 20
115.3882860174783
 30
0.0
 10
70.97559101632258
 20
116.1339970083999
 30
0.0
 10
71.20644614349727
 20
116.3756172347986
 30
0.0
 10
71.66648319865939
 20
116.8344760101245
 30
0.0
 10
71.8924508754379
 20
117.0486546825943
 30
0.0
 10
72.32964246393863
 20
117.4458832417399
 30
0.0
 10
72.54269518823118
 20
117.6303280767597
 30
0.0
 10
72.92687132746471
 20
117.9514079246433
 30
0.0
 10
73.1009883362562
 20
118.0907587547493
 30
0.0
 10
73.39450608105672
 20
118.3200642891749
 30
0.0
 10
73.50929838565413
 20
118.4066002986512
 30
0.0
 10
73.6282529617501
 20
118.4954899029825
 30
0.0
 10
73.65907104473669
 20
118.5182984088441
 30
0.0
 10
73.70009025645531
 20
118.5485895715403
 30
0.0
 10
73.7104545349403
 20
118.5561974929282
 30
0.0
 10
73.7104545349403
 20
118.5561974929282
 30
0.0
  0
SPLINE
  5
257
330
1F
100
AcDbEntity
  8
0
  6
Continuous
 62
     7
370
    15
100
AcDbSpline
210
0.0
220
0.0
230
1.0
 70
     8
 71
     3
 72
    22
 73
    18
 74
     0
 42
0.00000001
 43
0.00000001
 12
1.0
 22
0.0
 32
0.0
 13
1.0
 23
0.0
 33
0.0
 40
0.0
 40
0.0
 40
0.0
 40
0.0
 40
0.1250000000000001
 40
0.1250000000000001
 40
0.2500000000000002
 40
0.2500000000000002
 40
0.3750000000000003
 40
0.3750000000000003
 40
0.5000000000000004
 40
0.5000000000000004
 40
0.6250000000000003
 40
0.6250000000000003
 40
0.7500000000000002
 40
0.7500000000000002
 40
0.8750000000000001
 40
0.8750000000000001
 40
1.0
 40
1.0
 40
1.0
 40
1.0
 10
86.56045453494029
 20
82.4698041364126
 30
0.0
 10
86.85919226333795
 20
82.48475972902193
 30
0.0
 10
87.1523975881724
 20
82.5061479256683
 30
0.0
 10
87.72835266879999
 20
82.5605261722836
 30
0.0
 10
88.01409496261536
 20
82.59397233589198
 30
0.0
 10
88.55762410360904
 20
82.66873661128973
 30
0.0
 10
88.81511729183066
 20
82.70983510025066
 30
0.0
 10
89.30232228909594
 20
82.79638802921444
 30
0.0
 10
89.53246191128508
 20
82.84203892831232
 30
0.0
 10
89.94566756748857
 20
82.93031848347717
 30
0.0
 10
90.13150330818445
 20
82.97341983348441
 30
0.0
 10
90.46059988836788
 20
83.05362401333967
 30
0.0
 10
90.60055974518193
 20
83.08991886072924
 30
0.0
 10
90.82624610641157
 20
83.15009807987894
 30
0.0
 10
90.91351751475031
 20
83.17438541731005
 30
0.0
 10
91.03091772810119
 20
83.20738351162142
 30
0.0
 10
91.0604545349403
 20
83.21590396882137
 30
0.0
 10
91.0604545349403
 20
83.21590396882137
 30
0.0
  0
SPLINE
  5
258
330
1F
100
AcDbEntity
  8
0
  6
Continuous
 62
     7
370
    15
100
AcDbSpline
210
0.0
220
0.0
230
1.0
 70
     8
 71
     3
 72
    22
 73
    18
 74
     0
 42
0.00000001
 43
0.00000001
 12
1.0
 22
0.0
 32
0.0
 13
1.0
 23
0.0
 33
0.0
 40
0.0
 40
0.0
 40
0.0
 40
0.0
 40
0.125
 40
0.125
 40
0.25
 40
0.25
 40
0.375
 40
0.375
 40
0.5
 40
0.5
 40
0.625
 40
0.625
 40
0.75
 40
0.75
 40
0.875
 40
0.875
 40
1.0
 40
1.0
 40
1.0
 40
1.0
 10
80.0604545349403
 20
83.21590396882137
 30
0.0
 10
80.0604545349403
 20
83.21590396882137
 30
0.0
 10
80.08998043336021
 20
83.20738986775497
 30
0.0
 10
80.20538526664687
 20
83.17494609887308
 30
0.0
 10
80.29276807171271
 20
83.15061221017105
 30
0.0
 10
80.51944149102033
 20
83.09015218541421
 30
0.0
 10
80.65791733735288
 20
83.05423876463571
 30
0.0
 10
80.98472783451668
 20
82.97452873856659
 30
0.0
 10
81.17377267049666
 20
82.93065043737724
 30
0.0
 10
81.58664095297239
 20
82.84240681500707
 30
0.0
 10
81.81211284422369
 20
82.7975984735461
 30
0.0
 10
82.30296844877138
 20
82.71027746562693
 30
0.0
 10
82.56180860671346
 20
82.66898667705127
 30
0.0
 10
83.10156143250929
 20
82.59464845375744
 30
0.0
 10
83.38566452133834
 20
82.56123832802277
 30
0.0
 10
83.96711765648026
 20
82.50621892649663
 30
0.0
 10
84.26176812210855
 20
82.4847571600304
 30
0.0
 10
84.5604545349403
 20
82.4698041364126
 30
0.0
  0
SPLINE
  5
259
330
1F
100
AcDbEntity
  8
0
  6
Continuous
 62
     7
370
    15
100
AcDbSpline
210
0.0
220
0.0
230
1.0
 70
     8
 71
     3
 72
    38
 73
    34
 74
     0
 42
0.00000001
 43
0.00000001
 12
1.0
 22
0.0
 32
0.0
 13
1.0
 23
0.0
 33
0.0
 40
0.0
 40
0.0
 40
0.0
 40
0.0
 40
0.0625
 40
0.0625
 40
0.125
 40
0.125
 40
0.1875
 40
0.1875
 40
0.25
 40
0.25
 40
0.3125
 40
0.3125
 40
0.375
 40
0.375
 40
0.4375
 40
0.4375
 40
0.5
 40
0.5
 40
0.5625
 40
0.5625
 40
0.625
 40
0.625
 40
0.6875
 40
0.6875
 40
0.75
 40
0.75
 40
0.8125
 40
0.8125
 40
0.875
 40
0.875
 40
0.9375
 40
0.9375
 40
1.0
 40
1.0
 40
1.0
 40
1.0
 10
81.0604545349403
 20
121.9319637617559
 30
0.0
 10
81.0604545349403
 20
121.9319637617559
 30
0.0
 10
81.0898149575118
 20
121.9388093290121
 30
0.0
 10
81.20466854801911
 20
121.9647934884457
 30
0.0
 10
81.29162063076365
 20
121.9842464072686
 30
0.0
 10
81.51773351464827
 20
122.0322785118079
 30
0.0
 10
81.65595883912196
 20
122.0606625287872
 30
0.0
 10
81.98236367435923
 20
122.122818542266
 30
0.0
 10
82.17168544868451
 20
122.1567167179428
 30
0.0
 10
82.58525450220124
 20
122.2233641502685
 30
0.0
 10
82.81110059212493
 20
122.2564615676815
 30
0.0
 10
83.30253108108766
 20
122.3184675383437
 30
0.0
 10
83.56288853623798
 20
122.3466335075914
 30
0.0
 10
84.10383334779614
 20
122.3935217766209
 30
0.0
 10
84.38837718970846
 20
122.4125337639408
 30
0.0
 10
84.96959036433582
 20
122.4381748004823
 30
0.0
 10
85.26215197219679
 20
122.4447319166878
 30
0.0
 10
85.8511219628065
 20
122.4448443383227
 30
0.0
 10
86.15035309615078
 20
122.4381788150907
 30
0.0
 10
86.72819543761096
 20
122.4127633043893
 30
0.0
 10
87.00916567075194
 20
122.3941324109876
 30
0.0
 10
87.55517047035025
 20
122.3469540799481
 30
0.0
 10
87.81718277007364
 20
122.3185724266946
 30
0.0
 10
88.3036846082662
 20
122.257279475594
 30
0.0
 10
88.5320541994992
 20
122.2239278923321
 30
0.0
 10
88.94980089838919
 20
122.1566400339727
 30
0.0
 10
89.13535253935933
 20
122.1233967378233
 30
0.0
 10
89.46127925084737
 20
122.0613907658488
 30
0.0
 10
89.60270113225793
 20
122.0323757083781
 30
0.0
 10
89.82857827846173
 20
121.9844008275288
 30
0.0
 10
89.9142190469193
 20
121.9652465901883
 30
0.0
 10
90.03044393010526
 20
121.9389605594671
 30
0.0
 10
90.0604545349403
 20
121.9319637617559
 30
0.0
 10
90.0604545349403
 20
121.9319637617559
 30
0.0
  0
ARC
  5
25A
330
1F
100
AcDbEntity
  8
0
  6
Continuous
 62
     7
370
    15
100
AcDbCircle
 10
85.5604545349
 20
102.4447884919
 30
0.0
 40
19.99999999999999
100
AcDbArc
 50
267.1340160174
 51
272.8659839826
  0
LINE
  5
25B
330
1F
100
AcDbEntity
  8
0
  6
HIDDEN
 62
     7
370
     0
100
AcDbLine
 10
101.8968676353
 20
104.8902886031
 30
0.0
 11
101.8968676353
 21
99.9992883806
 31
0.0
  0
LINE
  5
25C
330
1F
100
AcDbEntity
  8
0
  6
HIDDEN
 62
     7
370
     0
100
AcDbLine
 10
101.5767273629
 20
105.4447885179
 30
0.0
 11
101.5767273629
 21
99.4447884658
 31
0.0
  0
LINE
  5
25D
330
1F
100
AcDbEntity
  8
0
  6
HIDDEN
 62
     7
370
     0
100
AcDbLine
 10
92.8968675571
 20
105.4447885179
 30
0.0
 11
92.8968675571
 21
99.4447884658
 31
0.0
  0
LINE
  5
25E
330
1F
100
AcDbEntity
  8
0
  6
HIDDEN
 62
     7
370
     0
100
AcDbLine
 10
91.8968673932
 20
104.4447885868
 30
0.0
 11
91.8968673932
 21
100.4447883969
 31
0.0
  0
LINE
  5
25F
330
1F
100
AcDbEntity
  8
0
  6
HIDDEN
 62
     7
370
     0
100
AcDbLine
 10
101.8968676353
 20
103.216380863
 30
0.0
 11
101.8968676353
 21
104.1735231919
 31
0.0
  0
LINE
  5
260
330
1F
100
AcDbEntity
  8
0
  6
HIDDEN
 62
     7
370
     0
100
AcDbLine
 10
98.3968670616
 20
103.216380863
 30
0.0
 11
98.3968670616
 21
104.1735231919
 31
0.0
  0
LINE
  5
261
330
1F
100
AcDbEntity
  8
0
  6
HIDDEN
 62
     7
370
     0
100
AcDbLine
 10
98.3968670616
 20
103.216380863
 30
0.0
 11
98.3968670616
 21
101.4876461048
 31
0.0
  0
LINE
  5
262
330
1F
100
AcDbEntity
  8
0
  6
HIDDEN
 62
     7
370
     0
100
AcDbLine
 10
98.3968670616
 20
103.216380863
 30
0.0
 11
101.8968676353
 21
103.216380863
 31
0.0
  0
LINE
  5
263
330
1F
100
AcDbEntity
  8
0
  6
HIDDEN
 62
     7
370
     0
100
AcDbLine
 10
101.8968676353
 20
103.216380863
 30
0.0
 11
101.8968676353
 21
101.4876461048
 31
0.0
  0
LINE
  5
264
330
1F
100
AcDbEntity
  8
0
  6
HIDDEN
 62
     7
370
     0
100
AcDbLine
 10
98.3968670616
 20
101.4876461048
 30
0.0
 11
101.8968676353
 21
101.4876461048
 31
0.0
  0
LINE
  5
265
330
1F
100
AcDbEntity
  8
0
  6
HIDDEN
 62
     7
370
     0
100
AcDbLine
 10
98.3968670616
 20
101.4876461048
 30
0.0
 11
98.3968670616
 21
100.7160537918
 31
0.0
  0
LINE
  5
266
330
1F
100
AcDbEntity
  8
0
  6
HIDDEN
 62
     7
370
     0
100
AcDbLine
 10
101.8968676353
 20
101.4876461048
 30
0.0
 11
101.8968676353
 21
100.7160537918
 31
0.0
  0
LINE
  5
267
330
1F
100
AcDbEntity
  8
0
  6
HIDDEN
 62
     7
370
     0
100
AcDbLine
 10
98.3968670616
 20
103.4019308789
 30
0.0
 11
101.8968676353
 21
103.4019308789
 31
0.0
  0
LINE
  5
268
330
1F
100
AcDbEntity
  8
0
  6
HIDDEN
 62
     7
370
     0
100
AcDbLine
 10
98.3968670616
 20
103.4019308789
 30
0.0
 11
98.3968670616
 21
104.1735231919
 31
0.0
  0
LINE
  5
269
330
1F
100
AcDbEntity
  8
0
  6
HIDDEN
 62
     7
370
     0
100
AcDbLine
 10
98.3968670616
 20
104.1735231919
 30
0.0
 11
101.8968676353
 21
104.1735231919
 31
0.0
  0
LINE
  5
26A
330
1F
100
AcDbEntity
  8
0
  6
HIDDEN
 62
     7
370
     0
100
AcDbLine
 10
101.8968676353
 20
103.4019308789
 30
0.0
 11
101.8968676353
 21
104.1735231919
 31
0.0
  0
LINE
  5
26B
330
1F
100
AcDbEntity
  8
0
  6
HIDDEN
 62
     7
370
     0
100
AcDbLine
 10
98.3968670616
 20
101.6731961207
 30
0.0
 11
101.8968676353
 21
101.6731961207
 31
0.0
  0
LINE
  5
26C
330
1F
100
AcDbEntity
  8
0
  6
HIDDEN
 62
     7
370
     0
100
AcDbLine
 10
98.3968670616
 20
100.7160537918
 30
0.0
 11
101.8968676353
 21
100.7160537918
 31
0.0
  0
LINE
  5
26D
330
1F
100
AcDbEntity
  8
0
  6
HIDDEN
 62
     7
370
     0
100
AcDbLine
 10
98.3968670616
 20
101.6731961207
 30
0.0
 11
98.3968670616
 21
100.7160537918
 31
0.0
  0
LINE
  5
26E
330
1F
100
AcDbEntity
  8
0
  6
HIDDEN
 62
     7
370
     0
100
AcDbLine
 10
101.8968676353
 20
101.6731961207
 30
0.0
 11
101.8968676353
 21
100.7160537918
 31
0.0
  0
LINE
  5
26F
330
1F
100
AcDbEntity
  8
0
  6
HIDDEN
 62
     7
370
     0
100
AcDbLine
 10
98.3968670616
 20
103.4019308789
 30
0.0
 11
98.3968670616
 21
101.6731961207
 31
0.0
  0
LINE
  5
270
330
1F
100
AcDbEntity
  8
0
  6
HIDDEN
 62
     7
370
     0
100
AcDbLine
 10
101.8968676353
 20
103.4019308789
 30
0.0
 11
101.8968676353
 21
101.6731961207
 31
0.0
  0
LINE
  5
271
330
1F
100
AcDbEntity
  8
0
  6
HIDDEN
 62
     7
370
     0
100
AcDbLine
 10
83.1149544237
 20
118.7812015922
 30
0.0
 11
88.0059546461
 21
118.7812015922
 31
0.0
  0
LINE
  5
272
330
1F
100
AcDbEntity
  8
0
  6
HIDDEN
 62
     7
370
     0
100
AcDbLine
 10
82.5604545089
 20
118.4610613198
 30
0.0
 11
88.560454561
 21
118.4610613198
 31
0.0
  0
LINE
  5
273
330
1F
100
AcDbEntity
  8
0
  6
HIDDEN
 62
     7
370
     0
100
AcDbLine
 10
82.5604545089
 20
109.781201514
 30
0.0
 11
88.560454561
 21
109.781201514
 31
0.0
  0
LINE
  5
274
330
1F
100
AcDbEntity
  8
0
  6
HIDDEN
 62
     7
370
     0
100
AcDbLine
 10
83.5604544399
 20
108.7812013501
 30
0.0
 11
87.5604546299
 21
108.7812013501
 31
0.0
  0
LINE
  5
275
330
1F
100
AcDbEntity
  8
0
  6
HIDDEN
 62
     7
370
     0
100
AcDbLine
 10
84.7888621638
 20
115.2812010185
 30
0.0
 11
83.8317198349
 21
115.2812010185
 31
0.0
  0
LINE
  5
276
330
1F
100
AcDbEntity
  8
0
  6
HIDDEN
 62
     7
370
     0
100
AcDbLine
 10
84.7888621638
 20
118.7812015922
 30
0.0
 11
83.8317198349
 21
118.7812015922
 31
0.0
  0
LINE
  5
277
330
1F
100
AcDbEntity
  8
0
  6
HIDDEN
 62
     7
370
     0
100
AcDbLine
 10
84.7888621638
 20
115.2812010185
 30
0.0
 11
84.7888621638
 21
118.7812015922
 31
0.0
  0
LINE
  5
278
330
1F
100
AcDbEntity
  8
0
  6
HIDDEN
 62
     7
370
     0
100
AcDbLine
 10
84.7888621638
 20
115.2812010185
 30
0.0
 11
86.517596922
 21
115.2812010185
 31
0.0
  0
LINE
  5
279
330
1F
100
AcDbEntity
  8
0
  6
HIDDEN
 62
     7
370
     0
100
AcDbLine
 10
84.7888621638
 20
118.7812015922
 30
0.0
 11
86.517596922
 21
118.7812015922
 31
0.0
  0
LINE
  5
27A
330
1F
100
AcDbEntity
  8
0
  6
HIDDEN
 62
     7
370
     0
100
AcDbLine
 10
86.517596922
 20
115.2812010185
 30
0.0
 11
86.517596922
 21
118.7812015922
 31
0.0
  0
LINE
  5
27B
330
1F
100
AcDbEntity
  8
0
  6
HIDDEN
 62
     7
370
     0
100
AcDbLine
 10
86.517596922
 20
115.2812010185
 30
0.0
 11
87.2891892349
 21
115.2812010185
 31
0.0
  0
LINE
  5
27C
330
1F
100
AcDbEntity
  8
0
  6
HIDDEN
 62
     7
370
     0
100
AcDbLine
 10
86.517596922
 20
118.7812015922
 30
0.0
 11
87.2891892349
 21
118.7812015922
 31
0.0
  0
LINE
  5
27D
330
1F
100
AcDbEntity
  8
0
  6
HIDDEN
 62
     7
370
     0
100
AcDbLine
 10
84.6033121479
 20
115.2812010185
 30
0.0
 11
84.6033121479
 21
118.7812015922
 31
0.0
  0
LINE
  5
27E
330
1F
100
AcDbEntity
  8
0
  6
HIDDEN
 62
     7
370
     0
100
AcDbLine
 10
83.8317198349
 20
115.2812010185
 30
0.0
 11
83.8317198349
 21
118.7812015922
 31
0.0
  0
LINE
  5
27F
330
1F
100
AcDbEntity
  8
0
  6
HIDDEN
 62
     7
370
     0
100
AcDbLine
 10
84.6033121479
 20
115.2812010185
 30
0.0
 11
83.8317198349
 21
115.2812010185
 31
0.0
  0
LINE
  5
280
330
1F
100
AcDbEntity
  8
0
  6
HIDDEN
 62
     7
370
     0
100
AcDbLine
 10
84.6033121479
 20
118.7812015922
 30
0.0
 11
83.8317198349
 21
118.7812015922
 31
0.0
  0
LINE
  5
281
330
1F
100
AcDbEntity
  8
0
  6
HIDDEN
 62
     7
370
     0
100
AcDbLine
 10
86.3320469061
 20
115.2812010185
 30
0.0
 11
86.3320469061
 21
118.7812015922
 31
0.0
  0
LINE
  5
282
330
1F
100
AcDbEntity
  8
0
  6
HIDDEN
 62
     7
370
     0
100
AcDbLine
 10
87.2891892349
 20
115.2812010185
 30
0.0
 11
87.2891892349
 21
118.7812015922
 31
0.0
  0
LINE
  5
283
330
1F
100
AcDbEntity
  8
0
  6
HIDDEN
 62
     7
370
     0
100
AcDbLine
 10
86.3320469061
 20
115.2812010185
 30
0.0
 11
87.2891892349
 21
115.2812010185
 31
0.0
  0
LINE
  5
284
330
1F
100
AcDbEntity
  8
0
  6
HIDDEN
 62
     7
370
     0
100
AcDbLine
 10
86.3320469061
 20
118.7812015922
 30
0.0
 11
87.2891892349
 21
118.7812015922
 31
0.0
  0
LINE
  5
285
330
1F
100
AcDbEntity
  8
0
  6
HIDDEN
 62
     7
370
     0
100
AcDbLine
 10
84.6033121479
 20
115.2812010185
 30
0.0
 11
86.3320469061
 21
115.2812010185
 31
0.0
  0
LINE
  5
286
330
1F
100
AcDbEntity
  8
0
  6
HIDDEN
 62
     7
370
     0
100
AcDbLine
 10
84.6033121479
 20
118.7812015922
 30
0.0
 11
86.3320469061
 21
118.7812015922
 31
0.0
  0
LINE
  5
287
330
1F
100
AcDbEntity
  8
0
  6
HIDDEN
 62
     7
370
     0
100
AcDbLine
 10
78.2240415128
 20
99.4447884658
 30
0.0
 11
78.2240415128
 21
105.4447885179
 31
0.0
  0
LINE
  5
288
330
1F
100
AcDbEntity
  8
0
  6
HIDDEN
 62
     7
370
     0
100
AcDbLine
 10
79.2240416767
 20
100.4447883969
 30
0.0
 11
79.2240416767
 21
104.4447885868
 31
0.0
  0
LINE
  5
289
330
1F
100
AcDbEntity
  8
0
  6
HIDDEN
 62
     7
370
     0
100
AcDbLine
 10
69.544181707
 20
99.4447884658
 30
0.0
 11
69.544181707
 21
105.4447885179
 31
0.0
  0
LINE
  5
28A
330
1F
100
AcDbEntity
  8
0
  6
HIDDEN
 62
     7
370
     0
100
AcDbLine
 10
69.2240414346
 20
99.9992883806
 30
0.0
 11
69.2240414346
 21
104.8902886031
 31
0.0
  0
LINE
  5
28B
330
1F
100
AcDbEntity
  8
0
  6
HIDDEN
 62
     7
370
     0
100
AcDbLine
 10
72.7240420083
 20
101.6731961207
 30
0.0
 11
72.7240420083
 21
100.7160537918
 31
0.0
  0
LINE
  5
28C
330
1F
100
AcDbEntity
  8
0
  6
HIDDEN
 62
     7
370
     0
100
AcDbLine
 10
69.2240414346
 20
101.6731961207
 30
0.0
 11
69.2240414346
 21
100.7160537918
 31
0.0
  0
LINE
  5
28D
330
1F
100
AcDbEntity
  8
0
  6
HIDDEN
 62
     7
370
     0
100
AcDbLine
 10
72.7240420083
 20
101.6731961207
 30
0.0
 11
69.2240414346
 21
101.6731961207
 31
0.0
  0
LINE
  5
28E
330
1F
100
AcDbEntity
  8
0
  6
HIDDEN
 62
     7
370
     0
100
AcDbLine
 10
72.7240420083
 20
101.6731961207
 30
0.0
 11
72.7240420083
 21
103.4019308789
 31
0.0
  0
LINE
  5
28F
330
1F
100
AcDbEntity
  8
0
  6
HIDDEN
 62
     7
370
     0
100
AcDbLine
 10
69.2240414346
 20
101.6731961207
 30
0.0
 11
69.2240414346
 21
103.4019308789
 31
0.0
  0
LINE
  5
290
330
1F
100
AcDbEntity
  8
0
  6
HIDDEN
 62
     7
370
     0
100
AcDbLine
 10
72.7240420083
 20
103.4019308789
 30
0.0
 11
69.2240414346
 21
103.4019308789
 31
0.0
  0
LINE
  5
291
330
1F
100
AcDbEntity
  8
0
  6
HIDDEN
 62
     7
370
     0
100
AcDbLine
 10
72.7240420083
 20
103.4019308789
 30
0.0
 11
72.7240420083
 21
104.1735231919
 31
0.0
  0
LINE
  5
292
330
1F
100
AcDbEntity
  8
0
  6
HIDDEN
 62
     7
370
     0
100
AcDbLine
 10
69.2240414346
 20
103.4019308789
 30
0.0
 11
69.2240414346
 21
104.1735231919
 31
0.0
  0
LINE
  5
293
330
1F
100
AcDbEntity
  8
0
  6
HIDDEN
 62
     7
370
     0
100
AcDbLine
 10
72.7240420083
 20
101.4876461048
 30
0.0
 11
69.2240414346
 21
101.4876461048
 31
0.0
  0
LINE
  5
294
330
1F
100
AcDbEntity
  8
0
  6
HIDDEN
 62
     7
370
     0
100
AcDbLine
 10
72.7240420083
 20
100.7160537918
 30
0.0
 11
69.2240414346
 21
100.7160537918
 31
0.0
  0
LINE
  5
295
330
1F
100
AcDbEntity
  8
0
  6
HIDDEN
 62
     7
370
     0
100
AcDbLine
 10
72.7240420083
 20
101.4876461048
 30
0.0
 11
72.7240420083
 21
100.7160537918
 31
0.0
  0
LINE
  5
296
330
1F
100
AcDbEntity
  8
0
  6
HIDDEN
 62
     7
370
     0
100
AcDbLine
 10
69.2240414346
 20
101.4876461048
 30
0.0
 11
69.2240414346
 21
100.7160537918
 31
0.0
  0
LINE
  5
297
330
1F
100
AcDbEntity
  8
0
  6
HIDDEN
 62
     7
370
     0
100
AcDbLine
 10
72.7240420083
 20
103.216380863
 30
0.0
 11
69.2240414346
 21
103.216380863
 31
0.0
  0
LINE
  5
298
330
1F
100
AcDbEntity
  8
0
  6
HIDDEN
 62
     7
370
     0
100
AcDbLine
 10
72.7240420083
 20
104.1735231919
 30
0.0
 11
69.2240414346
 21
104.1735231919
 31
0.0
  0
LINE
  5
299
330
1F
100
AcDbEntity
  8
0
  6
HIDDEN
 62
     7
370
     0
100
AcDbLine
 10
72.7240420083
 20
103.216380863
 30
0.0
 11
72.7240420083
 21
104.1735231919
 31
0.0
  0
LINE
  5
29A
330
1F
100
AcDbEntity
  8
0
  6
HIDDEN
 62
     7
370
     0
100
AcDbLine
 10
69.2240414346
 20
103.216380863
 30
0.0
 11
69.2240414346
 21
104.1735231919
 31
0.0
  0
LINE
  5
29B
330
1F
100
AcDbEntity
  8
0
  6
HIDDEN
 62
     7
370
     0
100
AcDbLine
 10
72.7240420083
 20
101.4876461048
 30
0.0
 11
72.7240420083
 21
103.216380863
 31
0.0
  0
LINE
  5
29C
330
1F
100
AcDbEntity
  8
0
  6
HIDDEN
 62
     7
370
     0
100
AcDbLine
 10
69.2240414346
 20
101.4876461048
 30
0.0
 11
69.2240414346
 21
103.216380863
 31
0.0
  0
LINE
  5
29D
330
1F
100
AcDbEntity
  8
0
  6
HIDDEN
 62
     7
370
     0
100
AcDbLine
 10
87.6817747621
 20
104.566108719
 30
0.0
 11
88.0604544791
 21
104.944788436
 31
0.0
  0
SPLINE
  5
29E
330
1F
100
AcDbEntity
  8
0
  6
HIDDEN
 62
     7
370
     0
100
AcDbSpline
210
0.0
220
0.0
230
1.0
 70
    11
 71
     3
 72
    68
 73
    64
 74
     0
 42
0.00000001
 43
0.00000001
 12
1.0
 22
0.0
 32
0.0
 13
1.0
 23
0.0
 33
0.0
 40
-0.0312500000000003
 40
-0.0312500000000003
 40
0.0
 40
0.0
 40
0.0312499999999999
 40
0.0312499999999999
 40
0.0624999999999999
 40
0.0624999999999999
 40
0.0937499999999998
 40
0.0937499999999998
 40
0.1249999999999997
 40
0.1249999999999997
 40
0.1562499999999997
 40
0.1562499999999997
 40
0.1874999999999996
 40
0.1874999999999996
 40
0.2187499999999995
 40
0.2187499999999995
 40
0.2499999999999994
 40
0.2499999999999994
 40
0.2812499999999994
 40
0.2812499999999994
 40
0.3124999999999993
 40
0.3124999999999993
 40
0.3437499999999993
 40
0.3437499999999993
 40
0.3749999999999993
 40
0.3749999999999993
 40
0.4062499999999993
 40
0.4062499999999993
 40
0.4374999999999992
 40
0.4374999999999992
 40
0.4687499999999992
 40
0.4687499999999992
 40
0.4999999999999992
 40
0.4999999999999992
 40
0.5312499999999991
 40
0.5312499999999991
 40
0.5624999999999991
 40
0.5624999999999991
 40
0.593749999999999
 40
0.593749999999999
 40
0.6249999999999989
 40
0.6249999999999989
 40
0.6562499999999989
 40
0.6562499999999989
 40
0.6874999999999988
 40
0.6874999999999988
 40
0.7187499999999988
 40
0.7187499999999988
 40
0.7499999999999987
 40
0.7499999999999987
 40
0.7812499999999986
 40
0.7812499999999986
 40
0.8124999999999986
 40
0.8124999999999986
 40
0.8437499999999984
 40
0.8437499999999984
 40
0.8749999999999983
 40
0.8749999999999983
 40
0.9374999999999992
 40
0.9374999999999992
 40
0.9687499999999997
 40
0.9687499999999997
 40
1.0
 40
1.0
 40
1.03125
 40
1.03125
 10
102.3756262557406
 20
104.9447884918507
 30
0.0
 10
102.3756262557405
 20
104.9447884918507
 30
0.0
 10
102.3780653259522
 20
104.928535911035
 30
0.0
 10
102.3873408996205
 20
104.8648978345051
 30
0.0
 10
102.3942876946216
 20
104.8167236602928
 30
0.0
 10
102.4115021346894
 20
104.6911655933787
 30
0.0
 10
102.4216908915039
 20
104.6143646797721
 30
0.0
 10
102.4440426589532
 20
104.4329545728881
 30
0.0
 10
102.4562750274134
 20
104.3275138846156
 30
0.0
 10
102.4803514586303
 20
104.0972088712153
 30
0.0
 10
102.4923159173066
 20
103.9715020577055
 30
0.0
 10
102.5147303958396
 20
103.6983092201829
 30
0.0
 10
102.5249539014406
 20
103.5531390918967
 30
0.0
 10
102.541927054661
 20
103.2524213729167
 30
0.0
 10
102.5487964149844
 20
103.0946442189366
 30
0.0
 10
102.5580752553196
 20
102.7718391689913
 30
0.0
 10
102.5604409209848
 20
102.6094848268498
 30
0.0
 10
102.5604680317359
 20
102.2829147224256
 30
0.0
 10
102.5580520204679
 20
102.1170252756822
 30
0.0
 10
102.5488363849817
 20
101.7962276827734
 30
0.0
 10
102.5420853774838
 20
101.6402814112704
 30
0.0
 10
102.5250221057361
 20
101.3373297562624
 30
0.0
 10
102.5147189167487
 20
101.1912520852096
 30
0.0
 10
102.4925343559937
 20
100.9206142286821
 30
0.0
 10
102.4805357435409
 20
100.7941575725077
 30
0.0
 10
102.4561742434045
 20
100.5610724648062
 30
0.0
 10
102.4441794808364
 20
100.4577929222533
 30
0.0
 10
102.4218861994944
 20
100.2767382932057
 30
0.0
 10
102.4114913734646
 20
100.1983317122003
 30
0.0
 10
102.3942866809518
 20
100.0728471190402
 30
0.0
 10
102.3874535188979
 20
100.0254586720244
 30
0.0
 10
102.3781011754465
 20
99.96128027598296
 30
0.0
 10
102.375635597149
 20
99.94485132281024
 30
0.0
 10
102.3756169690615
 20
99.9447260290047
 30
0.0
 10
102.377985975652
 20
99.96050100185184
 30
0.0
 10
102.3873259547704
 20
100.0245723211758
 30
0.0
 10
102.3942340032646
 20
100.072485948103
 30
0.0
 10
102.4113155710317
 20
100.1970267407781
 30
0.0
 10
102.4216264746307
 20
100.274692890417
 30
0.0
 10
102.4440882437777
 20
100.4569889836065
 30
0.0
 10
102.4560707462255
 20
100.5602328944631
 30
0.0
 10
102.48016535001
 20
100.7904660042133
 30
0.0
 10
102.4923808006317
 20
100.918886882896
 30
0.0
 10
102.5146301990222
 20
101.1900254311605
 30
0.0
 10
102.5247662723022
 20
101.3334290826847
 30
0.0
 10
102.5418912834164
 20
101.6362104707278
 30
0.0
 10
102.5487781855323
 20
101.7948478541507
 30
0.0
 10
102.5579973915471
 20
102.1144854073761
 30
0.0
 10
102.5604336557603
 20
102.2774011107643
 30
0.0
 10
102.5604751462127
 20
102.6079076506818
 30
0.0
 10
102.5580880684632
 20
102.7704694131293
 30
0.0
 10
102.548943793046
 20
103.0904250224587
 30
0.0
 10
102.542073564496
 20
103.249508802745
 30
0.0
 10
102.5250314382801
 20
103.5520780359188
 30
0.0
 10
102.5149205795452
 20
103.69566457943
 30
0.0
 10
102.492662966861
 20
103.9675909945181
 30
0.0
 10
102.4804687601206
 20
104.0960099889408
 30
0.0
 10
102.4443659833337
 20
104.4415832869747
 30
0.0
 10
102.4201454114332
 20
104.6280770642723
 30
0.0
 10
102.3944424412911
 20
104.8156179941928
 30
0.0
 10
102.3874839520254
 20
104.8639096622934
 30
0.0
 10
102.378066600598
 20
104.9285337786656
 30
0.0
 10
102.3756262557406
 20
104.9447884918507
 30
0.0
 10
102.3756262557405
 20
104.9447884918507
 30
0.0
  0
SPLINE
  5
29F
330
1F
100
AcDbEntity
  8
0
  6
HIDDEN
 62
     7
370
     0
100
AcDbSpline
210
0.0
220
0.0
230
1.0
 70
    11
 71
     3
 72
    60
 73
    56
 74
     0
 42
0.00000001
 43
0.00000001
 12
1.0
 22
0.0
 32
0.0
 13
1.0
 23
0.0
 33
0.0
 40
0.0
 40
0.0
 40
0.0
 40
0.0
 40
0.0625000000000016
 40
0.0625000000000016
 40
0.1250000000000032
 40
0.1250000000000032
 40
0.1562500000000037
 40
0.1562500000000037
 40
0.1875000000000042
 40
0.1875000000000042
 40
0.2187500000000047
 40
0.2187500000000047
 40
0.2500000000000053
 40
0.2500000000000053
 40
0.2812500000000058
 40
0.2812500000000058
 40
0.3125000000000063
 40
0.3125000000000063
 40
0.3437500000000068
 40
0.3437500000000068
 40
0.3750000000000073
 40
0.3750000000000073
 40
0.4375000000000084
 40
0.4375000000000084
 40
0.4687500000000083
 40
0.4687500000000083
 40
0.5000000000000081
 40
0.5000000000000081
 40
0.531250000000008
 40
0.531250000000008
 40
0.5625000000000079
 40
0.5625000000000079
 40
0.5937500000000079
 40
0.5937500000000079
 40
0.6250000000000078
 40
0.6250000000000078
 40
0.6875000000000064
 40
0.6875000000000064
 40
0.7187500000000058
 40
0.7187500000000058
 40
0.7500000000000051
 40
0.7500000000000051
 40
0.7812500000000046
 40
0.7812500000000046
 40
0.8125000000000039
 40
0.8125000000000039
 40
0.8437500000000032
 40
0.8437500000000032
 40
0.8750000000000026
 40
0.8750000000000026
 40
0.9062500000000019
 40
0.9062500000000019
 40
0.9375000000000013
 40
0.9375000000000013
 40
1.0
 40
1.0
 40
1.0
 40
1.0
 10
87.68177487849994
 20
104.5661088354104
 30
0.0
 10
87.81604439937337
 20
104.431839314537
 30
0.0
 10
87.95353147603662
 20
104.269206260065
 30
0.0
 10
88.20861069747383
 20
103.8739793041002
 30
0.0
 10
88.32107146306076
 20
103.6498025983443
 30
0.0
 10
88.44927404403713
 20
103.2651469799705
 30
0.0
 10
88.48396534271063
 20
103.1323379719695
 30
0.0
 10
88.53533022111817
 20
102.8568010918391
 30
0.0
 10
88.55194291288691
 20
102.7122987880435
 30
0.0
 10
88.5638195758528
 20
102.4257384266675
 30
0.0
 10
88.55950847479599
 20
102.2827236227864
 30
0.0
 10
88.53034994803303
 20
101.9972275560671
 30
0.0
 10
88.50552966051958
 20
101.8569590497146
 30
0.0
 10
88.43919449622102
 20
101.5892961285456
 30
0.0
 10
88.3970459871307
 20
101.459422449745
 30
0.0
 10
88.30024429712071
 20
101.215663045598
 30
0.0
 10
88.24576838581984
 20
101.1016262815894
 30
0.0
 10
88.12736628744841
 20
100.8872393736412
 30
0.0
 10
88.06343358502828
 20
100.78717577314
 30
0.0
 10
87.9326511363731
 20
100.6048788922884
 30
0.0
 10
87.86530629221336
 20
100.5217705838844
 30
0.0
 10
87.66205727844799
 20
100.2942946188212
 30
0.0
 10
87.52295791365671
 20
100.1713363447802
 30
0.0
 10
87.3560118113137
 20
100.0404226479357
 30
0.0
 10
87.30693251044252
 20
100.0052071812302
 30
0.0
 10
87.23838295472676
 20
99.95756141976497
 30
0.0
 10
87.21870034264379
 20
99.94474432271039
 30
0.0
 10
87.21883387399254
 20
99.94483289740042
 30
0.0
 10
87.23816449228161
 20
99.95740766905469
 30
0.0
 10
87.30733439359653
 20
100.005488424619
 30
0.0
 10
87.35544989915552
 20
100.0400039845162
 30
0.0
 10
87.46672222584739
 20
100.1272164056204
 30
0.0
 10
87.53020847068696
 20
100.1802883475884
 30
0.0
 10
87.66074939188073
 20
100.3008078518581
 30
0.0
 10
87.72834629634504
 20
100.3686015530137
 30
0.0
 10
87.93144609458085
 20
100.5955652493054
 30
0.0
 10
88.06781917601457
 20
100.7800263553359
 30
0.0
 10
88.24331420668527
 20
101.0968858301777
 30
0.0
 10
88.29759284223452
 20
101.2097924923434
 30
0.0
 10
88.39477572340027
 20
101.4529393941028
 30
0.0
 10
88.43717727118833
 20
101.5825748437141
 30
0.0
 10
88.50404427017334
 20
101.8496199888953
 30
0.0
 10
88.52919178256543
 20
101.9895338053583
 30
0.0
 10
88.55911665792352
 20
102.2754274951724
 30
0.0
 10
88.5637677596083
 20
102.4185717204148
 30
0.0
 10
88.55256697021721
 20
102.7052511940394
 30
0.0
 10
88.53628620287864
 20
102.8499958159839
 30
0.0
 10
88.48534597358041
 20
103.1265341655485
 30
0.0
 10
88.45076733674405
 20
103.2599467326248
 30
0.0
 10
88.3654315985389
 20
103.5173996620603
 30
0.0
 10
88.31588120251152
 20
103.637904891668
 30
0.0
 10
88.20603117667154
 20
103.8649388700155
 30
0.0
 10
88.14519702980631
 20
103.972131160485
 30
0.0
 10
87.95513734604633
 20
104.2669223516374
 30
0.0
 10
87.81744745204162
 20
104.4304362618687
 30
0.0
 10
87.68177487849994
 20
104.5661088354104
 30
0.0
  0
LINE
  5
2A0
330
1F
100
AcDbEntity
  8
0
  6
HIDDEN
 62
     7
370
     0
100
AcDbLine
 10
83.4391343078
 20
104.566108719
 30
0.0
 11
83.0604545908
 21
104.944788436
 31
0.0
  0
SPLINE
  5
2A1
330
1F
100
AcDbEntity
  8
0
  6
HIDDEN
 62
     7
370
     0
100
AcDbSpline
210
0.0
220
0.0
230
1.0
 70
    11
 71
     3
 72
    68
 73
    64
 74
     0
 42
0.00000001
 43
0.00000001
 12
1.0
 22
0.0
 32
0.0
 13
1.0
 23
0.0
 33
0.0
 40
-0.03125
 40
-0.03125
 40
0.0
 40
0.0
 40
0.03125
 40
0.03125
 40
0.0625
 40
0.0625
 40
0.09375
 40
0.09375
 40
0.125
 40
0.125
 40
0.15625
 40
0.15625
 40
0.1875
 40
0.1875
 40
0.21875
 40
0.21875
 40
0.25
 40
0.25
 40
0.28125
 40
0.28125
 40
0.3125
 40
0.3125
 40
0.34375
 40
0.34375
 40
0.375
 40
0.375
 40
0.40625
 40
0.40625
 40
0.4375
 40
0.4375
 40
0.46875
 40
0.46875
 40
0.5
 40
0.5
 40
0.53125
 40
0.53125
 40
0.5625
 40
0.5625
 40
0.59375
 40
0.59375
 40
0.625
 40
0.625
 40
0.65625
 40
0.65625
 40
0.6875
 40
0.6875
 40
0.71875
 40
0.71875
 40
0.75
 40
0.75
 40
0.78125
 40
0.78125
 40
0.8125
 40
0.8125
 40
0.84375
 40
0.84375
 40
0.875
 40
0.875
 40
0.9375
 40
0.9375
 40
0.96875
 40
0.96875
 40
1.0
 40
1.0
 40
1.03125
 40
1.03125
 10
83.06045453494029
 20
119.259960212651
 30
0.0
 10
83.0604545349403
 20
119.259960212651
 30
0.0
 10
83.07670711575605
 20
119.2623992828626
 30
0.0
 10
83.1403451922859
 20
119.271674856531
 30
0.0
 10
83.18851936649826
 20
119.2786216515321
 30
0.0
 10
83.31407743341232
 20
119.2958360915999
 30
0.0
 10
83.39087834701895
 20
119.3060248484144
 30
0.0
 10
83.57228845390297
 20
119.3283766158637
 30
0.0
 10
83.67772914217544
 20
119.3406089843239
 30
0.0
 10
83.9080341555757
 20
119.3646854155408
 30
0.0
 10
84.03374096908551
 20
119.376649874217
 30
0.0
 10
84.30693380660807
 20
119.39906435275
 30
0.0
 10
84.45210393489435
 20
119.409287858351
 30
0.0
 10
84.75282165387435
 20
119.4262610115715
 30
0.0
 10
84.91059880785441
 20
119.4331303718949
 30
0.0
 10
85.23340385779974
 20
119.4424092122301
 30
0.0
 10
85.39575819994121
 20
119.4447748778953
 30
0.0
 10
85.72232830436538
 20
119.4448019886464
 30
0.0
 10
85.88821775110885
 20
119.4423859773784
 30
0.0
 10
86.20901534401756
 20
119.4331703418922
 30
0.0
 10
86.36496161552061
 20
119.4264193343943
 30
0.0
 10
86.66791327052856
 20
119.4093560626466
 30
0.0
 10
86.8139909415814
 20
119.3990528736591
 30
0.0
 10
87.08462879810897
 20
119.3768683129042
 30
0.0
 10
87.21108545428334
 20
119.3648697004514
 30
0.0
 10
87.44417056198478
 20
119.340508200315
 30
0.0
 10
87.54745010453772
 20
119.3285134377469
 30
0.0
 10
87.7285047335853
 20
119.3062201564049
 30
0.0
 10
87.80691131459072
 20
119.2958253303751
 30
0.0
 10
87.93239590775077
 20
119.2786206378623
 30
0.0
 10
87.97978435476657
 20
119.2717874758084
 30
0.0
 10
88.04396275080806
 20
119.262435132357
 30
0.0
 10
88.06039170398078
 20
119.2599695540595
 30
0.0
 10
88.06051699778632
 20
119.2599509259719
 30
0.0
 10
88.04474202493917
 20
119.2623199325625
 30
0.0
 10
87.9806707056152
 20
119.2716599116809
 30
0.0
 10
87.93275707868807
 20
119.2785679601751
 30
0.0
 10
87.80821628601288
 20
119.2956495279422
 30
0.0
 10
87.73055013637402
 20
119.3059604315412
 30
0.0
 10
87.54825404318451
 20
119.3284222006882
 30
0.0
 10
87.44501013232791
 20
119.340404703136
 30
0.0
 10
87.21477702257766
 20
119.3644993069205
 30
0.0
 10
87.08635614389505
 20
119.3767147575422
 30
0.0
 10
86.81521759563053
 20
119.3989641559327
 30
0.0
 10
86.67181394410632
 20
119.4091002292127
 30
0.0
 10
86.36903255606317
 20
119.4262252403269
 30
0.0
 10
86.21039517264026
 20
119.4331121424428
 30
0.0
 10
85.8907576194149
 20
119.4423313484576
 30
0.0
 10
85.72784191602672
 20
119.4447676126708
 30
0.0
 10
85.39733537610923
 20
119.4448091031231
 30
0.0
 10
85.23477361366174
 20
119.4424220253737
 30
0.0
 10
84.91481800433232
 20
119.4332777499565
 30
0.0
 10
84.755734224046
 20
119.4264075214064
 30
0.0
 10
84.4531649908722
 20
119.4093653951906
 30
0.0
 10
84.30957844736098
 20
119.3992545364556
 30
0.0
 10
84.03765203227296
 20
119.3769969237715
 30
0.0
 10
83.90923303785027
 20
119.3648027170311
 30
0.0
 10
83.56365973981634
 20
119.3286999402442
 30
0.0
 10
83.3771659625187
 20
119.3044793683437
 30
0.0
 10
83.18962503259823
 20
119.2787763982016
 30
0.0
 10
83.1413333644976
 20
119.2718179089359
 30
0.0
 10
83.07670924812544
 20
119.2624005575085
 30
0.0
 10
83.06045453494029
 20
119.259960212651
 30
0.0
 10
83.0604545349403
 20
119.259960212651
 30
0.0
  0
SPLINE
  5
2A2
330
1F
100
AcDbEntity
  8
0
  6
HIDDEN
 62
     7
370
     0
100
AcDbSpline
210
0.0
220
0.0
230
1.0
 70
     8
 71
     3
 72
    22
 73
    18
 74
     0
 42
0.00000001
 43
0.00000001
 12
1.0
 22
0.0
 32
0.0
 13
1.0
 23
0.0
 33
0.0
 40
0.0
 40
0.0
 40
0.0
 40
0.0
 40
0.125
 40
0.125
 40
0.25
 40
0.25
 40
0.375
 40
0.375
 40
0.5
 40
0.5
 40
0.625
 40
0.625
 40
0.75
 40
0.75
 40
0.875
 40
0.875
 40
1.0
 40
1.0
 40
1.0
 40
1.0
 10
83.43913419138066
 20
104.5661088354104
 30
0.0
 10
83.544616432173
 20
104.6715910762028
 30
0.0
 10
83.66782590424378
 20
104.7791351276995
 30
0.0
 10
83.95492124608427
 20
104.9851585846533
 30
0.0
 10
84.1187750884632
 20
105.0831762745452
 30
0.0
 10
84.47956563763765
 20
105.2503559763276
 30
0.0
 10
84.68148372991428
 20
105.3213676335927
 30
0.0
 10
85.1055577648981
 20
105.4180638177158
 30
0.0
 10
85.33369698913476
 20
105.4446474547843
 30
0.0
 10
85.78346476185904
 20
105.4449283587173
 30
0.0
 10
86.01139576379569
 20
105.4187036301623
 30
0.0
 10
86.43657634530507
 20
105.3222752103541
 30
0.0
 10
86.63842824992825
 20
105.251539182461
 30
0.0
 10
87.00092616113086
 20
105.0839016503921
 30
0.0
 10
87.16552807235617
 20
104.9854211839313
 30
0.0
 10
87.45203416647517
 20
104.7799548743904
 30
0.0
 10
87.57565616893486
 20
104.6722275449755
 30
0.0
 10
87.68177487849994
 20
104.5661088354104
 30
0.0
  0
SPLINE
  5
2A3
330
1F
100
AcDbEntity
  8
0
  6
HIDDEN
 62
     7
370
     0
100
AcDbSpline
210
0.0
220
0.0
230
1.0
 70
     8
 71
     3
 72
    22
 73
    18
 74
     0
 42
0.00000001
 43
0.00000001
 12
1.0
 22
0.0
 32
0.0
 13
1.0
 23
0.0
 33
0.0
 40
0.0
 40
0.0
 40
0.0
 40
0.0
 40
0.125
 40
0.125
 40
0.25
 40
0.25
 40
0.375
 40
0.375
 40
0.5
 40
0.5
 40
0.625
 40
0.625
 40
0.75
 40
0.75
 40
0.875
 40
0.875
 40
1.0
 40
1.0
 40
1.0
 40
1.0
 10
87.68177487849994
 20
104.5661088354104
 30
0.0
 10
87.57673337499237
 20
104.671150338918
 30
0.0
 10
87.45207351311471
 20
104.7799932206532
 30
0.0
 10
87.16399640672847
 20
104.9864527004812
 30
0.0
 10
87.00368479119783
 20
105.0822835366452
 30
0.0
 10
86.6441051826205
 20
105.2492483253436
 30
0.0
 10
86.44213993769593
 20
105.3205465064892
 30
0.0
 10
86.01790185964008
 20
105.4176819062393
 30
0.0
 10
85.78976519568454
 20
105.4444592464831
 30
0.0
 10
85.33984116214039
 20
105.4451114336471
 30
0.0
 10
85.11146820579035
 20
105.4190098539926
 30
0.0
 10
84.68595064423702
 20
105.3227781339324
 30
0.0
 10
84.4838191796994
 20
105.2520662503613
 30
0.0
 10
84.12090928630876
 20
105.084421341079
 30
0.0
 10
83.95612095120666
 20
104.9858849375616
 30
0.0
 10
83.66963531571552
 20
104.7805667506994
 30
0.0
 10
83.54568106662236
 20
104.6726557106521
 30
0.0
 10
83.43913419138066
 20
104.5661088354104
 30
0.0
  0
SPLINE
  5
2A4
330
1F
100
AcDbEntity
  8
0
  6
HIDDEN
 62
     7
370
     0
100
AcDbSpline
210
0.0
220
0.0
230
1.0
 70
    11
 71
     3
 72
    68
 73
    64
 74
     0
 42
0.00000001
 43
0.00000001
 12
1.0
 22
0.0
 32
0.0
 13
1.0
 23
0.0
 33
0.0
 40
-0.0312500000000004
 40
-0.0312500000000004
 40
0.0
 40
0.0
 40
0.0312499999999999
 40
0.0312499999999999
 40
0.0624999999999999
 40
0.0624999999999999
 40
0.0937499999999998
 40
0.0937499999999998
 40
0.1249999999999998
 40
0.1249999999999998
 40
0.1562499999999997
 40
0.1562499999999997
 40
0.1874999999999996
 40
0.1874999999999996
 40
0.2187499999999996
 40
0.2187499999999996
 40
0.2499999999999995
 40
0.2499999999999995
 40
0.2812499999999994
 40
0.2812499999999994
 40
0.3124999999999994
 40
0.3124999999999994
 40
0.3437499999999993
 40
0.3437499999999993
 40
0.3749999999999992
 40
0.3749999999999992
 40
0.4062499999999992
 40
0.4062499999999992
 40
0.4374999999999991
 40
0.4374999999999991
 40
0.4687499999999991
 40
0.4687499999999991
 40
0.499999999999999
 40
0.499999999999999
 40
0.5312499999999989
 40
0.5312499999999989
 40
0.5624999999999989
 40
0.5624999999999989
 40
0.5937499999999988
 40
0.5937499999999988
 40
0.6249999999999988
 40
0.6249999999999988
 40
0.6562499999999987
 40
0.6562499999999987
 40
0.6874999999999987
 40
0.6874999999999987
 40
0.7187499999999986
 40
0.7187499999999986
 40
0.7499999999999984
 40
0.7499999999999984
 40
0.7812499999999984
 40
0.7812499999999984
 40
0.8124999999999983
 40
0.8124999999999983
 40
0.8437499999999983
 40
0.8437499999999983
 40
0.8749999999999982
 40
0.8749999999999982
 40
0.9374999999999991
 40
0.9374999999999991
 40
0.9687499999999996
 40
0.9687499999999996
 40
1.0
 40
1.0
 40
1.03125
 40
1.03125
 10
68.74528281414004
 20
99.94478849185096
 30
0.0
 10
68.74528281414004
 20
99.94478849185096
 30
0.0
 10
68.74284374392842
 20
99.9610410726667
 30
0.0
 10
68.7335681702601
 20
100.0246791491966
 30
0.0
 10
68.72662137525894
 20
100.0728533234089
 30
0.0
 10
68.70940693519118
 20
100.198411390323
 30
0.0
 10
68.69921817837668
 20
100.2752123039296
 30
0.0
 10
68.67686641092737
 20
100.4566224108136
 30
0.0
 10
68.66463404246721
 20
100.5620630990861
 30
0.0
 10
68.64055761125026
 20
100.7923681124864
 30
0.0
 10
68.62859315257403
 20
100.9180749259962
 30
0.0
 10
68.606178674041
 20
101.1912677635187
 30
0.0
 10
68.59595516844003
 20
101.336437891805
 30
0.0
 10
68.57898201521954
 20
101.637155610785
 30
0.0
 10
68.57211265489619
 20
101.7949327647651
 30
0.0
 10
68.56283381456095
 20
102.1177378147104
 30
0.0
 10
68.56046814889581
 20
102.2800921568519
 30
0.0
 10
68.56044103814472
 20
102.606662261276
 30
0.0
 10
68.56285704941266
 20
102.7725517080195
 30
0.0
 10
68.57207268489886
 20
103.0933493009282
 30
0.0
 10
68.5788236923968
 20
103.2492955724313
 30
0.0
 10
68.59588696414446
 20
103.5522472274392
 30
0.0
 10
68.60619015313195
 20
103.698324898492
 30
0.0
 10
68.62837471388688
 20
103.9689627550196
 30
0.0
 10
68.64037332633971
 20
104.095419411194
 30
0.0
 10
68.6647348264761
 20
104.3285045188954
 30
0.0
 10
68.67672958904424
 20
104.4317840614484
 30
0.0
 10
68.69902287038619
 20
104.612838690496
 30
0.0
 10
68.70941769641598
 20
104.6912452715014
 30
0.0
 10
68.72662238892879
 20
104.8167298646614
 30
0.0
 10
68.7334555509827
 20
104.8641183116772
 30
0.0
 10
68.74280789443414
 20
104.9282967077187
 30
0.0
 10
68.74527347273164
 20
104.9447256608914
 30
0.0
 10
68.74529210081916
 20
104.944850954697
 30
0.0
 10
68.74292309422859
 20
104.9290759818498
 30
0.0
 10
68.73358311511019
 20
104.8650046625258
 30
0.0
 10
68.72667506661601
 20
104.8170910355987
 30
0.0
 10
68.70959349884889
 20
104.6925502429235
 30
0.0
 10
68.69928259524988
 20
104.6148840932847
 30
0.0
 10
68.67682082610291
 20
104.4325880000952
 30
0.0
 10
68.66483832365508
 20
104.3293440892386
 30
0.0
 10
68.64074371987061
 20
104.0991109794883
 30
0.0
 10
68.62852826924892
 20
103.9706901008057
 30
0.0
 10
68.60627887085838
 20
103.6995515525412
 30
0.0
 10
68.59614279757837
 20
103.556147901017
 30
0.0
 10
68.57901778646419
 20
103.2533665129738
 30
0.0
 10
68.57213088434828
 20
103.0947291295509
 30
0.0
 10
68.5629116783335
 20
102.7750915763256
 30
0.0
 10
68.56047541412032
 20
102.6121758729374
 30
0.0
 10
68.56043392366794
 20
102.2816693330199
 30
0.0
 10
68.56282100141735
 20
102.1191075705724
 30
0.0
 10
68.57196527683458
 20
101.799151961243
 30
0.0
 10
68.57883550538463
 20
101.6400681809566
 30
0.0
 10
68.59587763160049
 20
101.3374989477829
 30
0.0
 10
68.60598849033543
 20
101.1939124042716
 30
0.0
 10
68.62824610301958
 20
100.9219859891836
 30
0.0
 10
68.64044030975998
 20
100.7935669947609
 30
0.0
 10
68.67654308654684
 20
100.447993696727
 30
0.0
 10
68.70076365844736
 20
100.2614999194294
 30
0.0
 10
68.72646662858946
 20
100.0739589895089
 30
0.0
 10
68.73342511785518
 20
100.0256673214083
 30
0.0
 10
68.74284246928254
 20
99.9610432050361
 30
0.0
 10
68.74528281414004
 20
99.94478849185096
 30
0.0
 10
68.74528281414004
 20
99.94478849185096
 30
0.0
  0
SPLINE
  5
2A5
330
1F
100
AcDbEntity
  8
0
  6
HIDDEN
 62
     7
370
     0
100
AcDbSpline
210
0.0
220
0.0
230
1.0
 70
    11
 71
     3
 72
    58
 73
    54
 74
     0
 42
0.00000001
 43
0.00000001
 12
1.0
 22
0.0
 32
0.0
 13
1.0
 23
0.0
 33
0.0
 40
0.0
 40
0.0
 40
0.0
 40
0.0
 40
0.0312499999999997
 40
0.0312499999999997
 40
0.0624999999999994
 40
0.0624999999999994
 40
0.0937499999999991
 40
0.0937499999999991
 40
0.1249999999999988
 40
0.1249999999999988
 40
0.1562499999999985
 40
0.1562499999999985
 40
0.1874999999999982
 40
0.1874999999999982
 40
0.2499999999999974
 40
0.2499999999999974
 40
0.2812499999999971
 40
0.2812499999999971
 40
0.3124999999999967
 40
0.3124999999999967
 40
0.3749999999999967
 40
0.3749999999999967
 40
0.4062499999999972
 40
0.4062499999999972
 40
0.4374999999999977
 40
0.4374999999999977
 40
0.4687499999999983
 40
0.4687499999999983
 40
0.4999999999999988
 40
0.4999999999999988
 40
0.5312499999999992
 40
0.5312499999999992
 40
0.5624999999999998
 40
0.5624999999999998
 40
0.6250000000000008
 40
0.6250000000000008
 40
0.6562500000000009
 40
0.6562500000000009
 40
0.6875000000000009
 40
0.6875000000000009
 40
0.718750000000001
 40
0.718750000000001
 40
0.750000000000001
 40
0.750000000000001
 40
0.812500000000001
 40
0.812500000000001
 40
0.843750000000001
 40
0.843750000000001
 40
0.875000000000001
 40
0.875000000000001
 40
0.9375000000000006
 40
0.9375000000000006
 40
1.0
 40
1.0
 40
1.0
 40
1.0
 10
83.43913419138066
 20
104.5661088354104
 30
0.0
 10
83.37227123598376
 20
104.4992458800135
 30
0.0
 10
83.30415347640897
 20
104.4248144403335
 30
0.0
 10
83.16911693633405
 20
104.2594239133299
 30
0.0
 10
83.10210800081292
 20
104.168157609462
 30
0.0
 10
82.9763170060929
 20
103.9730888646161
 30
0.0
 10
82.91695702746257
 20
103.8686852335104
 30
0.0
 10
82.80787203959324
 20
103.6443094834381
 30
0.0
 10
82.75771292867022
 20
103.523115162926
 30
0.0
 10
82.67234217619627
 20
103.2675618047016
 30
0.0
 10
82.63752447602995
 20
103.1348726130829
 30
0.0
 10
82.585826026193
 20
102.8586984562224
 30
0.0
 10
82.56914358850382
 20
102.7141743291661
 30
0.0
 10
82.55105581059175
 20
102.2849168297091
 30
0.0
 10
82.58191148793433
 20
101.9925161036499
 30
0.0
 10
82.68138196529507
 20
101.5903832087938
 30
0.0
 10
82.72363147730638
 20
101.4601013632527
 30
0.0
 10
82.82030154233627
 20
101.2164825940088
 30
0.0
 10
82.87480627406434
 20
101.1022609745088
 30
0.0
 10
83.0529135444238
 20
100.7796803738159
 30
0.0
 10
83.18746158320312
 20
100.5980420802063
 30
0.0
 10
83.3912196834073
 20
100.3699843749825
 30
0.0
 10
83.46012317906064
 20
100.3008283303077
 30
0.0
 10
83.5912179980999
 20
100.1798239356716
 30
0.0
 10
83.65372028748435
 20
100.1275969865628
 30
0.0
 10
83.76514594728563
 20
100.0402346792498
 30
0.0
 10
83.81421148350604
 20
100.0050400829829
 30
0.0
 10
83.88266231370446
 20
99.95747058783924
 30
0.0
 10
83.90239497388265
 20
99.9446207802965
 30
0.0
 10
83.90188421996564
 20
99.94495957686519
 30
0.0
 10
83.88224625074186
 20
99.95774484203143
 30
0.0
 10
83.81318058668795
 20
100.005771699982
 30
0.0
 10
83.76421152822424
 20
100.0409387929252
 30
0.0
 10
83.59760994967722
 20
100.1716474071603
 30
0.0
 10
83.45840124663293
 20
100.2947950157726
 30
0.0
 10
83.25579008914907
 20
100.5215628717475
 30
0.0
 10
83.18847175744162
 20
100.6045874950104
 30
0.0
 10
83.0573822022116
 20
100.7872991547356
 30
0.0
 10
82.99338947705128
 20
100.8875482200556
 30
0.0
 10
82.87565359121801
 20
101.1006664110399
 30
0.0
 10
82.82137225890193
 20
101.2141330517415
 30
0.0
 10
82.7247173272457
 20
101.4570238356322
 30
0.0
 10
82.68240441895672
 20
101.5870194708516
 30
0.0
 10
82.58273544055535
 20
101.9876783859341
 30
0.0
 10
82.5513594593291
 20
102.2798251367777
 30
0.0
 10
82.56865936957124
 20
102.7086600687976
 30
0.0
 10
82.58503075802847
 20
102.8529867137132
 30
0.0
 10
82.63625758678023
 20
103.1295108070379
 30
0.0
 10
82.67088585984247
 20
103.2624834600062
 30
0.0
 10
82.79859878388001
 20
103.6469039466006
 30
0.0
 10
82.91279939076993
 20
103.8747207881108
 30
0.0
 10
83.16661434710883
 20
104.2680584360615
 30
0.0
 10
83.3040845790754
 20
104.4310592231052
 30
0.0
 10
83.43913419138066
 20
104.5661088354104
 30
0.0
  0
LINE
  5
2A6
330
1F
100
AcDbEntity
  8
0
  6
HIDDEN
 62
     7
370
     0
100
AcDbLine
 10
87.6817747621
 20
104.566108719
 30
0.0
 11
88.0604544791
 21
104.944788436
 31
0.0
  0
SPLINE
  5
2A7
330
1F
100
AcDbEntity
  8
0
  6
HIDDEN
 62
     7
370
     0
100
AcDbSpline
210
0.0
220
0.0
230
1.0
 70
     8
 71
     3
 72
    10
 73
     6
 74
     0
 42
0.00000001
 43
0.00000001
 12
1.0
 22
0.0
 32
0.0
 13
1.0
 23
0.0
 33
0.0
 40
0.0
 40
0.0
 40
0.0
 40
0.0
 40
0.5
 40
0.5
 40
1.0
 40
1.0
 40
1.0
 40
1.0
 10
102.2431551556432
 20
103.9447884918507
 30
0.0
 10
102.3085494756222
 20
104.058677659786
 30
0.0
 10
102.3587097732225
 20
104.1684285023038
 30
0.0
 10
102.424724654524
 20
104.3768755392108
 30
0.0
 10
102.4393269299233
 20
104.4723049795295
 30
0.0
 10
102.428819858496
 20
104.5562456453503
 30
0.0
  0
SPLINE
  5
2A8
330
1F
100
AcDbEntity
  8
0
  6
HIDDEN
 62
     7
370
     0
100
AcDbSpline
210
0.0
220
0.0
230
1.0
 70
     8
 71
     3
 72
    18
 73
    14
 74
     0
 42
0.00000001
 43
0.00000001
 12
1.0
 22
0.0
 32
0.0
 13
1.0
 23
0.0
 33
0.0
 40
0.0
 40
0.0
 40
0.0
 40
0.0
 40
0.125
 40
0.125
 40
0.2499999999999999
 40
0.2499999999999999
 40
0.4999999999999998
 40
0.4999999999999998
 40
0.7499999999999998
 40
0.7499999999999998
 40
0.8749999999999998
 40
0.8749999999999998
 40
1.0
 40
1.0
 40
1.0
 40
1.0
 10
102.2431551556432
 20
100.9447884918507
 30
0.0
 10
102.1856093930706
 20
101.0450088018057
 30
0.0
 10
102.1510780736185
 20
101.1551360627076
 30
0.0
 10
102.1039007900919
 20
101.3918571958996
 30
0.0
 10
102.0919425081956
 20
101.5177285455943
 30
0.0
 10
102.070839644594
 20
101.9014975394851
 30
0.0
 10
102.0735712649874
 20
102.1748190066851
 30
0.0
 10
102.073572036263
 20
102.7153433108046
 30
0.0
 10
102.0709003456003
 20
102.9889032210825
 30
0.0
 10
102.0918889012189
 20
103.3710133833546
 30
0.0
 10
102.1034442156804
 20
103.4946533015147
 30
0.0
 10
102.1507287826139
 20
103.7334507451113
 30
0.0
 10
102.1856334515397
 20
103.8446100815443
 30
0.0
 10
102.2431551556432
 20
103.9447884918507
 30
0.0
  0
SPLINE
  5
2A9
330
1F
100
AcDbEntity
  8
0
  6
HIDDEN
 62
     7
370
     0
100
AcDbSpline
210
0.0
220
0.0
230
1.0
 70
     8
 71
     3
 72
    10
 73
     6
 74
     0
 42
0.00000001
 43
0.00000001
 12
1.0
 22
0.0
 32
0.0
 13
1.0
 23
0.0
 33
0.0
 40
0.0
 40
0.0
 40
0.0
 40
0.0
 40
0.5
 40
0.5
 40
1.0
 40
1.0
 40
1.0
 40
1.0
 10
102.428819858496
 20
100.3333313383511
 30
0.0
 10
102.439338182749
 20
100.4173619026453
 30
0.0
 10
102.4249230383858
 20
100.5116949387806
 30
0.0
 10
102.3592449599378
 20
100.7198344695711
 30
0.0
 10
102.3085947806739
 20
100.8308204217319
 30
0.0
 10
102.2431551556432
 20
100.9447884918507
 30
0.0
  0
SPLINE
  5
2AA
330
1F
100
AcDbEntity
  8
0
  6
HIDDEN
 62
     7
370
     0
100
AcDbSpline
210
0.0
220
0.0
230
1.0
 70
     8
 71
     3
 72
    38
 73
    34
 74
     0
 42
0.00000001
 43
0.00000001
 12
1.0
 22
0.0
 32
0.0
 13
1.0
 23
0.0
 33
0.0
 40
0.0
 40
0.0
 40
0.0
 40
0.0
 40
0.0625
 40
0.0625
 40
0.125
 40
0.125
 40
0.1875
 40
0.1875
 40
0.25
 40
0.25
 40
0.3125
 40
0.3125
 40
0.375
 40
0.375
 40
0.4375
 40
0.4375
 40
0.5
 40
0.5
 40
0.5625
 40
0.5625
 40
0.625
 40
0.625
 40
0.6875
 40
0.6875
 40
0.75
 40
0.75
 40
0.8125
 40
0.8125
 40
0.875
 40
0.875
 40
0.9375
 40
0.9375
 40
1.0
 40
1.0
 40
1.0
 40
1.0
 10
102.428819858496
 20
104.5562456453503
 30
0.0
 10
102.4137859333965
 20
104.6763512039242
 30
0.0
 10
102.4009823502593
 20
104.7687921460758
 30
0.0
 10
102.3823989744112
 20
104.8996928400357
 30
0.0
 10
102.3768343401282
 20
104.9366590950149
 30
0.0
 10
102.3747795595921
 20
104.9504865623715
 30
0.0
 10
102.3783122474918
 20
104.9272091491075
 30
0.0
 10
102.3933082045504
 20
104.8233989468639
 30
0.0
 10
102.4048780870688
 20
104.7419833853063
 30
0.0
 10
102.4327563784094
 20
104.5273685467075
 30
0.0
 10
102.44882750902
 20
104.3960546872254
 30
0.0
 10
102.4819433785537
 20
104.0842386412322
 30
0.0
 10
102.4982640168042
 20
103.9101686779939
 30
0.0
 10
102.526994846959
 20
103.5279500562104
 30
0.0
 10
102.5392590315754
 20
103.319938607515
 30
0.0
 10
102.5558954691279
 20
102.892758705643
 30
0.0
 10
102.5604430118373
 20
102.6675511175238
 30
0.0
 10
102.5604660123742
 20
102.2237881091803
 30
0.0
 10
102.5560129125169
 20
102.0005579289542
 30
0.0
 10
102.5393135808636
 20
101.5703224506025
 30
0.0
 10
102.5273152369171
 20
101.366368197818
 30
0.0
 10
102.4984126870085
 20
100.9809148464662
 30
0.0
 10
102.4820262958187
 20
100.8063203609509
 30
0.0
 10
102.4492316293152
 20
100.4971291450839
 30
0.0
 10
102.4328173628629
 20
100.3627260234616
 30
0.0
 10
102.4050678136648
 20
100.1490064879236
 30
0.0
 10
102.3933907055316
 20
100.0667579581307
 30
0.0
 10
102.3783455677019
 20
99.96258975833622
 30
0.0
 10
102.3747936065431
 20
99.93918516477342
 30
0.0
 10
102.3767971763953
 20
99.95266758533938
 30
0.0
 10
102.3822273881823
 20
99.9887088407048
 30
0.0
 10
102.4008180381201
 20
100.1195946806578
 30
0.0
 10
102.4137852662134
 20
100.2132204496731
 30
0.0
 10
102.428819858496
 20
100.3333313383511
 30
0.0
  0
SPLINE
  5
2AB
330
1F
100
AcDbEntity
  8
0
  6
HIDDEN
 62
     7
370
     0
100
AcDbSpline
210
0.0
220
0.0
230
1.0
 70
    11
 71
     3
 72
    60
 73
    56
 74
     0
 42
0.00000001
 43
0.00000001
 12
1.0
 22
0.0
 32
0.0
 13
1.0
 23
0.0
 33
0.0
 40
0.0
 40
0.0
 40
0.0
 40
0.0
 40
0.0624999999999993
 40
0.0624999999999993
 40
0.1249999999999985
 40
0.1249999999999985
 40
0.1562499999999981
 40
0.1562499999999981
 40
0.1874999999999978
 40
0.1874999999999978
 40
0.2187499999999974
 40
0.2187499999999974
 40
0.249999999999997
 40
0.249999999999997
 40
0.2812499999999966
 40
0.2812499999999966
 40
0.3124999999999962
 40
0.3124999999999962
 40
0.3437499999999959
 40
0.3437499999999959
 40
0.3749999999999955
 40
0.3749999999999955
 40
0.4374999999999948
 40
0.4374999999999948
 40
0.4687499999999951
 40
0.4687499999999951
 40
0.4999999999999953
 40
0.4999999999999953
 40
0.5312499999999957
 40
0.5312499999999957
 40
0.5624999999999959
 40
0.5624999999999959
 40
0.5937499999999962
 40
0.5937499999999962
 40
0.6249999999999964
 40
0.6249999999999964
 40
0.6874999999999971
 40
0.6874999999999971
 40
0.7187499999999973
 40
0.7187499999999973
 40
0.7499999999999977
 40
0.7499999999999977
 40
0.781249999999998
 40
0.781249999999998
 40
0.8124999999999982
 40
0.8124999999999982
 40
0.8437499999999986
 40
0.8437499999999986
 40
0.8749999999999988
 40
0.8749999999999988
 40
0.9062499999999991
 40
0.9062499999999991
 40
0.9374999999999994
 40
0.9374999999999994
 40
1.0
 40
1.0
 40
1.0
 40
1.0
 10
87.68177487849994
 20
104.5661088354104
 30
0.0
 10
87.81604439937337
 20
104.431839314537
 30
0.0
 10
87.95353147603663
 20
104.269206260065
 30
0.0
 10
88.20861069747383
 20
103.8739793041002
 30
0.0
 10
88.32107146306076
 20
103.6498025983443
 30
0.0
 10
88.44927404403713
 20
103.2651469799705
 30
0.0
 10
88.48396534271063
 20
103.1323379719695
 30
0.0
 10
88.53533022111817
 20
102.8568010918391
 30
0.0
 10
88.55194291288691
 20
102.7122987880435
 30
0.0
 10
88.5638195758528
 20
102.4257384266675
 30
0.0
 10
88.55950847479599
 20
102.2827236227864
 30
0.0
 10
88.53034994803303
 20
101.9972275560671
 30
0.0
 10
88.50552966051958
 20
101.8569590497146
 30
0.0
 10
88.43919449622102
 20
101.5892961285457
 30
0.0
 10
88.3970459871307
 20
101.459422449745
 30
0.0
 10
88.30024429712071
 20
101.215663045598
 30
0.0
 10
88.24576838581984
 20
101.1016262815894
 30
0.0
 10
88.12736628744841
 20
100.8872393736412
 30
0.0
 10
88.06343358502828
 20
100.78717577314
 30
0.0
 10
87.9326511363731
 20
100.6048788922884
 30
0.0
 10
87.86530629221338
 20
100.5217705838844
 30
0.0
 10
87.66205727844799
 20
100.2942946188212
 30
0.0
 10
87.52295791365671
 20
100.1713363447803
 30
0.0
 10
87.35601181131372
 20
100.0404226479357
 30
0.0
 10
87.30693251044252
 20
100.0052071812302
 30
0.0
 10
87.23838295472676
 20
99.95756141976497
 30
0.0
 10
87.21870034264379
 20
99.94474432271039
 30
0.0
 10
87.21883387399254
 20
99.94483289740042
 30
0.0
 10
87.23816449228161
 20
99.95740766905469
 30
0.0
 10
87.30733439359653
 20
100.005488424619
 30
0.0
 10
87.35544989915552
 20
100.0400039845162
 30
0.0
 10
87.46672222584738
 20
100.1272164056204
 30
0.0
 10
87.53020847068694
 20
100.1802883475884
 30
0.0
 10
87.66074939188071
 20
100.3008078518581
 30
0.0
 10
87.72834629634504
 20
100.3686015530137
 30
0.0
 10
87.93144609458085
 20
100.5955652493054
 30
0.0
 10
88.06781917601457
 20
100.7800263553359
 30
0.0
 10
88.24331420668527
 20
101.0968858301777
 30
0.0
 10
88.29759284223452
 20
101.2097924923434
 30
0.0
 10
88.39477572340027
 20
101.4529393941028
 30
0.0
 10
88.43717727118833
 20
101.5825748437141
 30
0.0
 10
88.50404427017334
 20
101.8496199888953
 30
0.0
 10
88.52919178256543
 20
101.9895338053583
 30
0.0
 10
88.55911665792352
 20
102.2754274951724
 30
0.0
 10
88.5637677596083
 20
102.4185717204148
 30
0.0
 10
88.55256697021721
 20
102.7052511940394
 30
0.0
 10
88.53628620287864
 20
102.8499958159839
 30
0.0
 10
88.48534597358042
 20
103.1265341655485
 30
0.0
 10
88.45076733674405
 20
103.2599467326248
 30
0.0
 10
88.3654315985389
 20
103.5173996620603
 30
0.0
 10
88.31588120251152
 20
103.637904891668
 30
0.0
 10
88.20603117667154
 20
103.8649388700155
 30
0.0
 10
88.14519702980631
 20
103.972131160485
 30
0.0
 10
87.95513734604634
 20
104.2669223516374
 30
0.0
 10
87.81744745204162
 20
104.4304362618687
 30
0.0
 10
87.68177487849994
 20
104.5661088354104
 30
0.0
  0
LINE
  5
2AC
330
1F
100
AcDbEntity
  8
0
  6
HIDDEN
 62
     7
370
     0
100
AcDbLine
 10
83.4391343078
 20
104.566108719
 30
0.0
 11
83.0604545908
 21
104.944788436
 31
0.0
  0
SPLINE
  5
2AD
330
1F
100
AcDbEntity
  8
0
  6
HIDDEN
 62
     7
370
     0
100
AcDbSpline
210
0.0
220
0.0
230
1.0
 70
     8
 71
     3
 72
    10
 73
     6
 74
     0
 42
0.00000001
 43
0.00000001
 12
1.0
 22
0.0
 32
0.0
 13
1.0
 23
0.0
 33
0.0
 40
0.0
 40
0.0
 40
0.0
 40
0.0
 40
0.5
 40
0.5
 40
1.0
 40
1.0
 40
1.0
 40
1.0
 10
84.0604545349403
 20
119.1274891125536
 30
0.0
 10
83.94656536700504
 20
119.1928834325327
 30
0.0
 10
83.83681452448718
 20
119.243043730133
 30
0.0
 10
83.62836748758025
 20
119.3090586114345
 30
0.0
 10
83.5329380472615
 20
119.3236608868338
 30
0.0
 10
83.4489973814407
 20
119.3131538154065
 30
0.0
  0
SPLINE
  5
2AE
330
1F
100
AcDbEntity
  8
0
  6
HIDDEN
 62
     7
370
     0
100
AcDbSpline
210
0.0
220
0.0
230
1.0
 70
     8
 71
     3
 72
    18
 73
    14
 74
     0
 42
0.00000001
 43
0.00000001
 12
1.0
 22
0.0
 32
0.0
 13
1.0
 23
0.0
 33
0.0
 40
0.0
 40
0.0
 40
0.0
 40
0.0
 40
0.125
 40
0.125
 40
0.2499999999999999
 40
0.2499999999999999
 40
0.4999999999999999
 40
0.4999999999999999
 40
0.7499999999999998
 40
0.7499999999999998
 40
0.8749999999999999
 40
0.8749999999999999
 40
1.0
 40
1.0
 40
1.0
 40
1.0
 10
87.06045453494028
 20
119.1274891125536
 30
0.0
 10
86.96023422498529
 20
119.0699433499811
 30
0.0
 10
86.85010696408345
 20
119.035412030529
 30
0.0
 10
86.61338583089139
 20
118.9882347470024
 30
0.0
 10
86.48751448119671
 20
118.976276465106
 30
0.0
 10
86.10374548730589
 20
118.9551736015045
 30
0.0
 10
85.8304240201059
 20
118.9579052218979
 30
0.0
 10
85.28989971598646
 20
118.9579059931735
 30
0.0
 10
85.01633980570853
 20
118.9552343025107
 30
0.0
 10
84.63422964343638
 20
118.9762228581293
 30
0.0
 10
84.51058972527626
 20
118.9877781725909
 30
0.0
 10
84.27179228167974
 20
119.0350627395243
 30
0.0
 10
84.16063294524672
 20
119.0699674084502
 30
0.0
 10
84.0604545349403
 20
119.1274891125536
 30
0.0
  0
SPLINE
  5
2AF
330
1F
100
AcDbEntity
  8
0
  6
HIDDEN
 62
     7
370
     0
100
AcDbSpline
210
0.0
220
0.0
230
1.0
 70
     8
 71
     3
 72
    10
 73
     6
 74
     0
 42
0.00000001
 43
0.00000001
 12
1.0
 22
0.0
 32
0.0
 13
1.0
 23
0.0
 33
0.0
 40
0.0
 40
0.0
 40
0.0
 40
0.0
 40
0.5
 40
0.5
 40
1.0
 40
1.0
 40
1.0
 40
1.0
 10
87.67191168843988
 20
119.3131538154065
 30
0.0
 10
87.58788112414568
 20
119.3236721396595
 30
0.0
 10
87.49354808801047
 20
119.3092569952962
 30
0.0
 10
87.2854085572199
 20
119.2435789168483
 30
0.0
 10
87.17442260505916
 20
119.1929287375844
 30
0.0
 10
87.06045453494028
 20
119.1274891125536
 30
0.0
  0
SPLINE
  5
2B0
330
1F
100
AcDbEntity
  8
0
  6
HIDDEN
 62
     7
370
     0
100
AcDbSpline
210
0.0
220
0.0
230
1.0
 70
     8
 71
     3
 72
    38
 73
    34
 74
     0
 42
0.00000001
 43
0.00000001
 12
1.0
 22
0.0
 32
0.0
 13
1.0
 23
0.0
 33
0.0
 40
0.0
 40
0.0
 40
0.0
 40
0.0
 40
0.0625
 40
0.0625
 40
0.125
 40
0.125
 40
0.1874999999999999
 40
0.1874999999999999
 40
0.2499999999999999
 40
0.2499999999999999
 40
0.3125
 40
0.3125
 40
0.375
 40
0.375
 40
0.4375000000000001
 40
0.4375000000000001
 40
0.5000000000000001
 40
0.5000000000000001
 40
0.5625000000000001
 40
0.5625000000000001
 40
0.6250000000000001
 40
0.6250000000000001
 40
0.6875000000000001
 40
0.6875000000000001
 40
0.75
 40
0.75
 40
0.8125
 40
0.8125
 40
0.875
 40
0.875
 40
0.9375
 40
0.9375
 40
1.0
 40
1.0
 40
1.0
 40
1.0
 10
83.4489973814407
 20
119.3131538154064
 30
0.0
 10
83.32889182286686
 20
119.2981198903069
 30
0.0
 10
83.23645088071524
 20
119.2853163071698
 30
0.0
 10
83.1055501867553
 20
119.2667329313217
 30
0.0
 10
83.06858393177613
 20
119.2611682970387
 30
0.0
 10
83.05475646441954
 20
119.2591135165026
 30
0.0
 10
83.07803387768354
 20
119.2626462044023
 30
0.0
 10
83.18184407992713
 20
119.2776421614609
 30
0.0
 10
83.26325964148472
 20
119.2892120439792
 30
0.0
 10
83.47787448008356
 20
119.3170903353199
 30
0.0
 10
83.60918833956558
 20
119.3331614659305
 30
0.0
 10
83.9210043855588
 20
119.3662773354641
 30
0.0
 10
84.0950743487971
 20
119.3825979737147
 30
0.0
 10
84.47729297058062
 20
119.4113288038694
 30
0.0
 10
84.68530441927598
 20
119.4235929884859
 30
0.0
 10
85.11248432114797
 20
119.4402294260384
 30
0.0
 10
85.33769190926719
 20
119.4447769687477
 30
0.0
 10
85.78145491761076
 20
119.4447999692847
 30
0.0
 10
86.00468509783684
 20
119.4403468694274
 30
0.0
 10
86.43492057618846
 20
119.4236475377741
 30
0.0
 10
86.638874828973
 20
119.4116491938275
 30
0.0
 10
87.02432818032484
 20
119.382746643919
 30
0.0
 10
87.1989226658401
 20
119.3663602527291
 30
0.0
 10
87.50811388170706
 20
119.3335655862257
 30
0.0
 10
87.64251700332939
 20
119.3171513197733
 30
0.0
 10
87.85623653886739
 20
119.2894017705753
 30
0.0
 10
87.93848506866034
 20
119.2777246624421
 30
0.0
 10
88.0426532684548
 20
119.2626795246124
 30
0.0
 10
88.0660578620176
 20
119.2591275634536
 30
0.0
 10
88.05257544145164
 20
119.2611311333058
 30
0.0
 10
88.0165341860862
 20
119.2665613450927
 30
0.0
 10
87.88564834613322
 20
119.2851519950306
 30
0.0
 10
87.79202257711788
 20
119.2981192231239
 30
0.0
 10
87.67191168843988
 20
119.3131538154064
 30
0.0
  0
SPLINE
  5
2B1
330
1F
100
AcDbEntity
  8
0
  6
HIDDEN
 62
     7
370
     0
100
AcDbSpline
210
0.0
220
0.0
230
1.0
 70
     8
 71
     3
 72
    22
 73
    18
 74
     0
 42
0.00000001
 43
0.00000001
 12
1.0
 22
0.0
 32
0.0
 13
1.0
 23
0.0
 33
0.0
 40
0.0
 40
0.0
 40
0.0
 40
0.0
 40
0.125
 40
0.125
 40
0.25
 40
0.25
 40
0.375
 40
0.375
 40
0.5
 40
0.5
 40
0.625
 40
0.625
 40
0.75
 40
0.75
 40
0.875
 40
0.875
 40
1.0
 40
1.0
 40
1.0
 40
1.0
 10
83.43913419138066
 20
104.5661088354104
 30
0.0
 10
83.544616432173
 20
104.6715910762028
 30
0.0
 10
83.66782590424378
 20
104.7791351276995
 30
0.0
 10
83.95492124608427
 20
104.9851585846533
 30
0.0
 10
84.1187750884632
 20
105.0831762745452
 30
0.0
 10
84.47956563763765
 20
105.2503559763276
 30
0.0
 10
84.68148372991428
 20
105.3213676335927
 30
0.0
 10
85.10555776489811
 20
105.4180638177158
 30
0.0
 10
85.33369698913476
 20
105.4446474547843
 30
0.0
 10
85.78346476185904
 20
105.4449283587173
 30
0.0
 10
86.01139576379569
 20
105.4187036301623
 30
0.0
 10
86.43657634530507
 20
105.3222752103541
 30
0.0
 10
86.63842824992825
 20
105.251539182461
 30
0.0
 10
87.00092616113086
 20
105.0839016503921
 30
0.0
 10
87.16552807235617
 20
104.9854211839313
 30
0.0
 10
87.45203416647517
 20
104.7799548743904
 30
0.0
 10
87.57565616893484
 20
104.6722275449755
 30
0.0
 10
87.68177487849994
 20
104.5661088354104
 30
0.0
  0
SPLINE
  5
2B2
330
1F
100
AcDbEntity
  8
0
  6
HIDDEN
 62
     7
370
     0
100
AcDbSpline
210
0.0
220
0.0
230
1.0
 70
     8
 71
     3
 72
    22
 73
    18
 74
     0
 42
0.00000001
 43
0.00000001
 12
1.0
 22
0.0
 32
0.0
 13
1.0
 23
0.0
 33
0.0
 40
0.0
 40
0.0
 40
0.0
 40
0.0
 40
0.125
 40
0.125
 40
0.25
 40
0.25
 40
0.375
 40
0.375
 40
0.5
 40
0.5
 40
0.625
 40
0.625
 40
0.75
 40
0.75
 40
0.875
 40
0.875
 40
1.0
 40
1.0
 40
1.0
 40
1.0
 10
87.68177487849994
 20
104.5661088354104
 30
0.0
 10
87.57673337499239
 20
104.671150338918
 30
0.0
 10
87.45207351311471
 20
104.7799932206532
 30
0.0
 10
87.16399640672847
 20
104.9864527004812
 30
0.0
 10
87.00368479119784
 20
105.0822835366452
 30
0.0
 10
86.6441051826205
 20
105.2492483253436
 30
0.0
 10
86.44213993769593
 20
105.3205465064892
 30
0.0
 10
86.01790185964008
 20
105.4176819062393
 30
0.0
 10
85.78976519568454
 20
105.4444592464831
 30
0.0
 10
85.33984116214039
 20
105.4451114336471
 30
0.0
 10
85.11146820579035
 20
105.4190098539926
 30
0.0
 10
84.68595064423702
 20
105.3227781339324
 30
0.0
 10
84.48381917969941
 20
105.2520662503613
 30
0.0
 10
84.12090928630876
 20
105.084421341079
 30
0.0
 10
83.95612095120666
 20
104.9858849375616
 30
0.0
 10
83.66963531571552
 20
104.7805667506994
 30
0.0
 10
83.54568106662236
 20
104.6726557106521
 30
0.0
 10
83.43913419138066
 20
104.5661088354104
 30
0.0
  0
SPLINE
  5
2B3
330
1F
100
AcDbEntity
  8
0
  6
HIDDEN
 62
     7
370
     0
100
AcDbSpline
210
0.0
220
0.0
230
1.0
 70
     8
 71
     3
 72
    10
 73
     6
 74
     0
 42
0.00000001
 43
0.00000001
 12
1.0
 22
0.0
 32
0.0
 13
1.0
 23
0.0
 33
0.0
 40
0.0
 40
0.0
 40
0.0
 40
0.0
 40
0.5
 40
0.5
 40
1.0
 40
1.0
 40
1.0
 40
1.0
 10
68.8777539142374
 20
100.944788491851
 30
0.0
 10
68.8123595942584
 20
100.8308993239157
 30
0.0
 10
68.7621992966581
 20
100.7211484813978
 30
0.0
 10
68.69618441535656
 20
100.5127014444909
 30
0.0
 10
68.68158213995727
 20
100.4172720041722
 30
0.0
 10
68.6920892113846
 20
100.3333313383514
 30
0.0
  0
SPLINE
  5
2B4
330
1F
100
AcDbEntity
  8
0
  6
HIDDEN
 62
     7
370
     0
100
AcDbSpline
210
0.0
220
0.0
230
1.0
 70
     8
 71
     3
 72
    18
 73
    14
 74
     0
 42
0.00000001
 43
0.00000001
 12
1.0
 22
0.0
 32
0.0
 13
1.0
 23
0.0
 33
0.0
 40
0.0
 40
0.0
 40
0.0
 40
0.0
 40
0.1249999999999999
 40
0.1249999999999999
 40
0.2499999999999998
 40
0.2499999999999998
 40
0.4999999999999999
 40
0.4999999999999999
 40
0.7499999999999999
 40
0.7499999999999999
 40
0.875
 40
0.875
 40
1.0
 40
1.0
 40
1.0
 40
1.0
 10
68.87775391423743
 20
103.9447884918509
 30
0.0
 10
68.93529967681002
 20
103.8445681818959
 30
0.0
 10
68.96983099626209
 20
103.7344409209941
 30
0.0
 10
69.01700827978874
 20
103.497719787802
 30
0.0
 10
69.02896656168505
 20
103.3718484381074
 30
0.0
 10
69.05006942528662
 20
102.9880794442165
 30
0.0
 10
69.04733780489316
 20
102.7147579770165
 30
0.0
 10
69.04733703361755
 20
102.1742336728971
 30
0.0
 10
69.05000872428033
 20
101.9006737626192
 30
0.0
 10
69.02902016866172
 20
101.518563600347
 30
0.0
 10
69.01746485420018
 20
101.3949236821869
 30
0.0
 10
68.9701802872667
 20
101.1561262385904
 30
0.0
 10
68.9352756183409
 20
101.0449669021574
 30
0.0
 10
68.8777539142374
 20
100.944788491851
 30
0.0
  0
SPLINE
  5
2B5
330
1F
100
AcDbEntity
  8
0
  6
HIDDEN
 62
     7
370
     0
100
AcDbSpline
210
0.0
220
0.0
230
1.0
 70
     8
 71
     3
 72
    10
 73
     6
 74
     0
 42
0.00000001
 43
0.00000001
 12
1.0
 22
0.0
 32
0.0
 13
1.0
 23
0.0
 33
0.0
 40
0.0
 40
0.0
 40
0.0
 40
0.0
 40
0.5
 40
0.5
 40
1.0
 40
1.0
 40
1.0
 40
1.0
 10
68.69208921138464
 20
104.5562456453505
 30
0.0
 10
68.68157088713161
 20
104.4722150810563
 30
0.0
 10
68.69598603149485
 20
104.3778820449211
 30
0.0
 10
68.7616641099428
 20
104.1697425141305
 30
0.0
 10
68.81231428920674
 20
104.0587565619698
 30
0.0
 10
68.87775391423743
 20
103.9447884918509
 30
0.0
  0
SPLINE
  5
2B6
330
1F
100
AcDbEntity
  8
0
  6
HIDDEN
 62
     7
370
     0
100
AcDbSpline
210
0.0
220
0.0
230
1.0
 70
     8
 71
     3
 72
    38
 73
    34
 74
     0
 42
0.00000001
 43
0.00000001
 12
1.0
 22
0.0
 32
0.0
 13
1.0
 23
0.0
 33
0.0
 40
0.0
 40
0.0
 40
0.0
 40
0.0
 40
0.0625
 40
0.0625
 40
0.125
 40
0.125
 40
0.1875
 40
0.1875
 40
0.25
 40
0.25
 40
0.3125
 40
0.3125
 40
0.375
 40
0.375
 40
0.4375
 40
0.4375
 40
0.5
 40
0.5
 40
0.5625
 40
0.5625
 40
0.625
 40
0.625
 40
0.6875
 40
0.6875
 40
0.75
 40
0.75
 40
0.8125
 40
0.8125
 40
0.875
 40
0.875
 40
0.9375
 40
0.9375
 40
1.0
 40
1.0
 40
1.0
 40
1.0
 10
68.6920892113846
 20
100.3333313383514
 30
0.0
 10
68.70712313648413
 20
100.2132257797775
 30
0.0
 10
68.71992671962127
 20
100.1207848376259
 30
0.0
 10
68.73851009546935
 20
99.98988414366596
 30
0.0
 10
68.7440747297524
 20
99.95291788868678
 30
0.0
 10
68.74612951028844
 20
99.93909042133019
 30
0.0
 10
68.74259682238873
 20
99.96236783459418
 30
0.0
 10
68.72760086533017
 20
100.0661780368378
 30
0.0
 10
68.7160309828118
 20
100.1475935983954
 30
0.0
 10
68.68815269147116
 20
100.3622084369942
 30
0.0
 10
68.67208156086055
 20
100.4935222964762
 30
0.0
 10
68.6389656913269
 20
100.8053383424695
 30
0.0
 10
68.62264505307638
 20
100.9794083057078
 30
0.0
 10
68.59391422292164
 20
101.3616269274913
 30
0.0
 10
68.58165003830516
 20
101.5696383761866
 30
0.0
 10
68.56501360075269
 20
101.9968182780586
 30
0.0
 10
68.56046605804335
 20
102.2220258661779
 30
0.0
 10
68.56044305750636
 20
102.6657888745214
 30
0.0
 10
68.56489615736363
 20
102.8890190547475
 30
0.0
 10
68.581595489017
 20
103.3192545330991
 30
0.0
 10
68.59359383296353
 20
103.5232087858837
 30
0.0
 10
68.62249638287211
 20
103.9086621372355
 30
0.0
 10
68.63888277406197
 20
104.0832566227508
 30
0.0
 10
68.67167744056542
 20
104.3924478386177
 30
0.0
 10
68.68809170701775
 20
104.52685096024
 30
0.0
 10
68.7158412562158
 20
104.740570495778
 30
0.0
 10
68.72751836434904
 20
104.822819025571
 30
0.0
 10
68.7425635021787
 20
104.9269872253655
 30
0.0
 10
68.74611546333753
 20
104.9503918189283
 30
0.0
 10
68.74411189348531
 20
104.9369093983623
 30
0.0
 10
68.73868168169837
 20
104.9008681429969
 30
0.0
 10
68.72009103176049
 20
104.7699823030439
 30
0.0
 10
68.70712380366717
 20
104.6763565340285
 30
0.0
 10
68.69208921138464
 20
104.5562456453505
 30
0.0
  0
SPLINE
  5
2B7
330
1F
100
AcDbEntity
  8
0
  6
HIDDEN
 62
     7
370
     0
100
AcDbSpline
210
0.0
220
0.0
230
1.0
 70
    11
 71
     3
 72
    58
 73
    54
 74
     0
 42
0.00000001
 43
0.00000001
 12
1.0
 22
0.0
 32
0.0
 13
1.0
 23
0.0
 33
0.0
 40
0.0
 40
0.0
 40
0.0
 40
0.0
 40
0.0312500000000002
 40
0.0312500000000002
 40
0.0625000000000005
 40
0.0625000000000005
 40
0.0937500000000008
 40
0.0937500000000008
 40
0.1250000000000011
 40
0.1250000000000011
 40
0.1562500000000014
 40
0.1562500000000014
 40
0.1875000000000016
 40
0.1875000000000016
 40
0.2500000000000023
 40
0.2500000000000023
 40
0.2812500000000026
 40
0.2812500000000026
 40
0.3125000000000029
 40
0.3125000000000029
 40
0.3750000000000027
 40
0.3750000000000027
 40
0.4062500000000021
 40
0.4062500000000021
 40
0.4375000000000016
 40
0.4375000000000016
 40
0.4687500000000009
 40
0.4687500000000009
 40
0.5000000000000003
 40
0.5000000000000003
 40
0.5312499999999998
 40
0.5312499999999998
 40
0.5624999999999991
 40
0.5624999999999991
 40
0.624999999999998
 40
0.624999999999998
 40
0.6562499999999979
 40
0.6562499999999979
 40
0.6874999999999978
 40
0.6874999999999978
 40
0.7187499999999978
 40
0.7187499999999978
 40
0.7499999999999977
 40
0.7499999999999977
 40
0.812499999999998
 40
0.812499999999998
 40
0.8437499999999982
 40
0.8437499999999982
 40
0.8749999999999983
 40
0.8749999999999983
 40
0.9374999999999991
 40
0.9374999999999991
 40
1.0
 40
1.0
 40
1.0
 40
1.0
 10
83.43913419138066
 20
104.5661088354104
 30
0.0
 10
83.37227123598376
 20
104.4992458800135
 30
0.0
 10
83.30415347640897
 20
104.4248144403335
 30
0.0
 10
83.16911693633405
 20
104.2594239133299
 30
0.0
 10
83.10210800081293
 20
104.168157609462
 30
0.0
 10
82.9763170060929
 20
103.9730888646161
 30
0.0
 10
82.91695702746257
 20
103.8686852335104
 30
0.0
 10
82.80787203959324
 20
103.6443094834381
 30
0.0
 10
82.75771292867023
 20
103.523115162926
 30
0.0
 10
82.67234217619627
 20
103.2675618047016
 30
0.0
 10
82.63752447602997
 20
103.1348726130829
 30
0.0
 10
82.585826026193
 20
102.8586984562224
 30
0.0
 10
82.56914358850382
 20
102.7141743291661
 30
0.0
 10
82.55105581059175
 20
102.2849168297091
 30
0.0
 10
82.58191148793435
 20
101.9925161036499
 30
0.0
 10
82.68138196529507
 20
101.5903832087938
 30
0.0
 10
82.72363147730638
 20
101.4601013632527
 30
0.0
 10
82.82030154233627
 20
101.2164825940088
 30
0.0
 10
82.87480627406434
 20
101.1022609745088
 30
0.0
 10
83.0529135444238
 20
100.7796803738159
 30
0.0
 10
83.18746158320312
 20
100.5980420802063
 30
0.0
 10
83.3912196834073
 20
100.3699843749825
 30
0.0
 10
83.46012317906064
 20
100.3008283303077
 30
0.0
 10
83.5912179980999
 20
100.1798239356716
 30
0.0
 10
83.65372028748435
 20
100.1275969865628
 30
0.0
 10
83.76514594728563
 20
100.0402346792498
 30
0.0
 10
83.81421148350604
 20
100.0050400829829
 30
0.0
 10
83.88266231370446
 20
99.95747058783924
 30
0.0
 10
83.90239497388265
 20
99.9446207802965
 30
0.0
 10
83.90188421996564
 20
99.94495957686519
 30
0.0
 10
83.88224625074186
 20
99.95774484203143
 30
0.0
 10
83.81318058668795
 20
100.005771699982
 30
0.0
 10
83.76421152822424
 20
100.0409387929252
 30
0.0
 10
83.59760994967722
 20
100.1716474071603
 30
0.0
 10
83.45840124663293
 20
100.2947950157726
 30
0.0
 10
83.25579008914909
 20
100.5215628717475
 30
0.0
 10
83.1884717574416
 20
100.6045874950104
 30
0.0
 10
83.0573822022116
 20
100.7872991547356
 30
0.0
 10
82.99338947705128
 20
100.8875482200556
 30
0.0
 10
82.87565359121801
 20
101.1006664110399
 30
0.0
 10
82.82137225890193
 20
101.2141330517415
 30
0.0
 10
82.7247173272457
 20
101.4570238356322
 30
0.0
 10
82.68240441895672
 20
101.5870194708516
 30
0.0
 10
82.58273544055535
 20
101.9876783859341
 30
0.0
 10
82.55135945932912
 20
102.2798251367777
 30
0.0
 10
82.56865936957124
 20
102.7086600687976
 30
0.0
 10
82.58503075802847
 20
102.8529867137132
 30
0.0
 10
82.63625758678023
 20
103.1295108070379
 30
0.0
 10
82.67088585984247
 20
103.2624834600062
 30
0.0
 10
82.79859878388001
 20
103.6469039466006
 30
0.0
 10
82.91279939076993
 20
103.8747207881108
 30
0.0
 10
83.16661434710883
 20
104.2680584360615
 30
0.0
 10
83.3040845790754
 20
104.4310592231052
 30
0.0
 10
83.43913419138066
 20
104.5661088354104
 30
0.0
  0
LINE
  5
2B8
330
1F
100
AcDbEntity
  8
0
  6
HIDDEN
 62
     7
370
     0
100
AcDbLine
 10
87.6817747621
 20
104.566108719
 30
0.0
 11
88.0604544791
 21
104.944788436
 31
0.0
  0
SPLINE
  5
2B9
330
1F
100
AcDbEntity
  8
0
  6
HIDDEN
 62
     7
370
     0
100
AcDbSpline
210
0.0
220
0.0
230
1.0
 70
    11
 71
     3
 72
    66
 73
    62
 74
     0
 42
0.00000001
 43
0.00000001
 12
1.0
 22
0.0
 32
0.0
 13
1.0
 23
0.0
 33
0.0
 40
-0.0312499999999999
 40
-0.0312499999999999
 40
0.0
 40
0.0
 40
0.0312499999999999
 40
0.0312499999999999
 40
0.0624999999999998
 40
0.0624999999999998
 40
0.0937499999999997
 40
0.0937499999999997
 40
0.1249999999999996
 40
0.1249999999999996
 40
0.1562499999999994
 40
0.1562499999999994
 40
0.1874999999999993
 40
0.1874999999999993
 40
0.2187499999999992
 40
0.2187499999999992
 40
0.2499999999999991
 40
0.2499999999999991
 40
0.2812499999999989
 40
0.2812499999999989
 40
0.3124999999999987
 40
0.3124999999999987
 40
0.3437499999999986
 40
0.3437499999999986
 40
0.3749999999999984
 40
0.3749999999999984
 40
0.4062499999999982
 40
0.4062499999999982
 40
0.4374999999999981
 40
0.4374999999999981
 40
0.4687499999999979
 40
0.4687499999999979
 40
0.4999999999999977
 40
0.4999999999999977
 40
0.5624999999999981
 40
0.5624999999999981
 40
0.5937499999999983
 40
0.5937499999999983
 40
0.6249999999999986
 40
0.6249999999999986
 40
0.6562499999999988
 40
0.6562499999999988
 40
0.687499999999999
 40
0.687499999999999
 40
0.7187499999999992
 40
0.7187499999999992
 40
0.7499999999999994
 40
0.7499999999999994
 40
0.7812499999999997
 40
0.7812499999999997
 40
0.8124999999999999
 40
0.8124999999999999
 40
0.8437500000000001
 40
0.8437500000000001
 40
0.8750000000000003
 40
0.8750000000000003
 40
0.9375000000000002
 40
0.9375000000000002
 40
0.9687500000000001
 40
0.9687500000000001
 40
1.0
 40
1.0
 40
1.03125
 40
1.03125
 10
101.8699609652404
 20
104.9447884918507
 30
0.0
 10
101.8699609652404
 20
104.9447884918507
 30
0.0
 10
101.8724761345853
 20
104.9285330289399
 30
0.0
 10
101.8820402998712
 20
104.8648863640054
 30
0.0
 10
101.8892031223658
 20
104.8167053952689
 30
0.0
 10
101.9069499542993
 20
104.6911428122878
 30
0.0
 10
101.9174530681902
 20
104.6143412167707
 30
0.0
 10
101.9404925682939
 20
104.4329318641544
 30
0.0
 10
101.9530993493658
 20
104.327501278506
 30
0.0
 10
101.9779112975617
 20
104.0972184892797
 30
0.0
 10
101.9902408676984
 20
103.9715210662238
 30
0.0
 10
102.0133392997136
 20
103.6983331503397
 30
0.0
 10
102.0238727796343
 20
103.553185100396
 30
0.0
 10
102.0413625284787
 20
103.2524734861899
 30
0.0
 10
102.0484415291257
 20
103.0946804378573
 30
0.0
 10
102.05800262585
 20
102.7718689865809
 30
0.0
 10
102.0604404560713
 20
102.6095053872013
 30
0.0
 10
102.0604684922227
 20
102.2829043894085
 30
0.0
 10
102.0579787446612
 20
102.1169974232413
 30
0.0
 10
102.0484826431384
 20
101.7961891253247
 30
0.0
 10
102.0415261054324
 20
101.6402359458365
 30
0.0
 10
102.0239420178399
 20
101.3372665681892
 30
0.0
 10
102.0133261623259
 20
101.1912117813532
 30
0.0
 10
101.9904656663789
 20
100.9205924489684
 30
0.0
 10
101.9780976332481
 20
100.7941132071226
 30
0.0
 10
101.9529946548342
 20
100.5610787964108
 30
0.0
 10
101.9406329271334
 20
100.457810197593
 30
0.0
 10
101.9176540060239
 20
100.2767588875549
 30
0.0
 10
101.9069375606125
 20
100.1983451739107
 30
0.0
 10
101.8892021532081
 20
100.0728660419763
 30
0.0
 10
101.8821566556157
 20
100.0254718064062
 30
0.0
 10
101.8725128887385
 20
99.96128177697939
 30
0.0
 10
101.869970641947
 20
99.94485162077885
 30
0.0
 10
101.8699416972611
 20
99.94466279134818
 30
0.0
 10
101.8803419915577
 20
100.0102257058006
 30
0.0
 10
101.9067575759645
 20
100.1970490652327
 30
0.0
 10
101.9173895213658
 20
100.2747384629681
 30
0.0
 10
101.9405387092436
 20
100.4570053747213
 30
0.0
 10
101.9528879652776
 20
100.5602375750358
 30
0.0
 10
101.9777209537918
 20
100.7904701251033
 30
0.0
 10
101.9903090397518
 20
100.9188836281597
 30
0.0
 10
102.0132342501265
 20
101.1899800021313
 30
0.0
 10
102.0236792746316
 20
101.3333778212802
 30
0.0
 10
102.0413276894436
 20
101.6361955328081
 30
0.0
 10
102.0484224611085
 20
101.7948043793917
 30
0.0
 10
102.0579222584303
 20
102.114448677102
 30
0.0
 10
102.0604333093543
 20
102.2774430636194
 30
0.0
 10
102.0604754917082
 20
102.6079217952686
 30
0.0
 10
102.0580162222803
 20
102.7704857683496
 30
0.0
 10
102.0485930092724
 20
103.0904741698376
 30
0.0
 10
102.0415119855553
 20
103.2495887517277
 30
0.0
 10
102.023952896793
 20
103.5521185411328
 30
0.0
 10
102.013534394604
 20
103.6957014614048
 30
0.0
 10
101.9905952078372
 20
103.9676468551551
 30
0.0
 10
101.9780309232437
 20
104.0960317999943
 30
0.0
 10
101.9408269235824
 20
104.441554908656
 30
0.0
 10
101.9158606986689
 20
104.628050889725
 30
0.0
 10
101.8893624240396
 20
104.8156013311393
 30
0.0
 10
101.8821857306669
 20
104.8639119361081
 30
0.0
 10
101.8724774414841
 20
104.9285308618447
 30
0.0
 10
101.8699609652404
 20
104.9447884918507
 30
0.0
 10
101.8699609652404
 20
104.9447884918507
 30
0.0
  0
SPLINE
  5
2BA
330
1F
100
AcDbEntity
  8
0
  6
HIDDEN
 62
     7
370
     0
100
AcDbSpline
210
0.0
220
0.0
230
1.0
 70
    11
 71
     3
 72
    60
 73
    56
 74
     0
 42
0.00000001
 43
0.00000001
 12
1.0
 22
0.0
 32
0.0
 13
1.0
 23
0.0
 33
0.0
 40
0.0
 40
0.0
 40
0.0
 40
0.0
 40
0.0624999999999997
 40
0.0624999999999997
 40
0.1249999999999995
 40
0.1249999999999995
 40
0.1562499999999995
 40
0.1562499999999995
 40
0.1874999999999995
 40
0.1874999999999995
 40
0.2187499999999995
 40
0.2187499999999995
 40
0.2499999999999995
 40
0.2499999999999995
 40
0.2812499999999995
 40
0.2812499999999995
 40
0.3124999999999994
 40
0.3124999999999994
 40
0.3437499999999994
 40
0.3437499999999994
 40
0.3749999999999994
 40
0.3749999999999994
 40
0.4374999999999995
 40
0.4374999999999995
 40
0.4687499999999992
 40
0.4687499999999992
 40
0.4999999999999989
 40
0.4999999999999989
 40
0.5312499999999986
 40
0.5312499999999986
 40
0.5624999999999982
 40
0.5624999999999982
 40
0.5937499999999978
 40
0.5937499999999978
 40
0.6249999999999974
 40
0.6249999999999974
 40
0.6874999999999974
 40
0.6874999999999974
 40
0.7187499999999977
 40
0.7187499999999977
 40
0.7499999999999978
 40
0.7499999999999978
 40
0.781249999999998
 40
0.781249999999998
 40
0.8124999999999982
 40
0.8124999999999982
 40
0.8437499999999984
 40
0.8437499999999984
 40
0.8749999999999987
 40
0.8749999999999987
 40
0.9062499999999989
 40
0.9062499999999989
 40
0.937499999999999
 40
0.937499999999999
 40
1.0
 40
1.0
 40
1.0
 40
1.0
 10
87.68177487849994
 20
104.5661088354104
 30
0.0
 10
87.81604439937337
 20
104.431839314537
 30
0.0
 10
87.95353147603663
 20
104.269206260065
 30
0.0
 10
88.20861069747383
 20
103.8739793041002
 30
0.0
 10
88.32107146306076
 20
103.6498025983443
 30
0.0
 10
88.44927404403713
 20
103.2651469799705
 30
0.0
 10
88.48396534271063
 20
103.1323379719695
 30
0.0
 10
88.53533022111817
 20
102.8568010918391
 30
0.0
 10
88.55194291288691
 20
102.7122987880435
 30
0.0
 10
88.5638195758528
 20
102.4257384266675
 30
0.0
 10
88.55950847479599
 20
102.2827236227864
 30
0.0
 10
88.53034994803303
 20
101.9972275560671
 30
0.0
 10
88.50552966051958
 20
101.8569590497146
 30
0.0
 10
88.43919449622102
 20
101.5892961285457
 30
0.0
 10
88.3970459871307
 20
101.459422449745
 30
0.0
 10
88.30024429712071
 20
101.215663045598
 30
0.0
 10
88.24576838581984
 20
101.1016262815894
 30
0.0
 10
88.12736628744841
 20
100.8872393736412
 30
0.0
 10
88.06343358502828
 20
100.78717577314
 30
0.0
 10
87.9326511363731
 20
100.6048788922884
 30
0.0
 10
87.86530629221338
 20
100.5217705838844
 30
0.0
 10
87.662057278448
 20
100.2942946188212
 30
0.0
 10
87.52295791365671
 20
100.1713363447803
 30
0.0
 10
87.35601181131372
 20
100.0404226479357
 30
0.0
 10
87.30693251044252
 20
100.0052071812302
 30
0.0
 10
87.23838295472676
 20
99.95756141976497
 30
0.0
 10
87.21870034264379
 20
99.94474432271039
 30
0.0
 10
87.21883387399254
 20
99.94483289740042
 30
0.0
 10
87.23816449228161
 20
99.95740766905469
 30
0.0
 10
87.30733439359653
 20
100.005488424619
 30
0.0
 10
87.35544989915552
 20
100.0400039845162
 30
0.0
 10
87.46672222584738
 20
100.1272164056204
 30
0.0
 10
87.53020847068696
 20
100.1802883475884
 30
0.0
 10
87.66074939188073
 20
100.3008078518581
 30
0.0
 10
87.72834629634504
 20
100.3686015530137
 30
0.0
 10
87.93144609458085
 20
100.5955652493054
 30
0.0
 10
88.06781917601457
 20
100.7800263553359
 30
0.0
 10
88.24331420668527
 20
101.0968858301777
 30
0.0
 10
88.29759284223452
 20
101.2097924923434
 30
0.0
 10
88.39477572340027
 20
101.4529393941028
 30
0.0
 10
88.43717727118833
 20
101.5825748437141
 30
0.0
 10
88.50404427017334
 20
101.8496199888953
 30
0.0
 10
88.52919178256543
 20
101.9895338053583
 30
0.0
 10
88.55911665792352
 20
102.2754274951724
 30
0.0
 10
88.5637677596083
 20
102.4185717204148
 30
0.0
 10
88.55256697021723
 20
102.7052511940394
 30
0.0
 10
88.53628620287864
 20
102.8499958159839
 30
0.0
 10
88.48534597358042
 20
103.1265341655485
 30
0.0
 10
88.45076733674405
 20
103.2599467326248
 30
0.0
 10
88.3654315985389
 20
103.5173996620603
 30
0.0
 10
88.31588120251152
 20
103.637904891668
 30
0.0
 10
88.20603117667154
 20
103.8649388700155
 30
0.0
 10
88.14519702980631
 20
103.972131160485
 30
0.0
 10
87.95513734604634
 20
104.2669223516374
 30
0.0
 10
87.81744745204163
 20
104.4304362618687
 30
0.0
 10
87.68177487849994
 20
104.5661088354104
 30
0.0
  0
LINE
  5
2BB
330
1F
100
AcDbEntity
  8
0
  6
HIDDEN
 62
     7
370
     0
100
AcDbLine
 10
83.4391343078
 20
104.566108719
 30
0.0
 11
83.0604545908
 21
104.944788436
 31
0.0
  0
SPLINE
  5
2BC
330
1F
100
AcDbEntity
  8
0
  6
HIDDEN
 62
     7
370
     0
100
AcDbSpline
210
0.0
220
0.0
230
1.0
 70
    11
 71
     3
 72
    66
 73
    62
 74
     0
 42
0.00000001
 43
0.00000001
 12
1.0
 22
0.0
 32
0.0
 13
1.0
 23
0.0
 33
0.0
 40
-0.0312499999999998
 40
-0.0312499999999998
 40
0.0
 40
0.0
 40
0.03125
 40
0.03125
 40
0.0625000000000001
 40
0.0625000000000001
 40
0.0937500000000001
 40
0.0937500000000001
 40
0.1250000000000001
 40
0.1250000000000001
 40
0.1562500000000001
 40
0.1562500000000001
 40
0.1875000000000002
 40
0.1875000000000002
 40
0.2187500000000002
 40
0.2187500000000002
 40
0.2500000000000002
 40
0.2500000000000002
 40
0.2812500000000002
 40
0.2812500000000002
 40
0.3125000000000003
 40
0.3125000000000003
 40
0.3437500000000003
 40
0.3437500000000003
 40
0.3750000000000003
 40
0.3750000000000003
 40
0.4062500000000003
 40
0.4062500000000003
 40
0.4375000000000004
 40
0.4375000000000004
 40
0.4687500000000004
 40
0.4687500000000004
 40
0.5000000000000004
 40
0.5000000000000004
 40
0.5625000000000004
 40
0.5625000000000004
 40
0.5937500000000006
 40
0.5937500000000006
 40
0.6250000000000006
 40
0.6250000000000006
 40
0.6562500000000006
 40
0.6562500000000006
 40
0.6875000000000007
 40
0.6875000000000007
 40
0.7187500000000007
 40
0.7187500000000007
 40
0.7500000000000007
 40
0.7500000000000007
 40
0.7812500000000007
 40
0.7812500000000007
 40
0.8125000000000007
 40
0.8125000000000007
 40
0.8437500000000008
 40
0.8437500000000008
 40
0.8750000000000008
 40
0.8750000000000008
 40
0.9375000000000003
 40
0.9375000000000003
 40
0.9687500000000002
 40
0.9687500000000002
 40
1.0
 40
1.0
 40
1.03125
 40
1.03125
 10
83.0604545349403
 20
118.7542949221509
 30
0.0
 10
83.0604545349403
 20
118.7542949221509
 30
0.0
 10
83.07670999785117
 20
118.7568100914957
 30
0.0
 10
83.14035666278565
 20
118.7663742567817
 30
0.0
 10
83.18853763152211
 20
118.7735370792763
 30
0.0
 10
83.31410021450321
 20
118.7912839112098
 30
0.0
 10
83.39090181002034
 20
118.8017870251006
 30
0.0
 10
83.5723111626366
 20
118.8248265252044
 30
0.0
 10
83.677741748285
 20
118.8374333062763
 30
0.0
 10
83.90802453751137
 20
118.8622452544722
 30
0.0
 10
84.0337219605672
 20
118.8745748246089
 30
0.0
 10
84.30690987645129
 20
118.8976732566241
 30
0.0
 10
84.452057926395
 20
118.9082067365448
 30
0.0
 10
84.75276954060115
 20
118.9256964853892
 30
0.0
 10
84.9105625889337
 20
118.9327754860362
 30
0.0
 10
85.23337404021015
 20
118.9423365827605
 30
0.0
 10
85.39573763958977
 20
118.9447744129818
 30
0.0
 10
85.72233863738252
 20
118.9448024491331
 30
0.0
 10
85.88824560354972
 20
118.9423127015717
 30
0.0
 10
86.20905390146635
 20
118.9328166000489
 30
0.0
 10
86.36500708095451
 20
118.9258600623429
 30
0.0
 10
86.66797645860184
 20
118.9082759747504
 30
0.0
 10
86.81403124543782
 20
118.8976601192364
 30
0.0
 10
87.08465057782263
 20
118.8747996232893
 30
0.0
 10
87.21112981966844
 20
118.8624315901586
 30
0.0
 10
87.44416423038021
 20
118.8373286117447
 30
0.0
 10
87.547432829198
 20
118.8249668840439
 30
0.0
 10
87.72848413923606
 20
118.8019879629344
 30
0.0
 10
87.80689785288034
 20
118.791271517523
 30
0.0
 10
87.93237698481468
 20
118.7735361101187
 30
0.0
 10
87.97977122038488
 20
118.7664906125261
 30
0.0
 10
88.04396124981163
 20
118.756846845649
 30
0.0
 10
88.06039140601217
 20
118.7543045988575
 30
0.0
 10
88.06058023544283
 20
118.7542756541716
 30
0.0
 10
87.99501732099041
 20
118.7646759484682
 30
0.0
 10
87.80819396155827
 20
118.791091532875
 30
0.0
 10
87.73050456382296
 20
118.8017234782763
 30
0.0
 10
87.54823765206966
 20
118.8248726661541
 30
0.0
 10
87.44500545175526
 20
118.837221922188
 30
0.0
 10
87.21477290168768
 20
118.8620549107023
 30
0.0
 10
87.08635939863132
 20
118.8746429966624
 30
0.0
 10
86.81526302465967
 20
118.8975682070369
 30
0.0
 10
86.6718652055108
 20
118.908013231542
 30
0.0
 10
86.36904749398295
 20
118.9256616463541
 30
0.0
 10
86.21043864739931
 20
118.932756418019
 30
0.0
 10
85.890794349689
 20
118.9422562153408
 30
0.0
 10
85.72779996317166
 20
118.9447672662648
 30
0.0
 10
85.39732123152244
 20
118.9448094486186
 30
0.0
 10
85.23475725844138
 20
118.9423501791908
 30
0.0
 10
84.91476885695339
 20
118.9329269661829
 30
0.0
 10
84.75565427506336
 20
118.9258459424657
 30
0.0
 10
84.45312448565818
 20
118.9082868537035
 30
0.0
 10
84.30954156538621
 20
118.8978683515144
 30
0.0
 10
84.0375961716359
 20
118.8749291647477
 30
0.0
 10
83.90921122679669
 20
118.8623648801542
 30
0.0
 10
83.56368811813505
 20
118.8251608804929
 30
0.0
 10
83.37719213706605
 20
118.8001946555794
 30
0.0
 10
83.18964169565174
 20
118.7736963809501
 30
0.0
 10
83.1413310906829
 20
118.7665196875774
 30
0.0
 10
83.07671216494636
 20
118.7568113983945
 30
0.0
 10
83.0604545349403
 20
118.7542949221509
 30
0.0
 10
83.0604545349403
 20
118.7542949221509
 30
0.0
  0
SPLINE
  5
2BD
330
1F
100
AcDbEntity
  8
0
  6
HIDDEN
 62
     7
370
     0
100
AcDbSpline
210
0.0
220
0.0
230
1.0
 70
     8
 71
     3
 72
    22
 73
    18
 74
     0
 42
0.00000001
 43
0.00000001
 12
1.0
 22
0.0
 32
0.0
 13
1.0
 23
0.0
 33
0.0
 40
0.0
 40
0.0
 40
0.0
 40
0.0
 40
0.125
 40
0.125
 40
0.25
 40
0.25
 40
0.375
 40
0.375
 40
0.5
 40
0.5
 40
0.625
 40
0.625
 40
0.75
 40
0.75
 40
0.875
 40
0.875
 40
1.0
 40
1.0
 40
1.0
 40
1.0
 10
83.43913419138066
 20
104.5661088354104
 30
0.0
 10
83.54461643217302
 20
104.6715910762028
 30
0.0
 10
83.6678259042438
 20
104.7791351276995
 30
0.0
 10
83.95492124608428
 20
104.9851585846533
 30
0.0
 10
84.1187750884632
 20
105.0831762745452
 30
0.0
 10
84.47956563763765
 20
105.2503559763276
 30
0.0
 10
84.68148372991428
 20
105.3213676335927
 30
0.0
 10
85.10555776489811
 20
105.4180638177158
 30
0.0
 10
85.33369698913476
 20
105.4446474547843
 30
0.0
 10
85.78346476185904
 20
105.4449283587173
 30
0.0
 10
86.01139576379569
 20
105.4187036301623
 30
0.0
 10
86.43657634530508
 20
105.3222752103541
 30
0.0
 10
86.63842824992825
 20
105.251539182461
 30
0.0
 10
87.00092616113086
 20
105.0839016503921
 30
0.0
 10
87.16552807235617
 20
104.9854211839313
 30
0.0
 10
87.45203416647517
 20
104.7799548743904
 30
0.0
 10
87.57565616893484
 20
104.6722275449755
 30
0.0
 10
87.68177487849994
 20
104.5661088354104
 30
0.0
  0
SPLINE
  5
2BE
330
1F
100
AcDbEntity
  8
0
  6
HIDDEN
 62
     7
370
     0
100
AcDbSpline
210
0.0
220
0.0
230
1.0
 70
     8
 71
     3
 72
    22
 73
    18
 74
     0
 42
0.00000001
 43
0.00000001
 12
1.0
 22
0.0
 32
0.0
 13
1.0
 23
0.0
 33
0.0
 40
0.0
 40
0.0
 40
0.0
 40
0.0
 40
0.125
 40
0.125
 40
0.25
 40
0.25
 40
0.375
 40
0.375
 40
0.5
 40
0.5
 40
0.625
 40
0.625
 40
0.75
 40
0.75
 40
0.875
 40
0.875
 40
1.0
 40
1.0
 40
1.0
 40
1.0
 10
87.68177487849994
 20
104.5661088354104
 30
0.0
 10
87.57673337499239
 20
104.671150338918
 30
0.0
 10
87.45207351311471
 20
104.7799932206532
 30
0.0
 10
87.16399640672847
 20
104.9864527004812
 30
0.0
 10
87.00368479119784
 20
105.0822835366452
 30
0.0
 10
86.6441051826205
 20
105.2492483253436
 30
0.0
 10
86.44213993769593
 20
105.3205465064892
 30
0.0
 10
86.01790185964008
 20
105.4176819062393
 30
0.0
 10
85.78976519568454
 20
105.4444592464831
 30
0.0
 10
85.33984116214039
 20
105.4451114336471
 30
0.0
 10
85.11146820579035
 20
105.4190098539926
 30
0.0
 10
84.68595064423702
 20
105.3227781339324
 30
0.0
 10
84.48381917969941
 20
105.2520662503613
 30
0.0
 10
84.12090928630876
 20
105.084421341079
 30
0.0
 10
83.95612095120666
 20
104.9858849375616
 30
0.0
 10
83.66963531571552
 20
104.7805667506994
 30
0.0
 10
83.54568106662236
 20
104.6726557106521
 30
0.0
 10
83.43913419138066
 20
104.5661088354104
 30
0.0
  0
SPLINE
  5
2BF
330
1F
100
AcDbEntity
  8
0
  6
HIDDEN
 62
     7
370
     0
100
AcDbSpline
210
0.0
220
0.0
230
1.0
 70
    11
 71
     3
 72
    66
 73
    62
 74
     0
 42
0.00000001
 43
0.00000001
 12
1.0
 22
0.0
 32
0.0
 13
1.0
 23
0.0
 33
0.0
 40
-0.0312500000000001
 40
-0.0312500000000001
 40
0.0
 40
0.0
 40
0.0312499999999999
 40
0.0312499999999999
 40
0.0624999999999997
 40
0.0624999999999997
 40
0.0937499999999996
 40
0.0937499999999996
 40
0.1249999999999994
 40
0.1249999999999994
 40
0.1562499999999993
 40
0.1562499999999993
 40
0.1874999999999991
 40
0.1874999999999991
 40
0.218749999999999
 40
0.218749999999999
 40
0.2499999999999989
 40
0.2499999999999989
 40
0.2812499999999988
 40
0.2812499999999988
 40
0.3124999999999987
 40
0.3124999999999987
 40
0.3437499999999985
 40
0.3437499999999985
 40
0.3749999999999983
 40
0.3749999999999983
 40
0.4062499999999982
 40
0.4062499999999982
 40
0.4374999999999981
 40
0.4374999999999981
 40
0.4687499999999979
 40
0.4687499999999979
 40
0.4999999999999978
 40
0.4999999999999978
 40
0.5624999999999981
 40
0.5624999999999981
 40
0.5937499999999983
 40
0.5937499999999983
 40
0.6249999999999986
 40
0.6249999999999986
 40
0.6562499999999987
 40
0.6562499999999987
 40
0.6874999999999989
 40
0.6874999999999989
 40
0.7187499999999991
 40
0.7187499999999991
 40
0.7499999999999992
 40
0.7499999999999992
 40
0.7812499999999994
 40
0.7812499999999994
 40
0.8124999999999997
 40
0.8124999999999997
 40
0.8437499999999999
 40
0.8437499999999999
 40
0.875
 40
0.875
 40
0.9375
 40
0.9375
 40
0.9687499999999999
 40
0.9687499999999999
 40
1.0
 40
1.0
 40
1.03125
 40
1.03125
 10
69.25094810464017
 20
99.94478849185096
 30
0.0
 10
69.25094810464017
 20
99.94478849185096
 30
0.0
 10
69.24843293529531
 20
99.9610439547618
 30
0.0
 10
69.23886877000933
 20
100.0246906196963
 30
0.0
 10
69.23170594751474
 20
100.0728715884328
 30
0.0
 10
69.21395911558125
 20
100.1984341714139
 30
0.0
 10
69.20345600169043
 20
100.275235766931
 30
0.0
 10
69.18041650158668
 20
100.4566451195472
 30
0.0
 10
69.16780972051475
 20
100.5620757051957
 30
0.0
 10
69.14299777231886
 20
100.792358494422
 30
0.0
 10
69.13066820218219
 20
100.9180559174778
 30
0.0
 10
69.10756977016695
 20
101.191243833362
 30
0.0
 10
69.09703629024628
 20
101.3363918833057
 30
0.0
 10
69.0795465414019
 20
101.6371034975118
 30
0.0
 10
69.07246754075489
 20
101.7948965458444
 30
0.0
 10
69.06290644403059
 20
102.1177079971208
 30
0.0
 10
69.06046861380925
 20
102.2800715965004
 30
0.0
 10
69.06044057765794
 20
102.6066725942932
 30
0.0
 10
69.06293032521934
 20
102.7725795604604
 30
0.0
 10
69.07242642674218
 20
103.093387858377
 30
0.0
 10
69.07938296444817
 20
103.2493410378652
 30
0.0
 10
69.09696705204072
 20
103.5523104155125
 30
0.0
 10
69.10758290755464
 20
103.6983652023485
 30
0.0
 10
69.13044340350173
 20
103.9689845347333
 30
0.0
 10
69.14281143663253
 20
104.0954637765791
 30
0.0
 10
69.16791441504641
 20
104.3284981872909
 30
0.0
 10
69.18027614274723
 20
104.4317667861086
 30
0.0
 10
69.20325506385672
 20
104.6128180961467
 30
0.0
 10
69.21397150926812
 20
104.691231809791
 30
0.0
 10
69.23170691667245
 20
104.8167109417253
 30
0.0
 10
69.23875241426494
 20
104.8641051772955
 30
0.0
 10
69.2483961811421
 20
104.9282952067223
 30
0.0
 10
69.25093842793365
 20
104.9447253629228
 30
0.0
 10
69.25096737261954
 20
104.9449141923535
 30
0.0
 10
69.24056707832288
 20
104.8793512779011
 30
0.0
 10
69.21415149391612
 20
104.6925279184689
 30
0.0
 10
69.2035195485148
 20
104.6148385207336
 30
0.0
 10
69.18037036063704
 20
104.4325716089803
 30
0.0
 10
69.16802110460304
 20
104.3293394086659
 30
0.0
 10
69.1431881160888
 20
104.0991068585983
 30
0.0
 10
69.13060003012875
 20
103.970693355542
 30
0.0
 10
69.10767481975417
 20
103.6995969815703
 30
0.0
 10
69.09722979524905
 20
103.5561991624214
 30
0.0
 10
69.07958138043702
 20
103.2533814508936
 30
0.0
 10
69.07248660877207
 20
103.09477260431
 30
0.0
 10
69.06298681145032
 20
102.7751283065997
 30
0.0
 10
69.06047576052629
 20
102.6121339200823
 30
0.0
 10
69.06043357817244
 20
102.2816551884331
 30
0.0
 10
69.06289284760028
 20
102.119091215352
 30
0.0
 10
69.0723160606082
 20
101.7991028138641
 30
0.0
 10
69.07939708432531
 20
101.639988231974
 30
0.0
 10
69.09695617308759
 20
101.3374584425688
 30
0.0
 10
69.10737467527665
 20
101.1938755222969
 30
0.0
 10
69.13031386204335
 20
100.9219301285465
 30
0.0
 10
69.14287814663683
 20
100.7935451837073
 30
0.0
 10
69.18008214629813
 20
100.4480220750457
 30
0.0
 10
69.20504837121166
 20
100.2615260939767
 30
0.0
 10
69.23154664584094
 20
100.0739756525624
 30
0.0
 10
69.23872333921368
 20
100.0256650475935
 30
0.0
 10
69.24843162839653
 20
99.96104612185701
 30
0.0
 10
69.25094810464017
 20
99.94478849185096
 30
0.0
 10
69.25094810464017
 20
99.94478849185096
 30
0.0
  0
SPLINE
  5
2C0
330
1F
100
AcDbEntity
  8
0
  6
HIDDEN
 62
     7
370
     0
100
AcDbSpline
210
0.0
220
0.0
230
1.0
 70
    11
 71
     3
 72
    58
 73
    54
 74
     0
 42
0.00000001
 43
0.00000001
 12
1.0
 22
0.0
 32
0.0
 13
1.0
 23
0.0
 33
0.0
 40
0.0
 40
0.0
 40
0.0
 40
0.0
 40
0.03125
 40
0.03125
 40
0.0624999999999999
 40
0.0624999999999999
 40
0.0937499999999999
 40
0.0937499999999999
 40
0.1249999999999999
 40
0.1249999999999999
 40
0.1562499999999998
 40
0.1562499999999998
 40
0.1874999999999998
 40
0.1874999999999998
 40
0.2499999999999997
 40
0.2499999999999997
 40
0.2812499999999997
 40
0.2812499999999997
 40
0.3124999999999997
 40
0.3124999999999997
 40
0.3749999999999996
 40
0.3749999999999996
 40
0.4062499999999996
 40
0.4062499999999996
 40
0.4374999999999995
 40
0.4374999999999995
 40
0.4687499999999995
 40
0.4687499999999995
 40
0.4999999999999994
 40
0.4999999999999994
 40
0.5312499999999994
 40
0.5312499999999994
 40
0.5624999999999993
 40
0.5624999999999993
 40
0.6249999999999993
 40
0.6249999999999993
 40
0.6562499999999992
 40
0.6562499999999992
 40
0.6874999999999992
 40
0.6874999999999992
 40
0.7187499999999992
 40
0.7187499999999992
 40
0.7499999999999991
 40
0.7499999999999991
 40
0.8124999999999992
 40
0.8124999999999992
 40
0.8437499999999993
 40
0.8437499999999993
 40
0.8749999999999993
 40
0.8749999999999993
 40
0.9374999999999997
 40
0.9374999999999997
 40
1.0
 40
1.0
 40
1.0
 40
1.0
 10
83.43913419138066
 20
104.5661088354104
 30
0.0
 10
83.37227123598376
 20
104.4992458800135
 30
0.0
 10
83.30415347640897
 20
104.4248144403335
 30
0.0
 10
83.16911693633405
 20
104.2594239133299
 30
0.0
 10
83.10210800081293
 20
104.168157609462
 30
0.0
 10
82.97631700609291
 20
103.9730888646161
 30
0.0
 10
82.91695702746257
 20
103.8686852335104
 30
0.0
 10
82.80787203959324
 20
103.6443094834381
 30
0.0
 10
82.75771292867023
 20
103.523115162926
 30
0.0
 10
82.67234217619627
 20
103.2675618047016
 30
0.0
 10
82.63752447602997
 20
103.1348726130829
 30
0.0
 10
82.585826026193
 20
102.8586984562224
 30
0.0
 10
82.56914358850383
 20
102.7141743291661
 30
0.0
 10
82.55105581059175
 20
102.2849168297091
 30
0.0
 10
82.58191148793433
 20
101.9925161036499
 30
0.0
 10
82.68138196529507
 20
101.5903832087938
 30
0.0
 10
82.72363147730638
 20
101.4601013632527
 30
0.0
 10
82.82030154233627
 20
101.2164825940088
 30
0.0
 10
82.87480627406434
 20
101.1022609745088
 30
0.0
 10
83.0529135444238
 20
100.7796803738159
 30
0.0
 10
83.18746158320312
 20
100.5980420802063
 30
0.0
 10
83.3912196834073
 20
100.3699843749825
 30
0.0
 10
83.46012317906064
 20
100.3008283303077
 30
0.0
 10
83.5912179980999
 20
100.1798239356716
 30
0.0
 10
83.65372028748435
 20
100.1275969865628
 30
0.0
 10
83.76514594728563
 20
100.0402346792498
 30
0.0
 10
83.81421148350604
 20
100.0050400829829
 30
0.0
 10
83.88266231370446
 20
99.95747058783924
 30
0.0
 10
83.90239497388265
 20
99.9446207802965
 30
0.0
 10
83.90188421996564
 20
99.94495957686519
 30
0.0
 10
83.88224625074186
 20
99.95774484203143
 30
0.0
 10
83.81318058668795
 20
100.005771699982
 30
0.0
 10
83.76421152822424
 20
100.0409387929252
 30
0.0
 10
83.59760994967722
 20
100.1716474071603
 30
0.0
 10
83.45840124663293
 20
100.2947950157726
 30
0.0
 10
83.25579008914909
 20
100.5215628717475
 30
0.0
 10
83.18847175744162
 20
100.6045874950104
 30
0.0
 10
83.0573822022116
 20
100.7872991547356
 30
0.0
 10
82.99338947705128
 20
100.8875482200556
 30
0.0
 10
82.87565359121803
 20
101.1006664110399
 30
0.0
 10
82.82137225890193
 20
101.2141330517415
 30
0.0
 10
82.7247173272457
 20
101.4570238356322
 30
0.0
 10
82.68240441895672
 20
101.5870194708516
 30
0.0
 10
82.58273544055535
 20
101.9876783859341
 30
0.0
 10
82.55135945932912
 20
102.2798251367777
 30
0.0
 10
82.56865936957124
 20
102.7086600687976
 30
0.0
 10
82.58503075802847
 20
102.8529867137132
 30
0.0
 10
82.63625758678023
 20
103.1295108070379
 30
0.0
 10
82.67088585984247
 20
103.2624834600062
 30
0.0
 10
82.79859878388001
 20
103.6469039466006
 30
0.0
 10
82.91279939076993
 20
103.8747207881108
 30
0.0
 10
83.16661434710883
 20
104.2680584360615
 30
0.0
 10
83.3040845790754
 20
104.4310592231052
 30
0.0
 10
83.43913419138066
 20
104.5661088354104
 30
0.0
  0
LINE
  5
2C1
330
1F
100
AcDbEntity
  8
0
  6
HIDDEN
 62
     7
370
     0
100
AcDbLine
 10
101.5767273629
 20
99.4447884658
 30
0.0
 11
101.8968676353
 21
99.9992883806
 31
0.0
  0
LINE
  5
2C2
330
1F
100
AcDbEntity
  8
0
  6
HIDDEN
 62
     7
370
     0
100
AcDbLine
 10
101.8968676353
 20
104.8902886031
 30
0.0
 11
101.5767273629
 21
105.4447885179
 31
0.0
  0
LINE
  5
2C3
330
1F
100
AcDbEntity
  8
0
  6
HIDDEN
 62
     7
370
     0
100
AcDbLine
 10
101.5767273629
 20
105.4447885179
 30
0.0
 11
92.8968675571
 21
105.4447885179
 31
0.0
  0
LINE
  5
2C4
330
1F
100
AcDbEntity
  8
0
  6
HIDDEN
 62
     7
370
     0
100
AcDbLine
 10
92.8968675571
 20
99.4447884658
 30
0.0
 11
101.5767273629
 21
99.4447884658
 31
0.0
  0
LINE
  5
2C5
330
1F
100
AcDbEntity
  8
0
  6
HIDDEN
 62
     7
370
     0
100
AcDbLine
 10
92.8968675571
 20
105.4447885179
 30
0.0
 11
91.8968673932
 21
104.4447885868
 31
0.0
  0
LINE
  5
2C6
330
1F
100
AcDbEntity
  8
0
  6
HIDDEN
 62
     7
370
     0
100
AcDbLine
 10
91.8968673932
 20
100.4447883969
 30
0.0
 11
92.8968675571
 21
99.4447884658
 31
0.0
  0
LINE
  5
2C7
330
1F
100
AcDbEntity
  8
0
  6
HIDDEN
 62
     7
370
     0
100
AcDbLine
 10
88.560454561
 20
118.4610613198
 30
0.0
 11
88.0059546461
 21
118.7812015922
 31
0.0
  0
LINE
  5
2C8
330
1F
100
AcDbEntity
  8
0
  6
HIDDEN
 62
     7
370
     0
100
AcDbLine
 10
83.1149544237
 20
118.7812015922
 30
0.0
 11
82.5604545089
 21
118.4610613198
 31
0.0
  0
LINE
  5
2C9
330
1F
100
AcDbEntity
  8
0
  6
HIDDEN
 62
     7
370
     0
100
AcDbLine
 10
82.5604545089
 20
118.4610613198
 30
0.0
 11
82.5604545089
 21
109.781201514
 31
0.0
  0
LINE
  5
2CA
330
1F
100
AcDbEntity
  8
0
  6
HIDDEN
 62
     7
370
     0
100
AcDbLine
 10
88.560454561
 20
109.781201514
 30
0.0
 11
88.560454561
 21
118.4610613198
 31
0.0
  0
LINE
  5
2CB
330
1F
100
AcDbEntity
  8
0
  6
HIDDEN
 62
     7
370
     0
100
AcDbLine
 10
82.5604545089
 20
109.781201514
 30
0.0
 11
83.5604544399
 21
108.7812013501
 31
0.0
  0
LINE
  5
2CC
330
1F
100
AcDbEntity
  8
0
  6
HIDDEN
 62
     7
370
     0
100
AcDbLine
 10
87.5604546299
 20
108.7812013501
 30
0.0
 11
88.560454561
 21
109.781201514
 31
0.0
  0
LINE
  5
2CD
330
1F
100
AcDbEntity
  8
0
  6
HIDDEN
 62
     7
370
     0
100
AcDbLine
 10
78.2240415128
 20
99.4447884658
 30
0.0
 11
79.2240416767
 21
100.4447883969
 31
0.0
  0
LINE
  5
2CE
330
1F
100
AcDbEntity
  8
0
  6
HIDDEN
 62
     7
370
     0
100
AcDbLine
 10
79.2240416767
 20
104.4447885868
 30
0.0
 11
78.2240415128
 21
105.4447885179
 31
0.0
  0
LINE
  5
2CF
330
1F
100
AcDbEntity
  8
0
  6
HIDDEN
 62
     7
370
     0
100
AcDbLine
 10
69.544181707
 20
99.4447884658
 30
0.0
 11
78.2240415128
 21
99.4447884658
 31
0.0
  0
LINE
  5
2D0
330
1F
100
AcDbEntity
  8
0
  6
HIDDEN
 62
     7
370
     0
100
AcDbLine
 10
78.2240415128
 20
105.4447885179
 30
0.0
 11
69.544181707
 21
105.4447885179
 31
0.0
  0
LINE
  5
2D1
330
1F
100
AcDbEntity
  8
0
  6
HIDDEN
 62
     7
370
     0
100
AcDbLine
 10
69.544181707
 20
105.4447885179
 30
0.0
 11
69.2240414346
 21
104.8902886031
 31
0.0
  0
LINE
  5
2D2
330
1F
100
AcDbEntity
  8
0
  6
HIDDEN
 62
     7
370
     0
100
AcDbLine
 10
69.2240414346
 20
99.9992883806
 30
0.0
 11
69.544181707
 21
99.4447884658
 31
0.0
  0
LINE
  5
2D3
330
1F
100
AcDbEntity
  8
0
  6
HIDDEN
 62
     7
370
     0
100
AcDbLine
 10
102.3756270433
 20
104.944788436
 30
0.0
 11
88.0604544791
 21
104.944788436
 31
0.0
  0
LINE
  5
2D4
330
1F
100
AcDbEntity
  8
0
  6
HIDDEN
 62
     7
370
     0
100
AcDbLine
 10
87.2333836878
 20
99.9447885477
 30
0.0
 11
102.3802911068
 21
99.9447885477
 31
0.0
  0
LINE
  5
2D5
330
1F
100
AcDbEntity
  8
0
  6
HIDDEN
 62
     7
370
     0
100
AcDbLine
 10
83.0604545908
 20
119.2599610002
 30
0.0
 11
83.0604545908
 21
104.944788436
 31
0.0
  0
LINE
  5
2D6
330
1F
100
AcDbEntity
  8
0
  6
HIDDEN
 62
     7
370
     0
100
AcDbLine
 10
88.0604544791
 20
104.944788436
 30
0.0
 11
88.0604544791
 21
119.2646250637
 31
0.0
  0
LINE
  5
2D7
330
1F
100
AcDbEntity
  8
0
  6
HIDDEN
 62
     7
370
     0
100
AcDbLine
 10
68.7452820266
 20
99.9447885477
 30
0.0
 11
83.9021421407
 21
99.9447885477
 31
0.0
  0
LINE
  5
2D8
330
1F
100
AcDbEntity
  8
0
  6
HIDDEN
 62
     7
370
     0
100
AcDbLine
 10
83.0604545908
 20
104.944788436
 30
0.0
 11
68.7406179631
 21
104.944788436
 31
0.0
  0
LINE
  5
2D9
330
1F
100
AcDbEntity
  8
0
  6
HIDDEN
 62
     7
370
     0
100
AcDbLine
 10
102.3800862158
 20
104.944788436
 30
0.0
 11
102.3756270433
 21
104.944788436
 31
0.0
  0
LINE
  5
2DA
330
1F
100
AcDbEntity
  8
0
  6
HIDDEN
 62
     7
370
     0
100
AcDbLine
 10
87.2333836878
 20
99.9447885477
 30
0.0
 11
102.3762640679
 21
99.9447885477
 31
0.0
  0
LINE
  5
2DB
330
1F
100
AcDbEntity
  8
0
  6
HIDDEN
 62
     7
370
     0
100
AcDbLine
 10
83.0604545908
 20
119.2644201727
 30
0.0
 11
83.0604545908
 21
119.2599610002
 31
0.0
  0
LINE
  5
2DC
330
1F
100
AcDbEntity
  8
0
  6
HIDDEN
 62
     7
370
     0
100
AcDbLine
 10
88.0604544791
 20
104.944788436
 30
0.0
 11
88.0604544791
 21
119.2605980249
 31
0.0
  0
LINE
  5
2DD
330
1F
100
AcDbEntity
  8
0
  6
HIDDEN
 62
     7
370
     0
100
AcDbLine
 10
68.7408228541
 20
99.9447885477
 30
0.0
 11
68.7452820266
 21
99.9447885477
 31
0.0
  0
LINE
  5
2DE
330
1F
100
AcDbEntity
  8
0
  6
HIDDEN
 62
     7
370
     0
100
AcDbLine
 10
83.0604545908
 20
104.944788436
 30
0.0
 11
68.7446450019
 21
104.944788436
 31
0.0
  0
LINE
  5
2DF
330
1F
100
AcDbEntity
  8
0
  6
HIDDEN
 62
     7
370
     0
100
AcDbLine
 10
101.8699617261
 20
104.944788436
 30
0.0
 11
88.0604544791
 21
104.944788436
 31
0.0
  0
LINE
  5
2E0
330
1F
100
AcDbEntity
  8
0
  6
HIDDEN
 62
     7
370
     0
100
AcDbLine
 10
87.2333836878
 20
99.9447885477
 30
0.0
 11
101.8747803891
 21
99.9447885477
 31
0.0
  0
LINE
  5
2E1
330
1F
100
AcDbEntity
  8
0
  6
HIDDEN
 62
     7
370
     0
100
AcDbLine
 10
83.0604545908
 20
118.754295683
 30
0.0
 11
83.0604545908
 21
104.944788436
 31
0.0
  0
LINE
  5
2E2
330
1F
100
AcDbEntity
  8
0
  6
HIDDEN
 62
     7
370
     0
100
AcDbLine
 10
88.0604544791
 20
104.944788436
 30
0.0
 11
88.0604544791
 21
118.759114346
 31
0.0
  0
LINE
  5
2E3
330
1F
100
AcDbEntity
  8
0
  6
HIDDEN
 62
     7
370
     0
100
AcDbLine
 10
69.2509473438
 20
99.9447885477
 30
0.0
 11
83.9021421407
 21
99.9447885477
 31
0.0
  0
LINE
  5
2E4
330
1F
100
AcDbEntity
  8
0
  6
HIDDEN
 62
     7
370
     0
100
AcDbLine
 10
83.0604545908
 20
104.944788436
 30
0.0
 11
69.2461286808
 21
104.944788436
 31
0.0
  0
INSERT
  5
2F0
330
1F
100
AcDbEntity
  8
VERMASSUNG
100
AcDbBlockReference
  2
SW_CENTERMARKSYMBOL_0
 10
85.5604545349
 20
102.4447884919
 30
0.0
  0
OLE2FRAME
  5
2F1
330
1F
100
AcDbEntity
  8
0
100
AcDbOle2Frame
 70
     2
  3
Paintbrush-Bild
 10
13.8511154363
 20
38.264191557
 30
0.0
 11
51.6290888628
 21
31.9806341108
 31
0.0
 71
     2
 72
     0
 73
     1
 90
    12928
310
80552BED0767C5B32B40DDAF6807D121434000000000000000006FFBDDFB85D0
310
4940DDAF6807D121434000000000000000006FFBDDFB85D04940416F4BD60AFB
310
3F4000000000000000002BED0767C5B32B40416F4BD60AFB3F40000000000000
310
0000000000000100000000010000010000000100000000000100000000320000
310
D0CF11E0A1B11AE1000000000000000000000000000000003E000300FEFF0900
310
0600000000000000000000000100000001000000000000000010000002000000
310
01000000FEFFFFFF0000000000000000FFFFFFFFFFFFFFFFFFFFFFFFFFFFFFFF
310
FFFFFFFFFFFFFFFFFFFFFFFFFFFFFFFFFFFFFFFFFFFFFFFFFFFFFFFFFFFFFFFF
310
FFFFFFFFFFFFFFFFFFFFFFFFFFFFFFFFFFFFFFFFFFFFFFFFFFFFFFFFFFFFFFFF
310
FFFFFFFFFFFFFFFFFFFFFFFFFFFFFFFFFFFFFFFFFFFFFFFFFFFFFFFFFFFFFFFF
310
FFFFFFFFFFFFFFFFFFFFFFFFFFFFFFFFFFFFFFFFFFFFFFFFFFFFFFFFFFFFFFFF
310
FFFFFFFFFFFFFFFFFFFFFFFFFFFFFFFFFFFFFFFFFFFFFFFFFFFFFFFFFFFFFFFF
310
FFFFFFFFFFFFFFFFFFFFFFFFFFFFFFFFFFFFFFFFFFFFFFFFFFFFFFFFFFFFFFFF
310
FFFFFFFFFFFFFFFFFFFFFFFFFFFFFFFFFFFFFFFFFFFFFFFFFFFFFFFFFFFFFFFF
310
FFFFFFFFFFFFFFFFFFFFFFFFFFFFFFFFFFFFFFFFFFFFFFFFFFFFFFFFFFFFFFFF
310
FFFFFFFFFFFFFFFFFFFFFFFFFFFFFFFFFFFFFFFFFFFFFFFFFFFFFFFFFFFFFFFF
310
FFFFFFFFFFFFFFFFFFFFFFFFFFFFFFFFFFFFFFFFFFFFFFFFFFFFFFFFFFFFFFFF
310
FFFFFFFFFFFFFFFFFFFFFFFFFFFFFFFFFFFFFFFFFFFFFFFFFFFFFFFFFFFFFFFF
310
FFFFFFFFFFFFFFFFFFFFFFFFFFFFFFFFFFFFFFFFFFFFFFFFFFFFFFFFFFFFFFFF
310
FFFFFFFFFFFFFFFFFFFFFFFFFFFFFFFFFFFFFFFFFFFFFFFFFFFFFFFFFFFFFFFF
310
FDFFFFFFFEFFFFFFFEFFFFFFFEFFFFFF05000000060000000700000008000000
310
090000000A0000000B0000000C0000000D0000000E0000000F00000010000000
310
11000000120000001300000014000000150000001600000017000000FEFFFFFF
310
FFFFFFFFFFFFFFFFFFFFFFFFFFFFFFFFFFFFFFFFFFFFFFFFFFFFFFFFFFFFFFFF
310
FFFFFFFFFFFFFFFFFFFFFFFFFFFFFFFFFFFFFFFFFFFFFFFFFFFFFFFFFFFFFFFF
310
FFFFFFFFFFFFFFFFFFFFFFFFFFFFFFFFFFFFFFFFFFFFFFFFFFFFFFFFFFFFFFFF
310
FFFFFFFFFFFFFFFFFFFFFFFFFFFFFFFFFFFFFFFFFFFFFFFFFFFFFFFFFFFFFFFF
310
FFFFFFFFFFFFFFFFFFFFFFFFFFFFFFFFFFFFFFFFFFFFFFFFFFFFFFFFFFFFFFFF
310
FFFFFFFFFFFFFFFFFFFFFFFFFFFFFFFFFFFFFFFFFFFFFFFFFFFFFFFFFFFFFFFF
310
FFFFFFFFFFFFFFFFFFFFFFFFFFFFFFFFFFFFFFFFFFFFFFFFFFFFFFFFFFFFFFFF
310
FFFFFFFFFFFFFFFFFFFFFFFFFFFFFFFFFFFFFFFFFFFFFFFFFFFFFFFFFFFFFFFF
310
FFFFFFFFFFFFFFFFFFFFFFFFFFFFFFFFFFFFFFFFFFFFFFFFFFFFFFFFFFFFFFFF
310
FFFFFFFFFFFFFFFFFFFFFFFFFFFFFFFFFFFFFFFFFFFFFFFFFFFFFFFFFFFFFFFF
310
FFFFFFFFFFFFFFFFFFFFFFFFFFFFFFFFFFFFFFFFFFFFFFFFFFFFFFFFFFFFFFFF
310
FFFFFFFFFFFFFFFFFFFFFFFFFFFFFFFFFFFFFFFFFFFFFFFFFFFFFFFFFFFFFFFF
310
FFFFFFFFFFFFFFFFFFFFFFFFFFFFFFFFFFFFFFFFFFFFFFFFFFFFFFFFFFFFFFFF
310
52006F006F007400200045006E00740072007900000000000000000000000000
310
0000000000000000000000000000000000000000000000000000000000000000
310
16000500FFFFFFFFFFFFFFFF020000000A00030000000000C000000000000046
310
00000000000000000000000090D7865D361DCD0103000000C000000000000000
310
01004F006C006500000000000000000000000000000000000000000000000000
310
0000000000000000000000000000000000000000000000000000000000000000
310
0A000200FFFFFFFFFFFFFFFFFFFFFFFF00000000000000000000000000000000
310
0000000000000000000000000000000000000000000000001400000000000000
310
010043006F006D0070004F0062006A0000000000000000000000000000000000
310
0000000000000000000000000000000000000000000000000000000000000000
310
120002010100000003000000FFFFFFFF00000000000000000000000000000000
310
0000000000000000000000000000000000000000010000004D00000000000000
310
01004F006C006500310030004E00610074006900760065000000000000000000
310
0000000000000000000000000000000000000000000000000000000000000000
310
1A000200FFFFFFFFFFFFFFFFFFFFFFFF00000000000000000000000000000000
310
0000000000000000000000000000000000000000040000002426000000000000
310
FEFFFFFF02000000FEFFFFFFFFFFFFFFFFFFFFFFFFFFFFFFFFFFFFFFFFFFFFFF
310
FFFFFFFFFFFFFFFFFFFFFFFFFFFFFFFFFFFFFFFFFFFFFFFFFFFFFFFFFFFFFFFF
310
FFFFFFFFFFFFFFFFFFFFFFFFFFFFFFFFFFFFFFFFFFFFFFFFFFFFFFFFFFFFFFFF
310
FFFFFFFFFFFFFFFFFFFFFFFFFFFFFFFFFFFFFFFFFFFFFFFFFFFFFFFFFFFFFFFF
310
FFFFFFFFFFFFFFFFFFFFFFFFFFFFFFFFFFFFFFFFFFFFFFFFFFFFFFFFFFFFFFFF
310
FFFFFFFFFFFFFFFFFFFFFFFFFFFFFFFFFFFFFFFFFFFFFFFFFFFFFFFFFFFFFFFF
310
FFFFFFFFFFFFFFFFFFFFFFFFFFFFFFFFFFFFFFFFFFFFFFFFFFFFFFFFFFFFFFFF
310
FFFFFFFFFFFFFFFFFFFFFFFFFFFFFFFFFFFFFFFFFFFFFFFFFFFFFFFFFFFFFFFF
310
FFFFFFFFFFFFFFFFFFFFFFFFFFFFFFFFFFFFFFFFFFFFFFFFFFFFFFFFFFFFFFFF
310
FFFFFFFFFFFFFFFFFFFFFFFFFFFFFFFFFFFFFFFFFFFFFFFFFFFFFFFFFFFFFFFF
310
FFFFFFFFFFFFFFFFFFFFFFFFFFFFFFFFFFFFFFFFFFFFFFFFFFFFFFFFFFFFFFFF
310
FFFFFFFFFFFFFFFFFFFFFFFFFFFFFFFFFFFFFFFFFFFFFFFFFFFFFFFFFFFFFFFF
310
FFFFFFFFFFFFFFFFFFFFFFFFFFFFFFFFFFFFFFFFFFFFFFFFFFFFFFFFFFFFFFFF
310
FFFFFFFFFFFFFFFFFFFFFFFFFFFFFFFFFFFFFFFFFFFFFFFFFFFFFFFFFFFFFFFF
310
FFFFFFFFFFFFFFFFFFFFFFFFFFFFFFFFFFFFFFFFFFFFFFFFFFFFFFFFFFFFFFFF
310
FFFFFFFFFFFFFFFFFFFFFFFFFFFFFFFFFFFFFFFFFFFFFFFFFFFFFFFFFFFFFFFF
310
0100000200000000000000000000000000000000000000000000000000000000
310
0000000000000000000000000000000000000000000000000000000000000000
310
0100FEFF030A0000FFFFFFFF0A00030000000000C00000000000004607000000
310
5042727573680007000000504272757368000700000050427275736800F439B2
310
7100000000000000000000000000000000000000000000000000000000000000
310
0000000000000000000000000000000000000000000000000000000000000000
310
0000000000000000000000000000000000000000000000000000000000000000
310
0000000000000000000000000000000000000000000000000000000000000000
310
0000000000000000000000000000000000000000000000000000000000000000
310
0000000000000000000000000000000000000000000000000000000000000000
310
0000000000000000000000000000000000000000000000000000000000000000
310
0000000000000000000000000000000000000000000000000000000000000000
310
0000000000000000000000000000000000000000000000000000000000000000
310
0000000000000000000000000000000000000000000000000000000000000000
310
0000000000000000000000000000000000000000000000000000000000000000
310
0000000000000000000000000000000000000000000000000000000000000000
310
20260000424D0E260000000000003E00000028000000B40200006E0000000100
310
01000000000000000000130B0000130B00000200000002000000000000FFFFFF
310
FFFFFFFFFFFFFFFFFFFFFFFFFFFFFFFFFFFFFFFFFFFFFFFFFFFFFFFFFFFFFFFF
310
FFFFFFFFFFFFFFFFFFFFFFFFFFFFFFFFFFFFFFFFFFFFFFFFFFFFFFFFFFFFFFFF
310
FFFFFFFFFFFFFFFFFFFFFFFFFFFFFFFFFFFFFFFFFFFFFFFFF000FFFFFFFFFFFF
310
FFFFFFFFFFFFFFFFFFFFFFFFFFFFFFFFFFFFFFFFFFFFFFFFFFFFFFFFFFFFFFFF
310
FFFFFFFFFFFFFFFFFFFFFFFFFFFFFFFFFFFFFFFFFFFFFFFFFFFFFFFFFFFFFFFF
310
FFFFFFFFFFFFFFFFFFFFFFFFFFFFFFFFF000FFFFFFFFFFFFFFFFFFFFFFFFFFFF
310
FFFFFFFFFFFFFFFFFFFFFFFFFFFFFFFFFFFFFFFFFFFFFFFFFFFFFFFFFFFFFFFF
310
FFFFFFFFFFFFFFFFFFFFFFFFFFFFFFFFFFFFFFFFFFFFFFFFFFFFFFFFFFFFFFFF
310
FFFFFFFFFFFFFFFFF000FFFFFFFFFFFFFFFFFFFFFFFFFFFFFFFFFFFFFFFFFFFF
310
FFFFFFFFFFFFFFFFFFFFFFFFFFFFFFFFFFFFFFFFFFFFFFFFFFFFFFFFFFFFFFFF
310
FFFFFFFFFFFFFFFFFFFFFFFFFFFFFFFFFFFFFFFFFFFFFFFFFFFFFFFFFFFFFFFF
310
F000FFFFFFFFFFFFFFFFFFFFFFFFFFFFFFFFFFFFFFFFFFFFFFFFFFFFFFFFFFFF
310
FFFFFFFFFFFFFFFFFFFFFFFFFFFFFFFFFFFFFFFFFFFFFFFFFFFFFFFFFFFFFFFF
310
FFFFFFFFFFFFFFFFFFFFFFFFFFFFFFFFFFFFFFFFFFFFFFFFF000FFFFFFFFFFFF
310
FFFFFFFFFFFFFFFFFFFFFFFFFFFFFFFFFFFFFFFFFFFFFFFFFFFFFFFFFFFFFFFF
310
FFFFFFFFFFFFFFFFFFFFFFFFFFFFFFFFFFFFFFFFFFFFFFFFFFFFFFFFFFFFFFFF
310
FFFFFFFFFFFFFFFFFFFFFFFFFFFFFFFFF000FFFFFFFFFFFFFFFFFFFFFFFFFFFF
310
FFFFFFFFFFFFFFFFFFFFFFFFFFFFFFFFFFFFFFFFFFFFFFFFFFFFFFFFFFFFFFFF
310
FFFFFFFFFFFFFFFFFFFFFFFFFFFFFFFFFFFFFFFFFFFFFFFFFFFFFFFFFFFFFFFF
310
FFFFFFFFFFFFFFFFF000FFFFFFFFFFFFFFFFFFFFFFFFFFFFFFFFFFFFFFFFFFFF
310
FFFFFFFFFFFFFFFFFFFFFFFFFFFFFFFFFFFFFFFFFFFFFFFFFFFFFFFFFFFFFFFF
310
FFFFFFFFFFFFFFFFFFFFFFFFFFFFFFFFFFFFFFFFFFFFFFFFFFFFFFFFFFFFFFFF
310
F000FFFFFFFFFFFFFFFFFFFFFFFFFFFFFFFFFFFFFFFFFFFFFFFFFFFFFFFFFFFF
310
FFFFFFFFFFFFFFFFFFFFFFFFFFFFFFFFFFFFFFFFFFFFFFFFFFFFFFFFFFFFFFFF
310
FFFFFFFFFFFFFFFFFFFFFFFFFFFFFFFFFFFFFFFFFFFFFFFFF000FFFFFFFFFFFF
310
FFFFFFFFFFFFFFFFFFFFFFFFFFFFFFFFFFFFFFFFFFFFFFFFFFFFFFFFFFFFFFFF
310
FFFFFFFFFFFFFFFFFFFFFFFFFFFFFFFFFFFFFFFFFFFFFFFFFFFFFFFFFFFFFFFF
310
FFFFFFFFFFFFFFFFFFFFFFFFFFFFFFFFF000FFFFFFFFFFFFFFFFFFFFFFFFFFFF
310
FFFFFFFFFFFFFFFFFFFFFFFFFFFFFFFFFFFFFFFFFFFFFFFFFFFFFFFFFFFFFFFF
310
FFFFFFFFFFFFFFFFFFFFFFFFFFFFFFFFFFFFFFFFFFFFFFFFFFFFFFFFFFFFFFFF
310
FFFFFFFFFFFFFFFFF000FFFFFFFFFFFFFFFFFFFFFFFFFFFFFFFFFFFFFFFFFFFF
310
FFFFFFFFFFFFFFFFFFFFFFFFFFFFFFFFFFFFFFFFFFFFFFFFFFFFFFFFFFFFFFFF
310
FFFFFFFFFFFFFFFFFFFFFFFFFFFFFFFFFFFFFFFFFFFFFFFFFFFFFFFFFFFFFFFF
310
F000FFFFFFFFFFFFFFFFFFFFFFFFFFFFFFFFFFFFFFFFFFFFFFFFFFFFFFFFFFFF
310
FFFFFFFFFFFFFFFFFFFFFFFFFFFFFFFFFFFFFFFFFFFFFFFFFFFFFFFFFFFFFFFF
310
FFFFFFFFFFFFFFFFFFFFFFFFFFFFFFFFFFFFFFFFFFFFFFFFF000FFFFFFFFFFFF
310
FFFFFFFFFFFFFFFFFFFFFFFFFFFFFFFFFFFFFFFFFFFFFFFFFFFFFFFFFFFFFFFF
310
FFFFFFFFFFFFFFFFFFFFFFFFFFFFFFFFFFFFFFFFFFFFFFFFFFFFFFFFFFFFFFFF
310
FFFFFFFFFFFFFFFFFFFFFFFFFFFFFFFFF000FFFFFFFFFFFFFFFFFFFFFFFFFFFF
310
FFFFFFFFFFFFFFFFFFFFFFFFFFFFFFFFFFFFFFFFFFFFFFFFFFFFFFFFFFFFFFFF
310
FFFFFFFFFFFFFFFFFFFFFFFFFFFFFFFFFFFFFFFFFFFFFFFFFFFFFFFFFFFFFFFF
310
FFFFFFFFFFFFFFFFF000FFFFFFFFFFFFFFFFFFFFFFFFFFFFFFFFFFFFFFFFFFFF
310
FFFFFFFFFFFFFFFFFFFFFFFFFFFFFFFFFFFFFFFFFFFFFFFFFFFFFFFFFFFFFFFF
310
FFFFFFFFFFFFFFFFFFFFFFFFFFFFFFFFFFFFFFFFFFFFFFFFFFFFFFFFFFFFFFFF
310
F000FFFFFFFFFFFFFFFFFFFFFFFFFFFFFFFFFFFFFFFFFFFFFFFFFFFFFFFFFFFF
310
FFFFFFFFFFFFFFFFFFFFFFFFFFFFFFFFFFFFFFFFFFFFFFFFFFFFFFFFFFFFFFFF
310
FFFFFFFFFFFFFFFFFFFFFFFFFFFFFFFFFFFFFFFFFFFFFFFFF000FFFFFFFFFFFF
310
FFFFFFFFFFFFFFFFFFFFFFFFFFFFFFFFFFFFFFFFFFFFFFFFFFFFFFFFFFFFFFFF
310
FFFFFFFFFFFFFFFFFFFFFFFFFFFFFFFFFFFFFFFFFFFFFFFFFFFFFFFFFFFFFFFF
310
FFFFFFFFFFFFFFFFFFFFFFFFFFFFFFFFF000FFFFFFFFFFFFFFFFFFFFFFFFFFFF
310
FFFFFFFFFFFFFFFFFFFFFFFFFFFFFFFFFFFFFFFFFFFFFFFFFFFFFFFFFFFFFFFF
310
FFFFFFFFFFFFFFFFFFFFFFFFFFFFFFFFFFFFFFFFFFFFFFFFFFFFFFFFFFFFFFFF
310
FFFFFFFFFFFFFFFFF000FFFFF80003FFFFFFFFFFFFFFFFFFFFFFFFFFFFFFFFFF
310
FFFFF00007FFFFFFFFFF00007FFFFFF800000000000000007FFFFFFFFFFFFFFF
310
FFFFFFFC001FFFFFFFFFFFFFFC001FFFFFFFFFFFFFFFFFFFFFFFFFFE0007FFFF
310
F000FFFF8000007FFFFFFFF8000FFFFFC0007FFFFF80007FFFFF0000007FFFFF
310
FFF8000007FFFFF800000000000000007FFFFFF0001FFFFFFFFFFFC00001FFFF
310
FFFFFFFFC00001FFFFFFFF000000000003FFFFE000007FFFF000FFFE0000000F
310
FFFFFFF0000FFFFF80007FFFFF80007FFFFC0000001FFFFFFFC0000001FFFFF8
310
00000000000000007FFFFFF0001FFFFFFFFFFE0000003FFFFFFFFFFE0000003F
310
FFFFFF000000000003FFFF0000000FFFF000FFF800000003FFFFFFF00007FFFF
310
80007FFFFF80007FFFF000000007FFFFFF000000003FFFF80000000000000000
310
7FFFFFF0001FFFFFFFFFF80000000FFFFFFFFFF80000000FFFFFFF0000000000
310
03FFFC00000003FFF000FFE000000000FFFFFFF00007FFFF80003FFFFF80007F
310
FFC000000001FFFFFC000000001FFFF800000000000000007FFFFFF0001FFFFF
310
FFFFE000000003FFFFFFFFE000000003FFFFFF000000000003FFF000000000FF
310
F000FF80000000007FFFFFF00007FFFF80003FFFFF80007FFF8000000000FFFF
310
F80000000007FFF800000000000000007FFFFFF0001FFFFFFFFFC000000001FF
310
FFFFFFC000000001FFFFFF000000000003FFC0000000007FF000FF0000000000
310
3FFFFFE00007FFFF00003FFFFF80007FFE00000000003FFFF00000000003FFF8
310
00000000000000007FFFFFF0001FFFFFFFFF8000000000FFFFFFFF8000000000
310
FFFFFF000000000003FF80000000003FF000FE00000000001FFFFFE00003FFFF
310
00003FFFFF80007FFC00000000001FFFE00000000001FFF8000001FFFE000000
310
7FFFFFF0001FFFFFFFFE00000000003FFFFFFE00000000003FFFFF0000000000
310
03FF00000000001FF000FC00000000000FFFFFE00003FFFF00001FFFFF80007F
310
F800000000001FFFC00000000000FFF8000001FFFE0000007FFFFFF0001FFFFF
310
FFFC00000000001FFFFFFC00000000001FFFFF000000000003FE00000000000F
310
F000F8000000000007FFFFE00003FFFF00001FFFFF80007FF800000000000FFF
310
800000000000FFF8000001FFFE0000007FFFFFF0001FFFFFFFF800000000000F
310
FFFFF800000000000FFFFF000000000003FC000000000007F000F80000000000
310
03FFFFC00003FFFE00001FFFFF80007FF0000000000007FF0000000000007FF8
310
000001FFFE0000007FFFFFF0001FFFFFFFF0000000000007FFFFF00000000000
310
07FFFF000000000003F8000000000003F000F0000000000003FFFFC00001FFFE
310
00001FFFFF80007FE0000000000007FE0000000000003FF8000001FFFE000000
310
7FFFFFF0001FFFFFFFF0000000000007FFFFF0000000000007FFFF0000000000
310
03F800001F800003F000E00001FFF00001FFFFC00001FFFE00000FFFFF80007F
310
E00001FFE00003FE00001FFF00003FF8000001FFFE0000007FFFFFF0001FFFFF
310
FFE000003E000003FFFFE000003E000003FFFF000000000003F00001FFF80001
310
F000E00007FFFC0001FFFFC00001FFFE00000FFFFF80007FC0000FFFFC0003FC
310
0000FFFFC0001FF8000001FFFE0000007FFFFFF0001FFFFFFFC00003FFE00001
310
FFFFC00003FFE00001FFFF0001FFFFFFFFF00007FFFE0001F000E0000FFFFF00
310
00FFFF800001FFFC00000FFFFF80007FC0001FFFFE0001FC0001FFFFE0001FF8
310
000001FFFE0000007FFFFFF0001FFFFFFF80000FFFF80000FFFF80000FFFF800
310
00FFFF0003FFFFFFFFE0000FFFFF8000F000C0003FFFFF8000FFFF800000FFFC
310
000007FFFF80007F80003FFFFF0001FC0003FFFFF0001FF8000001FFFE000000
310
7FFFFFF0001FFFFFFF80003FFFFE0000FFFF80003FFFFE0000FFFF0003FFFFFF
310
FFE0003FFFFF8000F000C0003FFFFF8000FFFF800000FFFC000007FFFF80007F
310
80007FFFFF8001F80007FFFFF8000FF8000001FFFE0000007FFFFFF0001FFFFF
310
FF00007FFFFF00007FFF00007FFFFF00007FFF0003FFFFFFFFE0003FFFFFC000
310
F000C0007FFFFFC000FFFF000000FFFC000007FFFF80007F8000FFFFFF8000F8
310
000FFFFFF8000FF8000001FFFE0000007FFFFFF0001FFFFFFF0000FFFFFF8000
310
7FFF0000FFFFFF80007FFF0003FFFFFFFFC0007FFFFFC00070008000FFFFFFC0
310
00FFFF000000FFF8000007FFFF80007F8000FFFFFF8000F8000FFFFFF8000FF8
310
000001FFFE0000007FFFFFF0001FFFFFFE0001FFFFFFC0003FFE0001FFFFFFC0
310
003FFF0003FFFFFFFFC0007FFFFFE00070008000FFFFFFC0007FFF0000007FF8
310
000003FFFF80007F0001FFFFFF8000F8000FFFFFF8000FF8000001FFFE000000
310
7FFFFFF0001FFFFFFE0001FFFFFFC0003FFE0001FFFFFFC0003FFF0003FFFFFF
310
FFC000FFFFFFE00070008000FFFFFFC0007FFF0000007FF8000003FFFF80007F
310
0001FFFFFF8000F8001FFFFFF8000FF8000001FFFE0000007FFFFFF0001FFFFF
310
FE0003FFFFFFE0003FFE0003FFFFFFE0003FFF0003FFFFFFFFC000FFFFFFE000
310
70008000FFFFFFC0007FFE0000007FF8000003FFFF80007F0001FFFFFF8000F0
310
001FFFFFF8000FF8000001FFFE0000007FFFFFF0001FFFFFFC0003FFFFFFE000
310
1FFC0003FFFFFFE0001FFF0003FFFFFFFFC000FFFFFFC00070008000FFFFFF80
310
007FFE0000007FF0000003FFFF80007F0001FFFFFF0000F0001FFFFFF8000FF8
310
000001FFFE0000007FFFFFF0001FFFFFFC0007FFFFFFF0001FFC0007FFFFFFF0
310
001FFF0003FFFFFFFFC000FFFFFFC00070008001FFFFFF0000FFFE0000003FF0
310
000001FFFF80007F0001FFFFFF0000F8001FFFFFF0000FF8000001FFFE000000
310
7FFFFFF0001FFFFFFC0007FFFFFFF0001FFC0007FFFFFFF0001FFF0003FFFFFF
310
FFC001FFFFFF80007000FFFFFFFFFE0000FFFE0008003FF0008001FFFF80007F
310
FFFFFFFFFC0000FFFFFFFFFFE0000FF8000001FFFE0000007FFFFFF0001FFFFF
310
F8000FFFFFFFF8000FF8000FFFFFFFF8000FFF0003FFFFFFFFFFFFFFFFFF0000
310
7000FFFFFFFFFC0000FFFC0008003FF0008001FFFF80007FFFFFFFFFF80001FF
310
FFFFFFFF80000FF8000001FFFE0000007FFFFFF0001FFFFFF8000FFFFFFFF800
310
0FF8000FFFFFFFF8000FFF0003FFFFFFFFFFFFFFFFFE0000F000FFFFFFFFE000
310
00FFFC000C003FE000C001FFFF80007FFFFFFFFFC00001FFFFFFFFFE00001FF8
310
000001FFFE0000007FFFFFF0001FFFFFF8000FFFFFFFF8000FF8000FFFFFFFF8
310
000FFF0003FFFFFFFFFFFFFFFFF00000F000FFFFFFFE000001FFFC000C001FE0
310
00C000FFFF80007FFFFFFFFE000001FFFFFFFFE000001FF80FFFFFFFFFFFFFC0
310
7FFFFFF0001FFFFFF8000FFFFFFFF8000FF8000FFFFFFFF8000FFF0003FFFFFF
310
FFFFFFFFFF800000F000FFFFFFC0000001FFFC001C001FE001C000FFFF80007F
310
FFFFFF80000003FFFFFFF80000001FF80FFFFFFFFFFFFFC07FFFFFF0001FFFFF
310
F8001FFFFFFFFC000FF8001FFFFFFFFC000FFF0003FFFFFFFFFFFFFFF0000001
310
F000FFFFF800000001FFF8001C001FE001C000FFFF80007FFFFFF800000003FF
310
FFFF800000003FF80FFFFFFFFFFFFFC07FFFFFF0001FFFFFF8001FFFFFFFFC00
310
0FF8001FFFFFFFFC000FFF0003FFFFFFFFFFFFFE00000001F000FFFFC0000000
310
03FFF8001E001FC001E000FFFF80007FFFFF8000000007FFFFFC000000003FF8
310
0FFFFFFFFFFFFFC07FFFFFF0001FFFFFF8001FFFFFFFFC000FF8001FFFFFFFFC
310
000FFF0003FFFFFFFFFFFFE000000003F000FFFE0000000007FFF8001E000FC0
310
01E0007FFF80007FFFFE0000000007FFFFE0000000007FF80FFFFFFFFFFFFFC0
310
7FFFFFF0001FFFFFF0001FFFFFFFFC0007F0001FFFFFFFFC0007FF0003FFFFFF
310
FFFFFF0000000003F000FFF80000000007FFF8001E000FC003E0007FFF80007F
310
FFF0000000000FFFFF8000000000FFF80FFFFFFFFFFFFFC07FFFFFF0001FFFFF
310
F0001FFFFFFFFC0007F0001FFFFFFFFC0007FF0003FFFFFFFFFFFC0000000007
310
F000FFE0000000000FFFF0003E000FC003E0007FFF80007FFFC0000000001FFF
310
FE0000000001FFF80FFFFFFFFFFFFFC07FFFFFF0001FFFFFF0001FFFFFFFFC00
310
07F0001FFFFFFFFC0007FF0003FFFFFFFFFFF0000000000FF000FFC000000000
310
1FFFF0003F000F8003F0003FFF80007FFF80000000003FFFF80000000003FFF8
310
0FFFFFFFFFFFFFC07FFFFFF0001FFFFFF0001FFFFFFFFC0007F0001FFFFFFFFC
310
0007FF0003FFFFFFFFFFE0000000001FF000FF00000000007FFFF0003F000780
310
03F0003FFF80007FFF00000000007FFFF00000000007FFF80FFFFFFFFFFFFFC0
310
7FFFFFF0001FFFFFF0001FFFFFFFFC0007F0001FFFFFFFFC0007FF0003FFFFFF
310
FFFF80000000007FF000FE0000000000FFFFE0003F00078007F0003FFF80007F
310
FE0000000001FFFFE0000000001FFFF80FFFFFFFFFFFFFC07FFFFFF0001FFFFF
310
F0001FFFFFFFFC0007F0001FFFFFFFFC0007FF0003FFFFFFFFFF0000000000FF
310
F000FC0000000003FFFFE0007F00078007F0003FFF80007FFC0000000007FFFF
310
C0000000007FFFF80FFFFFFFFFFFFFC07FFFFFF0001FFFFFF8001FFFFFFFFC00
310
0FF8001FFFFFFFFC000FFF0003FFFFFFFFFE0000000003FFF000FC000000000F
310
FFFFE0007F80070007F8001FFF80007FF8000000001FFFFF8000000001FFFFF8
310
0FFFFFFFFFFFFFC07FFFFFF0001FFFFFF8001FFFFFFFFC000FF8001FFFFFFFFC
310
000FFF0003FFFFFFFFFC000000000FFFF000F8000000007FFFFFE0007F800700
310
07F8001FFF80007FF000000000FFFFFF800000000FFFFFF80FFFFFFFFFFFFFC0
310
7FFFFFF0001FFFFFF8000FFFFFFFF8000FF8000FFFFFFFF8000FFF0003FFFFFF
310
FFFC000000007FFFF000F800000007FFFFFFC0007F8003000FF8001FFF80007F
310
F000000007FFFFFF000000007FFFFFF80FFFFFFFFFFFFFC07FFFFFF0001FFFFF
310
F8000FFFFFFFF8000FF8000FFFFFFFF8000FFF0003FFFFFFFFF80000000FFFFF
310
F000F0000000FFFFFFFFC000FF8003000FF8001FFF80007FE0000000FFFFFFFF
310
0000000FFFFFFFF8000001FFFE0000007FFFFFF0001FFFFFF8000FFFFFFFF800
310
0FF8000FFFFFFFF8000FFF0003FFFFFFFFF8000000FFFFFFF000F000000FFFFF
310
FFFFC000FFC002000FF8000FFF80007FE000001FFFFFFFFE000001FFFFFFFFF8
310
000001FFFE0000007FFFFFF0001FFFFFF8000FFFFFFFF8000FF8000FFFFFFFF8
310
000FFF0003FFFFFFFFF000001FFFFFFFF000E00000FFFFFFFFFFC000FFC00200
310
0FFC000FFF80007FE00001FFFFFFFFFE00001FFFFFFFFFF8000001FFFE000000
310
7FFFFFF0001FFFFFFC000FFFFFFFF8001FFC000FFFFFFFF8001FFF0003FFFFFF
310
FFF00001FFFFFFFFF000E00007FFFFFFFFFF8000FFC000001FFC000FFF80007F
310
C0000FFFFFFFFFFE0000FFFFFFFFFFF8000001FFFE0000007FFFFFF0001FFFFF
310
FC0007FFFFFFF0001FFC0007FFFFFFF0001FFF0003FFFFFFFFF00007FFFFFFFF
310
F000E0001FFFFFFFFFFF8000FFC000001FFC000FFF80007FC0003FFFFFFFFFFE
310
0001FFFFFFFFFFF8000001FFFE0000007FFFFFF0001FFFFFFC0007FFFFFFF000
310
1FFC0007FFFFFFF0001FFF0003FFFFFFFFF0001FFFFFFFFFF000E0003FFFFF00
310
03FF8001FFE000001FFC0007FF80007FC0007FFFFF0007FC0003FFFFF0003FF8
310
000001FFFE0000007FFFFFF0001FFFFFFC0003FFFFFFE0001FFC0003FFFFFFE0
310
001FFF0003FFFFFFFFF0003FFFFFFFFFF000E0003FFFFF0001FF8001FFE00000
310
1FFE0007FF80007FC0007FFFFE0003FC0007FFFFE0003FF8000001FFFE000000
310
7FFFFFF0001FFFFFFE0003FFFFFFE0003FFE0003FFFFFFE0003FFF0003FFFFFF
310
FFF0003FFFFF8001F000E0003FFFFF0001FF0001FFE000001FFE0007FF80007F
310
C0007FFFFE0003FC0007FFFFE0003FF8000001FFFE0000007FFFFFF0001FFFFF
310
FE0001FFFFFFC0003FFE0001FFFFFFC0003FFF0003FFFFFFFFF0003FFFFF0001
310
F000E0003FFFFF0003FF0001FFE000003FFE0007FF80007FC0007FFFFE0003FC
310
0007FFFFE0003FF8000001FFFE0000007FFFFFF0001FFFFFFF0001FFFFFFC000
310
7FFF0001FFFFFFC0007FFF0003FFFFFFFFF0003FFFFF0001F000E0003FFFFE00
310
03FF0003FFF000003FFE0003FF80007FC0007FFFFC0003FE0007FFFFE0003FF8
310
000001FFFE0000007FFFFFF0001FFFFFFF0000FFFFFF80007FFF0000FFFFFF80
310
007FFF0003FFFFFFFFF0003FFFFF0001F000E0003FFFFE0003FF0003FFF00000
310
3FFF0003FF80007FC0007FFFFC0007FE0007FFFFC0003FF8000001FFFE000000
310
7FFFFFF0001FFFFFFF80007FFFFF0000FFFF80007FFFFF0000FFFF0003FFFFFF
310
FFF0003FFFFF0003F000E0003FFFFC0003FE0003FFF000003FFF0003FF80007F
310
E0003FFFF80007FE0003FFFFC0007FF8000001FFFE0000007FFFFFF0001FFFFF
310
FF80003FFFFE0000FFFF80003FFFFE0000FFFF0003FFFFFFFFF0001FFFFE0003
310
F000F0001FFFF80003FE0003FFF000007FFF0001FF80007FE0003FFFF00007FE
310
0001FFFF80007FF8000001FFFE0000007FFFFFF0001FFFFFFFC0000FFFF80001
310
FFFFC0000FFFF80001FFFF0003FFFFFFFFF0001FFFFC0003F000F0000FFFF000
310
07FE0007FFF800007FFF0001FF80007FE0001FFFE00007FF0000FFFE00007FF8
310
000001FFFE0000007FFFFFF0001FFFFFFFC00003FFE00001FFFFC00003FFE000
310
01FFFF0003FFFFFFFFF8000FFFF80003F000F00003FFC00007FC0007FFF80000
310
7FFF8001FF80007FF00007FF80000FFF00007FF80000FFF8000001FFFE000000
310
7F80000000000001FFE000003E000003FFFFE000003E000003FFFF0003FFFFFF
310
FFF80003FFE00007F000F800000000000FFC0007FFF800007FFF8001FF80007F
310
F000000000000FFF000000000000FFF8000001FFFE0000007F80000000000001
310
FFF0000000000007FFFFF0000000000007FFFF0003FFFFFFFFFC00007E000007
310
F000F800000000000FFC0007FFF80000FFFF8000FF80007FF800000000001FFF
310
800000000001FFF8000001FFFE0000007F80000000000001FFF800000000000F
310
FFFFF800000000000FFFFF0003FFFFFFFFFC00000000000FF000FC0000000000
310
1FFC0007FFFC0000FFFF8000FF80007FF800000000003FFFC00000000001FFF8
310
000001FFFE0000007F80000000000001FFF800000000000FFFFFF80000000000
310
0FFFFF0003FFFFFFFFFE00000000001FF000FE00000000003FF8000FFFFC0000
310
FFFF8000FF80007FFC00000000003FFFC00000000003FFF8000001FFFE000000
310
7F80000000000001FFFC00000000001FFFFFFC00000000001FFFFF0003FFFFFF
310
FFFF00000000001FF000FF00000000003FF8000FFFFC0000FFFFC000FF80007F
310
FE00000000007FFFE00000000007FFF8000001FFFE0000007F80000000000001
310
FFFE00000000003FFFFFFE00000000003FFFFF0003FFFFFFFFFF80000000003F
310
F000FF80000000007FF8000FFFFC0001FFFFC0007F80007FFF0000000000FFFF
310
F0000000000FFFF800000000000000007F80000000000001FFFF8000000000FF
310
FFFFFF8000000000FFFFFF0003FFFFFFFFFFC0000000007FF000FFC000000000
310
FFF8000FFFFE0001FFFFC0007F80007FFF8000000001FFFFF8000000001FFFF8
310
00000000000000007F80000000000001FFFFC000000001FFFFFFFFC000000001
310
FFFFFF0003FFFFFFFFFFE000000000FFF000FFE000000003FFF0001FFFFE0001
310
FFFFC0007F80007FFFC000000007FFFFFE000000003FFFF80000000000000000
310
7F80000000000001FFFFE000000003FFFFFFFFE000000003FFFFFF0003FFFFFF
310
FFFFF000000003FFF000FFF80000000FFFF0001FFFFE0001FFFFE0007F80007F
310
FFF00000000FFFFFFF00000000FFFFF800000000000000007F80000000000001
310
FFFFF80000000FFFFFFFFFF80000000FFFFFFF0003FFFFFFFFFFFC0000000FFF
310
F000FFFE0000003FFFF0001FFFFE0003FFFFE0003F80007FFFFC0000003FFFFF
310
FFC0000003FFFFF800000000000000007F80000000000001FFFFFE0000003FFF
310
FFFFFFFE0000003FFFFFFF0003FFFFFFFFFFFF0000003FFFF000FFFF800000FF
310
FFF0001FFFFF0003FFFFE0003F80007FFFFF000001FFFFFFFFF800001FFFFFF8
310
00000000000000007F80000000000001FFFFFFC00001FFFFFFFFFFFFC00001FF
310
FFFFFF0003FFFFFFFFFFFFC00000FFFFF000FFFFF8000FFFFFFFFFFFFFFFFFFF
310
FFFFFFFFFFFFFFFFFFFFF0001FFFFFFFFFFF0000FFFFFFF80000000000000000
310
7FFFFFFFFFFFFFFFFFFFFFFC001FFFFFFFFFFFFFFC001FFFFFFFFFFFFFFFFFFF
310
FFFFFFFC001FFFFFF000FFFFFFFFFFFFFFFFFFFFFFFFFFFFFFFFFFFFFFFFFFFF
310
FFFFFFFFFFFFFFFFFFFFFFFFFFFFFFFFFFFFFFFFFFFFFFFFFFFFFFFFFFFFFFFF
310
FFFFFFFFFFFFFFFFFFFFFFFFFFFFFFFFFFFFFFFFFFFFFFFFFFFFFFFFFFFFFFFF
310
F000FFFFFFFFFFFFFFFFFFFFFFFFFFFFFFFFFFFFFFFFFFFFFFFFFFFFFFFFFFFF
310
FFFFFFFFFFFFFFFFFFFFFFFFFFFFFFFFFFFFFFFFFFFFFFFFFFFFFFFFFFFFFFFF
310
FFFFFFFFFFFFFFFFFFFFFFFFFFFFFFFFFFFFFFFFFFFFFFFFF000FFFFFFFFFFFF
310
FFFFFFFFFFFFFFFFFFFFFFFFFFFFFFFFFFFFFFFFFFFFFFFFFFFFFFFFFFFFFFFF
310
FFFFFFFFFFFFFFFFFFFFFFFFFFFFFFFFFFFFFFFFFFFFFFFFFFFFFFFFFFFFFFFF
310
FFFFFFFFFFFFFFFFFFFFFFFFFFFFFFFFF000FFFFFFFFFFFFFFFFFFFFFFFFFFFF
310
FFFFFFFFFFFFFFFFFFFFFFFFFFFFFFFFFFFFFFFFFFFFFFFFFFFFFFFFFFFFFFFF
310
FFFFFFFFFFFFFFFFFFFFFFFFFFFFFFFFFFFFFFFFFFFFFFFFFFFFFFFFFFFFFFFF
310
FFFFFFFFFFFFFFFFF000FFFFFFFFFFFFFFFFFFFFFFFFFFFFFFFFFFFFFFFFFFFF
310
FFFFFFFFFFFFFFFFFFFFFFFFFFFFFFFFFFFFFFFFFFFFFFFFFFFFFFFFFFFFFFFF
310
FFFFFFFFFFFFFFFFFFFFFFFFFFFFFFFFFFFFFFFFFFFFFFFFFFFFFFFFFFFFFFFF
310
F000FFFFFFFFFFFFFFFFFFFFFFFFFFFFFFFFFFFFFFFFFFFFFFFFFFFFFFFFFFFF
310
FFFFFFFFFFFFFFFFFFFFFFFFFFFFFFFFFFFFFFFFFFFFFFFFFFFFFFFFFFFFFFFF
310
FFFFFFFFFFFFFFFFFFFFFFFFFFFFFFFFFFFFFFFFFFFFFFFFF000FFFFFFFFFFFF
310
FFFFFFFFFFFFFFFFFFFFFFFFFFFFFFFFFFFFFFFFFFFFFFFFFFFFFFFFFFFFFFFF
310
FFFFFFFFFFFFFFFFFFFFFFFFFFFFFFFFFFFFFFFFFFFFFFFFFFFFFFFFFFFFFFFF
310
FFFFFFFFFFFFFFFFFFFFFFFFFFFFFFFFF000FFFFFFFFFFFFFFFFFFFFFFFFFFFF
310
FFFFFFFFFFFFFFFFFFFFFFFFFFFFFFFFFFFFFFFFFFFFFFFFFFFFFFFFFFFFFFFF
310
FFFFFFFFFFFFFFFFFFFFFFFFFFFFFFFFFFFFFFFFFFFFFFFFFFFFFFFFFFFFFFFF
310
FFFFFFFFFFFFFFFFF000FFFFFFFFFFFFFFFFFFFFFFFFFFFFFFFFFFFFFFFFFFFF
310
FFFFFFFFFFFFFFFFFFFFFFFFFFFFFFFFFFFFFFFFFFFFFFFFFFFFFFFFFFFFFFFF
310
FFFFFFFFFFFFFFFFFFFFFFFFFFFFFFFFFFFFFFFFFFFFFFFFFFFFFFFFFFFFFFFF
310
F000FFFFFFFFFFFFFFFFFFFFFFFFFFFFFFFFFFFFFFFFFFFFFFFFFFFFFFFFFFFF
310
FFFFFFFFFFFFFFFFFFFFFFFFFFFFFFFFFFFFFFFFFFFFFFFFFFFFFFFFFFFFFFFF
310
FFFFFFFFFFFFFFFFFFFFFFFFFFFFFFFFFFFFFFFFFFFFFFFFF000FFFFFFFFFFFF
310
FFFFFFFFFFFFFFFFFFFFFFFFFFFFFFFFFFFFFFFFFFFFFFFFFFFFFFFFFFFFFFFF
310
FFFFFFFFFFFFFFFFFFFFFFFFFFFFFFFFFFFFFFFFFFFFFFFFFFFFFFFFFFFFFFFF
310
FFFFFFFFFFFFFFFFFFFFFFFFFFFFFFFFF000FFFFFFFFFFFFFFFFFFFFFFFFFFFF
310
FFFFFFFFFFFFFFFFFFFFFFFFFFFFFFFFFFFFFFFFFFFFFFFFFFFFFFFFFFFFFFFF
310
FFFFFFFFFFFFFFFFFFFFFFFFFFFFFFFFFFFFFFFFFFFFFFFFFFFFFFFFFFFFFFFF
310
FFFFFFFFFFFFFFFFF000FFFFFFFFFFFFFFFFFFFFFFFFFFFFFFFFFFFFFFFFFFFF
310
FFFFFFFFFFFFFFFFFFFFFFFFFFFFFFFFFFFFFFFFFFFFFFFFFFFFFFFFFFFFFFFF
310
FFFFFFFFFFFFFFFFFFFFFFFFFFFFFFFFFFFFFFFFFFFFFFFFFFFFFFFFFFFFFFFF
310
F000FFFFFFFFFFFFFFFFFFFFFFFFFFFFFFFFFFFFFFFFFFFFFFFFFFFFFFFFFFFF
310
FFFFFFFFFFFFFFFFFFFFFFFFFFFFFFFFFFFFFFFFFFFFFFFFFFFFFFFFFFFFFFFF
310
FFFFFFFFFFFFFFFFFFFFFFFFFFFFFFFFFFFFFFFFFFFFFFFFF000FFFFFFFFFFFF
310
FFFFFFFFFFFFFFFFFFFFFFFFFFFFFFFFFFFFFFFFFFFFFFFFFFFFFFFFFFFFFFFF
310
FFFFFFFFFFFFFFFFFFFFFFFFFFFFFFFFFFFFFFFFFFFFFFFFFFFFFFFFFFFFFFFF
310
FFFFFFFFFFFFFFFFFFFFFFFFFFFFFFFFF000FFFFFFFFFFFFFFFFFFFFFFFFFFFF
310
FFFFFFFFFFFFFFFFFFFFFFFFFFFFFFFFFFFFFFFFFFFFFFFFFFFFFFFFFFFFFFFF
310
FFFFFFFFFFFFFFFFFFFFFFFFFFFFFFFFFFFFFFFFFFFFFFFFFFFFFFFFFFFFFFFF
310
FFFFFFFFFFFFFFFFF000FFFFFFFFFFFFFFFFFFFFFFFFFFFFFFFFFFFFFFFFFFFF
310
FFFFFFFFFFFFFFFFFFFFFFFFFFFFFFFFFFFFFFFFFFFFFFFFFFFFFFFFFFFFFFFF
310
FFFFFFFFFFFFFFFFFFFFFFFFFFFFFFFFFFFFFFFFFFFFFFFFFFFFFFFFFFFFFFFF
310
F000FFFFFFFFFFFFFFFFFFFFFFFFFFFFFFFFFFFFFFFFFFFFFFFFFFFFFFFFFFFF
310
FFFFFFFFFFFFFFFFFFFFFFFFFFFFFFFFFFFFFFFFFFFFFFFFFFFFFFFFFFFFFFFF
310
FFFFFFFFFFFFFFFFFFFFFFFFFFFFFFFFFFFFFFFFFFFFFFFFF000FFFFFFFFFFFF
310
FFFFFFFFFFFFFFFFFFFFFFFFFFFFFFFFFFFFFFFFFFFFFFFFFFFFFFFFFFFFFFFF
310
FFFFFFFFFFFFFFFFFFFFFFFFFFFFFFFFFFFFFFFFFFFFFFFFFFFFFFFFFFFFFFFF
310
FFFFFFFFFFFFFFFFFFFFFFFFFFFFFFFFF000FFFFFFFFFFFFFFFFFFFFFFFFFFFF
310
FFFFFFFFFFFFFFFFFFFFFFFFFFFFFFFFFFFFFFFFFFFFFFFFFFFFFFFFFFFFFFFF
310
FFFFFFFFFFFFFFFFFFFFFFFFFFFFFFFFFFFFFFFFFFFFFFFFFFFFFFFFFFFFFFFF
310
FFFFFFFFFFFFFFFFF000FFFFFFFFFFFFFFFFFFFFFFFFFFFFFFFFFFFFFFFFFFFF
310
FFFFFFFFFFFFFFFFFFFFFFFFFFFFFFFFFFFFFFFFFFFFFFFFFFFFFFFFFFFFFFFF
310
FFFFFFFFFFFFFFFFFFFFFFFFFFFFFFFFFFFFFFFFFFFFFFFFFFFFFFFFFFFFFFFF
310
F000FFFFFFFFFFFFFFFFFFFFFFFFFFFFFFFFFFFFFFFFFFFFFFFFFFFFFFFFFFFF
310
FFFFFFFFFFFFFFFFFFFFFFFFFFFFFFFFFFFFFFFFFFFFFFFFFFFFFFFFFFFFFFFF
310
FFFFFFFFFFFFFFFFFFFFFFFFFFFFFFFFFFFFFFFFFFFFFFFFF000FFFFFFFFFFFF
310
FFFFFFFFFFFFFFFFFFFFFFFFFFFFFFFFFFFFFFFFFFFFFFFFFFFFFFFFFFFFFFFF
310
FFFFFFFFFFFFFFFFFFFFFFFFFFFFFFFFFFFFFFFFFFFFFFFFFFFFFFFFFFFFFFFF
310
FFFFFFFFFFFFFFFFFFFFFFFFFFFFFFFFF0000000000000000000000000000000
310
0000000000000000000000000000000000000000000000000000000000000000
310
0000000000000000000000000000000000000000000000000000000000000000
310
0000000000000000000000000000000000000000000000000000000000000000
310
0000000000000000000000000000000000000000000000000000000000000000
310
0000000000000000000000000000000000000000000000000000000000000000
310
0000000000000000000000000000000000000000000000000000000000000000
310
0000000000000000000000000000000000000000000000000000000000000000
310
0000000000000000000000000000000000000000000000000000000000000000
310
0000000000000000000000000000000000000000000000000000000000000000
310
0000000000000000000000000000000000000000000000000000000000000000
310
0000000000000000000000000000000000000000000000000000000000000000
310
0000000000000000000000000000000000000000000000000000000000000000
310
0000000000000000000000000000000000000000000000000000000000000000
310
0000000000000000000000000000000000000000000000000000000000000000
310
0000000000000000000000000000000000000000000000000000000000000000
  1
OLE
  0
ENDSEC
  0
SECTION
  2
OBJECTS
  0
DICTIONARY
  5
C
330
0
100
AcDbDictionary
281
     1
  3
ACAD_GROUP
350
D
  3
ACAD_LAYOUT
350
1A
  3
ACAD_MLINESTYLE
350
17
  3
ACAD_PLOTSETTINGS
350
19
  3
ACAD_PLOTSTYLENAME
350
E
  0
DICTIONARY
  5
D
102
{ACAD_REACTORS
330
C
102
}
330
C
100
AcDbDictionary
281
     1
  0
DICTIONARY
  5
1A
102
{ACAD_REACTORS
330
C
102
}
330
C
100
AcDbDictionary
281
     1
  3
Layout1
350
1E
  3
Layout2
350
26
  3
Model
350
22
  0
DICTIONARY
  5
17
102
{ACAD_REACTORS
330
C
102
}
330
C
100
AcDbDictionary
281
     1
  3
Standard
350
18
  0
DICTIONARY
  5
19
102
{ACAD_REACTORS
330
C
102
}
330
C
100
AcDbDictionary
281
     1
  0
ACDBDICTIONARYWDFLT
  5
E
102
{ACAD_REACTORS
330
C
102
}
330
C
100
AcDbDictionary
281
     1
  3
Normal
350
F
100
AcDbDictionaryWithDefault
340
F
  0
LAYOUT
  5
1E
102
{ACAD_REACTORS
330
1A
102
}
330
1A
100
AcDbPlotSettings
  1

  2
none_device
  4

  6

 40
0.0
 41
0.0
 42
0.0
 43
0.0
 44
0.0
 45
0.0
 46
0.0
 47
0.0
 48
0.0
 49
0.0
140
0.0
141
0.0
142
1.0
143
1.0
 70
   688
 72
     0
 73
     0
 74
     5
  7

 75
    16
147
1.0
148
0.0
149
0.0
100
AcDbLayout
  1
Layout1
 70
     1
 71
     1
 10
0.0
 20
0.0
 11
420.0
 21
297.0
 12
0.0
 22
0.0
 32
0.0
 14
1.0000000000E+20
 24
1.0000000000E+20
 34
1.0000000000E+20
 15
-1.0000000000E+20
 25
-1.0000000000E+20
 35
-1.0000000000E+20
146
0.0
 13
0.0
 23
0.0
 33
0.0
 16
1.0
 26
0.0
 36
0.0
 17
0.0
 27
1.0
 37
0.0
 76
     0
330
1B
  0
LAYOUT
  5
26
102
{ACAD_REACTORS
330
1A
102
}
330
1A
100
AcDbPlotSettings
  1

  2
none_device
  4

  6

 40
0.0
 41
0.0
 42
0.0
 43
0.0
 44
0.0
 45
0.0
 46
0.0
 47
0.0
 48
0.0
 49
0.0
140
0.0
141
0.0
142
1.0
143
1.0
 70
   688
 72
     0
 73
     0
 74
     5
  7

 75
    16
147
1.0
148
0.0
149
0.0
100
AcDbLayout
  1
Layout2
 70
     1
 71
     2
 10
0.0
 20
0.0
 11
0.0
 21
0.0
 12
0.0
 22
0.0
 32
0.0
 14
0.0
 24
0.0
 34
0.0
 15
0.0
 25
0.0
 35
0.0
146
0.0
 13
0.0
 23
0.0
 33
0.0
 16
1.0
 26
0.0
 36
0.0
 17
0.0
 27
1.0
 37
0.0
 76
     0
330
23
  0
LAYOUT
  5
22
102
{ACAD_REACTORS
330
1A
102
}
330
1A
100
AcDbPlotSettings
  1

  2
none_device
  4

  6

 40
0.0
 41
0.0
 42
0.0
 43
0.0
 44
0.0
 45
0.0
 46
0.0
 47
0.0
 48
0.0
 49
0.0
140
0.0
141
0.0
142
1.0
143
1.0
 70
  1712
 72
     0
 73
     0
 74
     0
  7

 75
     0
147
1.0
148
0.0
149
0.0
100
AcDbLayout
  1
Model
 70
     1
 71
     0
 10
0.0
 20
0.0
 11
297.0
 21
210.0
 12
0.0
 22
0.0
 32
0.0
 14
0.0
 24
0.0
 34
0.0
 15
297.0
 25
210.0
 35
0.0
146
0.0
 13
0.0
 23
0.0
 33
0.0
 16
1.0
 26
0.0
 36
0.0
 17
0.0
 27
1.0
 37
0.0
 76
     0
330
1F
331
29
  0
MLINESTYLE
  5
18
102
{ACAD_REACTORS
330
17
102
}
330
17
100
AcDbMlineStyle
  2
Standard
 70
     0
  3

 62
   256
 51
90.0
 52
90.0
 71
     2
 49
0.5
 62
   256
  6
BYLAYER
 49
-0.5
 62
   256
  6
BYLAYER
  0
ACDBPLACEHOLDER
  5
F
102
{ACAD_REACTORS
330
E
102
}
330
E
  0
ENDSEC
  0
EOF
