  0
SECTION
  2
HEADER
  9
$ACADVER
  1
AC1015
  9
$ACADMAINTVER
 70
     6
  9
$DWGCODEPAGE
  3
ANSI_1252
  9
$INSBASE
 10
0.0
 20
0.0
 30
0.0
  9
$EXTMIN
 10
0.0
 20
0.0
 30
0.0
  9
$EXTMAX
 10
297.0
 20
210.0
 30
0.0
  9
$LIMMIN
 10
0.0
 20
0.0
  9
$LIMMAX
 10
297.0
 20
210.0
  9
$ORTHOMODE
 70
     0
  9
$REGENMODE
 70
     1
  9
$FILLMODE
 70
     1
  9
$QTEXTMODE
 70
     0
  9
$MIRRTEXT
 70
     1
  9
$LTSCALE
 40
1.0
  9
$ATTMODE
 70
     1
  9
$TEXTSIZE
 40
2.0
  9
$TRACEWID
 40
1.0
  9
$TEXTSTYLE
  7
Standard
  9
$CLAYER
  8
0
  9
$CELTYPE
  6
ByLayer
  9
$CECOLOR
 62
   256
  9
$CELTSCALE
 40
1.0
  9
$DISPSILH
 70
     0
  9
$DIMSCALE
 40
1.0
  9
$DIMASZ
 40
3.0
  9
$DIMEXO
 40
0.0
  9
$DIMDLI
 40
3.75
  9
$DIMRND
 40
0.0
  9
$DIMDLE
 40
0.0
  9
$DIMEXE
 40
1.0
  9
$DIMTP
 40
0.0
  9
$DIMTM
 40
0.0
  9
$DIMTXT
 40
2.0
  9
$DIMCEN
 40
2.5
  9
$DIMTSZ
 40
0.0
  9
$DIMTOL
 70
     0
  9
$DIMLIM
 70
     0
  9
$DIMTIH
 70
     1
  9
$DIMTOH
 70
     1
  9
$DIMSE1
 70
     0
  9
$DIMSE2
 70
     0
  9
$DIMTAD
 70
     1
  9
$DIMZIN
 70
     0
  9
$DIMBLK
  1

  9
$DIMASO
 70
     1
  9
$DIMSHO
 70
     1
  9
$DIMPOST
  1

  9
$DIMAPOST
  1

  9
$DIMALT
 70
     0
  9
$DIMALTD
 70
     3
  9
$DIMALTF
 40
0.0393700787
  9
$DIMLFAC
 40
1.0
  9
$DIMTOFL
 70
     1
  9
$DIMTVP
 40
0.0
  9
$DIMTIX
 70
     0
  9
$DIMSOXD
 70
     0
  9
$DIMSAH
 70
     0
  9
$DIMBLK1
  1

  9
$DIMBLK2
  1

  9
$DIMSTYLE
  2
ISO-25
  9
$DIMCLRD
 70
     0
  9
$DIMCLRE
 70
     0
  9
$DIMCLRT
 70
     0
  9
$DIMTFAC
 40
1.0
  9
$DIMGAP
 40
1.524
  9
$DIMJUST
 70
     0
  9
$DIMSD1
 70
     0
  9
$DIMSD2
 70
     0
  9
$DIMTOLJ
 70
     0
  9
$DIMTZIN
 70
     0
  9
$DIMALTZ
 70
     0
  9
$DIMALTTZ
 70
     0
  9
$DIMUPT
 70
     0
  9
$DIMDEC
 70
     2
  9
$DIMTDEC
 70
     3
  9
$DIMALTU
 70
     2
  9
$DIMALTTD
 70
     3
  9
$DIMTXSTY
  7
Standard
  9
$DIMAUNIT
 70
     0
  9
$DIMADEC
 70
     2
  9
$DIMALTRND
 40
0.0
  9
$DIMAZIN
 70
     0
  9
$DIMDSEP
 70
    44
  9
$DIMATFIT
 70
     3
  9
$DIMFRAC
 70
     0
  9
$DIMLDRBLK
  1

  9
$DIMLUNIT
 70
     2
  9
$DIMLWD
 70
    -2
  9
$DIMLWE
 70
    -2
  9
$DIMTMOVE
 70
     0
  9
$LUNITS
 70
     2
  9
$LUPREC
 70
     2
  9
$SKETCHINC
 40
1.0
  9
$FILLETRAD
 40
10.0
  9
$AUNITS
 70
     0
  9
$AUPREC
 70
     2
  9
$MENU
  1
.
  9
$ELEVATION
 40
0.0
  9
$PELEVATION
 40
0.0
  9
$THICKNESS
 40
0.0
  9
$LIMCHECK
 70
     0
  9
$CHAMFERA
 40
10.0
  9
$CHAMFERB
 40
10.0
  9
$CHAMFERC
 40
20.0
  9
$CHAMFERD
 40
0.0
  9
$SKPOLY
 70
     0
  9
$TDCREATE
 40
2456036.402961956
  9
$TDUCREATE
 40
2456036.319628623
  9
$TDUPDATE
 40
2456036.402963403
  9
$TDUUPDATE
 40
2456036.31963007
  9
$TDINDWG
 40
0.0000000116
  9
$TDUSRTIMER
 40
0.0000000116
  9
$USRTIMER
 70
     1
  9
$ANGBASE
 50
0.0
  9
$ANGDIR
 70
     0
  9
$PDMODE
 70
     0
  9
$PDSIZE
 40
-1.0
  9
$PLINEWID
 40
0.0
  9
$SPLFRAME
 70
     0
  9
$SPLINETYPE
 70
     6
  9
$SPLINESEGS
 70
     8
  9
$HANDSEED
  5
2EA
  9
$SURFTAB1
 70
     6
  9
$SURFTAB2
 70
     6
  9
$SURFTYPE
 70
     6
  9
$SURFU
 70
     6
  9
$SURFV
 70
     6
  9
$UCSBASE
  2

  9
$UCSNAME
  2

  9
$UCSORG
 10
0.0
 20
0.0
 30
0.0
  9
$UCSXDIR
 10
1.0
 20
0.0
 30
0.0
  9
$UCSYDIR
 10
0.0
 20
1.0
 30
0.0
  9
$UCSORTHOREF
  2

  9
$UCSORTHOVIEW
 70
     0
  9
$UCSORGTOP
 10
0.0
 20
0.0
 30
0.0
  9
$UCSORGBOTTOM
 10
0.0
 20
0.0
 30
0.0
  9
$UCSORGLEFT
 10
0.0
 20
0.0
 30
0.0
  9
$UCSORGRIGHT
 10
0.0
 20
0.0
 30
0.0
  9
$UCSORGFRONT
 10
0.0
 20
0.0
 30
0.0
  9
$UCSORGBACK
 10
0.0
 20
0.0
 30
0.0
  9
$PUCSBASE
  2

  9
$PUCSNAME
  2

  9
$PUCSORG
 10
0.0
 20
0.0
 30
0.0
  9
$PUCSXDIR
 10
1.0
 20
0.0
 30
0.0
  9
$PUCSYDIR
 10
0.0
 20
1.0
 30
0.0
  9
$PUCSORTHOREF
  2

  9
$PUCSORTHOVIEW
 70
     0
  9
$PUCSORGTOP
 10
0.0
 20
0.0
 30
0.0
  9
$PUCSORGBOTTOM
 10
0.0
 20
0.0
 30
0.0
  9
$PUCSORGLEFT
 10
0.0
 20
0.0
 30
0.0
  9
$PUCSORGRIGHT
 10
0.0
 20
0.0
 30
0.0
  9
$PUCSORGFRONT
 10
0.0
 20
0.0
 30
0.0
  9
$PUCSORGBACK
 10
0.0
 20
0.0
 30
0.0
  9
$USERI1
 70
     0
  9
$USERI2
 70
     0
  9
$USERI3
 70
     0
  9
$USERI4
 70
     0
  9
$USERI5
 70
     0
  9
$USERR1
 40
0.0
  9
$USERR2
 40
0.0
  9
$USERR3
 40
0.0
  9
$USERR4
 40
0.0
  9
$USERR5
 40
0.0
  9
$WORLDVIEW
 70
     1
  9
$SHADEDGE
 70
     3
  9
$SHADEDIF
 70
    70
  9
$TILEMODE
 70
     1
  9
$MAXACTVP
 70
    64
  9
$PINSBASE
 10
0.0
 20
0.0
 30
0.0
  9
$PLIMCHECK
 70
     0
  9
$PEXTMIN
 10
1.0000000000E+20
 20
1.0000000000E+20
 30
1.0000000000E+20
  9
$PEXTMAX
 10
-1.0000000000E+20
 20
-1.0000000000E+20
 30
-1.0000000000E+20
  9
$PLIMMIN
 10
0.0
 20
0.0
  9
$PLIMMAX
 10
420.0
 20
297.0
  9
$UNITMODE
 70
     0
  9
$VISRETAIN
 70
     1
  9
$PLINEGEN
 70
     0
  9
$PSLTSCALE
 70
     1
  9
$TREEDEPTH
 70
  3020
  9
$CMLSTYLE
  2
Standard
  9
$CMLJUST
 70
     0
  9
$CMLSCALE
 40
20.0
  9
$PROXYGRAPHICS
 70
     1
  9
$MEASUREMENT
 70
     1
  9
$CELWEIGHT
370
    -1
  9
$ENDCAPS
280
     0
  9
$JOINSTYLE
280
     0
  9
$LWDISPLAY
290
     1
  9
$INSUNITS
 70
     4
  9
$HYPERLINKBASE
  1

  9
$STYLESHEET
  1

  9
$XEDIT
290
     1
  9
$CEPSNTYPE
380
     0
  9
$PSTYLEMODE
290
     1
  9
$FINGERPRINTGUID
  2
{6141877B-2B95-4FE1-B2DA-50455E32BD23}
  9
$VERSIONGUID
  2
{FAEB1C32-E019-11D5-929B-00C0DF256EC4}
  9
$EXTNAMES
290
     1
  9
$PSVPSCALE
 40
0.0
  9
$OLESTARTUP
290
     0
  0
ENDSEC
  0
SECTION
  2
CLASSES
  0
CLASS
  1
ACDBDICTIONARYWDFLT
  2
AcDbDictionaryWithDefault
  3
ObjectDBX Classes
 90
        0
280
     0
281
     0
  0
CLASS
  1
VISUALSTYLE
  2
AcDbVisualStyle
  3
ObjectDBX Classes
 90
     4095
280
     0
281
     0
  0
CLASS
  1
MATERIAL
  2
AcDbMaterial
  3
ObjectDBX Classes
 90
     1153
280
     0
281
     0
  0
CLASS
  1
ACDBPLACEHOLDER
  2
AcDbPlaceHolder
  3
ObjectDBX Classes
 90
        0
280
     0
281
     0
  0
CLASS
  1
LAYOUT
  2
AcDbLayout
  3
ObjectDBX Classes
 90
        0
280
     0
281
     0
  0
ENDSEC
  0
SECTION
  2
TABLES
  0
TABLE
  2
VPORT
  5
8
330
0
100
AcDbSymbolTable
 70
     1
  0
VPORT
  5
29
330
8
100
AcDbSymbolTableRecord
100
AcDbViewportTableRecord
  2
*Active
 70
     0
 10
0.0
 20
0.0
 11
1.0
 21
1.0
 12
148.5
 22
105.0
 13
0.0
 23
0.0
 14
10.0
 24
10.0
 15
10.0
 25
10.0
 16
0.0
 26
0.0
 36
1.0
 17
0.0
 27
0.0
 37
0.0
 40
210.0
 41
1.4142857143
 42
50.0
 43
0.0
 44
0.0
 50
0.0
 51
0.0
 71
     0
 72
  2000
 73
     1
 74
     3
 75
     0
 76
     0
 77
     0
 78
     0
281
     0
 65
     1
110
0.0
120
0.0
130
0.0
111
1.0
121
0.0
131
0.0
112
0.0
122
1.0
132
0.0
 79
     0
146
0.0
  0
ENDTAB
  0
TABLE
  2
LTYPE
  5
5
330
0
100
AcDbSymbolTable
 70
     6
  0
LTYPE
  5
14
330
5
100
AcDbSymbolTableRecord
100
AcDbLinetypeTableRecord
  2
ByBlock
 70
     0
  3

 72
    65
 73
     0
 40
0.0
  0
LTYPE
  5
15
330
5
100
AcDbSymbolTableRecord
100
AcDbLinetypeTableRecord
  2
ByLayer
 70
     0
  3

 72
    65
 73
     0
 40
0.0
  0
LTYPE
  5
16
330
5
100
AcDbSymbolTableRecord
100
AcDbLinetypeTableRecord
  2
Continuous
 70
     0
  3
Solid line
 72
    65
 73
     0
 40
0.0
  0
LTYPE
  5
3F
330
5
100
AcDbSymbolTableRecord
100
AcDbLinetypeTableRecord
  2
HIDDEN
 70
     0
  3
Hidden __ __ __ __ __ __ __ __ __ __ __ __ __ __
 72
    65
 73
     2
 40
1.905
 49
1.27
 74
     0
 49
-0.635
 74
     0
  0
LTYPE
  5
40
330
5
100
AcDbSymbolTableRecord
100
AcDbLinetypeTableRecord
  2
PHANTOM
 70
     0
  3
Phantom ______  __  __  ______  __  __  ______
 72
    65
 73
     6
 40
12.7
 49
6.35
 74
     0
 49
-1.27
 74
     0
 49
1.27
 74
     0
 49
-1.27
 74
     0
 49
1.27
 74
     0
 49
-1.27
 74
     0
  0
LTYPE
  5
41
330
5
100
AcDbSymbolTableRecord
100
AcDbLinetypeTableRecord
  2
CENTER
 70
     0
  3
Center ____ _ ____ _ ____ _ ____ _ ____ _ ____
 72
    65
 73
     4
 40
10.16
 49
6.35
 74
     0
 49
-1.27
 74
     0
 49
1.27
 74
     0
 49
-1.27
 74
     0
  0
LTYPE
  5
42
330
5
100
AcDbSymbolTableRecord
100
AcDbLinetypeTableRecord
  2
CENTERX2
 70
     0
  3
Center (2x) ________  __  ________  __  _____
 72
    65
 73
     4
 40
20.32
 49
12.7
 74
     0
 49
-2.54
 74
     0
 49
2.54
 74
     0
 49
-2.54
 74
     0
  0
LTYPE
  5
43
330
5
100
AcDbSymbolTableRecord
100
AcDbLinetypeTableRecord
  2
DOT2
 70
     0
  3
Dot (.5x) ........................................
 72
    65
 73
     2
 40
0.635
 49
0.0
 74
     0
 49
-0.635
 74
     0
  0
ENDTAB
  0
TABLE
  2
LAYER
  5
2
330
0
100
AcDbSymbolTable
 70
     5
  0
LAYER
  5
10
330
2
100
AcDbSymbolTableRecord
100
AcDbLayerTableRecord
  2
0
 70
     0
 62
     7
  6
Continuous
370
    -3
390
F
  0
LAYER
  5
44
330
2
100
AcDbSymbolTableRecord
100
AcDbLayerTableRecord
  2
FORMAT
 70
     0
 62
     7
  6
Continuous
370
    -3
390
F
  0
LAYER
  5
45
330
2
100
AcDbSymbolTableRecord
100
AcDbLayerTableRecord
  2
VERMASSUNG
 70
     0
 62
     7
  6
Continuous
370
    -3
390
F
  0
LAYER
  5
46
330
2
100
AcDbSymbolTableRecord
100
AcDbLayerTableRecord
  2
KOPF_DÜNN
 70
     0
 62
     7
  6
Continuous
370
    -3
390
F
  0
LAYER
  5
47
330
2
100
AcDbSymbolTableRecord
100
AcDbLayerTableRecord
  2
KOPF_DICK
 70
     0
 62
     7
  6
Continuous
370
    15
390
F
  0
ENDTAB
  0
TABLE
  2
STYLE
  5
3
330
0
100
AcDbSymbolTable
 70
     3
  0
STYLE
  5
11
330
3
100
AcDbSymbolTableRecord
100
AcDbTextStyleTableRecord
  2
Standard
 70
     0
 40
0.0
 41
1.0
 50
0.0
 71
     0
 42
2.0
  3
txt
  4

  0
STYLE
  5
48
330
3
100
AcDbSymbolTableRecord
100
AcDbTextStyleTableRecord
  2
SLDTEXTSTYLE0
 70
     0
 40
0.0
 41
0.7
 50
0.0
 71
     0
 42
0.2
  3
TXT
  4

  0
STYLE
  5
4C
330
3
100
AcDbSymbolTableRecord
100
AcDbTextStyleTableRecord
  2
SLDTEXTSTYLE1
 70
     0
 40
0.0
 41
0.65
 50
0.0
 71
     0
 42
0.2
  3
TXT
  4

  0
ENDTAB
  0
TABLE
  2
VIEW
  5
6
330
0
100
AcDbSymbolTable
 70
     0
  0
ENDTAB
  0
TABLE
  2
UCS
  5
7
330
0
100
AcDbSymbolTable
 70
     0
  0
ENDTAB
  0
TABLE
  2
APPID
  5
9
330
0
100
AcDbSymbolTable
 70
     1
  0
APPID
  5
12
330
9
100
AcDbSymbolTableRecord
100
AcDbRegAppTableRecord
  2
ACAD
 70
     0
  0
ENDTAB
  0
TABLE
  2
DIMSTYLE
  5
A
330
0
100
AcDbSymbolTable
 70
     2
100
AcDbDimStyleTable
  0
DIMSTYLE
105
27
330
A
100
AcDbSymbolTableRecord
100
AcDbDimStyleTableRecord
  2
ISO-25
 70
     0
 41
2.5
 42
0.625
 43
3.75
 44
1.25
 73
     0
 74
     0
 77
     1
 78
     8
140
2.5
141
2.5
143
0.0393700787
147
0.625
171
     3
172
     1
178
     0
271
     2
272
     2
274
     3
278
    44
283
     0
284
     8
340
11
  0
DIMSTYLE
105
1C0
102
{ACAD_REACTORS
330
1BF
330
1CC
330
1D7
330
1E2
330
1EC
330
1F6
330
200
330
20A
330
214
330
21E
102
}
330
A
100
AcDbSymbolTableRecord
100
AcDbDimStyleTableRecord
  2
SLDDIMSTYLE0
 70
     0
 41
3.0
 44
0.0
 45
0.000000001
 73
     0
 74
     0
 77
     1
 78
    12
 79
     3
140
2.0
147
0.5
173
     1
178
     0
271
     2
272
     3
276
     2
284
    12
340
48
  0
ENDTAB
  0
TABLE
  2
BLOCK_RECORD
  5
1
330
0
100
AcDbSymbolTable
 70
    12
  0
BLOCK_RECORD
  5
1F
330
1
100
AcDbSymbolTableRecord
100
AcDbBlockTableRecord
  2
*Model_Space
340
22
  0
BLOCK_RECORD
  5
1B
330
1
100
AcDbSymbolTableRecord
100
AcDbBlockTableRecord
  2
*Paper_Space
340
1E
  0
BLOCK_RECORD
  5
23
330
1
100
AcDbSymbolTableRecord
100
AcDbBlockTableRecord
  2
*Paper_Space0
340
26
  0
BLOCK_RECORD
  5
1C1
330
1
100
AcDbSymbolTableRecord
100
AcDbBlockTableRecord
  2
_D
340
0
  0
BLOCK_RECORD
  5
1CD
330
1
100
AcDbSymbolTableRecord
100
AcDbBlockTableRecord
  2
_D_1
340
0
  0
BLOCK_RECORD
  5
1D8
330
1
100
AcDbSymbolTableRecord
100
AcDbBlockTableRecord
  2
_D_2
340
0
  0
BLOCK_RECORD
  5
1E3
330
1
100
AcDbSymbolTableRecord
100
AcDbBlockTableRecord
  2
_D_3
340
0
  0
BLOCK_RECORD
  5
1ED
330
1
100
AcDbSymbolTableRecord
100
AcDbBlockTableRecord
  2
_D_4
340
0
  0
BLOCK_RECORD
  5
1F7
330
1
100
AcDbSymbolTableRecord
100
AcDbBlockTableRecord
  2
_D_5
340
0
  0
BLOCK_RECORD
  5
201
330
1
100
AcDbSymbolTableRecord
100
AcDbBlockTableRecord
  2
_D_6
340
0
  0
BLOCK_RECORD
  5
20B
330
1
100
AcDbSymbolTableRecord
100
AcDbBlockTableRecord
  2
_D_7
340
0
  0
BLOCK_RECORD
  5
215
330
1
100
AcDbSymbolTableRecord
100
AcDbBlockTableRecord
  2
_D_8
340
0
  0
BLOCK_RECORD
  5
21F
330
1
100
AcDbSymbolTableRecord
100
AcDbBlockTableRecord
  2
_D_9
340
0
  0
BLOCK_RECORD
  5
2DD
330
1
100
AcDbSymbolTableRecord
100
AcDbBlockTableRecord
  2
SW_CENTERMARKSYMBOL_0
340
0
102
{BLKREFS
331
2E8
102
}
  0
ENDTAB
  0
ENDSEC
  0
SECTION
  2
BLOCKS
  0
BLOCK
  5
20
330
1F
100
AcDbEntity
  8
0
100
AcDbBlockBegin
  2
*Model_Space
 70
     0
 10
0.0
 20
0.0
 30
0.0
  3
*Model_Space
  1

  0
ENDBLK
  5
21
330
1F
100
AcDbEntity
  8
0
100
AcDbBlockEnd
  0
BLOCK
  5
1C
330
1B
100
AcDbEntity
 67
     1
  8
0
100
AcDbBlockBegin
  2
*Paper_Space
 70
     0
 10
0.0
 20
0.0
 30
0.0
  3
*Paper_Space
  1

  0
ENDBLK
  5
1D
330
1B
100
AcDbEntity
 67
     1
  8
0
100
AcDbBlockEnd
  0
BLOCK
  5
24
330
23
100
AcDbEntity
  8
0
100
AcDbBlockBegin
  2
*Paper_Space0
 70
     0
 10
0.0
 20
0.0
 30
0.0
  3
*Paper_Space0
  1

  0
ENDBLK
  5
25
330
23
100
AcDbEntity
  8
0
100
AcDbBlockEnd
  0
BLOCK
  5
1C2
330
1C1
100
AcDbEntity
  8
0
100
AcDbBlockBegin
  2
_D
 70
     0
 10
0.0
 20
0.0
 30
0.0
  3
_D
  1

  0
SOLID
  5
1C4
330
1C1
100
AcDbEntity
  8
VERMASSUNG
100
AcDbTrace
 10
141.231968032
 20
122.4621428571
 30
0.0
 11
140.781968032
 21
119.4621428571
 31
0.0
 12
141.681968032
 22
119.4621428571
 32
0.0
 13
141.681968032
 23
119.4621428571
 33
0.0
  0
SOLID
  5
1C5
330
1C1
100
AcDbEntity
  8
VERMASSUNG
100
AcDbTrace
 10
141.231968032
 20
82.4621428571
 30
0.0
 11
141.681968032
 21
85.4621428571
 31
0.0
 12
140.781968032
 22
85.4621428571
 32
0.0
 13
140.781968032
 23
85.4621428571
 33
0.0
  0
LINE
  5
1C6
330
1C1
100
AcDbEntity
  8
VERMASSUNG
100
AcDbLine
 10
165.1156159161
 20
122.4621428571
 30
0.0
 11
140.231968032
 21
122.4621428571
 31
0.0
  0
LINE
  5
1C7
330
1C1
100
AcDbEntity
  8
VERMASSUNG
100
AcDbLine
 10
165.1156159161
 20
82.4621428571
 30
0.0
 11
140.231968032
 21
82.4621428571
 31
0.0
  0
LINE
  5
1C8
330
1C1
100
AcDbEntity
  8
VERMASSUNG
100
AcDbLine
 10
141.231968032
 20
122.4621428571
 30
0.0
 11
141.231968032
 21
82.4621428571
 31
0.0
  0
MTEXT
  5
1C9
330
1C1
100
AcDbEntity
  8
VERMASSUNG
100
AcDbMText
 10
138.453832543
 20
96.1585373006
 30
0.0
 40
2.0
 41
0.0
 71
     1
 72
     1
  1
HSK
  7
SLDTEXTSTYLE0
 11
-7.044195017643634E-15
 21
1.0
 31
0.0
 73
     1
 44
1.0
  0
MTEXT
  5
1CA
330
1C1
100
AcDbEntity
  8
VERMASSUNG
100
AcDbMText
 10
138.6538325525
 20
102.1585373528
 30
0.0
 40
2.0
 41
0.0
 71
     1
 72
     1
  1
%%c
  7
SLDTEXTSTYLE0
 11
-7.044195017643634E-15
 21
1.0
 31
0.0
 73
     1
 44
1.0
  0
MTEXT
  5
1CB
330
1C1
100
AcDbEntity
  8
VERMASSUNG
100
AcDbMText
 10
138.6538326689
 20
105.7660747299
 30
0.0
 40
2.0
 41
0.0
 71
     1
 72
     1
  1
40
  7
SLDTEXTSTYLE0
 11
-7.044195017643634E-15
 21
1.0
 31
0.0
 73
     1
 44
1.0
  0
ENDBLK
  5
1C3
330
1C1
100
AcDbEntity
  8
0
100
AcDbBlockEnd
  0
BLOCK
  5
1CE
330
1CD
100
AcDbEntity
  8
0
100
AcDbBlockBegin
  2
_D_1
 70
     0
 10
0.0
 20
0.0
 30
0.0
  3
_D_1
  1

  0
SOLID
  5
1D0
330
1CD
100
AcDbEntity
  8
VERMASSUNG
100
AcDbTrace
 10
226.6671643327
 20
106.4621428571
 30
0.0
 11
226.2171643327
 21
103.4621428571
 31
0.0
 12
227.1171643327
 22
103.4621428571
 32
0.0
 13
227.1171643327
 23
103.4621428571
 33
0.0
  0
SOLID
  5
1D1
330
1CD
100
AcDbEntity
  8
VERMASSUNG
100
AcDbTrace
 10
226.6671643327
 20
98.4621428571
 30
0.0
 11
227.1171643327
 21
101.4621428571
 31
0.0
 12
226.2171643327
 22
101.4621428571
 32
0.0
 13
226.2171643327
 23
101.4621428571
 33
0.0
  0
LINE
  5
1D2
330
1CD
100
AcDbEntity
  8
VERMASSUNG
100
AcDbLine
 10
219.5156159161
 20
106.4621428571
 30
0.0
 11
227.6671643327
 21
106.4621428571
 31
0.0
  0
LINE
  5
1D3
330
1CD
100
AcDbEntity
  8
VERMASSUNG
100
AcDbLine
 10
219.5156159161
 20
98.4621428571
 30
0.0
 11
227.6671643327
 21
98.4621428571
 31
0.0
  0
LINE
  5
1D4
330
1CD
100
AcDbEntity
  8
VERMASSUNG
100
AcDbLine
 10
226.6671643327
 20
106.4621428571
 30
0.0
 11
226.6671643327
 21
98.4621428571
 31
0.0
  0
MTEXT
  5
1D5
330
1CD
100
AcDbEntity
  8
VERMASSUNG
100
AcDbMText
 10
224.0890288531
 20
99.95981429
 30
0.0
 40
2.0
 41
0.0
 71
     1
 72
     1
  1
%%c
  7
SLDTEXTSTYLE0
 11
-7.044195017643634E-15
 21
1.0
 31
0.0
 73
     1
 44
1.0
  0
MTEXT
  5
1D6
330
1CD
100
AcDbEntity
  8
VERMASSUNG
100
AcDbMText
 10
224.0890289695
 20
103.5680043517
 30
0.0
 40
2.0
 41
0.0
 71
     1
 72
     1
  1
8
  7
SLDTEXTSTYLE0
 11
-7.044195017643634E-15
 21
1.0
 31
0.0
 73
     1
 44
1.0
  0
ENDBLK
  5
1CF
330
1CD
100
AcDbEntity
  8
0
100
AcDbBlockEnd
  0
BLOCK
  5
1D9
330
1D8
100
AcDbEntity
  8
0
100
AcDbBlockBegin
  2
_D_2
 70
     0
 10
0.0
 20
0.0
 30
0.0
  3
_D_2
  1

  0
SOLID
  5
1DB
330
1D8
100
AcDbEntity
  8
VERMASSUNG
100
AcDbTrace
 10
232.6671643327
 20
119.4621428571
 30
0.0
 11
232.2171643327
 21
116.4621428571
 31
0.0
 12
233.1171643327
 22
116.4621428571
 32
0.0
 13
233.1171643327
 23
116.4621428571
 33
0.0
  0
SOLID
  5
1DC
330
1D8
100
AcDbEntity
  8
VERMASSUNG
100
AcDbTrace
 10
232.6671643327
 20
85.4621428571
 30
0.0
 11
233.1171643327
 21
88.4621428571
 31
0.0
 12
232.2171643327
 22
88.4621428571
 32
0.0
 13
232.2171643327
 23
88.4621428571
 33
0.0
  0
LINE
  5
1DD
330
1D8
100
AcDbEntity
  8
VERMASSUNG
100
AcDbLine
 10
218.8156159161
 20
119.4621428571
 30
0.0
 11
233.6671643327
 21
119.4621428571
 31
0.0
  0
LINE
  5
1DE
330
1D8
100
AcDbEntity
  8
VERMASSUNG
100
AcDbLine
 10
218.8156159161
 20
85.4621428571
 30
0.0
 11
233.6671643327
 21
85.4621428571
 31
0.0
  0
LINE
  5
1DF
330
1D8
100
AcDbEntity
  8
VERMASSUNG
100
AcDbLine
 10
232.6671643327
 20
119.4621428571
 30
0.0
 11
232.6671643327
 21
85.4621428571
 31
0.0
  0
MTEXT
  5
1E0
330
1D8
100
AcDbEntity
  8
VERMASSUNG
100
AcDbMText
 10
230.0890288531
 20
99.1582109844
 30
0.0
 40
2.0
 41
0.0
 71
     1
 72
     1
  1
%%c
  7
SLDTEXTSTYLE0
 11
-7.044195017643634E-15
 21
1.0
 31
0.0
 73
     1
 44
1.0
  0
MTEXT
  5
1E1
330
1D8
100
AcDbEntity
  8
VERMASSUNG
100
AcDbMText
 10
230.0890289695
 20
102.7664010461
 30
0.0
 40
2.0
 41
0.0
 71
     1
 72
     1
  1
34
  7
SLDTEXTSTYLE0
 11
-7.044195017643634E-15
 21
1.0
 31
0.0
 73
     1
 44
1.0
  0
ENDBLK
  5
1DA
330
1D8
100
AcDbEntity
  8
0
100
AcDbBlockEnd
  0
BLOCK
  5
1E4
330
1E3
100
AcDbEntity
  8
0
100
AcDbBlockBegin
  2
_D_3
 70
     0
 10
0.0
 20
0.0
 30
0.0
  3
_D_3
  1

  0
SOLID
  5
1E6
330
1E3
100
AcDbEntity
  8
VERMASSUNG
100
AcDbTrace
 10
144.9156159161
 20
138.4621428571
 30
0.0
 11
147.9156159161
 21
138.0121428571
 31
0.0
 12
147.9156159161
 22
138.9121428571
 32
0.0
 13
147.9156159161
 23
138.9121428571
 33
0.0
  0
SOLID
  5
1E7
330
1E3
100
AcDbEntity
  8
VERMASSUNG
100
AcDbTrace
 10
219.8156159161
 20
138.4621428571
 30
0.0
 11
216.8156159161
 21
138.9121428571
 31
0.0
 12
216.8156159161
 22
138.0121428571
 32
0.0
 13
216.8156159161
 23
138.0121428571
 33
0.0
  0
LINE
  5
1E8
330
1E3
100
AcDbEntity
  8
VERMASSUNG
100
AcDbLine
 10
144.9156159161
 20
114.3921428571
 30
0.0
 11
144.9156159161
 21
139.4621428571
 31
0.0
  0
LINE
  5
1E9
330
1E3
100
AcDbEntity
  8
VERMASSUNG
100
AcDbLine
 10
219.8156159161
 20
118.4621428571
 30
0.0
 11
219.8156159161
 21
139.4621428571
 31
0.0
  0
LINE
  5
1EA
330
1E3
100
AcDbEntity
  8
VERMASSUNG
100
AcDbLine
 10
144.9156159161
 20
138.4621428571
 30
0.0
 11
219.8156159161
 21
138.4621428571
 31
0.0
  0
MTEXT
  5
1EB
330
1E3
100
AcDbEntity
  8
VERMASSUNG
100
AcDbMText
 10
179.8671880949
 20
141.0402782203
 30
0.0
 40
2.0
 41
0.0
 71
     1
 72
     1
  1
74.9
  7
SLDTEXTSTYLE0
 73
     1
 44
1.0
  0
ENDBLK
  5
1E5
330
1E3
100
AcDbEntity
  8
0
100
AcDbBlockEnd
  0
BLOCK
  5
1EE
330
1ED
100
AcDbEntity
  8
0
100
AcDbBlockBegin
  2
_D_4
 70
     0
 10
0.0
 20
0.0
 30
0.0
  3
_D_4
  1

  0
SOLID
  5
1F0
330
1ED
100
AcDbEntity
  8
VERMASSUNG
100
AcDbTrace
 10
164.8156159161
 20
132.4621428571
 30
0.0
 11
167.8156159161
 21
132.0121428571
 31
0.0
 12
167.8156159161
 22
132.9121428571
 32
0.0
 13
167.8156159161
 23
132.9121428571
 33
0.0
  0
SOLID
  5
1F1
330
1ED
100
AcDbEntity
  8
VERMASSUNG
100
AcDbTrace
 10
219.8156159161
 20
132.4621428571
 30
0.0
 11
216.8156159161
 21
132.9121428571
 31
0.0
 12
216.8156159161
 22
132.0121428571
 32
0.0
 13
216.8156159161
 23
132.0121428571
 33
0.0
  0
LINE
  5
1F2
330
1ED
100
AcDbEntity
  8
VERMASSUNG
100
AcDbLine
 10
164.8156159161
 20
122.1621428571
 30
0.0
 11
164.8156159161
 21
133.4621428571
 31
0.0
  0
LINE
  5
1F3
330
1ED
100
AcDbEntity
  8
VERMASSUNG
100
AcDbLine
 10
219.8156159161
 20
118.4621428571
 30
0.0
 11
219.8156159161
 21
133.4621428571
 31
0.0
  0
LINE
  5
1F4
330
1ED
100
AcDbEntity
  8
VERMASSUNG
100
AcDbLine
 10
164.8156159161
 20
132.4621428571
 30
0.0
 11
219.8156159161
 21
132.4621428571
 31
0.0
  0
MTEXT
  5
1F5
330
1ED
100
AcDbEntity
  8
VERMASSUNG
100
AcDbMText
 10
190.9171984705
 20
135.0402782203
 30
0.0
 40
2.0
 41
0.0
 71
     1
 72
     1
  1
55
  7
SLDTEXTSTYLE0
 73
     1
 44
1.0
  0
ENDBLK
  5
1EF
330
1ED
100
AcDbEntity
  8
0
100
AcDbBlockEnd
  0
BLOCK
  5
1F8
330
1F7
100
AcDbEntity
  8
0
100
AcDbBlockBegin
  2
_D_5
 70
     0
 10
0.0
 20
0.0
 30
0.0
  3
_D_5
  1

  0
SOLID
  5
1FA
330
1F7
100
AcDbEntity
  8
VERMASSUNG
100
AcDbTrace
 10
184.7656159161
 20
126.4621428571
 30
0.0
 11
187.7656159161
 21
126.0121428571
 31
0.0
 12
187.7656159161
 22
126.9121428571
 32
0.0
 13
187.7656159161
 23
126.9121428571
 33
0.0
  0
SOLID
  5
1FB
330
1F7
100
AcDbEntity
  8
VERMASSUNG
100
AcDbTrace
 10
219.8156159161
 20
126.4621428571
 30
0.0
 11
216.8156159161
 21
126.9121428571
 31
0.0
 12
216.8156159161
 22
126.0121428571
 32
0.0
 13
216.8156159161
 23
126.0121428571
 33
0.0
  0
LINE
  5
1FC
330
1F7
100
AcDbEntity
  8
VERMASSUNG
100
AcDbLine
 10
184.7656159161
 20
121.3330198903
 30
0.0
 11
184.7656159161
 21
127.4621428571
 31
0.0
  0
LINE
  5
1FD
330
1F7
100
AcDbEntity
  8
VERMASSUNG
100
AcDbLine
 10
219.8156159161
 20
118.4621428571
 30
0.0
 11
219.8156159161
 21
127.4621428571
 31
0.0
  0
LINE
  5
1FE
330
1F7
100
AcDbEntity
  8
VERMASSUNG
100
AcDbLine
 10
184.7656159161
 20
126.4621428571
 30
0.0
 11
219.8156159161
 21
126.4621428571
 31
0.0
  0
MTEXT
  5
1FF
330
1F7
100
AcDbEntity
  8
VERMASSUNG
100
AcDbMText
 10
199.191473209
 20
129.0402782203
 30
0.0
 40
2.0
 41
0.0
 71
     1
 72
     1
  1
35.05
  7
SLDTEXTSTYLE0
 73
     1
 44
1.0
  0
ENDBLK
  5
1F9
330
1F7
100
AcDbEntity
  8
0
100
AcDbBlockEnd
  0
BLOCK
  5
202
330
201
100
AcDbEntity
  8
0
100
AcDbBlockBegin
  2
_D_6
 70
     0
 10
0.0
 20
0.0
 30
0.0
  3
_D_6
  1

  0
SOLID
  5
204
330
201
100
AcDbEntity
  8
VERMASSUNG
100
AcDbTrace
 10
219.8156159161
 20
72.4621428571
 30
0.0
 11
216.8156159161
 21
72.9121428571
 31
0.0
 12
216.8156159161
 22
72.0121428571
 32
0.0
 13
216.8156159161
 23
72.0121428571
 33
0.0
  0
SOLID
  5
205
330
201
100
AcDbEntity
  8
VERMASSUNG
100
AcDbTrace
 10
183.8156159161
 20
72.4621428571
 30
0.0
 11
186.8156159161
 21
72.0121428571
 31
0.0
 12
186.8156159161
 22
72.9121428571
 32
0.0
 13
186.8156159161
 23
72.9121428571
 33
0.0
  0
LINE
  5
206
330
201
100
AcDbEntity
  8
VERMASSUNG
100
AcDbLine
 10
219.8156159161
 20
86.4621428571
 30
0.0
 11
219.8156159161
 21
71.4621428571
 31
0.0
  0
LINE
  5
207
330
201
100
AcDbEntity
  8
VERMASSUNG
100
AcDbLine
 10
183.8156159161
 20
98.5621428571
 30
0.0
 11
183.8156159161
 21
71.4621428571
 31
0.0
  0
LINE
  5
208
330
201
100
AcDbEntity
  8
VERMASSUNG
100
AcDbLine
 10
219.8156159161
 20
72.4621428571
 30
0.0
 11
183.8156159161
 21
72.4621428571
 31
0.0
  0
MTEXT
  5
209
330
201
100
AcDbEntity
  8
VERMASSUNG
100
AcDbMText
 10
200.4171984705
 20
75.0402782203
 30
0.0
 40
2.0
 41
0.0
 71
     1
 72
     1
  1
36
  7
SLDTEXTSTYLE0
 73
     1
 44
1.0
  0
ENDBLK
  5
203
330
201
100
AcDbEntity
  8
0
100
AcDbBlockEnd
  0
BLOCK
  5
20C
330
20B
100
AcDbEntity
  8
0
100
AcDbBlockBegin
  2
_D_7
 70
     0
 10
0.0
 20
0.0
 30
0.0
  3
_D_7
  1

  0
SOLID
  5
20E
330
20B
100
AcDbEntity
  8
VERMASSUNG
100
AcDbTrace
 10
219.8156159161
 20
77.9168995919
 30
0.0
 11
216.8156159161
 21
78.3668995919
 31
0.0
 12
216.8156159161
 22
77.4668995919
 32
0.0
 13
216.8156159161
 23
77.4668995919
 33
0.0
  0
SOLID
  5
20F
330
20B
100
AcDbEntity
  8
VERMASSUNG
100
AcDbTrace
 10
211.8156159161
 20
77.9168995919
 30
0.0
 11
214.8156159161
 21
77.4668995919
 31
0.0
 12
214.8156159161
 22
78.3668995919
 32
0.0
 13
214.8156159161
 23
78.3668995919
 33
0.0
  0
LINE
  5
210
330
20B
100
AcDbEntity
  8
VERMASSUNG
100
AcDbLine
 10
219.8156159161
 20
86.4621428571
 30
0.0
 11
219.8156159161
 21
76.9168995919
 31
0.0
  0
LINE
  5
211
330
20B
100
AcDbEntity
  8
VERMASSUNG
100
AcDbLine
 10
211.8156159161
 20
104.4621428571
 30
0.0
 11
211.8156159161
 21
76.9168995919
 31
0.0
  0
LINE
  5
212
330
20B
100
AcDbEntity
  8
VERMASSUNG
100
AcDbLine
 10
219.8156159161
 20
77.9168995919
 30
0.0
 11
211.8156159161
 21
77.9168995919
 31
0.0
  0
MTEXT
  5
213
330
20B
100
AcDbEntity
  8
VERMASSUNG
100
AcDbMText
 10
215.1173823798
 20
80.495034955
 30
0.0
 40
2.0
 41
0.0
 71
     1
 72
     1
  1
8
  7
SLDTEXTSTYLE0
 73
     1
 44
1.0
  0
ENDBLK
  5
20D
330
20B
100
AcDbEntity
  8
0
100
AcDbBlockEnd
  0
BLOCK
  5
216
330
215
100
AcDbEntity
  8
0
100
AcDbBlockBegin
  2
_D_8
 70
     0
 10
0.0
 20
0.0
 30
0.0
  3
_D_8
  1

  0
SOLID
  5
218
330
215
100
AcDbEntity
  8
VERMASSUNG
100
AcDbTrace
 10
211.8156159161
 20
77.9168995919
 30
0.0
 11
208.8156159161
 21
78.3668995919
 31
0.0
 12
208.8156159161
 22
77.4668995919
 32
0.0
 13
208.8156159161
 23
77.4668995919
 33
0.0
  0
SOLID
  5
219
330
215
100
AcDbEntity
  8
VERMASSUNG
100
AcDbTrace
 10
201.8156159161
 20
77.9168995919
 30
0.0
 11
204.8156159161
 21
77.4668995919
 31
0.0
 12
204.8156159161
 22
78.3668995919
 32
0.0
 13
204.8156159161
 23
78.3668995919
 33
0.0
  0
LINE
  5
21A
330
215
100
AcDbEntity
  8
VERMASSUNG
100
AcDbLine
 10
211.8156159161
 20
104.4621428571
 30
0.0
 11
211.8156159161
 21
76.9168995919
 31
0.0
  0
LINE
  5
21B
330
215
100
AcDbEntity
  8
VERMASSUNG
100
AcDbLine
 10
201.8156159161
 20
104.4621428571
 30
0.0
 11
201.8156159161
 21
76.9168995919
 31
0.0
  0
LINE
  5
21C
330
215
100
AcDbEntity
  8
VERMASSUNG
100
AcDbLine
 10
211.8156159161
 20
77.9168995919
 30
0.0
 11
201.8156159161
 21
77.9168995919
 31
0.0
  0
MTEXT
  5
21D
330
215
100
AcDbEntity
  8
VERMASSUNG
100
AcDbMText
 10
205.6161365172
 20
80.495034955
 30
0.0
 40
2.0
 41
0.0
 71
     1
 72
     1
  1
10
  7
SLDTEXTSTYLE0
 73
     1
 44
1.0
  0
ENDBLK
  5
217
330
215
100
AcDbEntity
  8
0
100
AcDbBlockEnd
  0
BLOCK
  5
220
330
21F
100
AcDbEntity
  8
0
100
AcDbBlockBegin
  2
_D_9
 70
     0
 10
0.0
 20
0.0
 30
0.0
  3
_D_9
  1

  0
SOLID
  5
222
330
21F
100
AcDbEntity
  8
VERMASSUNG
100
AcDbTrace
 10
201.8156159161
 20
77.9168995919
 30
0.0
 11
198.8156159161
 21
78.3668995919
 31
0.0
 12
198.8156159161
 22
77.4668995919
 32
0.0
 13
198.8156159161
 23
77.4668995919
 33
0.0
  0
SOLID
  5
223
330
21F
100
AcDbEntity
  8
VERMASSUNG
100
AcDbTrace
 10
191.8156159161
 20
77.9168995919
 30
0.0
 11
194.8156159161
 21
77.4668995919
 31
0.0
 12
194.8156159161
 22
78.3668995919
 32
0.0
 13
194.8156159161
 23
78.3668995919
 33
0.0
  0
LINE
  5
224
330
21F
100
AcDbEntity
  8
VERMASSUNG
100
AcDbLine
 10
201.8156159161
 20
104.4621428571
 30
0.0
 11
201.8156159161
 21
76.9168995919
 31
0.0
  0
LINE
  5
225
330
21F
100
AcDbEntity
  8
VERMASSUNG
100
AcDbLine
 10
191.8156159161
 20
104.4621428571
 30
0.0
 11
191.8156159161
 21
76.9168995919
 31
0.0
  0
LINE
  5
226
330
21F
100
AcDbEntity
  8
VERMASSUNG
100
AcDbLine
 10
201.8156159161
 20
77.9168995919
 30
0.0
 11
191.8156159161
 21
77.9168995919
 31
0.0
  0
MTEXT
  5
227
330
21F
100
AcDbEntity
  8
VERMASSUNG
100
AcDbMText
 10
195.6161365172
 20
80.495034955
 30
0.0
 40
2.0
 41
0.0
 71
     1
 72
     1
  1
10
  7
SLDTEXTSTYLE0
 73
     1
 44
1.0
  0
ENDBLK
  5
221
330
21F
100
AcDbEntity
  8
0
100
AcDbBlockEnd
  0
BLOCK
  5
2DE
330
2DD
100
AcDbEntity
  8
0
100
AcDbBlockBegin
  2
SW_CENTERMARKSYMBOL_0
 70
     0
 10
0.0
 20
0.0
 30
0.0
  3
SW_CENTERMARKSYMBOL_0
  1

  0
LINE
  5
2E0
330
2DD
100
AcDbEntity
  8
VERMASSUNG
 62
     0
100
AcDbLine
 10
0.0
 20
0.0
 30
0.0
 11
0.0
 21
2.5
 31
0.0
  0
LINE
  5
2E1
330
2DD
100
AcDbEntity
  8
VERMASSUNG
 62
     0
100
AcDbLine
 10
0.0
 20
0.0
 30
0.0
 11
-2.5
 21
0.0
 31
0.0
  0
LINE
  5
2E2
330
2DD
100
AcDbEntity
  8
VERMASSUNG
 62
     0
100
AcDbLine
 10
0.0
 20
0.0
 30
0.0
 11
0.0
 21
-2.5
 31
0.0
  0
LINE
  5
2E3
330
2DD
100
AcDbEntity
  8
VERMASSUNG
 62
     0
100
AcDbLine
 10
0.0
 20
0.0
 30
0.0
 11
2.5
 21
0.0
 31
0.0
  0
LINE
  5
2E4
330
2DD
100
AcDbEntity
  8
VERMASSUNG
 62
     0
100
AcDbLine
 10
0.0
 20
5.0
 30
0.0
 11
0.0
 21
22.5
 31
0.0
  0
LINE
  5
2E5
330
2DD
100
AcDbEntity
  8
VERMASSUNG
 62
     0
100
AcDbLine
 10
-5.0
 20
0.0
 30
0.0
 11
-22.5
 21
0.0
 31
0.0
  0
LINE
  5
2E6
330
2DD
100
AcDbEntity
  8
VERMASSUNG
 62
     0
100
AcDbLine
 10
0.0
 20
-5.0
 30
0.0
 11
0.0
 21
-22.5
 31
0.0
  0
LINE
  5
2E7
330
2DD
100
AcDbEntity
  8
VERMASSUNG
 62
     0
100
AcDbLine
 10
5.0
 20
0.0
 30
0.0
 11
22.5
 21
0.0
 31
0.0
  0
ENDBLK
  5
2DF
330
2DD
100
AcDbEntity
  8
0
100
AcDbBlockEnd
  0
ENDSEC
  0
SECTION
  2
ENTITIES
  0
MTEXT
  5
49
330
1F
100
AcDbEntity
  8
KOPF_DÜNN
100
AcDbMText
 10
13.8892156294
 20
23.8442973028
 30
0.0
 40
3.0
 41
0.0
 71
     1
 72
     1
  1
HA4.B08.K01.055
  7
SLDTEXTSTYLE0
 73
     1
 44
1.0
  0
MTEXT
  5
4A
330
1F
100
AcDbEntity
  8
VERMASSUNG
100
AcDbMText
 10
13.9329988022
 20
28.8834360957
 30
0.0
 40
3.0
 41
0.0
 71
     1
 72
     1
  1
Bohrstangenhalter_Boring bar holder
  7
SLDTEXTSTYLE0
 73
     1
 44
1.0
  0
MTEXT
  5
4B
330
1F
100
AcDbEntity
  8
VERMASSUNG
100
AcDbMText
 10
98.8601118557
 20
13.8365368179
 30
0.0
 40
2.0
 41
0.0
 71
     1
 72
     1
  1
Datum: 09.02.2009
  7
SLDTEXTSTYLE0
 73
     1
 44
1.0
  0
MTEXT
  5
4D
330
1F
100
AcDbEntity
  8
VERMASSUNG
100
AcDbMText
 10
13.933048693
 20
18.0482802738
 30
0.0
 40
2.0
 41
0.0
 71
     1
 72
     1
  1
DIN 69893 HSK 40 A ICTM / ø8
  7
SLDTEXTSTYLE1
 73
     1
 44
1.0
  0
MTEXT
  5
4E
330
1F
100
AcDbEntity
  8
VERMASSUNG
100
AcDbMText
 10
13.9808475933
 20
13.9090973692
 30
0.0
 40
2.0
 41
0.0
 71
     1
 72
     1
  1
Gewicht: 412g
  7
SLDTEXTSTYLE0
 73
     1
 44
1.0
  0
LINE
  5
4F
330
1F
100
AcDbEntity
  8
0
  6
Continuous
 62
     7
370
    15
100
AcDbLine
 10
165.1156159303
 20
82.4621433042
 30
0.0
 11
172.765616381
 21
82.4621433042
 31
0.0
  0
LINE
  5
50
330
1F
100
AcDbEntity
  8
0
  6
Continuous
 62
     7
370
    15
100
AcDbLine
 10
172.781143391
 20
122.4621424101
 30
0.0
 11
165.1156159303
 21
122.4621424101
 31
0.0
  0
ARC
  5
51
330
1F
100
AcDbEntity
  8
0
  6
Continuous
 62
     7
370
    15
100
AcDbCircle
 10
165.1156159161
 20
82.7621428571
 30
0.0
 40
0.2999999999999972
100
AcDbArc
 50
180.0
 51
270.0
  0
ARC
  5
52
330
1F
100
AcDbEntity
  8
0
  6
Continuous
 62
     7
370
    15
100
AcDbCircle
 10
165.1156159161
 20
122.1621428571
 30
0.0
 40
0.2999999999999972
100
AcDbArc
 50
90.0
 51
180.0
  0
ARC
  5
53
330
1F
100
AcDbEntity
  8
0
  6
Continuous
 62
     7
370
    15
100
AcDbCircle
 10
185.7656159161
 20
84.9621428571
 30
0.0
 40
1.000000000000006
100
AcDbArc
 50
90.0
 51
143.1137328946
  0
ARC
  5
54
330
1F
100
AcDbEntity
  8
0
  6
Continuous
 62
     7
370
    15
100
AcDbCircle
 10
185.7656159161
 20
119.9621428571
 30
0.0
 40
1.0
100
AcDbArc
 50
216.8998129703
 51
270.0
  0
LINE
  5
55
330
1F
100
AcDbEntity
  8
0
  6
Continuous
 62
     7
370
    15
100
AcDbLine
 10
208.3211541711
 20
119.462143781
 30
0.0
 11
205.3062916337
 21
119.462143781
 31
0.0
  0
LINE
  5
56
330
1F
100
AcDbEntity
  8
0
  6
Continuous
 62
     7
370
    15
100
AcDbLine
 10
218.8156173168
 20
119.462143781
 30
0.0
 11
215.3036557673
 21
119.462143781
 31
0.0
  0
LINE
  5
57
330
1F
100
AcDbEntity
  8
0
  6
Continuous
 62
     7
370
    15
100
AcDbLine
 10
200.4770525334
 20
85.4621419333
 30
0.0
 11
218.8156173168
 21
85.4621419333
 31
0.0
  0
ARC
  5
58
330
1F
100
AcDbEntity
  8
0
  6
Continuous
 62
     7
370
    15
100
AcDbCircle
 10
218.8156159161
 20
118.4621428571
 30
0.0
 40
1.0
100
AcDbArc
 50
0.0
 51
90.0
  0
ARC
  5
59
330
1F
100
AcDbEntity
  8
0
  6
Continuous
 62
     7
370
    15
100
AcDbCircle
 10
218.8156159161
 20
86.4621428571
 30
0.0
 40
1.0
100
AcDbArc
 50
270.0
 51
0.0
  0
ARC
  5
5A
330
1F
100
AcDbEntity
  8
0
  6
Continuous
 62
     7
370
    15
100
AcDbCircle
 10
200.4770537438
 20
86.4621428571
 30
0.0
 40
1.0
100
AcDbArc
 50
228.5903778907
 51
270.0
  0
ARC
  5
5B
330
1F
100
AcDbEntity
  8
0
  6
Continuous
 62
     7
370
    15
100
AcDbCircle
 10
199.1541780883
 20
84.9621428571
 30
0.0
 40
1.0
100
AcDbArc
 50
48.5903778907
 51
90.0
  0
LINE
  5
5C
330
1F
100
AcDbEntity
  8
0
  6
Continuous
 62
     7
370
    15
100
AcDbLine
 10
185.7656166492
 20
85.9621429465
 30
0.0
 11
199.1541795967
 21
85.9621429465
 31
0.0
  0
LINE
  5
5D
330
1F
100
AcDbEntity
  8
0
  6
Continuous
 62
     7
370
    15
100
AcDbLine
 10
188.3276142715
 20
118.9621427677
 30
0.0
 11
185.7656166492
 21
118.9621427677
 31
0.0
  0
LINE
  5
5E
330
1F
100
AcDbEntity
  8
0
  6
Continuous
 62
     7
370
    15
100
AcDbLine
 10
198.323514366
 20
118.9621427677
 30
0.0
 11
195.3096706955
 21
118.9621427677
 31
0.0
  0
ARC
  5
5F
330
1F
100
AcDbEntity
  8
0
  6
Continuous
 62
     7
370
    15
100
AcDbCircle
 10
164.3156091634
 20
87.0084357037
 30
0.0
 40
0.6000067526677282
100
AcDbArc
 50
33.5571153394
 51
90.0
  0
ARC
  5
60
330
1F
100
AcDbEntity
  8
0
  6
Continuous
 62
     7
370
    15
100
AcDbCircle
 10
164.3156091634
 20
117.9158500106
 30
0.0
 40
0.6000067526677203
100
AcDbArc
 50
270.0
 51
326.4428846606
  0
LINE
  5
61
330
1F
100
AcDbEntity
  8
0
  6
Continuous
 62
     7
370
    15
100
AcDbLine
 10
155.9996828972
 20
117.2243637614
 30
0.0
 11
148.5156156657
 21
116.8494104989
 31
0.0
  0
LINE
  5
62
330
1F
100
AcDbEntity
  8
0
  6
Continuous
 62
     7
370
    15
100
AcDbLine
 10
162.8156158211
 20
117.5658434279
 30
0.0
 11
161.5808832528
 21
117.5039831199
 31
0.0
  0
LINE
  5
63
330
1F
100
AcDbEntity
  8
0
  6
Continuous
 62
     7
370
    15
100
AcDbLine
 10
161.5818793023
 20
87.4202532343
 30
0.0
 11
162.8156158211
 21
87.3584422864
 31
0.0
  0
LINE
  5
64
330
1F
100
AcDbEntity
  8
0
  6
Continuous
 62
     7
370
    15
100
AcDbLine
 10
151.0156160755
 20
87.9496244363
 30
0.0
 11
156.0001457645
 21
87.6998986698
 31
0.0
  0
LINE
  5
65
330
1F
100
AcDbEntity
  8
0
  6
Continuous
 62
     7
370
    15
100
AcDbLine
 10
162.8156158211
 20
87.3584422864
 30
0.0
 11
163.6723278159
 21
87.5879974685
 31
0.0
  0
LINE
  5
66
330
1F
100
AcDbEntity
  8
0
  6
Continuous
 62
     7
370
    15
100
AcDbLine
 10
163.6723278159
 20
117.3362882457
 30
0.0
 11
162.8156158211
 21
117.5658434279
 31
0.0
  0
ARC
  5
67
330
1F
100
AcDbEntity
  8
0
  6
Continuous
 62
     7
370
    15
100
AcDbCircle
 10
163.8276210055
 20
87.0084357037
 30
0.0
 40
0.600006752667717
100
AcDbArc
 50
90.0
 51
105.0
  0
ARC
  5
68
330
1F
100
AcDbEntity
  8
0
  6
Continuous
 62
     7
370
    15
100
AcDbCircle
 10
163.8276210055
 20
117.9158500106
 30
0.0
 40
0.600006752667717
100
AcDbArc
 50
255.0
 51
270.0
  0
LINE
  5
69
330
1F
100
AcDbEntity
  8
0
  6
Continuous
 62
     7
370
    15
100
AcDbLine
 10
163.8276209658
 20
87.608442793
 30
0.0
 11
164.3156091402
 21
87.608442793
 31
0.0
  0
LINE
  5
6A
330
1F
100
AcDbEntity
  8
0
  6
Continuous
 62
     7
370
    15
100
AcDbLine
 10
164.3156091402
 20
117.3158429213
 30
0.0
 11
163.8276209658
 21
117.3158429213
 31
0.0
  0
ARC
  5
6B
330
1F
100
AcDbEntity
  8
0
  6
Continuous
 62
     7
370
    15
100
AcDbCircle
 10
147.6156159161
 20
116.2421428571
 30
0.0
 40
0.9000000000000057
100
AcDbArc
 50
270.0
 51
311.1792132368
  0
ARC
  5
6C
330
1F
100
AcDbEntity
  8
0
  6
Continuous
 62
     7
370
    15
100
AcDbCircle
 10
150.1156159161
 20
88.6821428571
 30
0.0
 40
0.8999999999999915
100
AcDbArc
 50
34.6391318474
 51
90.0
  0
LINE
  5
6D
330
1F
100
AcDbEntity
  8
0
  6
Continuous
 62
     7
370
    15
100
AcDbLine
 10
145.8656155108
 20
115.3421431429
 30
0.0
 11
144.9156161932
 21
114.3921428941
 31
0.0
  0
LINE
  5
6E
330
1F
100
AcDbEntity
  8
0
  6
Continuous
 62
     7
370
    15
100
AcDbLine
 10
147.6156153319
 20
115.3421431429
 30
0.0
 11
145.8656155108
 21
115.3421431429
 31
0.0
  0
LINE
  5
6F
330
1F
100
AcDbEntity
  8
0
  6
Continuous
 62
     7
370
    15
100
AcDbLine
 10
145.9246166585
 20
89.5821425713
 30
0.0
 11
150.1156157417
 21
89.5821425713
 31
0.0
  0
LINE
  5
70
330
1F
100
AcDbEntity
  8
0
  6
Continuous
 62
     7
370
    15
100
AcDbLine
 10
144.9156161932
 20
90.5911430366
 30
0.0
 11
145.9246166585
 21
89.5821425713
 31
0.0
  0
CIRCLE
  5
71
330
1F
100
AcDbEntity
  8
0
  6
Continuous
 62
     7
370
    15
100
AcDbCircle
 10
201.8156159161
 20
102.4621428571
 30
0.0
 40
3.3095
  0
LINE
  5
72
330
1F
100
AcDbEntity
  8
0
  6
Continuous
 62
     7
370
    15
100
AcDbLine
 10
200.6448768614
 20
100.471488817
 30
0.0
 11
202.9542029439
 21
100.4529259283
 31
0.0
  0
LINE
  5
73
330
1F
100
AcDbEntity
  8
0
  6
Continuous
 62
     7
370
    15
100
AcDbLine
 10
204.1249424754
 20
102.4435799266
 30
0.0
 11
202.9542029439
 21
100.4529259283
 31
0.0
  0
LINE
  5
74
330
1F
100
AcDbEntity
  8
0
  6
Continuous
 62
     7
370
    15
100
AcDbLine
 10
202.9863559244
 20
104.4527968973
 30
0.0
 11
204.1249424754
 21
102.4435799266
 31
0.0
  0
LINE
  5
75
330
1F
100
AcDbEntity
  8
0
  6
Continuous
 62
     7
370
    15
100
AcDbLine
 10
202.9863559244
 20
104.4527968973
 30
0.0
 11
200.677029842
 21
104.471359786
 31
0.0
  0
LINE
  5
76
330
1F
100
AcDbEntity
  8
0
  6
Continuous
 62
     7
370
    15
100
AcDbLine
 10
199.5062903104
 20
102.4807057877
 30
0.0
 11
200.677029842
 21
104.471359786
 31
0.0
  0
LINE
  5
77
330
1F
100
AcDbEntity
  8
0
  6
Continuous
 62
     7
370
    15
100
AcDbLine
 10
199.5062903104
 20
102.4807057877
 30
0.0
 11
200.6448768614
 21
100.471488817
 31
0.0
  0
CIRCLE
  5
78
330
1F
100
AcDbEntity
  8
0
  6
Continuous
 62
     7
370
    15
100
AcDbCircle
 10
211.8156159161
 20
102.4621428571
 30
0.0
 40
3.309500000000028
  0
LINE
  5
79
330
1F
100
AcDbEntity
  8
0
  6
Continuous
 62
     7
370
    15
100
AcDbLine
 10
210.6448785005
 20
100.471488817
 30
0.0
 11
212.954204583
 21
100.4529259283
 31
0.0
  0
LINE
  5
7A
330
1F
100
AcDbEntity
  8
0
  6
Continuous
 62
     7
370
    15
100
AcDbLine
 10
214.1249441145
 20
102.4435799266
 30
0.0
 11
212.954204583
 21
100.4529259283
 31
0.0
  0
LINE
  5
7B
330
1F
100
AcDbEntity
  8
0
  6
Continuous
 62
     7
370
    15
100
AcDbLine
 10
212.9863538383
 20
104.4527968973
 30
0.0
 11
214.1249441145
 21
102.4435799266
 31
0.0
  0
LINE
  5
7C
330
1F
100
AcDbEntity
  8
0
  6
Continuous
 62
     7
370
    15
100
AcDbLine
 10
212.9863538383
 20
104.4527968973
 30
0.0
 11
210.6770277558
 21
104.471359786
 31
0.0
  0
LINE
  5
7D
330
1F
100
AcDbEntity
  8
0
  6
Continuous
 62
     7
370
    15
100
AcDbLine
 10
209.5062882243
 20
102.4807057877
 30
0.0
 11
210.6770277558
 21
104.471359786
 31
0.0
  0
LINE
  5
7E
330
1F
100
AcDbEntity
  8
0
  6
Continuous
 62
     7
370
    15
100
AcDbLine
 10
209.5062882243
 20
102.4807057877
 30
0.0
 11
210.6448785005
 21
100.471488817
 31
0.0
  0
CIRCLE
  5
7F
330
1F
100
AcDbEntity
  8
0
  6
Continuous
 62
     7
370
    15
100
AcDbCircle
 10
191.8156159161
 20
102.4621428571
 30
0.0
 40
3.3095
  0
LINE
  5
80
330
1F
100
AcDbEntity
  8
0
  6
Continuous
 62
     7
370
    15
100
AcDbLine
 10
190.6448770849
 20
100.471488817
 30
0.0
 11
192.9542031674
 21
100.4529259283
 31
0.0
  0
LINE
  5
81
330
1F
100
AcDbEntity
  8
0
  6
Continuous
 62
     7
370
    15
100
AcDbLine
 10
194.1249426989
 20
102.4435799266
 30
0.0
 11
192.9542031674
 21
100.4529259283
 31
0.0
  0
LINE
  5
82
330
1F
100
AcDbEntity
  8
0
  6
Continuous
 62
     7
370
    15
100
AcDbLine
 10
192.9863542853
 20
104.4527968973
 30
0.0
 11
194.1249426989
 21
102.4435799266
 31
0.0
  0
LINE
  5
83
330
1F
100
AcDbEntity
  8
0
  6
Continuous
 62
     7
370
    15
100
AcDbLine
 10
192.9863542853
 20
104.4527968973
 30
0.0
 11
190.6770282028
 21
104.471359786
 31
0.0
  0
LINE
  5
84
330
1F
100
AcDbEntity
  8
0
  6
Continuous
 62
     7
370
    15
100
AcDbLine
 10
189.5062886713
 20
102.4807057877
 30
0.0
 11
190.6770282028
 21
104.471359786
 31
0.0
  0
LINE
  5
85
330
1F
100
AcDbEntity
  8
0
  6
Continuous
 62
     7
370
    15
100
AcDbLine
 10
189.5062886713
 20
102.4807057877
 30
0.0
 11
190.6448770849
 21
100.471488817
 31
0.0
  0
LINE
  5
86
330
1F
100
AcDbEntity
  8
0
  6
Continuous
 62
     7
370
    15
100
AcDbLine
 10
191.3269926397
 20
118.5946056269
 30
0.0
 11
192.103536853
 21
118.5946056269
 31
0.0
  0
LINE
  5
87
330
1F
100
AcDbEntity
  8
0
  6
Continuous
 62
     7
370
    15
100
AcDbLine
 10
182.8507762937
 20
83.2332579069
 30
0.0
 11
182.8507762937
 21
114.3121432163
 31
0.0
  0
SPLINE
  5
88
330
1F
100
AcDbEntity
  8
0
  6
Continuous
 62
     7
370
    15
100
AcDbSpline
210
0.0
220
0.0
230
1.0
 70
     8
 71
     3
 72
     8
 73
     4
 74
     0
 42
0.00000001
 43
0.00000001
 12
1.0
 22
0.0
 32
0.0
 13
1.0
 23
0.0
 33
0.0
 40
0.0
 40
0.0
 40
0.0
 40
0.0
 40
1.0
 40
1.0
 40
1.0
 40
1.0
 10
182.8507756149673
 20
83.23325833411347
 30
0.0
 10
182.5180703432619
 20
83.83263000733714
 30
0.0
 10
182.1862545426884
 20
84.43249911804219
 30
0.0
 10
181.8556159160738
 20
85.03301946915317
 30
0.0
  0
LINE
  5
89
330
1F
100
AcDbEntity
  8
0
  6
Continuous
 62
     7
370
    15
100
AcDbLine
 10
181.8556152819
 20
85.0330201559
 30
0.0
 11
181.8556152819
 21
114.3121432163
 31
0.0
  0
SPLINE
  5
8A
330
1F
100
AcDbEntity
  8
0
  6
Continuous
 62
     7
370
    15
100
AcDbSpline
210
0.0
220
0.0
230
1.0
 70
    24
 71
     3
 72
     8
 73
     4
 74
     0
 42
0.00000001
 43
0.00000001
 12
1.0
 22
0.0
 32
0.0
 13
1.0
 23
0.0
 33
0.0
 40
0.0
 40
0.0
 40
0.0
 40
0.0
 40
1.0
 40
1.0
 40
1.0
 40
1.0
 10
181.8556159160738
 20
114.3121428571429
 30
0.0
 10
182.1792525716961
 20
114.3121428571429
 30
0.0
 10
182.5117427932127
 20
114.3121428571429
 30
0.0
 10
182.8507756149673
 20
114.3121428571429
 30
0.0
  0
LINE
  5
8B
330
1F
100
AcDbEntity
  8
0
  6
Continuous
 62
     7
370
    15
100
AcDbLine
 10
179.7756162075
 20
85.0330201559
 30
0.0
 11
179.7756162075
 21
114.3121432163
 31
0.0
  0
SPLINE
  5
8C
330
1F
100
AcDbEntity
  8
0
  6
Continuous
 62
     7
370
    15
100
AcDbSpline
210
0.0
220
0.0
230
1.0
 70
     8
 71
     3
 72
     8
 73
     4
 74
     0
 42
0.00000001
 43
0.00000001
 12
1.0
 22
0.0
 32
0.0
 13
1.0
 23
0.0
 33
0.0
 40
0.0
 40
0.0
 40
0.0
 40
0.0
 40
1.0
 40
1.0
 40
1.0
 40
1.0
 10
179.7756159160738
 20
85.03301946915317
 30
0.0
 10
179.4449772894592
 20
84.43249911804219
 30
0.0
 10
179.1131614888857
 20
83.83263000733714
 30
0.0
 10
178.7804562171804
 20
83.23325833411347
 30
0.0
  0
LINE
  5
8D
330
1F
100
AcDbEntity
  8
0
  6
Continuous
 62
     7
370
    15
100
AcDbLine
 10
178.780456127
 20
83.2332579069
 30
0.0
 11
178.780456127
 21
114.3121432163
 31
0.0
  0
SPLINE
  5
8E
330
1F
100
AcDbEntity
  8
0
  6
Continuous
 62
     7
370
    15
100
AcDbSpline
210
0.0
220
0.0
230
1.0
 70
    24
 71
     3
 72
     8
 73
     4
 74
     0
 42
0.00000001
 43
0.00000001
 12
1.0
 22
0.0
 32
0.0
 13
1.0
 23
0.0
 33
0.0
 40
0.0
 40
0.0
 40
0.0
 40
0.0
 40
1.0
 40
1.0
 40
1.0
 40
1.0
 10
178.7804562171804
 20
114.3121428571429
 30
0.0
 10
179.119489038935
 20
114.3121428571429
 30
0.0
 10
179.4519792604516
 20
114.3121428571429
 30
0.0
 10
179.7756159160738
 20
114.3121428571429
 30
0.0
  0
LINE
  5
8F
330
1F
100
AcDbEntity
  8
0
  6
Continuous
 62
     7
370
    15
100
AcDbLine
 10
172.765616381
 20
114.3121432163
 30
0.0
 11
178.780456127
 21
114.3121432163
 31
0.0
  0
LINE
  5
90
330
1F
100
AcDbEntity
  8
0
  6
Continuous
 62
     7
370
    15
100
AcDbLine
 10
178.780456127
 20
83.2332579069
 30
0.0
 11
177.2656161873
 21
83.2332579069
 31
0.0
  0
SPLINE
  5
91
330
1F
100
AcDbEntity
  8
0
  6
Continuous
 62
     7
370
    15
100
AcDbSpline
210
0.0
220
0.0
230
1.0
 70
     8
 71
     3
 72
    22
 73
    18
 74
     0
 42
0.00000001
 43
0.00000001
 12
1.0
 22
0.0
 32
0.0
 13
1.0
 23
0.0
 33
0.0
 40
0.0
 40
0.0
 40
0.0
 40
0.0
 40
0.125
 40
0.125
 40
0.25
 40
0.25
 40
0.375
 40
0.375
 40
0.5
 40
0.5
 40
0.625
 40
0.625
 40
0.75
 40
0.75
 40
0.875
 40
0.875
 40
1.0
 40
1.0
 40
1.0
 40
1.0
 10
177.2656159160738
 20
83.23325833411349
 30
0.0
 10
176.9664914870332
 20
83.23325833411349
 30
0.0
 10
176.6726690387844
 20
83.22474423304709
 30
0.0
 10
176.0951047625381
 20
83.19230046416519
 30
0.0
 10
175.8082870847241
 20
83.16796657546315
 30
0.0
 10
175.2638245558248
 20
83.10750655070632
 30
0.0
 10
175.0058692852035
 20
83.07159312992785
 30
0.0
 10
174.5178113418436
 20
82.9918831038587
 30
0.0
 10
174.2881130431798
 20
82.94800480266937
 30
0.0
 10
173.8756940602272
 20
82.85976118029919
 30
0.0
 10
173.6901671173671
 20
82.81495283883822
 30
0.0
 10
173.3616470724663
 20
82.72763183091904
 30
0.0
 10
173.2232331855668
 20
82.68634104234337
 30
0.0
 10
172.9986410389509
 20
82.61200281904955
 30
0.0
 10
172.9115622268266
 20
82.57859269331489
 30
0.0
 10
172.7950604188716
 20
82.52357329178875
 30
0.0
 10
172.7656159160738
 20
82.50211152532249
 30
0.0
 10
172.7656159160738
 20
82.48715850170471
 30
0.0
  0
LINE
  5
92
330
1F
100
AcDbEntity
  8
0
  6
Continuous
 62
     7
370
    15
100
AcDbLine
 10
172.765616381
 20
82.4871586285
 30
0.0
 11
172.765616381
 21
82.4621433042
 31
0.0
  0
SPLINE
  5
93
330
1F
100
AcDbEntity
  8
0
  6
Continuous
 62
     7
370
    15
100
AcDbSpline
210
0.0
220
0.0
230
1.0
 70
     8
 71
     3
 72
    17
 73
    13
 74
     0
 42
0.00000001
 43
0.00000001
 12
1.0
 22
0.0
 32
0.0
 13
1.0
 23
0.0
 33
0.0
 40
0.0
 40
0.0
 40
0.0
 40
0.0
 40
0.1039928149931941
 40
0.211050797947968
 40
0.315030024669631
 40
0.4219351868122974
 40
0.5275775927633417
 40
0.6362134531400181
 40
0.7429488821168505
 40
0.8528788227495517
 40
0.9578277247781112
 40
1.0
 40
1.0
 40
1.0
 40
1.0
 10
177.265616187275
 20
121.9493189476218
 30
0.0
 10
177.01979910305
 20
121.9520347822148
 30
0.0
 10
176.5209195239336
 20
121.9575465000964
 30
0.0
 10
175.7974359804089
 20
122.000630258872
 30
0.0
 10
175.1096406242011
 20
122.0644968710535
 30
0.0
 10
174.4848952520669
 20
122.1438323870784
 30
0.0
 10
173.9289444490045
 20
122.2307711788467
 30
0.0
 10
173.4669579424373
 20
122.3147307701657
 30
0.0
 10
173.1046928111656
 20
122.3878936392567
 30
0.0
 10
172.8729138404119
 20
122.4380306795483
 30
0.0
 10
172.7633478961287
 20
122.4626507769308
 30
0.0
 10
172.7771787714932
 20
122.4595456288655
 30
0.0
 10
172.7811433909541
 20
122.4586555383887
 30
0.0
  0
LINE
  5
94
330
1F
100
AcDbEntity
  8
0
  6
Continuous
 62
     7
370
    15
100
AcDbLine
 10
178.780456127
 20
121.9493189476
 30
0.0
 11
177.2656161873
 21
121.9493189476
 31
0.0
  0
LINE
  5
95
330
1F
100
AcDbEntity
  8
0
  6
Continuous
 62
     7
370
    15
100
AcDbLine
 10
178.780456127
 20
118.5735521488
 30
0.0
 11
178.780456127
 21
121.9493189476
 31
0.0
  0
LINE
  5
96
330
1F
100
AcDbEntity
  8
0
  6
Continuous
 62
     7
370
    15
100
AcDbLine
 10
177.2592859877
 20
118.5735521488
 30
0.0
 11
178.780456127
 21
118.5735521488
 31
0.0
  0
SPLINE
  5
97
330
1F
100
AcDbEntity
  8
0
  6
Continuous
 62
     7
370
    15
100
AcDbSpline
210
0.0
220
0.0
230
1.0
 70
     8
 71
     3
 72
    22
 73
    18
 74
     0
 42
0.00000001
 43
0.00000001
 12
1.0
 22
0.0
 32
0.0
 13
1.0
 23
0.0
 33
0.0
 40
0.0
 40
0.0
 40
0.0
 40
0.0
 40
0.2500000000000002
 40
0.2500000000000002
 40
0.3750000000000001
 40
0.3750000000000001
 40
0.5000000000000001
 40
0.5000000000000001
 40
0.6250000000000001
 40
0.6250000000000001
 40
0.75
 40
0.75
 40
0.875
 40
0.875
 40
0.9375000000000001
 40
0.9375000000000001
 40
1.0
 40
1.0
 40
1.0
 40
1.0
 10
172.7656159160738
 20
114.3121428571429
 30
0.0
 10
172.7875969340605
 20
114.8750154990409
 30
0.0
 10
172.8665738174152
 20
115.4056403827704
 30
0.0
 10
173.1129717104476
 20
116.151351373692
 30
0.0
 10
173.2174963255385
 20
116.3929716000907
 30
0.0
 10
173.4793429208451
 20
116.8518303754166
 30
0.0
 10
173.6345595430109
 20
117.0660090478865
 30
0.0
 10
174.0031512960748
 20
117.463237607032
 30
0.0
 10
174.2192849885397
 20
117.6476824420518
 30
0.0
 10
174.7031794835266
 20
117.9687622899354
 30
0.0
 10
174.9736450285343
 20
118.1081131200415
 30
0.0
 10
175.5698715940445
 20
118.337418654467
 30
0.0
 10
175.8853648607644
 20
118.4239546639433
 30
0.0
 10
176.386081508783
 20
118.5128442682746
 30
0.0
 10
176.5588779433981
 20
118.5356527741362
 30
0.0
 10
176.9072467161802
 20
118.5659439368325
 30
0.0
 10
177.0826477450906
 20
118.5735518582204
 30
0.0
 10
177.2592863907786
 20
118.5735518582204
 30
0.0
  0
LINE
  5
98
330
1F
100
AcDbEntity
  8
0
  6
Continuous
 62
     7
370
    15
100
AcDbLine
 10
184.7656164853
 20
83.8581101618
 30
0.0
 11
184.7656164853
 21
114.3121432163
 31
0.0
  0
SPLINE
  5
99
330
1F
100
AcDbEntity
  8
0
  6
Continuous
 62
     7
370
    15
100
AcDbSpline
210
0.0
220
0.0
230
1.0
 70
     8
 71
     3
 72
    10
 73
     6
 74
     0
 42
0.00000001
 43
0.00000001
 12
1.0
 22
0.0
 32
0.0
 13
1.0
 23
0.0
 33
0.0
 40
0.0
 40
0.0
 40
0.0
 40
0.0
 40
0.5
 40
0.5
 40
1.0
 40
1.0
 40
1.0
 40
1.0
 10
184.7656159160738
 20
83.85811103605637
 30
0.0
 10
184.7656159160738
 20
83.69847886715311
 30
0.0
 10
184.7039794023685
 20
83.53742923338906
 30
0.0
 10
184.4849530361257
 20
83.30443834971247
 30
0.0
 10
184.3273361480782
 20
83.23325833411347
 30
0.0
 10
184.1656159160738
 20
83.23325833411347
 30
0.0
  0
SPLINE
  5
9A
330
1F
100
AcDbEntity
  8
0
  6
Continuous
 62
     7
370
    15
100
AcDbSpline
210
0.0
220
0.0
230
1.0
 70
    24
 71
     3
 72
    12
 73
     8
 74
     0
 42
0.00000001
 43
0.00000001
 12
1.0
 22
0.0
 32
0.0
 13
1.0
 23
0.0
 33
0.0
 40
0.0
 40
0.0
 40
0.0
 40
0.0
 40
0.250000000000002
 40
0.250000000000002
 40
0.500000000000004
 40
0.500000000000004
 40
1.0
 40
1.0
 40
1.0
 40
1.0
 10
184.1656159160738
 20
114.3121428571429
 30
0.0
 10
184.2538027814427
 20
114.3121428571429
 30
0.0
 10
184.342490174744
 20
114.3121428571429
 30
0.0
 10
184.4967426678628
 20
114.3121428571429
 30
0.0
 10
184.5620886489388
 20
114.3121428571429
 30
0.0
 10
184.7164985188899
 20
114.3121428571429
 30
0.0
 10
184.7656159160738
 20
114.3121428571429
 30
0.0
 10
184.7656159160738
 20
114.3121428571429
 30
0.0
  0
LINE
  5
9B
330
1F
100
AcDbEntity
  8
0
  6
Continuous
 62
     7
370
    15
100
AcDbLine
 10
184.1656156419
 20
83.2332579069
 30
0.0
 11
182.8507762937
 21
83.2332579069
 31
0.0
  0
LINE
  5
9C
330
1F
100
AcDbEntity
  8
0
  6
Continuous
 62
     7
370
    15
100
AcDbLine
 10
182.8507762937
 20
114.3121432163
 30
0.0
 11
184.1656156419
 21
114.3121432163
 31
0.0
  0
LINE
  5
9D
330
1F
100
AcDbEntity
  8
0
  6
Continuous
 62
     7
370
    15
100
AcDbLine
 10
164.8156159161
 20
82.7621427946
 30
0.0
 11
164.8156159161
 21
122.1621429197
 31
0.0
  0
SPLINE
  5
9E
330
1F
100
AcDbEntity
  8
0
  6
Continuous
 62
     7
370
    15
100
AcDbSpline
210
0.0
220
0.0
230
1.0
 70
    24
 71
     3
 72
    16
 73
    12
 74
     0
 42
0.00000001
 43
0.00000001
 12
1.0
 22
0.0
 32
0.0
 13
1.0
 23
0.0
 33
0.0
 40
0.0
 40
0.0
 40
0.0
 40
0.0
 40
0.5000000000000001
 40
0.5000000000000001
 40
0.7499999999999993
 40
0.7499999999999993
 40
0.8749999999999983
 40
0.8749999999999983
 40
0.9374999999999991
 40
0.9374999999999991
 40
1.0
 40
1.0
 40
1.0
 40
1.0
 10
181.8203935154926
 20
85.56214285714289
 30
0.0
 10
181.7903570959659
 20
85.56214285714289
 30
0.0
 10
181.7437229987611
 20
85.56214285714289
 30
0.0
 10
181.6333385871824
 20
85.56214285714289
 30
0.0
 10
181.5900009386618
 20
85.56214285714289
 30
0.0
 10
181.5015193042772
 20
85.56214285714289
 30
0.0
 10
181.4681437996606
 20
85.56214285714289
 30
0.0
 10
181.40365159021
 20
85.56214285714289
 30
0.0
 10
181.3794472530234
 20
85.56214285714289
 30
0.0
 10
181.323693443213
 20
85.56214285714289
 30
0.0
 10
181.2901094171448
 20
85.56214285714289
 30
0.0
 10
181.2556159160739
 20
85.56214285714289
 30
0.0
  0
SPLINE
  5
9F
330
1F
100
AcDbEntity
  8
0
  6
Continuous
 62
     7
370
    15
100
AcDbSpline
210
0.0
220
0.0
230
1.0
 70
    24
 71
     3
 72
    12
 73
     8
 74
     0
 42
0.00000001
 43
0.00000001
 12
1.0
 22
0.0
 32
0.0
 13
1.0
 23
0.0
 33
0.0
 40
0.0
 40
0.0
 40
0.0
 40
0.0
 40
0.249999999999999
 40
0.249999999999999
 40
0.499999999999998
 40
0.499999999999998
 40
1.0
 40
1.0
 40
1.0
 40
1.0
 10
181.2556159160739
 20
114.3121428571429
 30
0.0
 10
181.3482740055801
 20
114.3121428571429
 30
0.0
 10
181.4403374151378
 20
114.3121428571429
 30
0.0
 10
181.5944949656285
 20
114.3121428571429
 30
0.0
 10
181.6589838989933
 20
114.3121428571429
 30
0.0
 10
181.8090354479428
 20
114.3121428571429
 30
0.0
 10
181.8556159160738
 20
114.3121428571429
 30
0.0
 10
181.8556159160738
 20
114.3121428571429
 30
0.0
  0
SPLINE
  5
A0
330
1F
100
AcDbEntity
  8
0
  6
Continuous
 62
     7
370
    15
100
AcDbSpline
210
0.0
220
0.0
230
1.0
 70
    24
 71
     3
 72
    16
 73
    12
 74
     0
 42
0.00000001
 43
0.00000001
 12
1.0
 22
0.0
 32
0.0
 13
1.0
 23
0.0
 33
0.0
 40
0.0
 40
0.0
 40
0.0
 40
0.0
 40
0.0624999999999997
 40
0.0624999999999997
 40
0.1249999999999994
 40
0.1249999999999994
 40
0.2499999999999988
 40
0.2499999999999988
 40
0.499999999999999
 40
0.499999999999999
 40
1.0
 40
1.0
 40
1.0
 40
1.0
 10
180.3756159160473
 20
85.56214285714289
 30
0.0
 10
180.3411372488621
 20
85.56214285714289
 30
0.0
 10
180.3073170720252
 20
85.56214285714289
 30
0.0
 10
180.2507950048415
 20
85.56214285714289
 30
0.0
 10
180.2264689253152
 20
85.56214285714289
 30
0.0
 10
180.162016025764
 20
85.56214285714289
 30
0.0
 10
180.1283877504054
 20
85.56214285714289
 30
0.0
 10
180.0403104348805
 20
85.56214285714289
 30
0.0
 10
179.9974909816129
 20
85.56214285714289
 30
0.0
 10
179.8868343474159
 20
85.56214285714289
 30
0.0
 10
179.8406017614719
 20
85.56214285714289
 30
0.0
 10
179.8108383166552
 20
85.56214285714289
 30
0.0
  0
SPLINE
  5
A1
330
1F
100
AcDbEntity
  8
0
  6
Continuous
 62
     7
370
    15
100
AcDbSpline
210
0.0
220
0.0
230
1.0
 70
    24
 71
     3
 72
    12
 73
     8
 74
     0
 42
0.00000001
 43
0.00000001
 12
1.0
 22
0.0
 32
0.0
 13
1.0
 23
0.0
 33
0.0
 40
0.0
 40
0.0
 40
0.0
 40
0.0
 40
0.5000000000000013
 40
0.5000000000000013
 40
0.7500000000000007
 40
0.7500000000000007
 40
1.0
 40
1.0
 40
1.0
 40
1.0
 10
179.7756159160738
 20
114.3121428571429
 30
0.0
 10
179.7756159160738
 20
114.3121428571429
 30
0.0
 10
179.8226120135822
 20
114.3121428571429
 30
0.0
 10
179.9721179515824
 20
114.3121428571429
 30
0.0
 10
180.0366365741409
 20
114.3121428571429
 30
0.0
 10
180.1910762668698
 20
114.3121428571429
 30
0.0
 10
180.2820146548728
 20
114.3121428571429
 30
0.0
 10
180.3756159160739
 20
114.3121428571429
 30
0.0
  0
SPLINE
  5
A2
330
1F
100
AcDbEntity
  8
0
  6
Continuous
 62
     7
370
    15
100
AcDbSpline
210
0.0
220
0.0
230
1.0
 70
     8
 71
     3
 72
    10
 73
     6
 74
     0
 42
0.00000001
 43
0.00000001
 12
1.0
 22
0.0
 32
0.0
 13
1.0
 23
0.0
 33
0.0
 40
0.0
 40
0.0
 40
0.0
 40
0.0
 40
0.0000100224852105
 40
0.8297491912727495
 40
1.0
 40
1.0
 40
1.0
 40
1.0
 10
184.9656161455517
 20
119.362142088243
 30
0.0
 10
184.9656161455534
 20
119.362142088243
 30
0.0
 10
184.9656162832774
 20
119.3621420884226
 30
0.0
 10
184.9244398303577
 20
119.3621420882294
 30
0.0
 10
184.8719315202655
 20
119.362142088241
 30
0.0
 10
184.8629918484097
 20
119.362142088243
 30
0.0
  0
LINE
  5
A3
330
1F
100
AcDbEntity
  8
0
  6
Continuous
 62
     7
370
    15
100
AcDbLine
 10
184.7690046368
 20
119.3621420882
 30
0.0
 11
184.7656779526
 21
119.3621420882
 31
0.0
  0
SPLINE
  5
A4
330
1F
100
AcDbEntity
  8
0
  6
Continuous
 62
     7
370
    15
100
AcDbSpline
210
0.0
220
0.0
230
1.0
 70
     8
 71
     3
 72
    10
 73
     6
 74
     0
 42
0.00000001
 43
0.00000001
 12
1.0
 22
0.0
 32
0.0
 13
1.0
 23
0.0
 33
0.0
 40
0.0
 40
0.0
 40
0.0
 40
0.0
 40
0.0000098434885725
 40
0.8383950128568723
 40
1.0
 40
1.0
 40
1.0
 40
1.0
 10
184.9656161455517
 20
85.56214362604281
 30
0.0
 10
184.9656161455533
 20
85.56214362604281
 30
0.0
 10
184.9656162790661
 20
85.5621436262779
 30
0.0
 10
184.9248446589207
 20
85.56214362602616
 30
0.0
 10
184.8730209324
 20
85.5621436260405
 30
0.0
 10
184.8646458773022
 20
85.56214362604281
 30
0.0
  0
SPLINE
  5
A5
330
1F
100
AcDbEntity
  8
0
  6
Continuous
 62
     7
370
    15
100
AcDbSpline
210
0.0
220
0.0
230
1.0
 70
    24
 71
     3
 72
    12
 73
     8
 74
     0
 42
0.00000001
 43
0.00000001
 12
1.0
 22
0.0
 32
0.0
 13
1.0
 23
0.0
 33
0.0
 40
0.0
 40
0.0
 40
0.0
 40
0.0
 40
0.5
 40
0.5
 40
0.75
 40
0.75
 40
1.0
 40
1.0
 40
1.0
 40
1.0
 10
184.7656159160738
 20
114.3121428571429
 30
0.0
 10
184.7656159160738
 20
114.3121428571429
 30
0.0
 10
184.7928366642015
 20
114.3121428571429
 30
0.0
 10
184.8732831099744
 20
114.3121428571429
 30
0.0
 10
184.9067303384525
 20
114.3121428571429
 30
0.0
 10
184.9891399082267
 20
114.3121428571429
 30
0.0
 10
185.0384230051103
 20
114.3121428571429
 30
0.0
 10
185.0947396277469
 20
114.3121428571429
 30
0.0
  0
SPLINE
  5
A6
330
1F
100
AcDbEntity
  8
0
  6
Continuous
 62
     7
370
    15
100
AcDbSpline
210
0.0
220
0.0
230
1.0
 70
     8
 71
     3
 72
    10
 73
     6
 74
     0
 42
0.00000001
 43
0.00000001
 12
1.0
 22
0.0
 32
0.0
 13
1.0
 23
0.0
 33
0.0
 40
0.0
 40
0.0
 40
0.0
 40
0.0
 40
0.5
 40
0.5
 40
1.0
 40
1.0
 40
1.0
 40
1.0
 10
184.7656159160738
 20
115.3395455455735
 30
0.0
 10
184.7656159160738
 20
115.1568368334385
 30
0.0
 10
184.7925892497819
 20
114.9733285436777
 30
0.0
 10
184.9001796175677
 20
114.6250245653571
 30
0.0
 10
184.9816441619109
 20
114.4568369828142
 30
0.0
 10
185.0947396277466
 20
114.3121428571415
 30
0.0
  0
LINE
  5
A7
330
1F
100
AcDbEntity
  8
0
  6
Continuous
 62
     7
370
    15
100
AcDbLine
 10
181.2556163011
 20
85.562143626
 30
0.0
 11
180.3756161196
 21
85.562143626
 31
0.0
  0
LINE
  5
A8
330
1F
100
AcDbEntity
  8
0
  6
Continuous
 62
     7
370
    15
100
AcDbLine
 10
180.3756161196
 20
114.3121432163
 30
0.0
 11
181.2556163011
 21
114.3121432163
 31
0.0
  0
SPLINE
  5
A9
330
1F
100
AcDbEntity
  8
0
  6
Continuous
 62
     7
370
    15
100
AcDbSpline
210
0.0
220
0.0
230
1.0
 70
     8
 71
     3
 72
    17
 73
    13
 74
     0
 42
0.00000001
 43
0.00000001
 12
1.0
 22
0.0
 32
0.0
 13
1.0
 23
0.0
 33
0.0
 40
0.0
 40
0.0
 40
0.0
 40
0.0
 40
0.104296631004894
 40
0.211658907974047
 40
0.3159441421171175
 40
0.4231783416880534
 40
0.5288575767175796
 40
0.6375433893975311
 40
0.744129945279386
 40
0.8538907634960204
 40
0.9589751266501257
 40
1.0
 40
1.0
 40
1.0
 40
1.0
 10
211.8156143067484
 20
119.0979482255664
 30
0.0
 10
212.0072612114392
 20
119.0998814578261
 30
0.0
 10
212.3961881995177
 20
119.1038047468625
 30
0.0
 10
212.9602869521634
 20
119.1344899922574
 30
0.0
 10
213.4966183758259
 20
119.1800021316586
 30
0.0
 10
213.9832652396743
 20
119.2365194540635
 30
0.0
 10
214.4156890854912
 20
119.2983837386598
 30
0.0
 10
214.7741232994507
 20
119.3579949523075
 30
0.0
 10
215.0546089081627
 20
119.4098372657243
 30
0.0
 10
215.2335979352474
 20
119.4452758502441
 30
0.0
 10
215.3178417709356
 20
119.4625993891508
 30
0.0
 10
215.3067657240976
 20
119.4603239829768
 30
0.0
 10
215.3036557672625
 20
119.4596850894179
 30
0.0
  0
SPLINE
  5
AA
330
1F
100
AcDbEntity
  8
0
  6
Continuous
 62
     7
370
    15
100
AcDbSpline
210
0.0
220
0.0
230
1.0
 70
     8
 71
     3
 72
    16
 73
    12
 74
     0
 42
0.00000001
 43
0.00000001
 12
1.0
 22
0.0
 32
0.0
 13
1.0
 23
0.0
 33
0.0
 40
0.0
 40
0.0
 40
0.0
 40
0.0
 40
0.0897207612197864
 40
0.1967286353878007
 40
0.3004984919100494
 40
0.4071807185267589
 40
0.5127184705554975
 40
0.6212479866093221
 40
0.7278985171931708
 40
0.8377152103482657
 40
1.0
 40
1.0
 40
1.0
 40
1.0
 10
208.3211541710501
 20
119.4610075674739
 30
0.0
 10
208.3256797706276
 20
119.4600680806851
 30
0.0
 10
208.335602948018
 20
119.45800808976
 30
0.0
 10
208.4665805615537
 20
119.4314040725261
 30
0.0
 10
208.6871199255026
 20
119.3889216049683
 30
0.0
 10
208.9939215185473
 20
119.3343807211494
 30
0.0
 10
209.3825938101613
 20
119.2732066592156
 30
0.0
 10
209.8397045811809
 20
119.2124348422183
 30
0.0
 10
210.3598531950815
 20
119.1589210244831
 30
0.0
 10
211.0160388421613
 20
119.1103658293332
 30
0.0
 10
211.5168964505261
 20
119.1025873873978
 30
0.0
 10
211.8156143067484
 20
119.0979482255664
 30
0.0
  0
SPLINE
  5
AB
330
1F
100
AcDbEntity
  8
0
  6
Continuous
 62
     7
370
    15
100
AcDbSpline
210
0.0
220
0.0
230
1.0
 70
     8
 71
     3
 72
    70
 73
    66
 74
     0
 42
0.00000001
 43
0.00000001
 12
1.0
 22
0.0
 32
0.0
 13
1.0
 23
0.0
 33
0.0
 40
-0.0312500000000001
 40
-0.0312500000000001
 40
0.0
 40
0.0
 40
0.0312499999999999
 40
0.0312499999999999
 40
0.0624999999999999
 40
0.0624999999999999
 40
0.0937499999999998
 40
0.0937499999999998
 40
0.1249999999999998
 40
0.1249999999999998
 40
0.1562499999999997
 40
0.1562499999999997
 40
0.1874999999999997
 40
0.1874999999999997
 40
0.2187499999999997
 40
0.2187499999999997
 40
0.2499999999999997
 40
0.2499999999999997
 40
0.2812499999999997
 40
0.2812499999999997
 40
0.3124999999999997
 40
0.3124999999999997
 40
0.3437499999999997
 40
0.3437499999999997
 40
0.3749999999999997
 40
0.3749999999999997
 40
0.4062499999999997
 40
0.4062499999999997
 40
0.4374999999999997
 40
0.4374999999999997
 40
0.4687499999999997
 40
0.4687499999999997
 40
0.4999999999999997
 40
0.4999999999999997
 40
0.5312499999999996
 40
0.5312499999999996
 40
0.5624999999999996
 40
0.5624999999999996
 40
0.5937499999999994
 40
0.5937499999999994
 40
0.6249999999999994
 40
0.6249999999999994
 40
0.6562499999999993
 40
0.6562499999999993
 40
0.6874999999999994
 40
0.6874999999999994
 40
0.7187499999999994
 40
0.7187499999999994
 40
0.7499999999999996
 40
0.7499999999999996
 40
0.7812499999999996
 40
0.7812499999999996
 40
0.8124999999999997
 40
0.8124999999999997
 40
0.8437499999999997
 40
0.8437499999999997
 40
0.8749999999999998
 40
0.8749999999999998
 40
0.9062499999999998
 40
0.9062499999999998
 40
0.9374999999999999
 40
0.9374999999999999
 40
0.9687499999999999
 40
0.9687499999999999
 40
1.0
 40
1.0
 40
1.03125
 40
1.03125
 10
211.5837229262718
 20
98.96214285714306
 30
0.0
 10
212.0475089058759
 20
98.96214285714306
 30
0.0
 10
212.2753992193812
 20
98.98496006548126
 30
0.0
 10
212.7235421746001
 20
99.07424221490048
 30
0.0
 10
212.9461590175084
 20
99.14183417876808
 30
0.0
 10
213.3696874507058
 20
99.31771300593951
 30
0.0
 10
213.5704629732073
 20
99.42524802008975
 30
0.0
 10
213.9504375866146
 20
99.67920288649326
 30
0.0
 10
214.1298484843566
 20
99.82658999375896
 30
0.0
 10
214.4517150533358
 20
100.1485325584282
 30
0.0
 10
214.5963762247014
 20
100.3243181903217
 30
0.0
 10
214.8522741240842
 20
100.7066859001567
 30
0.0
 10
214.9606121323621
 20
100.9094291416613
 30
0.0
 10
215.1353854655636
 20
101.3303075241579
 30
0.0
 10
215.2029351093301
 20
101.5515424907008
 30
0.0
 10
215.2930970697159
 20
102.0036135010152
 30
0.0
 10
215.3154789416807
 20
102.2311156489481
 30
0.0
 10
215.3157516489638
 20
102.6890010072792
 30
0.0
 10
215.2928800466922
 20
102.9216223497381
 30
0.0
 10
215.2033132600645
 20
103.3709849466827
 30
0.0
 10
215.1370508863784
 20
103.5894669829309
 30
0.0
 10
214.9611737350605
 20
104.0139985056996
 30
0.0
 10
214.8518697099578
 20
104.2179858866444
 30
0.0
 10
214.5988470301142
 20
104.596492034518
 30
0.0
 10
214.453481889774
 20
104.7739679914354
 30
0.0
 10
214.1283540891011
 20
105.0992083644396
 30
0.0
 10
213.9523249257838
 20
105.2435685199548
 30
0.0
 10
213.5739104057735
 20
105.4969829843022
 30
0.0
 10
213.3690129347054
 20
105.6068807795374
 30
0.0
 10
212.946103648409
 20
105.7824465157077
 30
0.0
 10
212.727954884917
 20
105.8489199337661
 30
0.0
 10
212.2781037089017
 20
105.9390274399692
 30
0.0
 10
212.0457886093301
 20
105.9620489012615
 30
0.0
 10
211.5883095273817
 20
105.9622362261887
 30
0.0
 10
211.3605251316164
 20
105.9401250548671
 30
0.0
 10
210.906924848447
 20
105.8500254308753
 30
0.0
 10
210.6870808258937
 20
105.7830511747943
 30
0.0
 10
210.2656247572535
 20
105.6084980360114
 30
0.0
 10
210.0611801075917
 20
105.4993192130266
 30
0.0
 10
209.6802422658764
 20
105.2447072493657
 30
0.0
 10
209.5044166973586
 20
105.1004015306552
 30
0.0
 10
209.1814818637766
 20
104.7780419161437
 30
0.0
 10
209.0339220893404
 20
104.5985202581995
 30
0.0
 10
208.7803885593973
 20
104.2197901023871
 30
0.0
 10
208.6725706320552
 20
104.0191215476787
 30
0.0
 10
208.4958251226106
 20
103.5943554643025
 30
0.0
 10
208.4285181895256
 20
103.3730138633334
 30
0.0
 10
208.3388947627527
 20
102.9253134749033
 30
0.0
 10
208.315774360536
 20
102.6956121498469
 30
0.0
 10
208.315459100214
 20
102.2334485439326
 30
0.0
 10
208.3379655680023
 20
102.0057814129234
 30
0.0
 10
208.4269384261288
 20
101.557055800362
 30
0.0
 10
208.494584144326
 20
101.3338175413352
 30
0.0
 10
208.6697801959705
 20
100.9109859761752
 30
0.0
 10
208.7771110850393
 20
100.7100051580333
 30
0.0
 10
209.0314689938918
 20
100.3288299310662
 30
0.0
 10
209.178286843951
 20
100.1499517166522
 30
0.0
 10
209.4997205040799
 20
99.82806598933257
 30
0.0
 10
209.6759450295235
 20
99.68276084038399
 30
0.0
 10
210.0590245797888
 20
99.42610221592575
 30
0.0
 10
210.26014521326
 20
99.3185017806041
 30
0.0
 10
210.6810668870023
 20
99.14329263062663
 30
0.0
 10
210.9032072079089
 20
99.07532211880606
 30
0.0
 10
211.3548850828051
 20
98.98496419281757
 30
0.0
 10
211.5837229262718
 20
98.96214285714306
 30
0.0
 10
212.0475089058759
 20
98.96214285714306
 30
0.0
  0
SPLINE
  5
AC
330
1F
100
AcDbEntity
  8
0
  6
Continuous
 62
     7
370
    15
100
AcDbSpline
210
0.0
220
0.0
230
1.0
 70
     8
 71
     3
 72
    19
 73
    15
 74
     0
 42
0.00000001
 43
0.00000001
 12
1.0
 22
0.0
 32
0.0
 13
1.0
 23
0.0
 33
0.0
 40
0.0
 40
0.0
 40
0.0
 40
0.0
 40
0.0830897371622481
 40
0.1685704994511328
 40
0.2516674664393055
 40
0.3371912890313553
 40
0.4200786380904323
 40
0.5052943158595077
 40
0.5895696641572945
 40
0.6762246149576842
 40
0.7615626247593569
 40
0.8494228855468238
 40
0.9338578753701953
 40
1.0
 40
1.0
 40
1.0
 40
1.0
 10
200.4770525334483
 20
119.1517134777989
 30
0.0
 10
200.6563418398028
 20
119.1389418935133
 30
0.0
 10
201.0200797567902
 20
119.1130312044758
 30
0.0
 10
201.595792849902
 20
119.0961757259856
 30
0.0
 10
202.1804507080586
 20
119.0985318020545
 30
0.0
 10
202.7497024338095
 20
119.1210298408382
 30
0.0
 10
203.2967163705496
 20
119.1610073110529
 30
0.0
 10
203.800118393154
 20
119.2136295447267
 30
0.0
 10
204.2554409683737
 20
119.2741732710382
 30
0.0
 10
204.642835521056
 20
119.3352957677657
 30
0.0
 10
204.9562887538962
 20
119.3911468048884
 30
0.0
 10
205.174778319169
 20
119.4334217878759
 30
0.0
 10
205.2997897095716
 20
119.4588698815078
 30
0.0
 10
205.3043072640475
 20
119.4598141880739
 30
0.0
 10
205.3062916336661
 20
119.4602289818015
 30
0.0
  0
SPLINE
  5
AD
330
1F
100
AcDbEntity
  8
0
  6
Continuous
 62
     7
370
    15
100
AcDbSpline
210
0.0
220
0.0
230
1.0
 70
     8
 71
     3
 72
    46
 73
    42
 74
     0
 42
0.00000001
 43
0.00000001
 12
1.0
 22
0.0
 32
0.0
 13
1.0
 23
0.0
 33
0.0
 40
0.0
 40
0.0
 40
0.0
 40
0.0
 40
0.0624999999999995
 40
0.0624999999999995
 40
0.124999999999999
 40
0.124999999999999
 40
0.1562499999999988
 40
0.1562499999999988
 40
0.1874999999999986
 40
0.1874999999999986
 40
0.2499999999999981
 40
0.2499999999999981
 40
0.3124999999999976
 40
0.3124999999999976
 40
0.3749999999999971
 40
0.3749999999999971
 40
0.4062499999999968
 40
0.4062499999999968
 40
0.4374999999999966
 40
0.4374999999999966
 40
0.4999999999999961
 40
0.4999999999999961
 40
0.5312499999999959
 40
0.5312499999999959
 40
0.5624999999999957
 40
0.5624999999999957
 40
0.6249999999999954
 40
0.6249999999999954
 40
0.6874999999999953
 40
0.6874999999999953
 40
0.7499999999999951
 40
0.7499999999999951
 40
0.7812499999999958
 40
0.7812499999999958
 40
0.8124999999999964
 40
0.8124999999999964
 40
0.8749999999999977
 40
0.8749999999999977
 40
0.9374999999999988
 40
0.9374999999999988
 40
1.0
 40
1.0
 40
1.0
 40
1.0
 10
200.47705374384
 20
99.22822088667678
 30
0.0
 10
200.7439518915774
 20
99.11774828787469
 30
0.0
 10
201.0191201747354
 20
99.04196577642173
 30
0.0
 10
201.5857005724858
 20
98.95798023759406
 30
0.0
 10
201.8776792299001
 20
98.95106675029045
 30
0.0
 10
202.3038218238102
 20
98.99342092934171
 30
0.0
 10
202.4449214432038
 20
99.01618726297241
 30
0.0
 10
202.725193441038
 20
99.07934754415818
 30
0.0
 10
202.8646602377206
 20
99.11998985752417
 30
0.0
 10
203.2686925593533
 20
99.26519260489958
 30
0.0
 10
203.5230022641111
 20
99.39332331639564
 30
0.0
 10
204.001348100601
 20
99.71343473646907
 30
0.0
 10
204.2171547018587
 20
99.90017552288217
 30
0.0
 10
204.599662706914
 20
100.3220146769022
 30
0.0
 10
204.7672052052891
 20
100.559762758394
 30
0.0
 10
204.9685644101049
 20
100.9359881673856
 30
0.0
 10
205.0280047215037
 20
101.0653529478844
 30
0.0
 10
205.1312787022806
 20
101.3321675582886
 30
0.0
 10
205.1752991576387
 20
101.4706061813277
 30
0.0
 10
205.2801905153238
 20
101.8883931741038
 30
0.0
 10
205.3153874936861
 20
102.1715471745591
 30
0.0
 10
205.3157284898132
 20
102.6032942216472
 30
0.0
 10
205.3068298141351
 20
102.7484146675517
 30
0.0
 10
205.2717523578836
 20
103.0327976801715
 30
0.0
 10
205.2456146831386
 20
103.1731157608576
 30
0.0
 10
205.1416883340631
 20
103.5885257040562
 30
0.0
 10
205.0366314391948
 20
103.8608011907489
 30
0.0
 10
204.7679906708582
 20
104.363371260482
 30
0.0
 10
204.6026392641963
 20
104.5986503930936
 30
0.0
 10
204.2178834076756
 20
105.0236413429803
 30
0.0
 10
204.0029921287755
 20
105.2093476425029
 30
0.0
 10
203.6468413812034
 20
105.4482859386129
 30
0.0
 10
203.521735336086
 20
105.5214911052775
 30
0.0
 10
203.2664336274422
 20
105.6504940214733
 30
0.0
 10
203.1356053980177
 20
105.7068165034583
 30
0.0
 10
202.7336645817347
 20
105.8515829084818
 30
0.0
 10
202.448964587843
 20
105.9162438276628
 30
0.0
 10
201.879292528453
 20
105.9732522749216
 30
0.0
 10
201.5933833415686
 20
105.9670552063796
 30
0.0
 10
201.020572268881
 20
105.8829181336061
 30
0.0
 10
200.7439759344115
 20
105.8065473780518
 30
0.0
 10
200.47705374384
 20
105.6960648276093
 30
0.0
  0
LINE
  5
AE
330
1F
100
AcDbEntity
  8
0
  6
Continuous
 62
     7
370
    15
100
AcDbLine
 10
219.8156156181
 20
102.4621428571
 30
0.0
 11
219.8156156181
 21
86.4621420972
 31
0.0
  0
LINE
  5
AF
330
1F
100
AcDbEntity
  8
0
  6
Continuous
 62
     7
370
    15
100
AcDbLine
 10
219.8156156181
 20
118.4621436171
 30
0.0
 11
219.8156156181
 21
102.4621428571
 31
0.0
  0
SPLINE
  5
B0
330
1F
100
AcDbEntity
  8
0
  6
Continuous
 62
     7
370
    15
100
AcDbSpline
210
0.0
220
0.0
230
1.0
 70
     8
 71
     3
 72
    10
 73
     6
 74
     0
 42
0.00000001
 43
0.00000001
 12
1.0
 22
0.0
 32
0.0
 13
1.0
 23
0.0
 33
0.0
 40
0.0
 40
0.0
 40
0.0
 40
0.0
 40
0.5
 40
0.5
 40
1.0
 40
1.0
 40
1.0
 40
1.0
 10
199.8156159160738
 20
99.58986153387406
 30
0.0
 10
199.9078998213682
 20
99.52560327020973
 30
0.0
 10
200.0102891432413
 20
99.46089513271846
 30
0.0
 10
200.2364790024699
 20
99.33595999810181
 30
0.0
 10
200.3543282005481
 20
99.27901857793762
 30
0.0
 10
200.47705374384
 20
99.22822088667678
 30
0.0
  0
SPLINE
  5
B1
330
1F
100
AcDbEntity
  8
0
  6
Continuous
 62
     7
370
    15
100
AcDbSpline
210
0.0
220
0.0
230
1.0
 70
     8
 71
     3
 72
    10
 73
     6
 74
     0
 42
0.00000001
 43
0.00000001
 12
1.0
 22
0.0
 32
0.0
 13
1.0
 23
0.0
 33
0.0
 40
0.0
 40
0.0
 40
0.0
 40
0.0
 40
0.5
 40
0.5
 40
1.0
 40
1.0
 40
1.0
 40
1.0
 10
199.8156159160738
 20
118.9640366878521
 30
0.0
 10
199.9078998213682
 20
119.0354624489767
 30
0.0
 10
200.0102891432413
 20
119.0860963404157
 30
0.0
 10
200.2364790024699
 20
119.1500742685725
 30
0.0
 10
200.3543282005481
 20
119.161555934063
 30
0.0
 10
200.47705374384
 20
119.1517129141856
 30
0.0
  0
SPLINE
  5
B2
330
1F
100
AcDbEntity
  8
0
  6
Continuous
 62
     7
370
    15
100
AcDbSpline
210
0.0
220
0.0
230
1.0
 70
     8
 71
     3
 72
    10
 73
     6
 74
     0
 42
0.00000001
 43
0.00000001
 12
1.0
 22
0.0
 32
0.0
 13
1.0
 23
0.0
 33
0.0
 40
0.0
 40
0.0
 40
0.0
 40
0.0
 40
0.5
 40
0.5
 40
1.0
 40
1.0
 40
1.0
 40
1.0
 10
200.47705374384
 20
105.6960648276093
 30
0.0
 10
200.3543266235979
 20
105.6452664836284
 30
0.0
 10
200.2365875185318
 20
105.5883797255929
 30
0.0
 10
200.0104266719821
 20
105.4634724676516
 30
0.0
 10
199.9078986313883
 20
105.3986816154807
 30
0.0
 10
199.8156159160738
 20
105.3344241804121
 30
0.0
  0
SPLINE
  5
B3
330
1F
100
AcDbEntity
  8
0
  6
Continuous
 62
     7
370
    15
100
AcDbSpline
210
0.0
220
0.0
230
1.0
 70
     8
 71
     3
 72
    10
 73
     6
 74
     0
 42
0.00000001
 43
0.00000001
 12
1.0
 22
0.0
 32
0.0
 13
1.0
 23
0.0
 33
0.0
 40
0.0
 40
0.0
 40
0.0
 40
0.0
 40
0.5
 40
0.5
 40
1.0
 40
1.0
 40
1.0
 40
1.0
 10
199.1541780883077
 20
100.1890945318901
 30
0.0
 10
199.2545756165038
 20
100.0715423547601
 30
0.0
 10
199.3620377731517
 20
99.96143731225467
 30
0.0
 10
199.5904435104326
 20
99.75618984741917
 30
0.0
 10
199.7070183811642
 20
99.66547915115258
 30
0.0
 10
199.8156159160738
 20
99.58986153387406
 30
0.0
  0
SPLINE
  5
B4
330
1F
100
AcDbEntity
  8
0
  6
Continuous
 62
     7
370
    15
100
AcDbSpline
210
0.0
220
0.0
230
1.0
 70
     8
 71
     3
 72
    10
 73
     6
 74
     0
 42
0.00000001
 43
0.00000001
 12
1.0
 22
0.0
 32
0.0
 13
1.0
 23
0.0
 33
0.0
 40
0.0
 40
0.0
 40
0.0
 40
0.0
 40
0.5
 40
0.5
 40
1.0
 40
1.0
 40
1.0
 40
1.0
 10
199.1541780883077
 20
118.8048247457151
 30
0.0
 10
199.2545756165038
 20
118.7884748111586
 30
0.0
 10
199.3620377731517
 20
118.7864332952138
 30
0.0
 10
199.5904435104326
 20
118.8324274249979
 30
0.0
 10
199.7070183811642
 20
118.8799845277011
 30
0.0
 10
199.8156159160738
 20
118.9640366878521
 30
0.0
  0
SPLINE
  5
B5
330
1F
100
AcDbEntity
  8
0
  6
Continuous
 62
     7
370
    15
100
AcDbSpline
210
0.0
220
0.0
230
1.0
 70
     8
 71
     3
 72
    10
 73
     6
 74
     0
 42
0.00000001
 43
0.00000001
 12
1.0
 22
0.0
 32
0.0
 13
1.0
 23
0.0
 33
0.0
 40
0.0
 40
0.0
 40
0.0
 40
0.0
 40
0.5
 40
0.5
 40
1.0
 40
1.0
 40
1.0
 40
1.0
 10
199.8156159160738
 20
105.3344241804121
 30
0.0
 10
199.7073207740571
 20
105.2590171225174
 30
0.0
 10
199.5895882337031
 20
105.1673387200739
 30
0.0
 10
199.362603219222
 20
104.963345089787
 30
0.0
 10
199.2544543225377
 20
104.8526013403943
 30
0.0
 10
199.1541780883077
 20
104.735191182396
 30
0.0
  0
SPLINE
  5
B6
330
1F
100
AcDbEntity
  8
0
  6
Continuous
 62
     7
370
    15
100
AcDbSpline
210
0.0
220
0.0
230
1.0
 70
     8
 71
     3
 72
    12
 73
     8
 74
     0
 42
0.00000001
 43
0.00000001
 12
1.0
 22
0.0
 32
0.0
 13
1.0
 23
0.0
 33
0.0
 40
0.0
 40
0.0
 40
0.0
 40
0.0
 40
0.2341547802628265
 40
0.4750020501646779
 40
0.7091883588295573
 40
0.9503557957133821
 40
0.9999999999999999
 40
0.9999999999999999
 40
0.9999999999999999
 40
0.9999999999999999
 10
199.1541795967227
 20
118.804825621077
 30
0.0
 10
199.0362393053677
 20
118.8248329284944
 30
0.0
 10
198.7969878148463
 20
118.8654193817408
 30
0.0
 10
198.5407872134717
 20
118.9155671086417
 30
0.0
 10
198.3770581915552
 20
118.9490399241108
 30
0.0
 10
198.3068525803317
 20
118.9639963604686
 30
0.0
 10
198.321084796613
 20
118.9609858898741
 30
0.0
 10
198.3235143659716
 20
118.9604719750371
 30
0.0
  0
SPLINE
  5
B7
330
1F
100
AcDbEntity
  8
0
  6
Continuous
 62
     7
370
    15
100
AcDbSpline
210
0.0
220
0.0
230
1.0
 70
     8
 71
     3
 72
    17
 73
    13
 74
     0
 42
0.00000001
 43
0.00000001
 12
1.0
 22
0.0
 32
0.0
 13
1.0
 23
0.0
 33
0.0
 40
0.0
 40
0.0
 40
0.0
 40
0.0
 40
0.1042004491776818
 40
0.2114663782287819
 40
0.3156547556445763
 40
0.4227847447432687
 40
0.528452610770275
 40
0.6371228949263706
 40
0.7437564749877031
 40
0.8535706090661521
 40
0.9586116464926276
 40
1.0
 40
1.0
 40
1.0
 40
1.0
 10
191.8156166164284
 20
118.5866577200379
 30
0.0
 10
191.6241140531963
 20
118.5886501669511
 30
0.0
 10
191.2354751002185
 20
118.5926936767044
 30
0.0
 10
190.6718162533126
 20
118.6242988644316
 30
0.0
 10
190.1359212675995
 20
118.6711721273522
 30
0.0
 10
189.6495070644532
 20
118.7293850202632
 30
0.0
 10
189.2170865181787
 20
118.7931251304111
 30
0.0
 10
188.8583700297525
 20
118.8545892551362
 30
0.0
 10
188.5774803069118
 20
118.9080805551363
 30
0.0
 10
188.3980860547683
 20
118.9446672084097
 30
0.0
 10
188.3135345966867
 20
118.962582386915
 30
0.0
 10
188.3245116117078
 20
118.9602588646794
 30
0.0
 10
188.3276142714625
 20
118.9596021197524
 30
0.0
  0
SPLINE
  5
B8
330
1F
100
AcDbEntity
  8
0
  6
Continuous
 62
     7
370
    15
100
AcDbSpline
210
0.0
220
0.0
230
1.0
 70
     8
 71
     3
 72
    16
 73
    12
 74
     0
 42
0.00000001
 43
0.00000001
 12
1.0
 22
0.0
 32
0.0
 13
1.0
 23
0.0
 33
0.0
 40
0.0
 40
0.0
 40
0.0
 40
0.0
 40
0.0883342487271794
 40
0.1952367651290565
 40
0.2988736044508619
 40
0.4054141498670032
 40
0.5109153916638526
 40
0.6194017568331794
 40
0.726103384374065
 40
0.8359759303501465
 40
1.0
 40
1.0
 40
1.0
 40
1.0
 10
195.3096706954842
 20
118.9608873449053
 30
0.0
 10
195.3055103671242
 20
118.9599966896802
 30
0.0
 10
195.2963151901393
 20
118.9580281593818
 30
0.0
 10
195.1670413576059
 20
118.9309662100772
 30
0.0
 10
194.9481121623914
 20
118.8874638579671
 30
0.0
 10
194.6429206142231
 20
118.8314630333714
 30
0.0
 10
194.2558197264509
 20
118.7685027388425
 30
0.0
 10
193.7999133244983
 20
118.705785271893
 30
0.0
 10
193.2805808111027
 20
118.6503969349967
 30
0.0
 10
192.6218884617945
 20
118.5997210249788
 30
0.0
 10
192.11760735075
 20
118.5915506070641
 30
0.0
 10
191.8156166164284
 20
118.5866577200379
 30
0.0
  0
SPLINE
  5
B9
330
1F
100
AcDbEntity
  8
0
  6
Continuous
 62
     7
370
    15
100
AcDbSpline
210
0.0
220
0.0
230
1.0
 70
     8
 71
     3
 72
    70
 73
    66
 74
     0
 42
0.00000001
 43
0.00000001
 12
1.0
 22
0.0
 32
0.0
 13
1.0
 23
0.0
 33
0.0
 40
-0.03125
 40
-0.03125
 40
0.0
 40
0.0
 40
0.03125
 40
0.03125
 40
0.0625
 40
0.0625
 40
0.09375
 40
0.09375
 40
0.125
 40
0.125
 40
0.15625
 40
0.15625
 40
0.1875
 40
0.1875
 40
0.21875
 40
0.21875
 40
0.2500000000000001
 40
0.2500000000000001
 40
0.2812500000000001
 40
0.2812500000000001
 40
0.3125000000000001
 40
0.3125000000000001
 40
0.3437500000000001
 40
0.3437500000000001
 40
0.375
 40
0.375
 40
0.40625
 40
0.40625
 40
0.4375
 40
0.4375
 40
0.46875
 40
0.46875
 40
0.5
 40
0.5
 40
0.53125
 40
0.53125
 40
0.5625
 40
0.5625
 40
0.59375
 40
0.59375
 40
0.625
 40
0.625
 40
0.65625
 40
0.65625
 40
0.6875
 40
0.6875
 40
0.71875
 40
0.71875
 40
0.7499999999999999
 40
0.7499999999999999
 40
0.7812499999999999
 40
0.7812499999999999
 40
0.8124999999999999
 40
0.8124999999999999
 40
0.8437499999999999
 40
0.8437499999999999
 40
0.875
 40
0.875
 40
0.90625
 40
0.90625
 40
0.9375
 40
0.9375
 40
0.96875
 40
0.96875
 40
1.0
 40
1.0
 40
1.03125
 40
1.03125
 10
192.047550802003
 20
98.96214285714306
 30
0.0
 10
191.5836810301447
 20
98.96214285714306
 30
0.0
 10
191.3557577535233
 20
98.98496815256502
 30
0.0
 10
190.9075633196661
 20
99.0742742147694
 30
0.0
 10
190.6849258571461
 20
99.1418847402
 30
0.0
 10
190.261418741736
 20
99.31777565279742
 30
0.0
 10
190.0606595339063
 20
99.4253122180938
 30
0.0
 10
189.680715718153
 20
99.67926424345964
 30
0.0
 10
189.5013521428651
 20
99.8266211059166
 30
0.0
 10
189.1795464440705
 20
100.1485029863018
 30
0.0
 10
189.0348982165907
 20
100.3242631991073
 30
0.0
 10
188.7789967552663
 20
100.706618881608
 30
0.0
 10
188.6706847163461
 20
100.9092980392175
 30
0.0
 10
188.4958963844894
 20
101.3301616244381
 30
0.0
 10
188.4283235078575
 20
101.5514401269865
 30
0.0
 10
188.3381450750848
 20
102.0035298704696
 30
0.0
 10
188.3157537772138
 20
102.2310585015007
 30
0.0
 10
188.3154793120102
 20
102.6890320885809
 30
0.0
 10
188.3383608240735
 20
102.9216996910943
 30
0.0
 10
188.4279468934186
 20
103.3710950293807
 30
0.0
 10
188.494223079056
 20
103.5895977881726
 30
0.0
 10
188.6701458933857
 20
104.0141813024357
 30
0.0
 10
188.7794298492666
 20
104.2181000302273
 30
0.0
 10
189.0324389482211
 20
104.5965601995564
 30
0.0
 10
189.1778580738921
 20
104.774082591538
 30
0.0
 10
189.5028675217661
 20
105.0991917065376
 30
0.0
 10
189.6788504082829
 20
105.2435239736931
 30
0.0
 10
190.0572355197675
 20
105.4969321632847
 30
0.0
 10
190.2621455044417
 20
105.6068419130974
 30
0.0
 10
190.6849825787693
 20
105.7823944634091
 30
0.0
 10
190.9031327252842
 20
105.84888462153
 30
0.0
 10
191.3530839646052
 20
105.9390250159151
 30
0.0
 10
191.5854094474895
 20
105.9620482532466
 30
0.0
 10
192.0429366749174
 20
105.9622368662308
 30
0.0
 10
192.2707736012192
 20
105.9401219412559
 30
0.0
 10
192.7245364039007
 20
105.8499696789688
 30
0.0
 10
192.9442729912705
 20
105.7830106540149
 30
0.0
 10
193.3657471544613
 20
105.6084300121032
 30
0.0
 10
193.5702408101588
 20
105.4992041387977
 30
0.0
 10
193.9510394387439
 20
105.2446626012411
 30
0.0
 10
194.12683630095
 20
105.1003834756764
 30
0.0
 10
194.4497760387333
 20
104.7780128182886
 30
0.0
 10
194.5972894462863
 20
104.5985406785751
 30
0.0
 10
194.8507694653461
 20
104.2199102514374
 30
0.0
 10
194.958602976268
 20
104.0192491024405
 30
0.0
 10
195.1354093914615
 20
103.5943613874921
 30
0.0
 10
195.2026827282295
 20
103.3731336830827
 30
0.0
 10
195.2923271056951
 20
102.9253978397553
 30
0.0
 10
195.3154624575189
 20
102.6955080765795
 30
0.0
 10
195.3157678460314
 20
102.2334036901397
 30
0.0
 10
195.2932621875987
 20
102.0057215258513
 30
0.0
 10
195.204251950847
 20
101.5568860729397
 30
0.0
 10
195.1365726593197
 20
101.333604710296
 30
0.0
 10
194.9613842660978
 20
100.9108551573959
 30
0.0
 10
194.8540487370259
 20
100.7098736802816
 30
0.0
 10
194.5996129813389
 20
100.3286289443191
 30
0.0
 10
194.4528859885683
 20
100.1498890123929
 30
0.0
 10
194.1315146589357
 20
99.82807294716574
 30
0.0
 10
193.9551117802087
 20
99.68263782054596
 30
0.0
 10
193.5722615436506
 20
99.4261443491997
 30
0.0
 10
193.3712035425285
 20
99.3185584460023
 30
0.0
 10
192.9502572168267
 20
99.14332304700397
 30
0.0
 10
192.7279900648897
 20
99.07531548982537
 30
0.0
 10
192.2763896271132
 20
98.98497248589943
 30
0.0
 10
192.047550802003
 20
98.96214285714306
 30
0.0
 10
191.5836810301447
 20
98.96214285714306
 30
0.0
  0
SPLINE
  5
BA
330
1F
100
AcDbEntity
  8
0
  6
Continuous
 62
     7
370
    15
100
AcDbSpline
210
0.0
220
0.0
230
1.0
 70
     8
 71
     3
 72
    20
 73
    16
 74
     0
 42
0.00000001
 43
0.00000001
 12
1.0
 22
0.0
 32
0.0
 13
1.0
 23
0.0
 33
0.0
 40
0.0
 40
0.0
 40
0.0
 40
0.0
 40
0.249999999999999
 40
0.249999999999999
 40
0.3749999999999992
 40
0.3749999999999992
 40
0.4999999999999993
 40
0.4999999999999993
 40
0.6249999999999994
 40
0.6249999999999994
 40
0.7499999999999997
 40
0.7499999999999997
 40
0.8749999999999998
 40
0.8749999999999998
 40
1.0
 40
1.0
 40
1.0
 40
1.0
 10
199.1541780883077
 20
100.1890945318901
 30
0.0
 10
198.8848363676634
 20
100.5044579299993
 30
0.0
 10
198.6765671029675
 20
100.8594810402905
 30
0.0
 10
198.4607855813354
 20
101.4432456529638
 30
0.0
 10
198.406938618012
 20
101.6416974279237
 30
0.0
 10
198.3343577942036
 20
102.0461458456621
 30
0.0
 10
198.315659170477
 20
102.2539607393721
 30
0.0
 10
198.3155728132929
 20
102.6688680222385
 30
0.0
 10
198.3338292251546
 20
102.8738068990035
 30
0.0
 10
198.4060132699144
 20
103.2787918880769
 30
0.0
 10
198.4607755264012
 20
103.4807964050613
 30
0.0
 10
198.6037707582748
 20
103.8680801861829
 30
0.0
 10
198.6915005186731
 20
104.0533833856702
 30
0.0
 10
198.8989474486477
 20
104.4076989439793
 30
0.0
 10
199.0195026761791
 20
104.5775041537804
 30
0.0
 10
199.1541780883077
 20
104.735191182396
 30
0.0
  0
LINE
  5
BB
330
1F
100
AcDbEntity
  8
0
  6
Continuous
 62
     7
370
    15
100
AcDbLine
 10
151.0156160755
 20
87.9496244363
 30
0.0
 11
151.0156160755
 21
88.8253964133
 31
0.0
  0
SPLINE
  5
BC
330
1F
100
AcDbEntity
  8
0
  6
Continuous
 62
     7
370
    15
100
AcDbSpline
210
0.0
220
0.0
230
1.0
 70
     8
 71
     3
 72
    12
 73
     8
 74
     0
 42
0.00000001
 43
0.00000001
 12
1.0
 22
0.0
 32
0.0
 13
1.0
 23
0.0
 33
0.0
 40
0.0
 40
0.0
 40
0.0
 40
0.0
 40
0.25
 40
0.25
 40
0.5
 40
0.5
 40
1.0
 40
1.0
 40
1.0
 40
1.0
 10
150.647880823217
 20
89.53176699425815
 30
0.0
 10
150.6733050401109
 20
89.46488140118436
 30
0.0
 10
150.7139168796802
 20
89.40043291150076
 30
0.0
 10
150.7985180259523
 20
89.2754322514229
 30
0.0
 10
150.8426148222379
 20
89.21491350623077
 30
0.0
 10
150.958683930724
 20
89.03870745012235
 30
0.0
 10
151.0156159160738
 20
88.92831303515055
 30
0.0
 10
151.0156159160738
 20
88.8253961590574
 30
0.0
  0
SPLINE
  5
BD
330
1F
100
AcDbEntity
  8
0
  6
Continuous
 62
     7
370
    15
100
AcDbSpline
210
0.0
220
0.0
230
1.0
 70
     8
 71
     3
 72
    14
 73
    10
 74
     0
 42
0.00000001
 43
0.00000001
 12
1.0
 22
0.0
 32
0.0
 13
1.0
 23
0.0
 33
0.0
 40
0.0
 40
0.0
 40
0.0
 40
0.0
 40
0.1249999999999994
 40
0.1249999999999994
 40
0.2499999999999988
 40
0.2499999999999988
 40
0.4999999999999991
 40
0.4999999999999991
 40
1.0
 40
1.0
 40
1.0
 40
1.0
 10
150.1156159160738
 20
90.02177280963187
 30
0.0
 10
150.1646282388852
 20
90.02629786878704
 30
0.0
 10
150.2174344638807
 20
90.01817848323252
 30
0.0
 10
150.3025015556102
 20
89.98784840808108
 30
0.0
 10
150.3370857409509
 20
89.96719345100458
 30
0.0
 10
150.4256414262882
 20
89.90265732767777
 30
0.0
 10
150.4665771276094
 20
89.85541914762514
 30
0.0
 10
150.5704576545123
 20
89.71562304634145
 30
0.0
 10
150.6136814539444
 20
89.62173810747217
 30
0.0
 10
150.647880823217
 20
89.53176699425816
 30
0.0
  0
SPLINE
  5
BE
330
1F
100
AcDbEntity
  8
0
  6
Continuous
 62
     7
370
    15
100
AcDbSpline
210
0.0
220
0.0
230
1.0
 70
     8
 71
     3
 72
    10
 73
     6
 74
     0
 42
0.00000001
 43
0.00000001
 12
1.0
 22
0.0
 32
0.0
 13
1.0
 23
0.0
 33
0.0
 40
0.0
 40
0.0
 40
0.0
 40
0.0
 40
0.5
 40
0.5
 40
1.0
 40
1.0
 40
1.0
 40
1.0
 10
147.1947925243753
 20
89.69552073006538
 30
0.0
 10
147.667696954965
 20
89.76255364318888
 30
0.0
 10
148.1507018878094
 20
89.82042214435474
 30
0.0
 10
149.1265162661623
 20
89.92726329271493
 30
0.0
 10
149.6199904791864
 20
89.97601422705365
 30
0.0
 10
150.1156159160738
 20
90.02177280963191
 30
0.0
  0
SPLINE
  5
BF
330
1F
100
AcDbEntity
  8
0
  6
Continuous
 62
     7
370
    15
100
AcDbSpline
210
0.0
220
0.0
230
1.0
 70
     8
 71
     3
 72
    10
 73
     6
 74
     0
 42
0.00000001
 43
0.00000001
 12
1.0
 22
0.0
 32
0.0
 13
1.0
 23
0.0
 33
0.0
 40
0.0
 40
0.0
 40
0.0
 40
0.0
 40
0.5
 40
0.5
 40
1.0
 40
1.0
 40
1.0
 40
1.0
 10
145.9246159160738
 20
89.61107597958662
 30
0.0
 10
146.1399749466312
 20
89.61808881055715
 30
0.0
 10
146.3544162849552
 20
89.62686353421243
 30
0.0
 10
146.7794075035757
 20
89.65191671176026
 30
0.0
 10
146.9907802352984
 20
89.6666025445606
 30
0.0
 10
147.1947925243754
 20
89.69552073006537
 30
0.0
  0
SPLINE
  5
C0
330
1F
100
AcDbEntity
  8
0
  6
Continuous
 62
     7
370
    15
100
AcDbSpline
210
0.0
220
0.0
230
1.0
 70
     8
 71
     3
 72
     8
 73
     4
 74
     0
 42
0.00000001
 43
0.00000001
 12
1.0
 22
0.0
 32
0.0
 13
1.0
 23
0.0
 33
0.0
 40
0.0
 40
0.0
 40
0.0
 40
0.0
 40
1.0
 40
1.0
 40
1.0
 40
1.0
 10
145.8570997665048
 20
89.75896515759932
 30
0.0
 10
145.8712342111329
 20
89.7081688339661
 30
0.0
 10
145.8942915862815
 20
89.65893008340585
 30
0.0
 10
145.9246159160738
 20
89.61107597958662
 30
0.0
  0
ELLIPSE
  5
C1
330
1F
100
AcDbEntity
  8
0
  6
Continuous
 62
     7
370
    15
100
AcDbEllipse
 10
132.3888737082
 20
101.8228451794
 30
0.0
 11
13.37355272666628
 21
-13.37146352987014
 31
0.0
210
0.0
220
0.0
230
1.0
 40
0.1761188775
 41
0.3023035477142496
 42
0.3822730435340284
  0
ELLIPSE
  5
C2
330
1F
100
AcDbEntity
  8
0
  6
Continuous
 62
     7
370
    15
100
AcDbEllipse
 10
132.3094952775
 20
103.1012533085
 30
0.0
 11
13.36963611134306
 21
13.36754752639483
 31
0.0
210
0.0
220
0.0
230
1.0
 40
0.1761188775
 41
5.933076931846601
 42
5.976720052691199
  0
SPLINE
  5
C3
330
1F
100
AcDbEntity
  8
0
  6
Continuous
 62
     7
370
    15
100
AcDbSpline
210
0.0
220
0.0
230
1.0
 70
     8
 71
     3
 72
     8
 73
     4
 74
     0
 42
0.00000001
 43
0.00000001
 12
1.0
 22
0.0
 32
0.0
 13
1.0
 23
0.0
 33
0.0
 40
0.0
 40
0.0
 40
0.0
 40
0.0
 40
1.0
 40
1.0
 40
1.0
 40
1.0
 10
145.8656159160738
 20
115.3277234041212
 30
0.0
 10
145.8198510083845
 20
115.2662030249624
 30
0.0
 10
145.7854638867545
 20
115.202308165213
 30
0.0
 10
145.7664486330816
 20
115.1355782201692
 30
0.0
  0
SPLINE
  5
C4
330
1F
100
AcDbEntity
  8
0
  6
Continuous
 62
     7
370
    15
100
AcDbSpline
210
0.0
220
0.0
230
1.0
 70
     8
 71
     3
 72
    12
 73
     8
 74
     0
 42
0.00000001
 43
0.00000001
 12
1.0
 22
0.0
 32
0.0
 13
1.0
 23
0.0
 33
0.0
 40
0.0
 40
0.0
 40
0.0
 40
0.0
 40
0.2499999999999986
 40
0.2499999999999986
 40
0.4999999999999971
 40
0.4999999999999971
 40
1.0
 40
1.0
 40
1.0
 40
1.0
 10
147.6156159160739
 20
115.2429367158021
 30
0.0
 10
147.4735735128847
 20
115.2587624439783
 30
0.0
 10
147.3294554063805
 20
115.2697835777536
 30
0.0
 10
147.039700892708
 20
115.2883199396208
 30
0.0
 10
146.8939589893492
 20
115.2955906453566
 30
0.0
 10
146.4552787501694
 20
115.3140514956846
 30
0.0
 10
146.1609031340982
 20
115.3219303625081
 30
0.0
 10
145.8656159160738
 20
115.3277234041212
 30
0.0
  0
SPLINE
  5
C5
330
1F
100
AcDbEntity
  8
0
  6
Continuous
 62
     7
370
    15
100
AcDbSpline
210
0.0
220
0.0
230
1.0
 70
     8
 71
     3
 72
    20
 73
    16
 74
     0
 42
0.00000001
 43
0.00000001
 12
1.0
 22
0.0
 32
0.0
 13
1.0
 23
0.0
 33
0.0
 40
0.0
 40
0.0
 40
0.0
 40
0.0
 40
0.2499999999999996
 40
0.2499999999999996
 40
0.4999999999999991
 40
0.4999999999999991
 40
0.7499999999999987
 40
0.7499999999999987
 40
0.8749999999999971
 40
0.8749999999999971
 40
0.9374999999999983
 40
0.9374999999999983
 40
0.9687499999999991
 40
0.9687499999999991
 40
1.0
 40
1.0
 40
1.0
 40
1.0
 10
148.5156159160748
 20
116.0196669788907
 30
0.0
 10
148.5156159160748
 20
115.9590575791934
 30
0.0
 10
148.4902208964979
 20
115.8932316137898
 30
0.0
 10
148.4039277107159
 20
115.7591838444432
 30
0.0
 10
148.3432917320327
 20
115.6904884863014
 30
0.0
 10
148.1951899378114
 20
115.550089934647
 30
0.0
 10
148.1084203310328
 20
115.4783864300656
 30
0.0
 10
147.9597825357036
 20
115.3722230283168
 30
0.0
 10
147.9074933188174
 20
115.3366946796852
 30
0.0
 10
147.8167294905074
 20
115.2869907491697
 30
0.0
 10
147.7843634980555
 20
115.2707297511546
 30
0.0
 10
147.7266743423893
 20
115.2516171828087
 30
0.0
 10
147.7056873145018
 20
115.2462260407271
 30
0.0
 10
147.6603983355113
 20
115.2404886723346
 30
0.0
 10
147.6373840666728
 20
115.2405114059881
 30
0.0
 10
147.6156159160732
 20
115.2429367158009
 30
0.0
  0
LINE
  5
C6
330
1F
100
AcDbEntity
  8
0
  6
Continuous
 62
     7
370
    15
100
AcDbLine
 10
148.5156156657
 20
116.0196672775
 30
0.0
 11
148.5156156657
 21
116.8494104989
 31
0.0
  0
LINE
  5
C7
330
1F
100
AcDbEntity
  8
0
  6
Continuous
 62
     7
370
    15
100
AcDbLine
 10
162.8156158211
 20
87.3584422864
 30
0.0
 11
162.8156158211
 21
117.5658434279
 31
0.0
  0
SPLINE
  5
C8
330
1F
100
AcDbEntity
  8
0
  6
Continuous
 62
     7
370
    15
100
AcDbSpline
210
0.0
220
0.0
230
1.0
 70
     8
 71
     3
 72
    24
 73
    20
 74
     0
 42
0.00000001
 43
0.00000001
 12
1.0
 22
0.0
 32
0.0
 13
1.0
 23
0.0
 33
0.0
 40
0.0
 40
0.0
 40
0.0
 40
0.0
 40
0.0016643193296813
 40
0.0648792890554526
 40
0.127882629835479
 40
0.1913652263153964
 40
0.2543782098387403
 40
0.3163193264594876
 40
0.3777469775702122
 40
0.4397082275190884
 40
0.5014189034197821
 40
0.562536076452263
 40
0.6237133677268287
 40
0.6863020174790898
 40
0.7490598999921412
 40
0.811592469235191
 40
0.8743360189604256
 40
0.9379727054607176
 40
1.0
 40
1.0
 40
1.0
 40
1.0
 10
156.0001588029867
 20
87.70017620397469
 30
0.0
 10
155.9996814121612
 20
87.70010779313972
 30
0.0
 10
155.9810715355531
 20
87.69744096937754
 30
0.0
 10
156.0442120723623
 20
87.70715553221561
 30
0.0
 10
156.1962548294448
 20
87.7293602384236
 30
0.0
 10
156.4641803447097
 20
87.76379598995702
 30
0.0
 10
156.8134941218965
 20
87.80225900062624
 30
0.0
 10
157.2405451838205
 20
87.8364870535736
 30
0.0
 10
157.7279848122355
 20
87.85893961341374
 30
0.0
 10
158.2596351771768
 20
87.86253360114475
 30
0.0
 10
158.8107557796778
 20
87.84551997189152
 30
0.0
 10
159.3582137704645
 20
87.80557420644837
 30
0.0
 10
159.88284800022
 20
87.74646659379172
 30
0.0
 10
160.36463639862
 20
87.67410215637057
 30
0.0
 10
160.7895849906296
 20
87.59778148489242
 30
0.0
 10
161.1358013040905
 20
87.52579753890136
 30
0.0
 10
161.3908796162217
 20
87.46741051273766
 30
0.0
 10
161.5510750083591
 20
87.4277508564311
 30
0.0
 10
161.5717090707558
 20
87.42292618096738
 30
0.0
 10
161.581893970639
 20
87.42054473830125
 30
0.0
  0
SPLINE
  5
C9
330
1F
100
AcDbEntity
  8
0
  6
Continuous
 62
     7
370
    15
100
AcDbSpline
210
0.0
220
0.0
230
1.0
 70
     8
 71
     3
 72
    24
 73
    20
 74
     0
 42
0.00000001
 43
0.00000001
 12
1.0
 22
0.0
 32
0.0
 13
1.0
 23
0.0
 33
0.0
 40
0.0
 40
0.0
 40
0.0
 40
0.0
 40
0.0629034706215385
 40
0.1256338688179741
 40
0.1890239793713884
 40
0.2513957684939822
 40
0.3139906836130308
 40
0.3762905044722344
 40
0.4374458894592898
 40
0.498543195540241
 40
0.5603281747675228
 40
0.6223344559749604
 40
0.6838864964282686
 40
0.7458035579052691
 40
0.8089499376965126
 40
0.8723245876864573
 40
0.9353799443000518
 40
0.9988635323362688
 40
1.0
 40
1.0
 40
1.0
 40
1.0
 10
161.5808951271778
 20
117.5037419073071
 30
0.0
 10
161.5714245009029
 20
117.5013191180385
 30
0.0
 10
161.5525093058065
 20
117.4964802055566
 30
0.0
 10
161.3904580094023
 20
117.4565086143792
 30
0.0
 10
161.1339327686566
 20
117.3981646188068
 30
0.0
 10
160.7878766323633
 20
117.3259295208185
 30
0.0
 10
160.36397723947
 20
117.2497802693064
 30
0.0
 10
159.8829942786321
 20
117.1776609677939
 30
0.0
 10
159.359010721652
 20
117.1187734544861
 30
0.0
 10
158.8114128364449
 20
117.0788619318819
 30
0.0
 10
158.2599365203889
 20
117.0618261842667
 30
0.0
 10
157.7274952406075
 20
117.0653896553584
 30
0.0
 10
157.2395130289215
 20
117.0878229203253
 30
0.0
 10
156.8120008752891
 20
117.1221129352023
 30
0.0
 10
156.4630993205167
 20
117.160616729989
 30
0.0
 10
156.195844700026
 20
117.1950727579436
 30
0.0
 10
156.0429103955051
 20
117.2171555452818
 30
0.0
 10
155.9818007443416
 20
117.2269842570324
 30
0.0
 10
155.9993839080297
 20
117.2242205146363
 30
0.0
 10
155.9996931416994
 20
117.2241719089236
 30
0.0
  0
SPLINE
  5
CA
330
1F
100
AcDbEntity
  8
0
  6
Continuous
 62
     7
370
    15
100
AcDbSpline
210
0.0
220
0.0
230
1.0
 70
     8
 71
     3
 72
    26
 73
    22
 74
     0
 42
0.00000001
 43
0.00000001
 12
1.0
 22
0.0
 32
0.0
 13
1.0
 23
0.0
 33
0.0
 40
0.0
 40
0.0
 40
0.0
 40
0.0
 40
0.2500000000000016
 40
0.2500000000000016
 40
0.3750000000000021
 40
0.3750000000000021
 40
0.4375000000000028
 40
0.4375000000000028
 40
0.4687500000000033
 40
0.4687500000000033
 40
0.5000000000000037
 40
0.5000000000000037
 40
0.5312500000000041
 40
0.5312500000000041
 40
0.5625000000000046
 40
0.5625000000000046
 40
0.6250000000000043
 40
0.6250000000000043
 40
0.7500000000000029
 40
0.7500000000000029
 40
1.0
 40
1.0
 40
1.0
 40
1.0
 10
145.6755859624617
 20
114.8502234367558
 30
0.0
 10
145.6281978530332
 20
114.7145676947327
 30
0.0
 10
145.5705565511288
 20
114.5706062964035
 30
0.0
 10
145.4485087385855
 20
114.3278337231491
 30
0.0
 10
145.402459730809
 20
114.2427940826997
 30
0.0
 10
145.3118064466434
 20
114.1024181096594
 30
0.0
 10
145.2774539463578
 20
114.0525067323206
 30
0.0
 10
145.2150187739673
 20
113.9759714674663
 30
0.0
 10
145.1917247551692
 20
113.9495669884794
 30
0.0
 10
145.1426722180427
 20
113.9019722232184
 30
0.0
 10
145.1182407683859
 20
113.8825296093665
 30
0.0
 10
145.0776111727661
 20
113.8576218316984
 30
0.0
 10
145.0614488909149
 20
113.8515520003875
 30
0.0
 10
145.0344668468118
 20
113.8458631287937
 30
0.0
 10
145.0237173239889
 20
113.8462536368744
 30
0.0
 10
144.9956813498318
 20
113.8523959836628
 30
0.0
 10
144.9828201177992
 20
113.8630599900808
 30
0.0
 10
144.9518172566389
 20
113.902072780441
 30
0.0
 10
144.9409577745697
 20
113.9381247708453
 30
0.0
 10
144.9176805186317
 20
114.0558041683444
 30
0.0
 10
144.9156159160737
 20
114.1471340686774
 30
0.0
 10
144.9156159160737
 20
114.2403743215837
 30
0.0
  0
SPLINE
  5
CB
330
1F
100
AcDbEntity
  8
0
  6
Continuous
 62
     7
370
    15
100
AcDbSpline
210
0.0
220
0.0
230
1.0
 70
     8
 71
     3
 72
    24
 73
    20
 74
     0
 42
0.00000001
 43
0.00000001
 12
1.0
 22
0.0
 32
0.0
 13
1.0
 23
0.0
 33
0.0
 40
0.0
 40
0.0
 40
0.0
 40
0.0
 40
0.2500000000000067
 40
0.2500000000000067
 40
0.3750000000000105
 40
0.3750000000000105
 40
0.4375000000000129
 40
0.4375000000000129
 40
0.5000000000000152
 40
0.5000000000000152
 40
0.5312500000000153
 40
0.5312500000000153
 40
0.5625000000000153
 40
0.5625000000000153
 40
0.6250000000000133
 40
0.6250000000000133
 40
0.7500000000000088
 40
0.7500000000000088
 40
1.0
 40
1.0
 40
1.0
 40
1.0
 10
144.9156159160738
 20
90.9146296559215
 30
0.0
 10
144.9156159160738
 20
90.99953860959108
 30
0.0
 10
144.9183405445062
 20
91.08186830563798
 30
0.0
 10
144.9446978656242
 20
91.18428069305699
 30
0.0
 10
144.9569115838964
 20
91.21509778944139
 30
0.0
 10
144.9915222340288
 20
91.24419530551832
 30
0.0
 10
145.0059089443962
 20
91.25115294615695
 30
0.0
 10
145.0471574274986
 20
91.25004320488007
 30
0.0
 10
145.0756969774294
 20
91.24174979927133
 30
0.0
 10
145.1366196429408
 20
91.19716636541007
 30
0.0
 10
145.1596856130806
 20
91.17670465215278
 30
0.0
 10
145.2035814930869
 20
91.13209203387242
 30
0.0
 10
145.224461528647
 20
91.10821595566605
 30
0.0
 10
145.2816717919401
 20
91.03831885850406
 30
0.0
 10
145.3140184157165
 20
90.99274126971957
 30
0.0
 10
145.4001843592083
 20
90.8638577821007
 30
0.0
 10
145.4458483792483
 20
90.78402460496864
 30
0.0
 10
145.5663959426996
 20
90.55824379585634
 30
0.0
 10
145.6254560314007
 20
90.423412410885
 30
0.0
 10
145.6755859624617
 20
90.29515727221747
 30
0.0
  0
LINE
  5
CC
330
1F
100
AcDbEntity
  8
0
  6
Continuous
 62
     7
370
    15
100
AcDbLine
 10
144.9156161932
 20
90.914629551
 30
0.0
 11
144.9156161932
 21
114.2403745673
 31
0.0
  0
SPLINE
  5
CD
330
1F
100
AcDbEntity
  8
0
  6
Continuous
 62
     7
370
    15
100
AcDbSpline
210
0.0
220
0.0
230
1.0
 70
     8
 71
     3
 72
    10
 73
     6
 74
     0
 42
0.00000001
 43
0.00000001
 12
1.0
 22
0.0
 32
0.0
 13
1.0
 23
0.0
 33
0.0
 40
0.0
 40
0.0
 40
0.0
 40
0.0
 40
0.5
 40
0.5
 40
1.0
 40
1.0
 40
1.0
 40
1.0
 10
184.7656159160738
 20
121.3330198902858
 30
0.0
 10
184.7656159160738
 20
121.4914543331736
 30
0.0
 10
184.7034546995909
 20
121.6504750279756
 30
0.0
 10
184.4829453589192
 20
121.8804828522312
 30
0.0
 10
184.3240302559741
 20
121.949318127048
 30
0.0
 10
184.1656159160738
 20
121.949318127048
 30
0.0
  0
LINE
  5
CE
330
1F
100
AcDbEntity
  8
0
  6
Continuous
 62
     7
370
    15
100
AcDbLine
 10
184.7656164853
 20
117.8224004455
 30
0.0
 11
184.7656164853
 21
121.3330199592
 31
0.0
  0
SPLINE
  5
CF
330
1F
100
AcDbEntity
  8
0
  6
Continuous
 62
     7
370
    15
100
AcDbSpline
210
0.0
220
0.0
230
1.0
 70
     8
 71
     3
 72
    12
 73
     8
 74
     0
 42
0.00000001
 43
0.00000001
 12
1.0
 22
0.0
 32
0.0
 13
1.0
 23
0.0
 33
0.0
 40
0.0
 40
0.0
 40
0.0
 40
0.0
 40
0.25
 40
0.25
 40
0.5
 40
0.5
 40
1.0
 40
1.0
 40
1.0
 40
1.0
 10
184.1656159160738
 20
118.5735518582204
 30
0.0
 10
184.2549042751176
 20
118.5735518582204
 30
0.0
 10
184.3429631060198
 20
118.5479272256156
 30
0.0
 10
184.4956168192689
 20
118.4593838526838
 30
0.0
 10
184.5614103126109
 20
118.3965013695691
 30
0.0
 10
184.716850959327
 20
118.1791401816356
 30
0.0
 10
184.7656159160738
 20
118.0004931716242
 30
0.0
 10
184.7656159160738
 20
117.8224000164485
 30
0.0
  0
SPLINE
  5
D0
330
1F
100
AcDbEntity
  8
0
  6
Continuous
 62
     7
370
    15
100
AcDbSpline
210
0.0
220
0.0
230
1.0
 70
     8
 71
     3
 72
     8
 73
     4
 74
     0
 42
0.00000001
 43
0.00000001
 12
1.0
 22
0.0
 32
0.0
 13
1.0
 23
0.0
 33
0.0
 40
0.0
 40
0.0
 40
0.0
 40
0.0
 40
1.0
 40
1.0
 40
1.0
 40
1.0
 10
182.8507756149673
 20
121.949318127048
 30
0.0
 10
182.5184175185776
 20
121.358507913376
 30
0.0
 10
182.1866362470935
 20
120.7673752491308
 30
0.0
 10
181.8556159160738
 20
120.1758195526731
 30
0.0
  0
LINE
  5
D1
330
1F
100
AcDbEntity
  8
0
  6
Continuous
 62
     7
370
    15
100
AcDbLine
 10
182.8507762937
 20
118.5735521488
 30
0.0
 11
182.8507762937
 21
121.9493189476
 31
0.0
  0
SPLINE
  5
D2
330
1F
100
AcDbEntity
  8
0
  6
Continuous
 62
     7
370
    15
100
AcDbSpline
210
0.0
220
0.0
230
1.0
 70
     8
 71
     3
 72
     8
 73
     4
 74
     0
 42
0.00000001
 43
0.00000001
 12
1.0
 22
0.0
 32
0.0
 13
1.0
 23
0.0
 33
0.0
 40
0.0
 40
0.0
 40
0.0
 40
0.0
 40
1.0
 40
1.0
 40
1.0
 40
1.0
 10
181.8556159160738
 20
116.3762307565982
 30
0.0
 10
182.1791734743287
 20
117.1123471552208
 30
0.0
 10
182.5116677945457
 20
117.8444387506395
 30
0.0
 10
182.8507756149673
 20
118.5735518582204
 30
0.0
  0
LINE
  5
D3
330
1F
100
AcDbEntity
  8
0
  6
Continuous
 62
     7
370
    15
100
AcDbLine
 10
181.8556152819
 20
116.3762306444
 30
0.0
 11
181.8556152819
 21
120.1758199952
 31
0.0
  0
SPLINE
  5
D4
330
1F
100
AcDbEntity
  8
0
  6
Continuous
 62
     7
370
    15
100
AcDbSpline
210
0.0
220
0.0
230
1.0
 70
     8
 71
     3
 72
     8
 73
     4
 74
     0
 42
0.00000001
 43
0.00000001
 12
1.0
 22
0.0
 32
0.0
 13
1.0
 23
0.0
 33
0.0
 40
0.0
 40
0.0
 40
0.0
 40
0.0
 40
1.0
 40
1.0
 40
1.0
 40
1.0
 10
179.7756159160738
 20
120.1758195526731
 30
0.0
 10
179.4445955850542
 20
120.7673752491308
 30
0.0
 10
179.1128143135701
 20
121.358507913376
 30
0.0
 10
178.7804562171804
 20
121.949318127048
 30
0.0
  0
LINE
  5
D5
330
1F
100
AcDbEntity
  8
0
  6
Continuous
 62
     7
370
    15
100
AcDbLine
 10
179.7756162075
 20
116.3762306444
 30
0.0
 11
179.7756162075
 21
120.1758199952
 31
0.0
  0
SPLINE
  5
D6
330
1F
100
AcDbEntity
  8
0
  6
Continuous
 62
     7
370
    15
100
AcDbSpline
210
0.0
220
0.0
230
1.0
 70
     8
 71
     3
 72
     8
 73
     4
 74
     0
 42
0.00000001
 43
0.00000001
 12
1.0
 22
0.0
 32
0.0
 13
1.0
 23
0.0
 33
0.0
 40
0.0
 40
0.0
 40
0.0
 40
0.0
 40
1.0
 40
1.0
 40
1.0
 40
1.0
 10
178.7804562171804
 20
118.5735518582204
 30
0.0
 10
179.1198792584621
 20
117.843760996701
 30
0.0
 10
179.4523900019571
 20
117.1115926412793
 30
0.0
 10
179.7756159160738
 20
116.3762307565983
 30
0.0
  0
LINE
  5
D7
330
1F
100
AcDbEntity
  8
0
  6
Continuous
 62
     7
370
    15
100
AcDbLine
 10
179.7756162075
 20
116.3762306444
 30
0.0
 11
179.7756162075
 21
115.9779896609
 31
0.0
  0
SPLINE
  5
D8
330
1F
100
AcDbEntity
  8
0
  6
Continuous
 62
     7
370
    15
100
AcDbSpline
210
0.0
220
0.0
230
1.0
 70
     8
 71
     3
 72
    12
 73
     8
 74
     0
 42
0.00000001
 43
0.00000001
 12
1.0
 22
0.0
 32
0.0
 13
1.0
 23
0.0
 33
0.0
 40
0.0
 40
0.0
 40
0.0
 40
0.0
 40
0.5000000000000032
 40
0.5000000000000032
 40
0.7500000000000016
 40
0.7500000000000016
 40
1.0
 40
1.0
 40
1.0
 40
1.0
 10
179.7756159160738
 20
115.9779900373976
 30
0.0
 10
179.7756159160739
 20
115.7922239608195
 30
0.0
 10
179.8221616613305
 20
115.6070506488293
 30
0.0
 10
179.9722626097201
 20
115.3726400454858
 30
0.0
 10
180.0361994260142
 20
115.3025441480736
 30
0.0
 10
180.1915671577438
 20
115.1998636302696
 30
0.0
 10
180.2828104406618
 20
115.1691537172941
 30
0.0
 10
180.3756159160739
 20
115.1691537172941
 30
0.0
  0
LINE
  5
D9
330
1F
100
AcDbEntity
  8
0
  6
Continuous
 62
     7
370
    15
100
AcDbLine
 10
180.3756161196
 20
115.1691537
 30
0.0
 11
181.2556163011
 21
115.1691537
 31
0.0
  0
SPLINE
  5
DA
330
1F
100
AcDbEntity
  8
0
  6
Continuous
 62
     7
370
    15
100
AcDbSpline
210
0.0
220
0.0
230
1.0
 70
     8
 71
     3
 72
    12
 73
     8
 74
     0
 42
0.00000001
 43
0.00000001
 12
1.0
 22
0.0
 32
0.0
 13
1.0
 23
0.0
 33
0.0
 40
0.0
 40
0.0
 40
0.0
 40
0.0
 40
0.25
 40
0.25
 40
0.5
 40
0.5
 40
1.0
 40
1.0
 40
1.0
 40
1.0
 10
181.2556159160739
 20
115.1691537172942
 30
0.0
 10
181.3481578827956
 20
115.1691537172942
 30
0.0
 10
181.44036725994
 20
115.2001870642104
 30
0.0
 10
181.5955042203169
 20
115.3029979300352
 30
0.0
 10
181.6593141177779
 20
115.3731707443809
 30
0.0
 10
181.8084405535791
 20
115.6060832279089
 30
0.0
 10
181.8556159160738
 20
115.7928785899787
 30
0.0
 10
181.8556159160738
 20
115.9779900373976
 30
0.0
  0
LINE
  5
DB
330
1F
100
AcDbEntity
  8
0
  6
Continuous
 62
     7
370
    15
100
AcDbLine
 10
181.8556152819
 20
115.9779896609
 30
0.0
 11
181.8556152819
 21
116.3762306444
 31
0.0
  0
LINE
  5
DC
330
1F
100
AcDbEntity
  8
0
  6
Continuous
 62
     7
370
    15
100
AcDbLine
 10
182.8507762937
 20
118.5735521488
 30
0.0
 11
184.1656156419
 21
118.5735521488
 31
0.0
  0
LINE
  5
DD
330
1F
100
AcDbEntity
  8
0
  6
Continuous
 62
     7
370
    15
100
AcDbLine
 10
184.7656164853
 20
117.8224004455
 30
0.0
 11
184.7656164853
 21
115.3395456843
 31
0.0
  0
LINE
  5
DE
330
1F
100
AcDbEntity
  8
0
  6
Continuous
 62
     7
370
    15
100
AcDbLine
 10
181.2556163011
 20
119.3621420882
 30
0.0
 11
180.3756161196
 21
119.3621420882
 31
0.0
  0
SPLINE
  5
DF
330
1F
100
AcDbEntity
  8
0
  6
Continuous
 62
     7
370
    15
100
AcDbSpline
210
0.0
220
0.0
230
1.0
 70
     8
 71
     3
 72
    10
 73
     6
 74
     0
 42
0.00000001
 43
0.00000001
 12
1.0
 22
0.0
 32
0.0
 13
1.0
 23
0.0
 33
0.0
 40
0.0
 40
0.0
 40
0.0
 40
0.0
 40
0.5
 40
0.5
 40
1.0
 40
1.0
 40
1.0
 40
1.0
 10
180.0239603018238
 20
119.3621428571429
 30
0.0
 10
179.9466355699496
 20
119.4200248580045
 30
0.0
 10
179.883255744413
 20
119.4970982026384
 30
0.0
 10
179.79768529564
 20
119.6716012608323
 30
0.0
 10
179.7756159160738
 20
119.7684064643127
 30
0.0
 10
179.7756159160738
 20
119.8647468289627
 30
0.0
  0
SPLINE
  5
E0
330
1F
100
AcDbEntity
  8
0
  6
Continuous
 62
     7
370
    15
100
AcDbSpline
210
0.0
220
0.0
230
1.0
 70
    24
 71
     3
 72
    12
 73
     8
 74
     0
 42
0.00000001
 43
0.00000001
 12
1.0
 22
0.0
 32
0.0
 13
1.0
 23
0.0
 33
0.0
 40
0.0
 40
0.0
 40
0.0
 40
0.0
 40
0.2499999999999989
 40
0.2499999999999989
 40
0.4999999999999978
 40
0.4999999999999978
 40
1.0
 40
1.0
 40
1.0
 40
1.0
 10
180.3756159160739
 20
119.3621428571429
 30
0.0
 10
180.3240237157993
 20
119.3621428571429
 30
0.0
 10
180.2771187070047
 20
119.3621428571429
 30
0.0
 10
180.2037849811282
 20
119.3621428571429
 30
0.0
 10
180.1745551516792
 20
119.3621428571429
 30
0.0
 10
180.0963223716163
 20
119.3621428571429
 30
0.0
 10
180.0578882137086
 20
119.3621428571429
 30
0.0
 10
180.0239603018238
 20
119.3621428571429
 30
0.0
  0
SPLINE
  5
E1
330
1F
100
AcDbEntity
  8
0
  6
Continuous
 62
     7
370
    15
100
AcDbSpline
210
0.0
220
0.0
230
1.0
 70
    24
 71
     3
 72
    12
 73
     8
 74
     0
 42
0.00000001
 43
0.00000001
 12
1.0
 22
0.0
 32
0.0
 13
1.0
 23
0.0
 33
0.0
 40
0.0
 40
0.0
 40
0.0
 40
0.0
 40
0.5
 40
0.5
 40
0.75
 40
0.75
 40
1.0
 40
1.0
 40
1.0
 40
1.0
 10
181.6072715303239
 20
119.3621428571429
 30
0.0
 10
181.5731257820329
 20
119.3621428571429
 30
0.0
 10
181.5339326236279
 20
119.3621428571429
 30
0.0
 10
181.4560849649741
 20
119.3621428571429
 30
0.0
 10
181.4266805061888
 20
119.3621428571429
 30
0.0
 10
181.3536729848829
 20
119.3621428571429
 30
0.0
 10
181.3067676670751
 20
119.3621428571429
 30
0.0
 10
181.2556159160739
 20
119.3621428571429
 30
0.0
  0
SPLINE
  5
E2
330
1F
100
AcDbEntity
  8
0
  6
Continuous
 62
     7
370
    15
100
AcDbSpline
210
0.0
220
0.0
230
1.0
 70
     8
 71
     3
 72
    10
 73
     6
 74
     0
 42
0.00000001
 43
0.00000001
 12
1.0
 22
0.0
 32
0.0
 13
1.0
 23
0.0
 33
0.0
 40
0.0
 40
0.0
 40
0.0
 40
0.0
 40
0.5
 40
0.5
 40
1.0
 40
1.0
 40
1.0
 40
1.0
 10
181.8556159160738
 20
119.8647468289616
 30
0.0
 10
181.8556159160737
 20
119.7682042814851
 30
0.0
 10
181.8336752934922
 20
119.671743081215
 30
0.0
 10
181.7475451081004
 20
119.4963404869707
 30
0.0
 10
181.6844628009567
 20
119.4199249546036
 30
0.0
 10
181.6072715303239
 20
119.3621428571429
 30
0.0
  0
LINE
  5
E3
330
1F
100
AcDbEntity
  8
0
  6
Continuous
 62
     7
370
    15
100
AcDbLine
 10
184.1656156419
 20
121.9493189476
 30
0.0
 11
182.8507762937
 21
121.9493189476
 31
0.0
  0
LINE
  5
E4
330
1F
100
AcDbEntity
  8
0
  6
Continuous
 62
     7
370
    15
100
AcDbLine
 10
144.9156161932
 20
90.6436705611
 30
0.0
 11
144.9156161932
 21
90.914629551
 31
0.0
  0
LINE
  5
E5
330
1F
100
AcDbEntity
  8
0
  6
Continuous
 62
     7
370
    15
100
AcDbLine
 10
144.9156161932
 20
114.336056786
 30
0.0
 11
144.9156161932
 21
114.2403745673
 31
0.0
  0
LINE
  5
E6
330
1F
100
AcDbEntity
  8
0
  6
Continuous
 62
     7
370
    15
100
AcDbLine
 10
145.8656155108
 20
115.3421431429
 30
0.0
 11
145.8656155108
 21
115.3277234755
 31
0.0
  0
LINE
  5
E7
330
1F
100
AcDbEntity
  8
0
  6
Continuous
 62
     7
370
    15
100
AcDbLine
 10
144.9156161932
 20
114.3921428941
 30
0.0
 11
144.9156161932
 21
114.336056786
 31
0.0
  0
LINE
  5
E8
330
1F
100
AcDbEntity
  8
0
  6
Continuous
 62
     7
370
    15
100
AcDbLine
 10
145.9246166585
 20
89.5821425713
 30
0.0
 11
145.9246166585
 21
89.6110759698
 31
0.0
  0
LINE
  5
E9
330
1F
100
AcDbEntity
  8
0
  6
Continuous
 62
     7
370
    15
100
AcDbLine
 10
144.9156161932
 20
90.5911430366
 30
0.0
 11
144.9156161932
 21
90.6436705611
 31
0.0
  0
LINE
  5
EA
330
1F
100
AcDbEntity
  8
0
  6
HIDDEN
 62
     7
370
     0
100
AcDbLine
 10
197.8156157373
 20
109.8446055896
 30
0.0
 11
205.8156170486
 21
109.8446055896
 31
0.0
  0
LINE
  5
EB
330
1F
100
AcDbEntity
  8
0
  6
HIDDEN
 62
     7
370
     0
100
AcDbLine
 10
199.0656145452
 20
108.5946053847
 30
0.0
 11
204.5656145154
 21
108.5946053847
 31
0.0
  0
LINE
  5
EC
330
1F
100
AcDbEntity
  8
0
  6
HIDDEN
 62
     7
370
     0
100
AcDbLine
 10
197.8156157373
 20
118.1959455482
 30
0.0
 11
205.8156170486
 21
118.1959455482
 31
0.0
  0
LINE
  5
ED
330
1F
100
AcDbEntity
  8
0
  6
HIDDEN
 62
     7
370
     0
100
AcDbLine
 10
198.5061169205
 20
118.5946056269
 30
0.0
 11
205.1251158653
 21
118.5946056269
 31
0.0
  0
LINE
  5
EE
330
1F
100
AcDbEntity
  8
0
  6
HIDDEN
 62
     7
370
     0
100
AcDbLine
 10
200.6448768614
 20
113.5946057386
 30
0.0
 11
202.9542029439
 21
113.5946057386
 31
0.0
  0
LINE
  5
EF
330
1F
100
AcDbEntity
  8
0
  6
HIDDEN
 62
     7
370
     0
100
AcDbLine
 10
202.9542029439
 20
113.5946057386
 30
0.0
 11
202.9542029439
 21
118.5946056269
 31
0.0
  0
LINE
  5
F0
330
1F
100
AcDbEntity
  8
0
  6
HIDDEN
 62
     7
370
     0
100
AcDbLine
 10
204.1249424754
 20
113.5946057386
 30
0.0
 11
202.9542029439
 21
113.5946057386
 31
0.0
  0
LINE
  5
F1
330
1F
100
AcDbEntity
  8
0
  6
HIDDEN
 62
     7
370
     0
100
AcDbLine
 10
200.6448768614
 20
113.5946057386
 30
0.0
 11
200.6448768614
 21
118.5946056269
 31
0.0
  0
LINE
  5
F2
330
1F
100
AcDbEntity
  8
0
  6
HIDDEN
 62
     7
370
     0
100
AcDbLine
 10
199.5062903104
 20
113.5946057386
 30
0.0
 11
200.6448768614
 21
113.5946057386
 31
0.0
  0
LINE
  5
F3
330
1F
100
AcDbEntity
  8
0
  6
HIDDEN
 62
     7
370
     0
100
AcDbLine
 10
202.9863559244
 20
113.5946057386
 30
0.0
 11
202.9863559244
 21
118.5946056269
 31
0.0
  0
LINE
  5
F4
330
1F
100
AcDbEntity
  8
0
  6
HIDDEN
 62
     7
370
     0
100
AcDbLine
 10
204.1249424754
 20
113.5946057386
 30
0.0
 11
204.1249424754
 21
118.5946056269
 31
0.0
  0
LINE
  5
F5
330
1F
100
AcDbEntity
  8
0
  6
HIDDEN
 62
     7
370
     0
100
AcDbLine
 10
200.677029842
 20
113.5946057386
 30
0.0
 11
200.677029842
 21
118.5946056269
 31
0.0
  0
LINE
  5
F6
330
1F
100
AcDbEntity
  8
0
  6
HIDDEN
 62
     7
370
     0
100
AcDbLine
 10
199.5062903104
 20
113.5946057386
 30
0.0
 11
199.5062903104
 21
118.5946056269
 31
0.0
  0
LINE
  5
F7
330
1F
100
AcDbEntity
  8
0
  6
HIDDEN
 62
     7
370
     0
100
AcDbLine
 10
207.8156173764
 20
109.8446055896
 30
0.0
 11
215.8156149624
 21
109.8446055896
 31
0.0
  0
LINE
  5
F8
330
1F
100
AcDbEntity
  8
0
  6
HIDDEN
 62
     7
370
     0
100
AcDbLine
 10
209.0656161843
 20
108.5946053847
 30
0.0
 11
214.5656161545
 21
108.5946053847
 31
0.0
  0
LINE
  5
F9
330
1F
100
AcDbEntity
  8
0
  6
HIDDEN
 62
     7
370
     0
100
AcDbLine
 10
207.8156173764
 20
118.1959455482
 30
0.0
 11
215.8156149624
 21
118.1959455482
 31
0.0
  0
LINE
  5
FA
330
1F
100
AcDbEntity
  8
0
  6
HIDDEN
 62
     7
370
     0
100
AcDbLine
 10
208.5061148344
 20
118.5946056269
 30
0.0
 11
215.1251175044
 21
118.5946056269
 31
0.0
  0
LINE
  5
FB
330
1F
100
AcDbEntity
  8
0
  6
HIDDEN
 62
     7
370
     0
100
AcDbLine
 10
210.6448785005
 20
113.5946057386
 30
0.0
 11
212.954204583
 21
113.5946057386
 31
0.0
  0
LINE
  5
FC
330
1F
100
AcDbEntity
  8
0
  6
HIDDEN
 62
     7
370
     0
100
AcDbLine
 10
212.954204583
 20
113.5946057386
 30
0.0
 11
212.954204583
 21
118.5946056269
 31
0.0
  0
LINE
  5
FD
330
1F
100
AcDbEntity
  8
0
  6
HIDDEN
 62
     7
370
     0
100
AcDbLine
 10
214.1249441145
 20
113.5946057386
 30
0.0
 11
212.954204583
 21
113.5946057386
 31
0.0
  0
LINE
  5
FE
330
1F
100
AcDbEntity
  8
0
  6
HIDDEN
 62
     7
370
     0
100
AcDbLine
 10
210.6448785005
 20
113.5946057386
 30
0.0
 11
210.6448785005
 21
118.5946056269
 31
0.0
  0
LINE
  5
FF
330
1F
100
AcDbEntity
  8
0
  6
HIDDEN
 62
     7
370
     0
100
AcDbLine
 10
209.5062882243
 20
113.5946057386
 30
0.0
 11
210.6448785005
 21
113.5946057386
 31
0.0
  0
LINE
  5
100
330
1F
100
AcDbEntity
  8
0
  6
HIDDEN
 62
     7
370
     0
100
AcDbLine
 10
212.9863538383
 20
113.5946057386
 30
0.0
 11
212.9863538383
 21
118.5946056269
 31
0.0
  0
LINE
  5
101
330
1F
100
AcDbEntity
  8
0
  6
HIDDEN
 62
     7
370
     0
100
AcDbLine
 10
214.1249441145
 20
113.5946057386
 30
0.0
 11
214.1249441145
 21
118.5946056269
 31
0.0
  0
LINE
  5
102
330
1F
100
AcDbEntity
  8
0
  6
HIDDEN
 62
     7
370
     0
100
AcDbLine
 10
210.6770277558
 20
113.5946057386
 30
0.0
 11
210.6770277558
 21
118.5946056269
 31
0.0
  0
LINE
  5
103
330
1F
100
AcDbEntity
  8
0
  6
HIDDEN
 62
     7
370
     0
100
AcDbLine
 10
209.5062882243
 20
113.5946057386
 30
0.0
 11
209.5062882243
 21
118.5946056269
 31
0.0
  0
CIRCLE
  5
104
330
1F
100
AcDbEntity
  8
0
  6
HIDDEN
 62
     7
370
     0
100
AcDbCircle
 10
201.8156159161
 20
102.4621428571
 30
0.0
 40
4.000000000000012
  0
CIRCLE
  5
105
330
1F
100
AcDbEntity
  8
0
  6
HIDDEN
 62
     7
370
     0
100
AcDbCircle
 10
201.8156159161
 20
102.4621428571
 30
0.0
 40
2.749999999999986
  0
CIRCLE
  5
106
330
1F
100
AcDbEntity
  8
0
  6
HIDDEN
 62
     7
370
     0
100
AcDbCircle
 10
211.8156159161
 20
102.4621428571
 30
0.0
 40
4.000000000000041
  0
CIRCLE
  5
107
330
1F
100
AcDbEntity
  8
0
  6
HIDDEN
 62
     7
370
     0
100
AcDbCircle
 10
211.8156159161
 20
102.4621428571
 30
0.0
 40
2.750000000000014
  0
CIRCLE
  5
108
330
1F
100
AcDbEntity
  8
0
  6
HIDDEN
 62
     7
370
     0
100
AcDbCircle
 10
191.8156159161
 20
102.4621428571
 30
0.0
 40
4.000000000000027
  0
CIRCLE
  5
109
330
1F
100
AcDbEntity
  8
0
  6
HIDDEN
 62
     7
370
     0
100
AcDbCircle
 10
191.8156159161
 20
102.4621428571
 30
0.0
 40
2.75
  0
LINE
  5
10A
330
1F
100
AcDbEntity
  8
0
  6
HIDDEN
 62
     7
370
     0
100
AcDbLine
 10
202.9863559244
 20
100.471488817
 30
0.0
 11
200.677029842
 21
100.4529259283
 31
0.0
  0
LINE
  5
10B
330
1F
100
AcDbEntity
  8
0
  6
HIDDEN
 62
     7
370
     0
100
AcDbLine
 10
199.5062903104
 20
102.4435799266
 30
0.0
 11
200.677029842
 21
100.4529259283
 31
0.0
  0
LINE
  5
10C
330
1F
100
AcDbEntity
  8
0
  6
HIDDEN
 62
     7
370
     0
100
AcDbLine
 10
202.9863559244
 20
100.471488817
 30
0.0
 11
204.1249424754
 21
102.4807057877
 31
0.0
  0
LINE
  5
10D
330
1F
100
AcDbEntity
  8
0
  6
HIDDEN
 62
     7
370
     0
100
AcDbLine
 10
204.1249424754
 20
102.4807057877
 30
0.0
 11
202.9542029439
 21
104.471359786
 31
0.0
  0
LINE
  5
10E
330
1F
100
AcDbEntity
  8
0
  6
HIDDEN
 62
     7
370
     0
100
AcDbLine
 10
199.5062903104
 20
102.4435799266
 30
0.0
 11
200.6448768614
 21
104.4527968973
 31
0.0
  0
LINE
  5
10F
330
1F
100
AcDbEntity
  8
0
  6
HIDDEN
 62
     7
370
     0
100
AcDbLine
 10
200.6448768614
 20
104.4527968973
 30
0.0
 11
202.9542029439
 21
104.471359786
 31
0.0
  0
LINE
  5
110
330
1F
100
AcDbEntity
  8
0
  6
HIDDEN
 62
     7
370
     0
100
AcDbLine
 10
212.9863538383
 20
100.471488817
 30
0.0
 11
210.6770277558
 21
100.4529259283
 31
0.0
  0
LINE
  5
111
330
1F
100
AcDbEntity
  8
0
  6
HIDDEN
 62
     7
370
     0
100
AcDbLine
 10
209.5062882243
 20
102.4435799266
 30
0.0
 11
210.6770277558
 21
100.4529259283
 31
0.0
  0
LINE
  5
112
330
1F
100
AcDbEntity
  8
0
  6
HIDDEN
 62
     7
370
     0
100
AcDbLine
 10
212.9863538383
 20
100.471488817
 30
0.0
 11
214.1249441145
 21
102.4807057877
 31
0.0
  0
LINE
  5
113
330
1F
100
AcDbEntity
  8
0
  6
HIDDEN
 62
     7
370
     0
100
AcDbLine
 10
214.1249441145
 20
102.4807057877
 30
0.0
 11
212.954204583
 21
104.471359786
 31
0.0
  0
LINE
  5
114
330
1F
100
AcDbEntity
  8
0
  6
HIDDEN
 62
     7
370
     0
100
AcDbLine
 10
209.5062882243
 20
102.4435799266
 30
0.0
 11
210.6448785005
 21
104.4527968973
 31
0.0
  0
LINE
  5
115
330
1F
100
AcDbEntity
  8
0
  6
HIDDEN
 62
     7
370
     0
100
AcDbLine
 10
210.6448785005
 20
104.4527968973
 30
0.0
 11
212.954204583
 21
104.471359786
 31
0.0
  0
LINE
  5
116
330
1F
100
AcDbEntity
  8
0
  6
HIDDEN
 62
     7
370
     0
100
AcDbLine
 10
187.8156159608
 20
109.8446055896
 30
0.0
 11
195.8156154094
 21
109.8446055896
 31
0.0
  0
LINE
  5
117
330
1F
100
AcDbEntity
  8
0
  6
HIDDEN
 62
     7
370
     0
100
AcDbLine
 10
189.0656166313
 20
108.5946053847
 30
0.0
 11
194.5656166015
 21
108.5946053847
 31
0.0
  0
LINE
  5
118
330
1F
100
AcDbEntity
  8
0
  6
HIDDEN
 62
     7
370
     0
100
AcDbLine
 10
187.8156159608
 20
118.1959455482
 30
0.0
 11
195.8156154094
 21
118.1959455482
 31
0.0
  0
LINE
  5
119
330
1F
100
AcDbEntity
  8
0
  6
HIDDEN
 62
     7
370
     0
100
AcDbLine
 10
188.5061152814
 20
118.5946056269
 30
0.0
 11
191.3269926397
 21
118.5946056269
 31
0.0
  0
LINE
  5
11A
330
1F
100
AcDbEntity
  8
0
  6
HIDDEN
 62
     7
370
     0
100
AcDbLine
 10
192.103536853
 20
118.5946056269
 30
0.0
 11
195.1251160888
 21
118.5946056269
 31
0.0
  0
LINE
  5
11B
330
1F
100
AcDbEntity
  8
0
  6
HIDDEN
 62
     7
370
     0
100
AcDbLine
 10
190.6448770849
 20
113.5946057386
 30
0.0
 11
192.9542031674
 21
113.5946057386
 31
0.0
  0
LINE
  5
11C
330
1F
100
AcDbEntity
  8
0
  6
HIDDEN
 62
     7
370
     0
100
AcDbLine
 10
192.9542031674
 20
113.5946057386
 30
0.0
 11
192.9542031674
 21
118.5946056269
 31
0.0
  0
LINE
  5
11D
330
1F
100
AcDbEntity
  8
0
  6
HIDDEN
 62
     7
370
     0
100
AcDbLine
 10
194.1249426989
 20
113.5946057386
 30
0.0
 11
192.9542031674
 21
113.5946057386
 31
0.0
  0
LINE
  5
11E
330
1F
100
AcDbEntity
  8
0
  6
HIDDEN
 62
     7
370
     0
100
AcDbLine
 10
190.6448770849
 20
113.5946057386
 30
0.0
 11
190.6448770849
 21
118.5946056269
 31
0.0
  0
LINE
  5
11F
330
1F
100
AcDbEntity
  8
0
  6
HIDDEN
 62
     7
370
     0
100
AcDbLine
 10
189.5062886713
 20
113.5946057386
 30
0.0
 11
190.6448770849
 21
113.5946057386
 31
0.0
  0
LINE
  5
120
330
1F
100
AcDbEntity
  8
0
  6
HIDDEN
 62
     7
370
     0
100
AcDbLine
 10
192.9863542853
 20
113.5946057386
 30
0.0
 11
192.9863542853
 21
118.5946056269
 31
0.0
  0
LINE
  5
121
330
1F
100
AcDbEntity
  8
0
  6
HIDDEN
 62
     7
370
     0
100
AcDbLine
 10
194.1249426989
 20
113.5946057386
 30
0.0
 11
194.1249426989
 21
118.5946056269
 31
0.0
  0
LINE
  5
122
330
1F
100
AcDbEntity
  8
0
  6
HIDDEN
 62
     7
370
     0
100
AcDbLine
 10
190.6770282028
 20
113.5946057386
 30
0.0
 11
190.6770282028
 21
118.5946056269
 31
0.0
  0
LINE
  5
123
330
1F
100
AcDbEntity
  8
0
  6
HIDDEN
 62
     7
370
     0
100
AcDbLine
 10
189.5062886713
 20
113.5946057386
 30
0.0
 11
189.5062886713
 21
118.5946056269
 31
0.0
  0
LINE
  5
124
330
1F
100
AcDbEntity
  8
0
  6
HIDDEN
 62
     7
370
     0
100
AcDbLine
 10
192.9863542853
 20
100.471488817
 30
0.0
 11
190.6770282028
 21
100.4529259283
 31
0.0
  0
LINE
  5
125
330
1F
100
AcDbEntity
  8
0
  6
HIDDEN
 62
     7
370
     0
100
AcDbLine
 10
192.9863542853
 20
100.471488817
 30
0.0
 11
194.1249426989
 21
102.4807057877
 31
0.0
  0
LINE
  5
126
330
1F
100
AcDbEntity
  8
0
  6
HIDDEN
 62
     7
370
     0
100
AcDbLine
 10
189.5062886713
 20
102.4435799266
 30
0.0
 11
190.6770282028
 21
100.4529259283
 31
0.0
  0
LINE
  5
127
330
1F
100
AcDbEntity
  8
0
  6
HIDDEN
 62
     7
370
     0
100
AcDbLine
 10
194.1249426989
 20
102.4807057877
 30
0.0
 11
192.9542031674
 21
104.471359786
 31
0.0
  0
LINE
  5
128
330
1F
100
AcDbEntity
  8
0
  6
HIDDEN
 62
     7
370
     0
100
AcDbLine
 10
189.5062886713
 20
102.4435799266
 30
0.0
 11
190.6448770849
 21
104.4527968973
 31
0.0
  0
LINE
  5
129
330
1F
100
AcDbEntity
  8
0
  6
HIDDEN
 62
     7
370
     0
100
AcDbLine
 10
190.6448770849
 20
104.4527968973
 30
0.0
 11
192.9542031674
 21
104.471359786
 31
0.0
  0
LINE
  5
12A
330
1F
100
AcDbEntity
  8
0
  6
HIDDEN
 62
     7
370
     0
100
AcDbLine
 10
178.780456127
 20
118.5735521488
 30
0.0
 11
178.780456127
 21
114.3121432163
 31
0.0
  0
LINE
  5
12B
330
1F
100
AcDbEntity
  8
0
  6
HIDDEN
 62
     7
370
     0
100
AcDbLine
 10
184.7656164853
 20
115.3395456843
 30
0.0
 11
184.7656164853
 21
114.3121432163
 31
0.0
  0
LINE
  5
12C
330
1F
100
AcDbEntity
  8
0
  6
HIDDEN
 62
     7
370
     0
100
AcDbLine
 10
212.0369710563
 20
119.1017536096
 30
0.0
 11
211.7655277787
 21
119.0992800168
 31
0.0
  0
LINE
  5
12D
330
1F
100
AcDbEntity
  8
0
  6
HIDDEN
 62
     7
370
     0
100
AcDbLine
 10
156.4646075083
 20
87.7633878611
 30
0.0
 11
156.2656490667
 21
87.7377094351
 31
0.0
  0
SPLINE
  5
12E
330
1F
100
AcDbEntity
  8
0
  6
HIDDEN
 62
     7
370
     0
100
AcDbSpline
210
0.0
220
0.0
230
1.0
 70
     8
 71
     3
 72
     9
 73
     5
 74
     0
 42
0.00000001
 43
0.00000001
 12
1.0
 22
0.0
 32
0.0
 13
1.0
 23
0.0
 33
0.0
 40
0.0
 40
0.0
 40
0.0
 40
0.0
 40
0.0295948964519587
 40
1.0
 40
1.0
 40
1.0
 40
1.0
 10
156.8221198929554
 20
87.80105613393447
 30
0.0
 10
156.8177940054448
 20
87.80072141164287
 30
0.0
 10
156.6716239548905
 20
87.78941127605461
 30
0.0
 10
156.5665610689817
 20
87.77620413660587
 30
0.0
 10
156.4646075083023
 20
87.76338786108157
 30
0.0
  0
SPLINE
  5
12F
330
1F
100
AcDbEntity
  8
0
  6
HIDDEN
 62
     7
370
     0
100
AcDbSpline
210
0.0
220
0.0
230
1.0
 70
     8
 71
     3
 72
     9
 73
     5
 74
     0
 42
0.00000001
 43
0.00000001
 12
1.0
 22
0.0
 32
0.0
 13
1.0
 23
0.0
 33
0.0
 40
0.0
 40
0.0
 40
0.0
 40
0.0
 40
0.985348532497498
 40
1.0
 40
1.0
 40
1.0
 40
1.0
 10
156.4644892303353
 20
117.160882952043
 30
0.0
 10
156.5666164621318
 20
117.148096281141
 30
0.0
 10
156.6702622569225
 20
117.1351194810745
 30
0.0
 10
156.8141371320966
 20
117.1239620905885
 30
0.0
 10
156.8162451101547
 20
117.1237986184444
 30
0.0
  0
LWPOLYLINE
  5
130
330
1F
100
AcDbEntity
  8
0
  6
HIDDEN
 62
     7
370
     0
100
AcDbPolyline
 90
        3
 70
   128
 43
0.0
 10
156.0504083125
 20
117.2161997877
 10
156.2056448845
 20
117.1937642269
 10
156.4644892303
 20
117.160882952
  0
SPLINE
  5
131
330
1F
100
AcDbEntity
  8
0
  6
HIDDEN
 62
     7
370
     0
100
AcDbSpline
210
0.0
220
0.0
230
1.0
 70
     8
 71
     3
 72
    15
 73
    11
 74
     0
 42
0.00000001
 43
0.00000001
 12
1.0
 22
0.0
 32
0.0
 13
1.0
 23
0.0
 33
0.0
 40
0.0
 40
0.0
 40
0.0
 40
0.0
 40
0.1360947993897038
 40
0.2722233504338452
 40
0.4072157477284721
 40
0.5405337273204607
 40
0.674528402193116
 40
0.8104813419156445
 40
0.9466524598609822
 40
1.0
 40
1.0
 40
1.0
 40
1.0
 10
160.6397927342063
 20
89.78933297319075
 30
0.0
 10
160.4618924723978
 20
89.81327536970849
 30
0.0
 10
160.1060478293276
 20
89.86116610048371
 30
0.0
 10
159.3717246488276
 20
89.91687558883591
 30
0.0
 10
158.5923159949531
 20
89.92732638030078
 30
0.0
 10
157.8405298145438
 20
89.89012585750253
 30
0.0
 10
157.1932359079101
 20
89.82077152927633
 30
0.0
 10
156.7374365375198
 20
89.75196425211881
 30
0.0
 10
156.5112143777207
 20
89.71136783237118
 30
0.0
 10
156.5386639097827
 20
89.7162715288111
 30
0.0
 10
156.5463906688695
 20
89.71765186859032
 30
0.0
  0
SPLINE
  5
132
330
1F
100
AcDbEntity
  8
0
  6
HIDDEN
 62
     7
370
     0
100
AcDbSpline
210
0.0
220
0.0
230
1.0
 70
     8
 71
     3
 72
    15
 73
    11
 74
     0
 42
0.00000001
 43
0.00000001
 12
1.0
 22
0.0
 32
0.0
 13
1.0
 23
0.0
 33
0.0
 40
0.0
 40
0.0
 40
0.0
 40
0.0
 40
0.0809850953378773
 40
0.2142994841332234
 40
0.3489242590596051
 40
0.4852277276366004
 40
0.6209655570397145
 40
0.7547097406923156
 40
0.8881684412294678
 40
1.0
 40
1.0
 40
1.0
 40
1.0
 10
156.5463906688695
 20
115.2066338456955
 30
0.0
 10
156.5434273900059
 20
115.2071419743352
 30
0.0
 10
156.535586081316
 20
115.2084865637923
 30
0.0
 10
156.8070770827815
 20
115.1607628312155
 30
0.0
 10
157.3010600998261
 20
115.0895989170126
 30
0.0
 10
157.9794375019642
 20
115.023505737158
 30
0.0
 10
158.7510779842269
 20
114.9949637660431
 30
0.0
 10
159.521446497978
 20
115.0155184209427
 30
0.0
 10
160.1829585749835
 20
115.0727832839167
 30
0.0
 10
160.4967365737049
 20
115.1154845737857
 30
0.0
 10
160.6397927342063
 20
115.134952741095
 30
0.0
  0
SPLINE
  5
133
330
1F
100
AcDbEntity
  8
0
  6
HIDDEN
 62
     7
370
     0
100
AcDbSpline
210
0.0
220
0.0
230
1.0
 70
     8
 71
     3
 72
     9
 73
     5
 74
     0
 42
0.00000001
 43
0.00000001
 12
1.0
 22
0.0
 32
0.0
 13
1.0
 23
0.0
 33
0.0
 40
0.0
 40
0.0
 40
0.0
 40
0.0
 40
0.5108162292355561
 40
1.0
 40
1.0
 40
1.0
 40
1.0
 10
160.6397927342063
 20
115.134952741095
 30
0.0
 10
160.7797805029375
 20
115.1522953438771
 30
0.0
 10
161.0538277252442
 20
115.1862461108839
 30
0.0
 10
161.0918271657617
 20
115.1880761081196
 30
0.0
 10
161.1104158753609
 20
115.1889713130679
 30
0.0
  0
SPLINE
  5
134
330
1F
100
AcDbEntity
  8
0
  6
HIDDEN
 62
     7
370
     0
100
AcDbSpline
210
0.0
220
0.0
230
1.0
 70
     8
 71
     3
 72
    10
 73
     6
 74
     0
 42
0.00000001
 43
0.00000001
 12
1.0
 22
0.0
 32
0.0
 13
1.0
 23
0.0
 33
0.0
 40
0.0
 40
0.0
 40
0.0
 40
0.0
 40
0.0213446420092497
 40
0.5331818962574534
 40
1.0
 40
1.0
 40
1.0
 40
1.0
 10
161.1104966675942
 20
89.73530695063731
 30
0.0
 10
161.1121950853995
 20
89.73515087048656
 30
0.0
 10
161.1546209843992
 20
89.73125204141705
 30
0.0
 10
161.0151311283707
 20
89.74112712322982
 30
0.0
 10
160.761008904592
 20
89.77376481226369
 30
0.0
 10
160.6397927342063
 20
89.78933297319075
 30
0.0
  0
LINE
  5
135
330
1F
100
AcDbEntity
  8
0
  6
HIDDEN
 62
     7
370
     0
100
AcDbLine
 10
152.8182654245
 20
91.9621429987
 30
0.0
 11
152.8182654245
 21
112.9621427156
 31
0.0
  0
LINE
  5
136
330
1F
100
AcDbEntity
  8
0
  6
HIDDEN
 62
     7
370
     0
100
AcDbLine
 10
170.9849909483
 20
91.9621429987
 30
0.0
 11
170.9849909483
 21
112.9621427156
 31
0.0
  0
LINE
  5
137
330
1F
100
AcDbEntity
  8
0
  6
HIDDEN
 62
     7
370
     0
100
AcDbLine
 10
172.765616381
 20
92.5871424027
 30
0.0
 11
172.765616381
 21
112.3371433116
 31
0.0
  0
SPLINE
  5
138
330
1F
100
AcDbEntity
  8
0
  6
HIDDEN
 62
     7
370
     0
100
AcDbSpline
210
0.0
220
0.0
230
1.0
 70
     8
 71
     3
 72
    14
 73
    10
 74
     0
 42
0.00000001
 43
0.00000001
 12
1.0
 22
0.0
 32
0.0
 13
1.0
 23
0.0
 33
0.0
 40
0.0
 40
0.0
 40
0.0
 40
0.0
 40
0.2499999999999999
 40
0.2499999999999999
 40
0.4999999999999998
 40
0.4999999999999998
 40
0.7499999999999997
 40
0.7499999999999997
 40
1.0
 40
1.0
 40
1.0
 40
1.0
 10
148.5156159160738
 20
112.4863323505633
 30
0.0
 10
148.5156159160738
 20
112.4498604860295
 30
0.0
 10
148.4932452842698
 20
112.412124733517
 30
0.0
 10
148.4060297530215
 20
112.3369890118175
 30
0.0
 10
148.3420085469449
 20
112.3006167255954
 30
0.0
 10
148.1785232492036
 20
112.2363931864333
 30
0.0
 10
148.0792083750304
 20
112.2088702238109
 30
0.0
 10
147.8593821043253
 20
112.1706980569238
 30
0.0
 10
147.7383785420162
 20
112.1600485588911
 30
0.0
 10
147.6156159160739
 20
112.1600485588911
 30
0.0
  0
LINE
  5
139
330
1F
100
AcDbEntity
  8
0
  6
HIDDEN
 62
     7
370
     0
100
AcDbLine
 10
147.6156153319
 20
112.1600485988
 30
0.0
 11
145.8656155108
 21
112.1600485988
 31
0.0
  0
ARC
  5
13A
330
1F
100
AcDbEntity
  8
0
  6
HIDDEN
 62
     7
370
     0
100
AcDbCircle
 10
149.8906159161
 20
102.4621428571
 30
0.0
 40
10.5
100
AcDbArc
 50
247.4596895365
 51
247.8078280674
  0
LINE
  5
13B
330
1F
100
AcDbEntity
  8
0
  6
HIDDEN
 62
     7
370
     0
100
AcDbLine
 10
145.9246166585
 20
92.7399593986
 30
0.0
 11
150.1156157417
 21
92.7399593986
 31
0.0
  0
SPLINE
  5
13C
330
1F
100
AcDbEntity
  8
0
  6
HIDDEN
 62
     7
370
     0
100
AcDbSpline
210
0.0
220
0.0
230
1.0
 70
     8
 71
     3
 72
    14
 73
    10
 74
     0
 42
0.00000001
 43
0.00000001
 12
1.0
 22
0.0
 32
0.0
 13
1.0
 23
0.0
 33
0.0
 40
0.0
 40
0.0
 40
0.0
 40
0.0
 40
0.25
 40
0.25
 40
0.5
 40
0.5
 40
0.75
 40
0.75
 40
1.0
 40
1.0
 40
1.0
 40
1.0
 10
150.1156159160739
 20
92.73995976896768
 30
0.0
 10
150.2380840039928
 20
92.73995976896768
 30
0.0
 10
150.3582950828616
 20
92.72962274924778
 30
0.0
 10
150.5785014021142
 20
92.69215552066983
 30
0.0
 10
150.6781568548122
 20
92.66502435238058
 30
0.0
 10
150.841144207768
 20
92.60225730617374
 30
0.0
 10
150.9058815685145
 20
92.56619361224682
 30
0.0
 10
150.9927169186315
 20
92.49300094237876
 30
0.0
 10
151.0156159160738
 20
92.45545815686776
 30
0.0
 10
151.0156159160738
 20
92.41975051268632
 30
0.0
  0
LINE
  5
13D
330
1F
100
AcDbEntity
  8
0
  6
HIDDEN
 62
     7
370
     0
100
AcDbLine
 10
145.8656155108
 20
92.7642371155
 30
0.0
 11
145.8656155108
 21
112.1600485988
 31
0.0
  0
LINE
  5
13E
330
1F
100
AcDbEntity
  8
0
  6
HIDDEN
 62
     7
370
     0
100
AcDbLine
 10
148.5156156657
 20
113.4621427975
 30
0.0
 11
148.5156156657
 21
116.0196672775
 31
0.0
  0
LINE
  5
13F
330
1F
100
AcDbEntity
  8
0
  6
HIDDEN
 62
     7
370
     0
100
AcDbLine
 10
151.0156160755
 20
91.4621429167
 30
0.0
 11
151.0156160755
 21
88.8253964133
 31
0.0
  0
LINE
  5
140
330
1F
100
AcDbEntity
  8
0
  6
HIDDEN
 62
     7
370
     0
100
AcDbLine
 10
145.8656155108
 20
113.4621427975
 30
0.0
 11
145.8656155108
 21
115.3277234755
 31
0.0
  0
LINE
  5
141
330
1F
100
AcDbEntity
  8
0
  6
HIDDEN
 62
     7
370
     0
100
AcDbLine
 10
145.9246166585
 20
91.4621429167
 30
0.0
 11
145.9246166585
 21
89.6110759698
 31
0.0
  0
LINE
  5
142
330
1F
100
AcDbEntity
  8
0
  6
HIDDEN
 62
     7
370
     0
100
AcDbLine
 10
178.1156156747
 20
96.212142764
 30
0.0
 11
178.1156156747
 21
108.7121429503
 31
0.0
  0
LINE
  5
143
330
1F
100
AcDbEntity
  8
0
  6
HIDDEN
 62
     7
370
     0
100
AcDbLine
 10
180.6156151531
 20
96.212142764
 30
0.0
 11
180.6156151531
 21
108.7121429503
 31
0.0
  0
LINE
  5
144
330
1F
100
AcDbEntity
  8
0
  6
HIDDEN
 62
     7
370
     0
100
AcDbLine
 10
173.2656155316
 20
96.9621428869
 30
0.0
 11
173.2656155316
 21
107.9621428273
 31
0.0
  0
LINE
  5
145
330
1F
100
AcDbEntity
  8
0
  6
HIDDEN
 62
     7
370
     0
100
AcDbLine
 10
172.765616381
 20
82.4871586285
 30
0.0
 11
172.765616381
 21
85.562143626
 31
0.0
  0
LINE
  5
146
330
1F
100
AcDbEntity
  8
0
  6
HIDDEN
 62
     7
370
     0
100
AcDbLine
 10
177.2656161873
 20
85.562143626
 30
0.0
 11
172.765616381
 21
85.562143626
 31
0.0
  0
LINE
  5
147
330
1F
100
AcDbEntity
  8
0
  6
HIDDEN
 62
     7
370
     0
100
AcDbLine
 10
179.810837896
 20
85.562143626
 30
0.0
 11
177.2656161873
 21
85.562143626
 31
0.0
  0
LINE
  5
148
330
1F
100
AcDbEntity
  8
0
  6
HIDDEN
 62
     7
370
     0
100
AcDbLine
 10
184.7656164853
 20
85.562143626
 30
0.0
 11
181.8203926621
 21
85.562143626
 31
0.0
  0
ELLIPSE
  5
149
330
1F
100
AcDbEntity
  8
0
  6
HIDDEN
 62
     7
370
     0
100
AcDbEllipse
 10
142.8098491763
 20
102.4621428571
 30
0.0
 11
12.26424774976738
 21
0.0
 31
0.0
210
0.0
220
0.0
230
1.0
 40
0.8164965809
 41
1.318982952866323
 42
1.398241670070612
  0
ELLIPSE
  5
14A
330
1F
100
AcDbEntity
  8
0
  6
HIDDEN
 62
     7
370
     0
100
AcDbEllipse
 10
142.8098491763
 20
102.4621428571
 30
0.0
 11
12.26424774976735
 21
0.0
 31
0.0
210
0.0
220
0.0
230
1.0
 40
0.8164965809
 41
4.884943637108984
 42
4.964202354313273
  0
LINE
  5
14B
330
1F
100
AcDbEntity
  8
0
  6
HIDDEN
 62
     7
370
     0
100
AcDbLine
 10
184.7656779526
 20
119.3621420882
 30
0.0
 11
181.6072706668
 21
119.3621420882
 31
0.0
  0
LINE
  5
14C
330
1F
100
AcDbEntity
  8
0
  6
HIDDEN
 62
     7
370
     0
100
AcDbLine
 10
180.0239598913
 20
119.3621420882
 30
0.0
 11
177.2656161873
 21
119.3621420882
 31
0.0
  0
LINE
  5
14D
330
1F
100
AcDbEntity
  8
0
  6
HIDDEN
 62
     7
370
     0
100
AcDbLine
 10
177.2656161873
 20
119.3621420882
 30
0.0
 11
172.765616381
 21
119.3621420882
 31
0.0
  0
LINE
  5
14E
330
1F
100
AcDbEntity
  8
0
  6
HIDDEN
 62
     7
370
     0
100
AcDbLine
 10
186.9913731305
 20
102.4621428571
 30
0.0
 11
186.9913731305
 21
98.1621427111
 31
0.0
  0
LINE
  5
14F
330
1F
100
AcDbEntity
  8
0
  6
HIDDEN
 62
     7
370
     0
100
AcDbLine
 10
186.9913731305
 20
106.7621430032
 30
0.0
 11
186.9913731305
 21
102.4621428571
 31
0.0
  0
LINE
  5
150
330
1F
100
AcDbEntity
  8
0
  6
HIDDEN
 62
     7
370
     0
100
AcDbLine
 10
187.8156159608
 20
102.4621428571
 30
0.0
 11
187.8156159608
 21
98.4621426672
 31
0.0
  0
LINE
  5
151
330
1F
100
AcDbEntity
  8
0
  6
HIDDEN
 62
     7
370
     0
100
AcDbLine
 10
187.8156159608
 20
106.4621430471
 30
0.0
 11
187.8156159608
 21
102.4621428571
 31
0.0
  0
LINE
  5
152
330
1F
100
AcDbEntity
  8
0
  6
HIDDEN
 62
     7
370
     0
100
AcDbLine
 10
183.8156153051
 20
102.4621428571
 30
0.0
 11
183.8156153051
 21
98.5621429629
 31
0.0
  0
LINE
  5
153
330
1F
100
AcDbEntity
  8
0
  6
HIDDEN
 62
     7
370
     0
100
AcDbLine
 10
183.8156153051
 20
106.3621427513
 30
0.0
 11
183.8156153051
 21
102.4621428571
 31
0.0
  0
LINE
  5
154
330
1F
100
AcDbEntity
  8
0
  6
HIDDEN
 62
     7
370
     0
100
AcDbLine
 10
145.8656155108
 20
113.4621427975
 30
0.0
 11
145.8656155108
 21
112.1600485988
 31
0.0
  0
LINE
  5
155
330
1F
100
AcDbEntity
  8
0
  6
HIDDEN
 62
     7
370
     0
100
AcDbLine
 10
148.5156156657
 20
113.4621427975
 30
0.0
 11
148.5156156657
 21
112.4863328062
 31
0.0
  0
SPLINE
  5
156
330
1F
100
AcDbEntity
  8
0
  6
HIDDEN
 62
     7
370
     0
100
AcDbSpline
210
0.0
220
0.0
230
1.0
 70
     8
 71
     3
 72
    12
 73
     8
 74
     0
 42
0.00000001
 43
0.00000001
 12
1.0
 22
0.0
 32
0.0
 13
1.0
 23
0.0
 33
0.0
 40
0.0
 40
0.0
 40
0.0
 40
0.0
 40
0.2293060441005812
 40
0.396787797489873
 40
0.5684932084954392
 40
0.8429219576700772
 40
1.0
 40
1.0
 40
1.0
 40
1.0
 10
189.7540633170014
 20
105.2905699819114
 30
0.0
 10
189.5733333811365
 20
105.4270576789651
 30
0.0
 10
189.260600965061
 20
105.6632339773738
 30
0.0
 10
188.892067691281
 20
105.9680145673861
 30
0.0
 10
188.5687408892563
 20
106.2411801663617
 30
0.0
 10
188.3324525471558
 20
106.4474065226693
 30
0.0
 10
188.3445110263579
 20
106.4368847442145
 30
0.0
 10
188.3489005802279
 20
106.4330545834984
 30
0.0
  0
SPLINE
  5
157
330
1F
100
AcDbEntity
  8
0
  6
HIDDEN
 62
     7
370
     0
100
AcDbSpline
210
0.0
220
0.0
230
1.0
 70
     8
 71
     3
 72
     9
 73
     5
 74
     0
 42
0.00000001
 43
0.00000001
 12
1.0
 22
0.0
 32
0.0
 13
1.0
 23
0.0
 33
0.0
 40
0.0
 40
0.0
 40
0.0
 40
0.0
 40
0.5751555291525771
 40
1.0
 40
1.0
 40
1.0
 40
1.0
 10
191.640481406272
 20
98.97686719184479
 30
0.0
 10
191.8210485969771
 20
98.96852663065545
 30
0.0
 10
192.1349935762964
 20
98.95402522926643
 30
0.0
 10
192.4164337688103
 20
99.02546767106469
 30
0.0
 10
192.5360020784741
 20
99.05581959744653
 30
0.0
  0
LINE
  5
158
330
1F
100
AcDbEntity
  8
0
  6
HIDDEN
 62
     7
370
     0
100
AcDbLine
 10
194.0566469519
 20
105.1476743653
 30
0.0
 11
193.8771680532
 21
105.2905699819
 31
0.0
  0
SPLINE
  5
159
330
1F
100
AcDbEntity
  8
0
  6
HIDDEN
 62
     7
370
     0
100
AcDbSpline
210
0.0
220
0.0
230
1.0
 70
     8
 71
     3
 72
    13
 73
     9
 74
     0
 42
0.00000001
 43
0.00000001
 12
1.0
 22
0.0
 32
0.0
 13
1.0
 23
0.0
 33
0.0
 40
0.0
 40
0.0
 40
0.0
 40
0.0
 40
0.009511953365256
 40
0.2689047120572445
 40
0.5264212704371914
 40
0.7117138433918861
 40
0.9023196439302072
 40
1.0
 40
1.0
 40
1.0
 40
1.0
 10
195.313187369526
 20
106.4600196316626
 30
0.0
 10
195.3139783345835
 20
106.4607113794798
 30
0.0
 10
195.3363390656436
 20
106.4802672204804
 30
0.0
 10
195.2141824572225
 20
106.3731664857077
 30
0.0
 10
194.9158113502896
 20
106.1156284225592
 30
0.0
 10
194.5276011176415
 20
105.792524858759
 30
0.0
 10
194.1879153024691
 20
105.5208618605482
 30
0.0
 10
193.9558119276353
 20
105.3488522213449
 30
0.0
 10
193.8771680532103
 20
105.2905699819114
 30
0.0
  0
SPLINE
  5
15A
330
1F
100
AcDbEntity
  8
0
  6
HIDDEN
 62
     7
370
     0
100
AcDbSpline
210
0.0
220
0.0
230
1.0
 70
     8
 71
     3
 72
    12
 73
     8
 74
     0
 42
0.00000001
 43
0.00000001
 12
1.0
 22
0.0
 32
0.0
 13
1.0
 23
0.0
 33
0.0
 40
0.0
 40
0.0
 40
0.0
 40
0.0
 40
0.2293063386644393
 40
0.3967880579929865
 40
0.5684934340788432
 40
0.8429219793151529
 40
1.0
 40
1.0
 40
1.0
 40
1.0
 10
209.7540647326117
 20
105.2905699819114
 30
0.0
 10
209.5733340368574
 20
105.4270576227904
 30
0.0
 10
209.2606005022951
 20
105.663233675663
 30
0.0
 10
208.8920674108399
 20
105.9680145998914
 30
0.0
 10
208.5687399085321
 20
106.2411800633786
 30
0.0
 10
208.3324552227303
 20
106.4474065567161
 30
0.0
 10
208.344511411428
 20
106.4368847543817
 30
0.0
 10
208.3489001331931
 20
106.4330545834984
 30
0.0
  0
LINE
  5
15B
330
1F
100
AcDbEntity
  8
0
  6
HIDDEN
 62
     7
370
     0
100
AcDbLine
 10
209.7540647326
 20
105.2905699819
 30
0.0
 11
209.6704617677
 21
105.2156872231
 31
0.0
  0
SPLINE
  5
15C
330
1F
100
AcDbEntity
  8
0
  6
HIDDEN
 62
     7
370
     0
100
AcDbSpline
210
0.0
220
0.0
230
1.0
 70
     8
 71
     3
 72
     9
 73
     5
 74
     0
 42
0.00000001
 43
0.00000001
 12
1.0
 22
0.0
 32
0.0
 13
1.0
 23
0.0
 33
0.0
 40
0.0
 40
0.0
 40
0.0
 40
0.0
 40
0.8209891124236081
 40
1.0
 40
1.0
 40
1.0
 40
1.0
 10
211.6982527611857
 20
98.97723809106013
 30
0.0
 10
211.8605386328612
 20
98.96619509731912
 30
0.0
 10
212.0582097946583
 20
98.95274425665156
 30
0.0
 10
212.2355868575803
 20
98.99295174645133
 30
0.0
 10
212.2673392830496
 20
99.0001493248876
 30
0.0
  0
SPLINE
  5
15D
330
1F
100
AcDbEntity
  8
0
  6
HIDDEN
 62
     7
370
     0
100
AcDbSpline
210
0.0
220
0.0
230
1.0
 70
     8
 71
     3
 72
    13
 73
     9
 74
     0
 42
0.00000001
 43
0.00000001
 12
1.0
 22
0.0
 32
0.0
 13
1.0
 23
0.0
 33
0.0
 40
0.0
 40
0.0
 40
0.0
 40
0.0
 40
0.0095119874901824
 40
0.2689046330025154
 40
0.5264213438016925
 40
0.7117138880517679
 40
0.9023196590623703
 40
0.9999999999999999
 40
0.9999999999999999
 40
0.9999999999999999
 40
0.9999999999999999
 10
215.313185059846
 20
106.4600196316626
 30
0.0
 10
215.3139766579157
 20
106.4607113796966
 30
0.0
 10
215.3363551974858
 20
106.4802671509183
 30
0.0
 10
215.2141777508922
 20
106.3731663442947
 30
0.0
 10
214.9158118307023
 20
106.1156285650321
 30
0.0
 10
214.5276004752146
 20
105.7925248480492
 30
0.0
 10
214.1879148780576
 20
105.5208618617882
 30
0.0
 10
213.955811486326
 20
105.3488522216588
 30
0.0
 10
213.8771676061755
 20
105.2905699819114
 30
0.0
  0
SPLINE
  5
15E
330
1F
100
AcDbEntity
  8
0
  6
HIDDEN
 62
     7
370
     0
100
AcDbSpline
210
0.0
220
0.0
230
1.0
 70
     8
 71
     3
 72
    12
 73
     8
 74
     0
 42
0.00000001
 43
0.00000001
 12
1.0
 22
0.0
 32
0.0
 13
1.0
 23
0.0
 33
0.0
 40
0.0
 40
0.0
 40
0.0
 40
0.0
 40
0.2293057205713425
 40
0.3967880677503414
 40
0.5684930168193562
 40
0.8429219352673972
 40
1.0
 40
1.0
 40
1.0
 40
1.0
 10
199.754063093484
 20
105.2905699819114
 30
0.0
 10
199.5733345055504
 20
105.4270579179746
 30
0.0
 10
199.2606037676748
 20
105.6632351240506
 30
0.0
 10
198.8920642492901
 20
105.9680134875517
 30
0.0
 10
198.5687447024057
 20
106.2411809978632
 30
0.0
 10
198.3324525883518
 20
106.447406405437
 30
0.0
 10
198.3445095089026
 20
106.4368847120814
 30
0.0
 10
198.3488984940653
 20
106.4330545834984
 30
0.0
  0
LINE
  5
15F
330
1F
100
AcDbEntity
  8
0
  6
HIDDEN
 62
     7
370
     0
100
AcDbLine
 10
199.2199570475
 20
104.80814256
 30
0.0
 11
198.9455037354
 21
104.4566353433
 31
0.0
  0
LINE
  5
160
330
1F
100
AcDbEntity
  8
0
  6
HIDDEN
 62
     7
370
     0
100
AcDbLine
 10
199.0616657375
 20
100.3179856691
 30
0.0
 11
199.3134469329
 21
100.0277974292
 31
0.0
  0
LINE
  5
161
330
1F
100
AcDbEntity
  8
0
  6
HIDDEN
 62
     7
370
     0
100
AcDbLine
 10
199.4457170902
 20
99.8938397154
 30
0.0
 11
199.8614185093
 21
99.5613889884
 31
0.0
  0
LINE
  5
162
330
1F
100
AcDbEntity
  8
0
  6
HIDDEN
 62
     7
370
     0
100
AcDbLine
 10
200.4046626924
 20
99.2630339809
 30
0.0
 11
200.6619796692
 21
99.1691731963
 31
0.0
  0
LINE
  5
163
330
1F
100
AcDbEntity
  8
0
  6
HIDDEN
 62
     7
370
     0
100
AcDbLine
 10
204.047441536
 20
105.155003874
 30
0.0
 11
203.8771696923
 21
105.2905699819
 31
0.0
  0
SPLINE
  5
164
330
1F
100
AcDbEntity
  8
0
  6
HIDDEN
 62
     7
370
     0
100
AcDbSpline
210
0.0
220
0.0
230
1.0
 70
     8
 71
     3
 72
    13
 73
     9
 74
     0
 42
0.00000001
 43
0.00000001
 12
1.0
 22
0.0
 32
0.0
 13
1.0
 23
0.0
 33
0.0
 40
0.0
 40
0.0
 40
0.0
 40
0.0
 40
0.0095119904093839
 40
0.2689048615212641
 40
0.5264212667275233
 40
0.7117138678433467
 40
0.9023203414865245
 40
1.0
 40
1.0
 40
1.0
 40
1.0
 10
205.3131871460085
 20
106.4600196316626
 30
0.0
 10
205.3139787454633
 20
106.4607113796344
 30
0.0
 10
205.3363573363355
 20
106.4802671597136
 30
0.0
 10
205.214173431234
 20
106.3731666114108
 30
0.0
 10
204.9158143883931
 20
106.1156285188576
 30
0.0
 10
204.527603100495
 20
105.7925238886185
 30
0.0
 10
204.1879128046443
 20
105.5208635431435
 30
0.0
 10
203.9558121052907
 20
105.3488523399928
 30
0.0
 10
203.877169692338
 20
105.2905699819114
 30
0.0
  0
LINE
  5
165
330
1F
100
AcDbEntity
  8
0
  6
HIDDEN
 62
     7
370
     0
100
AcDbLine
 10
151.0156160755
 20
91.4621429167
 30
0.0
 11
151.0156160755
 21
92.4197502084
 31
0.0
  0
LINE
  5
166
330
1F
100
AcDbEntity
  8
0
  6
HIDDEN
 62
     7
370
     0
100
AcDbLine
 10
145.9246166585
 20
91.4621429167
 30
0.0
 11
145.9246166585
 21
92.7399593986
 31
0.0
  0
ARC
  5
167
330
1F
100
AcDbEntity
  8
0
  6
HIDDEN
 62
     7
370
     0
100
AcDbCircle
 10
201.8156159161
 20
102.4621428571
 30
0.0
 40
3.499999999999981
100
AcDbArc
 50
111.3291954912
 51
126.0871470657
  0
ARC
  5
168
330
1F
100
AcDbEntity
  8
0
  6
HIDDEN
 62
     7
370
     0
100
AcDbCircle
 10
201.8156159161
 20
102.4621428571
 30
0.0
 40
3.500000000000011
100
AcDbArc
 50
53.9128529343
 51
57.0157250315
  0
SPLINE
  5
169
330
1F
100
AcDbEntity
  8
0
  6
HIDDEN
 62
     7
370
     0
100
AcDbSpline
210
0.0
220
0.0
230
1.0
 70
     8
 71
     3
 72
    11
 73
     7
 74
     0
 42
0.00000001
 43
0.00000001
 12
1.0
 22
0.0
 32
0.0
 13
1.0
 23
0.0
 33
0.0
 40
0.0
 40
0.0
 40
0.0
 40
0.0
 40
0.3851954207689286
 40
0.7128710471912713
 40
0.8994964148501966
 40
1.0
 40
1.0
 40
1.0
 40
1.0
 10
156.8999896360641
 20
88.25631827337405
 30
0.0
 10
157.019087050504
 20
88.27101889791405
 30
0.0
 10
157.2394975070459
 20
88.2982249576052
 30
0.0
 10
157.6160430264066
 20
88.32492622874118
 30
0.0
 10
157.8928926625831
 20
88.33936145622265
 30
0.0
 10
158.0302383571027
 20
88.34268797229718
 30
0.0
 10
158.0783133929675
 20
88.34385235083958
 30
0.0
  0
SPLINE
  5
16A
330
1F
100
AcDbEntity
  8
0
  6
HIDDEN
 62
     7
370
     0
100
AcDbSpline
210
0.0
220
0.0
230
1.0
 70
     8
 71
     3
 72
    47
 73
    43
 74
     0
 42
0.00000001
 43
0.00000001
 12
1.0
 22
0.0
 32
0.0
 13
1.0
 23
0.0
 33
0.0
 40
0.0
 40
0.0
 40
0.0
 40
0.0
 40
0.0182122804094397
 40
0.0624448888913288
 40
0.1155365812666187
 40
0.1647116657566212
 40
0.2142756530941617
 40
0.2663047472127114
 40
0.2933053730812618
 40
0.3070544418654313
 40
0.3139913229007735
 40
0.3174753543239188
 40
0.3192212732913209
 40
0.3200951985320444
 40
0.320532423062788
 40
0.320751087774848
 40
0.3208604272255246
 40
0.3209151136903841
 40
0.3209424402139943
 40
0.3209561272532988
 40
0.3209629415338613
 40
0.3209663767731347
 40
0.3209680667149318
 40
0.3209697861499929
 40
0.3331880103050143
 40
0.354741258642743
 40
0.3856232817702322
 40
0.4258251384720916
 40
0.4839331640236783
 40
0.5304173375396024
 40
0.6310367048986809
 40
0.6837627536442641
 40
0.7017116201314695
 40
0.7198390830370592
 40
0.7381481522544765
 40
0.7732779671676913
 40
0.8035933918408729
 40
0.8423937621150215
 40
0.9003272826475642
 40
0.9465659639703125
 40
0.9934971731573979
 40
1.0
 40
1.0
 40
1.0
 40
1.0
 10
160.6746442219322
 20
88.03689215553662
 30
0.0
 10
160.7069509110187
 20
88.02890488461556
 30
0.0
 10
160.8177216418165
 20
88.00151873450157
 30
0.0
 10
160.9614402965142
 20
87.96107446493689
 30
0.0
 10
161.086760754035
 20
87.9255151504191
 30
0.0
 10
161.1288333695341
 20
87.91237864520767
 30
0.0
 10
161.0897817615212
 20
87.92543937073769
 30
0.0
 10
160.9857098401338
 20
87.9545024454085
 30
0.0
 10
160.8741276978515
 20
87.98438981967422
 30
0.0
 10
160.8076232226911
 20
88.00191941774128
 30
0.0
 10
160.7716402066017
 20
88.01134835787512
 30
0.0
 10
160.7529596230769
 20
88.01622757123397
 30
0.0
 10
160.743446873693
 20
88.01870967379242
 30
0.0
 10
160.7386468037258
 20
88.01996150371225
 30
0.0
 10
160.736236204106
 20
88.02058828272834
 30
0.0
 10
160.7350277175018
 20
88.02090425129073
 30
0.0
 10
160.7344235952694
 20
88.02106082813444
 30
0.0
 10
160.734120361428
 20
88.02114094909619
 30
0.0
 10
160.7339700160703
 20
88.0211796227113
 30
0.0
 10
160.7338934627637
 20
88.02119964855443
 30
0.0
 10
160.7338561838563
 20
88.02120872241186
 30
0.0
 10
160.7338370753395
 20
88.02121467862264
 30
0.0
 10
160.7338265551293
 20
88.02121706268899
 30
0.0
 10
160.7137500180394
 20
88.02566174624523
 30
0.0
 10
160.6599347317273
 20
88.04167540730263
 30
0.0
 10
160.5439812068911
 20
88.069901667413
 30
0.0
 10
160.3598611835319
 20
88.11221831093088
 30
0.0
 10
160.0692033980228
 20
88.17154165816798
 30
0.0
 10
159.6995663116837
 20
88.23556703169365
 30
0.0
 10
159.1330593133626
 20
88.31248210852083
 30
0.0
 10
158.5378342207887
 20
88.34821897491435
 30
0.0
 10
158.0581692713309
 20
88.3468818700727
 30
0.0
 10
157.8224535518058
 20
88.33949335640958
 30
0.0
 10
157.682769637838
 20
88.33288951682506
 30
0.0
 10
157.5061011993167
 20
88.3216096493325
 30
0.0
 10
157.3128744658446
 20
88.30359943216382
 30
0.0
 10
157.0968618073666
 20
88.2815836739005
 30
0.0
 10
156.8693020374343
 20
88.2536342651886
 30
0.0
 10
156.6731192679315
 20
88.22406822098769
 30
0.0
 10
156.5544854574545
 20
88.2022422119789
 30
0.0
 10
156.5061065536308
 20
88.1948364885956
 30
0.0
 10
156.5187581300237
 20
88.19734938117806
 30
0.0
 10
156.5202978042965
 20
88.1976551957216
 30
0.0
  0
LINE
  5
16B
330
1F
100
AcDbEntity
  8
0
  6
HIDDEN
 62
     7
370
     0
100
AcDbLine
 10
156.6903489245
 20
88.2257690303
 30
0.0
 11
156.8999896361
 21
88.2563182734
 31
0.0
  0
LINE
  5
16C
330
1F
100
AcDbEntity
  8
0
  6
HIDDEN
 62
     7
370
     0
100
AcDbLine
 10
156.8999868421
 20
116.6678966604
 30
0.0
 11
156.6740461228
 21
116.700826364
 31
0.0
  0
SPLINE
  5
16D
330
1F
100
AcDbEntity
  8
0
  6
HIDDEN
 62
     7
370
     0
100
AcDbSpline
210
0.0
220
0.0
230
1.0
 70
     8
 71
     3
 72
    34
 73
    30
 74
     0
 42
0.00000001
 43
0.00000001
 12
1.0
 22
0.0
 32
0.0
 13
1.0
 23
0.0
 33
0.0
 40
0.0
 40
0.0
 40
0.0
 40
0.0
 40
0.0077735237215272
 40
0.0638902873435168
 40
0.0897951517558809
 40
0.1192470649964356
 40
0.1522485328055876
 40
0.1888010115365523
 40
0.2401530487985731
 40
0.2787948771248354
 40
0.2939614921233621
 40
0.305632830616814
 40
0.3138086198827356
 40
0.378892550012822
 40
0.4421142314457697
 40
0.5035807916542783
 40
0.5634086816489073
 40
0.5894863646997414
 40
0.6190295260818357
 40
0.652042647769004
 40
0.6885286081075601
 40
0.7415723635082843
 40
0.7806448788747163
 40
0.795532567687233
 40
0.8065779827713049
 40
0.8137808796439034
 40
0.8792325130979002
 40
0.9417217629281065
 40
1.0
 40
1.0
 40
1.0
 40
1.0
 10
156.5202838344579
 20
116.7265886090483
 30
0.0
 10
156.5187365373681
 20
116.7268954996616
 30
0.0
 10
156.5060193631217
 20
116.7294178216051
 30
0.0
 10
156.5436908998431
 20
116.7237172722656
 30
0.0
 10
156.6055199723318
 20
116.7123666826144
 30
0.0
 10
156.6749324439394
 20
116.7004567540741
 30
0.0
 10
156.7737505336617
 20
116.6850611216352
 30
0.0
 10
156.9229680668128
 20
116.6637278700791
 30
0.0
 10
157.1142805497271
 20
116.6405878256718
 30
0.0
 10
157.2994162168614
 20
116.6219338901439
 30
0.0
 10
157.423179897296
 20
116.610625033408
 30
0.0
 10
157.4915229489621
 20
116.6047305237828
 30
0.0
 10
157.6609682893942
 20
116.5913889076294
 30
0.0
 10
157.9555982725005
 20
116.577721560102
 30
0.0
 10
158.3995975087117
 20
116.5765124643236
 30
0.0
 10
158.8466856657699
 20
116.5943892807646
 30
0.0
 10
159.201936279001
 20
116.6246337057612
 30
0.0
 10
159.4710493728798
 20
116.6577586244508
 30
0.0
 10
159.6721570878816
 20
116.6863311178148
 30
0.0
 10
159.8879834468948
 20
116.7209643816046
 30
0.0
 10
160.1398898427653
 20
116.7669586670936
 30
0.0
 10
160.3803596404391
 20
116.8163463738711
 30
0.0
 10
160.5550104364288
 20
116.8568172078227
 30
0.0
 10
160.6510090439205
 20
116.881109154838
 30
0.0
 10
160.6973941703829
 20
116.8933694424938
 30
0.0
 10
160.8100177689495
 20
116.9232292188208
 30
0.0
 10
160.9610757046633
 20
116.9624926660834
 30
0.0
 10
161.0924423943912
 20
116.9994808665475
 30
0.0
 10
161.1075034773776
 20
117.0046572013693
 30
0.0
 10
161.1147714382117
 20
117.0071551225867
 30
0.0
  0
SPLINE
  5
16E
330
1F
100
AcDbEntity
  8
0
  6
HIDDEN
 62
     7
370
     0
100
AcDbSpline
210
0.0
220
0.0
230
1.0
 70
     8
 71
     3
 72
    10
 73
     6
 74
     0
 42
0.00000001
 43
0.00000001
 12
1.0
 22
0.0
 32
0.0
 13
1.0
 23
0.0
 33
0.0
 40
0.0
 40
0.0
 40
0.0
 40
0.0
 40
0.2531748020364187
 40
0.5868561163861409
 40
1.0
 40
1.0
 40
1.0
 40
1.0
 10
157.9705989522939
 20
116.5806214906063
 30
0.0
 10
157.8629741968548
 20
116.5853371440355
 30
0.0
 10
157.6135013208184
 20
116.5962679714142
 30
0.0
 10
157.2320507881959
 20
116.6269409884022
 30
0.0
 10
157.0182573981643
 20
116.6533095600567
 30
0.0
 10
156.8999868420964
 20
116.6678966603961
 30
0.0
  0
LINE
  5
16F
330
1F
100
AcDbEntity
  8
0
  6
HIDDEN
 62
     7
370
     0
100
AcDbLine
 10
181.8556152819
 20
115.9779896609
 30
0.0
 11
181.8556152819
 21
114.3121432163
 31
0.0
  0
LINE
  5
170
330
1F
100
AcDbEntity
  8
0
  6
HIDDEN
 62
     7
370
     0
100
AcDbLine
 10
179.7756162075
 20
115.9779896609
 30
0.0
 11
179.7756162075
 21
114.3121432163
 31
0.0
  0
LINE
  5
171
330
1F
100
AcDbEntity
  8
0
  6
HIDDEN
 62
     7
370
     0
100
AcDbLine
 10
182.8507762937
 20
118.5735521488
 30
0.0
 11
182.8507762937
 21
114.3121432163
 31
0.0
  0
SPLINE
  5
172
330
1F
100
AcDbEntity
  8
0
  6
HIDDEN
 62
     7
370
     0
100
AcDbSpline
210
0.0
220
0.0
230
1.0
 70
     8
 71
     3
 72
    12
 73
     8
 74
     0
 42
0.00000001
 43
0.00000001
 12
1.0
 22
0.0
 32
0.0
 13
1.0
 23
0.0
 33
0.0
 40
0.0
 40
0.0
 40
0.0
 40
0.0
 40
0.5000000000000002
 40
0.5000000000000002
 40
0.7500000000000001
 40
0.7500000000000001
 40
1.0
 40
1.0
 40
1.0
 40
1.0
 10
144.9156159160738
 20
90.9146296559215
 30
0.0
 10
144.9156159160738
 20
90.98343972868354
 30
0.0
 10
144.9178250322695
 20
91.05015855123344
 30
0.0
 10
144.9324494124465
 20
91.13952955466259
 30
0.0
 10
144.9392592733279
 20
91.16760637368718
 30
0.0
 10
144.9606798366694
 20
91.21568898213813
 30
0.0
 10
144.9745986765839
 20
91.23638827992265
 30
0.0
 10
144.9991473608609
 20
91.24601562400433
 30
0.0
  0
CIRCLE
  5
173
330
1F
100
AcDbEntity
  8
0
  6
HIDDEN
 62
     7
370
     0
100
AcDbCircle
 10
171.8156159161
 20
102.4621428571
 30
0.0
 40
5.000000000000014
  0
LINE
  5
174
330
1F
100
AcDbEntity
  8
0
  6
HIDDEN
 62
     7
370
     0
100
AcDbLine
 10
197.8156157373
 20
109.8446055896
 30
0.0
 11
199.0656145452
 21
108.5946053847
 31
0.0
  0
LINE
  5
175
330
1F
100
AcDbEntity
  8
0
  6
HIDDEN
 62
     7
370
     0
100
AcDbLine
 10
204.5656145154
 20
108.5946053847
 30
0.0
 11
205.8156170486
 21
109.8446055896
 31
0.0
  0
LINE
  5
176
330
1F
100
AcDbEntity
  8
0
  6
HIDDEN
 62
     7
370
     0
100
AcDbLine
 10
197.8156157373
 20
118.1959455482
 30
0.0
 11
197.8156157373
 21
109.8446055896
 31
0.0
  0
LINE
  5
177
330
1F
100
AcDbEntity
  8
0
  6
HIDDEN
 62
     7
370
     0
100
AcDbLine
 10
205.8156170486
 20
109.8446055896
 30
0.0
 11
205.8156170486
 21
118.1959455482
 31
0.0
  0
LINE
  5
178
330
1F
100
AcDbEntity
  8
0
  6
HIDDEN
 62
     7
370
     0
100
AcDbLine
 10
205.8156170486
 20
118.1959455482
 30
0.0
 11
205.1251158653
 21
118.5946056269
 31
0.0
  0
LINE
  5
179
330
1F
100
AcDbEntity
  8
0
  6
HIDDEN
 62
     7
370
     0
100
AcDbLine
 10
198.5061169205
 20
118.5946056269
 30
0.0
 11
197.8156157373
 21
118.1959455482
 31
0.0
  0
LINE
  5
17A
330
1F
100
AcDbEntity
  8
0
  6
HIDDEN
 62
     7
370
     0
100
AcDbLine
 10
207.8156173764
 20
109.8446055896
 30
0.0
 11
209.0656161843
 21
108.5946053847
 31
0.0
  0
LINE
  5
17B
330
1F
100
AcDbEntity
  8
0
  6
HIDDEN
 62
     7
370
     0
100
AcDbLine
 10
214.5656161545
 20
108.5946053847
 30
0.0
 11
215.8156149624
 21
109.8446055896
 31
0.0
  0
LINE
  5
17C
330
1F
100
AcDbEntity
  8
0
  6
HIDDEN
 62
     7
370
     0
100
AcDbLine
 10
207.8156173764
 20
118.1959455482
 30
0.0
 11
207.8156173764
 21
109.8446055896
 31
0.0
  0
LINE
  5
17D
330
1F
100
AcDbEntity
  8
0
  6
HIDDEN
 62
     7
370
     0
100
AcDbLine
 10
215.8156149624
 20
109.8446055896
 30
0.0
 11
215.8156149624
 21
118.1959455482
 31
0.0
  0
LINE
  5
17E
330
1F
100
AcDbEntity
  8
0
  6
HIDDEN
 62
     7
370
     0
100
AcDbLine
 10
215.8156149624
 20
118.1959455482
 30
0.0
 11
215.1251175044
 21
118.5946056269
 31
0.0
  0
LINE
  5
17F
330
1F
100
AcDbEntity
  8
0
  6
HIDDEN
 62
     7
370
     0
100
AcDbLine
 10
208.5061148344
 20
118.5946056269
 30
0.0
 11
207.8156173764
 21
118.1959455482
 31
0.0
  0
LINE
  5
180
330
1F
100
AcDbEntity
  8
0
  6
HIDDEN
 62
     7
370
     0
100
AcDbLine
 10
187.8156159608
 20
109.8446055896
 30
0.0
 11
189.0656166313
 21
108.5946053847
 31
0.0
  0
LINE
  5
181
330
1F
100
AcDbEntity
  8
0
  6
HIDDEN
 62
     7
370
     0
100
AcDbLine
 10
194.5656166015
 20
108.5946053847
 30
0.0
 11
195.8156154094
 21
109.8446055896
 31
0.0
  0
LINE
  5
182
330
1F
100
AcDbEntity
  8
0
  6
HIDDEN
 62
     7
370
     0
100
AcDbLine
 10
187.8156159608
 20
118.1959455482
 30
0.0
 11
187.8156159608
 21
109.8446055896
 31
0.0
  0
LINE
  5
183
330
1F
100
AcDbEntity
  8
0
  6
HIDDEN
 62
     7
370
     0
100
AcDbLine
 10
195.8156154094
 20
109.8446055896
 30
0.0
 11
195.8156154094
 21
118.1959455482
 31
0.0
  0
LINE
  5
184
330
1F
100
AcDbEntity
  8
0
  6
HIDDEN
 62
     7
370
     0
100
AcDbLine
 10
195.8156154094
 20
118.1959455482
 30
0.0
 11
195.1251160888
 21
118.5946056269
 31
0.0
  0
LINE
  5
185
330
1F
100
AcDbEntity
  8
0
  6
HIDDEN
 62
     7
370
     0
100
AcDbLine
 10
188.5061152814
 20
118.5946056269
 30
0.0
 11
187.8156159608
 21
118.1959455482
 31
0.0
  0
LINE
  5
186
330
1F
100
AcDbEntity
  8
0
  6
HIDDEN
 62
     7
370
     0
100
AcDbLine
 10
164.8156159161
 20
86.2549414508
 30
0.0
 11
164.9097766884
 21
86.9249311857
 31
0.0
  0
LINE
  5
187
330
1F
100
AcDbEntity
  8
0
  6
HIDDEN
 62
     7
370
     0
100
AcDbLine
 10
164.9097766884
 20
117.9993545286
 30
0.0
 11
164.8156159161
 21
118.6693442635
 31
0.0
  0
ARC
  5
188
330
1F
100
AcDbEntity
  8
0
  6
HIDDEN
 62
     7
370
     0
100
AcDbCircle
 10
164.3156091634
 20
87.0084357037
 30
0.0
 40
0.6000067526677242
100
AcDbArc
 50
352.0
 51
0.0
  0
ARC
  5
189
330
1F
100
AcDbEntity
  8
0
  6
HIDDEN
 62
     7
370
     0
100
AcDbCircle
 10
164.3156091634
 20
87.0084357037
 30
0.0
 40
0.6000067526677282
100
AcDbArc
 50
0.0
 51
33.5571153394
  0
ARC
  5
18A
330
1F
100
AcDbEntity
  8
0
  6
HIDDEN
 62
     7
370
     0
100
AcDbCircle
 10
164.3156091634
 20
117.9158500106
 30
0.0
 40
0.6000067526677062
100
AcDbArc
 50
348.75
 51
8.0
  0
LWPOLYLINE
  5
18B
330
1F
100
AcDbEntity
  8
0
  6
HIDDEN
 62
     7
370
     0
100
AcDbPolyline
 90
        3
 70
   128
 43
0.0
 10
164.904086955
 20
117.7987942122
 10
164.8699431233
 20
117.6862373598
 10
164.8156159161
 20
117.584185826
  0
LINE
  5
18C
330
1F
100
AcDbEntity
  8
0
  6
HIDDEN
 62
     7
370
     0
100
AcDbLine
 10
164.9156159135
 20
87.0084354304
 30
0.0
 11
164.9156159135
 21
117.9158502839
 31
0.0
  0
ARC
  5
18D
330
1F
100
AcDbEntity
  8
0
  6
HIDDEN
 62
     7
370
     0
100
AcDbCircle
 10
154.3482438602
 20
90.1121428571
 30
0.0
 40
0.3999999999999998
100
AcDbArc
 50
210.0
 51
270.0
  0
ARC
  5
18E
330
1F
100
AcDbEntity
  8
0
  6
HIDDEN
 62
     7
370
     0
100
AcDbCircle
 10
154.3482438602
 20
114.8121428571
 30
0.0
 40
0.4000000000000057
100
AcDbArc
 50
90.0
 51
150.0
  0
LINE
  5
18F
330
1F
100
AcDbEntity
  8
0
  6
HIDDEN
 62
     7
370
     0
100
AcDbLine
 10
154.3482440127
 20
89.7121430956
 30
0.0
 11
156.5463906689
 21
89.7121430956
 31
0.0
  0
LINE
  5
190
330
1F
100
AcDbEntity
  8
0
  6
HIDDEN
 62
     7
370
     0
100
AcDbLine
 10
156.5463906689
 20
115.2121426187
 30
0.0
 11
154.3482440127
 21
115.2121426187
 31
0.0
  0
ARC
  5
191
330
1F
100
AcDbEntity
  8
0
  6
HIDDEN
 62
     7
370
     0
100
AcDbCircle
 10
160.639792644
 20
94.7121428571
 30
0.0
 40
5.000000000000002
100
AcDbArc
 50
275.3987916986
 51
326.6329870308
  0
ARC
  5
192
330
1F
100
AcDbEntity
  8
0
  6
HIDDEN
 62
     7
370
     0
100
AcDbCircle
 10
160.639792644
 20
110.2121428571
 30
0.0
 40
5.000000000000002
100
AcDbArc
 50
33.3670129692
 51
84.5928143067
  0
LINE
  5
193
330
1F
100
AcDbEntity
  8
0
  6
HIDDEN
 62
     7
370
     0
100
AcDbLine
 10
154.0018339245
 20
115.0121429585
 30
0.0
 11
152.8182654245
 21
112.9621427156
 31
0.0
  0
LINE
  5
194
330
1F
100
AcDbEntity
  8
0
  6
HIDDEN
 62
     7
370
     0
100
AcDbLine
 10
152.8182654245
 20
91.9621429987
 30
0.0
 11
154.0018339245
 21
89.9121427558
 31
0.0
  0
ARC
  5
195
330
1F
100
AcDbEntity
  8
0
  6
HIDDEN
 62
     7
370
     0
100
AcDbCircle
 10
171.7656159161
 20
92.5871428571
 30
0.0
 40
1.0
100
AcDbArc
 50
218.6821874535
 51
0.0
  0
ARC
  5
196
330
1F
100
AcDbEntity
  8
0
  6
HIDDEN
 62
     7
370
     0
100
AcDbCircle
 10
171.7656159161
 20
112.3371428571
 30
0.0
 40
1.0
100
AcDbArc
 50
0.0
 51
141.3178125465
  0
LINE
  5
197
330
1F
100
AcDbEntity
  8
0
  6
HIDDEN
 62
     7
370
     0
100
AcDbLine
 10
151.0156160755
 20
91.9621429987
 30
0.0
 11
152.8182654245
 21
91.9621429987
 31
0.0
  0
LINE
  5
198
330
1F
100
AcDbEntity
  8
0
  6
HIDDEN
 62
     7
370
     0
100
AcDbLine
 10
152.8182654245
 20
112.9621427156
 30
0.0
 11
148.5156156657
 21
112.9621427156
 31
0.0
  0
LINE
  5
199
330
1F
100
AcDbEntity
  8
0
  6
HIDDEN
 62
     7
370
     0
100
AcDbLine
 10
164.8156159161
 20
91.9621429987
 30
0.0
 11
170.9849909483
 21
91.9621429987
 31
0.0
  0
LINE
  5
19A
330
1F
100
AcDbEntity
  8
0
  6
HIDDEN
 62
     7
370
     0
100
AcDbLine
 10
170.9849909483
 20
112.9621427156
 30
0.0
 11
164.8156159161
 21
112.9621427156
 31
0.0
  0
LINE
  5
19B
330
1F
100
AcDbEntity
  8
0
  6
HIDDEN
 62
     7
370
     0
100
AcDbLine
 10
178.1156156747
 20
96.212142764
 30
0.0
 11
180.6156151531
 21
96.212142764
 31
0.0
  0
LINE
  5
19C
330
1F
100
AcDbEntity
  8
0
  6
HIDDEN
 62
     7
370
     0
100
AcDbLine
 10
180.6156151531
 20
108.7121429503
 30
0.0
 11
178.1156156747
 21
108.7121429503
 31
0.0
  0
LINE
  5
19D
330
1F
100
AcDbEntity
  8
0
  6
HIDDEN
 62
     7
370
     0
100
AcDbLine
 10
172.765616381
 20
96.462142805
 30
0.0
 11
173.2656155316
 21
96.9621428869
 31
0.0
  0
LINE
  5
19E
330
1F
100
AcDbEntity
  8
0
  6
HIDDEN
 62
     7
370
     0
100
AcDbLine
 10
173.2656155316
 20
107.9621428273
 30
0.0
 11
172.765616381
 21
108.4621429093
 31
0.0
  0
LINE
  5
19F
330
1F
100
AcDbEntity
  8
0
  6
HIDDEN
 62
     7
370
     0
100
AcDbLine
 10
173.2656155316
 20
96.9621428869
 30
0.0
 11
178.1156156747
 21
96.9621428869
 31
0.0
  0
LINE
  5
1A0
330
1F
100
AcDbEntity
  8
0
  6
HIDDEN
 62
     7
370
     0
100
AcDbLine
 10
178.1156156747
 20
107.9621428273
 30
0.0
 11
173.2656155316
 21
107.9621428273
 31
0.0
  0
LINE
  5
1A1
330
1F
100
AcDbEntity
  8
0
  6
HIDDEN
 62
     7
370
     0
100
AcDbLine
 10
172.765616381
 20
122.4621424101
 30
0.0
 11
172.765616381
 21
119.3621420882
 31
0.0
  0
ARC
  5
1A2
330
1F
100
AcDbEntity
  8
0
  6
HIDDEN
 62
     7
370
     0
100
AcDbCircle
 10
219.5156159161
 20
106.7621428571
 30
0.0
 40
0.3000000000000398
100
AcDbArc
 50
270.0
 51
0.0
  0
ARC
  5
1A3
330
1F
100
AcDbEntity
  8
0
  6
HIDDEN
 62
     7
370
     0
100
AcDbCircle
 10
219.5156159161
 20
98.1621428571
 30
0.0
 40
0.3000000000000398
100
AcDbArc
 50
0.0
 51
90.0
  0
LINE
  5
1A4
330
1F
100
AcDbEntity
  8
0
  6
HIDDEN
 62
     7
370
     0
100
AcDbLine
 10
186.9913731305
 20
106.7621430032
 30
0.0
 11
184.2156164883
 21
106.7621430032
 31
0.0
  0
LINE
  5
1A5
330
1F
100
AcDbEntity
  8
0
  6
HIDDEN
 62
     7
370
     0
100
AcDbLine
 10
184.2156164883
 20
98.1621427111
 30
0.0
 11
186.9913731305
 21
98.1621427111
 31
0.0
  0
LINE
  5
1A6
330
1F
100
AcDbEntity
  8
0
  6
HIDDEN
 62
     7
370
     0
100
AcDbLine
 10
186.9913731305
 20
98.1621427111
 30
0.0
 11
187.8156159608
 21
98.4621426672
 31
0.0
  0
LINE
  5
1A7
330
1F
100
AcDbEntity
  8
0
  6
HIDDEN
 62
     7
370
     0
100
AcDbLine
 10
187.8156159608
 20
106.4621430471
 30
0.0
 11
186.9913731305
 21
106.7621430032
 31
0.0
  0
ARC
  5
1A8
330
1F
100
AcDbEntity
  8
0
  6
HIDDEN
 62
     7
370
     0
100
AcDbCircle
 10
184.2156159161
 20
106.3621428571
 30
0.0
 40
0.4000000000000057
100
AcDbArc
 50
90.0
 51
180.0
  0
ARC
  5
1A9
330
1F
100
AcDbEntity
  8
0
  6
HIDDEN
 62
     7
370
     0
100
AcDbCircle
 10
184.2156159161
 20
98.5621428571
 30
0.0
 40
0.3999999999999915
100
AcDbArc
 50
180.0
 51
270.0
  0
LINE
  5
1AA
330
1F
100
AcDbEntity
  8
0
  6
HIDDEN
 62
     7
370
     0
100
AcDbLine
 10
188.3489005802
 20
106.4621430471
 30
0.0
 11
187.8156159608
 21
106.4621430471
 31
0.0
  0
LINE
  5
1AB
330
1F
100
AcDbEntity
  8
0
  6
HIDDEN
 62
     7
370
     0
100
AcDbLine
 10
198.3488984941
 20
106.4621430471
 30
0.0
 11
195.3131873695
 21
106.4621430471
 31
0.0
  0
LINE
  5
1AC
330
1F
100
AcDbEntity
  8
0
  6
HIDDEN
 62
     7
370
     0
100
AcDbLine
 10
208.3489001332
 20
106.4621430471
 30
0.0
 11
205.313187146
 21
106.4621430471
 31
0.0
  0
LINE
  5
1AD
330
1F
100
AcDbEntity
  8
0
  6
HIDDEN
 62
     7
370
     0
100
AcDbLine
 10
219.515614265
 20
106.4621430471
 30
0.0
 11
215.3131850598
 21
106.4621430471
 31
0.0
  0
LINE
  5
1AE
330
1F
100
AcDbEntity
  8
0
  6
HIDDEN
 62
     7
370
     0
100
AcDbLine
 10
187.8156159608
 20
98.4621426672
 30
0.0
 11
219.515614265
 21
98.4621426672
 31
0.0
  0
LINE
  5
1AF
330
1F
100
AcDbEntity
  8
0
  6
HIDDEN
 62
     7
370
     0
100
AcDbLine
 10
208.3156146644
 20
119.462143781
 30
0.0
 11
208.3156146644
 21
106.4330573775
 31
0.0
  0
LINE
  5
1B0
330
1F
100
AcDbEntity
  8
0
  6
HIDDEN
 62
     7
370
     0
100
AcDbLine
 10
215.3156176744
 20
106.46002196
 30
0.0
 11
215.3156176744
 21
119.462143781
 31
0.0
  0
LINE
  5
1B1
330
1F
100
AcDbEntity
  8
0
  6
HIDDEN
 62
     7
370
     0
100
AcDbLine
 10
198.3156167505
 20
118.9604757003
 30
0.0
 11
198.3156167505
 21
106.4330573775
 31
0.0
  0
LINE
  5
1B2
330
1F
100
AcDbEntity
  8
0
  6
HIDDEN
 62
     7
370
     0
100
AcDbLine
 10
205.3156160353
 20
106.46002196
 30
0.0
 11
205.3156160353
 21
119.462143781
 31
0.0
  0
LINE
  5
1B3
330
1F
100
AcDbEntity
  8
0
  6
HIDDEN
 62
     7
370
     0
100
AcDbLine
 10
188.3156151114
 20
118.9621427677
 30
0.0
 11
188.3156151114
 21
106.4330573775
 31
0.0
  0
LINE
  5
1B4
330
1F
100
AcDbEntity
  8
0
  6
HIDDEN
 62
     7
370
     0
100
AcDbLine
 10
195.3156162588
 20
106.46002196
 30
0.0
 11
195.3156162588
 21
118.9621427677
 31
0.0
  0
LINE
  5
1B5
330
1F
100
AcDbEntity
  8
0
  6
HIDDEN
 62
     7
370
     0
100
AcDbLine
 10
161.5827952581
 20
87.4208381049
 30
0.0
 11
161.1148666659
 21
87.916675175
 31
0.0
  0
LINE
  5
1B6
330
1F
100
AcDbEntity
  8
0
  6
HIDDEN
 62
     7
370
     0
100
AcDbLine
 10
156.5169618068
 20
88.1965282954
 30
0.0
 11
155.9994882507
 21
87.7007033326
 31
0.0
  0
LINE
  5
1B7
330
1F
100
AcDbEntity
  8
0
  6
HIDDEN
 62
     7
370
     0
100
AcDbLine
 10
155.9988540201
 20
117.2236326732
 30
0.0
 11
156.5165399177
 21
116.7277453117
 31
0.0
  0
LINE
  5
1B8
330
1F
100
AcDbEntity
  8
0
  6
HIDDEN
 62
     7
370
     0
100
AcDbLine
 10
161.1141807469
 20
117.0073926098
 30
0.0
 11
161.5820846589
 21
117.5032864906
 31
0.0
  0
LINE
  5
1B9
330
1F
100
AcDbEntity
  8
0
  6
HIDDEN
 62
     7
370
     0
100
AcDbLine
 10
183.8156153051
 20
104.9621428013
 30
0.0
 11
180.6156151531
 21
104.9621428013
 31
0.0
  0
LINE
  5
1BA
330
1F
100
AcDbEntity
  8
0
  6
HIDDEN
 62
     7
370
     0
100
AcDbLine
 10
180.6156151531
 20
99.962142913
 30
0.0
 11
183.8156153051
 21
99.962142913
 31
0.0
  0
LINE
  5
1BB
330
1F
100
AcDbEntity
  8
0
  6
HIDDEN
 62
     7
370
     0
100
AcDbLine
 10
161.115615915
 20
87.9169191815
 30
0.0
 11
161.115615915
 21
89.7352883242
 31
0.0
  0
LINE
  5
1BC
330
1F
100
AcDbEntity
  8
0
  6
HIDDEN
 62
     7
370
     0
100
AcDbLine
 10
156.5156160457
 20
89.7176453493
 30
0.0
 11
156.5156160457
 21
88.1976160802
 31
0.0
  0
LINE
  5
1BD
330
1F
100
AcDbEntity
  8
0
  6
HIDDEN
 62
     7
370
     0
100
AcDbLine
 10
161.115615915
 20
115.1889973901
 30
0.0
 11
161.115615915
 21
117.0071821309
 31
0.0
  0
LINE
  5
1BE
330
1F
100
AcDbEntity
  8
0
  6
HIDDEN
 62
     7
370
     0
100
AcDbLine
 10
156.5156160457
 20
116.7266398318
 30
0.0
 11
156.5156160457
 21
115.206640365
 31
0.0
  0
DIMENSION
  5
1BF
330
1F
100
AcDbEntity
  8
VERMASSUNG
100
AcDbDimension
  2
_D
 10
141.231968032
 20
82.4621428571
 30
0.0
 11
141.231968032
 21
102.4621428571
 31
0.0
 70
   160
  1
HSK %%c<>
 71
     2
 42
-1.0
  3
SLDDIMSTYLE0
100
AcDbAlignedDimension
 13
165.1156159161
 23
122.4621428571
 33
0.0
 14
165.1156159161
 24
82.4621428571
 34
0.0
 50
90.0
100
AcDbRotatedDimension
  0
DIMENSION
  5
1CC
330
1F
100
AcDbEntity
  8
VERMASSUNG
100
AcDbDimension
  2
_D_1
 10
226.6671643327
 20
98.4621428571
 30
0.0
 11
226.6671643327
 21
102.4621428571
 31
0.0
 70
   160
  1
%%c<>
 71
     2
 42
-1.0
  3
SLDDIMSTYLE0
100
AcDbAlignedDimension
 13
219.5156159161
 23
106.4621428571
 33
0.0
 14
219.5156159161
 24
98.4621428571
 34
0.0
 50
90.0
100
AcDbRotatedDimension
  0
DIMENSION
  5
1D7
330
1F
100
AcDbEntity
  8
VERMASSUNG
100
AcDbDimension
  2
_D_2
 10
232.6671643327
 20
85.4621428571
 30
0.0
 11
232.6671643327
 21
102.4621428571
 31
0.0
 70
   160
  1
%%c<>
 71
     2
 42
-1.0
  3
SLDDIMSTYLE0
100
AcDbAlignedDimension
 13
218.8156159161
 23
119.4621428571
 33
0.0
 14
218.8156159161
 24
85.4621428571
 34
0.0
 50
90.0
100
AcDbRotatedDimension
  0
DIMENSION
  5
1E2
330
1F
100
AcDbEntity
  8
VERMASSUNG
100
AcDbDimension
  2
_D_3
 10
219.8156159161
 20
138.4621428571
 30
0.0
 11
182.3656159161
 21
138.4621428571
 31
0.0
 70
   160
  1
<>
 71
     2
 42
-1.0
  3
SLDDIMSTYLE0
100
AcDbAlignedDimension
 13
144.9156159161
 23
114.3921428571
 33
0.0
 14
219.8156159161
 24
118.4621428571
 34
0.0
100
AcDbRotatedDimension
  0
DIMENSION
  5
1EC
330
1F
100
AcDbEntity
  8
VERMASSUNG
100
AcDbDimension
  2
_D_4
 10
219.8156159161
 20
132.4621428571
 30
0.0
 11
192.3156159161
 21
132.4621428571
 31
0.0
 70
   160
  1
<>
 71
     2
 42
-1.0
  3
SLDDIMSTYLE0
100
AcDbAlignedDimension
 13
164.8156159161
 23
122.1621428571
 33
0.0
 14
219.8156159161
 24
118.4621428571
 34
0.0
100
AcDbRotatedDimension
  0
DIMENSION
  5
1F6
330
1F
100
AcDbEntity
  8
VERMASSUNG
100
AcDbDimension
  2
_D_5
 10
219.8156159161
 20
126.4621428571
 30
0.0
 11
202.2906159161
 21
126.4621428571
 31
0.0
 70
   160
  1
<>
 71
     2
 42
-1.0
  3
SLDDIMSTYLE0
100
AcDbAlignedDimension
 13
184.7656159161
 23
121.3330198903
 33
0.0
 14
219.8156159161
 24
118.4621428571
 34
0.0
100
AcDbRotatedDimension
  0
DIMENSION
  5
200
330
1F
100
AcDbEntity
  8
VERMASSUNG
100
AcDbDimension
  2
_D_6
 10
183.8156159161
 20
72.4621428571
 30
0.0
 11
201.8156159161
 21
72.4621428571
 31
0.0
 70
   160
  1
<>
 71
     2
 42
-1.0
  3
SLDDIMSTYLE0
100
AcDbAlignedDimension
 13
219.8156159161
 23
86.4621428571
 33
0.0
 14
183.8156159161
 24
98.5621428571
 34
0.0
100
AcDbRotatedDimension
  0
DIMENSION
  5
20A
330
1F
100
AcDbEntity
  8
VERMASSUNG
100
AcDbDimension
  2
_D_7
 10
211.8156159161
 20
77.9168995919
 30
0.0
 11
215.8156159161
 21
77.9168995919
 31
0.0
 70
   160
  1
<>
 71
     2
 42
-1.0
  3
SLDDIMSTYLE0
100
AcDbAlignedDimension
 13
219.8156159161
 23
86.4621428571
 33
0.0
 14
211.8156159161
 24
104.4621428571
 34
0.0
100
AcDbRotatedDimension
  0
DIMENSION
  5
214
330
1F
100
AcDbEntity
  8
VERMASSUNG
100
AcDbDimension
  2
_D_8
 10
201.8156159161
 20
77.9168995919
 30
0.0
 11
206.8156159161
 21
77.9168995919
 31
0.0
 70
   160
  1
<>
 71
     2
 42
-1.0
  3
SLDDIMSTYLE0
100
AcDbAlignedDimension
 13
211.8156159161
 23
104.4621428571
 33
0.0
 14
201.8156159161
 24
104.4621428571
 34
0.0
100
AcDbRotatedDimension
  0
DIMENSION
  5
21E
330
1F
100
AcDbEntity
  8
VERMASSUNG
100
AcDbDimension
  2
_D_9
 10
191.8156159161
 20
77.9168995919
 30
0.0
 11
196.8156159161
 21
77.9168995919
 31
0.0
 70
   160
  1
<>
 71
     2
 42
-1.0
  3
SLDDIMSTYLE0
100
AcDbAlignedDimension
 13
201.8156159161
 23
104.4621428571
 33
0.0
 14
191.8156159161
 24
104.4621428571
 34
0.0
100
AcDbRotatedDimension
  0
LINE
  5
228
330
1F
100
AcDbEntity
  8
VERMASSUNG
  6
CENTERX2
370
     0
100
AcDbLine
 10
143.165437821
 20
102.4621428571
 30
0.0
 11
220.9875968275
 21
102.4621428571
 31
0.0
  0
LINE
  5
229
330
1F
100
AcDbEntity
  8
VERMASSUNG
  6
CENTERX2
370
     0
100
AcDbLine
 10
191.8156159161
 20
120.9621428571
 30
0.0
 11
191.8156159161
 21
104.4621428571
 31
0.0
  0
LINE
  5
22A
330
1F
100
AcDbEntity
  8
VERMASSUNG
  6
CENTERX2
370
     0
100
AcDbLine
 10
201.8156159161
 20
104.4621428571
 30
0.0
 11
201.8156159161
 21
121.2121428571
 31
0.0
  0
LINE
  5
22B
330
1F
100
AcDbEntity
  8
VERMASSUNG
  6
CENTERX2
370
     0
100
AcDbLine
 10
211.8156159161
 20
104.4621428571
 30
0.0
 11
211.8156159161
 21
121.4621428571
 31
0.0
  0
CIRCLE
  5
22C
330
1F
100
AcDbEntity
  8
0
  6
Continuous
 62
     7
370
    15
100
AcDbCircle
 10
78.1078571429
 20
102.4621428571
 30
0.0
 40
17.0
  0
CIRCLE
  5
22D
330
1F
100
AcDbEntity
  8
0
  6
Continuous
 62
     7
370
    15
100
AcDbCircle
 10
78.1078571429
 20
102.4621428571
 30
0.0
 40
4.0
  0
SPLINE
  5
22E
330
1F
100
AcDbEntity
  8
0
  6
Continuous
 62
     7
370
    15
100
AcDbSpline
210
0.0
220
0.0
230
1.0
 70
    24
 71
     3
 72
     9
 73
     5
 74
     0
 42
0.00000001
 43
0.00000001
 12
1.0
 22
0.0
 32
0.0
 13
1.0
 23
0.0
 33
0.0
 40
0.0
 40
0.0
 40
0.0
 40
0.0
 40
0.5
 40
1.0
 40
1.0
 40
1.0
 40
1.0
 10
73.60785714285718
 20
119.3621428571429
 30
0.0
 10
73.60785714285718
 20
119.3640657254768
 30
0.0
 10
73.60785714285718
 20
119.3679110144657
 30
0.0
 10
73.60785714285718
 20
119.3717554087862
 30
0.0
 10
73.60785714285718
 20
119.3736773824307
 30
0.0
  0
SPLINE
  5
22F
330
1F
100
AcDbEntity
  8
0
  6
Continuous
 62
     7
370
    15
100
AcDbSpline
210
0.0
220
0.0
230
1.0
 70
    24
 71
     3
 72
     9
 73
     5
 74
     0
 42
0.00000001
 43
0.00000001
 12
1.0
 22
0.0
 32
0.0
 13
1.0
 23
0.0
 33
0.0
 40
0.0
 40
0.0
 40
0.0
 40
0.0
 40
0.6553015998479133
 40
1.0
 40
1.0
 40
1.0
 40
1.0
 10
82.60785694914208
 20
119.362142088243
 30
0.0
 10
82.0162848886581
 20
119.362142088243
 30
0.0
 10
81.11353711477616
 20
119.362142088243
 30
0.0
 10
80.21204396418436
 20
119.362142088243
 30
0.0
 10
79.90130071742729
 20
119.362142088243
 30
0.0
  0
SPLINE
  5
230
330
1F
100
AcDbEntity
  8
0
  6
Continuous
 62
     7
370
    15
100
AcDbSpline
210
0.0
220
0.0
230
1.0
 70
    24
 71
     3
 72
    10
 73
     6
 74
     0
 42
0.00000001
 43
0.00000001
 12
1.0
 22
0.0
 32
0.0
 13
1.0
 23
0.0
 33
0.0
 40
0.0
 40
0.0
 40
0.0
 40
0.0
 40
0.1760639201685926
 40
0.5881320505685043
 40
1.0
 40
1.0
 40
1.0
 40
1.0
 10
76.64240407506273
 20
119.362142088243
 30
0.0
 10
76.46417016453283
 20
119.362142088243
 30
0.0
 10
75.86878937793881
 20
119.362142088243
 30
0.0
 10
74.85939955705638
 20
119.362142088243
 30
0.0
 10
74.0249704999637
 20
119.362142088243
 30
0.0
 10
73.60785733657227
 20
119.362142088243
 30
0.0
  0
SPLINE
  5
231
330
1F
100
AcDbEntity
  8
0
  6
Continuous
 62
     7
370
    15
100
AcDbSpline
210
0.0
220
0.0
230
1.0
 70
    24
 71
     3
 72
     9
 73
     5
 74
     0
 42
0.00000001
 43
0.00000001
 12
1.0
 22
0.0
 32
0.0
 13
1.0
 23
0.0
 33
0.0
 40
0.0
 40
0.0
 40
0.0
 40
0.0
 40
0.5
 40
1.0
 40
1.0
 40
1.0
 40
1.0
 10
82.60785714285717
 20
119.3736773824307
 30
0.0
 10
82.60785714285717
 20
119.3717542579476
 30
0.0
 10
82.60785714285717
 20
119.3679087131027
 30
0.0
 10
82.60785714285717
 20
119.3640645749252
 30
0.0
 10
82.60785714285717
 20
119.3621428571429
 30
0.0
  0
SPLINE
  5
232
330
1F
100
AcDbEntity
  8
0
  6
Continuous
 62
     7
370
    15
100
AcDbSpline
210
0.0
220
0.0
230
1.0
 70
    24
 71
     3
 72
     9
 73
     5
 74
     0
 42
0.00000001
 43
0.00000001
 12
1.0
 22
0.0
 32
0.0
 13
1.0
 23
0.0
 33
0.0
 40
0.0
 40
0.0
 40
0.0
 40
0.0
 40
0.602316368958265
 40
1.0
 40
1.0
 40
1.0
 40
1.0
 10
82.6509837036048
 20
85.56214362604281
 30
0.0
 10
82.05222332662338
 20
85.56214362604281
 30
0.0
 10
81.05812718738511
 20
85.56214362604281
 30
0.0
 10
80.06550376399662
 20
85.56214362604281
 30
0.0
 10
79.67075367672638
 20
85.56214362604281
 30
0.0
  0
SPLINE
  5
233
330
1F
100
AcDbEntity
  8
0
  6
Continuous
 62
     7
370
    15
100
AcDbSpline
210
0.0
220
0.0
230
1.0
 70
    24
 71
     3
 72
    10
 73
     6
 74
     0
 42
0.00000001
 43
0.00000001
 12
1.0
 22
0.0
 32
0.0
 13
1.0
 23
0.0
 33
0.0
 40
0.0
 40
0.0
 40
0.0
 40
0.0
 40
0.1136994756915817
 40
0.5569669064533532
 40
1.0
 40
1.0
 40
1.0
 40
1.0
 10
76.43429608764396
 20
85.56214362604281
 30
0.0
 10
76.325461255551
 20
85.56214362604281
 30
0.0
 10
75.79232423467664
 20
85.56214362604281
 30
0.0
 10
74.83792944076765
 20
85.56214362604281
 30
0.0
 10
73.98905538776783
 20
85.56214362604281
 30
0.0
 10
73.56473058210955
 20
85.56214362604281
 30
0.0
  0
SPLINE
  5
234
330
1F
100
AcDbEntity
  8
0
  6
Continuous
 62
     7
370
    15
100
AcDbSpline
210
0.0
220
0.0
230
1.0
 70
    24
 71
     3
 72
     9
 73
     5
 74
     0
 42
0.00000001
 43
0.00000001
 12
1.0
 22
0.0
 32
0.0
 13
1.0
 23
0.0
 33
0.0
 40
0.0
 40
0.0
 40
0.0
 40
0.0
 40
0.3720509437450013
 40
1.0
 40
1.0
 40
1.0
 40
1.0
 10
65.2304543157135
 20
114.3121432162609
 30
0.0
 10
65.32103014243086
 20
114.3121432162609
 30
0.0
 10
65.56448020818162
 20
114.3121432162609
 30
0.0
 10
65.79034182661287
 20
114.3121432162609
 30
0.0
 10
65.932171416751
 20
114.3121432162609
 30
0.0
  0
SPLINE
  5
235
330
1F
100
AcDbEntity
  8
0
  6
Continuous
 62
     7
370
    15
100
AcDbSpline
210
0.0
220
0.0
230
1.0
 70
    24
 71
     3
 72
     9
 73
     5
 74
     0
 42
0.00000001
 43
0.00000001
 12
1.0
 22
0.0
 32
0.0
 13
1.0
 23
0.0
 33
0.0
 40
0.0
 40
0.0
 40
0.0
 40
0.0
 40
0.1865655654198226
 40
1.0
 40
1.0
 40
1.0
 40
1.0
 10
66.25785678373919
 20
115.3395456842866
 30
0.0
 10
66.25785678373919
 20
115.2938369965913
 30
0.0
 10
66.2578567837392
 20
115.0488363310485
 30
0.0
 10
66.25785678373919
 20
114.8139762705267
 30
0.0
 10
66.25785678373919
 20
114.6229330099907
 30
0.0
  0
SPLINE
  5
236
330
1F
100
AcDbEntity
  8
0
  6
Continuous
 62
     7
370
    15
100
AcDbSpline
210
0.0
220
0.0
230
1.0
 70
    24
 71
     3
 72
    10
 73
     6
 74
     0
 42
0.00000001
 43
0.00000001
 12
1.0
 22
0.0
 32
0.0
 13
1.0
 23
0.0
 33
0.0
 40
0.0
 40
0.0
 40
0.0
 40
0.0
 40
0.5
 40
0.5
 40
1.0
 40
1.0
 40
1.0
 40
1.0
 10
73.60785714285718
 20
121.3330198902858
 30
0.0
 10
73.60785714285718
 20
121.4914543331736
 30
0.0
 10
73.60785714285718
 20
121.6504750279756
 30
0.0
 10
73.60785714285718
 20
121.8804828522312
 30
0.0
 10
73.60785714285718
 20
121.949318127048
 30
0.0
 10
73.60785714285718
 20
121.949318127048
 30
0.0
  0
ARC
  5
237
330
1F
100
AcDbEntity
  8
0
  6
Continuous
 62
     7
370
    15
100
AcDbCircle
 10
78.1078571429
 20
102.4621428571
 30
0.0
 40
20.0
100
AcDbArc
 50
103.0028781629
 51
126.3346172154
  0
SPLINE
  5
238
330
1F
100
AcDbEntity
  8
0
  6
Continuous
 62
     7
370
    15
100
AcDbSpline
210
0.0
220
0.0
230
1.0
 70
    24
 71
     3
 72
    12
 73
     8
 74
     0
 42
0.00000001
 43
0.00000001
 12
1.0
 22
0.0
 32
0.0
 13
1.0
 23
0.0
 33
0.0
 40
0.0
 40
0.0
 40
0.0
 40
0.0
 40
0.25
 40
0.25
 40
0.5
 40
0.5
 40
1.0
 40
1.0
 40
1.0
 40
1.0
 10
66.25785714285718
 20
118.5735518582204
 30
0.0
 10
66.25785714285718
 20
118.5735518582204
 30
0.0
 10
66.25785714285718
 20
118.5479272256156
 30
0.0
 10
66.25785714285718
 20
118.4593838526838
 30
0.0
 10
66.25785714285718
 20
118.3965013695691
 30
0.0
 10
66.25785714285718
 20
118.1791401816356
 30
0.0
 10
66.25785714285718
 20
118.0004931716242
 30
0.0
 10
66.25785714285718
 20
117.8224000164485
 30
0.0
  0
ARC
  5
239
330
1F
100
AcDbEntity
  8
0
  6
Continuous
 62
     7
370
    15
100
AcDbCircle
 10
78.1078571429
 20
102.4621428571
 30
0.0
 40
20.00000000000001
100
AcDbArc
 50
143.6653827846
 51
254.0379858372
  0
SPLINE
  5
23A
330
1F
100
AcDbEntity
  8
0
  6
Continuous
 62
     7
370
    15
100
AcDbSpline
210
0.0
220
0.0
230
1.0
 70
    24
 71
     3
 72
    10
 73
     6
 74
     0
 42
0.00000001
 43
0.00000001
 12
1.0
 22
0.0
 32
0.0
 13
1.0
 23
0.0
 33
0.0
 40
0.0
 40
0.0
 40
0.0
 40
0.0
 40
0.5
 40
0.5
 40
1.0
 40
1.0
 40
1.0
 40
1.0
 10
72.60785714285718
 20
83.85811103605637
 30
0.0
 10
72.60785714285718
 20
83.69847886715311
 30
0.0
 10
72.60785714285718
 20
83.53742923338906
 30
0.0
 10
72.60785714285718
 20
83.30443834971247
 30
0.0
 10
72.60785714285718
 20
83.23325833411347
 30
0.0
 10
72.60785714285718
 20
83.23325833411347
 30
0.0
  0
SPLINE
  5
23B
330
1F
100
AcDbEntity
  8
0
  6
Continuous
 62
     7
370
    15
100
AcDbSpline
210
0.0
220
0.0
230
1.0
 70
    24
 71
     3
 72
    12
 73
     8
 74
     0
 42
0.00000001
 43
0.00000001
 12
1.0
 22
0.0
 32
0.0
 13
1.0
 23
0.0
 33
0.0
 40
0.0
 40
0.0
 40
0.0
 40
0.0
 40
0.250000000000002
 40
0.250000000000002
 40
0.500000000000004
 40
0.500000000000004
 40
1.0
 40
1.0
 40
1.0
 40
1.0
 10
61.99644814177971
 20
114.3121428571429
 30
0.0
 10
61.99644814177971
 20
114.3121428571429
 30
0.0
 10
62.02172829194418
 20
114.3121428571429
 30
0.0
 10
62.11133963744592
 20
114.3121428571429
 30
0.0
 10
62.17432527437194
 20
114.3121428571429
 30
0.0
 10
62.39061199612949
 20
114.3121428571429
 30
0.0
 10
62.57059175354987
 20
114.3121428571429
 30
0.0
 10
62.74759998355157
 20
114.3121428571429
 30
0.0
  0
SPLINE
  5
23C
330
1F
100
AcDbEntity
  8
0
  6
Continuous
 62
     7
370
    15
100
AcDbSpline
210
0.0
220
0.0
230
1.0
 70
    24
 71
     3
 72
    10
 73
     6
 74
     0
 42
0.00000001
 43
0.00000001
 12
1.0
 22
0.0
 32
0.0
 13
1.0
 23
0.0
 33
0.0
 40
0.0
 40
0.0
 40
0.0
 40
0.0
 40
0.5
 40
0.5
 40
1.0
 40
1.0
 40
1.0
 40
1.0
 10
82.60785714285717
 20
121.949318127048
 30
0.0
 10
82.60785714285717
 20
121.949318127048
 30
0.0
 10
82.60785714285717
 20
121.8807327245421
 30
0.0
 10
82.60785714285717
 20
121.6509594552225
 30
0.0
 10
82.60785714285717
 20
121.4924612535548
 30
0.0
 10
82.60785714285717
 20
121.3330198902858
 30
0.0
  0
ARC
  5
23D
330
1F
100
AcDbEntity
  8
0
  6
Continuous
 62
     7
370
    15
100
AcDbCircle
 10
78.1078571429
 20
102.4621428571
 30
0.0
 40
20.00000000000001
100
AcDbArc
 50
285.9620141628
 51
76.9971218371
  0
SPLINE
  5
23E
330
1F
100
AcDbEntity
  8
0
  6
Continuous
 62
     7
370
    15
100
AcDbSpline
210
0.0
220
0.0
230
1.0
 70
    24
 71
     3
 72
    12
 73
     8
 74
     0
 42
0.00000001
 43
0.00000001
 12
1.0
 22
0.0
 32
0.0
 13
1.0
 23
0.0
 33
0.0
 40
0.0
 40
0.0
 40
0.0
 40
0.0
 40
0.2499999999999962
 40
0.2499999999999962
 40
0.4999999999999925
 40
0.4999999999999925
 40
1.0
 40
1.0
 40
1.0
 40
1.0
 10
83.60785714285718
 20
83.23325833411347
 30
0.0
 10
83.60785714285718
 20
83.23325833411349
 30
0.0
 10
83.60785714285718
 20
83.25023393047158
 30
0.0
 10
83.60785714285718
 20
83.3147094279308
 30
0.0
 10
83.60785714285718
 20
83.3618230597254
 30
0.0
 10
83.60785714285718
 20
83.53843297371286
 30
0.0
 10
83.60785714285718
 20
83.69828184952102
 30
0.0
 10
83.60785714285718
 20
83.85811103605606
 30
0.0
  0
LINE
  5
23F
330
1F
100
AcDbEntity
  8
0
  6
Continuous
 62
     7
370
    15
100
AcDbLine
 10
83.6078571131
 20
83.8581101618
 30
0.0
 11
83.6078571131
 21
85.562143626
 31
0.0
  0
LINE
  5
240
330
1F
100
AcDbEntity
  8
0
  6
Continuous
 62
     7
370
    15
100
AcDbLine
 10
82.6078569491
 20
121.3330199592
 30
0.0
 11
82.6078569491
 21
119.3736774497
 31
0.0
  0
LINE
  5
241
330
1F
100
AcDbEntity
  8
0
  6
Continuous
 62
     7
370
    15
100
AcDbLine
 10
83.6078571131
 20
85.562143626
 30
0.0
 11
82.6509837036
 21
85.562143626
 31
0.0
  0
LINE
  5
242
330
1F
100
AcDbEntity
  8
0
  6
Continuous
 62
     7
370
    15
100
AcDbLine
 10
72.6078571727
 20
85.562143626
 30
0.0
 11
72.6078571727
 21
83.8581101618
 31
0.0
  0
LINE
  5
243
330
1F
100
AcDbEntity
  8
0
  6
Continuous
 62
     7
370
    15
100
AcDbLine
 10
73.5647305821
 20
85.562143626
 30
0.0
 11
72.6078571727
 21
85.562143626
 31
0.0
  0
LINE
  5
244
330
1F
100
AcDbEntity
  8
0
  6
Continuous
 62
     7
370
    15
100
AcDbLine
 10
62.7475995545
 20
114.3121432163
 30
0.0
 11
65.2304543157
 21
114.3121432163
 31
0.0
  0
LINE
  5
245
330
1F
100
AcDbEntity
  8
0
  6
Continuous
 62
     7
370
    15
100
AcDbLine
 10
73.6078573366
 20
119.3736774497
 30
0.0
 11
73.6078573366
 21
121.3330199592
 31
0.0
  0
LINE
  5
246
330
1F
100
AcDbEntity
  8
0
  6
Continuous
 62
     7
370
    15
100
AcDbLine
 10
66.2578567837
 20
117.8224004455
 30
0.0
 11
66.2578567837
 21
115.3395456843
 31
0.0
  0
CIRCLE
  5
247
330
1F
100
AcDbEntity
  8
0
  6
Continuous
 62
     7
370
    15
100
AcDbCircle
 10
78.1078571429
 20
102.4621428571
 30
0.0
 40
2.5
  0
SPLINE
  5
248
330
1F
100
AcDbEntity
  8
0
  6
Continuous
 62
     7
370
    15
100
AcDbSpline
210
0.0
220
0.0
230
1.0
 70
     8
 71
     3
 72
    22
 73
    18
 74
     0
 42
0.00000001
 43
0.00000001
 12
1.0
 22
0.0
 32
0.0
 13
1.0
 23
0.0
 33
0.0
 40
0.0
 40
0.0
 40
0.0
 40
0.0
 40
0.2500000000000002
 40
0.2500000000000002
 40
0.3750000000000001
 40
0.3750000000000001
 40
0.5000000000000001
 40
0.5000000000000001
 40
0.6250000000000001
 40
0.6250000000000001
 40
0.75
 40
0.75
 40
0.875
 40
0.875
 40
0.9375000000000001
 40
0.9375000000000001
 40
1.0
 40
1.0
 40
1.0
 40
1.0
 10
61.99644814177972
 20
114.3121428571429
 30
0.0
 10
62.41044301994621
 20
114.8750154990409
 30
0.0
 10
62.84625282125514
 20
115.4056403827704
 30
0.0
 10
63.52299362423947
 20
116.151351373692
 30
0.0
 10
63.75384875141415
 20
116.3929716000907
 30
0.0
 10
64.21388580657627
 20
116.8518303754166
 30
0.0
 10
64.43985348335478
 20
117.0660090478865
 30
0.0
 10
64.8770450718555
 20
117.463237607032
 30
0.0
 10
65.09009779614806
 20
117.6476824420518
 30
0.0
 10
65.47427393538159
 20
117.9687622899354
 30
0.0
 10
65.64839094417307
 20
118.1081131200415
 30
0.0
 10
65.9419086889736
 20
118.337418654467
 30
0.0
 10
66.05670099357101
 20
118.4239546639433
 30
0.0
 10
66.17565556966699
 20
118.5128442682746
 30
0.0
 10
66.20647365265357
 20
118.5356527741362
 30
0.0
 10
66.24749286437219
 20
118.5659439368325
 30
0.0
 10
66.25785714285718
 20
118.5735518582204
 30
0.0
 10
66.25785714285718
 20
118.5735518582204
 30
0.0
  0
SPLINE
  5
249
330
1F
100
AcDbEntity
  8
0
  6
Continuous
 62
     7
370
    15
100
AcDbSpline
210
0.0
220
0.0
230
1.0
 70
     8
 71
     3
 72
    22
 73
    18
 74
     0
 42
0.00000001
 43
0.00000001
 12
1.0
 22
0.0
 32
0.0
 13
1.0
 23
0.0
 33
0.0
 40
0.0
 40
0.0
 40
0.0
 40
0.0
 40
0.1250000000000001
 40
0.1250000000000001
 40
0.2500000000000002
 40
0.2500000000000002
 40
0.3750000000000003
 40
0.3750000000000003
 40
0.5000000000000004
 40
0.5000000000000004
 40
0.6250000000000003
 40
0.6250000000000003
 40
0.7500000000000002
 40
0.7500000000000002
 40
0.8750000000000001
 40
0.8750000000000001
 40
1.0
 40
1.0
 40
1.0
 40
1.0
 10
79.10785714285717
 20
82.48715850170471
 30
0.0
 10
79.40659487125482
 20
82.50211409431404
 30
0.0
 10
79.69980019608929
 20
82.52350229096042
 30
0.0
 10
80.27575527671686
 20
82.57788053757572
 30
0.0
 10
80.56149757053224
 20
82.6113267011841
 30
0.0
 10
81.10502671152592
 20
82.68609097658185
 30
0.0
 10
81.36251989974754
 20
82.72718946554278
 30
0.0
 10
81.84972489701282
 20
82.81374239450655
 30
0.0
 10
82.07986451920196
 20
82.85939329360444
 30
0.0
 10
82.49307017540545
 20
82.94767284876927
 30
0.0
 10
82.67890591610133
 20
82.99077419877653
 30
0.0
 10
83.00800249628476
 20
83.07097837863178
 30
0.0
 10
83.1479623530988
 20
83.10727322602135
 30
0.0
 10
83.37364871432845
 20
83.16745244517105
 30
0.0
 10
83.46092012266719
 20
83.19173978260217
 30
0.0
 10
83.57832033601807
 20
83.22473787691354
 30
0.0
 10
83.60785714285718
 20
83.23325833411347
 30
0.0
 10
83.60785714285718
 20
83.23325833411347
 30
0.0
  0
SPLINE
  5
24A
330
1F
100
AcDbEntity
  8
0
  6
Continuous
 62
     7
370
    15
100
AcDbSpline
210
0.0
220
0.0
230
1.0
 70
     8
 71
     3
 72
    22
 73
    18
 74
     0
 42
0.00000001
 43
0.00000001
 12
1.0
 22
0.0
 32
0.0
 13
1.0
 23
0.0
 33
0.0
 40
0.0
 40
0.0
 40
0.0
 40
0.0
 40
0.125
 40
0.125
 40
0.25
 40
0.25
 40
0.375
 40
0.375
 40
0.5
 40
0.5
 40
0.625
 40
0.625
 40
0.75
 40
0.75
 40
0.875
 40
0.875
 40
1.0
 40
1.0
 40
1.0
 40
1.0
 10
72.60785714285718
 20
83.23325833411349
 30
0.0
 10
72.60785714285718
 20
83.23325833411349
 30
0.0
 10
72.63738304127709
 20
83.22474423304709
 30
0.0
 10
72.75278787456375
 20
83.19230046416519
 30
0.0
 10
72.8401706796296
 20
83.16796657546315
 30
0.0
 10
73.06684409893721
 20
83.10750655070632
 30
0.0
 10
73.20531994526976
 20
83.07159312992785
 30
0.0
 10
73.53213044243356
 20
82.9918831038587
 30
0.0
 10
73.72117527841354
 20
82.94800480266937
 30
0.0
 10
74.13404356088927
 20
82.85976118029919
 30
0.0
 10
74.35951545214057
 20
82.81495283883822
 30
0.0
 10
74.85037105668826
 20
82.72763183091904
 30
0.0
 10
75.10921121463034
 20
82.68634104234337
 30
0.0
 10
75.64896404042616
 20
82.61200281904955
 30
0.0
 10
75.93306712925522
 20
82.57859269331489
 30
0.0
 10
76.51452026439713
 20
82.52357329178875
 30
0.0
 10
76.80917073002543
 20
82.50211152532249
 30
0.0
 10
77.10785714285718
 20
82.48715850170471
 30
0.0
  0
SPLINE
  5
24B
330
1F
100
AcDbEntity
  8
0
  6
Continuous
 62
     7
370
    15
100
AcDbSpline
210
0.0
220
0.0
230
1.0
 70
     8
 71
     3
 72
    38
 73
    34
 74
     0
 42
0.00000001
 43
0.00000001
 12
1.0
 22
0.0
 32
0.0
 13
1.0
 23
0.0
 33
0.0
 40
0.0
 40
0.0
 40
0.0
 40
0.0
 40
0.0625
 40
0.0625
 40
0.125
 40
0.125
 40
0.1875
 40
0.1875
 40
0.25
 40
0.25
 40
0.3125
 40
0.3125
 40
0.375
 40
0.375
 40
0.4375
 40
0.4375
 40
0.5
 40
0.5
 40
0.5625
 40
0.5625
 40
0.625
 40
0.625
 40
0.6875
 40
0.6875
 40
0.75
 40
0.75
 40
0.8125
 40
0.8125
 40
0.875
 40
0.875
 40
0.9375
 40
0.9375
 40
1.0
 40
1.0
 40
1.0
 40
1.0
 10
73.60785714285718
 20
121.949318127048
 30
0.0
 10
73.60785714285718
 20
121.949318127048
 30
0.0
 10
73.63721756542868
 20
121.9561636943042
 30
0.0
 10
73.752071155936
 20
121.9821478537378
 30
0.0
 10
73.83902323868053
 20
122.0016007725607
 30
0.0
 10
74.06513612256515
 20
122.0496328771
 30
0.0
 10
74.20336144703884
 20
122.0780168940793
 30
0.0
 10
74.52976628227611
 20
122.1401729075581
 30
0.0
 10
74.7190880566014
 20
122.1740710832349
 30
0.0
 10
75.13265711011812
 20
122.2407185155606
 30
0.0
 10
75.35850320004181
 20
122.2738159329736
 30
0.0
 10
75.84993368900454
 20
122.3358219036358
 30
0.0
 10
76.11029114415486
 20
122.3639878728835
 30
0.0
 10
76.65123595571302
 20
122.410876141913
 30
0.0
 10
76.93577979762534
 20
122.4298881292329
 30
0.0
 10
77.5169929722527
 20
122.4555291657744
 30
0.0
 10
77.80955458011367
 20
122.4620862819799
 30
0.0
 10
78.39852457072338
 20
122.4621987036148
 30
0.0
 10
78.69775570406766
 20
122.4555331803828
 30
0.0
 10
79.27559804552784
 20
122.4301176696814
 30
0.0
 10
79.55656827866882
 20
122.4114867762797
 30
0.0
 10
80.10257307826713
 20
122.3643084452403
 30
0.0
 10
80.36458537799052
 20
122.3359267919867
 30
0.0
 10
80.85108721618307
 20
122.2746338408861
 30
0.0
 10
81.07945680741608
 20
122.2412822576242
 30
0.0
 10
81.49720350630606
 20
122.1739943992648
 30
0.0
 10
81.68275514727621
 20
122.1407511031154
 30
0.0
 10
82.00868185876425
 20
122.0787451311409
 30
0.0
 10
82.15010374017481
 20
122.0497300736703
 30
0.0
 10
82.37598088637861
 20
122.0017551928209
 30
0.0
 10
82.46162165483618
 20
121.9826009554805
 30
0.0
 10
82.57784653802214
 20
121.9563149247592
 30
0.0
 10
82.60785714285717
 20
121.949318127048
 30
0.0
 10
82.60785714285717
 20
121.949318127048
 30
0.0
  0
ARC
  5
24C
330
1F
100
AcDbEntity
  8
0
  6
Continuous
 62
     7
370
    15
100
AcDbCircle
 10
78.1078571429
 20
102.4621428571
 30
0.0
 40
20.0
100
AcDbArc
 50
267.1340160174
 51
272.8659839826
  0
LINE
  5
24D
330
1F
100
AcDbEntity
  8
0
  6
HIDDEN
 62
     7
370
     0
100
AcDbLine
 10
82.1078573328
 20
109.8446055896
 30
0.0
 11
74.1078569529
 21
109.8446055896
 31
0.0
  0
LINE
  5
24E
330
1F
100
AcDbEntity
  8
0
  6
HIDDEN
 62
     7
370
     0
100
AcDbLine
 10
80.857857128
 20
108.5946053847
 30
0.0
 11
75.3578571578
 21
108.5946053847
 31
0.0
  0
LINE
  5
24F
330
1F
100
AcDbEntity
  8
0
  6
HIDDEN
 62
     7
370
     0
100
AcDbLine
 10
82.1078573328
 20
118.1959455482
 30
0.0
 11
74.1078569529
 21
118.1959455482
 31
0.0
  0
LINE
  5
250
330
1F
100
AcDbEntity
  8
0
  6
HIDDEN
 62
     7
370
     0
100
AcDbLine
 10
81.4173570809
 20
118.5946056269
 30
0.0
 11
74.7983572048
 21
118.5946056269
 31
0.0
  0
LINE
  5
251
330
1F
100
AcDbEntity
  8
0
  6
HIDDEN
 62
     7
370
     0
100
AcDbLine
 10
78.0892942123
 20
118.5946056269
 30
0.0
 11
76.098640214
 21
118.5946056269
 31
0.0
  0
LINE
  5
252
330
1F
100
AcDbEntity
  8
0
  6
HIDDEN
 62
     7
370
     0
100
AcDbLine
 10
78.0892942123
 20
113.5946057386
 30
0.0
 11
76.098640214
 21
113.5946057386
 31
0.0
  0
LINE
  5
253
330
1F
100
AcDbEntity
  8
0
  6
HIDDEN
 62
     7
370
     0
100
AcDbLine
 10
80.098511183
 20
113.5946057386
 30
0.0
 11
78.0892942123
 21
113.5946057386
 31
0.0
  0
LINE
  5
254
330
1F
100
AcDbEntity
  8
0
  6
HIDDEN
 62
     7
370
     0
100
AcDbLine
 10
78.0892942123
 20
113.5946057386
 30
0.0
 11
78.0892942123
 21
118.5946056269
 31
0.0
  0
LINE
  5
255
330
1F
100
AcDbEntity
  8
0
  6
HIDDEN
 62
     7
370
     0
100
AcDbLine
 10
80.098511183
 20
118.5946056269
 30
0.0
 11
78.0892942123
 21
118.5946056269
 31
0.0
  0
LINE
  5
256
330
1F
100
AcDbEntity
  8
0
  6
HIDDEN
 62
     7
370
     0
100
AcDbLine
 10
80.098511183
 20
113.5946057386
 30
0.0
 11
80.098511183
 21
118.5946056269
 31
0.0
  0
LINE
  5
257
330
1F
100
AcDbEntity
  8
0
  6
HIDDEN
 62
     7
370
     0
100
AcDbLine
 10
80.098511183
 20
113.5946057386
 30
0.0
 11
80.1170740717
 21
113.5946057386
 31
0.0
  0
LINE
  5
258
330
1F
100
AcDbEntity
  8
0
  6
HIDDEN
 62
     7
370
     0
100
AcDbLine
 10
80.098511183
 20
118.5946056269
 30
0.0
 11
80.1170740717
 21
118.5946056269
 31
0.0
  0
LINE
  5
259
330
1F
100
AcDbEntity
  8
0
  6
HIDDEN
 62
     7
370
     0
100
AcDbLine
 10
76.1172031027
 20
113.5946057386
 30
0.0
 11
76.1172031027
 21
118.5946056269
 31
0.0
  0
LINE
  5
25A
330
1F
100
AcDbEntity
  8
0
  6
HIDDEN
 62
     7
370
     0
100
AcDbLine
 10
76.1172031027
 20
113.5946057386
 30
0.0
 11
76.098640214
 21
113.5946057386
 31
0.0
  0
LINE
  5
25B
330
1F
100
AcDbEntity
  8
0
  6
HIDDEN
 62
     7
370
     0
100
AcDbLine
 10
76.098640214
 20
113.5946057386
 30
0.0
 11
76.098640214
 21
118.5946056269
 31
0.0
  0
LINE
  5
25C
330
1F
100
AcDbEntity
  8
0
  6
HIDDEN
 62
     7
370
     0
100
AcDbLine
 10
76.1172031027
 20
118.5946056269
 30
0.0
 11
76.098640214
 21
118.5946056269
 31
0.0
  0
LINE
  5
25D
330
1F
100
AcDbEntity
  8
0
  6
HIDDEN
 62
     7
370
     0
100
AcDbLine
 10
78.1264200734
 20
113.5946057386
 30
0.0
 11
78.1264200734
 21
118.5946056269
 31
0.0
  0
LINE
  5
25E
330
1F
100
AcDbEntity
  8
0
  6
HIDDEN
 62
     7
370
     0
100
AcDbLine
 10
80.1170740717
 20
113.5946057386
 30
0.0
 11
80.1170740717
 21
118.5946056269
 31
0.0
  0
LINE
  5
25F
330
1F
100
AcDbEntity
  8
0
  6
HIDDEN
 62
     7
370
     0
100
AcDbLine
 10
78.1264200734
 20
113.5946057386
 30
0.0
 11
80.1170740717
 21
113.5946057386
 31
0.0
  0
LINE
  5
260
330
1F
100
AcDbEntity
  8
0
  6
HIDDEN
 62
     7
370
     0
100
AcDbLine
 10
78.1264200734
 20
118.5946056269
 30
0.0
 11
80.1170740717
 21
118.5946056269
 31
0.0
  0
LINE
  5
261
330
1F
100
AcDbEntity
  8
0
  6
HIDDEN
 62
     7
370
     0
100
AcDbLine
 10
78.1264200734
 20
113.5946057386
 30
0.0
 11
76.1172031027
 21
113.5946057386
 31
0.0
  0
LINE
  5
262
330
1F
100
AcDbEntity
  8
0
  6
HIDDEN
 62
     7
370
     0
100
AcDbLine
 10
78.1264200734
 20
118.5946056269
 30
0.0
 11
76.1172031027
 21
118.5946056269
 31
0.0
  0
LINE
  5
263
330
1F
100
AcDbEntity
  8
0
  6
HIDDEN
 62
     7
370
     0
100
AcDbLine
 10
70.7253944104
 20
106.4621430471
 30
0.0
 11
70.7253944104
 21
98.4621426672
 31
0.0
  0
LINE
  5
264
330
1F
100
AcDbEntity
  8
0
  6
HIDDEN
 62
     7
370
     0
100
AcDbLine
 10
71.9753946153
 20
105.2121428422
 30
0.0
 11
71.9753946153
 21
99.712142872
 31
0.0
  0
LINE
  5
265
330
1F
100
AcDbEntity
  8
0
  6
HIDDEN
 62
     7
370
     0
100
AcDbLine
 10
62.3740544518
 20
106.4621430471
 30
0.0
 11
62.3740544518
 21
98.4621426672
 31
0.0
  0
LINE
  5
266
330
1F
100
AcDbEntity
  8
0
  6
HIDDEN
 62
     7
370
     0
100
AcDbLine
 10
61.9753943731
 20
105.7716427952
 30
0.0
 11
61.9753943731
 21
99.1526429191
 31
0.0
  0
LINE
  5
267
330
1F
100
AcDbEntity
  8
0
  6
HIDDEN
 62
     7
370
     0
100
AcDbLine
 10
61.9753943731
 20
102.4435799266
 30
0.0
 11
61.9753943731
 21
100.4529259283
 31
0.0
  0
LINE
  5
268
330
1F
100
AcDbEntity
  8
0
  6
HIDDEN
 62
     7
370
     0
100
AcDbLine
 10
66.9753942614
 20
102.4435799266
 30
0.0
 11
66.9753942614
 21
100.4529259283
 31
0.0
  0
LINE
  5
269
330
1F
100
AcDbEntity
  8
0
  6
HIDDEN
 62
     7
370
     0
100
AcDbLine
 10
66.9753942614
 20
104.4527968973
 30
0.0
 11
66.9753942614
 21
102.4435799266
 31
0.0
  0
LINE
  5
26A
330
1F
100
AcDbEntity
  8
0
  6
HIDDEN
 62
     7
370
     0
100
AcDbLine
 10
66.9753942614
 20
102.4435799266
 30
0.0
 11
61.9753943731
 21
102.4435799266
 31
0.0
  0
LINE
  5
26B
330
1F
100
AcDbEntity
  8
0
  6
HIDDEN
 62
     7
370
     0
100
AcDbLine
 10
61.9753943731
 20
104.4527968973
 30
0.0
 11
61.9753943731
 21
102.4435799266
 31
0.0
  0
LINE
  5
26C
330
1F
100
AcDbEntity
  8
0
  6
HIDDEN
 62
     7
370
     0
100
AcDbLine
 10
66.9753942614
 20
104.4527968973
 30
0.0
 11
61.9753943731
 21
104.4527968973
 31
0.0
  0
LINE
  5
26D
330
1F
100
AcDbEntity
  8
0
  6
HIDDEN
 62
     7
370
     0
100
AcDbLine
 10
66.9753942614
 20
104.4527968973
 30
0.0
 11
66.9753942614
 21
104.471359786
 31
0.0
  0
LINE
  5
26E
330
1F
100
AcDbEntity
  8
0
  6
HIDDEN
 62
     7
370
     0
100
AcDbLine
 10
61.9753943731
 20
104.4527968973
 30
0.0
 11
61.9753943731
 21
104.471359786
 31
0.0
  0
LINE
  5
26F
330
1F
100
AcDbEntity
  8
0
  6
HIDDEN
 62
     7
370
     0
100
AcDbLine
 10
66.9753942614
 20
100.471488817
 30
0.0
 11
61.9753943731
 21
100.471488817
 31
0.0
  0
LINE
  5
270
330
1F
100
AcDbEntity
  8
0
  6
HIDDEN
 62
     7
370
     0
100
AcDbLine
 10
66.9753942614
 20
100.471488817
 30
0.0
 11
66.9753942614
 21
100.4529259283
 31
0.0
  0
LINE
  5
271
330
1F
100
AcDbEntity
  8
0
  6
HIDDEN
 62
     7
370
     0
100
AcDbLine
 10
66.9753942614
 20
100.4529259283
 30
0.0
 11
61.9753943731
 21
100.4529259283
 31
0.0
  0
LINE
  5
272
330
1F
100
AcDbEntity
  8
0
  6
HIDDEN
 62
     7
370
     0
100
AcDbLine
 10
61.9753943731
 20
100.471488817
 30
0.0
 11
61.9753943731
 21
100.4529259283
 31
0.0
  0
LINE
  5
273
330
1F
100
AcDbEntity
  8
0
  6
HIDDEN
 62
     7
370
     0
100
AcDbLine
 10
66.9753942614
 20
102.4807057877
 30
0.0
 11
61.9753943731
 21
102.4807057877
 31
0.0
  0
LINE
  5
274
330
1F
100
AcDbEntity
  8
0
  6
HIDDEN
 62
     7
370
     0
100
AcDbLine
 10
66.9753942614
 20
104.471359786
 30
0.0
 11
61.9753943731
 21
104.471359786
 31
0.0
  0
LINE
  5
275
330
1F
100
AcDbEntity
  8
0
  6
HIDDEN
 62
     7
370
     0
100
AcDbLine
 10
66.9753942614
 20
102.4807057877
 30
0.0
 11
66.9753942614
 21
104.471359786
 31
0.0
  0
LINE
  5
276
330
1F
100
AcDbEntity
  8
0
  6
HIDDEN
 62
     7
370
     0
100
AcDbLine
 10
61.9753943731
 20
102.4807057877
 30
0.0
 11
61.9753943731
 21
104.471359786
 31
0.0
  0
LINE
  5
277
330
1F
100
AcDbEntity
  8
0
  6
HIDDEN
 62
     7
370
     0
100
AcDbLine
 10
66.9753942614
 20
102.4807057877
 30
0.0
 11
66.9753942614
 21
100.471488817
 31
0.0
  0
LINE
  5
278
330
1F
100
AcDbEntity
  8
0
  6
HIDDEN
 62
     7
370
     0
100
AcDbLine
 10
61.9753943731
 20
102.4807057877
 30
0.0
 11
61.9753943731
 21
100.471488817
 31
0.0
  0
LINE
  5
279
330
1F
100
AcDbEntity
  8
0
  6
HIDDEN
 62
     7
370
     0
100
AcDbLine
 10
94.2403199126
 20
99.1526429191
 30
0.0
 11
94.2403199126
 21
105.7716427952
 31
0.0
  0
LINE
  5
27A
330
1F
100
AcDbEntity
  8
0
  6
HIDDEN
 62
     7
370
     0
100
AcDbLine
 10
93.841659834
 20
98.4621426672
 30
0.0
 11
93.841659834
 21
106.4621430471
 31
0.0
  0
LINE
  5
27B
330
1F
100
AcDbEntity
  8
0
  6
HIDDEN
 62
     7
370
     0
100
AcDbLine
 10
85.4903198754
 20
98.4621426672
 30
0.0
 11
85.4903198754
 21
106.4621430471
 31
0.0
  0
LINE
  5
27C
330
1F
100
AcDbEntity
  8
0
  6
HIDDEN
 62
     7
370
     0
100
AcDbLine
 10
84.2403196705
 20
99.712142872
 30
0.0
 11
84.2403196705
 21
105.2121428422
 31
0.0
  0
LINE
  5
27D
330
1F
100
AcDbEntity
  8
0
  6
HIDDEN
 62
     7
370
     0
100
AcDbLine
 10
94.2403199126
 20
102.4807057877
 30
0.0
 11
94.2403199126
 21
104.471359786
 31
0.0
  0
LINE
  5
27E
330
1F
100
AcDbEntity
  8
0
  6
HIDDEN
 62
     7
370
     0
100
AcDbLine
 10
89.2403200244
 20
102.4807057877
 30
0.0
 11
89.2403200244
 21
104.471359786
 31
0.0
  0
LINE
  5
27F
330
1F
100
AcDbEntity
  8
0
  6
HIDDEN
 62
     7
370
     0
100
AcDbLine
 10
89.2403200244
 20
100.471488817
 30
0.0
 11
89.2403200244
 21
102.4807057877
 31
0.0
  0
LINE
  5
280
330
1F
100
AcDbEntity
  8
0
  6
HIDDEN
 62
     7
370
     0
100
AcDbLine
 10
89.2403200244
 20
102.4807057877
 30
0.0
 11
94.2403199126
 21
102.4807057877
 31
0.0
  0
LINE
  5
281
330
1F
100
AcDbEntity
  8
0
  6
HIDDEN
 62
     7
370
     0
100
AcDbLine
 10
94.2403199126
 20
100.471488817
 30
0.0
 11
94.2403199126
 21
102.4807057877
 31
0.0
  0
LINE
  5
282
330
1F
100
AcDbEntity
  8
0
  6
HIDDEN
 62
     7
370
     0
100
AcDbLine
 10
89.2403200244
 20
100.471488817
 30
0.0
 11
94.2403199126
 21
100.471488817
 31
0.0
  0
LINE
  5
283
330
1F
100
AcDbEntity
  8
0
  6
HIDDEN
 62
     7
370
     0
100
AcDbLine
 10
89.2403200244
 20
100.471488817
 30
0.0
 11
89.2403200244
 21
100.4529259283
 31
0.0
  0
LINE
  5
284
330
1F
100
AcDbEntity
  8
0
  6
HIDDEN
 62
     7
370
     0
100
AcDbLine
 10
94.2403199126
 20
100.471488817
 30
0.0
 11
94.2403199126
 21
100.4529259283
 31
0.0
  0
LINE
  5
285
330
1F
100
AcDbEntity
  8
0
  6
HIDDEN
 62
     7
370
     0
100
AcDbLine
 10
89.2403200244
 20
104.4527968973
 30
0.0
 11
94.2403199126
 21
104.4527968973
 31
0.0
  0
LINE
  5
286
330
1F
100
AcDbEntity
  8
0
  6
HIDDEN
 62
     7
370
     0
100
AcDbLine
 10
89.2403200244
 20
104.4527968973
 30
0.0
 11
89.2403200244
 21
104.471359786
 31
0.0
  0
LINE
  5
287
330
1F
100
AcDbEntity
  8
0
  6
HIDDEN
 62
     7
370
     0
100
AcDbLine
 10
89.2403200244
 20
104.471359786
 30
0.0
 11
94.2403199126
 21
104.471359786
 31
0.0
  0
LINE
  5
288
330
1F
100
AcDbEntity
  8
0
  6
HIDDEN
 62
     7
370
     0
100
AcDbLine
 10
94.2403199126
 20
104.4527968973
 30
0.0
 11
94.2403199126
 21
104.471359786
 31
0.0
  0
LINE
  5
289
330
1F
100
AcDbEntity
  8
0
  6
HIDDEN
 62
     7
370
     0
100
AcDbLine
 10
89.2403200244
 20
102.4435799266
 30
0.0
 11
94.2403199126
 21
102.4435799266
 31
0.0
  0
LINE
  5
28A
330
1F
100
AcDbEntity
  8
0
  6
HIDDEN
 62
     7
370
     0
100
AcDbLine
 10
89.2403200244
 20
100.4529259283
 30
0.0
 11
94.2403199126
 21
100.4529259283
 31
0.0
  0
LINE
  5
28B
330
1F
100
AcDbEntity
  8
0
  6
HIDDEN
 62
     7
370
     0
100
AcDbLine
 10
89.2403200244
 20
102.4435799266
 30
0.0
 11
89.2403200244
 21
100.4529259283
 31
0.0
  0
LINE
  5
28C
330
1F
100
AcDbEntity
  8
0
  6
HIDDEN
 62
     7
370
     0
100
AcDbLine
 10
94.2403199126
 20
102.4435799266
 30
0.0
 11
94.2403199126
 21
100.4529259283
 31
0.0
  0
LINE
  5
28D
330
1F
100
AcDbEntity
  8
0
  6
HIDDEN
 62
     7
370
     0
100
AcDbLine
 10
89.2403200244
 20
102.4435799266
 30
0.0
 11
89.2403200244
 21
104.4527968973
 31
0.0
  0
LINE
  5
28E
330
1F
100
AcDbEntity
  8
0
  6
HIDDEN
 62
     7
370
     0
100
AcDbLine
 10
94.2403199126
 20
102.4435799266
 30
0.0
 11
94.2403199126
 21
104.4527968973
 31
0.0
  0
LINE
  5
28F
330
1F
100
AcDbEntity
  8
0
  6
HIDDEN
 62
     7
370
     0
100
AcDbLine
 10
80.9362842676
 20
105.2905699819
 30
0.0
 11
81.6078572509
 21
105.9621429652
 31
0.0
  0
SPLINE
  5
290
330
1F
100
AcDbEntity
  8
0
  6
HIDDEN
 62
     7
370
     0
100
AcDbSpline
210
0.0
220
0.0
230
1.0
 70
    11
 71
     3
 72
    70
 73
    66
 74
     0
 42
0.00000001
 43
0.00000001
 12
1.0
 22
0.0
 32
0.0
 13
1.0
 23
0.0
 33
0.0
 40
-0.03125
 40
-0.03125
 40
0.0
 40
0.0
 40
0.03125
 40
0.03125
 40
0.0625
 40
0.0625
 40
0.09375
 40
0.09375
 40
0.125
 40
0.125
 40
0.15625
 40
0.15625
 40
0.1875
 40
0.1875
 40
0.21875
 40
0.21875
 40
0.25
 40
0.25
 40
0.28125
 40
0.28125
 40
0.3125
 40
0.3125
 40
0.34375
 40
0.34375
 40
0.375
 40
0.375
 40
0.40625
 40
0.40625
 40
0.4375
 40
0.4375
 40
0.46875
 40
0.46875
 40
0.5
 40
0.5
 40
0.53125
 40
0.53125
 40
0.5625
 40
0.5625
 40
0.59375
 40
0.59375
 40
0.625
 40
0.625
 40
0.65625
 40
0.65625
 40
0.6875
 40
0.6875
 40
0.71875
 40
0.71875
 40
0.75
 40
0.75
 40
0.78125
 40
0.78125
 40
0.8125
 40
0.8125
 40
0.84375
 40
0.84375
 40
0.875
 40
0.875
 40
0.90625
 40
0.90625
 40
0.9375
 40
0.9375
 40
0.96875
 40
0.96875
 40
1.0
 40
1.0
 40
1.03125
 40
1.03125
 10
94.74366190247132
 20
105.9621428571428
 30
0.0
 10
94.74366190247132
 20
105.9621428571428
 30
0.0
 10
94.74850849303772
 20
105.9393256488047
 30
0.0
 10
94.76691494224026
 20
105.8500434993854
 30
0.0
 10
94.78069654384016
 20
105.7824515355178
 30
0.0
 10
94.81475943866063
 20
105.6065727083464
 30
0.0
 10
94.83489751716364
 20
105.4990376941961
 30
0.0
 10
94.87901855328906
 20
105.2450828277926
 30
0.0
 10
94.90310449981693
 20
105.0976957205269
 30
0.0
 10
94.95047214358779
 20
104.7757531558577
 30
0.0
 10
94.97399904293557
 20
104.5999675239642
 30
0.0
 10
95.0180732198864
 20
104.2175998141292
 30
0.0
 10
95.03811533890774
 20
104.0148565726246
 30
0.0
 10
95.07145084366803
 20
103.593978190128
 30
0.0
 10
95.08495883912136
 20
103.3727432235851
 30
0.0
 10
95.1031778477521
 20
102.9206722132707
 30
0.0
 10
95.10782894225159
 20
102.6931700653379
 30
0.0
 10
95.10788508785917
 20
102.2352847070067
 30
0.0
 10
95.10313419786782
 20
102.0026633645478
 30
0.0
 10
95.0850350484152
 20
101.5533007676032
 30
0.0
 10
95.07177410180029
 20
101.3348187313551
 30
0.0
 10
95.0382169240474
 20
100.9102872085863
 30
0.0
 10
95.01801110699057
 20
100.7062998276415
 30
0.0
 10
94.97441711885654
 20
100.3277936797679
 30
0.0
 10
94.95073344956269
 20
100.1503177228505
 30
0.0
 10
94.90288328885512
 20
99.82507734984632
 30
0.0
 10
94.87926763781284
 20
99.68071719433107
 30
0.0
 10
94.83526830270621
 20
99.4273027299837
 30
0.0
 10
94.81470059989245
 20
99.31740493474854
 30
0.0
 10
94.78069668845795
 20
99.1418391985782
 30
0.0
 10
94.76714455586632
 20
99.07536578051982
 30
0.0
 10
94.74857196144865
 20
98.98525827431668
 30
0.0
 10
94.74368166980815
 20
98.96223681302439
 30
0.0
 10
94.74364225859858
 20
98.96204948809716
 30
0.0
 10
94.74834258036222
 20
98.98416065941878
 30
0.0
 10
94.76691976444859
 20
99.07426028341055
 30
0.0
 10
94.78057351094773
 20
99.14123453949159
 30
0.0
 10
94.81439335577244
 20
99.31578767827446
 30
0.0
 10
94.83484897546576
 20
99.4249665012593
 30
0.0
 10
94.87908343636438
 20
99.67957846492023
 30
0.0
 10
94.90268175164088
 20
99.82388418363068
 30
0.0
 10
94.95015965815146
 20
100.1462437981422
 30
0.0
 10
94.97416163894067
 20
100.3257654560864
 30
0.0
 10
95.01782497001868
 20
100.7044956118988
 30
0.0
 10
95.03774810143541
 20
100.9051641666072
 30
0.0
 10
95.07145007372887
 20
101.3299302499834
 30
0.0
 10
95.0849153359531
 20
101.5512718509525
 30
0.0
 10
95.10302303967994
 20
101.9989722393826
 30
0.0
 10
95.10782452194574
 20
102.2286735644391
 30
0.0
 10
95.10788942846818
 20
102.6908371703533
 30
0.0
 10
95.10321397183327
 20
102.9185043013625
 30
0.0
 10
95.08523140779114
 20
103.3672299139239
 30
0.0
 10
95.07169686000961
 20
103.5904681729507
 30
0.0
 10
95.03827025943991
 20
104.0132997381107
 30
0.0
 10
95.01841058635894
 20
104.2142805562526
 30
0.0
 10
94.97456340820742
 20
104.5954557832197
 30
0.0
 10
94.95066673005391
 20
104.7743339976337
 30
0.0
 10
94.90333575214952
 20
105.0962197249533
 30
0.0
 10
94.87961913513118
 20
105.2415248739019
 30
0.0
 10
94.83506318407781
 20
105.4981834983601
 30
0.0
 10
94.81490604448311
 20
105.6057839336818
 30
0.0
 10
94.78098508554912
 20
105.7809930836593
 30
0.0
 10
94.76713603329131
 20
105.8489635954798
 30
0.0
 10
94.74851086797426
 20
105.9393215214683
 30
0.0
 10
94.74366190247132
 20
105.9621428571428
 30
0.0
 10
94.74366190247132
 20
105.9621428571428
 30
0.0
  0
SPLINE
  5
291
330
1F
100
AcDbEntity
  8
0
  6
HIDDEN
 62
     7
370
     0
100
AcDbSpline
210
0.0
220
0.0
230
1.0
 70
    11
 71
     3
 72
    60
 73
    56
 74
     0
 42
0.00000001
 43
0.00000001
 12
1.0
 22
0.0
 32
0.0
 13
1.0
 23
0.0
 33
0.0
 40
0.0
 40
0.0
 40
0.0
 40
0.0
 40
0.0312499999999999
 40
0.0312499999999999
 40
0.0624999999999999
 40
0.0624999999999999
 40
0.0937499999999998
 40
0.0937499999999998
 40
0.1249999999999997
 40
0.1249999999999997
 40
0.1562499999999997
 40
0.1562499999999997
 40
0.1874999999999996
 40
0.1874999999999996
 40
0.2187499999999995
 40
0.2187499999999995
 40
0.2499999999999994
 40
0.2499999999999994
 40
0.3124999999999993
 40
0.3124999999999993
 40
0.3749999999999992
 40
0.3749999999999992
 40
0.4062499999999991
 40
0.4062499999999991
 40
0.437499999999999
 40
0.437499999999999
 40
0.4687499999999989
 40
0.4687499999999989
 40
0.4999999999999989
 40
0.4999999999999989
 40
0.5312499999999988
 40
0.5312499999999988
 40
0.5624999999999988
 40
0.5624999999999988
 40
0.6249999999999987
 40
0.6249999999999987
 40
0.6874999999999984
 40
0.6874999999999984
 40
0.7187499999999987
 40
0.7187499999999987
 40
0.7499999999999988
 40
0.7499999999999988
 40
0.7812499999999989
 40
0.7812499999999989
 40
0.8124999999999991
 40
0.8124999999999991
 40
0.8437499999999992
 40
0.8437499999999992
 40
0.8749999999999993
 40
0.8749999999999993
 40
0.9374999999999993
 40
0.9374999999999993
 40
0.9687499999999998
 40
0.9687499999999998
 40
1.0
 40
1.0
 40
1.0
 40
1.0
 10
80.93628426760337
 20
105.2905699818891
 30
0.0
 10
81.03581510512674
 20
105.1910391443657
 30
0.0
 10
81.1348010646595
 20
105.0815880201715
 30
0.0
 10
81.32788042118548
 20
104.8402371687449
 30
0.0
 10
81.42211603762964
 20
104.7078571837127
 30
0.0
 10
81.59676063111735
 20
104.4255830288174
 30
0.0
 10
81.67794598288928
 20
104.2748817481757
 30
0.0
 10
81.82458339190015
 20
103.9512709921466
 30
0.0
 10
81.89006823482633
 20
103.7774159113684
 30
0.0
 10
81.99640267360981
 20
103.4183215050168
 30
0.0
 10
82.03808213540661
 20
103.231625222078
 30
0.0
 10
82.09465489196654
 20
102.8418997658395
 30
0.0
 10
82.10848813798044
 20
102.6454023165582
 30
0.0
 10
82.10718198698727
 20
102.2523020133351
 30
0.0
 10
82.0916321985283
 20
102.0526984233479
 30
0.0
 10
82.03283071212572
 20
101.6667241503622
 30
0.0
 10
81.99009166509916
 20
101.4804696069234
 30
0.0
 10
81.82608777356985
 20
100.9401474562414
 30
0.0
 10
81.67174488808686
 20
100.6156586620785
 30
0.0
 10
81.3175222816579
 20
100.0519873766835
 30
0.0
 10
81.12134272219384
 20
99.81660648145487
 30
0.0
 10
80.81973276008335
 20
99.51838333067272
 30
0.0
 10
80.71831174078815
 20
99.42880573067684
 30
0.0
 10
80.52393222543608
 20
99.27181551876559
 30
0.0
 10
80.43021994716676
 20
99.20375210282576
 30
0.0
 10
80.26051077622617
 20
99.08922696174861
 30
0.0
 10
80.18447673443444
 20
99.04284607506308
 30
0.0
 10
80.07617518755183
 20
98.97937621451618
 30
0.0
 10
80.04425903902413
 20
98.96209318505308
 30
0.0
 10
80.04443899795375
 20
98.96219275334346
 30
0.0
 10
80.07649227458954
 20
98.97955488829659
 30
0.0
 10
80.18484020148239
 20
99.04306628344236
 30
0.0
 10
80.26008045073216
 20
99.08893907601606
 30
0.0
 10
80.51573382787966
 20
99.26145456654042
 30
0.0
 10
80.71791128583344
 20
99.41782365205813
 30
0.0
 10
81.12093981392462
 20
99.81609016132815
 30
0.0
 10
81.31790600406786
 20
100.0527864250872
 30
0.0
 10
81.58203122833329
 20
100.4728044116243
 30
0.0
 10
81.66561407966307
 20
100.6253871466591
 30
0.0
 10
81.813894675929
 20
100.9466918467674
 30
0.0
 10
81.8792436851939
 20
101.1160917775242
 30
0.0
 10
81.98869268110768
 20
101.4750635869153
 30
0.0
 10
82.0322712173578
 20
101.6644254887508
 30
0.0
 10
82.09091173516633
 20
102.0466251768236
 30
0.0
 10
82.10673679223034
 20
102.2416008566069
 30
0.0
 10
82.10886350061138
 20
102.6399780319022
 30
0.0
 10
82.09492637216681
 20
102.8378233891369
 30
0.0
 10
82.03964211806914
 20
103.2230132864043
 30
0.0
 10
81.99760869979778
 20
103.4136118176411
 30
0.0
 10
81.83772302936403
 20
103.9554418555775
 30
0.0
 10
81.68443096546771
 20
104.2836852279321
 30
0.0
 10
81.42293293180043
 20
104.7066353928518
 30
0.0
 10
81.33028728954466
 20
104.8369852038118
 30
0.0
 10
81.13724148996029
 20
105.0787747952149
 30
0.0
 10
81.03649240961143
 20
105.190361839881
 30
0.0
 10
80.93628426760337
 20
105.2905699818891
 30
0.0
  0
LINE
  5
292
330
1F
100
AcDbEntity
  8
0
  6
HIDDEN
 62
     7
370
     0
100
AcDbLine
 10
75.2794300181
 20
105.2905699819
 30
0.0
 11
74.6078570348
 21
105.9621429652
 31
0.0
  0
SPLINE
  5
293
330
1F
100
AcDbEntity
  8
0
  6
HIDDEN
 62
     7
370
     0
100
AcDbSpline
210
0.0
220
0.0
230
1.0
 70
    11
 71
     3
 72
    70
 73
    66
 74
     0
 42
0.00000001
 43
0.00000001
 12
1.0
 22
0.0
 32
0.0
 13
1.0
 23
0.0
 33
0.0
 40
-0.0312500000000001
 40
-0.0312500000000001
 40
0.0
 40
0.0
 40
0.03125
 40
0.03125
 40
0.0625
 40
0.0625
 40
0.0937499999999999
 40
0.0937499999999999
 40
0.1249999999999999
 40
0.1249999999999999
 40
0.1562499999999999
 40
0.1562499999999999
 40
0.1874999999999999
 40
0.1874999999999999
 40
0.2187499999999999
 40
0.2187499999999999
 40
0.2499999999999999
 40
0.2499999999999999
 40
0.2812499999999999
 40
0.2812499999999999
 40
0.3124999999999999
 40
0.3124999999999999
 40
0.3437499999999999
 40
0.3437499999999999
 40
0.3749999999999998
 40
0.3749999999999998
 40
0.4062499999999998
 40
0.4062499999999998
 40
0.4374999999999998
 40
0.4374999999999998
 40
0.4687499999999998
 40
0.4687499999999998
 40
0.4999999999999998
 40
0.4999999999999998
 40
0.5312499999999998
 40
0.5312499999999998
 40
0.5624999999999998
 40
0.5624999999999998
 40
0.5937499999999997
 40
0.5937499999999997
 40
0.6249999999999997
 40
0.6249999999999997
 40
0.6562499999999997
 40
0.6562499999999997
 40
0.6874999999999997
 40
0.6874999999999997
 40
0.7187499999999997
 40
0.7187499999999997
 40
0.7499999999999996
 40
0.7499999999999996
 40
0.7812499999999996
 40
0.7812499999999996
 40
0.8124999999999996
 40
0.8124999999999996
 40
0.8437499999999996
 40
0.8437499999999996
 40
0.8749999999999997
 40
0.8749999999999997
 40
0.9062499999999998
 40
0.9062499999999998
 40
0.9374999999999998
 40
0.9374999999999998
 40
0.9687499999999999
 40
0.9687499999999999
 40
1.0
 40
1.0
 40
1.03125
 40
1.03125
 10
74.60785714285718
 20
119.097947616757
 30
0.0
 10
74.60785714285718
 20
119.097947616757
 30
0.0
 10
74.63067435119535
 20
119.1027942073234
 30
0.0
 10
74.7199565006146
 20
119.121200656526
 30
0.0
 10
74.7875484644822
 20
119.1349822581259
 30
0.0
 10
74.96342729165362
 20
119.1690451529463
 30
0.0
 10
75.07096230580386
 20
119.1891832314494
 30
0.0
 10
75.32491717220738
 20
119.2333042675748
 30
0.0
 10
75.47230427947308
 20
119.2573902141026
 30
0.0
 10
75.79424684414228
 20
119.3047578578735
 30
0.0
 10
75.97003247603581
 20
119.3282847572213
 30
0.0
 10
76.35240018587083
 20
119.3723589341721
 30
0.0
 10
76.55514342737538
 20
119.3924010531935
 30
0.0
 10
76.97602180987204
 20
119.4257365579537
 30
0.0
 10
77.19725677641487
 20
119.4392445534071
 30
0.0
 10
77.64932778672927
 20
119.4574635620378
 30
0.0
 10
77.87682993466217
 20
119.4621146565373
 30
0.0
 10
78.33471529299328
 20
119.4621708021449
 30
0.0
 10
78.56733663545222
 20
119.4574199121535
 30
0.0
 10
79.01669923239685
 20
119.4393207627009
 30
0.0
 10
79.23518126864495
 20
119.426059816086
 30
0.0
 10
79.65971279141368
 20
119.3925026383331
 30
0.0
 10
79.86370017235848
 20
119.3722968212763
 30
0.0
 10
80.24220632023214
 20
119.3287028331423
 30
0.0
 10
80.41968227714948
 20
119.3050191638484
 30
0.0
 10
80.74492265015368
 20
119.2571690031408
 30
0.0
 10
80.88928280566894
 20
119.2335533520986
 30
0.0
 10
81.14269727001631
 20
119.1895540169919
 30
0.0
 10
81.25259506525147
 20
119.1689863141782
 30
0.0
 10
81.42816080142181
 20
119.1349824027437
 30
0.0
 10
81.49463421948019
 20
119.1214302701521
 30
0.0
 10
81.58474172568333
 20
119.1028576757344
 30
0.0
 10
81.60776318697562
 20
119.0979673840939
 30
0.0
 10
81.60795051190284
 20
119.0979279728843
 30
0.0
 10
81.58583934058123
 20
119.1026282946479
 30
0.0
 10
81.49573971658945
 20
119.1212054787343
 30
0.0
 10
81.42876546050843
 20
119.1348592252335
 30
0.0
 10
81.25421232172553
 20
119.1686790700581
 30
0.0
 10
81.1450334987407
 20
119.1891346897515
 30
0.0
 10
80.89042153507978
 20
119.2333691506501
 30
0.0
 10
80.74611581636933
 20
119.2569674659266
 30
0.0
 10
80.42375620185783
 20
119.3044453724372
 30
0.0
 10
80.2442345439136
 20
119.3284473532264
 30
0.0
 10
79.8655043881012
 20
119.3721106843044
 30
0.0
 10
79.66483583339276
 20
119.3920338157211
 30
0.0
 10
79.2400697500166
 20
119.4257357880146
 30
0.0
 10
79.01872814904752
 20
119.4392010502388
 30
0.0
 10
78.57102776061745
 20
119.4573087539656
 30
0.0
 10
78.34132643556094
 20
119.4621102362315
 30
0.0
 10
77.87916282964672
 20
119.4621751427539
 30
0.0
 10
77.6514956986375
 20
119.457499686119
 30
0.0
 10
77.2027700860761
 20
119.4395171220769
 30
0.0
 10
76.97953182704934
 20
119.4259825742953
 30
0.0
 10
76.55670026188932
 20
119.3925559737256
 30
0.0
 10
76.35571944374736
 20
119.3726963006447
 30
0.0
 10
75.9745442167803
 20
119.3288491224931
 30
0.0
 10
75.79566600236632
 20
119.3049524443396
 30
0.0
 10
75.47378027504668
 20
119.2576214664352
 30
0.0
 10
75.3284751260981
 20
119.2339048494169
 30
0.0
 10
75.07181650163986
 20
119.1893488983635
 30
0.0
 10
74.96421606631822
 20
119.1691917587688
 30
0.0
 10
74.78900691634074
 20
119.1352707998348
 30
0.0
 10
74.72103640452018
 20
119.121421747577
 30
0.0
 10
74.63067847853168
 20
119.10279658226
 30
0.0
 10
74.60785714285718
 20
119.097947616757
 30
0.0
 10
74.60785714285718
 20
119.097947616757
 30
0.0
  0
SPLINE
  5
294
330
1F
100
AcDbEntity
  8
0
  6
HIDDEN
 62
     7
370
     0
100
AcDbSpline
210
0.0
220
0.0
230
1.0
 70
     8
 71
     3
 72
    26
 73
    22
 74
     0
 42
0.00000001
 43
0.00000001
 12
1.0
 22
0.0
 32
0.0
 13
1.0
 23
0.0
 33
0.0
 40
0.0
 40
0.0
 40
0.0
 40
0.0
 40
0.125
 40
0.125
 40
0.25
 40
0.25
 40
0.3125
 40
0.3125
 40
0.375
 40
0.375
 40
0.4375
 40
0.4375
 40
0.5
 40
0.5
 40
0.625
 40
0.625
 40
0.75
 40
0.75
 40
0.875
 40
0.875
 40
1.0
 40
1.0
 40
1.0
 40
1.0
 10
75.279430018111
 20
105.2905699818891
 30
0.0
 10
75.42806526287899
 20
105.4392052266571
 30
0.0
 10
75.59954250739113
 20
105.587258942561
 30
0.0
 10
75.99259156039399
 20
105.8656181947175
 30
0.0
 10
76.20929219955858
 20
105.9928199508588
 30
0.0
 10
76.57107688393828
 20
106.1575269822103
 30
0.0
 10
76.69882861926311
 20
106.2083163247668
 30
0.0
 10
76.96127888968506
 20
106.2967921682513
 30
0.0
 10
77.09642224011709
 20
106.334789442316
 30
0.0
 10
77.37515413264366
 20
106.397055617924
 30
0.0
 10
77.52012485776885
 20
106.4214584166525
 30
0.0
 10
77.81232703637342
 20
106.4539182635093
 30
0.0
 10
77.95874760494243
 20
106.4620551303928
 30
0.0
 10
78.39895955818264
 20
106.4623162003572
 30
0.0
 10
78.69719286972085
 20
106.4288007407642
 30
0.0
 10
79.25519507019146
 20
106.3047080218673
 30
0.0
 10
79.52195327409001
 20
106.2132207206508
 30
0.0
 10
80.00453320780326
 20
105.993838329735
 30
0.0
 10
80.22582283355536
 20
105.8638024387029
 30
0.0
 10
80.61562901632449
 20
105.5875463201281
 30
0.0
 10
80.7863326591066
 20
105.4405215903859
 30
0.0
 10
80.93628426760337
 20
105.2905699818891
 30
0.0
  0
SPLINE
  5
295
330
1F
100
AcDbEntity
  8
0
  6
HIDDEN
 62
     7
370
     0
100
AcDbSpline
210
0.0
220
0.0
230
1.0
 70
     8
 71
     3
 72
    24
 73
    20
 74
     0
 42
0.00000001
 43
0.00000001
 12
1.0
 22
0.0
 32
0.0
 13
1.0
 23
0.0
 33
0.0
 40
0.0
 40
0.0
 40
0.0
 40
0.0
 40
0.1250000000000002
 40
0.1250000000000002
 40
0.2500000000000004
 40
0.2500000000000004
 40
0.3125000000000005
 40
0.3125000000000005
 40
0.3750000000000006
 40
0.3750000000000006
 40
0.5000000000000004
 40
0.5000000000000004
 40
0.6250000000000004
 40
0.6250000000000004
 40
0.7500000000000003
 40
0.7500000000000003
 40
0.8750000000000002
 40
0.8750000000000002
 40
1.0
 40
1.0
 40
1.0
 40
1.0
 10
80.93628426760345
 20
105.2905699818891
 30
0.0
 10
80.78577248840145
 20
105.4410817610911
 30
0.0
 10
80.61429992923158
 20
105.5885555326038
 30
0.0
 10
80.22564420892004
 20
105.8638614818189
 30
0.0
 10
80.00472241983961
 20
105.9937110565959
 30
0.0
 10
79.64327777318884
 20
106.1580867750824
 30
0.0
 10
79.51788018354002
 20
106.2079275213292
 30
0.0
 10
79.25621119087626
 20
106.2962464950363
 30
0.0
 10
79.11859250814152
 20
106.3349944593897
 30
0.0
 10
78.69868984305216
 20
106.428649981431
 30
0.0
 10
78.41028952006913
 20
106.4617914593613
 30
0.0
 10
77.81479254290481
 20
106.4624887702195
 30
0.0
 10
77.52327940720639
 20
106.4296868363155
 30
0.0
 10
76.9602912324096
 20
106.3048279648333
 30
0.0
 10
76.69711262744167
 20
106.2146048214941
 30
0.0
 10
76.21128567798462
 20
105.9940244463682
 30
0.0
 10
75.99283294406773
 20
105.8656165499836
 30
0.0
 10
75.60313594793622
 20
105.589974738021
 30
0.0
 10
75.4290438020109
 20
105.440183765789
 30
0.0
 10
75.27943001811099
 20
105.2905699818891
 30
0.0
  0
SPLINE
  5
296
330
1F
100
AcDbEntity
  8
0
  6
HIDDEN
 62
     7
370
     0
100
AcDbSpline
210
0.0
220
0.0
230
1.0
 70
    11
 71
     3
 72
    70
 73
    66
 74
     0
 42
0.00000001
 43
0.00000001
 12
1.0
 22
0.0
 32
0.0
 13
1.0
 23
0.0
 33
0.0
 40
-0.0312500000000001
 40
-0.0312500000000001
 40
0.0
 40
0.0
 40
0.0312499999999999
 40
0.0312499999999999
 40
0.0624999999999999
 40
0.0624999999999999
 40
0.0937499999999998
 40
0.0937499999999998
 40
0.1249999999999998
 40
0.1249999999999998
 40
0.1562499999999997
 40
0.1562499999999997
 40
0.1874999999999997
 40
0.1874999999999997
 40
0.2187499999999997
 40
0.2187499999999997
 40
0.2499999999999997
 40
0.2499999999999997
 40
0.2812499999999997
 40
0.2812499999999997
 40
0.3124999999999997
 40
0.3124999999999997
 40
0.3437499999999997
 40
0.3437499999999997
 40
0.3749999999999997
 40
0.3749999999999997
 40
0.4062499999999997
 40
0.4062499999999997
 40
0.4374999999999997
 40
0.4374999999999997
 40
0.4687499999999997
 40
0.4687499999999997
 40
0.4999999999999997
 40
0.4999999999999997
 40
0.5312499999999996
 40
0.5312499999999996
 40
0.5624999999999996
 40
0.5624999999999996
 40
0.5937499999999994
 40
0.5937499999999994
 40
0.6249999999999994
 40
0.6249999999999994
 40
0.6562499999999993
 40
0.6562499999999993
 40
0.6874999999999994
 40
0.6874999999999994
 40
0.7187499999999994
 40
0.7187499999999994
 40
0.7499999999999996
 40
0.7499999999999996
 40
0.7812499999999996
 40
0.7812499999999996
 40
0.8124999999999997
 40
0.8124999999999997
 40
0.8437499999999997
 40
0.8437499999999997
 40
0.8749999999999998
 40
0.8749999999999998
 40
0.9062499999999998
 40
0.9062499999999998
 40
0.9374999999999999
 40
0.9374999999999999
 40
0.9687499999999999
 40
0.9687499999999999
 40
1.0
 40
1.0
 40
1.03125
 40
1.03125
 10
61.47205238324302
 20
98.96214285714306
 30
0.0
 10
61.472052383243
 20
98.96214285714306
 30
0.0
 10
61.4672057926766
 20
98.98496006548126
 30
0.0
 10
61.44879934347405
 20
99.07424221490048
 30
0.0
 10
61.43501774187416
 20
99.14183417876808
 30
0.0
 10
61.4009548470537
 20
99.31771300593951
 30
0.0
 10
61.38081676855068
 20
99.42524802008975
 30
0.0
 10
61.33669573242527
 20
99.67920288649326
 30
0.0
 10
61.31260978589741
 20
99.82658999375896
 30
0.0
 10
61.26524214212655
 20
100.1485325584282
 30
0.0
 10
61.24171524277877
 20
100.3243181903217
 30
0.0
 10
61.19764106582794
 20
100.7066859001567
 30
0.0
 10
61.17759894680659
 20
100.9094291416613
 30
0.0
 10
61.14426344204632
 20
101.3303075241579
 30
0.0
 10
61.13075544659301
 20
101.5515424907008
 30
0.0
 10
61.11253643796226
 20
102.0036135010152
 30
0.0
 10
61.10788534346276
 20
102.2311156489481
 30
0.0
 10
61.1078291978552
 20
102.6890010072792
 30
0.0
 10
61.11258008784655
 20
102.9216223497381
 30
0.0
 10
61.13067923729918
 20
103.3709849466827
 30
0.0
 10
61.14394018391408
 20
103.5894669829309
 30
0.0
 10
61.17749736166695
 20
104.0139985056996
 30
0.0
 10
61.19770317872379
 20
104.2179858866444
 30
0.0
 10
61.24129716685783
 20
104.596492034518
 30
0.0
 10
61.26498083615166
 20
104.7739679914354
 30
0.0
 10
61.31283099685925
 20
105.0992083644396
 30
0.0
 10
61.33644664790151
 20
105.2435685199548
 30
0.0
 10
61.38044598300816
 20
105.4969829843022
 30
0.0
 10
61.40101368582192
 20
105.6068807795374
 30
0.0
 10
61.43501759725642
 20
105.7824465157077
 30
0.0
 10
61.44856972984807
 20
105.8489199337661
 30
0.0
 10
61.46714232426573
 20
105.9390274399692
 30
0.0
 10
61.47203261590621
 20
105.9620489012615
 30
0.0
 10
61.4720720271158
 20
105.9622362261887
 30
0.0
 10
61.46737170535216
 20
105.9401250548671
 30
0.0
 10
61.44879452126579
 20
105.8500254308753
 30
0.0
 10
61.43514077476663
 20
105.7830511747943
 30
0.0
 10
61.40132092994195
 20
105.6084980360114
 30
0.0
 10
61.38086531024861
 20
105.4993192130266
 30
0.0
 10
61.33663084934999
 20
105.2447072493657
 30
0.0
 10
61.3130325340735
 20
105.1004015306552
 30
0.0
 10
61.26555462756291
 20
104.7780419161437
 30
0.0
 10
61.24155264677371
 20
104.5985202581995
 30
0.0
 10
61.1978893156957
 20
104.2197901023871
 30
0.0
 10
61.17796618427896
 20
104.0191215476787
 30
0.0
 10
61.14426421198549
 20
103.5943554643025
 30
0.0
 10
61.13079894976125
 20
103.3730138633334
 30
0.0
 10
61.11269124603442
 20
102.9253134749033
 30
0.0
 10
61.1078897637686
 20
102.6956121498469
 30
0.0
 10
61.10782485724618
 20
102.2334485439326
 30
0.0
 10
61.11250031388107
 20
102.0057814129234
 30
0.0
 10
61.13048287792321
 20
101.557055800362
 30
0.0
 10
61.14401742570476
 20
101.3338175413352
 30
0.0
 10
61.17744402627442
 20
100.9109859761752
 30
0.0
 10
61.19730369935539
 20
100.7100051580333
 30
0.0
 10
61.24115087750694
 20
100.3288299310662
 30
0.0
 10
61.26504755566042
 20
100.1499517166522
 30
0.0
 10
61.31237853356483
 20
99.82806598933257
 30
0.0
 10
61.33609515058313
 20
99.68276084038399
 30
0.0
 10
61.38065110163654
 20
99.42610221592575
 30
0.0
 10
61.40080824123123
 20
99.3185017806041
 30
0.0
 10
61.43472920016521
 20
99.14329263062663
 30
0.0
 10
61.44857825242303
 20
99.07532211880606
 30
0.0
 10
61.46720341774007
 20
98.98496419281757
 30
0.0
 10
61.47205238324302
 20
98.96214285714306
 30
0.0
 10
61.472052383243
 20
98.96214285714306
 30
0.0
  0
SPLINE
  5
297
330
1F
100
AcDbEntity
  8
0
  6
HIDDEN
 62
     7
370
     0
100
AcDbSpline
210
0.0
220
0.0
230
1.0
 70
    11
 71
     3
 72
    64
 73
    60
 74
     0
 42
0.00000001
 43
0.00000001
 12
1.0
 22
0.0
 32
0.0
 13
1.0
 23
0.0
 33
0.0
 40
0.0
 40
0.0
 40
0.0
 40
0.0
 40
0.0625000000000004
 40
0.0625000000000004
 40
0.0937500000000007
 40
0.0937500000000007
 40
0.1250000000000009
 40
0.1250000000000009
 40
0.1562500000000012
 40
0.1562500000000012
 40
0.1875000000000014
 40
0.1875000000000014
 40
0.2187500000000017
 40
0.2187500000000017
 40
0.2500000000000019
 40
0.2500000000000019
 40
0.3125000000000024
 40
0.3125000000000024
 40
0.3437500000000024
 40
0.3437500000000024
 40
0.3750000000000023
 40
0.3750000000000023
 40
0.4062500000000023
 40
0.4062500000000023
 40
0.4375000000000022
 40
0.4375000000000022
 40
0.4687500000000022
 40
0.4687500000000022
 40
0.5000000000000021
 40
0.5000000000000021
 40
0.531250000000002
 40
0.531250000000002
 40
0.5625000000000019
 40
0.5625000000000019
 40
0.5937500000000018
 40
0.5937500000000018
 40
0.6250000000000017
 40
0.6250000000000017
 40
0.6562500000000016
 40
0.6562500000000016
 40
0.6875000000000014
 40
0.6875000000000014
 40
0.7187500000000013
 40
0.7187500000000013
 40
0.7500000000000012
 40
0.7500000000000012
 40
0.7812500000000011
 40
0.7812500000000011
 40
0.812500000000001
 40
0.812500000000001
 40
0.8437500000000009
 40
0.8437500000000009
 40
0.8750000000000008
 40
0.8750000000000008
 40
0.9062500000000008
 40
0.9062500000000008
 40
0.9375000000000008
 40
0.9375000000000008
 40
1.0
 40
1.0
 40
1.0
 40
1.0
 10
75.27943001811099
 20
105.2905699818892
 30
0.0
 10
75.07779803294088
 20
105.0889379967191
 30
0.0
 10
74.88197861548181
 20
104.8504833037427
 30
0.0
 10
74.61952752989158
 20
104.4266204217562
 30
0.0
 10
74.53674842818124
 20
104.2728512827736
 30
0.0
 10
74.39045002499716
 20
103.9495455513614
 30
0.0
 10
74.32617311310432
 20
103.779094750036
 30
0.0
 10
74.21913004204559
 20
103.4178090773768
 30
0.0
 10
74.17711496831947
 20
103.2281259896547
 30
0.0
 10
74.12152231456882
 20
102.8450251350787
 30
0.0
 10
74.10726515792167
 20
102.6495888924528
 30
0.0
 10
74.10848654184166
 20
102.2502300405971
 30
0.0
 10
74.12403098173881
 20
102.0535979017898
 30
0.0
 10
74.18241121105875
 20
101.6692657550125
 30
0.0
 10
74.22596353696724
 20
101.479229307078
 30
0.0
 10
74.38957791174856
 20
100.9405425098417
 30
0.0
 10
74.54484301043149
 20
100.6144632930885
 30
0.0
 10
74.80819936854216
 20
100.1950950097817
 30
0.0
 10
74.90137277564341
 20
100.065850177965
 30
0.0
 10
75.09529624996219
 20
99.82619189628122
 30
0.0
 10
75.19621196018007
 20
99.71584203020909
 30
0.0
 10
75.39662962468789
 20
99.51781080274654
 30
0.0
 10
75.49684026522861
 20
99.42928322991477
 30
0.0
 10
75.6914416977066
 20
99.2720671448487
 30
0.0
 10
75.7866347670821
 20
99.20293900191267
 30
0.0
 10
75.95641519816729
 20
99.08845338619639
 30
0.0
 10
76.03141147098374
 20
99.04273279376072
 30
0.0
 10
76.140440848229
 20
98.97885921473983
 30
0.0
 10
76.17166011571886
 20
98.96197983420657
 30
0.0
 10
76.17106658472616
 20
98.9623082254832
 30
0.0
 10
76.13930806452896
 20
98.97949761310387
 30
0.0
 10
76.03014319232364
 20
99.04350159059082
 30
0.0
 10
75.9545033230334
 20
99.0896850941966
 30
0.0
 10
75.78541807230343
 20
99.20381801149418
 30
0.0
 10
75.69059235736523
 20
99.27268914889372
 30
0.0
 10
75.49520183621766
 20
99.43067188599173
 30
0.0
 10
75.39511052647535
 20
99.51925013690636
 30
0.0
 10
75.19594055430754
 20
99.71617243690133
 30
0.0
 10
75.09678480603444
 20
99.82451381334218
 30
0.0
 10
74.90318281581537
 20
100.0634544555619
 30
0.0
 10
74.80840145495104
 20
100.1947731828292
 30
0.0
 10
74.63242603691651
 20
100.4749962333846
 30
0.0
 10
74.550497469813
 20
100.6246196665266
 30
0.0
 10
74.40216176027306
 20
100.9458575769439
 30
0.0
 10
74.33554250946136
 20
101.118801008777
 30
0.0
 10
74.22672511101646
 20
101.476374544443
 30
0.0
 10
74.1837348954785
 20
101.6622785014906
 30
0.0
 10
74.12428077980356
 20
102.0502718099256
 30
0.0
 10
74.10879569891192
 20
102.2473842778876
 30
0.0
 10
74.10700191663834
 20
102.6403874605693
 30
0.0
 10
74.12092187334864
 20
102.8398453394545
 30
0.0
 10
74.17684610989413
 20
103.2272992248993
 30
0.0
 10
74.21825134616687
 20
103.4142450860252
 30
0.0
 10
74.32502507146901
 20
103.7758069799561
 30
0.0
 10
74.39027802826142
 20
103.9491411471619
 30
0.0
 10
74.536734506653
 20
104.2728447942347
 30
0.0
 10
74.61892267942794
 20
104.4256377740699
 30
0.0
 10
74.88307293871411
 20
104.852262258411
 30
0.0
 10
75.07859265158321
 20
105.0897326153613
 30
0.0
 10
75.27943001811099
 20
105.2905699818891
 30
0.0
  0
LINE
  5
298
330
1F
100
AcDbEntity
  8
0
  6
HIDDEN
 62
     7
370
     0
100
AcDbLine
 10
80.9362842676
 20
105.2905699819
 30
0.0
 11
81.5992900145
 21
105.9535757288
 31
0.0
  0
SPLINE
  5
299
330
1F
100
AcDbEntity
  8
0
  6
HIDDEN
 62
     7
370
     0
100
AcDbSpline
210
0.0
220
0.0
230
1.0
 70
     8
 71
     3
 72
    10
 73
     6
 74
     0
 42
0.00000001
 43
0.00000001
 12
1.0
 22
0.0
 32
0.0
 13
1.0
 23
0.0
 33
0.0
 40
0.0
 40
0.0
 40
0.0
 40
0.0
 40
0.5
 40
0.5
 40
1.0
 40
1.0
 40
1.0
 40
1.0
 10
94.60975097356643
 20
105.3344241804118
 30
0.0
 10
94.68117673469098
 20
105.3986824440762
 30
0.0
 10
94.73181062613004
 20
105.4633905815674
 30
0.0
 10
94.7957885542868
 20
105.5883257161841
 30
0.0
 10
94.80727021977731
 20
105.6452671363483
 30
0.0
 10
94.79742719989986
 20
105.6960648276091
 30
0.0
  0
SPLINE
  5
29A
330
1F
100
AcDbEntity
  8
0
  6
HIDDEN
 62
     7
370
     0
100
AcDbSpline
210
0.0
220
0.0
230
1.0
 70
     8
 71
     3
 72
    10
 73
     6
 74
     0
 42
0.00000001
 43
0.00000001
 12
1.0
 22
0.0
 32
0.0
 13
1.0
 23
0.0
 33
0.0
 40
0.0
 40
0.0
 40
0.0
 40
0.0
 40
0.5
 40
0.5
 40
1.0
 40
1.0
 40
1.0
 40
1.0
 10
94.45053903142934
 20
104.7351911823958
 30
0.0
 10
94.43418909687288
 20
104.8527433595258
 30
0.0
 10
94.43214758092807
 20
104.9628484020312
 30
0.0
 10
94.47814171071221
 20
105.1680958668667
 30
0.0
 10
94.52569881341537
 20
105.2588065631333
 30
0.0
 10
94.60975097356645
 20
105.3344241804118
 30
0.0
  0
SPLINE
  5
29B
330
1F
100
AcDbEntity
  8
0
  6
HIDDEN
 62
     7
370
     0
100
AcDbSpline
210
0.0
220
0.0
230
1.0
 70
     8
 71
     3
 72
    20
 73
    16
 74
     0
 42
0.00000001
 43
0.00000001
 12
1.0
 22
0.0
 32
0.0
 13
1.0
 23
0.0
 33
0.0
 40
0.0
 40
0.0
 40
0.0
 40
0.0
 40
0.2499999999999989
 40
0.2499999999999989
 40
0.3749999999999991
 40
0.3749999999999991
 40
0.4999999999999993
 40
0.4999999999999993
 40
0.6249999999999994
 40
0.6249999999999994
 40
0.7499999999999997
 40
0.7499999999999997
 40
0.8749999999999999
 40
0.8749999999999999
 40
1.0
 40
1.0
 40
1.0
 40
1.0
 10
94.45053903142934
 20
104.7351911823958
 30
0.0
 10
94.49440185937924
 20
104.4198277842865
 30
0.0
 10
94.53447447695348
 20
104.0648046739954
 30
0.0
 10
94.57752377495157
 20
103.4810400613221
 30
0.0
 10
94.58868908238189
 20
103.2825882863622
 30
0.0
 10
94.60385358464947
 20
102.8781398686238
 30
0.0
 10
94.60784796768093
 20
102.6703249749138
 30
0.0
 10
94.60786628587113
 20
102.2554176920473
 30
0.0
 10
94.60396555707466
 20
102.0504788152824
 30
0.0
 10
94.5888809113387
 20
101.645493826209
 30
0.0
 10
94.57752762064875
 20
101.4434893092246
 30
0.0
 10
94.54899581767341
 20
101.056205528103
 30
0.0
 10
94.53191581160323
 20
100.8709023286156
 30
0.0
 10
94.49372181601414
 20
100.5165867703066
 30
0.0
 10
94.47247118667488
 20
100.3467815605055
 30
0.0
 10
94.45053903142933
 20
100.1890945318899
 30
0.0
  0
SPLINE
  5
29C
330
1F
100
AcDbEntity
  8
0
  6
HIDDEN
 62
     7
370
     0
100
AcDbSpline
210
0.0
220
0.0
230
1.0
 70
     8
 71
     3
 72
    10
 73
     6
 74
     0
 42
0.00000001
 43
0.00000001
 12
1.0
 22
0.0
 32
0.0
 13
1.0
 23
0.0
 33
0.0
 40
0.0
 40
0.0
 40
0.0
 40
0.0
 40
0.5
 40
0.5
 40
1.0
 40
1.0
 40
1.0
 40
1.0
 10
94.60975097356643
 20
99.58986153387382
 30
0.0
 10
94.52593285902128
 20
99.66526859176848
 30
0.0
 10
94.4779487892893
 20
99.75694699421199
 30
0.0
 10
94.43228216550742
 20
99.96094062449892
 30
0.0
 10
94.43420884983337
 20
100.0716843738916
 30
0.0
 10
94.45053903142933
 20
100.1890945318899
 30
0.0
  0
SPLINE
  5
29D
330
1F
100
AcDbEntity
  8
0
  6
HIDDEN
 62
     7
370
     0
100
AcDbSpline
210
0.0
220
0.0
230
1.0
 70
     8
 71
     3
 72
    10
 73
     6
 74
     0
 42
0.00000001
 43
0.00000001
 12
1.0
 22
0.0
 32
0.0
 13
1.0
 23
0.0
 33
0.0
 40
0.0
 40
0.0
 40
0.0
 40
0.0
 40
0.5
 40
0.5
 40
1.0
 40
1.0
 40
1.0
 40
1.0
 10
94.79742719989984
 20
99.22822088667654
 30
0.0
 10
94.80727034625424
 20
99.27901923065748
 30
0.0
 10
94.79580284419522
 20
99.33590598869296
 30
0.0
 10
94.73186591229467
 20
99.46081324663434
 30
0.0
 10
94.68117581367203
 20
99.52560409880519
 30
0.0
 10
94.60975097356642
 20
99.58986153387382
 30
0.0
  0
SPLINE
  5
29E
330
1F
100
AcDbEntity
  8
0
  6
HIDDEN
 62
     7
370
     0
100
AcDbSpline
210
0.0
220
0.0
230
1.0
 70
     8
 71
     3
 72
    46
 73
    42
 74
     0
 42
0.00000001
 43
0.00000001
 12
1.0
 22
0.0
 32
0.0
 13
1.0
 23
0.0
 33
0.0
 40
0.0
 40
0.0
 40
0.0
 40
0.0
 40
0.0624999999999993
 40
0.0624999999999993
 40
0.1249999999999986
 40
0.1249999999999986
 40
0.1562499999999982
 40
0.1562499999999982
 40
0.1874999999999978
 40
0.1874999999999978
 40
0.2499999999999971
 40
0.2499999999999971
 40
0.3124999999999963
 40
0.3124999999999963
 40
0.3749999999999956
 40
0.3749999999999956
 40
0.4062499999999952
 40
0.4062499999999952
 40
0.4374999999999948
 40
0.4374999999999948
 40
0.4999999999999946
 40
0.4999999999999946
 40
0.5312499999999944
 40
0.5312499999999944
 40
0.5624999999999942
 40
0.5624999999999942
 40
0.6249999999999943
 40
0.6249999999999943
 40
0.6874999999999943
 40
0.6874999999999943
 40
0.7499999999999944
 40
0.7499999999999944
 40
0.7812499999999952
 40
0.7812499999999952
 40
0.8124999999999959
 40
0.8124999999999959
 40
0.8749999999999973
 40
0.8749999999999973
 40
0.9374999999999987
 40
0.9374999999999987
 40
1.0
 40
1.0
 40
1.0
 40
1.0
 10
94.79742719989986
 20
105.6960648276091
 30
0.0
 10
94.77602103046713
 20
105.8065374264112
 30
0.0
 10
94.76031126928527
 20
105.8823199378642
 30
0.0
 10
94.74284088291652
 20
105.9663054766918
 30
0.0
 10
94.74135277007142
 20
105.9732189639954
 30
0.0
 10
94.75021804027064
 20
105.9308647849442
 30
0.0
 10
94.75497188594721
 20
105.9080984513135
 30
0.0
 10
94.76792122127684
 20
105.8449381701277
 30
0.0
 10
94.7761638159034
 20
105.8042958567617
 30
0.0
 10
94.80484025846802
 20
105.6590931093863
 30
0.0
 10
94.82936237045325
 20
105.5309623978902
 30
0.0
 10
94.88495445191326
 20
105.2108509778168
 30
0.0
 10
94.9150483983441
 20
105.0241101914037
 30
0.0
 10
94.97395348707609
 20
104.6022710373837
 30
0.0
 10
95.00295875568997
 20
104.3645229558919
 30
0.0
 10
95.03968306329314
 20
103.9882975469003
 30
0.0
 10
95.05090510652977
 20
103.8589327664015
 30
0.0
 10
95.07078885214301
 20
103.5921181559973
 30
0.0
 10
95.0794892943314
 20
103.4536795329582
 30
0.0
 10
95.1004609091719
 20
103.0358925401821
 30
0.0
 10
95.10781011473253
 20
102.7527385397269
 30
0.0
 10
95.10788031979655
 20
102.3209914926387
 30
0.0
 10
95.10604174376381
 20
102.1758710467342
 30
0.0
 10
95.09887195507157
 20
101.8914880341144
 30
0.0
 10
95.0935493412248
 20
101.7511699534283
 30
0.0
 10
95.07276649693836
 20
101.3357600102297
 30
0.0
 10
95.05210393916626
 20
101.063484523537
 30
0.0
 10
95.00309538286827
 20
100.5609144538039
 30
0.0
 10
94.97443263340344
 20
100.3256353211923
 30
0.0
 10
94.91514005046966
 20
99.90064437130559
 30
0.0
 10
94.88519316230496
 20
99.71493807178297
 30
0.0
 10
94.84373130608898
 20
99.47599977567296
 30
0.0
 10
94.83043750972391
 20
99.4027946090084
 30
0.0
 10
94.80632182325802
 20
99.27379169281264
 30
0.0
 10
94.79541275458736
 20
99.21746921082756
 30
0.0
 10
94.7668299083401
 20
99.07270280580406
 30
0.0
 10
94.75327797165927
 20
99.0080418866231
 30
0.0
 10
94.74134621577423
 20
98.95103343936432
 30
0.0
 10
94.74268313522109
 20
98.95723050790629
 30
0.0
 10
94.76018859764143
 20
99.04136758067986
 30
0.0
 10
94.77601910214732
 20
99.11773833623414
 30
0.0
 10
94.79742719989984
 20
99.22822088667654
 30
0.0
  0
SPLINE
  5
29F
330
1F
100
AcDbEntity
  8
0
  6
HIDDEN
 62
     7
370
     0
100
AcDbSpline
210
0.0
220
0.0
230
1.0
 70
    11
 71
     3
 72
    60
 73
    56
 74
     0
 42
0.00000001
 43
0.00000001
 12
1.0
 22
0.0
 32
0.0
 13
1.0
 23
0.0
 33
0.0
 40
0.0
 40
0.0
 40
0.0
 40
0.0
 40
0.0312499999999999
 40
0.0312499999999999
 40
0.0624999999999999
 40
0.0624999999999999
 40
0.0937499999999998
 40
0.0937499999999998
 40
0.1249999999999997
 40
0.1249999999999997
 40
0.1562499999999997
 40
0.1562499999999997
 40
0.1874999999999996
 40
0.1874999999999996
 40
0.2187499999999995
 40
0.2187499999999995
 40
0.2499999999999994
 40
0.2499999999999994
 40
0.3124999999999997
 40
0.3124999999999997
 40
0.3749999999999999
 40
0.3749999999999999
 40
0.4062500000000001
 40
0.4062500000000001
 40
0.4375000000000002
 40
0.4375000000000002
 40
0.4687500000000004
 40
0.4687500000000004
 40
0.5000000000000006
 40
0.5000000000000006
 40
0.5312500000000007
 40
0.5312500000000007
 40
0.5625000000000009
 40
0.5625000000000009
 40
0.6250000000000011
 40
0.6250000000000011
 40
0.6875000000000014
 40
0.6875000000000014
 40
0.7187500000000013
 40
0.7187500000000013
 40
0.7500000000000011
 40
0.7500000000000011
 40
0.7812500000000009
 40
0.7812500000000009
 40
0.8125000000000008
 40
0.8125000000000008
 40
0.8437500000000006
 40
0.8437500000000006
 40
0.8750000000000003
 40
0.8750000000000003
 40
0.9375000000000004
 40
0.9375000000000004
 40
0.9687500000000002
 40
0.9687500000000002
 40
1.0
 40
1.0
 40
1.0
 40
1.0
 10
80.93628426760337
 20
105.2905699818891
 30
0.0
 10
81.03581510512674
 20
105.1910391443657
 30
0.0
 10
81.1348010646595
 20
105.0815880201715
 30
0.0
 10
81.32788042118548
 20
104.8402371687449
 30
0.0
 10
81.42211603762964
 20
104.7078571837127
 30
0.0
 10
81.59676063111735
 20
104.4255830288174
 30
0.0
 10
81.67794598288928
 20
104.2748817481757
 30
0.0
 10
81.82458339190015
 20
103.9512709921466
 30
0.0
 10
81.89006823482632
 20
103.7774159113684
 30
0.0
 10
81.99640267360981
 20
103.4183215050168
 30
0.0
 10
82.03808213540661
 20
103.231625222078
 30
0.0
 10
82.09465489196654
 20
102.8418997658395
 30
0.0
 10
82.10848813798044
 20
102.6454023165582
 30
0.0
 10
82.10718198698727
 20
102.2523020133351
 30
0.0
 10
82.0916321985283
 20
102.0526984233479
 30
0.0
 10
82.03283071212572
 20
101.6667241503623
 30
0.0
 10
81.99009166509916
 20
101.4804696069234
 30
0.0
 10
81.82608777356987
 20
100.9401474562414
 30
0.0
 10
81.67174488808688
 20
100.6156586620785
 30
0.0
 10
81.3175222816579
 20
100.0519873766835
 30
0.0
 10
81.12134272219384
 20
99.81660648145487
 30
0.0
 10
80.81973276008335
 20
99.51838333067272
 30
0.0
 10
80.71831174078815
 20
99.42880573067684
 30
0.0
 10
80.52393222543608
 20
99.27181551876559
 30
0.0
 10
80.43021994716676
 20
99.20375210282576
 30
0.0
 10
80.26051077622617
 20
99.08922696174861
 30
0.0
 10
80.18447673443444
 20
99.04284607506308
 30
0.0
 10
80.07617518755183
 20
98.97937621451618
 30
0.0
 10
80.04425903902413
 20
98.96209318505308
 30
0.0
 10
80.04443899795375
 20
98.96219275334346
 30
0.0
 10
80.07649227458954
 20
98.97955488829659
 30
0.0
 10
80.18484020148239
 20
99.04306628344236
 30
0.0
 10
80.26008045073216
 20
99.08893907601605
 30
0.0
 10
80.51573382787966
 20
99.26145456654042
 30
0.0
 10
80.71791128583344
 20
99.41782365205813
 30
0.0
 10
81.12093981392462
 20
99.81609016132815
 30
0.0
 10
81.31790600406786
 20
100.0527864250872
 30
0.0
 10
81.58203122833329
 20
100.4728044116243
 30
0.0
 10
81.66561407966307
 20
100.6253871466591
 30
0.0
 10
81.813894675929
 20
100.9466918467674
 30
0.0
 10
81.8792436851939
 20
101.1160917775242
 30
0.0
 10
81.98869268110768
 20
101.4750635869153
 30
0.0
 10
82.0322712173578
 20
101.6644254887508
 30
0.0
 10
82.09091173516633
 20
102.0466251768236
 30
0.0
 10
82.10673679223034
 20
102.2416008566069
 30
0.0
 10
82.10886350061138
 20
102.6399780319022
 30
0.0
 10
82.09492637216681
 20
102.8378233891369
 30
0.0
 10
82.03964211806914
 20
103.2230132864043
 30
0.0
 10
81.99760869979778
 20
103.4136118176411
 30
0.0
 10
81.83772302936403
 20
103.9554418555775
 30
0.0
 10
81.6844309654677
 20
104.2836852279321
 30
0.0
 10
81.42293293180042
 20
104.7066353928518
 30
0.0
 10
81.33028728954466
 20
104.8369852038118
 30
0.0
 10
81.13724148996029
 20
105.0787747952149
 30
0.0
 10
81.03649240961143
 20
105.190361839881
 30
0.0
 10
80.93628426760337
 20
105.2905699818891
 30
0.0
  0
LINE
  5
2A0
330
1F
100
AcDbEntity
  8
0
  6
HIDDEN
 62
     7
370
     0
100
AcDbLine
 10
75.2794300181
 20
105.2905699819
 30
0.0
 11
74.6164242712
 21
105.9535757288
 31
0.0
  0
SPLINE
  5
2A1
330
1F
100
AcDbEntity
  8
0
  6
HIDDEN
 62
     7
370
     0
100
AcDbSpline
210
0.0
220
0.0
230
1.0
 70
     8
 71
     3
 72
    10
 73
     6
 74
     0
 42
0.00000001
 43
0.00000001
 12
1.0
 22
0.0
 32
0.0
 13
1.0
 23
0.0
 33
0.0
 40
0.0
 40
0.0
 40
0.0
 40
0.0
 40
0.5
 40
0.5
 40
1.0
 40
1.0
 40
1.0
 40
1.0
 10
75.23557581958818
 20
118.9640366878521
 30
0.0
 10
75.17131755592385
 20
119.0354624489767
 30
0.0
 10
75.10660941843258
 20
119.0860963404157
 30
0.0
 10
74.98167428381592
 20
119.1500742685725
 30
0.0
 10
74.92473286365173
 20
119.161555934063
 30
0.0
 10
74.87393517239089
 20
119.1517129141856
 30
0.0
  0
SPLINE
  5
2A2
330
1F
100
AcDbEntity
  8
0
  6
HIDDEN
 62
     7
370
     0
100
AcDbSpline
210
0.0
220
0.0
230
1.0
 70
     8
 71
     3
 72
    10
 73
     6
 74
     0
 42
0.00000001
 43
0.00000001
 12
1.0
 22
0.0
 32
0.0
 13
1.0
 23
0.0
 33
0.0
 40
0.0
 40
0.0
 40
0.0
 40
0.0
 40
0.5
 40
0.5
 40
1.0
 40
1.0
 40
1.0
 40
1.0
 10
75.8348088176042
 20
118.8048247457151
 30
0.0
 10
75.71725664047419
 20
118.7884748111586
 30
0.0
 10
75.60715159796878
 20
118.7864332952138
 30
0.0
 10
75.40190413313329
 20
118.8324274249979
 30
0.0
 10
75.31119343686669
 20
118.8799845277011
 30
0.0
 10
75.23557581958818
 20
118.9640366878521
 30
0.0
  0
SPLINE
  5
2A3
330
1F
100
AcDbEntity
  8
0
  6
HIDDEN
 62
     7
370
     0
100
AcDbSpline
210
0.0
220
0.0
230
1.0
 70
     8
 71
     3
 72
    20
 73
    16
 74
     0
 42
0.00000001
 43
0.00000001
 12
1.0
 22
0.0
 32
0.0
 13
1.0
 23
0.0
 33
0.0
 40
0.0
 40
0.0
 40
0.0
 40
0.0
 40
0.2499999999999989
 40
0.2499999999999989
 40
0.3749999999999991
 40
0.3749999999999991
 40
0.4999999999999993
 40
0.4999999999999993
 40
0.6249999999999996
 40
0.6249999999999996
 40
0.7499999999999997
 40
0.7499999999999997
 40
0.8749999999999999
 40
0.8749999999999999
 40
1.0
 40
1.0
 40
1.0
 40
1.0
 10
75.8348088176042
 20
118.8048247457151
 30
0.0
 10
76.15017221571347
 20
118.848687573665
 30
0.0
 10
76.50519532600464
 20
118.8887601912392
 30
0.0
 10
77.08895993867787
 20
118.9318094892373
 30
0.0
 10
77.2874117136378
 20
118.9429747966676
 30
0.0
 10
77.69186013137617
 20
118.9581392989352
 30
0.0
 10
77.89967502508624
 20
118.9621336819666
 30
0.0
 10
78.31458230795266
 20
118.9621520001568
 30
0.0
 10
78.51952118471762
 20
118.9582512713604
 30
0.0
 10
78.92450617379103
 20
118.9431666256244
 30
0.0
 10
79.12651069077538
 20
118.9318133349345
 30
0.0
 10
79.51379447189701
 20
118.9032815319591
 30
0.0
 10
79.69909767138437
 20
118.8862015258889
 30
0.0
 10
80.05341322969346
 20
118.8480075302999
 30
0.0
 10
80.2232184394945
 20
118.8267569009606
 30
0.0
 10
80.38090546811016
 20
118.8048247457151
 30
0.0
  0
SPLINE
  5
2A4
330
1F
100
AcDbEntity
  8
0
  6
HIDDEN
 62
     7
370
     0
100
AcDbSpline
210
0.0
220
0.0
230
1.0
 70
     8
 71
     3
 72
    10
 73
     6
 74
     0
 42
0.00000001
 43
0.00000001
 12
1.0
 22
0.0
 32
0.0
 13
1.0
 23
0.0
 33
0.0
 40
0.0
 40
0.0
 40
0.0
 40
0.0
 40
0.5
 40
0.5
 40
1.0
 40
1.0
 40
1.0
 40
1.0
 10
80.98013846612619
 20
118.9640366878521
 30
0.0
 10
80.90473140823153
 20
118.880218573307
 30
0.0
 10
80.81305300578802
 20
118.832234503575
 30
0.0
 10
80.60905937550109
 20
118.7865678797931
 30
0.0
 10
80.49831562610842
 20
118.7884945641191
 30
0.0
 10
80.38090546811016
 20
118.8048247457151
 30
0.0
  0
SPLINE
  5
2A5
330
1F
100
AcDbEntity
  8
0
  6
HIDDEN
 62
     7
370
     0
100
AcDbSpline
210
0.0
220
0.0
230
1.0
 70
     8
 71
     3
 72
    10
 73
     6
 74
     0
 42
0.00000001
 43
0.00000001
 12
1.0
 22
0.0
 32
0.0
 13
1.0
 23
0.0
 33
0.0
 40
0.0
 40
0.0
 40
0.0
 40
0.0
 40
0.5
 40
0.5
 40
1.0
 40
1.0
 40
1.0
 40
1.0
 10
81.34177911332347
 20
119.1517129141856
 30
0.0
 10
81.29098076934253
 20
119.16155606054
 30
0.0
 10
81.23409401130705
 20
119.150088558481
 30
0.0
 10
81.10918675336566
 20
119.0861516265804
 30
0.0
 10
81.04439590119482
 20
119.0354615279578
 30
0.0
 10
80.98013846612618
 20
118.9640366878521
 30
0.0
  0
SPLINE
  5
2A6
330
1F
100
AcDbEntity
  8
0
  6
HIDDEN
 62
     7
370
     0
100
AcDbSpline
210
0.0
220
0.0
230
1.0
 70
     8
 71
     3
 72
    46
 73
    42
 74
     0
 42
0.00000001
 43
0.00000001
 12
1.0
 22
0.0
 32
0.0
 13
1.0
 23
0.0
 33
0.0
 40
0.0
 40
0.0
 40
0.0
 40
0.0
 40
0.0624999999999993
 40
0.0624999999999993
 40
0.1249999999999986
 40
0.1249999999999986
 40
0.1562499999999983
 40
0.1562499999999983
 40
0.1874999999999979
 40
0.1874999999999979
 40
0.2499999999999972
 40
0.2499999999999972
 40
0.3124999999999965
 40
0.3124999999999965
 40
0.3749999999999957
 40
0.3749999999999957
 40
0.4062499999999954
 40
0.4062499999999954
 40
0.4374999999999951
 40
0.4374999999999951
 40
0.4999999999999948
 40
0.4999999999999948
 40
0.5312499999999947
 40
0.5312499999999947
 40
0.5624999999999946
 40
0.5624999999999946
 40
0.6249999999999946
 40
0.6249999999999946
 40
0.6874999999999947
 40
0.6874999999999947
 40
0.7499999999999948
 40
0.7499999999999948
 40
0.7812499999999954
 40
0.7812499999999954
 40
0.8124999999999961
 40
0.8124999999999961
 40
0.8749999999999973
 40
0.8749999999999973
 40
0.9374999999999987
 40
0.9374999999999987
 40
1.0
 40
1.0
 40
1.0
 40
1.0
 10
74.87393517239089
 20
119.1517129141856
 30
0.0
 10
74.76346257358881
 20
119.1303067447528
 30
0.0
 10
74.68768006213584
 20
119.114596983571
 30
0.0
 10
74.60369452330818
 20
119.0971265972022
 30
0.0
 10
74.59678103600456
 20
119.0956384843571
 30
0.0
 10
74.63913521505583
 20
119.1045037545564
 30
0.0
 10
74.66190154868653
 20
119.1092576002329
 30
0.0
 10
74.72506182987229
 20
119.1222069355626
 30
0.0
 10
74.76570414323828
 20
119.1304495301891
 30
0.0
 10
74.91090689061367
 20
119.1591259727537
 30
0.0
 10
75.03903760210976
 20
119.1836480847389
 30
0.0
 10
75.35914902218317
 20
119.239240166199
 30
0.0
 10
75.54588980859626
 20
119.2693341126298
 30
0.0
 10
75.96772896261626
 20
119.3282392013618
 30
0.0
 10
76.20547704410814
 20
119.3572444699757
 30
0.0
 10
76.58170245309968
 20
119.3939687775788
 30
0.0
 10
76.71106723359853
 20
119.4051908208155
 30
0.0
 10
76.97788184400268
 20
119.4250745664287
 30
0.0
 10
77.11632046704177
 20
119.4337750086171
 30
0.0
 10
77.53410745981792
 20
119.4547466234576
 30
0.0
 10
77.81726146027316
 20
119.4620958290183
 30
0.0
 10
78.24900850736128
 20
119.4621660340823
 30
0.0
 10
78.39412895326582
 20
119.4603274580495
 30
0.0
 10
78.67851196588559
 20
119.4531576693573
 30
0.0
 10
78.81883004657175
 20
119.4478350555105
 30
0.0
 10
79.23423998977034
 20
119.4270522112241
 30
0.0
 10
79.50651547646301
 20
119.406389653452
 30
0.0
 10
80.0090855461961
 20
119.357381097154
 30
0.0
 10
80.24436467880767
 20
119.3287183476892
 30
0.0
 10
80.66935562869442
 20
119.2694257647554
 30
0.0
 10
80.85506192821704
 20
119.2394788765907
 30
0.0
 10
81.09400022432705
 20
119.1980170203747
 30
0.0
 10
81.16720539099161
 20
119.1847232240096
 30
0.0
 10
81.29620830718737
 20
119.1606075375437
 30
0.0
 10
81.35253078917246
 20
119.1496984688731
 30
0.0
 10
81.49729719419595
 20
119.1211156226258
 30
0.0
 10
81.5619581133769
 20
119.107563685945
 30
0.0
 10
81.6189665606357
 20
119.09563193006
 30
0.0
 10
81.61276949209372
 20
119.0969688495068
 30
0.0
 10
81.52863241932015
 20
119.1144743119272
 30
0.0
 10
81.45226166376587
 20
119.1303048164331
 30
0.0
 10
81.34177911332347
 20
119.1517129141856
 30
0.0
  0
SPLINE
  5
2A7
330
1F
100
AcDbEntity
  8
0
  6
HIDDEN
 62
     7
370
     0
100
AcDbSpline
210
0.0
220
0.0
230
1.0
 70
     8
 71
     3
 72
    26
 73
    22
 74
     0
 42
0.00000001
 43
0.00000001
 12
1.0
 22
0.0
 32
0.0
 13
1.0
 23
0.0
 33
0.0
 40
0.0
 40
0.0
 40
0.0
 40
0.0
 40
0.1250000000000008
 40
0.1250000000000008
 40
0.2500000000000016
 40
0.2500000000000016
 40
0.3125000000000014
 40
0.3125000000000014
 40
0.3750000000000012
 40
0.3750000000000012
 40
0.4375000000000011
 40
0.4375000000000011
 40
0.5000000000000009
 40
0.5000000000000009
 40
0.6250000000000007
 40
0.6250000000000007
 40
0.7500000000000004
 40
0.7500000000000004
 40
0.8750000000000003
 40
0.8750000000000003
 40
1.0
 40
1.0
 40
1.0
 40
1.0
 10
75.27943001811099
 20
105.2905699818891
 30
0.0
 10
75.42806526287899
 20
105.4392052266571
 30
0.0
 10
75.59954250739113
 20
105.587258942561
 30
0.0
 10
75.99259156039399
 20
105.8656181947175
 30
0.0
 10
76.20929219955858
 20
105.9928199508588
 30
0.0
 10
76.57107688393828
 20
106.1575269822103
 30
0.0
 10
76.69882861926311
 20
106.2083163247668
 30
0.0
 10
76.96127888968506
 20
106.2967921682513
 30
0.0
 10
77.09642224011709
 20
106.334789442316
 30
0.0
 10
77.37515413264366
 20
106.397055617924
 30
0.0
 10
77.52012485776885
 20
106.4214584166525
 30
0.0
 10
77.81232703637342
 20
106.4539182635093
 30
0.0
 10
77.95874760494243
 20
106.4620551303928
 30
0.0
 10
78.39895955818264
 20
106.4623162003572
 30
0.0
 10
78.69719286972085
 20
106.4288007407642
 30
0.0
 10
79.25519507019146
 20
106.3047080218673
 30
0.0
 10
79.52195327409001
 20
106.2132207206508
 30
0.0
 10
80.00453320780326
 20
105.993838329735
 30
0.0
 10
80.22582283355536
 20
105.8638024387029
 30
0.0
 10
80.61562901632449
 20
105.5875463201281
 30
0.0
 10
80.7863326591066
 20
105.4405215903859
 30
0.0
 10
80.93628426760337
 20
105.2905699818891
 30
0.0
  0
SPLINE
  5
2A8
330
1F
100
AcDbEntity
  8
0
  6
HIDDEN
 62
     7
370
     0
100
AcDbSpline
210
0.0
220
0.0
230
1.0
 70
     8
 71
     3
 72
    24
 73
    20
 74
     0
 42
0.00000001
 43
0.00000001
 12
1.0
 22
0.0
 32
0.0
 13
1.0
 23
0.0
 33
0.0
 40
0.0
 40
0.0
 40
0.0
 40
0.0
 40
0.125
 40
0.125
 40
0.2499999999999999
 40
0.2499999999999999
 40
0.3125
 40
0.3125
 40
0.375
 40
0.375
 40
0.5000000000000001
 40
0.5000000000000001
 40
0.6250000000000001
 40
0.6250000000000001
 40
0.75
 40
0.75
 40
0.875
 40
0.875
 40
1.0
 40
1.0
 40
1.0
 40
1.0
 10
80.93628426760345
 20
105.2905699818891
 30
0.0
 10
80.78577248840145
 20
105.4410817610911
 30
0.0
 10
80.61429992923159
 20
105.5885555326038
 30
0.0
 10
80.22564420892004
 20
105.8638614818189
 30
0.0
 10
80.00472241983961
 20
105.9937110565959
 30
0.0
 10
79.64327777318884
 20
106.1580867750824
 30
0.0
 10
79.51788018354002
 20
106.2079275213292
 30
0.0
 10
79.25621119087626
 20
106.2962464950363
 30
0.0
 10
79.11859250814152
 20
106.3349944593897
 30
0.0
 10
78.69868984305216
 20
106.428649981431
 30
0.0
 10
78.41028952006913
 20
106.4617914593613
 30
0.0
 10
77.81479254290481
 20
106.4624887702195
 30
0.0
 10
77.52327940720639
 20
106.4296868363155
 30
0.0
 10
76.96029123240959
 20
106.3048279648333
 30
0.0
 10
76.69711262744167
 20
106.2146048214941
 30
0.0
 10
76.21128567798462
 20
105.9940244463682
 30
0.0
 10
75.99283294406773
 20
105.8656165499836
 30
0.0
 10
75.60313594793622
 20
105.589974738021
 30
0.0
 10
75.4290438020109
 20
105.440183765789
 30
0.0
 10
75.27943001811099
 20
105.2905699818891
 30
0.0
  0
SPLINE
  5
2A9
330
1F
100
AcDbEntity
  8
0
  6
HIDDEN
 62
     7
370
     0
100
AcDbSpline
210
0.0
220
0.0
230
1.0
 70
     8
 71
     3
 72
    10
 73
     6
 74
     0
 42
0.00000001
 43
0.00000001
 12
1.0
 22
0.0
 32
0.0
 13
1.0
 23
0.0
 33
0.0
 40
0.0
 40
0.0
 40
0.0
 40
0.0
 40
0.5
 40
0.5
 40
1.0
 40
1.0
 40
1.0
 40
1.0
 10
61.60596331214791
 20
99.58986153387406
 30
0.0
 10
61.53453755102336
 20
99.52560327020973
 30
0.0
 10
61.4839036595843
 20
99.46089513271846
 30
0.0
 10
61.41992573142753
 20
99.33595999810181
 30
0.0
 10
61.40844406593703
 20
99.27901857793762
 30
0.0
 10
61.41828708581447
 20
99.22822088667678
 30
0.0
  0
SPLINE
  5
2AA
330
1F
100
AcDbEntity
  8
0
  6
HIDDEN
 62
     7
370
     0
100
AcDbSpline
210
0.0
220
0.0
230
1.0
 70
     8
 71
     3
 72
    10
 73
     6
 74
     0
 42
0.00000001
 43
0.00000001
 12
1.0
 22
0.0
 32
0.0
 13
1.0
 23
0.0
 33
0.0
 40
0.0
 40
0.0
 40
0.0
 40
0.0
 40
0.5
 40
0.5
 40
1.0
 40
1.0
 40
1.0
 40
1.0
 10
61.76517525428499
 20
100.1890945318901
 30
0.0
 10
61.78152518884145
 20
100.0715423547601
 30
0.0
 10
61.78356670478627
 20
99.96143731225467
 30
0.0
 10
61.73757257500213
 20
99.75618984741917
 30
0.0
 10
61.69001547229897
 20
99.66547915115258
 30
0.0
 10
61.6059633121479
 20
99.58986153387406
 30
0.0
  0
SPLINE
  5
2AB
330
1F
100
AcDbEntity
  8
0
  6
HIDDEN
 62
     7
370
     0
100
AcDbSpline
210
0.0
220
0.0
230
1.0
 70
     8
 71
     3
 72
    20
 73
    16
 74
     0
 42
0.00000001
 43
0.00000001
 12
1.0
 22
0.0
 32
0.0
 13
1.0
 23
0.0
 33
0.0
 40
0.0
 40
0.0
 40
0.0
 40
0.0
 40
0.249999999999999
 40
0.249999999999999
 40
0.3749999999999992
 40
0.3749999999999992
 40
0.4999999999999993
 40
0.4999999999999993
 40
0.6249999999999994
 40
0.6249999999999994
 40
0.7499999999999997
 40
0.7499999999999997
 40
0.8749999999999998
 40
0.8749999999999998
 40
1.0
 40
1.0
 40
1.0
 40
1.0
 10
61.76517525428499
 20
100.1890945318901
 30
0.0
 10
61.72131242633509
 20
100.5044579299993
 30
0.0
 10
61.68123980876086
 20
100.8594810402905
 30
0.0
 10
61.63819051076279
 20
101.4432456529638
 30
0.0
 10
61.62702520333245
 20
101.6416974279237
 30
0.0
 10
61.61186070106488
 20
102.0461458456621
 30
0.0
 10
61.60786631803342
 20
102.2539607393721
 30
0.0
 10
61.60784799984323
 20
102.6688680222385
 30
0.0
 10
61.61174872863968
 20
102.8738068990035
 30
0.0
 10
61.62683337437566
 20
103.2787918880769
 30
0.0
 10
61.63818666506561
 20
103.4807964050613
 30
0.0
 10
61.66671846804095
 20
103.8680801861829
 30
0.0
 10
61.68379847411115
 20
104.0533833856702
 30
0.0
 10
61.72199246970021
 20
104.4076989439793
 30
0.0
 10
61.74324309903947
 20
104.5775041537804
 30
0.0
 10
61.76517525428503
 20
104.735191182396
 30
0.0
  0
SPLINE
  5
2AC
330
1F
100
AcDbEntity
  8
0
  6
HIDDEN
 62
     7
370
     0
100
AcDbSpline
210
0.0
220
0.0
230
1.0
 70
     8
 71
     3
 72
    10
 73
     6
 74
     0
 42
0.00000001
 43
0.00000001
 12
1.0
 22
0.0
 32
0.0
 13
1.0
 23
0.0
 33
0.0
 40
0.0
 40
0.0
 40
0.0
 40
0.0
 40
0.5
 40
0.5
 40
1.0
 40
1.0
 40
1.0
 40
1.0
 10
61.60596331214795
 20
105.3344241804121
 30
0.0
 10
61.68978142669309
 20
105.2590171225174
 30
0.0
 10
61.73776549642507
 20
105.1673387200739
 30
0.0
 10
61.78343212020695
 20
104.963345089787
 30
0.0
 10
61.78150543588102
 20
104.8526013403943
 30
0.0
 10
61.76517525428503
 20
104.735191182396
 30
0.0
  0
SPLINE
  5
2AD
330
1F
100
AcDbEntity
  8
0
  6
HIDDEN
 62
     7
370
     0
100
AcDbSpline
210
0.0
220
0.0
230
1.0
 70
     8
 71
     3
 72
    10
 73
     6
 74
     0
 42
0.00000001
 43
0.00000001
 12
1.0
 22
0.0
 32
0.0
 13
1.0
 23
0.0
 33
0.0
 40
0.0
 40
0.0
 40
0.0
 40
0.0
 40
0.5
 40
0.5
 40
1.0
 40
1.0
 40
1.0
 40
1.0
 10
61.41828708581453
 20
105.6960648276093
 30
0.0
 10
61.40844393946014
 20
105.6452664836284
 30
0.0
 10
61.41991144151915
 20
105.5883797255929
 30
0.0
 10
61.4838483734197
 20
105.4634724676516
 30
0.0
 10
61.53453847204234
 20
105.3986816154807
 30
0.0
 10
61.60596331214796
 20
105.3344241804121
 30
0.0
  0
SPLINE
  5
2AE
330
1F
100
AcDbEntity
  8
0
  6
HIDDEN
 62
     7
370
     0
100
AcDbSpline
210
0.0
220
0.0
230
1.0
 70
     8
 71
     3
 72
    46
 73
    42
 74
     0
 42
0.00000001
 43
0.00000001
 12
1.0
 22
0.0
 32
0.0
 13
1.0
 23
0.0
 33
0.0
 40
0.0
 40
0.0
 40
0.0
 40
0.0
 40
0.0624999999999995
 40
0.0624999999999995
 40
0.124999999999999
 40
0.124999999999999
 40
0.1562499999999988
 40
0.1562499999999988
 40
0.1874999999999986
 40
0.1874999999999986
 40
0.2499999999999981
 40
0.2499999999999981
 40
0.3124999999999976
 40
0.3124999999999976
 40
0.3749999999999971
 40
0.3749999999999971
 40
0.4062499999999968
 40
0.4062499999999968
 40
0.4374999999999966
 40
0.4374999999999966
 40
0.4999999999999961
 40
0.4999999999999961
 40
0.5312499999999959
 40
0.5312499999999959
 40
0.5624999999999957
 40
0.5624999999999957
 40
0.6249999999999954
 40
0.6249999999999954
 40
0.6874999999999953
 40
0.6874999999999953
 40
0.7499999999999951
 40
0.7499999999999951
 40
0.7812499999999958
 40
0.7812499999999958
 40
0.8124999999999964
 40
0.8124999999999964
 40
0.8749999999999977
 40
0.8749999999999977
 40
0.9374999999999988
 40
0.9374999999999988
 40
1.0
 40
1.0
 40
1.0
 40
1.0
 10
61.41828708581447
 20
99.22822088667678
 30
0.0
 10
61.4396932552472
 20
99.11774828787469
 30
0.0
 10
61.45540301642906
 20
99.04196577642173
 30
0.0
 10
61.47287340279781
 20
98.95798023759406
 30
0.0
 10
61.47436151564291
 20
98.95106675029045
 30
0.0
 10
61.46549624544368
 20
98.99342092934171
 30
0.0
 10
61.46074239976711
 20
99.01618726297241
 30
0.0
 10
61.4477930644375
 20
99.07934754415818
 30
0.0
 10
61.43955046981094
 20
99.11998985752417
 30
0.0
 10
61.41087402724632
 20
99.26519260489958
 30
0.0
 10
61.38635191526108
 20
99.39332331639564
 30
0.0
 10
61.33075983380108
 20
99.71343473646907
 30
0.0
 10
61.30066588737023
 20
99.90017552288217
 30
0.0
 10
61.24176079863825
 20
100.3220146769022
 30
0.0
 10
61.21275553002435
 20
100.559762758394
 30
0.0
 10
61.17603122242122
 20
100.9359881673856
 30
0.0
 10
61.16480917918458
 20
101.0653529478844
 30
0.0
 10
61.14492543357134
 20
101.3321675582886
 30
0.0
 10
61.13622499138296
 20
101.4706061813277
 30
0.0
 10
61.11525337654244
 20
101.8883931741038
 30
0.0
 10
61.10790417098182
 20
102.1715471745591
 30
0.0
 10
61.1078339659178
 20
102.6032942216472
 30
0.0
 10
61.10967254195054
 20
102.7484146675517
 30
0.0
 10
61.1168423306428
 20
103.0327976801715
 30
0.0
 10
61.12216494448956
 20
103.1731157608576
 30
0.0
 10
61.14294778877601
 20
103.5885257040562
 30
0.0
 10
61.1636103465481
 20
103.8608011907489
 30
0.0
 10
61.21261890284612
 20
104.363371260482
 30
0.0
 10
61.24128165231094
 20
104.5986503930936
 30
0.0
 10
61.30057423524472
 20
105.0236413429803
 30
0.0
 10
61.33052112340942
 20
105.2093476425029
 30
0.0
 10
61.37198297962537
 20
105.4482859386129
 30
0.0
 10
61.38527677599047
 20
105.5214911052775
 30
0.0
 10
61.40939246245636
 20
105.6504940214733
 30
0.0
 10
61.42030153112703
 20
105.7068165034583
 30
0.0
 10
61.44888437737428
 20
105.8515829084818
 30
0.0
 10
61.46243631405511
 20
105.9162438276628
 30
0.0
 10
61.47436806994015
 20
105.9732522749216
 30
0.0
 10
61.47303115049328
 20
105.9670552063796
 30
0.0
 10
61.45552568807296
 20
105.8829181336061
 30
0.0
 10
61.43969518356707
 20
105.8065473780518
 30
0.0
 10
61.41828708581453
 20
105.6960648276093
 30
0.0
  0
SPLINE
  5
2AF
330
1F
100
AcDbEntity
  8
0
  6
HIDDEN
 62
     7
370
     0
100
AcDbSpline
210
0.0
220
0.0
230
1.0
 70
    11
 71
     3
 72
    64
 73
    60
 74
     0
 42
0.00000001
 43
0.00000001
 12
1.0
 22
0.0
 32
0.0
 13
1.0
 23
0.0
 33
0.0
 40
0.0
 40
0.0
 40
0.0
 40
0.0
 40
0.0624999999999996
 40
0.0624999999999996
 40
0.0937499999999994
 40
0.0937499999999994
 40
0.1249999999999991
 40
0.1249999999999991
 40
0.1562499999999989
 40
0.1562499999999989
 40
0.1874999999999987
 40
0.1874999999999987
 40
0.2187499999999985
 40
0.2187499999999985
 40
0.2499999999999983
 40
0.2499999999999983
 40
0.3124999999999978
 40
0.3124999999999978
 40
0.3437499999999978
 40
0.3437499999999978
 40
0.3749999999999979
 40
0.3749999999999979
 40
0.406249999999998
 40
0.406249999999998
 40
0.4374999999999981
 40
0.4374999999999981
 40
0.4687499999999981
 40
0.4687499999999981
 40
0.4999999999999982
 40
0.4999999999999982
 40
0.5312499999999983
 40
0.5312499999999983
 40
0.5624999999999984
 40
0.5624999999999984
 40
0.5937499999999986
 40
0.5937499999999986
 40
0.6249999999999987
 40
0.6249999999999987
 40
0.6562499999999988
 40
0.6562499999999988
 40
0.6874999999999989
 40
0.6874999999999989
 40
0.718749999999999
 40
0.718749999999999
 40
0.7499999999999991
 40
0.7499999999999991
 40
0.7812499999999992
 40
0.7812499999999992
 40
0.8124999999999992
 40
0.8124999999999992
 40
0.8437499999999993
 40
0.8437499999999993
 40
0.8749999999999993
 40
0.8749999999999993
 40
0.9062499999999993
 40
0.9062499999999993
 40
0.9374999999999993
 40
0.9374999999999993
 40
1.0
 40
1.0
 40
1.0
 40
1.0
 10
75.27943001811099
 20
105.2905699818892
 30
0.0
 10
75.07779803294089
 20
105.0889379967191
 30
0.0
 10
74.88197861548181
 20
104.8504833037427
 30
0.0
 10
74.61952752989158
 20
104.4266204217562
 30
0.0
 10
74.53674842818124
 20
104.2728512827736
 30
0.0
 10
74.39045002499716
 20
103.9495455513614
 30
0.0
 10
74.32617311310432
 20
103.779094750036
 30
0.0
 10
74.21913004204559
 20
103.4178090773768
 30
0.0
 10
74.17711496831947
 20
103.2281259896547
 30
0.0
 10
74.12152231456882
 20
102.8450251350787
 30
0.0
 10
74.10726515792167
 20
102.6495888924528
 30
0.0
 10
74.10848654184166
 20
102.2502300405971
 30
0.0
 10
74.12403098173883
 20
102.0535979017898
 30
0.0
 10
74.18241121105875
 20
101.6692657550125
 30
0.0
 10
74.22596353696724
 20
101.479229307078
 30
0.0
 10
74.38957791174856
 20
100.9405425098417
 30
0.0
 10
74.54484301043149
 20
100.6144632930885
 30
0.0
 10
74.80819936854216
 20
100.1950950097817
 30
0.0
 10
74.90137277564341
 20
100.065850177965
 30
0.0
 10
75.09529624996219
 20
99.82619189628122
 30
0.0
 10
75.19621196018005
 20
99.71584203020909
 30
0.0
 10
75.39662962468789
 20
99.51781080274654
 30
0.0
 10
75.49684026522861
 20
99.42928322991477
 30
0.0
 10
75.6914416977066
 20
99.2720671448487
 30
0.0
 10
75.7866347670821
 20
99.20293900191267
 30
0.0
 10
75.95641519816729
 20
99.08845338619639
 30
0.0
 10
76.03141147098374
 20
99.04273279376072
 30
0.0
 10
76.140440848229
 20
98.97885921473983
 30
0.0
 10
76.17166011571888
 20
98.96197983420657
 30
0.0
 10
76.17106658472616
 20
98.9623082254832
 30
0.0
 10
76.13930806452896
 20
98.97949761310387
 30
0.0
 10
76.03014319232364
 20
99.04350159059082
 30
0.0
 10
75.9545033230334
 20
99.08968509419661
 30
0.0
 10
75.78541807230341
 20
99.20381801149418
 30
0.0
 10
75.69059235736523
 20
99.27268914889372
 30
0.0
 10
75.49520183621766
 20
99.43067188599173
 30
0.0
 10
75.39511052647535
 20
99.51925013690638
 30
0.0
 10
75.19594055430754
 20
99.71617243690135
 30
0.0
 10
75.09678480603444
 20
99.82451381334218
 30
0.0
 10
74.90318281581537
 20
100.0634544555619
 30
0.0
 10
74.80840145495104
 20
100.1947731828292
 30
0.0
 10
74.63242603691651
 20
100.4749962333846
 30
0.0
 10
74.550497469813
 20
100.6246196665266
 30
0.0
 10
74.40216176027306
 20
100.9458575769439
 30
0.0
 10
74.33554250946136
 20
101.118801008777
 30
0.0
 10
74.22672511101646
 20
101.476374544443
 30
0.0
 10
74.1837348954785
 20
101.6622785014906
 30
0.0
 10
74.12428077980356
 20
102.0502718099256
 30
0.0
 10
74.10879569891192
 20
102.2473842778876
 30
0.0
 10
74.10700191663834
 20
102.6403874605693
 30
0.0
 10
74.12092187334865
 20
102.8398453394545
 30
0.0
 10
74.17684610989413
 20
103.2272992248993
 30
0.0
 10
74.21825134616687
 20
103.4142450860252
 30
0.0
 10
74.32502507146901
 20
103.7758069799561
 30
0.0
 10
74.39027802826142
 20
103.9491411471619
 30
0.0
 10
74.536734506653
 20
104.2728447942347
 30
0.0
 10
74.61892267942794
 20
104.4256377740699
 30
0.0
 10
74.88307293871411
 20
104.852262258411
 30
0.0
 10
75.07859265158321
 20
105.0897326153613
 30
0.0
 10
75.27943001811099
 20
105.2905699818891
 30
0.0
  0
LINE
  5
2B0
330
1F
100
AcDbEntity
  8
0
  6
HIDDEN
 62
     7
370
     0
100
AcDbLine
 10
80.9362842676
 20
105.2905699819
 30
0.0
 11
81.5992900145
 21
105.9535757288
 31
0.0
  0
SPLINE
  5
2B1
330
1F
100
AcDbEntity
  8
0
  6
HIDDEN
 62
     7
370
     0
100
AcDbSpline
210
0.0
220
0.0
230
1.0
 70
    11
 71
     3
 72
    70
 73
    66
 74
     0
 42
0.00000001
 43
0.00000001
 12
1.0
 22
0.0
 32
0.0
 13
1.0
 23
0.0
 33
0.0
 40
-0.0312499999999999
 40
-0.0312499999999999
 40
0.0
 40
0.0
 40
0.03125
 40
0.03125
 40
0.0625
 40
0.0625
 40
0.09375
 40
0.09375
 40
0.125
 40
0.125
 40
0.15625
 40
0.15625
 40
0.1875
 40
0.1875
 40
0.21875
 40
0.21875
 40
0.25
 40
0.25
 40
0.2812499999999999
 40
0.2812499999999999
 40
0.3124999999999999
 40
0.3124999999999999
 40
0.3437499999999999
 40
0.3437499999999999
 40
0.3749999999999999
 40
0.3749999999999999
 40
0.40625
 40
0.40625
 40
0.4375
 40
0.4375
 40
0.46875
 40
0.46875
 40
0.5
 40
0.5
 40
0.53125
 40
0.53125
 40
0.5625
 40
0.5625
 40
0.59375
 40
0.59375
 40
0.625
 40
0.625
 40
0.65625
 40
0.65625
 40
0.6875
 40
0.6875
 40
0.71875
 40
0.71875
 40
0.75
 40
0.75
 40
0.7812500000000001
 40
0.7812500000000001
 40
0.8125000000000001
 40
0.8125000000000001
 40
0.8437500000000001
 40
0.8437500000000001
 40
0.8750000000000001
 40
0.8750000000000001
 40
0.9062500000000001
 40
0.9062500000000001
 40
0.9375000000000001
 40
0.9375000000000001
 40
0.9687500000000001
 40
0.9687500000000001
 40
1.0
 40
1.0
 40
1.03125
 40
1.03125
 10
94.2323726394543
 20
105.9621428571428
 30
0.0
 10
94.23237263945428
 20
105.9621428571428
 30
0.0
 10
94.2373748095564
 20
105.9393175617209
 30
0.0
 10
94.25636884358492
 20
105.8500114995165
 30
0.0
 10
94.27058986663063
 20
105.7824009740859
 30
0.0
 10
94.30572730987292
 20
105.6065100614885
 30
0.0
 10
94.32649765654833
 20
105.4989734961921
 30
0.0
 10
94.37199643960804
 20
105.2450214708262
 30
0.0
 10
94.39682651135485
 20
105.0976646083693
 30
0.0
 10
94.44565284904402
 20
104.7757827279841
 30
0.0
 10
94.46990271999549
 20
104.6000225151786
 30
0.0
 10
94.51533106396751
 20
104.2176668326779
 30
0.0
 10
94.53598088147938
 20
104.0149876750684
 30
0.0
 10
94.57033554341534
 20
103.5941240898478
 30
0.0
 10
94.58425859918127
 20
103.3728455872994
 30
0.0
 10
94.60303396946706
 20
102.9207558438163
 30
0.0
 10
94.60782789959008
 20
102.6932272127852
 30
0.0
 10
94.60788611947176
 20
102.235253625705
 30
0.0
 10
94.60298925925517
 20
102.0025860231916
 30
0.0
 10
94.58433680234876
 20
101.5531906849052
 30
0.0
 10
94.57067015487634
 20
101.3346879261133
 30
0.0
 10
94.53608113556386
 20
100.9101044118502
 30
0.0
 10
94.5152617855248
 20
100.7061856840586
 30
0.0
 10
94.4703317512513
 20
100.3277255147295
 30
0.0
 10
94.44590986094887
 20
100.1502031227479
 30
0.0
 10
94.39659574719744
 20
99.82509400774833
 30
0.0
 10
94.37225038964415
 20
99.6807617405928
 30
0.0
 10
94.32687753463667
 20
99.42735355100119
 30
0.0
 10
94.30566193325157
 20
99.31744380118849
 30
0.0
 10
94.27059024871932
 20
99.14189125087678
 30
0.0
 10
94.25660642541055
 20
99.07540109275588
 30
0.0
 10
94.23743908484884
 20
98.98526069837082
 30
0.0
 10
94.2323931742485
 20
98.96223746103924
 30
0.0
 10
94.23235223376965
 20
98.96204884805509
 30
0.0
 10
94.23720261253015
 20
98.98416377303002
 30
0.0
 10
94.25637884655825
 20
99.07431603531711
 30
0.0
 10
94.27046092448352
 20
99.14127506027101
 30
0.0
 10
94.3053508089981
 20
99.31585570218272
 30
0.0
 10
94.32645685235053
 20
99.4250815754882
 30
0.0
 10
94.37206021706304
 20
99.67962311304477
 30
0.0
 10
94.3963888810744
 20
99.82390223860953
 30
0.0
 10
94.44533938680321
 20
100.1462728959972
 30
0.0
 10
94.47007431317398
 20
100.3257450357108
 30
0.0
 10
94.51506897691311
 20
100.7043754628485
 30
0.0
 10
94.53560361883545
 20
100.9050366118454
 30
0.0
 10
94.57034527004181
 20
101.3299243267938
 30
0.0
 10
94.58421291788771
 20
101.5511520312032
 30
0.0
 10
94.60287453391841
 20
101.9988878745306
 30
0.0
 10
94.60782459104925
 20
102.2287776377064
 30
0.0
 10
94.6078893704172
 20
102.6908820241462
 30
0.0
 10
94.60307247278789
 20
102.9185641884346
 30
0.0
 10
94.5845364007384
 20
103.3673996413462
 30
0.0
 10
94.57058405983743
 20
103.5906810039899
 30
0.0
 10
94.53614014396742
 20
104.01343055689
 30
0.0
 10
94.51567236989602
 20
104.2144120340043
 30
0.0
 10
94.47046592558536
 20
104.5956567699667
 30
0.0
 10
94.44584871504202
 20
104.774396701893
 30
0.0
 10
94.39706099586049
 20
105.0962127671202
 30
0.0
 10
94.37258358183259
 20
105.2416478937399
 30
0.0
 10
94.32666374022864
 20
105.4981413650862
 30
0.0
 10
94.30587739398813
 20
105.6057272682836
 30
0.0
 10
94.27088340880886
 20
105.7809626672819
 30
0.0
 10
94.25658876856612
 20
105.8489702244605
 30
0.0
 10
94.2373772517919
 20
105.9393132283865
 30
0.0
 10
94.2323726394543
 20
105.9621428571428
 30
0.0
 10
94.23237263945428
 20
105.9621428571428
 30
0.0
  0
SPLINE
  5
2B2
330
1F
100
AcDbEntity
  8
0
  6
HIDDEN
 62
     7
370
     0
100
AcDbSpline
210
0.0
220
0.0
230
1.0
 70
    11
 71
     3
 72
    60
 73
    56
 74
     0
 42
0.00000001
 43
0.00000001
 12
1.0
 22
0.0
 32
0.0
 13
1.0
 23
0.0
 33
0.0
 40
0.0
 40
0.0
 40
0.0
 40
0.0
 40
0.0312500000000002
 40
0.0312500000000002
 40
0.0625000000000005
 40
0.0625000000000005
 40
0.0937500000000007
 40
0.0937500000000007
 40
0.1250000000000009
 40
0.1250000000000009
 40
0.1562500000000011
 40
0.1562500000000011
 40
0.1875000000000014
 40
0.1875000000000014
 40
0.2187500000000016
 40
0.2187500000000016
 40
0.2500000000000018
 40
0.2500000000000018
 40
0.3125000000000023
 40
0.3125000000000023
 40
0.3750000000000028
 40
0.3750000000000028
 40
0.4062500000000028
 40
0.4062500000000028
 40
0.4375000000000028
 40
0.4375000000000028
 40
0.4687500000000028
 40
0.4687500000000028
 40
0.5000000000000028
 40
0.5000000000000028
 40
0.5312500000000028
 40
0.5312500000000028
 40
0.5625000000000028
 40
0.5625000000000028
 40
0.6250000000000023
 40
0.6250000000000023
 40
0.6875000000000019
 40
0.6875000000000019
 40
0.7187500000000017
 40
0.7187500000000017
 40
0.7500000000000014
 40
0.7500000000000014
 40
0.7812500000000013
 40
0.7812500000000013
 40
0.8125000000000011
 40
0.8125000000000011
 40
0.8437500000000009
 40
0.8437500000000009
 40
0.8750000000000007
 40
0.8750000000000007
 40
0.9375000000000003
 40
0.9375000000000003
 40
0.9687500000000002
 40
0.9687500000000002
 40
1.0
 40
1.0
 40
1.0
 40
1.0
 10
80.93628426760337
 20
105.2905699818891
 30
0.0
 10
81.03581510512674
 20
105.1910391443657
 30
0.0
 10
81.1348010646595
 20
105.0815880201716
 30
0.0
 10
81.32788042118547
 20
104.8402371687449
 30
0.0
 10
81.42211603762964
 20
104.7078571837127
 30
0.0
 10
81.59676063111735
 20
104.4255830288174
 30
0.0
 10
81.67794598288928
 20
104.2748817481757
 30
0.0
 10
81.82458339190015
 20
103.9512709921466
 30
0.0
 10
81.89006823482632
 20
103.7774159113684
 30
0.0
 10
81.99640267360981
 20
103.4183215050168
 30
0.0
 10
82.03808213540661
 20
103.231625222078
 30
0.0
 10
82.09465489196654
 20
102.8418997658395
 30
0.0
 10
82.10848813798044
 20
102.6454023165582
 30
0.0
 10
82.10718198698727
 20
102.2523020133351
 30
0.0
 10
82.0916321985283
 20
102.0526984233479
 30
0.0
 10
82.03283071212572
 20
101.6667241503623
 30
0.0
 10
81.99009166509916
 20
101.4804696069234
 30
0.0
 10
81.82608777356987
 20
100.9401474562414
 30
0.0
 10
81.67174488808688
 20
100.6156586620785
 30
0.0
 10
81.31752228165792
 20
100.0519873766835
 30
0.0
 10
81.12134272219386
 20
99.81660648145487
 30
0.0
 10
80.81973276008335
 20
99.51838333067273
 30
0.0
 10
80.71831174078815
 20
99.42880573067686
 30
0.0
 10
80.52393222543608
 20
99.27181551876559
 30
0.0
 10
80.43021994716678
 20
99.20375210282576
 30
0.0
 10
80.26051077622618
 20
99.08922696174862
 30
0.0
 10
80.18447673443445
 20
99.04284607506308
 30
0.0
 10
80.07617518755183
 20
98.9793762145162
 30
0.0
 10
80.04425903902413
 20
98.96209318505309
 30
0.0
 10
80.04443899795375
 20
98.96219275334346
 30
0.0
 10
80.07649227458955
 20
98.9795548882966
 30
0.0
 10
80.18484020148239
 20
99.04306628344237
 30
0.0
 10
80.26008045073216
 20
99.08893907601605
 30
0.0
 10
80.51573382787966
 20
99.26145456654042
 30
0.0
 10
80.71791128583344
 20
99.41782365205813
 30
0.0
 10
81.12093981392462
 20
99.81609016132815
 30
0.0
 10
81.31790600406786
 20
100.0527864250872
 30
0.0
 10
81.58203122833329
 20
100.4728044116243
 30
0.0
 10
81.66561407966307
 20
100.6253871466591
 30
0.0
 10
81.81389467592902
 20
100.9466918467674
 30
0.0
 10
81.8792436851939
 20
101.1160917775242
 30
0.0
 10
81.98869268110768
 20
101.4750635869153
 30
0.0
 10
82.0322712173578
 20
101.6644254887508
 30
0.0
 10
82.09091173516633
 20
102.0466251768237
 30
0.0
 10
82.10673679223034
 20
102.2416008566069
 30
0.0
 10
82.10886350061138
 20
102.6399780319022
 30
0.0
 10
82.09492637216681
 20
102.8378233891369
 30
0.0
 10
82.03964211806914
 20
103.2230132864043
 30
0.0
 10
81.99760869979778
 20
103.4136118176411
 30
0.0
 10
81.83772302936401
 20
103.9554418555775
 30
0.0
 10
81.68443096546771
 20
104.2836852279321
 30
0.0
 10
81.42293293180043
 20
104.7066353928518
 30
0.0
 10
81.33028728954466
 20
104.8369852038118
 30
0.0
 10
81.13724148996029
 20
105.0787747952149
 30
0.0
 10
81.03649240961143
 20
105.190361839881
 30
0.0
 10
80.93628426760337
 20
105.2905699818891
 30
0.0
  0
LINE
  5
2B3
330
1F
100
AcDbEntity
  8
0
  6
HIDDEN
 62
     7
370
     0
100
AcDbLine
 10
75.2794300181
 20
105.2905699819
 30
0.0
 11
74.6164242712
 21
105.9535757288
 31
0.0
  0
SPLINE
  5
2B4
330
1F
100
AcDbEntity
  8
0
  6
HIDDEN
 62
     7
370
     0
100
AcDbSpline
210
0.0
220
0.0
230
1.0
 70
    11
 71
     3
 72
    70
 73
    66
 74
     0
 42
0.00000001
 43
0.00000001
 12
1.0
 22
0.0
 32
0.0
 13
1.0
 23
0.0
 33
0.0
 40
-0.03125
 40
-0.03125
 40
0.0
 40
0.0
 40
0.03125
 40
0.03125
 40
0.0625
 40
0.0625
 40
0.09375
 40
0.09375
 40
0.125
 40
0.125
 40
0.15625
 40
0.15625
 40
0.1875
 40
0.1875
 40
0.21875
 40
0.21875
 40
0.25
 40
0.25
 40
0.28125
 40
0.28125
 40
0.3125
 40
0.3125
 40
0.34375
 40
0.34375
 40
0.375
 40
0.375
 40
0.40625
 40
0.40625
 40
0.4375
 40
0.4375
 40
0.46875
 40
0.46875
 40
0.5
 40
0.5
 40
0.53125
 40
0.53125
 40
0.5625
 40
0.5625
 40
0.59375
 40
0.59375
 40
0.625
 40
0.625
 40
0.65625
 40
0.65625
 40
0.6875
 40
0.6875
 40
0.71875
 40
0.71875
 40
0.75
 40
0.75
 40
0.78125
 40
0.78125
 40
0.8125
 40
0.8125
 40
0.84375
 40
0.84375
 40
0.875
 40
0.875
 40
0.90625
 40
0.90625
 40
0.9375
 40
0.9375
 40
0.96875
 40
0.96875
 40
1.0
 40
1.0
 40
1.03125
 40
1.03125
 10
74.60785714285718
 20
118.58665835374
 30
0.0
 10
74.60785714285718
 20
118.58665835374
 30
0.0
 10
74.63068243827914
 20
118.5916605238421
 30
0.0
 10
74.71998850048352
 20
118.6106545578706
 30
0.0
 10
74.78759902591413
 20
118.6248755809163
 30
0.0
 10
74.96348993851154
 20
118.6600130241586
 30
0.0
 10
75.07102650380791
 20
118.680783370834
 30
0.0
 10
75.32497852917376
 20
118.7262821538937
 30
0.0
 10
75.47233539163071
 20
118.7511122256406
 30
0.0
 10
75.79421727201593
 20
118.7999385633297
 30
0.0
 10
75.96997748482143
 20
118.8241884342812
 30
0.0
 10
76.35233316732207
 20
118.8696167782532
 30
0.0
 10
76.55501232493158
 20
118.8902665957651
 30
0.0
 10
76.9758759101522
 20
118.924621257701
 30
0.0
 10
77.1971544127006
 20
118.938544313467
 30
0.0
 10
77.64924415618373
 20
118.9573196837528
 30
0.0
 10
77.8767727872148
 20
118.9621136138758
 30
0.0
 10
78.334746374295
 20
118.9621718337575
 30
0.0
 10
78.56741397680837
 20
118.9572749735409
 30
0.0
 10
79.01680931509485
 20
118.9386225166345
 30
0.0
 10
79.23531207388669
 20
118.924955869162
 30
0.0
 10
79.65989558814985
 20
118.8903668498496
 30
0.0
 10
79.8638143159414
 20
118.8695474998105
 30
0.0
 10
80.2422744852705
 20
118.824617465537
 30
0.0
 10
80.41979687725215
 20
118.8001955752346
 30
0.0
 10
80.74490599225167
 20
118.7508814614832
 30
0.0
 10
80.88923825940721
 20
118.7265361039299
 30
0.0
 10
81.14264644899883
 20
118.6811632489224
 30
0.0
 10
81.25255619881152
 20
118.6599476475373
 30
0.0
 10
81.42810874912323
 20
118.624875963005
 30
0.0
 10
81.49459890724413
 20
118.6108921396963
 30
0.0
 10
81.58473930162918
 20
118.5917247991346
 30
0.0
 10
81.60776253896077
 20
118.5866788885342
 30
0.0
 10
81.60795115194492
 20
118.5866379480554
 30
0.0
 10
81.58583622696999
 20
118.5914883268159
 30
0.0
 10
81.4956839646829
 20
118.610664560844
 30
0.0
 10
81.428724939729
 20
118.6247466387693
 30
0.0
 10
81.2541442978173
 20
118.6596365232838
 30
0.0
 10
81.1449184245118
 20
118.6807425666362
 30
0.0
 10
80.89037688695525
 20
118.7263459313488
 30
0.0
 10
80.74609776139047
 20
118.7506745953601
 30
0.0
 10
80.42372710400278
 20
118.7996251010889
 30
0.0
 10
80.24425496428918
 20
118.8243600274597
 30
0.0
 10
79.8656245371515
 20
118.8693546911989
 30
0.0
 10
79.66496338815459
 20
118.8898893331212
 30
0.0
 10
79.24007567320625
 20
118.9246309843275
 30
0.0
 10
79.01884796879683
 20
118.9384986321734
 30
0.0
 10
78.57111212546941
 20
118.9571602482041
 30
0.0
 10
78.34122236229362
 20
118.962110305335
 30
0.0
 10
77.87911797585377
 20
118.9621750847029
 30
0.0
 10
77.65143581156542
 20
118.9573581870736
 30
0.0
 10
77.20260035865378
 20
118.9388221150241
 30
0.0
 10
76.97931899601011
 20
118.9248697741231
 30
0.0
 10
76.55656944310998
 20
118.8904258582531
 30
0.0
 10
76.3555879659957
 20
118.8699580841817
 30
0.0
 10
75.97434323003327
 20
118.8247516398711
 30
0.0
 10
75.79560329810698
 20
118.8001344293277
 30
0.0
 10
75.47378723287986
 20
118.7513467101462
 30
0.0
 10
75.32835210626008
 20
118.7268692961183
 30
0.0
 10
75.07185863491382
 20
118.6809494545143
 30
0.0
 10
74.96427273171642
 20
118.6601631082738
 30
0.0
 10
74.7890373327181
 20
118.6251691230946
 30
0.0
 10
74.72102977553949
 20
118.6108744828518
 30
0.0
 10
74.63068677161355
 20
118.5916629660776
 30
0.0
 10
74.60785714285718
 20
118.58665835374
 30
0.0
 10
74.60785714285718
 20
118.58665835374
 30
0.0
  0
SPLINE
  5
2B5
330
1F
100
AcDbEntity
  8
0
  6
HIDDEN
 62
     7
370
     0
100
AcDbSpline
210
0.0
220
0.0
230
1.0
 70
     8
 71
     3
 72
    26
 73
    22
 74
     0
 42
0.00000001
 43
0.00000001
 12
1.0
 22
0.0
 32
0.0
 13
1.0
 23
0.0
 33
0.0
 40
0.0
 40
0.0
 40
0.0
 40
0.0
 40
0.125
 40
0.125
 40
0.25
 40
0.25
 40
0.3125
 40
0.3125
 40
0.375
 40
0.375
 40
0.4375
 40
0.4375
 40
0.5
 40
0.5
 40
0.625
 40
0.625
 40
0.75
 40
0.75
 40
0.875
 40
0.875
 40
1.0
 40
1.0
 40
1.0
 40
1.0
 10
75.279430018111
 20
105.2905699818891
 30
0.0
 10
75.428065262879
 20
105.4392052266571
 30
0.0
 10
75.59954250739113
 20
105.587258942561
 30
0.0
 10
75.99259156039399
 20
105.8656181947175
 30
0.0
 10
76.20929219955858
 20
105.9928199508588
 30
0.0
 10
76.57107688393828
 20
106.1575269822103
 30
0.0
 10
76.69882861926311
 20
106.2083163247668
 30
0.0
 10
76.96127888968508
 20
106.2967921682513
 30
0.0
 10
77.0964222401171
 20
106.334789442316
 30
0.0
 10
77.37515413264366
 20
106.397055617924
 30
0.0
 10
77.52012485776885
 20
106.4214584166525
 30
0.0
 10
77.81232703637343
 20
106.4539182635093
 30
0.0
 10
77.95874760494243
 20
106.4620551303928
 30
0.0
 10
78.39895955818264
 20
106.4623162003572
 30
0.0
 10
78.69719286972085
 20
106.4288007407642
 30
0.0
 10
79.25519507019146
 20
106.3047080218673
 30
0.0
 10
79.52195327409001
 20
106.2132207206508
 30
0.0
 10
80.00453320780326
 20
105.993838329735
 30
0.0
 10
80.22582283355537
 20
105.8638024387029
 30
0.0
 10
80.6156290163245
 20
105.5875463201281
 30
0.0
 10
80.7863326591066
 20
105.4405215903859
 30
0.0
 10
80.93628426760337
 20
105.2905699818891
 30
0.0
  0
SPLINE
  5
2B6
330
1F
100
AcDbEntity
  8
0
  6
HIDDEN
 62
     7
370
     0
100
AcDbSpline
210
0.0
220
0.0
230
1.0
 70
     8
 71
     3
 72
    24
 73
    20
 74
     0
 42
0.00000001
 43
0.00000001
 12
1.0
 22
0.0
 32
0.0
 13
1.0
 23
0.0
 33
0.0
 40
0.0
 40
0.0
 40
0.0
 40
0.0
 40
0.1249999999999996
 40
0.1249999999999996
 40
0.2499999999999993
 40
0.2499999999999993
 40
0.3124999999999994
 40
0.3124999999999994
 40
0.3749999999999996
 40
0.3749999999999996
 40
0.4999999999999997
 40
0.4999999999999997
 40
0.6249999999999998
 40
0.6249999999999998
 40
0.7499999999999998
 40
0.7499999999999998
 40
0.8749999999999999
 40
0.8749999999999999
 40
1.0
 40
1.0
 40
1.0
 40
1.0
 10
80.93628426760345
 20
105.2905699818891
 30
0.0
 10
80.78577248840145
 20
105.4410817610911
 30
0.0
 10
80.61429992923159
 20
105.5885555326038
 30
0.0
 10
80.22564420892004
 20
105.8638614818189
 30
0.0
 10
80.00472241983961
 20
105.9937110565959
 30
0.0
 10
79.64327777318884
 20
106.1580867750824
 30
0.0
 10
79.51788018354002
 20
106.2079275213292
 30
0.0
 10
79.25621119087627
 20
106.2962464950363
 30
0.0
 10
79.11859250814152
 20
106.3349944593897
 30
0.0
 10
78.69868984305216
 20
106.428649981431
 30
0.0
 10
78.41028952006913
 20
106.4617914593613
 30
0.0
 10
77.81479254290481
 20
106.4624887702195
 30
0.0
 10
77.52327940720639
 20
106.4296868363155
 30
0.0
 10
76.9602912324096
 20
106.3048279648333
 30
0.0
 10
76.69711262744167
 20
106.2146048214941
 30
0.0
 10
76.21128567798462
 20
105.9940244463682
 30
0.0
 10
75.99283294406773
 20
105.8656165499836
 30
0.0
 10
75.60313594793624
 20
105.589974738021
 30
0.0
 10
75.4290438020109
 20
105.440183765789
 30
0.0
 10
75.27943001811099
 20
105.2905699818891
 30
0.0
  0
SPLINE
  5
2B7
330
1F
100
AcDbEntity
  8
0
  6
HIDDEN
 62
     7
370
     0
100
AcDbSpline
210
0.0
220
0.0
230
1.0
 70
    11
 71
     3
 72
    70
 73
    66
 74
     0
 42
0.00000001
 43
0.00000001
 12
1.0
 22
0.0
 32
0.0
 13
1.0
 23
0.0
 33
0.0
 40
-0.03125
 40
-0.03125
 40
0.0
 40
0.0
 40
0.03125
 40
0.03125
 40
0.0625
 40
0.0625
 40
0.09375
 40
0.09375
 40
0.125
 40
0.125
 40
0.15625
 40
0.15625
 40
0.1875
 40
0.1875
 40
0.21875
 40
0.21875
 40
0.2500000000000001
 40
0.2500000000000001
 40
0.2812500000000001
 40
0.2812500000000001
 40
0.3125000000000001
 40
0.3125000000000001
 40
0.3437500000000001
 40
0.3437500000000001
 40
0.375
 40
0.375
 40
0.40625
 40
0.40625
 40
0.4375
 40
0.4375
 40
0.46875
 40
0.46875
 40
0.5
 40
0.5
 40
0.53125
 40
0.53125
 40
0.5625
 40
0.5625
 40
0.59375
 40
0.59375
 40
0.625
 40
0.625
 40
0.65625
 40
0.65625
 40
0.6875
 40
0.6875
 40
0.71875
 40
0.71875
 40
0.7499999999999999
 40
0.7499999999999999
 40
0.7812499999999999
 40
0.7812499999999999
 40
0.8124999999999999
 40
0.8124999999999999
 40
0.8437499999999999
 40
0.8437499999999999
 40
0.875
 40
0.875
 40
0.90625
 40
0.90625
 40
0.9375
 40
0.9375
 40
0.96875
 40
0.96875
 40
1.0
 40
1.0
 40
1.03125
 40
1.03125
 10
61.98334164626004
 20
98.96214285714306
 30
0.0
 10
61.98334164626003
 20
98.96214285714306
 30
0.0
 10
61.97833947615794
 20
98.98496815256502
 30
0.0
 10
61.95934544212943
 20
99.0742742147694
 30
0.0
 10
61.94512441908371
 20
99.1418847402
 30
0.0
 10
61.90998697584141
 20
99.31777565279742
 30
0.0
 10
61.88921662916601
 20
99.4253122180938
 30
0.0
 10
61.8437178461063
 20
99.67926424345964
 30
0.0
 10
61.81888777435947
 20
99.8266211059166
 30
0.0
 10
61.77006143667032
 20
100.1485029863018
 30
0.0
 10
61.74581156571885
 20
100.3242631991073
 30
0.0
 10
61.70038322174683
 20
100.706618881608
 30
0.0
 10
61.67973340423497
 20
100.9092980392175
 30
0.0
 10
61.645378742299
 20
101.3301616244381
 30
0.0
 10
61.63145568653308
 20
101.5514401269865
 30
0.0
 10
61.61268031624729
 20
102.0035298704696
 30
0.0
 10
61.60788638612429
 20
102.2310585015007
 30
0.0
 10
61.60782816624261
 20
102.6890320885809
 30
0.0
 10
61.61272502645917
 20
102.9216996910943
 30
0.0
 10
61.63137748336559
 20
103.3710950293807
 30
0.0
 10
61.64504413083803
 20
103.5895977881726
 30
0.0
 10
61.67963315015049
 20
104.0141813024357
 30
0.0
 10
61.70045250018956
 20
104.2181000302273
 30
0.0
 10
61.74538253446308
 20
104.5965601995564
 30
0.0
 10
61.7698044247655
 20
104.774082591538
 30
0.0
 10
61.81911853851694
 20
105.0991917065376
 30
0.0
 10
61.84346389607022
 20
105.2435239736931
 30
0.0
 10
61.88883675107772
 20
105.4969321632847
 30
0.0
 10
61.9100523524628
 20
105.6068419130974
 30
0.0
 10
61.94512403699506
 20
105.7823944634091
 30
0.0
 10
61.95910786030382
 20
105.84888462153
 30
0.0
 10
61.97827520086553
 20
105.9390250159151
 30
0.0
 10
61.98332111146587
 20
105.9620482532466
 30
0.0
 10
61.98336205194472
 20
105.9622368662308
 30
0.0
 10
61.97851167318422
 20
105.9401219412559
 30
0.0
 10
61.95933543915612
 20
105.8499696789688
 30
0.0
 10
61.94525336123085
 20
105.7830106540149
 30
0.0
 10
61.91036347671626
 20
105.6084300121032
 30
0.0
 10
61.88925743336386
 20
105.4992041387977
 30
0.0
 10
61.84365406865132
 20
105.2446626012411
 30
0.0
 10
61.81932540463998
 20
105.1003834756764
 30
0.0
 10
61.77037489891114
 20
104.7780128182886
 30
0.0
 10
61.74563997254039
 20
104.5985406785751
 30
0.0
 10
61.70064530880125
 20
104.2199102514374
 30
0.0
 10
61.68011066687892
 20
104.0192491024405
 30
0.0
 10
61.64536901567255
 20
103.5943613874921
 30
0.0
 10
61.63150136782665
 20
103.3731336830827
 30
0.0
 10
61.61283975179593
 20
102.9253978397553
 30
0.0
 10
61.60788969466509
 20
102.6955080765795
 30
0.0
 10
61.60782491529715
 20
102.2334036901397
 30
0.0
 10
61.61264181292646
 20
102.0057215258513
 30
0.0
 10
61.63117788497595
 20
101.5568860729397
 30
0.0
 10
61.64513022587693
 20
101.333604710296
 30
0.0
 10
61.67957414174692
 20
100.9108551573959
 30
0.0
 10
61.70004191581832
 20
100.7098736802816
 30
0.0
 10
61.74524836012898
 20
100.3286289443191
 30
0.0
 10
61.76986557067231
 20
100.1498890123929
 30
0.0
 10
61.81865328985386
 20
99.82807294716574
 30
0.0
 10
61.84313070388174
 20
99.68263782054596
 30
0.0
 10
61.8890505454857
 20
99.4261443491997
 30
0.0
 10
61.9098368917262
 20
99.3185584460023
 30
0.0
 10
61.94483087690548
 20
99.14332304700397
 30
0.0
 10
61.95912551714822
 20
99.07531548982537
 30
0.0
 10
61.97833703392243
 20
98.98497248589943
 30
0.0
 10
61.98334164626004
 20
98.96214285714306
 30
0.0
 10
61.98334164626003
 20
98.96214285714306
 30
0.0
  0
SPLINE
  5
2B8
330
1F
100
AcDbEntity
  8
0
  6
HIDDEN
 62
     7
370
     0
100
AcDbSpline
210
0.0
220
0.0
230
1.0
 70
    11
 71
     3
 72
    64
 73
    60
 74
     0
 42
0.00000001
 43
0.00000001
 12
1.0
 22
0.0
 32
0.0
 13
1.0
 23
0.0
 33
0.0
 40
0.0
 40
0.0
 40
0.0
 40
0.0
 40
0.0624999999999996
 40
0.0624999999999996
 40
0.0937499999999996
 40
0.0937499999999996
 40
0.1249999999999995
 40
0.1249999999999995
 40
0.1562499999999994
 40
0.1562499999999994
 40
0.1874999999999994
 40
0.1874999999999994
 40
0.2187499999999993
 40
0.2187499999999993
 40
0.2499999999999992
 40
0.2499999999999992
 40
0.3124999999999989
 40
0.3124999999999989
 40
0.343749999999999
 40
0.343749999999999
 40
0.374999999999999
 40
0.374999999999999
 40
0.4062499999999991
 40
0.4062499999999991
 40
0.4374999999999991
 40
0.4374999999999991
 40
0.4687499999999991
 40
0.4687499999999991
 40
0.4999999999999992
 40
0.4999999999999992
 40
0.5312499999999992
 40
0.5312499999999992
 40
0.5624999999999993
 40
0.5624999999999993
 40
0.5937499999999993
 40
0.5937499999999993
 40
0.6249999999999993
 40
0.6249999999999993
 40
0.6562499999999994
 40
0.6562499999999994
 40
0.6874999999999994
 40
0.6874999999999994
 40
0.7187499999999994
 40
0.7187499999999994
 40
0.7499999999999994
 40
0.7499999999999994
 40
0.7812499999999996
 40
0.7812499999999996
 40
0.8124999999999996
 40
0.8124999999999996
 40
0.8437499999999996
 40
0.8437499999999996
 40
0.8749999999999997
 40
0.8749999999999997
 40
0.9062499999999997
 40
0.9062499999999997
 40
0.9374999999999997
 40
0.9374999999999997
 40
1.0
 40
1.0
 40
1.0
 40
1.0
 10
75.27943001811099
 20
105.2905699818892
 30
0.0
 10
75.07779803294089
 20
105.0889379967191
 30
0.0
 10
74.88197861548181
 20
104.8504833037427
 30
0.0
 10
74.61952752989158
 20
104.4266204217562
 30
0.0
 10
74.53674842818124
 20
104.2728512827737
 30
0.0
 10
74.39045002499716
 20
103.9495455513614
 30
0.0
 10
74.32617311310432
 20
103.779094750036
 30
0.0
 10
74.21913004204559
 20
103.4178090773768
 30
0.0
 10
74.17711496831947
 20
103.2281259896547
 30
0.0
 10
74.12152231456882
 20
102.8450251350787
 30
0.0
 10
74.10726515792169
 20
102.6495888924528
 30
0.0
 10
74.10848654184166
 20
102.2502300405971
 30
0.0
 10
74.12403098173883
 20
102.0535979017898
 30
0.0
 10
74.18241121105875
 20
101.6692657550125
 30
0.0
 10
74.22596353696724
 20
101.479229307078
 30
0.0
 10
74.38957791174856
 20
100.9405425098417
 30
0.0
 10
74.54484301043149
 20
100.6144632930885
 30
0.0
 10
74.80819936854216
 20
100.1950950097817
 30
0.0
 10
74.90137277564341
 20
100.065850177965
 30
0.0
 10
75.09529624996219
 20
99.82619189628122
 30
0.0
 10
75.19621196018007
 20
99.71584203020909
 30
0.0
 10
75.39662962468789
 20
99.51781080274654
 30
0.0
 10
75.49684026522861
 20
99.42928322991479
 30
0.0
 10
75.6914416977066
 20
99.27206714484872
 30
0.0
 10
75.7866347670821
 20
99.20293900191268
 30
0.0
 10
75.95641519816729
 20
99.08845338619639
 30
0.0
 10
76.03141147098373
 20
99.04273279376072
 30
0.0
 10
76.140440848229
 20
98.97885921473984
 30
0.0
 10
76.17166011571886
 20
98.96197983420657
 30
0.0
 10
76.17106658472616
 20
98.9623082254832
 30
0.0
 10
76.13930806452896
 20
98.97949761310387
 30
0.0
 10
76.03014319232364
 20
99.04350159059084
 30
0.0
 10
75.9545033230334
 20
99.08968509419661
 30
0.0
 10
75.78541807230341
 20
99.20381801149418
 30
0.0
 10
75.69059235736522
 20
99.27268914889373
 30
0.0
 10
75.49520183621765
 20
99.43067188599174
 30
0.0
 10
75.39511052647535
 20
99.51925013690638
 30
0.0
 10
75.19594055430753
 20
99.71617243690135
 30
0.0
 10
75.09678480603442
 20
99.8245138133422
 30
0.0
 10
74.90318281581536
 20
100.0634544555619
 30
0.0
 10
74.80840145495104
 20
100.1947731828292
 30
0.0
 10
74.6324260369165
 20
100.4749962333847
 30
0.0
 10
74.550497469813
 20
100.6246196665267
 30
0.0
 10
74.40216176027306
 20
100.9458575769439
 30
0.0
 10
74.33554250946136
 20
101.118801008777
 30
0.0
 10
74.22672511101646
 20
101.476374544443
 30
0.0
 10
74.1837348954785
 20
101.6622785014906
 30
0.0
 10
74.12428077980356
 20
102.0502718099256
 30
0.0
 10
74.10879569891192
 20
102.2473842778877
 30
0.0
 10
74.10700191663834
 20
102.6403874605693
 30
0.0
 10
74.12092187334865
 20
102.8398453394545
 30
0.0
 10
74.17684610989414
 20
103.2272992248993
 30
0.0
 10
74.21825134616688
 20
103.4142450860252
 30
0.0
 10
74.32502507146901
 20
103.7758069799561
 30
0.0
 10
74.39027802826142
 20
103.9491411471619
 30
0.0
 10
74.536734506653
 20
104.2728447942347
 30
0.0
 10
74.61892267942794
 20
104.4256377740699
 30
0.0
 10
74.88307293871411
 20
104.852262258411
 30
0.0
 10
75.07859265158321
 20
105.0897326153613
 30
0.0
 10
75.27943001811099
 20
105.2905699818891
 30
0.0
  0
LINE
  5
2B9
330
1F
100
AcDbEntity
  8
0
  6
HIDDEN
 62
     7
370
     0
100
AcDbLine
 10
74.1078569529
 20
109.8446055896
 30
0.0
 11
75.3578571578
 21
108.5946053847
 31
0.0
  0
LINE
  5
2BA
330
1F
100
AcDbEntity
  8
0
  6
HIDDEN
 62
     7
370
     0
100
AcDbLine
 10
80.857857128
 20
108.5946053847
 30
0.0
 11
82.1078573328
 21
109.8446055896
 31
0.0
  0
LINE
  5
2BB
330
1F
100
AcDbEntity
  8
0
  6
HIDDEN
 62
     7
370
     0
100
AcDbLine
 10
74.1078569529
 20
118.1959455482
 30
0.0
 11
74.1078569529
 21
109.8446055896
 31
0.0
  0
LINE
  5
2BC
330
1F
100
AcDbEntity
  8
0
  6
HIDDEN
 62
     7
370
     0
100
AcDbLine
 10
82.1078573328
 20
109.8446055896
 30
0.0
 11
82.1078573328
 21
118.1959455482
 31
0.0
  0
LINE
  5
2BD
330
1F
100
AcDbEntity
  8
0
  6
HIDDEN
 62
     7
370
     0
100
AcDbLine
 10
82.1078573328
 20
118.1959455482
 30
0.0
 11
81.4173570809
 21
118.5946056269
 31
0.0
  0
LINE
  5
2BE
330
1F
100
AcDbEntity
  8
0
  6
HIDDEN
 62
     7
370
     0
100
AcDbLine
 10
74.7983572048
 20
118.5946056269
 30
0.0
 11
74.1078569529
 21
118.1959455482
 31
0.0
  0
LINE
  5
2BF
330
1F
100
AcDbEntity
  8
0
  6
HIDDEN
 62
     7
370
     0
100
AcDbLine
 10
70.7253944104
 20
98.4621426672
 30
0.0
 11
71.9753946153
 21
99.712142872
 31
0.0
  0
LINE
  5
2C0
330
1F
100
AcDbEntity
  8
0
  6
HIDDEN
 62
     7
370
     0
100
AcDbLine
 10
71.9753946153
 20
105.2121428422
 30
0.0
 11
70.7253944104
 21
106.4621430471
 31
0.0
  0
LINE
  5
2C1
330
1F
100
AcDbEntity
  8
0
  6
HIDDEN
 62
     7
370
     0
100
AcDbLine
 10
62.3740544518
 20
98.4621426672
 30
0.0
 11
70.7253944104
 21
98.4621426672
 31
0.0
  0
LINE
  5
2C2
330
1F
100
AcDbEntity
  8
0
  6
HIDDEN
 62
     7
370
     0
100
AcDbLine
 10
70.7253944104
 20
106.4621430471
 30
0.0
 11
62.3740544518
 21
106.4621430471
 31
0.0
  0
LINE
  5
2C3
330
1F
100
AcDbEntity
  8
0
  6
HIDDEN
 62
     7
370
     0
100
AcDbLine
 10
62.3740544518
 20
106.4621430471
 30
0.0
 11
61.9753943731
 21
105.7716427952
 31
0.0
  0
LINE
  5
2C4
330
1F
100
AcDbEntity
  8
0
  6
HIDDEN
 62
     7
370
     0
100
AcDbLine
 10
61.9753943731
 20
99.1526429191
 30
0.0
 11
62.3740544518
 21
98.4621426672
 31
0.0
  0
LINE
  5
2C5
330
1F
100
AcDbEntity
  8
0
  6
HIDDEN
 62
     7
370
     0
100
AcDbLine
 10
93.841659834
 20
98.4621426672
 30
0.0
 11
94.2403199126
 21
99.1526429191
 31
0.0
  0
LINE
  5
2C6
330
1F
100
AcDbEntity
  8
0
  6
HIDDEN
 62
     7
370
     0
100
AcDbLine
 10
94.2403199126
 20
105.7716427952
 30
0.0
 11
93.841659834
 21
106.4621430471
 31
0.0
  0
LINE
  5
2C7
330
1F
100
AcDbEntity
  8
0
  6
HIDDEN
 62
     7
370
     0
100
AcDbLine
 10
93.841659834
 20
106.4621430471
 30
0.0
 11
85.4903198754
 21
106.4621430471
 31
0.0
  0
LINE
  5
2C8
330
1F
100
AcDbEntity
  8
0
  6
HIDDEN
 62
     7
370
     0
100
AcDbLine
 10
85.4903198754
 20
98.4621426672
 30
0.0
 11
93.841659834
 21
98.4621426672
 31
0.0
  0
LINE
  5
2C9
330
1F
100
AcDbEntity
  8
0
  6
HIDDEN
 62
     7
370
     0
100
AcDbLine
 10
85.4903198754
 20
106.4621430471
 30
0.0
 11
84.2403196705
 21
105.2121428422
 31
0.0
  0
LINE
  5
2CA
330
1F
100
AcDbEntity
  8
0
  6
HIDDEN
 62
     7
370
     0
100
AcDbLine
 10
84.2403196705
 20
99.712142872
 30
0.0
 11
85.4903198754
 21
98.4621426672
 31
0.0
  0
LINE
  5
2CB
330
1F
100
AcDbEntity
  8
0
  6
HIDDEN
 62
     7
370
     0
100
AcDbLine
 10
94.7436625113
 20
105.9621429652
 30
0.0
 11
81.6078572509
 21
105.9621429652
 31
0.0
  0
LINE
  5
2CC
330
1F
100
AcDbEntity
  8
0
  6
HIDDEN
 62
     7
370
     0
100
AcDbLine
 10
80.0727151775
 20
98.9621427491
 30
0.0
 11
94.7456723054
 21
98.9621427491
 31
0.0
  0
LINE
  5
2CD
330
1F
100
AcDbEntity
  8
0
  6
HIDDEN
 62
     7
370
     0
100
AcDbLine
 10
74.6078570348
 20
119.0979482256
 30
0.0
 11
74.6078570348
 21
105.9621429652
 31
0.0
  0
LINE
  5
2CE
330
1F
100
AcDbEntity
  8
0
  6
HIDDEN
 62
     7
370
     0
100
AcDbLine
 10
81.6078572509
 20
105.9621429652
 30
0.0
 11
81.6078572509
 21
119.0999580197
 31
0.0
  0
LINE
  5
2CF
330
1F
100
AcDbEntity
  8
0
  6
HIDDEN
 62
     7
370
     0
100
AcDbLine
 10
61.4720517744
 20
98.9621427491
 30
0.0
 11
76.1713654476
 21
98.9621427491
 31
0.0
  0
LINE
  5
2D0
330
1F
100
AcDbEntity
  8
0
  6
HIDDEN
 62
     7
370
     0
100
AcDbLine
 10
74.6078570348
 20
105.9621429652
 30
0.0
 11
61.4700419803
 21
105.9621429652
 31
0.0
  0
LINE
  5
2D1
330
1F
100
AcDbEntity
  8
0
  6
HIDDEN
 62
     7
370
     0
100
AcDbLine
 10
94.7460653235
 20
105.9621429652
 30
0.0
 11
94.7436625113
 21
105.9621429652
 31
0.0
  0
LINE
  5
2D2
330
1F
100
AcDbEntity
  8
0
  6
HIDDEN
 62
     7
370
     0
100
AcDbLine
 10
80.0727151775
 20
98.9621427491
 30
0.0
 11
94.7450557699
 21
98.9621427491
 31
0.0
  0
LINE
  5
2D3
330
1F
100
AcDbEntity
  8
0
  6
HIDDEN
 62
     7
370
     0
100
AcDbLine
 10
74.6078570348
 20
119.1003510378
 30
0.0
 11
74.6078570348
 21
119.0979482256
 31
0.0
  0
LINE
  5
2D4
330
1F
100
AcDbEntity
  8
0
  6
HIDDEN
 62
     7
370
     0
100
AcDbLine
 10
81.6078572509
 20
105.9621429652
 30
0.0
 11
81.6078572509
 21
119.0993414841
 31
0.0
  0
LINE
  5
2D5
330
1F
100
AcDbEntity
  8
0
  6
HIDDEN
 62
     7
370
     0
100
AcDbLine
 10
61.4696489622
 20
98.9621427491
 30
0.0
 11
61.4720517744
 21
98.9621427491
 31
0.0
  0
LINE
  5
2D6
330
1F
100
AcDbEntity
  8
0
  6
HIDDEN
 62
     7
370
     0
100
AcDbLine
 10
74.6078570348
 20
105.9621429652
 30
0.0
 11
61.4706585159
 21
105.9621429652
 31
0.0
  0
LINE
  5
2D7
330
1F
100
AcDbEntity
  8
0
  6
HIDDEN
 62
     7
370
     0
100
AcDbLine
 10
94.2323720058
 20
105.9621429652
 30
0.0
 11
81.6078572509
 21
105.9621429652
 31
0.0
  0
LINE
  5
2D8
330
1F
100
AcDbEntity
  8
0
  6
HIDDEN
 62
     7
370
     0
100
AcDbLine
 10
80.0727151775
 20
98.9621427491
 30
0.0
 11
94.234402289
 21
98.9621427491
 31
0.0
  0
LINE
  5
2D9
330
1F
100
AcDbEntity
  8
0
  6
HIDDEN
 62
     7
370
     0
100
AcDbLine
 10
74.6078570348
 20
118.58665772
 30
0.0
 11
74.6078570348
 21
105.9621429652
 31
0.0
  0
LINE
  5
2DA
330
1F
100
AcDbEntity
  8
0
  6
HIDDEN
 62
     7
370
     0
100
AcDbLine
 10
81.6078572509
 20
105.9621429652
 30
0.0
 11
81.6078572509
 21
118.5886880033
 31
0.0
  0
LINE
  5
2DB
330
1F
100
AcDbEntity
  8
0
  6
HIDDEN
 62
     7
370
     0
100
AcDbLine
 10
61.98334228
 20
98.9621427491
 30
0.0
 11
76.1713654476
 21
98.9621427491
 31
0.0
  0
LINE
  5
2DC
330
1F
100
AcDbEntity
  8
0
  6
HIDDEN
 62
     7
370
     0
100
AcDbLine
 10
74.6078570348
 20
105.9621429652
 30
0.0
 11
61.9813119967
 21
105.9621429652
 31
0.0
  0
INSERT
  5
2E8
330
1F
100
AcDbEntity
  8
VERMASSUNG
100
AcDbBlockReference
  2
SW_CENTERMARKSYMBOL_0
 10
78.1078571429
 20
102.4621428571
 30
0.0
  0
OLE2FRAME
  5
2E9
330
1F
100
AcDbEntity
  8
0
100
AcDbOle2Frame
 70
     2
  3
Paintbrush-Bild
 10
13.8511154363
 20
38.264191557
 30
0.0
 11
51.6290888628
 21
31.9806341108
 31
0.0
 71
     2
 72
     0
 73
     1
 90
    12928
310
80552BED0767C5B32B40DDAF6807D121434000000000000000006FFBDDFB85D0
310
4940DDAF6807D121434000000000000000006FFBDDFB85D04940416F4BD60AFB
310
3F4000000000000000002BED0767C5B32B40416F4BD60AFB3F40000000000000
310
0000000000000100000000010000010000000100000000000100000000320000
310
D0CF11E0A1B11AE1000000000000000000000000000000003E000300FEFF0900
310
0600000000000000000000000100000001000000000000000010000002000000
310
01000000FEFFFFFF0000000000000000FFFFFFFFFFFFFFFFFFFFFFFFFFFFFFFF
310
FFFFFFFFFFFFFFFFFFFFFFFFFFFFFFFFFFFFFFFFFFFFFFFFFFFFFFFFFFFFFFFF
310
FFFFFFFFFFFFFFFFFFFFFFFFFFFFFFFFFFFFFFFFFFFFFFFFFFFFFFFFFFFFFFFF
310
FFFFFFFFFFFFFFFFFFFFFFFFFFFFFFFFFFFFFFFFFFFFFFFFFFFFFFFFFFFFFFFF
310
FFFFFFFFFFFFFFFFFFFFFFFFFFFFFFFFFFFFFFFFFFFFFFFFFFFFFFFFFFFFFFFF
310
FFFFFFFFFFFFFFFFFFFFFFFFFFFFFFFFFFFFFFFFFFFFFFFFFFFFFFFFFFFFFFFF
310
FFFFFFFFFFFFFFFFFFFFFFFFFFFFFFFFFFFFFFFFFFFFFFFFFFFFFFFFFFFFFFFF
310
FFFFFFFFFFFFFFFFFFFFFFFFFFFFFFFFFFFFFFFFFFFFFFFFFFFFFFFFFFFFFFFF
310
FFFFFFFFFFFFFFFFFFFFFFFFFFFFFFFFFFFFFFFFFFFFFFFFFFFFFFFFFFFFFFFF
310
FFFFFFFFFFFFFFFFFFFFFFFFFFFFFFFFFFFFFFFFFFFFFFFFFFFFFFFFFFFFFFFF
310
FFFFFFFFFFFFFFFFFFFFFFFFFFFFFFFFFFFFFFFFFFFFFFFFFFFFFFFFFFFFFFFF
310
FFFFFFFFFFFFFFFFFFFFFFFFFFFFFFFFFFFFFFFFFFFFFFFFFFFFFFFFFFFFFFFF
310
FFFFFFFFFFFFFFFFFFFFFFFFFFFFFFFFFFFFFFFFFFFFFFFFFFFFFFFFFFFFFFFF
310
FFFFFFFFFFFFFFFFFFFFFFFFFFFFFFFFFFFFFFFFFFFFFFFFFFFFFFFFFFFFFFFF
310
FDFFFFFFFEFFFFFFFEFFFFFFFEFFFFFF05000000060000000700000008000000
310
090000000A0000000B0000000C0000000D0000000E0000000F00000010000000
310
11000000120000001300000014000000150000001600000017000000FEFFFFFF
310
FFFFFFFFFFFFFFFFFFFFFFFFFFFFFFFFFFFFFFFFFFFFFFFFFFFFFFFFFFFFFFFF
310
FFFFFFFFFFFFFFFFFFFFFFFFFFFFFFFFFFFFFFFFFFFFFFFFFFFFFFFFFFFFFFFF
310
FFFFFFFFFFFFFFFFFFFFFFFFFFFFFFFFFFFFFFFFFFFFFFFFFFFFFFFFFFFFFFFF
310
FFFFFFFFFFFFFFFFFFFFFFFFFFFFFFFFFFFFFFFFFFFFFFFFFFFFFFFFFFFFFFFF
310
FFFFFFFFFFFFFFFFFFFFFFFFFFFFFFFFFFFFFFFFFFFFFFFFFFFFFFFFFFFFFFFF
310
FFFFFFFFFFFFFFFFFFFFFFFFFFFFFFFFFFFFFFFFFFFFFFFFFFFFFFFFFFFFFFFF
310
FFFFFFFFFFFFFFFFFFFFFFFFFFFFFFFFFFFFFFFFFFFFFFFFFFFFFFFFFFFFFFFF
310
FFFFFFFFFFFFFFFFFFFFFFFFFFFFFFFFFFFFFFFFFFFFFFFFFFFFFFFFFFFFFFFF
310
FFFFFFFFFFFFFFFFFFFFFFFFFFFFFFFFFFFFFFFFFFFFFFFFFFFFFFFFFFFFFFFF
310
FFFFFFFFFFFFFFFFFFFFFFFFFFFFFFFFFFFFFFFFFFFFFFFFFFFFFFFFFFFFFFFF
310
FFFFFFFFFFFFFFFFFFFFFFFFFFFFFFFFFFFFFFFFFFFFFFFFFFFFFFFFFFFFFFFF
310
FFFFFFFFFFFFFFFFFFFFFFFFFFFFFFFFFFFFFFFFFFFFFFFFFFFFFFFFFFFFFFFF
310
FFFFFFFFFFFFFFFFFFFFFFFFFFFFFFFFFFFFFFFFFFFFFFFFFFFFFFFFFFFFFFFF
310
52006F006F007400200045006E00740072007900000000000000000000000000
310
0000000000000000000000000000000000000000000000000000000000000000
310
16000500FFFFFFFFFFFFFFFF020000000A00030000000000C000000000000046
310
000000000000000000000000607C097F361DCD0103000000C000000000000000
310
01004F006C006500000000000000000000000000000000000000000000000000
310
0000000000000000000000000000000000000000000000000000000000000000
310
0A000200FFFFFFFFFFFFFFFFFFFFFFFF00000000000000000000000000000000
310
0000000000000000000000000000000000000000000000001400000000000000
310
010043006F006D0070004F0062006A0000000000000000000000000000000000
310
0000000000000000000000000000000000000000000000000000000000000000
310
120002010100000003000000FFFFFFFF00000000000000000000000000000000
310
0000000000000000000000000000000000000000010000004D00000000000000
310
01004F006C006500310030004E00610074006900760065000000000000000000
310
0000000000000000000000000000000000000000000000000000000000000000
310
1A000200FFFFFFFFFFFFFFFFFFFFFFFF00000000000000000000000000000000
310
0000000000000000000000000000000000000000040000002426000000000000
310
FEFFFFFF02000000FEFFFFFFFFFFFFFFFFFFFFFFFFFFFFFFFFFFFFFFFFFFFFFF
310
FFFFFFFFFFFFFFFFFFFFFFFFFFFFFFFFFFFFFFFFFFFFFFFFFFFFFFFFFFFFFFFF
310
FFFFFFFFFFFFFFFFFFFFFFFFFFFFFFFFFFFFFFFFFFFFFFFFFFFFFFFFFFFFFFFF
310
FFFFFFFFFFFFFFFFFFFFFFFFFFFFFFFFFFFFFFFFFFFFFFFFFFFFFFFFFFFFFFFF
310
FFFFFFFFFFFFFFFFFFFFFFFFFFFFFFFFFFFFFFFFFFFFFFFFFFFFFFFFFFFFFFFF
310
FFFFFFFFFFFFFFFFFFFFFFFFFFFFFFFFFFFFFFFFFFFFFFFFFFFFFFFFFFFFFFFF
310
FFFFFFFFFFFFFFFFFFFFFFFFFFFFFFFFFFFFFFFFFFFFFFFFFFFFFFFFFFFFFFFF
310
FFFFFFFFFFFFFFFFFFFFFFFFFFFFFFFFFFFFFFFFFFFFFFFFFFFFFFFFFFFFFFFF
310
FFFFFFFFFFFFFFFFFFFFFFFFFFFFFFFFFFFFFFFFFFFFFFFFFFFFFFFFFFFFFFFF
310
FFFFFFFFFFFFFFFFFFFFFFFFFFFFFFFFFFFFFFFFFFFFFFFFFFFFFFFFFFFFFFFF
310
FFFFFFFFFFFFFFFFFFFFFFFFFFFFFFFFFFFFFFFFFFFFFFFFFFFFFFFFFFFFFFFF
310
FFFFFFFFFFFFFFFFFFFFFFFFFFFFFFFFFFFFFFFFFFFFFFFFFFFFFFFFFFFFFFFF
310
FFFFFFFFFFFFFFFFFFFFFFFFFFFFFFFFFFFFFFFFFFFFFFFFFFFFFFFFFFFFFFFF
310
FFFFFFFFFFFFFFFFFFFFFFFFFFFFFFFFFFFFFFFFFFFFFFFFFFFFFFFFFFFFFFFF
310
FFFFFFFFFFFFFFFFFFFFFFFFFFFFFFFFFFFFFFFFFFFFFFFFFFFFFFFFFFFFFFFF
310
FFFFFFFFFFFFFFFFFFFFFFFFFFFFFFFFFFFFFFFFFFFFFFFFFFFFFFFFFFFFFFFF
310
0100000200000000000000000000000000000000000000000000000000000000
310
0000000000000000000000000000000000000000000000000000000000000000
310
0100FEFF030A0000FFFFFFFF0A00030000000000C00000000000004607000000
310
5042727573680007000000504272757368000700000050427275736800F439B2
310
7100000000000000000000000000000000000000000000000000000000000000
310
0000000000000000000000000000000000000000000000000000000000000000
310
0000000000000000000000000000000000000000000000000000000000000000
310
0000000000000000000000000000000000000000000000000000000000000000
310
0000000000000000000000000000000000000000000000000000000000000000
310
0000000000000000000000000000000000000000000000000000000000000000
310
0000000000000000000000000000000000000000000000000000000000000000
310
0000000000000000000000000000000000000000000000000000000000000000
310
0000000000000000000000000000000000000000000000000000000000000000
310
0000000000000000000000000000000000000000000000000000000000000000
310
0000000000000000000000000000000000000000000000000000000000000000
310
0000000000000000000000000000000000000000000000000000000000000000
310
20260000424D0E260000000000003E00000028000000B40200006E0000000100
310
01000000000000000000130B0000130B00000200000002000000000000FFFFFF
310
FFFFFFFFFFFFFFFFFFFFFFFFFFFFFFFFFFFFFFFFFFFFFFFFFFFFFFFFFFFFFFFF
310
FFFFFFFFFFFFFFFFFFFFFFFFFFFFFFFFFFFFFFFFFFFFFFFFFFFFFFFFFFFFFFFF
310
FFFFFFFFFFFFFFFFFFFFFFFFFFFFFFFFFFFFFFFFFFFFFFFFF000FFFFFFFFFFFF
310
FFFFFFFFFFFFFFFFFFFFFFFFFFFFFFFFFFFFFFFFFFFFFFFFFFFFFFFFFFFFFFFF
310
FFFFFFFFFFFFFFFFFFFFFFFFFFFFFFFFFFFFFFFFFFFFFFFFFFFFFFFFFFFFFFFF
310
FFFFFFFFFFFFFFFFFFFFFFFFFFFFFFFFF000FFFFFFFFFFFFFFFFFFFFFFFFFFFF
310
FFFFFFFFFFFFFFFFFFFFFFFFFFFFFFFFFFFFFFFFFFFFFFFFFFFFFFFFFFFFFFFF
310
FFFFFFFFFFFFFFFFFFFFFFFFFFFFFFFFFFFFFFFFFFFFFFFFFFFFFFFFFFFFFFFF
310
FFFFFFFFFFFFFFFFF000FFFFFFFFFFFFFFFFFFFFFFFFFFFFFFFFFFFFFFFFFFFF
310
FFFFFFFFFFFFFFFFFFFFFFFFFFFFFFFFFFFFFFFFFFFFFFFFFFFFFFFFFFFFFFFF
310
FFFFFFFFFFFFFFFFFFFFFFFFFFFFFFFFFFFFFFFFFFFFFFFFFFFFFFFFFFFFFFFF
310
F000FFFFFFFFFFFFFFFFFFFFFFFFFFFFFFFFFFFFFFFFFFFFFFFFFFFFFFFFFFFF
310
FFFFFFFFFFFFFFFFFFFFFFFFFFFFFFFFFFFFFFFFFFFFFFFFFFFFFFFFFFFFFFFF
310
FFFFFFFFFFFFFFFFFFFFFFFFFFFFFFFFFFFFFFFFFFFFFFFFF000FFFFFFFFFFFF
310
FFFFFFFFFFFFFFFFFFFFFFFFFFFFFFFFFFFFFFFFFFFFFFFFFFFFFFFFFFFFFFFF
310
FFFFFFFFFFFFFFFFFFFFFFFFFFFFFFFFFFFFFFFFFFFFFFFFFFFFFFFFFFFFFFFF
310
FFFFFFFFFFFFFFFFFFFFFFFFFFFFFFFFF000FFFFFFFFFFFFFFFFFFFFFFFFFFFF
310
FFFFFFFFFFFFFFFFFFFFFFFFFFFFFFFFFFFFFFFFFFFFFFFFFFFFFFFFFFFFFFFF
310
FFFFFFFFFFFFFFFFFFFFFFFFFFFFFFFFFFFFFFFFFFFFFFFFFFFFFFFFFFFFFFFF
310
FFFFFFFFFFFFFFFFF000FFFFFFFFFFFFFFFFFFFFFFFFFFFFFFFFFFFFFFFFFFFF
310
FFFFFFFFFFFFFFFFFFFFFFFFFFFFFFFFFFFFFFFFFFFFFFFFFFFFFFFFFFFFFFFF
310
FFFFFFFFFFFFFFFFFFFFFFFFFFFFFFFFFFFFFFFFFFFFFFFFFFFFFFFFFFFFFFFF
310
F000FFFFFFFFFFFFFFFFFFFFFFFFFFFFFFFFFFFFFFFFFFFFFFFFFFFFFFFFFFFF
310
FFFFFFFFFFFFFFFFFFFFFFFFFFFFFFFFFFFFFFFFFFFFFFFFFFFFFFFFFFFFFFFF
310
FFFFFFFFFFFFFFFFFFFFFFFFFFFFFFFFFFFFFFFFFFFFFFFFF000FFFFFFFFFFFF
310
FFFFFFFFFFFFFFFFFFFFFFFFFFFFFFFFFFFFFFFFFFFFFFFFFFFFFFFFFFFFFFFF
310
FFFFFFFFFFFFFFFFFFFFFFFFFFFFFFFFFFFFFFFFFFFFFFFFFFFFFFFFFFFFFFFF
310
FFFFFFFFFFFFFFFFFFFFFFFFFFFFFFFFF000FFFFFFFFFFFFFFFFFFFFFFFFFFFF
310
FFFFFFFFFFFFFFFFFFFFFFFFFFFFFFFFFFFFFFFFFFFFFFFFFFFFFFFFFFFFFFFF
310
FFFFFFFFFFFFFFFFFFFFFFFFFFFFFFFFFFFFFFFFFFFFFFFFFFFFFFFFFFFFFFFF
310
FFFFFFFFFFFFFFFFF000FFFFFFFFFFFFFFFFFFFFFFFFFFFFFFFFFFFFFFFFFFFF
310
FFFFFFFFFFFFFFFFFFFFFFFFFFFFFFFFFFFFFFFFFFFFFFFFFFFFFFFFFFFFFFFF
310
FFFFFFFFFFFFFFFFFFFFFFFFFFFFFFFFFFFFFFFFFFFFFFFFFFFFFFFFFFFFFFFF
310
F000FFFFFFFFFFFFFFFFFFFFFFFFFFFFFFFFFFFFFFFFFFFFFFFFFFFFFFFFFFFF
310
FFFFFFFFFFFFFFFFFFFFFFFFFFFFFFFFFFFFFFFFFFFFFFFFFFFFFFFFFFFFFFFF
310
FFFFFFFFFFFFFFFFFFFFFFFFFFFFFFFFFFFFFFFFFFFFFFFFF000FFFFFFFFFFFF
310
FFFFFFFFFFFFFFFFFFFFFFFFFFFFFFFFFFFFFFFFFFFFFFFFFFFFFFFFFFFFFFFF
310
FFFFFFFFFFFFFFFFFFFFFFFFFFFFFFFFFFFFFFFFFFFFFFFFFFFFFFFFFFFFFFFF
310
FFFFFFFFFFFFFFFFFFFFFFFFFFFFFFFFF000FFFFFFFFFFFFFFFFFFFFFFFFFFFF
310
FFFFFFFFFFFFFFFFFFFFFFFFFFFFFFFFFFFFFFFFFFFFFFFFFFFFFFFFFFFFFFFF
310
FFFFFFFFFFFFFFFFFFFFFFFFFFFFFFFFFFFFFFFFFFFFFFFFFFFFFFFFFFFFFFFF
310
FFFFFFFFFFFFFFFFF000FFFFFFFFFFFFFFFFFFFFFFFFFFFFFFFFFFFFFFFFFFFF
310
FFFFFFFFFFFFFFFFFFFFFFFFFFFFFFFFFFFFFFFFFFFFFFFFFFFFFFFFFFFFFFFF
310
FFFFFFFFFFFFFFFFFFFFFFFFFFFFFFFFFFFFFFFFFFFFFFFFFFFFFFFFFFFFFFFF
310
F000FFFFFFFFFFFFFFFFFFFFFFFFFFFFFFFFFFFFFFFFFFFFFFFFFFFFFFFFFFFF
310
FFFFFFFFFFFFFFFFFFFFFFFFFFFFFFFFFFFFFFFFFFFFFFFFFFFFFFFFFFFFFFFF
310
FFFFFFFFFFFFFFFFFFFFFFFFFFFFFFFFFFFFFFFFFFFFFFFFF000FFFFFFFFFFFF
310
FFFFFFFFFFFFFFFFFFFFFFFFFFFFFFFFFFFFFFFFFFFFFFFFFFFFFFFFFFFFFFFF
310
FFFFFFFFFFFFFFFFFFFFFFFFFFFFFFFFFFFFFFFFFFFFFFFFFFFFFFFFFFFFFFFF
310
FFFFFFFFFFFFFFFFFFFFFFFFFFFFFFFFF000FFFFFFFFFFFFFFFFFFFFFFFFFFFF
310
FFFFFFFFFFFFFFFFFFFFFFFFFFFFFFFFFFFFFFFFFFFFFFFFFFFFFFFFFFFFFFFF
310
FFFFFFFFFFFFFFFFFFFFFFFFFFFFFFFFFFFFFFFFFFFFFFFFFFFFFFFFFFFFFFFF
310
FFFFFFFFFFFFFFFFF000FFFFF80003FFFFFFFFFFFFFFFFFFFFFFFFFFFFFFFFFF
310
FFFFF00007FFFFFFFFFF00007FFFFFF800000000000000007FFFFFFFFFFFFFFF
310
FFFFFFFC001FFFFFFFFFFFFFFC001FFFFFFFFFFFFFFFFFFFFFFFFFFE0007FFFF
310
F000FFFF8000007FFFFFFFF8000FFFFFC0007FFFFF80007FFFFF0000007FFFFF
310
FFF8000007FFFFF800000000000000007FFFFFF0001FFFFFFFFFFFC00001FFFF
310
FFFFFFFFC00001FFFFFFFF000000000003FFFFE000007FFFF000FFFE0000000F
310
FFFFFFF0000FFFFF80007FFFFF80007FFFFC0000001FFFFFFFC0000001FFFFF8
310
00000000000000007FFFFFF0001FFFFFFFFFFE0000003FFFFFFFFFFE0000003F
310
FFFFFF000000000003FFFF0000000FFFF000FFF800000003FFFFFFF00007FFFF
310
80007FFFFF80007FFFF000000007FFFFFF000000003FFFF80000000000000000
310
7FFFFFF0001FFFFFFFFFF80000000FFFFFFFFFF80000000FFFFFFF0000000000
310
03FFFC00000003FFF000FFE000000000FFFFFFF00007FFFF80003FFFFF80007F
310
FFC000000001FFFFFC000000001FFFF800000000000000007FFFFFF0001FFFFF
310
FFFFE000000003FFFFFFFFE000000003FFFFFF000000000003FFF000000000FF
310
F000FF80000000007FFFFFF00007FFFF80003FFFFF80007FFF8000000000FFFF
310
F80000000007FFF800000000000000007FFFFFF0001FFFFFFFFFC000000001FF
310
FFFFFFC000000001FFFFFF000000000003FFC0000000007FF000FF0000000000
310
3FFFFFE00007FFFF00003FFFFF80007FFE00000000003FFFF00000000003FFF8
310
00000000000000007FFFFFF0001FFFFFFFFF8000000000FFFFFFFF8000000000
310
FFFFFF000000000003FF80000000003FF000FE00000000001FFFFFE00003FFFF
310
00003FFFFF80007FFC00000000001FFFE00000000001FFF8000001FFFE000000
310
7FFFFFF0001FFFFFFFFE00000000003FFFFFFE00000000003FFFFF0000000000
310
03FF00000000001FF000FC00000000000FFFFFE00003FFFF00001FFFFF80007F
310
F800000000001FFFC00000000000FFF8000001FFFE0000007FFFFFF0001FFFFF
310
FFFC00000000001FFFFFFC00000000001FFFFF000000000003FE00000000000F
310
F000F8000000000007FFFFE00003FFFF00001FFFFF80007FF800000000000FFF
310
800000000000FFF8000001FFFE0000007FFFFFF0001FFFFFFFF800000000000F
310
FFFFF800000000000FFFFF000000000003FC000000000007F000F80000000000
310
03FFFFC00003FFFE00001FFFFF80007FF0000000000007FF0000000000007FF8
310
000001FFFE0000007FFFFFF0001FFFFFFFF0000000000007FFFFF00000000000
310
07FFFF000000000003F8000000000003F000F0000000000003FFFFC00001FFFE
310
00001FFFFF80007FE0000000000007FE0000000000003FF8000001FFFE000000
310
7FFFFFF0001FFFFFFFF0000000000007FFFFF0000000000007FFFF0000000000
310
03F800001F800003F000E00001FFF00001FFFFC00001FFFE00000FFFFF80007F
310
E00001FFE00003FE00001FFF00003FF8000001FFFE0000007FFFFFF0001FFFFF
310
FFE000003E000003FFFFE000003E000003FFFF000000000003F00001FFF80001
310
F000E00007FFFC0001FFFFC00001FFFE00000FFFFF80007FC0000FFFFC0003FC
310
0000FFFFC0001FF8000001FFFE0000007FFFFFF0001FFFFFFFC00003FFE00001
310
FFFFC00003FFE00001FFFF0001FFFFFFFFF00007FFFE0001F000E0000FFFFF00
310
00FFFF800001FFFC00000FFFFF80007FC0001FFFFE0001FC0001FFFFE0001FF8
310
000001FFFE0000007FFFFFF0001FFFFFFF80000FFFF80000FFFF80000FFFF800
310
00FFFF0003FFFFFFFFE0000FFFFF8000F000C0003FFFFF8000FFFF800000FFFC
310
000007FFFF80007F80003FFFFF0001FC0003FFFFF0001FF8000001FFFE000000
310
7FFFFFF0001FFFFFFF80003FFFFE0000FFFF80003FFFFE0000FFFF0003FFFFFF
310
FFE0003FFFFF8000F000C0003FFFFF8000FFFF800000FFFC000007FFFF80007F
310
80007FFFFF8001F80007FFFFF8000FF8000001FFFE0000007FFFFFF0001FFFFF
310
FF00007FFFFF00007FFF00007FFFFF00007FFF0003FFFFFFFFE0003FFFFFC000
310
F000C0007FFFFFC000FFFF000000FFFC000007FFFF80007F8000FFFFFF8000F8
310
000FFFFFF8000FF8000001FFFE0000007FFFFFF0001FFFFFFF0000FFFFFF8000
310
7FFF0000FFFFFF80007FFF0003FFFFFFFFC0007FFFFFC00070008000FFFFFFC0
310
00FFFF000000FFF8000007FFFF80007F8000FFFFFF8000F8000FFFFFF8000FF8
310
000001FFFE0000007FFFFFF0001FFFFFFE0001FFFFFFC0003FFE0001FFFFFFC0
310
003FFF0003FFFFFFFFC0007FFFFFE00070008000FFFFFFC0007FFF0000007FF8
310
000003FFFF80007F0001FFFFFF8000F8000FFFFFF8000FF8000001FFFE000000
310
7FFFFFF0001FFFFFFE0001FFFFFFC0003FFE0001FFFFFFC0003FFF0003FFFFFF
310
FFC000FFFFFFE00070008000FFFFFFC0007FFF0000007FF8000003FFFF80007F
310
0001FFFFFF8000F8001FFFFFF8000FF8000001FFFE0000007FFFFFF0001FFFFF
310
FE0003FFFFFFE0003FFE0003FFFFFFE0003FFF0003FFFFFFFFC000FFFFFFE000
310
70008000FFFFFFC0007FFE0000007FF8000003FFFF80007F0001FFFFFF8000F0
310
001FFFFFF8000FF8000001FFFE0000007FFFFFF0001FFFFFFC0003FFFFFFE000
310
1FFC0003FFFFFFE0001FFF0003FFFFFFFFC000FFFFFFC00070008000FFFFFF80
310
007FFE0000007FF0000003FFFF80007F0001FFFFFF0000F0001FFFFFF8000FF8
310
000001FFFE0000007FFFFFF0001FFFFFFC0007FFFFFFF0001FFC0007FFFFFFF0
310
001FFF0003FFFFFFFFC000FFFFFFC00070008001FFFFFF0000FFFE0000003FF0
310
000001FFFF80007F0001FFFFFF0000F8001FFFFFF0000FF8000001FFFE000000
310
7FFFFFF0001FFFFFFC0007FFFFFFF0001FFC0007FFFFFFF0001FFF0003FFFFFF
310
FFC001FFFFFF80007000FFFFFFFFFE0000FFFE0008003FF0008001FFFF80007F
310
FFFFFFFFFC0000FFFFFFFFFFE0000FF8000001FFFE0000007FFFFFF0001FFFFF
310
F8000FFFFFFFF8000FF8000FFFFFFFF8000FFF0003FFFFFFFFFFFFFFFFFF0000
310
7000FFFFFFFFFC0000FFFC0008003FF0008001FFFF80007FFFFFFFFFF80001FF
310
FFFFFFFF80000FF8000001FFFE0000007FFFFFF0001FFFFFF8000FFFFFFFF800
310
0FF8000FFFFFFFF8000FFF0003FFFFFFFFFFFFFFFFFE0000F000FFFFFFFFE000
310
00FFFC000C003FE000C001FFFF80007FFFFFFFFFC00001FFFFFFFFFE00001FF8
310
000001FFFE0000007FFFFFF0001FFFFFF8000FFFFFFFF8000FF8000FFFFFFFF8
310
000FFF0003FFFFFFFFFFFFFFFFF00000F000FFFFFFFE000001FFFC000C001FE0
310
00C000FFFF80007FFFFFFFFE000001FFFFFFFFE000001FF80FFFFFFFFFFFFFC0
310
7FFFFFF0001FFFFFF8000FFFFFFFF8000FF8000FFFFFFFF8000FFF0003FFFFFF
310
FFFFFFFFFF800000F000FFFFFFC0000001FFFC001C001FE001C000FFFF80007F
310
FFFFFF80000003FFFFFFF80000001FF80FFFFFFFFFFFFFC07FFFFFF0001FFFFF
310
F8001FFFFFFFFC000FF8001FFFFFFFFC000FFF0003FFFFFFFFFFFFFFF0000001
310
F000FFFFF800000001FFF8001C001FE001C000FFFF80007FFFFFF800000003FF
310
FFFF800000003FF80FFFFFFFFFFFFFC07FFFFFF0001FFFFFF8001FFFFFFFFC00
310
0FF8001FFFFFFFFC000FFF0003FFFFFFFFFFFFFE00000001F000FFFFC0000000
310
03FFF8001E001FC001E000FFFF80007FFFFF8000000007FFFFFC000000003FF8
310
0FFFFFFFFFFFFFC07FFFFFF0001FFFFFF8001FFFFFFFFC000FF8001FFFFFFFFC
310
000FFF0003FFFFFFFFFFFFE000000003F000FFFE0000000007FFF8001E000FC0
310
01E0007FFF80007FFFFE0000000007FFFFE0000000007FF80FFFFFFFFFFFFFC0
310
7FFFFFF0001FFFFFF0001FFFFFFFFC0007F0001FFFFFFFFC0007FF0003FFFFFF
310
FFFFFF0000000003F000FFF80000000007FFF8001E000FC003E0007FFF80007F
310
FFF0000000000FFFFF8000000000FFF80FFFFFFFFFFFFFC07FFFFFF0001FFFFF
310
F0001FFFFFFFFC0007F0001FFFFFFFFC0007FF0003FFFFFFFFFFFC0000000007
310
F000FFE0000000000FFFF0003E000FC003E0007FFF80007FFFC0000000001FFF
310
FE0000000001FFF80FFFFFFFFFFFFFC07FFFFFF0001FFFFFF0001FFFFFFFFC00
310
07F0001FFFFFFFFC0007FF0003FFFFFFFFFFF0000000000FF000FFC000000000
310
1FFFF0003F000F8003F0003FFF80007FFF80000000003FFFF80000000003FFF8
310
0FFFFFFFFFFFFFC07FFFFFF0001FFFFFF0001FFFFFFFFC0007F0001FFFFFFFFC
310
0007FF0003FFFFFFFFFFE0000000001FF000FF00000000007FFFF0003F000780
310
03F0003FFF80007FFF00000000007FFFF00000000007FFF80FFFFFFFFFFFFFC0
310
7FFFFFF0001FFFFFF0001FFFFFFFFC0007F0001FFFFFFFFC0007FF0003FFFFFF
310
FFFF80000000007FF000FE0000000000FFFFE0003F00078007F0003FFF80007F
310
FE0000000001FFFFE0000000001FFFF80FFFFFFFFFFFFFC07FFFFFF0001FFFFF
310
F0001FFFFFFFFC0007F0001FFFFFFFFC0007FF0003FFFFFFFFFF0000000000FF
310
F000FC0000000003FFFFE0007F00078007F0003FFF80007FFC0000000007FFFF
310
C0000000007FFFF80FFFFFFFFFFFFFC07FFFFFF0001FFFFFF8001FFFFFFFFC00
310
0FF8001FFFFFFFFC000FFF0003FFFFFFFFFE0000000003FFF000FC000000000F
310
FFFFE0007F80070007F8001FFF80007FF8000000001FFFFF8000000001FFFFF8
310
0FFFFFFFFFFFFFC07FFFFFF0001FFFFFF8001FFFFFFFFC000FF8001FFFFFFFFC
310
000FFF0003FFFFFFFFFC000000000FFFF000F8000000007FFFFFE0007F800700
310
07F8001FFF80007FF000000000FFFFFF800000000FFFFFF80FFFFFFFFFFFFFC0
310
7FFFFFF0001FFFFFF8000FFFFFFFF8000FF8000FFFFFFFF8000FFF0003FFFFFF
310
FFFC000000007FFFF000F800000007FFFFFFC0007F8003000FF8001FFF80007F
310
F000000007FFFFFF000000007FFFFFF80FFFFFFFFFFFFFC07FFFFFF0001FFFFF
310
F8000FFFFFFFF8000FF8000FFFFFFFF8000FFF0003FFFFFFFFF80000000FFFFF
310
F000F0000000FFFFFFFFC000FF8003000FF8001FFF80007FE0000000FFFFFFFF
310
0000000FFFFFFFF8000001FFFE0000007FFFFFF0001FFFFFF8000FFFFFFFF800
310
0FF8000FFFFFFFF8000FFF0003FFFFFFFFF8000000FFFFFFF000F000000FFFFF
310
FFFFC000FFC002000FF8000FFF80007FE000001FFFFFFFFE000001FFFFFFFFF8
310
000001FFFE0000007FFFFFF0001FFFFFF8000FFFFFFFF8000FF8000FFFFFFFF8
310
000FFF0003FFFFFFFFF000001FFFFFFFF000E00000FFFFFFFFFFC000FFC00200
310
0FFC000FFF80007FE00001FFFFFFFFFE00001FFFFFFFFFF8000001FFFE000000
310
7FFFFFF0001FFFFFFC000FFFFFFFF8001FFC000FFFFFFFF8001FFF0003FFFFFF
310
FFF00001FFFFFFFFF000E00007FFFFFFFFFF8000FFC000001FFC000FFF80007F
310
C0000FFFFFFFFFFE0000FFFFFFFFFFF8000001FFFE0000007FFFFFF0001FFFFF
310
FC0007FFFFFFF0001FFC0007FFFFFFF0001FFF0003FFFFFFFFF00007FFFFFFFF
310
F000E0001FFFFFFFFFFF8000FFC000001FFC000FFF80007FC0003FFFFFFFFFFE
310
0001FFFFFFFFFFF8000001FFFE0000007FFFFFF0001FFFFFFC0007FFFFFFF000
310
1FFC0007FFFFFFF0001FFF0003FFFFFFFFF0001FFFFFFFFFF000E0003FFFFF00
310
03FF8001FFE000001FFC0007FF80007FC0007FFFFF0007FC0003FFFFF0003FF8
310
000001FFFE0000007FFFFFF0001FFFFFFC0003FFFFFFE0001FFC0003FFFFFFE0
310
001FFF0003FFFFFFFFF0003FFFFFFFFFF000E0003FFFFF0001FF8001FFE00000
310
1FFE0007FF80007FC0007FFFFE0003FC0007FFFFE0003FF8000001FFFE000000
310
7FFFFFF0001FFFFFFE0003FFFFFFE0003FFE0003FFFFFFE0003FFF0003FFFFFF
310
FFF0003FFFFF8001F000E0003FFFFF0001FF0001FFE000001FFE0007FF80007F
310
C0007FFFFE0003FC0007FFFFE0003FF8000001FFFE0000007FFFFFF0001FFFFF
310
FE0001FFFFFFC0003FFE0001FFFFFFC0003FFF0003FFFFFFFFF0003FFFFF0001
310
F000E0003FFFFF0003FF0001FFE000003FFE0007FF80007FC0007FFFFE0003FC
310
0007FFFFE0003FF8000001FFFE0000007FFFFFF0001FFFFFFF0001FFFFFFC000
310
7FFF0001FFFFFFC0007FFF0003FFFFFFFFF0003FFFFF0001F000E0003FFFFE00
310
03FF0003FFF000003FFE0003FF80007FC0007FFFFC0003FE0007FFFFE0003FF8
310
000001FFFE0000007FFFFFF0001FFFFFFF0000FFFFFF80007FFF0000FFFFFF80
310
007FFF0003FFFFFFFFF0003FFFFF0001F000E0003FFFFE0003FF0003FFF00000
310
3FFF0003FF80007FC0007FFFFC0007FE0007FFFFC0003FF8000001FFFE000000
310
7FFFFFF0001FFFFFFF80007FFFFF0000FFFF80007FFFFF0000FFFF0003FFFFFF
310
FFF0003FFFFF0003F000E0003FFFFC0003FE0003FFF000003FFF0003FF80007F
310
E0003FFFF80007FE0003FFFFC0007FF8000001FFFE0000007FFFFFF0001FFFFF
310
FF80003FFFFE0000FFFF80003FFFFE0000FFFF0003FFFFFFFFF0001FFFFE0003
310
F000F0001FFFF80003FE0003FFF000007FFF0001FF80007FE0003FFFF00007FE
310
0001FFFF80007FF8000001FFFE0000007FFFFFF0001FFFFFFFC0000FFFF80001
310
FFFFC0000FFFF80001FFFF0003FFFFFFFFF0001FFFFC0003F000F0000FFFF000
310
07FE0007FFF800007FFF0001FF80007FE0001FFFE00007FF0000FFFE00007FF8
310
000001FFFE0000007FFFFFF0001FFFFFFFC00003FFE00001FFFFC00003FFE000
310
01FFFF0003FFFFFFFFF8000FFFF80003F000F00003FFC00007FC0007FFF80000
310
7FFF8001FF80007FF00007FF80000FFF00007FF80000FFF8000001FFFE000000
310
7F80000000000001FFE000003E000003FFFFE000003E000003FFFF0003FFFFFF
310
FFF80003FFE00007F000F800000000000FFC0007FFF800007FFF8001FF80007F
310
F000000000000FFF000000000000FFF8000001FFFE0000007F80000000000001
310
FFF0000000000007FFFFF0000000000007FFFF0003FFFFFFFFFC00007E000007
310
F000F800000000000FFC0007FFF80000FFFF8000FF80007FF800000000001FFF
310
800000000001FFF8000001FFFE0000007F80000000000001FFF800000000000F
310
FFFFF800000000000FFFFF0003FFFFFFFFFC00000000000FF000FC0000000000
310
1FFC0007FFFC0000FFFF8000FF80007FF800000000003FFFC00000000001FFF8
310
000001FFFE0000007F80000000000001FFF800000000000FFFFFF80000000000
310
0FFFFF0003FFFFFFFFFE00000000001FF000FE00000000003FF8000FFFFC0000
310
FFFF8000FF80007FFC00000000003FFFC00000000003FFF8000001FFFE000000
310
7F80000000000001FFFC00000000001FFFFFFC00000000001FFFFF0003FFFFFF
310
FFFF00000000001FF000FF00000000003FF8000FFFFC0000FFFFC000FF80007F
310
FE00000000007FFFE00000000007FFF8000001FFFE0000007F80000000000001
310
FFFE00000000003FFFFFFE00000000003FFFFF0003FFFFFFFFFF80000000003F
310
F000FF80000000007FF8000FFFFC0001FFFFC0007F80007FFF0000000000FFFF
310
F0000000000FFFF800000000000000007F80000000000001FFFF8000000000FF
310
FFFFFF8000000000FFFFFF0003FFFFFFFFFFC0000000007FF000FFC000000000
310
FFF8000FFFFE0001FFFFC0007F80007FFF8000000001FFFFF8000000001FFFF8
310
00000000000000007F80000000000001FFFFC000000001FFFFFFFFC000000001
310
FFFFFF0003FFFFFFFFFFE000000000FFF000FFE000000003FFF0001FFFFE0001
310
FFFFC0007F80007FFFC000000007FFFFFE000000003FFFF80000000000000000
310
7F80000000000001FFFFE000000003FFFFFFFFE000000003FFFFFF0003FFFFFF
310
FFFFF000000003FFF000FFF80000000FFFF0001FFFFE0001FFFFE0007F80007F
310
FFF00000000FFFFFFF00000000FFFFF800000000000000007F80000000000001
310
FFFFF80000000FFFFFFFFFF80000000FFFFFFF0003FFFFFFFFFFFC0000000FFF
310
F000FFFE0000003FFFF0001FFFFE0003FFFFE0003F80007FFFFC0000003FFFFF
310
FFC0000003FFFFF800000000000000007F80000000000001FFFFFE0000003FFF
310
FFFFFFFE0000003FFFFFFF0003FFFFFFFFFFFF0000003FFFF000FFFF800000FF
310
FFF0001FFFFF0003FFFFE0003F80007FFFFF000001FFFFFFFFF800001FFFFFF8
310
00000000000000007F80000000000001FFFFFFC00001FFFFFFFFFFFFC00001FF
310
FFFFFF0003FFFFFFFFFFFFC00000FFFFF000FFFFF8000FFFFFFFFFFFFFFFFFFF
310
FFFFFFFFFFFFFFFFFFFFF0001FFFFFFFFFFF0000FFFFFFF80000000000000000
310
7FFFFFFFFFFFFFFFFFFFFFFC001FFFFFFFFFFFFFFC001FFFFFFFFFFFFFFFFFFF
310
FFFFFFFC001FFFFFF000FFFFFFFFFFFFFFFFFFFFFFFFFFFFFFFFFFFFFFFFFFFF
310
FFFFFFFFFFFFFFFFFFFFFFFFFFFFFFFFFFFFFFFFFFFFFFFFFFFFFFFFFFFFFFFF
310
FFFFFFFFFFFFFFFFFFFFFFFFFFFFFFFFFFFFFFFFFFFFFFFFFFFFFFFFFFFFFFFF
310
F000FFFFFFFFFFFFFFFFFFFFFFFFFFFFFFFFFFFFFFFFFFFFFFFFFFFFFFFFFFFF
310
FFFFFFFFFFFFFFFFFFFFFFFFFFFFFFFFFFFFFFFFFFFFFFFFFFFFFFFFFFFFFFFF
310
FFFFFFFFFFFFFFFFFFFFFFFFFFFFFFFFFFFFFFFFFFFFFFFFF000FFFFFFFFFFFF
310
FFFFFFFFFFFFFFFFFFFFFFFFFFFFFFFFFFFFFFFFFFFFFFFFFFFFFFFFFFFFFFFF
310
FFFFFFFFFFFFFFFFFFFFFFFFFFFFFFFFFFFFFFFFFFFFFFFFFFFFFFFFFFFFFFFF
310
FFFFFFFFFFFFFFFFFFFFFFFFFFFFFFFFF000FFFFFFFFFFFFFFFFFFFFFFFFFFFF
310
FFFFFFFFFFFFFFFFFFFFFFFFFFFFFFFFFFFFFFFFFFFFFFFFFFFFFFFFFFFFFFFF
310
FFFFFFFFFFFFFFFFFFFFFFFFFFFFFFFFFFFFFFFFFFFFFFFFFFFFFFFFFFFFFFFF
310
FFFFFFFFFFFFFFFFF000FFFFFFFFFFFFFFFFFFFFFFFFFFFFFFFFFFFFFFFFFFFF
310
FFFFFFFFFFFFFFFFFFFFFFFFFFFFFFFFFFFFFFFFFFFFFFFFFFFFFFFFFFFFFFFF
310
FFFFFFFFFFFFFFFFFFFFFFFFFFFFFFFFFFFFFFFFFFFFFFFFFFFFFFFFFFFFFFFF
310
F000FFFFFFFFFFFFFFFFFFFFFFFFFFFFFFFFFFFFFFFFFFFFFFFFFFFFFFFFFFFF
310
FFFFFFFFFFFFFFFFFFFFFFFFFFFFFFFFFFFFFFFFFFFFFFFFFFFFFFFFFFFFFFFF
310
FFFFFFFFFFFFFFFFFFFFFFFFFFFFFFFFFFFFFFFFFFFFFFFFF000FFFFFFFFFFFF
310
FFFFFFFFFFFFFFFFFFFFFFFFFFFFFFFFFFFFFFFFFFFFFFFFFFFFFFFFFFFFFFFF
310
FFFFFFFFFFFFFFFFFFFFFFFFFFFFFFFFFFFFFFFFFFFFFFFFFFFFFFFFFFFFFFFF
310
FFFFFFFFFFFFFFFFFFFFFFFFFFFFFFFFF000FFFFFFFFFFFFFFFFFFFFFFFFFFFF
310
FFFFFFFFFFFFFFFFFFFFFFFFFFFFFFFFFFFFFFFFFFFFFFFFFFFFFFFFFFFFFFFF
310
FFFFFFFFFFFFFFFFFFFFFFFFFFFFFFFFFFFFFFFFFFFFFFFFFFFFFFFFFFFFFFFF
310
FFFFFFFFFFFFFFFFF000FFFFFFFFFFFFFFFFFFFFFFFFFFFFFFFFFFFFFFFFFFFF
310
FFFFFFFFFFFFFFFFFFFFFFFFFFFFFFFFFFFFFFFFFFFFFFFFFFFFFFFFFFFFFFFF
310
FFFFFFFFFFFFFFFFFFFFFFFFFFFFFFFFFFFFFFFFFFFFFFFFFFFFFFFFFFFFFFFF
310
F000FFFFFFFFFFFFFFFFFFFFFFFFFFFFFFFFFFFFFFFFFFFFFFFFFFFFFFFFFFFF
310
FFFFFFFFFFFFFFFFFFFFFFFFFFFFFFFFFFFFFFFFFFFFFFFFFFFFFFFFFFFFFFFF
310
FFFFFFFFFFFFFFFFFFFFFFFFFFFFFFFFFFFFFFFFFFFFFFFFF000FFFFFFFFFFFF
310
FFFFFFFFFFFFFFFFFFFFFFFFFFFFFFFFFFFFFFFFFFFFFFFFFFFFFFFFFFFFFFFF
310
FFFFFFFFFFFFFFFFFFFFFFFFFFFFFFFFFFFFFFFFFFFFFFFFFFFFFFFFFFFFFFFF
310
FFFFFFFFFFFFFFFFFFFFFFFFFFFFFFFFF000FFFFFFFFFFFFFFFFFFFFFFFFFFFF
310
FFFFFFFFFFFFFFFFFFFFFFFFFFFFFFFFFFFFFFFFFFFFFFFFFFFFFFFFFFFFFFFF
310
FFFFFFFFFFFFFFFFFFFFFFFFFFFFFFFFFFFFFFFFFFFFFFFFFFFFFFFFFFFFFFFF
310
FFFFFFFFFFFFFFFFF000FFFFFFFFFFFFFFFFFFFFFFFFFFFFFFFFFFFFFFFFFFFF
310
FFFFFFFFFFFFFFFFFFFFFFFFFFFFFFFFFFFFFFFFFFFFFFFFFFFFFFFFFFFFFFFF
310
FFFFFFFFFFFFFFFFFFFFFFFFFFFFFFFFFFFFFFFFFFFFFFFFFFFFFFFFFFFFFFFF
310
F000FFFFFFFFFFFFFFFFFFFFFFFFFFFFFFFFFFFFFFFFFFFFFFFFFFFFFFFFFFFF
310
FFFFFFFFFFFFFFFFFFFFFFFFFFFFFFFFFFFFFFFFFFFFFFFFFFFFFFFFFFFFFFFF
310
FFFFFFFFFFFFFFFFFFFFFFFFFFFFFFFFFFFFFFFFFFFFFFFFF000FFFFFFFFFFFF
310
FFFFFFFFFFFFFFFFFFFFFFFFFFFFFFFFFFFFFFFFFFFFFFFFFFFFFFFFFFFFFFFF
310
FFFFFFFFFFFFFFFFFFFFFFFFFFFFFFFFFFFFFFFFFFFFFFFFFFFFFFFFFFFFFFFF
310
FFFFFFFFFFFFFFFFFFFFFFFFFFFFFFFFF000FFFFFFFFFFFFFFFFFFFFFFFFFFFF
310
FFFFFFFFFFFFFFFFFFFFFFFFFFFFFFFFFFFFFFFFFFFFFFFFFFFFFFFFFFFFFFFF
310
FFFFFFFFFFFFFFFFFFFFFFFFFFFFFFFFFFFFFFFFFFFFFFFFFFFFFFFFFFFFFFFF
310
FFFFFFFFFFFFFFFFF000FFFFFFFFFFFFFFFFFFFFFFFFFFFFFFFFFFFFFFFFFFFF
310
FFFFFFFFFFFFFFFFFFFFFFFFFFFFFFFFFFFFFFFFFFFFFFFFFFFFFFFFFFFFFFFF
310
FFFFFFFFFFFFFFFFFFFFFFFFFFFFFFFFFFFFFFFFFFFFFFFFFFFFFFFFFFFFFFFF
310
F000FFFFFFFFFFFFFFFFFFFFFFFFFFFFFFFFFFFFFFFFFFFFFFFFFFFFFFFFFFFF
310
FFFFFFFFFFFFFFFFFFFFFFFFFFFFFFFFFFFFFFFFFFFFFFFFFFFFFFFFFFFFFFFF
310
FFFFFFFFFFFFFFFFFFFFFFFFFFFFFFFFFFFFFFFFFFFFFFFFF000FFFFFFFFFFFF
310
FFFFFFFFFFFFFFFFFFFFFFFFFFFFFFFFFFFFFFFFFFFFFFFFFFFFFFFFFFFFFFFF
310
FFFFFFFFFFFFFFFFFFFFFFFFFFFFFFFFFFFFFFFFFFFFFFFFFFFFFFFFFFFFFFFF
310
FFFFFFFFFFFFFFFFFFFFFFFFFFFFFFFFF000FFFFFFFFFFFFFFFFFFFFFFFFFFFF
310
FFFFFFFFFFFFFFFFFFFFFFFFFFFFFFFFFFFFFFFFFFFFFFFFFFFFFFFFFFFFFFFF
310
FFFFFFFFFFFFFFFFFFFFFFFFFFFFFFFFFFFFFFFFFFFFFFFFFFFFFFFFFFFFFFFF
310
FFFFFFFFFFFFFFFFF000FFFFFFFFFFFFFFFFFFFFFFFFFFFFFFFFFFFFFFFFFFFF
310
FFFFFFFFFFFFFFFFFFFFFFFFFFFFFFFFFFFFFFFFFFFFFFFFFFFFFFFFFFFFFFFF
310
FFFFFFFFFFFFFFFFFFFFFFFFFFFFFFFFFFFFFFFFFFFFFFFFFFFFFFFFFFFFFFFF
310
F000FFFFFFFFFFFFFFFFFFFFFFFFFFFFFFFFFFFFFFFFFFFFFFFFFFFFFFFFFFFF
310
FFFFFFFFFFFFFFFFFFFFFFFFFFFFFFFFFFFFFFFFFFFFFFFFFFFFFFFFFFFFFFFF
310
FFFFFFFFFFFFFFFFFFFFFFFFFFFFFFFFFFFFFFFFFFFFFFFFF000FFFFFFFFFFFF
310
FFFFFFFFFFFFFFFFFFFFFFFFFFFFFFFFFFFFFFFFFFFFFFFFFFFFFFFFFFFFFFFF
310
FFFFFFFFFFFFFFFFFFFFFFFFFFFFFFFFFFFFFFFFFFFFFFFFFFFFFFFFFFFFFFFF
310
FFFFFFFFFFFFFFFFFFFFFFFFFFFFFFFFF0000000000000000000000000000000
310
0000000000000000000000000000000000000000000000000000000000000000
310
0000000000000000000000000000000000000000000000000000000000000000
310
0000000000000000000000000000000000000000000000000000000000000000
310
0000000000000000000000000000000000000000000000000000000000000000
310
0000000000000000000000000000000000000000000000000000000000000000
310
0000000000000000000000000000000000000000000000000000000000000000
310
0000000000000000000000000000000000000000000000000000000000000000
310
0000000000000000000000000000000000000000000000000000000000000000
310
0000000000000000000000000000000000000000000000000000000000000000
310
0000000000000000000000000000000000000000000000000000000000000000
310
0000000000000000000000000000000000000000000000000000000000000000
310
0000000000000000000000000000000000000000000000000000000000000000
310
0000000000000000000000000000000000000000000000000000000000000000
310
0000000000000000000000000000000000000000000000000000000000000000
310
0000000000000000000000000000000000000000000000000000000000000000
  1
OLE
  0
ENDSEC
  0
SECTION
  2
OBJECTS
  0
DICTIONARY
  5
C
330
0
100
AcDbDictionary
281
     1
  3
ACAD_GROUP
350
D
  3
ACAD_LAYOUT
350
1A
  3
ACAD_MLINESTYLE
350
17
  3
ACAD_PLOTSETTINGS
350
19
  3
ACAD_PLOTSTYLENAME
350
E
  0
DICTIONARY
  5
D
102
{ACAD_REACTORS
330
C
102
}
330
C
100
AcDbDictionary
281
     1
  0
DICTIONARY
  5
1A
102
{ACAD_REACTORS
330
C
102
}
330
C
100
AcDbDictionary
281
     1
  3
Layout1
350
1E
  3
Layout2
350
26
  3
Model
350
22
  0
DICTIONARY
  5
17
102
{ACAD_REACTORS
330
C
102
}
330
C
100
AcDbDictionary
281
     1
  3
Standard
350
18
  0
DICTIONARY
  5
19
102
{ACAD_REACTORS
330
C
102
}
330
C
100
AcDbDictionary
281
     1
  0
ACDBDICTIONARYWDFLT
  5
E
102
{ACAD_REACTORS
330
C
102
}
330
C
100
AcDbDictionary
281
     1
  3
Normal
350
F
100
AcDbDictionaryWithDefault
340
F
  0
LAYOUT
  5
1E
102
{ACAD_REACTORS
330
1A
102
}
330
1A
100
AcDbPlotSettings
  1

  2
none_device
  4

  6

 40
0.0
 41
0.0
 42
0.0
 43
0.0
 44
0.0
 45
0.0
 46
0.0
 47
0.0
 48
0.0
 49
0.0
140
0.0
141
0.0
142
1.0
143
1.0
 70
   688
 72
     0
 73
     0
 74
     5
  7

 75
    16
147
1.0
148
0.0
149
0.0
100
AcDbLayout
  1
Layout1
 70
     1
 71
     1
 10
0.0
 20
0.0
 11
420.0
 21
297.0
 12
0.0
 22
0.0
 32
0.0
 14
1.0000000000E+20
 24
1.0000000000E+20
 34
1.0000000000E+20
 15
-1.0000000000E+20
 25
-1.0000000000E+20
 35
-1.0000000000E+20
146
0.0
 13
0.0
 23
0.0
 33
0.0
 16
1.0
 26
0.0
 36
0.0
 17
0.0
 27
1.0
 37
0.0
 76
     0
330
1B
  0
LAYOUT
  5
26
102
{ACAD_REACTORS
330
1A
102
}
330
1A
100
AcDbPlotSettings
  1

  2
none_device
  4

  6

 40
0.0
 41
0.0
 42
0.0
 43
0.0
 44
0.0
 45
0.0
 46
0.0
 47
0.0
 48
0.0
 49
0.0
140
0.0
141
0.0
142
1.0
143
1.0
 70
   688
 72
     0
 73
     0
 74
     5
  7

 75
    16
147
1.0
148
0.0
149
0.0
100
AcDbLayout
  1
Layout2
 70
     1
 71
     2
 10
0.0
 20
0.0
 11
0.0
 21
0.0
 12
0.0
 22
0.0
 32
0.0
 14
0.0
 24
0.0
 34
0.0
 15
0.0
 25
0.0
 35
0.0
146
0.0
 13
0.0
 23
0.0
 33
0.0
 16
1.0
 26
0.0
 36
0.0
 17
0.0
 27
1.0
 37
0.0
 76
     0
330
23
  0
LAYOUT
  5
22
102
{ACAD_REACTORS
330
1A
102
}
330
1A
100
AcDbPlotSettings
  1

  2
none_device
  4

  6

 40
0.0
 41
0.0
 42
0.0
 43
0.0
 44
0.0
 45
0.0
 46
0.0
 47
0.0
 48
0.0
 49
0.0
140
0.0
141
0.0
142
1.0
143
1.0
 70
  1712
 72
     0
 73
     0
 74
     0
  7

 75
     0
147
1.0
148
0.0
149
0.0
100
AcDbLayout
  1
Model
 70
     1
 71
     0
 10
0.0
 20
0.0
 11
297.0
 21
210.0
 12
0.0
 22
0.0
 32
0.0
 14
0.0
 24
0.0
 34
0.0
 15
297.0
 25
210.0
 35
0.0
146
0.0
 13
0.0
 23
0.0
 33
0.0
 16
1.0
 26
0.0
 36
0.0
 17
0.0
 27
1.0
 37
0.0
 76
     0
330
1F
331
29
  0
MLINESTYLE
  5
18
102
{ACAD_REACTORS
330
17
102
}
330
17
100
AcDbMlineStyle
  2
Standard
 70
     0
  3

 62
   256
 51
90.0
 52
90.0
 71
     2
 49
0.5
 62
   256
  6
BYLAYER
 49
-0.5
 62
   256
  6
BYLAYER
  0
ACDBPLACEHOLDER
  5
F
102
{ACAD_REACTORS
330
E
102
}
330
E
  0
ENDSEC
  0
EOF
