  0
SECTION
  2
HEADER
  9
$ACADVER
  1
AC1015
  9
$ACADMAINTVER
 70
     6
  9
$DWGCODEPAGE
  3
ANSI_1252
  9
$INSBASE
 10
0.0
 20
0.0
 30
0.0
  9
$EXTMIN
 10
0.0
 20
0.0
 30
0.0
  9
$EXTMAX
 10
297.0
 20
210.0
 30
0.0
  9
$LIMMIN
 10
0.0
 20
0.0
  9
$LIMMAX
 10
297.0
 20
210.0
  9
$ORTHOMODE
 70
     0
  9
$REGENMODE
 70
     1
  9
$FILLMODE
 70
     1
  9
$QTEXTMODE
 70
     0
  9
$MIRRTEXT
 70
     1
  9
$LTSCALE
 40
1.0
  9
$ATTMODE
 70
     1
  9
$TEXTSIZE
 40
2.0
  9
$TRACEWID
 40
1.0
  9
$TEXTSTYLE
  7
Standard
  9
$CLAYER
  8
0
  9
$CELTYPE
  6
ByLayer
  9
$CECOLOR
 62
   256
  9
$CELTSCALE
 40
1.0
  9
$DISPSILH
 70
     0
  9
$DIMSCALE
 40
1.0
  9
$DIMASZ
 40
3.0
  9
$DIMEXO
 40
0.0
  9
$DIMDLI
 40
3.75
  9
$DIMRND
 40
0.0
  9
$DIMDLE
 40
0.0
  9
$DIMEXE
 40
1.0
  9
$DIMTP
 40
0.0
  9
$DIMTM
 40
0.0
  9
$DIMTXT
 40
2.0
  9
$DIMCEN
 40
2.5
  9
$DIMTSZ
 40
0.0
  9
$DIMTOL
 70
     0
  9
$DIMLIM
 70
     0
  9
$DIMTIH
 70
     1
  9
$DIMTOH
 70
     1
  9
$DIMSE1
 70
     0
  9
$DIMSE2
 70
     0
  9
$DIMTAD
 70
     1
  9
$DIMZIN
 70
     0
  9
$DIMBLK
  1

  9
$DIMASO
 70
     1
  9
$DIMSHO
 70
     1
  9
$DIMPOST
  1

  9
$DIMAPOST
  1

  9
$DIMALT
 70
     0
  9
$DIMALTD
 70
     3
  9
$DIMALTF
 40
0.0393700787
  9
$DIMLFAC
 40
1.0
  9
$DIMTOFL
 70
     1
  9
$DIMTVP
 40
0.0
  9
$DIMTIX
 70
     0
  9
$DIMSOXD
 70
     0
  9
$DIMSAH
 70
     0
  9
$DIMBLK1
  1

  9
$DIMBLK2
  1

  9
$DIMSTYLE
  2
ISO-25
  9
$DIMCLRD
 70
     0
  9
$DIMCLRE
 70
     0
  9
$DIMCLRT
 70
     0
  9
$DIMTFAC
 40
1.0
  9
$DIMGAP
 40
1.524
  9
$DIMJUST
 70
     0
  9
$DIMSD1
 70
     0
  9
$DIMSD2
 70
     0
  9
$DIMTOLJ
 70
     0
  9
$DIMTZIN
 70
     0
  9
$DIMALTZ
 70
     0
  9
$DIMALTTZ
 70
     0
  9
$DIMUPT
 70
     0
  9
$DIMDEC
 70
     2
  9
$DIMTDEC
 70
     3
  9
$DIMALTU
 70
     2
  9
$DIMALTTD
 70
     3
  9
$DIMTXSTY
  7
Standard
  9
$DIMAUNIT
 70
     0
  9
$DIMADEC
 70
     2
  9
$DIMALTRND
 40
0.0
  9
$DIMAZIN
 70
     0
  9
$DIMDSEP
 70
    44
  9
$DIMATFIT
 70
     3
  9
$DIMFRAC
 70
     0
  9
$DIMLDRBLK
  1

  9
$DIMLUNIT
 70
     2
  9
$DIMLWD
 70
    -2
  9
$DIMLWE
 70
    -2
  9
$DIMTMOVE
 70
     0
  9
$LUNITS
 70
     2
  9
$LUPREC
 70
     2
  9
$SKETCHINC
 40
1.0
  9
$FILLETRAD
 40
10.0
  9
$AUNITS
 70
     0
  9
$AUPREC
 70
     2
  9
$MENU
  1
.
  9
$ELEVATION
 40
0.0
  9
$PELEVATION
 40
0.0
  9
$THICKNESS
 40
0.0
  9
$LIMCHECK
 70
     0
  9
$CHAMFERA
 40
10.0
  9
$CHAMFERB
 40
10.0
  9
$CHAMFERC
 40
20.0
  9
$CHAMFERD
 40
0.0
  9
$SKPOLY
 70
     0
  9
$TDCREATE
 40
2455617.463276377
  9
$TDUCREATE
 40
2455617.42160971
  9
$TDUPDATE
 40
2455617.463276389
  9
$TDUUPDATE
 40
2455617.421609722
  9
$TDINDWG
 40
0.0000000116
  9
$TDUSRTIMER
 40
0.0000000116
  9
$USRTIMER
 70
     1
  9
$ANGBASE
 50
0.0
  9
$ANGDIR
 70
     0
  9
$PDMODE
 70
     0
  9
$PDSIZE
 40
-1.0
  9
$PLINEWID
 40
0.0
  9
$SPLFRAME
 70
     0
  9
$SPLINETYPE
 70
     6
  9
$SPLINESEGS
 70
     8
  9
$HANDSEED
  5
2BA
  9
$SURFTAB1
 70
     6
  9
$SURFTAB2
 70
     6
  9
$SURFTYPE
 70
     6
  9
$SURFU
 70
     6
  9
$SURFV
 70
     6
  9
$UCSBASE
  2

  9
$UCSNAME
  2

  9
$UCSORG
 10
0.0
 20
0.0
 30
0.0
  9
$UCSXDIR
 10
1.0
 20
0.0
 30
0.0
  9
$UCSYDIR
 10
0.0
 20
1.0
 30
0.0
  9
$UCSORTHOREF
  2

  9
$UCSORTHOVIEW
 70
     0
  9
$UCSORGTOP
 10
0.0
 20
0.0
 30
0.0
  9
$UCSORGBOTTOM
 10
0.0
 20
0.0
 30
0.0
  9
$UCSORGLEFT
 10
0.0
 20
0.0
 30
0.0
  9
$UCSORGRIGHT
 10
0.0
 20
0.0
 30
0.0
  9
$UCSORGFRONT
 10
0.0
 20
0.0
 30
0.0
  9
$UCSORGBACK
 10
0.0
 20
0.0
 30
0.0
  9
$PUCSBASE
  2

  9
$PUCSNAME
  2

  9
$PUCSORG
 10
0.0
 20
0.0
 30
0.0
  9
$PUCSXDIR
 10
1.0
 20
0.0
 30
0.0
  9
$PUCSYDIR
 10
0.0
 20
1.0
 30
0.0
  9
$PUCSORTHOREF
  2

  9
$PUCSORTHOVIEW
 70
     0
  9
$PUCSORGTOP
 10
0.0
 20
0.0
 30
0.0
  9
$PUCSORGBOTTOM
 10
0.0
 20
0.0
 30
0.0
  9
$PUCSORGLEFT
 10
0.0
 20
0.0
 30
0.0
  9
$PUCSORGRIGHT
 10
0.0
 20
0.0
 30
0.0
  9
$PUCSORGFRONT
 10
0.0
 20
0.0
 30
0.0
  9
$PUCSORGBACK
 10
0.0
 20
0.0
 30
0.0
  9
$USERI1
 70
     0
  9
$USERI2
 70
     0
  9
$USERI3
 70
     0
  9
$USERI4
 70
     0
  9
$USERI5
 70
     0
  9
$USERR1
 40
0.0
  9
$USERR2
 40
0.0
  9
$USERR3
 40
0.0
  9
$USERR4
 40
0.0
  9
$USERR5
 40
0.0
  9
$WORLDVIEW
 70
     1
  9
$SHADEDGE
 70
     3
  9
$SHADEDIF
 70
    70
  9
$TILEMODE
 70
     1
  9
$MAXACTVP
 70
    64
  9
$PINSBASE
 10
0.0
 20
0.0
 30
0.0
  9
$PLIMCHECK
 70
     0
  9
$PEXTMIN
 10
1.0000000000E+20
 20
1.0000000000E+20
 30
1.0000000000E+20
  9
$PEXTMAX
 10
-1.0000000000E+20
 20
-1.0000000000E+20
 30
-1.0000000000E+20
  9
$PLIMMIN
 10
0.0
 20
0.0
  9
$PLIMMAX
 10
420.0
 20
297.0
  9
$UNITMODE
 70
     0
  9
$VISRETAIN
 70
     1
  9
$PLINEGEN
 70
     0
  9
$PSLTSCALE
 70
     1
  9
$TREEDEPTH
 70
  3020
  9
$CMLSTYLE
  2
Standard
  9
$CMLJUST
 70
     0
  9
$CMLSCALE
 40
20.0
  9
$PROXYGRAPHICS
 70
     1
  9
$MEASUREMENT
 70
     1
  9
$CELWEIGHT
370
    -1
  9
$ENDCAPS
280
     0
  9
$JOINSTYLE
280
     0
  9
$LWDISPLAY
290
     1
  9
$INSUNITS
 70
     4
  9
$HYPERLINKBASE
  1

  9
$STYLESHEET
  1

  9
$XEDIT
290
     1
  9
$CEPSNTYPE
380
     0
  9
$PSTYLEMODE
290
     1
  9
$FINGERPRINTGUID
  2
{4A15C26D-5610-4B77-AA16-43D933CC3849}
  9
$VERSIONGUID
  2
{FAEB1C32-E019-11D5-929B-00C0DF256EC4}
  9
$EXTNAMES
290
     1
  9
$PSVPSCALE
 40
0.0
  9
$OLESTARTUP
290
     0
  0
ENDSEC
  0
SECTION
  2
CLASSES
  0
CLASS
  1
ACDBDICTIONARYWDFLT
  2
AcDbDictionaryWithDefault
  3
ObjectDBX Classes
 90
        0
280
     0
281
     0
  0
CLASS
  1
VISUALSTYLE
  2
AcDbVisualStyle
  3
ObjectDBX Classes
 90
     4095
280
     0
281
     0
  0
CLASS
  1
DICTIONARYVAR
  2
AcDbDictionaryVar
  3
ObjectDBX Classes
 90
        0
280
     0
281
     0
  0
CLASS
  1
ACDBPLACEHOLDER
  2
AcDbPlaceHolder
  3
ObjectDBX Classes
 90
        0
280
     0
281
     0
  0
CLASS
  1
LAYOUT
  2
AcDbLayout
  3
ObjectDBX Classes
 90
        0
280
     0
281
     0
  0
ENDSEC
  0
SECTION
  2
TABLES
  0
TABLE
  2
VPORT
  5
8
330
0
100
AcDbSymbolTable
 70
     1
  0
VPORT
  5
29
330
8
100
AcDbSymbolTableRecord
100
AcDbViewportTableRecord
  2
*Active
 70
     0
 10
0.0
 20
0.0
 11
1.0
 21
1.0
 12
148.5
 22
105.0
 13
0.0
 23
0.0
 14
10.0
 24
10.0
 15
10.0
 25
10.0
 16
0.0
 26
0.0
 36
1.0
 17
0.0
 27
0.0
 37
0.0
 40
210.0
 41
1.4142857143
 42
50.0
 43
0.0
 44
0.0
 50
0.0
 51
0.0
 71
     0
 72
  2000
 73
     1
 74
     3
 75
     0
 76
     0
 77
     0
 78
     0
281
     0
 65
     1
110
0.0
120
0.0
130
0.0
111
1.0
121
0.0
131
0.0
112
0.0
122
1.0
132
0.0
 79
     0
146
0.0
  0
ENDTAB
  0
TABLE
  2
LTYPE
  5
5
330
0
100
AcDbSymbolTable
 70
     6
  0
LTYPE
  5
14
330
5
100
AcDbSymbolTableRecord
100
AcDbLinetypeTableRecord
  2
ByBlock
 70
     0
  3

 72
    65
 73
     0
 40
0.0
  0
LTYPE
  5
15
330
5
100
AcDbSymbolTableRecord
100
AcDbLinetypeTableRecord
  2
ByLayer
 70
     0
  3

 72
    65
 73
     0
 40
0.0
  0
LTYPE
  5
16
330
5
100
AcDbSymbolTableRecord
100
AcDbLinetypeTableRecord
  2
Continuous
 70
     0
  3
Solid line
 72
    65
 73
     0
 40
0.0
  0
LTYPE
  5
3B
330
5
100
AcDbSymbolTableRecord
100
AcDbLinetypeTableRecord
  2
HIDDEN
 70
     0
  3
Hidden __ __ __ __ __ __ __ __ __ __ __ __ __ __
 72
    65
 73
     2
 40
1.905
 49
1.27
 74
     0
 49
-0.635
 74
     0
  0
LTYPE
  5
3C
330
5
100
AcDbSymbolTableRecord
100
AcDbLinetypeTableRecord
  2
PHANTOM
 70
     0
  3
Phantom ______  __  __  ______  __  __  ______
 72
    65
 73
     6
 40
12.7
 49
6.35
 74
     0
 49
-1.27
 74
     0
 49
1.27
 74
     0
 49
-1.27
 74
     0
 49
1.27
 74
     0
 49
-1.27
 74
     0
  0
LTYPE
  5
3D
330
5
100
AcDbSymbolTableRecord
100
AcDbLinetypeTableRecord
  2
CENTER
 70
     0
  3
Center ____ _ ____ _ ____ _ ____ _ ____ _ ____
 72
    65
 73
     4
 40
10.16
 49
6.35
 74
     0
 49
-1.27
 74
     0
 49
1.27
 74
     0
 49
-1.27
 74
     0
  0
LTYPE
  5
3E
330
5
100
AcDbSymbolTableRecord
100
AcDbLinetypeTableRecord
  2
CENTERX2
 70
     0
  3
Center (2x) ________  __  ________  __  _____
 72
    65
 73
     4
 40
20.32
 49
12.7
 74
     0
 49
-2.54
 74
     0
 49
2.54
 74
     0
 49
-2.54
 74
     0
  0
LTYPE
  5
3F
330
5
100
AcDbSymbolTableRecord
100
AcDbLinetypeTableRecord
  2
DOT2
 70
     0
  3
Dot (.5x) ........................................
 72
    65
 73
     2
 40
0.635
 49
0.0
 74
     0
 49
-0.635
 74
     0
  0
ENDTAB
  0
TABLE
  2
LAYER
  5
2
330
0
100
AcDbSymbolTable
 70
     5
  0
LAYER
  5
10
330
2
100
AcDbSymbolTableRecord
100
AcDbLayerTableRecord
  2
0
 70
     0
 62
     7
  6
Continuous
370
    -3
390
F
  0
LAYER
  5
40
330
2
100
AcDbSymbolTableRecord
100
AcDbLayerTableRecord
  2
FORMAT
 70
     0
 62
     7
  6
Continuous
370
    -3
390
F
  0
LAYER
  5
41
330
2
100
AcDbSymbolTableRecord
100
AcDbLayerTableRecord
  2
VERMASSUNG
 70
     0
 62
     7
  6
Continuous
370
    -3
390
F
  0
LAYER
  5
42
330
2
100
AcDbSymbolTableRecord
100
AcDbLayerTableRecord
  2
KOPF_DÜNN
 70
     0
 62
     7
  6
Continuous
370
    -3
390
F
  0
LAYER
  5
43
330
2
100
AcDbSymbolTableRecord
100
AcDbLayerTableRecord
  2
KOPF_DICK
 70
     0
 62
     7
  6
Continuous
370
    15
390
F
  0
ENDTAB
  0
TABLE
  2
STYLE
  5
3
330
0
100
AcDbSymbolTable
 70
     3
  0
STYLE
  5
11
330
3
100
AcDbSymbolTableRecord
100
AcDbTextStyleTableRecord
  2
Standard
 70
     0
 40
0.0
 41
1.0
 50
0.0
 71
     0
 42
2.5
  3
txt
  4

  0
STYLE
  5
44
330
3
100
AcDbSymbolTableRecord
100
AcDbTextStyleTableRecord
  2
SLDTEXTSTYLE0
 70
     0
 40
0.0
 41
0.7
 50
0.0
 71
     0
 42
0.2
  3
TXT
  4

  0
STYLE
  5
48
330
3
100
AcDbSymbolTableRecord
100
AcDbTextStyleTableRecord
  2
SLDTEXTSTYLE1
 70
     0
 40
0.0
 41
0.6526315789
 50
0.0
 71
     0
 42
0.2
  3
TXT
  4

  0
ENDTAB
  0
TABLE
  2
VIEW
  5
6
330
0
100
AcDbSymbolTable
 70
     0
  0
ENDTAB
  0
TABLE
  2
UCS
  5
7
330
0
100
AcDbSymbolTable
 70
     0
  0
ENDTAB
  0
TABLE
  2
APPID
  5
9
330
0
100
AcDbSymbolTable
 70
     1
  0
APPID
  5
12
330
9
100
AcDbSymbolTableRecord
100
AcDbRegAppTableRecord
  2
ACAD
 70
     0
  0
ENDTAB
  0
TABLE
  2
DIMSTYLE
  5
A
330
0
100
AcDbSymbolTable
 70
     4
100
AcDbDimStyleTable
  0
DIMSTYLE
105
27
330
A
100
AcDbSymbolTableRecord
100
AcDbDimStyleTableRecord
  2
ISO-25
 70
     0
 41
2.5
 42
0.625
 43
3.75
 44
1.25
 73
     0
 74
     0
 77
     1
 78
     8
140
2.5
141
2.5
143
0.0393700787
147
0.625
171
     3
172
     1
271
     2
272
     2
274
     3
278
    44
283
     0
284
     8
340
11
  0
DIMSTYLE
105
224
102
{ACAD_REACTORS
330
223
102
}
330
A
100
AcDbSymbolTableRecord
100
AcDbDimStyleTableRecord
  2
SLDDIMSTYLE0
 70
     0
 41
3.0
 44
0.0
 73
     0
 74
     0
 77
     1
 78
    12
140
2.0
147
0.5
173
     1
179
     1
272
     3
284
    12
340
44
  0
DIMSTYLE
105
231
102
{ACAD_REACTORS
330
230
330
23B
330
245
330
251
102
}
330
A
100
AcDbSymbolTableRecord
100
AcDbDimStyleTableRecord
  2
SLDDIMSTYLE1
 70
     0
 41
3.0
 44
0.0
 45
0.000000001
 73
     0
 74
     0
 77
     1
 78
    12
140
2.0
147
0.5
173
     1
271
     2
272
     3
284
    12
340
44
  0
DIMSTYLE
105
29D
102
{ACAD_REACTORS
330
29C
102
}
330
A
100
AcDbSymbolTableRecord
100
AcDbDimStyleTableRecord
  2
SLDDIMSTYLE2
 70
     0
 41
3.0
 44
0.0
 45
0.000000001
 73
     0
 74
     0
 77
     1
 78
    12
140
2.0
147
0.5
173
     1
271
     2
272
     3
284
    12
340
44
  0
ENDTAB
  0
TABLE
  2
BLOCK_RECORD
  5
1
330
0
100
AcDbSymbolTable
 70
     8
  0
BLOCK_RECORD
  5
1F
330
1
100
AcDbSymbolTableRecord
100
AcDbBlockTableRecord
  2
*Model_Space
340
22
  0
BLOCK_RECORD
  5
1B
330
1
100
AcDbSymbolTableRecord
100
AcDbBlockTableRecord
  2
*Paper_Space
340
1E
  0
BLOCK_RECORD
  5
23
330
1
100
AcDbSymbolTableRecord
100
AcDbBlockTableRecord
  2
*Paper_Space0
340
26
  0
BLOCK_RECORD
  5
225
330
1
100
AcDbSymbolTableRecord
100
AcDbBlockTableRecord
  2
*D1
340
0
  0
BLOCK_RECORD
  5
232
330
1
100
AcDbSymbolTableRecord
100
AcDbBlockTableRecord
  2
*D2
340
0
  0
BLOCK_RECORD
  5
23C
330
1
100
AcDbSymbolTableRecord
100
AcDbBlockTableRecord
  2
*D3
340
0
  0
BLOCK_RECORD
  5
246
330
1
100
AcDbSymbolTableRecord
100
AcDbBlockTableRecord
  2
*D4
340
0
  0
BLOCK_RECORD
  5
252
330
1
100
AcDbSymbolTableRecord
100
AcDbBlockTableRecord
  2
*D5
340
0
  0
BLOCK_RECORD
  5
29E
330
1
100
AcDbSymbolTableRecord
100
AcDbBlockTableRecord
  2
*D6
340
0
  0
BLOCK_RECORD
  5
2A8
330
1
100
AcDbSymbolTableRecord
100
AcDbBlockTableRecord
  2
SW_CENTERMARKSYMBOL_0
340
0
102
{BLKREFS
331
2B3
102
}
  0
ENDTAB
  0
ENDSEC
  0
SECTION
  2
BLOCKS
  0
BLOCK
  5
20
330
1F
100
AcDbEntity
  8
0
100
AcDbBlockBegin
  2
*Model_Space
 70
     0
 10
0.0
 20
0.0
 30
0.0
  3
*Model_Space
  1

  0
ENDBLK
  5
21
330
1F
100
AcDbEntity
  8
0
100
AcDbBlockEnd
  0
BLOCK
  5
1C
330
1B
100
AcDbEntity
 67
     1
  8
0
100
AcDbBlockBegin
  2
*Paper_Space
 70
     0
 10
0.0
 20
0.0
 30
0.0
  3
*Paper_Space
  1

  0
ENDBLK
  5
1D
330
1B
100
AcDbEntity
 67
     1
  8
0
100
AcDbBlockEnd
  0
BLOCK
  5
24
330
23
100
AcDbEntity
  8
0
100
AcDbBlockBegin
  2
*Paper_Space0
 70
     0
 10
0.0
 20
0.0
 30
0.0
  3
*Paper_Space0
  1

  0
ENDBLK
  5
25
330
23
100
AcDbEntity
  8
0
100
AcDbBlockEnd
  0
BLOCK
  5
226
330
225
100
AcDbEntity
  8
0
100
AcDbBlockBegin
  2
*D1
 70
     1
 10
0.0
 20
0.0
 30
0.0
  3
*D1
  1

  0
ARC
  5
228
330
225
100
AcDbEntity
  8
VERMASSUNG
100
AcDbCircle
 10
256.9763314844
 20
90.4735832093
 30
0.0
 40
23.65112739284689
100
AcDbArc
 50
90.0
 51
95.0121473722
  0
ARC
  5
229
330
225
100
AcDbEntity
  8
VERMASSUNG
100
AcDbCircle
 10
256.9763314844
 20
90.4735832093
 30
0.0
 40
23.65112739284689
100
AcDbArc
 50
71.2076576831
 51
90.0
  0
ARC
  5
22A
330
225
100
AcDbEntity
  8
VERMASSUNG
100
AcDbCircle
 10
256.9763314844
 20
90.4735832093
 30
0.0
 40
23.6511273928469
100
AcDbArc
 50
95.0121473722
 51
109.4412633311
  0
SOLID
  5
22B
330
225
100
AcDbEntity
  8
VERMASSUNG
100
AcDbTrace
 10
256.9763314844
 20
114.1247106022
 30
0.0
 11
259.9419944443
 21
113.4864761558
 31
0.0
 12
259.9987333203
 22
114.3846858751
 32
0.0
 13
259.9987333203
 23
114.3846858751
 33
0.0
  0
SOLID
  5
22C
330
225
100
AcDbEntity
  8
VERMASSUNG
100
AcDbTrace
 10
254.9100047227
 20
114.0342733661
 30
0.0
 11
251.8764467085
 21
114.0291965281
 31
0.0
 12
252.011442466
 22
113.1393784875
 32
0.0
 13
252.011442466
 23
113.1393784875
 33
0.0
  0
LINE
  5
22D
330
225
100
AcDbEntity
  8
VERMASSUNG
100
AcDbLine
 10
256.9763314844
 20
107.603253853
 30
0.0
 11
256.9763314844
 21
115.1247106022
 31
0.0
  0
LINE
  5
22E
330
225
100
AcDbEntity
  8
VERMASSUNG
100
AcDbLine
 10
255.6101398787
 20
106.0511857997
 30
0.0
 11
254.822637777
 21
115.0304495638
 31
0.0
  0
MTEXT
  5
22F
330
225
100
AcDbEntity
  8
VERMASSUNG
100
AcDbMText
 10
261.0825362898
 20
116.4120209753
 30
0.0
 40
2.0
 41
0.0
 71
     1
 72
     1
  1
5°
  7
SLDTEXTSTYLE0
 11
0.9787515949801566
 21
-0.2050495435834944
 31
0.0
 73
     1
 44
1.0
  0
ENDBLK
  5
227
330
225
100
AcDbEntity
  8
0
100
AcDbBlockEnd
  0
BLOCK
  5
233
330
232
100
AcDbEntity
  8
0
100
AcDbBlockBegin
  2
*D2
 70
     1
 10
0.0
 20
0.0
 30
0.0
  3
*D2
  1

  0
SOLID
  5
235
330
232
100
AcDbEntity
  8
VERMASSUNG
100
AcDbTrace
 10
256.9763314844
 20
134.4389274194
 30
0.0
 11
253.9763314844
 21
134.8889274194
 31
0.0
 12
253.9763314844
 22
133.9889274194
 32
0.0
 13
253.9763314844
 23
133.9889274194
 33
0.0
  0
SOLID
  5
236
330
232
100
AcDbEntity
  8
VERMASSUNG
100
AcDbTrace
 10
146.9763314844
 20
134.4389274194
 30
0.0
 11
149.9763314844
 21
133.9889274194
 31
0.0
 12
149.9763314844
 22
134.8889274194
 32
0.0
 13
149.9763314844
 23
134.8889274194
 33
0.0
  0
LINE
  5
237
330
232
100
AcDbEntity
  8
VERMASSUNG
100
AcDbLine
 10
256.9763314844
 20
92.7469705104
 30
0.0
 11
256.9763314844
 21
135.4389274194
 31
0.0
  0
LINE
  5
238
330
232
100
AcDbEntity
  8
VERMASSUNG
100
AcDbLine
 10
146.9763314844
 20
129.4469705104
 30
0.0
 11
146.9763314844
 21
135.4389274194
 31
0.0
  0
LINE
  5
239
330
232
100
AcDbEntity
  8
VERMASSUNG
100
AcDbLine
 10
256.9763314844
 20
134.4389274194
 30
0.0
 11
146.9763314844
 21
134.4389274194
 31
0.0
  0
MTEXT
  5
23A
330
232
100
AcDbEntity
  8
VERMASSUNG
100
AcDbMText
 10
200.2771801134
 20
137.0170627825
 30
0.0
 40
2.0
 41
0.0
 71
     1
 72
     1
  1
110
  7
SLDTEXTSTYLE0
 73
     1
 44
1.0
  0
ENDBLK
  5
234
330
232
100
AcDbEntity
  8
0
100
AcDbBlockEnd
  0
BLOCK
  5
23D
330
23C
100
AcDbEntity
  8
0
100
AcDbBlockBegin
  2
*D3
 70
     1
 10
0.0
 20
0.0
 30
0.0
  3
*D3
  1

  0
SOLID
  5
23F
330
23C
100
AcDbEntity
  8
VERMASSUNG
100
AcDbTrace
 10
256.9763314844
 20
140.4389274194
 30
0.0
 11
253.9763314844
 21
140.8889274194
 31
0.0
 12
253.9763314844
 22
139.9889274194
 32
0.0
 13
253.9763314844
 23
139.9889274194
 33
0.0
  0
SOLID
  5
240
330
23C
100
AcDbEntity
  8
VERMASSUNG
100
AcDbTrace
 10
127.0763314844
 20
140.4389274194
 30
0.0
 11
130.0763314844
 21
139.9889274194
 31
0.0
 12
130.0763314844
 22
140.8889274194
 32
0.0
 13
130.0763314844
 23
140.8889274194
 33
0.0
  0
LINE
  5
241
330
23C
100
AcDbEntity
  8
VERMASSUNG
100
AcDbLine
 10
256.9763314844
 20
92.7469705104
 30
0.0
 11
256.9763314844
 21
141.4389274194
 31
0.0
  0
LINE
  5
242
330
23C
100
AcDbEntity
  8
VERMASSUNG
100
AcDbLine
 10
127.0763314844
 20
121.6769705104
 30
0.0
 11
127.0763314844
 21
141.4389274194
 31
0.0
  0
LINE
  5
243
330
23C
100
AcDbEntity
  8
VERMASSUNG
100
AcDbLine
 10
256.9763314844
 20
140.4389274194
 30
0.0
 11
127.0763314844
 21
140.4389274194
 31
0.0
  0
MTEXT
  5
244
330
23C
100
AcDbEntity
  8
VERMASSUNG
100
AcDbMText
 10
189.1264139038
 20
143.0170627825
 30
0.0
 40
2.0
 41
0.0
 71
     1
 72
     1
  1
129.9
  7
SLDTEXTSTYLE0
 73
     1
 44
1.0
  0
ENDBLK
  5
23E
330
23C
100
AcDbEntity
  8
0
100
AcDbBlockEnd
  0
BLOCK
  5
247
330
246
100
AcDbEntity
  8
0
100
AcDbBlockBegin
  2
*D4
 70
     1
 10
0.0
 20
0.0
 30
0.0
  3
*D4
  1

  0
SOLID
  5
249
330
246
100
AcDbEntity
  8
VERMASSUNG
100
AcDbTrace
 10
123.9472016129
 20
129.7469705104
 30
0.0
 11
123.4972016129
 21
126.7469705104
 31
0.0
 12
124.3972016129
 22
126.7469705104
 32
0.0
 13
124.3972016129
 23
126.7469705104
 33
0.0
  0
SOLID
  5
24A
330
246
100
AcDbEntity
  8
VERMASSUNG
100
AcDbTrace
 10
123.9472016129
 20
89.7469705104
 30
0.0
 11
124.3972016129
 21
92.7469705104
 31
0.0
 12
123.4972016129
 22
92.7469705104
 32
0.0
 13
123.4972016129
 23
92.7469705104
 33
0.0
  0
LINE
  5
24B
330
246
100
AcDbEntity
  8
VERMASSUNG
100
AcDbLine
 10
147.2763314844
 20
129.7469705104
 30
0.0
 11
122.9472016129
 21
129.7469705104
 31
0.0
  0
LINE
  5
24C
330
246
100
AcDbEntity
  8
VERMASSUNG
100
AcDbLine
 10
147.2763314844
 20
89.7469705104
 30
0.0
 11
122.9472016129
 21
89.7469705104
 31
0.0
  0
LINE
  5
24D
330
246
100
AcDbEntity
  8
VERMASSUNG
100
AcDbLine
 10
123.9472016129
 20
129.7469705104
 30
0.0
 11
123.9472016129
 21
89.7469705104
 31
0.0
  0
MTEXT
  5
24E
330
246
100
AcDbEntity
  8
VERMASSUNG
100
AcDbMText
 10
121.1690661239
 20
103.4438640588
 30
0.0
 40
2.0
 41
0.0
 71
     1
 72
     1
  1
HSK 
  7
SLDTEXTSTYLE0
 11
-7.044195017643634E-15
 21
1.0
 31
0.0
 73
     1
 44
1.0
  0
MTEXT
  5
24F
330
246
100
AcDbEntity
  8
VERMASSUNG
100
AcDbMText
 10
121.3690661334
 20
109.443864111
 30
0.0
 40
2.0
 41
0.0
 71
     1
 72
     1
  1
%%c
  7
SLDTEXTSTYLE0
 11
-7.044195017643634E-15
 21
1.0
 31
0.0
 73
     1
 44
1.0
  0
MTEXT
  5
250
330
246
100
AcDbEntity
  8
VERMASSUNG
100
AcDbMText
 10
121.3690662498
 20
113.0524368008
 30
0.0
 40
2.0
 41
0.0
 71
     1
 72
     1
  1
40
  7
SLDTEXTSTYLE0
 11
-7.044195017643634E-15
 21
1.0
 31
0.0
 73
     1
 44
1.0
  0
ENDBLK
  5
248
330
246
100
AcDbEntity
  8
0
100
AcDbBlockEnd
  0
BLOCK
  5
253
330
252
100
AcDbEntity
  8
0
100
AcDbBlockBegin
  2
*D5
 70
     1
 10
0.0
 20
0.0
 30
0.0
  3
*D5
  1

  0
SOLID
  5
255
330
252
100
AcDbEntity
  8
VERMASSUNG
100
AcDbTrace
 10
265.5930374141
 20
109.7469705104
 30
0.0
 11
265.1430374141
 21
106.7469705104
 31
0.0
 12
266.0430374141
 22
106.7469705104
 32
0.0
 13
266.0430374141
 23
106.7469705104
 33
0.0
  0
SOLID
  5
256
330
252
100
AcDbEntity
  8
VERMASSUNG
100
AcDbTrace
 10
265.5930374141
 20
92.7469705104
 30
0.0
 11
266.0430374141
 21
95.7469705104
 31
0.0
 12
265.1430374141
 22
95.7469705104
 32
0.0
 13
265.1430374141
 23
95.7469705104
 33
0.0
  0
LINE
  5
257
330
252
100
AcDbEntity
  8
VERMASSUNG
100
AcDbLine
 10
255.8567072964
 20
109.7469705104
 30
0.0
 11
266.5930374141
 21
109.7469705104
 31
0.0
  0
LINE
  5
258
330
252
100
AcDbEntity
  8
VERMASSUNG
100
AcDbLine
 10
256.9763314844
 20
92.7469705104
 30
0.0
 11
266.5930374141
 21
92.7469705104
 31
0.0
  0
LINE
  5
259
330
252
100
AcDbEntity
  8
VERMASSUNG
100
AcDbLine
 10
265.5930374141
 20
109.7469705104
 30
0.0
 11
265.5930374141
 21
92.7469705104
 31
0.0
  0
MTEXT
  5
25A
330
252
100
AcDbEntity
  8
VERMASSUNG
100
AcDbMText
 10
263.014902051
 20
100.047425833
 30
0.0
 40
2.0
 41
0.0
 71
     1
 72
     1
  1
17
  7
SLDTEXTSTYLE0
 11
-7.044195017643634E-15
 21
1.0
 31
0.0
 73
     1
 44
1.0
  0
ENDBLK
  5
254
330
252
100
AcDbEntity
  8
0
100
AcDbBlockEnd
  0
BLOCK
  5
29F
330
29E
100
AcDbEntity
  8
0
100
AcDbBlockBegin
  2
*D6
 70
     1
 10
0.0
 20
0.0
 30
0.0
  3
*D6
  1

  0
SOLID
  5
2A1
330
29E
100
AcDbEntity
  8
VERMASSUNG
100
AcDbTrace
 10
46.7463629032
 20
92.7683642138
 30
0.0
 11
47.1963629032
 21
95.7683642138
 31
0.0
 12
46.2963629032
 22
95.7683642138
 32
0.0
 13
46.2963629032
 23
95.7683642138
 33
0.0
  0
SOLID
  5
2A2
330
29E
100
AcDbEntity
  8
VERMASSUNG
100
AcDbTrace
 10
46.7463629032
 20
124.7683642138
 30
0.0
 11
46.2963629032
 21
121.7683642138
 31
0.0
 12
47.1963629032
 22
121.7683642138
 32
0.0
 13
47.1963629032
 23
121.7683642138
 33
0.0
  0
LINE
  5
2A3
330
29E
100
AcDbEntity
  8
VERMASSUNG
100
AcDbLine
 10
72.3987819835
 20
92.7683642138
 30
0.0
 11
45.7463629032
 21
92.7683642138
 31
0.0
  0
LINE
  5
2A4
330
29E
100
AcDbEntity
  8
VERMASSUNG
100
AcDbLine
 10
72.3987819835
 20
124.7683642138
 30
0.0
 11
45.7463629032
 21
124.7683642138
 31
0.0
  0
LINE
  5
2A5
330
29E
100
AcDbEntity
  8
VERMASSUNG
100
AcDbLine
 10
46.7463629032
 20
92.7683642138
 30
0.0
 11
46.7463629032
 21
124.7683642138
 31
0.0
  0
MTEXT
  5
2A6
330
29E
100
AcDbEntity
  8
VERMASSUNG
100
AcDbMText
 10
44.1682274237
 20
105.5642851009
 30
0.0
 40
2.0
 41
0.0
 71
     1
 72
     1
  1
%%c
  7
SLDTEXTSTYLE0
 11
6.123233995736766E-17
 21
1.0
 31
0.0
 73
     1
 44
1.0
  0
MTEXT
  5
2A7
330
29E
100
AcDbEntity
  8
VERMASSUNG
100
AcDbMText
 10
44.1682275401
 20
109.1726913912
 30
0.0
 40
2.0
 41
0.0
 71
     1
 72
     1
  1
32
  7
SLDTEXTSTYLE0
 11
6.123233995736766E-17
 21
1.0
 31
0.0
 73
     1
 44
1.0
  0
ENDBLK
  5
2A0
330
29E
100
AcDbEntity
  8
0
100
AcDbBlockEnd
  0
BLOCK
  5
2A9
330
2A8
100
AcDbEntity
  8
0
100
AcDbBlockBegin
  2
SW_CENTERMARKSYMBOL_0
 70
     0
 10
0.0
 20
0.0
 30
0.0
  3
SW_CENTERMARKSYMBOL_0
  1

  0
LINE
  5
2AB
330
2A8
100
AcDbEntity
  8
VERMASSUNG
 62
     0
100
AcDbLine
 10
0.0
 20
0.0
 30
0.0
 11
0.0
 21
2.5
 31
0.0
  0
LINE
  5
2AC
330
2A8
100
AcDbEntity
  8
VERMASSUNG
 62
     0
100
AcDbLine
 10
0.0
 20
0.0
 30
0.0
 11
-2.5
 21
0.0
 31
0.0
  0
LINE
  5
2AD
330
2A8
100
AcDbEntity
  8
VERMASSUNG
 62
     0
100
AcDbLine
 10
0.0
 20
0.0
 30
0.0
 11
0.0
 21
-2.5
 31
0.0
  0
LINE
  5
2AE
330
2A8
100
AcDbEntity
  8
VERMASSUNG
 62
     0
100
AcDbLine
 10
0.0
 20
0.0
 30
0.0
 11
2.5
 21
0.0
 31
0.0
  0
LINE
  5
2AF
330
2A8
100
AcDbEntity
  8
VERMASSUNG
 62
     0
100
AcDbLine
 10
0.0
 20
5.0
 30
0.0
 11
0.0
 21
22.5
 31
0.0
  0
LINE
  5
2B0
330
2A8
100
AcDbEntity
  8
VERMASSUNG
 62
     0
100
AcDbLine
 10
-5.0
 20
0.0
 30
0.0
 11
-22.5
 21
0.0
 31
0.0
  0
LINE
  5
2B1
330
2A8
100
AcDbEntity
  8
VERMASSUNG
 62
     0
100
AcDbLine
 10
0.0
 20
-5.0
 30
0.0
 11
0.0
 21
-22.5
 31
0.0
  0
LINE
  5
2B2
330
2A8
100
AcDbEntity
  8
VERMASSUNG
 62
     0
100
AcDbLine
 10
5.0
 20
0.0
 30
0.0
 11
22.5
 21
0.0
 31
0.0
  0
ENDBLK
  5
2AA
330
2A8
100
AcDbEntity
  8
0
100
AcDbBlockEnd
  0
ENDSEC
  0
SECTION
  2
ENTITIES
  0
MTEXT
  5
45
330
1F
100
AcDbEntity
  8
KOPF_DÜNN
100
AcDbMText
 10
13.8892156294
 20
23.8442973028
 30
0.0
 40
3.0
 41
0.0
 71
     1
 72
     1
  1
HA4.BCC.LLA.110
  7
SLDTEXTSTYLE0
 73
     1
 44
1.0
  0
MTEXT
  5
46
330
1F
100
AcDbEntity
  8
VERMASSUNG
100
AcDbMText
 10
13.9329988022
 20
28.8834360957
 30
0.0
 40
3.0
 41
0.0
 71
     1
 72
     1
  1
Bohrstange_Boring bar
  7
SLDTEXTSTYLE0
 73
     1
 44
1.0
  0
MTEXT
  5
47
330
1F
100
AcDbEntity
  8
VERMASSUNG
100
AcDbMText
 10
98.8601118557
 20
13.8365368179
 30
0.0
 40
2.0
 41
0.0
 71
     1
 72
     1
  1
Datum: 24.02.2011
  7
SLDTEXTSTYLE0
 73
     1
 44
1.0
  0
MTEXT
  5
49
330
1F
100
AcDbEntity
  8
VERMASSUNG
100
AcDbMText
 10
13.933048693
 20
18.0482802738
 30
0.0
 40
2.0
 41
0.0
 71
     1
 72
     1
  1
DIN 69893 HSK 40 A ICTM / CC.. 12 04..
  7
SLDTEXTSTYLE1
 73
     1
 44
1.0
  0
MTEXT
  5
4A
330
1F
100
AcDbEntity
  8
VERMASSUNG
100
AcDbMText
 10
13.9808475933
 20
13.9090973692
 30
0.0
 40
2.0
 41
0.0
 71
     1
 72
     1
  1
Gewicht: 461g
  7
SLDTEXTSTYLE0
 73
     1
 44
1.0
  0
LINE
  5
4B
330
1F
100
AcDbEntity
  8
0
  6
Continuous
 62
     7
370
    15
100
AcDbLine
 10
251.4327338458
 20
100.0800042361
 30
0.0
 11
251.4327338458
 21
99.9683321401
 31
0.0
  0
LINE
  5
4C
330
1F
100
AcDbEntity
  8
0
  6
Continuous
 62
     7
370
    15
100
AcDbLine
 10
248.6327833057
 20
99.3917512655
 30
0.0
 11
248.6327833057
 21
99.5033907651
 31
0.0
  0
LINE
  5
4D
330
1F
100
AcDbEntity
  8
0
  6
Continuous
 62
     7
370
    15
100
AcDbLine
 10
253.5309589029
 20
99.7103045642
 30
0.0
 11
253.5309589029
 21
99.7242557764
 31
0.0
  0
LINE
  5
4E
330
1F
100
AcDbEntity
  8
0
  6
Continuous
 62
     7
370
    15
100
AcDbLine
 10
246.5309596182
 20
99.7242557764
 30
0.0
 11
246.5309596182
 21
99.7103045642
 31
0.0
  0
LINE
  5
4F
330
1F
100
AcDbEntity
  8
0
  6
Continuous
 62
     7
370
    15
100
AcDbLine
 10
147.2763314987
 20
89.7469709575
 30
0.0
 11
154.9263319493
 21
89.7469709575
 31
0.0
  0
LINE
  5
50
330
1F
100
AcDbEntity
  8
0
  6
Continuous
 62
     7
370
    15
100
AcDbLine
 10
154.9290616558
 20
129.7469700634
 30
0.0
 11
147.2763314987
 21
129.7469700634
 31
0.0
  0
ARC
  5
51
330
1F
100
AcDbEntity
  8
0
  6
Continuous
 62
     7
370
    15
100
AcDbCircle
 10
147.2763314844
 20
90.0469705104
 30
0.0
 40
0.2999999999999972
100
AcDbArc
 50
180.0
 51
270.0
  0
ARC
  5
52
330
1F
100
AcDbEntity
  8
0
  6
Continuous
 62
     7
370
    15
100
AcDbCircle
 10
147.2763314844
 20
129.4469705104
 30
0.0
 40
0.3000000000000114
100
AcDbArc
 50
90.0
 51
180.0
  0
ARC
  5
53
330
1F
100
AcDbEntity
  8
0
  6
Continuous
 62
     7
370
    15
100
AcDbCircle
 10
146.4763314844
 20
94.2932701096
 30
0.0
 40
0.6000000000000019
100
AcDbArc
 50
33.5573097619
 51
90.0
  0
ARC
  5
54
330
1F
100
AcDbEntity
  8
0
  6
Continuous
 62
     7
370
    15
100
AcDbCircle
 10
146.4763314844
 20
125.2006709112
 30
0.0
 40
0.6000000000000019
100
AcDbArc
 50
270.0
 51
326.4426902381
  0
LINE
  5
55
330
1F
100
AcDbEntity
  8
0
  6
Continuous
 62
     7
370
    15
100
AcDbLine
 10
138.212114808
 20
124.5117823541
 30
0.0
 11
130.6763312341
 21
124.1342381522
 31
0.0
  0
LINE
  5
56
330
1F
100
AcDbEntity
  8
0
  6
Continuous
 62
     7
370
    15
100
AcDbLine
 10
144.9763313894
 20
124.8506710812
 30
0.0
 11
143.6890233335
 21
124.7861760616
 31
0.0
  0
LINE
  5
57
330
1F
100
AcDbEntity
  8
0
  6
Continuous
 62
     7
370
    15
100
AcDbLine
 10
143.6891113435
 20
94.7077603027
 30
0.0
 11
144.9763313894
 21
94.6432699397
 31
0.0
  0
LINE
  5
58
330
1F
100
AcDbEntity
  8
0
  6
Continuous
 62
     7
370
    15
100
AcDbLine
 10
133.1763316438
 20
95.2344520896
 30
0.0
 11
138.2134372861
 21
94.9820925429
 31
0.0
  0
LINE
  5
59
330
1F
100
AcDbEntity
  8
0
  6
Continuous
 62
     7
370
    15
100
AcDbLine
 10
144.9763313894
 20
94.6432699397
 30
0.0
 11
145.8330443156
 21
94.8728260532
 31
0.0
  0
LINE
  5
5A
330
1F
100
AcDbEntity
  8
0
  6
Continuous
 62
     7
370
    15
100
AcDbLine
 10
145.8330443156
 20
124.6211149677
 30
0.0
 11
144.9763313894
 21
124.8506710812
 31
0.0
  0
ARC
  5
5B
330
1F
100
AcDbEntity
  8
0
  6
Continuous
 62
     7
370
    15
100
AcDbCircle
 10
145.9883356848
 20
94.2932701096
 30
0.0
 40
0.6000000000000008
100
AcDbArc
 50
90.0
 51
105.0
  0
ARC
  5
5C
330
1F
100
AcDbEntity
  8
0
  6
Continuous
 62
     7
370
    15
100
AcDbCircle
 10
145.9883356848
 20
125.2006709112
 30
0.0
 40
0.6000000000000008
100
AcDbArc
 50
255.0
 51
270.0
  0
LINE
  5
5D
330
1F
100
AcDbEntity
  8
0
  6
Continuous
 62
     7
370
    15
100
AcDbLine
 10
145.9883357192
 20
94.8932704463
 30
0.0
 11
146.4763314607
 21
94.8932704463
 31
0.0
  0
LINE
  5
5E
330
1F
100
AcDbEntity
  8
0
  6
Continuous
 62
     7
370
    15
100
AcDbLine
 10
146.4763314607
 20
124.6006705746
 30
0.0
 11
145.9883357192
 21
124.6006705746
 31
0.0
  0
ARC
  5
5F
330
1F
100
AcDbEntity
  8
0
  6
Continuous
 62
     7
370
    15
100
AcDbCircle
 10
167.9263314844
 20
96.2469705104
 30
0.0
 40
1.000000000000028
100
AcDbArc
 50
90.0
 51
180.0
  0
ARC
  5
60
330
1F
100
AcDbEntity
  8
0
  6
Continuous
 62
     7
370
    15
100
AcDbCircle
 10
167.9263314844
 20
123.2469705104
 30
0.0
 40
1.000000000000028
100
AcDbArc
 50
180.0
 51
270.0
  0
LINE
  5
61
330
1F
100
AcDbEntity
  8
0
  6
Continuous
 62
     7
370
    15
100
AcDbLine
 10
228.4606194616
 20
97.2469703242
 30
0.0
 11
232.976334405
 21
97.2469703242
 31
0.0
  0
LINE
  5
62
330
1F
100
AcDbEntity
  8
0
  6
Continuous
 62
     7
370
    15
100
AcDbLine
 10
167.9263322175
 20
97.2469703242
 30
0.0
 11
228.4606194616
 21
97.2469703242
 31
0.0
  0
LINE
  5
63
330
1F
100
AcDbEntity
  8
0
  6
Continuous
 62
     7
370
    15
100
AcDbLine
 10
232.976334405
 20
122.2469706967
 30
0.0
 11
167.9263322175
 21
122.2469706967
 31
0.0
  0
ARC
  5
64
330
1F
100
AcDbEntity
  8
0
  6
Continuous
 62
     7
370
    15
100
AcDbCircle
 10
129.7763314844
 20
123.5269705104
 30
0.0
 40
0.8999999999999915
100
AcDbArc
 50
270.0
 51
311.1792132368
  0
ARC
  5
65
330
1F
100
AcDbEntity
  8
0
  6
Continuous
 62
     7
370
    15
100
AcDbCircle
 10
132.2763314844
 20
96.0259705104
 30
0.0
 40
0.8999999999999915
100
AcDbArc
 50
30.4426030216
 51
90.0
  0
LINE
  5
66
330
1F
100
AcDbEntity
  8
0
  6
Continuous
 62
     7
370
    15
100
AcDbLine
 10
128.0263310791
 20
122.6269707962
 30
0.0
 11
127.0763317616
 21
121.6769705474
 31
0.0
  0
LINE
  5
67
330
1F
100
AcDbEntity
  8
0
  6
Continuous
 62
     7
370
    15
100
AcDbLine
 10
129.7763309003
 20
122.6269707962
 30
0.0
 11
128.0263310791
 21
122.6269707962
 31
0.0
  0
LINE
  5
68
330
1F
100
AcDbEntity
  8
0
  6
Continuous
 62
     7
370
    15
100
AcDbLine
 10
128.0263310791
 20
96.9259704411
 30
0.0
 11
132.2763313101
 21
96.9259704411
 31
0.0
  0
LINE
  5
69
330
1F
100
AcDbEntity
  8
0
  6
Continuous
 62
     7
370
    15
100
AcDbLine
 10
127.0763317616
 20
97.8759706899
 30
0.0
 11
128.0263310791
 21
96.9259704411
 31
0.0
  0
LINE
  5
6A
330
1F
100
AcDbEntity
  8
0
  6
Continuous
 62
     7
370
    15
100
AcDbLine
 10
233.4763279677
 20
122.7469707787
 30
0.0
 11
232.976334405
 21
122.2469706967
 31
0.0
  0
LINE
  5
6B
330
1F
100
AcDbEntity
  8
0
  6
Continuous
 62
     7
370
    15
100
AcDbLine
 10
238.6876514674
 20
122.7469707787
 30
0.0
 11
233.4763279677
 21
122.7469707787
 31
0.0
  0
CIRCLE
  5
6C
330
1F
100
AcDbEntity
  8
0
  6
Continuous
 62
     7
370
    15
100
AcDbCircle
 10
250.0369742863
 20
99.7098954274
 30
0.0
 40
3.493933919498106
  0
CIRCLE
  5
6D
330
1F
100
AcDbEntity
  8
0
  6
Continuous
 62
     7
370
    15
100
AcDbCircle
 10
250.0357136745
 20
99.6753161551
 30
0.0
 40
2.629159953609757
  0
CIRCLE
  5
6E
330
1F
100
AcDbEntity
  8
0
  6
Continuous
 62
     7
370
    15
100
AcDbCircle
 10
250.0344269507
 20
99.6754342011
 30
0.0
 40
1.99647258695505
  0
SPLINE
  5
6F
330
1F
100
AcDbEntity
  8
0
  6
Continuous
 62
     7
370
    15
100
AcDbSpline
210
0.0
220
0.0
230
1.0
 70
     8
 71
     3
 72
    15
 73
    11
 74
     0
 42
0.00000001
 43
0.00000001
 40
0.0
 40
0.0
 40
0.0
 40
0.0
 40
0.1262449880685747
 40
0.253365438223978
 40
0.379420745133865
 40
0.5042671485083119
 40
0.6284510509934669
 40
0.7526362618308534
 40
0.8774879347026175
 40
1.0
 40
1.0
 40
1.0
 40
1.0
 10
250.1840165377508
 20
101.3781384512346
 30
0.0
 10
250.1640934943437
 20
101.4171944529675
 30
0.0
 10
250.1241092486258
 20
101.4955772952944
 30
0.0
 10
250.0179025062158
 20
101.5802627649787
 30
0.0
 10
249.8917213813327
 20
101.6270150133968
 30
0.0
 10
249.7570928560629
 20
101.6293120250649
 30
0.0
 10
249.6297837582397
 20
101.588042570142
 30
0.0
 10
249.5241843517627
 20
101.5079896586617
 30
0.0
 10
249.4485108833337
 20
101.3991764491269
 30
0.0
 10
249.4322566015243
 20
101.3149986611223
 30
0.0
 10
249.4242063284765
 20
101.2733078509133
 30
0.0
  0
SPLINE
  5
70
330
1F
100
AcDbEntity
  8
0
  6
Continuous
 62
     7
370
    15
100
AcDbSpline
210
0.0
220
0.0
230
1.0
 70
     8
 71
     3
 72
    12
 73
     8
 74
     0
 42
0.00000001
 43
0.00000001
 40
0.0
 40
0.0
 40
0.0
 40
0.0
 40
0.2058745111807026
 40
0.4120989888511653
 40
0.6141704261281634
 40
0.813293324752406
 40
1.0
 40
1.0
 40
1.0
 40
1.0
 10
249.4242063284765
 20
101.2733078509133
 30
0.0
 10
249.409616180848
 20
101.1985551879559
 30
0.0
 10
249.3804110837701
 20
101.0489227898412
 30
0.0
 10
249.2444221127201
 20
100.856718754614
 30
0.0
 10
249.0591218066575
 20
100.7192200131618
 30
0.0
 10
248.8448961804623
 20
100.6459925050733
 30
0.0
 10
248.700945075673
 20
100.6541437828783
 30
0.0
 10
248.6312857390294
 20
100.6580882653158
 30
0.0
  0
SPLINE
  5
71
330
1F
100
AcDbEntity
  8
0
  6
Continuous
 62
     7
370
    15
100
AcDbSpline
210
0.0
220
0.0
230
1.0
 70
     8
 71
     3
 72
    15
 73
    11
 74
     0
 42
0.00000001
 43
0.00000001
 40
0.0
 40
0.0
 40
0.0
 40
0.0
 40
0.1268771885044672
 40
0.2539990328113331
 40
0.3800536500993767
 40
0.5049036275599015
 40
0.6290858864523811
 40
0.7532717164880159
 40
0.878125414667647
 40
1.0
 40
1.0
 40
1.0
 40
1.0
 10
248.6312857390294
 20
100.6580882653158
 30
0.0
 10
248.5867875536816
 20
100.6601583577962
 30
0.0
 10
248.4977053776544
 20
100.6643025344923
 30
0.0
 10
248.3700580291476
 20
100.6140896981404
 30
0.0
 10
248.2659708990357
 20
100.5279530578172
 30
0.0
 10
248.1966825083544
 20
100.4125749392862
 30
0.0
 10
248.1692776778119
 20
100.2820254439193
 30
0.0
 10
248.1867758017964
 20
100.1511277779002
 30
0.0
 10
248.2443878569769
 20
100.0321578510169
 30
0.0
 10
248.3099862919903
 20
99.9766627737363
 30
0.0
 10
248.3423894763837
 20
99.94925027187277
 30
0.0
  0
SPLINE
  5
72
330
1F
100
AcDbEntity
  8
0
  6
Continuous
 62
     7
370
    15
100
AcDbSpline
210
0.0
220
0.0
230
1.0
 70
     8
 71
     3
 72
    12
 73
     8
 74
     0
 42
0.00000001
 43
0.00000001
 40
0.0
 40
0.0
 40
0.0
 40
0.0
 40
0.2057955297661041
 40
0.4120007561441302
 40
0.614054288223897
 40
0.8131788388994458
 40
1.0
 40
1.0
 40
1.0
 40
1.0
 10
248.3423894763837
 20
99.94925027187277
 30
0.0
 10
248.4006660390306
 20
99.89968849032117
 30
0.0
 10
248.5173351809857
 20
99.8004662598951
 30
0.0
 10
248.6173296815001
 20
99.58756880842566
 30
0.0
 10
248.643998391198
 20
99.35870313974374
 30
0.0
 10
248.5993208931093
 20
99.13628695506992
 30
0.0
 10
248.5189354753571
 20
99.01520912698028
 30
0.0
 10
248.4800240517507
 20
98.95660010571886
 30
0.0
  0
SPLINE
  5
73
330
1F
100
AcDbEntity
  8
0
  6
Continuous
 62
     7
370
    15
100
AcDbSpline
210
0.0
220
0.0
230
1.0
 70
     8
 71
     3
 72
    15
 73
    11
 74
     0
 42
0.00000001
 43
0.00000001
 40
0.0
 40
0.0
 40
0.0
 40
0.0
 40
0.1268009417829147
 40
0.253924754663919
 40
0.3799857618038656
 40
0.5048414167885847
 40
0.6290203643211761
 40
0.7532075292100007
 40
0.8780556653064924
 40
1.0
 40
1.0
 40
1.0
 40
1.0
 10
248.4800240517507
 20
98.95660010571886
 30
0.0
 10
248.4555864483757
 20
98.9189818143418
 30
0.0
 10
248.4066490165688
 20
98.84364944476727
 30
0.0
 10
248.3854998577011
 20
98.70778577184981
 30
0.0
 10
248.4076495813524
 20
98.57446209159633
 30
0.0
 10
248.4729792604473
 20
98.45679945704047
 30
0.0
 10
248.5727970260032
 20
98.36794266611615
 30
0.0
 10
248.6957456480486
 20
98.3179174146797
 30
0.0
 10
248.8287395766118
 20
98.30868524589246
 30
0.0
 10
248.9105309484882
 20
98.33807214742502
 30
0.0
 10
248.9509454489599
 20
98.35259271259714
 30
0.0
  0
SPLINE
  5
74
330
1F
100
AcDbEntity
  8
0
  6
Continuous
 62
     7
370
    15
100
AcDbSpline
210
0.0
220
0.0
230
1.0
 70
     8
 71
     3
 72
    12
 73
     8
 74
     0
 42
0.00000001
 43
0.00000001
 40
0.0
 40
0.0
 40
0.0
 40
0.0
 40
0.2058497180773771
 40
0.4120526391830873
 40
0.6141088604552578
 40
0.8132407697983074
 40
1.0
 40
1.0
 40
1.0
 40
1.0
 10
248.9509454489599
 20
98.35259271259714
 30
0.0
 10
249.0238257171811
 20
98.3785624889286
 30
0.0
 10
249.1697113037413
 20
98.43054660130105
 30
0.0
 10
249.4056664909113
 20
98.41110312708909
 30
0.0
 10
249.6175985707557
 20
98.31964450174219
 30
0.0
 10
249.7871207549797
 20
98.1691418725796
 30
0.0
 10
249.8507254050375
 20
98.03842500399838
 30
0.0
 10
249.8815080643544
 20
97.97516213204075
 30
0.0
  0
SPLINE
  5
75
330
1F
100
AcDbEntity
  8
0
  6
Continuous
 62
     7
370
    15
100
AcDbSpline
210
0.0
220
0.0
230
1.0
 70
     8
 71
     3
 72
    15
 73
    11
 74
     0
 42
0.00000001
 43
0.00000001
 40
0.0
 40
0.0
 40
0.0
 40
0.0
 40
0.126255814336883
 40
0.2533810272204775
 40
0.3794441124621478
 40
0.5042979201589992
 40
0.6284833092191214
 40
0.7526644000709042
 40
0.877510205297929
 40
1.0
 40
1.0
 40
1.0
 40
1.0
 10
249.8815080643544
 20
97.97516213204075
 30
0.0
 10
249.9014338845683
 20
97.93517290412322
 30
0.0
 10
249.9414227343534
 20
97.85491908214509
 30
0.0
 10
250.0476288263189
 20
97.76817801458301
 30
0.0
 10
250.1738183107164
 20
97.72014412792556
 30
0.0
 10
250.3084520250295
 20
97.71744521482314
 30
0.0
 10
250.4357622140816
 20
97.75918734341003
 30
0.0
 10
250.5413538336417
 20
97.84056377215751
 30
0.0
 10
250.6170194841831
 20
97.95140475745983
 30
0.0
 10
250.6332652935798
 20
98.03740375787204
 30
0.0
 10
250.6413108230481
 20
98.07999366368462
 30
0.0
  0
SPLINE
  5
76
330
1F
100
AcDbEntity
  8
0
  6
Continuous
 62
     7
370
    15
100
AcDbSpline
210
0.0
220
0.0
230
1.0
 70
     8
 71
     3
 72
    12
 73
     8
 74
     0
 42
0.00000001
 43
0.00000001
 40
0.0
 40
0.0
 40
0.0
 40
0.0
 40
0.205873016260897
 40
0.4120953268086757
 40
0.614170939852847
 40
0.8133076288829529
 40
1.0
 40
1.0
 40
1.0
 40
1.0
 10
250.6413108230481
 20
98.07999366368462
 30
0.0
 10
250.6559039080509
 20
98.15634816412252
 30
0.0
 10
250.6851148374022
 20
98.3091867117999
 30
0.0
 10
250.8211053918016
 20
98.50396380968392
 30
0.0
 10
251.0064044949935
 20
98.64127823524568
 30
0.0
 10
251.2206330405863
 20
98.71178429877745
 30
0.0
 10
251.3645845666472
 20
98.7006162421169
 30
0.0
 10
251.4342388630758
 20
98.69521231795956
 30
0.0
  0
SPLINE
  5
77
330
1F
100
AcDbEntity
  8
0
  6
Continuous
 62
     7
370
    15
100
AcDbSpline
210
0.0
220
0.0
230
1.0
 70
     8
 71
     3
 72
    15
 73
    11
 74
     0
 42
0.00000001
 43
0.00000001
 40
0.0
 40
0.0
 40
0.0
 40
0.0
 40
0.1268738483367824
 40
0.2539846327388836
 40
0.3800326824538795
 40
0.5048746879987697
 40
0.6290531918097663
 40
0.7532385907906324
 40
0.8780944758111755
 40
1.0
 40
1.0
 40
1.0
 40
1.0
 10
251.4342388630758
 20
98.69521231795956
 30
0.0
 10
251.4787371210662
 20
98.69220518810913
 30
0.0
 10
251.5678167372469
 20
98.68618531261336
 30
0.0
 10
251.695459486003
 20
98.73434999849384
 30
0.0
 10
251.7995463510269
 20
98.81919543427347
 30
0.0
 10
251.8688335190252
 20
98.93416442532695
 30
0.0
 10
251.8962475796022
 20
99.06517696713705
 30
0.0
 10
251.8787552427975
 20
99.19739288713325
 30
0.0
 10
251.8211485699809
 20
99.31840891328332
 30
0.0
 10
251.7555398268269
 20
99.37573225852137
 30
0.0
 10
251.7231276751409
 20
99.40405124272515
 30
0.0
  0
SPLINE
  5
78
330
1F
100
AcDbEntity
  8
0
  6
Continuous
 62
     7
370
    15
100
AcDbSpline
210
0.0
220
0.0
230
1.0
 70
     8
 71
     3
 72
    12
 73
     8
 74
     0
 42
0.00000001
 43
0.00000001
 40
0.0
 40
0.0
 40
0.0
 40
0.0
 40
0.2058312801800338
 40
0.4120751634324247
 40
0.6141700220912937
 40
0.8133049771632834
 40
1.0
 40
1.0
 40
1.0
 40
1.0
 10
251.7231276751409
 20
99.40405124272515
 30
0.0
 10
251.6648449749478
 20
99.45522322611374
 30
0.0
 10
251.5481627428481
 20
99.55766977067965
 30
0.0
 10
251.4481699383398
 20
99.77317884408505
 30
0.0
 10
251.4215166419195
 20
100.0018929616266
 30
0.0
 10
251.4662500692176
 20
100.2215566102982
 30
0.0
 10
251.5466090680131
 20
100.3395877082365
 30
0.0
 10
251.5854930997739
 20
100.3967004775565
 30
0.0
  0
SPLINE
  5
79
330
1F
100
AcDbEntity
  8
0
  6
Continuous
 62
     7
370
    15
100
AcDbSpline
210
0.0
220
0.0
230
1.0
 70
     8
 71
     3
 72
    15
 73
    11
 74
     0
 42
0.00000001
 43
0.00000001
 40
0.0
 40
0.0
 40
0.0
 40
0.0
 40
0.12678985114255
 40
0.253897136291488
 40
0.3799430725999756
 40
0.5047848018229683
 40
0.6289643858034787
 40
0.7531537590463537
 40
0.8780081027446393
 40
1.0
 40
1.0
 40
1.0
 40
1.0
 10
251.5854930997739
 20
100.3967004775565
 30
0.0
 10
251.6099338648618
 20
100.4333790743432
 30
0.0
 10
251.6588765855028
 20
100.5068280973005
 30
0.0
 10
251.6800235932217
 20
100.6406374420758
 30
0.0
 10
251.6578782149794
 20
100.7726647969051
 30
0.0
 10
251.592574565061
 20
100.8899276644698
 30
0.0
 10
251.4927629456221
 20
100.9792535946374
 30
0.0
 10
251.3698232910668
 20
101.0306133000872
 30
0.0
 10
251.2368156230206
 20
101.0418962527
 30
0.0
 10
251.1550084291044
 20
101.0143307809665
 30
0.0
 10
251.1145791531453
 20
101.0007078706782
 30
0.0
  0
SPLINE
  5
7A
330
1F
100
AcDbEntity
  8
0
  6
Continuous
 62
     7
370
    15
100
AcDbSpline
210
0.0
220
0.0
230
1.0
 70
     8
 71
     3
 72
    12
 73
     8
 74
     0
 42
0.00000001
 43
0.00000001
 40
0.0
 40
0.0
 40
0.0
 40
0.0
 40
0.2058922421978008
 40
0.4121309463550238
 40
0.6142252095822811
 40
0.8133494409092845
 40
1.0
 40
1.0
 40
1.0
 40
1.0
 10
251.1145791531453
 20
101.0007078706782
 30
0.0
 10
251.0416864911582
 20
100.9763376561887
 30
0.0
 10
250.8957785081938
 20
100.9275562186115
 30
0.0
 10
250.6597902646326
 20
100.9495976330003
 30
0.0
 10
250.4478421547964
 20
101.0409010723951
 30
0.0
 10
250.2783556199817
 20
101.1886946933773
 30
0.0
 10
250.2147776535149
 20
101.3163665829016
 30
0.0
 10
250.1840165377508
 20
101.3781384512346
 30
0.0
  0
LWPOLYLINE
  5
7B
330
1F
100
AcDbEntity
  8
0
  6
Continuous
 62
     7
370
    15
100
AcDbPolyline
 90
        3
 70
   128
 43
0.0
 10
251.6688725472
 20
100.7031996682
 10
251.6497469068
 20
100.6260293483
 10
251.5854930998
 20
100.5117560684
  0
ARC
  5
7C
330
1F
100
AcDbEntity
  8
0
  6
Continuous
 62
     7
370
    15
100
AcDbCircle
 10
248.5692731919
 20
100.3849662064
 30
0.0
 40
0.3928383562539499
100
AcDbArc
 50
190.0501288782
 51
234.7216072355
  0
ARC
  5
7D
330
1F
100
AcDbEntity
  8
0
  6
Continuous
 62
     7
370
    15
100
AcDbCircle
 10
252.1194703702
 20
100.0799281694
 30
0.0
 40
0.6867365286201469
100
AcDbArc
 50
141.0375007395
 51
179.993653606
  0
ARC
  5
7E
330
1F
100
AcDbEntity
  8
0
  6
Continuous
 62
     7
370
    15
100
AcDbCircle
 10
247.9455003294
 20
99.5031671446
 30
0.0
 40
0.6872830126707775
100
AcDbArc
 50
0.0186422661
 51
54.7268174026
  0
ARC
  5
7F
330
1F
100
AcDbEntity
  8
0
  6
Continuous
 62
     7
370
    15
100
AcDbCircle
 10
251.4953041847
 20
99.1993933024
 30
0.0
 40
0.3938610502000037
100
AcDbArc
 50
261.0807212451
 51
351.5697389596
  0
ARC
  5
80
330
1F
100
AcDbEntity
  8
0
  6
Continuous
 62
     7
370
    15
100
AcDbCircle
 10
248.7866476458
 20
98.8257700345
 30
0.0
 40
0.3940113480609802
100
AcDbArc
 50
188.1031045385
 51
294.6445407179
  0
ARC
  5
81
330
1F
100
AcDbEntity
  8
0
  6
Continuous
 62
     7
370
    15
100
AcDbCircle
 10
251.3273277394
 20
98.1294938022
 30
0.0
 40
0.6891445033471775
100
AcDbArc
 50
81.0753159406
 51
174.5392591351
  0
ARC
  5
82
330
1F
100
AcDbEntity
  8
0
  6
Continuous
 62
     7
370
    15
100
AcDbCircle
 10
249.2383192248
 20
97.8402861145
 30
0.0
 40
0.690048551321686
100
AcDbArc
 50
21.2366721591
 51
114.6109422896
  0
ARC
  5
83
330
1F
100
AcDbEntity
  8
0
  6
Continuous
 62
     7
370
    15
100
AcDbCircle
 10
250.2489647789
 20
98.2328464397
 30
0.0
 40
0.3941599611167845
100
AcDbArc
 50
201.2112517378
 51
354.5010879493
  0
ARC
  5
84
330
1F
100
AcDbEntity
  8
0
  6
Continuous
 62
     7
370
    15
100
AcDbCircle
 10
250.0309592605
 20
99.7174894104
 30
0.0
 40
3.50000618289636
100
AcDbArc
 50
0.1107667903
 51
179.8892332097
  0
LINE
  5
85
330
1F
100
AcDbEntity
  8
0
  6
Continuous
 62
     7
370
    15
100
AcDbLine
 10
256.9748109699
 20
93.1807740539
 30
0.0
 11
255.9216565014
 21
105.1890456996
 31
0.0
  0
ARC
  5
86
330
1F
100
AcDbEntity
  8
0
  6
Continuous
 62
     7
370
    15
100
AcDbCircle
 10
256.576769333
 20
93.1464461925
 30
0.0
 40
0.3995191444576334
100
AcDbArc
 50
264.9310909336
 51
4.9290998836
  0
LINE
  5
87
330
1F
100
AcDbEntity
  8
0
  6
Continuous
 62
     7
370
    15
100
AcDbLine
 10
244.5038727046
 20
93.7990772485
 30
0.0
 11
256.5414703012
 21
92.748489505
 31
0.0
  0
ARC
  5
88
330
1F
100
AcDbEntity
  8
0
  6
Continuous
 62
     7
370
    15
100
AcDbCircle
 10
244.5382019613
 20
94.1971017327
 30
0.0
 40
0.3995021750452949
100
AcDbArc
 50
185.0686541246
 51
265.0704893732
  0
LINE
  5
89
330
1F
100
AcDbEntity
  8
0
  6
Continuous
 62
     7
370
    15
100
AcDbLine
 10
243.0871075512
 20
106.170078548
 30
0.0
 11
244.1402620197
 21
94.1618059709
 31
0.0
  0
ARC
  5
8A
330
1F
100
AcDbEntity
  8
0
  6
Continuous
 62
     7
370
    15
100
AcDbCircle
 10
243.4851380086
 20
106.2044176162
 30
0.0
 40
0.3995089693873312
100
AcDbArc
 50
84.9293518818
 51
184.9308389354
  0
LINE
  5
8B
330
1F
100
AcDbEntity
  8
0
  6
Continuous
 62
     7
370
    15
100
AcDbLine
 10
255.5580383659
 20
105.5517753534
 30
0.0
 11
243.5204482199
 21
106.6023630969
 31
0.0
  0
ARC
  5
8C
330
1F
100
AcDbEntity
  8
0
  6
Continuous
 62
     7
370
    15
100
AcDbCircle
 10
255.5237042659
 20
105.1537379307
 30
0.0
 40
0.3995154819267541
100
AcDbArc
 50
5.0702136118
 51
85.0699567833
  0
ARC
  5
8D
330
1F
100
AcDbEntity
  8
0
  6
Continuous
 62
     7
370
    15
100
AcDbCircle
 10
243.4851657568
 20
106.2044331544
 30
0.0
 40
0.3795393753240371
100
AcDbArc
 50
84.9302901426
 51
184.9298099731
  0
LINE
  5
8E
330
1F
100
AcDbEntity
  8
0
  6
Continuous
 62
     7
370
    15
100
AcDbLine
 10
243.1070304037
 20
106.1718173272
 30
0.0
 11
244.1601848722
 21
94.1635456815
 31
0.0
  0
ARC
  5
8F
330
1F
100
AcDbEntity
  8
0
  6
Continuous
 62
     7
370
    15
100
AcDbCircle
 10
244.5382333983
 20
94.1970804656
 30
0.0
 40
0.3795329627763737
100
AcDbArc
 50
185.0691526602
 51
265.0698897337
  0
LINE
  5
90
330
1F
100
AcDbEntity
  8
0
  6
Continuous
 62
     7
370
    15
100
AcDbLine
 10
244.5056161405
 20
93.8189516723
 30
0.0
 11
256.5432137371
 21
92.7683639288
 31
0.0
  0
ARC
  5
91
330
1F
100
AcDbEntity
  8
0
  6
Continuous
 62
     7
370
    15
100
AcDbCircle
 10
256.576748717
 20
93.1464225734
 30
0.0
 40
0.3795430590244865
100
AcDbArc
 50
264.9309528558
 51
4.9291472598
  0
LINE
  5
92
330
1F
100
AcDbEntity
  8
0
  6
Continuous
 62
     7
370
    15
100
AcDbLine
 10
256.9548881174
 20
93.1790343433
 30
0.0
 11
255.9017336489
 21
105.1873064547
 31
0.0
  0
ARC
  5
93
330
1F
100
AcDbEntity
  8
0
  6
Continuous
 62
     7
370
    15
100
AcDbCircle
 10
255.5236778252
 20
105.1537631391
 30
0.0
 40
0.3795409856679905
100
AcDbArc
 50
5.0703382127
 51
85.070017398
  0
LINE
  5
94
330
1F
100
AcDbEntity
  8
0
  6
Continuous
 62
     7
370
    15
100
AcDbLine
 10
255.5562949301
 20
105.5318999983
 30
0.0
 11
243.518704784
 21
106.5824877418
 31
0.0
  0
LINE
  5
95
330
1F
100
AcDbEntity
  8
0
  6
Continuous
 62
     7
370
    15
100
AcDbLine
 10
243.4855869532
 20
106.2201599538
 30
0.0
 11
243.1070304037
 21
106.1718173272
 31
0.0
  0
LINE
  5
96
330
1F
100
AcDbEntity
  8
0
  6
Continuous
 62
     7
370
    15
100
AcDbLine
 10
243.4855869532
 20
106.2201599538
 30
0.0
 11
243.518704784
 21
106.5824877418
 31
0.0
  0
LINE
  5
97
330
1F
100
AcDbEntity
  8
0
  6
Continuous
 62
     7
370
    15
100
AcDbLine
 10
255.5231770993
 20
105.1695722103
 30
0.0
 11
255.5562949301
 21
105.5318999983
 31
0.0
  0
LINE
  5
98
330
1F
100
AcDbEntity
  8
0
  6
Continuous
 62
     7
370
    15
100
AcDbLine
 10
254.9494823933
 20
104.6223061107
 30
0.0
 11
255.5231770993
 21
105.1695722103
 31
0.0
  0
LINE
  5
99
330
1F
100
AcDbEntity
  8
0
  6
Continuous
 62
     7
370
    15
100
AcDbLine
 10
244.4045862676
 20
105.337043567
 30
0.0
 11
243.4855869532
 21
106.2201599538
 31
0.0
  0
LINE
  5
9A
330
1F
100
AcDbEntity
  8
0
  6
Continuous
 62
     7
370
    15
100
AcDbLine
 10
244.5387339712
 20
94.2118878424
 30
0.0
 11
244.1601848722
 21
94.1635456815
 31
0.0
  0
LINE
  5
9B
330
1F
100
AcDbEntity
  8
0
  6
Continuous
 62
     7
370
    15
100
AcDbLine
 10
245.1124286772
 20
94.80921579
 30
0.0
 11
244.5387339712
 21
94.2118878424
 31
0.0
  0
LINE
  5
9C
330
1F
100
AcDbEntity
  8
0
  6
Continuous
 62
     7
370
    15
100
AcDbLine
 10
255.5231770993
 20
105.1695722103
 30
0.0
 11
255.9017336489
 21
105.1873064547
 31
0.0
  0
LINE
  5
9D
330
1F
100
AcDbEntity
  8
0
  6
Continuous
 62
     7
370
    15
100
AcDbLine
 10
256.5763315678
 20
93.1613000989
 30
0.0
 11
256.9548881174
 21
93.1790343433
 31
0.0
  0
LINE
  5
9E
330
1F
100
AcDbEntity
  8
0
  6
Continuous
 62
     7
370
    15
100
AcDbLine
 10
255.6573322535
 20
94.1117073357
 30
0.0
 11
256.5763315678
 21
93.1613000989
 31
0.0
  0
ARC
  5
9F
330
1F
100
AcDbEntity
  8
0
  6
Continuous
 62
     7
370
    15
100
AcDbCircle
 10
246.3666456956
 20
103.3285992108
 30
0.0
 40
0.9987880163759059
100
AcDbArc
 50
84.930417912
 51
184.9297729052
  0
LINE
  5
A0
330
1F
100
AcDbEntity
  8
0
  6
Continuous
 62
     7
370
    15
100
AcDbLine
 10
253.1919127823
 20
103.7355040147
 30
0.0
 11
246.4549040914
 21
104.3234800867
 31
0.0
  0
ARC
  5
A1
330
1F
100
AcDbEntity
  8
0
  6
Continuous
 62
     7
370
    15
100
AcDbCircle
 10
253.1060676235
 20
102.7404087445
 30
0.0
 40
0.9987912635142623
100
AcDbArc
 50
5.0702724496
 51
85.0693989242
  0
LINE
  5
A2
330
1F
100
AcDbEntity
  8
0
  6
Continuous
 62
     7
370
    15
100
AcDbLine
 10
254.6903586508
 20
96.1080838874
 30
0.0
 11
254.1009506703
 21
102.8286794148
 31
0.0
  0
ARC
  5
A3
330
1F
100
AcDbEntity
  8
0
  6
Continuous
 62
     7
370
    15
100
AcDbCircle
 10
253.6952782749
 20
96.0222402108
 30
0.0
 40
0.9987762969350036
100
AcDbArc
 50
264.9300444374
 51
4.9305897981
  0
LINE
  5
A4
330
1F
100
AcDbEntity
  8
0
  6
Continuous
 62
     7
370
    15
100
AcDbLine
 10
246.8700057388
 20
95.6153481215
 30
0.0
 11
253.6070144297
 21
95.0273715838
 31
0.0
  0
ARC
  5
A5
330
1F
100
AcDbEntity
  8
0
  6
Continuous
 62
     7
370
    15
100
AcDbCircle
 10
246.9558361756
 20
96.6104286791
 30
0.0
 40
0.9987753401255464
100
AcDbArc
 50
185.0695329966
 51
265.0701677988
  0
LINE
  5
A6
330
1F
100
AcDbEntity
  8
0
  6
Continuous
 62
     7
370
    15
100
AcDbLine
 10
245.3715524197
 20
103.2427687145
 30
0.0
 11
245.9609678508
 21
96.5221722558
 31
0.0
  0
CIRCLE
  5
A7
330
1F
100
AcDbEntity
  8
0
  6
Continuous
 62
     7
370
    15
100
AcDbCircle
 10
250.033198092
 20
99.6692856271
 30
0.0
 40
3.796736206022663
  0
ARC
  5
A8
330
1F
100
AcDbEntity
  8
0
  6
Continuous
 62
     7
370
    15
100
AcDbCircle
 10
250.0309555353
 20
99.7626379231
 30
0.0
 40
3.800007427881997
100
AcDbArc
 50
180.1054228713
 51
359.8945771287
  0
SPLINE
  5
A9
330
1F
100
AcDbEntity
  8
0
  6
Continuous
 62
     7
370
    15
100
AcDbSpline
210
0.0
220
0.0
230
1.0
 70
     8
 71
     3
 72
    11
 73
     7
 74
     0
 42
0.00000001
 43
0.00000001
 40
0.0
 40
0.0
 40
0.0
 40
0.0
 40
0.0076253096988865
 40
0.3209845226763042
 40
0.6632175613393125
 40
1.0
 40
1.0
 40
1.0
 40
1.0
 10
244.8935082674871
 20
104.8440502903919
 30
0.0
 10
244.8923938159629
 20
104.8452263374706
 30
0.0
 10
244.8454814013028
 20
104.8947315936655
 30
0.0
 10
244.7413893078011
 20
105.002772197333
 30
0.0
 10
244.5719530952551
 20
105.1743538817843
 30
0.0
 10
244.4600758560817
 20
105.2831046603552
 30
0.0
 10
244.4045862675557
 20
105.3370435669582
 30
0.0
  0
SPLINE
  5
AA
330
1F
100
AcDbEntity
  8
0
  6
Continuous
 62
     7
370
    15
100
AcDbSpline
210
0.0
220
0.0
230
1.0
 70
     8
 71
     3
 72
    11
 73
     7
 74
     0
 42
0.00000001
 43
0.00000001
 40
0.0
 40
0.0
 40
0.0
 40
0.0
 40
0.0081128589525913
 40
0.3263647518803304
 40
0.6627662314921968
 40
0.9999999999999999
 40
0.9999999999999999
 40
0.9999999999999999
 40
0.9999999999999999
 10
254.4588318587194
 20
104.1293594002288
 30
0.0
 10
254.4600231192612
 20
104.1306166370981
 30
0.0
 10
254.5079452455352
 20
104.1811928644569
 30
0.0
 10
254.6134695051864
 20
104.2905012413831
 30
0.0
 10
254.7849011933524
 20
104.4633834520681
 30
0.0
 10
254.8945768245885
 20
104.5692882753397
 30
0.0
 10
254.9494823933492
 20
104.6223061106663
 30
0.0
  0
LINE
  5
AB
330
1F
100
AcDbEntity
  8
0
  6
Continuous
 62
     7
370
    15
100
AcDbLine
 10
256.5763315678
 20
93.1613000989
 30
0.0
 11
256.5432137371
 21
92.7683639288
 31
0.0
  0
LINE
  5
AC
330
1F
100
AcDbEntity
  8
0
  6
Continuous
 62
     7
370
    15
100
AcDbLine
 10
244.5387339712
 20
94.2118878424
 30
0.0
 11
244.5056161405
 21
93.8189516723
 31
0.0
  0
SPLINE
  5
AD
330
1F
100
AcDbEntity
  8
0
  6
Continuous
 62
     7
370
    15
100
AcDbSpline
210
0.0
220
0.0
230
1.0
 70
     8
 71
     3
 72
    11
 73
     7
 74
     0
 42
0.00000001
 43
0.00000001
 40
0.0
 40
0.0
 40
0.0
 40
0.0
 40
0.3372317136638502
 40
0.6736307715845998
 40
0.9918804826489399
 40
1.0
 40
1.0
 40
1.0
 40
1.0
 10
245.1124286771665
 20
94.80921578998972
 30
0.0
 10
245.1673318395713
 20
94.86573754098033
 30
0.0
 10
245.2770026034842
 20
94.97864148562263
 30
0.0
 10
245.4484695159003
 20
95.14783329945367
 30
0.0
 10
245.5539087842708
 20
95.24896009935836
 30
0.0
 10
245.6018928983426
 20
95.29406794661764
 30
0.0
 10
245.6030866623769
 20
95.2951901539724
 30
0.0
  0
SPLINE
  5
AE
330
1F
100
AcDbEntity
  8
0
  6
Continuous
 62
     7
370
    15
100
AcDbSpline
210
0.0
220
0.0
230
1.0
 70
     8
 71
     3
 72
    11
 73
     7
 74
     0
 42
0.00000001
 43
0.00000001
 40
0.0
 40
0.0
 40
0.0
 40
0.0
 40
0.3367864797420425
 40
0.6790112186162522
 40
0.9923677134873904
 40
1.0
 40
1.0
 40
1.0
 40
1.0
 10
255.6573322535405
 20
94.1117073356669
 30
0.0
 10
255.6018417735182
 20
94.16847761009562
 30
0.0
 10
255.4899647810379
 20
94.28293485686682
 30
0.0
 10
255.3205009006967
 20
94.44942253776279
 30
0.0
 10
255.2164951313533
 20
94.54898771322094
 30
0.0
 10
255.1695197564582
 20
94.59313760659354
 30
0.0
 10
255.1684028030286
 20
94.59418737734963
 30
0.0
  0
LINE
  5
AF
330
1F
100
AcDbEntity
  8
0
  6
Continuous
 62
     7
370
    15
100
AcDbLine
 10
160.9411716954
 20
90.5180855602
 30
0.0
 11
160.9411716954
 21
121.5969708696
 31
0.0
  0
LINE
  5
B0
330
1F
100
AcDbEntity
  8
0
  6
Continuous
 62
     7
370
    15
100
AcDbLine
 10
160.9411716954
 20
90.5180855602
 30
0.0
 11
159.4263317556
 21
90.5180855602
 31
0.0
  0
SPLINE
  5
B1
330
1F
100
AcDbEntity
  8
0
  6
Continuous
 62
     7
370
    15
100
AcDbSpline
210
0.0
220
0.0
230
1.0
 70
     8
 71
     3
 72
    22
 73
    18
 74
     0
 42
0.00000001
 43
0.00000001
 40
0.0
 40
0.0
 40
0.0
 40
0.0
 40
0.1250000000000001
 40
0.1250000000000001
 40
0.2500000000000002
 40
0.2500000000000002
 40
0.3750000000000003
 40
0.3750000000000003
 40
0.5000000000000004
 40
0.5000000000000004
 40
0.6250000000000003
 40
0.6250000000000003
 40
0.7500000000000002
 40
0.7500000000000002
 40
0.8750000000000001
 40
0.8750000000000001
 40
1.0
 40
1.0
 40
1.0
 40
1.0
 10
159.4263314844022
 20
90.51808598740973
 30
0.0
 10
159.1272070553616
 20
90.51808598740972
 30
0.0
 10
158.8333846071128
 20
90.50957188634337
 30
0.0
 10
158.2558203308664
 20
90.47712811746146
 30
0.0
 10
157.9690026530525
 20
90.45279422875943
 30
0.0
 10
157.4245401241531
 20
90.39233420400261
 30
0.0
 10
157.1665848535318
 20
90.35642078322412
 30
0.0
 10
156.6785269101719
 20
90.27671075715497
 30
0.0
 10
156.4488286115082
 20
90.23283245596564
 30
0.0
 10
156.0364096285556
 20
90.14458883359545
 30
0.0
 10
155.8508826856954
 20
90.09978049213449
 30
0.0
 10
155.5223626407947
 20
90.0124594842153
 30
0.0
 10
155.3839487538952
 20
89.97116869563965
 30
0.0
 10
155.1593566072792
 20
89.89683047234581
 30
0.0
 10
155.072277795155
 20
89.86342034661115
 30
0.0
 10
154.9557759872
 20
89.80840094508501
 30
0.0
 10
154.9263314844022
 20
89.78693917861874
 30
0.0
 10
154.9263314844022
 20
89.77198615500096
 30
0.0
  0
LINE
  5
B2
330
1F
100
AcDbEntity
  8
0
  6
Continuous
 62
     7
370
    15
100
AcDbLine
 10
154.9263319493
 20
89.7719862818
 30
0.0
 11
154.9263319493
 21
89.7469709575
 31
0.0
  0
SPLINE
  5
B3
330
1F
100
AcDbEntity
  8
0
  6
Continuous
 62
     7
370
    15
100
AcDbSpline
210
0.0
220
0.0
230
1.0
 70
     8
 71
     3
 72
    23
 73
    19
 74
     0
 42
0.00000001
 43
0.00000001
 40
0.0
 40
0.0
 40
0.0
 40
0.0
 40
0.0520669915514238
 40
0.157279172583338
 40
0.2110240224399076
 40
0.2630331016969515
 40
0.3153992778904153
 40
0.3683116967712639
 40
0.4219676143136881
 40
0.5279245289804917
 40
0.581687851219986
 40
0.6362181441816473
 40
0.6894136401028451
 40
0.7429859202573004
 40
0.7977607349535828
 40
0.8529576672074008
 40
0.9582418724571123
 40
1.0
 40
1.0
 40
1.0
 40
1.0
 10
159.4263317556033
 20
129.2341466009181
 30
0.0
 10
159.3033164282467
 20
129.2348490207529
 30
0.0
 10
158.9317230573755
 20
129.2369708258955
 30
0.0
 10
158.4375069354654
 20
129.2567079012063
 30
0.0
 10
157.9604564663829
 20
129.2881208211927
 30
0.0
 10
157.6132570147749
 20
129.3173481746854
 30
0.0
 10
157.2805029895102
 20
129.3510332650125
 30
0.0
 10
156.9592517668652
 20
129.3888643299322
 30
0.0
 10
156.5529610500942
 20
129.4431215666083
 30
0.0
 10
156.1832283585456
 20
129.5009651076722
 30
0.0
 10
155.8590910796368
 20
129.5575168049268
 30
0.0
 10
155.6400061090206
 20
129.5982333395215
 30
0.0
 10
155.4479482532068
 20
129.6358512474552
 30
0.0
 10
155.2835900864146
 20
129.6694463605994
 30
0.0
 10
155.1469192302461
 20
129.6983802216114
 30
0.0
 10
155.0097733792639
 20
129.7282119128382
 30
0.0
 10
154.9332559113631
 20
129.7454131046739
 30
0.0
 10
154.9299893243882
 20
129.7461484301822
 30
0.0
 10
154.9290616557846
 20
129.7463572531502
 30
0.0
  0
LINE
  5
B4
330
1F
100
AcDbEntity
  8
0
  6
Continuous
 62
     7
370
    15
100
AcDbLine
 10
160.9411716954
 20
129.2341466009
 30
0.0
 11
159.4263317556
 21
129.2341466009
 31
0.0
  0
LINE
  5
B5
330
1F
100
AcDbEntity
  8
0
  6
Continuous
 62
     7
370
    15
100
AcDbLine
 10
160.9411716954
 20
125.8064753323
 30
0.0
 11
160.9411716954
 21
129.2341466009
 31
0.0
  0
SPLINE
  5
B6
330
1F
100
AcDbEntity
  8
0
  6
Continuous
 62
     7
370
    15
100
AcDbSpline
210
0.0
220
0.0
230
1.0
 70
     8
 71
     3
 72
    20
 73
    16
 74
     0
 42
0.00000001
 43
0.00000001
 40
0.0
 40
0.0
 40
0.0
 40
0.0
 40
0.2500000000000005
 40
0.2500000000000005
 40
0.3750000000000004
 40
0.3750000000000004
 40
0.5000000000000003
 40
0.5000000000000003
 40
0.6250000000000002
 40
0.6250000000000002
 40
0.7500000000000001
 40
0.7500000000000001
 40
0.8750000000000001
 40
0.8750000000000001
 40
1.0
 40
1.0
 40
1.0
 40
1.0
 10
154.9263314844022
 20
121.5969705104392
 30
0.0
 10
155.1501327140512
 20
122.1726149045373
 30
0.0
 10
155.4290801268126
 20
122.7022399495063
 30
0.0
 10
155.9610395055542
 20
123.425847316593
 30
0.0
 10
156.1586281957608
 20
123.6564068224212
 30
0.0
 10
156.5938190792334
 20
124.0874496063383
 30
0.0
 10
156.8291384666391
 20
124.2860417593921
 30
0.0
 10
157.3383046958869
 20
124.6506784557863
 30
0.0
 10
157.6121151470643
 20
124.8167415031969
 30
0.0
 10
158.2029633320942
 20
125.1165383622045
 30
0.0
 10
158.5150155073436
 20
125.2474767733393
 30
0.0
 10
159.1629610708494
 20
125.4705492952283
 30
0.0
 10
159.5003069682246
 20
125.5634587530376
 30
0.0
 10
160.2032250960113
 20
125.7131237097502
 30
0.0
 10
160.5698457705153
 20
125.7697063118165
 30
0.0
 10
160.9411717855088
 20
125.8064745465776
 30
0.0
  0
LINE
  5
B7
330
1F
100
AcDbEntity
  8
0
  6
Continuous
 62
     7
370
    15
100
AcDbLine
 10
154.9263319493
 20
121.5969708696
 30
0.0
 11
160.9411716954
 21
121.5969708696
 31
0.0
  0
LINE
  5
B8
330
1F
100
AcDbEntity
  8
0
  6
Continuous
 62
     7
370
    15
100
AcDbLine
 10
161.9363317759
 20
92.3178478092
 30
0.0
 11
161.9363317759
 21
121.5969708696
 31
0.0
  0
SPLINE
  5
B9
330
1F
100
AcDbEntity
  8
0
  6
Continuous
 62
     7
370
    15
100
AcDbSpline
210
0.0
220
0.0
230
1.0
 70
     8
 71
     3
 72
     8
 73
     4
 74
     0
 42
0.00000001
 43
0.00000001
 40
0.0
 40
0.0
 40
0.0
 40
0.0
 40
1.0
 40
1.0
 40
1.0
 40
1.0
 10
161.9363314844022
 20
92.31784712244942
 30
0.0
 10
161.6056928577876
 20
91.71732677133842
 30
0.0
 10
161.2738770572141
 20
91.11745766063339
 30
0.0
 10
160.9411717855088
 20
90.51808598740973
 30
0.0
  0
SPLINE
  5
BA
330
1F
100
AcDbEntity
  8
0
  6
Continuous
 62
     7
370
    15
100
AcDbSpline
210
0.0
220
0.0
230
1.0
 70
    24
 71
     3
 72
     8
 73
     4
 74
     0
 42
0.00000001
 43
0.00000001
 40
0.0
 40
0.0
 40
0.0
 40
0.0
 40
1.0
 40
1.0
 40
1.0
 40
1.0
 10
160.9411717855088
 20
121.5969705104392
 30
0.0
 10
161.2802731199055
 20
121.5969705104392
 30
0.0
 10
161.613095438353
 20
121.5969705104392
 30
0.0
 10
161.9363314844022
 20
121.5969705104392
 30
0.0
  0
LINE
  5
BB
330
1F
100
AcDbEntity
  8
0
  6
Continuous
 62
     7
370
    15
100
AcDbLine
 10
165.011491862
 20
90.5180855602
 30
0.0
 11
165.011491862
 21
121.5969708696
 31
0.0
  0
SPLINE
  5
BC
330
1F
100
AcDbEntity
  8
0
  6
Continuous
 62
     7
370
    15
100
AcDbSpline
210
0.0
220
0.0
230
1.0
 70
     8
 71
     3
 72
     8
 73
     4
 74
     0
 42
0.00000001
 43
0.00000001
 40
0.0
 40
0.0
 40
0.0
 40
0.0
 40
1.0
 40
1.0
 40
1.0
 40
1.0
 10
165.0114911832956
 20
90.51808598740973
 30
0.0
 10
164.6787859115903
 20
91.11745766063339
 30
0.0
 10
164.3469701110168
 20
91.71732677133842
 30
0.0
 10
164.0163314844022
 20
92.31784712244942
 30
0.0
  0
LINE
  5
BD
330
1F
100
AcDbEntity
  8
0
  6
Continuous
 62
     7
370
    15
100
AcDbLine
 10
164.0163308502
 20
92.3178478092
 30
0.0
 11
164.0163308502
 21
121.5969708696
 31
0.0
  0
SPLINE
  5
BE
330
1F
100
AcDbEntity
  8
0
  6
Continuous
 62
     7
370
    15
100
AcDbSpline
210
0.0
220
0.0
230
1.0
 70
    24
 71
     3
 72
     8
 73
     4
 74
     0
 42
0.00000001
 43
0.00000001
 40
0.0
 40
0.0
 40
0.0
 40
0.0
 40
1.0
 40
1.0
 40
1.0
 40
1.0
 10
164.0163314844022
 20
121.5969705104392
 30
0.0
 10
164.3398357844786
 20
121.5969705104392
 30
0.0
 10
164.6724666549337
 20
121.5969705104392
 30
0.0
 10
165.0114911832956
 20
121.5969705104392
 30
0.0
  0
LINE
  5
BF
330
1F
100
AcDbEntity
  8
0
  6
Continuous
 62
     7
370
    15
100
AcDbLine
 10
166.3263312102
 20
90.5180855602
 30
0.0
 11
165.011491862
 21
90.5180855602
 31
0.0
  0
LINE
  5
C0
330
1F
100
AcDbEntity
  8
0
  6
Continuous
 62
     7
370
    15
100
AcDbLine
 10
165.011491862
 20
121.5969708696
 30
0.0
 11
166.3263312102
 21
121.5969708696
 31
0.0
  0
LINE
  5
C1
330
1F
100
AcDbEntity
  8
0
  6
Continuous
 62
     7
370
    15
100
AcDbLine
 10
166.9263320536
 20
91.1429378151
 30
0.0
 11
166.9263320536
 21
121.5969708696
 31
0.0
  0
SPLINE
  5
C2
330
1F
100
AcDbEntity
  8
0
  6
Continuous
 62
     7
370
    15
100
AcDbSpline
210
0.0
220
0.0
230
1.0
 70
     8
 71
     3
 72
    10
 73
     6
 74
     0
 42
0.00000001
 43
0.00000001
 40
0.0
 40
0.0
 40
0.0
 40
0.0
 40
0.5
 40
0.5
 40
1.0
 40
1.0
 40
1.0
 40
1.0
 10
166.9263314844022
 20
91.14293868935262
 30
0.0
 10
166.9263314844022
 20
90.98330652044939
 30
0.0
 10
166.8646949706969
 20
90.82225688668534
 30
0.0
 10
166.645668604454
 20
90.58926600300875
 30
0.0
 10
166.4880517164066
 20
90.51808598740976
 30
0.0
 10
166.3263314844022
 20
90.51808598740976
 30
0.0
  0
SPLINE
  5
C3
330
1F
100
AcDbEntity
  8
0
  6
Continuous
 62
     7
370
    15
100
AcDbSpline
210
0.0
220
0.0
230
1.0
 70
    24
 71
     3
 72
    12
 73
     8
 74
     0
 42
0.00000001
 43
0.00000001
 40
0.0
 40
0.0
 40
0.0
 40
0.0
 40
0.2499999999999994
 40
0.2499999999999994
 40
0.4999999999999989
 40
0.4999999999999989
 40
1.0
 40
1.0
 40
1.0
 40
1.0
 10
166.3263314844022
 20
121.5969705104392
 30
0.0
 10
166.4158474956925
 20
121.5969705104392
 30
0.0
 10
166.503474999613
 20
121.5969705104392
 30
0.0
 10
166.6567388580928
 20
121.5969705104392
 30
0.0
 10
166.7225026229498
 20
121.5969705104392
 30
0.0
 10
166.877740281944
 20
121.5969705104392
 30
0.0
 10
166.9263314844021
 20
121.5969705104392
 30
0.0
 10
166.9263314844022
 20
121.5969705104392
 30
0.0
  0
LINE
  5
C4
330
1F
100
AcDbEntity
  8
0
  6
Continuous
 62
     7
370
    15
100
AcDbLine
 10
146.9763314844
 20
90.0469704479
 30
0.0
 11
146.9763314844
 21
129.446970573
 31
0.0
  0
SPLINE
  5
C5
330
1F
100
AcDbEntity
  8
0
  6
Continuous
 62
     7
370
    15
100
AcDbSpline
210
0.0
220
0.0
230
1.0
 70
    24
 71
     3
 72
    16
 73
    12
 74
     0
 42
0.00000001
 43
0.00000001
 40
0.0
 40
0.0
 40
0.0
 40
0.0
 40
0.5000000000000023
 40
0.5000000000000023
 40
0.7500000000000018
 40
0.7500000000000018
 40
0.875000000000001
 40
0.875000000000001
 40
0.9375000000000004
 40
0.9375000000000004
 40
1.0
 40
1.0
 40
1.0
 40
1.0
 10
163.9811090838209
 20
92.84697051043914
 30
0.0
 10
163.9511347659667
 20
92.84697051043914
 30
0.0
 10
163.9046183713614
 20
92.84697051043914
 30
0.0
 10
163.7947570656272
 20
92.84697051043914
 30
0.0
 10
163.7516044150977
 20
92.84697051043914
 30
0.0
 10
163.6628203619838
 20
92.84697051043914
 30
0.0
 10
163.6296311941053
 20
92.84697051043914
 30
0.0
 10
163.5648848937556
 20
92.84697051043914
 30
0.0
 10
163.5406136827733
 20
92.84697051043914
 30
0.0
 10
163.4841524055543
 20
92.84697051043914
 30
0.0
 10
163.4513487994809
 20
92.84697051043915
 30
0.0
 10
163.4163314844022
 20
92.84697051043915
 30
0.0
  0
SPLINE
  5
C6
330
1F
100
AcDbEntity
  8
0
  6
Continuous
 62
     7
370
    15
100
AcDbSpline
210
0.0
220
0.0
230
1.0
 70
    24
 71
     3
 72
    12
 73
     8
 74
     0
 42
0.00000001
 43
0.00000001
 40
0.0
 40
0.0
 40
0.0
 40
0.0
 40
0.2499999999999988
 40
0.2499999999999988
 40
0.4999999999999976
 40
0.4999999999999976
 40
1.0
 40
1.0
 40
1.0
 40
1.0
 10
163.4163314844022
 20
121.5969705104392
 30
0.0
 10
163.5101174787818
 20
121.5969705104392
 30
0.0
 10
163.6011499555886
 20
121.5969705104392
 30
0.0
 10
163.7551128002622
 20
121.5969705104392
 30
0.0
 10
163.8195538327001
 20
121.5969705104392
 30
0.0
 10
163.9700259348315
 20
121.5969705104392
 30
0.0
 10
164.0163314844022
 20
121.5969705104392
 30
0.0
 10
164.0163314844022
 20
121.5969705104392
 30
0.0
  0
SPLINE
  5
C7
330
1F
100
AcDbEntity
  8
0
  6
Continuous
 62
     7
370
    15
100
AcDbSpline
210
0.0
220
0.0
230
1.0
 70
    24
 71
     3
 72
    16
 73
    12
 74
     0
 42
0.00000001
 43
0.00000001
 40
0.0
 40
0.0
 40
0.0
 40
0.0
 40
0.0625000000000003
 40
0.0625000000000003
 40
0.1250000000000006
 40
0.1250000000000006
 40
0.2500000000000013
 40
0.2500000000000013
 40
0.5000000000000011
 40
0.5000000000000011
 40
1.0
 40
1.0
 40
1.0
 40
1.0
 10
162.5363314843756
 20
92.84697051043914
 30
0.0
 10
162.5018528171904
 20
92.84697051043914
 30
0.0
 10
162.4680326403535
 20
92.84697051043915
 30
0.0
 10
162.4115105731698
 20
92.84697051043914
 30
0.0
 10
162.3871844936435
 20
92.84697051043914
 30
0.0
 10
162.3227315940923
 20
92.84697051043914
 30
0.0
 10
162.2891033187337
 20
92.84697051043914
 30
0.0
 10
162.2010260032089
 20
92.84697051043914
 30
0.0
 10
162.1582065499412
 20
92.84697051043914
 30
0.0
 10
162.0475499157442
 20
92.84697051043914
 30
0.0
 10
162.0013173298002
 20
92.84697051043914
 30
0.0
 10
161.9715538849835
 20
92.84697051043914
 30
0.0
  0
SPLINE
  5
C8
330
1F
100
AcDbEntity
  8
0
  6
Continuous
 62
     7
370
    15
100
AcDbSpline
210
0.0
220
0.0
230
1.0
 70
    24
 71
     3
 72
    14
 73
    10
 74
     0
 42
0.00000001
 43
0.00000001
 40
0.0
 40
0.0
 40
0.0
 40
0.0
 40
0.25
 40
0.25
 40
0.5
 40
0.5
 40
0.75
 40
0.75
 40
1.0
 40
1.0
 40
1.0
 40
1.0
 10
161.9363314844022
 20
121.5969705104392
 30
0.0
 10
161.9363314844022
 20
121.5969705104392
 30
0.0
 10
161.9483579852899
 20
121.5969705104392
 30
0.0
 10
161.9965111162509
 20
121.5969705104392
 30
0.0
 10
162.0332383678291
 20
121.5969705104392
 30
0.0
 10
162.1328130879592
 20
121.5969705104392
 30
0.0
 10
162.1965731074434
 20
121.5969705104392
 30
0.0
 10
162.3522260346601
 20
121.5969705104392
 30
0.0
 10
162.4439070147986
 20
121.5969705104392
 30
0.0
 10
162.5363314844022
 20
121.5969705104392
 30
0.0
  0
LINE
  5
C9
330
1F
100
AcDbEntity
  8
0
  6
Continuous
 62
     7
370
    15
100
AcDbLine
 10
163.4163318694
 20
92.8469712793
 30
0.0
 11
162.536331688
 21
92.8469712793
 31
0.0
  0
LINE
  5
CA
330
1F
100
AcDbEntity
  8
0
  6
Continuous
 62
     7
370
    15
100
AcDbLine
 10
162.536331688
 20
121.5969708696
 30
0.0
 11
163.4163318694
 21
121.5969708696
 31
0.0
  0
SPLINE
  5
CB
330
1F
100
AcDbEntity
  8
0
  6
Continuous
 62
     7
370
    15
100
AcDbSpline
210
0.0
220
0.0
230
1.0
 70
     8
 71
     3
 72
     8
 73
     4
 74
     0
 42
0.00000001
 43
0.00000001
 40
0.0
 40
0.0
 40
0.0
 40
0.0
 40
1.0
 40
1.0
 40
1.0
 40
1.0
 10
161.9363314844022
 20
123.2626023332427
 30
0.0
 10
161.9363314844022
 20
123.1411588845287
 30
0.0
 10
161.9566384090787
 20
123.0203969253796
 30
0.0
 10
161.9990210253664
 20
122.9056255415665
 30
0.0
  0
SPLINE
  5
CC
330
1F
100
AcDbEntity
  8
0
  6
Continuous
 62
     7
370
    15
100
AcDbSpline
210
0.0
220
0.0
230
1.0
 70
     8
 71
     3
 72
     8
 73
     4
 74
     0
 42
0.00000001
 43
0.00000001
 40
0.0
 40
0.0
 40
0.0
 40
0.0
 40
1.0
 40
1.0
 40
1.0
 40
1.0
 10
160.9411717855088
 20
125.8064745465776
 30
0.0
 10
161.2854968980794
 20
125.0978456398841
 30
0.0
 10
161.6180071184375
 20
124.3829460672423
 30
0.0
 10
161.9363314844022
 20
123.6608492163698
 30
0.0
  0
LINE
  5
CD
330
1F
100
AcDbEntity
  8
0
  6
Continuous
 62
     7
370
    15
100
AcDbLine
 10
161.9363317759
 20
123.6608496815
 30
0.0
 11
161.9363317759
 21
123.2626021787
 31
0.0
  0
LINE
  5
CE
330
1F
100
AcDbEntity
  8
0
  6
Continuous
 62
     7
370
    15
100
AcDbLine
 10
133.1763316438
 20
95.2344520896
 30
0.0
 11
133.1763316438
 21
96.1433940514
 31
0.0
  0
SPLINE
  5
CF
330
1F
100
AcDbEntity
  8
0
  6
Continuous
 62
     7
370
    15
100
AcDbSpline
210
0.0
220
0.0
230
1.0
 70
     8
 71
     3
 72
    10
 73
     6
 74
     0
 42
0.00000001
 43
0.00000001
 40
0.0
 40
0.0
 40
0.0
 40
0.0
 40
0.5
 40
0.5
 40
1.0
 40
1.0
 40
1.0
 40
1.0
 10
132.8850962819169
 20
96.81296716323124
 30
0.0
 10
132.9229706848616
 20
96.68680505517858
 30
0.0
 10
133.0037617321875
 20
96.5688460141967
 30
0.0
 10
133.1288916747788
 20
96.3458000316077
 30
0.0
 10
133.1763314844022
 20
96.24100495811234
 30
0.0
 10
133.1763314844022
 20
96.14339432471495
 30
0.0
  0
SPLINE
  5
D0
330
1F
100
AcDbEntity
  8
0
  6
Continuous
 62
     7
370
    15
100
AcDbSpline
210
0.0
220
0.0
230
1.0
 70
     8
 71
     3
 72
    16
 73
    12
 74
     0
 42
0.00000001
 43
0.00000001
 40
0.0
 40
0.0
 40
0.0
 40
0.0
 40
0.0624999999999994
 40
0.0624999999999994
 40
0.1249999999999987
 40
0.1249999999999987
 40
0.2499999999999987
 40
0.2499999999999987
 40
0.4999999999999986
 40
0.4999999999999986
 40
1.0
 40
1.0
 40
1.0
 40
1.0
 10
132.2763314844022
 20
97.46309721188626
 30
0.0
 10
132.3076472837294
 20
97.46570183377833
 30
0.0
 10
132.3403616221551
 20
97.4639329333184
 30
0.0
 10
132.4016681756319
 20
97.45239803886844
 30
0.0
 10
132.4301790658499
 20
97.4428710615222
 30
0.0
 10
132.5060730392062
 20
97.4093574613973
 30
0.0
 10
132.5454126242392
 20
97.38096994707745
 30
0.0
 10
132.6468484052206
 20
97.29294899686954
 30
0.0
 10
132.6916737648266
 20
97.23131634466239
 30
0.0
 10
132.8059561197918
 20
97.0479281509872
 30
0.0
 10
132.8507700276346
 20
96.92731015652234
 30
0.0
 10
132.8850962819169
 20
96.81296716323124
 30
0.0
  0
SPLINE
  5
D1
330
1F
100
AcDbEntity
  8
0
  6
Continuous
 62
     7
370
    15
100
AcDbSpline
210
0.0
220
0.0
230
1.0
 70
     8
 71
     3
 72
    10
 73
     6
 74
     0
 42
0.00000001
 43
0.00000001
 40
0.0
 40
0.0
 40
0.0
 40
0.0
 40
0.5
 40
0.5
 40
1.0
 40
1.0
 40
1.0
 40
1.0
 10
128.1865400496866
 20
97.03579024798799
 30
0.0
 10
128.8503551553703
 20
97.12949943505292
 30
0.0
 10
129.5283428236479
 20
97.20531763147808
 30
0.0
 10
130.8947685156935
 20
97.34376182912598
 30
0.0
 10
131.5839049520599
 20
97.40550617657726
 30
0.0
 10
132.2763314844022
 20
97.46309721188626
 30
0.0
  0
SPLINE
  5
D2
330
1F
100
AcDbEntity
  8
0
  6
Continuous
 62
     7
370
    15
100
AcDbSpline
210
0.0
220
0.0
230
1.0
 70
     8
 71
     3
 72
     8
 73
     4
 74
     0
 42
0.00000001
 43
0.00000001
 40
0.0000002108190109
 40
0.0000002108190109
 40
0.0000002108190109
 40
0.0000002108190109
 40
0.0001710235456397
 40
0.0001710235456397
 40
0.0001710235456397
 40
0.0001710235456397
 10
128.0263314844022
 20
97.01643495947975
 30
0.0
 10
128.0803196704921
 20
97.0220651020833
 30
0.0
 10
128.1339093305679
 20
97.02836049554485
 30
0.0
 10
128.1865400496866
 20
97.035790247988
 30
0.0
  0
SPLINE
  5
D3
330
1F
100
AcDbEntity
  8
0
  6
Continuous
 62
     7
370
    15
100
AcDbSpline
210
0.0
220
0.0
230
1.0
 70
     8
 71
     3
 72
     8
 73
     4
 74
     0
 42
0.00000001
 43
0.00000001
 40
0.000003532078448
 40
0.000003532078448
 40
0.000003532078448
 40
0.000003532078448
 40
0.0000638548434643
 40
0.0000638548434643
 40
0.0000638548434643
 40
0.0000638548434643
 10
128.0178153348331
 20
97.04379281089561
 30
0.0
 10
128.0203645059553
 20
97.03463160755686
 30
0.0
 10
128.023206428737
 20
97.02551060424814
 30
0.0
 10
128.0263314844022
 20
97.01643495947978
 30
0.0
  0
ELLIPSE
  5
D4
330
1F
100
AcDbEntity
  8
0
  6
Continuous
 62
     7
370
    15
100
AcDbEllipse
 10
114.5495892766
 20
109.1076728327
 30
0.0
 11
13.37355272666618
 21
-13.37146352987012
 31
0.0
210
0.0
220
0.0
230
1.0
 40
0.1761188775
 41
0.3023035477142525
 42
0.3822730435340383
  0
ELLIPSE
  5
D5
330
1F
100
AcDbEntity
  8
0
  6
Continuous
 62
     7
370
    15
100
AcDbEllipse
 10
114.4702108459
 20
110.3860809617
 30
0.0
 11
13.36963611134298
 21
13.36754752639483
 31
0.0
210
0.0
220
0.0
230
1.0
 40
0.1761188775
 41
5.933076931846603
 42
5.976720052691197
  0
SPLINE
  5
D6
330
1F
100
AcDbEntity
  8
0
  6
Continuous
 62
     7
370
    15
100
AcDbSpline
210
0.0
220
0.0
230
1.0
 70
     8
 71
     3
 72
     8
 73
     4
 74
     0
 42
0.00000001
 43
0.00000001
 40
0.0
 40
0.0
 40
0.0
 40
0.0
 40
1.0
 40
1.0
 40
1.0
 40
1.0
 10
128.0263314844022
 20
122.6125510574175
 30
0.0
 10
127.9805665767129
 20
122.5510306782587
 30
0.0
 10
127.9461794550829
 20
122.4871358185092
 30
0.0
 10
127.92716420141
 20
122.4204058734655
 30
0.0
  0
SPLINE
  5
D7
330
1F
100
AcDbEntity
  8
0
  6
Continuous
 62
     7
370
    15
100
AcDbSpline
210
0.0
220
0.0
230
1.0
 70
     8
 71
     3
 72
    12
 73
     8
 74
     0
 42
0.00000001
 43
0.00000001
 40
0.0
 40
0.0
 40
0.0
 40
0.0
 40
0.25
 40
0.25
 40
0.5
 40
0.5
 40
1.0
 40
1.0
 40
1.0
 40
1.0
 10
129.7763314844022
 20
122.5277643690984
 30
0.0
 10
129.634289081213
 20
122.5435900972746
 30
0.0
 10
129.4901709747089
 20
122.5546112310499
 30
0.0
 10
129.2004164610364
 20
122.5731475929171
 30
0.0
 10
129.0546745576776
 20
122.5804182986528
 30
0.0
 10
128.6159943184978
 20
122.5988791489809
 30
0.0
 10
128.3216187024265
 20
122.6067580158044
 30
0.0
 10
128.0263314844022
 20
122.6125510574175
 30
0.0
  0
SPLINE
  5
D8
330
1F
100
AcDbEntity
  8
0
  6
Continuous
 62
     7
370
    15
100
AcDbSpline
210
0.0
220
0.0
230
1.0
 70
     8
 71
     3
 72
    20
 73
    16
 74
     0
 42
0.00000001
 43
0.00000001
 40
0.0
 40
0.0
 40
0.0
 40
0.0
 40
0.2499999999999998
 40
0.2499999999999998
 40
0.4999999999999997
 40
0.4999999999999997
 40
0.7499999999999996
 40
0.7499999999999996
 40
0.8749999999999986
 40
0.8749999999999986
 40
0.9374999999999996
 40
0.9374999999999996
 40
0.9687499999999998
 40
0.9687499999999998
 40
1.0
 40
1.0
 40
1.0
 40
1.0
 10
130.6763314844031
 20
123.304494632187
 30
0.0
 10
130.6763314844031
 20
123.2438852324896
 30
0.0
 10
130.6509364648262
 20
123.1780592670861
 30
0.0
 10
130.5646432790443
 20
123.0440114977395
 30
0.0
 10
130.504007300361
 20
122.9753161395977
 30
0.0
 10
130.3559055061398
 20
122.8349175879433
 30
0.0
 10
130.2691358993611
 20
122.7632140833619
 30
0.0
 10
130.1204981040319
 20
122.657050681613
 30
0.0
 10
130.0682088871457
 20
122.6215223329815
 30
0.0
 10
129.9774450588358
 20
122.571818402466
 30
0.0
 10
129.9450790663838
 20
122.5555574044509
 30
0.0
 10
129.8873899107176
 20
122.536444836105
 30
0.0
 10
129.8664028828302
 20
122.5310536940235
 30
0.0
 10
129.8211139038397
 20
122.525316325631
 30
0.0
 10
129.7980996350012
 20
122.5253390592844
 30
0.0
 10
129.7763314844016
 20
122.5277643690972
 30
0.0
  0
LINE
  5
D9
330
1F
100
AcDbEntity
  8
0
  6
Continuous
 62
     7
370
    15
100
AcDbLine
 10
130.6763312341
 20
123.3044949308
 30
0.0
 11
130.6763312341
 21
124.1342381522
 31
0.0
  0
LINE
  5
DA
330
1F
100
AcDbEntity
  8
0
  6
Continuous
 62
     7
370
    15
100
AcDbLine
 10
144.9763313894
 20
94.6432699397
 30
0.0
 11
144.9763313894
 21
124.8506710812
 31
0.0
  0
SPLINE
  5
DB
330
1F
100
AcDbEntity
  8
0
  6
Continuous
 62
     7
370
    15
100
AcDbSpline
210
0.0
220
0.0
230
1.0
 70
     8
 71
     3
 72
    18
 73
    14
 74
     0
 42
0.00000001
 43
0.00000001
 40
0.0
 40
0.0
 40
0.0
 40
0.0
 40
0.0647987055308793
 40
0.1911457431666448
 40
0.3159453184352518
 40
0.3775977083606854
 40
0.4397856493455953
 40
0.5017220995336993
 40
0.5630628754677616
 40
0.6866516188868883
 40
0.8118021473332026
 40
0.9380327409414257
 40
1.0
 40
1.0
 40
1.0
 40
1.0
 10
138.2139783845196
 20
94.99288936551024
 30
0.0
 10
138.2033332577308
 20
94.99145465640218
 30
0.0
 10
138.1719318484823
 20
94.98722249564464
 30
0.0
 10
138.5908151966459
 20
95.04803982552258
 30
0.0
 10
139.2353788023046
 20
95.11358995878302
 30
0.0
 10
139.8890401591679
 20
95.14379455145033
 30
0.0
 10
140.4202251476319
 20
95.14736927734627
 30
0.0
 10
140.9716325389947
 20
95.13028881658946
 30
0.0
 10
141.7025343601785
 20
95.07727121017761
 30
0.0
 10
142.5644058620221
 20
94.95948709988856
 30
0.0
 10
143.3307102099467
 20
94.8069454431467
 30
0.0
 10
143.731189660126
 20
94.70775253194438
 30
0.0
 10
143.6999321534809
 20
94.71569790459455
 30
0.0
 10
143.6896401018749
 20
94.71831405009438
 30
0.0
  0
SPLINE
  5
DC
330
1F
100
AcDbEntity
  8
0
  6
Continuous
 62
     7
370
    15
100
AcDbSpline
210
0.0
220
0.0
230
1.0
 70
     8
 71
     3
 72
    18
 73
    14
 74
     0
 42
0.00000001
 43
0.00000001
 40
0.0
 40
0.0
 40
0.0
 40
0.0
 40
0.0628581906661193
 40
0.188821099002829
 40
0.3136429384039809
 40
0.4369193679427552
 40
0.4982390324135774
 40
0.5602488727579926
 40
0.6224808204920839
 40
0.684256874301895
 40
0.8091590031135478
 40
0.9354526781227457
 40
1.0
 40
1.0
 40
1.0
 40
1.0
 10
143.6895604737947
 20
124.7754546761077
 30
0.0
 10
143.7002204965706
 20
124.7780983091912
 30
0.0
 10
143.7322423730294
 20
124.7860395766523
 30
0.0
 10
143.326768464653
 20
124.6863456026059
 30
0.0
 10
142.5638316047275
 20
124.5339281576381
 30
0.0
 10
141.7024290399818
 20
124.4166483912107
 30
0.0
 10
140.9723021899462
 20
124.3637499358987
 30
0.0
 10
140.4205222626173
 20
124.3466454904831
 30
0.0
 10
139.8885547432657
 20
124.3501897696152
 30
0.0
 10
139.2339351268832
 20
124.3803804873212
 30
0.0
 10
138.5895293941285
 20
124.4460441069901
 30
0.0
 10
138.1720965551937
 20
124.5068695969709
 30
0.0
 10
138.2024090357099
 20
124.5023822092114
 30
0.0
 10
138.2126614943991
 20
124.5008644595306
 30
0.0
  0
SPLINE
  5
DD
330
1F
100
AcDbEntity
  8
0
  6
Continuous
 62
     7
370
    15
100
AcDbSpline
210
0.0
220
0.0
230
1.0
 70
     8
 71
     3
 72
    26
 73
    22
 74
     0
 42
0.00000001
 43
0.00000001
 40
0.0
 40
0.0
 40
0.0
 40
0.0
 40
0.2499999999999903
 40
0.2499999999999903
 40
0.3749999999999851
 40
0.3749999999999851
 40
0.4374999999999836
 40
0.4374999999999836
 40
0.4687499999999847
 40
0.4687499999999847
 40
0.4999999999999858
 40
0.4999999999999858
 40
0.5312499999999868
 40
0.5312499999999868
 40
0.5624999999999878
 40
0.5624999999999878
 40
0.624999999999989
 40
0.624999999999989
 40
0.7499999999999929
 40
0.7499999999999929
 40
1.0
 40
1.0
 40
1.0
 40
1.0
 10
127.83630153079
 20
122.1350510900521
 30
0.0
 10
127.7889134213616
 20
121.999395348029
 30
0.0
 10
127.7312721194572
 20
121.8554339496997
 30
0.0
 10
127.6092243069138
 20
121.6126613764453
 30
0.0
 10
127.5631752991373
 20
121.5276217359959
 30
0.0
 10
127.4725220149717
 20
121.3872457629555
 30
0.0
 10
127.4381695146861
 20
121.3373343856167
 30
0.0
 10
127.3757343422955
 20
121.2607991207624
 30
0.0
 10
127.3524403234975
 20
121.2343946417755
 30
0.0
 10
127.3033877863709
 20
121.1867998765145
 30
0.0
 10
127.2789563367141
 20
121.1673572626627
 30
0.0
 10
127.2383267410943
 20
121.1424494849946
 30
0.0
 10
127.2221644592432
 20
121.1363796536837
 30
0.0
 10
127.1951824151401
 20
121.1306907820899
 30
0.0
 10
127.1844328923172
 20
121.1310812901707
 30
0.0
 10
127.1563969181601
 20
121.1372236369591
 30
0.0
 10
127.1435356861275
 20
121.1478876433771
 30
0.0
 10
127.1125328249671
 20
121.1869004337373
 30
0.0
 10
127.101673342898
 20
121.2229524241416
 30
0.0
 10
127.07839608696
 20
121.3406318216407
 30
0.0
 10
127.0763314844021
 20
121.4319617219737
 30
0.0
 10
127.0763314844021
 20
121.5252019748799
 30
0.0
  0
SPLINE
  5
DE
330
1F
100
AcDbEntity
  8
0
  6
Continuous
 62
     7
370
    15
100
AcDbSpline
210
0.0
220
0.0
230
1.0
 70
     8
 71
     3
 72
    24
 73
    20
 74
     0
 42
0.00000001
 43
0.00000001
 40
0.0
 40
0.0
 40
0.0
 40
0.0
 40
0.2499999999999994
 40
0.2499999999999994
 40
0.3749999999999995
 40
0.3749999999999995
 40
0.4374999999999992
 40
0.4374999999999992
 40
0.4999999999999989
 40
0.4999999999999989
 40
0.5312499999999992
 40
0.5312499999999992
 40
0.5624999999999997
 40
0.5624999999999997
 40
0.624999999999999
 40
0.624999999999999
 40
0.7499999999999992
 40
0.7499999999999992
 40
1.0
 40
1.0
 40
1.0
 40
1.0
 10
127.0763314844022
 20
98.19945730921782
 30
0.0
 10
127.0763314844022
 20
98.28436626288739
 30
0.0
 10
127.0790561128345
 20
98.36669595893429
 30
0.0
 10
127.1054134339525
 20
98.46910834635328
 30
0.0
 10
127.1176271522247
 20
98.49992544273768
 30
0.0
 10
127.1522378023571
 20
98.52902295881464
 30
0.0
 10
127.1666245127245
 20
98.53598059945325
 30
0.0
 10
127.2078729958269
 20
98.5348708581764
 30
0.0
 10
127.2364125457577
 20
98.52657745256766
 30
0.0
 10
127.297335211269
 20
98.48199401870644
 30
0.0
 10
127.3204011814089
 20
98.46153230544915
 30
0.0
 10
127.3642970614151
 20
98.41691968716883
 30
0.0
 10
127.3851770969753
 20
98.39304360896244
 30
0.0
 10
127.4423873602684
 20
98.32314651180043
 30
0.0
 10
127.4747339840447
 20
98.27756892301595
 30
0.0
 10
127.5608999275366
 20
98.14868543539707
 30
0.0
 10
127.6065639475766
 20
98.068852258265
 30
0.0
 10
127.7271115110279
 20
97.84307144915266
 30
0.0
 10
127.786171599729
 20
97.70824006418131
 30
0.0
 10
127.83630153079
 20
97.57998492551378
 30
0.0
  0
LINE
  5
DF
330
1F
100
AcDbEntity
  8
0
  6
Continuous
 62
     7
370
    15
100
AcDbLine
 10
127.0763317616
 20
98.1994572043
 30
0.0
 11
127.0763317616
 21
121.5252022206
 31
0.0
  0
SPLINE
  5
E0
330
1F
100
AcDbEntity
  8
0
  6
Continuous
 62
     7
370
    15
100
AcDbSpline
210
0.0
220
0.0
230
1.0
 70
     8
 71
     3
 72
    14
 73
    10
 74
     0
 42
0.00000001
 43
0.00000001
 40
0.0
 40
0.0
 40
0.0
 40
0.0
 40
0.2500000000000001
 40
0.2500000000000001
 40
0.5
 40
0.5
 40
0.75
 40
0.75
 40
1.0
 40
1.0
 40
1.0
 40
1.0
 10
228.5802934122761
 20
122.1233737918762
 30
0.0
 10
227.9067043942841
 20
122.1233737918762
 30
0.0
 10
227.2518480359323
 20
122.1093328973369
 30
0.0
 10
225.9797715186508
 20
122.0355847485114
 30
0.0
 10
225.3979876676716
 20
121.9776079636434
 30
0.0
 10
224.3453383192781
 20
121.774372198291
 30
0.0
 10
223.9049134306772
 20
121.634207031511
 30
0.0
 10
223.1930365214463
 20
121.2273749436781
 30
0.0
 10
222.9433703848009
 20
120.972605197224
 30
0.0
 10
222.7847384545415
 20
120.6527186333209
 30
0.0
  0
ELLIPSE
  5
E1
330
1F
100
AcDbEntity
  8
0
  6
Continuous
 62
     7
370
    15
100
AcDbEllipse
 10
224.2136969704
 20
109.7469705104
 30
0.0
 11
0.2516063682710126
 21
12.49981921343799
 31
0.0
210
0.0
220
0.0
230
0.9999999999999999
 40
0.2671959542
 41
0.515961082047768
 42
2.776014476143073
  0
SPLINE
  5
E2
330
1F
100
AcDbEntity
  8
0
  6
Continuous
 62
     7
370
    15
100
AcDbSpline
210
0.0
220
0.0
230
1.0
 70
     8
 71
     3
 72
    22
 73
    18
 74
     0
 42
0.00000001
 43
0.00000001
 40
0.0
 40
0.0
 40
0.0
 40
0.0
 40
0.1249999999999999
 40
0.1249999999999999
 40
0.2499999999999999
 40
0.2499999999999999
 40
0.3749999999999999
 40
0.3749999999999999
 40
0.5
 40
0.5
 40
0.625
 40
0.625
 40
0.75
 40
0.75
 40
0.8750000000000001
 40
0.8750000000000001
 40
1.0
 40
1.0
 40
1.0
 40
1.0
 10
222.7847384545415
 20
98.09720740257136
 30
0.0
 10
222.8639894422301
 20
97.9786587146613
 30
0.0
 10
222.966345499308
 20
97.87582495741103
 30
0.0
 10
223.2198426884931
 20
97.69750901929076
 30
0.0
 10
223.3715731138047
 20
97.62182265168002
 30
0.0
 10
223.7265672571797
 20
97.49518941373431
 30
0.0
 10
223.9255305027582
 20
97.44556911238251
 30
0.0
 10
224.3660448784497
 20
97.36662302215609
 30
0.0
 10
224.6091492932154
 20
97.33720118074949
 30
0.0
 10
225.1335201087556
 20
97.29346817452623
 30
0.0
 10
225.4102983049114
 20
97.27935309770314
 30
0.0
 10
225.992149106214
 20
97.26001443074549
 30
0.0
 10
226.299816238175
 20
97.25479711885808
 30
0.0
 10
226.9321134766707
 20
97.24870863331505
 30
0.0
 10
227.2540175318671
 20
97.24778799634839
 30
0.0
 10
227.9090308535786
 20
97.24691950102364
 30
0.0
 10
228.2437756941731
 20
97.2469782818553
 30
0.0
 10
228.5802934122761
 20
97.2469782818553
 30
0.0
  0
LINE
  5
E3
330
1F
100
AcDbEntity
  8
0
  6
Continuous
 62
     7
370
    15
100
AcDbLine
 10
228.5802906872
 20
97.2469787061
 30
0.0
 11
232.976334405
 21
97.2469787061
 31
0.0
  0
LINE
  5
E4
330
1F
100
AcDbEntity
  8
0
  6
Continuous
 62
     7
370
    15
100
AcDbLine
 10
232.976334405
 20
122.2469706967
 30
0.0
 11
232.976334405
 21
122.1233739465
 31
0.0
  0
LINE
  5
E5
330
1F
100
AcDbEntity
  8
0
  6
Continuous
 62
     7
370
    15
100
AcDbLine
 10
232.976334405
 20
122.1233739465
 30
0.0
 11
228.5802906872
 21
122.1233739465
 31
0.0
  0
ELLIPSE
  5
E6
330
1F
100
AcDbEntity
  8
0
  6
Continuous
 62
     7
370
    15
100
AcDbEllipse
 10
222.2387485252
 20
104.9230790145
 30
0.0
 11
-0.05251766933000113
 21
2.2415414086243
 31
0.0
210
0.0
220
0.0
230
0.9999999999999998
 40
0.2635807735
 41
5.025218534508506
 42
10.50543399615059
  0
SPLINE
  5
E7
330
1F
100
AcDbEntity
  8
0
  6
Continuous
 62
     7
370
    15
100
AcDbSpline
210
0.0
220
0.0
230
1.0
 70
     8
 71
     3
 72
     8
 73
     4
 74
     0
 42
0.00000001
 43
0.00000001
 40
0.0
 40
0.0
 40
0.0
 40
0.0
 40
1.0
 40
1.0
 40
1.0
 40
1.0
 10
161.9363314844022
 20
127.4606472059694
 30
0.0
 10
161.6053111533825
 20
128.0522029024271
 30
0.0
 10
161.2735298818984
 20
128.6433355666723
 30
0.0
 10
160.9411717855088
 20
129.2341457803442
 30
0.0
  0
LINE
  5
E8
330
1F
100
AcDbEntity
  8
0
  6
Continuous
 62
     7
370
    15
100
AcDbLine
 10
161.9363317759
 20
123.6608496815
 30
0.0
 11
161.9363317759
 21
127.4606476485
 31
0.0
  0
SPLINE
  5
E9
330
1F
100
AcDbEntity
  8
0
  6
Continuous
 62
     7
370
    15
100
AcDbSpline
210
0.0
220
0.0
230
1.0
 70
     8
 71
     3
 72
    10
 73
     6
 74
     0
 42
0.00000001
 43
0.00000001
 40
0.0
 40
0.0
 40
0.0
 40
0.0
 40
0.5
 40
0.5
 40
1.0
 40
1.0
 40
1.0
 40
1.0
 10
162.1846758701521
 20
126.6469705104392
 30
0.0
 10
162.1073511382779
 20
126.7048525113008
 30
0.0
 10
162.0439713127414
 20
126.7819258559347
 30
0.0
 10
161.9584008639683
 20
126.9564289141286
 30
0.0
 10
161.9363314844022
 20
127.053234117609
 30
0.0
 10
161.9363314844022
 20
127.149574482259
 30
0.0
  0
SPLINE
  5
EA
330
1F
100
AcDbEntity
  8
0
  6
Continuous
 62
     7
370
    15
100
AcDbSpline
210
0.0
220
0.0
230
1.0
 70
    24
 71
     3
 72
    12
 73
     8
 74
     0
 42
0.00000001
 43
0.00000001
 40
0.0
 40
0.0
 40
0.0
 40
0.0
 40
0.25
 40
0.25
 40
0.5
 40
0.5
 40
1.0
 40
1.0
 40
1.0
 40
1.0
 10
162.5363314844022
 20
126.6469705104392
 30
0.0
 10
162.4847392841276
 20
126.6469705104392
 30
0.0
 10
162.437834275333
 20
126.6469705104392
 30
0.0
 10
162.3645005494565
 20
126.6469705104392
 30
0.0
 10
162.3352707200075
 20
126.6469705104392
 30
0.0
 10
162.2570379399446
 20
126.6469705104392
 30
0.0
 10
162.2186037820369
 20
126.6469705104392
 30
0.0
 10
162.1846758701521
 20
126.6469705104392
 30
0.0
  0
SPLINE
  5
EB
330
1F
100
AcDbEntity
  8
0
  6
Continuous
 62
     7
370
    15
100
AcDbSpline
210
0.0
220
0.0
230
1.0
 70
     8
 71
     3
 72
    12
 73
     8
 74
     0
 42
0.00000001
 43
0.00000001
 40
0.0
 40
0.0
 40
0.0
 40
0.0
 40
0.4999999999999976
 40
0.4999999999999976
 40
0.7499999999999988
 40
0.7499999999999988
 40
1.0
 40
1.0
 40
1.0
 40
1.0
 10
161.9990210253671
 20
122.9056255415663
 30
0.0
 10
162.0419288693679
 20
122.7894318502906
 30
0.0
 10
162.1082160313309
 20
122.6792966519382
 30
0.0
 10
162.2453080170936
 20
122.5528422886082
 30
0.0
 10
162.2976743462758
 20
122.5171716850322
 30
0.0
 10
162.4118355625522
 20
122.4676772126253
 30
0.0
 10
162.4743723981457
 20
122.4539813705903
 30
0.0
 10
162.5363314844022
 20
122.4539813705903
 30
0.0
  0
SPLINE
  5
EC
330
1F
100
AcDbEntity
  8
0
  6
Continuous
 62
     7
370
    15
100
AcDbSpline
210
0.0
220
0.0
230
1.0
 70
    24
 71
     3
 72
    12
 73
     8
 74
     0
 42
0.00000001
 43
0.00000001
 40
0.0
 40
0.0
 40
0.0
 40
0.0
 40
0.4999999999999957
 40
0.4999999999999957
 40
0.7499999999999978
 40
0.7499999999999978
 40
1.0
 40
1.0
 40
1.0
 40
1.0
 10
163.767987098653
 20
126.6469705104392
 30
0.0
 10
163.7338171373025
 20
126.6469705104392
 30
0.0
 10
163.694566996251
 20
126.6469705104392
 30
0.0
 10
163.616566985738
 20
126.6469705104392
 30
0.0
 10
163.5871640573371
 20
126.6469705104392
 30
0.0
 10
163.5140194631886
 20
126.6469705104392
 30
0.0
 10
163.4673894852207
 20
126.6469705104392
 30
0.0
 10
163.4163314844022
 20
126.6469705104392
 30
0.0
  0
SPLINE
  5
ED
330
1F
100
AcDbEntity
  8
0
  6
Continuous
 62
     7
370
    15
100
AcDbSpline
210
0.0
220
0.0
230
1.0
 70
     8
 71
     3
 72
    10
 73
     6
 74
     0
 42
0.00000001
 43
0.00000001
 40
0.0
 40
0.0
 40
0.0
 40
0.0
 40
0.5
 40
0.5
 40
1.0
 40
1.0
 40
1.0
 40
1.0
 10
164.0163314844022
 20
127.1495744822579
 30
0.0
 10
164.016331484402
 20
127.0530319347823
 30
0.0
 10
163.9943908618211
 20
126.9565707345133
 30
0.0
 10
163.9082606764308
 20
126.7811681402702
 30
0.0
 10
163.8451783692885
 20
126.7047526079036
 30
0.0
 10
163.7679870986569
 20
126.6469705104427
 30
0.0
  0
SPLINE
  5
EE
330
1F
100
AcDbEntity
  8
0
  6
Continuous
 62
     7
370
    15
100
AcDbSpline
210
0.0
220
0.0
230
1.0
 70
     8
 71
     3
 72
    12
 73
     8
 74
     0
 42
0.00000001
 43
0.00000001
 40
0.0
 40
0.0
 40
0.0
 40
0.0
 40
0.2499999999999988
 40
0.2499999999999988
 40
0.4999999999999976
 40
0.4999999999999976
 40
1.0
 40
1.0
 40
1.0
 40
1.0
 10
163.4163314844022
 20
122.4539813705903
 30
0.0
 10
163.5095825027353
 20
122.4539813705903
 30
0.0
 10
163.6010882115612
 20
122.4850426889897
 30
0.0
 10
163.7560117460963
 20
122.5876633393703
 30
0.0
 10
163.8196065640385
 20
122.657315867449
 30
0.0
 10
163.9701655207216
 20
122.8925307993509
 30
0.0
 10
164.0163314844022
 20
123.0773368887602
 30
0.0
 10
164.0163314844022
 20
123.2628176906939
 30
0.0
  0
SPLINE
  5
EF
330
1F
100
AcDbEntity
  8
0
  6
Continuous
 62
     7
370
    15
100
AcDbSpline
210
0.0
220
0.0
230
1.0
 70
     8
 71
     3
 72
    10
 73
     6
 74
     0
 42
0.00000001
 43
0.00000001
 40
0.0
 40
0.0
 40
0.0
 40
0.0
 40
0.5
 40
0.5
 40
1.0
 40
1.0
 40
1.0
 40
1.0
 10
166.9263314844022
 20
128.6178475435821
 30
0.0
 10
166.9263314844022
 20
128.7762819864699
 30
0.0
 10
166.8641702679192
 20
128.9353026812719
 30
0.0
 10
166.6436609272476
 20
129.1653105055275
 30
0.0
 10
166.4847458243025
 20
129.2341457803443
 30
0.0
 10
166.3263314844022
 20
129.2341457803443
 30
0.0
  0
SPLINE
  5
F0
330
1F
100
AcDbEntity
  8
0
  6
Continuous
 62
     7
370
    15
100
AcDbSpline
210
0.0
220
0.0
230
1.0
 70
     8
 71
     3
 72
    12
 73
     8
 74
     0
 42
0.00000001
 43
0.00000001
 40
0.0
 40
0.0
 40
0.0
 40
0.0
 40
0.25
 40
0.25
 40
0.5
 40
0.5
 40
1.0
 40
1.0
 40
1.0
 40
1.0
 10
166.3263314844022
 20
125.8583795115166
 30
0.0
 10
166.4156198434459
 20
125.8583795115166
 30
0.0
 10
166.5036786743481
 20
125.8327548789119
 30
0.0
 10
166.6563323875973
 20
125.7442115059801
 30
0.0
 10
166.7221258809393
 20
125.6813290228654
 30
0.0
 10
166.8775665276553
 20
125.4639678349318
 30
0.0
 10
166.9263314844022
 20
125.2853208249205
 30
0.0
 10
166.9263314844022
 20
125.1072276697448
 30
0.0
  0
LINE
  5
F1
330
1F
100
AcDbEntity
  8
0
  6
Continuous
 62
     7
370
    15
100
AcDbLine
 10
166.9263320536
 20
125.1072280988
 30
0.0
 11
166.9263320536
 21
128.6178476125
 31
0.0
  0
LINE
  5
F2
330
1F
100
AcDbEntity
  8
0
  6
Continuous
 62
     7
370
    15
100
AcDbLine
 10
162.536331688
 20
122.4539813533
 30
0.0
 11
163.4163318694
 21
122.4539813533
 31
0.0
  0
LINE
  5
F3
330
1F
100
AcDbEntity
  8
0
  6
Continuous
 62
     7
370
    15
100
AcDbLine
 10
164.0163308502
 20
123.2628173142
 30
0.0
 11
164.0163308502
 21
123.6610582977
 31
0.0
  0
SPLINE
  5
F4
330
1F
100
AcDbEntity
  8
0
  6
Continuous
 62
     7
370
    15
100
AcDbSpline
210
0.0
220
0.0
230
1.0
 70
     8
 71
     3
 72
     8
 73
     4
 74
     0
 42
0.00000001
 43
0.00000001
 40
0.0
 40
0.0
 40
0.0
 40
0.0
 40
1.0
 40
1.0
 40
1.0
 40
1.0
 10
164.0163314844022
 20
123.6610584098946
 30
0.0
 10
164.3398890426571
 20
124.3971748085171
 30
0.0
 10
164.672383362874
 20
125.1292664039358
 30
0.0
 10
165.0114911832956
 20
125.8583795115166
 30
0.0
  0
LINE
  5
F5
330
1F
100
AcDbEntity
  8
0
  6
Continuous
 62
     7
370
    15
100
AcDbLine
 10
165.011491862
 20
125.8583798021
 30
0.0
 11
166.3263312102
 21
125.8583798021
 31
0.0
  0
LINE
  5
F6
330
1F
100
AcDbEntity
  8
0
  6
Continuous
 62
     7
370
    15
100
AcDbLine
 10
166.9263320536
 20
125.1072280988
 30
0.0
 11
166.9263320536
 21
121.5969708696
 31
0.0
  0
SPLINE
  5
F7
330
1F
100
AcDbEntity
  8
0
  6
Continuous
 62
     7
370
    15
100
AcDbSpline
210
0.0
220
0.0
230
1.0
 70
     8
 71
     3
 72
     8
 73
     4
 74
     0
 42
0.00000001
 43
0.00000001
 40
0.0
 40
0.0
 40
0.0
 40
0.0
 40
1.0
 40
1.0
 40
1.0
 40
1.0
 10
165.0114911832956
 20
129.2341457803442
 30
0.0
 10
164.6791330869059
 20
128.6433355666723
 30
0.0
 10
164.3473518154218
 20
128.0522029024271
 30
0.0
 10
164.0163314844022
 20
127.4606472059694
 30
0.0
  0
LINE
  5
F8
330
1F
100
AcDbEntity
  8
0
  6
Continuous
 62
     7
370
    15
100
AcDbLine
 10
165.011491862
 20
125.8583798021
 30
0.0
 11
165.011491862
 21
129.2341466009
 31
0.0
  0
LINE
  5
F9
330
1F
100
AcDbEntity
  8
0
  6
Continuous
 62
     7
370
    15
100
AcDbLine
 10
164.0163308502
 20
123.6610582977
 30
0.0
 11
164.0163308502
 21
127.4606476485
 31
0.0
  0
LINE
  5
FA
330
1F
100
AcDbEntity
  8
0
  6
Continuous
 62
     7
370
    15
100
AcDbLine
 10
166.3263312102
 20
129.2341466009
 30
0.0
 11
165.011491862
 21
129.2341466009
 31
0.0
  0
LINE
  5
FB
330
1F
100
AcDbEntity
  8
0
  6
Continuous
 62
     7
370
    15
100
AcDbLine
 10
163.4163318694
 20
126.6469697415
 30
0.0
 11
162.536331688
 21
126.6469697415
 31
0.0
  0
SPLINE
  5
FC
330
1F
100
AcDbEntity
  8
0
  6
Continuous
 62
     7
370
    15
100
AcDbSpline
210
0.0
220
0.0
230
1.0
 70
     8
 71
     3
 72
    12
 73
     8
 74
     0
 42
0.00000001
 43
0.00000001
 40
0.0
 40
0.0
 40
0.0
 40
0.0
 40
0.2500000000000001
 40
0.2500000000000001
 40
0.5000000000000001
 40
0.5000000000000001
 40
1.0
 40
1.0
 40
1.0
 40
1.0
 10
222.7847384545415
 20
103.8800870512855
 30
0.0
 10
222.8012419016633
 20
104.0213544729314
 30
0.0
 10
222.8141705800007
 20
104.1659973717493
 30
0.0
 10
222.8312863388037
 20
104.4615956022341
 30
0.0
 10
222.8354060713374
 20
104.6140831390027
 30
0.0
 10
222.8338502483419
 20
105.0615847294742
 30
0.0
 10
222.8142877865178
 20
105.3547502866853
 30
0.0
 10
222.7847384545415
 20
105.6260888869916
 30
0.0
  0
LINE
  5
FD
330
1F
100
AcDbEntity
  8
0
  6
Continuous
 62
     7
370
    15
100
AcDbLine
 10
127.0763317616
 20
97.9284982144
 30
0.0
 11
127.0763317616
 21
98.1994572043
 31
0.0
  0
LINE
  5
FE
330
1F
100
AcDbEntity
  8
0
  6
Continuous
 62
     7
370
    15
100
AcDbLine
 10
127.0763317616
 20
121.6208844393
 30
0.0
 11
127.0763317616
 21
121.5252022206
 31
0.0
  0
LINE
  5
FF
330
1F
100
AcDbEntity
  8
0
  6
Continuous
 62
     7
370
    15
100
AcDbLine
 10
128.0263310791
 20
122.6269707962
 30
0.0
 11
128.0263310791
 21
122.6125511288
 31
0.0
  0
LINE
  5
100
330
1F
100
AcDbEntity
  8
0
  6
Continuous
 62
     7
370
    15
100
AcDbLine
 10
127.0763317616
 20
121.6769705474
 30
0.0
 11
127.0763317616
 21
121.6208844393
 31
0.0
  0
LINE
  5
101
330
1F
100
AcDbEntity
  8
0
  6
Continuous
 62
     7
370
    15
100
AcDbLine
 10
128.0263310791
 20
96.9259704411
 30
0.0
 11
128.0263310791
 21
97.0164353907
 31
0.0
  0
LINE
  5
102
330
1F
100
AcDbEntity
  8
0
  6
Continuous
 62
     7
370
    15
100
AcDbLine
 10
127.0763317616
 20
97.8759706899
 30
0.0
 11
127.0763317616
 21
97.9284982144
 31
0.0
  0
SPLINE
  5
103
330
1F
100
AcDbEntity
  8
0
  6
Continuous
 62
     7
370
    15
100
AcDbSpline
210
0.0
220
0.0
230
1.0
 70
     8
 71
     3
 72
     8
 73
     4
 74
     0
 42
0.00000001
 43
0.00000001
 40
0.0
 40
0.0
 40
0.0
 40
0.0
 40
1.0
 40
1.0
 40
1.0
 40
1.0
 10
235.2111401981259
 20
95.01284881074517
 30
0.0
 10
234.4660828860494
 20
95.75743805602417
 30
0.0
 10
233.7211249515671
 20
96.50212627199087
 30
0.0
 10
232.9763314844022
 20
97.24697828185532
 30
0.0
  0
LINE
  5
104
330
1F
100
AcDbEntity
  8
0
  6
Continuous
 62
     7
370
    15
100
AcDbLine
 10
232.976334405
 20
122.1233739465
 30
0.0
 11
233.4763279677
 21
122.6233647152
 31
0.0
  0
LINE
  5
105
330
1F
100
AcDbEntity
  8
0
  6
Continuous
 62
     7
370
    15
100
AcDbLine
 10
238.9974913121
 20
122.6233647152
 30
0.0
 11
233.4763279677
 21
122.6233647152
 31
0.0
  0
LINE
  5
106
330
1F
100
AcDbEntity
  8
0
  6
Continuous
 62
     7
370
    15
100
AcDbLine
 10
255.610140276
 20
106.0511859081
 30
0.0
 11
255.6557825328
 21
105.5307283945
 31
0.0
  0
ARC
  5
107
330
1F
100
AcDbEntity
  8
0
  6
Continuous
 62
     7
370
    15
100
AcDbCircle
 10
244.2482766892
 20
105.4673237
 30
0.0
 40
2.097486867776763
100
AcDbArc
 50
25.1010272447
 51
243.5313996734
  0
LINE
  5
108
330
1F
100
AcDbEntity
  8
0
  6
Continuous
 62
     7
370
    15
100
AcDbLine
 10
244.1339141251
 20
94.2341082677
 30
0.0
 11
235.2111435057
 21
95.0128485396
 31
0.0
  0
LINE
  5
109
330
1F
100
AcDbEntity
  8
0
  6
Continuous
 62
     7
370
    15
100
AcDbLine
 10
238.9974913121
 20
122.6233647152
 30
0.0
 11
255.610140276
 21
106.0511859081
 31
0.0
  0
LINE
  5
10A
330
1F
100
AcDbEntity
  8
0
  6
Continuous
 62
     7
370
    15
100
AcDbLine
 10
233.4763279677
 20
122.6233647152
 30
0.0
 11
233.4763279677
 21
122.7469707787
 31
0.0
  0
ELLIPSE
  5
10B
330
1F
100
AcDbEntity
  8
0
  6
Continuous
 62
     7
370
    15
100
AcDbEllipse
 10
251.8134518867
 20
109.7469705104
 30
0.0
 11
13.17784690311714
 21
-12.98255003967766
 31
0.0
210
0.0
220
0.0
230
1.0
 40
0.0510967938
 41
2.951764542306698
 42
3.089773640772345
  0
ARC
  5
10C
330
1F
100
AcDbEntity
  8
0
  6
Continuous
 62
     7
370
    15
100
AcDbCircle
 10
244.2422044891
 20
105.8026848233
 30
0.0
 40
2.095245719584746
100
AcDbArc
 50
184.6298614058
 51
242.7450526583
  0
LINE
  5
10D
330
1F
100
AcDbEntity
  8
0
  6
HIDDEN
 62
     7
370
     0
100
AcDbLine
 10
154.9263319493
 20
89.7469709575
 30
0.0
 11
154.9263319493
 21
89.7719862818
 31
0.0
  0
SPLINE
  5
10E
330
1F
100
AcDbEntity
  8
0
  6
HIDDEN
 62
     7
370
     0
100
AcDbSpline
210
0.0
220
0.0
230
1.0
 70
     8
 71
     3
 72
    22
 73
    18
 74
     0
 42
0.00000001
 43
0.00000001
 40
0.0
 40
0.0
 40
0.0
 40
0.0
 40
0.1250000000000001
 40
0.1250000000000001
 40
0.2500000000000001
 40
0.2500000000000001
 40
0.3750000000000001
 40
0.3750000000000001
 40
0.5000000000000001
 40
0.5000000000000001
 40
0.6250000000000001
 40
0.6250000000000001
 40
0.7500000000000001
 40
0.7500000000000001
 40
0.8750000000000001
 40
0.8750000000000001
 40
1.0
 40
1.0
 40
1.0
 40
1.0
 10
154.9263314844022
 20
89.77198615500097
 30
0.0
 10
154.9263314844022
 20
89.78694174761029
 30
0.0
 10
154.9557799055324
 20
89.8083299442567
 30
0.0
 10
155.0706177717562
 20
89.86270819087198
 30
0.0
 10
155.1574306102939
 20
89.89615435448037
 30
0.0
 10
155.3830779825899
 20
89.97091862987811
 30
0.0
 10
155.5209151242541
 20
90.01201711883905
 30
0.0
 10
155.8461160841584
 20
90.09857004780282
 30
0.0
 10
156.0348183640665
 20
90.1442209469007
 30
0.0
 10
156.4471500842987
 20
90.23250050206555
 30
0.0
 10
156.6722970106506
 20
90.27560185207281
 30
0.0
 10
157.1622728620079
 20
90.35580603192807
 30
0.0
 10
157.4229805041298
 20
90.39210087931762
 30
0.0
 10
157.9638378848454
 20
90.45228009846734
 30
0.0
 10
158.2475285108994
 20
90.47656743589843
 30
0.0
 10
158.8316108818289
 20
90.50956553020981
 30
0.0
 10
159.1271784368208
 20
90.51808598740973
 30
0.0
 10
159.4263314844022
 20
90.51808598740973
 30
0.0
  0
LINE
  5
10F
330
1F
100
AcDbEntity
  8
0
  6
HIDDEN
 62
     7
370
     0
100
AcDbLine
 10
159.4263317556
 20
90.5180855602
 30
0.0
 11
160.9411716954
 21
90.5180855602
 31
0.0
  0
LINE
  5
110
330
1F
100
AcDbEntity
  8
0
  6
HIDDEN
 62
     7
370
     0
100
AcDbLine
 10
160.9411716954
 20
129.2341466009
 30
0.0
 11
160.9411716954
 21
90.5180855602
 31
0.0
  0
LINE
  5
111
330
1F
100
AcDbEntity
  8
0
  6
HIDDEN
 62
     7
370
     0
100
AcDbLine
 10
159.4263317556
 20
129.2341466009
 30
0.0
 11
160.9411716954
 21
129.2341466009
 31
0.0
  0
SPLINE
  5
112
330
1F
100
AcDbEntity
  8
0
  6
HIDDEN
 62
     7
370
     0
100
AcDbSpline
210
0.0
220
0.0
230
1.0
 70
     8
 71
     3
 72
    24
 73
    20
 74
     0
 42
0.00000001
 43
0.00000001
 40
0.0
 40
0.0
 40
0.0
 40
0.0
 40
0.0117107688793995
 40
0.0659882197026458
 40
0.1176184584929166
 40
0.2219193320093247
 40
0.2751641854286497
 40
0.3271681067169649
 40
0.3795240323440507
 40
0.4324191807722091
 40
0.48604969443834
 40
0.5258368081337613
 40
0.6061522684195724
 40
0.7015169678484321
 40
0.8079343184702737
 40
0.8625926707003412
 40
0.9176764513639816
 40
0.9587472313514757
 40
1.0
 40
1.0
 40
1.0
 40
1.0
 10
154.9290616557846
 20
129.7463572531502
 30
0.0
 10
154.9282221490819
 20
129.746545908338
 30
0.0
 10
154.9234916695284
 20
129.7476089486992
 30
0.0
 10
154.9463808242101
 20
129.7424567085247
 30
0.0
 10
155.0154365560315
 20
129.7270460675004
 30
0.0
 10
155.1476317002894
 20
129.6980266057342
 30
0.0
 10
155.3358665591266
 20
129.6586282344887
 30
0.0
 10
155.5052999191897
 20
129.6244453011046
 30
0.0
 10
155.7004967992634
 20
129.5867776712445
 30
0.0
 10
155.9230383594199
 20
129.5460874974424
 30
0.0
 10
156.1502090600165
 20
129.5071832768162
 30
0.0
 10
156.4413641471356
 20
129.4606173974618
 30
0.0
 10
156.8351117857418
 20
129.4035494628619
 30
0.0
 10
157.4042160308962
 20
129.3353542356417
 30
0.0
 10
157.9665806104511
 20
129.2861224548097
 30
0.0
 10
158.4598843744872
 20
129.2568472752003
 30
0.0
 10
158.811093438375
 20
129.2429409407208
 30
0.0
 10
159.1343225263967
 20
129.2354152298232
 30
0.0
 10
159.3288520002554
 20
129.2345700999822
 30
0.0
 10
159.4263317556033
 20
129.2341466009181
 30
0.0
  0
SPLINE
  5
113
330
1F
100
AcDbEntity
  8
0
  6
HIDDEN
 62
     7
370
     0
100
AcDbSpline
210
0.0
220
0.0
230
1.0
 70
     8
 71
     3
 72
    76
 73
    72
 74
     0
 42
0.00000001
 43
0.00000001
 40
-0.03125
 40
-0.03125
 40
0.0
 40
0.0
 40
0.0312499999999999
 40
0.0312499999999999
 40
0.0624999999999999
 40
0.0624999999999999
 40
0.0937499999999998
 40
0.0937499999999998
 40
0.1249999999999997
 40
0.1249999999999997
 40
0.1562499999999997
 40
0.1562499999999997
 40
0.1874999999999996
 40
0.1874999999999996
 40
0.2031249999999996
 40
0.2031249999999996
 40
0.2187499999999995
 40
0.2187499999999995
 40
0.2499999999999995
 40
0.2499999999999995
 40
0.2812499999999995
 40
0.2812499999999995
 40
0.3124999999999994
 40
0.3124999999999994
 40
0.3437499999999994
 40
0.3437499999999994
 40
0.3749999999999994
 40
0.3749999999999994
 40
0.4062499999999994
 40
0.4062499999999994
 40
0.4374999999999994
 40
0.4374999999999994
 40
0.4687499999999994
 40
0.4687499999999994
 40
0.4843749999999994
 40
0.4843749999999994
 40
0.4999999999999994
 40
0.4999999999999994
 40
0.5312499999999994
 40
0.5312499999999994
 40
0.5624999999999996
 40
0.5624999999999996
 40
0.5937499999999996
 40
0.5937499999999996
 40
0.6249999999999996
 40
0.6249999999999996
 40
0.6562499999999997
 40
0.6562499999999997
 40
0.6874999999999997
 40
0.6874999999999997
 40
0.7187499999999998
 40
0.7187499999999998
 40
0.7343749999999997
 40
0.7343749999999997
 40
0.7499999999999997
 40
0.7499999999999997
 40
0.7812499999999997
 40
0.7812499999999997
 40
0.8124999999999998
 40
0.8124999999999998
 40
0.8437499999999998
 40
0.8437499999999998
 40
0.8749999999999998
 40
0.8749999999999998
 40
0.9062499999999999
 40
0.9062499999999999
 40
0.9374999999999999
 40
0.9374999999999999
 40
0.96875
 40
0.96875
 40
1.0
 40
1.0
 40
1.03125
 40
1.03125
 10
148.9763314844022
 20
110.0787051544849
 30
0.0
 10
148.9763314844022
 20
109.4152358663934
 30
0.0
 10
149.0090164201202
 20
109.0893014038807
 30
0.0
 10
149.136840662131
 20
108.4484805479379
 30
0.0
 10
149.2336189353866
 20
108.1301951058955
 30
0.0
 10
149.4850716093711
 20
107.5252887676455
 30
0.0
 10
149.6387517900659
 20
107.2386054509216
 30
0.0
 10
150.00158431338
 20
106.6960890307717
 30
0.0
 10
150.211847270537
 20
106.4402959421776
 30
0.0
 10
150.6711509509594
 20
105.9811744806232
 30
0.0
 10
150.921991810335
 20
105.7746984229942
 30
0.0
 10
151.4680232028009
 20
105.4091915919458
 30
0.0
 10
151.7568943155003
 20
105.2547553873273
 30
0.0
 10
152.2076437716498
 20
105.0674172957067
 30
0.0
 10
152.3611300873227
 20
105.0122052753459
 30
0.0
 10
152.6747589908873
 20
104.916568205382
 30
0.0
 10
152.8358631750203
 20
104.8759897403935
 30
0.0
 10
153.3203600430226
 20
104.7792559478331
 30
0.0
 10
153.6456411126384
 20
104.7471782255945
 30
0.0
 10
154.3007104855646
 20
104.7467647869539
 30
0.0
 10
154.6335318181988
 20
104.7795432132315
 30
0.0
 10
155.2758404149245
 20
104.9077016843376
 30
0.0
 10
155.5881618963708
 20
105.0025054786826
 30
0.0
 10
156.1951412109239
 20
105.2542175557353
 30
0.0
 10
156.4857012294262
 20
105.4100776808438
 30
0.0
 10
157.025890763633
 20
105.7713241309061
 30
0.0
 10
157.2798955135806
 20
105.9795136449231
 30
0.0
 10
157.7431195254571
 20
106.4426438948984
 30
0.0
 10
157.9490862063241
 20
106.6936141120676
 30
0.0
 10
158.3111401130198
 20
107.2339644361744
 30
0.0
 10
158.4682860394806
 20
107.5268109741146
 30
0.0
 10
158.7190217534012
 20
108.1302908563441
 30
0.0
 10
158.8141916443122
 20
108.4420117403144
 30
0.0
 10
158.9110221269836
 20
108.9249119105438
 30
0.0
 10
158.9356473741739
 20
109.0894259783699
 30
0.0
 10
158.9681900783609
 20
109.4175366261523
 30
0.0
 10
158.976261846239
 20
109.5813257850752
 30
0.0
 10
158.9764694180719
 20
110.0719133320409
 30
0.0
 10
158.9448340992827
 20
110.3979390501759
 30
0.0
 10
158.8154937050483
 20
111.0478499345495
 30
0.0
 10
158.7199938513551
 20
111.3606549454292
 30
0.0
 10
158.4702536934396
 20
111.9630420991959
 30
0.0
 10
158.3137931970127
 20
112.2555654997912
 30
0.0
 10
157.950689693037
 20
112.7983799812283
 30
0.0
 10
157.7447636428074
 20
113.0492728735095
 30
0.0
 10
157.2840489590535
 20
113.5106504832223
 30
0.0
 10
157.0282654804653
 20
113.7207941919208
 30
0.0
 10
156.488292311008
 20
114.0823630616884
 30
0.0
 10
156.2017115984015
 20
114.2365315916895
 30
0.0
 10
155.5935729136788
 20
114.4896496597695
 30
0.0
 10
155.2788328789407
 20
114.58535782339
 30
0.0
 10
154.7988580716071
 20
114.6815500701956
 30
0.0
 10
154.6371334230938
 20
114.7058352855615
 30
0.0
 10
154.3101351077183
 20
114.7385207907818
 30
0.0
 10
154.1438833067867
 20
114.7468831432532
 30
0.0
 10
153.6491111642761
 20
114.7471431732507
 30
0.0
 10
153.3236715237225
 20
114.71499172044
 30
0.0
 10
152.6813834559378
 20
114.5874569912454
 30
0.0
 10
152.3622168959928
 20
114.4905175607099
 30
0.0
 10
151.759040852622
 20
114.240324132943
 30
0.0
 10
151.4719083413936
 20
114.0869455385209
 30
0.0
 10
150.9265640507961
 20
113.7227015280666
 30
0.0
 10
150.6727806073881
 20
113.514176177481
 30
0.0
 10
150.2135877686104
 20
113.0556026544047
 30
0.0
 10
150.0047278411781
 20
112.8021142248989
 30
0.0
 10
149.6397157186643
 20
112.2572100040387
 30
0.0
 10
149.486088689911
 20
111.9704774017486
 30
0.0
 10
149.2353981760435
 20
111.3686408267721
 30
0.0
 10
149.1379522653899
 20
111.050068052953
 30
0.0
 10
149.0090255557911
 20
110.4056422677356
 30
0.0
 10
148.9763314844022
 20
110.0787051544849
 30
0.0
 10
148.9763314844022
 20
109.4152358663934
 30
0.0
  0
LINE
  5
114
330
1F
100
AcDbEntity
  8
0
  6
HIDDEN
 62
     7
370
     0
100
AcDbLine
 10
146.9763314844
 20
129.446970573
 30
0.0
 11
146.9763314844
 21
90.0469704479
 31
0.0
  0
SPLINE
  5
115
330
1F
100
AcDbEntity
  8
0
  6
HIDDEN
 62
     7
370
     0
100
AcDbSpline
210
0.0
220
0.0
230
1.0
 70
     8
 71
     3
 72
    10
 73
     6
 74
     0
 42
0.00000001
 43
0.00000001
 40
0.0
 40
0.0
 40
0.0
 40
0.0
 40
0.5
 40
0.5
 40
1.0
 40
1.0
 40
1.0
 40
1.0
 10
164.0163314844022
 20
92.63409158841085
 30
0.0
 10
164.0163314844022
 20
92.67031407785149
 30
0.0
 10
164.0133617551048
 20
92.70650727510994
 30
0.0
 10
164.0014827727569
 20
92.77814576652462
 30
0.0
 10
163.9926875449162
 20
92.81301909116623
 30
0.0
 10
163.9811090838211
 20
92.84697051043854
 30
0.0
  0
LINE
  5
116
330
1F
100
AcDbEntity
  8
0
  6
HIDDEN
 62
     7
370
     0
100
AcDbLine
 10
164.0163308502
 20
92.6340914279
 30
0.0
 11
164.0163308502
 21
121.5969708696
 31
0.0
  0
SPLINE
  5
117
330
1F
100
AcDbEntity
  8
0
  6
HIDDEN
 62
     7
370
     0
100
AcDbSpline
210
0.0
220
0.0
230
1.0
 70
     8
 71
     3
 72
    10
 73
     6
 74
     0
 42
0.00000001
 43
0.00000001
 40
0.0
 40
0.0
 40
0.0
 40
0.0
 40
0.5
 40
0.5
 40
1.0
 40
1.0
 40
1.0
 40
1.0
 10
161.9715538849835
 20
92.84697051043915
 30
0.0
 10
161.9598417680204
 20
92.81262717324518
 30
0.0
 10
161.9510436981483
 20
92.77753463550695
 30
0.0
 10
161.9392301403762
 20
92.70586286011623
 30
0.0
 10
161.9363314844022
 20
92.66991920575096
 30
0.0
 10
161.9363314844022
 20
92.63409158841085
 30
0.0
  0
LINE
  5
118
330
1F
100
AcDbEntity
  8
0
  6
HIDDEN
 62
     7
370
     0
100
AcDbLine
 10
161.9363317759
 20
92.6340914279
 30
0.0
 11
161.9363317759
 21
121.5969708696
 31
0.0
  0
LINE
  5
119
330
1F
100
AcDbEntity
  8
0
  6
HIDDEN
 62
     7
370
     0
100
AcDbLine
 10
154.9263319493
 20
121.5969708696
 30
0.0
 11
161.999020961
 21
121.5969708696
 31
0.0
  0
LINE
  5
11A
330
1F
100
AcDbEntity
  8
0
  6
HIDDEN
 62
     7
370
     0
100
AcDbLine
 10
146.9763314844
 20
93.5397765547
 30
0.0
 11
146.9763314844
 21
125.9541644662
 31
0.0
  0
LWPOLYLINE
  5
11B
330
1F
100
AcDbEntity
  8
0
  6
HIDDEN
 62
     7
370
     0
100
AcDbPolyline
 90
        2
 70
   128
 43
0.0
 10
164.0163308502
 20
121.5969708696
 10
164.0163308502
 20
121.5969708696
  0
LWPOLYLINE
  5
11C
330
1F
100
AcDbEntity
  8
0
  6
HIDDEN
 62
     7
370
     0
100
AcDbPolyline
 90
        2
 70
   128
 43
0.0
 10
161.9363317759
 20
121.5969708696
 10
161.9363317759
 20
121.5969708696
  0
LWPOLYLINE
  5
11D
330
1F
100
AcDbEntity
  8
0
  6
HIDDEN
 62
     7
370
     0
100
AcDbPolyline
 90
        2
 70
   128
 43
0.0
 10
166.9263320536
 20
121.5969708696
 10
166.9263320536
 20
121.5969708696
  0
SPLINE
  5
11E
330
1F
100
AcDbEntity
  8
0
  6
HIDDEN
 62
     7
370
     0
100
AcDbSpline
210
0.0
220
0.0
230
1.0
 70
     8
 71
     3
 72
     8
 73
     4
 74
     0
 42
0.00000001
 43
0.00000001
 40
0.000003532078448
 40
0.000003532078448
 40
0.000003532078448
 40
0.000003532078448
 40
0.0000638548434643
 40
0.0000638548434643
 40
0.0000638548434643
 40
0.0000638548434643
 10
128.0178153348331
 20
97.04379281089561
 30
0.0
 10
128.0203645059553
 20
97.03463160755686
 30
0.0
 10
128.023206428737
 20
97.02551060424814
 30
0.0
 10
128.0263314844022
 20
97.01643495947978
 30
0.0
  0
SPLINE
  5
11F
330
1F
100
AcDbEntity
  8
0
  6
HIDDEN
 62
     7
370
     0
100
AcDbSpline
210
0.0
220
0.0
230
1.0
 70
     8
 71
     3
 72
     8
 73
     4
 74
     0
 42
0.00000001
 43
0.00000001
 40
0.0000002108190109
 40
0.0000002108190109
 40
0.0000002108190109
 40
0.0000002108190109
 40
0.0001710235456397
 40
0.0001710235456397
 40
0.0001710235456397
 40
0.0001710235456397
 10
128.0263314844022
 20
97.01643495947975
 30
0.0
 10
128.0803196704921
 20
97.0220651020833
 30
0.0
 10
128.1339093305679
 20
97.02836049554483
 30
0.0
 10
128.1865400496866
 20
97.03579024798799
 30
0.0
  0
SPLINE
  5
120
330
1F
100
AcDbEntity
  8
0
  6
HIDDEN
 62
     7
370
     0
100
AcDbSpline
210
0.0
220
0.0
230
1.0
 70
     8
 71
     3
 72
    10
 73
     6
 74
     0
 42
0.00000001
 43
0.00000001
 40
0.0
 40
0.0
 40
0.0
 40
0.0
 40
0.5
 40
0.5
 40
1.0
 40
1.0
 40
1.0
 40
1.0
 10
128.1865400496866
 20
97.03579024798798
 30
0.0
 10
128.8503551553703
 20
97.1294994350529
 30
0.0
 10
129.5283428236479
 20
97.20531763147807
 30
0.0
 10
130.8947685156935
 20
97.34376182912597
 30
0.0
 10
131.5839049520599
 20
97.40550617657725
 30
0.0
 10
132.2763314844022
 20
97.46309721188625
 30
0.0
  0
SPLINE
  5
121
330
1F
100
AcDbEntity
  8
0
  6
HIDDEN
 62
     7
370
     0
100
AcDbSpline
210
0.0
220
0.0
230
1.0
 70
     8
 71
     3
 72
    16
 73
    12
 74
     0
 42
0.00000001
 43
0.00000001
 40
0.0
 40
0.0
 40
0.0
 40
0.0
 40
0.0625000000000011
 40
0.0625000000000011
 40
0.1250000000000022
 40
0.1250000000000022
 40
0.2500000000000032
 40
0.2500000000000032
 40
0.5000000000000019
 40
0.5000000000000019
 40
1.0
 40
1.0
 40
1.0
 40
1.0
 10
132.2763314844022
 20
97.46309721188625
 30
0.0
 10
132.3076472837294
 20
97.46570183377833
 30
0.0
 10
132.3403616221551
 20
97.46393293331839
 30
0.0
 10
132.4016681756319
 20
97.45239803886841
 30
0.0
 10
132.4301790658499
 20
97.4428710615222
 30
0.0
 10
132.5060730392062
 20
97.40935746139729
 30
0.0
 10
132.5454126242392
 20
97.38096994707743
 30
0.0
 10
132.6468484052206
 20
97.29294899686953
 30
0.0
 10
132.6916737648266
 20
97.23131634466239
 30
0.0
 10
132.8059561197918
 20
97.0479281509872
 30
0.0
 10
132.8507700276346
 20
96.92731015652234
 30
0.0
 10
132.8850962819169
 20
96.81296716323124
 30
0.0
  0
SPLINE
  5
122
330
1F
100
AcDbEntity
  8
0
  6
HIDDEN
 62
     7
370
     0
100
AcDbSpline
210
0.0
220
0.0
230
1.0
 70
     8
 71
     3
 72
    10
 73
     6
 74
     0
 42
0.00000001
 43
0.00000001
 40
0.0
 40
0.0
 40
0.0
 40
0.0
 40
0.5
 40
0.5
 40
1.0
 40
1.0
 40
1.0
 40
1.0
 10
132.8850962819169
 20
96.81296716323124
 30
0.0
 10
132.9229706848616
 20
96.68680505517858
 30
0.0
 10
133.0037617321875
 20
96.5688460141967
 30
0.0
 10
133.1288916747788
 20
96.3458000316077
 30
0.0
 10
133.1763314844022
 20
96.24100495811234
 30
0.0
 10
133.1763314844022
 20
96.14339432471495
 30
0.0
  0
LINE
  5
123
330
1F
100
AcDbEntity
  8
0
  6
HIDDEN
 62
     7
370
     0
100
AcDbLine
 10
133.1763316438
 20
96.1433940514
 30
0.0
 11
133.1763316438
 21
95.2344520896
 31
0.0
  0
LINE
  5
124
330
1F
100
AcDbEntity
  8
0
  6
HIDDEN
 62
     7
370
     0
100
AcDbLine
 10
130.6763312341
 20
124.1342381522
 30
0.0
 11
130.6763312341
 21
123.3044949308
 31
0.0
  0
SPLINE
  5
125
330
1F
100
AcDbEntity
  8
0
  6
HIDDEN
 62
     7
370
     0
100
AcDbSpline
210
0.0
220
0.0
230
1.0
 70
     8
 71
     3
 72
    20
 73
    16
 74
     0
 42
0.00000001
 43
0.00000001
 40
0.0
 40
0.0
 40
0.0
 40
0.0
 40
0.2500000000000002
 40
0.2500000000000002
 40
0.5000000000000004
 40
0.5000000000000004
 40
0.7500000000000007
 40
0.7500000000000007
 40
0.8750000000000012
 40
0.8750000000000012
 40
0.9375000000000007
 40
0.9375000000000007
 40
0.9687500000000004
 40
0.9687500000000004
 40
1.0
 40
1.0
 40
1.0
 40
1.0
 10
130.6763314844031
 20
123.304494632187
 30
0.0
 10
130.6763314844031
 20
123.2438852324896
 30
0.0
 10
130.6509364648262
 20
123.1780592670861
 30
0.0
 10
130.5646432790443
 20
123.0440114977395
 30
0.0
 10
130.5040073003611
 20
122.9753161395977
 30
0.0
 10
130.3559055061398
 20
122.8349175879433
 30
0.0
 10
130.2691358993611
 20
122.7632140833619
 30
0.0
 10
130.1204981040319
 20
122.657050681613
 30
0.0
 10
130.0682088871457
 20
122.6215223329815
 30
0.0
 10
129.9774450588358
 20
122.571818402466
 30
0.0
 10
129.9450790663838
 20
122.5555574044509
 30
0.0
 10
129.8873899107176
 20
122.536444836105
 30
0.0
 10
129.8664028828301
 20
122.5310536940234
 30
0.0
 10
129.8211139038397
 20
122.525316325631
 30
0.0
 10
129.7980996350012
 20
122.5253390592844
 30
0.0
 10
129.7763314844016
 20
122.5277643690972
 30
0.0
  0
SPLINE
  5
126
330
1F
100
AcDbEntity
  8
0
  6
HIDDEN
 62
     7
370
     0
100
AcDbSpline
210
0.0
220
0.0
230
1.0
 70
     8
 71
     3
 72
    12
 73
     8
 74
     0
 42
0.00000001
 43
0.00000001
 40
0.0
 40
0.0
 40
0.0
 40
0.0
 40
0.2500000000000001
 40
0.2500000000000001
 40
0.5000000000000001
 40
0.5000000000000001
 40
1.0
 40
1.0
 40
1.0
 40
1.0
 10
129.7763314844022
 20
122.5277643690984
 30
0.0
 10
129.634289081213
 20
122.5435900972746
 30
0.0
 10
129.4901709747089
 20
122.5546112310499
 30
0.0
 10
129.2004164610364
 20
122.5731475929171
 30
0.0
 10
129.0546745576775
 20
122.5804182986528
 30
0.0
 10
128.6159943184977
 20
122.5988791489808
 30
0.0
 10
128.3216187024265
 20
122.6067580158044
 30
0.0
 10
128.0263314844022
 20
122.6125510574175
 30
0.0
  0
SPLINE
  5
127
330
1F
100
AcDbEntity
  8
0
  6
HIDDEN
 62
     7
370
     0
100
AcDbSpline
210
0.0
220
0.0
230
1.0
 70
     8
 71
     3
 72
     8
 73
     4
 74
     0
 42
0.00000001
 43
0.00000001
 40
0.0
 40
0.0
 40
0.0
 40
0.0
 40
1.0
 40
1.0
 40
1.0
 40
1.0
 10
128.0263314844022
 20
122.6125510574175
 30
0.0
 10
127.9805665767129
 20
122.5510306782587
 30
0.0
 10
127.9461794550829
 20
122.4871358185092
 30
0.0
 10
127.92716420141
 20
122.4204058734655
 30
0.0
  0
ELLIPSE
  5
128
330
1F
100
AcDbEntity
  8
0
  6
HIDDEN
 62
     7
370
     0
100
AcDbEllipse
 10
114.4702108459
 20
110.3860809617
 30
0.0
 11
13.369636111343
 21
13.36754752639483
 31
0.0
210
0.0
220
0.0
230
1.0
 40
0.1761188775
 41
5.933076931846599
 42
5.976720052691206
  0
ELLIPSE
  5
129
330
1F
100
AcDbEntity
  8
0
  6
HIDDEN
 62
     7
370
     0
100
AcDbEllipse
 10
114.5495892766
 20
109.1076728327
 30
0.0
 11
13.37355272666619
 21
-13.37146352987014
 31
0.0
210
0.0
220
0.0
230
1.0
 40
0.1761188775
 41
0.3023035477142499
 42
0.3822730435340332
  0
LINE
  5
12A
330
1F
100
AcDbEntity
  8
0
  6
HIDDEN
 62
     7
370
     0
100
AcDbLine
 10
144.9763313894
 20
124.8506710812
 30
0.0
 11
144.9763313894
 21
94.6432699397
 31
0.0
  0
SPLINE
  5
12B
330
1F
100
AcDbEntity
  8
0
  6
HIDDEN
 62
     7
370
     0
100
AcDbSpline
210
0.0
220
0.0
230
1.0
 70
     8
 71
     3
 72
    10
 73
     6
 74
     0
 42
0.00000001
 43
0.00000001
 40
0.0
 40
0.0
 40
0.0
 40
0.0
 40
0.3556500133838636
 40
0.6701422857082747
 40
0.9999999999999999
 40
0.9999999999999999
 40
0.9999999999999999
 40
0.9999999999999999
 10
138.6253230766306
 20
95.04821551437784
 30
0.0
 10
138.5574461045303
 20
95.03904514681481
 30
0.0
 10
138.4295472502678
 20
95.02176565616897
 30
0.0
 10
138.1587986848998
 20
94.98506539744776
 30
0.0
 10
138.1952950487433
 20
94.99024024231055
 30
0.0
 10
138.2139783845196
 20
94.99288936551024
 30
0.0
  0
SPLINE
  5
12C
330
1F
100
AcDbEntity
  8
0
  6
HIDDEN
 62
     7
370
     0
100
AcDbSpline
210
0.0
220
0.0
230
1.0
 70
     8
 71
     3
 72
    18
 73
    14
 74
     0
 42
0.00000001
 43
0.00000001
 40
0.0
 40
0.0
 40
0.0
 40
0.0
 40
0.0797648011226086
 40
0.2353261320378015
 40
0.3892122252592616
 40
0.4654319374907336
 40
0.5419046091824082
 40
0.6184021347586394
 40
0.6937209719064595
 40
0.769308580431867
 40
0.8460925159706034
 40
0.8462967226860687
 40
1.0
 40
1.0
 40
1.0
 40
1.0
 10
143.6896401018749
 20
94.71831405009438
 30
0.0
 10
143.7000258181845
 20
94.71588095288665
 30
0.0
 10
143.7306662813112
 20
94.70870270700992
 30
0.0
 10
143.3115963856956
 20
94.80985953045347
 30
0.0
 10
142.6727970516333
 20
94.93824218726482
 30
0.0
 10
142.024595391865
 20
95.03395098473246
 30
0.0
 10
141.4964138744698
 20
95.09172288938197
 30
0.0
 10
140.9465711675994
 20
95.13159398579408
 30
0.0
 10
140.3990969943884
 20
95.14805265847134
 30
0.0
 10
139.8666091091752
 20
95.1441943311098
 30
0.0
 10
139.5580220838443
 20
95.12546445288649
 30
0.0
 10
139.0729164511014
 20
95.1030328852197
 30
0.0
 10
138.8489711969361
 20
95.0756060046043
 30
0.0
 10
138.6253230766306
 20
95.04821551437784
 30
0.0
  0
SPLINE
  5
12D
330
1F
100
AcDbEntity
  8
0
  6
HIDDEN
 62
     7
370
     0
100
AcDbSpline
210
0.0
220
0.0
230
1.0
 70
     8
 71
     3
 72
    17
 73
    13
 74
     0
 42
0.00000001
 43
0.00000001
 40
0.0
 40
0.0
 40
0.0
 40
0.0
 40
0.0739032592964082
 40
0.1539091980336703
 40
0.2309802373583709
 40
0.3067447509546574
 40
0.3820733627555467
 40
0.4587871621567985
 40
0.610816575411645
 40
0.7646256279590509
 40
0.9200673208647654
 40
1.0
 40
1.0
 40
1.0
 40
1.0
 10
138.6252047986636
 20
124.4457106053393
 30
0.0
 10
138.7506902565038
 20
124.4347634358457
 30
0.0
 10
139.0120233338938
 20
124.4119651168874
 30
0.0
 10
139.3651759265287
 20
124.3737877010629
 30
0.0
 10
139.875721416263
 20
124.3509928671718
 30
0.0
 10
140.3983456453257
 20
124.3455272264568
 30
0.0
 10
140.9494527600063
 20
124.3625212680761
 30
0.0
 10
141.678896583036
 20
124.4150919191075
 30
0.0
 10
142.5508043641654
 20
124.53043361696
 30
0.0
 10
143.3121795061603
 20
124.6842496035732
 30
0.0
 10
143.7307369470088
 20
124.7852941734016
 30
0.0
 10
143.699999015556
 20
124.7779490617457
 30
0.0
 10
143.6895604737947
 20
124.7754546761077
 30
0.0
  0
SPLINE
  5
12E
330
1F
100
AcDbEntity
  8
0
  6
HIDDEN
 62
     7
370
     0
100
AcDbSpline
210
0.0
220
0.0
230
1.0
 70
     8
 71
     3
 72
     9
 73
     5
 74
     0
 42
0.00000001
 43
0.00000001
 40
0.0
 40
0.0
 40
0.0
 40
0.0
 40
0.3345276464619002
 40
1.0
 40
1.0
 40
1.0
 40
1.0
 10
138.2126614943991
 20
124.5008644595306
 30
0.0
 10
138.2004576173118
 20
124.5024782605495
 30
0.0
 10
138.1639766949834
 20
124.5073023790821
 30
0.0
 10
138.4409120056779
 20
124.4703208142954
 30
0.0
 10
138.6252047986636
 20
124.4457106053393
 30
0.0
  0
LINE
  5
12F
330
1F
100
AcDbEntity
  8
0
  6
HIDDEN
 62
     7
370
     0
100
AcDbLine
 10
166.9263320536
 20
96.2469701603
 30
0.0
 11
166.9263320536
 21
123.2290708407
 31
0.0
  0
SPLINE
  5
130
330
1F
100
AcDbEntity
  8
0
  6
HIDDEN
 62
     7
370
     0
100
AcDbSpline
210
0.0
220
0.0
230
1.0
 70
    11
 71
     3
 72
    50
 73
    46
 74
     0
 42
0.00000001
 43
0.00000001
 40
0.0
 40
0.0
 40
0.0
 40
0.0
 40
0.0625
 40
0.0625
 40
0.1249999999999999
 40
0.1249999999999999
 40
0.1562499999999999
 40
0.1562499999999999
 40
0.1874999999999999
 40
0.1874999999999999
 40
0.2187499999999999
 40
0.2187499999999999
 40
0.2499999999999999
 40
0.2499999999999999
 40
0.2812499999999999
 40
0.2812499999999999
 40
0.3124999999999999
 40
0.3124999999999999
 40
0.3749999999999998
 40
0.3749999999999998
 40
0.4374999999999997
 40
0.4374999999999997
 40
0.4999999999999996
 40
0.4999999999999996
 40
0.5312499999999996
 40
0.5312499999999996
 40
0.5624999999999996
 40
0.5624999999999996
 40
0.5937499999999996
 40
0.5937499999999996
 40
0.6249999999999996
 40
0.6249999999999996
 40
0.6562499999999994
 40
0.6562499999999994
 40
0.6874999999999994
 40
0.6874999999999994
 40
0.7499999999999996
 40
0.7499999999999996
 40
0.8124999999999997
 40
0.8124999999999997
 40
0.8749999999999997
 40
0.8749999999999997
 40
0.9374999999999998
 40
0.9374999999999998
 40
1.0
 40
1.0
 40
1.0
 40
1.0
 10
142.8005082122797
 20
97.07416021695926
 30
0.0
 10
142.6542533774781
 20
97.09521274278472
 30
0.0
 10
142.4827847405197
 20
97.11749396746676
 30
0.0
 10
142.0896401350097
 20
97.15833545781567
 30
0.0
 10
141.8743959494445
 20
97.17609309273662
 30
0.0
 10
141.5316561628948
 20
97.19436638558021
 30
0.0
 10
141.4134097798393
 20
97.19907632459424
 30
0.0
 10
141.177630777661
 20
97.20507541965304
 30
0.0
 10
141.059064467955
 20
97.20643125204886
 30
0.0
 10
140.8205693871545
 20
97.20573684003817
 30
0.0
 10
140.6997769936326
 20
97.20363833704683
 30
0.0
 10
140.4647110281675
 20
97.19625518752102
 30
0.0
 10
140.3496555156675
 20
97.1909924242501
 30
0.0
 10
140.1244357609246
 20
97.17773866220159
 30
0.0
 10
140.0133535913223
 20
97.16965958752411
 30
0.0
 10
139.8021021443867
 20
97.15172386052909
 30
0.0
 10
139.7017439098859
 20
97.14188762531565
 30
0.0
 10
139.4160999528625
 20
97.11087195689419
 30
0.0
 10
139.2458212092666
 20
97.08804026267552
 30
0.0
 10
138.9696700793463
 20
97.04734298834482
 30
0.0
 10
138.8599708929615
 20
97.02901693877264
 30
0.0
 10
138.7144278117976
 20
97.00398933952769
 30
0.0
 10
138.6764211763403
 20
96.99698669016023
 30
0.0
 10
138.6762868829825
 20
96.99696246469341
 30
0.0
 10
138.6854046382248
 20
96.99861705194957
 30
0.0
 10
138.7223231837384
 20
97.00519969522243
 30
0.0
 10
138.7502968387631
 20
97.0101559367451
 30
0.0
 10
138.8230684182154
 20
97.02267260944345
 30
0.0
 10
138.8679936563771
 20
97.03025714875689
 30
0.0
 10
138.9750369713326
 20
97.04756540413007
 30
0.0
 10
139.0376050122991
 20
97.0573496959228
 30
0.0
 10
139.1759959150385
 20
97.07775489758886
 30
0.0
 10
139.2521793708129
 20
97.08843985251194
 30
0.0
 10
139.418535104624
 20
97.11002359008933
 30
0.0
 10
139.5095634070687
 20
97.12100969909046
 30
0.0
 10
139.7962172237416
 20
97.15216678285657
 30
0.0
 10
140.0082692818592
 20
97.17086296989275
 30
0.0
 10
140.4614465578138
 20
97.19761025060822
 30
0.0
 10
140.6960762065537
 20
97.20531585731004
 30
0.0
 10
141.1774997560123
 20
97.20683386480822
 30
0.0
 10
141.4128051262808
 20
97.20064517657586
 30
0.0
 10
141.8727127779563
 20
97.17623984088303
 30
0.0
 10
142.0871412899155
 20
97.15855668695774
 30
0.0
 10
142.4803404746809
 20
97.1177857699251
 30
0.0
 10
142.654249546346
 20
97.09521329425372
 30
0.0
 10
142.8005082122797
 20
97.07416021695926
 30
0.0
  0
SPLINE
  5
131
330
1F
100
AcDbEntity
  8
0
  6
HIDDEN
 62
     7
370
     0
100
AcDbSpline
210
0.0
220
0.0
230
1.0
 70
    11
 71
     3
 72
    50
 73
    46
 74
     0
 42
0.00000001
 43
0.00000001
 40
0.0
 40
0.0
 40
0.0
 40
0.0
 40
0.0625000000000001
 40
0.0625000000000001
 40
0.1250000000000002
 40
0.1250000000000002
 40
0.1562500000000004
 40
0.1562500000000004
 40
0.1875000000000005
 40
0.1875000000000005
 40
0.2187500000000007
 40
0.2187500000000007
 40
0.2500000000000008
 40
0.2500000000000008
 40
0.281250000000001
 40
0.281250000000001
 40
0.3125000000000012
 40
0.3125000000000012
 40
0.3750000000000013
 40
0.3750000000000013
 40
0.4375000000000012
 40
0.4375000000000012
 40
0.5000000000000011
 40
0.5000000000000011
 40
0.5312500000000011
 40
0.5312500000000011
 40
0.562500000000001
 40
0.562500000000001
 40
0.5937500000000009
 40
0.5937500000000009
 40
0.6250000000000009
 40
0.6250000000000009
 40
0.6562500000000007
 40
0.6562500000000007
 40
0.6875000000000006
 40
0.6875000000000006
 40
0.7500000000000004
 40
0.7500000000000004
 40
0.8125000000000003
 40
0.8125000000000003
 40
0.8750000000000002
 40
0.8750000000000002
 40
0.9375000000000001
 40
0.9375000000000001
 40
1.0
 40
1.0
 40
1.0
 40
1.0
 10
142.8005082122797
 20
122.4197808039191
 30
0.0
 10
142.6542533774781
 20
122.3987282780936
 30
0.0
 10
142.4827847405197
 20
122.3764470534116
 30
0.0
 10
142.0896401350097
 20
122.3356055630627
 30
0.0
 10
141.8743959494445
 20
122.3178479281417
 30
0.0
 10
141.5316561628948
 20
122.2995746352981
 30
0.0
 10
141.4134097798393
 20
122.2948646962841
 30
0.0
 10
141.177630777661
 20
122.2888656012253
 30
0.0
 10
141.059064467955
 20
122.2875097688295
 30
0.0
 10
140.8205693871545
 20
122.2882041808402
 30
0.0
 10
140.6997769936326
 20
122.2903026838315
 30
0.0
 10
140.4647110281675
 20
122.2976858333573
 30
0.0
 10
140.3496555156675
 20
122.3029485966282
 30
0.0
 10
140.1244357609246
 20
122.3162023586767
 30
0.0
 10
140.0133535913223
 20
122.3242814333542
 30
0.0
 10
139.8021021443867
 20
122.3422171603492
 30
0.0
 10
139.7017439098859
 20
122.3520533955627
 30
0.0
 10
139.4160999528625
 20
122.3830690639841
 30
0.0
 10
139.2458212092666
 20
122.4059007582028
 30
0.0
 10
138.9696700793463
 20
122.4465980325335
 30
0.0
 10
138.8599708929615
 20
122.4649240821057
 30
0.0
 10
138.7144278117976
 20
122.4899516813506
 30
0.0
 10
138.6764211763403
 20
122.4969543307181
 30
0.0
 10
138.6762868829825
 20
122.4969785561849
 30
0.0
 10
138.6854046382248
 20
122.4953239689288
 30
0.0
 10
138.7223231837384
 20
122.4887413256559
 30
0.0
 10
138.7502968387631
 20
122.4837850841332
 30
0.0
 10
138.8230684182154
 20
122.4712684114349
 30
0.0
 10
138.8679936563771
 20
122.4636838721215
 30
0.0
 10
138.9750369713326
 20
122.4463756167483
 30
0.0
 10
139.0376050122991
 20
122.4365913249555
 30
0.0
 10
139.1759959150385
 20
122.4161861232895
 30
0.0
 10
139.2521793708129
 20
122.4055011683664
 30
0.0
 10
139.418535104624
 20
122.383917430789
 30
0.0
 10
139.5095634070687
 20
122.3729313217879
 30
0.0
 10
139.7962172237416
 20
122.3417742380217
 30
0.0
 10
140.0082692818592
 20
122.3230780509856
 30
0.0
 10
140.4614465578138
 20
122.2963307702701
 30
0.0
 10
140.6960762065537
 20
122.2886251635683
 30
0.0
 10
141.1774997560123
 20
122.2871071560701
 30
0.0
 10
141.4128051262808
 20
122.2932958443025
 30
0.0
 10
141.8727127779563
 20
122.3177011799953
 30
0.0
 10
142.0871412899155
 20
122.3353843339206
 30
0.0
 10
142.4803404746809
 20
122.3761552509532
 30
0.0
 10
142.654249546346
 20
122.3987277266246
 30
0.0
 10
142.8005082122797
 20
122.4197808039191
 30
0.0
  0
SPLINE
  5
132
330
1F
100
AcDbEntity
  8
0
  6
HIDDEN
 62
     7
370
     0
100
AcDbSpline
210
0.0
220
0.0
230
1.0
 70
    11
 71
     3
 72
    14
 73
    10
 74
     0
 42
0.00000001
 43
0.00000001
 40
0.0
 40
0.0
 40
0.0
 40
0.0
 40
0.2500000000000001
 40
0.2500000000000001
 40
0.5000000000000001
 40
0.5000000000000001
 40
0.7500000000000002
 40
0.7500000000000002
 40
1.0
 40
1.0
 40
1.0
 40
1.0
 10
142.8005082122797
 20
122.4197808039191
 30
0.0
 10
142.9543841079825
 20
122.441930336771
 30
0.0
 10
143.0722646756115
 20
122.4547424038447
 30
0.0
 10
143.2353284655242
 20
122.4710951126751
 30
0.0
 10
143.2762449841479
 20
122.474270875393
 30
0.0
 10
143.2764177166641
 20
122.4742855775697
 30
0.0
 10
143.2354899584302
 20
122.4711060265763
 30
0.0
 10
143.0731525929647
 20
122.4548366950988
 30
0.0
 10
142.9543823248586
 20
122.4419300801008
 30
0.0
 10
142.8005082122797
 20
122.4197808039191
 30
0.0
  0
SPLINE
  5
133
330
1F
100
AcDbEntity
  8
0
  6
HIDDEN
 62
     7
370
     0
100
AcDbSpline
210
0.0
220
0.0
230
1.0
 70
    11
 71
     3
 72
    14
 73
    10
 74
     0
 42
0.00000001
 43
0.00000001
 40
0.0
 40
0.0
 40
0.0
 40
0.0
 40
0.2500000000000001
 40
0.2500000000000001
 40
0.5000000000000001
 40
0.5000000000000001
 40
0.7500000000000002
 40
0.7500000000000002
 40
1.0
 40
1.0
 40
1.0
 40
1.0
 10
142.8005082122797
 20
97.07416021695927
 30
0.0
 10
142.9543841079825
 20
97.05201068410729
 30
0.0
 10
143.0722646756115
 20
97.03919861703365
 30
0.0
 10
143.2353284655242
 20
97.0228459082032
 30
0.0
 10
143.2762449841479
 20
97.01967014548535
 30
0.0
 10
143.2764177166641
 20
97.01965544330861
 30
0.0
 10
143.2354899584302
 20
97.02283499430203
 30
0.0
 10
143.0731525929647
 20
97.03910432577952
 30
0.0
 10
142.9543823248586
 20
97.05201094077752
 30
0.0
 10
142.8005082122797
 20
97.07416021695927
 30
0.0
  0
LINE
  5
134
330
1F
100
AcDbEntity
  8
0
  6
HIDDEN
 62
     7
370
     0
100
AcDbLine
 10
146.9763314844
 20
99.246970652
 30
0.0
 11
146.9763314844
 21
120.2285292506
 31
0.0
  0
LINE
  5
135
330
1F
100
AcDbEntity
  8
0
  6
HIDDEN
 62
     7
370
     0
100
AcDbLine
 10
134.9789809928
 20
120.2469703689
 30
0.0
 11
134.9789809928
 21
99.246970652
 31
0.0
  0
LWPOLYLINE
  5
136
330
1F
100
AcDbEntity
  8
0
  6
HIDDEN
 62
     7
370
     0
100
AcDbPolyline
 90
        2
 70
   128
 43
0.0
 10
134.9789809928
 20
99.246970652
 10
134.9789809928
 20
99.246970652
  0
SPLINE
  5
137
330
1F
100
AcDbEntity
  8
0
  6
HIDDEN
 62
     7
370
     0
100
AcDbSpline
210
0.0
220
0.0
230
1.0
 70
     8
 71
     3
 72
    62
 73
    58
 74
     0
 42
0.00000001
 43
0.00000001
 40
-0.0312500000000002
 40
-0.0312500000000002
 40
0.0
 40
0.0
 40
0.0312499999999993
 40
0.0312499999999993
 40
0.0624999999999985
 40
0.0624999999999985
 40
0.0937499999999978
 40
0.0937499999999978
 40
0.1249999999999971
 40
0.1249999999999971
 40
0.1874999999999956
 40
0.1874999999999956
 40
0.2187499999999948
 40
0.2187499999999948
 40
0.2499999999999941
 40
0.2499999999999941
 40
0.2812499999999933
 40
0.2812499999999933
 40
0.3124999999999926
 40
0.3124999999999926
 40
0.3437499999999918
 40
0.3437499999999918
 40
0.3749999999999911
 40
0.3749999999999911
 40
0.4062499999999904
 40
0.4062499999999904
 40
0.4374999999999897
 40
0.4374999999999897
 40
0.4687499999999889
 40
0.4687499999999889
 40
0.4999999999999882
 40
0.4999999999999882
 40
0.5624999999999893
 40
0.5624999999999893
 40
0.5937499999999899
 40
0.5937499999999899
 40
0.6249999999999905
 40
0.6249999999999905
 40
0.6562499999999911
 40
0.6562499999999911
 40
0.6874999999999917
 40
0.6874999999999917
 40
0.749999999999994
 40
0.749999999999994
 40
0.7812499999999951
 40
0.7812499999999951
 40
0.8124999999999964
 40
0.8124999999999964
 40
0.8437499999999977
 40
0.8437499999999977
 40
0.8749999999999989
 40
0.8749999999999989
 40
0.9374999999999994
 40
0.9374999999999994
 40
0.9687499999999998
 40
0.9687499999999998
 40
1.0
 40
1.0
 40
1.031249999999999
 40
1.031249999999999
 10
215.1419420073151
 20
110.5020289257942
 30
0.0
 10
214.8107209614894
 20
110.5020289257942
 30
0.0
 10
214.6479636816404
 20
110.5186355045061
 30
0.0
 10
214.327895195837
 20
110.5835212304647
 30
0.0
 10
214.1688967148614
 20
110.6326159274112
 30
0.0
 10
213.8663625362749
 20
110.7600659196927
 30
0.0
 10
213.7229408236
 20
110.8378714454942
 30
0.0
 10
213.4515103125457
 20
111.0210057400474
 30
0.0
 10
213.3233289191223
 20
111.1270372447833
 30
0.0
 10
212.9784120385815
 20
111.4730342253396
 30
0.0
 10
212.7922774694074
 20
111.7502900859761
 30
0.0
 10
212.6050348785342
 20
112.1948578876501
 30
0.0
 10
212.5568003137201
 20
112.3498957572427
 30
0.0
 10
212.4924096436286
 20
112.6650603112247
 30
0.0
 10
212.4764287365584
 20
112.8228430774926
 30
0.0
 10
212.4762351087831
 20
113.1387142700969
 30
0.0
 10
212.4925654866681
 20
113.2983284330928
 30
0.0
 10
212.5565292384172
 20
113.6050947527934
 30
0.0
 10
212.6038505446905
 20
113.753441919655
 30
0.0
 10
212.7294474307781
 20
114.0402894747539
 30
0.0
 10
212.8075346618872
 20
114.1774443752163
 30
0.0
 10
212.9882743610851
 20
114.4307963417934
 30
0.0
 10
213.0920703501593
 20
114.5489648908471
 30
0.0
 10
213.3243824203114
 20
114.7648558401223
 30
0.0
 10
213.4501480386176
 20
114.8602355964637
 30
0.0
 10
213.7204638190807
 20
115.0271869153454
 30
0.0
 10
213.8668099154612
 20
115.099312664012
 30
0.0
 10
214.1689354799002
 20
115.2143513923228
 30
0.0
 10
214.3247553092186
 20
115.2577735453896
 30
0.0
 10
214.6460128344407
 20
115.3165918888121
 30
0.0
 10
214.8119445049672
 20
115.3315971813933
 30
0.0
 10
215.3020542577575
 20
115.3317792422208
 30
0.0
 10
215.6318342805467
 20
115.2719138779713
 30
0.0
 10
216.0833776051562
 20
115.1003904576548
 30
0.0
 10
216.2293751993401
 20
115.0287624334016
 30
0.0
 10
216.5015659352356
 20
114.8609879877146
 30
0.0
 10
216.6271748486058
 20
114.7656430636988
 30
0.0
 10
216.8578400863289
 20
114.5517591894012
 30
0.0
 10
216.9632684047427
 20
114.4321791232059
 30
0.0
 10
217.1443996255315
 20
114.178651363656
 30
0.0
 10
217.2214025375367
 20
114.0437721144631
 30
0.0
 10
217.4107135924266
 20
113.6133601087905
 30
0.0
 10
217.4760992222761
 20
113.3027979096999
 30
0.0
 10
217.4764466924414
 20
112.8244553044508
 30
0.0
 10
217.4603699939302
 20
112.6665461747969
 30
0.0
 10
217.3968418039349
 20
112.3537890494138
 30
0.0
 10
217.3485462343247
 20
112.1973672677105
 30
0.0
 10
217.2234002800421
 20
111.8995798400238
 30
0.0
 10
217.1467377909718
 20
111.757347784567
 30
0.0
 10
216.9651030043465
 20
111.4865300808375
 30
0.0
 10
216.8601762141074
 20
111.3587373862938
 30
0.0
 10
216.5157189389707
 20
111.0127979969807
 30
0.0
 10
216.2376267315936
 20
110.8241166157631
 30
0.0
 10
215.7866597819358
 20
110.6336859764855
 30
0.0
 10
215.6280744523299
 20
110.5843315934559
 30
0.0
 10
215.3053970098985
 20
110.5186386587204
 30
0.0
 10
215.1419420073151
 20
110.5020289257942
 30
0.0
 10
214.8107209614894
 20
110.5020289257942
 30
0.0
  0
LINE
  5
138
330
1F
100
AcDbEntity
  8
0
  6
HIDDEN
 62
     7
370
     0
100
AcDbLine
 10
232.976334405
 20
97.2469787061
 30
0.0
 11
232.976334405
 21
122.2469706967
 31
0.0
  0
LINE
  5
139
330
1F
100
AcDbEntity
  8
0
  6
HIDDEN
 62
     7
370
     0
100
AcDbLine
 10
161.9363317759
 20
123.2626021787
 30
0.0
 11
161.9363317759
 21
127.1495747327
 31
0.0
  0
LINE
  5
13A
330
1F
100
AcDbEntity
  8
0
  6
HIDDEN
 62
     7
370
     0
100
AcDbLine
 10
164.0163308502
 20
123.2628173142
 30
0.0
 11
164.0163308502
 21
127.1495747327
 31
0.0
  0
LINE
  5
13B
330
1F
100
AcDbEntity
  8
0
  6
HIDDEN
 62
     7
370
     0
100
AcDbLine
 10
161.999020961
 20
121.5969708696
 30
0.0
 11
166.9263320536
 21
121.5969708696
 31
0.0
  0
LINE
  5
13C
330
1F
100
AcDbEntity
  8
0
  6
HIDDEN
 62
     7
370
     0
100
AcDbLine
 10
127.0763317616
 20
99.8819640785
 30
0.0
 11
127.0763317616
 21
119.6119769424
 31
0.0
  0
LINE
  5
13D
330
1F
100
AcDbEntity
  8
0
  6
HIDDEN
 62
     7
370
     0
100
AcDbLine
 10
153.1457065166
 20
120.2469703689
 30
0.0
 11
153.1457065166
 21
99.246970652
 31
0.0
  0
LINE
  5
13E
330
1F
100
AcDbEntity
  8
0
  6
HIDDEN
 62
     7
370
     0
100
AcDbLine
 10
154.9263319493
 20
119.6219709649
 30
0.0
 11
154.9263319493
 21
99.871970056
 31
0.0
  0
LWPOLYLINE
  5
13F
330
1F
100
AcDbEntity
  8
0
  6
HIDDEN
 62
     7
370
     0
100
AcDbPolyline
 90
       20
 70
   128
 43
0.0
 10
213.7057131649
 20
109.5710112544
 10
213.8959860922
 20
109.8788819631
 10
214.0525823952
 20
110.0560175959
 10
214.1638791681
 20
110.0892712542
 10
214.2216062666
 20
109.9761747877
 10
214.2214945079
 20
109.7251222394
 10
214.163543892
 20
109.3547466275
 10
214.0520534039
 20
108.8925371127
 10
213.8953006388
 20
108.3727988129
 10
213.7049159528
 20
107.8341064689
 10
213.4950405479
 20
107.3164416424
 10
213.2812386871
 20
106.8582253478
 10
213.0793875576
 20
106.4934663422
 10
212.9044628263
 20
106.2492367759
 10
212.7694508553
 20
106.1436634458
 10
212.6843726755
 20
106.1845815688
 10
212.6555389286
 20
106.3689548004
 10
212.6850879312
 20
106.6830987524
 10
212.7708366633
 20
107.1036975313
 10
212.9064148785
 20
107.5995348341
  0
SPLINE
  5
140
330
1F
100
AcDbEntity
  8
0
  6
HIDDEN
 62
     7
370
     0
100
AcDbSpline
210
0.0
220
0.0
230
1.0
 70
     8
 71
     3
 72
    22
 73
    18
 74
     0
 42
0.00000001
 43
0.00000001
 40
0.0
 40
0.0
 40
0.0
 40
0.0
 40
0.125
 40
0.125
 40
0.25
 40
0.25
 40
0.375
 40
0.375
 40
0.5
 40
0.5
 40
0.625
 40
0.625
 40
0.75
 40
0.75
 40
0.875
 40
0.875
 40
1.0
 40
1.0
 40
1.0
 40
1.0
 10
212.9064128342201
 20
107.5995347379849
 30
0.0
 10
212.8921029812532
 20
107.6671101097684
 30
0.0
 10
212.882053302395
 20
107.7420983685173
 30
0.0
 10
212.8742117666404
 20
107.9077417749984
 30
0.0
 10
212.8766254171441
 20
107.9950133511755
 30
0.0
 10
212.8954276163395
 20
108.1754077477393
 30
0.0
 10
212.9120512109129
 20
108.2690049932811
 30
0.0
 10
212.9585905533837
 20
108.4526405774433
 30
0.0
 10
212.988502414053
 20
108.5434966480556
 30
0.0
 10
213.0616205272132
 20
108.7226442832495
 30
0.0
 10
213.1052882909939
 20
108.8115899988409
 30
0.0
 10
213.2031398197543
 20
108.9817302301181
 30
0.0
 10
213.2574479064666
 20
109.0634706034254
 30
0.0
 10
213.3756397363837
 20
109.2214009097459
 30
0.0
 10
213.4405482570407
 20
109.2986375585115
 30
0.0
 10
213.5722600381102
 20
109.4420615056888
 30
0.0
 10
213.6390294655696
 20
109.5085567393549
 30
0.0
 10
213.7057150257164
 20
109.5710112557055
 30
0.0
  0
SPLINE
  5
141
330
1F
100
AcDbEntity
  8
0
  6
HIDDEN
 62
     7
370
     0
100
AcDbSpline
210
0.0
220
0.0
230
1.0
 70
    11
 71
     3
 72
    62
 73
    58
 74
     0
 42
0.00000001
 43
0.00000001
 40
0.0
 40
0.0
 40
0.0
 40
0.0
 40
0.0000199610010071
 40
0.0000199610010071
 40
0.0000199610010071
 40
0.0000420510319875
 40
0.0000420510319875
 40
0.0000420510319875
 40
0.0000647011391136
 40
0.0000647011391136
 40
0.0000647011391136
 40
0.0000877094689646
 40
0.0000877094689646
 40
0.0000877094689646
 40
0.0001106617354473
 40
0.0001106617354473
 40
0.0001106617354473
 40
0.0001332009088829
 40
0.0001332009088829
 40
0.0001332009088829
 40
0.0001552351602099
 40
0.0001552351602099
 40
0.0001552351602099
 40
0.0001769508306573
 40
0.0001769508306573
 40
0.0001769508306573
 40
0.0001986426065521
 40
0.0001986426065521
 40
0.0001986426065521
 40
0.0002205227935953
 40
0.0002205227935953
 40
0.0002205227935953
 40
0.0002426475605064
 40
0.0002426475605064
 40
0.0002426475605064
 40
0.0002649844494339
 40
0.0002649844494339
 40
0.0002649844494339
 40
0.0002875175834047
 40
0.0002875175834047
 40
0.0002875175834047
 40
0.0003102411492767
 40
0.0003102411492767
 40
0.0003102411492767
 40
0.000333036611738
 40
0.000333036611738
 40
0.000333036611738
 40
0.0003556173291439
 40
0.0003556173291439
 40
0.0003556173291439
 40
0.0003777035265183
 40
0.0003777035265183
 40
0.0003777035265183
 40
0.000399298872943
 40
0.000399298872943
 40
0.000399298872943
 40
0.0004141893145674
 40
0.0004141893145674
 40
0.0004141893145674
 40
0.0004141893145674
 10
215.0037051468726
 20
106.9073519879914
 30
0.0
 10
215.0099683696562
 20
106.9095565847315
 30
0.0
 10
215.0159506422771
 20
106.9127176033036
 30
0.0
 10
215.0212557592331
 20
106.9166040030924
 30
0.0
 10
215.0271143537563
 20
106.9208958670996
 30
0.0
 10
215.0322959469839
 20
106.9261846548139
 30
0.0
 10
215.0364103042728
 20
106.9320406693009
 30
0.0
 10
215.0406272636172
 20
106.9380427185343
 30
0.0
 10
215.0438376423322
 20
106.9448029119907
 30
0.0
 10
215.0457900924986
 20
106.9517755788426
 30
0.0
 10
215.0477724352263
 20
106.9588549991854
 30
0.0
 10
215.0485113294569
 20
106.9663501291239
 30
0.0
 10
215.0479304611884
 20
106.9736341844635
 30
0.0
 10
215.0473511756272
 20
106.9808983927428
 30
0.0
 10
215.0454399168947
 20
106.988157801982
 30
0.0
 10
215.0423341790069
 20
106.9947758032302
 30
0.0
 10
215.0392840592968
 20
107.0012752879831
 30
0.0
 10
215.0349929472964
 20
107.0073396094236
 30
0.0
 10
215.0298133116236
 20
107.0124249065603
 30
0.0
 10
215.0247477306005
 20
107.017398226365
 30
0.0
 10
215.018689716256
 20
107.0215743814878
 30
0.0
 10
215.0121506850522
 20
107.0245884393122
 30
0.0
 10
215.0057035611912
 20
107.0275601339735
 30
0.0
 10
214.9986114278497
 20
107.0294853122086
 30
0.0
 10
214.9914639519357
 20
107.0302109779257
 30
0.0
 10
214.9843229205103
 20
107.0309359893496
 30
0.0
 10
214.9769320863845
 20
107.030485143949
 30
0.0
 10
214.9698913883772
 20
107.0289111485873
 30
0.0
 10
214.9627897787702
 20
107.0273235360282
 30
0.0
 10
214.9558511962407
 20
107.0245512265476
 30
0.0
 10
214.9496319353925
 20
107.0208348677581
 30
0.0
 10
214.943343997389
 20
107.0170774704985
 30
0.0
 10
214.9376202045073
 20
107.0122532791794
 30
0.0
 10
214.9329177359686
 20
107.0067663296628
 30
0.0
 10
214.9281706779126
 20
107.0012273520619
 30
0.0
 10
214.9243349816932
 20
106.9948625854349
 30
0.0
 10
214.9217132818175
 20
106.9881965999988
 30
0.0
 10
214.9190687831077
 20
106.9814726458006
 30
0.0
 10
214.9175866680015
 20
106.974259104855
 30
0.0
 10
214.9173803553577
 20
106.9671427765068
 30
0.0
 10
214.9171723369923
 20
106.9599676128171
 30
0.0
 10
214.9182552494965
 20
106.9526935518787
 30
0.0
 10
214.9205445512306
 20
106.9459149700054
 30
0.0
 10
214.9228404545519
 20
106.9391168409493
 30
0.0
 10
214.9264154521247
 20
106.9326265716806
 30
0.0
 10
214.9309877332897
 20
106.9269957970261
 30
0.0
 10
214.9355162093673
 20
106.9214189684364
 30
0.0
 10
214.9411543493316
 20
106.9165279781438
 30
0.0
 10
214.9474358092495
 20
106.9127634601035
 30
0.0
 10
214.9535810398975
 20
106.9090805851128
 30
0.0
 10
214.9605177106718
 20
106.906373131119
 30
0.0
 10
214.967653491033
 20
106.9048918782396
 30
0.0
 10
214.9746343977314
 20
106.9034427741999
 30
0.0
 10
214.981999539749
 20
106.9031267012437
 30
0.0
 10
214.9891305000878
 20
106.9039688658663
 30
0.0
 10
214.9940851199581
 20
106.9045540052269
 30
0.0
 10
214.9990086290636
 20
106.9056988569742
 30
0.0
 10
215.0037051468726
 20
106.9073519879914
 30
0.0
  0
SPLINE
  5
142
330
1F
100
AcDbEntity
  8
0
  6
HIDDEN
 62
     7
370
     0
100
AcDbSpline
210
0.0
220
0.0
230
1.0
 70
     8
 71
     3
 72
    14
 73
    10
 74
     0
 42
0.00000001
 43
0.00000001
 40
0.0
 40
0.0
 40
0.0
 40
0.0
 40
0.25
 40
0.25
 40
0.5
 40
0.5
 40
0.75
 40
0.75
 40
1.0
 40
1.0
 40
1.0
 40
1.0
 10
215.2621003613463
 20
105.2786143519606
 30
0.0
 10
215.1261477228496
 20
105.340598124572
 30
0.0
 10
214.988316227665
 20
105.4041232082299
 30
0.0
 10
214.6983692941292
 20
105.5281032003018
 30
0.0
 10
214.5428346330401
 20
105.5887487567481
 30
0.0
 10
214.2274332282763
 20
105.6933338321161
 30
0.0
 10
214.065419633307
 20
105.7387371674267
 30
0.0
 10
213.7452403101775
 20
105.8257627911292
 30
0.0
 10
213.5882551706607
 20
105.8675937441793
 30
0.0
 10
213.4333747650663
 20
105.9121996574605
 30
0.0
  0
SPLINE
  5
143
330
1F
100
AcDbEntity
  8
0
  6
HIDDEN
 62
     7
370
     0
100
AcDbSpline
210
0.0
220
0.0
230
1.0
 70
     8
 71
     3
 72
    62
 73
    58
 74
     0
 42
0.00000001
 43
0.00000001
 40
0.0
 40
0.0
 40
0.0
 40
0.0
 40
0.0624999999999877
 40
0.0624999999999877
 40
0.1249999999999754
 40
0.1249999999999754
 40
0.1562499999999707
 40
0.1562499999999707
 40
0.1874999999999661
 40
0.1874999999999661
 40
0.2031249999999652
 40
0.2031249999999652
 40
0.2187499999999643
 40
0.2187499999999643
 40
0.2343749999999634
 40
0.2343749999999634
 40
0.2499999999999625
 40
0.2499999999999625
 40
0.2812499999999634
 40
0.2812499999999634
 40
0.3124999999999644
 40
0.3124999999999644
 40
0.3749999999999661
 40
0.3749999999999661
 40
0.4374999999999677
 40
0.4374999999999677
 40
0.4687499999999686
 40
0.4687499999999686
 40
0.4999999999999695
 40
0.4999999999999695
 40
0.5312499999999704
 40
0.5312499999999704
 40
0.5624999999999711
 40
0.5624999999999711
 40
0.6249999999999728
 40
0.6249999999999728
 40
0.6562499999999737
 40
0.6562499999999737
 40
0.6874999999999746
 40
0.6874999999999746
 40
0.7499999999999762
 40
0.7499999999999762
 40
0.812499999999978
 40
0.812499999999978
 40
0.8437499999999801
 40
0.8437499999999801
 40
0.8749999999999821
 40
0.8749999999999821
 40
0.8906249999999842
 40
0.8906249999999842
 40
0.9062499999999862
 40
0.9062499999999862
 40
0.9374999999999909
 40
0.9374999999999909
 40
0.9687499999999954
 40
0.9687499999999954
 40
1.0
 40
1.0
 40
1.0
 40
1.0
 10
213.7057150257165
 20
109.5710112557055
 30
0.0
 10
213.8793430193851
 20
109.6728295588661
 30
0.0
 10
214.0598452202167
 20
109.7352700547416
 30
0.0
 10
214.4326220231818
 20
109.8020254348339
 30
0.0
 10
214.622312210801
 20
109.8048354298056
 30
0.0
 10
214.9046175693544
 20
109.7719291521511
 30
0.0
 10
214.9989049270439
 20
109.7547543275073
 30
0.0
 10
215.190540438301
 20
109.7083359213912
 30
0.0
 10
215.287834005902
 20
109.6789540651142
 30
0.0
 10
215.4395880184493
 20
109.6265109794319
 30
0.0
 10
215.4916309351503
 20
109.6074792922941
 30
0.0
 10
215.5985599407002
 20
109.5675850717497
 30
0.0
 10
215.6548752581421
 20
109.546247486542
 30
0.0
 10
215.7658943692123
 20
109.5053724319408
 30
0.0
 10
215.8211100897601
 20
109.4857325028741
 30
0.0
 10
215.922380615654
 20
109.4502093686045
 30
0.0
 10
215.9692217844327
 20
109.4339014299372
 30
0.0
 10
216.0997742557626
 20
109.3866234531348
 30
0.0
 10
216.1769590333637
 20
109.3559465889756
 30
0.0
 10
216.321442980626
 20
109.2887663397905
 30
0.0
 10
216.3880885296441
 20
109.2527160225552
 30
0.0
 10
216.5763100756653
 20
109.1333615363026
 30
0.0
 10
216.686309684665
 20
109.0392373857574
 30
0.0
 10
216.8754822586721
 20
108.8087839603962
 30
0.0
 10
216.9520869767971
 20
108.6752425589539
 30
0.0
 10
217.0305341886913
 20
108.4410522784482
 30
0.0
 10
217.0505715927473
 20
108.3565682171543
 30
0.0
 10
217.0747653814494
 20
108.1791777521948
 30
0.0
 10
217.0792107749992
 20
108.0857524404819
 30
0.0
 10
217.0697787085949
 20
107.8874101576951
 30
0.0
 10
217.0557821020462
 20
107.7840233814138
 30
0.0
 10
217.0082295070765
 20
107.5738247530631
 30
0.0
 10
216.9739164890987
 20
107.4646932216387
 30
0.0
 10
216.8444303496933
 20
107.1449494978086
 30
0.0
 10
216.7199540591387
 20
106.9359144574318
 30
0.0
 10
216.5040976178779
 20
106.6590011687575
 30
0.0
 10
216.4266111497317
 20
106.5715700408835
 30
0.0
 10
216.2686036128633
 20
106.4116852969597
 30
0.0
 10
216.1873236058144
 20
106.3382126326589
 30
0.0
 10
215.9378890190079
 20
106.1341891434802
 30
0.0
 10
215.7671584071107
 20
106.0226300171871
 30
0.0
 10
215.4326095651907
 20
105.8413719217287
 30
0.0
 10
215.2649553174173
 20
105.7702057878911
 30
0.0
 10
215.0286210671581
 20
105.6882374349811
 30
0.0
 10
214.9521266750044
 20
105.6649396881663
 30
0.0
 10
214.8079998363824
 20
105.6234189586058
 30
0.0
 10
214.7393169079419
 20
105.6056954370237
 30
0.0
 10
214.6574289085558
 20
105.575463984754
 30
0.0
 10
214.6343093936358
 20
105.5647275531566
 30
0.0
 10
214.6075148625605
 20
105.538874851644
 30
0.0
 10
214.6049658170277
 20
105.5236201375201
 30
0.0
 10
214.6365521794216
 20
105.4719861761063
 30
0.0
 10
214.7016362742056
 20
105.4346600562157
 30
0.0
 10
214.8428004121265
 20
105.37203708401
 30
0.0
 10
214.9224342953656
 20
105.3453431552246
 30
0.0
 10
215.0883282882146
 20
105.3031212525057
 30
0.0
 10
215.1743881201605
 20
105.287718975919
 30
0.0
 10
215.2621003613463
 20
105.2786143519606
 30
0.0
  0
SPLINE
  5
144
330
1F
100
AcDbEntity
  8
0
  6
HIDDEN
 62
     7
370
     0
100
AcDbSpline
210
0.0
220
0.0
230
1.0
 70
     8
 71
     3
 72
    22
 73
    18
 74
     0
 42
0.00000001
 43
0.00000001
 40
0.0
 40
0.0
 40
0.0
 40
0.0
 40
0.1249999999999986
 40
0.1249999999999986
 40
0.1874999999999979
 40
0.1874999999999979
 40
0.2499999999999972
 40
0.2499999999999972
 40
0.3124999999999964
 40
0.3124999999999964
 40
0.3749999999999965
 40
0.3749999999999965
 40
0.4999999999999973
 40
0.4999999999999973
 40
0.7499999999999986
 40
0.7499999999999986
 40
1.0
 40
1.0
 40
1.0
 40
1.0
 10
213.4333747650664
 20
105.9121996574604
 30
0.0
 10
213.4997505270154
 20
105.8705096504537
 30
0.0
 10
213.5688273787164
 20
105.8366248552327
 30
0.0
 10
213.6695008542137
 20
105.8010840399998
 30
0.0
 10
213.7022938412891
 20
105.7919054824997
 30
0.0
 10
213.7620205038097
 20
105.7814389796245
 30
0.0
 10
213.7893135282365
 20
105.7798854269202
 30
0.0
 10
213.8257514772553
 20
105.7927324600925
 30
0.0
 10
213.8319729109741
 20
105.8080618804145
 30
0.0
 10
213.8109588228907
 20
105.8588028100544
 30
0.0
 10
213.7856247226682
 20
105.8926448076969
 30
0.0
 10
213.6958249646289
 20
106.0034479131405
 30
0.0
 10
213.6201083145351
 20
106.0895086688882
 30
0.0
 10
213.4013990335831
 20
106.3681334038298
 30
0.0
 10
213.2632599912775
 20
106.5787899377047
 30
0.0
 10
213.0367977062853
 20
107.0568741859694
 30
0.0
 10
212.9503534551042
 20
107.3169055723814
 30
0.0
 10
212.9064128342201
 20
107.5995347379848
 30
0.0
  0
SPLINE
  5
145
330
1F
100
AcDbEntity
  8
0
  6
HIDDEN
 62
     7
370
     0
100
AcDbSpline
210
0.0
220
0.0
230
1.0
 70
     8
 71
     3
 72
    10
 73
     6
 74
     0
 42
0.00000001
 43
0.00000001
 40
0.0
 40
0.0
 40
0.0
 40
0.0
 40
0.5
 40
0.5
 40
1.0
 40
1.0
 40
1.0
 40
1.0
 10
215.0334725503269
 20
109.3158827624666
 30
0.0
 10
215.2559428165899
 20
109.1696090634343
 30
0.0
 10
215.4817232328575
 20
109.0277408546702
 30
0.0
 10
215.9763827614499
 20
108.8138030585935
 30
0.0
 10
216.2262662812087
 20
108.753121291682
 30
0.0
 10
216.4744208226668
 20
108.7096859924459
 30
0.0
  0
SPLINE
  5
146
330
1F
100
AcDbEntity
  8
0
  6
HIDDEN
 62
     7
370
     0
100
AcDbSpline
210
0.0
220
0.0
230
1.0
 70
     8
 71
     3
 72
    18
 73
    14
 74
     0
 42
0.00000001
 43
0.00000001
 40
0.0
 40
0.0
 40
0.0
 40
0.0
 40
0.2499999999999995
 40
0.2499999999999995
 40
0.3749999999999998
 40
0.3749999999999998
 40
0.5000000000000002
 40
0.5000000000000002
 40
0.6250000000000006
 40
0.6250000000000006
 40
0.7500000000000009
 40
0.7500000000000009
 40
1.0
 40
1.0
 40
1.0
 40
1.0
 10
216.4744208226668
 20
108.7096859924459
 30
0.0
 10
216.3860315553531
 20
108.820913081741
 30
0.0
 10
216.2901573466898
 20
108.9244679988974
 30
0.0
 10
216.1292451870635
 20
109.067045436498
 30
0.0
 10
216.0730281304014
 20
109.1122069719711
 30
0.0
 10
215.9505283738613
 20
109.1968198547512
 30
0.0
 10
215.8822329639273
 20
109.2371999372915
 30
0.0
 10
215.738418103158
 20
109.3004638343149
 30
0.0
 10
215.6636008459491
 20
109.3223483812826
 30
0.0
 10
215.5239895895733
 20
109.3475255550734
 30
0.0
 10
215.459566231091
 20
109.3520130490529
 30
0.0
 10
215.2716491763503
 20
109.3538974802616
 30
0.0
 10
215.1524442654031
 20
109.3395333547546
 30
0.0
 10
215.033472550327
 20
109.3158827624666
 30
0.0
  0
LINE
  5
147
330
1F
100
AcDbEntity
  8
0
  6
HIDDEN
 62
     7
370
     0
100
AcDbLine
 10
128.0263310791
 20
100.0490647688
 30
0.0
 11
132.2763313101
 21
100.0490647688
 31
0.0
  0
LINE
  5
148
330
1F
100
AcDbEntity
  8
0
  6
HIDDEN
 62
     7
370
     0
100
AcDbLine
 10
128.0263310791
 20
119.4448762521
 30
0.0
 11
128.0263310791
 21
100.0490647688
 31
0.0
  0
LINE
  5
149
330
1F
100
AcDbEntity
  8
0
  6
HIDDEN
 62
     7
370
     0
100
AcDbLine
 10
129.7763309003
 20
119.4448762521
 30
0.0
 11
128.0263310791
 21
119.4448762521
 31
0.0
  0
SPLINE
  5
14A
330
1F
100
AcDbEntity
  8
0
  6
HIDDEN
 62
     7
370
     0
100
AcDbSpline
210
0.0
220
0.0
230
1.0
 70
     8
 71
     3
 72
    14
 73
    10
 74
     0
 42
0.00000001
 43
0.00000001
 40
0.0
 40
0.0
 40
0.0
 40
0.0
 40
0.25
 40
0.25
 40
0.5
 40
0.5
 40
0.75
 40
0.75
 40
1.0
 40
1.0
 40
1.0
 40
1.0
 10
130.6763314844022
 20
119.7711600038596
 30
0.0
 10
130.6763314844022
 20
119.7346881393258
 30
0.0
 10
130.6539608525981
 20
119.6969523868133
 30
0.0
 10
130.5667453213499
 20
119.6218166651138
 30
0.0
 10
130.5027241152732
 20
119.5854443788917
 30
0.0
 10
130.339238817532
 20
119.5212208397296
 30
0.0
 10
130.2399239433587
 20
119.4936978771072
 30
0.0
 10
130.0200976726537
 20
119.4555257102201
 30
0.0
 10
129.8990941103445
 20
119.4448762121874
 30
0.0
 10
129.7763314844022
 20
119.4448762121874
 30
0.0
  0
LINE
  5
14B
330
1F
100
AcDbEntity
  8
0
  6
HIDDEN
 62
     7
370
     0
100
AcDbLine
 10
130.6763312341
 20
119.7711604595
 30
0.0
 11
130.6763312341
 21
120.2469703689
 31
0.0
  0
SPLINE
  5
14C
330
1F
100
AcDbEntity
  8
0
  6
HIDDEN
 62
     7
370
     0
100
AcDbSpline
210
0.0
220
0.0
230
1.0
 70
     8
 71
     3
 72
    14
 73
    10
 74
     0
 42
0.00000001
 43
0.00000001
 40
0.0
 40
0.0
 40
0.0
 40
0.0
 40
0.2500000000000001
 40
0.2500000000000001
 40
0.5000000000000002
 40
0.5000000000000002
 40
0.7500000000000003
 40
0.7500000000000003
 40
1.0
 40
1.0
 40
1.0
 40
1.0
 10
130.6763314844022
 20
119.7711600038596
 30
0.0
 10
130.6763314844022
 20
119.7346881393258
 30
0.0
 10
130.6539608525981
 20
119.6969523868133
 30
0.0
 10
130.5667453213499
 20
119.6218166651138
 30
0.0
 10
130.5027241152732
 20
119.5854443788917
 30
0.0
 10
130.339238817532
 20
119.5212208397296
 30
0.0
 10
130.2399239433587
 20
119.4936978771072
 30
0.0
 10
130.0200976726537
 20
119.4555257102201
 30
0.0
 10
129.8990941103445
 20
119.4448762121874
 30
0.0
 10
129.7763314844022
 20
119.4448762121874
 30
0.0
  0
LINE
  5
14D
330
1F
100
AcDbEntity
  8
0
  6
HIDDEN
 62
     7
370
     0
100
AcDbLine
 10
129.7763309003
 20
119.4448762521
 30
0.0
 11
128.0263310791
 21
119.4448762521
 31
0.0
  0
LINE
  5
14E
330
1F
100
AcDbEntity
  8
0
  6
HIDDEN
 62
     7
370
     0
100
AcDbLine
 10
128.0263310791
 20
100.0490647688
 30
0.0
 11
132.2763313101
 21
100.0490647688
 31
0.0
  0
SPLINE
  5
14F
330
1F
100
AcDbEntity
  8
0
  6
HIDDEN
 62
     7
370
     0
100
AcDbSpline
210
0.0
220
0.0
230
1.0
 70
     8
 71
     3
 72
    14
 73
    10
 74
     0
 42
0.00000001
 43
0.00000001
 40
0.0
 40
0.0
 40
0.0
 40
0.0
 40
0.25
 40
0.25
 40
0.5
 40
0.5
 40
0.75
 40
0.75
 40
1.0
 40
1.0
 40
1.0
 40
1.0
 10
132.2763314844022
 20
100.049064808691
 30
0.0
 10
132.3989369077887
 20
100.049064808691
 30
0.0
 10
132.5192800098814
 20
100.038521466781
 30
0.0
 10
132.7395800140604
 20
100.0003385061564
 30
0.0
 10
132.8392237603478
 20
99.97269723801557
 30
0.0
 10
133.0021118454088
 20
99.9087659132282
 30
0.0
 10
133.0667565022115
 20
99.87204717426431
 30
0.0
 10
133.1534794671074
 20
99.79747052881869
 30
0.0
 10
133.1763314844022
 20
99.75921479494498
 30
0.0
 10
133.1763314844022
 20
99.72278101701876
 30
0.0
  0
LINE
  5
150
330
1F
100
AcDbEntity
  8
0
  6
HIDDEN
 62
     7
370
     0
100
AcDbLine
 10
133.1763316438
 20
99.7227805614
 30
0.0
 11
133.1763316438
 21
99.246970652
 31
0.0
  0
SPLINE
  5
151
330
1F
100
AcDbEntity
  8
0
  6
HIDDEN
 62
     7
370
     0
100
AcDbSpline
210
0.0
220
0.0
230
1.0
 70
     8
 71
     3
 72
    14
 73
    10
 74
     0
 42
0.00000001
 43
0.00000001
 40
0.0
 40
0.0
 40
0.0
 40
0.0
 40
0.25
 40
0.25
 40
0.5
 40
0.5
 40
0.75
 40
0.75
 40
1.0
 40
1.0
 40
1.0
 40
1.0
 10
132.2763314844022
 20
100.049064808691
 30
0.0
 10
132.3989369077887
 20
100.049064808691
 30
0.0
 10
132.5192800098814
 20
100.038521466781
 30
0.0
 10
132.7395800140604
 20
100.0003385061564
 30
0.0
 10
132.8392237603478
 20
99.97269723801557
 30
0.0
 10
133.0021118454088
 20
99.9087659132282
 30
0.0
 10
133.0667565022115
 20
99.87204717426431
 30
0.0
 10
133.1534794671074
 20
99.79747052881868
 30
0.0
 10
133.1763314844022
 20
99.75921479494498
 30
0.0
 10
133.1763314844022
 20
99.72278101701876
 30
0.0
  0
LINE
  5
152
330
1F
100
AcDbEntity
  8
0
  6
HIDDEN
 62
     7
370
     0
100
AcDbLine
 10
128.0263310791
 20
100.0490647688
 30
0.0
 11
128.0263310791
 21
119.4448762521
 31
0.0
  0
ARC
  5
153
330
1F
100
AcDbEntity
  8
0
  6
HIDDEN
 62
     7
370
     0
100
AcDbCircle
 10
214.9834697639
 20
107.1813308355
 30
0.0
 40
2.135137548279434
100
AcDbArc
 50
45.7097119648
 51
88.658037062
  0
SPLINE
  5
154
330
1F
100
AcDbEntity
  8
0
  6
HIDDEN
 62
     7
370
     0
100
AcDbSpline
210
0.0
220
0.0
230
1.0
 70
     8
 71
     3
 72
    64
 73
    60
 74
     0
 42
0.00000001
 43
0.00000001
 40
-0.0624999999999982
 40
-0.0624999999999982
 40
0.0
 40
0.0
 40
0.0312500000000001
 40
0.0312500000000001
 40
0.0625000000000002
 40
0.0625000000000002
 40
0.0937500000000004
 40
0.0937500000000004
 40
0.1250000000000005
 40
0.1250000000000005
 40
0.1562500000000006
 40
0.1562500000000006
 40
0.1875000000000007
 40
0.1875000000000007
 40
0.2187500000000008
 40
0.2187500000000008
 40
0.2500000000000009
 40
0.2500000000000009
 40
0.2812500000000011
 40
0.2812500000000011
 40
0.3125000000000012
 40
0.3125000000000012
 40
0.3437500000000013
 40
0.3437500000000013
 40
0.3750000000000014
 40
0.3750000000000014
 40
0.4062500000000016
 40
0.4062500000000016
 40
0.4375000000000017
 40
0.4375000000000017
 40
0.4687500000000018
 40
0.4687500000000018
 40
0.5000000000000019
 40
0.5000000000000019
 40
0.5625000000000021
 40
0.5625000000000021
 40
0.5937500000000022
 40
0.5937500000000022
 40
0.6250000000000023
 40
0.6250000000000023
 40
0.6562500000000024
 40
0.6562500000000024
 40
0.6875000000000026
 40
0.6875000000000026
 40
0.7187500000000027
 40
0.7187500000000027
 40
0.7500000000000029
 40
0.7500000000000029
 40
0.781250000000003
 40
0.781250000000003
 40
0.8125000000000031
 40
0.8125000000000031
 40
0.8750000000000033
 40
0.8750000000000033
 40
0.9062500000000026
 40
0.9062500000000026
 40
0.9375000000000018
 40
0.9375000000000018
 40
1.0
 40
1.0
 40
1.03125
 40
1.03125
 10
217.0763314844021
 20
109.3871865854202
 30
0.0
 10
217.0763314844022
 20
108.9562910538142
 30
0.0
 10
217.060725885861
 20
108.8197066567589
 30
0.0
 10
217.0007964652821
 20
108.5593261803735
 30
0.0
 10
216.9559280183783
 20
108.435690811633
 30
0.0
 10
216.8441070458543
 20
108.2126565165016
 30
0.0
 10
216.7759273658257
 20
108.1103795958638
 30
0.0
 10
216.6225511665626
 20
107.9289794756465
 30
0.0
 10
216.5377236551726
 20
107.8496783898897
 30
0.0
 10
216.3523551780228
 20
107.7097190092701
 30
0.0
 10
216.2509520888294
 20
107.6488029950582
 30
0.0
 10
216.0365825460278
 20
107.5465124644793
 30
0.0
 10
215.9233133506173
 20
107.5046471225038
 30
0.0
 10
215.6799189871498
 20
107.4369127586279
 30
0.0
 10
215.5485230116423
 20
107.4110147018237
 30
0.0
 10
215.2726855751167
 20
107.37646660954
 30
0.0
 10
215.1246685431411
 20
107.367531991822
 30
0.0
 10
214.8322807273148
 20
107.3673633270033
 30
0.0
 10
214.683902108475
 20
107.376162067487
 30
0.0
 10
214.4084285348731
 20
107.4102960423328
 30
0.0
 10
214.2769307718767
 20
107.4359785236235
 30
0.0
 10
214.0330657891786
 20
107.5033894066035
 30
0.0
 10
213.9195100093523
 20
107.5451183058248
 30
0.0
 10
213.7044860107013
 20
107.6472433523535
 30
0.0
 10
213.6031479381905
 20
107.7078905287457
 30
0.0
 10
213.4177093311384
 20
107.8472804333946
 30
0.0
 10
213.3326939961775
 20
107.9263542814365
 30
0.0
 10
213.1787158770777
 20
108.1076212343219
 30
0.0
 10
213.1105716715395
 20
108.2093809015414
 30
0.0
 10
212.9984325408549
 20
108.4315842529946
 30
0.0
 10
212.9532493775603
 20
108.5549895757735
 30
0.0
 10
212.892689946708
 20
108.8148221984272
 30
0.0
 10
212.8768098940953
 20
108.9508461809663
 30
0.0
 10
212.8754062345349
 20
109.3788184839642
 30
0.0
 10
212.9392736543876
 20
109.6757151929584
 30
0.0
 10
213.1065118387737
 20
110.0823012049021
 30
0.0
 10
213.1746066302972
 20
110.2134471025286
 30
0.0
 10
213.3275422440719
 20
110.4574311247201
 30
0.0
 10
213.4122332171218
 20
110.5707038692095
 30
0.0
 10
213.5975369495728
 20
110.7817504685445
 30
0.0
 10
213.6988809752855
 20
110.879954788504
 30
0.0
 10
213.9129746617951
 20
111.054968244136
 30
0.0
 10
214.0262057586617
 20
111.1326620392129
 30
0.0
 10
214.2698477025523
 20
111.2665406704639
 30
0.0
 10
214.4009412491777
 20
111.3226928917756
 30
0.0
 10
214.6767285091285
 20
111.4013456524972
 30
0.0
 10
214.8243936621467
 20
111.4237780996425
 30
0.0
 10
215.1167770650137
 20
111.4248714367128
 30
0.0
 10
215.2652727101584
 20
111.4034472564141
 30
0.0
 10
215.5424382577522
 20
111.3262142982602
 30
0.0
 10
215.6739230782543
 20
111.2706361848621
 30
0.0
 10
216.0396194614468
 20
111.0719790830362
 30
0.0
 10
216.2557846987955
 20
110.8934108449338
 30
0.0
 10
216.5348586468162
 20
110.5777547664612
 30
0.0
 10
216.6214859407297
 20
110.462579292545
 30
0.0
 10
216.7750903580208
 20
110.2188019671511
 30
0.0
 10
216.8422464403922
 20
110.0904425603486
 30
0.0
 10
217.0114684964508
 20
109.6829745332775
 30
0.0
 10
217.0763314844021
 20
109.3871865854202
 30
0.0
 10
217.0763314844022
 20
108.9562910538142
 30
0.0
  0
ARC
  5
155
330
1F
100
AcDbEntity
  8
0
  6
HIDDEN
 62
     7
370
     0
100
AcDbCircle
 10
214.9732608551
 20
107.4008682066
 30
0.0
 40
2.141819593915629
100
AcDbArc
 50
224.0310806612
 51
277.7504043938
  0
LINE
  5
156
330
1F
100
AcDbEntity
  8
0
  6
HIDDEN
 62
     7
370
     0
100
AcDbLine
 10
130.6763312341
 20
120.7469704508
 30
0.0
 11
130.6763312341
 21
123.3044949308
 31
0.0
  0
LINE
  5
157
330
1F
100
AcDbEntity
  8
0
  6
HIDDEN
 62
     7
370
     0
100
AcDbLine
 10
133.1763316438
 20
98.74697057
 30
0.0
 11
133.1763316438
 21
96.1433940514
 31
0.0
  0
LINE
  5
158
330
1F
100
AcDbEntity
  8
0
  6
HIDDEN
 62
     7
370
     0
100
AcDbLine
 10
128.0263310791
 20
120.7469704508
 30
0.0
 11
128.0263310791
 21
122.6269707962
 31
0.0
  0
LINE
  5
159
330
1F
100
AcDbEntity
  8
0
  6
HIDDEN
 62
     7
370
     0
100
AcDbLine
 10
127.0763317616
 20
120.7469704508
 30
0.0
 11
127.0763317616
 21
121.6769705474
 31
0.0
  0
LINE
  5
15A
330
1F
100
AcDbEntity
  8
0
  6
HIDDEN
 62
     7
370
     0
100
AcDbLine
 10
128.0263310791
 20
98.74697057
 30
0.0
 11
128.0263310791
 21
96.9259704411
 31
0.0
  0
LINE
  5
15B
330
1F
100
AcDbEntity
  8
0
  6
HIDDEN
 62
     7
370
     0
100
AcDbLine
 10
127.0763317616
 20
98.74697057
 30
0.0
 11
127.0763317616
 21
97.8759706899
 31
0.0
  0
LINE
  5
15C
330
1F
100
AcDbEntity
  8
0
  6
HIDDEN
 62
     7
370
     0
100
AcDbLine
 10
160.276331243
 20
115.9969706036
 30
0.0
 11
160.276331243
 21
103.4969704173
 31
0.0
  0
LWPOLYLINE
  5
15D
330
1F
100
AcDbEntity
  8
0
  6
HIDDEN
 62
     7
370
     0
100
AcDbPolyline
 90
        2
 70
   128
 43
0.0
 10
160.276331243
 20
103.4969704173
 10
160.276331243
 20
103.4969704173
  0
LINE
  5
15E
330
1F
100
AcDbEntity
  8
0
  6
HIDDEN
 62
     7
370
     0
100
AcDbLine
 10
162.7763307215
 20
115.9969706036
 30
0.0
 11
162.7763307215
 21
103.4969704173
 31
0.0
  0
LWPOLYLINE
  5
15F
330
1F
100
AcDbEntity
  8
0
  6
HIDDEN
 62
     7
370
     0
100
AcDbPolyline
 90
        2
 70
   128
 43
0.0
 10
162.7763307215
 20
103.4969704173
 10
162.7763307215
 20
103.4969704173
  0
LINE
  5
160
330
1F
100
AcDbEntity
  8
0
  6
HIDDEN
 62
     7
370
     0
100
AcDbLine
 10
155.4263311
 20
115.2469704806
 30
0.0
 11
155.4263311
 21
104.2469705402
 31
0.0
  0
LINE
  5
161
330
1F
100
AcDbEntity
  8
0
  6
HIDDEN
 62
     7
370
     0
100
AcDbLine
 10
154.9263319493
 20
103.7469704583
 30
0.0
 11
154.9263319493
 21
115.7469705626
 31
0.0
  0
LWPOLYLINE
  5
162
330
1F
100
AcDbEntity
  8
0
  6
HIDDEN
 62
     7
370
     0
100
AcDbPolyline
 90
        2
 70
   128
 43
0.0
 10
166.9263320536
 20
92.8469712793
 10
166.9263320536
 20
92.8469712793
  0
LINE
  5
163
330
1F
100
AcDbEntity
  8
0
  6
HIDDEN
 62
     7
370
     0
100
AcDbLine
 10
166.9263320536
 20
92.8469712793
 30
0.0
 11
163.9811082304
 21
92.8469712793
 31
0.0
  0
LINE
  5
164
330
1F
100
AcDbEntity
  8
0
  6
HIDDEN
 62
     7
370
     0
100
AcDbLine
 10
164.0163308502
 20
92.3178478092
 30
0.0
 11
164.0163308502
 21
92.6340914279
 31
0.0
  0
LINE
  5
165
330
1F
100
AcDbEntity
  8
0
  6
HIDDEN
 62
     7
370
     0
100
AcDbLine
 10
166.9263320536
 20
92.8469712793
 30
0.0
 11
166.9263320536
 21
91.1429378151
 31
0.0
  0
LINE
  5
166
330
1F
100
AcDbEntity
  8
0
  6
HIDDEN
 62
     7
370
     0
100
AcDbLine
 10
154.9263319493
 20
89.7719862818
 30
0.0
 11
154.9263319493
 21
92.8469712793
 31
0.0
  0
LINE
  5
167
330
1F
100
AcDbEntity
  8
0
  6
HIDDEN
 62
     7
370
     0
100
AcDbLine
 10
159.4263317556
 20
92.8469712793
 30
0.0
 11
154.9263319493
 21
92.8469712793
 31
0.0
  0
LINE
  5
168
330
1F
100
AcDbEntity
  8
0
  6
HIDDEN
 62
     7
370
     0
100
AcDbLine
 10
161.9715534643
 20
92.8469712793
 30
0.0
 11
159.4263317556
 21
92.8469712793
 31
0.0
  0
LINE
  5
169
330
1F
100
AcDbEntity
  8
0
  6
HIDDEN
 62
     7
370
     0
100
AcDbLine
 10
161.9363317759
 20
92.6340914279
 30
0.0
 11
161.9363317759
 21
92.3178478092
 31
0.0
  0
LINE
  5
16A
330
1F
100
AcDbEntity
  8
0
  6
HIDDEN
 62
     7
370
     0
100
AcDbLine
 10
160.276331243
 20
104.2469705402
 30
0.0
 11
160.276331243
 21
115.2469704806
 31
0.0
  0
ELLIPSE
  5
16B
330
1F
100
AcDbEntity
  8
0
  6
HIDDEN
 62
     7
370
     0
100
AcDbEllipse
 10
124.9705647447
 20
109.7469705104
 30
0.0
 11
12.26424774976726
 21
0.0
 31
0.0
210
0.0
220
0.0
230
1.0
 40
0.8164965809
 41
1.318982952866325
 42
1.398241670070618
  0
LINE
  5
16C
330
1F
100
AcDbEntity
  8
0
  6
HIDDEN
 62
     7
370
     0
100
AcDbLine
 10
127.0763317616
 20
120.7469704508
 30
0.0
 11
127.0763317616
 21
119.6119769424
 31
0.0
  0
ELLIPSE
  5
16D
330
1F
100
AcDbEntity
  8
0
  6
HIDDEN
 62
     7
370
     0
100
AcDbEllipse
 10
124.9705647447
 20
109.7469705104
 30
0.0
 11
12.26424774976726
 21
0.0
 31
0.0
210
0.0
220
0.0
230
1.0
 40
0.8164965809
 41
4.88494363710898
 42
4.964202354313272
  0
LINE
  5
16E
330
1F
100
AcDbEntity
  8
0
  6
HIDDEN
 62
     7
370
     0
100
AcDbLine
 10
127.0763317616
 20
98.74697057
 30
0.0
 11
127.0763317616
 21
99.8819640785
 31
0.0
  0
LWPOLYLINE
  5
16F
330
1F
100
AcDbEntity
  8
0
  6
HIDDEN
 62
     7
370
     0
100
AcDbPolyline
 90
        2
 70
   128
 43
0.0
 10
166.9263320536
 20
126.6469697415
 10
166.9263320536
 20
126.6469697415
  0
LINE
  5
170
330
1F
100
AcDbEntity
  8
0
  6
HIDDEN
 62
     7
370
     0
100
AcDbLine
 10
162.1846754596
 20
126.6469697415
 30
0.0
 11
159.4263317556
 21
126.6469697415
 31
0.0
  0
LINE
  5
171
330
1F
100
AcDbEntity
  8
0
  6
HIDDEN
 62
     7
370
     0
100
AcDbLine
 10
161.9363317759
 20
127.1495747327
 30
0.0
 11
161.9363317759
 21
127.4606476485
 31
0.0
  0
LINE
  5
172
330
1F
100
AcDbEntity
  8
0
  6
HIDDEN
 62
     7
370
     0
100
AcDbLine
 10
166.9263320536
 20
126.6469697415
 30
0.0
 11
163.7679862351
 21
126.6469697415
 31
0.0
  0
LINE
  5
173
330
1F
100
AcDbEntity
  8
0
  6
HIDDEN
 62
     7
370
     0
100
AcDbLine
 10
164.0163308502
 20
127.4606476485
 30
0.0
 11
164.0163308502
 21
127.1495747327
 31
0.0
  0
LINE
  5
174
330
1F
100
AcDbEntity
  8
0
  6
HIDDEN
 62
     7
370
     0
100
AcDbLine
 10
166.9263320536
 20
126.6469697415
 30
0.0
 11
166.9263320536
 21
128.6178476125
 31
0.0
  0
LINE
  5
175
330
1F
100
AcDbEntity
  8
0
  6
HIDDEN
 62
     7
370
     0
100
AcDbLine
 10
159.4263317556
 20
126.6469697415
 30
0.0
 11
154.9263319493
 21
126.6469697415
 31
0.0
  0
LINE
  5
176
330
1F
100
AcDbEntity
  8
0
  6
HIDDEN
 62
     7
370
     0
100
AcDbLine
 10
128.0263310791
 20
120.7469704508
 30
0.0
 11
128.0263310791
 21
119.4448762521
 31
0.0
  0
LINE
  5
177
330
1F
100
AcDbEntity
  8
0
  6
HIDDEN
 62
     7
370
     0
100
AcDbLine
 10
128.0263310791
 20
98.74697057
 30
0.0
 11
128.0263310791
 21
100.0490647688
 31
0.0
  0
LINE
  5
178
330
1F
100
AcDbEntity
  8
0
  6
HIDDEN
 62
     7
370
     0
100
AcDbLine
 10
133.1763316438
 20
98.74697057
 30
0.0
 11
133.1763316438
 21
99.7227805614
 31
0.0
  0
LINE
  5
179
330
1F
100
AcDbEntity
  8
0
  6
HIDDEN
 62
     7
370
     0
100
AcDbLine
 10
130.6763312341
 20
120.7469704508
 30
0.0
 11
130.6763312341
 21
119.7711604595
 31
0.0
  0
SPLINE
  5
17A
330
1F
100
AcDbEntity
  8
0
  6
HIDDEN
 62
     7
370
     0
100
AcDbSpline
210
0.0
220
0.0
230
1.0
 70
     8
 71
     3
 72
    35
 73
    31
 74
     0
 42
0.00000001
 43
0.00000001
 40
-0.0968719547595068
 40
-0.066658383339061
 40
-0.0343746550663483
 40
0.0
 40
0.0402441098613983
 40
0.0744787394166189
 40
0.102701076924022
 40
0.1249180007539639
 40
0.1620538085083517
 40
0.2036866663215517
 40
0.2499064830388484
 40
0.2843401434909127
 40
0.3106265384536742
 40
0.3287516969918938
 40
0.3698185885315976
 40
0.4071583744141848
 40
0.4519491139940274
 40
0.5000414814625438
 40
0.5203027018277739
 40
0.5628788417857716
 40
0.5977565761194594
 40
0.6256573786661747
 40
0.6860513512462506
 40
0.7499481278641555
 40
0.771033801291037
 40
0.812432445648125
 40
0.8472054201793586
 40
0.8749589023494179
 40
0.9031280452404932
 40
0.933341616660939
 40
0.9656253449336517
 40
1.0
 40
1.040244109861398
 40
1.074478739416619
 40
1.102701076924022
 10
138.8201247782219
 20
95.50612114474515
 30
0.0
 10
139.0587674252633
 20
95.54269166254667
 30
0.0
 10
139.4051538951662
 20
95.58310592297092
 30
0.0
 10
139.8098766029595
 20
95.61247998904975
 30
0.0
 10
140.1834947278532
 20
95.62968606756039
 30
0.0
 10
140.5921621207676
 20
95.63487643099079
 30
0.0
 10
141.0822583727288
 20
95.60994892336275
 30
0.0
 10
141.6806487249687
 20
95.54913120517311
 30
0.0
 10
142.2157749145873
 20
95.46161866717135
 30
0.0
 10
142.6100312235972
 20
95.37786179572015
 30
0.0
 10
142.8499602487695
 20
95.31997923583315
 30
0.0
 10
143.0637419974216
 20
95.26196637414394
 30
0.0
 10
143.2315098136764
 20
95.21543217967468
 30
0.0
 10
143.3019734347052
 20
95.19337124271354
 30
0.0
 10
143.2124482423645
 20
95.22214797871486
 30
0.0
 10
142.9796117481053
 20
95.28371016799287
 30
0.0
 10
142.6601775956437
 20
95.36765083772907
 30
0.0
 10
142.3080860510476
 20
95.4426434873298
 30
0.0
 10
141.8603854927738
 20
95.52041818109662
 30
0.0
 10
141.2935119575985
 20
95.59730257171827
 30
0.0
 10
140.5406617456546
 20
95.64259178046238
 30
0.0
 10
139.869490298413
 20
95.62511828314457
 30
0.0
 10
139.3846972085513
 20
95.58034915911506
 30
0.0
 10
139.070340503182
 20
95.5447999908342
 30
0.0
 10
138.8355065514027
 20
95.50911402360566
 30
0.0
 10
138.7105626570871
 20
95.48633159184486
 30
0.0
 10
138.6637406271073
 20
95.47935142987556
 30
0.0
 10
138.6952687701949
 20
95.48630868285116
 30
0.0
 10
138.8201247782219
 20
95.50612114474515
 30
0.0
 10
139.0587674252633
 20
95.54269166254667
 30
0.0
 10
139.4051538951662
 20
95.58310592297092
 30
0.0
  0
SPLINE
  5
17B
330
1F
100
AcDbEntity
  8
0
  6
HIDDEN
 62
     7
370
     0
100
AcDbSpline
210
0.0
220
0.0
230
1.0
 70
    11
 71
     3
 72
    49
 73
    45
 74
     0
 42
0.00000001
 43
0.00000001
 40
0.0
 40
0.0
 40
0.0
 40
0.0
 40
0.0295655743205062
 40
0.0611884310951975
 40
0.0638971313876595
 40
0.096125004185753
 40
0.1224291287356192
 40
0.1262698815340503
 40
0.1543574015980196
 40
0.1720356254122492
 40
0.1928683884660994
 40
0.2168570804351656
 40
0.261790721324454
 40
0.2693819039867894
 40
0.2752236334977148
 40
0.2793157733543934
 40
0.311891532813452
 40
0.3435352009638006
 40
0.3743003971670106
 40
0.4042454073947674
 40
0.4220298136141609
 40
0.4428969289265647
 40
0.4668502855236026
 40
0.4933997058380397
 40
0.5129562516626883
 40
0.5204078264014681
 40
0.5259362692011731
 40
0.5295414576933429
 40
0.5623012597418403
 40
0.5935783317806231
 40
0.6226339406454244
 40
0.6510525423513831
 40
0.6819451659146525
 40
0.7158618918305671
 40
0.7482121129520112
 40
0.7795196326967472
 40
0.8108423621096172
 40
0.8401681963003417
 40
0.8696449684123357
 40
0.9019550445109459
 40
0.932939871130012
 40
0.9574695431583042
 40
0.9896820321091203
 40
1.0
 40
1.0
 40
1.0
 40
1.0
 10
139.3398495883594
 20
123.9210695907037
 30
0.0
 10
139.2391587861769
 20
123.9319062585414
 30
0.0
 10
139.0307707418768
 20
123.9543336498074
 30
0.0
 10
138.9156973614
 20
123.9739283747485
 30
0.0
 10
138.7652646623978
 20
123.9957135098872
 30
0.0
 10
138.6971868367205
 20
124.0075844255554
 30
0.0
 10
138.6903093724354
 20
124.0095838120215
 30
0.0
 10
138.6664202229919
 20
124.0142986338774
 30
0.0
 10
138.7078491701332
 20
124.0080153092755
 30
0.0
 10
138.7855935623282
 20
123.9936228101786
 30
0.0
 10
138.8979308674919
 20
123.9752427953798
 30
0.0
 10
139.1121020094635
 20
123.9439563203726
 30
0.0
 10
139.3635411737002
 20
123.9155638655559
 30
0.0
 10
139.5838919398935
 20
123.8954545306413
 30
0.0
 10
139.6522390460519
 20
123.8895579018826
 30
0.0
 10
139.8216826693451
 20
123.8762171687659
 30
0.0
 10
140.1163155482917
 20
123.8625488229156
 30
0.0
 10
140.5603087691204
 20
123.8613406618744
 30
0.0
 10
141.0074161944177
 20
123.8792152046231
 30
0.0
 10
141.3853970689909
 20
123.9114067491666
 30
0.0
 10
141.7038102831316
 20
123.9519453614865
 30
0.0
 10
141.9826948708055
 20
123.9941624874226
 30
0.0
 10
142.279394956244
 20
124.0473856463111
 30
0.0
 10
142.541066418004
 20
124.1011815998491
 30
0.0
 10
142.7157228077142
 20
124.1416430643028
 30
0.0
 10
142.8117292542153
 20
124.1659383133736
 30
0.0
 10
142.8580985830781
 20
124.1781936916548
 30
0.0
 10
142.9708448741657
 20
124.208090812209
 30
0.0
 10
143.1171514902341
 20
124.2459097288905
 30
0.0
 10
143.2681700398353
 20
124.2888760661432
 30
0.0
 10
143.2237297922075
 20
124.2762357634661
 30
0.0
 10
143.2692628668605
 20
124.2897907104772
 30
0.0
 10
143.1208615005668
 20
124.2455760643358
 30
0.0
 10
142.9111763876008
 20
124.190229338331
 30
0.0
 10
142.6115199725607
 20
124.1184971373388
 30
0.0
 10
142.2584613699039
 20
124.0500593533107
 30
0.0
 10
141.8684110185888
 20
123.9824465542476
 30
0.0
 10
141.4557427959216
 20
123.912161415226
 30
0.0
 10
141.0173903661855
 20
123.8742742950641
 30
0.0
 10
140.5680568020256
 20
123.8591491293516
 30
0.0
 10
140.1561638958307
 20
123.8617144409826
 30
0.0
 10
139.7781251977425
 20
123.8819820981881
 30
0.0
 10
139.5016371611534
 20
123.901931942344
 30
0.0
 10
139.3714365086825
 20
123.9173332136541
 30
0.0
 10
139.3398495883594
 20
123.9210695907037
 30
0.0
  0
SPLINE
  5
17C
330
1F
100
AcDbEntity
  8
0
  6
HIDDEN
 62
     7
370
     0
100
AcDbSpline
210
0.0
220
0.0
230
1.0
 70
     8
 71
     3
 72
    64
 73
    60
 74
     0
 42
0.00000001
 43
0.00000001
 40
-0.0624999999999999
 40
-0.0624999999999999
 40
0.0
 40
0.0
 40
0.03125
 40
0.03125
 40
0.0625
 40
0.0625
 40
0.09375
 40
0.09375
 40
0.125
 40
0.125
 40
0.15625
 40
0.15625
 40
0.1875
 40
0.1875
 40
0.2187499999999999
 40
0.2187499999999999
 40
0.2499999999999999
 40
0.2499999999999999
 40
0.2812499999999999
 40
0.2812499999999999
 40
0.3124999999999999
 40
0.3124999999999999
 40
0.34375
 40
0.34375
 40
0.375
 40
0.375
 40
0.4062499999999999
 40
0.4062499999999999
 40
0.4374999999999999
 40
0.4374999999999999
 40
0.4687499999999999
 40
0.4687499999999999
 40
0.4999999999999999
 40
0.4999999999999999
 40
0.5624999999999999
 40
0.5624999999999999
 40
0.5937499999999999
 40
0.5937499999999999
 40
0.6249999999999999
 40
0.6249999999999999
 40
0.65625
 40
0.65625
 40
0.6875
 40
0.6875
 40
0.71875
 40
0.71875
 40
0.75
 40
0.75
 40
0.78125
 40
0.78125
 40
0.8125
 40
0.8125
 40
0.875
 40
0.875
 40
0.9062500000000001
 40
0.9062500000000001
 40
0.9375000000000001
 40
0.9375000000000001
 40
1.0
 40
1.0
 40
1.03125
 40
1.03125
 10
217.0763314844021
 20
110.1067544354582
 30
0.0
 10
217.0763314844022
 20
110.5376499670641
 30
0.0
 10
217.060725885861
 20
110.6742343641194
 30
0.0
 10
217.000796465282
 20
110.9346148405048
 30
0.0
 10
216.9559280183783
 20
111.0582502092453
 30
0.0
 10
216.8441070458542
 20
111.2812845043767
 30
0.0
 10
216.7759273658257
 20
111.3835614250145
 30
0.0
 10
216.6225511665626
 20
111.5649615452318
 30
0.0
 10
216.5377236551726
 20
111.6442626309886
 30
0.0
 10
216.3523551780228
 20
111.7842220116082
 30
0.0
 10
216.2509520888294
 20
111.8451380258201
 30
0.0
 10
216.0365825460278
 20
111.947428556399
 30
0.0
 10
215.9233133506174
 20
111.9892938983746
 30
0.0
 10
215.6799189871499
 20
112.0570282622504
 30
0.0
 10
215.5485230116424
 20
112.0829263190546
 30
0.0
 10
215.2726855751168
 20
112.1174744113384
 30
0.0
 10
215.1246685431412
 20
112.1264090290563
 30
0.0
 10
214.8322807273147
 20
112.126577693875
 30
0.0
 10
214.6839021084751
 20
112.1177789533913
 30
0.0
 10
214.4084285348731
 20
112.0836449785455
 30
0.0
 10
214.2769307718767
 20
112.0579624972548
 30
0.0
 10
214.0330657891786
 20
111.9905516142748
 30
0.0
 10
213.9195100093523
 20
111.9488227150536
 30
0.0
 10
213.7044860107013
 20
111.8466976685249
 30
0.0
 10
213.6031479381905
 20
111.7860504921326
 30
0.0
 10
213.4177093311384
 20
111.6466605874838
 30
0.0
 10
213.3326939961775
 20
111.5675867394418
 30
0.0
 10
213.1787158770777
 20
111.3863197865564
 30
0.0
 10
213.1105716715395
 20
111.284560119337
 30
0.0
 10
212.9984325408548
 20
111.0623567678837
 30
0.0
 10
212.9532493775604
 20
110.9389514451049
 30
0.0
 10
212.892689946708
 20
110.6791188224511
 30
0.0
 10
212.8768098940954
 20
110.5430948399121
 30
0.0
 10
212.875406234535
 20
110.1151225369142
 30
0.0
 10
212.9392736543876
 20
109.81822582792
 30
0.0
 10
213.1065118387737
 20
109.4116398159763
 30
0.0
 10
213.1746066302972
 20
109.2804939183497
 30
0.0
 10
213.3275422440719
 20
109.0365098961583
 30
0.0
 10
213.4122332171219
 20
108.9232371516688
 30
0.0
 10
213.5975369495728
 20
108.7121905523339
 30
0.0
 10
213.6988809752855
 20
108.6139862323744
 30
0.0
 10
213.9129746617951
 20
108.4389727767423
 30
0.0
 10
214.0262057586617
 20
108.3612789816655
 30
0.0
 10
214.2698477025524
 20
108.2274003504145
 30
0.0
 10
214.4009412491777
 20
108.1712481291027
 30
0.0
 10
214.6767285091285
 20
108.0925953683812
 30
0.0
 10
214.8243936621467
 20
108.0701629212358
 30
0.0
 10
215.1167770650138
 20
108.0690695841655
 30
0.0
 10
215.2652727101585
 20
108.0904937644642
 30
0.0
 10
215.5424382577522
 20
108.1677267226182
 30
0.0
 10
215.6739230782544
 20
108.2233048360163
 30
0.0
 10
216.0396194614467
 20
108.4219619378422
 30
0.0
 10
216.2557846987955
 20
108.6005301759445
 30
0.0
 10
216.5348586468162
 20
108.9161862544172
 30
0.0
 10
216.6214859407297
 20
109.0313617283334
 30
0.0
 10
216.7750903580209
 20
109.2751390537273
 30
0.0
 10
216.8422464403922
 20
109.4034984605298
 30
0.0
 10
217.0114684964508
 20
109.8109664876008
 30
0.0
 10
217.0763314844021
 20
110.1067544354582
 30
0.0
 10
217.0763314844022
 20
110.5376499670641
 30
0.0
  0
LINE
  5
17D
330
1F
100
AcDbEntity
  8
0
  6
HIDDEN
 62
     7
370
     0
100
AcDbLine
 10
217.0763334752
 20
110.3940181032
 30
0.0
 11
217.0763334752
 21
107.2469705663
 31
0.0
  0
LINE
  5
17E
330
1F
100
AcDbEntity
  8
0
  6
HIDDEN
 62
     7
370
     0
100
AcDbLine
 10
217.0763334752
 20
109.0999229176
 30
0.0
 11
217.0763334752
 21
112.2469704546
 31
0.0
  0
LINE
  5
17F
330
1F
100
AcDbEntity
  8
0
  6
HIDDEN
 62
     7
370
     0
100
AcDbLine
 10
162.7763307215
 20
107.2469705663
 30
0.0
 11
162.7763307215
 21
112.2469704546
 31
0.0
  0
LINE
  5
180
330
1F
100
AcDbEntity
  8
0
  6
HIDDEN
 62
     7
370
     0
100
AcDbLine
 10
255.6557825328
 20
105.5307283945
 30
0.0
 11
255.6560880066
 21
105.5272592179
 31
0.0
  0
LINE
  5
181
330
1F
100
AcDbEntity
  8
0
  6
HIDDEN
 62
     7
370
     0
100
AcDbLine
 10
255.6560880066
 20
105.5272592179
 30
0.0
 11
246.1476794005
 21
106.3571104727
 31
0.0
  0
LINE
  5
182
330
1F
100
AcDbEntity
  8
0
  6
HIDDEN
 62
     7
370
     0
100
AcDbLine
 10
243.3134114862
 20
103.5896980151
 30
0.0
 11
243.3539351941
 21
103.5701695777
 31
0.0
  0
LINE
  5
183
330
1F
100
AcDbEntity
  8
0
  6
HIDDEN
 62
     7
370
     0
100
AcDbLine
 10
243.3539351941
 20
103.5701695777
 30
0.0
 11
244.1730296732
 21
94.2306949704
 31
0.0
  0
LINE
  5
184
330
1F
100
AcDbEntity
  8
0
  6
HIDDEN
 62
     7
370
     0
100
AcDbLine
 10
244.1730296732
 20
94.2306949704
 30
0.0
 11
244.1339141251
 21
94.2341082677
 31
0.0
  0
SPLINE
  5
185
330
1F
100
AcDbEntity
  8
0
  6
HIDDEN
 62
     7
370
     0
100
AcDbSpline
210
0.0
220
0.0
230
1.0
 70
     8
 71
     3
 72
    12
 73
     8
 74
     0
 42
0.00000001
 43
0.00000001
 40
0.0
 40
0.0
 40
0.0
 40
0.0
 40
0.4999999999999992
 40
0.4999999999999992
 40
0.7499999999999994
 40
0.7499999999999994
 40
1.0
 40
1.0
 40
1.0
 40
1.0
 10
235.6900754154154
 20
101.8439328413879
 30
0.0
 10
235.0577133547334
 20
103.0612615276194
 30
0.0
 10
234.50675524647
 20
104.3187058795041
 30
0.0
 10
233.9063849924335
 20
106.316277618522
 30
0.0
 10
233.7469055970211
 20
106.9958997777
 30
0.0
 10
233.5314654132169
 20
108.3697360360982
 30
0.0
 10
233.4763314844022
 20
109.0577689011994
 30
0.0
 10
233.4763314844022
 20
109.7469705104392
 30
0.0
  0
LINE
  5
186
330
1F
100
AcDbEntity
  8
0
  6
HIDDEN
 62
     7
370
     0
100
AcDbLine
 10
233.4763279677
 20
122.7469707787
 30
0.0
 11
233.4763279677
 21
109.7469705104
 31
0.0
  0
SPLINE
  5
187
330
1F
100
AcDbEntity
  8
0
  6
HIDDEN
 62
     7
370
     0
100
AcDbSpline
210
0.0
220
0.0
230
1.0
 70
     8
 71
     3
 72
    20
 73
    16
 74
     0
 42
0.00000001
 43
0.00000001
 40
0.0
 40
0.0
 40
0.0
 40
0.0
 40
0.2499999999999998
 40
0.2499999999999998
 40
0.3124999999999998
 40
0.3124999999999998
 40
0.3749999999999998
 40
0.3749999999999998
 40
0.4999999999999998
 40
0.4999999999999998
 40
0.6249999999999999
 40
0.6249999999999999
 40
0.75
 40
0.75
 40
1.0
 40
1.0
 40
1.0
 40
1.0
 10
235.2111401981259
 20
95.01284881074517
 30
0.0
 10
235.201318137261
 20
95.03491131393208
 30
0.0
 10
235.2050511500376
 20
95.20453073611155
 30
0.0
 10
235.2262080666375
 20
95.59695977774024
 30
0.0
 10
235.2312725516405
 20
95.68458456280382
 30
0.0
 10
235.2430913776662
 20
95.87849591926009
 30
0.0
 10
235.2498592496084
 20
95.98496173301045
 30
0.0
 10
235.2724133732303
 20
96.32818959718931
 30
0.0
 10
235.2905118626772
 20
96.58987699236283
 30
0.0
 10
235.3325322223737
 20
97.17731763113147
 30
0.0
 10
235.3564544708179
 20
97.50307313835818
 30
0.0
 10
235.4100373626997
 20
98.21969016127807
 30
0.0
 10
235.4398955325281
 20
98.6130980310333
 30
0.0
 10
235.5359784257155
 20
99.86693451680476
 30
0.0
 10
235.6088962215919
 20
100.803893635808
 30
0.0
 10
235.6900754154161
 20
101.8439328413874
 30
0.0
  0
ELLIPSE
  5
188
330
1F
100
AcDbEntity
  8
0
  6
HIDDEN
 62
     7
370
     0
100
AcDbEllipse
 10
251.8134518867
 20
109.7469705104
 30
0.0
 11
13.17784690311714
 21
-12.98255003967766
 31
0.0
210
0.0
220
0.0
230
1.0
 40
0.0510967938
 41
3.089773640772345
 42
4.660569967567246
  0
LWPOLYLINE
  5
189
330
1F
100
AcDbEntity
  8
0
  6
HIDDEN
 62
     7
370
     0
100
AcDbPolyline
 90
        2
 70
   128
 43
0.0
 10
154.9263319493
 20
92.8469712793
 10
154.9263319493
 20
92.8469712793
  0
ELLIPSE
  5
18A
330
1F
100
AcDbEntity
  8
0
  6
HIDDEN
 62
     7
370
     0
100
AcDbEllipse
 10
244.2470768588
 20
106.0657344293
 30
0.0
 11
1.616902374425223
 21
2.3181968380283
 31
0.0
210
0.0
220
0.0
230
1.0
 40
0.57803977
 41
3.581061319781757
 42
3.71680127971535
  0
ELLIPSE
  5
18B
330
1F
100
AcDbEntity
  8
0
  6
HIDDEN
 62
     7
370
     0
100
AcDbEllipse
 10
244.2470768588
 20
106.0657344293
 30
0.0
 11
2.099281448397704
 21
-0.1276543563556203
 31
0.0
210
0.0
220
0.0
230
1.0
 40
0.4303093993
 41
0.3297202086628787
 42
0.4654601685964722
  0
LINE
  5
18C
330
1F
100
AcDbEntity
  8
0
  6
HIDDEN
 62
     7
370
     0
100
AcDbLine
 10
246.2510636569
 20
106.2374385487
 30
0.0
 11
246.2510636569
 21
106.4034589048
 31
0.0
  0
ARC
  5
18D
330
1F
100
AcDbEntity
  8
0
  6
HIDDEN
 62
     7
370
     0
100
AcDbCircle
 10
244.2487492818
 20
105.7789397351
 30
0.0
 40
2.097447746672796
100
AcDbArc
 50
252.537593683
 51
17.3226303233
  0
LINE
  5
18E
330
1F
100
AcDbEntity
  8
0
  6
HIDDEN
 62
     7
370
     0
100
AcDbLine
 10
243.6193472267
 20
103.7781548634
 30
0.0
 11
243.6193472267
 21
103.6121345073
 31
0.0
  0
ARC
  5
18F
330
1F
100
AcDbEntity
  8
0
  6
HIDDEN
 62
     7
370
     0
100
AcDbCircle
 10
244.2440121994
 20
105.8031759532
 30
0.0
 40
2.097087202522325
100
AcDbArc
 50
270.0836408428
 51
184.6392494304
  0
LWPOLYLINE
  5
190
330
1F
100
AcDbEntity
  8
0
  6
HIDDEN
 62
     7
370
     0
100
AcDbPolyline
 90
        3
 70
   128
 43
0.0
 10
243.2826852919
 20
103.9400583081
 10
243.7035536886
 20
103.7774722039
 10
244.2470735432
 20
103.7060909852
  0
LINE
  5
191
330
1F
100
AcDbEntity
  8
0
  6
HIDDEN
 62
     7
370
     0
100
AcDbLine
 10
255.4203441859
 20
105.4371840268
 30
0.0
 11
255.6560880066
 21
105.5272592179
 31
0.0
  0
LINE
  5
192
330
1F
100
AcDbEntity
  8
0
  6
HIDDEN
 62
     7
370
     0
100
AcDbLine
 10
255.4203441859
 20
105.4371840268
 30
0.0
 11
246.2510636569
 21
106.2374385487
 31
0.0
  0
LINE
  5
193
330
1F
100
AcDbEntity
  8
0
  6
HIDDEN
 62
     7
370
     0
100
AcDbLine
 10
253.9983710767
 20
106.2508456356
 30
0.0
 11
255.610140276
 21
106.0511859081
 31
0.0
  0
LINE
  5
194
330
1F
100
AcDbEntity
  8
0
  6
HIDDEN
 62
     7
370
     0
100
AcDbLine
 10
243.6193472267
 20
103.6121345073
 30
0.0
 11
244.4291359306
 21
94.3787808477
 31
0.0
  0
ELLIPSE
  5
195
330
1F
100
AcDbEntity
  8
0
  6
HIDDEN
 62
     7
370
     0
100
AcDbEllipse
 10
242.8640486216
 20
110.4035275094
 30
0.0
 11
-1.319091535961263
 21
16.17220446745399
 31
0.0
210
0.0
220
0.0
230
1.0
 40
0.1269385516
 41
3.136674700348935
 42
3.266776059962298
  0
LWPOLYLINE
  5
196
330
1F
100
AcDbEntity
  8
0
  6
HIDDEN
 62
     7
370
     0
100
AcDbPolyline
 90
       25
 70
   128
 43
0.0
 10
214.9763351799
 20
109.4008500635
 10
215.5198550344
 20
109.4699676154
 10
216.0263306023
 20
109.6726100636
 10
216.4612582446
 20
109.9949676258
 10
216.7949846507
 20
110.4150721634
 10
217.0047780991
 20
110.9042943403
 10
217.0763334752
 20
111.4292942633
 10
217.0047780991
 20
111.9542944192
 10
216.7949846507
 20
112.443516305
 10
216.4612582446
 20
112.8636210173
 10
216.0263306023
 20
113.1859785359
 10
215.5198550344
 20
113.3886210568
 10
214.9763351799
 20
113.4577384632
 10
214.4328078748
 20
113.3886210568
 10
213.9263323069
 20
113.1859785359
 10
213.4914046646
 20
112.8636210173
 10
213.1576782585
 20
112.443516305
 10
212.9478848101
 20
111.9542944192
 10
212.876329434
 20
111.4292942633
 10
212.9478848101
 20
110.9042943403
 10
213.1576782585
 20
110.4150721634
 10
213.4914046646
 20
109.9949676258
 10
213.9263323069
 20
109.6726100636
 10
214.4328078748
 20
109.4699676154
 10
214.9763351799
 20
109.4008500635
  0
LINE
  5
197
330
1F
100
AcDbEntity
  8
0
  6
HIDDEN
 62
     7
370
     0
100
AcDbLine
 10
154.9263319493
 20
89.7719862818
 30
0.0
 11
154.9263319493
 21
92.8469712793
 31
0.0
  0
LINE
  5
198
330
1F
100
AcDbEntity
  8
0
  6
HIDDEN
 62
     7
370
     0
100
AcDbLine
 10
154.9263319493
 20
92.8469712793
 30
0.0
 11
159.4263317556
 21
92.8469712793
 31
0.0
  0
LINE
  5
199
330
1F
100
AcDbEntity
  8
0
  6
HIDDEN
 62
     7
370
     0
100
AcDbLine
 10
255.1247424007
 20
105.6290038809
 30
0.0
 11
255.4203441859
 21
105.4371840268
 31
0.0
  0
LINE
  5
19A
330
1F
100
AcDbEntity
  8
0
  6
HIDDEN
 62
     7
370
     0
100
AcDbLine
 10
243.6193472267
 20
103.7781548634
 30
0.0
 11
244.3967557073
 21
94.9140119314
 31
0.0
  0
ELLIPSE
  5
19B
330
1F
100
AcDbEntity
  8
0
  6
HIDDEN
 62
     7
370
     0
100
AcDbEllipse
 10
243.0173486005
 20
110.3901481701
 30
0.0
 11
-1.412683827498427
 21
16.18410441030874
 31
0.0
210
0.0
220
0.0
230
1.0
 40
0.0059881853
 41
3.287305445903741
 42
3.437945314484697
  0
LINE
  5
19C
330
1F
100
AcDbEntity
  8
0
  6
HIDDEN
 62
     7
370
     0
100
AcDbLine
 10
130.6763312341
 20
120.7469704508
 30
0.0
 11
130.6763312341
 21
119.7711604595
 31
0.0
  0
LINE
  5
19D
330
1F
100
AcDbEntity
  8
0
  6
HIDDEN
 62
     7
370
     0
100
AcDbLine
 10
133.1763316438
 20
98.74697057
 30
0.0
 11
133.1763316438
 21
99.7227805614
 31
0.0
  0
LINE
  5
19E
330
1F
100
AcDbEntity
  8
0
  6
HIDDEN
 62
     7
370
     0
100
AcDbLine
 10
130.6763312341
 20
120.7469704508
 30
0.0
 11
130.6763312341
 21
123.3044949308
 31
0.0
  0
LINE
  5
19F
330
1F
100
AcDbEntity
  8
0
  6
HIDDEN
 62
     7
370
     0
100
AcDbLine
 10
133.1763316438
 20
98.74697057
 30
0.0
 11
133.1763316438
 21
96.1433940514
 31
0.0
  0
CIRCLE
  5
1A0
330
1F
100
AcDbEntity
  8
0
  6
HIDDEN
 62
     7
370
     0
100
AcDbCircle
 10
250.029874129
 20
100.0122826007
 30
0.0
 40
2.997507954550125
  0
LINE
  5
1A1
330
1F
100
AcDbEntity
  8
0
  6
HIDDEN
 62
     7
370
     0
100
AcDbLine
 10
255.2986762048
 20
93.9603543788
 30
0.0
 11
256.0783720137
 21
94.7558472812
 31
0.0
  0
LINE
  5
1A2
330
1F
100
AcDbEntity
  8
0
  6
HIDDEN
 62
     7
370
     0
100
AcDbLine
 10
255.1247424007
 20
105.6290038809
 30
0.0
 11
246.2510636569
 21
106.4034589048
 31
0.0
  0
LINE
  5
1A3
330
1F
100
AcDbEntity
  8
0
  6
HIDDEN
 62
     7
370
     0
100
AcDbLine
 10
255.2984675885
 20
93.962557888
 30
0.0
 11
244.3967557073
 21
94.9140119314
 31
0.0
  0
LINE
  5
1A4
330
1F
100
AcDbEntity
  8
0
  6
HIDDEN
 62
     7
370
     0
100
AcDbLine
 10
255.1247424007
 20
105.6290038809
 30
0.0
 11
256.0783347608
 21
94.7559599712
 31
0.0
  0
LINE
  5
1A5
330
1F
100
AcDbEntity
  8
0
  6
HIDDEN
 62
     7
370
     0
100
AcDbLine
 10
164.0163308502
 20
127.1495747327
 30
0.0
 11
164.0163308502
 21
92.6340914279
 31
0.0
  0
SPLINE
  5
1A6
330
1F
100
AcDbEntity
  8
0
  6
HIDDEN
 62
     7
370
     0
100
AcDbSpline
210
0.0
220
0.0
230
1.0
 70
     8
 71
     3
 72
    10
 73
     6
 74
     0
 42
0.00000001
 43
0.00000001
 40
0.0
 40
0.0
 40
0.0
 40
0.0
 40
0.5
 40
0.5
 40
1.0
 40
1.0
 40
1.0
 40
1.0
 10
163.7679870986522
 20
126.6469705104392
 30
0.0
 10
163.8454151032008
 20
126.7049298168262
 30
0.0
 10
163.9085947200873
 20
126.7819144719443
 30
0.0
 10
163.9938898993485
 20
126.9554846048167
 30
0.0
 10
164.0163314844022
 20
127.0523858672985
 30
0.0
 10
164.0163314844022
 20
127.1495744822591
 30
0.0
  0
SPLINE
  5
1A7
330
1F
100
AcDbEntity
  8
0
  6
HIDDEN
 62
     7
370
     0
100
AcDbSpline
210
0.0
220
0.0
230
1.0
 70
     8
 71
     3
 72
    10
 73
     6
 74
     0
 42
0.00000001
 43
0.00000001
 40
0.0
 40
0.0
 40
0.0
 40
0.0
 40
0.5
 40
0.5
 40
1.0
 40
1.0
 40
1.0
 40
1.0
 10
163.9811090838208
 20
92.84697051043916
 30
0.0
 10
163.9928212007839
 20
92.81262717324518
 30
0.0
 10
164.001619270656
 20
92.77753463550697
 30
0.0
 10
164.0134328284281
 20
92.70586286011623
 30
0.0
 10
164.0163314844022
 20
92.66991920575096
 30
0.0
 10
164.0163314844022
 20
92.63409158841087
 30
0.0
  0
SPLINE
  5
1A8
330
1F
100
AcDbEntity
  8
0
  6
HIDDEN
 62
     7
370
     0
100
AcDbSpline
210
0.0
220
0.0
230
1.0
 70
    24
 71
     3
 72
    12
 73
     8
 74
     0
 42
0.00000001
 43
0.00000001
 40
0.0
 40
0.0
 40
0.0
 40
0.0
 40
0.25
 40
0.25
 40
0.5
 40
0.5
 40
1.0
 40
1.0
 40
1.0
 40
1.0
 10
163.4163314844022
 20
126.6469705104392
 30
0.0
 10
163.4680484023116
 20
126.6469705104392
 30
0.0
 10
163.5151361904503
 20
126.6469705104392
 30
0.0
 10
163.5882001851255
 20
126.6469705104392
 30
0.0
 10
163.6178290924112
 20
126.6469705104392
 30
0.0
 10
163.6964024369363
 20
126.6469705104392
 30
0.0
 10
163.7343663051687
 20
126.6469705104392
 30
0.0
 10
163.7679870986523
 20
126.6469705104392
 30
0.0
  0
SPLINE
  5
1A9
330
1F
100
AcDbEntity
  8
0
  6
HIDDEN
 62
     7
370
     0
100
AcDbSpline
210
0.0
220
0.0
230
1.0
 70
    24
 71
     3
 72
    16
 73
    12
 74
     0
 42
0.00000001
 43
0.00000001
 40
0.0
 40
0.0
 40
0.0
 40
0.0
 40
0.0624999999999984
 40
0.0624999999999984
 40
0.1249999999999967
 40
0.1249999999999967
 40
0.2499999999999974
 40
0.2499999999999974
 40
0.4999999999999989
 40
0.4999999999999989
 40
1.0
 40
1.0
 40
1.0
 40
1.0
 10
163.4163314844022
 20
92.84697051043914
 30
0.0
 10
163.450660822045
 20
92.84697051043914
 30
0.0
 10
163.4846760635057
 20
92.84697051043914
 30
0.0
 10
163.5411606380619
 20
92.84697051043914
 30
0.0
 10
163.565463020904
 20
92.84697051043914
 30
0.0
 10
163.629728297723
 20
92.84697051043914
 30
0.0
 10
163.6630856672291
 20
92.84697051043914
 30
0.0
 10
163.7515094025466
 20
92.84697051043914
 30
0.0
 10
163.7940489461555
 20
92.84697051043914
 30
0.0
 10
163.9040330312257
 20
92.84697051043914
 30
0.0
 10
163.9512596982531
 20
92.84697051043914
 30
0.0
 10
163.9811090838208
 20
92.84697051043914
 30
0.0
  0
SPLINE
  5
1AA
330
1F
100
AcDbEntity
  8
0
  6
HIDDEN
 62
     7
370
     0
100
AcDbSpline
210
0.0
220
0.0
230
1.0
 70
     8
 71
     3
 72
    10
 73
     6
 74
     0
 42
0.00000001
 43
0.00000001
 40
0.0
 40
0.0
 40
0.0
 40
0.0
 40
0.5
 40
0.5
 40
1.0
 40
1.0
 40
1.0
 40
1.0
 10
161.9363314844022
 20
127.149574482259
 30
0.0
 10
161.9363314844022
 20
127.0526394170273
 30
0.0
 10
161.9587811202476
 20
126.9555801382881
 30
0.0
 10
162.0437767785157
 20
126.7823960508811
 30
0.0
 10
162.1066328624461
 20
126.7053901819956
 30
0.0
 10
162.1846758701521
 20
126.6469705104392
 30
0.0
  0
LINE
  5
1AB
330
1F
100
AcDbEntity
  8
0
  6
HIDDEN
 62
     7
370
     0
100
AcDbLine
 10
161.9363317759
 20
127.1495747327
 30
0.0
 11
161.9363317759
 21
92.6340914279
 31
0.0
  0
SPLINE
  5
1AC
330
1F
100
AcDbEntity
  8
0
  6
HIDDEN
 62
     7
370
     0
100
AcDbSpline
210
0.0
220
0.0
230
1.0
 70
     8
 71
     3
 72
    10
 73
     6
 74
     0
 42
0.00000001
 43
0.00000001
 40
0.0
 40
0.0
 40
0.0
 40
0.0
 40
0.5
 40
0.5
 40
1.0
 40
1.0
 40
1.0
 40
1.0
 10
161.9363314844022
 20
92.63409158841085
 30
0.0
 10
161.9363314844022
 20
92.6703140778516
 30
0.0
 10
161.9393012136996
 20
92.70650727511018
 30
0.0
 10
161.9511801960475
 20
92.77814576652506
 30
0.0
 10
161.9599754238882
 20
92.81301909116675
 30
0.0
 10
161.9715538849835
 20
92.84697051043916
 30
0.0
  0
SPLINE
  5
1AD
330
1F
100
AcDbEntity
  8
0
  6
HIDDEN
 62
     7
370
     0
100
AcDbSpline
210
0.0
220
0.0
230
1.0
 70
    24
 71
     3
 72
    12
 73
     8
 74
     0
 42
0.00000001
 43
0.00000001
 40
0.0
 40
0.0
 40
0.0
 40
0.0
 40
0.4999999999999978
 40
0.4999999999999978
 40
0.7499999999999989
 40
0.7499999999999989
 40
1.0
 40
1.0
 40
1.0
 40
1.0
 10
162.1846758701521
 20
126.6469705104392
 30
0.0
 10
162.2186271956279
 20
126.6469705104392
 30
0.0
 10
162.2573730538301
 20
126.6469705104392
 30
0.0
 10
162.3355684008378
 20
126.6469705104392
 30
0.0
 10
162.3650770925226
 20
126.6469705104392
 30
0.0
 10
162.4379522539283
 20
126.6469705104392
 30
0.0
 10
162.4847488880626
 20
126.6469705104392
 30
0.0
 10
162.5363314844022
 20
126.6469705104392
 30
0.0
  0
SPLINE
  5
1AE
330
1F
100
AcDbEntity
  8
0
  6
HIDDEN
 62
     7
370
     0
100
AcDbSpline
210
0.0
220
0.0
230
1.0
 70
    24
 71
     3
 72
    16
 73
    12
 74
     0
 42
0.00000001
 43
0.00000001
 40
0.0
 40
0.0
 40
0.0
 40
0.0
 40
0.499999999999998
 40
0.499999999999998
 40
0.749999999999997
 40
0.749999999999997
 40
0.8749999999999979
 40
0.8749999999999979
 40
0.937499999999999
 40
0.937499999999999
 40
1.0
 40
1.0
 40
1.0
 40
1.0
 10
161.9715538849835
 20
92.84697051043914
 30
0.0
 10
162.0013312906737
 20
92.84697051043914
 30
0.0
 10
162.0483045365375
 20
92.84697051043914
 30
0.0
 10
162.1586219958927
 20
92.84697051043914
 30
0.0
 10
162.2017664663541
 20
92.84697051043914
 30
0.0
 10
162.2904282660241
 20
92.84697051043914
 30
0.0
 10
162.3234794731536
 20
92.84697051043914
 30
0.0
 10
162.3878250576393
 20
92.84697051043914
 30
0.0
 10
162.4119701710729
 20
92.84697051043914
 30
0.0
 10
162.4685890916983
 20
92.84697051043914
 30
0.0
 10
162.5021916385766
 20
92.84697051043914
 30
0.0
 10
162.5363314844023
 20
92.84697051043914
 30
0.0
  0
LINE
  5
1AF
330
1F
100
AcDbEntity
  8
0
  6
HIDDEN
 62
     7
370
     0
100
AcDbLine
 10
128.0263310791
 20
120.7469704508
 30
0.0
 11
128.0263310791
 21
122.6197111368
 31
0.0
  0
LINE
  5
1B0
330
1F
100
AcDbEntity
  8
0
  6
HIDDEN
 62
     7
370
     0
100
AcDbLine
 10
128.0263310791
 20
120.7469704508
 30
0.0
 11
128.0263310791
 21
119.4448762521
 31
0.0
  0
ELLIPSE
  5
1B1
330
1F
100
AcDbEntity
  8
0
  6
HIDDEN
 62
     7
370
     0
100
AcDbEllipse
 10
124.9705647447
 20
109.7469705104
 30
0.0
 11
12.26424774976728
 21
0.0
 31
0.0
210
0.0
220
0.0
230
1.0
 40
0.8164965809
 41
1.318982952866327
 42
1.398241670070619
  0
ELLIPSE
  5
1B2
330
1F
100
AcDbEntity
  8
0
  6
HIDDEN
 62
     7
370
     0
100
AcDbEllipse
 10
124.9705647447
 20
109.7469705104
 30
0.0
 11
12.26424774976728
 21
0.0
 31
0.0
210
0.0
220
0.0
230
1.0
 40
0.8164965809
 41
4.884943637108981
 42
4.964202354313271
  0
LINE
  5
1B3
330
1F
100
AcDbEntity
  8
0
  6
HIDDEN
 62
     7
370
     0
100
AcDbLine
 10
127.0763317616
 20
119.6119769424
 30
0.0
 11
127.0763317616
 21
99.8819640785
 31
0.0
  0
LINE
  5
1B4
330
1F
100
AcDbEntity
  8
0
  6
HIDDEN
 62
     7
370
     0
100
AcDbLine
 10
128.0263310791
 20
98.74697057
 30
0.0
 11
128.0263310791
 21
100.0490647688
 31
0.0
  0
LINE
  5
1B5
330
1F
100
AcDbEntity
  8
0
  6
HIDDEN
 62
     7
370
     0
100
AcDbLine
 10
127.0763317616
 20
98.74697057
 30
0.0
 11
127.0763317616
 21
99.8819640785
 31
0.0
  0
LINE
  5
1B6
330
1F
100
AcDbEntity
  8
0
  6
HIDDEN
 62
     7
370
     0
100
AcDbLine
 10
127.0763317616
 20
98.74697057
 30
0.0
 11
127.0763317616
 21
97.8811469808
 31
0.0
  0
LINE
  5
1B7
330
1F
100
AcDbEntity
  8
0
  6
HIDDEN
 62
     7
370
     0
100
AcDbLine
 10
128.0263310791
 20
98.74697057
 30
0.0
 11
128.0263310791
 21
96.9318843394
 31
0.0
  0
LINE
  5
1B8
330
1F
100
AcDbEntity
  8
0
  6
HIDDEN
 62
     7
370
     0
100
AcDbLine
 10
127.0763317616
 20
120.7469704508
 30
0.0
 11
127.0763317616
 21
119.6119769424
 31
0.0
  0
LINE
  5
1B9
330
1F
100
AcDbEntity
  8
0
  6
HIDDEN
 62
     7
370
     0
100
AcDbLine
 10
127.0763317616
 20
120.7469704508
 30
0.0
 11
127.0763317616
 21
121.6714431479
 31
0.0
  0
LINE
  5
1BA
330
1F
100
AcDbEntity
  8
0
  6
HIDDEN
 62
     7
370
     0
100
AcDbLine
 10
162.536331688
 20
126.6469697415
 30
0.0
 11
163.4163318694
 21
126.6469697415
 31
0.0
  0
LINE
  5
1BB
330
1F
100
AcDbEntity
  8
0
  6
HIDDEN
 62
     7
370
     0
100
AcDbLine
 10
162.536331688
 20
92.8469712793
 30
0.0
 11
163.4163318694
 21
92.8469712793
 31
0.0
  0
CIRCLE
  5
1BC
330
1F
100
AcDbEntity
  8
0
  6
HIDDEN
 62
     7
370
     0
100
AcDbCircle
 10
250.0284140322
 20
100.0734815108
 30
0.0
 40
2.097693111556041
  0
SPLINE
  5
1BD
330
1F
100
AcDbEntity
  8
0
  6
HIDDEN
 62
     7
370
     0
100
AcDbSpline
210
0.0
220
0.0
230
1.0
 70
     8
 71
     3
 72
    42
 73
    38
 74
     0
 42
0.00000001
 43
0.00000001
 40
0.0
 40
0.0
 40
0.0
 40
0.0
 40
0.0359555619997385
 40
0.0714763506956014
 40
0.1065623918729265
 40
0.1412137123201419
 40
0.1754303398792872
 40
0.2092123034997647
 40
0.2425596332956043
 40
0.2754723606064702
 40
0.3079505180627647
 40
0.3399941396551121
 40
0.3716032608086313
 40
0.4027779184623331
 40
0.4335181511541512
 40
0.4638239991120097
 40
0.493695504351517
 40
0.5231327107808456
 40
0.5521356643133941
 40
0.5807044129890468
 40
0.6088390071047007
 40
0.6365394993550106
 40
0.6638059449842856
 40
0.6906384019506218
 40
0.7170369311034743
 40
0.7430015963759912
 40
0.7685324649936368
 40
0.7936296077007428
 40
0.8182930990068911
 40
0.8425230174552372
 40
0.8663194459151574
 40
0.8896824719018827
 40
0.9126121879261949
 40
0.9351086918775977
 40
0.9571720874448755
 40
0.9788024845785068
 40
1.0
 40
1.0
 40
1.0
 40
1.0
 10
253.8311546364251
 20
100.1031791726866
 30
0.0
 10
253.8483157098667
 20
100.0003606737034
 30
0.0
 10
253.8824303456951
 20
99.795966953161
 30
0.0
 10
253.9335090693576
 20
99.49768824895312
 30
0.0
 10
253.9841198531978
 20
99.20785305374994
 30
0.0
 10
254.0342721157455
 20
98.92686575470309
 30
0.0
 10
254.0839549598684
 20
98.65455444137687
 30
0.0
 10
254.1331617456222
 20
98.39088557719035
 30
0.0
 10
254.1818836918781
 20
98.135776765795
 30
0.0
 10
254.2301116216387
 20
97.88914669079843
 30
0.0
 10
254.2778355649614
 20
97.6509026857684
 30
0.0
 10
254.3250449237007
 20
97.42094468547506
 30
0.0
 10
254.3717284872241
 20
97.19916485842958
 30
0.0
 10
254.4178744858396
 20
96.98544835947607
 30
0.0
 10
254.4634706328335
 20
96.77967377297803
 30
0.0
 10
254.5085041679693
 20
96.58171362147526
 30
0.0
 10
254.5529618990445
 20
96.39143484089588
 30
0.0
 10
254.5968302423688
 20
96.20869924787871
 30
0.0
 10
254.6400952619154
 20
96.03336399215924
 30
0.0
 10
254.6827427071958
 20
95.86528199559267
 30
0.0
 10
254.7247580498332
 20
95.70430237719215
 30
0.0
 10
254.766126518838
 20
95.55027086418302
 30
0.0
 10
254.8068331345776
 20
95.40303018901207
 30
0.0
 10
254.8468627414618
 20
95.2624204721533
 30
0.0
 10
254.8862000392962
 20
95.12827959123169
 30
0.0
 10
254.924829613501
 20
95.0004435346521
 30
0.0
 10
254.9627359635362
 20
94.8787467465933
 30
0.0
 10
254.9999035319809
 20
94.76302243881179
 30
0.0
 10
255.0363167254465
 20
94.65310295913754
 30
0.0
 10
255.0719599594681
 20
94.54881989051933
 30
0.0
 10
255.1068176106478
 20
94.45000506680479
 30
0.0
 10
255.1408743001938
 20
94.35648819695976
 30
0.0
 10
255.1741139688748
 20
94.268106742453
 30
0.0
 10
255.2065233324551
 20
94.18467127056
 30
0.0
 10
255.2380794443354
 20
94.10609223478086
 30
0.0
 10
255.2687948635071
 20
94.0319215358295
 30
0.0
 10
255.2888369040298
 20
93.98551434392014
 30
0.0
 10
255.2987566371597
 20
93.96254527754549
 30
0.0
  0
SPLINE
  5
1BE
330
1F
100
AcDbEntity
  8
0
  6
HIDDEN
 62
     7
370
     0
100
AcDbSpline
210
0.0
220
0.0
230
1.0
 70
     8
 71
     3
 72
    28
 73
    24
 74
     0
 42
0.00000001
 43
0.00000001
 40
0.0
 40
0.0
 40
0.0
 40
0.0
 40
0.0354885800467825
 40
0.0709065566173171
 40
0.106276783602027
 40
0.1416222075142357
 40
0.1769658231767915
 40
0.2123306289398104
 40
0.2477395818641003
 40
0.2832155533055974
 40
0.3187812853271119
 40
0.3544593483451536
 40
0.3902721003923975
 40
0.4262416483414653
 40
0.4623898113944903
 40
0.4987380870969328
 40
0.5713087824053381
 40
0.6432625356546762
 40
0.7147746630428998
 40
0.7860237408496605
 40
0.8571903255705786
 40
0.9284556007132937
 40
1.0
 40
1.0
 40
1.0
 40
1.0
 10
256.0782639920067
 20
94.75599279091985
 30
0.0
 10
256.0600528879449
 20
94.79675201098082
 30
0.0
 10
256.0236669102721
 20
94.87818936184469
 30
0.0
 10
255.9684896111814
 20
95.01204359650839
 30
0.0
 10
255.9129605134846
 20
95.1542787085856
 30
0.0
 10
255.8570314572654
 20
95.30574158092563
 30
0.0
 10
255.8007154129022
 20
95.46620547374674
 30
0.0
 10
255.7440089984229
 20
95.6357308327581
 30
0.0
 10
255.6869132125936
 20
95.81430113887947
 30
0.0
 10
255.6294278810815
 20
96.00192044909144
 30
0.0
 10
255.5715531406326
 20
96.19858727178114
 30
0.0
 10
255.5132890535975
 20
96.40430149849362
 30
0.0
 10
255.4546356578192
 20
96.61906287098272
 30
0.0
 10
255.3955931495879
 20
96.84287019025398
 30
0.0
 10
255.3361610919314
 20
97.07572608458742
 30
0.0
 10
255.2565957719025
 20
97.39746399881847
 30
0.0
 10
255.1573163018291
 20
97.81734631528201
 30
0.0
 10
255.038917583154
 20
98.34814691808484
 30
0.0
 10
254.9217132984779
 20
98.90400075855423
 30
0.0
 10
254.8056949308597
 20
99.48476169965214
 30
0.0
 10
254.6909103492032
 20
100.0909198989575
 30
0.0
 10
254.5771899150404
 20
100.7206014763206
 30
0.0
 10
254.5027245033315
 20
101.159492769287
 30
0.0
 10
254.4654190254664
 20
101.3793673263357
 30
0.0
  0
LINE
  5
1BF
330
1F
100
AcDbEntity
  8
0
  6
HIDDEN
 62
     7
370
     0
100
AcDbLine
 10
164.0163308502
 20
127.1495747327
 30
0.0
 11
164.0163308502
 21
127.4606476485
 31
0.0
  0
SPLINE
  5
1C0
330
1F
100
AcDbEntity
  8
0
  6
HIDDEN
 62
     7
370
     0
100
AcDbSpline
210
0.0
220
0.0
230
1.0
 70
     8
 71
     3
 72
     8
 73
     4
 74
     0
 42
0.00000001
 43
0.00000001
 40
0.0
 40
0.0
 40
0.0
 40
0.0
 40
1.0
 40
1.0
 40
1.0
 40
1.0
 10
164.0163314844022
 20
127.4606472059694
 30
0.0
 10
164.3473518154218
 20
128.0522029024271
 30
0.0
 10
164.6791330869059
 20
128.6433355666723
 30
0.0
 10
165.0114911832956
 20
129.2341457803442
 30
0.0
  0
LINE
  5
1C1
330
1F
100
AcDbEntity
  8
0
  6
HIDDEN
 62
     7
370
     0
100
AcDbLine
 10
165.011491862
 20
129.2341466009
 30
0.0
 11
166.3263312102
 21
129.2341466009
 31
0.0
  0
SPLINE
  5
1C2
330
1F
100
AcDbEntity
  8
0
  6
HIDDEN
 62
     7
370
     0
100
AcDbSpline
210
0.0
220
0.0
230
1.0
 70
     8
 71
     3
 72
    10
 73
     6
 74
     0
 42
0.00000001
 43
0.00000001
 40
0.0
 40
0.0
 40
0.0
 40
0.0
 40
0.5
 40
0.5
 40
1.0
 40
1.0
 40
1.0
 40
1.0
 10
166.3263314844022
 20
129.2341457803442
 30
0.0
 10
166.4867537090016
 20
129.2341457803442
 30
0.0
 10
166.6432365096689
 20
129.1655603778384
 30
0.0
 10
166.8638901202362
 20
128.9357871085188
 30
0.0
 10
166.9263314844022
 20
128.7772889068511
 30
0.0
 10
166.9263314844022
 20
128.6178475435821
 30
0.0
  0
LINE
  5
1C3
330
1F
100
AcDbEntity
  8
0
  6
HIDDEN
 62
     7
370
     0
100
AcDbLine
 10
163.7679862351
 20
126.6469697415
 30
0.0
 11
166.9263320536
 21
126.6469697415
 31
0.0
  0
LINE
  5
1C4
330
1F
100
AcDbEntity
  8
0
  6
HIDDEN
 62
     7
370
     0
100
AcDbLine
 10
166.9263320536
 20
128.6178476125
 30
0.0
 11
166.9263320536
 21
126.6469697415
 31
0.0
  0
SPLINE
  5
1C5
330
1F
100
AcDbEntity
  8
0
  6
HIDDEN
 62
     7
370
     0
100
AcDbSpline
210
0.0
220
0.0
230
1.0
 70
     8
 71
     3
 72
     8
 73
     4
 74
     0
 42
0.00000001
 43
0.00000001
 40
0.0
 40
0.0
 40
0.0
 40
0.0
 40
1.0
 40
1.0
 40
1.0
 40
1.0
 10
160.9411717855088
 20
129.2341457803442
 30
0.0
 10
161.2735298818984
 20
128.6433355666723
 30
0.0
 10
161.6053111533825
 20
128.0522029024271
 30
0.0
 10
161.9363314844022
 20
127.4606472059694
 30
0.0
  0
LINE
  5
1C6
330
1F
100
AcDbEntity
  8
0
  6
HIDDEN
 62
     7
370
     0
100
AcDbLine
 10
161.9363317759
 20
127.4606476485
 30
0.0
 11
161.9363317759
 21
127.1495747327
 31
0.0
  0
LINE
  5
1C7
330
1F
100
AcDbEntity
  8
0
  6
HIDDEN
 62
     7
370
     0
100
AcDbLine
 10
159.4263317556
 20
126.6469697415
 30
0.0
 11
162.1846754596
 21
126.6469697415
 31
0.0
  0
SPLINE
  5
1C8
330
1F
100
AcDbEntity
  8
0
  6
HIDDEN
 62
     7
370
     0
100
AcDbSpline
210
0.0
220
0.0
230
1.0
 70
     8
 71
     3
 72
    12
 73
     8
 74
     0
 42
0.00000001
 43
0.00000001
 40
0.0
 40
0.0
 40
0.0
 40
0.0
 40
0.2499999999999962
 40
0.2499999999999962
 40
0.4999999999999925
 40
0.4999999999999925
 40
1.0
 40
1.0
 40
1.0
 40
1.0
 10
166.3263314844022
 20
90.51808598740976
 30
0.0
 10
166.4060969648724
 20
90.51808598740976
 30
0.0
 10
166.4865182485295
 20
90.53506158376786
 30
0.0
 10
166.633200165192
 20
90.59953708122706
 30
0.0
 10
166.6995539747559
 20
90.64665071302167
 30
0.0
 10
166.8657580554826
 20
90.82326062700913
 30
0.0
 10
166.9263314844021
 20
90.98310950281729
 30
0.0
 10
166.9263314844022
 20
91.1429386893523
 30
0.0
  0
LINE
  5
1C9
330
1F
100
AcDbEntity
  8
0
  6
HIDDEN
 62
     7
370
     0
100
AcDbLine
 10
166.9263320536
 20
128.6178476125
 30
0.0
 11
166.9263320536
 21
91.1429378151
 31
0.0
  0
LINE
  5
1CA
330
1F
100
AcDbEntity
  8
0
  6
HIDDEN
 62
     7
370
     0
100
AcDbLine
 10
164.0163308502
 20
127.4606476485
 30
0.0
 11
164.0163308502
 21
92.3178478092
 31
0.0
  0
LINE
  5
1CB
330
1F
100
AcDbEntity
  8
0
  6
HIDDEN
 62
     7
370
     0
100
AcDbLine
 10
165.011491862
 20
129.2341466009
 30
0.0
 11
165.011491862
 21
90.5180855602
 31
0.0
  0
LINE
  5
1CC
330
1F
100
AcDbEntity
  8
0
  6
HIDDEN
 62
     7
370
     0
100
AcDbLine
 10
161.9363317759
 20
127.4606476485
 30
0.0
 11
161.9363317759
 21
92.3178478092
 31
0.0
  0
ELLIPSE
  5
1CD
330
1F
100
AcDbEntity
  8
0
  6
HIDDEN
 62
     7
370
     0
100
AcDbEllipse
 10
250.030957422
 20
100.6183530237
 30
0.0
 11
0.0
 21
-2.105127985970455
 31
0.0
210
0.0
220
0.0
230
1.0
 40
0.9975640503
 41
1.404042885709666
 42
4.688404414681217
  0
SPLINE
  5
1CE
330
1F
100
AcDbEntity
  8
0
  6
HIDDEN
 62
     7
370
     0
100
AcDbSpline
210
0.0
220
0.0
230
1.0
 70
     8
 71
     3
 72
    30
 73
    26
 74
     0
 42
0.00000001
 43
0.00000001
 40
0.0
 40
0.0
 40
0.0
 40
0.0
 40
0.0624999999999977
 40
0.0624999999999977
 40
0.1249999999999954
 40
0.1249999999999954
 40
0.2499999999999926
 40
0.2499999999999926
 40
0.3124999999999913
 40
0.3124999999999913
 40
0.37499999999999
 40
0.37499999999999
 40
0.4374999999999887
 40
0.4374999999999887
 40
0.4999999999999875
 40
0.4999999999999875
 40
0.6249999999999905
 40
0.6249999999999905
 40
0.687499999999992
 40
0.687499999999992
 40
0.7499999999999937
 40
0.7499999999999937
 40
0.8749999999999969
 40
0.8749999999999969
 40
1.0
 40
1.0
 40
1.0
 40
1.0
 10
252.1018279698756
 20
100.2689402932726
 30
0.0
 10
252.0818619365807
 20
100.1437138474748
 30
0.0
 10
252.052032484511
 20
100.0216123741543
 30
0.0
 10
251.9732488271462
 20
99.78343701632487
 30
0.0
 10
251.9238733705107
 20
99.6667376350913
 30
0.0
 10
251.7501239836512
 20
99.33422391970451
 30
0.0
 10
251.601115331545
 20
99.13306181740053
 30
0.0
 10
251.3151699769724
 20
98.86495303245336
 30
0.0
 10
251.2108640548683
 20
98.78305858015565
 30
0.0
 10
250.9828840225255
 20
98.63755018985398
 30
0.0
 10
250.8572776883562
 20
98.57300126902739
 30
0.0
 10
250.5884785718774
 20
98.47031449178492
 30
0.0
 10
250.4445141656034
 20
98.43170012830178
 30
0.0
 10
250.140403044993
 20
98.3884622621872
 30
0.0
 10
249.9839141499869
 20
98.38448620912371
 30
0.0
 10
249.5126142792464
 20
98.43079387198252
 30
0.0
 10
249.2169883696668
 20
98.53945278937495
 30
0.0
 10
248.8479851270812
 20
98.7688868521358
 30
0.0
 10
248.7388786340969
 20
98.85434786651332
 30
0.0
 10
248.5416566593799
 20
99.03992393570573
 30
0.0
 10
248.4531337068464
 20
99.14098610185826
 30
0.0
 10
248.2221759441598
 20
99.45544877124284
 30
0.0
 10
248.1101902310454
 20
99.6825413540013
 30
0.0
 10
247.9608723538468
 20
100.1650016152427
 30
0.0
 10
247.9257442873198
 20
100.4131010329041
 30
0.0
 10
247.9315614154315
 20
100.6688387634479
 30
0.0
  0
LINE
  5
1CF
330
1F
100
AcDbEntity
  8
0
  6
HIDDEN
 62
     7
370
     0
100
AcDbLine
 10
161.9363317759
 20
92.3178478092
 30
0.0
 11
161.9363317759
 21
92.6340914279
 31
0.0
  0
SPLINE
  5
1D0
330
1F
100
AcDbEntity
  8
0
  6
HIDDEN
 62
     7
370
     0
100
AcDbSpline
210
0.0
220
0.0
230
1.0
 70
     8
 71
     3
 72
     8
 73
     4
 74
     0
 42
0.00000001
 43
0.00000001
 40
0.0
 40
0.0
 40
0.0
 40
0.0
 40
1.0
 40
1.0
 40
1.0
 40
1.0
 10
160.9411717855088
 20
90.51808598740973
 30
0.0
 10
161.2738770572141
 20
91.11745766063339
 30
0.0
 10
161.6056928577876
 20
91.71732677133842
 30
0.0
 10
161.9363314844022
 20
92.31784712244941
 30
0.0
  0
LINE
  5
1D1
330
1F
100
AcDbEntity
  8
0
  6
HIDDEN
 62
     7
370
     0
100
AcDbLine
 10
159.4263317556
 20
92.8469712793
 30
0.0
 11
161.9715534643
 21
92.8469712793
 31
0.0
  0
LINE
  5
1D2
330
1F
100
AcDbEntity
  8
0
  6
HIDDEN
 62
     7
370
     0
100
AcDbLine
 10
165.011491862
 20
90.5180855602
 30
0.0
 11
166.3263312102
 21
90.5180855602
 31
0.0
  0
LINE
  5
1D3
330
1F
100
AcDbEntity
  8
0
  6
HIDDEN
 62
     7
370
     0
100
AcDbLine
 10
164.0163308502
 20
92.6340914279
 30
0.0
 11
164.0163308502
 21
92.3178478092
 31
0.0
  0
SPLINE
  5
1D4
330
1F
100
AcDbEntity
  8
0
  6
HIDDEN
 62
     7
370
     0
100
AcDbSpline
210
0.0
220
0.0
230
1.0
 70
     8
 71
     3
 72
     8
 73
     4
 74
     0
 42
0.00000001
 43
0.00000001
 40
0.0
 40
0.0
 40
0.0
 40
0.0
 40
1.0
 40
1.0
 40
1.0
 40
1.0
 10
164.0163314844022
 20
92.31784712244941
 30
0.0
 10
164.3469701110168
 20
91.71732677133842
 30
0.0
 10
164.6787859115903
 20
91.11745766063339
 30
0.0
 10
165.0114911832956
 20
90.51808598740973
 30
0.0
  0
LINE
  5
1D5
330
1F
100
AcDbEntity
  8
0
  6
HIDDEN
 62
     7
370
     0
100
AcDbLine
 10
163.9811082304
 20
92.8469712793
 30
0.0
 11
166.9263320536
 21
92.8469712793
 31
0.0
  0
LINE
  5
1D6
330
1F
100
AcDbEntity
  8
0
  6
HIDDEN
 62
     7
370
     0
100
AcDbLine
 10
166.9263320536
 20
91.1429378151
 30
0.0
 11
166.9263320536
 21
92.8469712793
 31
0.0
  0
LWPOLYLINE
  5
1D7
330
1F
100
AcDbEntity
  8
0
  6
HIDDEN
 62
     7
370
     0
100
AcDbPolyline
 90
       27
 70
   128
 43
0.0
 10
214.9763351799
 20
109.0766854299
 10
215.5746242524
 20
109.1468555218
 10
216.1381414653
 20
109.3532878562
 10
216.6341415168
 20
109.6839853175
 10
217.03379066
 20
110.1197289367
 10
217.3138728858
 20
110.6351949106
 10
217.458101225
 20
111.2004262808
 10
217.458101225
 20
111.7825736705
 10
217.3138728858
 20
112.3478049825
 10
217.03379066
 20
112.8632710728
 10
216.6341415168
 20
113.2990145538
 10
216.1381414653
 20
113.629712066
 10
215.5746242524
 20
113.8361443713
 10
214.9763351799
 20
113.906314405
 10
214.3780386568
 20
113.8361443713
 10
213.8145214439
 20
113.629712066
 10
213.3185213924
 20
113.2990145538
 10
212.9188722492
 20
112.8632710728
 10
212.6387900234
 20
112.3478049825
 10
212.4945616842
 20
111.7825736705
 10
212.4945616842
 20
111.2004262808
 10
212.6387900234
 20
110.6351949106
 10
212.9188722492
 20
110.1197289367
 10
213.3185213924
 20
109.6839853175
 10
213.8145214439
 20
109.3532878562
 10
214.3780386568
 20
109.1468555218
 10
214.9763351799
 20
109.0766854299
  0
LINE
  5
1D8
330
1F
100
AcDbEntity
  8
0
  6
HIDDEN
 62
     7
370
     0
100
AcDbLine
 10
127.0763317616
 20
97.9284982144
 30
0.0
 11
127.0763317616
 21
98.1994572043
 31
0.0
  0
LINE
  5
1D9
330
1F
100
AcDbEntity
  8
0
  6
HIDDEN
 62
     7
370
     0
100
AcDbLine
 10
127.0763317616
 20
121.6208844393
 30
0.0
 11
127.0763317616
 21
121.5252022206
 31
0.0
  0
SPLINE
  5
1DA
330
1F
100
AcDbEntity
  8
0
  6
HIDDEN
 62
     7
370
     0
100
AcDbSpline
210
0.0
220
0.0
230
1.0
 70
     8
 71
     3
 72
    26
 73
    22
 74
     0
 42
0.00000001
 43
0.00000001
 40
0.0
 40
0.0
 40
0.0
 40
0.0
 40
0.2500000000000024
 40
0.2500000000000024
 40
0.3750000000000028
 40
0.3750000000000028
 40
0.4375000000000036
 40
0.4375000000000036
 40
0.4687500000000039
 40
0.4687500000000039
 40
0.5000000000000043
 40
0.5000000000000043
 40
0.5312500000000048
 40
0.5312500000000048
 40
0.5625000000000051
 40
0.5625000000000051
 40
0.6250000000000046
 40
0.6250000000000046
 40
0.7500000000000029
 40
0.7500000000000029
 40
1.0
 40
1.0
 40
1.0
 40
1.0
 10
127.83630153079
 20
122.1350510900521
 30
0.0
 10
127.7889134213616
 20
121.999395348029
 30
0.0
 10
127.7312721194571
 20
121.8554339496997
 30
0.0
 10
127.6092243069138
 20
121.6126613764453
 30
0.0
 10
127.5631752991373
 20
121.5276217359959
 30
0.0
 10
127.4725220149717
 20
121.3872457629556
 30
0.0
 10
127.4381695146861
 20
121.3373343856168
 30
0.0
 10
127.3757343422955
 20
121.2607991207625
 30
0.0
 10
127.3524403234975
 20
121.2343946417756
 30
0.0
 10
127.303387786371
 20
121.1867998765146
 30
0.0
 10
127.2789563367141
 20
121.1673572626627
 30
0.0
 10
127.2383267410943
 20
121.1424494849947
 30
0.0
 10
127.2221644592432
 20
121.1363796536837
 30
0.0
 10
127.1951824151401
 20
121.1306907820899
 30
0.0
 10
127.1844328923172
 20
121.1310812901707
 30
0.0
 10
127.1563969181601
 20
121.1372236369591
 30
0.0
 10
127.1435356861275
 20
121.1478876433771
 30
0.0
 10
127.1125328249671
 20
121.1869004337373
 30
0.0
 10
127.101673342898
 20
121.2229524241416
 30
0.0
 10
127.07839608696
 20
121.3406318216407
 30
0.0
 10
127.0763314844021
 20
121.4319617219737
 30
0.0
 10
127.0763314844021
 20
121.5252019748799
 30
0.0
  0
SPLINE
  5
1DB
330
1F
100
AcDbEntity
  8
0
  6
HIDDEN
 62
     7
370
     0
100
AcDbSpline
210
0.0
220
0.0
230
1.0
 70
     8
 71
     3
 72
    24
 73
    20
 74
     0
 42
0.00000001
 43
0.00000001
 40
0.0
 40
0.0
 40
0.0
 40
0.0
 40
0.250000000000007
 40
0.250000000000007
 40
0.3750000000000109
 40
0.3750000000000109
 40
0.4375000000000138
 40
0.4375000000000138
 40
0.5000000000000167
 40
0.5000000000000167
 40
0.5312500000000169
 40
0.5312500000000169
 40
0.5625000000000171
 40
0.5625000000000171
 40
0.6250000000000158
 40
0.6250000000000158
 40
0.7500000000000114
 40
0.7500000000000114
 40
1.0
 40
1.0
 40
1.0
 40
1.0
 10
127.0763314844022
 20
98.19945730921783
 30
0.0
 10
127.0763314844022
 20
98.2843662628874
 30
0.0
 10
127.0790561128345
 20
98.36669595893429
 30
0.0
 10
127.1054134339525
 20
98.4691083463533
 30
0.0
 10
127.1176271522247
 20
98.49992544273769
 30
0.0
 10
127.1522378023571
 20
98.52902295881464
 30
0.0
 10
127.1666245127245
 20
98.53598059945325
 30
0.0
 10
127.2078729958269
 20
98.53487085817642
 30
0.0
 10
127.2364125457577
 20
98.52657745256768
 30
0.0
 10
127.297335211269
 20
98.48199401870646
 30
0.0
 10
127.3204011814089
 20
98.46153230544917
 30
0.0
 10
127.3642970614151
 20
98.41691968716883
 30
0.0
 10
127.3851770969753
 20
98.39304360896244
 30
0.0
 10
127.4423873602684
 20
98.32314651180045
 30
0.0
 10
127.4747339840447
 20
98.27756892301596
 30
0.0
 10
127.5608999275366
 20
98.14868543539707
 30
0.0
 10
127.6065639475766
 20
98.06885225826501
 30
0.0
 10
127.7271115110279
 20
97.84307144915266
 30
0.0
 10
127.786171599729
 20
97.70824006418131
 30
0.0
 10
127.83630153079
 20
97.57998492551377
 30
0.0
  0
LINE
  5
1DC
330
1F
100
AcDbEntity
  8
0
  6
HIDDEN
 62
     7
370
     0
100
AcDbLine
 10
127.0763317616
 20
121.5252022206
 30
0.0
 11
127.0763317616
 21
98.1994572043
 31
0.0
  0
SPLINE
  5
1DD
330
1F
100
AcDbEntity
  8
0
  6
HIDDEN
 62
     7
370
     0
100
AcDbSpline
210
0.0
220
0.0
230
1.0
 70
     8
 71
     3
 72
    10
 73
     6
 74
     0
 42
0.00000001
 43
0.00000001
 40
0.0
 40
0.0
 40
0.0
 40
0.0
 40
0.3250916078301117
 40
0.6583912321074438
 40
1.0
 40
1.0
 40
1.0
 40
1.0
 10
254.4662829388115
 20
101.3812401790548
 30
0.0
 10
254.4006247048347
 20
101.2409990284026
 30
0.0
 10
254.2676504768793
 20
100.9569758738637
 30
0.0
 10
254.0562858523724
 20
100.530067822524
 30
0.0
 10
253.9079263549576
 20
100.2448730499581
 30
0.0
 10
253.8328333412908
 20
100.100520074064
 30
0.0
  0
ELLIPSE
  5
1DE
330
1F
100
AcDbEntity
  8
0
  6
HIDDEN
 62
     7
370
     0
100
AcDbEllipse
 10
2387.1109549886
 20
-76.7367910135
 30
0.0
 11
-2621.752605686477
 21
228.8148889289111
 31
-4.263256414560601E-14
210
-1.613816869091398E-17
220
1.408467476495797E-18
230
1.0
 40
0.0060796773
 41
0.608859908376606
 42
0.616982743497438
  0
ELLIPSE
  5
1DF
330
1F
100
AcDbEntity
  8
0
  6
HIDDEN
 62
     7
370
     0
100
AcDbEllipse
 10
2387.1109549886
 20
-76.7367910135
 30
0.0
 11
-2621.752605686477
 21
228.8148889289111
 31
-4.263256414560601E-14
210
-1.613816869091398E-17
220
1.408467476495797E-18
230
1.0
 40
0.0060796773
 41
0.6197287139970498
 42
0.6208642852151107
  0
LINE
  5
1E0
330
1F
100
AcDbEntity
  8
0
  6
HIDDEN
 62
     7
370
     0
100
AcDbLine
 10
254.465418172
 20
101.3793668657
 30
0.0
 11
253.9983710767
 21
106.2508456356
 31
0.0
  0
LINE
  5
1E1
330
1F
100
AcDbEntity
  8
0
  6
HIDDEN
 62
     7
370
     0
100
AcDbLine
 10
253.9983710767
 20
106.2508456356
 30
0.0
 11
250.4684201003
 21
109.7469705104
 31
0.0
  0
CIRCLE
  5
1E2
330
1F
100
AcDbEntity
  8
0
  6
HIDDEN
 62
     7
370
     0
100
AcDbCircle
 10
153.9763314844
 20
109.7469705104
 30
0.0
 40
5.000000000000014
  0
LINE
  5
1E3
330
1F
100
AcDbEntity
  8
0
  6
HIDDEN
 62
     7
370
     0
100
AcDbLine
 10
146.9763314844
 20
93.5397765547
 30
0.0
 11
147.0704923222
 21
94.2097662895
 31
0.0
  0
LINE
  5
1E4
330
1F
100
AcDbEntity
  8
0
  6
HIDDEN
 62
     7
370
     0
100
AcDbLine
 10
147.0704923222
 20
125.2841747313
 30
0.0
 11
146.9763314844
 21
125.9541644662
 31
0.0
  0
ARC
  5
1E5
330
1F
100
AcDbEntity
  8
0
  6
HIDDEN
 62
     7
370
     0
100
AcDbCircle
 10
146.4763314844
 20
94.2932701096
 30
0.0
 40
0.6000000000000227
100
AcDbArc
 50
352.0
 51
0.0
  0
ARC
  5
1E6
330
1F
100
AcDbEntity
  8
0
  6
HIDDEN
 62
     7
370
     0
100
AcDbCircle
 10
146.4763314844
 20
94.2932701096
 30
0.0
 40
0.6000000000000227
100
AcDbArc
 50
0.0
 51
33.5573097619
  0
ARC
  5
1E7
330
1F
100
AcDbEntity
  8
0
  6
HIDDEN
 62
     7
370
     0
100
AcDbCircle
 10
146.4763314844
 20
125.2006709112
 30
0.0
 40
0.5999999999999792
100
AcDbArc
 50
348.75
 51
8.0
  0
LWPOLYLINE
  5
1E8
330
1F
100
AcDbEntity
  8
0
  6
HIDDEN
 62
     7
370
     0
100
AcDbPolyline
 90
        3
 70
   128
 43
0.0
 10
147.0648026543
 20
125.0836162775
 10
147.0306592045
 20
124.9710612878
 10
146.9763314844
 20
124.8690088227
  0
LINE
  5
1E9
330
1F
100
AcDbEntity
  8
0
  6
HIDDEN
 62
     7
370
     0
100
AcDbLine
 10
147.0763314819
 20
94.2932705342
 30
0.0
 11
147.0763314819
 21
125.2006704866
 31
0.0
  0
LINE
  5
1EA
330
1F
100
AcDbEntity
  8
0
  6
HIDDEN
 62
     7
370
     0
100
AcDbLine
 10
147.0763314819
 20
94.2932705342
 30
0.0
 11
147.0763314819
 21
125.2006704866
 31
0.0
  0
LINE
  5
1EB
330
1F
100
AcDbEntity
  8
0
  6
HIDDEN
 62
     7
370
     0
100
AcDbLine
 10
136.508959581
 20
96.9969707489
 30
0.0
 11
138.6830743895
 21
96.9969707489
 31
0.0
  0
LINE
  5
1EC
330
1F
100
AcDbEntity
  8
0
  6
HIDDEN
 62
     7
370
     0
100
AcDbLine
 10
138.6830743895
 20
122.496970272
 30
0.0
 11
136.508959581
 21
122.496970272
 31
0.0
  0
ARC
  5
1ED
330
1F
100
AcDbEntity
  8
0
  6
HIDDEN
 62
     7
370
     0
100
AcDbCircle
 10
136.5089594286
 20
97.3969705104
 30
0.0
 40
0.4000000000000057
100
AcDbArc
 50
210.0
 51
270.0
  0
ARC
  5
1EE
330
1F
100
AcDbEntity
  8
0
  6
HIDDEN
 62
     7
370
     0
100
AcDbCircle
 10
136.5089594286
 20
122.0969705104
 30
0.0
 40
0.4000000000000057
100
AcDbArc
 50
90.0
 51
150.0
  0
ARC
  5
1EF
330
1F
100
AcDbEntity
  8
0
  6
HIDDEN
 62
     7
370
     0
100
AcDbCircle
 10
142.8005082123
 20
101.9969705104
 30
0.0
 40
4.999999999999993
100
AcDbArc
 50
275.4589935773
 51
326.6329870308
  0
ARC
  5
1F0
330
1F
100
AcDbEntity
  8
0
  6
HIDDEN
 62
     7
370
     0
100
AcDbCircle
 10
142.8005082123
 20
117.4969705104
 30
0.0
 40
4.999999999999996
100
AcDbArc
 50
33.3670129692
 51
84.5401125364
  0
LINE
  5
1F1
330
1F
100
AcDbEntity
  8
0
  6
HIDDEN
 62
     7
370
     0
100
AcDbLine
 10
136.1625494928
 20
122.2969706118
 30
0.0
 11
134.9789809928
 21
120.2469703689
 31
0.0
  0
LINE
  5
1F2
330
1F
100
AcDbEntity
  8
0
  6
HIDDEN
 62
     7
370
     0
100
AcDbLine
 10
134.9789809928
 20
99.246970652
 30
0.0
 11
136.1625494928
 21
97.1969704091
 31
0.0
  0
ARC
  5
1F3
330
1F
100
AcDbEntity
  8
0
  6
HIDDEN
 62
     7
370
     0
100
AcDbCircle
 10
153.9263314844
 20
99.8719705104
 30
0.0
 40
1.000000000000019
100
AcDbArc
 50
218.6821874535
 51
0.0
  0
ARC
  5
1F4
330
1F
100
AcDbEntity
  8
0
  6
HIDDEN
 62
     7
370
     0
100
AcDbCircle
 10
153.9263314844
 20
119.6219705104
 30
0.0
 40
1.000000000000019
100
AcDbArc
 50
0.0
 51
141.3178125465
  0
LINE
  5
1F5
330
1F
100
AcDbEntity
  8
0
  6
HIDDEN
 62
     7
370
     0
100
AcDbLine
 10
214.0411308528
 20
110.0466430193
 30
0.0
 11
212.2722810627
 21
108.5422649461
 31
0.0
  0
LINE
  5
1F6
330
1F
100
AcDbEntity
  8
0
  6
HIDDEN
 62
     7
370
     0
100
AcDbLine
 10
212.2722810627
 20
108.5422649461
 30
0.0
 11
212.6636749626
 21
106.2534260977
 31
0.0
  0
LINE
  5
1F7
330
1F
100
AcDbEntity
  8
0
  6
HIDDEN
 62
     7
370
     0
100
AcDbLine
 10
215.4692581416
 20
109.6155017707
 30
0.0
 11
214.1589990378
 21
110.0913047389
 31
0.0
  0
LINE
  5
1F8
330
1F
100
AcDbEntity
  8
0
  6
HIDDEN
 62
     7
370
     0
100
AcDbLine
 10
222.246902299
 20
107.1542923286
 30
0.0
 11
216.0154378534
 21
109.4171642448
 31
0.0
  0
LINE
  5
1F9
330
1F
100
AcDbEntity
  8
0
  6
HIDDEN
 62
     7
370
     0
100
AcDbLine
 10
214.854503286
 20
105.3703909687
 30
0.0
 11
222.2305929781
 21
102.6918658003
 31
0.0
  0
LINE
  5
1FA
330
1F
100
AcDbEntity
  8
0
  6
HIDDEN
 62
     7
370
     0
100
AcDbLine
 10
212.7254253746
 20
106.1435388814
 30
0.0
 11
213.6286145569
 21
105.8155580371
 31
0.0
  0
LINE
  5
1FB
330
1F
100
AcDbEntity
  8
0
  6
HIDDEN
 62
     7
370
     0
100
AcDbLine
 10
146.9763314844
 20
99.246970652
 30
0.0
 11
153.1457065166
 21
99.246970652
 31
0.0
  0
LINE
  5
1FC
330
1F
100
AcDbEntity
  8
0
  6
HIDDEN
 62
     7
370
     0
100
AcDbLine
 10
153.1457065166
 20
120.2469703689
 30
0.0
 11
146.9763314844
 21
120.2469703689
 31
0.0
  0
LINE
  5
1FD
330
1F
100
AcDbEntity
  8
0
  6
HIDDEN
 62
     7
370
     0
100
AcDbLine
 10
133.1763316438
 20
99.246970652
 30
0.0
 11
134.9789809928
 21
99.246970652
 31
0.0
  0
LINE
  5
1FE
330
1F
100
AcDbEntity
  8
0
  6
HIDDEN
 62
     7
370
     0
100
AcDbLine
 10
134.9789809928
 20
120.2469703689
 30
0.0
 11
130.6763312341
 21
120.2469703689
 31
0.0
  0
LINE
  5
1FF
330
1F
100
AcDbEntity
  8
0
  6
HIDDEN
 62
     7
370
     0
100
AcDbLine
 10
217.0763334752
 20
108.0633273063
 30
0.0
 11
217.0763334752
 21
109.0999229176
 31
0.0
  0
LINE
  5
200
330
1F
100
AcDbEntity
  8
0
  6
HIDDEN
 62
     7
370
     0
100
AcDbLine
 10
212.876329434
 20
109.1002148291
 30
0.0
 11
212.876329434
 21
107.9028087383
 31
0.0
  0
LINE
  5
201
330
1F
100
AcDbEntity
  8
0
  6
HIDDEN
 62
     7
370
     0
100
AcDbLine
 10
160.276331243
 20
103.4969704173
 30
0.0
 11
162.7763307215
 21
103.4969704173
 31
0.0
  0
LINE
  5
202
330
1F
100
AcDbEntity
  8
0
  6
HIDDEN
 62
     7
370
     0
100
AcDbLine
 10
162.7763307215
 20
115.9969706036
 30
0.0
 11
160.276331243
 21
115.9969706036
 31
0.0
  0
LINE
  5
203
330
1F
100
AcDbEntity
  8
0
  6
HIDDEN
 62
     7
370
     0
100
AcDbLine
 10
154.9263319493
 20
103.7469704583
 30
0.0
 11
155.4263311
 21
104.2469705402
 31
0.0
  0
LINE
  5
204
330
1F
100
AcDbEntity
  8
0
  6
HIDDEN
 62
     7
370
     0
100
AcDbLine
 10
155.4263311
 20
115.2469704806
 30
0.0
 11
154.9263319493
 21
115.7469705626
 31
0.0
  0
LINE
  5
205
330
1F
100
AcDbEntity
  8
0
  6
HIDDEN
 62
     7
370
     0
100
AcDbLine
 10
155.4263311
 20
104.2469705402
 30
0.0
 11
160.276331243
 21
104.2469705402
 31
0.0
  0
LINE
  5
206
330
1F
100
AcDbEntity
  8
0
  6
HIDDEN
 62
     7
370
     0
100
AcDbLine
 10
160.276331243
 20
115.2469704806
 30
0.0
 11
155.4263311
 21
115.2469704806
 31
0.0
  0
LINE
  5
207
330
1F
100
AcDbEntity
  8
0
  6
HIDDEN
 62
     7
370
     0
100
AcDbLine
 10
154.9263319493
 20
129.7469700634
 30
0.0
 11
154.9263319493
 21
126.6469697415
 31
0.0
  0
LINE
  5
208
330
1F
100
AcDbEntity
  8
0
  6
HIDDEN
 62
     7
370
     0
100
AcDbLine
 10
143.7435108264
 20
94.7056657582
 30
0.0
 11
143.2755822343
 21
95.2015028283
 31
0.0
  0
LINE
  5
209
330
1F
100
AcDbEntity
  8
0
  6
HIDDEN
 62
     7
370
     0
100
AcDbLine
 10
138.6776773752
 20
95.4813559487
 30
0.0
 11
138.1602038191
 21
94.9855309858
 31
0.0
  0
LINE
  5
20A
330
1F
100
AcDbEntity
  8
0
  6
HIDDEN
 62
     7
370
     0
100
AcDbLine
 10
138.1595695884
 20
124.5084603264
 30
0.0
 11
138.677255486
 21
124.012572965
 31
0.0
  0
LINE
  5
20B
330
1F
100
AcDbEntity
  8
0
  6
HIDDEN
 62
     7
370
     0
100
AcDbLine
 10
143.2748963152
 20
124.2922202631
 30
0.0
 11
143.7428002273
 21
124.7881141439
 31
0.0
  0
LINE
  5
20C
330
1F
100
AcDbEntity
  8
0
  6
HIDDEN
 62
     7
370
     0
100
AcDbLine
 10
162.7763307215
 20
107.2469705663
 30
0.0
 11
217.0763334752
 21
107.2469705663
 31
0.0
  0
LINE
  5
20D
330
1F
100
AcDbEntity
  8
0
  6
HIDDEN
 62
     7
370
     0
100
AcDbLine
 10
217.0763334752
 20
112.2469704546
 30
0.0
 11
162.7763307215
 21
112.2469704546
 31
0.0
  0
LINE
  5
20E
330
1F
100
AcDbEntity
  8
0
  6
HIDDEN
 62
     7
370
     0
100
AcDbLine
 10
217.0763334752
 20
107.2469705663
 30
0.0
 11
218.5784822822
 21
109.7469705104
 31
0.0
  0
LINE
  5
20F
330
1F
100
AcDbEntity
  8
0
  6
HIDDEN
 62
     7
370
     0
100
AcDbLine
 10
218.5784822822
 20
109.7469705104
 30
0.0
 11
217.0763334752
 21
112.2469704546
 31
0.0
  0
LINE
  5
210
330
1F
100
AcDbEntity
  8
0
  6
HIDDEN
 62
     7
370
     0
100
AcDbLine
 10
143.2763314833
 20
122.4741826713
 30
0.0
 11
143.2763314833
 21
124.2804911866
 31
0.0
  0
LINE
  5
211
330
1F
100
AcDbEntity
  8
0
  6
HIDDEN
 62
     7
370
     0
100
AcDbLine
 10
138.676331614
 20
124.0114674851
 30
0.0
 11
138.676331614
 21
122.4957586214
 31
0.0
  0
LINE
  5
212
330
1F
100
AcDbEntity
  8
0
  6
HIDDEN
 62
     7
370
     0
100
AcDbLine
 10
143.2763314833
 20
95.2135578677
 30
0.0
 11
143.2763314833
 21
97.0197583496
 31
0.0
  0
LINE
  5
213
330
1F
100
AcDbEntity
  8
0
  6
HIDDEN
 62
     7
370
     0
100
AcDbLine
 10
138.676331614
 20
96.9981823995
 30
0.0
 11
138.676331614
 21
95.4883622884
 31
0.0
  0
LINE
  5
214
330
1F
100
AcDbEntity
  8
0
  6
HIDDEN
 62
     7
370
     0
100
AcDbLine
 10
246.347079289
 20
105.7772583276
 30
0.0
 11
246.347079289
 21
105.8009753882
 31
0.0
  0
LINE
  5
215
330
1F
100
AcDbEntity
  8
0
  6
HIDDEN
 62
     7
370
     0
100
AcDbLine
 10
242.1470752478
 20
105.8009753882
 30
0.0
 11
242.1470752478
 21
105.4661444336
 31
0.0
  0
LINE
  5
216
330
1F
100
AcDbEntity
  8
0
  6
HIDDEN
 62
     7
370
     0
100
AcDbLine
 10
217.0763334752
 20
110.3940181032
 30
0.0
 11
217.0763334752
 21
111.4292942633
 31
0.0
  0
LINE
  5
217
330
1F
100
AcDbEntity
  8
0
  6
HIDDEN
 62
     7
370
     0
100
AcDbLine
 10
212.876329434
 20
111.4292942633
 30
0.0
 11
212.876329434
 21
110.3937261918
 31
0.0
  0
ARC
  5
218
330
1F
100
AcDbEntity
  8
0
  6
HIDDEN
 62
     7
370
     0
100
AcDbCircle
 10
129.7763314844
 20
123.5269705104
 30
0.0
 40
0.8999999999999915
100
AcDbArc
 50
270.0
 51
311.1792132368
  0
ARC
  5
219
330
1F
100
AcDbEntity
  8
0
  6
HIDDEN
 62
     7
370
     0
100
AcDbCircle
 10
132.2763314844
 20
96.0259705104
 30
0.0
 40
0.8999999999999915
100
AcDbArc
 50
30.4426030216
 51
90.0
  0
LINE
  5
21A
330
1F
100
AcDbEntity
  8
0
  6
HIDDEN
 62
     7
370
     0
100
AcDbLine
 10
129.7763309003
 20
122.6269707962
 30
0.0
 11
128.0263310791
 21
122.6269707962
 31
0.0
  0
LINE
  5
21B
330
1F
100
AcDbEntity
  8
0
  6
HIDDEN
 62
     7
370
     0
100
AcDbLine
 10
127.0763317616
 20
97.8759706899
 30
0.0
 11
128.0263310791
 21
96.9259704411
 31
0.0
  0
LINE
  5
21C
330
1F
100
AcDbEntity
  8
0
  6
HIDDEN
 62
     7
370
     0
100
AcDbLine
 10
128.0263310791
 20
96.9259704411
 30
0.0
 11
132.2763313101
 21
96.9259704411
 31
0.0
  0
LINE
  5
21D
330
1F
100
AcDbEntity
  8
0
  6
HIDDEN
 62
     7
370
     0
100
AcDbLine
 10
128.0263310791
 20
122.6269707962
 30
0.0
 11
127.0763317616
 21
121.6769705474
 31
0.0
  0
LINE
  5
21E
330
1F
100
AcDbEntity
  8
0
  6
HIDDEN
 62
     7
370
     0
100
AcDbLine
 10
252.1309575559
 20
100.0702477008
 30
0.0
 11
252.1309575559
 21
100.6183533877
 31
0.0
  0
LINE
  5
21F
330
1F
100
AcDbEntity
  8
0
  6
HIDDEN
 62
     7
370
     0
100
AcDbLine
 10
247.9309609652
 20
100.6156925991
 30
0.0
 11
247.9309609652
 21
100.0702477008
 31
0.0
  0
LINE
  5
220
330
1F
100
AcDbEntity
  8
0
  6
HIDDEN
 62
     7
370
     0
100
AcDbLine
 10
217.4763327957
 20
111.4914999757
 30
0.0
 11
217.4763327957
 21
112.9821273911
 31
0.0
  0
LINE
  5
221
330
1F
100
AcDbEntity
  8
0
  6
HIDDEN
 62
     7
370
     0
100
AcDbLine
 10
212.4763301135
 20
112.9820112086
 30
0.0
 11
212.4763301135
 21
111.4914999757
 31
0.0
  0
LINE
  5
222
330
1F
100
AcDbEntity
  8
VERMASSUNG
100
AcDbLine
 10
256.9763314844
 20
107.603253853
 30
0.0
 11
256.9763314844
 21
92.7469705104
 31
0.0
  0
DIMENSION
  5
223
330
1F
100
AcDbEntity
  8
VERMASSUNG
100
AcDbDimension
  2
*D1
 10
255.6560894594
 20
105.5272590652
 30
0.0
 11
261.8259843615
 21
113.6221618681
 31
0.0
 70
   162
 71
     1
 42
-1.0
  3
SLDDIMSTYLE0
100
AcDb2LineAngularDimension
 13
256.9763314844
 23
107.603253853
 33
0.0
 14
256.9763314844
 24
92.7469705104
 34
0.0
 15
255.6101398787
 25
106.0511857997
 35
0.0
 16
255.9421790319
 26
114.1020904761
 36
0.0
  0
DIMENSION
  5
230
330
1F
100
AcDbEntity
  8
VERMASSUNG
100
AcDbDimension
  2
*D2
 10
146.9763314844
 20
134.4389274194
 30
0.0
 11
201.9763314844
 21
134.4389274194
 31
0.0
 70
   160
 71
     2
 42
-1.0
  3
SLDDIMSTYLE1
100
AcDbAlignedDimension
 13
256.9763314844
 23
92.7469705104
 33
0.0
 14
146.9763314844
 24
129.4469705104
 34
0.0
100
AcDbRotatedDimension
  0
DIMENSION
  5
23B
330
1F
100
AcDbEntity
  8
VERMASSUNG
100
AcDbDimension
  2
*D3
 10
127.0763314844
 20
140.4389274194
 30
0.0
 11
192.0263314844
 21
140.4389274194
 31
0.0
 70
   160
 71
     2
 42
-1.0
  3
SLDDIMSTYLE1
100
AcDbAlignedDimension
 13
256.9763314844
 23
92.7469705104
 33
0.0
 14
127.0763314844
 24
121.6769705104
 34
0.0
100
AcDbRotatedDimension
  0
DIMENSION
  5
245
330
1F
100
AcDbEntity
  8
VERMASSUNG
100
AcDbDimension
  2
*D4
 10
123.9472016129
 20
89.7469705104
 30
0.0
 11
123.9472016129
 21
109.7469705104
 31
0.0
 70
   160
  1
HSK %%c<>
 71
     2
 42
-1.0
  3
SLDDIMSTYLE1
100
AcDbAlignedDimension
 13
147.2763314844
 23
129.7469705104
 33
0.0
 14
147.2763314844
 24
89.7469705104
 34
0.0
 50
90.0
100
AcDbRotatedDimension
  0
DIMENSION
  5
251
330
1F
100
AcDbEntity
  8
VERMASSUNG
100
AcDbDimension
  2
*D5
 10
265.5930374141
 20
92.7469705104
 30
0.0
 11
265.5930374141
 21
101.2469705104
 31
0.0
 70
   160
 71
     2
 42
-1.0
  3
SLDDIMSTYLE1
100
AcDbAlignedDimension
 13
255.8567072964
 23
109.7469705104
 33
0.0
 14
256.9763314844
 24
92.7469705104
 34
0.0
 50
90.0
100
AcDbRotatedDimension
  0
LINE
  5
25B
330
1F
100
AcDbEntity
  8
VERMASSUNG
  6
CENTERX2
370
     0
100
AcDbLine
 10
126.2136331261
 20
109.7469705104
 30
0.0
 11
255.8567072964
 21
109.7469705104
 31
0.0
  0
LINE
  5
25C
330
1F
100
AcDbEntity
  8
0
  6
Continuous
 62
     7
370
    15
100
AcDbLine
 10
72.3987819835
 20
92.7469695866
 30
0.0
 11
75.6206821858
 21
93.3732449024
 31
0.0
  0
LINE
  5
25D
330
1F
100
AcDbEntity
  8
0
  6
Continuous
 62
     7
370
    15
100
AcDbLine
 10
71.7316511179
 20
106.5880628716
 30
0.0
 11
71.4298123818
 21
106.6038813855
 31
0.0
  0
LINE
  5
25E
330
1F
100
AcDbEntity
  8
0
  6
Continuous
 62
     7
370
    15
100
AcDbLine
 10
74.7809821948
 20
105.3815165482
 30
0.0
 11
71.528747361
 21
105.1890456996
 31
0.0
  0
LINE
  5
25F
330
1F
100
AcDbEntity
  8
0
  6
Continuous
 62
     7
370
    15
100
AcDbLine
 10
76.2914609838
 20
105.3164608724
 30
0.0
 11
74.7809821948
 21
105.3815165482
 31
0.0
  0
LINE
  5
260
330
1F
100
AcDbEntity
  8
0
  6
Continuous
 62
     7
370
    15
100
AcDbLine
 10
77.1051298103
 20
93.6804546922
 30
0.0
 11
76.2914609838
 21
105.3164608724
 31
0.0
  0
LINE
  5
261
330
1F
100
AcDbEntity
  8
0
  6
Continuous
 62
     7
370
    15
100
AcDbLine
 10
77.1051298103
 20
93.6804546922
 30
0.0
 11
75.6206821858
 21
93.3732449024
 31
0.0
  0
LINE
  5
262
330
1F
100
AcDbEntity
  8
0
  6
Continuous
 62
     7
370
    15
100
AcDbLine
 10
75.6206821858
 20
93.3732449024
 30
0.0
 11
72.368447523
 21
93.1807740539
 31
0.0
  0
LINE
  5
263
330
1F
100
AcDbEntity
  8
0
  6
Continuous
 62
     7
370
    15
100
AcDbLine
 10
72.368447523
 20
93.1807740539
 30
0.0
 11
71.528747361
 21
105.1890456996
 31
0.0
  0
LWPOLYLINE
  5
264
330
1F
100
AcDbEntity
  8
0
  6
Continuous
 62
     7
370
    15
100
AcDbPolyline
 90
        9
 70
   128
 43
0.0
 10
72.3987819835
 20
92.7469695866
 10
72.398543273
 20
92.7503838151
 10
72.3970992514
 20
92.7710349619
 10
72.3944121993
 20
92.8094613313
 10
72.3906095042
 20
92.8638431191
 10
72.3858714443
 20
92.9316005617
 10
72.3804226415
 20
93.0095205962
 10
72.3745214124
 20
93.0939133226
 10
72.368447523
 20
93.1807740539
  0
LINE
  5
265
330
1F
100
AcDbEntity
  8
0
  6
Continuous
 62
     7
370
    15
100
AcDbLine
 10
74.7809821948
 20
105.3815165482
 30
0.0
 11
72.7978078682
 21
105.4845347948
 31
0.0
  0
LINE
  5
266
330
1F
100
AcDbEntity
  8
0
  6
Continuous
 62
     7
370
    15
100
AcDbLine
 10
71.8052117478
 20
105.5360965378
 30
0.0
 11
71.5033827907
 21
105.5517753534
 31
0.0
  0
LWPOLYLINE
  5
267
330
1F
100
AcDbEntity
  8
0
  6
Continuous
 62
     7
370
    15
100
AcDbPolyline
 90
        9
 70
   128
 43
0.0
 10
71.528747361
 20
105.1890456996
 10
71.5239575108
 20
105.2575435437
 10
71.5193870452
 20
105.322903762
 10
71.5151749643
 20
105.3831398435
 10
71.5114490919
 20
105.4364217393
 10
71.5083227584
 20
105.4811308108
 10
71.5058909006
 20
105.5159082584
 10
71.5042273838
 20
105.5396974965
 10
71.5033827907
 20
105.5517753534
  0
LINE
  5
268
330
1F
100
AcDbEntity
  8
0
  6
Continuous
 62
     7
370
    15
100
AcDbLine
 10
71.7317475097
 20
106.5866842813
 30
0.0
 11
71.4299185526
 21
106.6023630969
 31
0.0
  0
LINE
  5
269
330
1F
100
AcDbEntity
  8
0
  6
Continuous
 62
     7
370
    15
100
AcDbLine
 10
71.5033827907
 20
105.5517753534
 30
0.0
 11
71.4299185526
 21
106.6023630969
 31
0.0
  0
LINE
  5
26A
330
1F
100
AcDbEntity
  8
0
  6
Continuous
 62
     7
370
    15
100
AcDbLine
 10
71.4299185526
 20
106.6023630969
 30
0.0
 11
71.4298123818
 21
106.6038813855
 31
0.0
  0
LINE
  5
26B
330
1F
100
AcDbEntity
  8
0
  6
Continuous
 62
     7
370
    15
100
AcDbLine
 10
76.2696058697
 20
105.6290038809
 30
0.0
 11
73.8972074793
 21
105.4371840268
 31
0.0
  0
LINE
  5
26C
330
1F
100
AcDbEntity
  8
0
  6
Continuous
 62
     7
370
    15
100
AcDbLine
 10
73.8972074793
 20
105.4371840268
 30
0.0
 11
71.8058297386
 21
105.5272592179
 31
0.0
  0
LINE
  5
26D
330
1F
100
AcDbEntity
  8
0
  6
Continuous
 62
     7
370
    15
100
AcDbLine
 10
71.7691931965
 20
106.0511859081
 30
0.0
 11
71.8058297386
 21
105.5272592179
 31
0.0
  0
LINE
  5
26E
330
1F
100
AcDbEntity
  8
0
  6
Continuous
 62
     7
370
    15
100
AcDbLine
 10
85.3987822517
 20
106.2508456356
 30
0.0
 11
71.7691931965
 21
106.0511859081
 31
0.0
  0
LINE
  5
26F
330
1F
100
AcDbEntity
  8
0
  6
Continuous
 62
     7
370
    15
100
AcDbLine
 10
85.3987822517
 20
101.3793668657
 30
0.0
 11
85.3987822517
 21
106.2508456356
 31
0.0
  0
SPLINE
  5
270
330
1F
100
AcDbEntity
  8
0
  6
Continuous
 62
     7
370
    15
100
AcDbSpline
210
0.0
220
0.0
230
1.0
 70
     8
 71
     3
 72
    28
 73
    24
 74
     0
 42
0.00000001
 43
0.00000001
 40
0.0
 40
0.0
 40
0.0
 40
0.0
 40
0.0354885800467825
 40
0.0709065566173171
 40
0.106276783602027
 40
0.1416222075142357
 40
0.1769658231767915
 40
0.2123306289398104
 40
0.2477395818641003
 40
0.2832155533055974
 40
0.3187812853271119
 40
0.3544593483451536
 40
0.3902721003923975
 40
0.4262416483414653
 40
0.4623898113944903
 40
0.4987380870969328
 40
0.5713087824053381
 40
0.6432625356546762
 40
0.7147746630428998
 40
0.7860237408496605
 40
0.8571903255705786
 40
0.9284556007132937
 40
1.0
 40
1.0
 40
1.0
 40
1.0
 10
77.03047510214971
 20
94.75599279091983
 30
0.0
 10
77.15288272160761
 20
94.79675201098081
 30
0.0
 10
77.39745443419913
 20
94.87818936184466
 30
0.0
 10
77.75983437304254
 20
95.01204359650838
 30
0.0
 10
78.11834865580771
 20
95.15427870858558
 30
0.0
 10
78.47271458333339
 20
95.30574158092561
 30
0.0
 10
78.82300719092676
 20
95.46620547374673
 30
0.0
 10
79.16920582691853
 20
95.63573083275809
 30
0.0
 10
79.51131549747298
 20
95.81430113887946
 30
0.0
 10
79.84933436585631
 20
96.00192044909143
 30
0.0
 10
80.18326248563764
 20
96.19858727178112
 30
0.0
 10
80.5130994122107
 20
96.40430149849361
 30
0.0
 10
80.83884503360096
 20
96.6190628709827
 30
0.0
 10
81.16049865371654
 20
96.84287019025396
 30
0.0
 10
81.47806185569657
 20
97.0757260845874
 30
0.0
 10
81.89499868232787
 20
97.39746399881845
 30
0.0
 10
82.40012280575155
 20
97.817346315282
 30
0.0
 10
82.97786239199466
 20
98.34814691808482
 30
0.0
 10
83.52482442918053
 20
98.90400075855423
 30
0.0
 10
84.04120170716061
 20
99.48476169965213
 30
0.0
 10
84.5261824025394
 20
100.0909198989575
 30
0.0
 10
84.9827557510612
 20
100.7206014763206
 30
0.0
 10
85.25992598913192
 20
101.1594927692869
 30
0.0
 10
85.39878197533979
 20
101.3793673263357
 30
0.0
  0
LINE
  5
271
330
1F
100
AcDbEntity
  8
0
  6
Continuous
 62
     7
370
    15
100
AcDbLine
 10
76.2696058697
 20
105.6290038809
 30
0.0
 11
76.2914609838
 21
105.3164608724
 31
0.0
  0
SPLINE
  5
272
330
1F
100
AcDbEntity
  8
0
  6
Continuous
 62
     7
370
    15
100
AcDbSpline
210
0.0
220
0.0
230
1.0
 70
    24
 71
     3
 72
    10
 73
     6
 74
     0
 42
0.00000001
 43
0.00000001
 40
0.0
 40
0.0
 40
0.0
 40
0.0
 40
0.3250916078301117
 40
0.6583912321074438
 40
1.0
 40
1.0
 40
1.0
 40
1.0
 10
85.39878198348117
 20
101.3812401790548
 30
0.0
 10
85.39878198348116
 20
101.2409990284026
 30
0.0
 10
85.39878198348117
 20
100.9569758738636
 30
0.0
 10
85.39878198348117
 20
100.530067822524
 30
0.0
 10
85.39878198348117
 20
100.2448730499581
 30
0.0
 10
85.39878198348117
 20
100.100520074064
 30
0.0
  0
SPLINE
  5
273
330
1F
100
AcDbEntity
  8
0
  6
Continuous
 62
     7
370
    15
100
AcDbSpline
210
0.0
220
0.0
230
1.0
 70
     8
 71
     3
 72
    42
 73
    38
 74
     0
 42
0.00000001
 43
0.00000001
 40
0.0
 40
0.0
 40
0.0
 40
0.0
 40
0.0359555619997385
 40
0.0714763506956014
 40
0.1065623918729265
 40
0.1412137123201419
 40
0.1754303398792872
 40
0.2092123034997647
 40
0.2425596332956043
 40
0.2754723606064702
 40
0.3079505180627647
 40
0.3399941396551121
 40
0.3716032608086313
 40
0.4027779184623331
 40
0.4335181511541512
 40
0.4638239991120097
 40
0.493695504351517
 40
0.5231327107808456
 40
0.5521356643133941
 40
0.5807044129890468
 40
0.6088390071047007
 40
0.6365394993550106
 40
0.6638059449842856
 40
0.6906384019506218
 40
0.7170369311034743
 40
0.7430015963759912
 40
0.7685324649936368
 40
0.7936296077007428
 40
0.8182930990068911
 40
0.8425230174552372
 40
0.8663194459151574
 40
0.8896824719018827
 40
0.9126121879261949
 40
0.9351086918775977
 40
0.9571720874448755
 40
0.9788024845785068
 40
1.0
 40
1.0
 40
1.0
 40
1.0
 10
85.39878748048235
 20
100.1031791726866
 30
0.0
 10
85.32571911873629
 20
100.0003606737034
 30
0.0
 10
85.18046593512724
 20
99.79596695316098
 30
0.0
 10
84.95510865155728
 20
99.49768824895311
 30
0.0
 10
84.72637908212238
 20
99.20785305374993
 30
0.0
 10
84.49399911640454
 20
98.92686575470307
 30
0.0
 10
84.25848457495599
 20
98.65455444137686
 30
0.0
 10
84.02013171465094
 20
98.39088557719033
 30
0.0
 10
83.77928357294049
 20
98.13577676579499
 30
0.0
 10
83.53625977132225
 20
97.88914669079841
 30
0.0
 10
83.29137483398623
 20
97.65090268576837
 30
0.0
 10
83.04493327015766
 20
97.42094468547505
 30
0.0
 10
82.79723079178233
 20
97.19916485842957
 30
0.0
 10
82.54855394691499
 20
96.98544835947604
 30
0.0
 10
82.29918019542781
 20
96.77967377297801
 30
0.0
 10
82.04937789336647
 20
96.58171362147525
 30
0.0
 10
81.79940632470421
 20
96.39143484089588
 30
0.0
 10
81.54951574271814
 20
96.2086992478787
 30
0.0
 10
81.29994742957143
 20
96.03336399215922
 30
0.0
 10
81.05093377054878
 20
95.86528199559267
 30
0.0
 10
80.80269834260297
 20
95.70430237719214
 30
0.0
 10
80.5554560160643
 20
95.550270864183
 30
0.0
 10
80.30941306859253
 20
95.40303018901206
 30
0.0
 10
80.06476731048002
 20
95.26242047215328
 30
0.0
 10
79.82170822024008
 20
95.12827959123167
 30
0.0
 10
79.58041709023054
 20
95.00044353465209
 30
0.0
 10
79.34106717920791
 20
94.87874674659328
 30
0.0
 10
79.10382387923546
 20
94.76302243881177
 30
0.0
 10
78.86884486619901
 20
94.65310295913753
 30
0.0
 10
78.63628034212678
 20
94.54881989051931
 30
0.0
 10
78.4062729726025
 20
94.45000506680478
 30
0.0
 10
78.17895895712907
 20
94.35648819695975
 30
0.0
 10
77.95446500829713
 20
94.26810674245299
 30
0.0
 10
77.7329201963475
 20
94.18467127055999
 30
0.0
 10
77.51441389434082
 20
94.10609223478085
 30
0.0
 10
77.29914911845373
 20
94.03192153582948
 30
0.0
 10
77.1561970909446
 20
93.98551434392013
 30
0.0
 10
77.08544351863921
 20
93.96254527754547
 30
0.0
  0
LINE
  5
274
330
1F
100
AcDbEntity
  8
0
  6
Continuous
 62
     7
370
    15
100
AcDbLine
 10
85.3987822517
 20
106.2508456356
 30
0.0
 11
85.3987822517
 21
109.7469705104
 31
0.0
  0
ARC
  5
275
330
1F
100
AcDbEntity
  8
0
  6
Continuous
 62
     7
370
    15
100
AcDbCircle
 10
72.3987819835
 20
109.7469705104
 30
0.0
 40
13.00000000000001
100
AcDbArc
 50
0.0
 51
97.9073388765
  0
LINE
  5
276
330
1F
100
AcDbEntity
  8
0
  6
Continuous
 62
     7
370
    15
100
AcDbLine
 10
70.610353581
 20
122.6233647152
 30
0.0
 11
71.7691931965
 21
106.0511859081
 31
0.0
  0
SPLINE
  5
277
330
1F
100
AcDbEntity
  8
0
  6
Continuous
 62
     7
370
    15
100
AcDbSpline
210
0.0
220
0.0
230
1.0
 70
     8
 71
     3
 72
    12
 73
     8
 74
     0
 42
0.00000001
 43
0.00000001
 40
0.0
 40
0.0
 40
0.0
 40
0.0
 40
0.2500000000000001
 40
0.2500000000000001
 40
0.5000000000000001
 40
0.5000000000000001
 40
1.0
 40
1.0
 40
1.0
 40
1.0
 10
67.46306614671441
 20
103.8800870512855
 30
0.0
 10
67.51492987010748
 20
104.0213544729313
 30
0.0
 10
67.54956055623119
 20
104.1659973717493
 30
0.0
 10
67.58740135458201
 20
104.4615956022341
 30
0.0
 10
67.59023516252915
 20
104.6140831390027
 30
0.0
 10
67.55376098712863
 20
105.0615847294742
 30
0.0
 10
67.4704965478019
 20
105.3547502866853
 30
0.0
 10
67.34097380469599
 20
105.6260888869916
 30
0.0
  0
SPLINE
  5
278
330
1F
100
AcDbEntity
  8
0
  6
Continuous
 62
     7
370
    15
100
AcDbSpline
210
0.0
220
0.0
230
1.0
 70
     8
 71
     3
 72
    14
 73
    10
 74
     0
 42
0.00000001
 43
0.00000001
 40
0.0
 40
0.0
 40
0.0
 40
0.0
 40
0.2500000000000001
 40
0.2500000000000001
 40
0.5
 40
0.5
 40
0.75
 40
0.75
 40
1.0
 40
1.0
 40
1.0
 40
1.0
 10
70.6453163250682
 20
122.1233737918762
 30
0.0
 10
70.6453163250682
 20
122.1233737918762
 30
0.0
 10
70.53571058666707
 20
122.1093328973369
 30
0.0
 10
70.09899961933017
 20
122.0355847485114
 30
0.0
 10
69.78380666924512
 20
121.9776079636434
 30
0.0
 10
68.968301398367
 20
121.774372198291
 30
0.0
 10
68.49094887928946
 20
121.634207031511
 30
0.0
 10
67.42104497482067
 20
121.2273749436781
 30
0.0
 10
66.8613089265333
 20
120.972605197224
 30
0.0
 10
66.29020949227984
 20
120.6527186333208
 30
0.0
  0
SPLINE
  5
279
330
1F
100
AcDbEntity
  8
0
  6
Continuous
 62
     7
370
    15
100
AcDbSpline
210
0.0
220
0.0
230
1.0
 70
     8
 71
     3
 72
    14
 73
    10
 74
     0
 42
0.00000001
 43
0.00000001
 40
0.0
 40
0.0
 40
0.0
 40
0.0
 40
0.1573380829981829
 40
0.3146258178011512
 40
0.4721088794770293
 40
0.6296079257364183
 40
0.7849530942623179
 40
0.9403180491330843
 40
0.9999999999999999
 40
0.9999999999999999
 40
0.9999999999999999
 40
0.9999999999999999
 10
67.8674445695444
 20
98.09720729883122
 30
0.0
 10
68.15952371440913
 20
97.99121985624299
 30
0.0
 10
68.74358853879616
 20
97.77927888705402
 30
0.0
 10
69.58483656550537
 20
97.55901462385266
 30
0.0
 10
70.35679274346184
 20
97.40763267923049
 30
0.0
 10
71.03440833848214
 20
97.31660245490869
 30
0.0
 10
71.57850092046843
 20
97.27067377036308
 30
0.0
 10
71.93492910198914
 20
97.25443130266953
 30
0.0
 10
72.05145053841497
 20
97.2522026218282
 30
0.0
 10
72.0837887235186
 20
97.25158409620929
 30
0.0
  0
SPLINE
  5
27A
330
1F
100
AcDbEntity
  8
0
  6
Continuous
 62
     7
370
    15
100
AcDbSpline
210
0.0
220
0.0
230
1.0
 70
     8
 71
     3
 72
    14
 73
    10
 74
     0
 42
0.00000001
 43
0.00000001
 40
0.0
 40
0.0
 40
0.0
 40
0.0
 40
0.25
 40
0.25
 40
0.5
 40
0.5
 40
0.75
 40
0.75
 40
1.0
 40
1.0
 40
1.0
 40
1.0
 10
63.76095069374445
 20
105.2786143519606
 30
0.0
 10
63.68359887085454
 20
105.3405981245719
 30
0.0
 10
63.61218050588941
 20
105.4041232082299
 30
0.0
 10
63.49952556609384
 20
105.5281032003018
 30
0.0
 10
63.45971310688475
 20
105.5887487567481
 30
0.0
 10
63.43499389493525
 20
105.6933338321161
 30
0.0
 10
63.44853898661969
 20
105.7387371674267
 30
0.0
 10
63.50454315281478
 20
105.8257627911292
 30
0.0
 10
63.54554248557499
 20
105.8675937441793
 30
0.0
 10
63.59118202279954
 20
105.9121996574604
 30
0.0
  0
SPLINE
  5
27B
330
1F
100
AcDbEntity
  8
0
  6
Continuous
 62
     7
370
    15
100
AcDbSpline
210
0.0
220
0.0
230
1.0
 70
     8
 71
     3
 72
    16
 73
    12
 74
     0
 42
0.00000001
 43
0.00000001
 40
0.0
 40
0.0
 40
0.0
 40
0.0
 40
0.1671835849168972
 40
0.4075183383677515
 40
0.531582773211838
 40
0.6586949675744932
 40
0.7032808469207489
 40
0.7393601978352148
 40
0.7845358297102628
 40
0.9154587300062466
 40
1.0
 40
1.0
 40
1.0
 40
1.0
 10
66.44700674556337
 20
106.6397347434919
 30
0.0
 10
66.3781927572997
 20
106.4833740039491
 30
0.0
 10
66.2104552239311
 20
106.1022368917372
 30
0.0
 10
65.76846676882668
 20
105.8230227946651
 30
0.0
 10
65.30179877169606
 20
105.6610550057354
 30
0.0
 10
64.98465755789118
 20
105.6020985143157
 30
0.0
 10
64.71996513520392
 20
105.5493063977508
 30
0.0
 10
64.54977166043592
 20
105.5035090946186
 30
0.0
 10
64.29217107061312
 20
105.4144555351696
 30
0.0
 10
64.04027640095126
 20
105.3220797939045
 30
0.0
 10
63.83966424878004
 20
105.2908628030704
 30
0.0
 10
63.76095043711506
 20
105.278614251272
 30
0.0
  0
ARC
  5
27C
330
1F
100
AcDbEntity
  8
0
  6
Continuous
 62
     7
370
    15
100
AcDbCircle
 10
63.6699806108
 20
108.3638214503
 30
0.0
 40
2.223310723207587
100
AcDbArc
 50
260.9406578307
 51
325.6446838961
  0
SPLINE
  5
27D
330
1F
100
AcDbEntity
  8
0
  6
Continuous
 62
     7
370
    15
100
AcDbSpline
210
0.0
220
0.0
230
1.0
 70
     8
 71
     3
 72
    14
 73
    10
 74
     0
 42
0.00000001
 43
0.00000001
 40
0.0
 40
0.0
 40
0.0
 40
0.0
 40
0.149884141433466
 40
0.3007706027369702
 40
0.3637229142209069
 40
0.4267323633198783
 40
0.5791971596170735
 40
0.9216882524082428
 40
1.0
 40
1.0
 40
1.0
 40
1.0
 10
63.59118243895615
 20
105.9121997508715
 30
0.0
 10
63.71343662935809
 20
105.8755875429159
 30
0.0
 10
63.95876256032483
 20
105.8021182902716
 30
0.0
 10
64.27488149274517
 20
105.7654871697505
 30
0.0
 10
64.54331354854628
 20
105.8156610479565
 30
0.0
 10
64.78239769606056
 20
105.9300450691725
 30
0.0
 10
65.1251159579814
 20
106.2458194770768
 30
0.0
 10
65.42609001129007
 20
106.6345464718805
 30
0.0
 10
65.5484927695414
 20
107.0088353570548
 30
0.0
 10
65.57127202145898
 20
107.0784908201109
 30
0.0
  0
ELLIPSE
  5
27E
330
1F
100
AcDbEntity
  8
0
  6
Continuous
 62
     7
370
    15
100
AcDbEllipse
 10
65.3474951236
 20
104.9230790145
 30
0.0
 11
-1.68920156981266
 21
1.70977070453354
 31
0.0
210
0.0
220
0.0
230
1.0
 40
0.8581657892
 41
4.32815420217632
 42
9.80836966381831
  0
ARC
  5
27F
330
1F
100
AcDbEntity
  8
0
  6
Continuous
 62
     7
370
    15
100
AcDbCircle
 10
72.3987819835
 20
109.7469705104
 30
0.0
 40
12.50000000000002
100
AcDbArc
 50
119.2542395221
 51
248.7457604779
  0
LWPOLYLINE
  5
280
330
1F
100
AcDbEntity
  8
0
  6
Continuous
 62
     7
370
    15
100
AcDbPolyline
 90
        8
 70
   128
 43
0.0
 10
63.591182439
 20
105.9121997509
 10
63.6364158451
 20
105.7433837972
 10
63.6756748169
 20
105.5968695268
 10
63.7083903163
 20
105.4747717402
 10
63.7340920254
 20
105.3788529656
 10
63.7524074151
 20
105.310497614
 10
63.7630729213
 20
105.2706933528
 10
63.7648675799
 20
105.2639966778
  0
SPLINE
  5
281
330
1F
100
AcDbEntity
  8
0
  6
Continuous
 62
     7
370
    15
100
AcDbSpline
210
0.0
220
0.0
230
1.0
 70
    24
 71
     3
 72
    10
 73
     6
 74
     0
 42
0.00000001
 43
0.00000001
 40
0.0
 40
0.0
 40
0.0
 40
0.0
 40
0.5
 40
0.5
 40
1.0
 40
1.0
 40
1.0
 40
1.0
 10
67.89878198348144
 20
128.6178475435821
 30
0.0
 10
67.89878198348146
 20
128.7762819864699
 30
0.0
 10
67.89878198348144
 20
128.9353026812719
 30
0.0
 10
67.89878198348146
 20
129.1653105055275
 30
0.0
 10
67.89878198348146
 20
129.2341457803442
 30
0.0
 10
67.89878198348146
 20
129.2341457803442
 30
0.0
  0
SPLINE
  5
282
330
1F
100
AcDbEntity
  8
0
  6
Continuous
 62
     7
370
    15
100
AcDbSpline
210
0.0
220
0.0
230
1.0
 70
    24
 71
     3
 72
    12
 73
     8
 74
     0
 42
0.00000001
 43
0.00000001
 40
0.0
 40
0.0
 40
0.0
 40
0.0
 40
0.25
 40
0.25
 40
0.5
 40
0.5
 40
1.0
 40
1.0
 40
1.0
 40
1.0
 10
60.54878198348144
 20
125.8583795115166
 30
0.0
 10
60.54878198348144
 20
125.8583795115166
 30
0.0
 10
60.54878198348144
 20
125.8327548789119
 30
0.0
 10
60.54878198348144
 20
125.7442115059801
 30
0.0
 10
60.54878198348144
 20
125.6813290228654
 30
0.0
 10
60.54878198348144
 20
125.4639678349318
 30
0.0
 10
60.54878198348143
 20
125.2853208249205
 30
0.0
 10
60.54878198348144
 20
125.1072276697448
 30
0.0
  0
ARC
  5
283
330
1F
100
AcDbEntity
  8
0
  6
Continuous
 62
     7
370
    15
100
AcDbCircle
 10
72.3987819835
 20
109.7469705104
 30
0.0
 40
20.00000000000002
100
AcDbArc
 50
103.0028781629
 51
126.3346172154
  0
SPLINE
  5
284
330
1F
100
AcDbEntity
  8
0
  6
Continuous
 62
     7
370
    15
100
AcDbSpline
210
0.0
220
0.0
230
1.0
 70
    24
 71
     3
 72
    10
 73
     6
 74
     0
 42
0.00000001
 43
0.00000001
 40
0.0
 40
0.0
 40
0.0
 40
0.0
 40
0.5
 40
0.5
 40
1.0
 40
1.0
 40
1.0
 40
1.0
 10
66.89878198348146
 20
91.1429386893526
 30
0.0
 10
66.89878198348146
 20
90.98330652044937
 30
0.0
 10
66.89878198348146
 20
90.82225688668532
 30
0.0
 10
66.89878198348146
 20
90.58926600300873
 30
0.0
 10
66.89878198348146
 20
90.51808598740975
 30
0.0
 10
66.89878198348146
 20
90.51808598740973
 30
0.0
  0
ARC
  5
285
330
1F
100
AcDbEntity
  8
0
  6
Continuous
 62
     7
370
    15
100
AcDbCircle
 10
72.3987819835
 20
109.7469705104
 30
0.0
 40
20.00000000000002
100
AcDbArc
 50
143.6653827846
 51
254.0379858372
  0
SPLINE
  5
286
330
1F
100
AcDbEntity
  8
0
  6
Continuous
 62
     7
370
    15
100
AcDbSpline
210
0.0
220
0.0
230
1.0
 70
    24
 71
     3
 72
    12
 73
     8
 74
     0
 42
0.00000001
 43
0.00000001
 40
0.0
 40
0.0
 40
0.0
 40
0.0
 40
0.2499999999999994
 40
0.2499999999999994
 40
0.4999999999999989
 40
0.4999999999999989
 40
1.0
 40
1.0
 40
1.0
 40
1.0
 10
56.28737298240401
 20
121.5969705104392
 30
0.0
 10
56.287372982404
 20
121.5969705104392
 30
0.0
 10
56.31285779799352
 20
121.5969705104392
 30
0.0
 10
56.40179846080587
 20
121.5969705104392
 30
0.0
 10
56.46483710470839
 20
121.5969705104392
 30
0.0
 10
56.68225501658532
 20
121.5969705104392
 30
0.0
 10
56.86182718419903
 20
121.5969705104392
 30
0.0
 10
57.03852482417572
 20
121.5969705104392
 30
0.0
  0
SPLINE
  5
287
330
1F
100
AcDbEntity
  8
0
  6
Continuous
 62
     7
370
    15
100
AcDbSpline
210
0.0
220
0.0
230
1.0
 70
    24
 71
     3
 72
    10
 73
     6
 74
     0
 42
0.00000001
 43
0.00000001
 40
0.0
 40
0.0
 40
0.0
 40
0.0
 40
0.5
 40
0.5
 40
1.0
 40
1.0
 40
1.0
 40
1.0
 10
76.89878198348146
 20
129.2341457803442
 30
0.0
 10
76.89878198348144
 20
129.2341457803442
 30
0.0
 10
76.89878198348146
 20
129.1655603778384
 30
0.0
 10
76.89878198348144
 20
128.9357871085188
 30
0.0
 10
76.89878198348144
 20
128.7772889068511
 30
0.0
 10
76.89878198348144
 20
128.6178475435821
 30
0.0
  0
ARC
  5
288
330
1F
100
AcDbEntity
  8
0
  6
Continuous
 62
     7
370
    15
100
AcDbCircle
 10
72.3987819835
 20
109.7469705104
 30
0.0
 40
20.00000000000001
100
AcDbArc
 50
285.9620141628
 51
76.9971218371
  0
SPLINE
  5
289
330
1F
100
AcDbEntity
  8
0
  6
Continuous
 62
     7
370
    15
100
AcDbSpline
210
0.0
220
0.0
230
1.0
 70
    24
 71
     3
 72
    12
 73
     8
 74
     0
 42
0.00000001
 43
0.00000001
 40
0.0
 40
0.0
 40
0.0
 40
0.0
 40
0.2499999999999962
 40
0.2499999999999962
 40
0.4999999999999925
 40
0.4999999999999925
 40
1.0
 40
1.0
 40
1.0
 40
1.0
 10
77.89878198348147
 20
90.51808598740973
 30
0.0
 10
77.89878198348147
 20
90.51808598740973
 30
0.0
 10
77.89878198348147
 20
90.53506158376784
 30
0.0
 10
77.89878198348147
 20
90.59953708122704
 30
0.0
 10
77.89878198348147
 20
90.64665071302164
 30
0.0
 10
77.89878198348147
 20
90.82326062700912
 30
0.0
 10
77.89878198348147
 20
90.98310950281727
 30
0.0
 10
77.89878198348147
 20
91.1429386893523
 30
0.0
  0
LINE
  5
28A
330
1F
100
AcDbEntity
  8
0
  6
Continuous
 62
     7
370
    15
100
AcDbLine
 10
76.8987817898
 20
126.6469697415
 30
0.0
 11
67.8987821772
 21
126.6469697415
 31
0.0
  0
LINE
  5
28B
330
1F
100
AcDbEntity
  8
0
  6
Continuous
 62
     7
370
    15
100
AcDbLine
 10
77.8987819537
 20
92.8469712793
 30
0.0
 11
72.9132374142
 21
92.8469712793
 31
0.0
  0
LINE
  5
28C
330
1F
100
AcDbEntity
  8
0
  6
Continuous
 62
     7
370
    15
100
AcDbLine
 10
72.3917893021
 20
92.8469712793
 30
0.0
 11
66.8987820133
 21
92.8469712793
 31
0.0
  0
LINE
  5
28D
330
1F
100
AcDbEntity
  8
0
  6
Continuous
 62
     7
370
    15
100
AcDbLine
 10
77.8987819537
 20
91.1429378151
 30
0.0
 11
77.8987819537
 21
92.8469712793
 31
0.0
  0
LINE
  5
28E
330
1F
100
AcDbEntity
  8
0
  6
Continuous
 62
     7
370
    15
100
AcDbLine
 10
76.8987817898
 20
128.6178476125
 30
0.0
 11
76.8987817898
 21
126.6469697415
 31
0.0
  0
LINE
  5
28F
330
1F
100
AcDbEntity
  8
0
  6
Continuous
 62
     7
370
    15
100
AcDbLine
 10
67.8987821772
 20
126.6469697415
 30
0.0
 11
67.8987821772
 21
128.6178476125
 31
0.0
  0
LINE
  5
290
330
1F
100
AcDbEntity
  8
0
  6
Continuous
 62
     7
370
    15
100
AcDbLine
 10
57.0385243952
 20
121.5969708696
 30
0.0
 11
60.5487816244
 21
121.5969708696
 31
0.0
  0
LINE
  5
291
330
1F
100
AcDbEntity
  8
0
  6
Continuous
 62
     7
370
    15
100
AcDbLine
 10
66.8987820133
 20
92.8469712793
 30
0.0
 11
66.8987820133
 21
91.1429378151
 31
0.0
  0
LINE
  5
292
330
1F
100
AcDbEntity
  8
0
  6
Continuous
 62
     7
370
    15
100
AcDbLine
 10
60.5487816244
 20
125.1072280988
 30
0.0
 11
60.5487816244
 21
121.5969708696
 31
0.0
  0
SPLINE
  5
293
330
1F
100
AcDbEntity
  8
0
  6
Continuous
 62
     7
370
    15
100
AcDbSpline
210
0.0
220
0.0
230
1.0
 70
     8
 71
     3
 72
    20
 73
    16
 74
     0
 42
0.00000001
 43
0.00000001
 40
0.0
 40
0.0
 40
0.0
 40
0.0
 40
0.2500000000000005
 40
0.2500000000000005
 40
0.3750000000000004
 40
0.3750000000000004
 40
0.5000000000000003
 40
0.5000000000000003
 40
0.6250000000000002
 40
0.6250000000000002
 40
0.7500000000000001
 40
0.7500000000000001
 40
0.8750000000000001
 40
0.8750000000000001
 40
1.0
 40
1.0
 40
1.0
 40
1.0
 10
56.28737298240402
 20
121.5969705104392
 30
0.0
 10
56.71076153082998
 20
122.1726149045373
 30
0.0
 10
57.14803733778176
 20
122.7022399495063
 30
0.0
 10
57.80445486833641
 20
123.4258473165929
 30
0.0
 10
58.02449050788757
 20
123.6564068224212
 30
0.0
 10
58.45448805218123
 20
124.0874496063382
 30
0.0
 10
58.66240867600853
 20
124.2860417593921
 30
0.0
 10
59.05891564591339
 20
124.6506784557863
 30
0.0
 10
59.24753161684188
 20
124.8167415031969
 30
0.0
 10
59.5991816760428
 20
125.1165383622045
 30
0.0
 10
59.75891845659101
 20
125.2474767733393
 30
0.0
 10
60.03751527722713
 20
125.4705492952283
 30
0.0
 10
60.15729966516169
 20
125.5634587530376
 30
0.0
 10
60.3531544907303
 20
125.7131237097501
 30
0.0
 10
60.42899739300293
 20
125.7697063118165
 30
0.0
 10
60.47853323971553
 20
125.8064745465776
 30
0.0
  0
SPLINE
  5
294
330
1F
100
AcDbEntity
  8
0
  6
Continuous
 62
     7
370
    15
100
AcDbSpline
210
0.0
220
0.0
230
1.0
 70
     8
 71
     3
 72
     8
 73
     4
 74
     0
 42
0.00000001
 43
0.00000001
 40
0.0
 40
0.0
 40
0.0
 40
0.0
 40
1.0
 40
1.0
 40
1.0
 40
1.0
 10
60.47853323971564
 20
125.8064745465776
 30
0.0
 10
60.52446709650694
 20
125.097845639884
 30
0.0
 10
60.54604182841382
 20
124.3829460672423
 30
0.0
 10
60.54853635605162
 20
123.6608492163698
 30
0.0
  0
LINE
  5
295
330
1F
100
AcDbEntity
  8
0
  6
Continuous
 62
     7
370
    15
100
AcDbLine
 10
60.5485366865
 20
123.6608496815
 30
0.0
 11
60.5485366865
 21
123.2626021787
 31
0.0
  0
LINE
  5
296
330
1F
100
AcDbEntity
  8
0
  6
Continuous
 62
     7
370
    15
100
AcDbLine
 10
60.4785328939
 20
125.8064753323
 30
0.0
 11
60.5487816244
 21
125.8583798021
 31
0.0
  0
SPLINE
  5
297
330
1F
100
AcDbEntity
  8
0
  6
Continuous
 62
     7
370
    15
100
AcDbSpline
210
0.0
220
0.0
230
1.0
 70
     8
 71
     3
 72
    22
 73
    18
 74
     0
 42
0.00000001
 43
0.00000001
 40
0.0
 40
0.0
 40
0.0
 40
0.0
 40
0.1250000000000001
 40
0.1250000000000001
 40
0.2500000000000001
 40
0.2500000000000001
 40
0.3750000000000001
 40
0.3750000000000001
 40
0.5000000000000001
 40
0.5000000000000001
 40
0.6250000000000001
 40
0.6250000000000001
 40
0.7500000000000001
 40
0.7500000000000001
 40
0.8750000000000001
 40
0.8750000000000001
 40
1.0
 40
1.0
 40
1.0
 40
1.0
 10
73.3987819834815
 20
89.77198615500096
 30
0.0
 10
73.69751971187915
 20
89.78694174761027
 30
0.0
 10
73.9907250367136
 20
89.80832994425668
 30
0.0
 10
74.56668011734118
 20
89.86270819087197
 30
0.0
 10
74.85242241115655
 20
89.89615435448037
 30
0.0
 10
75.39595155215024
 20
89.9709186298781
 30
0.0
 10
75.65344474037185
 20
90.01201711883904
 30
0.0
 10
76.14064973763713
 20
90.09857004780281
 30
0.0
 10
76.37078935982628
 20
90.14422094690069
 30
0.0
 10
76.78399501602976
 20
90.23250050206553
 30
0.0
 10
76.96983075672564
 20
90.2756018520728
 30
0.0
 10
77.29892733690907
 20
90.35580603192805
 30
0.0
 10
77.43888719372312
 20
90.39210087931762
 30
0.0
 10
77.66457355495277
 20
90.45228009846733
 30
0.0
 10
77.7518449632915
 20
90.47656743589842
 30
0.0
 10
77.86924517664237
 20
90.50956553020978
 30
0.0
 10
77.89878198348148
 20
90.51808598740972
 30
0.0
 10
77.89878198348147
 20
90.51808598740972
 30
0.0
  0
SPLINE
  5
298
330
1F
100
AcDbEntity
  8
0
  6
Continuous
 62
     7
370
    15
100
AcDbSpline
210
0.0
220
0.0
230
1.0
 70
     8
 71
     3
 72
    22
 73
    18
 74
     0
 42
0.00000001
 43
0.00000001
 40
0.0
 40
0.0
 40
0.0
 40
0.0
 40
0.1250000000000001
 40
0.1250000000000001
 40
0.2500000000000002
 40
0.2500000000000002
 40
0.3750000000000003
 40
0.3750000000000003
 40
0.5000000000000004
 40
0.5000000000000004
 40
0.6250000000000003
 40
0.6250000000000003
 40
0.7500000000000002
 40
0.7500000000000002
 40
0.8750000000000001
 40
0.8750000000000001
 40
1.0
 40
1.0
 40
1.0
 40
1.0
 10
66.89878198348147
 20
90.51808598740972
 30
0.0
 10
66.89878198348147
 20
90.5180859874097
 30
0.0
 10
66.9283078819014
 20
90.50957188634335
 30
0.0
 10
67.04371271518805
 20
90.47712811746145
 30
0.0
 10
67.13109552025391
 20
90.45279422875943
 30
0.0
 10
67.35776893956151
 20
90.39233420400258
 30
0.0
 10
67.49624478589408
 20
90.35642078322411
 30
0.0
 10
67.82305528305787
 20
90.27671075715496
 30
0.0
 10
68.01210011903784
 20
90.2328324559656
 30
0.0
 10
68.42496840151358
 20
90.14458883359544
 30
0.0
 10
68.65044029276488
 20
90.09978049213447
 30
0.0
 10
69.14129589731257
 20
90.0124594842153
 30
0.0
 10
69.40013605525465
 20
89.97116869563963
 30
0.0
 10
69.93988888105048
 20
89.8968304723458
 30
0.0
 10
70.22399196987953
 20
89.86342034661114
 30
0.0
 10
70.80544510502145
 20
89.808400945085
 30
0.0
 10
71.10009557064974
 20
89.78693917861872
 30
0.0
 10
71.3987819834815
 20
89.77198615500095
 30
0.0
  0
SPLINE
  5
299
330
1F
100
AcDbEntity
  8
0
  6
Continuous
 62
     7
370
    15
100
AcDbSpline
210
0.0
220
0.0
230
1.0
 70
     8
 71
     3
 72
    38
 73
    34
 74
     0
 42
0.00000001
 43
0.00000001
 40
0.0
 40
0.0
 40
0.0
 40
0.0
 40
0.0625
 40
0.0625
 40
0.125
 40
0.125
 40
0.1875
 40
0.1875
 40
0.25
 40
0.25
 40
0.3125
 40
0.3125
 40
0.375
 40
0.375
 40
0.4375
 40
0.4375
 40
0.5
 40
0.5
 40
0.5625
 40
0.5625
 40
0.625
 40
0.625
 40
0.6875
 40
0.6875
 40
0.75
 40
0.75
 40
0.8125
 40
0.8125
 40
0.875
 40
0.875
 40
0.9375
 40
0.9375
 40
1.0
 40
1.0
 40
1.0
 40
1.0
 10
67.89878198348147
 20
129.2341457803442
 30
0.0
 10
67.89878198348147
 20
129.2341457803442
 30
0.0
 10
67.92814240605298
 20
129.2409913476004
 30
0.0
 10
68.0429959965603
 20
129.266975507034
 30
0.0
 10
68.12994807930482
 20
129.2864284258569
 30
0.0
 10
68.35606096318945
 20
129.3344605303963
 30
0.0
 10
68.49428628766316
 20
129.3628445473755
 30
0.0
 10
68.82069112290041
 20
129.4250005608544
 30
0.0
 10
69.0100128972257
 20
129.4588987365312
 30
0.0
 10
69.42358195074243
 20
129.5255461688569
 30
0.0
 10
69.64942804066612
 20
129.5586435862699
 30
0.0
 10
70.14085852962886
 20
129.6206495569321
 30
0.0
 10
70.40121598477917
 20
129.6488155261798
 30
0.0
 10
70.94216079633733
 20
129.6957037952092
 30
0.0
 10
71.22670463824964
 20
129.7147157825292
 30
0.0
 10
71.807917812877
 20
129.7403568190707
 30
0.0
 10
72.10047942073798
 20
129.7469139352761
 30
0.0
 10
72.6894494113477
 20
129.7470263569111
 30
0.0
 10
72.98868054469197
 20
129.7403608336791
 30
0.0
 10
73.56652288615216
 20
129.7149453229777
 30
0.0
 10
73.84749311929312
 20
129.696314429576
 30
0.0
 10
74.39349791889144
 20
129.6491360985365
 30
0.0
 10
74.65551021861484
 20
129.620754445283
 30
0.0
 10
75.14201205680737
 20
129.5594614941823
 30
0.0
 10
75.37038164804036
 20
129.5261099109204
 30
0.0
 10
75.78812834693038
 20
129.4588220525611
 30
0.0
 10
75.97367998790052
 20
129.4255787564117
 30
0.0
 10
76.29960669938855
 20
129.3635727844372
 30
0.0
 10
76.44102858079913
 20
129.3345577269665
 30
0.0
 10
76.66690572700293
 20
129.2865828461172
 30
0.0
 10
76.75254649546048
 20
129.2674286087767
 30
0.0
 10
76.86877137864644
 20
129.2411425780555
 30
0.0
 10
76.89878198348147
 20
129.2341457803442
 30
0.0
 10
76.89878198348147
 20
129.2341457803442
 30
0.0
  0
ARC
  5
29A
330
1F
100
AcDbEntity
  8
0
  6
Continuous
 62
     7
370
    15
100
AcDbCircle
 10
72.3987819835
 20
109.7469705104
 30
0.0
 40
20.00000000000002
100
AcDbArc
 50
267.1340160174
 51
272.8659839826
  0
CIRCLE
  5
29B
330
1F
100
AcDbEntity
  8
VERMASSUNG
  6
CENTERX2
100
AcDbCircle
 10
72.3987819835
 20
108.7683642138
 30
0.0
 40
16.00000000000002
  0
DIMENSION
  5
29C
330
1F
100
AcDbEntity
  8
VERMASSUNG
100
AcDbDimension
  2
*D6
 10
46.7463629032
 20
124.7683642138
 30
0.0
 11
46.7463629032
 21
108.7683642138
 31
0.0
 70
   160
  1
%%c<>
 71
     2
 42
-1.0
  3
SLDDIMSTYLE2
100
AcDbAlignedDimension
 13
72.3987819835
 23
92.7683642138
 33
0.0
 14
72.3987819835
 24
124.7683642138
 34
0.0
 50
90.0
100
AcDbRotatedDimension
  0
INSERT
  5
2B3
330
1F
100
AcDbEntity
  8
VERMASSUNG
100
AcDbBlockReference
  2
SW_CENTERMARKSYMBOL_0
 10
72.3987819835
 20
109.7469705104
 30
0.0
  0
OLE2FRAME
  5
2B4
330
1F
100
AcDbEntity
  8
0
100
AcDbOle2Frame
 70
     2
  3
Bitmap Image
 10
13.8511154363
 20
38.264191557
 30
0.0
 11
51.6290888628
 21
31.9806341108
 31
0.0
 71
     2
 72
     0
 73
     1
 90
    12928
310
80552BED0767C5B32B40DDAF6807D121434000000000000000006FFBDDFB85D0
310
4940DDAF6807D121434000000000000000006FFBDDFB85D04940416F4BD60AFB
310
3F4000000000000000002BED0767C5B32B40416F4BD60AFB3F40000000000000
310
0000000000000100000000010000010000000100000000000100000000320000
310
D0CF11E0A1B11AE1000000000000000000000000000000003E000300FEFF0900
310
0600000000000000000000000100000001000000000000000010000002000000
310
01000000FEFFFFFF0000000000000000FFFFFFFFFFFFFFFFFFFFFFFFFFFFFFFF
310
FFFFFFFFFFFFFFFFFFFFFFFFFFFFFFFFFFFFFFFFFFFFFFFFFFFFFFFFFFFFFFFF
310
FFFFFFFFFFFFFFFFFFFFFFFFFFFFFFFFFFFFFFFFFFFFFFFFFFFFFFFFFFFFFFFF
310
FFFFFFFFFFFFFFFFFFFFFFFFFFFFFFFFFFFFFFFFFFFFFFFFFFFFFFFFFFFFFFFF
310
FFFFFFFFFFFFFFFFFFFFFFFFFFFFFFFFFFFFFFFFFFFFFFFFFFFFFFFFFFFFFFFF
310
FFFFFFFFFFFFFFFFFFFFFFFFFFFFFFFFFFFFFFFFFFFFFFFFFFFFFFFFFFFFFFFF
310
FFFFFFFFFFFFFFFFFFFFFFFFFFFFFFFFFFFFFFFFFFFFFFFFFFFFFFFFFFFFFFFF
310
FFFFFFFFFFFFFFFFFFFFFFFFFFFFFFFFFFFFFFFFFFFFFFFFFFFFFFFFFFFFFFFF
310
FFFFFFFFFFFFFFFFFFFFFFFFFFFFFFFFFFFFFFFFFFFFFFFFFFFFFFFFFFFFFFFF
310
FFFFFFFFFFFFFFFFFFFFFFFFFFFFFFFFFFFFFFFFFFFFFFFFFFFFFFFFFFFFFFFF
310
FFFFFFFFFFFFFFFFFFFFFFFFFFFFFFFFFFFFFFFFFFFFFFFFFFFFFFFFFFFFFFFF
310
FFFFFFFFFFFFFFFFFFFFFFFFFFFFFFFFFFFFFFFFFFFFFFFFFFFFFFFFFFFFFFFF
310
FFFFFFFFFFFFFFFFFFFFFFFFFFFFFFFFFFFFFFFFFFFFFFFFFFFFFFFFFFFFFFFF
310
FFFFFFFFFFFFFFFFFFFFFFFFFFFFFFFFFFFFFFFFFFFFFFFFFFFFFFFFFFFFFFFF
310
FDFFFFFFFEFFFFFFFEFFFFFFFEFFFFFF05000000060000000700000008000000
310
090000000A0000000B0000000C0000000D0000000E0000000F00000010000000
310
11000000120000001300000014000000150000001600000017000000FEFFFFFF
310
FFFFFFFFFFFFFFFFFFFFFFFFFFFFFFFFFFFFFFFFFFFFFFFFFFFFFFFFFFFFFFFF
310
FFFFFFFFFFFFFFFFFFFFFFFFFFFFFFFFFFFFFFFFFFFFFFFFFFFFFFFFFFFFFFFF
310
FFFFFFFFFFFFFFFFFFFFFFFFFFFFFFFFFFFFFFFFFFFFFFFFFFFFFFFFFFFFFFFF
310
FFFFFFFFFFFFFFFFFFFFFFFFFFFFFFFFFFFFFFFFFFFFFFFFFFFFFFFFFFFFFFFF
310
FFFFFFFFFFFFFFFFFFFFFFFFFFFFFFFFFFFFFFFFFFFFFFFFFFFFFFFFFFFFFFFF
310
FFFFFFFFFFFFFFFFFFFFFFFFFFFFFFFFFFFFFFFFFFFFFFFFFFFFFFFFFFFFFFFF
310
FFFFFFFFFFFFFFFFFFFFFFFFFFFFFFFFFFFFFFFFFFFFFFFFFFFFFFFFFFFFFFFF
310
FFFFFFFFFFFFFFFFFFFFFFFFFFFFFFFFFFFFFFFFFFFFFFFFFFFFFFFFFFFFFFFF
310
FFFFFFFFFFFFFFFFFFFFFFFFFFFFFFFFFFFFFFFFFFFFFFFFFFFFFFFFFFFFFFFF
310
FFFFFFFFFFFFFFFFFFFFFFFFFFFFFFFFFFFFFFFFFFFFFFFFFFFFFFFFFFFFFFFF
310
FFFFFFFFFFFFFFFFFFFFFFFFFFFFFFFFFFFFFFFFFFFFFFFFFFFFFFFFFFFFFFFF
310
FFFFFFFFFFFFFFFFFFFFFFFFFFFFFFFFFFFFFFFFFFFFFFFFFFFFFFFFFFFFFFFF
310
FFFFFFFFFFFFFFFFFFFFFFFFFFFFFFFFFFFFFFFFFFFFFFFFFFFFFFFFFFFFFFFF
310
52006F006F007400200045006E00740072007900000000000000000000000000
310
0000000000000000000000000000000000000000000000000000000000000000
310
16000500FFFFFFFFFFFFFFFF020000000A00030000000000C000000000000046
310
00000000000000000000000020D0DF970AD4CB0103000000C000000000000000
310
01004F006C006500000000000000000000000000000000000000000000000000
310
0000000000000000000000000000000000000000000000000000000000000000
310
0A000200FFFFFFFFFFFFFFFFFFFFFFFF00000000000000000000000000000000
310
0000000000000000000000000000000000000000000000001400000000000000
310
010043006F006D0070004F0062006A0000000000000000000000000000000000
310
0000000000000000000000000000000000000000000000000000000000000000
310
120002010100000003000000FFFFFFFF00000000000000000000000000000000
310
0000000000000000000000000000000000000000010000004D00000000000000
310
01004F006C006500310030004E00610074006900760065000000000000000000
310
0000000000000000000000000000000000000000000000000000000000000000
310
1A000200FFFFFFFFFFFFFFFFFFFFFFFF00000000000000000000000000000000
310
0000000000000000000000000000000000000000040000002426000000000000
310
FEFFFFFF02000000FEFFFFFFFFFFFFFFFFFFFFFFFFFFFFFFFFFFFFFFFFFFFFFF
310
FFFFFFFFFFFFFFFFFFFFFFFFFFFFFFFFFFFFFFFFFFFFFFFFFFFFFFFFFFFFFFFF
310
FFFFFFFFFFFFFFFFFFFFFFFFFFFFFFFFFFFFFFFFFFFFFFFFFFFFFFFFFFFFFFFF
310
FFFFFFFFFFFFFFFFFFFFFFFFFFFFFFFFFFFFFFFFFFFFFFFFFFFFFFFFFFFFFFFF
310
FFFFFFFFFFFFFFFFFFFFFFFFFFFFFFFFFFFFFFFFFFFFFFFFFFFFFFFFFFFFFFFF
310
FFFFFFFFFFFFFFFFFFFFFFFFFFFFFFFFFFFFFFFFFFFFFFFFFFFFFFFFFFFFFFFF
310
FFFFFFFFFFFFFFFFFFFFFFFFFFFFFFFFFFFFFFFFFFFFFFFFFFFFFFFFFFFFFFFF
310
FFFFFFFFFFFFFFFFFFFFFFFFFFFFFFFFFFFFFFFFFFFFFFFFFFFFFFFFFFFFFFFF
310
FFFFFFFFFFFFFFFFFFFFFFFFFFFFFFFFFFFFFFFFFFFFFFFFFFFFFFFFFFFFFFFF
310
FFFFFFFFFFFFFFFFFFFFFFFFFFFFFFFFFFFFFFFFFFFFFFFFFFFFFFFFFFFFFFFF
310
FFFFFFFFFFFFFFFFFFFFFFFFFFFFFFFFFFFFFFFFFFFFFFFFFFFFFFFFFFFFFFFF
310
FFFFFFFFFFFFFFFFFFFFFFFFFFFFFFFFFFFFFFFFFFFFFFFFFFFFFFFFFFFFFFFF
310
FFFFFFFFFFFFFFFFFFFFFFFFFFFFFFFFFFFFFFFFFFFFFFFFFFFFFFFFFFFFFFFF
310
FFFFFFFFFFFFFFFFFFFFFFFFFFFFFFFFFFFFFFFFFFFFFFFFFFFFFFFFFFFFFFFF
310
FFFFFFFFFFFFFFFFFFFFFFFFFFFFFFFFFFFFFFFFFFFFFFFFFFFFFFFFFFFFFFFF
310
FFFFFFFFFFFFFFFFFFFFFFFFFFFFFFFFFFFFFFFFFFFFFFFFFFFFFFFFFFFFFFFF
310
0100000200000000000000000000000000000000610072004E0082005C003104
310
A807250000000000A807250000000000680061007200650064005C003B004300
310
0100FEFF030A0000FFFFFFFF0A00030000000000C00000000000004607000000
310
5042727573680007000000504272757368000700000050427275736800F439B2
310
71000000000000000000000000004100540049002E004100430045005C004300
310
6F00720065002D005300740061007400690063003B0043003A005C0050007200
310
6F006700720061006D002000460069006C006500730020002800780038003600
310
29005C0043006F006D006D006F006E002000460069006C00650073005C004100
310
750074006F006400650073006B0020005300680061007200650064005C003B00
310
43003A005C00500072006F006700720061006D002000460069006C0065007300
310
5C004E006F0072006D0061006E005C004E0070006D005C00420069006E000000
310
43003A005C00500072006F006700720061006D002000460069006C0065007300
310
5C0053006F006C006900640057006F0072006B007300200043006F0072007000
310
5C0053006F006C006900640057006F0072006B00730020002800320029005C00
310
730065007400750070005C0069003300380036005C0073007700610063007400
310
770069007A002E006500780065000000220043003A005C00500072006F006700
310
20260000424D0E260000000000003E00000028000000B40200006E0000000100
310
01000000000000000000130B0000130B00000200000002000000000000FFFFFF
310
FFFFFFFFFFFFFFFFFFFFFFFFFFFFFFFFFFFFFFFFFFFFFFFFFFFFFFFFFFFFFFFF
310
FFFFFFFFFFFFFFFFFFFFFFFFFFFFFFFFFFFFFFFFFFFFFFFFFFFFFFFFFFFFFFFF
310
FFFFFFFFFFFFFFFFFFFFFFFFFFFFFFFFFFFFFFFFFFFFFFFFF000FFFFFFFFFFFF
310
FFFFFFFFFFFFFFFFFFFFFFFFFFFFFFFFFFFFFFFFFFFFFFFFFFFFFFFFFFFFFFFF
310
FFFFFFFFFFFFFFFFFFFFFFFFFFFFFFFFFFFFFFFFFFFFFFFFFFFFFFFFFFFFFFFF
310
FFFFFFFFFFFFFFFFFFFFFFFFFFFFFFFFF000FFFFFFFFFFFFFFFFFFFFFFFFFFFF
310
FFFFFFFFFFFFFFFFFFFFFFFFFFFFFFFFFFFFFFFFFFFFFFFFFFFFFFFFFFFFFFFF
310
FFFFFFFFFFFFFFFFFFFFFFFFFFFFFFFFFFFFFFFFFFFFFFFFFFFFFFFFFFFFFFFF
310
FFFFFFFFFFFFFFFFF000FFFFFFFFFFFFFFFFFFFFFFFFFFFFFFFFFFFFFFFFFFFF
310
FFFFFFFFFFFFFFFFFFFFFFFFFFFFFFFFFFFFFFFFFFFFFFFFFFFFFFFFFFFFFFFF
310
FFFFFFFFFFFFFFFFFFFFFFFFFFFFFFFFFFFFFFFFFFFFFFFFFFFFFFFFFFFFFFFF
310
F000FFFFFFFFFFFFFFFFFFFFFFFFFFFFFFFFFFFFFFFFFFFFFFFFFFFFFFFFFFFF
310
FFFFFFFFFFFFFFFFFFFFFFFFFFFFFFFFFFFFFFFFFFFFFFFFFFFFFFFFFFFFFFFF
310
FFFFFFFFFFFFFFFFFFFFFFFFFFFFFFFFFFFFFFFFFFFFFFFFF000FFFFFFFFFFFF
310
FFFFFFFFFFFFFFFFFFFFFFFFFFFFFFFFFFFFFFFFFFFFFFFFFFFFFFFFFFFFFFFF
310
FFFFFFFFFFFFFFFFFFFFFFFFFFFFFFFFFFFFFFFFFFFFFFFFFFFFFFFFFFFFFFFF
310
FFFFFFFFFFFFFFFFFFFFFFFFFFFFFFFFF000FFFFFFFFFFFFFFFFFFFFFFFFFFFF
310
FFFFFFFFFFFFFFFFFFFFFFFFFFFFFFFFFFFFFFFFFFFFFFFFFFFFFFFFFFFFFFFF
310
FFFFFFFFFFFFFFFFFFFFFFFFFFFFFFFFFFFFFFFFFFFFFFFFFFFFFFFFFFFFFFFF
310
FFFFFFFFFFFFFFFFF000FFFFFFFFFFFFFFFFFFFFFFFFFFFFFFFFFFFFFFFFFFFF
310
FFFFFFFFFFFFFFFFFFFFFFFFFFFFFFFFFFFFFFFFFFFFFFFFFFFFFFFFFFFFFFFF
310
FFFFFFFFFFFFFFFFFFFFFFFFFFFFFFFFFFFFFFFFFFFFFFFFFFFFFFFFFFFFFFFF
310
F000FFFFFFFFFFFFFFFFFFFFFFFFFFFFFFFFFFFFFFFFFFFFFFFFFFFFFFFFFFFF
310
FFFFFFFFFFFFFFFFFFFFFFFFFFFFFFFFFFFFFFFFFFFFFFFFFFFFFFFFFFFFFFFF
310
FFFFFFFFFFFFFFFFFFFFFFFFFFFFFFFFFFFFFFFFFFFFFFFFF000FFFFFFFFFFFF
310
FFFFFFFFFFFFFFFFFFFFFFFFFFFFFFFFFFFFFFFFFFFFFFFFFFFFFFFFFFFFFFFF
310
FFFFFFFFFFFFFFFFFFFFFFFFFFFFFFFFFFFFFFFFFFFFFFFFFFFFFFFFFFFFFFFF
310
FFFFFFFFFFFFFFFFFFFFFFFFFFFFFFFFF000FFFFFFFFFFFFFFFFFFFFFFFFFFFF
310
FFFFFFFFFFFFFFFFFFFFFFFFFFFFFFFFFFFFFFFFFFFFFFFFFFFFFFFFFFFFFFFF
310
FFFFFFFFFFFFFFFFFFFFFFFFFFFFFFFFFFFFFFFFFFFFFFFFFFFFFFFFFFFFFFFF
310
FFFFFFFFFFFFFFFFF000FFFFFFFFFFFFFFFFFFFFFFFFFFFFFFFFFFFFFFFFFFFF
310
FFFFFFFFFFFFFFFFFFFFFFFFFFFFFFFFFFFFFFFFFFFFFFFFFFFFFFFFFFFFFFFF
310
FFFFFFFFFFFFFFFFFFFFFFFFFFFFFFFFFFFFFFFFFFFFFFFFFFFFFFFFFFFFFFFF
310
F000FFFFFFFFFFFFFFFFFFFFFFFFFFFFFFFFFFFFFFFFFFFFFFFFFFFFFFFFFFFF
310
FFFFFFFFFFFFFFFFFFFFFFFFFFFFFFFFFFFFFFFFFFFFFFFFFFFFFFFFFFFFFFFF
310
FFFFFFFFFFFFFFFFFFFFFFFFFFFFFFFFFFFFFFFFFFFFFFFFF000FFFFFFFFFFFF
310
FFFFFFFFFFFFFFFFFFFFFFFFFFFFFFFFFFFFFFFFFFFFFFFFFFFFFFFFFFFFFFFF
310
FFFFFFFFFFFFFFFFFFFFFFFFFFFFFFFFFFFFFFFFFFFFFFFFFFFFFFFFFFFFFFFF
310
FFFFFFFFFFFFFFFFFFFFFFFFFFFFFFFFF000FFFFFFFFFFFFFFFFFFFFFFFFFFFF
310
FFFFFFFFFFFFFFFFFFFFFFFFFFFFFFFFFFFFFFFFFFFFFFFFFFFFFFFFFFFFFFFF
310
FFFFFFFFFFFFFFFFFFFFFFFFFFFFFFFFFFFFFFFFFFFFFFFFFFFFFFFFFFFFFFFF
310
FFFFFFFFFFFFFFFFF000FFFFFFFFFFFFFFFFFFFFFFFFFFFFFFFFFFFFFFFFFFFF
310
FFFFFFFFFFFFFFFFFFFFFFFFFFFFFFFFFFFFFFFFFFFFFFFFFFFFFFFFFFFFFFFF
310
FFFFFFFFFFFFFFFFFFFFFFFFFFFFFFFFFFFFFFFFFFFFFFFFFFFFFFFFFFFFFFFF
310
F000FFFFFFFFFFFFFFFFFFFFFFFFFFFFFFFFFFFFFFFFFFFFFFFFFFFFFFFFFFFF
310
FFFFFFFFFFFFFFFFFFFFFFFFFFFFFFFFFFFFFFFFFFFFFFFFFFFFFFFFFFFFFFFF
310
FFFFFFFFFFFFFFFFFFFFFFFFFFFFFFFFFFFFFFFFFFFFFFFFF000FFFFFFFFFFFF
310
FFFFFFFFFFFFFFFFFFFFFFFFFFFFFFFFFFFFFFFFFFFFFFFFFFFFFFFFFFFFFFFF
310
FFFFFFFFFFFFFFFFFFFFFFFFFFFFFFFFFFFFFFFFFFFFFFFFFFFFFFFFFFFFFFFF
310
FFFFFFFFFFFFFFFFFFFFFFFFFFFFFFFFF000FFFFFFFFFFFFFFFFFFFFFFFFFFFF
310
FFFFFFFFFFFFFFFFFFFFFFFFFFFFFFFFFFFFFFFFFFFFFFFFFFFFFFFFFFFFFFFF
310
FFFFFFFFFFFFFFFFFFFFFFFFFFFFFFFFFFFFFFFFFFFFFFFFFFFFFFFFFFFFFFFF
310
FFFFFFFFFFFFFFFFF000FFFFF80003FFFFFFFFFFFFFFFFFFFFFFFFFFFFFFFFFF
310
FFFFF00007FFFFFFFFFF00007FFFFFF800000000000000007FFFFFFFFFFFFFFF
310
FFFFFFFC001FFFFFFFFFFFFFFC001FFFFFFFFFFFFFFFFFFFFFFFFFFE0007FFFF
310
F000FFFF8000007FFFFFFFF8000FFFFFC0007FFFFF80007FFFFF0000007FFFFF
310
FFF8000007FFFFF800000000000000007FFFFFF0001FFFFFFFFFFFC00001FFFF
310
FFFFFFFFC00001FFFFFFFF000000000003FFFFE000007FFFF000FFFE0000000F
310
FFFFFFF0000FFFFF80007FFFFF80007FFFFC0000001FFFFFFFC0000001FFFFF8
310
00000000000000007FFFFFF0001FFFFFFFFFFE0000003FFFFFFFFFFE0000003F
310
FFFFFF000000000003FFFF0000000FFFF000FFF800000003FFFFFFF00007FFFF
310
80007FFFFF80007FFFF000000007FFFFFF000000003FFFF80000000000000000
310
7FFFFFF0001FFFFFFFFFF80000000FFFFFFFFFF80000000FFFFFFF0000000000
310
03FFFC00000003FFF000FFE000000000FFFFFFF00007FFFF80003FFFFF80007F
310
FFC000000001FFFFFC000000001FFFF800000000000000007FFFFFF0001FFFFF
310
FFFFE000000003FFFFFFFFE000000003FFFFFF000000000003FFF000000000FF
310
F000FF80000000007FFFFFF00007FFFF80003FFFFF80007FFF8000000000FFFF
310
F80000000007FFF800000000000000007FFFFFF0001FFFFFFFFFC000000001FF
310
FFFFFFC000000001FFFFFF000000000003FFC0000000007FF000FF0000000000
310
3FFFFFE00007FFFF00003FFFFF80007FFE00000000003FFFF00000000003FFF8
310
00000000000000007FFFFFF0001FFFFFFFFF8000000000FFFFFFFF8000000000
310
FFFFFF000000000003FF80000000003FF000FE00000000001FFFFFE00003FFFF
310
00003FFFFF80007FFC00000000001FFFE00000000001FFF8000001FFFE000000
310
7FFFFFF0001FFFFFFFFE00000000003FFFFFFE00000000003FFFFF0000000000
310
03FF00000000001FF000FC00000000000FFFFFE00003FFFF00001FFFFF80007F
310
F800000000001FFFC00000000000FFF8000001FFFE0000007FFFFFF0001FFFFF
310
FFFC00000000001FFFFFFC00000000001FFFFF000000000003FE00000000000F
310
F000F8000000000007FFFFE00003FFFF00001FFFFF80007FF800000000000FFF
310
800000000000FFF8000001FFFE0000007FFFFFF0001FFFFFFFF800000000000F
310
FFFFF800000000000FFFFF000000000003FC000000000007F000F80000000000
310
03FFFFC00003FFFE00001FFFFF80007FF0000000000007FF0000000000007FF8
310
000001FFFE0000007FFFFFF0001FFFFFFFF0000000000007FFFFF00000000000
310
07FFFF000000000003F8000000000003F000F0000000000003FFFFC00001FFFE
310
00001FFFFF80007FE0000000000007FE0000000000003FF8000001FFFE000000
310
7FFFFFF0001FFFFFFFF0000000000007FFFFF0000000000007FFFF0000000000
310
03F800001F800003F000E00001FFF00001FFFFC00001FFFE00000FFFFF80007F
310
E00001FFE00003FE00001FFF00003FF8000001FFFE0000007FFFFFF0001FFFFF
310
FFE000003E000003FFFFE000003E000003FFFF000000000003F00001FFF80001
310
F000E00007FFFC0001FFFFC00001FFFE00000FFFFF80007FC0000FFFFC0003FC
310
0000FFFFC0001FF8000001FFFE0000007FFFFFF0001FFFFFFFC00003FFE00001
310
FFFFC00003FFE00001FFFF0001FFFFFFFFF00007FFFE0001F000E0000FFFFF00
310
00FFFF800001FFFC00000FFFFF80007FC0001FFFFE0001FC0001FFFFE0001FF8
310
000001FFFE0000007FFFFFF0001FFFFFFF80000FFFF80000FFFF80000FFFF800
310
00FFFF0003FFFFFFFFE0000FFFFF8000F000C0003FFFFF8000FFFF800000FFFC
310
000007FFFF80007F80003FFFFF0001FC0003FFFFF0001FF8000001FFFE000000
310
7FFFFFF0001FFFFFFF80003FFFFE0000FFFF80003FFFFE0000FFFF0003FFFFFF
310
FFE0003FFFFF8000F000C0003FFFFF8000FFFF800000FFFC000007FFFF80007F
310
80007FFFFF8001F80007FFFFF8000FF8000001FFFE0000007FFFFFF0001FFFFF
310
FF00007FFFFF00007FFF00007FFFFF00007FFF0003FFFFFFFFE0003FFFFFC000
310
F000C0007FFFFFC000FFFF000000FFFC000007FFFF80007F8000FFFFFF8000F8
310
000FFFFFF8000FF8000001FFFE0000007FFFFFF0001FFFFFFF0000FFFFFF8000
310
7FFF0000FFFFFF80007FFF0003FFFFFFFFC0007FFFFFC00070008000FFFFFFC0
310
00FFFF000000FFF8000007FFFF80007F8000FFFFFF8000F8000FFFFFF8000FF8
310
000001FFFE0000007FFFFFF0001FFFFFFE0001FFFFFFC0003FFE0001FFFFFFC0
310
003FFF0003FFFFFFFFC0007FFFFFE00070008000FFFFFFC0007FFF0000007FF8
310
000003FFFF80007F0001FFFFFF8000F8000FFFFFF8000FF8000001FFFE000000
310
7FFFFFF0001FFFFFFE0001FFFFFFC0003FFE0001FFFFFFC0003FFF0003FFFFFF
310
FFC000FFFFFFE00070008000FFFFFFC0007FFF0000007FF8000003FFFF80007F
310
0001FFFFFF8000F8001FFFFFF8000FF8000001FFFE0000007FFFFFF0001FFFFF
310
FE0003FFFFFFE0003FFE0003FFFFFFE0003FFF0003FFFFFFFFC000FFFFFFE000
310
70008000FFFFFFC0007FFE0000007FF8000003FFFF80007F0001FFFFFF8000F0
310
001FFFFFF8000FF8000001FFFE0000007FFFFFF0001FFFFFFC0003FFFFFFE000
310
1FFC0003FFFFFFE0001FFF0003FFFFFFFFC000FFFFFFC00070008000FFFFFF80
310
007FFE0000007FF0000003FFFF80007F0001FFFFFF0000F0001FFFFFF8000FF8
310
000001FFFE0000007FFFFFF0001FFFFFFC0007FFFFFFF0001FFC0007FFFFFFF0
310
001FFF0003FFFFFFFFC000FFFFFFC00070008001FFFFFF0000FFFE0000003FF0
310
000001FFFF80007F0001FFFFFF0000F8001FFFFFF0000FF8000001FFFE000000
310
7FFFFFF0001FFFFFFC0007FFFFFFF0001FFC0007FFFFFFF0001FFF0003FFFFFF
310
FFC001FFFFFF80007000FFFFFFFFFE0000FFFE0008003FF0008001FFFF80007F
310
FFFFFFFFFC0000FFFFFFFFFFE0000FF8000001FFFE0000007FFFFFF0001FFFFF
310
F8000FFFFFFFF8000FF8000FFFFFFFF8000FFF0003FFFFFFFFFFFFFFFFFF0000
310
7000FFFFFFFFFC0000FFFC0008003FF0008001FFFF80007FFFFFFFFFF80001FF
310
FFFFFFFF80000FF8000001FFFE0000007FFFFFF0001FFFFFF8000FFFFFFFF800
310
0FF8000FFFFFFFF8000FFF0003FFFFFFFFFFFFFFFFFE0000F000FFFFFFFFE000
310
00FFFC000C003FE000C001FFFF80007FFFFFFFFFC00001FFFFFFFFFE00001FF8
310
000001FFFE0000007FFFFFF0001FFFFFF8000FFFFFFFF8000FF8000FFFFFFFF8
310
000FFF0003FFFFFFFFFFFFFFFFF00000F000FFFFFFFE000001FFFC000C001FE0
310
00C000FFFF80007FFFFFFFFE000001FFFFFFFFE000001FF80FFFFFFFFFFFFFC0
310
7FFFFFF0001FFFFFF8000FFFFFFFF8000FF8000FFFFFFFF8000FFF0003FFFFFF
310
FFFFFFFFFF800000F000FFFFFFC0000001FFFC001C001FE001C000FFFF80007F
310
FFFFFF80000003FFFFFFF80000001FF80FFFFFFFFFFFFFC07FFFFFF0001FFFFF
310
F8001FFFFFFFFC000FF8001FFFFFFFFC000FFF0003FFFFFFFFFFFFFFF0000001
310
F000FFFFF800000001FFF8001C001FE001C000FFFF80007FFFFFF800000003FF
310
FFFF800000003FF80FFFFFFFFFFFFFC07FFFFFF0001FFFFFF8001FFFFFFFFC00
310
0FF8001FFFFFFFFC000FFF0003FFFFFFFFFFFFFE00000001F000FFFFC0000000
310
03FFF8001E001FC001E000FFFF80007FFFFF8000000007FFFFFC000000003FF8
310
0FFFFFFFFFFFFFC07FFFFFF0001FFFFFF8001FFFFFFFFC000FF8001FFFFFFFFC
310
000FFF0003FFFFFFFFFFFFE000000003F000FFFE0000000007FFF8001E000FC0
310
01E0007FFF80007FFFFE0000000007FFFFE0000000007FF80FFFFFFFFFFFFFC0
310
7FFFFFF0001FFFFFF0001FFFFFFFFC0007F0001FFFFFFFFC0007FF0003FFFFFF
310
FFFFFF0000000003F000FFF80000000007FFF8001E000FC003E0007FFF80007F
310
FFF0000000000FFFFF8000000000FFF80FFFFFFFFFFFFFC07FFFFFF0001FFFFF
310
F0001FFFFFFFFC0007F0001FFFFFFFFC0007FF0003FFFFFFFFFFFC0000000007
310
F000FFE0000000000FFFF0003E000FC003E0007FFF80007FFFC0000000001FFF
310
FE0000000001FFF80FFFFFFFFFFFFFC07FFFFFF0001FFFFFF0001FFFFFFFFC00
310
07F0001FFFFFFFFC0007FF0003FFFFFFFFFFF0000000000FF000FFC000000000
310
1FFFF0003F000F8003F0003FFF80007FFF80000000003FFFF80000000003FFF8
310
0FFFFFFFFFFFFFC07FFFFFF0001FFFFFF0001FFFFFFFFC0007F0001FFFFFFFFC
310
0007FF0003FFFFFFFFFFE0000000001FF000FF00000000007FFFF0003F000780
310
03F0003FFF80007FFF00000000007FFFF00000000007FFF80FFFFFFFFFFFFFC0
310
7FFFFFF0001FFFFFF0001FFFFFFFFC0007F0001FFFFFFFFC0007FF0003FFFFFF
310
FFFF80000000007FF000FE0000000000FFFFE0003F00078007F0003FFF80007F
310
FE0000000001FFFFE0000000001FFFF80FFFFFFFFFFFFFC07FFFFFF0001FFFFF
310
F0001FFFFFFFFC0007F0001FFFFFFFFC0007FF0003FFFFFFFFFF0000000000FF
310
F000FC0000000003FFFFE0007F00078007F0003FFF80007FFC0000000007FFFF
310
C0000000007FFFF80FFFFFFFFFFFFFC07FFFFFF0001FFFFFF8001FFFFFFFFC00
310
0FF8001FFFFFFFFC000FFF0003FFFFFFFFFE0000000003FFF000FC000000000F
310
FFFFE0007F80070007F8001FFF80007FF8000000001FFFFF8000000001FFFFF8
310
0FFFFFFFFFFFFFC07FFFFFF0001FFFFFF8001FFFFFFFFC000FF8001FFFFFFFFC
310
000FFF0003FFFFFFFFFC000000000FFFF000F8000000007FFFFFE0007F800700
310
07F8001FFF80007FF000000000FFFFFF800000000FFFFFF80FFFFFFFFFFFFFC0
310
7FFFFFF0001FFFFFF8000FFFFFFFF8000FF8000FFFFFFFF8000FFF0003FFFFFF
310
FFFC000000007FFFF000F800000007FFFFFFC0007F8003000FF8001FFF80007F
310
F000000007FFFFFF000000007FFFFFF80FFFFFFFFFFFFFC07FFFFFF0001FFFFF
310
F8000FFFFFFFF8000FF8000FFFFFFFF8000FFF0003FFFFFFFFF80000000FFFFF
310
F000F0000000FFFFFFFFC000FF8003000FF8001FFF80007FE0000000FFFFFFFF
310
0000000FFFFFFFF8000001FFFE0000007FFFFFF0001FFFFFF8000FFFFFFFF800
310
0FF8000FFFFFFFF8000FFF0003FFFFFFFFF8000000FFFFFFF000F000000FFFFF
310
FFFFC000FFC002000FF8000FFF80007FE000001FFFFFFFFE000001FFFFFFFFF8
310
000001FFFE0000007FFFFFF0001FFFFFF8000FFFFFFFF8000FF8000FFFFFFFF8
310
000FFF0003FFFFFFFFF000001FFFFFFFF000E00000FFFFFFFFFFC000FFC00200
310
0FFC000FFF80007FE00001FFFFFFFFFE00001FFFFFFFFFF8000001FFFE000000
310
7FFFFFF0001FFFFFFC000FFFFFFFF8001FFC000FFFFFFFF8001FFF0003FFFFFF
310
FFF00001FFFFFFFFF000E00007FFFFFFFFFF8000FFC000001FFC000FFF80007F
310
C0000FFFFFFFFFFE0000FFFFFFFFFFF8000001FFFE0000007FFFFFF0001FFFFF
310
FC0007FFFFFFF0001FFC0007FFFFFFF0001FFF0003FFFFFFFFF00007FFFFFFFF
310
F000E0001FFFFFFFFFFF8000FFC000001FFC000FFF80007FC0003FFFFFFFFFFE
310
0001FFFFFFFFFFF8000001FFFE0000007FFFFFF0001FFFFFFC0007FFFFFFF000
310
1FFC0007FFFFFFF0001FFF0003FFFFFFFFF0001FFFFFFFFFF000E0003FFFFF00
310
03FF8001FFE000001FFC0007FF80007FC0007FFFFF0007FC0003FFFFF0003FF8
310
000001FFFE0000007FFFFFF0001FFFFFFC0003FFFFFFE0001FFC0003FFFFFFE0
310
001FFF0003FFFFFFFFF0003FFFFFFFFFF000E0003FFFFF0001FF8001FFE00000
310
1FFE0007FF80007FC0007FFFFE0003FC0007FFFFE0003FF8000001FFFE000000
310
7FFFFFF0001FFFFFFE0003FFFFFFE0003FFE0003FFFFFFE0003FFF0003FFFFFF
310
FFF0003FFFFF8001F000E0003FFFFF0001FF0001FFE000001FFE0007FF80007F
310
C0007FFFFE0003FC0007FFFFE0003FF8000001FFFE0000007FFFFFF0001FFFFF
310
FE0001FFFFFFC0003FFE0001FFFFFFC0003FFF0003FFFFFFFFF0003FFFFF0001
310
F000E0003FFFFF0003FF0001FFE000003FFE0007FF80007FC0007FFFFE0003FC
310
0007FFFFE0003FF8000001FFFE0000007FFFFFF0001FFFFFFF0001FFFFFFC000
310
7FFF0001FFFFFFC0007FFF0003FFFFFFFFF0003FFFFF0001F000E0003FFFFE00
310
03FF0003FFF000003FFE0003FF80007FC0007FFFFC0003FE0007FFFFE0003FF8
310
000001FFFE0000007FFFFFF0001FFFFFFF0000FFFFFF80007FFF0000FFFFFF80
310
007FFF0003FFFFFFFFF0003FFFFF0001F000E0003FFFFE0003FF0003FFF00000
310
3FFF0003FF80007FC0007FFFFC0007FE0007FFFFC0003FF8000001FFFE000000
310
7FFFFFF0001FFFFFFF80007FFFFF0000FFFF80007FFFFF0000FFFF0003FFFFFF
310
FFF0003FFFFF0003F000E0003FFFFC0003FE0003FFF000003FFF0003FF80007F
310
E0003FFFF80007FE0003FFFFC0007FF8000001FFFE0000007FFFFFF0001FFFFF
310
FF80003FFFFE0000FFFF80003FFFFE0000FFFF0003FFFFFFFFF0001FFFFE0003
310
F000F0001FFFF80003FE0003FFF000007FFF0001FF80007FE0003FFFF00007FE
310
0001FFFF80007FF8000001FFFE0000007FFFFFF0001FFFFFFFC0000FFFF80001
310
FFFFC0000FFFF80001FFFF0003FFFFFFFFF0001FFFFC0003F000F0000FFFF000
310
07FE0007FFF800007FFF0001FF80007FE0001FFFE00007FF0000FFFE00007FF8
310
000001FFFE0000007FFFFFF0001FFFFFFFC00003FFE00001FFFFC00003FFE000
310
01FFFF0003FFFFFFFFF8000FFFF80003F000F00003FFC00007FC0007FFF80000
310
7FFF8001FF80007FF00007FF80000FFF00007FF80000FFF8000001FFFE000000
310
7F80000000000001FFE000003E000003FFFFE000003E000003FFFF0003FFFFFF
310
FFF80003FFE00007F000F800000000000FFC0007FFF800007FFF8001FF80007F
310
F000000000000FFF000000000000FFF8000001FFFE0000007F80000000000001
310
FFF0000000000007FFFFF0000000000007FFFF0003FFFFFFFFFC00007E000007
310
F000F800000000000FFC0007FFF80000FFFF8000FF80007FF800000000001FFF
310
800000000001FFF8000001FFFE0000007F80000000000001FFF800000000000F
310
FFFFF800000000000FFFFF0003FFFFFFFFFC00000000000FF000FC0000000000
310
1FFC0007FFFC0000FFFF8000FF80007FF800000000003FFFC00000000001FFF8
310
000001FFFE0000007F80000000000001FFF800000000000FFFFFF80000000000
310
0FFFFF0003FFFFFFFFFE00000000001FF000FE00000000003FF8000FFFFC0000
310
FFFF8000FF80007FFC00000000003FFFC00000000003FFF8000001FFFE000000
310
7F80000000000001FFFC00000000001FFFFFFC00000000001FFFFF0003FFFFFF
310
FFFF00000000001FF000FF00000000003FF8000FFFFC0000FFFFC000FF80007F
310
FE00000000007FFFE00000000007FFF8000001FFFE0000007F80000000000001
310
FFFE00000000003FFFFFFE00000000003FFFFF0003FFFFFFFFFF80000000003F
310
F000FF80000000007FF8000FFFFC0001FFFFC0007F80007FFF0000000000FFFF
310
F0000000000FFFF800000000000000007F80000000000001FFFF8000000000FF
310
FFFFFF8000000000FFFFFF0003FFFFFFFFFFC0000000007FF000FFC000000000
310
FFF8000FFFFE0001FFFFC0007F80007FFF8000000001FFFFF8000000001FFFF8
310
00000000000000007F80000000000001FFFFC000000001FFFFFFFFC000000001
310
FFFFFF0003FFFFFFFFFFE000000000FFF000FFE000000003FFF0001FFFFE0001
310
FFFFC0007F80007FFFC000000007FFFFFE000000003FFFF80000000000000000
310
7F80000000000001FFFFE000000003FFFFFFFFE000000003FFFFFF0003FFFFFF
310
FFFFF000000003FFF000FFF80000000FFFF0001FFFFE0001FFFFE0007F80007F
310
FFF00000000FFFFFFF00000000FFFFF800000000000000007F80000000000001
310
FFFFF80000000FFFFFFFFFF80000000FFFFFFF0003FFFFFFFFFFFC0000000FFF
310
F000FFFE0000003FFFF0001FFFFE0003FFFFE0003F80007FFFFC0000003FFFFF
310
FFC0000003FFFFF800000000000000007F80000000000001FFFFFE0000003FFF
310
FFFFFFFE0000003FFFFFFF0003FFFFFFFFFFFF0000003FFFF000FFFF800000FF
310
FFF0001FFFFF0003FFFFE0003F80007FFFFF000001FFFFFFFFF800001FFFFFF8
310
00000000000000007F80000000000001FFFFFFC00001FFFFFFFFFFFFC00001FF
310
FFFFFF0003FFFFFFFFFFFFC00000FFFFF000FFFFF8000FFFFFFFFFFFFFFFFFFF
310
FFFFFFFFFFFFFFFFFFFFF0001FFFFFFFFFFF0000FFFFFFF80000000000000000
310
7FFFFFFFFFFFFFFFFFFFFFFC001FFFFFFFFFFFFFFC001FFFFFFFFFFFFFFFFFFF
310
FFFFFFFC001FFFFFF000FFFFFFFFFFFFFFFFFFFFFFFFFFFFFFFFFFFFFFFFFFFF
310
FFFFFFFFFFFFFFFFFFFFFFFFFFFFFFFFFFFFFFFFFFFFFFFFFFFFFFFFFFFFFFFF
310
FFFFFFFFFFFFFFFFFFFFFFFFFFFFFFFFFFFFFFFFFFFFFFFFFFFFFFFFFFFFFFFF
310
F000FFFFFFFFFFFFFFFFFFFFFFFFFFFFFFFFFFFFFFFFFFFFFFFFFFFFFFFFFFFF
310
FFFFFFFFFFFFFFFFFFFFFFFFFFFFFFFFFFFFFFFFFFFFFFFFFFFFFFFFFFFFFFFF
310
FFFFFFFFFFFFFFFFFFFFFFFFFFFFFFFFFFFFFFFFFFFFFFFFF000FFFFFFFFFFFF
310
FFFFFFFFFFFFFFFFFFFFFFFFFFFFFFFFFFFFFFFFFFFFFFFFFFFFFFFFFFFFFFFF
310
FFFFFFFFFFFFFFFFFFFFFFFFFFFFFFFFFFFFFFFFFFFFFFFFFFFFFFFFFFFFFFFF
310
FFFFFFFFFFFFFFFFFFFFFFFFFFFFFFFFF000FFFFFFFFFFFFFFFFFFFFFFFFFFFF
310
FFFFFFFFFFFFFFFFFFFFFFFFFFFFFFFFFFFFFFFFFFFFFFFFFFFFFFFFFFFFFFFF
310
FFFFFFFFFFFFFFFFFFFFFFFFFFFFFFFFFFFFFFFFFFFFFFFFFFFFFFFFFFFFFFFF
310
FFFFFFFFFFFFFFFFF000FFFFFFFFFFFFFFFFFFFFFFFFFFFFFFFFFFFFFFFFFFFF
310
FFFFFFFFFFFFFFFFFFFFFFFFFFFFFFFFFFFFFFFFFFFFFFFFFFFFFFFFFFFFFFFF
310
FFFFFFFFFFFFFFFFFFFFFFFFFFFFFFFFFFFFFFFFFFFFFFFFFFFFFFFFFFFFFFFF
310
F000FFFFFFFFFFFFFFFFFFFFFFFFFFFFFFFFFFFFFFFFFFFFFFFFFFFFFFFFFFFF
310
FFFFFFFFFFFFFFFFFFFFFFFFFFFFFFFFFFFFFFFFFFFFFFFFFFFFFFFFFFFFFFFF
310
FFFFFFFFFFFFFFFFFFFFFFFFFFFFFFFFFFFFFFFFFFFFFFFFF000FFFFFFFFFFFF
310
FFFFFFFFFFFFFFFFFFFFFFFFFFFFFFFFFFFFFFFFFFFFFFFFFFFFFFFFFFFFFFFF
310
FFFFFFFFFFFFFFFFFFFFFFFFFFFFFFFFFFFFFFFFFFFFFFFFFFFFFFFFFFFFFFFF
310
FFFFFFFFFFFFFFFFFFFFFFFFFFFFFFFFF000FFFFFFFFFFFFFFFFFFFFFFFFFFFF
310
FFFFFFFFFFFFFFFFFFFFFFFFFFFFFFFFFFFFFFFFFFFFFFFFFFFFFFFFFFFFFFFF
310
FFFFFFFFFFFFFFFFFFFFFFFFFFFFFFFFFFFFFFFFFFFFFFFFFFFFFFFFFFFFFFFF
310
FFFFFFFFFFFFFFFFF000FFFFFFFFFFFFFFFFFFFFFFFFFFFFFFFFFFFFFFFFFFFF
310
FFFFFFFFFFFFFFFFFFFFFFFFFFFFFFFFFFFFFFFFFFFFFFFFFFFFFFFFFFFFFFFF
310
FFFFFFFFFFFFFFFFFFFFFFFFFFFFFFFFFFFFFFFFFFFFFFFFFFFFFFFFFFFFFFFF
310
F000FFFFFFFFFFFFFFFFFFFFFFFFFFFFFFFFFFFFFFFFFFFFFFFFFFFFFFFFFFFF
310
FFFFFFFFFFFFFFFFFFFFFFFFFFFFFFFFFFFFFFFFFFFFFFFFFFFFFFFFFFFFFFFF
310
FFFFFFFFFFFFFFFFFFFFFFFFFFFFFFFFFFFFFFFFFFFFFFFFF000FFFFFFFFFFFF
310
FFFFFFFFFFFFFFFFFFFFFFFFFFFFFFFFFFFFFFFFFFFFFFFFFFFFFFFFFFFFFFFF
310
FFFFFFFFFFFFFFFFFFFFFFFFFFFFFFFFFFFFFFFFFFFFFFFFFFFFFFFFFFFFFFFF
310
FFFFFFFFFFFFFFFFFFFFFFFFFFFFFFFFF000FFFFFFFFFFFFFFFFFFFFFFFFFFFF
310
FFFFFFFFFFFFFFFFFFFFFFFFFFFFFFFFFFFFFFFFFFFFFFFFFFFFFFFFFFFFFFFF
310
FFFFFFFFFFFFFFFFFFFFFFFFFFFFFFFFFFFFFFFFFFFFFFFFFFFFFFFFFFFFFFFF
310
FFFFFFFFFFFFFFFFF000FFFFFFFFFFFFFFFFFFFFFFFFFFFFFFFFFFFFFFFFFFFF
310
FFFFFFFFFFFFFFFFFFFFFFFFFFFFFFFFFFFFFFFFFFFFFFFFFFFFFFFFFFFFFFFF
310
FFFFFFFFFFFFFFFFFFFFFFFFFFFFFFFFFFFFFFFFFFFFFFFFFFFFFFFFFFFFFFFF
310
F000FFFFFFFFFFFFFFFFFFFFFFFFFFFFFFFFFFFFFFFFFFFFFFFFFFFFFFFFFFFF
310
FFFFFFFFFFFFFFFFFFFFFFFFFFFFFFFFFFFFFFFFFFFFFFFFFFFFFFFFFFFFFFFF
310
FFFFFFFFFFFFFFFFFFFFFFFFFFFFFFFFFFFFFFFFFFFFFFFFF000FFFFFFFFFFFF
310
FFFFFFFFFFFFFFFFFFFFFFFFFFFFFFFFFFFFFFFFFFFFFFFFFFFFFFFFFFFFFFFF
310
FFFFFFFFFFFFFFFFFFFFFFFFFFFFFFFFFFFFFFFFFFFFFFFFFFFFFFFFFFFFFFFF
310
FFFFFFFFFFFFFFFFFFFFFFFFFFFFFFFFF000FFFFFFFFFFFFFFFFFFFFFFFFFFFF
310
FFFFFFFFFFFFFFFFFFFFFFFFFFFFFFFFFFFFFFFFFFFFFFFFFFFFFFFFFFFFFFFF
310
FFFFFFFFFFFFFFFFFFFFFFFFFFFFFFFFFFFFFFFFFFFFFFFFFFFFFFFFFFFFFFFF
310
FFFFFFFFFFFFFFFFF000FFFFFFFFFFFFFFFFFFFFFFFFFFFFFFFFFFFFFFFFFFFF
310
FFFFFFFFFFFFFFFFFFFFFFFFFFFFFFFFFFFFFFFFFFFFFFFFFFFFFFFFFFFFFFFF
310
FFFFFFFFFFFFFFFFFFFFFFFFFFFFFFFFFFFFFFFFFFFFFFFFFFFFFFFFFFFFFFFF
310
F000FFFFFFFFFFFFFFFFFFFFFFFFFFFFFFFFFFFFFFFFFFFFFFFFFFFFFFFFFFFF
310
FFFFFFFFFFFFFFFFFFFFFFFFFFFFFFFFFFFFFFFFFFFFFFFFFFFFFFFFFFFFFFFF
310
FFFFFFFFFFFFFFFFFFFFFFFFFFFFFFFFFFFFFFFFFFFFFFFFF000FFFFFFFFFFFF
310
FFFFFFFFFFFFFFFFFFFFFFFFFFFFFFFFFFFFFFFFFFFFFFFFFFFFFFFFFFFFFFFF
310
FFFFFFFFFFFFFFFFFFFFFFFFFFFFFFFFFFFFFFFFFFFFFFFFFFFFFFFFFFFFFFFF
310
FFFFFFFFFFFFFFFFFFFFFFFFFFFFFFFFF000FFFFFFFFFFFFFFFFFFFFFFFFFFFF
310
FFFFFFFFFFFFFFFFFFFFFFFFFFFFFFFFFFFFFFFFFFFFFFFFFFFFFFFFFFFFFFFF
310
FFFFFFFFFFFFFFFFFFFFFFFFFFFFFFFFFFFFFFFFFFFFFFFFFFFFFFFFFFFFFFFF
310
FFFFFFFFFFFFFFFFF000FFFFFFFFFFFFFFFFFFFFFFFFFFFFFFFFFFFFFFFFFFFF
310
FFFFFFFFFFFFFFFFFFFFFFFFFFFFFFFFFFFFFFFFFFFFFFFFFFFFFFFFFFFFFFFF
310
FFFFFFFFFFFFFFFFFFFFFFFFFFFFFFFFFFFFFFFFFFFFFFFFFFFFFFFFFFFFFFFF
310
F000FFFFFFFFFFFFFFFFFFFFFFFFFFFFFFFFFFFFFFFFFFFFFFFFFFFFFFFFFFFF
310
FFFFFFFFFFFFFFFFFFFFFFFFFFFFFFFFFFFFFFFFFFFFFFFFFFFFFFFFFFFFFFFF
310
FFFFFFFFFFFFFFFFFFFFFFFFFFFFFFFFFFFFFFFFFFFFFFFFF000FFFFFFFFFFFF
310
FFFFFFFFFFFFFFFFFFFFFFFFFFFFFFFFFFFFFFFFFFFFFFFFFFFFFFFFFFFFFFFF
310
FFFFFFFFFFFFFFFFFFFFFFFFFFFFFFFFFFFFFFFFFFFFFFFFFFFFFFFFFFFFFFFF
310
FFFFFFFFFFFFFFFFFFFFFFFFFFFFFFFFF0000000000000000000000000000000
310
0000000001000000010000000100000001000000010000000100000001000000
310
0100000001000000010000000100000001000000010000000100000001000000
310
0100000001000000010000000100000001000000010000000100000001000000
310
0100000001000000010000000100000001000000000000000100000000000000
310
0100000001000000010000000100000001000000010000000100000001000000
310
0100000001000000010000000100000001000000010000000100000001000000
310
0100000001000000010000000100000001000000010000000100000001000000
310
0100000001000000010000000100000001000000010000000100000001000000
310
0100000001000000010000000100000001000000010000000100000001000000
310
0100000001000000000000000100000000000000010000000100000001000000
310
0100000001000000010000000100000001000000010000000100000001000000
310
0100000001000000010000000100000001000000010000000100000001000000
310
0100000001000000010000000100000001000000010000000100000001000000
310
0100000001000000010000000100000001000000010000000100000001000000
310
0100000001000000010000000100000000000000010000000100000001000000
  1
OLE
  0
ENDSEC
  0
SECTION
  2
OBJECTS
  0
DICTIONARY
  5
C
330
0
100
AcDbDictionary
281
     1
  3
ACAD_GROUP
350
D
  3
ACAD_LAYOUT
350
1A
  3
ACAD_MLEADERSTYLE
350
2B6
  3
ACAD_MLINESTYLE
350
17
  3
ACAD_PLOTSETTINGS
350
19
  3
ACAD_PLOTSTYLENAME
350
E
  3
ACAD_TABLESTYLE
350
2B5
  3
ACAD_VISUALSTYLE
350
2A
  3
AcDbVariableDictionary
350
2B7
  0
DICTIONARY
  5
D
102
{ACAD_REACTORS
330
C
102
}
330
C
100
AcDbDictionary
281
     1
  0
DICTIONARY
  5
1A
102
{ACAD_REACTORS
330
C
102
}
330
C
100
AcDbDictionary
281
     1
  3
Layout1
350
1E
  3
Layout2
350
26
  3
Model
350
22
  0
DICTIONARY
  5
2B6
102
{ACAD_REACTORS
330
C
102
}
330
C
100
AcDbDictionary
281
     1
  0
DICTIONARY
  5
17
102
{ACAD_REACTORS
330
C
102
}
330
C
100
AcDbDictionary
281
     1
  3
Standard
350
18
  0
DICTIONARY
  5
19
102
{ACAD_REACTORS
330
C
102
}
330
C
100
AcDbDictionary
281
     1
  0
ACDBDICTIONARYWDFLT
  5
E
102
{ACAD_REACTORS
330
C
102
}
330
C
100
AcDbDictionary
281
     1
  3
Normal
350
F
100
AcDbDictionaryWithDefault
340
F
  0
DICTIONARY
  5
2B5
102
{ACAD_REACTORS
330
C
102
}
330
C
100
AcDbDictionary
281
     1
  0
DICTIONARY
  5
2A
102
{ACAD_REACTORS
330
C
102
}
330
C
100
AcDbDictionary
281
     1
  3
2dWireframe
350
2F
  3
3D Hidden
350
31
  3
3dWireframe
350
30
  3
Basic
350
32
  3
Brighten
350
36
  3
ColorChange
350
3A
  3
Conceptual
350
34
  3
Dim
350
35
  3
Facepattern
350
39
  3
Flat
350
2B
  3
FlatWithEdges
350
2C
  3
Gouraud
350
2D
  3
GouraudWithEdges
350
2E
  3
Linepattern
350
38
  3
Realistic
350
33
  3
Thicken
350
37
  0
DICTIONARY
  5
2B7
102
{ACAD_REACTORS
330
C
102
}
330
C
100
AcDbDictionary
281
     1
  3
PSOLHEIGHT
350
2B9
  3
PSOLWIDTH
350
2B8
  0
LAYOUT
  5
1E
102
{ACAD_REACTORS
330
1A
102
}
330
1A
100
AcDbPlotSettings
  1

  2
none_device
  4

  6

 40
0.0
 41
0.0
 42
0.0
 43
0.0
 44
0.0
 45
0.0
 46
0.0
 47
0.0
 48
0.0
 49
0.0
140
0.0
141
0.0
142
1.0
143
1.0
 70
   688
 72
     0
 73
     0
 74
     5
  7

 75
    16
147
1.0
148
0.0
149
0.0
100
AcDbLayout
  1
Layout1
 70
     1
 71
     1
 10
0.0
 20
0.0
 11
420.0
 21
297.0
 12
0.0
 22
0.0
 32
0.0
 14
1.0000000000E+20
 24
1.0000000000E+20
 34
1.0000000000E+20
 15
-1.0000000000E+20
 25
-1.0000000000E+20
 35
-1.0000000000E+20
146
0.0
 13
0.0
 23
0.0
 33
0.0
 16
1.0
 26
0.0
 36
0.0
 17
0.0
 27
1.0
 37
0.0
 76
     0
330
1B
  0
LAYOUT
  5
26
102
{ACAD_REACTORS
330
1A
102
}
330
1A
100
AcDbPlotSettings
  1

  2
none_device
  4

  6

 40
0.0
 41
0.0
 42
0.0
 43
0.0
 44
0.0
 45
0.0
 46
0.0
 47
0.0
 48
0.0
 49
0.0
140
0.0
141
0.0
142
1.0
143
1.0
 70
   688
 72
     0
 73
     0
 74
     5
  7

 75
    16
147
1.0
148
0.0
149
0.0
100
AcDbLayout
  1
Layout2
 70
     1
 71
     2
 10
0.0
 20
0.0
 11
0.0
 21
0.0
 12
0.0
 22
0.0
 32
0.0
 14
0.0
 24
0.0
 34
0.0
 15
0.0
 25
0.0
 35
0.0
146
0.0
 13
0.0
 23
0.0
 33
0.0
 16
1.0
 26
0.0
 36
0.0
 17
0.0
 27
1.0
 37
0.0
 76
     0
330
23
  0
LAYOUT
  5
22
102
{ACAD_REACTORS
330
1A
102
}
330
1A
100
AcDbPlotSettings
  1

  2
none_device
  4

  6

 40
0.0
 41
0.0
 42
0.0
 43
0.0
 44
0.0
 45
0.0
 46
0.0
 47
0.0
 48
0.0
 49
0.0
140
0.0
141
0.0
142
1.0
143
1.0
 70
  1712
 72
     0
 73
     0
 74
     0
  7

 75
     0
147
1.0
148
0.0
149
0.0
100
AcDbLayout
  1
Model
 70
     1
 71
     0
 10
0.0
 20
0.0
 11
297.0
 21
210.0
 12
0.0
 22
0.0
 32
0.0
 14
0.0
 24
0.0
 34
0.0
 15
297.0
 25
210.0
 35
0.0
146
0.0
 13
0.0
 23
0.0
 33
0.0
 16
1.0
 26
0.0
 36
0.0
 17
0.0
 27
1.0
 37
0.0
 76
     0
330
1F
331
29
  0
MLINESTYLE
  5
18
102
{ACAD_REACTORS
330
17
102
}
330
17
100
AcDbMlineStyle
  2
Standard
 70
     0
  3

 62
   256
 51
90.0
 52
90.0
 71
     2
 49
0.5
 62
   256
  6
BYLAYER
 49
-0.5
 62
   256
  6
BYLAYER
  0
ACDBPLACEHOLDER
  5
F
102
{ACAD_REACTORS
330
E
102
}
330
E
  0
VISUALSTYLE
  5
2F
102
{ACAD_REACTORS
330
2A
102
}
330
2A
100
AcDbVisualStyle
  2
2dWireframe
 70
     4
 71
     0
 72
     2
 73
     0
 90
        0
 40
-0.6
 41
-30.0
 62
     5
 63
     7
 74
     1
 91
        4
 64
     7
 65
   257
 75
     1
175
     1
 42
1.0
 92
        0
 66
   257
 43
1.0
 76
     1
 77
     6
 78
     2
 67
     7
 79
     5
170
     0
171
     0
290
     0
174
     0
 93
        1
 44
0.0
173
     0
291
     0
 45
0.0
1001
ACAD
1000
AcDbSavedByObjectVersion
1070
     0
  0
VISUALSTYLE
  5
31
102
{ACAD_REACTORS
330
2A
102
}
330
2A
100
AcDbVisualStyle
  2
3D Hidden
 70
     6
 71
     1
 72
     2
 73
     2
 90
        0
 40
-0.6
 41
-30.0
 62
     5
 63
     7
 74
     2
 91
        2
 64
     7
 65
   257
 75
     2
175
     1
 42
40.0
 92
        0
 66
   257
 43
1.0
 76
     1
 77
     6
 78
     2
 67
     7
 79
     3
170
     0
171
     0
290
     0
174
     0
 93
        1
 44
0.0
173
     0
291
     0
 45
0.0
1001
ACAD
1000
AcDbSavedByObjectVersion
1070
     0
  0
VISUALSTYLE
  5
30
102
{ACAD_REACTORS
330
2A
102
}
330
2A
100
AcDbVisualStyle
  2
3dWireframe
 70
     5
 71
     0
 72
     2
 73
     0
 90
        0
 40
-0.6
 41
-30.0
 62
     5
 63
     7
 74
     1
 91
        4
 64
     7
 65
   257
 75
     1
175
     1
 42
1.0
 92
        0
 66
   257
 43
1.0
 76
     1
 77
     6
 78
     2
 67
     7
 79
     5
170
     0
171
     0
290
     0
174
     0
 93
        1
 44
0.0
173
     0
291
     0
 45
0.0
1001
ACAD
1000
AcDbSavedByObjectVersion
1070
     0
  0
VISUALSTYLE
  5
32
102
{ACAD_REACTORS
330
2A
102
}
330
2A
100
AcDbVisualStyle
  2
Basic
 70
     7
 71
     1
 72
     0
 73
     1
 90
        0
 40
-0.6
 41
-30.0
 62
     5
 63
     7
 74
     0
 91
        4
 64
     7
 65
   257
 75
     1
175
     1
 42
1.0
 92
        8
 66
     7
 43
1.0
 76
     1
 77
     6
 78
     2
 67
     7
 79
     5
170
     0
171
     0
290
     0
174
     0
 93
        1
 44
0.0
173
     0
291
     1
 45
0.0
1001
ACAD
1000
AcDbSavedByObjectVersion
1070
     0
  0
VISUALSTYLE
  5
36
102
{ACAD_REACTORS
330
2A
102
}
330
2A
100
AcDbVisualStyle
  2
Brighten
 70
    12
 71
     2
 72
     2
 73
     0
 90
        0
 40
-0.6
 41
-30.0
 62
     5
 63
     7
 74
     1
 91
        4
 64
     7
 65
   257
 75
     1
175
     1
 42
1.0
 92
        8
 66
     7
 43
1.0
 76
     1
 77
     6
 78
     2
 67
     7
 79
     5
170
     0
171
     0
290
     0
174
     0
 93
        1
 44
50.0
173
     0
291
     1
 45
0.0
1001
ACAD
1000
AcDbSavedByObjectVersion
1070
     0
  0
VISUALSTYLE
  5
3A
102
{ACAD_REACTORS
330
2A
102
}
330
2A
100
AcDbVisualStyle
  2
ColorChange
 70
    16
 71
     2
 72
     2
 73
     3
 90
        0
 40
-0.6
 41
-30.0
 62
     5
 63
     8
 74
     1
 91
        4
 64
     7
 65
   257
 75
     1
175
     1
 42
1.0
 92
        8
 66
     8
 43
1.0
 76
     1
 77
     6
 78
     2
 67
     7
 79
     5
170
     0
171
     0
290
     0
174
     0
 93
        1
 44
0.0
173
     0
291
     1
 45
0.0
1001
ACAD
1000
AcDbSavedByObjectVersion
1070
     0
  0
VISUALSTYLE
  5
34
102
{ACAD_REACTORS
330
2A
102
}
330
2A
100
AcDbVisualStyle
  2
Conceptual
 70
     9
 71
     3
 72
     2
 73
     0
 90
        0
 40
-0.6
 41
-30.0
 62
     5
 63
     7
 74
     2
 91
        2
 64
     7
 65
   257
 75
     1
175
     1
 42
40.0
 92
        8
 66
     7
 43
1.0
 76
     1
 77
     6
 78
     2
 67
     7
 79
     3
170
     0
171
     0
290
     0
174
     0
 93
        1
 44
0.0
173
     0
291
     0
 45
0.0
1001
ACAD
1000
AcDbSavedByObjectVersion
1070
     0
  0
VISUALSTYLE
  5
35
102
{ACAD_REACTORS
330
2A
102
}
330
2A
100
AcDbVisualStyle
  2
Dim
 70
    11
 71
     2
 72
     2
 73
     0
 90
        0
 40
-0.6
 41
-30.0
 62
     5
 63
     7
 74
     1
 91
        4
 64
     7
 65
   257
 75
     1
175
     1
 42
1.0
 92
        8
 66
     7
 43
1.0
 76
     1
 77
     6
 78
     2
 67
     7
 79
     5
170
     0
171
     0
290
     0
174
     0
 93
        1
 44
-50.0
173
     0
291
     1
 45
0.0
1001
ACAD
1000
AcDbSavedByObjectVersion
1070
     0
  0
VISUALSTYLE
  5
39
102
{ACAD_REACTORS
330
2A
102
}
330
2A
100
AcDbVisualStyle
  2
Facepattern
 70
    15
 71
     2
 72
     2
 73
     0
 90
        0
 40
-0.6
 41
-30.0
 62
     5
 63
     7
 74
     1
 91
        4
 64
     7
 65
   257
 75
     1
175
     1
 42
1.0
 92
        8
 66
     7
 43
1.0
 76
     1
 77
     6
 78
     2
 67
     7
 79
     5
170
     0
171
     0
290
     0
174
     0
 93
        1
 44
0.0
173
     0
291
     1
 45
0.0
1001
ACAD
1000
AcDbSavedByObjectVersion
1070
     0
  0
VISUALSTYLE
  5
2B
102
{ACAD_REACTORS
330
2A
102
}
330
2A
100
AcDbVisualStyle
  2
Flat
 70
     0
 71
     2
 72
     1
 73
     1
 90
        2
 40
-0.6
 41
30.0
 62
     5
 63
     7
 74
     0
 91
        4
 64
     7
 65
   257
 75
     1
175
     1
 42
1.0
 92
        8
 66
     7
 43
1.0
 76
     1
 77
     6
 78
     2
 67
     7
 79
     5
170
     0
171
     0
290
     0
174
     0
 93
       13
 44
0.0
173
     0
291
     1
 45
0.0
1001
ACAD
1000
AcDbSavedByObjectVersion
1070
     0
  0
VISUALSTYLE
  5
2C
102
{ACAD_REACTORS
330
2A
102
}
330
2A
100
AcDbVisualStyle
  2
FlatWithEdges
 70
     1
 71
     2
 72
     1
 73
     1
 90
        2
 40
-0.6
 41
30.0
 62
     5
 63
     7
 74
     1
 91
        4
 64
     7
 65
   257
 75
     1
175
     1
 42
1.0
 92
        0
 66
   257
 43
1.0
 76
     1
 77
     6
 78
     2
 67
     7
 79
     5
170
     0
171
     0
290
     0
174
     0
 93
       13
 44
0.0
173
     0
291
     1
 45
0.0
1001
ACAD
1000
AcDbSavedByObjectVersion
1070
     0
  0
VISUALSTYLE
  5
2D
102
{ACAD_REACTORS
330
2A
102
}
330
2A
100
AcDbVisualStyle
  2
Gouraud
 70
     2
 71
     2
 72
     2
 73
     1
 90
        2
 40
-0.6
 41
30.0
 62
     5
 63
     7
 74
     0
 91
        4
 64
     7
 65
   257
 75
     1
175
     1
 42
1.0
 92
        0
 66
     7
 43
1.0
 76
     1
 77
     6
 78
     2
 67
     7
 79
     5
170
     0
171
     0
290
     0
174
     0
 93
       13
 44
0.0
173
     0
291
     1
 45
0.0
1001
ACAD
1000
AcDbSavedByObjectVersion
1070
     0
  0
VISUALSTYLE
  5
2E
102
{ACAD_REACTORS
330
2A
102
}
330
2A
100
AcDbVisualStyle
  2
GouraudWithEdges
 70
     3
 71
     2
 72
     2
 73
     1
 90
        2
 40
-0.6
 41
30.0
 62
     5
 63
     7
 74
     1
 91
        4
 64
     7
 65
   257
 75
     1
175
     1
 42
1.0
 92
        0
 66
   257
 43
1.0
 76
     1
 77
     6
 78
     2
 67
     7
 79
     5
170
     0
171
     0
290
     0
174
     0
 93
       13
 44
0.0
173
     0
291
     1
 45
0.0
1001
ACAD
1000
AcDbSavedByObjectVersion
1070
     0
  0
VISUALSTYLE
  5
38
102
{ACAD_REACTORS
330
2A
102
}
330
2A
100
AcDbVisualStyle
  2
Linepattern
 70
    14
 71
     2
 72
     2
 73
     0
 90
        0
 40
-0.6
 41
-30.0
 62
     5
 63
     7
 74
     1
 91
        4
 64
     7
 65
   257
 75
     7
175
     7
 42
1.0
 92
        8
 66
     7
 43
1.0
 76
     1
 77
     6
 78
     2
 67
     7
 79
     5
170
     0
171
     0
290
     0
174
     0
 93
        1
 44
0.0
173
     0
291
     1
 45
0.0
1001
ACAD
1000
AcDbSavedByObjectVersion
1070
     0
  0
VISUALSTYLE
  5
33
102
{ACAD_REACTORS
330
2A
102
}
330
2A
100
AcDbVisualStyle
  2
Realistic
 70
     8
 71
     2
 72
     2
 73
     0
 90
        0
 40
-0.6
 41
-30.0
 62
     5
 63
     7
 74
     1
 91
        0
 64
     7
 65
   257
 75
     1
175
     1
 42
1.0
 92
        8
 66
     8
 43
1.0
 76
     1
 77
     6
 78
     2
 67
     7
 79
     5
170
     0
171
     0
290
     0
174
     0
 93
       13
 44
0.0
173
     0
291
     0
 45
0.0
1001
ACAD
1000
AcDbSavedByObjectVersion
1070
     0
  0
VISUALSTYLE
  5
37
102
{ACAD_REACTORS
330
2A
102
}
330
2A
100
AcDbVisualStyle
  2
Thicken
 70
    13
 71
     2
 72
     2
 73
     0
 90
        0
 40
-0.6
 41
-30.0
 62
     5
 63
     7
 74
     1
 91
        4
 64
     7
 65
   257
 75
     1
175
     1
 42
1.0
 92
       12
 66
     7
 43
1.0
 76
     1
 77
     6
 78
     2
 67
     7
 79
     5
170
     0
171
     0
290
     0
174
     0
 93
        1
 44
0.0
173
     0
291
     1
 45
0.0
1001
ACAD
1000
AcDbSavedByObjectVersion
1070
     0
  0
DICTIONARYVAR
  5
2B9
102
{ACAD_REACTORS
330
2B7
102
}
330
2B7
100
DictionaryVariables
280
     0
  1
80.000000
  0
DICTIONARYVAR
  5
2B8
102
{ACAD_REACTORS
330
2B7
102
}
330
2B7
100
DictionaryVariables
280
     0
  1
5.000000
  0
ENDSEC
  0
EOF
