  0
SECTION
  2
HEADER
  9
$ACADVER
  1
AC1015
  9
$ACADMAINTVER
 70
     6
  9
$DWGCODEPAGE
  3
ANSI_1252
  9
$INSBASE
 10
0.0
 20
0.0
 30
0.0
  9
$EXTMIN
 10
0.0
 20
0.0
 30
0.0
  9
$EXTMAX
 10
297.0
 20
210.0
 30
0.0
  9
$LIMMIN
 10
0.0
 20
0.0
  9
$LIMMAX
 10
297.0
 20
210.0
  9
$ORTHOMODE
 70
     0
  9
$REGENMODE
 70
     1
  9
$FILLMODE
 70
     1
  9
$QTEXTMODE
 70
     0
  9
$MIRRTEXT
 70
     1
  9
$LTSCALE
 40
1.0
  9
$ATTMODE
 70
     1
  9
$TEXTSIZE
 40
2.0
  9
$TRACEWID
 40
1.0
  9
$TEXTSTYLE
  7
Standard
  9
$CLAYER
  8
0
  9
$CELTYPE
  6
ByLayer
  9
$CECOLOR
 62
   256
  9
$CELTSCALE
 40
1.0
  9
$DISPSILH
 70
     0
  9
$DIMSCALE
 40
1.0
  9
$DIMASZ
 40
3.0
  9
$DIMEXO
 40
0.0
  9
$DIMDLI
 40
3.75
  9
$DIMRND
 40
0.0
  9
$DIMDLE
 40
0.0
  9
$DIMEXE
 40
1.0
  9
$DIMTP
 40
0.0
  9
$DIMTM
 40
0.0
  9
$DIMTXT
 40
2.0
  9
$DIMCEN
 40
2.5
  9
$DIMTSZ
 40
0.0
  9
$DIMTOL
 70
     0
  9
$DIMLIM
 70
     0
  9
$DIMTIH
 70
     1
  9
$DIMTOH
 70
     1
  9
$DIMSE1
 70
     0
  9
$DIMSE2
 70
     0
  9
$DIMTAD
 70
     1
  9
$DIMZIN
 70
     0
  9
$DIMBLK
  1

  9
$DIMASO
 70
     1
  9
$DIMSHO
 70
     1
  9
$DIMPOST
  1

  9
$DIMAPOST
  1

  9
$DIMALT
 70
     0
  9
$DIMALTD
 70
     3
  9
$DIMALTF
 40
0.0393700787
  9
$DIMLFAC
 40
1.0
  9
$DIMTOFL
 70
     1
  9
$DIMTVP
 40
0.0
  9
$DIMTIX
 70
     0
  9
$DIMSOXD
 70
     0
  9
$DIMSAH
 70
     0
  9
$DIMBLK1
  1

  9
$DIMBLK2
  1

  9
$DIMSTYLE
  2
ISO-25
  9
$DIMCLRD
 70
     0
  9
$DIMCLRE
 70
     0
  9
$DIMCLRT
 70
     0
  9
$DIMTFAC
 40
1.0
  9
$DIMGAP
 40
1.524
  9
$DIMJUST
 70
     0
  9
$DIMSD1
 70
     0
  9
$DIMSD2
 70
     0
  9
$DIMTOLJ
 70
     0
  9
$DIMTZIN
 70
     0
  9
$DIMALTZ
 70
     0
  9
$DIMALTTZ
 70
     0
  9
$DIMUPT
 70
     0
  9
$DIMDEC
 70
     2
  9
$DIMTDEC
 70
     3
  9
$DIMALTU
 70
     2
  9
$DIMALTTD
 70
     3
  9
$DIMTXSTY
  7
Standard
  9
$DIMAUNIT
 70
     0
  9
$DIMADEC
 70
     2
  9
$DIMALTRND
 40
0.0
  9
$DIMAZIN
 70
     0
  9
$DIMDSEP
 70
    44
  9
$DIMATFIT
 70
     3
  9
$DIMFRAC
 70
     0
  9
$DIMLDRBLK
  1

  9
$DIMLUNIT
 70
     2
  9
$DIMLWD
 70
    -2
  9
$DIMLWE
 70
    -2
  9
$DIMTMOVE
 70
     0
  9
$LUNITS
 70
     2
  9
$LUPREC
 70
     2
  9
$SKETCHINC
 40
1.0
  9
$FILLETRAD
 40
10.0
  9
$AUNITS
 70
     0
  9
$AUPREC
 70
     2
  9
$MENU
  1
.
  9
$ELEVATION
 40
0.0
  9
$PELEVATION
 40
0.0
  9
$THICKNESS
 40
0.0
  9
$LIMCHECK
 70
     0
  9
$CHAMFERA
 40
10.0
  9
$CHAMFERB
 40
10.0
  9
$CHAMFERC
 40
20.0
  9
$CHAMFERD
 40
0.0
  9
$SKPOLY
 70
     0
  9
$TDCREATE
 40
2456044.580763588
  9
$TDUCREATE
 40
2456044.497430255
  9
$TDUPDATE
 40
2456044.580765035
  9
$TDUUPDATE
 40
2456044.497431702
  9
$TDINDWG
 40
0.0000000116
  9
$TDUSRTIMER
 40
0.0000000116
  9
$USRTIMER
 70
     1
  9
$ANGBASE
 50
0.0
  9
$ANGDIR
 70
     0
  9
$PDMODE
 70
     0
  9
$PDSIZE
 40
-1.0
  9
$PLINEWID
 40
0.0
  9
$SPLFRAME
 70
     0
  9
$SPLINETYPE
 70
     6
  9
$SPLINESEGS
 70
     8
  9
$HANDSEED
  5
26D
  9
$SURFTAB1
 70
     6
  9
$SURFTAB2
 70
     6
  9
$SURFTYPE
 70
     6
  9
$SURFU
 70
     6
  9
$SURFV
 70
     6
  9
$UCSBASE
  2

  9
$UCSNAME
  2

  9
$UCSORG
 10
0.0
 20
0.0
 30
0.0
  9
$UCSXDIR
 10
1.0
 20
0.0
 30
0.0
  9
$UCSYDIR
 10
0.0
 20
1.0
 30
0.0
  9
$UCSORTHOREF
  2

  9
$UCSORTHOVIEW
 70
     0
  9
$UCSORGTOP
 10
0.0
 20
0.0
 30
0.0
  9
$UCSORGBOTTOM
 10
0.0
 20
0.0
 30
0.0
  9
$UCSORGLEFT
 10
0.0
 20
0.0
 30
0.0
  9
$UCSORGRIGHT
 10
0.0
 20
0.0
 30
0.0
  9
$UCSORGFRONT
 10
0.0
 20
0.0
 30
0.0
  9
$UCSORGBACK
 10
0.0
 20
0.0
 30
0.0
  9
$PUCSBASE
  2

  9
$PUCSNAME
  2

  9
$PUCSORG
 10
0.0
 20
0.0
 30
0.0
  9
$PUCSXDIR
 10
1.0
 20
0.0
 30
0.0
  9
$PUCSYDIR
 10
0.0
 20
1.0
 30
0.0
  9
$PUCSORTHOREF
  2

  9
$PUCSORTHOVIEW
 70
     0
  9
$PUCSORGTOP
 10
0.0
 20
0.0
 30
0.0
  9
$PUCSORGBOTTOM
 10
0.0
 20
0.0
 30
0.0
  9
$PUCSORGLEFT
 10
0.0
 20
0.0
 30
0.0
  9
$PUCSORGRIGHT
 10
0.0
 20
0.0
 30
0.0
  9
$PUCSORGFRONT
 10
0.0
 20
0.0
 30
0.0
  9
$PUCSORGBACK
 10
0.0
 20
0.0
 30
0.0
  9
$USERI1
 70
     0
  9
$USERI2
 70
     0
  9
$USERI3
 70
     0
  9
$USERI4
 70
     0
  9
$USERI5
 70
     0
  9
$USERR1
 40
0.0
  9
$USERR2
 40
0.0
  9
$USERR3
 40
0.0
  9
$USERR4
 40
0.0
  9
$USERR5
 40
0.0
  9
$WORLDVIEW
 70
     1
  9
$SHADEDGE
 70
     3
  9
$SHADEDIF
 70
    70
  9
$TILEMODE
 70
     1
  9
$MAXACTVP
 70
    64
  9
$PINSBASE
 10
0.0
 20
0.0
 30
0.0
  9
$PLIMCHECK
 70
     0
  9
$PEXTMIN
 10
1.0000000000E+20
 20
1.0000000000E+20
 30
1.0000000000E+20
  9
$PEXTMAX
 10
-1.0000000000E+20
 20
-1.0000000000E+20
 30
-1.0000000000E+20
  9
$PLIMMIN
 10
0.0
 20
0.0
  9
$PLIMMAX
 10
420.0
 20
297.0
  9
$UNITMODE
 70
     0
  9
$VISRETAIN
 70
     1
  9
$PLINEGEN
 70
     0
  9
$PSLTSCALE
 70
     1
  9
$TREEDEPTH
 70
  3020
  9
$CMLSTYLE
  2
Standard
  9
$CMLJUST
 70
     0
  9
$CMLSCALE
 40
20.0
  9
$PROXYGRAPHICS
 70
     1
  9
$MEASUREMENT
 70
     1
  9
$CELWEIGHT
370
    -1
  9
$ENDCAPS
280
     0
  9
$JOINSTYLE
280
     0
  9
$LWDISPLAY
290
     1
  9
$INSUNITS
 70
     4
  9
$HYPERLINKBASE
  1

  9
$STYLESHEET
  1

  9
$XEDIT
290
     1
  9
$CEPSNTYPE
380
     0
  9
$PSTYLEMODE
290
     1
  9
$FINGERPRINTGUID
  2
{E43904FF-C860-4C95-9698-DC895BACCF2A}
  9
$VERSIONGUID
  2
{FAEB1C32-E019-11D5-929B-00C0DF256EC4}
  9
$EXTNAMES
290
     1
  9
$PSVPSCALE
 40
0.0
  9
$OLESTARTUP
290
     0
  0
ENDSEC
  0
SECTION
  2
CLASSES
  0
CLASS
  1
ACDBDICTIONARYWDFLT
  2
AcDbDictionaryWithDefault
  3
ObjectDBX Classes
 90
        0
280
     0
281
     0
  0
CLASS
  1
VISUALSTYLE
  2
AcDbVisualStyle
  3
ObjectDBX Classes
 90
     4095
280
     0
281
     0
  0
CLASS
  1
MATERIAL
  2
AcDbMaterial
  3
ObjectDBX Classes
 90
     1153
280
     0
281
     0
  0
CLASS
  1
ACDBPLACEHOLDER
  2
AcDbPlaceHolder
  3
ObjectDBX Classes
 90
        0
280
     0
281
     0
  0
CLASS
  1
LAYOUT
  2
AcDbLayout
  3
ObjectDBX Classes
 90
        0
280
     0
281
     0
  0
ENDSEC
  0
SECTION
  2
TABLES
  0
TABLE
  2
VPORT
  5
8
330
0
100
AcDbSymbolTable
 70
     1
  0
VPORT
  5
29
330
8
100
AcDbSymbolTableRecord
100
AcDbViewportTableRecord
  2
*Active
 70
     0
 10
0.0
 20
0.0
 11
1.0
 21
1.0
 12
148.5
 22
105.0
 13
0.0
 23
0.0
 14
10.0
 24
10.0
 15
10.0
 25
10.0
 16
0.0
 26
0.0
 36
1.0
 17
0.0
 27
0.0
 37
0.0
 40
210.0
 41
1.4142857143
 42
50.0
 43
0.0
 44
0.0
 50
0.0
 51
0.0
 71
     0
 72
  2000
 73
     1
 74
     3
 75
     0
 76
     0
 77
     0
 78
     0
281
     0
 65
     1
110
0.0
120
0.0
130
0.0
111
1.0
121
0.0
131
0.0
112
0.0
122
1.0
132
0.0
 79
     0
146
0.0
  0
ENDTAB
  0
TABLE
  2
LTYPE
  5
5
330
0
100
AcDbSymbolTable
 70
     6
  0
LTYPE
  5
14
330
5
100
AcDbSymbolTableRecord
100
AcDbLinetypeTableRecord
  2
ByBlock
 70
     0
  3

 72
    65
 73
     0
 40
0.0
  0
LTYPE
  5
15
330
5
100
AcDbSymbolTableRecord
100
AcDbLinetypeTableRecord
  2
ByLayer
 70
     0
  3

 72
    65
 73
     0
 40
0.0
  0
LTYPE
  5
16
330
5
100
AcDbSymbolTableRecord
100
AcDbLinetypeTableRecord
  2
Continuous
 70
     0
  3
Solid line
 72
    65
 73
     0
 40
0.0
  0
LTYPE
  5
3F
330
5
100
AcDbSymbolTableRecord
100
AcDbLinetypeTableRecord
  2
HIDDEN
 70
     0
  3
Hidden __ __ __ __ __ __ __ __ __ __ __ __ __ __
 72
    65
 73
     2
 40
1.905
 49
1.27
 74
     0
 49
-0.635
 74
     0
  0
LTYPE
  5
40
330
5
100
AcDbSymbolTableRecord
100
AcDbLinetypeTableRecord
  2
PHANTOM
 70
     0
  3
Phantom ______  __  __  ______  __  __  ______
 72
    65
 73
     6
 40
12.7
 49
6.35
 74
     0
 49
-1.27
 74
     0
 49
1.27
 74
     0
 49
-1.27
 74
     0
 49
1.27
 74
     0
 49
-1.27
 74
     0
  0
LTYPE
  5
41
330
5
100
AcDbSymbolTableRecord
100
AcDbLinetypeTableRecord
  2
CENTER
 70
     0
  3
Center ____ _ ____ _ ____ _ ____ _ ____ _ ____
 72
    65
 73
     4
 40
10.16
 49
6.35
 74
     0
 49
-1.27
 74
     0
 49
1.27
 74
     0
 49
-1.27
 74
     0
  0
LTYPE
  5
42
330
5
100
AcDbSymbolTableRecord
100
AcDbLinetypeTableRecord
  2
CENTERX2
 70
     0
  3
Center (2x) ________  __  ________  __  _____
 72
    65
 73
     4
 40
20.32
 49
12.7
 74
     0
 49
-2.54
 74
     0
 49
2.54
 74
     0
 49
-2.54
 74
     0
  0
LTYPE
  5
43
330
5
100
AcDbSymbolTableRecord
100
AcDbLinetypeTableRecord
  2
DOT2
 70
     0
  3
Dot (.5x) ........................................
 72
    65
 73
     2
 40
0.635
 49
0.0
 74
     0
 49
-0.635
 74
     0
  0
ENDTAB
  0
TABLE
  2
LAYER
  5
2
330
0
100
AcDbSymbolTable
 70
     5
  0
LAYER
  5
10
330
2
100
AcDbSymbolTableRecord
100
AcDbLayerTableRecord
  2
0
 70
     0
 62
     7
  6
Continuous
370
    -3
390
F
  0
LAYER
  5
44
330
2
100
AcDbSymbolTableRecord
100
AcDbLayerTableRecord
  2
FORMAT
 70
     0
 62
     7
  6
Continuous
370
    -3
390
F
  0
LAYER
  5
45
330
2
100
AcDbSymbolTableRecord
100
AcDbLayerTableRecord
  2
VERMASSUNG
 70
     0
 62
     7
  6
Continuous
370
    -3
390
F
  0
LAYER
  5
46
330
2
100
AcDbSymbolTableRecord
100
AcDbLayerTableRecord
  2
KOPF_DÜNN
 70
     0
 62
     7
  6
Continuous
370
    -3
390
F
  0
LAYER
  5
47
330
2
100
AcDbSymbolTableRecord
100
AcDbLayerTableRecord
  2
KOPF_DICK
 70
     0
 62
     7
  6
Continuous
370
    15
390
F
  0
ENDTAB
  0
TABLE
  2
STYLE
  5
3
330
0
100
AcDbSymbolTable
 70
     3
  0
STYLE
  5
11
330
3
100
AcDbSymbolTableRecord
100
AcDbTextStyleTableRecord
  2
Standard
 70
     0
 40
0.0
 41
1.0
 50
0.0
 71
     0
 42
2.0
  3
txt
  4

  0
STYLE
  5
48
330
3
100
AcDbSymbolTableRecord
100
AcDbTextStyleTableRecord
  2
SLDTEXTSTYLE0
 70
     0
 40
0.0
 41
0.7
 50
0.0
 71
     0
 42
0.2
  3
TXT
  4

  0
STYLE
  5
4C
330
3
100
AcDbSymbolTableRecord
100
AcDbTextStyleTableRecord
  2
SLDTEXTSTYLE1
 70
     0
 40
0.0
 41
0.6526315789
 50
0.0
 71
     0
 42
0.2
  3
TXT
  4

  0
ENDTAB
  0
TABLE
  2
VIEW
  5
6
330
0
100
AcDbSymbolTable
 70
     0
  0
ENDTAB
  0
TABLE
  2
UCS
  5
7
330
0
100
AcDbSymbolTable
 70
     0
  0
ENDTAB
  0
TABLE
  2
APPID
  5
9
330
0
100
AcDbSymbolTable
 70
     1
  0
APPID
  5
12
330
9
100
AcDbSymbolTableRecord
100
AcDbRegAppTableRecord
  2
ACAD
 70
     0
  0
ENDTAB
  0
TABLE
  2
DIMSTYLE
  5
A
330
0
100
AcDbSymbolTable
 70
     3
100
AcDbDimStyleTable
  0
DIMSTYLE
105
27
330
A
100
AcDbSymbolTableRecord
100
AcDbDimStyleTableRecord
  2
ISO-25
 70
     0
 41
2.5
 42
0.625
 43
3.75
 44
1.25
 73
     0
 74
     0
 77
     1
 78
     8
140
2.5
141
2.5
143
0.0393700787
147
0.625
171
     3
172
     1
178
     0
271
     2
272
     2
274
     3
278
    44
283
     0
284
     8
340
11
  0
DIMSTYLE
105
1E2
102
{ACAD_REACTORS
330
1E1
102
}
330
A
100
AcDbSymbolTableRecord
100
AcDbDimStyleTableRecord
  2
SLDDIMSTYLE0
 70
     0
 41
3.0
 44
0.0
 73
     0
 74
     0
 77
     1
 78
    12
 79
     3
140
2.0
147
0.5
173
     1
178
     0
272
     3
276
     2
284
    12
340
48
  0
DIMSTYLE
105
1EF
102
{ACAD_REACTORS
330
1EE
330
1FB
330
205
330
20F
330
255
102
}
330
A
100
AcDbSymbolTableRecord
100
AcDbDimStyleTableRecord
  2
SLDDIMSTYLE1
 70
     0
 41
3.0
 44
0.0
 45
0.000000001
 73
     0
 74
     0
 77
     1
 78
    12
 79
     3
140
2.0
147
0.5
173
     1
178
     0
271
     2
272
     3
276
     2
284
    12
340
48
  0
ENDTAB
  0
TABLE
  2
BLOCK_RECORD
  5
1
330
0
100
AcDbSymbolTable
 70
     8
  0
BLOCK_RECORD
  5
1F
330
1
100
AcDbSymbolTableRecord
100
AcDbBlockTableRecord
  2
*Model_Space
340
22
  0
BLOCK_RECORD
  5
1B
330
1
100
AcDbSymbolTableRecord
100
AcDbBlockTableRecord
  2
*Paper_Space
340
1E
  0
BLOCK_RECORD
  5
23
330
1
100
AcDbSymbolTableRecord
100
AcDbBlockTableRecord
  2
*Paper_Space0
340
26
  0
BLOCK_RECORD
  5
1E3
330
1
100
AcDbSymbolTableRecord
100
AcDbBlockTableRecord
  2
_D
340
0
  0
BLOCK_RECORD
  5
1F0
330
1
100
AcDbSymbolTableRecord
100
AcDbBlockTableRecord
  2
_D_1
340
0
  0
BLOCK_RECORD
  5
1FC
330
1
100
AcDbSymbolTableRecord
100
AcDbBlockTableRecord
  2
_D_2
340
0
  0
BLOCK_RECORD
  5
206
330
1
100
AcDbSymbolTableRecord
100
AcDbBlockTableRecord
  2
_D_3
340
0
  0
BLOCK_RECORD
  5
210
330
1
100
AcDbSymbolTableRecord
100
AcDbBlockTableRecord
  2
_D_4
340
0
  0
BLOCK_RECORD
  5
256
330
1
100
AcDbSymbolTableRecord
100
AcDbBlockTableRecord
  2
_D_5
340
0
  0
BLOCK_RECORD
  5
260
330
1
100
AcDbSymbolTableRecord
100
AcDbBlockTableRecord
  2
SW_CENTERMARKSYMBOL_0
340
0
102
{BLKREFS
331
26B
102
}
  0
ENDTAB
  0
ENDSEC
  0
SECTION
  2
BLOCKS
  0
BLOCK
  5
20
330
1F
100
AcDbEntity
  8
0
100
AcDbBlockBegin
  2
*Model_Space
 70
     0
 10
0.0
 20
0.0
 30
0.0
  3
*Model_Space
  1

  0
ENDBLK
  5
21
330
1F
100
AcDbEntity
  8
0
100
AcDbBlockEnd
  0
BLOCK
  5
1C
330
1B
100
AcDbEntity
 67
     1
  8
0
100
AcDbBlockBegin
  2
*Paper_Space
 70
     0
 10
0.0
 20
0.0
 30
0.0
  3
*Paper_Space
  1

  0
ENDBLK
  5
1D
330
1B
100
AcDbEntity
 67
     1
  8
0
100
AcDbBlockEnd
  0
BLOCK
  5
24
330
23
100
AcDbEntity
  8
0
100
AcDbBlockBegin
  2
*Paper_Space0
 70
     0
 10
0.0
 20
0.0
 30
0.0
  3
*Paper_Space0
  1

  0
ENDBLK
  5
25
330
23
100
AcDbEntity
  8
0
100
AcDbBlockEnd
  0
BLOCK
  5
1E4
330
1E3
100
AcDbEntity
  8
0
100
AcDbBlockBegin
  2
_D
 70
     0
 10
0.0
 20
0.0
 30
0.0
  3
_D
  1

  0
ARC
  5
1E6
330
1E3
100
AcDbEntity
  8
VERMASSUNG
100
AcDbCircle
 10
251.8794499582
 20
141.1866092659
 30
0.0
 40
39.71086052478425
100
AcDbArc
 50
264.5236038322
 51
270.0
  0
ARC
  5
1E7
330
1E3
100
AcDbEntity
  8
VERMASSUNG
100
AcDbCircle
 10
251.8794499582
 20
141.1866092659
 30
0.0
 40
39.71086052478425
100
AcDbArc
 50
255.8892247391
 51
264.5236038322
  0
ARC
  5
1E8
330
1E3
100
AcDbEntity
  8
VERMASSUNG
100
AcDbCircle
 10
251.8794499582
 20
141.1866092659
 30
0.0
 40
39.71086052478425
100
AcDbArc
 50
270.0
 51
281.9053926071
  0
SOLID
  5
1E9
330
1E3
100
AcDbEntity
  8
VERMASSUNG
100
AcDbTrace
 10
248.089617123
 20
101.6570050343
 30
0.0
 11
245.1760238063
 21
102.501678927
 31
0.0
 12
245.0564243261
 22
101.6096610099
 32
0.0
 13
245.0564243261
 23
101.6096610099
 33
0.0
  0
SOLID
  5
1EA
330
1E3
100
AcDbEntity
  8
VERMASSUNG
100
AcDbTrace
 10
251.8794499582
 20
101.4757487411
 30
0.0
 11
254.8942797377
 21
101.1391460075
 31
0.0
 12
254.8603564908
 22
102.0385064544
 32
0.0
 13
254.8603564908
 23
102.0385064544
 33
0.0
  0
LINE
  5
1EB
330
1E3
100
AcDbEntity
  8
VERMASSUNG
100
AcDbLine
 10
248.8611375755
 20
109.7042987989
 30
0.0
 11
247.9941814466
 21
100.6615694354
 31
0.0
  0
LINE
  5
1EC
330
1E3
100
AcDbEntity
  8
VERMASSUNG
100
AcDbLine
 10
251.8794499582
 20
107.3507537736
 30
0.0
 11
251.8794499582
 21
100.4757487411
 31
0.0
  0
MTEXT
  5
1ED
330
1E3
100
AcDbEntity
  8
VERMASSUNG
100
AcDbMText
 10
255.5965764501
 20
104.2175394155
 30
0.0
 40
2.0
 41
0.0
 71
     1
 72
     1
  1
5°
  7
SLDTEXTSTYLE0
 11
0.9908738375429708
 21
0.1347925742497203
 31
0.0
 73
     1
 44
1.0
  0
ENDBLK
  5
1E5
330
1E3
100
AcDbEntity
  8
0
100
AcDbBlockEnd
  0
BLOCK
  5
1F1
330
1F0
100
AcDbEntity
  8
0
100
AcDbBlockBegin
  2
_D_1
 70
     0
 10
0.0
 20
0.0
 30
0.0
  3
_D_1
  1

  0
SOLID
  5
1F3
330
1F0
100
AcDbEntity
  8
VERMASSUNG
100
AcDbTrace
 10
116.6771148341
 20
126.2481424727
 30
0.0
 11
116.2271148341
 21
123.2481424727
 31
0.0
 12
117.1271148341
 22
123.2481424727
 32
0.0
 13
117.1271148341
 23
123.2481424727
 33
0.0
  0
SOLID
  5
1F4
330
1F0
100
AcDbEntity
  8
VERMASSUNG
100
AcDbTrace
 10
116.6771148341
 20
86.2481424727
 30
0.0
 11
117.1271148341
 21
89.2481424727
 31
0.0
 12
116.2271148341
 22
89.2481424727
 32
0.0
 13
116.2271148341
 23
89.2481424727
 33
0.0
  0
LINE
  5
1F5
330
1F0
100
AcDbEntity
  8
VERMASSUNG
100
AcDbLine
 10
142.1794499582
 20
126.2481424727
 30
0.0
 11
115.6771148341
 21
126.2481424727
 31
0.0
  0
LINE
  5
1F6
330
1F0
100
AcDbEntity
  8
VERMASSUNG
100
AcDbLine
 10
142.1794499582
 20
86.2481424727
 30
0.0
 11
115.6771148341
 21
86.2481424727
 31
0.0
  0
LINE
  5
1F7
330
1F0
100
AcDbEntity
  8
VERMASSUNG
100
AcDbLine
 10
116.6771148341
 20
126.2481424727
 30
0.0
 11
116.6771148341
 21
86.2481424727
 31
0.0
  0
MTEXT
  5
1F8
330
1F0
100
AcDbEntity
  8
VERMASSUNG
100
AcDbMText
 10
113.8989793451
 20
99.9440444729
 30
0.0
 40
2.0
 41
0.0
 71
     1
 72
     1
  1
HSK
  7
SLDTEXTSTYLE0
 11
-7.044195017643634E-15
 21
1.0
 31
0.0
 73
     1
 44
1.0
  0
MTEXT
  5
1F9
330
1F0
100
AcDbEntity
  8
VERMASSUNG
100
AcDbMText
 10
114.0989793546
 20
105.944044525
 30
0.0
 40
2.0
 41
0.0
 71
     1
 72
     1
  1
%%c
  7
SLDTEXTSTYLE0
 11
-7.044195017643634E-15
 21
1.0
 31
0.0
 73
     1
 44
1.0
  0
MTEXT
  5
1FA
330
1F0
100
AcDbEntity
  8
VERMASSUNG
100
AcDbMText
 10
114.098979471
 20
109.5536666033
 30
0.0
 40
2.0
 41
0.0
 71
     1
 72
     1
  1
40
  7
SLDTEXTSTYLE0
 11
-7.044195017643634E-15
 21
1.0
 31
0.0
 73
     1
 44
1.0
  0
ENDBLK
  5
1F2
330
1F0
100
AcDbEntity
  8
0
100
AcDbBlockEnd
  0
BLOCK
  5
1FD
330
1FC
100
AcDbEntity
  8
0
100
AcDbBlockBegin
  2
_D_2
 70
     0
 10
0.0
 20
0.0
 30
0.0
  3
_D_2
  1

  0
SOLID
  5
1FF
330
1FC
100
AcDbEntity
  8
VERMASSUNG
100
AcDbTrace
 10
141.8794499582
 20
131.2746311329
 30
0.0
 11
144.8794499582
 21
130.8246311329
 31
0.0
 12
144.8794499582
 22
131.7246311329
 32
0.0
 13
144.8794499582
 23
131.7246311329
 33
0.0
  0
SOLID
  5
200
330
1FC
100
AcDbEntity
  8
VERMASSUNG
100
AcDbTrace
 10
251.8794499582
 20
131.2746311329
 30
0.0
 11
248.8794499582
 21
131.7246311329
 31
0.0
 12
248.8794499582
 22
130.8246311329
 32
0.0
 13
248.8794499582
 23
130.8246311329
 33
0.0
  0
LINE
  5
201
330
1FC
100
AcDbEntity
  8
VERMASSUNG
100
AcDbLine
 10
141.8794499582
 20
125.9481424727
 30
0.0
 11
141.8794499582
 21
132.2746311329
 31
0.0
  0
LINE
  5
202
330
1FC
100
AcDbEntity
  8
VERMASSUNG
100
AcDbLine
 10
251.8794499582
 20
123.2481424727
 30
0.0
 11
251.8794499582
 21
132.2746311329
 31
0.0
  0
LINE
  5
203
330
1FC
100
AcDbEntity
  8
VERMASSUNG
100
AcDbLine
 10
141.8794499582
 20
131.2746311329
 30
0.0
 11
251.8794499582
 21
131.2746311329
 31
0.0
  0
MTEXT
  5
204
330
1FC
100
AcDbEntity
  8
VERMASSUNG
100
AcDbMText
 10
195.1796058806
 20
133.852766496
 30
0.0
 40
2.0
 41
0.0
 71
     1
 72
     1
  1
110
  7
SLDTEXTSTYLE0
 73
     1
 44
1.0
  0
ENDBLK
  5
1FE
330
1FC
100
AcDbEntity
  8
0
100
AcDbBlockEnd
  0
BLOCK
  5
207
330
206
100
AcDbEntity
  8
0
100
AcDbBlockBegin
  2
_D_3
 70
     0
 10
0.0
 20
0.0
 30
0.0
  3
_D_3
  1

  0
SOLID
  5
209
330
206
100
AcDbEntity
  8
VERMASSUNG
100
AcDbTrace
 10
121.9794499582
 20
137.2746311329
 30
0.0
 11
124.9794499582
 21
136.8246311329
 31
0.0
 12
124.9794499582
 22
137.7246311329
 32
0.0
 13
124.9794499582
 23
137.7246311329
 33
0.0
  0
SOLID
  5
20A
330
206
100
AcDbEntity
  8
VERMASSUNG
100
AcDbTrace
 10
251.8794499582
 20
137.2746311329
 30
0.0
 11
248.8794499582
 21
137.7246311329
 31
0.0
 12
248.8794499582
 22
136.8246311329
 32
0.0
 13
248.8794499582
 23
136.8246311329
 33
0.0
  0
LINE
  5
20B
330
206
100
AcDbEntity
  8
VERMASSUNG
100
AcDbLine
 10
121.9794499582
 20
118.1781424727
 30
0.0
 11
121.9794499582
 21
138.2746311329
 31
0.0
  0
LINE
  5
20C
330
206
100
AcDbEntity
  8
VERMASSUNG
100
AcDbLine
 10
251.8794499582
 20
123.2481424727
 30
0.0
 11
251.8794499582
 21
138.2746311329
 31
0.0
  0
LINE
  5
20D
330
206
100
AcDbEntity
  8
VERMASSUNG
100
AcDbLine
 10
121.9794499582
 20
137.2746311329
 30
0.0
 11
251.8794499582
 21
137.2746311329
 31
0.0
  0
MTEXT
  5
20E
330
206
100
AcDbEntity
  8
VERMASSUNG
100
AcDbMText
 10
184.0299317511
 20
139.852766496
 30
0.0
 40
2.0
 41
0.0
 71
     1
 72
     1
  1
129.9
  7
SLDTEXTSTYLE0
 73
     1
 44
1.0
  0
ENDBLK
  5
208
330
206
100
AcDbEntity
  8
0
100
AcDbBlockEnd
  0
BLOCK
  5
211
330
210
100
AcDbEntity
  8
0
100
AcDbBlockBegin
  2
_D_4
 70
     0
 10
0.0
 20
0.0
 30
0.0
  3
_D_4
  1

  0
SOLID
  5
213
330
210
100
AcDbEntity
  8
VERMASSUNG
100
AcDbTrace
 10
259.4901817559
 20
123.2481424727
 30
0.0
 11
259.0401817559
 21
120.2481424727
 31
0.0
 12
259.9401817559
 22
120.2481424727
 32
0.0
 13
259.9401817559
 23
120.2481424727
 33
0.0
  0
SOLID
  5
214
330
210
100
AcDbEntity
  8
VERMASSUNG
100
AcDbTrace
 10
259.4901817559
 20
106.2481424727
 30
0.0
 11
259.9401817559
 21
109.2481424727
 31
0.0
 12
259.0401817559
 22
109.2481424727
 32
0.0
 13
259.0401817559
 23
109.2481424727
 33
0.0
  0
LINE
  5
215
330
210
100
AcDbEntity
  8
VERMASSUNG
100
AcDbLine
 10
251.8794499582
 20
123.2481424727
 30
0.0
 11
260.4901817559
 21
123.2481424727
 31
0.0
  0
LINE
  5
216
330
210
100
AcDbEntity
  8
VERMASSUNG
100
AcDbLine
 10
251.327568743
 20
106.2481424727
 30
0.0
 11
260.4901817559
 21
106.2481424727
 31
0.0
  0
LINE
  5
217
330
210
100
AcDbEntity
  8
VERMASSUNG
100
AcDbLine
 10
259.4901817559
 20
123.2481424727
 30
0.0
 11
259.4901817559
 21
106.2481424727
 31
0.0
  0
MTEXT
  5
218
330
210
100
AcDbEntity
  8
VERMASSUNG
100
AcDbMText
 10
256.9120463928
 20
113.5484683431
 30
0.0
 40
2.0
 41
0.0
 71
     1
 72
     1
  1
17
  7
SLDTEXTSTYLE0
 11
-7.044195017643634E-15
 21
1.0
 31
0.0
 73
     1
 44
1.0
  0
ENDBLK
  5
212
330
210
100
AcDbEntity
  8
0
100
AcDbBlockEnd
  0
BLOCK
  5
257
330
256
100
AcDbEntity
  8
0
100
AcDbBlockBegin
  2
_D_5
 70
     0
 10
0.0
 20
0.0
 30
0.0
  3
_D_5
  1

  0
SOLID
  5
259
330
256
100
AcDbEntity
  8
VERMASSUNG
100
AcDbTrace
 10
39.7587297649
 20
91.2082150685
 30
0.0
 11
40.2087297649
 21
94.2082150685
 31
0.0
 12
39.3087297649
 22
94.2082150685
 32
0.0
 13
39.3087297649
 23
94.2082150685
 33
0.0
  0
SOLID
  5
25A
330
256
100
AcDbEntity
  8
VERMASSUNG
100
AcDbTrace
 10
39.7587297649
 20
123.2082150685
 30
0.0
 11
39.3087297649
 21
120.2082150685
 31
0.0
 12
40.2087297649
 22
120.2082150685
 32
0.0
 13
40.2087297649
 23
120.2082150685
 33
0.0
  0
LINE
  5
25B
330
256
100
AcDbEntity
  8
VERMASSUNG
100
AcDbLine
 10
64.1468810963
 20
91.2082150685
 30
0.0
 11
38.7587297649
 21
91.2082150685
 31
0.0
  0
LINE
  5
25C
330
256
100
AcDbEntity
  8
VERMASSUNG
100
AcDbLine
 10
64.1468810963
 20
123.2082150685
 30
0.0
 11
38.7587297649
 21
123.2082150685
 31
0.0
  0
LINE
  5
25D
330
256
100
AcDbEntity
  8
VERMASSUNG
100
AcDbLine
 10
39.7587297649
 20
91.2082150685
 30
0.0
 11
39.7587297649
 21
123.2082150685
 31
0.0
  0
MTEXT
  5
25E
330
256
100
AcDbEntity
  8
VERMASSUNG
100
AcDbMText
 10
37.1805942854
 20
103.5577529148
 30
0.0
 40
2.0
 41
0.0
 71
     1
 72
     1
  1
%%c
  7
SLDTEXTSTYLE0
 11
6.123233995736766E-17
 21
1.0
 31
0.0
 73
     1
 44
1.0
  0
MTEXT
  5
25F
330
256
100
AcDbEntity
  8
VERMASSUNG
100
AcDbMText
 10
37.1805944018
 20
107.1653356693
 30
0.0
 40
2.0
 41
0.0
 71
     1
 72
     1
  1
32
  7
SLDTEXTSTYLE0
 11
6.123233995736766E-17
 21
1.0
 31
0.0
 73
     1
 44
1.0
  0
ENDBLK
  5
258
330
256
100
AcDbEntity
  8
0
100
AcDbBlockEnd
  0
BLOCK
  5
261
330
260
100
AcDbEntity
  8
0
100
AcDbBlockBegin
  2
SW_CENTERMARKSYMBOL_0
 70
     0
 10
0.0
 20
0.0
 30
0.0
  3
SW_CENTERMARKSYMBOL_0
  1

  0
LINE
  5
263
330
260
100
AcDbEntity
  8
VERMASSUNG
 62
     0
100
AcDbLine
 10
0.0
 20
0.0
 30
0.0
 11
0.0
 21
2.5
 31
0.0
  0
LINE
  5
264
330
260
100
AcDbEntity
  8
VERMASSUNG
 62
     0
100
AcDbLine
 10
0.0
 20
0.0
 30
0.0
 11
-2.5
 21
0.0
 31
0.0
  0
LINE
  5
265
330
260
100
AcDbEntity
  8
VERMASSUNG
 62
     0
100
AcDbLine
 10
0.0
 20
0.0
 30
0.0
 11
0.0
 21
-2.5
 31
0.0
  0
LINE
  5
266
330
260
100
AcDbEntity
  8
VERMASSUNG
 62
     0
100
AcDbLine
 10
0.0
 20
0.0
 30
0.0
 11
2.5
 21
0.0
 31
0.0
  0
LINE
  5
267
330
260
100
AcDbEntity
  8
VERMASSUNG
 62
     0
100
AcDbLine
 10
0.0
 20
5.0
 30
0.0
 11
0.0
 21
22.5
 31
0.0
  0
LINE
  5
268
330
260
100
AcDbEntity
  8
VERMASSUNG
 62
     0
100
AcDbLine
 10
-5.0
 20
0.0
 30
0.0
 11
-22.5
 21
0.0
 31
0.0
  0
LINE
  5
269
330
260
100
AcDbEntity
  8
VERMASSUNG
 62
     0
100
AcDbLine
 10
0.0
 20
-5.0
 30
0.0
 11
0.0
 21
-22.5
 31
0.0
  0
LINE
  5
26A
330
260
100
AcDbEntity
  8
VERMASSUNG
 62
     0
100
AcDbLine
 10
5.0
 20
0.0
 30
0.0
 11
22.5
 21
0.0
 31
0.0
  0
ENDBLK
  5
262
330
260
100
AcDbEntity
  8
0
100
AcDbBlockEnd
  0
ENDSEC
  0
SECTION
  2
ENTITIES
  0
MTEXT
  5
49
330
1F
100
AcDbEntity
  8
KOPF_DÜNN
100
AcDbMText
 10
13.8892156294
 20
23.8442973028
 30
0.0
 40
3.0
 41
0.0
 71
     1
 72
     1
  1
HA4.BCC.RLA.110
  7
SLDTEXTSTYLE0
 73
     1
 44
1.0
  0
MTEXT
  5
4A
330
1F
100
AcDbEntity
  8
VERMASSUNG
100
AcDbMText
 10
13.9329988022
 20
28.8834360957
 30
0.0
 40
3.0
 41
0.0
 71
     1
 72
     1
  1
Bohrstange_Boring bar
  7
SLDTEXTSTYLE0
 73
     1
 44
1.0
  0
MTEXT
  5
4B
330
1F
100
AcDbEntity
  8
VERMASSUNG
100
AcDbMText
 10
98.8601118557
 20
13.8365368179
 30
0.0
 40
2.0
 41
0.0
 71
     1
 72
     1
  1
Datum: 09.11.2006
  7
SLDTEXTSTYLE0
 73
     1
 44
1.0
  0
MTEXT
  5
4D
330
1F
100
AcDbEntity
  8
VERMASSUNG
100
AcDbMText
 10
13.933048693
 20
18.0482802738
 30
0.0
 40
2.0
 41
0.0
 71
     1
 72
     1
  1
DIN 69893 HSK 40 A ICTM / CC.. 12 04..
  7
SLDTEXTSTYLE1
 73
     1
 44
1.0
  0
MTEXT
  5
4E
330
1F
100
AcDbEntity
  8
VERMASSUNG
100
AcDbMText
 10
13.9808475933
 20
13.9090973692
 30
0.0
 40
2.0
 41
0.0
 71
     1
 72
     1
  1
Gewicht: 461g
  7
SLDTEXTSTYLE0
 73
     1
 44
1.0
  0
LINE
  5
4F
330
1F
100
AcDbEntity
  8
0
  6
Continuous
 62
     7
370
    15
100
AcDbLine
 10
243.4958772605
 20
115.8705524124
 30
0.0
 11
243.4958772605
 21
115.9821928434
 31
0.0
  0
LINE
  5
50
330
1F
100
AcDbEntity
  8
0
  6
Continuous
 62
     7
370
    15
100
AcDbLine
 10
246.2958278006
 20
116.5588379793
 30
0.0
 11
246.2958278006
 21
116.4471658834
 31
0.0
  0
LINE
  5
51
330
1F
100
AcDbEntity
  8
0
  6
Continuous
 62
     7
370
    15
100
AcDbLine
 10
241.394053573
 20
116.2448807575
 30
0.0
 11
241.394053573
 21
116.2309295453
 31
0.0
  0
LINE
  5
52
330
1F
100
AcDbEntity
  8
0
  6
Continuous
 62
     7
370
    15
100
AcDbLine
 10
248.3940528577
 20
116.2309295453
 30
0.0
 11
248.3940528577
 21
116.2448807575
 31
0.0
  0
LINE
  5
53
330
1F
100
AcDbEntity
  8
0
  6
Continuous
 62
     7
370
    15
100
AcDbLine
 10
142.1794499724
 20
86.2481429197
 30
0.0
 11
149.8294504231
 21
86.2481429197
 31
0.0
  0
LINE
  5
54
330
1F
100
AcDbEntity
  8
0
  6
Continuous
 62
     7
370
    15
100
AcDbLine
 10
149.8835975176
 20
126.2481420256
 30
0.0
 11
142.1794499724
 21
126.2481420256
 31
0.0
  0
ARC
  5
55
330
1F
100
AcDbEntity
  8
0
  6
Continuous
 62
     7
370
    15
100
AcDbCircle
 10
142.1794499582
 20
86.5481424727
 30
0.0
 40
0.3000000000000398
100
AcDbArc
 50
180.0
 51
270.0
  0
ARC
  5
56
330
1F
100
AcDbEntity
  8
0
  6
Continuous
 62
     7
370
    15
100
AcDbCircle
 10
142.1794499582
 20
125.9481424727
 30
0.0
 40
0.300000000000054
100
AcDbArc
 50
90.0
 51
180.0
  0
ARC
  5
57
330
1F
100
AcDbEntity
  8
0
  6
Continuous
 62
     7
370
    15
100
AcDbCircle
 10
141.3794499582
 20
90.7944420719
 30
0.0
 40
0.6000000000000019
100
AcDbArc
 50
33.5573097619
 51
90.0
  0
ARC
  5
58
330
1F
100
AcDbEntity
  8
0
  6
Continuous
 62
     7
370
    15
100
AcDbCircle
 10
141.3794499582
 20
121.7018428735
 30
0.0
 40
0.6000000000000019
100
AcDbArc
 50
270.0
 51
326.4426902381
  0
LINE
  5
59
330
1F
100
AcDbEntity
  8
0
  6
Continuous
 62
     7
370
    15
100
AcDbLine
 10
133.1152332818
 20
121.0129543163
 30
0.0
 11
125.5794497078
 21
120.6354101144
 31
0.0
  0
LINE
  5
5A
330
1F
100
AcDbEntity
  8
0
  6
Continuous
 62
     7
370
    15
100
AcDbLine
 10
139.8794498632
 20
121.3518430434
 30
0.0
 11
138.5921418073
 21
121.2873480238
 31
0.0
  0
LINE
  5
5B
330
1F
100
AcDbEntity
  8
0
  6
Continuous
 62
     7
370
    15
100
AcDbLine
 10
138.5922298172
 20
91.2089322649
 30
0.0
 11
139.8794498632
 21
91.1444419019
 31
0.0
  0
LINE
  5
5C
330
1F
100
AcDbEntity
  8
0
  6
Continuous
 62
     7
370
    15
100
AcDbLine
 10
128.0794501176
 20
91.7356240519
 30
0.0
 11
133.1165557599
 21
91.4832645051
 31
0.0
  0
LINE
  5
5D
330
1F
100
AcDbEntity
  8
0
  6
Continuous
 62
     7
370
    15
100
AcDbLine
 10
139.8794498632
 20
91.1444419019
 30
0.0
 11
140.7361627893
 21
91.3739980154
 31
0.0
  0
LINE
  5
5E
330
1F
100
AcDbEntity
  8
0
  6
Continuous
 62
     7
370
    15
100
AcDbLine
 10
140.7361627893
 20
121.12228693
 30
0.0
 11
139.8794498632
 21
121.3518430434
 31
0.0
  0
ARC
  5
5F
330
1F
100
AcDbEntity
  8
0
  6
Continuous
 62
     7
370
    15
100
AcDbCircle
 10
140.8914541586
 20
90.7944420719
 30
0.0
 40
0.5999999999999801
100
AcDbArc
 50
90.0
 51
105.0
  0
ARC
  5
60
330
1F
100
AcDbEntity
  8
0
  6
Continuous
 62
     7
370
    15
100
AcDbCircle
 10
140.8914541586
 20
121.7018428735
 30
0.0
 40
0.5999999999999801
100
AcDbArc
 50
255.0
 51
270.0
  0
LINE
  5
61
330
1F
100
AcDbEntity
  8
0
  6
Continuous
 62
     7
370
    15
100
AcDbLine
 10
140.891454193
 20
91.3944424086
 30
0.0
 11
141.3794499344
 21
91.3944424086
 31
0.0
  0
LINE
  5
62
330
1F
100
AcDbEntity
  8
0
  6
Continuous
 62
     7
370
    15
100
AcDbLine
 10
141.3794499344
 20
121.1018425368
 30
0.0
 11
140.891454193
 21
121.1018425368
 31
0.0
  0
ARC
  5
63
330
1F
100
AcDbEntity
  8
0
  6
Continuous
 62
     7
370
    15
100
AcDbCircle
 10
162.8294499582
 20
92.7481424727
 30
0.0
 40
0.9999999999999716
100
AcDbArc
 50
90.0
 51
180.0
  0
ARC
  5
64
330
1F
100
AcDbEntity
  8
0
  6
Continuous
 62
     7
370
    15
100
AcDbCircle
 10
162.8294499582
 20
119.7481424727
 30
0.0
 40
0.9999999999999716
100
AcDbArc
 50
180.0
 51
270.0
  0
LINE
  5
65
330
1F
100
AcDbEntity
  8
0
  6
Continuous
 62
     7
370
    15
100
AcDbLine
 10
162.8294506913
 20
93.7481422864
 30
0.0
 11
227.8794528788
 21
93.7481422864
 31
0.0
  0
LINE
  5
66
330
1F
100
AcDbEntity
  8
0
  6
Continuous
 62
     7
370
    15
100
AcDbLine
 10
223.1734501069
 20
118.7481426589
 30
0.0
 11
162.8294506913
 21
118.7481426589
 31
0.0
  0
LINE
  5
67
330
1F
100
AcDbEntity
  8
0
  6
Continuous
 62
     7
370
    15
100
AcDbLine
 10
227.8794528788
 20
118.7481426589
 30
0.0
 11
223.1734501069
 21
118.7481426589
 31
0.0
  0
ARC
  5
68
330
1F
100
AcDbEntity
  8
0
  6
Continuous
 62
     7
370
    15
100
AcDbCircle
 10
124.6794499582
 20
120.0281424727
 30
0.0
 40
0.8999999999999924
100
AcDbArc
 50
270.0
 51
311.1792132368
  0
ARC
  5
69
330
1F
100
AcDbEntity
  8
0
  6
Continuous
 62
     7
370
    15
100
AcDbCircle
 10
127.1794499582
 20
92.5271424727
 30
0.0
 40
0.899999999999984
100
AcDbArc
 50
30.4426030216
 51
90.0
  0
LINE
  5
6A
330
1F
100
AcDbEntity
  8
0
  6
Continuous
 62
     7
370
    15
100
AcDbLine
 10
122.9294495528
 20
119.1281427585
 30
0.0
 11
121.9794502353
 21
118.1781425096
 31
0.0
  0
LINE
  5
6B
330
1F
100
AcDbEntity
  8
0
  6
Continuous
 62
     7
370
    15
100
AcDbLine
 10
124.679449374
 20
119.1281427585
 30
0.0
 11
122.9294495528
 21
119.1281427585
 31
0.0
  0
LINE
  5
6C
330
1F
100
AcDbEntity
  8
0
  6
Continuous
 62
     7
370
    15
100
AcDbLine
 10
122.9294495528
 20
93.4271424033
 30
0.0
 11
127.1794497838
 21
93.4271424033
 31
0.0
  0
LINE
  5
6D
330
1F
100
AcDbEntity
  8
0
  6
Continuous
 62
     7
370
    15
100
AcDbLine
 10
121.9794502353
 20
94.3771426521
 30
0.0
 11
122.9294495528
 21
93.4271424033
 31
0.0
  0
LINE
  5
6E
330
1F
100
AcDbEntity
  8
0
  6
Continuous
 62
     7
370
    15
100
AcDbLine
 10
227.8794528788
 20
93.7481422864
 30
0.0
 11
228.3794464415
 21
93.2481422045
 31
0.0
  0
LINE
  5
6F
330
1F
100
AcDbEntity
  8
0
  6
Continuous
 62
     7
370
    15
100
AcDbLine
 10
228.3794464415
 20
93.2481422045
 30
0.0
 11
233.5907699412
 21
93.2481422045
 31
0.0
  0
CIRCLE
  5
70
330
1F
100
AcDbEntity
  8
0
  6
Continuous
 62
     7
370
    15
100
AcDbCircle
 10
244.9000672853
 20
116.244471587
 30
0.0
 40
3.493934870995632
  0
CIRCLE
  5
71
330
1F
100
AcDbEntity
  8
0
  6
Continuous
 62
     7
370
    15
100
AcDbCircle
 10
244.8985929766
 20
116.2796100507
 30
0.0
 40
2.629377955843041
  0
CIRCLE
  5
72
330
1F
100
AcDbEntity
  8
0
  6
Continuous
 62
     7
370
    15
100
AcDbCircle
 10
244.8975219836
 20
116.2797678525
 30
0.0
 40
1.996471455476419
  0
SPLINE
  5
73
330
1F
100
AcDbEntity
  8
0
  6
Continuous
 62
     7
370
    15
100
AcDbSpline
210
0.0
220
0.0
230
1.0
 70
     8
 71
     3
 72
    15
 73
    11
 74
     0
 42
0.00000001
 43
0.00000001
 12
1.0
 22
0.0
 32
0.0
 13
1.0
 23
0.0
 33
0.0
 40
0.0
 40
0.0
 40
0.0
 40
0.0
 40
0.1262483689687333
 40
0.2533638939543422
 40
0.3794190234644315
 40
0.5042653797218595
 40
0.6284491588918386
 40
0.7526346179087566
 40
0.8774901413838899
 40
1.0
 40
1.0
 40
1.0
 40
1.0
 10
245.0471104925358
 20
117.9753414310723
 30
0.0
 10
245.0271842174446
 20
118.0153281565972
 30
0.0
 10
244.9871948006282
 20
118.0955762625193
 30
0.0
 10
244.8809967321554
 20
118.1823154369924
 30
0.0
 10
244.7548147073109
 20
118.2303482812752
 30
0.0
 10
244.6201872064176
 20
118.2330520119077
 30
0.0
 10
244.4928767724412
 20
118.191316298378
 30
0.0
 10
244.3872798775051
 20
118.109942678048
 30
0.0
 10
244.3115945087166
 20
117.9991010968143
 30
0.0
 10
244.2953470022578
 20
117.9130918342167
 30
0.0
 10
244.2873002832615
 20
117.8704949982672
 30
0.0
  0
SPLINE
  5
74
330
1F
100
AcDbEntity
  8
0
  6
Continuous
 62
     7
370
    15
100
AcDbSpline
210
0.0
220
0.0
230
1.0
 70
     8
 71
     3
 72
    12
 73
     8
 74
     0
 42
0.00000001
 43
0.00000001
 12
1.0
 22
0.0
 32
0.0
 13
1.0
 23
0.0
 33
0.0
 40
0.0
 40
0.0
 40
0.0
 40
0.0
 40
0.205874896346545
 40
0.4120991284550161
 40
0.6141705465107449
 40
0.8132934121230293
 40
1.0
 40
1.0
 40
1.0
 40
1.0
 10
244.2873002832615
 20
117.8704949982672
 30
0.0
 10
244.2727101800513
 20
117.7941390738515
 30
0.0
 10
244.2435052166309
 20
117.6412976616031
 30
0.0
 10
244.1075159517843
 20
117.4465159251094
 30
0.0
 10
243.922215777426
 20
117.3092083367314
 30
0.0
 10
243.7079901703821
 20
117.2387032702926
 30
0.0
 10
243.5640390345951
 20
117.2498711622235
 30
0.0
 10
243.4943796938144
 20
117.2552754126697
 30
0.0
  0
SPLINE
  5
75
330
1F
100
AcDbEntity
  8
0
  6
Continuous
 62
     7
370
    15
100
AcDbSpline
210
0.0
220
0.0
230
1.0
 70
     8
 71
     3
 72
    15
 73
    11
 74
     0
 42
0.00000001
 43
0.00000001
 12
1.0
 22
0.0
 32
0.0
 13
1.0
 23
0.0
 33
0.0
 40
0.0
 40
0.0
 40
0.0
 40
0.0
 40
0.1268771391131079
 40
0.25399939895286
 40
0.3800533593894614
 40
0.5049036941990896
 40
0.6290860890135909
 40
0.7532718780933925
 40
0.8781250649440716
 40
1.0
 40
1.0
 40
1.0
 40
1.0
 10
243.4943796938144
 20
117.2552754126697
 30
0.0
 10
243.4498814423085
 20
117.2582827898323
 30
0.0
 10
243.3607989707461
 20
117.26430335427
 30
0.0
 10
243.2331526725357
 20
117.2161373326353
 30
0.0
 10
243.1290643257273
 20
117.1312870253833
 30
0.0
 10
243.0597765995544
 20
117.0163149165036
 30
0.0
 10
243.032371635185
 20
116.8852987979369
 30
0.0
 10
243.0498696204138
 20
116.7530841595601
 30
0.0
 10
243.107482145187
 20
116.6320841611219
 30
0.0
 10
243.173080280574
 20
116.5747662603146
 30
0.0
 10
243.2054834311687
 20
116.5464532517105
 30
0.0
  0
SPLINE
  5
76
330
1F
100
AcDbEntity
  8
0
  6
Continuous
 62
     7
370
    15
100
AcDbSpline
210
0.0
220
0.0
230
1.0
 70
     8
 71
     3
 72
    12
 73
     8
 74
     0
 42
0.00000001
 43
0.00000001
 12
1.0
 22
0.0
 32
0.0
 13
1.0
 23
0.0
 33
0.0
 40
0.0
 40
0.0
 40
0.0
 40
0.0
 40
0.2057957763499915
 40
0.4120015172307242
 40
0.614055769093109
 40
0.8131813004031342
 40
1.0
 40
1.0
 40
1.0
 40
1.0
 10
243.2054834311687
 20
116.5464532517105
 30
0.0
 10
243.2637600762012
 20
116.4952908596456
 30
0.0
 10
243.3804294588209
 20
116.3928641552216
 30
0.0
 10
243.480422802124
 20
116.1773987163437
 30
0.0
 10
243.5070954826999
 20
115.948731847514
 30
0.0
 10
243.4624038301148
 20
115.7290500950676
 30
0.0
 10
243.382025591602
 20
115.6109886927663
 30
0.0
 10
243.3431180065357
 20
115.5538403384596
 30
0.0
  0
SPLINE
  5
77
330
1F
100
AcDbEntity
  8
0
  6
Continuous
 62
     7
370
    15
100
AcDbSpline
210
0.0
220
0.0
230
1.0
 70
     8
 71
     3
 72
    15
 73
    11
 74
     0
 42
0.00000001
 43
0.00000001
 12
1.0
 22
0.0
 32
0.0
 13
1.0
 23
0.0
 33
0.0
 40
0.0
 40
0.0
 40
0.0
 40
0.0
 40
0.1268039904670642
 40
0.2539260521846162
 40
0.3799869827130026
 40
0.5048428884705941
 40
0.6290209766624982
 40
0.753207975540916
 40
0.8780558065329809
 40
1.0
 40
1.0
 40
1.0
 40
1.0
 10
243.3431180065357
 20
115.5538403384596
 30
0.0
 10
243.3186764660091
 20
115.51715949381
 30
0.0
 10
243.2697320765433
 20
115.4437057954022
 30
0.0
 10
243.2485967426788
 20
115.3098904619041
 30
0.0
 10
243.2707429369666
 20
115.1778556983105
 30
0.0
 10
243.3360728964284
 20
115.0606019626793
 30
0.0
 10
243.4358913713024
 20
114.971282225437
 30
0.0
 10
243.5588394635221
 20
114.9199418347031
 30
0.0
 10
243.6918336490803
 20
114.9086799942462
 30
0.0
 10
243.7736249245993
 20
114.9362451319318
 30
0.0
 10
243.8140394037449
 20
114.9498655416279
 30
0.0
  0
SPLINE
  5
78
330
1F
100
AcDbEntity
  8
0
  6
Continuous
 62
     7
370
    15
100
AcDbSpline
210
0.0
220
0.0
230
1.0
 70
     8
 71
     3
 72
    12
 73
     8
 74
     0
 42
0.00000001
 43
0.00000001
 12
1.0
 22
0.0
 32
0.0
 13
1.0
 23
0.0
 33
0.0
 40
0.0
 40
0.0
 40
0.0
 40
0.0
 40
0.2058496401271849
 40
0.4120524862354487
 40
0.6141089829908898
 40
0.8132409409537948
 40
1.0
 40
1.0
 40
1.0
 40
1.0
 10
243.8140394037449
 20
114.9498655416279
 30
0.0
 10
243.886919662263
 20
114.9742344978081
 30
0.0
 10
244.0328052304929
 20
115.0230142235088
 30
0.0
 10
244.2687606991192
 20
115.0010063254928
 30
0.0
 10
244.4806923697337
 20
114.9097468091057
 30
0.0
 10
244.6502146427996
 20
114.7619729498486
 30
0.0
 10
244.7138193504066
 20
114.6342736896247
 30
0.0
 10
244.7446020191394
 20
114.572471282652
 30
0.0
  0
SPLINE
  5
79
330
1F
100
AcDbEntity
  8
0
  6
Continuous
 62
     7
370
    15
100
AcDbSpline
210
0.0
220
0.0
230
1.0
 70
     8
 71
     3
 72
    15
 73
    11
 74
     0
 42
0.00000001
 43
0.00000001
 12
1.0
 22
0.0
 32
0.0
 13
1.0
 23
0.0
 33
0.0
 40
0.0
 40
0.0
 40
0.0
 40
0.0
 40
0.1262556075016793
 40
0.2533811565573013
 40
0.3794442857101149
 40
0.5042980955798683
 40
0.6284834005690163
 40
0.7526642945507651
 40
0.8775101499485971
 40
1.0
 40
1.0
 40
1.0
 40
1.0
 10
244.7446020191394
 20
114.572471282652
 30
0.0
 10
244.7645278879939
 20
114.53341494493
 30
0.0
 10
244.8045169213182
 20
114.4550331588161
 30
0.0
 10
244.91072260136
 20
114.3703426718249
 30
0.0
 10
245.0369122651681
 20
114.3235978617939
 30
0.0
 10
245.1715459309022
 20
114.3213114019971
 30
0.0
 10
245.2988560999523
 20
114.3625900826637
 30
0.0
 10
245.4044479074066
 20
114.4426525035395
 30
0.0
 10
245.4801134235774
 20
114.5514620199759
 30
0.0
 10
245.4963592431315
 20
114.6356336979818
 30
0.0
 10
245.5044047778331
 20
114.6773186467796
 30
0.0
  0
SPLINE
  5
7A
330
1F
100
AcDbEntity
  8
0
  6
Continuous
 62
     7
370
    15
100
AcDbSpline
210
0.0
220
0.0
230
1.0
 70
     8
 71
     3
 72
    12
 73
     8
 74
     0
 42
0.00000001
 43
0.00000001
 12
1.0
 22
0.0
 32
0.0
 13
1.0
 23
0.0
 33
0.0
 40
0.0
 40
0.0
 40
0.0
 40
0.0
 40
0.2058725286436965
 40
0.4120915119893737
 40
0.61417159875334
 40
0.813308020119341
 40
1.0
 40
1.0
 40
1.0
 40
1.0
 10
245.5044047778331
 20
114.6773186467796
 30
0.0
 10
245.5189985503331
 20
114.7520705928795
 30
0.0
 10
245.5482106546133
 20
114.9017002821606
 30
0.0
 10
245.6841907748377
 20
115.0939119397266
 30
0.0
 10
245.8694984921906
 20
115.2314086143641
 30
0.0
 10
246.0837264935878
 20
115.3046382076505
 30
0.0
 10
246.2276783760136
 20
115.2964838881385
 30
0.0
 10
246.2973328178608
 20
115.2925382323771
 30
0.0
  0
SPLINE
  5
7B
330
1F
100
AcDbEntity
  8
0
  6
Continuous
 62
     7
370
    15
100
AcDbSpline
210
0.0
220
0.0
230
1.0
 70
     8
 71
     3
 72
    15
 73
    11
 74
     0
 42
0.00000001
 43
0.00000001
 12
1.0
 22
0.0
 32
0.0
 13
1.0
 23
0.0
 33
0.0
 40
0.0
 40
0.0
 40
0.0
 40
0.0
 40
0.1268739592590481
 40
0.2539784871753999
 40
0.3800316218356034
 40
0.5048747163147724
 40
0.6290525623996344
 40
0.7532384746043982
 40
0.8780943463055004
 40
1.0
 40
1.0
 40
1.0
 40
1.0
 10
246.2973328178608
 20
115.2925382323771
 30
0.0
 10
246.3418313421872
 20
115.29046633202
 30
0.0
 10
246.4309092582227
 20
115.2863187660313
 30
0.0
 10
246.5585476874939
 20
115.3365371951861
 30
0.0
 10
246.6626410165674
 20
115.4226549079582
 30
0.0
 10
246.7319266969744
 20
115.5380302909528
 30
0.0
 10
246.7593417200406
 20
115.6685705743615
 30
0.0
 10
246.7418492353406
 20
115.7994645369815
 30
0.0
 10
246.6842424821195
 20
115.9184448455752
 30
0.0
 10
246.6186337803425
 20
115.9739430515588
 30
0.0
 10
246.5862216299259
 20
116.0013603933364
 30
0.0
  0
SPLINE
  5
7C
330
1F
100
AcDbEntity
  8
0
  6
Continuous
 62
     7
370
    15
100
AcDbSpline
210
0.0
220
0.0
230
1.0
 70
     8
 71
     3
 72
    12
 73
     8
 74
     0
 42
0.00000001
 43
0.00000001
 12
1.0
 22
0.0
 32
0.0
 13
1.0
 23
0.0
 33
0.0
 40
0.0
 40
0.0
 40
0.0
 40
0.0
 40
0.2058317405425288
 40
0.4120749555845171
 40
0.6141707053571382
 40
0.8133054336629386
 40
1.0
 40
1.0
 40
1.0
 40
1.0
 10
246.5862216299259
 20
116.0013603933364
 30
0.0
 10
246.5279389784899
 20
116.0509291700892
 30
0.0
 10
246.4112571638265
 20
116.1501658156374
 30
0.0
 10
246.3112635408309
 20
116.3630899081321
 30
0.0
 10
246.2846106544551
 20
116.5919842096661
 30
0.0
 10
246.3293439272532
 20
116.8143599806788
 30
0.0
 10
246.4097030089177
 20
116.9354024877869
 30
0.0
 10
246.4485870545589
 20
116.9939723752647
 30
0.0
  0
SPLINE
  5
7D
330
1F
100
AcDbEntity
  8
0
  6
Continuous
 62
     7
370
    15
100
AcDbSpline
210
0.0
220
0.0
230
1.0
 70
     8
 71
     3
 72
    15
 73
    11
 74
     0
 42
0.00000001
 43
0.00000001
 12
1.0
 22
0.0
 32
0.0
 13
1.0
 23
0.0
 33
0.0
 40
0.0
 40
0.0
 40
0.0
 40
0.0
 40
0.1267906392640221
 40
0.2538968777939529
 40
0.3799422546587833
 40
0.504783706609411
 40
0.6289634128487844
 40
0.7531532878095909
 40
0.878007838574216
 40
1.0
 40
1.0
 40
1.0
 40
1.0
 10
246.4485870545589
 20
116.9939723752647
 30
0.0
 10
246.4730288693441
 20
117.031586112262
 30
0.0
 10
246.521973337939
 20
117.1069072119995
 30
0.0
 10
246.543104794362
 20
117.2427613963824
 30
0.0
 10
246.5209754893232
 20
117.376068099409
 30
0.0
 10
246.4556675025829
 20
117.4937302257391
 30
0.0
 10
246.3558569164157
 20
117.582582453756
 30
0.0
 10
246.2329173954986
 20
117.6326201244734
 30
0.0
 10
246.0999095294051
 20
117.6418654304852
 30
0.0
 10
246.0181023748198
 20
117.6124736050297
 30
0.0
 10
245.9776731079303
 20
117.5979481034189
 30
0.0
  0
SPLINE
  5
7E
330
1F
100
AcDbEntity
  8
0
  6
Continuous
 62
     7
370
    15
100
AcDbSpline
210
0.0
220
0.0
230
1.0
 70
     8
 71
     3
 72
    12
 73
     8
 74
     0
 42
0.00000001
 43
0.00000001
 12
1.0
 22
0.0
 32
0.0
 13
1.0
 23
0.0
 33
0.0
 40
0.0
 40
0.0
 40
0.0
 40
0.0
 40
0.2058921138835523
 40
0.4121372846574112
 40
0.6142257832830289
 40
0.8133497447883813
 40
1.0
 40
1.0
 40
1.0
 40
1.0
 10
245.9776731079303
 20
117.5979481034189
 30
0.0
 10
245.9047805005046
 20
117.5719740994022
 30
0.0
 10
245.7588702918551
 20
117.5199815520179
 30
0.0
 10
245.5228805695551
 20
117.5394321833288
 30
0.0
 10
245.3109350463849
 20
117.6309233978957
 30
0.0
 10
245.1414494756679
 20
117.7814278953993
 30
0.0
 10
245.0778715730652
 20
117.9121121096556
 30
0.0
 10
245.0471104925358
 20
117.9753414310723
 30
0.0
  0
LWPOLYLINE
  5
7F
330
1F
100
AcDbEntity
  8
0
  6
Continuous
 62
     7
370
    15
100
AcDbPolyline
 90
        3
 70
   128
 43
0.0
 10
243.2597460097
 20
115.2473569803
 10
243.27887165
 20
115.3245282315
 10
243.3431180065
 20
115.4388015114
  0
ARC
  5
80
330
1F
100
AcDbEntity
  8
0
  6
Continuous
 62
     7
370
    15
100
AcDbCircle
 10
246.3593266917
 20
115.5655663199
 30
0.0
 40
0.392864530216463
100
AcDbArc
 50
10.0560599494
 51
54.7223029015
  0
ARC
  5
81
330
1F
100
AcDbEntity
  8
0
  6
Continuous
 62
     7
370
    15
100
AcDbCircle
 10
242.8091459218
 20
115.8706275758
 30
0.0
 40
0.6867313428078842
100
AcDbArc
 50
321.0373476973
 51
359.9937289217
  0
ARC
  5
82
330
1F
100
AcDbEntity
  8
0
  6
Continuous
 62
     7
370
    15
100
AcDbCircle
 10
246.9831895427
 20
116.4474302846
 30
0.0
 40
0.6873617929493941
100
AcDbArc
 50
180.0220394541
 51
234.7234202145
  0
ARC
  5
83
330
1F
100
AcDbEntity
  8
0
  6
Continuous
 62
     7
370
    15
100
AcDbCircle
 10
243.4333056587
 20
116.751174019
 30
0.0
 40
0.3938527775432136
100
AcDbArc
 50
81.0792492517
 51
171.5766087003
  0
ARC
  5
84
330
1F
100
AcDbEntity
  8
0
  6
Continuous
 62
     7
370
    15
100
AcDbCircle
 10
246.1419706921
 20
117.1247868021
 30
0.0
 40
0.3940119322011061
100
AcDbArc
 50
8.1034751928
 51
114.6444667073
  0
ARC
  5
85
330
1F
100
AcDbEntity
  8
0
  6
Continuous
 62
     7
370
    15
100
AcDbCircle
 10
243.6012965169
 20
117.821048124
 30
0.0
 40
0.6891299235130487
100
AcDbArc
 50
261.0746459091
 51
354.5404506575
  0
ARC
  5
86
330
1F
100
AcDbEntity
  8
0
  6
Continuous
 62
     7
370
    15
100
AcDbCircle
 10
245.6902982478
 20
118.1102694086
 30
0.0
 40
0.6900471330274469
100
AcDbArc
 50
201.2366176742
 51
294.6110952599
  0
ARC
  5
87
330
1F
100
AcDbEntity
  8
0
  6
Continuous
 62
     7
370
    15
100
AcDbCircle
 10
244.6796506787
 20
117.7177044515
 30
0.0
 40
0.39416493344103
100
AcDbArc
 50
21.2118689263
 51
174.5001807777
  0
ARC
  5
88
330
1F
100
AcDbEntity
  8
0
  6
Continuous
 62
     7
370
    15
100
AcDbCircle
 10
244.8940532153
 20
116.2372458527
 30
0.0
 40
3.500005341759385
100
AcDbArc
 50
180.103399257
 51
359.896600743
  0
LINE
  5
89
330
1F
100
AcDbEntity
  8
0
  6
Continuous
 62
     7
370
    15
100
AcDbLine
 10
251.404564256
 20
123.2066958167
 30
0.0
 11
239.3669666594
 21
122.1561080732
 31
0.0
  0
ARC
  5
8A
330
1F
100
AcDbEntity
  8
0
  6
Continuous
 62
     7
370
    15
100
AcDbCircle
 10
251.4398632878
 20
122.8087391292
 30
0.0
 40
0.3995191444576472
100
AcDbArc
 50
355.0709001164
 51
95.0689090664
  0
LINE
  5
8B
330
1F
100
AcDbEntity
  8
0
  6
Continuous
 62
     7
370
    15
100
AcDbLine
 10
250.7847504562
 20
110.7661396221
 30
0.0
 11
251.8379049247
 21
122.7744112678
 31
0.0
  0
ARC
  5
8C
330
1F
100
AcDbEntity
  8
0
  6
Continuous
 62
     7
370
    15
100
AcDbCircle
 10
250.3867982207
 20
110.801447391
 30
0.0
 40
0.3995154819267764
100
AcDbArc
 50
274.9300432167
 51
354.9297863882
  0
LINE
  5
8D
330
1F
100
AcDbEntity
  8
0
  6
Continuous
 62
     7
370
    15
100
AcDbLine
 10
238.3835421746
 20
109.3528222248
 30
0.0
 11
250.4211323207
 21
110.4034099683
 31
0.0
  0
ARC
  5
8E
330
1F
100
AcDbEntity
  8
0
  6
Continuous
 62
     7
370
    15
100
AcDbCircle
 10
238.3482319634
 20
109.7507677055
 30
0.0
 40
0.3995089693873171
100
AcDbArc
 50
175.0691610646
 51
275.0706481182
  0
LINE
  5
8F
330
1F
100
AcDbEntity
  8
0
  6
Continuous
 62
     7
370
    15
100
AcDbLine
 10
239.0033485239
 20
121.7933793508
 30
0.0
 11
237.950201506
 21
109.7851067737
 31
0.0
  0
ARC
  5
90
330
1F
100
AcDbEntity
  8
0
  6
Continuous
 62
     7
370
    15
100
AcDbCircle
 10
239.4013056308
 20
121.7580656765
 30
0.0
 40
0.3995208561242153
100
AcDbArc
 50
94.9306779342
 51
174.9290045618
  0
ARC
  5
91
330
1F
100
AcDbEntity
  8
0
  6
Continuous
 62
     7
370
    15
100
AcDbCircle
 10
238.3482574349
 20
109.750749885
 30
0.0
 40
0.3795373031871196
100
AcDbArc
 50
175.069817231
 51
275.0700826533
  0
LINE
  5
92
330
1F
100
AcDbEntity
  8
0
  6
Continuous
 62
     7
370
    15
100
AcDbLine
 10
238.3817987388
 20
109.3726975799
 30
0.0
 11
250.4193888849
 21
110.4232853234
 31
0.0
  0
ARC
  5
93
330
1F
100
AcDbEntity
  8
0
  6
Continuous
 62
     7
370
    15
100
AcDbCircle
 10
250.3867664822
 20
110.8014274934
 30
0.0
 40
0.3795467321140153
100
AcDbArc
 50
274.9307104915
 51
354.9289338978
  0
LINE
  5
94
330
1F
100
AcDbEntity
  8
0
  6
Continuous
 62
     7
370
    15
100
AcDbLine
 10
250.7648276036
 20
110.767878867
 30
0.0
 11
251.8179820722
 21
122.7761509784
 31
0.0
  0
ARC
  5
95
330
1F
100
AcDbEntity
  8
0
  6
Continuous
 62
     7
370
    15
100
AcDbCircle
 10
251.4398426718
 20
122.8087627483
 30
0.0
 40
0.3795430590245027
100
AcDbArc
 50
355.0708527402
 51
95.0690471441
  0
LINE
  5
96
330
1F
100
AcDbEntity
  8
0
  6
Continuous
 62
     7
370
    15
100
AcDbLine
 10
251.4063076919
 20
123.1868213929
 30
0.0
 11
239.3687100952
 21
122.1362336494
 31
0.0
  0
ARC
  5
97
330
1F
100
AcDbEntity
  8
0
  6
Continuous
 62
     7
370
    15
100
AcDbCircle
 10
239.4013273531
 20
121.7581048561
 30
0.0
 40
0.3795329627763872
100
AcDbArc
 50
94.9301102663
 51
174.9308473398
  0
LINE
  5
98
330
1F
100
AcDbEntity
  8
0
  6
Continuous
 62
     7
370
    15
100
AcDbLine
 10
239.023278827
 20
121.7916396402
 30
0.0
 11
237.9701243585
 21
109.7833679944
 31
0.0
  0
LINE
  5
99
330
1F
100
AcDbEntity
  8
0
  6
Continuous
 62
     7
370
    15
100
AcDbLine
 10
239.2676802223
 20
110.6181417547
 30
0.0
 11
238.3486734575
 21
109.7350253679
 31
0.0
  0
LINE
  5
9A
330
1F
100
AcDbEntity
  8
0
  6
Continuous
 62
     7
370
    15
100
AcDbLine
 10
249.8125763481
 20
111.332879211
 30
0.0
 11
250.3862710541
 21
110.7856131114
 31
0.0
  0
LINE
  5
9B
330
1F
100
AcDbEntity
  8
0
  6
Continuous
 62
     7
370
    15
100
AcDbLine
 10
239.975522632
 20
121.1459695317
 30
0.0
 11
239.401827926
 21
121.7432974793
 31
0.0
  0
LINE
  5
9C
330
1F
100
AcDbEntity
  8
0
  6
Continuous
 62
     7
370
    15
100
AcDbLine
 10
241.3179980462
 20
111.631705235
 30
0.0
 11
248.0550067371
 21
112.2196813069
 31
0.0
  0
LINE
  5
9D
330
1F
100
AcDbEntity
  8
0
  6
Continuous
 62
     7
370
    15
100
AcDbLine
 10
250.5204262083
 20
121.843477986
 30
0.0
 11
251.4394255226
 21
122.7938852228
 31
0.0
  0
ARC
  5
9E
330
1F
100
AcDbEntity
  8
0
  6
Continuous
 62
     7
370
    15
100
AcDbCircle
 10
241.2297396503
 20
112.6265861109
 30
0.0
 40
0.998788016375891
100
AcDbArc
 50
175.0702270948
 51
275.069582088
  0
LINE
  5
9F
330
1F
100
AcDbEntity
  8
0
  6
Continuous
 62
     7
370
    15
100
AcDbLine
 10
248.4701009339
 20
120.9278137379
 30
0.0
 11
241.7330996936
 21
120.3398372002
 31
0.0
  0
ARC
  5
A0
330
1F
100
AcDbEntity
  8
0
  6
Continuous
 62
     7
370
    15
100
AcDbCircle
 10
248.5583688469
 20
119.9329423284
 30
0.0
 40
0.9987794279982246
100
AcDbArc
 50
355.0695859077
 51
95.0701738996
  0
LINE
  5
A1
330
1F
100
AcDbEntity
  8
0
  6
Continuous
 62
     7
370
    15
100
AcDbLine
 10
248.9640446251
 20
113.1265059069
 30
0.0
 11
249.5534526056
 21
119.8471014343
 31
0.0
  0
ARC
  5
A2
330
1F
100
AcDbEntity
  8
0
  6
Continuous
 62
     7
370
    15
100
AcDbCircle
 10
247.9691610056
 20
113.2147771512
 30
0.0
 40
0.9987918846669821
100
AcDbArc
 50
274.9306309746
 51
354.9296976517
  0
LINE
  5
A3
330
1F
100
AcDbEntity
  8
0
  6
Continuous
 62
     7
370
    15
100
AcDbLine
 10
240.8240618056
 20
119.4330130659
 30
0.0
 11
240.2346463745
 21
112.7124166072
 31
0.0
  0
ARC
  5
A4
330
1F
100
AcDbEntity
  8
0
  6
Continuous
 62
     7
370
    15
100
AcDbCircle
 10
241.8189301304
 20
119.3447566426
 30
0.0
 40
0.9987753401255257
100
AcDbArc
 50
94.9298322012
 51
174.9304670034
  0
CIRCLE
  5
A5
330
1F
100
AcDbEntity
  8
0
  6
Continuous
 62
     7
370
    15
100
AcDbCircle
 10
244.8879235819
 20
116.2775050192
 30
0.0
 40
3.794023660017431
  0
LINE
  5
A6
330
1F
100
AcDbEntity
  8
0
  6
Continuous
 62
     7
370
    15
100
AcDbLine
 10
241.1085100716
 20
116.5299241387
 30
0.0
 11
241.0940484946
 21
116.199539318
 31
0.0
  0
ARC
  5
A7
330
1F
100
AcDbEntity
  8
0
  6
Continuous
 62
     7
370
    15
100
AcDbCircle
 10
244.8937460257
 20
116.1917474528
 30
0.0
 40
3.80031244761957
100
AcDbArc
 50
0.1174748935
 51
174.8946933719
  0
SPLINE
  5
A8
330
1F
100
AcDbEntity
  8
0
  6
Continuous
 62
     7
370
    15
100
AcDbSpline
210
0.0
220
0.0
230
1.0
 70
     8
 71
     3
 72
    11
 73
     7
 74
     0
 42
0.00000001
 43
0.00000001
 12
1.0
 22
0.0
 32
0.0
 13
1.0
 23
0.0
 33
0.0
 40
0.0
 40
0.0
 40
0.0
 40
0.0
 40
0.0076253044498498
 40
0.3209914733512969
 40
0.6632173881233461
 40
0.9999999999999999
 40
0.9999999999999999
 40
0.9999999999999999
 40
0.9999999999999999
 10
239.7566022222721
 20
111.1111350313037
 30
0.0
 10
239.7554877714237
 20
111.1099589836155
 30
0.0
 10
239.7085743370612
 20
111.0604525956863
 30
0.0
 10
239.6044746760228
 20
110.952418458956
 30
0.0
 10
239.4350476869576
 20
110.7808285599722
 30
0.0
 10
239.3231704208068
 20
110.6720800941331
 30
0.0
 10
239.2676802223407
 20
110.6181417547374
 30
0.0
  0
SPLINE
  5
A9
330
1F
100
AcDbEntity
  8
0
  6
Continuous
 62
     7
370
    15
100
AcDbSpline
210
0.0
220
0.0
230
1.0
 70
     8
 71
     3
 72
    11
 73
     7
 74
     0
 42
0.00000001
 43
0.00000001
 12
1.0
 22
0.0
 32
0.0
 13
1.0
 23
0.0
 33
0.0
 40
0.0
 40
0.0
 40
0.0
 40
0.0
 40
0.337231630317906
 40
0.6736309770169023
 40
0.9918808521070291
 40
0.9999999999999999
 40
0.9999999999999999
 40
0.9999999999999999
 40
0.9999999999999999
 10
249.8125763481342
 20
111.3328792110294
 30
0.0
 10
249.757673254288
 20
111.3858986111926
 30
0.0
 10
249.6480025667728
 20
111.4918065602753
 30
0.0
 10
249.4765345358534
 20
111.6646657921985
 30
0.0
 10
249.371098429482
 20
111.7740315905977
 30
0.0
 10
249.3231121278116
 20
111.8245686996308
 30
0.0
 10
249.3219183629238
 20
111.8258259214669
 30
0.0
  0
SPLINE
  5
AA
330
1F
100
AcDbEntity
  8
0
  6
Continuous
 62
     7
370
    15
100
AcDbSpline
210
0.0
220
0.0
230
1.0
 70
     8
 71
     3
 72
    11
 73
     7
 74
     0
 42
0.00000001
 43
0.00000001
 12
1.0
 22
0.0
 32
0.0
 13
1.0
 23
0.0
 33
0.0
 40
0.0
 40
0.0
 40
0.0
 40
0.0
 40
0.0081194957322296
 40
0.3263692137330773
 40
0.6627682789859143
 40
1.0
 40
1.0
 40
1.0
 40
1.0
 10
240.4661806171619
 20
120.6599951677232
 30
0.0
 10
240.4649868530776
 20
120.6611173751261
 30
0.0
 10
240.4170026113939
 20
120.7062253423914
 30
0.0
 10
240.3115635303182
 20
120.8073519661938
 30
0.0
 10
240.1400965429741
 20
120.9765438504486
 30
0.0
 10
240.0304257892537
 20
121.0894477855111
 30
0.0
 10
239.9755226319515
 20
121.1459695317059
 30
0.0
  0
SPLINE
  5
AB
330
1F
100
AcDbEntity
  8
0
  6
Continuous
 62
     7
370
    15
100
AcDbSpline
210
0.0
220
0.0
230
1.0
 70
     8
 71
     3
 72
    11
 73
     7
 74
     0
 42
0.00000001
 43
0.00000001
 12
1.0
 22
0.0
 32
0.0
 13
1.0
 23
0.0
 33
0.0
 40
0.0
 40
0.0
 40
0.0
 40
0.0
 40
0.3367863285497988
 40
0.6790109108664286
 40
0.9923741028922803
 40
1.0
 40
1.0
 40
1.0
 40
1.0
 10
250.5204262083255
 20
121.8434779860287
 30
0.0
 10
250.4649329021745
 20
121.7867093361306
 30
0.0
 10
250.3530502122839
 20
121.6722553651455
 30
0.0
 10
250.1836272055253
 20
121.5057423714831
 30
0.0
 10
250.0795205843995
 20
121.4062352293754
 30
0.0
 10
250.032611207171
 20
121.3620477287305
 30
0.0
 10
250.0314967578136
 20
121.360997944346
 30
0.0
  0
LINE
  5
AC
330
1F
100
AcDbEntity
  8
0
  6
Continuous
 62
     7
370
    15
100
AcDbLine
 10
155.8442901691
 20
87.0192575224
 30
0.0
 11
155.8442901691
 21
118.0981428318
 31
0.0
  0
LINE
  5
AD
330
1F
100
AcDbEntity
  8
0
  6
Continuous
 62
     7
370
    15
100
AcDbLine
 10
155.8442901691
 20
87.0192575224
 30
0.0
 11
154.3294502294
 21
87.0192575224
 31
0.0
  0
SPLINE
  5
AE
330
1F
100
AcDbEntity
  8
0
  6
Continuous
 62
     7
370
    15
100
AcDbSpline
210
0.0
220
0.0
230
1.0
 70
     8
 71
     3
 72
    22
 73
    18
 74
     0
 42
0.00000001
 43
0.00000001
 12
1.0
 22
0.0
 32
0.0
 13
1.0
 23
0.0
 33
0.0
 40
0.0
 40
0.0
 40
0.0
 40
0.0
 40
0.125
 40
0.125
 40
0.2500000000000001
 40
0.2500000000000001
 40
0.3750000000000001
 40
0.3750000000000001
 40
0.5000000000000001
 40
0.5000000000000001
 40
0.6250000000000001
 40
0.6250000000000001
 40
0.7500000000000002
 40
0.7500000000000002
 40
0.8750000000000002
 40
0.8750000000000002
 40
1.0
 40
1.0
 40
1.0
 40
1.0
 10
154.3294499581539
 20
87.01925794964592
 30
0.0
 10
154.0303255291132
 20
87.01925794964592
 30
0.0
 10
153.7365030808645
 20
87.0107438485796
 30
0.0
 10
153.1589388046181
 20
86.9783000796977
 30
0.0
 10
152.8721211268042
 20
86.95396619099566
 30
0.0
 10
152.3276585979048
 20
86.89350616623882
 30
0.0
 10
152.0697033272835
 20
86.85759274546032
 30
0.0
 10
151.5816453839236
 20
86.7778827193912
 30
0.0
 10
151.3519470852598
 20
86.73400441820186
 30
0.0
 10
150.9395281023072
 20
86.64576079583169
 30
0.0
 10
150.7540011594471
 20
86.60095245437071
 30
0.0
 10
150.4254811145464
 20
86.51363144645154
 30
0.0
 10
150.2870672276468
 20
86.47234065787588
 30
0.0
 10
150.0624750810309
 20
86.39800243458205
 30
0.0
 10
149.9753962689067
 20
86.36459230884738
 30
0.0
 10
149.8588944609516
 20
86.30957290732125
 30
0.0
 10
149.8294499581539
 20
86.28811114085492
 30
0.0
 10
149.8294499581539
 20
86.27315811723713
 30
0.0
  0
LINE
  5
AF
330
1F
100
AcDbEntity
  8
0
  6
Continuous
 62
     7
370
    15
100
AcDbLine
 10
149.8294504231
 20
86.2731582441
 30
0.0
 11
149.8294504231
 21
86.2481429197
 31
0.0
  0
SPLINE
  5
B0
330
1F
100
AcDbEntity
  8
0
  6
Continuous
 62
     7
370
    15
100
AcDbSpline
210
0.0
220
0.0
230
1.0
 70
     8
 71
     3
 72
    12
 73
     8
 74
     0
 42
0.00000001
 43
0.00000001
 12
1.0
 22
0.0
 32
0.0
 13
1.0
 23
0.0
 33
0.0
 40
0.0
 40
0.0
 40
0.0
 40
0.0
 40
0.211117100542305
 40
0.4221029713453049
 40
0.6364761097001761
 40
0.8531927327909691
 40
1.0
 40
1.0
 40
1.0
 40
1.0
 10
154.329450229355
 20
125.7353185631543
 30
0.0
 10
153.8308784292711
 20
125.7467782106818
 30
0.0
 10
152.8340447397983
 20
125.7696903824551
 30
0.0
 10
151.4979377464749
 20
125.9298293662852
 30
0.0
 10
150.4828806692977
 20
126.105174677588
 30
0.0
 10
149.8907963910671
 20
126.234181578788
 30
0.0
 10
149.8856684217765
 20
126.2355308956413
 30
0.0
 10
149.8835975175583
 20
126.2360758103638
 30
0.0
  0
LINE
  5
B1
330
1F
100
AcDbEntity
  8
0
  6
Continuous
 62
     7
370
    15
100
AcDbLine
 10
155.8442901691
 20
125.7353185632
 30
0.0
 11
154.3294502294
 21
125.7353185632
 31
0.0
  0
LINE
  5
B2
330
1F
100
AcDbEntity
  8
0
  6
Continuous
 62
     7
370
    15
100
AcDbLine
 10
155.8442901691
 20
122.3076472946
 30
0.0
 11
155.8442901691
 21
125.7353185632
 31
0.0
  0
SPLINE
  5
B3
330
1F
100
AcDbEntity
  8
0
  6
Continuous
 62
     7
370
    15
100
AcDbSpline
210
0.0
220
0.0
230
1.0
 70
     8
 71
     3
 72
    20
 73
    16
 74
     0
 42
0.00000001
 43
0.00000001
 12
1.0
 22
0.0
 32
0.0
 13
1.0
 23
0.0
 33
0.0
 40
0.0
 40
0.0
 40
0.0
 40
0.0
 40
0.25
 40
0.25
 40
0.375
 40
0.375
 40
0.5
 40
0.5
 40
0.625
 40
0.625
 40
0.75
 40
0.75
 40
0.875
 40
0.875
 40
1.0
 40
1.0
 40
1.0
 40
1.0
 10
149.8294499581539
 20
118.0981424726754
 30
0.0
 10
150.0532511878029
 20
118.6737868667736
 30
0.0
 10
150.3321986005643
 20
119.2034119117425
 30
0.0
 10
150.8641579793059
 20
119.9270192788292
 30
0.0
 10
151.0617466695124
 20
120.1575787846574
 30
0.0
 10
151.4969375529851
 20
120.5886215685745
 30
0.0
 10
151.7322569403908
 20
120.7872137216283
 30
0.0
 10
152.2414231696386
 20
121.1518504180225
 30
0.0
 10
152.515233620816
 20
121.3179134654331
 30
0.0
 10
153.1060818058459
 20
121.6177103244407
 30
0.0
 10
153.4181339810953
 20
121.7486487355755
 30
0.0
 10
154.0660795446012
 20
121.9717212574645
 30
0.0
 10
154.4034254419763
 20
122.0646307152738
 30
0.0
 10
155.106343569763
 20
122.2142956719863
 30
0.0
 10
155.4729642442669
 20
122.2708782740528
 30
0.0
 10
155.8442902592604
 20
122.3076465088139
 30
0.0
  0
LINE
  5
B4
330
1F
100
AcDbEntity
  8
0
  6
Continuous
 62
     7
370
    15
100
AcDbLine
 10
149.8294504231
 20
118.0981428318
 30
0.0
 11
155.8442901691
 21
118.0981428318
 31
0.0
  0
LINE
  5
B5
330
1F
100
AcDbEntity
  8
0
  6
Continuous
 62
     7
370
    15
100
AcDbLine
 10
156.8394502496
 20
88.8190197714
 30
0.0
 11
156.8394502496
 21
118.0981428318
 31
0.0
  0
SPLINE
  5
B6
330
1F
100
AcDbEntity
  8
0
  6
Continuous
 62
     7
370
    15
100
AcDbSpline
210
0.0
220
0.0
230
1.0
 70
     8
 71
     3
 72
     8
 73
     4
 74
     0
 42
0.00000001
 43
0.00000001
 12
1.0
 22
0.0
 32
0.0
 13
1.0
 23
0.0
 33
0.0
 40
0.0
 40
0.0
 40
0.0
 40
0.0
 40
1.0
 40
1.0
 40
1.0
 40
1.0
 10
156.8394499581539
 20
88.81901908468562
 30
0.0
 10
156.5088113315393
 20
88.21849873357462
 30
0.0
 10
156.1769955309658
 20
87.61862962286959
 30
0.0
 10
155.8442902592604
 20
87.01925794964593
 30
0.0
  0
SPLINE
  5
B7
330
1F
100
AcDbEntity
  8
0
  6
Continuous
 62
     7
370
    15
100
AcDbSpline
210
0.0
220
0.0
230
1.0
 70
    24
 71
     3
 72
     8
 73
     4
 74
     0
 42
0.00000001
 43
0.00000001
 12
1.0
 22
0.0
 32
0.0
 13
1.0
 23
0.0
 33
0.0
 40
0.0
 40
0.0
 40
0.0
 40
0.0
 40
1.0
 40
1.0
 40
1.0
 40
1.0
 10
155.8442902592604
 20
118.0981424726754
 30
0.0
 10
156.1833915936571
 20
118.0981424726754
 30
0.0
 10
156.5162139121046
 20
118.0981424726754
 30
0.0
 10
156.8394499581538
 20
118.0981424726754
 30
0.0
  0
LINE
  5
B8
330
1F
100
AcDbEntity
  8
0
  6
Continuous
 62
     7
370
    15
100
AcDbLine
 10
159.9146103358
 20
87.0192575224
 30
0.0
 11
159.9146103358
 21
118.0981428318
 31
0.0
  0
SPLINE
  5
B9
330
1F
100
AcDbEntity
  8
0
  6
Continuous
 62
     7
370
    15
100
AcDbSpline
210
0.0
220
0.0
230
1.0
 70
     8
 71
     3
 72
     8
 73
     4
 74
     0
 42
0.00000001
 43
0.00000001
 12
1.0
 22
0.0
 32
0.0
 13
1.0
 23
0.0
 33
0.0
 40
0.0
 40
0.0
 40
0.0
 40
0.0
 40
1.0
 40
1.0
 40
1.0
 40
1.0
 10
159.9146096570473
 20
87.01925794964593
 30
0.0
 10
159.581904385342
 20
87.61862962286959
 30
0.0
 10
159.2500885847685
 20
88.2184987335746
 30
0.0
 10
158.9194499581539
 20
88.8190190846856
 30
0.0
  0
LINE
  5
BA
330
1F
100
AcDbEntity
  8
0
  6
Continuous
 62
     7
370
    15
100
AcDbLine
 10
158.919449324
 20
88.8190197714
 30
0.0
 11
158.919449324
 21
118.0981428318
 31
0.0
  0
SPLINE
  5
BB
330
1F
100
AcDbEntity
  8
0
  6
Continuous
 62
     7
370
    15
100
AcDbSpline
210
0.0
220
0.0
230
1.0
 70
    24
 71
     3
 72
     8
 73
     4
 74
     0
 42
0.00000001
 43
0.00000001
 12
1.0
 22
0.0
 32
0.0
 13
1.0
 23
0.0
 33
0.0
 40
0.0
 40
0.0
 40
0.0
 40
0.0
 40
1.0
 40
1.0
 40
1.0
 40
1.0
 10
158.9194499581539
 20
118.0981424726754
 30
0.0
 10
159.2429542582303
 20
118.0981424726754
 30
0.0
 10
159.5755851286855
 20
118.0981424726754
 30
0.0
 10
159.9146096570473
 20
118.0981424726754
 30
0.0
  0
LINE
  5
BC
330
1F
100
AcDbEntity
  8
0
  6
Continuous
 62
     7
370
    15
100
AcDbLine
 10
161.229449684
 20
87.0192575224
 30
0.0
 11
159.9146103358
 21
87.0192575224
 31
0.0
  0
LINE
  5
BD
330
1F
100
AcDbEntity
  8
0
  6
Continuous
 62
     7
370
    15
100
AcDbLine
 10
159.9146103358
 20
118.0981428318
 30
0.0
 11
161.229449684
 21
118.0981428318
 31
0.0
  0
LINE
  5
BE
330
1F
100
AcDbEntity
  8
0
  6
Continuous
 62
     7
370
    15
100
AcDbLine
 10
161.8294505274
 20
87.6441097774
 30
0.0
 11
161.8294505274
 21
118.0981428318
 31
0.0
  0
SPLINE
  5
BF
330
1F
100
AcDbEntity
  8
0
  6
Continuous
 62
     7
370
    15
100
AcDbSpline
210
0.0
220
0.0
230
1.0
 70
     8
 71
     3
 72
    10
 73
     6
 74
     0
 42
0.00000001
 43
0.00000001
 12
1.0
 22
0.0
 32
0.0
 13
1.0
 23
0.0
 33
0.0
 40
0.0
 40
0.0
 40
0.0
 40
0.0
 40
0.5
 40
0.5
 40
1.0
 40
1.0
 40
1.0
 40
1.0
 10
161.8294499581539
 20
87.64411065158879
 30
0.0
 10
161.8294499581538
 20
87.48447848268556
 30
0.0
 10
161.7678134444485
 20
87.32342884892154
 30
0.0
 10
161.5487870782056
 20
87.09043796524497
 30
0.0
 10
161.3911701901583
 20
87.01925794964599
 30
0.0
 10
161.2294499581539
 20
87.01925794964599
 30
0.0
  0
SPLINE
  5
C0
330
1F
100
AcDbEntity
  8
0
  6
Continuous
 62
     7
370
    15
100
AcDbSpline
210
0.0
220
0.0
230
1.0
 70
    24
 71
     3
 72
    12
 73
     8
 74
     0
 42
0.00000001
 43
0.00000001
 12
1.0
 22
0.0
 32
0.0
 13
1.0
 23
0.0
 33
0.0
 40
0.0
 40
0.0
 40
0.0
 40
0.0
 40
0.2499999999999986
 40
0.2499999999999986
 40
0.4999999999999971
 40
0.4999999999999971
 40
1.0
 40
1.0
 40
1.0
 40
1.0
 10
161.2294499581539
 20
118.0981424726754
 30
0.0
 10
161.3189659694442
 20
118.0981424726754
 30
0.0
 10
161.4065934733647
 20
118.0981424726754
 30
0.0
 10
161.5598573318445
 20
118.0981424726754
 30
0.0
 10
161.6256210967015
 20
118.0981424726754
 30
0.0
 10
161.7808587556957
 20
118.0981424726754
 30
0.0
 10
161.8294499581538
 20
118.0981424726754
 30
0.0
 10
161.8294499581539
 20
118.0981424726754
 30
0.0
  0
LINE
  5
C1
330
1F
100
AcDbEntity
  8
0
  6
Continuous
 62
     7
370
    15
100
AcDbLine
 10
141.8794499582
 20
86.5481424101
 30
0.0
 11
141.8794499582
 21
125.9481425353
 31
0.0
  0
SPLINE
  5
C2
330
1F
100
AcDbEntity
  8
0
  6
Continuous
 62
     7
370
    15
100
AcDbSpline
210
0.0
220
0.0
230
1.0
 70
    24
 71
     3
 72
    16
 73
    12
 74
     0
 42
0.00000001
 43
0.00000001
 12
1.0
 22
0.0
 32
0.0
 13
1.0
 23
0.0
 33
0.0
 40
0.0
 40
0.0
 40
0.0
 40
0.0
 40
0.4999999999999979
 40
0.4999999999999979
 40
0.7499999999999977
 40
0.7499999999999977
 40
0.8749999999999983
 40
0.8749999999999983
 40
0.9374999999999991
 40
0.9374999999999991
 40
1.0
 40
1.0
 40
1.0
 40
1.0
 10
158.8842275575726
 20
89.34814247267533
 30
0.0
 10
158.8542532397184
 20
89.34814247267533
 30
0.0
 10
158.8077368451131
 20
89.34814247267533
 30
0.0
 10
158.6978755393789
 20
89.34814247267533
 30
0.0
 10
158.6547228888494
 20
89.34814247267535
 30
0.0
 10
158.5659388357355
 20
89.34814247267535
 30
0.0
 10
158.532749667857
 20
89.34814247267533
 30
0.0
 10
158.4680033675074
 20
89.34814247267533
 30
0.0
 10
158.443732156525
 20
89.34814247267533
 30
0.0
 10
158.387270879306
 20
89.34814247267535
 30
0.0
 10
158.3544672732326
 20
89.34814247267533
 30
0.0
 10
158.3194499581539
 20
89.34814247267532
 30
0.0
  0
SPLINE
  5
C3
330
1F
100
AcDbEntity
  8
0
  6
Continuous
 62
     7
370
    15
100
AcDbSpline
210
0.0
220
0.0
230
1.0
 70
    24
 71
     3
 72
    12
 73
     8
 74
     0
 42
0.00000001
 43
0.00000001
 12
1.0
 22
0.0
 32
0.0
 13
1.0
 23
0.0
 33
0.0
 40
0.0
 40
0.0
 40
0.0
 40
0.0
 40
0.2499999999999988
 40
0.2499999999999988
 40
0.4999999999999976
 40
0.4999999999999976
 40
1.0
 40
1.0
 40
1.0
 40
1.0
 10
158.3194499581539
 20
118.0981424726754
 30
0.0
 10
158.4132359525335
 20
118.0981424726754
 30
0.0
 10
158.5042684293404
 20
118.0981424726754
 30
0.0
 10
158.6582312740139
 20
118.0981424726754
 30
0.0
 10
158.7226723064519
 20
118.0981424726754
 30
0.0
 10
158.8731444085832
 20
118.0981424726754
 30
0.0
 10
158.9194499581539
 20
118.0981424726754
 30
0.0
 10
158.9194499581539
 20
118.0981424726754
 30
0.0
  0
SPLINE
  5
C4
330
1F
100
AcDbEntity
  8
0
  6
Continuous
 62
     7
370
    15
100
AcDbSpline
210
0.0
220
0.0
230
1.0
 70
    24
 71
     3
 72
    16
 73
    12
 74
     0
 42
0.00000001
 43
0.00000001
 12
1.0
 22
0.0
 32
0.0
 13
1.0
 23
0.0
 33
0.0
 40
0.0
 40
0.0
 40
0.0
 40
0.0
 40
0.062500000000001
 40
0.062500000000001
 40
0.1250000000000019
 40
0.1250000000000019
 40
0.2500000000000019
 40
0.2500000000000019
 40
0.5000000000000018
 40
0.5000000000000018
 40
1.0
 40
1.0
 40
1.0
 40
1.0
 10
157.4394499581273
 20
89.34814247267533
 30
0.0
 10
157.4049712909421
 20
89.34814247267533
 30
0.0
 10
157.3711511141051
 20
89.34814247267533
 30
0.0
 10
157.3146290469215
 20
89.34814247267535
 30
0.0
 10
157.2903029673951
 20
89.34814247267535
 30
0.0
 10
157.2258500678439
 20
89.34814247267533
 30
0.0
 10
157.1922217924853
 20
89.34814247267535
 30
0.0
 10
157.1041444769605
 20
89.34814247267533
 30
0.0
 10
157.0613250236929
 20
89.34814247267535
 30
0.0
 10
156.9506683894959
 20
89.34814247267533
 30
0.0
 10
156.9044358035519
 20
89.34814247267533
 30
0.0
 10
156.8746723587352
 20
89.34814247267533
 30
0.0
  0
SPLINE
  5
C5
330
1F
100
AcDbEntity
  8
0
  6
Continuous
 62
     7
370
    15
100
AcDbSpline
210
0.0
220
0.0
230
1.0
 70
    24
 71
     3
 72
    14
 73
    10
 74
     0
 42
0.00000001
 43
0.00000001
 12
1.0
 22
0.0
 32
0.0
 13
1.0
 23
0.0
 33
0.0
 40
0.0
 40
0.0
 40
0.0
 40
0.0
 40
0.25
 40
0.25
 40
0.5
 40
0.5
 40
0.75
 40
0.75
 40
1.0
 40
1.0
 40
1.0
 40
1.0
 10
156.8394499581539
 20
118.0981424726754
 30
0.0
 10
156.8394499581539
 20
118.0981424726754
 30
0.0
 10
156.8514764590415
 20
118.0981424726754
 30
0.0
 10
156.8996295900026
 20
118.0981424726754
 30
0.0
 10
156.9363568415808
 20
118.0981424726754
 30
0.0
 10
157.0359315617109
 20
118.0981424726754
 30
0.0
 10
157.099691581195
 20
118.0981424726754
 30
0.0
 10
157.2553445084118
 20
118.0981424726754
 30
0.0
 10
157.3470254885503
 20
118.0981424726754
 30
0.0
 10
157.4394499581539
 20
118.0981424726754
 30
0.0
  0
LINE
  5
C6
330
1F
100
AcDbEntity
  8
0
  6
Continuous
 62
     7
370
    15
100
AcDbLine
 10
158.3194503432
 20
89.3481432416
 30
0.0
 11
157.4394501617
 21
89.3481432416
 31
0.0
  0
LINE
  5
C7
330
1F
100
AcDbEntity
  8
0
  6
Continuous
 62
     7
370
    15
100
AcDbLine
 10
157.4394501617
 20
118.0981428318
 30
0.0
 11
158.3194503432
 21
118.0981428318
 31
0.0
  0
SPLINE
  5
C8
330
1F
100
AcDbEntity
  8
0
  6
Continuous
 62
     7
370
    15
100
AcDbSpline
210
0.0
220
0.0
230
1.0
 70
     8
 71
     3
 72
     8
 73
     4
 74
     0
 42
0.00000001
 43
0.00000001
 12
1.0
 22
0.0
 32
0.0
 13
1.0
 23
0.0
 33
0.0
 40
0.0
 40
0.0
 40
0.0
 40
0.0
 40
1.0
 40
1.0
 40
1.0
 40
1.0
 10
156.8394499581539
 20
119.7637742954789
 30
0.0
 10
156.8394499581538
 20
119.6423308467649
 30
0.0
 10
156.8597568828304
 20
119.5215688876159
 30
0.0
 10
156.9021394991181
 20
119.4067975038028
 30
0.0
  0
SPLINE
  5
C9
330
1F
100
AcDbEntity
  8
0
  6
Continuous
 62
     7
370
    15
100
AcDbSpline
210
0.0
220
0.0
230
1.0
 70
     8
 71
     3
 72
     8
 73
     4
 74
     0
 42
0.00000001
 43
0.00000001
 12
1.0
 22
0.0
 32
0.0
 13
1.0
 23
0.0
 33
0.0
 40
0.0
 40
0.0
 40
0.0
 40
0.0
 40
1.0
 40
1.0
 40
1.0
 40
1.0
 10
155.8442902592605
 20
122.3076465088139
 30
0.0
 10
156.1886153718311
 20
121.5990176021203
 30
0.0
 10
156.5211255921892
 20
120.8841180294786
 30
0.0
 10
156.8394499581539
 20
120.1620211786061
 30
0.0
  0
LINE
  5
CA
330
1F
100
AcDbEntity
  8
0
  6
Continuous
 62
     7
370
    15
100
AcDbLine
 10
156.8394502496
 20
120.1620216437
 30
0.0
 11
156.8394502496
 21
119.7637741409
 31
0.0
  0
LINE
  5
CB
330
1F
100
AcDbEntity
  8
0
  6
Continuous
 62
     7
370
    15
100
AcDbLine
 10
128.0794501176
 20
91.7356240519
 30
0.0
 11
128.0794501176
 21
92.6445660137
 31
0.0
  0
SPLINE
  5
CC
330
1F
100
AcDbEntity
  8
0
  6
Continuous
 62
     7
370
    15
100
AcDbSpline
210
0.0
220
0.0
230
1.0
 70
     8
 71
     3
 72
    10
 73
     6
 74
     0
 42
0.00000001
 43
0.00000001
 12
1.0
 22
0.0
 32
0.0
 13
1.0
 23
0.0
 33
0.0
 40
0.0
 40
0.0
 40
0.0
 40
0.0
 40
0.5
 40
0.5
 40
1.0
 40
1.0
 40
1.0
 40
1.0
 10
127.7882147556686
 20
93.31413912546745
 30
0.0
 10
127.8260891586133
 20
93.1879770174148
 30
0.0
 10
127.9068802059391
 20
93.07001797643291
 30
0.0
 10
128.0320101485304
 20
92.84697199384392
 30
0.0
 10
128.0794499581538
 20
92.74217692034857
 30
0.0
 10
128.0794499581538
 20
92.64456628695118
 30
0.0
  0
SPLINE
  5
CD
330
1F
100
AcDbEntity
  8
0
  6
Continuous
 62
     7
370
    15
100
AcDbSpline
210
0.0
220
0.0
230
1.0
 70
     8
 71
     3
 72
    16
 73
    12
 74
     0
 42
0.00000001
 43
0.00000001
 12
1.0
 22
0.0
 32
0.0
 13
1.0
 23
0.0
 33
0.0
 40
0.0
 40
0.0
 40
0.0
 40
0.0
 40
0.0624999999999996
 40
0.0624999999999996
 40
0.1249999999999993
 40
0.1249999999999993
 40
0.2499999999999997
 40
0.2499999999999997
 40
0.5000000000000007
 40
0.5000000000000007
 40
1.0
 40
1.0
 40
1.0
 40
1.0
 10
127.1794499581539
 20
93.96426917412238
 30
0.0
 10
127.2107657574811
 20
93.96687379601444
 30
0.0
 10
127.2434800959067
 20
93.96510489555452
 30
0.0
 10
127.3047866493835
 20
93.95357000110455
 30
0.0
 10
127.3332975396014
 20
93.94404302375835
 30
0.0
 10
127.4091915129578
 20
93.91052942363345
 30
0.0
 10
127.4485310979908
 20
93.88214190931362
 30
0.0
 10
127.5499668789722
 20
93.79412095910573
 30
0.0
 10
127.5947922385782
 20
93.7324883068986
 30
0.0
 10
127.7090745935434
 20
93.54910011322342
 30
0.0
 10
127.7538885013862
 20
93.42848211875855
 30
0.0
 10
127.7882147556685
 20
93.31413912546745
 30
0.0
  0
SPLINE
  5
CE
330
1F
100
AcDbEntity
  8
0
  6
Continuous
 62
     7
370
    15
100
AcDbSpline
210
0.0
220
0.0
230
1.0
 70
     8
 71
     3
 72
    10
 73
     6
 74
     0
 42
0.00000001
 43
0.00000001
 12
1.0
 22
0.0
 32
0.0
 13
1.0
 23
0.0
 33
0.0
 40
0.0
 40
0.0
 40
0.0
 40
0.0
 40
0.5
 40
0.5
 40
1.0
 40
1.0
 40
1.0
 40
1.0
 10
123.0896585234384
 20
93.5369622102241
 30
0.0
 10
123.7534736291221
 20
93.63067139728903
 30
0.0
 10
124.4314612973997
 20
93.70648959371421
 30
0.0
 10
125.7978869894452
 20
93.84493379136211
 30
0.0
 10
126.4870234258116
 20
93.90667813881339
 30
0.0
 10
127.1794499581539
 20
93.9642691741224
 30
0.0
  0
SPLINE
  5
CF
330
1F
100
AcDbEntity
  8
0
  6
Continuous
 62
     7
370
    15
100
AcDbSpline
210
0.0
220
0.0
230
1.0
 70
     8
 71
     3
 72
     8
 73
     4
 74
     0
 42
0.00000001
 43
0.00000001
 12
1.0
 22
0.0
 32
0.0
 13
1.0
 23
0.0
 33
0.0
 40
0.0000002108190108
 40
0.0000002108190108
 40
0.0000002108190108
 40
0.0000002108190108
 40
0.0001710235456397
 40
0.0001710235456397
 40
0.0001710235456397
 40
0.0001710235456397
 10
122.9294499581539
 20
93.51760692171588
 30
0.0
 10
122.9834381442438
 20
93.52323706431943
 30
0.0
 10
123.0370278043197
 20
93.52953245778095
 30
0.0
 10
123.0896585234384
 20
93.5369622102241
 30
0.0
  0
SPLINE
  5
D0
330
1F
100
AcDbEntity
  8
0
  6
Continuous
 62
     7
370
    15
100
AcDbSpline
210
0.0
220
0.0
230
1.0
 70
     8
 71
     3
 72
     8
 73
     4
 74
     0
 42
0.00000001
 43
0.00000001
 12
1.0
 22
0.0
 32
0.0
 13
1.0
 23
0.0
 33
0.0
 40
0.000003532078448
 40
0.000003532078448
 40
0.000003532078448
 40
0.000003532078448
 40
0.0000638548434643
 40
0.0000638548434643
 40
0.0000638548434643
 40
0.0000638548434643
 10
122.9209338085847
 20
93.54496477313182
 30
0.0
 10
122.9234829797069
 20
93.53580356979309
 30
0.0
 10
122.9263249024887
 20
93.52668256648435
 30
0.0
 10
122.9294499581538
 20
93.51760692171601
 30
0.0
  0
ELLIPSE
  5
D1
330
1F
100
AcDbEntity
  8
0
  6
Continuous
 62
     7
370
    15
100
AcDbEllipse
 10
109.4527077503
 20
105.6088447949
 30
0.0
 11
13.37355272666618
 21
-13.37146352987014
 31
0.0
210
0.0
220
0.0
230
1.0
 40
0.1761188775
 41
0.3023035477142529
 42
0.3822730435340345
  0
ELLIPSE
  5
D2
330
1F
100
AcDbEntity
  8
0
  6
Continuous
 62
     7
370
    15
100
AcDbEllipse
 10
109.3733293196
 20
106.887252924
 30
0.0
 11
13.369636111343
 21
13.36754752639486
 31
0.0
210
0.0
220
0.0
230
1.0
 40
0.1761188775
 41
5.933076931846608
 42
5.976720052691201
  0
SPLINE
  5
D3
330
1F
100
AcDbEntity
  8
0
  6
Continuous
 62
     7
370
    15
100
AcDbSpline
210
0.0
220
0.0
230
1.0
 70
     8
 71
     3
 72
     8
 73
     4
 74
     0
 42
0.00000001
 43
0.00000001
 12
1.0
 22
0.0
 32
0.0
 13
1.0
 23
0.0
 33
0.0
 40
0.0
 40
0.0
 40
0.0
 40
0.0
 40
1.0
 40
1.0
 40
1.0
 40
1.0
 10
122.9294499581538
 20
119.1137230196537
 30
0.0
 10
122.8836850504645
 20
119.0522026404949
 30
0.0
 10
122.8492979288345
 20
118.9883077807455
 30
0.0
 10
122.8302826751616
 20
118.9215778357017
 30
0.0
  0
SPLINE
  5
D4
330
1F
100
AcDbEntity
  8
0
  6
Continuous
 62
     7
370
    15
100
AcDbSpline
210
0.0
220
0.0
230
1.0
 70
     8
 71
     3
 72
    12
 73
     8
 74
     0
 42
0.00000001
 43
0.00000001
 12
1.0
 22
0.0
 32
0.0
 13
1.0
 23
0.0
 33
0.0
 40
0.0
 40
0.0
 40
0.0
 40
0.0
 40
0.2499999999999999
 40
0.2499999999999999
 40
0.4999999999999998
 40
0.4999999999999998
 40
1.0
 40
1.0
 40
1.0
 40
1.0
 10
124.679449958154
 20
119.0289363313347
 30
0.0
 10
124.5374075549647
 20
119.0447620595109
 30
0.0
 10
124.3932894484606
 20
119.0557831932862
 30
0.0
 10
124.1035349347881
 20
119.0743195551534
 30
0.0
 10
123.9577930314293
 20
119.0815902608892
 30
0.0
 10
123.5191127922495
 20
119.1000511112171
 30
0.0
 10
123.2247371761782
 20
119.1079299780407
 30
0.0
 10
122.9294499581539
 20
119.1137230196538
 30
0.0
  0
SPLINE
  5
D5
330
1F
100
AcDbEntity
  8
0
  6
Continuous
 62
     7
370
    15
100
AcDbSpline
210
0.0
220
0.0
230
1.0
 70
     8
 71
     3
 72
    20
 73
    16
 74
     0
 42
0.00000001
 43
0.00000001
 12
1.0
 22
0.0
 32
0.0
 13
1.0
 23
0.0
 33
0.0
 40
0.0
 40
0.0
 40
0.0
 40
0.0
 40
0.2500000000000004
 40
0.2500000000000004
 40
0.5000000000000009
 40
0.5000000000000009
 40
0.7500000000000013
 40
0.7500000000000013
 40
0.8750000000000007
 40
0.8750000000000007
 40
0.9375000000000003
 40
0.9375000000000003
 40
0.9687500000000001
 40
0.9687500000000001
 40
1.0
 40
1.0
 40
1.0
 40
1.0
 10
125.5794499581548
 20
119.8056665944232
 30
0.0
 10
125.5794499581548
 20
119.7450571947259
 30
0.0
 10
125.5540549385779
 20
119.6792312293223
 30
0.0
 10
125.467761752796
 20
119.5451834599757
 30
0.0
 10
125.4071257741127
 20
119.4764881018339
 30
0.0
 10
125.2590239798914
 20
119.3360895501795
 30
0.0
 10
125.1722543731128
 20
119.2643860455981
 30
0.0
 10
125.0236165777835
 20
119.1582226438493
 30
0.0
 10
124.9713273608973
 20
119.1226942952178
 30
0.0
 10
124.8805635325873
 20
119.0729903647023
 30
0.0
 10
124.8481975401354
 20
119.0567293666872
 30
0.0
 10
124.7905083844691
 20
119.0376167983413
 30
0.0
 10
124.7695213565818
 20
119.0322256562598
 30
0.0
 10
124.7242323775913
 20
119.0264882878673
 30
0.0
 10
124.701218108753
 20
119.0265110215207
 30
0.0
 10
124.6794499581533
 20
119.0289363313336
 30
0.0
  0
LINE
  5
D6
330
1F
100
AcDbEntity
  8
0
  6
Continuous
 62
     7
370
    15
100
AcDbLine
 10
125.5794497078
 20
119.805666893
 30
0.0
 11
125.5794497078
 21
120.6354101144
 31
0.0
  0
LINE
  5
D7
330
1F
100
AcDbEntity
  8
0
  6
Continuous
 62
     7
370
    15
100
AcDbLine
 10
139.8794498632
 20
91.1444419019
 30
0.0
 11
139.8794498632
 21
121.3518430434
 31
0.0
  0
SPLINE
  5
D8
330
1F
100
AcDbEntity
  8
0
  6
Continuous
 62
     7
370
    15
100
AcDbSpline
210
0.0
220
0.0
230
1.0
 70
     8
 71
     3
 72
    18
 73
    14
 74
     0
 42
0.00000001
 43
0.00000001
 12
1.0
 22
0.0
 32
0.0
 13
1.0
 23
0.0
 33
0.0
 40
0.0
 40
0.0
 40
0.0
 40
0.0
 40
0.0647987055308793
 40
0.1911457431666448
 40
0.3159453184352518
 40
0.3775977083606854
 40
0.4397856493455953
 40
0.5017220995336993
 40
0.5630628754677616
 40
0.6866516188868883
 40
0.8118021473332026
 40
0.9380327409414257
 40
1.0
 40
1.0
 40
1.0
 40
1.0
 10
133.1170968582713
 20
91.49406132774645
 30
0.0
 10
133.1064517314825
 20
91.49262661863841
 30
0.0
 10
133.075050322234
 20
91.48839445788087
 30
0.0
 10
133.4939336703976
 20
91.54921178775881
 30
0.0
 10
134.1384972760563
 20
91.61476192101925
 30
0.0
 10
134.7921586329196
 20
91.64496651368655
 30
0.0
 10
135.3233436213836
 20
91.6485412395825
 30
0.0
 10
135.8747510127463
 20
91.63146077882568
 30
0.0
 10
136.6056528339302
 20
91.57844317241384
 30
0.0
 10
137.4675243357738
 20
91.46065906212479
 30
0.0
 10
138.2338286836984
 20
91.30811740538293
 30
0.0
 10
138.6343081338777
 20
91.20892449418061
 30
0.0
 10
138.6030506272326
 20
91.21686986683078
 30
0.0
 10
138.5927585756265
 20
91.21948601233059
 30
0.0
  0
SPLINE
  5
D9
330
1F
100
AcDbEntity
  8
0
  6
Continuous
 62
     7
370
    15
100
AcDbSpline
210
0.0
220
0.0
230
1.0
 70
     8
 71
     3
 72
    18
 73
    14
 74
     0
 42
0.00000001
 43
0.00000001
 12
1.0
 22
0.0
 32
0.0
 13
1.0
 23
0.0
 33
0.0
 40
0.0
 40
0.0
 40
0.0
 40
0.0
 40
0.0628581906661193
 40
0.188821099002829
 40
0.3136429384039809
 40
0.4369193679427552
 40
0.4982390324135774
 40
0.5602488727579926
 40
0.6224808204920839
 40
0.684256874301895
 40
0.8091590031135478
 40
0.9354526781227457
 40
1.0
 40
1.0
 40
1.0
 40
1.0
 10
138.5926789475464
 20
121.2766266383439
 30
0.0
 10
138.6033389703223
 20
121.2792702714275
 30
0.0
 10
138.6353608467811
 20
121.2872115388886
 30
0.0
 10
138.2298869384047
 20
121.1875175648422
 30
0.0
 10
137.4669500784792
 20
121.0351001198743
 30
0.0
 10
136.6055475137334
 20
120.9178203534469
 30
0.0
 10
135.8754206636978
 20
120.8649218981349
 30
0.0
 10
135.3236407363689
 20
120.8478174527194
 30
0.0
 10
134.7916732170174
 20
120.8513617318515
 30
0.0
 10
134.1370536006349
 20
120.8815524495574
 30
0.0
 10
133.4926478678802
 20
120.9472160692264
 30
0.0
 10
133.0752150289454
 20
121.0080415592071
 30
0.0
 10
133.1055275094616
 20
121.0035541714476
 30
0.0
 10
133.1157799681508
 20
121.0020364217668
 30
0.0
  0
SPLINE
  5
DA
330
1F
100
AcDbEntity
  8
0
  6
Continuous
 62
     7
370
    15
100
AcDbSpline
210
0.0
220
0.0
230
1.0
 70
     8
 71
     3
 72
    26
 73
    22
 74
     0
 42
0.00000001
 43
0.00000001
 12
1.0
 22
0.0
 32
0.0
 13
1.0
 23
0.0
 33
0.0
 40
0.0
 40
0.0
 40
0.0
 40
0.0
 40
0.2499999999999982
 40
0.2499999999999982
 40
0.3749999999999981
 40
0.3749999999999981
 40
0.4374999999999979
 40
0.4374999999999979
 40
0.468749999999998
 40
0.468749999999998
 40
0.4999999999999981
 40
0.4999999999999981
 40
0.5312499999999982
 40
0.5312499999999982
 40
0.5624999999999983
 40
0.5624999999999983
 40
0.6249999999999986
 40
0.6249999999999986
 40
0.7499999999999989
 40
0.7499999999999989
 40
1.0
 40
1.0
 40
1.0
 40
1.0
 10
122.7394200045417
 20
118.6362230522883
 30
0.0
 10
122.6920318951132
 20
118.5005673102652
 30
0.0
 10
122.6343905932088
 20
118.3566059119359
 30
0.0
 10
122.5123427806654
 20
118.1138333386814
 30
0.0
 10
122.4662937728889
 20
118.028793698232
 30
0.0
 10
122.3756404887232
 20
117.8884177251916
 30
0.0
 10
122.3412879884376
 20
117.8385063478528
 30
0.0
 10
122.278852816047
 20
117.7619710829985
 30
0.0
 10
122.255558797249
 20
117.7355666040116
 30
0.0
 10
122.2065062601224
 20
117.6879718387506
 30
0.0
 10
122.1820748104656
 20
117.6685292248988
 30
0.0
 10
122.1414452148458
 20
117.6436214472308
 30
0.0
 10
122.1252829329947
 20
117.6375516159199
 30
0.0
 10
122.0983008888916
 20
117.6318627443262
 30
0.0
 10
122.0875513660688
 20
117.6322532524069
 30
0.0
 10
122.0595153919117
 20
117.6383955991954
 30
0.0
 10
122.0466541598791
 20
117.6490596056134
 30
0.0
 10
122.0156512987188
 20
117.6880723959736
 30
0.0
 10
122.0047918166497
 20
117.7241243863779
 30
0.0
 10
121.9815145607117
 20
117.841803783877
 30
0.0
 10
121.9794499581537
 20
117.9331336842099
 30
0.0
 10
121.9794499581537
 20
118.0263739371162
 30
0.0
  0
SPLINE
  5
DB
330
1F
100
AcDbEntity
  8
0
  6
Continuous
 62
     7
370
    15
100
AcDbSpline
210
0.0
220
0.0
230
1.0
 70
     8
 71
     3
 72
    24
 73
    20
 74
     0
 42
0.00000001
 43
0.00000001
 12
1.0
 22
0.0
 32
0.0
 13
1.0
 23
0.0
 33
0.0
 40
0.0
 40
0.0
 40
0.0
 40
0.0
 40
0.2500000000000085
 40
0.2500000000000085
 40
0.3750000000000126
 40
0.3750000000000126
 40
0.4375000000000152
 40
0.4375000000000152
 40
0.5000000000000177
 40
0.5000000000000177
 40
0.5312500000000173
 40
0.5312500000000173
 40
0.5625000000000169
 40
0.5625000000000169
 40
0.6250000000000152
 40
0.6250000000000152
 40
0.7500000000000104
 40
0.7500000000000104
 40
1.0
 40
1.0
 40
1.0
 40
1.0
 10
121.9794499581538
 20
94.70062927145405
 30
0.0
 10
121.9794499581538
 20
94.7855382251236
 30
0.0
 10
121.9821745865862
 20
94.86786792117046
 30
0.0
 10
122.0085319077042
 20
94.97028030858945
 30
0.0
 10
122.0207456259763
 20
95.00109740497383
 30
0.0
 10
122.0553562761087
 20
95.0301949210508
 30
0.0
 10
122.0697429864761
 20
95.03715256168944
 30
0.0
 10
122.1109914695784
 20
95.03604282041265
 30
0.0
 10
122.1395310195092
 20
95.02774941480394
 30
0.0
 10
122.2004536850204
 20
94.9831659809428
 30
0.0
 10
122.2235196551603
 20
94.96270426768558
 30
0.0
 10
122.2674155351665
 20
94.91809164940526
 30
0.0
 10
122.2882955707267
 20
94.8942155711989
 30
0.0
 10
122.3455058340199
 20
94.82431847403686
 30
0.0
 10
122.3778524577963
 20
94.77874088525238
 30
0.0
 10
122.4640184012882
 20
94.64985739763343
 30
0.0
 10
122.5096824213282
 20
94.57002422050135
 30
0.0
 10
122.6302299847795
 20
94.34424341138894
 30
0.0
 10
122.6892900734807
 20
94.20941202641757
 30
0.0
 10
122.7394200045417
 20
94.08115688775
 30
0.0
  0
LINE
  5
DC
330
1F
100
AcDbEntity
  8
0
  6
Continuous
 62
     7
370
    15
100
AcDbLine
 10
121.9794502353
 20
94.7006291665
 30
0.0
 11
121.9794502353
 21
118.0263741829
 31
0.0
  0
SPLINE
  5
DD
330
1F
100
AcDbEntity
  8
0
  6
Continuous
 62
     7
370
    15
100
AcDbSpline
210
0.0
220
0.0
230
1.0
 70
     8
 71
     3
 72
    14
 73
    10
 74
     0
 42
0.00000001
 43
0.00000001
 12
1.0
 22
0.0
 32
0.0
 13
1.0
 23
0.0
 33
0.0
 40
0.0
 40
0.0
 40
0.0
 40
0.0
 40
0.25
 40
0.25
 40
0.5
 40
0.5
 40
0.75
 40
0.75
 40
1.0
 40
1.0
 40
1.0
 40
1.0
 10
223.4834118860278
 20
118.7481347012593
 30
0.0
 10
222.8098228680358
 20
118.7481347012593
 30
0.0
 10
222.154966509684
 20
118.7494846222367
 30
0.0
 10
220.8828899924025
 20
118.7372326048735
 30
0.0
 10
220.3011061414233
 20
118.7236864263545
 30
0.0
 10
219.2484567930298
 20
118.6359249348971
 30
0.0
 10
218.8080319044289
 20
118.5635584762162
 30
0.0
 10
218.0961549951981
 20
118.30958749441
 30
0.0
 10
217.8464888585526
 20
118.1351973511744
 30
0.0
 10
217.6878569282932
 20
117.8979055805432
 30
0.0
  0
ELLIPSE
  5
DE
330
1F
100
AcDbEntity
  8
0
  6
Continuous
 62
     7
370
    15
100
AcDbEllipse
 10
219.1168154441
 20
106.2481424727
 30
0.0
 11
-0.2516063682710126
 21
12.499819213438
 31
0.0
210
0.0
220
0.0
230
1.0
 40
0.2671959542
 41
0.3655781774467193
 42
2.625631571542027
  0
SPLINE
  5
DF
330
1F
100
AcDbEntity
  8
0
  6
Continuous
 62
     7
370
    15
100
AcDbSpline
210
0.0
220
0.0
230
1.0
 70
     8
 71
     3
 72
    22
 73
    18
 74
     0
 42
0.00000001
 43
0.00000001
 12
1.0
 22
0.0
 32
0.0
 13
1.0
 23
0.0
 33
0.0
 40
0.0
 40
0.0
 40
0.0
 40
0.0
 40
0.125
 40
0.125
 40
0.25
 40
0.25
 40
0.375
 40
0.375
 40
0.5
 40
0.5
 40
0.625
 40
0.625
 40
0.75
 40
0.75
 40
0.875
 40
0.875
 40
1.0
 40
1.0
 40
1.0
 40
1.0
 10
217.6878569282932
 20
95.34239434979365
 30
0.0
 10
217.7671079159818
 20
95.18258209701344
 30
0.0
 10
217.8694639730597
 20
95.0390351339161
 30
0.0
 10
218.1229611622448
 20
94.78076209784754
 30
0.0
 10
218.2746915875564
 20
94.66569566677263
 30
0.0
 10
218.6296857309313
 20
94.46283950679963
 30
0.0
 10
218.8286489765098
 20
94.37725671786683
 30
0.0
 10
219.2691633522013
 20
94.23087985494527
 30
0.0
 10
219.5122677669671
 20
94.16981831726731
 30
0.0
 10
220.0366385825073
 20
94.06855426900894
 30
0.0
 10
220.3134167786631
 20
94.02897726383996
 30
0.0
 10
220.8952675799657
 20
93.96524170536313
 30
0.0
 10
221.2029347119266
 20
93.94097166799504
 30
0.0
 10
221.8352319504223
 20
93.90431867199203
 30
0.0
 10
222.1571360056188
 20
93.89194133948224
 30
0.0
 10
222.8121493273303
 20
93.87564587851502
 30
0.0
 10
223.1468941679247
 20
93.87173919123828
 30
0.0
 10
223.4834118860278
 20
93.87173919123828
 30
0.0
  0
LINE
  5
E0
330
1F
100
AcDbEntity
  8
0
  6
Continuous
 62
     7
370
    15
100
AcDbLine
 10
223.4834091609
 20
93.8717390366
 30
0.0
 11
227.8794528788
 21
93.8717390366
 31
0.0
  0
LINE
  5
E1
330
1F
100
AcDbEntity
  8
0
  6
Continuous
 62
     7
370
    15
100
AcDbLine
 10
227.8794528788
 20
93.8717390366
 30
0.0
 11
227.8794528788
 21
93.7481422864
 31
0.0
  0
LINE
  5
E2
330
1F
100
AcDbEntity
  8
0
  6
Continuous
 62
     7
370
    15
100
AcDbLine
 10
227.8794528788
 20
118.748134277
 30
0.0
 11
223.4834091609
 21
118.748134277
 31
0.0
  0
ELLIPSE
  5
E3
330
1F
100
AcDbEntity
  8
0
  6
Continuous
 62
     7
370
    15
100
AcDbEllipse
 10
217.1418669989
 20
111.0720339686
 30
0.0
 11
0.05251766933000113
 21
2.241541408624258
 31
0.0
210
0.0
220
0.0
230
1.0
 40
0.2635807735
 41
5.202529271798999
 42
10.68274473343983
  0
SPLINE
  5
E4
330
1F
100
AcDbEntity
  8
0
  6
Continuous
 62
     7
370
    15
100
AcDbSpline
210
0.0
220
0.0
230
1.0
 70
     8
 71
     3
 72
     8
 73
     4
 74
     0
 42
0.00000001
 43
0.00000001
 12
1.0
 22
0.0
 32
0.0
 13
1.0
 23
0.0
 33
0.0
 40
0.0
 40
0.0
 40
0.0
 40
0.0
 40
1.0
 40
1.0
 40
1.0
 40
1.0
 10
156.8394499581538
 20
123.9618191682057
 30
0.0
 10
156.5084296271342
 20
124.5533748646634
 30
0.0
 10
156.1766483556501
 20
125.1445075289086
 30
0.0
 10
155.8442902592604
 20
125.7353177425805
 30
0.0
  0
LINE
  5
E5
330
1F
100
AcDbEntity
  8
0
  6
Continuous
 62
     7
370
    15
100
AcDbLine
 10
156.8394502496
 20
120.1620216437
 30
0.0
 11
156.8394502496
 21
123.9618196108
 31
0.0
  0
SPLINE
  5
E6
330
1F
100
AcDbEntity
  8
0
  6
Continuous
 62
     7
370
    15
100
AcDbSpline
210
0.0
220
0.0
230
1.0
 70
     8
 71
     3
 72
    10
 73
     6
 74
     0
 42
0.00000001
 43
0.00000001
 12
1.0
 22
0.0
 32
0.0
 13
1.0
 23
0.0
 33
0.0
 40
0.0
 40
0.0
 40
0.0
 40
0.0
 40
0.5
 40
0.5
 40
1.0
 40
1.0
 40
1.0
 40
1.0
 10
157.0877943439038
 20
123.1481424726754
 30
0.0
 10
157.0104696120295
 20
123.2060244735371
 30
0.0
 10
156.9470897864931
 20
123.283097818171
 30
0.0
 10
156.86151933772
 20
123.4576008763648
 30
0.0
 10
156.8394499581539
 20
123.5544060798453
 30
0.0
 10
156.8394499581539
 20
123.6507464444953
 30
0.0
  0
SPLINE
  5
E7
330
1F
100
AcDbEntity
  8
0
  6
Continuous
 62
     7
370
    15
100
AcDbSpline
210
0.0
220
0.0
230
1.0
 70
    24
 71
     3
 72
    12
 73
     8
 74
     0
 42
0.00000001
 43
0.00000001
 12
1.0
 22
0.0
 32
0.0
 13
1.0
 23
0.0
 33
0.0
 40
0.0
 40
0.0
 40
0.0
 40
0.0
 40
0.25
 40
0.25
 40
0.5
 40
0.5
 40
1.0
 40
1.0
 40
1.0
 40
1.0
 10
157.4394499581539
 20
123.1481424726755
 30
0.0
 10
157.3878577578793
 20
123.1481424726755
 30
0.0
 10
157.3409527490845
 20
123.1481424726755
 30
0.0
 10
157.2676190232081
 20
123.1481424726755
 30
0.0
 10
157.238389193759
 20
123.1481424726755
 30
0.0
 10
157.1601564136961
 20
123.1481424726755
 30
0.0
 10
157.1217222557885
 20
123.1481424726755
 30
0.0
 10
157.0877943439037
 20
123.1481424726755
 30
0.0
  0
SPLINE
  5
E8
330
1F
100
AcDbEntity
  8
0
  6
Continuous
 62
     7
370
    15
100
AcDbSpline
210
0.0
220
0.0
230
1.0
 70
     8
 71
     3
 72
    12
 73
     8
 74
     0
 42
0.00000001
 43
0.00000001
 12
1.0
 22
0.0
 32
0.0
 13
1.0
 23
0.0
 33
0.0
 40
0.0
 40
0.0
 40
0.0
 40
0.0
 40
0.5
 40
0.5
 40
0.75
 40
0.75
 40
1.0
 40
1.0
 40
1.0
 40
1.0
 10
156.9021394991188
 20
119.4067975038026
 30
0.0
 10
156.9450473431195
 20
119.2906038125269
 30
0.0
 10
157.0113345050826
 20
119.1804686141744
 30
0.0
 10
157.1484264908453
 20
119.0540142508444
 30
0.0
 10
157.2007928200275
 20
119.0183436472684
 30
0.0
 10
157.3149540363039
 20
118.9688491748615
 30
0.0
 10
157.3774908718975
 20
118.9551533328265
 30
0.0
 10
157.4394499581538
 20
118.9551533328265
 30
0.0
  0
LINE
  5
E9
330
1F
100
AcDbEntity
  8
0
  6
Continuous
 62
     7
370
    15
100
AcDbLine
 10
157.4394501617
 20
118.9551533155
 30
0.0
 11
158.3194503432
 21
118.9551533155
 31
0.0
  0
SPLINE
  5
EA
330
1F
100
AcDbEntity
  8
0
  6
Continuous
 62
     7
370
    15
100
AcDbSpline
210
0.0
220
0.0
230
1.0
 70
     8
 71
     3
 72
    12
 73
     8
 74
     0
 42
0.00000001
 43
0.00000001
 12
1.0
 22
0.0
 32
0.0
 13
1.0
 23
0.0
 33
0.0
 40
0.0
 40
0.0
 40
0.0
 40
0.0
 40
0.2500000000000012
 40
0.2500000000000012
 40
0.5000000000000024
 40
0.5000000000000024
 40
1.0
 40
1.0
 40
1.0
 40
1.0
 10
158.3194499581539
 20
118.9551533328265
 30
0.0
 10
158.412700976487
 20
118.9551533328265
 30
0.0
 10
158.504206685313
 20
118.9862146512259
 30
0.0
 10
158.659130219848
 20
119.0888353016065
 30
0.0
 10
158.7227250377902
 20
119.1584878296853
 30
0.0
 10
158.8732839944733
 20
119.3937027615871
 30
0.0
 10
158.9194499581539
 20
119.5785088509965
 30
0.0
 10
158.9194499581539
 20
119.7639896529302
 30
0.0
  0
LINE
  5
EB
330
1F
100
AcDbEntity
  8
0
  6
Continuous
 62
     7
370
    15
100
AcDbLine
 10
158.919449324
 20
119.7639892765
 30
0.0
 11
158.919449324
 21
120.1622302599
 31
0.0
  0
SPLINE
  5
EC
330
1F
100
AcDbEntity
  8
0
  6
Continuous
 62
     7
370
    15
100
AcDbSpline
210
0.0
220
0.0
230
1.0
 70
     8
 71
     3
 72
     8
 73
     4
 74
     0
 42
0.00000001
 43
0.00000001
 12
1.0
 22
0.0
 32
0.0
 13
1.0
 23
0.0
 33
0.0
 40
0.0
 40
0.0
 40
0.0
 40
0.0
 40
1.0
 40
1.0
 40
1.0
 40
1.0
 10
158.9194499581539
 20
120.1622303721308
 30
0.0
 10
159.2430075164088
 20
120.8983467707534
 30
0.0
 10
159.5755018366258
 20
121.630438366172
 30
0.0
 10
159.9146096570473
 20
122.3595514737529
 30
0.0
  0
LINE
  5
ED
330
1F
100
AcDbEntity
  8
0
  6
Continuous
 62
     7
370
    15
100
AcDbLine
 10
159.9146103358
 20
122.3595517643
 30
0.0
 11
161.229449684
 21
122.3595517643
 31
0.0
  0
SPLINE
  5
EE
330
1F
100
AcDbEntity
  8
0
  6
Continuous
 62
     7
370
    15
100
AcDbSpline
210
0.0
220
0.0
230
1.0
 70
     8
 71
     3
 72
    12
 73
     8
 74
     0
 42
0.00000001
 43
0.00000001
 12
1.0
 22
0.0
 32
0.0
 13
1.0
 23
0.0
 33
0.0
 40
0.0
 40
0.0
 40
0.0
 40
0.0
 40
0.2499999999999986
 40
0.2499999999999986
 40
0.4999999999999972
 40
0.4999999999999972
 40
1.0
 40
1.0
 40
1.0
 40
1.0
 10
161.2294499581539
 20
122.3595514737528
 30
0.0
 10
161.3187383171976
 20
122.3595514737529
 30
0.0
 10
161.4067971480998
 20
122.3339268411481
 30
0.0
 10
161.5594508613489
 20
122.2453834682163
 30
0.0
 10
161.6252443546909
 20
122.1825009851017
 30
0.0
 10
161.780685001407
 20
121.9651397971681
 30
0.0
 10
161.8294499581538
 20
121.7864927871568
 30
0.0
 10
161.8294499581539
 20
121.6083996319811
 30
0.0
  0
LINE
  5
EF
330
1F
100
AcDbEntity
  8
0
  6
Continuous
 62
     7
370
    15
100
AcDbLine
 10
161.8294505274
 20
121.608400061
 30
0.0
 11
161.8294505274
 21
118.0981428318
 31
0.0
  0
SPLINE
  5
F0
330
1F
100
AcDbEntity
  8
0
  6
Continuous
 62
     7
370
    15
100
AcDbSpline
210
0.0
220
0.0
230
1.0
 70
     8
 71
     3
 72
     8
 73
     4
 74
     0
 42
0.00000001
 43
0.00000001
 12
1.0
 22
0.0
 32
0.0
 13
1.0
 23
0.0
 33
0.0
 40
0.0
 40
0.0
 40
0.0
 40
0.0
 40
1.0
 40
1.0
 40
1.0
 40
1.0
 10
159.9146096570474
 20
125.7353177425805
 30
0.0
 10
159.5822515606577
 20
125.1445075289086
 30
0.0
 10
159.2504702891736
 20
124.5533748646634
 30
0.0
 10
158.9194499581539
 20
123.9618191682057
 30
0.0
  0
LINE
  5
F1
330
1F
100
AcDbEntity
  8
0
  6
Continuous
 62
     7
370
    15
100
AcDbLine
 10
159.9146103358
 20
122.3595517643
 30
0.0
 11
159.9146103358
 21
125.7353185632
 31
0.0
  0
LINE
  5
F2
330
1F
100
AcDbEntity
  8
0
  6
Continuous
 62
     7
370
    15
100
AcDbLine
 10
158.919449324
 20
120.1622302599
 30
0.0
 11
158.919449324
 21
123.9618196108
 31
0.0
  0
SPLINE
  5
F3
330
1F
100
AcDbEntity
  8
0
  6
Continuous
 62
     7
370
    15
100
AcDbSpline
210
0.0
220
0.0
230
1.0
 70
    24
 71
     3
 72
    12
 73
     8
 74
     0
 42
0.00000001
 43
0.00000001
 12
1.0
 22
0.0
 32
0.0
 13
1.0
 23
0.0
 33
0.0
 40
0.0
 40
0.0
 40
0.0
 40
0.0
 40
0.4999999999999982
 40
0.4999999999999982
 40
0.7499999999999991
 40
0.7499999999999991
 40
1.0
 40
1.0
 40
1.0
 40
1.0
 10
158.6711055724048
 20
123.1481424726755
 30
0.0
 10
158.6369356110543
 20
123.1481424726755
 30
0.0
 10
158.5976854700028
 20
123.1481424726755
 30
0.0
 10
158.5196854594898
 20
123.1481424726754
 30
0.0
 10
158.4902825310889
 20
123.1481424726755
 30
0.0
 10
158.4171379369404
 20
123.1481424726754
 30
0.0
 10
158.3705079589724
 20
123.1481424726754
 30
0.0
 10
158.3194499581539
 20
123.1481424726755
 30
0.0
  0
SPLINE
  5
F4
330
1F
100
AcDbEntity
  8
0
  6
Continuous
 62
     7
370
    15
100
AcDbSpline
210
0.0
220
0.0
230
1.0
 70
     8
 71
     3
 72
    10
 73
     6
 74
     0
 42
0.00000001
 43
0.00000001
 12
1.0
 22
0.0
 32
0.0
 13
1.0
 23
0.0
 33
0.0
 40
0.0
 40
0.0
 40
0.0
 40
0.0
 40
0.5
 40
0.5
 40
1.0
 40
1.0
 40
1.0
 40
1.0
 10
158.9194499581539
 20
123.6507464444942
 30
0.0
 10
158.9194499581537
 20
123.5542038970186
 30
0.0
 10
158.8975093355728
 20
123.4577426967496
 30
0.0
 10
158.8113791501826
 20
123.2823401025065
 30
0.0
 10
158.7482968430402
 20
123.2059245701399
 30
0.0
 10
158.6711055724087
 20
123.1481424726789
 30
0.0
  0
SPLINE
  5
F5
330
1F
100
AcDbEntity
  8
0
  6
Continuous
 62
     7
370
    15
100
AcDbSpline
210
0.0
220
0.0
230
1.0
 70
     8
 71
     3
 72
    10
 73
     6
 74
     0
 42
0.00000001
 43
0.00000001
 12
1.0
 22
0.0
 32
0.0
 13
1.0
 23
0.0
 33
0.0
 40
0.0
 40
0.0
 40
0.0
 40
0.0
 40
0.5
 40
0.5
 40
1.0
 40
1.0
 40
1.0
 40
1.0
 10
161.8294499581539
 20
125.1190195058184
 30
0.0
 10
161.8294499581538
 20
125.2774539487062
 30
0.0
 10
161.7672887416709
 20
125.4364746435081
 30
0.0
 10
161.5467794009992
 20
125.6664824677638
 30
0.0
 10
161.3878642980542
 20
125.7353177425805
 30
0.0
 10
161.2294499581539
 20
125.7353177425805
 30
0.0
  0
LINE
  5
F6
330
1F
100
AcDbEntity
  8
0
  6
Continuous
 62
     7
370
    15
100
AcDbLine
 10
161.8294505274
 20
121.608400061
 30
0.0
 11
161.8294505274
 21
125.1190195747
 31
0.0
  0
LINE
  5
F7
330
1F
100
AcDbEntity
  8
0
  6
Continuous
 62
     7
370
    15
100
AcDbLine
 10
161.229449684
 20
125.7353185632
 30
0.0
 11
159.9146103358
 21
125.7353185632
 31
0.0
  0
LINE
  5
F8
330
1F
100
AcDbEntity
  8
0
  6
Continuous
 62
     7
370
    15
100
AcDbLine
 10
158.3194503432
 20
123.1481417038
 30
0.0
 11
157.4394501617
 21
123.1481417038
 31
0.0
  0
SPLINE
  5
F9
330
1F
100
AcDbEntity
  8
0
  6
Continuous
 62
     7
370
    15
100
AcDbSpline
210
0.0
220
0.0
230
1.0
 70
     8
 71
     3
 72
    14
 73
    10
 74
     0
 42
0.00000001
 43
0.00000001
 12
1.0
 22
0.0
 32
0.0
 13
1.0
 23
0.0
 33
0.0
 40
0.0
 40
0.0
 40
0.0
 40
0.0
 40
0.25
 40
0.25
 40
0.5
 40
0.5
 40
0.75
 40
0.75
 40
1.0
 40
1.0
 40
1.0
 40
1.0
 10
217.6878569282932
 20
110.3690240961233
 30
0.0
 10
217.7026529149422
 20
110.5048891745863
 30
0.0
 10
217.7149121469871
 20
110.6445806774433
 30
0.0
 10
217.7323234432515
 20
110.9319936630581
 30
0.0
 10
217.7374699912272
 20
111.0814458683182
 30
0.0
 10
217.7385373270324
 20
111.3809849315062
 30
0.0
 10
217.7345434239895
 20
111.5297956756102
 30
0.0
 10
217.7175797243831
 20
111.8253903521918
 30
0.0
 10
217.7044018188689
 20
111.9734037594584
 30
0.0
 10
217.6878569282932
 20
112.1150259318318
 30
0.0
  0
LINE
  5
FA
330
1F
100
AcDbEntity
  8
0
  6
Continuous
 62
     7
370
    15
100
AcDbLine
 10
121.9794502353
 20
94.4296701767
 30
0.0
 11
121.9794502353
 21
94.7006291665
 31
0.0
  0
LINE
  5
FB
330
1F
100
AcDbEntity
  8
0
  6
Continuous
 62
     7
370
    15
100
AcDbLine
 10
121.9794502353
 20
118.1220564015
 30
0.0
 11
121.9794502353
 21
118.0263741829
 31
0.0
  0
LINE
  5
FC
330
1F
100
AcDbEntity
  8
0
  6
Continuous
 62
     7
370
    15
100
AcDbLine
 10
122.9294495528
 20
119.1281427585
 30
0.0
 11
122.9294495528
 21
119.1137230911
 31
0.0
  0
LINE
  5
FD
330
1F
100
AcDbEntity
  8
0
  6
Continuous
 62
     7
370
    15
100
AcDbLine
 10
121.9794502353
 20
118.1781425096
 30
0.0
 11
121.9794502353
 21
118.1220564015
 31
0.0
  0
LINE
  5
FE
330
1F
100
AcDbEntity
  8
0
  6
Continuous
 62
     7
370
    15
100
AcDbLine
 10
122.9294495528
 20
93.4271424033
 30
0.0
 11
122.9294495528
 21
93.5176073529
 31
0.0
  0
LINE
  5
FF
330
1F
100
AcDbEntity
  8
0
  6
Continuous
 62
     7
370
    15
100
AcDbLine
 10
121.9794502353
 20
94.3771426521
 30
0.0
 11
121.9794502353
 21
94.4296701767
 31
0.0
  0
SPLINE
  5
100
330
1F
100
AcDbEntity
  8
0
  6
Continuous
 62
     7
370
    15
100
AcDbSpline
210
0.0
220
0.0
230
1.0
 70
     8
 71
     3
 72
     8
 73
     4
 74
     0
 42
0.00000001
 43
0.00000001
 12
1.0
 22
0.0
 32
0.0
 13
1.0
 23
0.0
 33
0.0
 40
0.0
 40
0.0
 40
0.0
 40
0.0
 40
1.0
 40
1.0
 40
1.0
 40
1.0
 10
227.8794499581539
 20
118.7481347012593
 30
0.0
 10
228.6109504918122
 20
119.479692732758
 30
0.0
 10
229.3426097275038
 20
120.2110925925168
 30
0.0
 10
230.0743656862713
 20
120.9423960523941
 30
0.0
  0
LINE
  5
101
330
1F
100
AcDbEntity
  8
0
  6
Continuous
 62
     7
370
    15
100
AcDbLine
 10
228.3794464415
 20
93.3717482679
 30
0.0
 11
227.8794528788
 21
93.8717390366
 31
0.0
  0
LINE
  5
102
330
1F
100
AcDbEntity
  8
0
  6
Continuous
 62
     7
370
    15
100
AcDbLine
 10
228.3794464415
 20
93.3717482679
 30
0.0
 11
228.3794464415
 21
93.2481422045
 31
0.0
  0
LINE
  5
103
330
1F
100
AcDbEntity
  8
0
  6
Continuous
 62
     7
370
    15
100
AcDbLine
 10
233.9006097859
 20
93.3717482679
 30
0.0
 11
228.3794464415
 21
93.3717482679
 31
0.0
  0
ELLIPSE
  5
104
330
1F
100
AcDbEntity
  8
0
  6
Continuous
 62
     7
370
    15
100
AcDbEllipse
 10
246.7165703605
 20
106.2481424727
 30
0.0
 11
13.17784690311723
 21
12.98255003967766
 31
0.0
210
0.0
220
0.0
230
1.0
 40
0.0510967938
 41
3.193411666407419
 42
3.331420764873118
  0
ARC
  5
105
330
1F
100
AcDbEntity
  8
0
  6
Continuous
 62
     7
370
    15
100
AcDbCircle
 10
239.1754330572
 20
110.5520075174
 30
0.0
 40
2.097226380261914
100
AcDbArc
 50
118.3573698492
 51
333.0351134049
  0
LINE
  5
106
330
1F
100
AcDbEntity
  8
0
  6
Continuous
 62
     7
370
    15
100
AcDbLine
 10
250.5188764876
 20
110.4244569272
 30
0.0
 11
250.4732342308
 21
109.9039996464
 31
0.0
  0
LINE
  5
107
330
1F
100
AcDbEntity
  8
0
  6
Continuous
 62
     7
370
    15
100
AcDbLine
 10
230.0743641203
 20
120.9423963867
 30
0.0
 11
238.9970155304
 21
121.7211254828
 31
0.0
  0
LINE
  5
108
330
1F
100
AcDbEntity
  8
0
  6
Continuous
 62
     7
370
    15
100
AcDbLine
 10
250.4732342308
 20
109.9039996464
 30
0.0
 11
233.9006097859
 21
93.3717482679
 31
0.0
  0
ARC
  5
109
330
1F
100
AcDbEntity
  8
0
  6
Continuous
 62
     7
370
    15
100
AcDbCircle
 10
239.1684657604
 20
110.2161161813
 30
0.0
 40
2.094843349554925
100
AcDbArc
 50
119.1375823773
 51
175.3751972523
  0
LWPOLYLINE
  5
10A
330
1F
100
AcDbEntity
  8
0
  6
HIDDEN
 62
     7
370
     0
100
AcDbPolyline
 90
       24
 70
   128
 43
0.0
 10
209.2674778646
 20
102.7619780928
 10
209.7983242815
 20
102.6699596971
 10
210.335183317
 20
102.7196934868
 10
210.8382465189
 20
102.9074911915
 10
211.270193929
 20
103.2194246493
 10
211.5990029519
 20
103.6323588763
 10
211.8002803868
 20
104.1156687264
 10
211.85909527
 20
104.63350934
 10
211.771089012
 20
105.1474747203
 10
211.5427883213
 20
105.6194464166
 10
211.1911283677
 20
106.0144205242
 10
210.7421861833
 20
106.3031035649
 10
210.2292584127
 20
106.4640852549
 10
209.6903877204
 20
106.485426308
 10
209.1655390208
 20
106.365543956
 10
208.693634147
 20
106.113329339
 10
208.3096759265
 20
105.7474880784
 10
208.042147929
 20
105.295152853
 10
207.9108761495
 20
104.7898714153
 10
207.9256059473
 20
104.2691180904
 10
208.0852495378
 20
103.7715147671
 10
208.3779530471
 20
103.3339666158
 10
208.7820203846
 20
102.9889244076
 10
209.2674778646
 20
102.7619780928
  0
LWPOLYLINE
  5
10B
330
1F
100
AcDbEntity
  8
0
  6
HIDDEN
 62
     7
370
     0
100
AcDbPolyline
 90
       27
 70
   128
 43
0.0
 10
209.1069104021
 20
102.2069880694
 10
209.6983598417
 20
102.0951418162
 10
210.3003444021
 20
102.1232672923
 10
210.877861256
 20
102.2897300266
 10
211.3973529881
 20
102.5848552074
 10
211.8286372965
 20
102.9914918311
 10
212.146635527
 20
103.4860075873
 10
212.3328776901
 20
104.0396625597
 10
212.3765306419
 20
104.6202808341
 10
212.2750611847
 20
105.1941188473
 10
212.0343776291
 20
105.7278270439
 10
211.6684498137
 20
106.1903884313
 10
211.198549146
 20
106.5549205653
 10
210.6519894546
 20
106.8002381201
 10
210.0605400151
 20
106.9120841988
 10
209.4585554546
 20
106.8839587227
 10
208.8810386008
 20
106.717496163
 10
208.3615468686
 20
106.4223707638
 10
207.9302625602
 20
106.0157341402
 10
207.6122643297
 20
105.5212185441
 10
207.4260221666
 20
104.9675634552
 10
207.3823692148
 20
104.3869451808
 10
207.483838672
 20
103.8131071676
 10
207.7245222276
 20
103.2793990292
 10
208.090450043
 20
102.8168376491
 10
208.5603507107
 20
102.4523054205
 10
209.1069104021
 20
102.2069880694
  0
LWPOLYLINE
  5
10C
330
1F
100
AcDbEntity
  8
0
  6
HIDDEN
 62
     7
370
     0
100
AcDbPolyline
 90
       27
 70
   128
 43
0.0
 10
209.1069104021
 20
101.7540547021
 10
209.6983598417
 20
101.6422084488
 10
210.3003444021
 20
101.6703339249
 10
210.877861256
 20
101.8367966593
 10
211.3973529881
 20
102.1319220729
 10
211.8286372965
 20
102.5385584638
 10
212.146635527
 20
103.0330742199
 10
212.3328776901
 20
103.5867291924
 10
212.3765306419
 20
104.1673475832
 10
212.2750611847
 20
104.74118548
 10
212.0343776291
 20
105.2748937348
 10
211.6684498137
 20
105.7374551149
 10
211.198549146
 20
106.1019872271
 10
210.6519894546
 20
106.347304811
 10
210.0605400151
 20
106.4591508896
 10
209.4585554546
 20
106.4310253844
 10
208.8810386008
 20
106.2645628284
 10
208.3615468686
 20
105.9694374401
 10
207.9302625602
 20
105.5628008165
 10
207.6122643297
 20
105.0682851767
 10
207.4260221666
 20
104.5146300879
 10
207.3823692148
 20
103.9340119299
 10
207.483838672
 20
103.3601738002
 10
207.7245222276
 20
102.8264656618
 10
208.090450043
 20
102.3639042817
 10
208.5603507107
 20
101.9993720532
 10
209.1069104021
 20
101.7540547021
  0
LWPOLYLINE
  5
10D
330
1F
100
AcDbEntity
  8
0
  6
HIDDEN
 62
     7
370
     0
100
AcDbPolyline
 90
       24
 70
   128
 43
0.0
 10
209.261413092
 20
101.3204537288
 10
209.7975196188
 20
101.227524034
 10
210.3396983689
 20
101.2777502604
 10
210.8477385586
 20
101.4674080491
 10
211.2839700525
 20
101.7824311696
 10
211.6160349792
 20
102.1994555325
 10
211.819301719
 20
102.6875523806
 10
211.8787051981
 20
103.2105221369
 10
211.7898272222
 20
103.7295782428
 10
211.5592690056
 20
104.2062247128
 10
211.2041221803
 20
104.6051108699
 10
210.7507319992
 20
104.8966532529
 10
210.2327229326
 20
105.0592294617
 10
209.6885101741
 20
105.0807818959
 10
209.1584684199
 20
104.9597121731
 10
208.681892032
 20
104.704999407
 10
208.2941265648
 20
104.3355345449
 10
208.0239461606
 20
103.8787190758
 10
207.8913779801
 20
103.3684330017
 10
207.9062567895
 20
102.842521663
 10
208.0674799031
 20
102.3399897807
 10
208.3630816882
 20
101.8981079526
 10
208.7711499875
 20
101.5496480234
 10
209.261413092
 20
101.3204537288
  0
LWPOLYLINE
  5
10E
330
1F
100
AcDbEntity
  8
0
  6
HIDDEN
 62
     7
370
     0
100
AcDbPolyline
 90
       24
 70
   128
 43
0.0
 10
209.261413092
 20
102.3933364034
 10
209.7975196188
 20
102.3004062429
 10
210.3396983689
 20
102.350632935
 10
210.8477385586
 20
102.5402907238
 10
211.2839700525
 20
102.8553136114
 10
211.6160349792
 20
103.2723379743
 10
211.819301719
 20
103.7604348224
 10
211.8787051981
 20
104.2834045787
 10
211.7898272222
 20
104.8024606846
 10
211.5592690056
 20
105.2791071546
 10
211.2041221803
 20
105.67799337
 10
210.7507319992
 20
105.9695357238
 10
210.2327229326
 20
106.1321118962
 10
209.6885101741
 20
106.1536643304
 10
209.1584684199
 20
106.0325945858
 10
208.681892032
 20
105.7778818488
 10
208.2941265648
 20
105.4084169867
 10
208.0239461606
 20
104.9516015176
 10
207.8913779801
 20
104.4413154435
 10
207.9062567895
 20
103.9154041048
 10
208.0674799031
 20
103.4128722225
 10
208.3630816882
 20
102.9709901616
 10
208.7711499875
 20
102.6225302324
 10
209.261413092
 20
102.3933364034
  0
LWPOLYLINE
  5
10F
330
1F
100
AcDbEntity
  8
0
  6
HIDDEN
 62
     7
370
     0
100
AcDbPolyline
 90
       27
 70
   128
 43
0.0
 10
209.1069104021
 20
101.5754694075
 10
209.6983598417
 20
101.4636231542
 10
210.3003444021
 20
101.4917486303
 10
210.877861256
 20
101.6582113646
 10
211.3973529881
 20
101.9533367783
 10
211.8286372965
 20
102.359973402
 10
212.146635527
 20
102.8544889253
 10
212.3328776901
 20
103.4081441306
 10
212.3765306419
 20
103.9887622886
 10
212.2750611847
 20
104.5626003018
 10
212.0343776291
 20
105.0963085566
 10
211.6684498137
 20
105.5588699367
 10
211.198549146
 20
105.923402078
 10
210.6519894546
 20
106.1687196691
 10
210.0605400151
 20
106.2805657514
 10
209.4585554546
 20
106.252440239
 10
208.8810386008
 20
106.0859776902
 10
208.3615468686
 20
105.790852291
 10
207.9302625602
 20
105.3842156965
 10
207.6122643297
 20
104.8897001149
 10
207.4260221666
 20
104.3360449096
 10
207.3823692148
 20
103.7554266352
 10
207.483838672
 20
103.1815887384
 10
207.7245222276
 20
102.6478806
 10
208.090450043
 20
102.1853189871
 10
208.5603507107
 20
101.8207872242
 10
209.1069104021
 20
101.5754694075
  0
LWPOLYLINE
  5
110
330
1F
100
AcDbEntity
  8
0
  6
HIDDEN
 62
     7
370
     0
100
AcDbPolyline
 90
       26
 70
   128
 43
0.0
 10
209.1687129682
 20
101.89126506
 10
209.7350315994
 20
101.7869145565
 10
210.3104250377
 20
101.8218819939
 10
210.8587430661
 20
101.9939699166
 10
211.3455267494
 20
102.2923652038
 10
211.7401914542
 20
102.698319168
 10
212.0179341977
 20
103.1863238152
 10
212.1613131707
 20
103.7257160481
 10
212.1613131707
 20
104.2826041069
 10
212.0179341977
 20
104.8219964562
 10
211.7401914542
 20
105.3100010452
 10
211.3455267494
 20
105.7159549512
 10
210.8587430661
 20
106.0143504567
 10
210.3104250377
 20
106.1864383067
 10
209.7350315994
 20
106.2214055931
 10
209.1687129682
 20
106.1170551823
 10
208.6470456665
 20
105.8799438018
 10
208.2028196996
 20
105.5249700278
 10
207.8639449423
 20
105.0744381922
 10
207.6517077034
 20
104.5566568339
 10
207.5794519728
 20
104.0041600775
 10
207.6517077034
 20
103.4516632047
 10
207.8639449423
 20
102.9338818465
 10
208.2028196996
 20
102.4833501272
 10
208.6470456665
 20
102.1283765279
 10
209.1687129682
 20
101.89126506
  0
LWPOLYLINE
  5
111
330
1F
100
AcDbEntity
  8
0
  6
HIDDEN
 62
     7
370
     0
100
AcDbPolyline
 90
       27
 70
   128
 43
0.0
 10
209.1069104021
 20
101.3968841128
 10
209.6983598417
 20
101.2850383252
 10
210.3003444021
 20
101.3131638013
 10
210.877861256
 20
101.47962607
 10
211.3973529881
 20
101.7747514837
 10
211.8286372965
 20
102.1813883402
 10
212.146635527
 20
102.6759038635
 10
212.3328776901
 20
103.2295590688
 10
212.3765306419
 20
103.8101772268
 10
212.2750611847
 20
104.38401524
 10
212.0343776291
 20
104.9177234948
 10
211.6684498137
 20
105.3802848167
 10
211.198549146
 20
105.7448169288
 10
210.6519894546
 20
105.9901345419
 10
210.0605400151
 20
106.101980606
 10
209.4585554546
 20
106.0738551008
 10
208.8810386008
 20
105.9073925556
 10
208.3615468686
 20
105.6122671419
 10
207.9302625602
 20
105.2056305764
 10
207.6122643297
 20
104.7111149367
 10
207.4260221666
 20
104.1574597314
 10
207.3823692148
 20
103.5768415734
 10
207.483838672
 20
103.0030036766
 10
207.7245222276
 20
102.4692953054
 10
208.090450043
 20
102.0067341581
 10
208.5603507107
 20
101.6422019296
 10
209.1069104021
 20
101.3968841128
  0
LWPOLYLINE
  5
112
330
1F
100
AcDbEntity
  8
0
  6
HIDDEN
 62
     7
370
     0
100
AcDbPolyline
 90
       26
 70
   128
 43
0.0
 10
209.1687129682
 20
101.7126797654
 10
209.7350315994
 20
101.6083292619
 10
210.3104250377
 20
101.6432966992
 10
210.8587430661
 20
101.8153846219
 10
211.3455267494
 20
102.1137799092
 10
211.7401914542
 20
102.5197338734
 10
212.0179341977
 20
103.0077385206
 10
212.1613131707
 20
103.5471309863
 10
212.1613131707
 20
104.1040188123
 10
212.0179341977
 20
104.643411278
 10
211.7401914542
 20
105.1314159252
 10
211.3455267494
 20
105.5373698312
 10
210.8587430661
 20
105.8357653222
 10
210.3104250377
 20
106.0078531721
 10
209.7350315994
 20
106.0428204494
 10
209.1687129682
 20
105.9384700332
 10
208.6470456665
 20
105.7013586818
 10
208.2028196996
 20
105.3463849078
 10
207.8639449423
 20
104.8958530139
 10
207.6517077034
 20
104.3780716557
 10
207.5794519728
 20
103.8255750157
 10
207.6517077034
 20
103.2730781429
 10
207.8639449423
 20
102.7552967847
 10
208.2028196996
 20
102.3047648326
 10
208.6470456665
 20
101.9497912333
 10
209.1687129682
 20
101.7126797654
  0
LWPOLYLINE
  5
113
330
1F
100
AcDbEntity
  8
0
  6
HIDDEN
 62
     7
370
     0
100
AcDbPolyline
 90
       27
 70
   128
 43
0.0
 10
209.1069104021
 20
101.2182992839
 10
209.6983598417
 20
101.1064530306
 10
210.3003444021
 20
101.1345785067
 10
210.877861256
 20
101.301041241
 10
211.3973529881
 20
101.5961666547
 10
211.8286372965
 20
102.0028030455
 10
212.146635527
 20
102.4973188017
 10
212.3328776901
 20
103.0509737741
 10
212.3765306419
 20
103.631592165
 10
212.2750611847
 20
104.2054300618
 10
212.0343776291
 20
104.7391383166
 10
211.6684498137
 20
105.2016996967
 10
211.198549146
 20
105.5662318088
 10
210.6519894546
 20
105.8115493927
 10
210.0605400151
 20
105.9233954714
 10
209.4585554546
 20
105.8952699662
 10
208.8810386008
 20
105.7288073774
 10
208.3615468686
 20
105.4336820219
 10
207.9302625602
 20
105.0270453982
 10
207.6122643297
 20
104.5325297585
 10
207.4260221666
 20
103.9788746696
 10
207.3823692148
 20
103.3982565116
 10
207.483838672
 20
102.824418382
 10
207.7245222276
 20
102.2907102436
 10
208.090450043
 20
101.8281488635
 10
208.5603507107
 20
101.4636166349
 10
209.1069104021
 20
101.2182992839
  0
LWPOLYLINE
  5
114
330
1F
100
AcDbEntity
  8
0
  6
HIDDEN
 62
     7
370
     0
100
AcDbPolyline
 90
       26
 70
   128
 43
0.0
 10
209.1687129682
 20
101.5340944708
 10
209.7350315994
 20
101.4297444329
 10
210.3104250377
 20
101.4647114046
 10
210.8587430661
 20
101.6367993273
 10
211.3455267494
 20
101.9351950802
 10
211.7401914542
 20
102.3411488116
 10
212.0179341977
 20
102.8291534588
 10
212.1613131707
 20
103.3685456917
 10
212.1613131707
 20
103.9254337505
 10
212.0179341977
 20
104.4648260998
 10
211.7401914542
 20
104.952830747
 10
211.3455267494
 20
105.358784653
 10
210.8587430661
 20
105.6571801731
 10
210.3104250377
 20
105.8292680375
 10
209.7350315994
 20
105.8642353003
 10
209.1687129682
 20
105.7598849132
 10
208.6470456665
 20
105.5227735035
 10
208.2028196996
 20
105.1677997878
 10
207.8639449423
 20
104.7172679521
 10
207.6517077034
 20
104.1994865939
 10
207.5794519728
 20
103.6469897211
 10
207.6517077034
 20
103.0944930811
 10
207.8639449423
 20
102.5767117229
 10
208.2028196996
 20
102.1261800036
 10
208.6470456665
 20
101.7712059386
 10
209.1687129682
 20
101.5340944708
  0
LWPOLYLINE
  5
115
330
1F
100
AcDbEntity
  8
0
  6
HIDDEN
 62
     7
370
     0
100
AcDbPolyline
 90
       27
 70
   128
 43
0.0
 10
209.1069104021
 20
101.0397139892
 10
209.6983598417
 20
100.9278677359
 10
210.3003444021
 20
100.955993212
 10
210.877861256
 20
101.1224559464
 10
211.3973529881
 20
101.4175813601
 10
211.8286372965
 20
101.8242177509
 10
212.146635527
 20
102.3187337399
 10
212.3328776901
 20
102.8723887123
 10
212.3765306419
 20
103.4530068703
 10
212.2750611847
 20
104.026845
 10
212.0343776291
 20
104.5605531384
 10
211.6684498137
 20
105.0231145185
 10
211.198549146
 20
105.3876466888
 10
210.6519894546
 20
105.6329642727
 10
210.0605400151
 20
105.7448103514
 10
209.4585554546
 20
105.7166848171
 10
208.8810386008
 20
105.5502222574
 10
208.3615468686
 20
105.2550968437
 10
207.9302625602
 20
104.84846022
 10
207.6122643297
 20
104.3539446967
 10
207.4260221666
 20
103.8002896078
 10
207.3823692148
 20
103.219671217
 10
207.483838672
 20
102.6458333202
 10
207.7245222276
 20
102.112124949
 10
208.090450043
 20
101.6495635689
 10
208.5603507107
 20
101.285031806
 10
209.1069104021
 20
101.0397139892
  0
LWPOLYLINE
  5
116
330
1F
100
AcDbEntity
  8
0
  6
HIDDEN
 62
     7
370
     0
100
AcDbPolyline
 90
       26
 70
   128
 43
0.0
 10
209.1687129682
 20
101.3555096418
 10
209.7350315994
 20
101.2511591383
 10
210.3104250377
 20
101.2861265756
 10
210.8587430661
 20
101.4582140327
 10
211.3455267494
 20
101.7566097856
 10
211.7401914542
 20
102.162563517
 10
212.0179341977
 20
102.650568397
 10
212.1613131707
 20
103.1899606299
 10
212.1613131707
 20
103.7468486887
 10
212.0179341977
 20
104.2862409216
 10
211.7401914542
 20
104.7742456852
 10
211.3455267494
 20
105.180199533
 10
210.8587430661
 20
105.4785950531
 10
210.3104250377
 20
105.6506828593
 10
209.7350315994
 20
105.6856501803
 10
209.1687129682
 20
105.5812997932
 10
208.6470456665
 20
105.3441883835
 10
208.2028196996
 20
104.9892146096
 10
207.8639449423
 20
104.5386827739
 10
207.6517077034
 20
104.0209012993
 10
207.5794519728
 20
103.4684046593
 10
207.6517077034
 20
102.9159077864
 10
207.8639449423
 20
102.3981264282
 10
208.2028196996
 20
101.947594709
 10
208.6470456665
 20
101.5926211097
 10
209.1687129682
 20
101.3555096418
  0
LWPOLYLINE
  5
117
330
1F
100
AcDbEntity
  8
0
  6
HIDDEN
 62
     7
370
     0
100
AcDbPolyline
 90
       27
 70
   128
 43
0.0
 10
209.1069104021
 20
100.897363662
 10
209.6983598417
 20
100.7855174087
 10
210.3003444021
 20
100.8136428848
 10
210.877861256
 20
100.9801056192
 10
211.3973529881
 20
101.2752310328
 10
211.8286372965
 20
101.6818674237
 10
212.146635527
 20
102.176382947
 10
212.3328776901
 20
102.7300381523
 10
212.3765306419
 20
103.3106565431
 10
212.2750611847
 20
103.8844944399
 10
212.0343776291
 20
104.4182026947
 10
211.6684498137
 20
104.8807640748
 10
211.198549146
 20
105.245296187
 10
210.6519894546
 20
105.4906137709
 10
210.0605400151
 20
105.6024598495
 10
209.4585554546
 20
105.5743343152
 10
208.8810386008
 20
105.4078718137
 10
208.3615468686
 20
105.1127464
 10
207.9302625602
 20
104.7061097764
 10
207.6122643297
 20
104.2115942531
 10
207.4260221666
 20
103.6579390478
 10
207.3823692148
 20
103.0773208898
 10
207.483838672
 20
102.5034827601
 10
207.7245222276
 20
101.9697746217
 10
208.090450043
 20
101.5072132416
 10
208.5603507107
 20
101.1426810131
 10
209.1069104021
 20
100.897363662
  0
LWPOLYLINE
  5
118
330
1F
100
AcDbEntity
  8
0
  6
HIDDEN
 62
     7
370
     0
100
AcDbPolyline
 90
       26
 70
   128
 43
0.0
 10
209.1501684731
 20
100.9897396855
 10
209.7312616056
 20
100.8826673918
 10
210.3216679638
 20
100.918546594
 10
210.884291107
 20
101.0951239571
 10
211.3837705796
 20
101.4013037041
 10
211.7887319868
 20
101.8178475045
 10
212.0737241452
 20
102.3185828656
 10
212.2208433097
 20
102.8720462185
 10
212.2208433097
 20
103.4434617453
 10
212.0737241452
 20
103.9969250981
 10
211.7887319868
 20
104.4976603428
 10
211.3837705796
 20
104.914204376
 10
210.884291107
 20
105.220384123
 10
210.3216679638
 20
105.3969611951
 10
209.7312616056
 20
105.4328406884
 10
209.1501684731
 20
105.3257681036
 10
208.6148964112
 20
105.0824711986
 10
208.1590847915
 20
104.7182372261
 10
207.811366195
 20
104.2559524488
 10
207.5935931748
 20
103.7246636536
 10
207.5194524472
 20
103.1577538654
 10
207.5935931748
 20
102.5908443101
 10
207.811366195
 20
102.0595555149
 10
208.1590847915
 20
101.5972707376
 10
208.6148964112
 20
101.2330365323
 10
209.1501684731
 20
100.9897396855
  0
ARC
  5
119
330
1F
100
AcDbEntity
  8
0
  6
HIDDEN
 62
     7
370
     0
100
AcDbCircle
 10
243.6495575814
 20
115.1924586817
 30
0.0
 40
0.3936583349194048
100
AcDbArc
 50
171.9835900325
 51
294.6975914877
  0
ARC
  5
11A
330
1F
100
AcDbEntity
  8
0
  6
HIDDEN
 62
     7
370
     0
100
AcDbCircle
 10
246.3586031157
 20
115.5661344148
 30
0.0
 40
0.393478391656321
100
AcDbArc
 50
261.0417617375
 51
9.9562109101
  0
ARC
  5
11B
330
1F
100
AcDbEntity
  8
0
  6
HIDDEN
 62
     7
370
     0
100
AcDbCircle
 10
242.8085942842
 20
115.8703287919
 30
0.0
 40
0.6872830126707775
100
AcDbArc
 50
0.0186422661
 51
54.7268174026
  0
ARC
  5
11C
330
1F
100
AcDbEntity
  8
0
  6
HIDDEN
 62
     7
370
     0
100
AcDbCircle
 10
246.9825591393
 20
116.4470907199
 30
0.0
 40
0.6867313428078621
100
AcDbArc
 50
141.0373476973
 51
179.9937289217
  0
ARC
  5
11D
330
1F
100
AcDbEntity
  8
0
  6
HIDDEN
 62
     7
370
     0
100
AcDbCircle
 10
243.4321594133
 20
116.7519837949
 30
0.0
 40
0.3926007861219795
100
AcDbArc
 50
171.6690072041
 51
234.7342139039
  0
ARC
  5
11E
330
1F
100
AcDbEntity
  8
0
  6
HIDDEN
 62
     7
370
     0
100
AcDbCircle
 10
246.1435376314
 20
117.1256464032
 30
0.0
 40
0.3923399741937648
100
AcDbArc
 50
321.0334269901
 51
8.0114519593
  0
ARC
  5
11F
330
1F
100
AcDbEntity
  8
0
  6
HIDDEN
 62
     7
370
     0
100
AcDbCircle
 10
244.8940532153
 20
116.2241636076
 30
0.0
 40
3.500006182068578
100
AcDbArc
 50
0.1107597805
 51
179.8892402195
  0
ARC
  5
120
330
1F
100
AcDbEntity
  8
0
  6
HIDDEN
 62
     7
370
     0
100
AcDbCircle
 10
246.1904204821
 20
114.4966559812
 30
0.0
 40
0.6891432461360371
100
AcDbArc
 50
81.0751975149
 51
174.5392935455
  0
ARC
  5
121
330
1F
100
AcDbEntity
  8
0
  6
HIDDEN
 62
     7
370
     0
100
AcDbCircle
 10
244.1014119802
 20
114.2074448046
 30
0.0
 40
0.6900507404413939
100
AcDbArc
 50
21.2368649567
 51
114.610749492
  0
ARC
  5
122
330
1F
100
AcDbEntity
  8
0
  6
HIDDEN
 62
     7
370
     0
100
AcDbCircle
 10
245.1120587998
 20
114.6000076079
 30
0.0
 40
0.394159849408949
100
AcDbArc
 50
201.2111833397
 51
354.5011563475
  0
CIRCLE
  5
123
330
1F
100
AcDbEntity
  8
0
  6
HIDDEN
 62
     7
370
     0
100
AcDbCircle
 10
244.8985689791
 20
116.000599622
 30
0.0
 40
2.495427200838325
  0
CIRCLE
  5
124
330
1F
100
AcDbEntity
  8
0
  6
HIDDEN
 62
     7
370
     0
100
AcDbCircle
 10
244.8985687592
 20
115.6308906334
 30
0.0
 40
2.49542741920122
  0
CIRCLE
  5
125
330
1F
100
AcDbEntity
  8
0
  6
HIDDEN
 62
     7
370
     0
100
AcDbCircle
 10
244.8968390516
 20
115.5683150049
 30
0.0
 40
1.597154668225304
  0
LINE
  5
126
330
1F
100
AcDbEntity
  8
0
  6
HIDDEN
 62
     7
370
     0
100
AcDbLine
 10
238.55159002
 20
109.6207059875
 30
0.0
 11
238.3486734575
 21
109.52308103
 31
0.0
  0
LINE
  5
127
330
1F
100
AcDbEntity
  8
0
  6
HIDDEN
 62
     7
370
     0
100
AcDbLine
 10
250.2160103863
 20
110.6387244493
 30
0.0
 11
250.3862710541
 21
110.5736687735
 31
0.0
  0
ARC
  5
128
330
1F
100
AcDbEntity
  8
0
  6
HIDDEN
 62
     7
370
     0
100
AcDbCircle
 10
244.89404949
 20
116.2065310817
 30
0.0
 40
3.800007427595729
100
AcDbArc
 50
180.1054205252
 51
359.8945794748
  0
LINE
  5
129
330
1F
100
AcDbEntity
  8
0
  6
HIDDEN
 62
     7
370
     0
100
AcDbLine
 10
251.2365164107
 20
122.2747306295
 30
0.0
 11
251.4394255226
 21
122.5819404192
 31
0.0
  0
LINE
  5
12A
330
1F
100
AcDbEntity
  8
0
  6
HIDDEN
 62
     7
370
     0
100
AcDbLine
 10
239.5720960444
 20
121.2567121677
 30
0.0
 11
239.401827926
 21
121.531353607
 31
0.0
  0
CIRCLE
  5
12B
330
1F
100
AcDbEntity
  8
0
  6
HIDDEN
 62
     7
370
     0
100
AcDbCircle
 10
244.8894403495
 20
116.0929875099
 30
0.0
 40
2.745511937542459
  0
CIRCLE
  5
12C
330
1F
100
AcDbEntity
  8
0
  6
HIDDEN
 62
     7
370
     0
100
AcDbCircle
 10
244.8894402123
 20
115.9459767668
 30
0.0
 40
2.745511685159698
  0
LINE
  5
12D
330
1F
100
AcDbEntity
  8
0
  6
HIDDEN
 62
     7
370
     0
100
AcDbLine
 10
251.2365164107
 20
122.2747306295
 30
0.0
 11
239.5720960444
 21
121.2567121677
 31
0.0
  0
LINE
  5
12E
330
1F
100
AcDbEntity
  8
0
  6
HIDDEN
 62
     7
370
     0
100
AcDbLine
 10
250.2160103863
 20
110.6387244493
 30
0.0
 11
251.2365164107
 21
122.2747306295
 31
0.0
  0
LINE
  5
12F
330
1F
100
AcDbEntity
  8
0
  6
HIDDEN
 62
     7
370
     0
100
AcDbLine
 10
239.5720960444
 20
121.2567121677
 30
0.0
 11
238.55159002
 21
109.6207059875
 31
0.0
  0
LINE
  5
130
330
1F
100
AcDbEntity
  8
0
  6
HIDDEN
 62
     7
370
     0
100
AcDbLine
 10
238.55159002
 20
109.6207059875
 30
0.0
 11
250.2160103863
 21
110.6387244493
 31
0.0
  0
LINE
  5
131
330
1F
100
AcDbEntity
  8
0
  6
HIDDEN
 62
     7
370
     0
100
AcDbLine
 10
155.8442901691
 20
122.3076472946
 30
0.0
 11
155.8442901691
 21
118.0981428318
 31
0.0
  0
LINE
  5
132
330
1F
100
AcDbEntity
  8
0
  6
HIDDEN
 62
     7
370
     0
100
AcDbLine
 10
133.5284415504
 20
91.5493874766
 30
0.0
 11
133.3097306883
 21
91.5198161222
 31
0.0
  0
SPLINE
  5
133
330
1F
100
AcDbEntity
  8
0
  6
HIDDEN
 62
     7
370
     0
100
AcDbSpline
210
0.0
220
0.0
230
1.0
 70
     8
 71
     3
 72
     9
 73
     5
 74
     0
 42
0.00000001
 43
0.00000001
 12
1.0
 22
0.0
 32
0.0
 13
1.0
 23
0.0
 33
0.0
 40
0.0
 40
0.0
 40
0.0
 40
0.0
 40
0.0013268147208897
 40
1.0
 40
1.0
 40
1.0
 40
1.0
 10
134.3001060990476
 20
91.61919010358149
 30
0.0
 10
134.2996767008471
 20
91.61917024267608
 30
0.0
 10
133.9760458323525
 20
91.60420138145633
 30
0.0
 10
133.752095120817
 20
91.57677623499117
 30
0.0
 10
133.5284415503823
 20
91.54938747661406
 30
0.0
  0
SPLINE
  5
134
330
1F
100
AcDbEntity
  8
0
  6
HIDDEN
 62
     7
370
     0
100
AcDbSpline
210
0.0
220
0.0
230
1.0
 70
     8
 71
     3
 72
    15
 73
    11
 74
     0
 42
0.00000001
 43
0.00000001
 12
1.0
 22
0.0
 32
0.0
 13
1.0
 23
0.0
 33
0.0
 40
0.0
 40
0.0
 40
0.0
 40
0.0
 40
0.1360947993897038
 40
0.2722233504338452
 40
0.4072157477284721
 40
0.5405337273204607
 40
0.674528402193116
 40
0.8104813419156445
 40
0.9466524598609822
 40
1.0
 40
1.0
 40
1.0
 40
1.0
 10
137.7036267762863
 20
93.57533258872324
 30
0.0
 10
137.5257265144778
 20
93.599274985241
 30
0.0
 10
137.1698818714076
 20
93.6471657160162
 30
0.0
 10
136.4355586909077
 20
93.7028752043684
 30
0.0
 10
135.6561500370331
 20
93.71332599583327
 30
0.0
 10
134.9043638566239
 20
93.67612547303503
 30
0.0
 10
134.2570699499901
 20
93.60677114480882
 30
0.0
 10
133.8012705795999
 20
93.53796386765131
 30
0.0
 10
133.5750484198007
 20
93.49736744790368
 30
0.0
 10
133.6024979518627
 20
93.50227114434361
 30
0.0
 10
133.6102247109496
 20
93.50365148412281
 30
0.0
  0
SPLINE
  5
135
330
1F
100
AcDbEntity
  8
0
  6
HIDDEN
 62
     7
370
     0
100
AcDbSpline
210
0.0
220
0.0
230
1.0
 70
     8
 71
     3
 72
    15
 73
    11
 74
     0
 42
0.00000001
 43
0.00000001
 12
1.0
 22
0.0
 32
0.0
 13
1.0
 23
0.0
 33
0.0
 40
0.0
 40
0.0
 40
0.0
 40
0.0
 40
0.0809850953378773
 40
0.2142994841332234
 40
0.3489242590596051
 40
0.4852277276366004
 40
0.6209655570397145
 40
0.7547097406923156
 40
0.8881684412294678
 40
1.0
 40
1.0
 40
1.0
 40
1.0
 10
133.6102247109496
 20
118.992633461228
 30
0.0
 10
133.6072614320859
 20
118.9931415898677
 30
0.0
 10
133.5994201233961
 20
118.9944861793248
 30
0.0
 10
133.8709111248615
 20
118.946762446748
 30
0.0
 10
134.3648941419062
 20
118.8755985325451
 30
0.0
 10
135.0432715440442
 20
118.8095053526905
 30
0.0
 10
135.8149120263069
 20
118.7809633815756
 30
0.0
 10
136.5852805400581
 20
118.8015180364752
 30
0.0
 10
137.2467926170635
 20
118.8587828994492
 30
0.0
 10
137.560570615785
 20
118.9014841893182
 30
0.0
 10
137.7036267762863
 20
118.9209523566275
 30
0.0
  0
SPLINE
  5
136
330
1F
100
AcDbEntity
  8
0
  6
HIDDEN
 62
     7
370
     0
100
AcDbSpline
210
0.0
220
0.0
230
1.0
 70
     8
 71
     3
 72
     9
 73
     5
 74
     0
 42
0.00000001
 43
0.00000001
 12
1.0
 22
0.0
 32
0.0
 13
1.0
 23
0.0
 33
0.0
 40
0.0
 40
0.0
 40
0.0
 40
0.0
 40
0.5109714360936511
 40
1.0
 40
1.0
 40
1.0
 40
1.0
 10
137.7036267762863
 20
118.9209523566275
 30
0.0
 10
137.8436207756222
 20
118.9382958152978
 30
0.0
 10
138.1175969501147
 20
118.9722379448284
 30
0.0
 10
138.1555971284426
 20
118.9740689805654
 30
0.0
 10
138.1741803010785
 20
118.9749644093423
 30
0.0
  0
SPLINE
  5
137
330
1F
100
AcDbEntity
  8
0
  6
HIDDEN
 62
     7
370
     0
100
AcDbSpline
210
0.0
220
0.0
230
1.0
 70
     8
 71
     3
 72
    10
 73
     6
 74
     0
 42
0.00000001
 43
0.00000001
 12
1.0
 22
0.0
 32
0.0
 13
1.0
 23
0.0
 33
0.0
 40
0.0
 40
0.0
 40
0.0
 40
0.0
 40
0.0210694796254722
 40
0.533050643941541
 40
1.0
 40
1.0
 40
1.0
 40
1.0
 10
138.1743952037626
 20
93.52130004691178
 30
0.0
 10
138.1760705287342
 20
93.52114626917442
 30
0.0
 10
138.2184556787638
 20
93.51725574490015
 30
0.0
 10
138.0789501750489
 20
93.52712624511354
 30
0.0
 10
137.8248381038817
 20
93.55976426837147
 30
0.0
 10
137.7036267762863
 20
93.57533258872324
 30
0.0
  0
LINE
  5
138
330
1F
100
AcDbEntity
  8
0
  6
HIDDEN
 62
     7
370
     0
100
AcDbLine
 10
129.8820994666
 20
95.7481426142
 30
0.0
 11
129.8820994666
 21
116.7481423311
 31
0.0
  0
SPLINE
  5
139
330
1F
100
AcDbEntity
  8
0
  6
HIDDEN
 62
     7
370
     0
100
AcDbSpline
210
0.0
220
0.0
230
1.0
 70
     8
 71
     3
 72
    62
 73
    58
 74
     0
 42
0.00000001
 43
0.00000001
 12
1.0
 22
0.0
 32
0.0
 13
1.0
 23
0.0
 33
0.0
 40
-0.031250000000001
 40
-0.031250000000001
 40
0.0
 40
0.0
 40
0.0312499999999994
 40
0.0312499999999994
 40
0.0624999999999989
 40
0.0624999999999989
 40
0.0937499999999983
 40
0.0937499999999983
 40
0.1249999999999977
 40
0.1249999999999977
 40
0.1874999999999965
 40
0.1874999999999965
 40
0.2187499999999959
 40
0.2187499999999959
 40
0.2499999999999952
 40
0.2499999999999952
 40
0.2812499999999946
 40
0.2812499999999946
 40
0.312499999999994
 40
0.312499999999994
 40
0.3437499999999933
 40
0.3437499999999933
 40
0.3749999999999927
 40
0.3749999999999927
 40
0.406249999999992
 40
0.406249999999992
 40
0.4374999999999913
 40
0.4374999999999913
 40
0.4687499999999906
 40
0.4687499999999906
 40
0.49999999999999
 40
0.49999999999999
 40
0.5624999999999913
 40
0.5624999999999913
 40
0.593749999999992
 40
0.593749999999992
 40
0.6249999999999926
 40
0.6249999999999926
 40
0.6562499999999932
 40
0.6562499999999932
 40
0.6874999999999939
 40
0.6874999999999939
 40
0.7499999999999953
 40
0.7499999999999953
 40
0.7812499999999961
 40
0.7812499999999961
 40
0.8124999999999969
 40
0.8124999999999969
 40
0.8437499999999977
 40
0.8437499999999977
 40
0.8749999999999983
 40
0.8749999999999983
 40
0.937499999999998
 40
0.937499999999998
 40
0.968749999999999
 40
0.968749999999999
 40
1.0
 40
1.0
 40
1.031249999999999
 40
1.031249999999999
 10
210.0450604810667
 20
100.663454925875
 30
0.0
 10
209.713839435241
 20
100.663454925875
 30
0.0
 10
209.5510821553921
 20
100.6783234876484
 30
0.0
 10
209.2310136695887
 20
100.7366075111952
 30
0.0
 10
209.0720151886131
 20
100.7807591016471
 30
0.0
 10
208.7694810100266
 20
100.8959879425125
 30
0.0
 10
208.6260592973516
 20
100.9665673352356
 30
0.0
 10
208.3546287862973
 20
101.1338673238197
 30
0.0
 10
208.226447392874
 20
101.2312522506208
 30
0.0
 10
207.8815305123331
 20
101.5517402761876
 30
0.0
 10
207.6953959431591
 20
101.8120141508926
 30
0.0
 10
207.5081533522859
 20
102.2386261963422
 30
0.0
 10
207.4599187874718
 20
102.3888141247458
 30
0.0
 10
207.3955281173803
 20
102.6974361801854
 30
0.0
 10
207.3795472103101
 20
102.8535489804485
 30
0.0
 10
207.3793535825348
 20
103.1694001272339
 30
0.0
 10
207.3956839604199
 20
103.3307200632009
 30
0.0
 10
207.4596477121689
 20
103.6439856506914
 30
0.0
 10
207.5069690184422
 20
103.7970946278477
 30
0.0
 10
207.6325659045298
 20
104.095990412496
 30
0.0
 10
207.710653135639
 20
104.2404023752698
 30
0.0
 10
207.8913928348368
 20
104.5094075601762
 30
0.0
 10
207.995188823911
 20
104.6360761285069
 30
0.0
 10
208.2275008940631
 20
104.8691493791224
 30
0.0
 10
208.3532665123693
 20
104.9730068762467
 30
0.0
 10
208.6235822928324
 20
105.1557489862229
 30
0.0
 10
208.7699283892129
 20
105.2352542956776
 30
0.0
 10
209.0720539536519
 20
105.3624945934896
 30
0.0
 10
209.2278737829703
 20
105.410777687459
 30
0.0
 10
209.5491313081925
 20
105.4762567364438
 30
0.0
 10
209.7150629787189
 20
105.4930161369803
 30
0.0
 10
210.2051727315092
 20
105.4932192657103
 30
0.0
 10
210.5349527542984
 20
105.426167028045
 30
0.0
 10
210.9864960789079
 20
105.2364441321349
 30
0.0
 10
211.1324936730919
 20
105.1574787498808
 30
0.0
 10
211.4046844089874
 20
104.9738252750619
 30
0.0
 10
211.5302933223575
 20
104.8700091890527
 30
0.0
 10
211.7609585600806
 20
104.6390830513753
 30
0.0
 10
211.8663868784944
 20
104.5108839499877
 30
0.0
 10
212.0475180992832
 20
104.2416758459525
 30
0.0
 10
212.1245210112885
 20
104.0996431076467
 30
0.0
 10
212.3138320661784
 20
103.6510823623233
 30
0.0
 10
212.3792176960279
 20
103.3335177899124
 30
0.0
 10
212.3795651661931
 20
102.8551392119132
 30
0.0
 10
212.3634884676819
 20
102.6989094900307
 30
0.0
 10
212.2999602776866
 20
102.392608616696
 30
0.0
 10
212.2516647080764
 20
102.2410456130636
 30
0.0
 10
212.1265187537938
 20
101.9552629536423
 30
0.0
 10
212.0498562647235
 20
101.8201620916969
 30
0.0
 10
211.8682214780982
 20
101.5650836744748
 30
0.0
 10
211.7632946878591
 20
101.4458750737253
 30
0.0
 10
211.4188374127223
 20
101.1254254799161
 30
0.0
 10
211.1407452053452
 20
100.9539010555167
 30
0.0
 10
210.6897782556874
 20
100.7817244524297
 30
0.0
 10
210.5311929260816
 20
100.7373359660893
 30
0.0
 10
210.2085154836503
 20
100.678325786512
 30
0.0
 10
210.0450604810667
 20
100.663454925875
 30
0.0
 10
209.713839435241
 20
100.663454925875
 30
0.0
  0
LINE
  5
13A
330
1F
100
AcDbEntity
  8
0
  6
HIDDEN
 62
     7
370
     0
100
AcDbLine
 10
227.8794528788
 20
93.8717390366
 30
0.0
 11
227.8794528788
 21
118.748134277
 31
0.0
  0
LINE
  5
13B
330
1F
100
AcDbEntity
  8
0
  6
HIDDEN
 62
     7
370
     0
100
AcDbLine
 10
148.0488249903
 20
95.7481426142
 30
0.0
 11
148.0488249903
 21
116.7481423311
 31
0.0
  0
LINE
  5
13C
330
1F
100
AcDbEntity
  8
0
  6
HIDDEN
 62
     7
370
     0
100
AcDbLine
 10
149.8294504231
 20
96.3731420182
 30
0.0
 11
149.8294504231
 21
116.1231419958
 31
0.0
  0
LWPOLYLINE
  5
13D
330
1F
100
AcDbEntity
  8
0
  6
HIDDEN
 62
     7
370
     0
100
AcDbPolyline
 90
       20
 70
   128
 43
0.0
 10
207.8095333522
 20
108.395578149
 10
207.6739551371
 20
108.8914154519
 10
207.588206405
 20
109.3120142307
 10
207.5586574023
 20
109.6261581827
 10
207.5874911493
 20
109.8105314143
 10
207.6725693291
 20
109.8514495373
 10
207.8075813001
 20
109.7458762072
 10
207.9825060313
 20
109.5016466409
 10
208.1843571609
 20
109.1368876353
 10
208.3981590217
 20
108.6786713407
 10
208.6080344265
 20
108.1610065142
 10
208.7984191125
 20
107.6223141702
 10
208.9551718777
 20
107.1025758704
 10
209.0666623657
 20
106.6403663556
 10
209.1246129816
 20
106.2699907437
 10
209.1247247403
 20
106.0189381954
 10
209.0669976419
 20
105.9058417289
 10
208.9557008689
 20
105.9390953872
 10
208.7991045659
 20
106.11623102
 10
208.6088316386
 20
106.4241017287
  0
SPLINE
  5
13E
330
1F
100
AcDbEntity
  8
0
  6
HIDDEN
 62
     7
370
     0
100
AcDbSpline
210
0.0
220
0.0
230
1.0
 70
     8
 71
     3
 72
    18
 73
    14
 74
     0
 42
0.00000001
 43
0.00000001
 12
1.0
 22
0.0
 32
0.0
 13
1.0
 23
0.0
 33
0.0
 40
0.0
 40
0.0
 40
0.0
 40
0.0
 40
0.1249999999999963
 40
0.1249999999999963
 40
0.2499999999999926
 40
0.2499999999999926
 40
0.4999999999999956
 40
0.4999999999999956
 40
0.7499999999999986
 40
0.7499999999999986
 40
0.8749999999999991
 40
0.8749999999999991
 40
1.0
 40
1.0
 40
1.0
 40
1.0
 10
208.6088334994682
 20
106.4241017274093
 30
0.0
 10
208.5416559912413
 20
106.4870169788777
 30
0.0
 10
208.474689079269
 20
106.5537656288833
 30
0.0
 10
208.3432031131865
 20
106.6970171778492
 30
0.0
 10
208.2784836592984
 20
106.774032507896
 30
0.0
 10
208.1006722802002
 20
107.0117674650145
 30
0.0
 10
208.0003225879599
 20
107.1848082113475
 30
0.0
 10
207.8545454163904
 20
107.5429370063823
 30
0.0
 10
207.8075081103013
 20
107.731936212948
 30
0.0
 10
207.7796683052814
 20
108.0017312623337
 30
0.0
 10
207.7773930120028
 20
108.0907808531784
 30
0.0
 10
207.7852938682051
 20
108.2534600470965
 30
0.0
 10
207.7952001734656
 20
108.327902375602
 30
0.0
 10
207.8095313079718
 20
108.3955782451292
 30
0.0
  0
SPLINE
  5
13F
330
1F
100
AcDbEntity
  8
0
  6
HIDDEN
 62
     7
370
     0
100
AcDbSpline
210
0.0
220
0.0
230
1.0
 70
    11
 71
     3
 72
    62
 73
    58
 74
     0
 42
0.00000001
 43
0.00000001
 12
1.0
 22
0.0
 32
0.0
 13
1.0
 23
0.0
 33
0.0
 40
0.0
 40
0.0
 40
0.0
 40
0.0
 40
0.000019968328895
 40
0.000019968328895
 40
0.000019968328895
 40
0.0000416100355401
 40
0.0000416100355401
 40
0.0000416100355401
 40
0.0000630404673544
 40
0.0000630404673544
 40
0.0000630404673544
 40
0.0000846794277684
 40
0.0000846794277684
 40
0.0000846794277684
 40
0.000106808342764
 40
0.000106808342764
 40
0.000106808342764
 40
0.0001294006144292
 40
0.0001294006144292
 40
0.0001294006144292
 40
0.0001521893128586
 40
0.0001521893128586
 40
0.0001521893128586
 40
0.0001748998441022
 40
0.0001748998441022
 40
0.0001748998441022
 40
0.0001974176028301
 40
0.0001974176028301
 40
0.0001974176028301
 40
0.0002197365362427
 40
0.0002197365362427
 40
0.0002197365362427
 40
0.0002418350709434
 40
0.0002418350709434
 40
0.0002418350709434
 40
0.0002636822924112
 40
0.0002636822924112
 40
0.0002636822924112
 40
0.0002853551193469
 40
0.0002853551193469
 40
0.0002853551193469
 40
0.0003070853588746
 40
0.0003070853588746
 40
0.0003070853588746
 40
0.0003291523305126
 40
0.0003291523305126
 40
0.0003291523305126
 40
0.0003517091698828
 40
0.0003517091698828
 40
0.0003517091698828
 40
0.0003746593323365
 40
0.0003746593323365
 40
0.0003746593323365
 40
0.0003976576867025
 40
0.0003976576867025
 40
0.0003976576867025
 40
0.0004140490854008
 40
0.0004140490854008
 40
0.0004140490854008
 40
0.0004140490854008
 10
209.9068236206255
 20
109.0877609951228
 30
0.0
 10
209.9005580985487
 20
109.0899664011931
 30
0.0
 10
209.8938658532215
 20
109.0912634976271
 30
0.0
 10
209.8872200588563
 20
109.0915484247228
 30
0.0
 10
209.8800337889702
 20
109.0918565237844
 30
0.0
 10
209.8727104581326
 20
109.0909831938423
 30
0.0
 10
209.8658677336734
 20
109.0890055419254
 30
0.0
 10
209.8590885822677
 20
109.0870462635923
 30
0.0
 10
209.8525961810044
 20
109.0839521847576
 30
0.0
 10
209.8469073012618
 20
109.0799911800924
 30
0.0
 10
209.8411622053667
 20
109.075991033724
 30
0.0
 10
209.83608094489
 20
109.0710017798748
 30
0.0
 10
209.832045723484
 20
109.0654320217195
 30
0.0
 10
209.8279201127747
 20
109.0597375005071
 30
0.0
 10
209.8247758519118
 20
109.0532838308572
 30
0.0
 10
209.8228459942035
 20
109.0465855566662
 30
0.0
 10
209.8208765568239
 20
109.0397499068078
 30
0.0
 10
209.8201186554327
 20
109.0324726279333
 30
0.0
 10
209.8206314009218
 20
109.0253418081287
 30
0.0
 10
209.8211484406627
 20
109.0181512675927
 30
0.0
 10
209.8229734717349
 20
109.0109103880333
 30
0.0
 10
209.8259626257007
 20
109.0042233264792
 30
0.0
 10
209.8289413282304
 20
108.9975596459211
 30
0.0
 10
209.8331601765464
 20
108.991260466659
 30
0.0
 10
209.8382736308504
 20
108.9858643441205
 30
0.0
 10
209.8433440668982
 20
108.9805136178579
 30
0.0
 10
209.8494361248097
 20
108.9759016666873
 30
0.0
 10
209.8560443079232
 20
108.9724308078969
 30
0.0
 10
209.8625945677724
 20
108.9689903725174
 30
0.0
 10
209.8698357136258
 20
108.9665754046664
 30
0.0
 10
209.8771614796267
 20
108.9654075557866
 30
0.0
 10
209.8844153886647
 20
108.9642511621012
 30
0.0
 10
209.8919558162335
 20
108.9642863457915
 30
0.0
 10
209.8991446178736
 20
108.96552593584
 30
0.0
 10
209.9062529507845
 20
108.966751650386
 30
0.0
 10
209.9132152496106
 20
108.9691898465593
 30
0.0
 10
209.9194449185934
 20
108.9726390101547
 30
0.0
 10
209.9256266377065
 20
108.9760616254784
 30
0.0
 10
209.9312567631773
 20
108.9805728171327
 30
0.0
 10
209.9358787259098
 20
108.9857897725394
 30
0.0
 10
209.9405139511153
 20
108.9910216977185
 30
0.0
 10
209.9442617768797
 20
108.9971029916601
 30
0.0
 10
209.9468406171939
 20
109.0035287735944
 30
0.0
 10
209.9494593712422
 20
109.0100540099038
 30
0.0
 10
209.9509448948698
 20
109.0171081016106
 30
0.0
 10
209.9512028084091
 20
109.0241216766221
 30
0.0
 10
209.9514663708797
 20
109.0312888659207
 30
0.0
 10
209.9504562648362
 20
109.038606912385
 30
0.0
 10
209.9482652154149
 20
109.0454882131392
 30
0.0
 10
209.9460369719922
 20
109.0524863269179
 30
0.0
 10
209.9425251314812
 20
109.059225510521
 30
0.0
 10
209.9380106486994
 20
109.065145827401
 30
0.0
 10
209.933488457877
 20
109.0710762526466
 30
0.0
 10
209.9278299416965
 20
109.0763513268543
 30
0.0
 10
209.9214991267295
 20
109.0805027313104
 30
0.0
 10
209.9169551160954
 20
109.083482446575
 30
0.0
 10
209.9119878622027
 20
109.0859432296465
 30
0.0
 10
209.9068236206255
 20
109.0877609951228
 30
0.0
  0
SPLINE
  5
140
330
1F
100
AcDbEntity
  8
0
  6
HIDDEN
 62
     7
370
     0
100
AcDbSpline
210
0.0
220
0.0
230
1.0
 70
     8
 71
     3
 72
    12
 73
     8
 74
     0
 42
0.00000001
 43
0.00000001
 12
1.0
 22
0.0
 32
0.0
 13
1.0
 23
0.0
 33
0.0
 40
0.0
 40
0.0
 40
0.0
 40
0.0
 40
0.2500000000000001
 40
0.2500000000000001
 40
0.5000000000000001
 40
0.5000000000000001
 40
1.0
 40
1.0
 40
1.0
 40
1.0
 10
211.377539296422
 20
107.2854269906723
 30
0.0
 10
211.2551790436678
 20
107.2640098763139
 30
0.0
 10
211.13192003228
 20
107.2387066655755
 30
0.0
 10
210.8833183963567
 20
107.1712913781407
 30
0.0
 10
210.7559381770366
 20
107.1278420446364
 30
0.0
 10
210.3860522848865
 20
106.9679504788016
 30
0.0
 10
210.1597924022091
 20
106.8259846240903
 30
0.0
 10
209.9365910240733
 20
106.6792302206479
 30
0.0
  0
SPLINE
  5
141
330
1F
100
AcDbEntity
  8
0
  6
HIDDEN
 62
     7
370
     0
100
AcDbSpline
210
0.0
220
0.0
230
1.0
 70
     8
 71
     3
 72
    18
 73
    14
 74
     0
 42
0.00000001
 43
0.00000001
 12
1.0
 22
0.0
 32
0.0
 13
1.0
 23
0.0
 33
0.0
 40
0.0
 40
0.0
 40
0.0
 40
0.0
 40
0.2499999999999883
 40
0.2499999999999883
 40
0.3749999999999904
 40
0.3749999999999904
 40
0.4999999999999926
 40
0.4999999999999926
 40
0.6249999999999947
 40
0.6249999999999947
 40
0.7499999999999968
 40
0.7499999999999968
 40
1.0
 40
1.0
 40
1.0
 40
1.0
 10
209.9365910240733
 20
106.6792302206478
 30
0.0
 10
210.0554793386298
 20
106.6555962076924
 30
0.0
 10
210.1743980621914
 20
106.6412185476301
 30
0.0
 10
210.3627572160209
 20
106.6430972887167
 30
0.0
 10
210.4268967161152
 20
106.6475788349459
 30
0.0
 10
210.5661136106076
 20
106.6726260216312
 30
0.0
 10
210.6407976742054
 20
106.6944057573845
 30
0.0
 10
210.7843402099168
 20
106.7573875474987
 30
0.0
 10
210.8524151074945
 20
106.7975098517779
 30
0.0
 10
210.9755256220443
 20
106.8824105859744
 30
0.0
 10
211.0326397377911
 20
106.9282935332216
 30
0.0
 10
211.193643074647
 20
107.0710078196273
 30
0.0
 10
211.2890383303987
 20
107.1740593422031
 30
0.0
 10
211.3775392964221
 20
107.2854269906722
 30
0.0
  0
SPLINE
  5
142
330
1F
100
AcDbEntity
  8
0
  6
HIDDEN
 62
     7
370
     0
100
AcDbSpline
210
0.0
220
0.0
230
1.0
 70
     8
 71
     3
 72
    14
 73
    10
 74
     0
 42
0.00000001
 43
0.00000001
 12
1.0
 22
0.0
 32
0.0
 13
1.0
 23
0.0
 33
0.0
 40
0.0
 40
0.0
 40
0.0
 40
0.0
 40
0.25
 40
0.25
 40
0.5
 40
0.5
 40
0.75
 40
0.75
 40
1.0
 40
1.0
 40
1.0
 40
1.0
 10
208.3364932388208
 20
110.082913325657
 30
0.0
 10
208.4912923725684
 20
110.1274958324592
 30
0.0
 10
208.6481760730164
 20
110.1693022690912
 30
0.0
 10
208.9680417309521
 20
110.2562391645496
 30
0.0
 10
209.1307523325857
 20
110.3018281598451
 30
0.0
 10
209.446810875933
 20
110.4066662348103
 30
0.0
 10
209.6021812476951
 20
110.4672955061829
 30
0.0
 10
209.8917003245486
 20
110.5911141954463
 30
0.0
 10
210.0293904513221
 20
110.6545715089818
 30
0.0
 10
210.1652188350941
 20
110.7164986311545
 30
0.0
  0
SPLINE
  5
143
330
1F
100
AcDbEntity
  8
0
  6
HIDDEN
 62
     7
370
     0
100
AcDbSpline
210
0.0
220
0.0
230
1.0
 70
     8
 71
     3
 72
    22
 73
    18
 74
     0
 42
0.00000001
 43
0.00000001
 12
1.0
 22
0.0
 32
0.0
 13
1.0
 23
0.0
 33
0.0
 40
0.0
 40
0.0
 40
0.0
 40
0.0
 40
0.2500000000000026
 40
0.2500000000000026
 40
0.5000000000000051
 40
0.5000000000000051
 40
0.625000000000006
 40
0.625000000000006
 40
0.687500000000004
 40
0.687500000000004
 40
0.7500000000000019
 40
0.7500000000000019
 40
0.8124999999999998
 40
0.8124999999999998
 40
0.8749999999999976
 40
0.8749999999999976
 40
1.0
 40
1.0
 40
1.0
 40
1.0
 10
207.8095313079718
 20
108.3955782451292
 30
0.0
 10
207.8535353346051
 20
108.6786152409741
 30
0.0
 10
207.9392497113802
 20
108.9367031810055
 30
0.0
 10
208.1665002730954
 20
109.4167085213892
 30
0.0
 10
208.3047922396013
 20
109.6272637142108
 30
0.0
 10
208.5224162365596
 20
109.9046044893155
 30
0.0
 10
208.5988441547815
 20
109.9915329668283
 30
0.0
 10
208.6889102601727
 20
110.1026791222651
 30
0.0
 10
208.7140567647146
 20
110.1362538385741
 30
0.0
 10
208.7351197644664
 20
110.187126389145
 30
0.0
 10
208.7286695967773
 20
110.2024025542328
 30
0.0
 10
208.692856601321
 20
110.2151261592785
 30
0.0
 10
208.6650240401708
 20
110.2136794408791
 30
0.0
 10
208.6048781540414
 20
110.2030880374734
 30
0.0
 10
208.5721163380086
 20
110.1938658322882
 30
0.0
 10
208.4720500593442
 20
110.1584957997084
 30
0.0
 10
208.4028618533177
 20
110.1245988434146
 30
0.0
 10
208.3364932388208
 20
110.082913325657
 30
0.0
  0
SPLINE
  5
144
330
1F
100
AcDbEntity
  8
0
  6
HIDDEN
 62
     7
370
     0
100
AcDbSpline
210
0.0
220
0.0
230
1.0
 70
     8
 71
     3
 72
    58
 73
    54
 74
     0
 42
0.00000001
 43
0.00000001
 12
1.0
 22
0.0
 32
0.0
 13
1.0
 23
0.0
 33
0.0
 40
0.0
 40
0.0
 40
0.0
 40
0.0
 40
0.0312499999999983
 40
0.0312499999999983
 40
0.0624999999999966
 40
0.0624999999999966
 40
0.0937499999999949
 40
0.0937499999999949
 40
0.1093749999999945
 40
0.1093749999999945
 40
0.1249999999999942
 40
0.1249999999999942
 40
0.1562499999999954
 40
0.1562499999999954
 40
0.1874999999999965
 40
0.1874999999999965
 40
0.2499999999999987
 40
0.2499999999999987
 40
0.3125000000000009
 40
0.3125000000000009
 40
0.3750000000000031
 40
0.3750000000000031
 40
0.4062500000000042
 40
0.4062500000000042
 40
0.4375000000000053
 40
0.4375000000000053
 40
0.5000000000000075
 40
0.5000000000000075
 40
0.5625000000000098
 40
0.5625000000000098
 40
0.625000000000012
 40
0.625000000000012
 40
0.6875000000000142
 40
0.6875000000000142
 40
0.7187500000000144
 40
0.7187500000000144
 40
0.7500000000000145
 40
0.7500000000000145
 40
0.7656250000000149
 40
0.7656250000000149
 40
0.7812500000000151
 40
0.7812500000000151
 40
0.7968750000000153
 40
0.7968750000000153
 40
0.8125000000000157
 40
0.8125000000000157
 40
0.843750000000013
 40
0.843750000000013
 40
0.8750000000000104
 40
0.8750000000000104
 40
0.9375000000000052
 40
0.9375000000000052
 40
1.0
 40
1.0
 40
1.0
 40
1.0
 10
210.1652188350942
 20
110.7164986311545
 30
0.0
 10
210.0775976374865
 20
110.7074034576163
 30
0.0
 10
209.991741072046
 20
110.6920425674727
 30
0.0
 10
209.8261715072216
 20
110.649951239775
 30
0.0
 10
209.7461538879516
 20
110.6231636990003
 30
0.0
 10
209.6049065288351
 20
110.5605366659445
 30
0.0
 10
209.5398786524654
 20
110.5230150129659
 30
0.0
 10
209.5082794530516
 20
110.4720345636606
 30
0.0
 10
209.5105178149141
 20
110.4566534664986
 30
0.0
 10
209.5365302347015
 20
110.4309591212814
 30
0.0
 10
209.5593524516339
 20
110.4201836665432
 30
0.0
 10
209.6400944974411
 20
110.3901026414234
 30
0.0
 10
209.7087801391376
 20
110.3723497477125
 30
0.0
 10
209.8539416386065
 20
110.330566239572
 30
0.0
 10
209.9315226798257
 20
110.306946881644
 30
0.0
 10
210.1680608672509
 20
110.2249194285086
 30
0.0
 10
210.3323166577117
 20
110.1553402187626
 30
0.0
 10
210.6671986270665
 20
109.9743951008417
 30
0.0
 10
210.8397037717461
 20
109.8618006070262
 30
0.0
 10
211.1715439083142
 20
109.5907513074426
 30
0.0
 10
211.3349136557233
 20
109.4287295427969
 30
0.0
 10
211.550358930349
 20
109.1525473881608
 30
0.0
 10
211.6185253570948
 20
109.0530715524973
 30
0.0
 10
211.7379065790011
 20
108.8498730068203
 30
0.0
 10
211.7898125202144
 20
108.7455917224033
 30
0.0
 10
211.920294107493
 20
108.424012378203
 30
0.0
 10
211.9682464791302
 20
108.2062851940783
 30
0.0
 10
211.987009352869
 20
107.8101586882737
 30
0.0
 10
211.9593175466359
 20
107.6300484109677
 30
0.0
 10
211.8546608568956
 20
107.3188811407579
 30
0.0
 10
211.7765960172476
 20
107.1834006527042
 30
0.0
 10
211.5880135981612
 20
106.9546474528301
 30
0.0
 10
211.4777256239794
 20
106.8602441415929
 30
0.0
 10
211.2872038407938
 20
106.7400804977223
 30
0.0
 10
211.2194187024478
 20
106.7037013501294
 30
0.0
 10
211.073884456133
 20
106.6365615629879
 30
0.0
 10
210.9960865087569
 20
106.6058928392429
 30
0.0
 10
210.8643538019303
 20
106.5583943581229
 30
0.0
 10
210.8170663969387
 20
106.5419651701009
 30
0.0
 10
210.715203651457
 20
106.5061917491536
 30
0.0
 10
210.6597167584674
 20
106.4863716564839
 30
0.0
 10
210.5487325086463
 20
106.4453920547436
 30
0.0
 10
210.4928188688812
 20
106.4241868784372
 30
0.0
 10
210.3864310114427
 20
106.3845718903232
 30
0.0
 10
210.3352478765733
 20
106.3659334747612
 30
0.0
 10
210.1837624841144
 20
106.3138775594883
 30
0.0
 10
210.0881254272048
 20
106.2852575830607
 30
0.0
 10
209.8981791422814
 20
106.2396156987351
 30
0.0
 10
209.804198306726
 20
106.2226121901118
 30
0.0
 10
209.5214574701513
 20
106.1901424899116
 30
0.0
 10
209.3326406843828
 20
106.1935699054068
 30
0.0
 10
208.9647409756619
 20
106.2595976667469
 30
0.0
 10
208.7813897906562
 20
106.3229118881604
 30
0.0
 10
208.6088334994682
 20
106.4241017274093
 30
0.0
  0
SPLINE
  5
145
330
1F
100
AcDbEntity
  8
0
  6
HIDDEN
 62
     7
370
     0
100
AcDbSpline
210
0.0
220
0.0
230
1.0
 70
     8
 71
     3
 72
    14
 73
    10
 74
     0
 42
0.00000001
 43
0.00000001
 12
1.0
 22
0.0
 32
0.0
 13
1.0
 23
0.0
 33
0.0
 40
0.0
 40
0.0
 40
0.0
 40
0.0
 40
0.2500000000000001
 40
0.2500000000000001
 40
0.5000000000000002
 40
0.5000000000000002
 40
0.7500000000000003
 40
0.7500000000000003
 40
1.0
 40
1.0
 40
1.0
 40
1.0
 10
125.5794499581539
 20
116.2723319660958
 30
0.0
 10
125.5794499581539
 20
116.235860101562
 30
0.0
 10
125.5570793263498
 20
116.1981243490495
 30
0.0
 10
125.4698637951016
 20
116.12298862735
 30
0.0
 10
125.4058425890249
 20
116.086616341128
 30
0.0
 10
125.2423572912836
 20
116.0223928019658
 30
0.0
 10
125.1430424171104
 20
115.9948698393434
 30
0.0
 10
124.9232161464054
 20
115.9566976724563
 30
0.0
 10
124.8022125840962
 20
115.9460481744236
 30
0.0
 10
124.6794499581539
 20
115.9460481744236
 30
0.0
  0
LINE
  5
146
330
1F
100
AcDbEntity
  8
0
  6
HIDDEN
 62
     7
370
     0
100
AcDbLine
 10
124.679449374
 20
115.9460482143
 30
0.0
 11
122.9294495528
 21
115.9460482143
 31
0.0
  0
LINE
  5
147
330
1F
100
AcDbEntity
  8
0
  6
HIDDEN
 62
     7
370
     0
100
AcDbLine
 10
122.9294495528
 20
96.550236731
 30
0.0
 11
127.1794497838
 21
96.550236731
 31
0.0
  0
SPLINE
  5
148
330
1F
100
AcDbEntity
  8
0
  6
HIDDEN
 62
     7
370
     0
100
AcDbSpline
210
0.0
220
0.0
230
1.0
 70
     8
 71
     3
 72
    14
 73
    10
 74
     0
 42
0.00000001
 43
0.00000001
 12
1.0
 22
0.0
 32
0.0
 13
1.0
 23
0.0
 33
0.0
 40
0.0
 40
0.0
 40
0.0
 40
0.0
 40
0.2499999999999994
 40
0.2499999999999994
 40
0.4999999999999992
 40
0.4999999999999992
 40
0.7499999999999997
 40
0.7499999999999997
 40
1.0
 40
1.0
 40
1.0
 40
1.0
 10
127.1794499581539
 20
96.55023677092716
 30
0.0
 10
127.3020553815404
 20
96.55023677092716
 30
0.0
 10
127.4223984836331
 20
96.5396934290172
 30
0.0
 10
127.6426984878121
 20
96.50151046839257
 30
0.0
 10
127.7423422340996
 20
96.4738692002518
 30
0.0
 10
127.9052303191605
 20
96.40993787546442
 30
0.0
 10
127.9698749759633
 20
96.37321913650054
 30
0.0
 10
128.0565979408591
 20
96.2986424910549
 30
0.0
 10
128.0794499581539
 20
96.26038675718118
 30
0.0
 10
128.0794499581539
 20
96.22395297925496
 30
0.0
  0
LINE
  5
149
330
1F
100
AcDbEntity
  8
0
  6
HIDDEN
 62
     7
370
     0
100
AcDbLine
 10
122.9294495528
 20
96.550236731
 30
0.0
 11
122.9294495528
 21
115.9460482143
 31
0.0
  0
ARC
  5
14A
330
1F
100
AcDbEntity
  8
0
  6
HIDDEN
 62
     7
370
     0
100
AcDbCircle
 10
209.8865882376
 20
108.8137821477
 30
0.0
 40
2.135137548279423
100
AcDbArc
 50
271.341962938
 51
314.2902880352
  0
SPLINE
  5
14B
330
1F
100
AcDbEntity
  8
0
  6
HIDDEN
 62
     7
370
     0
100
AcDbSpline
210
0.0
220
0.0
230
1.0
 70
     8
 71
     3
 72
    64
 73
    60
 74
     0
 42
0.00000001
 43
0.00000001
 12
1.0
 22
0.0
 32
0.0
 13
1.0
 23
0.0
 33
0.0
 40
-0.0624999999999973
 40
-0.0624999999999973
 40
0.0
 40
0.0
 40
0.0312500000000005
 40
0.0312500000000005
 40
0.0625000000000009
 40
0.0625000000000009
 40
0.0937500000000014
 40
0.0937500000000014
 40
0.1250000000000019
 40
0.1250000000000019
 40
0.1562500000000024
 40
0.1562500000000024
 40
0.1875000000000029
 40
0.1875000000000029
 40
0.2187500000000034
 40
0.2187500000000034
 40
0.2500000000000038
 40
0.2500000000000038
 40
0.2812500000000043
 40
0.2812500000000043
 40
0.3125000000000048
 40
0.3125000000000048
 40
0.3437500000000053
 40
0.3437500000000053
 40
0.3750000000000057
 40
0.3750000000000057
 40
0.4062500000000062
 40
0.4062500000000062
 40
0.4375000000000067
 40
0.4375000000000067
 40
0.4687500000000072
 40
0.4687500000000072
 40
0.5000000000000077
 40
0.5000000000000077
 40
0.5625000000000087
 40
0.5625000000000087
 40
0.5937500000000085
 40
0.5937500000000085
 40
0.6250000000000084
 40
0.6250000000000084
 40
0.6562500000000083
 40
0.6562500000000083
 40
0.6875000000000082
 40
0.6875000000000082
 40
0.7187500000000082
 40
0.7187500000000082
 40
0.7500000000000081
 40
0.7500000000000081
 40
0.781250000000008
 40
0.781250000000008
 40
0.8125000000000079
 40
0.8125000000000079
 40
0.8750000000000053
 40
0.8750000000000053
 40
0.906250000000004
 40
0.906250000000004
 40
0.9375000000000027
 40
0.9375000000000027
 40
1.0
 40
1.0
 40
1.03125
 40
1.03125
 10
211.979449958154
 20
107.1824537731689
 30
0.0
 10
211.9794499581539
 20
106.751558241563
 30
0.0
 10
211.9638443596127
 20
106.608167372394
 30
0.0
 10
211.9039149390338
 20
106.3218989936242
 30
0.0
 10
211.85904649213
 20
106.1789530674579
 30
0.0
 10
211.747225519606
 20
105.9086138273882
 30
0.0
 10
211.6790458395774
 20
105.7778230151242
 30
0.0
 10
211.5256696403143
 20
105.5340428864645
 30
0.0
 10
211.4408421289243
 20
105.420996350439
 30
0.0
 10
211.2554736517745
 20
105.2105473968652
 30
0.0
 10
211.1540705625811
 20
105.1125671768783
 30
0.0
 10
210.9397010197795
 20
104.9378913757475
 30
0.0
 10
210.8264318243691
 20
104.8604653671453
 30
0.0
 10
210.5830374609016
 20
104.7272453839357
 30
0.0
 10
210.451641485394
 20
104.6712195647281
 30
0.0
 10
210.1758040488685
 20
104.593135863392
 30
0.0
 10
210.0277870168929
 20
104.5709828619046
 30
0.0
 10
209.7353992010665
 20
104.5705750699955
 30
0.0
 10
209.5870205822268
 20
104.5924013699544
 30
0.0
 10
209.3115470086249
 20
104.6696401113755
 30
0.0
 10
209.1800492456285
 20
104.7253014101825
 30
0.0
 10
208.9361842629304
 20
104.8580948063892
 30
0.0
 10
208.822628483104
 20
104.9353954787877
 30
0.0
 10
208.607604484453
 20
105.1100157524759
 30
0.0
 10
208.5062664119422
 20
105.2076704170649
 30
0.0
 10
208.3208278048901
 20
105.4175144696574
 30
0.0
 10
208.2358124699293
 20
105.5303836015776
 30
0.0
 10
208.0818343508294
 20
105.7742436022211
 30
0.0
 10
208.0136901452912
 20
105.904493202658
 30
0.0
 10
207.9015510146066
 20
106.1741208729052
 30
0.0
 10
207.856367851312
 20
106.3169671261641
 30
0.0
 10
207.7958084204597
 20
106.6029556682928
 30
0.0
 10
207.7799283678471
 20
106.7459053488314
 30
0.0
 10
207.7785247082867
 20
107.1744879845584
 30
0.0
 10
207.8423921281393
 20
107.4433013976563
 30
0.0
 10
208.0096303125254
 20
107.7791157326984
 30
0.0
 10
208.077725104049
 20
107.8817728575871
 30
0.0
 10
208.2306607178236
 20
108.0635236488204
 30
0.0
 10
208.3153516908736
 20
108.1430815111016
 30
0.0
 10
208.5006554233245
 20
108.2836027680975
 30
0.0
 10
208.6019994490372
 20
108.3447279665609
 30
0.0
 10
208.8160931355469
 20
108.4473438926338
 30
0.0
 10
208.9293242324135
 20
108.4894146367709
 30
0.0
 10
209.1729661763041
 20
108.5575662192587
 30
0.0
 10
209.3040597229295
 20
108.5835507113036
 30
0.0
 10
209.5798469828802
 20
108.6183830012443
 30
0.0
 10
209.7275121358984
 20
108.6274353908711
 30
0.0
 10
210.0198955387654
 20
108.6278876056342
 30
0.0
 10
210.1683911839102
 20
108.619263027414
 30
0.0
 10
210.445556731504
 20
108.5851573416899
 30
0.0
 10
210.5770415520061
 20
108.5595281406725
 30
0.0
 10
210.9427379351984
 20
108.4587565894018
 30
0.0
 10
211.1589031725473
 20
108.3575884531172
 30
0.0
 10
211.4379771205679
 20
108.1479482688329
 30
0.0
 10
211.5246044144814
 20
108.0672161055712
 30
0.0
 10
211.6782088317726
 20
107.8858984038608
 30
0.0
 10
211.7453649141439
 20
107.7856184472722
 30
0.0
 10
211.9145869702025
 20
107.4497215566521
 30
0.0
 10
211.979449958154
 20
107.1824537731689
 30
0.0
 10
211.9794499581539
 20
106.751558241563
 30
0.0
  0
ARC
  5
14C
330
1F
100
AcDbEntity
  8
0
  6
HIDDEN
 62
     7
370
     0
100
AcDbCircle
 10
209.8763793288
 20
108.5942447765
 30
0.0
 40
2.141819593915613
100
AcDbArc
 50
82.2495956062
 51
135.9689193388
  0
LINE
  5
14D
330
1F
100
AcDbEntity
  8
0
  6
HIDDEN
 62
     7
370
     0
100
AcDbLine
 10
125.5794497078
 20
117.2481424131
 30
0.0
 11
125.5794497078
 21
119.805666893
 31
0.0
  0
LINE
  5
14E
330
1F
100
AcDbEntity
  8
0
  6
HIDDEN
 62
     7
370
     0
100
AcDbLine
 10
128.0794501176
 20
95.2481425323
 30
0.0
 11
128.0794501176
 21
92.6445660137
 31
0.0
  0
LINE
  5
14F
330
1F
100
AcDbEntity
  8
0
  6
HIDDEN
 62
     7
370
     0
100
AcDbLine
 10
122.9294495528
 20
117.2481424131
 30
0.0
 11
122.9294495528
 21
119.1137230911
 31
0.0
  0
LINE
  5
150
330
1F
100
AcDbEntity
  8
0
  6
HIDDEN
 62
     7
370
     0
100
AcDbLine
 10
122.9294495528
 20
95.2481425323
 30
0.0
 11
122.9294495528
 21
93.5176073529
 31
0.0
  0
LINE
  5
151
330
1F
100
AcDbEntity
  8
0
  6
HIDDEN
 62
     7
370
     0
100
AcDbLine
 10
155.1794497168
 20
99.9981423795
 30
0.0
 11
155.1794497168
 21
112.4981425658
 31
0.0
  0
LINE
  5
152
330
1F
100
AcDbEntity
  8
0
  6
HIDDEN
 62
     7
370
     0
100
AcDbLine
 10
157.6794491952
 20
99.9981423795
 30
0.0
 11
157.6794491952
 21
112.4981425658
 31
0.0
  0
LINE
  5
153
330
1F
100
AcDbEntity
  8
0
  6
HIDDEN
 62
     7
370
     0
100
AcDbLine
 10
150.3294495737
 20
100.7481425025
 30
0.0
 11
150.3294495737
 21
111.7481424429
 31
0.0
  0
LINE
  5
154
330
1F
100
AcDbEntity
  8
0
  6
HIDDEN
 62
     7
370
     0
100
AcDbLine
 10
156.8746719381
 20
89.3481432416
 30
0.0
 11
154.3294502294
 21
89.3481432416
 31
0.0
  0
LINE
  5
155
330
1F
100
AcDbEntity
  8
0
  6
HIDDEN
 62
     7
370
     0
100
AcDbLine
 10
149.8294504231
 20
86.2731582441
 30
0.0
 11
149.8294504231
 21
89.3481432416
 31
0.0
  0
LINE
  5
156
330
1F
100
AcDbEntity
  8
0
  6
HIDDEN
 62
     7
370
     0
100
AcDbLine
 10
154.3294502294
 20
89.3481432416
 30
0.0
 11
149.8294504231
 21
89.3481432416
 31
0.0
  0
LINE
  5
157
330
1F
100
AcDbEntity
  8
0
  6
HIDDEN
 62
     7
370
     0
100
AcDbLine
 10
161.8294505274
 20
89.3481432416
 30
0.0
 11
158.8842267042
 21
89.3481432416
 31
0.0
  0
ELLIPSE
  5
158
330
1F
100
AcDbEntity
  8
0
  6
HIDDEN
 62
     7
370
     0
100
AcDbEllipse
 10
119.8736832184
 20
106.2481424727
 30
0.0
 11
12.26424774976726
 21
0.0
 31
0.0
210
0.0
220
0.0
230
1.0
 40
0.8164965809
 41
4.88494363710898
 42
4.964202354313272
  0
ELLIPSE
  5
159
330
1F
100
AcDbEntity
  8
0
  6
HIDDEN
 62
     7
370
     0
100
AcDbEllipse
 10
119.8736832184
 20
106.2481424727
 30
0.0
 11
12.26424774976726
 21
0.0
 31
0.0
210
0.0
220
0.0
230
1.0
 40
0.8164965809
 41
1.318982952866326
 42
1.398241670070619
  0
LINE
  5
15A
330
1F
100
AcDbEntity
  8
0
  6
HIDDEN
 62
     7
370
     0
100
AcDbLine
 10
157.0877939334
 20
123.1481417038
 30
0.0
 11
154.3294502294
 21
123.1481417038
 31
0.0
  0
LINE
  5
15B
330
1F
100
AcDbEntity
  8
0
  6
HIDDEN
 62
     7
370
     0
100
AcDbLine
 10
161.8294505274
 20
123.1481417038
 30
0.0
 11
158.6711047089
 21
123.1481417038
 31
0.0
  0
LINE
  5
15C
330
1F
100
AcDbEntity
  8
0
  6
HIDDEN
 62
     7
370
     0
100
AcDbLine
 10
154.3294502294
 20
123.1481417038
 30
0.0
 11
149.8294504231
 21
123.1481417038
 31
0.0
  0
LINE
  5
15D
330
1F
100
AcDbEntity
  8
0
  6
HIDDEN
 62
     7
370
     0
100
AcDbLine
 10
122.9294495528
 20
117.2481424131
 30
0.0
 11
122.9294495528
 21
115.9460482143
 31
0.0
  0
LINE
  5
15E
330
1F
100
AcDbEntity
  8
0
  6
HIDDEN
 62
     7
370
     0
100
AcDbLine
 10
125.5794497078
 20
117.2481424131
 30
0.0
 11
125.5794497078
 21
116.2723324217
 31
0.0
  0
LINE
  5
15F
330
1F
100
AcDbEntity
  8
0
  6
HIDDEN
 62
     7
370
     0
100
AcDbLine
 10
128.0794501176
 20
95.2481425323
 30
0.0
 11
128.0794501176
 21
96.2239525236
 31
0.0
  0
LINE
  5
160
330
1F
100
AcDbEntity
  8
0
  6
HIDDEN
 62
     7
370
     0
100
AcDbLine
 10
122.9294495528
 20
95.2481425323
 30
0.0
 11
122.9294495528
 21
96.550236731
 31
0.0
  0
SPLINE
  5
161
330
1F
100
AcDbEntity
  8
0
  6
HIDDEN
 62
     7
370
     0
100
AcDbSpline
210
0.0
220
0.0
230
1.0
 70
     8
 71
     3
 72
    10
 73
     6
 74
     0
 42
0.00000001
 43
0.00000001
 12
1.0
 22
0.0
 32
0.0
 13
1.0
 23
0.0
 33
0.0
 40
0.0
 40
0.0
 40
0.0
 40
0.0
 40
0.340073048213783
 40
0.6293642575442642
 40
1.0
 40
1.0
 40
1.0
 40
1.0
 10
133.9638236781441
 20
92.04231788890654
 30
0.0
 10
134.0833085605623
 20
92.05679437061815
 30
0.0
 10
134.3044360939139
 20
92.08358561506438
 30
0.0
 10
134.7734118929457
 20
92.12020924389293
 30
0.0
 10
135.1363724479848
 20
92.12661899150693
 30
0.0
 10
135.3402225172006
 20
92.13021890746647
 30
0.0
  0
SPLINE
  5
162
330
1F
100
AcDbEntity
  8
0
  6
HIDDEN
 62
     7
370
     0
100
AcDbSpline
210
0.0
220
0.0
230
1.0
 70
     8
 71
     3
 72
    35
 73
    31
 74
     0
 42
0.00000001
 43
0.00000001
 12
1.0
 22
0.0
 32
0.0
 13
1.0
 23
0.0
 33
0.0
 40
0.0
 40
0.0
 40
0.0
 40
0.0
 40
0.0576504496984494
 40
0.1201816649332115
 40
0.152632392286115
 40
0.1691567234124941
 40
0.1774938203469623
 40
0.1816811067584646
 40
0.1837794410958705
 40
0.1848297689605505
 40
0.1853552476701268
 40
0.1856180500580161
 40
0.1857494597786684
 40
0.1858151847574036
 40
0.185848027165261
 40
0.1858644769461995
 40
0.1858726666956414
 40
0.1858767953411622
 40
0.1858788263992854
 40
0.1858808929039154
 40
0.2005653769866743
 40
0.311431707127642
 40
0.4365430714519281
 40
0.5574725518457243
 40
0.620841402648244
 40
0.6860991046304842
 40
0.7283199054095698
 40
0.811214245136525
 40
0.9358125850749779
 40
0.9999999999999999
 40
0.9999999999999999
 40
0.9999999999999999
 40
0.9999999999999999
 10
138.1395113525771
 20
91.71472889857584
 30
0.0
 10
138.1487555016574
 20
91.71221857853422
 30
0.0
 10
138.1680264220607
 20
91.70698541133959
 30
0.0
 10
138.0473673919929
 20
91.74116936816968
 30
0.0
 10
137.9381629351954
 20
91.7703277491708
 30
0.0
 10
137.8714390656084
 20
91.78792461309799
 30
0.0
 10
137.8354758774372
 20
91.79734747403468
 30
0.0
 10
137.816793520155
 20
91.80222723122374
 30
0.0
 10
137.8072809286481
 20
91.80470928537744
 30
0.0
 10
137.8024808446641
 20
91.80596111959483
 30
0.0
 10
137.8000702462872
 20
91.8065878982298
 30
0.0
 10
137.7988617595729
 20
91.806903866826
 30
0.0
 10
137.7982576373502
 20
91.80706044366666
 30
0.0
 10
137.797954403508
 20
91.80714056462877
 30
0.0
 10
137.7978040581502
 20
91.80717923824373
 30
0.0
 10
137.7977275048438
 20
91.80719926408702
 30
0.0
 10
137.7976902259362
 20
91.80720833794422
 30
0.0
 10
137.7976711174197
 20
91.80721429415534
 30
0.0
 10
137.797660597209
 20
91.80721667822114
 30
0.0
 10
137.7775840642258
 20
91.81166136587275
 30
0.0
 10
137.6105314130496
 20
91.86060142920398
 30
0.0
 10
137.1682055963734
 20
91.95431005812445
 30
0.0
 10
136.3670820917567
 20
92.08811313943343
 30
0.0
 10
135.6017629767429
 20
92.13423043481406
 30
0.0
 10
135.0203516472046
 20
92.13258935340139
 30
0.0
 10
134.6529817181082
 20
92.11528092563317
 30
0.0
 10
134.2869946570976
 20
92.08135538782507
 30
0.0
 10
133.8918024688184
 20
92.0374270574457
 30
0.0
 10
133.5941168828973
 20
91.98376776451231
 30
0.0
 10
133.6118207847815
 20
91.9880683279314
 30
0.0
 10
133.6178401356422
 20
91.98953052537733
 30
0.0
  0
LINE
  5
163
330
1F
100
AcDbEntity
  8
0
  6
HIDDEN
 62
     7
370
     0
100
AcDbLine
 10
133.9638208842
 20
120.4538962759
 30
0.0
 11
133.7533680593
 21
120.4845684536
 31
0.0
  0
SPLINE
  5
164
330
1F
100
AcDbEntity
  8
0
  6
HIDDEN
 62
     7
370
     0
100
AcDbSpline
210
0.0
220
0.0
230
1.0
 70
     8
 71
     3
 72
    31
 73
    27
 74
     0
 42
0.00000001
 43
0.00000001
 12
1.0
 22
0.0
 32
0.0
 13
1.0
 23
0.0
 33
0.0
 40
0.0
 40
0.0
 40
0.0
 40
0.0
 40
0.0076803702583045
 40
0.0638323087971086
 40
0.0991742163357962
 40
0.1408226077896892
 40
0.1887802613669893
 40
0.2786105858596333
 40
0.2937867075436226
 40
0.3054653618253366
 40
0.3136462758113733
 40
0.3787710016267509
 40
0.4420323114566649
 40
0.5035373999230889
 40
0.5634027910300045
 40
0.5989569760454891
 40
0.640674043762241
 40
0.6885610556583297
 40
0.7416380597634216
 40
0.7807350664295838
 40
0.79563208709201
 40
0.8066844256251849
 40
0.8138918373928339
 40
0.879384497014655
 40
0.9419129161415689
 40
1.0
 40
1.0
 40
1.0
 40
1.0
 10
133.5840666537964
 20
120.5125984691291
 30
0.0
 10
133.5825429903429
 20
120.5129009113038
 30
0.0
 10
133.5698796742796
 20
120.5154145378133
 30
0.0
 10
133.6108800156048
 20
120.5092016752496
 30
0.0
 10
133.6887345653255
 20
120.4947910692114
 30
0.0
 10
133.8010419210393
 20
120.4764159772985
 30
0.0
 10
134.015224815617
 20
120.4451275704782
 30
0.0
 10
134.2666594291871
 20
120.4167358636691
 30
0.0
 10
134.4870104277152
 20
120.3966264905647
 30
0.0
 10
134.5553575177068
 20
120.3907298644636
 30
0.0
 10
134.7248011477031
 20
120.3773891302438
 30
0.0
 10
135.0194340202308
 20
120.3637207854905
 30
0.0
 10
135.463427243057
 20
120.3625126239418
 30
0.0
 10
135.9105346691257
 20
120.3803871671959
 30
0.0
 10
136.2885155395052
 20
120.4125787104517
 30
0.0
 10
136.6069287641736
 20
120.4531173258475
 30
0.0
 10
136.8858133093
 20
120.4953344393926
 30
0.0
 10
137.182513589834
 20
120.5485576550859
 30
0.0
 10
137.4441843012038
 20
120.6023533901407
 30
0.0
 10
137.6188424484935
 20
120.6428153663298
 30
0.0
 10
137.7148463686032
 20
120.6671098798186
 30
0.0
 10
137.7612202589124
 20
120.6793665862067
 30
0.0
 10
137.8739313616166
 20
120.709253461341
 30
0.0
 10
138.0216001646083
 20
120.7474689912145
 30
0.0
 10
138.166938488101
 20
120.788781479913
 30
0.0
 10
138.1497371386162
 20
120.7839763261312
 30
0.0
 10
138.1414531601452
 20
120.7816622175484
 30
0.0
  0
LINE
  5
165
330
1F
100
AcDbEntity
  8
0
  6
HIDDEN
 62
     7
370
     0
100
AcDbLine
 10
134.2429680621
 20
120.4222415529
 30
0.0
 11
133.9638208842
 21
120.4538962759
 31
0.0
  0
SPLINE
  5
166
330
1F
100
AcDbEntity
  8
0
  6
HIDDEN
 62
     7
370
     0
100
AcDbSpline
210
0.0
220
0.0
230
1.0
 70
     8
 71
     3
 72
    64
 73
    60
 74
     0
 42
0.00000001
 43
0.00000001
 12
1.0
 22
0.0
 32
0.0
 13
1.0
 23
0.0
 33
0.0
 40
-0.0625000000000052
 40
-0.0625000000000052
 40
0.0
 40
0.0
 40
0.0312499999999994
 40
0.0312499999999994
 40
0.0624999999999988
 40
0.0624999999999988
 40
0.0937499999999981
 40
0.0937499999999981
 40
0.1249999999999975
 40
0.1249999999999975
 40
0.1562499999999969
 40
0.1562499999999969
 40
0.1874999999999963
 40
0.1874999999999963
 40
0.2187499999999957
 40
0.2187499999999957
 40
0.2499999999999951
 40
0.2499999999999951
 40
0.2812499999999944
 40
0.2812499999999944
 40
0.3124999999999938
 40
0.3124999999999938
 40
0.3437499999999932
 40
0.3437499999999932
 40
0.3749999999999926
 40
0.3749999999999926
 40
0.406249999999992
 40
0.406249999999992
 40
0.4374999999999913
 40
0.4374999999999913
 40
0.4687499999999907
 40
0.4687499999999907
 40
0.4999999999999901
 40
0.4999999999999901
 40
0.5624999999999889
 40
0.5624999999999889
 40
0.5937499999999888
 40
0.5937499999999888
 40
0.6249999999999888
 40
0.6249999999999888
 40
0.6562499999999887
 40
0.6562499999999887
 40
0.6874999999999887
 40
0.6874999999999887
 40
0.7187499999999886
 40
0.7187499999999886
 40
0.7499999999999885
 40
0.7499999999999885
 40
0.7812499999999885
 40
0.7812499999999885
 40
0.8124999999999883
 40
0.8124999999999883
 40
0.8749999999999907
 40
0.8749999999999907
 40
0.9062499999999928
 40
0.9062499999999928
 40
0.9374999999999948
 40
0.9374999999999948
 40
1.0
 40
1.0
 40
1.031249999999999
 40
1.031249999999999
 10
211.9794499581539
 20
105.3138311721818
 30
0.0
 10
211.9794499581539
 20
105.7447267037877
 30
0.0
 10
211.9638443596127
 20
105.8881175729567
 30
0.0
 10
211.9039149390338
 20
106.1743859517265
 30
0.0
 10
211.85904649213
 20
106.3173318778928
 30
0.0
 10
211.747225519606
 20
106.5876711179625
 30
0.0
 10
211.6790458395775
 20
106.7184619302266
 30
0.0
 10
211.5256696403144
 20
106.9622420588862
 30
0.0
 10
211.4408421289243
 20
107.0752885949118
 30
0.0
 10
211.2554736517746
 20
107.2857375484855
 30
0.0
 10
211.1540705625811
 20
107.3837177684725
 30
0.0
 10
210.9397010197795
 20
107.5583935696032
 30
0.0
 10
210.8264318243692
 20
107.6358195782054
 30
0.0
 10
210.5830374609016
 20
107.7690395614151
 30
0.0
 10
210.4516414853941
 20
107.8250653806227
 30
0.0
 10
210.1758040488685
 20
107.9031490819588
 30
0.0
 10
210.0277870168928
 20
107.9253020834462
 30
0.0
 10
209.7353992010665
 20
107.9257098753553
 30
0.0
 10
209.5870205822267
 20
107.9038835753963
 30
0.0
 10
209.3115470086248
 20
107.8266448339753
 30
0.0
 10
209.1800492456284
 20
107.7709835351682
 30
0.0
 10
208.9361842629303
 20
107.6381901389615
 30
0.0
 10
208.822628483104
 20
107.560889466563
 30
0.0
 10
208.6076044844529
 20
107.3862691928748
 30
0.0
 10
208.5062664119421
 20
107.2886145282858
 30
0.0
 10
208.32082780489
 20
107.0787704756933
 30
0.0
 10
208.2358124699292
 20
106.9659013437731
 30
0.0
 10
208.0818343508294
 20
106.7220413431296
 30
0.0
 10
208.0136901452912
 20
106.5917917426927
 30
0.0
 10
207.9015510146065
 20
106.3221640724455
 30
0.0
 10
207.856367851312
 20
106.1793178191867
 30
0.0
 10
207.7958084204597
 20
105.8933292770579
 30
0.0
 10
207.779928367847
 20
105.7503795965193
 30
0.0
 10
207.7785247082867
 20
105.3217969607923
 30
0.0
 10
207.8423921281393
 20
105.0529835476945
 30
0.0
 10
208.0096303125254
 20
104.7171692126524
 30
0.0
 10
208.0777251040489
 20
104.6145120877637
 30
0.0
 10
208.2306607178236
 20
104.4327612965304
 30
0.0
 10
208.3153516908736
 20
104.3532034342492
 30
0.0
 10
208.5006554233245
 20
104.2126821772533
 30
0.0
 10
208.6019994490372
 20
104.1515569787899
 30
0.0
 10
208.8160931355469
 20
104.048941052717
 30
0.0
 10
208.9293242324134
 20
104.0068703085799
 30
0.0
 10
209.1729661763041
 20
103.9387187260921
 30
0.0
 10
209.3040597229294
 20
103.9127342340472
 30
0.0
 10
209.5798469828802
 20
103.8779019441065
 30
0.0
 10
209.7275121358985
 20
103.8688495544796
 30
0.0
 10
210.0198955387655
 20
103.8683973397165
 30
0.0
 10
210.1683911839102
 20
103.8770219179368
 30
0.0
 10
210.445556731504
 20
103.9111276036609
 30
0.0
 10
210.5770415520061
 20
103.9367568046784
 30
0.0
 10
210.9427379351986
 20
104.037528355949
 30
0.0
 10
211.1589031725473
 20
104.1386964922336
 30
0.0
 10
211.437977120568
 20
104.3483366765179
 30
0.0
 10
211.5246044144814
 20
104.4290688397796
 30
0.0
 10
211.6782088317727
 20
104.6103865414901
 30
0.0
 10
211.7453649141439
 20
104.7106664980787
 30
0.0
 10
211.9145869702025
 20
105.0465633886987
 30
0.0
 10
211.9794499581539
 20
105.3138311721818
 30
0.0
 10
211.9794499581539
 20
105.7447267037877
 30
0.0
  0
LINE
  5
167
330
1F
100
AcDbEntity
  8
0
  6
HIDDEN
 62
     7
370
     0
100
AcDbLine
 10
211.9794519489
 20
106.8951900655
 30
0.0
 11
211.9794519489
 21
103.7481425286
 31
0.0
  0
LINE
  5
168
330
1F
100
AcDbEntity
  8
0
  6
HIDDEN
 62
     7
370
     0
100
AcDbLine
 10
211.9794519489
 20
108.7481424168
 30
0.0
 11
211.9794519489
 21
107.9349995546
 31
0.0
  0
LINE
  5
169
330
1F
100
AcDbEntity
  8
0
  6
HIDDEN
 62
     7
370
     0
100
AcDbLine
 10
228.3794464415
 20
93.3717482679
 30
0.0
 11
228.3794464415
 21
106.2481424727
 31
0.0
  0
SPLINE
  5
16A
330
1F
100
AcDbEntity
  8
0
  6
HIDDEN
 62
     7
370
     0
100
AcDbSpline
210
0.0
220
0.0
230
1.0
 70
     8
 71
     3
 72
    12
 73
     8
 74
     0
 42
0.00000001
 43
0.00000001
 12
1.0
 22
0.0
 32
0.0
 13
1.0
 23
0.0
 33
0.0
 40
0.0
 40
0.0
 40
0.0
 40
0.0
 40
0.5000000000000007
 40
0.5000000000000007
 40
0.7500000000000003
 40
0.7500000000000003
 40
1.0
 40
1.0
 40
1.0
 40
1.0
 10
230.5733135282946
 20
114.1128414617055
 30
0.0
 10
229.9417758630454
 20
112.8927697032585
 30
0.0
 10
229.3954236355992
 20
111.6366249454919
 30
0.0
 10
228.803886406967
 20
109.6558616918124
 30
0.0
 10
228.6455453181896
 20
108.9757100160247
 30
0.0
 10
228.4340834214615
 20
107.617008230623
 30
0.0
 10
228.3794499581539
 20
106.9343457354024
 30
0.0
 10
228.3794499581539
 20
106.2481424726754
 30
0.0
  0
SPLINE
  5
16B
330
1F
100
AcDbEntity
  8
0
  6
HIDDEN
 62
     7
370
     0
100
AcDbSpline
210
0.0
220
0.0
230
1.0
 70
     8
 71
     3
 72
    20
 73
    16
 74
     0
 42
0.00000001
 43
0.00000001
 12
1.0
 22
0.0
 32
0.0
 13
1.0
 23
0.0
 33
0.0
 40
0.0
 40
0.0
 40
0.0
 40
0.0
 40
0.2500000000000002
 40
0.2500000000000002
 40
0.3750000000000003
 40
0.3750000000000003
 40
0.5000000000000004
 40
0.5000000000000004
 40
0.6250000000000006
 40
0.6250000000000006
 40
0.6875000000000004
 40
0.6875000000000004
 40
0.7500000000000004
 40
0.7500000000000004
 40
1.0
 40
1.0
 40
1.0
 40
1.0
 10
230.573313528295
 20
114.1128414617064
 30
0.0
 10
230.4892541046517
 20
115.1529195870943
 30
0.0
 10
230.4136031741293
 20
116.0903956768362
 30
0.0
 10
230.3137531164746
 20
117.3452662175566
 30
0.0
 10
230.2827581769222
 20
117.7382317047994
 30
0.0
 10
230.2270810911871
 20
118.4540665262354
 30
0.0
 10
230.2021810715548
 20
118.7796530303982
 30
0.0
 10
230.158372529277
 20
119.3670028734572
 30
0.0
 10
230.1394634934943
 20
119.6287698270164
 30
0.0
 10
230.1158457579872
 20
119.9721594959018
 30
0.0
 10
230.1087568553411
 20
120.0785581756064
 30
0.0
 10
230.096374304214
 20
120.2720289081677
 30
0.0
 10
230.0910543296533
 20
120.3594686522532
 30
0.0
 10
230.0687549598289
 20
120.7511090526985
 30
0.0
 10
230.0645365423667
 20
120.9205315902456
 30
0.0
 10
230.0743656862712
 20
120.9423960523941
 30
0.0
  0
ELLIPSE
  5
16C
330
1F
100
AcDbEntity
  8
0
  6
HIDDEN
 62
     7
370
     0
100
AcDbEllipse
 10
246.7165703605
 20
106.2481424727
 30
0.0
 11
13.17784690311723
 21
12.98255003967766
 31
0.0
210
0.0
220
0.0
230
1.0
 40
0.0510967938
 41
1.622615339612356
 42
3.193411666407419
  0
LINE
  5
16D
330
1F
100
AcDbEntity
  8
0
  6
HIDDEN
 62
     7
370
     0
100
AcDbLine
 10
239.036123628
 20
121.72453878
 30
0.0
 11
238.21999448
 21
112.4188171655
 31
0.0
  0
LINE
  5
16E
330
1F
100
AcDbEntity
  8
0
  6
HIDDEN
 62
     7
370
     0
100
AcDbLine
 10
238.21999448
 20
112.4188171655
 30
0.0
 11
238.1793143099
 21
112.3975713693
 31
0.0
  0
LINE
  5
16F
330
1F
100
AcDbEntity
  8
0
  6
HIDDEN
 62
     7
370
     0
100
AcDbLine
 10
241.0446585959
 20
109.601032031
 30
0.0
 11
250.5191819614
 21
110.4279261038
 31
0.0
  0
LINE
  5
170
330
1F
100
AcDbEntity
  8
0
  6
HIDDEN
 62
     7
370
     0
100
AcDbLine
 10
250.5191819614
 20
110.4279261038
 30
0.0
 11
250.5188764876
 21
110.4244569272
 31
0.0
  0
LINE
  5
171
330
1F
100
AcDbEntity
  8
0
  6
HIDDEN
 62
     7
370
     0
100
AcDbLine
 10
238.9970155304
 20
121.7211254828
 30
0.0
 11
239.036123628
 21
121.72453878
 31
0.0
  0
ELLIPSE
  5
172
330
1F
100
AcDbEntity
  8
0
  6
HIDDEN
 62
     7
370
     0
100
AcDbEllipse
 10
239.1737238371
 20
109.9200278409
 30
0.0
 11
2.099281448397733
 21
0.1276543563555492
 31
0.0
210
0.0
220
0.0
230
1.0
 40
0.4303093993
 41
5.785598212635366
 42
5.923521446741112
  0
ELLIPSE
  5
173
330
1F
100
AcDbEntity
  8
0
  6
HIDDEN
 62
     7
370
     0
100
AcDbEllipse
 10
239.1737238371
 20
109.9200278409
 30
0.0
 11
-1.616902374425194
 21
2.318196838028356
 31
0.0
210
0.0
220
0.0
230
1.0
 40
0.57803977
 41
5.737920332829639
 42
5.87584356693538
  0
LINE
  5
174
330
1F
100
AcDbEntity
  8
0
  6
HIDDEN
 62
     7
370
     0
100
AcDbLine
 10
238.4862782305
 20
112.386805746
 30
0.0
 11
238.4862782305
 21
112.2207853899
 31
0.0
  0
ARC
  5
175
330
1F
100
AcDbEntity
  8
0
  6
HIDDEN
 62
     7
370
     0
100
AcDbCircle
 10
239.1752996833
 20
110.2397409086
 30
0.0
 40
2.097447925310818
100
AcDbArc
 50
340.9617361335
 51
109.1780405713
  0
LINE
  5
176
330
1F
100
AcDbEntity
  8
0
  6
HIDDEN
 62
     7
370
     0
100
AcDbLine
 10
241.1580191797
 20
109.5555543855
 30
0.0
 11
241.1580191797
 21
109.7215749745
 31
0.0
  0
ARC
  5
177
330
1F
100
AcDbEntity
  8
0
  6
HIDDEN
 62
     7
370
     0
100
AcDbCircle
 10
239.1753425855
 20
110.2186846322
 30
0.0
 40
2.095960876227983
100
AcDbArc
 50
269.9556705199
 51
119.3359672111
  0
ARC
  5
178
330
1F
100
AcDbEntity
  8
0
  6
HIDDEN
 62
     7
370
     0
100
AcDbCircle
 10
239.1710341265
 20
110.219830196
 30
0.0
 40
2.097107533848086
100
AcDbArc
 50
175.4819967035
 51
270.0734076402
  0
LINE
  5
179
330
1F
100
AcDbEntity
  8
0
  6
HIDDEN
 62
     7
370
     0
100
AcDbLine
 10
241.1580191797
 20
109.7215749745
 30
0.0
 11
250.2834381407
 21
110.5180012949
 31
0.0
  0
LINE
  5
17A
330
1F
100
AcDbEntity
  8
0
  6
HIDDEN
 62
     7
370
     0
100
AcDbLine
 10
250.5191819614
 20
110.4279261038
 30
0.0
 11
250.2834381407
 21
110.5180012949
 31
0.0
  0
LINE
  5
17B
330
1F
100
AcDbEntity
  8
0
  6
HIDDEN
 62
     7
370
     0
100
AcDbLine
 10
248.8611372059
 20
109.7042987079
 30
0.0
 11
250.4732342308
 21
109.9039996464
 31
0.0
  0
ELLIPSE
  5
17C
330
1F
100
AcDbEntity
  8
0
  6
HIDDEN
 62
     7
370
     0
100
AcDbEllipse
 10
237.7274737331
 20
105.5516924128
 30
0.0
 11
1.319091535962116
 21
16.17220446745458
 31
0.0
210
0.0
220
0.0
230
1.0
 40
0.1269385516
 41
6.158161196043134
 42
6.28826230497994
  0
LINE
  5
17D
330
1F
100
AcDbEntity
  8
0
  6
HIDDEN
 62
     7
370
     0
100
AcDbLine
 10
239.2922596877
 20
121.5767872475
 30
0.0
 11
238.4862782305
 21
112.386805746
 31
0.0
  0
LWPOLYLINE
  5
17E
330
1F
100
AcDbEntity
  8
0
  6
HIDDEN
 62
     7
370
     0
100
AcDbPolyline
 90
       25
 70
   128
 43
0.0
 10
209.8794536536
 20
102.53737452
 10
210.4229735082
 20
102.6064919263
 10
210.929449076
 20
102.8091344472
 10
211.3643767184
 20
103.1314919658
 10
211.6981031244
 20
103.5515966781
 10
211.9078965729
 20
104.0408185639
 10
211.9794519489
 20
104.5658187198
 10
211.9078965729
 20
105.0908186428
 10
211.6981031244
 20
105.5800408197
 10
211.3643767184
 20
106.0001453573
 10
210.929449076
 20
106.3225029196
 10
210.4229735082
 20
106.5251453677
 10
209.8794536536
 20
106.5942629196
 10
209.3359263485
 20
106.5251453677
 10
208.8294507807
 20
106.3225029196
 10
208.3945231384
 20
106.0001453573
 10
208.0607967323
 20
105.5800408197
 10
207.8510032838
 20
105.0908186428
 10
207.7794479078
 20
104.5658187198
 10
207.8510032838
 20
104.0408185639
 10
208.0607967323
 20
103.5515966781
 10
208.3945231384
 20
103.1314919658
 10
208.8294507807
 20
102.8091344472
 10
209.3359263485
 20
102.6064919263
 10
209.8794536536
 20
102.53737452
  0
LINE
  5
17F
330
1F
100
AcDbEntity
  8
0
  6
HIDDEN
 62
     7
370
     0
100
AcDbLine
 10
250.2834381407
 20
110.5180012949
 30
0.0
 11
249.9878363555
 21
110.3261814408
 31
0.0
  0
LINE
  5
180
330
1F
100
AcDbEntity
  8
0
  6
HIDDEN
 62
     7
370
     0
100
AcDbLine
 10
239.2599167174
 20
121.041951976
 30
0.0
 11
238.4862782305
 21
112.2207853899
 31
0.0
  0
ELLIPSE
  5
181
330
1F
100
AcDbEntity
  8
0
  6
HIDDEN
 62
     7
370
     0
100
AcDbEllipse
 10
237.8804580909
 20
105.565044206
 30
0.0
 11
1.412683827499279
 21
16.18410441030983
 31
0.0
210
0.0
220
0.0
230
1.0
 40
0.0059881853
 41
5.986995678803559
 42
6.137631810106035
  0
CIRCLE
  5
182
330
1F
100
AcDbEntity
  8
0
  6
HIDDEN
 62
     7
370
     0
100
AcDbCircle
 10
244.8929683905
 20
115.9525370904
 30
0.0
 40
2.997510683202038
  0
LINE
  5
183
330
1F
100
AcDbEntity
  8
0
  6
HIDDEN
 62
     7
370
     0
100
AcDbLine
 10
250.9415404742
 20
121.2001445659
 30
0.0
 11
250.1618297642
 21
121.9956095286
 31
0.0
  0
LINE
  5
184
330
1F
100
AcDbEntity
  8
0
  6
HIDDEN
 62
     7
370
     0
100
AcDbLine
 10
241.1580191797
 20
109.5555543855
 30
0.0
 11
249.9878363555
 21
110.3261814408
 31
0.0
  0
LINE
  5
185
330
1F
100
AcDbEntity
  8
0
  6
HIDDEN
 62
     7
370
     0
100
AcDbLine
 10
239.2599167174
 20
121.041951976
 30
0.0
 11
250.1616211479
 21
121.9934041567
 31
0.0
  0
LINE
  5
186
330
1F
100
AcDbEntity
  8
0
  6
HIDDEN
 62
     7
370
     0
100
AcDbLine
 10
250.9414957708
 20
121.2000318758
 30
0.0
 11
249.9878363555
 21
110.3261814408
 31
0.0
  0
LINE
  5
187
330
1F
100
AcDbEntity
  8
0
  6
HIDDEN
 62
     7
370
     0
100
AcDbLine
 10
158.919449324
 20
119.7639892765
 30
0.0
 11
158.919449324
 21
118.0981428318
 31
0.0
  0
LINE
  5
188
330
1F
100
AcDbEntity
  8
0
  6
HIDDEN
 62
     7
370
     0
100
AcDbLine
 10
156.8394502496
 20
119.7637741409
 30
0.0
 11
156.8394502496
 21
118.0981428318
 31
0.0
  0
CIRCLE
  5
189
330
1F
100
AcDbEntity
  8
0
  6
HIDDEN
 62
     7
370
     0
100
AcDbCircle
 10
244.8931710886
 20
115.8882956492
 30
0.0
 40
2.09824261679797
  0
SPLINE
  5
18A
330
1F
100
AcDbEntity
  8
0
  6
HIDDEN
 62
     7
370
     0
100
AcDbSpline
210
0.0
220
0.0
230
1.0
 70
     8
 71
     3
 72
    27
 73
    23
 74
     0
 42
0.00000001
 43
0.00000001
 12
1.0
 22
0.0
 32
0.0
 13
1.0
 23
0.0
 33
0.0
 40
0.0
 40
0.0
 40
0.0
 40
0.0
 40
0.0373788115837117
 40
0.0760837156605963
 40
0.1161152936375268
 40
0.1574740700906438
 40
0.2001605197841937
 40
0.2441750736368265
 40
0.2895181238188231
 40
0.3361900281275255
 40
0.3841911137599859
 40
0.4335216805796193
 40
0.4841820039560139
 40
0.5361723372430202
 40
0.5894929139489302
 40
0.644143949643469
 40
0.7001256436389355
 40
0.7574381804768203
 40
0.8160817312462294
 40
0.8760564547564413
 40
0.9373624985825035
 40
1.0
 40
1.0
 40
1.0
 40
1.0
 10
250.161910737533
 20
121.9934180923336
 30
0.0
 10
250.1443770122164
 20
121.9525378878925
 30
0.0
 10
250.1086875155488
 20
121.8693271671909
 30
0.0
 10
250.0531881657031
 20
121.7301331730386
 30
0.0
 10
249.9951867439816
 20
121.5766934904549
 30
0.0
 10
249.9346769202632
 20
121.4072048359462
 30
0.0
 10
249.8717668054251
 20
121.2210171988158
 30
0.0
 10
249.8065328850499
 20
121.0171552854806
 30
0.0
 10
249.7390606475807
 20
120.7947404084115
 30
0.0
 10
249.6694326427374
 20
120.5528781679265
 30
0.0
 10
249.5977312633701
 20
120.2906967074
 30
0.0
 10
249.5240373517145
 20
120.007343225214
 30
0.0
 10
249.4484299270015
 20
119.7019927449571
 30
0.0
 10
249.3709855584749
 20
119.3738537837171
 30
0.0
 10
249.2917777644816
 20
119.022176141938
 30
0.0
 10
249.2108764549818
 20
118.6462557510761
 30
0.0
 10
249.1283469343836
 20
118.2454519204961
 30
0.0
 10
249.044250453375
 20
117.8191587437829
 30
0.0
 10
248.958638592444
 20
117.3669554593846
 30
0.0
 10
248.8715713094791
 20
116.8880672439305
 30
0.0
 10
248.7830434875993
 20
116.3834892904387
 30
0.0
 10
248.7238268452051
 20
116.0301851408862
 30
0.0
 10
248.6939004580374
 20
115.8516353896675
 30
0.0
  0
SPLINE
  5
18B
330
1F
100
AcDbEntity
  8
0
  6
HIDDEN
 62
     7
370
     0
100
AcDbSpline
210
0.0
220
0.0
230
1.0
 70
     8
 71
     3
 72
    28
 73
    24
 74
     0
 42
0.00000001
 43
0.00000001
 12
1.0
 22
0.0
 32
0.0
 13
1.0
 23
0.0
 33
0.0
 40
0.0
 40
0.0
 40
0.0
 40
0.0
 40
0.0358097066415982
 40
0.071528944014455
 40
0.1071801108999697
 40
0.1427857345450929
 40
0.1783684286965575
 40
0.2139508508183632
 40
0.249555658893833
 40
0.2852054682227337
 40
0.3209228086240279
 40
0.3567300824459221
 40
0.3926495237671526
 40
0.4287031591478143
 40
0.4649127702552695
 40
0.5012998586521695
 40
0.5737717993959228
 40
0.6455354355193382
 40
0.7167667554872122
 40
0.7876457130084744
 40
0.8583549521110134
 40
0.9290784317330094
 40
1.0
 40
1.0
 40
1.0
 40
1.0
 10
249.3281478814703
 20
114.5754193291676
 30
0.0
 10
249.3467781030491
 20
114.6859910747129
 30
0.0
 10
249.3839914790096
 20
114.9068552185008
 30
0.0
 10
249.4403234641168
 20
115.2310342071721
 30
0.0
 10
249.4969235899712
 20
115.5493581709265
 30
0.0
 10
249.5538349309062
 20
115.8613593225353
 30
0.0
 10
249.6110458910975
 20
116.16716216288
 30
0.0
 10
249.6685594858615
 20
116.4667328931838
 30
0.0
 10
249.726374819074
 20
116.7600801088235
 30
0.0
 10
249.7844920404369
 20
117.0472010916842
 30
0.0
 10
249.8429110224019
 20
117.3280962110838
 30
0.0
 10
249.9016317020497
 20
117.602765033506
 30
0.0
 10
249.9606540429127
 20
117.8712074922819
 30
0.0
 10
250.0199778493242
 20
118.1334231149624
 30
0.0
 10
250.0796035564067
 20
118.3894129591437
 30
0.0
 10
250.159225668708
 20
118.7212638232132
 30
0.0
 10
250.2583128464149
 20
119.1158499401591
 30
0.0
 10
250.3761297817104
 20
119.5549537414501
 30
0.0
 10
250.4923989610811
 20
119.9577755584906
 30
0.0
 10
250.6071304225691
 20
120.3245395968859
 30
0.0
 10
250.7202705239675
 20
120.6543299215525
 30
0.0
 10
250.8320097270386
 20
120.9505235891989
 30
0.0
 10
250.904921262694
 20
121.1167628882472
 30
0.0
 10
250.9414280134101
 20
121.1999987794543
 30
0.0
  0
LINE
  5
18C
330
1F
100
AcDbEntity
  8
0
  6
HIDDEN
 62
     7
370
     0
100
AcDbLine
 10
159.9146103358
 20
122.3595517643
 30
0.0
 11
159.9146103358
 21
118.0981428318
 31
0.0
  0
ELLIPSE
  5
18D
330
1F
100
AcDbEntity
  8
0
  6
HIDDEN
 62
     7
370
     0
100
AcDbEllipse
 10
244.8940507487
 20
115.3366370751
 30
0.0
 11
0.0
 21
2.105127985970455
 31
0.0
210
0.0
220
0.0
230
1.0
 40
0.9975640503
 41
1.594849659573521
 42
4.879074605398511
  0
SPLINE
  5
18E
330
1F
100
AcDbEntity
  8
0
  6
HIDDEN
 62
     7
370
     0
100
AcDbSpline
210
0.0
220
0.0
230
1.0
 70
     8
 71
     3
 72
    32
 73
    28
 74
     0
 42
0.00000001
 43
0.00000001
 12
1.0
 22
0.0
 32
0.0
 13
1.0
 23
0.0
 33
0.0
 40
0.0
 40
0.0
 40
0.0
 40
0.0
 40
0.0625000000000018
 40
0.0625000000000018
 40
0.1250000000000036
 40
0.1250000000000036
 40
0.2500000000000053
 40
0.2500000000000053
 40
0.3125000000000048
 40
0.3125000000000048
 40
0.3750000000000044
 40
0.3750000000000044
 40
0.4375000000000039
 40
0.4375000000000039
 40
0.5000000000000034
 40
0.5000000000000034
 40
0.5625000000000029
 40
0.5625000000000029
 40
0.6250000000000023
 40
0.6250000000000023
 40
0.6875000000000019
 40
0.6875000000000019
 40
0.7500000000000013
 40
0.7500000000000013
 40
0.8750000000000007
 40
0.8750000000000007
 40
1.0
 40
1.0
 40
1.0
 40
1.0
 10
242.7946582103956
 20
115.2860066135479
 30
0.0
 10
242.7917575437394
 20
115.413163240028
 30
0.0
 10
242.7992062702014
 20
115.5389464244376
 30
0.0
 10
242.8339947717294
 20
115.787882221059
 30
0.0
 10
242.8616434239111
 20
115.9118569166564
 30
0.0
 10
242.9731801950927
 20
116.271876423008
 30
0.0
 10
243.0838461053233
 20
116.4973228228716
 30
0.0
 10
243.315659441404
 20
116.8133778146104
 30
0.0
 10
243.4035446175546
 20
116.9137758720682
 30
0.0
 10
243.6004910216274
 20
117.0994113177412
 30
0.0
 10
243.7112786075607
 20
117.1861810430262
 30
0.0
 10
243.9558382088766
 20
117.3383408012684
 30
0.0
 10
244.0882293427661
 20
117.4032865191564
 30
0.0
 10
244.3788889178059
 20
117.5049982069221
 30
0.0
 10
244.5300402849363
 20
117.5391840102529
 30
0.0
 10
244.8454348993072
 20
117.5705295775921
 30
0.0
 10
245.0007570012248
 20
117.5667445348895
 30
0.0
 10
245.3059783954578
 20
117.5236985817281
 30
0.0
 10
245.4496237936658
 20
117.4853610556134
 30
0.0
 10
245.7208044468538
 20
117.3818891410927
 30
0.0
 10
245.8445405769721
 20
117.3182338673506
 30
0.0
 10
246.0725940319372
 20
117.1729317244588
 30
0.0
 10
246.1779798135567
 20
117.090224593224
 30
0.0
 10
246.4625520641721
 20
116.8236517822312
 30
0.0
 10
246.6126942191111
 20
116.6219589991799
 30
0.0
 10
246.8461378918408
 20
116.1748333506327
 30
0.0
 10
246.9248293445019
 20
115.9376164019409
 30
0.0
 10
246.9649449298911
 20
115.6859090234175
 30
0.0
  0
LWPOLYLINE
  5
18F
330
1F
100
AcDbEntity
  8
0
  6
HIDDEN
 62
     7
370
     0
100
AcDbPolyline
 90
       27
 70
   128
 43
0.0
 10
209.8794536536
 20
102.0887985781
 10
210.4777427262
 20
102.1589686118
 10
211.041259939
 20
102.3654009171
 10
211.5372599905
 20
102.6960984294
 10
211.9369091337
 20
103.1318419103
 10
212.2169913595
 20
103.6473080006
 10
212.3612196987
 20
104.2125393126
 10
212.3612196987
 20
104.7946867023
 10
212.2169913595
 20
105.3599180726
 10
211.9369091337
 20
105.8753840464
 10
211.5372599905
 20
106.3111276656
 10
211.041259939
 20
106.6418251269
 10
210.4777427262
 20
106.8482574613
 10
209.8794536536
 20
106.9184275532
 10
209.2811571305
 20
106.8482574613
 10
208.7176399177
 20
106.6418251269
 10
208.2216398662
 20
106.3111276656
 10
207.821990723
 20
105.8753840464
 10
207.5419084972
 20
105.3599180726
 10
207.397680158
 20
104.7946867023
 10
207.397680158
 20
104.2125393126
 10
207.5419084972
 20
103.6473080006
 10
207.821990723
 20
103.1318419103
 10
208.2216398662
 20
102.6960984294
 10
208.7176399177
 20
102.3654009171
 10
209.2811571305
 20
102.1589686118
 10
209.8794536536
 20
102.0887985781
  0
SPLINE
  5
190
330
1F
100
AcDbEntity
  8
0
  6
HIDDEN
 62
     7
370
     0
100
AcDbSpline
210
0.0
220
0.0
230
1.0
 70
     8
 71
     3
 72
    24
 73
    20
 74
     0
 42
0.00000001
 43
0.00000001
 12
1.0
 22
0.0
 32
0.0
 13
1.0
 23
0.0
 33
0.0
 40
0.0
 40
0.0
 40
0.0
 40
0.0
 40
0.2500000000000115
 40
0.2500000000000115
 40
0.375000000000018
 40
0.375000000000018
 40
0.4375000000000214
 40
0.4375000000000214
 40
0.5000000000000248
 40
0.5000000000000248
 40
0.5312500000000244
 40
0.5312500000000244
 40
0.5625000000000241
 40
0.5625000000000241
 40
0.6250000000000212
 40
0.6250000000000212
 40
0.7500000000000143
 40
0.7500000000000143
 40
1.0
 40
1.0
 40
1.0
 40
1.0
 10
121.9794499581538
 20
94.70062927145403
 30
0.0
 10
121.9794499581538
 20
94.78553822512359
 30
0.0
 10
121.9821745865862
 20
94.86786792117046
 30
0.0
 10
122.0085319077042
 20
94.97028030858944
 30
0.0
 10
122.0207456259763
 20
95.00109740497382
 30
0.0
 10
122.0553562761087
 20
95.03019492105079
 30
0.0
 10
122.0697429864761
 20
95.03715256168941
 30
0.0
 10
122.1109914695784
 20
95.03604282041262
 30
0.0
 10
122.1395310195092
 20
95.0277494148039
 30
0.0
 10
122.2004536850204
 20
94.98316598094279
 30
0.0
 10
122.2235196551603
 20
94.96270426768557
 30
0.0
 10
122.2674155351665
 20
94.91809164940524
 30
0.0
 10
122.2882955707267
 20
94.8942155711989
 30
0.0
 10
122.3455058340199
 20
94.82431847403687
 30
0.0
 10
122.3778524577962
 20
94.77874088525238
 30
0.0
 10
122.4640184012882
 20
94.64985739763344
 30
0.0
 10
122.5096824213282
 20
94.57002422050135
 30
0.0
 10
122.6302299847795
 20
94.34424341138894
 30
0.0
 10
122.6892900734807
 20
94.20941202641757
 30
0.0
 10
122.7394200045417
 20
94.08115688775
 30
0.0
  0
SPLINE
  5
191
330
1F
100
AcDbEntity
  8
0
  6
HIDDEN
 62
     7
370
     0
100
AcDbSpline
210
0.0
220
0.0
230
1.0
 70
     8
 71
     3
 72
     9
 73
     5
 74
     0
 42
0.00000001
 43
0.00000001
 12
1.0
 22
0.0
 32
0.0
 13
1.0
 23
0.0
 33
0.0
 40
0.0
 40
0.0
 40
0.0
 40
0.0
 40
0.5092918105238716
 40
1.0
 40
1.0
 40
1.0
 40
1.0
 10
248.6955810027112
 20
115.854297182644
 30
0.0
 10
248.8073503996459
 20
115.6389650557042
 30
0.0
 10
249.0268108241514
 20
115.2161580863199
 30
0.0
 10
249.2295345429405
 20
114.785078573929
 30
0.0
 10
249.3290127319513
 20
114.5735443268835
 30
0.0
  0
ELLIPSE
  5
192
330
1F
100
AcDbEntity
  8
0
  6
HIDDEN
 62
     7
370
     0
100
AcDbEllipse
 10
2382.0140734625
 20
292.6954751955
 30
0.0
 11
2621.752605686764
 21
228.8148889289164
 31
4.085620730620577E-14
210
-5.812906177680078E-18
220
-1.119516544931579E-16
230
1.0
 40
0.0060796773
 41
2.524636314450565
 42
2.532746013732569
  0
ELLIPSE
  5
193
330
1F
100
AcDbEntity
  8
0
  6
HIDDEN
 62
     7
370
     0
100
AcDbEllipse
 10
2382.0140734625
 20
292.6954751955
 30
0.0
 11
2621.752605686764
 21
228.8148889289164
 31
4.085620730620577E-14
210
-5.812906177680078E-18
220
-1.119516544931579E-16
230
1.0
 40
0.0060796773
 41
2.520754859386729
 42
2.521890228860152
  0
LINE
  5
194
330
1F
100
AcDbEntity
  8
0
  6
HIDDEN
 62
     7
370
     0
100
AcDbLine
 10
249.3281470483
 20
114.5754189186
 30
0.0
 11
248.8611372059
 21
109.7042987079
 31
0.0
  0
LINE
  5
195
330
1F
100
AcDbEntity
  8
0
  6
HIDDEN
 62
     7
370
     0
100
AcDbLine
 10
248.8611372059
 20
109.7042987079
 30
0.0
 11
245.371538574
 21
106.2481424727
 31
0.0
  0
CIRCLE
  5
196
330
1F
100
AcDbEntity
  8
0
  6
HIDDEN
 62
     7
370
     0
100
AcDbCircle
 10
148.8794499582
 20
106.2481424727
 30
0.0
 40
5.000000000000014
  0
LINE
  5
197
330
1F
100
AcDbEntity
  8
0
  6
HIDDEN
 62
     7
370
     0
100
AcDbLine
 10
207.3794485872
 20
104.5036130075
 30
0.0
 11
207.3794485872
 21
104.0506796401
 31
0.0
  0
LINE
  5
198
330
1F
100
AcDbEntity
  8
0
  6
HIDDEN
 62
     7
370
     0
100
AcDbLine
 10
212.3794512695
 20
104.0506796401
 30
0.0
 11
212.3794512695
 21
104.5036130075
 31
0.0
  0
LINE
  5
199
330
1F
100
AcDbEntity
  8
0
  6
HIDDEN
 62
     7
370
     0
100
AcDbLine
 10
207.8794496005
 20
104.2306365401
 30
0.0
 11
207.8794496005
 21
103.1577538654
 31
0.0
  0
LINE
  5
19A
330
1F
100
AcDbEntity
  8
0
  6
HIDDEN
 62
     7
370
     0
100
AcDbLine
 10
211.8794502562
 20
103.1577538654
 30
0.0
 11
211.8794502562
 21
104.2306365401
 31
0.0
  0
LINE
  5
19B
330
1F
100
AcDbEntity
  8
0
  6
HIDDEN
 62
     7
370
     0
100
AcDbLine
 10
207.3794485872
 20
103.3363391601
 30
0.0
 11
207.3794485872
 21
103.1939886
 31
0.0
  0
LINE
  5
19C
330
1F
100
AcDbEntity
  8
0
  6
HIDDEN
 62
     7
370
     0
100
AcDbLine
 10
212.3794512695
 20
103.1939886
 30
0.0
 11
212.3794512695
 21
103.3363391601
 31
0.0
  0
CIRCLE
  5
19D
330
1F
100
AcDbEntity
  8
0
  6
HIDDEN
 62
     7
370
     0
100
AcDbCircle
 10
209.8794499582
 20
103.7789196846
 30
0.0
 40
1.999999999999986
  0
LINE
  5
19E
330
1F
100
AcDbEntity
  8
0
  6
HIDDEN
 62
     7
370
     0
100
AcDbLine
 10
243.2558270043
 20
115.3103348755
 30
0.0
 11
243.2558270043
 21
115.1920867108
 31
0.0
  0
LINE
  5
19F
330
1F
100
AcDbEntity
  8
0
  6
HIDDEN
 62
     7
370
     0
100
AcDbLine
 10
246.752160961
 20
115.5657836192
 30
0.0
 11
246.752160961
 21
115.6840634488
 31
0.0
  0
LINE
  5
1A0
330
1F
100
AcDbEntity
  8
0
  6
HIDDEN
 62
     7
370
     0
100
AcDbLine
 10
243.0395441001
 20
116.8701521076
 30
0.0
 11
243.0395441001
 21
116.7519346766
 31
0.0
  0
LINE
  5
1A1
330
1F
100
AcDbEntity
  8
0
  6
HIDDEN
 62
     7
370
     0
100
AcDbLine
 10
246.5358780568
 20
117.1256325163
 30
0.0
 11
246.5358780568
 21
117.243880681
 31
0.0
  0
SPLINE
  5
1A2
330
1F
100
AcDbEntity
  8
0
  6
HIDDEN
 62
     7
370
     0
100
AcDbSpline
210
0.0
220
0.0
230
1.0
 70
    11
 71
     3
 72
    35
 73
    31
 74
     0
 42
0.00000001
 43
0.00000001
 12
1.0
 22
0.0
 32
0.0
 13
1.0
 23
0.0
 33
0.0
 40
0.0
 40
0.0
 40
0.0
 40
0.0
 40
0.0153678861579634
 40
0.0531447836806289
 40
0.0909956589076943
 40
0.128832258680984
 40
0.1666406421288329
 40
0.204414162105499
 40
0.2421542618804841
 40
0.279868108222241
 40
0.3175701147336654
 40
0.3552725213947434
 40
0.3929897371203119
 40
0.4307349582056934
 40
0.4685150288674006
 40
0.5063296186307481
 40
0.5441706026025019
 40
0.5820229662494697
 40
0.6198643292436861
 40
0.6576802597442706
 40
0.6954626105774386
 40
0.7332098819888766
 40
0.7709287257581481
 40
0.8086321559508325
 40
0.8463337654928262
 40
0.8840458493674063
 40
0.9217835720430657
 40
0.9595549910764365
 40
0.995421864336085
 40
1.0
 40
1.0
 40
1.0
 40
1.0
 10
247.1520485227787
 20
116.3638087876349
 30
0.0
 10
247.1598471165634
 20
116.2913892113049
 30
0.0
 10
247.1868159901901
 20
116.0409499069828
 30
0.0
 10
247.1492171429995
 20
115.6063408290209
 30
0.0
 10
246.9811466210138
 20
115.0907973905231
 30
0.0
 10
246.6942850686954
 20
114.6286691442025
 30
0.0
 10
246.3066876428813
 20
114.2468053128938
 30
0.0
 10
245.839751801638
 20
113.9665607869138
 30
0.0
 10
245.3199401468579
 20
113.8036489927787
 30
0.0
 10
244.7764551697827
 20
113.7670575772744
 30
0.0
 10
244.2397817039612
 20
113.8586916698475
 30
0.0
 10
243.7399144662307
 20
114.0732827658434
 30
0.0
 10
243.3047264483703
 20
114.3987575652887
 30
0.0
 10
242.9584551364975
 20
114.8169449391766
 30
0.0
 10
242.7204541477233
 20
115.304579250208
 30
0.0
 10
242.6041288305733
 20
115.8344973435144
 30
0.0
 10
242.6161822330843
 20
116.3770815147814
 30
0.0
 10
242.7561153137602
 20
116.901840242796
 30
0.0
 10
243.0161730578397
 20
117.3791773766943
 30
0.0
 10
243.3817240980906
 20
117.7821507116449
 30
0.0
 10
243.832144991112
 20
118.0880636630828
 30
0.0
 10
244.3420117435287
 20
118.2797877096002
 30
0.0
 10
244.8826308739401
 20
118.3466849502566
 30
0.0
 10
245.423666262509
 20
118.2851527022572
 30
0.0
 10
245.9348676182032
 20
118.0987892834282
 30
0.0
 10
246.3876573605145
 20
117.7981021788176
 30
0.0
 10
246.7570225051264
 20
117.3998880219215
 30
0.0
 10
247.017072322
 20
116.9345288356761
 30
0.0
 10
247.1209918132645
 20
116.5748223780119
 30
0.0
 10
247.1488905507904
 20
116.3852655040089
 30
0.0
 10
247.1520485227787
 20
116.3638087876349
 30
0.0
  0
LINE
  5
1A3
330
1F
100
AcDbEntity
  8
0
  6
HIDDEN
 62
     7
370
     0
100
AcDbLine
 10
242.3940481489
 20
116.0007336132
 30
0.0
 11
242.3940481489
 21
115.6310236968
 31
0.0
  0
LINE
  5
1A4
330
1F
100
AcDbEntity
  8
0
  6
HIDDEN
 62
     7
370
     0
100
AcDbLine
 10
247.3940508311
 20
115.6310236968
 30
0.0
 11
247.3940508311
 21
116.0007336132
 31
0.0
  0
LINE
  5
1A5
330
1F
100
AcDbEntity
  8
0
  6
HIDDEN
 62
     7
370
     0
100
AcDbLine
 10
241.0940484946
 20
116.2797597192
 30
0.0
 11
241.0940484946
 21
116.199539318
 31
0.0
  0
LINE
  5
1A6
330
1F
100
AcDbEntity
  8
0
  6
HIDDEN
 62
     7
370
     0
100
AcDbLine
 10
248.6940504854
 20
116.199539318
 30
0.0
 11
248.6940504854
 21
116.2797597192
 31
0.0
  0
LINE
  5
1A7
330
1F
100
AcDbEntity
  8
0
  6
HIDDEN
 62
     7
370
     0
100
AcDbLine
 10
242.1440513676
 20
116.0947301381
 30
0.0
 11
242.1440513676
 21
115.9477180757
 31
0.0
  0
LINE
  5
1A8
330
1F
100
AcDbEntity
  8
0
  6
HIDDEN
 62
     7
370
     0
100
AcDbLine
 10
247.6440476125
 20
115.9477180757
 30
0.0
 11
247.6440476125
 21
116.0947301381
 31
0.0
  0
LINE
  5
1A9
330
1F
100
AcDbEntity
  8
0
  6
HIDDEN
 62
     7
370
     0
100
AcDbLine
 10
141.8794499582
 20
90.0409485169
 30
0.0
 11
141.9736107959
 21
90.7109382518
 31
0.0
  0
LINE
  5
1AA
330
1F
100
AcDbEntity
  8
0
  6
HIDDEN
 62
     7
370
     0
100
AcDbLine
 10
141.9736107959
 20
121.7853466936
 30
0.0
 11
141.8794499582
 21
122.4553364285
 31
0.0
  0
ARC
  5
1AB
330
1F
100
AcDbEntity
  8
0
  6
HIDDEN
 62
     7
370
     0
100
AcDbCircle
 10
141.3794499582
 20
90.7944420719
 30
0.0
 40
0.6000000000000053
100
AcDbArc
 50
352.0
 51
0.0
  0
ARC
  5
1AC
330
1F
100
AcDbEntity
  8
0
  6
HIDDEN
 62
     7
370
     0
100
AcDbCircle
 10
141.3794499582
 20
90.7944420719
 30
0.0
 40
0.6000000000000019
100
AcDbArc
 50
0.0
 51
33.5573097619
  0
ARC
  5
1AD
330
1F
100
AcDbEntity
  8
0
  6
HIDDEN
 62
     7
370
     0
100
AcDbCircle
 10
141.3794499582
 20
121.7018428735
 30
0.0
 40
0.6000000000000053
100
AcDbArc
 50
348.75
 51
8.0
  0
LWPOLYLINE
  5
1AE
330
1F
100
AcDbEntity
  8
0
  6
HIDDEN
 62
     7
370
     0
100
AcDbPolyline
 90
        3
 70
   128
 43
0.0
 10
141.967921128
 20
121.5847882398
 10
141.9337776783
 20
121.47223325
 10
141.8794499582
 20
121.3701807849
  0
LINE
  5
1AF
330
1F
100
AcDbEntity
  8
0
  6
HIDDEN
 62
     7
370
     0
100
AcDbLine
 10
141.9794499556
 20
90.7944424965
 30
0.0
 11
141.9794499556
 21
121.7018424489
 31
0.0
  0
LINE
  5
1B0
330
1F
100
AcDbEntity
  8
0
  6
HIDDEN
 62
     7
370
     0
100
AcDbLine
 10
131.4120780548
 20
93.4981427111
 30
0.0
 11
133.6102247109
 21
93.4981427111
 31
0.0
  0
LINE
  5
1B1
330
1F
100
AcDbEntity
  8
0
  6
HIDDEN
 62
     7
370
     0
100
AcDbLine
 10
133.6102247109
 20
118.9981422343
 30
0.0
 11
131.4120780548
 21
118.9981422343
 31
0.0
  0
ARC
  5
1B2
330
1F
100
AcDbEntity
  8
0
  6
HIDDEN
 62
     7
370
     0
100
AcDbCircle
 10
131.4120779023
 20
93.8981424727
 30
0.0
 40
0.4000000000000341
100
AcDbArc
 50
210.0
 51
270.0
  0
ARC
  5
1B3
330
1F
100
AcDbEntity
  8
0
  6
HIDDEN
 62
     7
370
     0
100
AcDbCircle
 10
131.4120779023
 20
118.5981424727
 30
0.0
 40
0.4000000000000199
100
AcDbArc
 50
90.0
 51
150.0
  0
ARC
  5
1B4
330
1F
100
AcDbEntity
  8
0
  6
HIDDEN
 62
     7
370
     0
100
AcDbCircle
 10
137.703626686
 20
98.4981424727
 30
0.0
 40
5.000000000000018
100
AcDbArc
 50
275.411414234
 51
326.6329870308
  0
ARC
  5
1B5
330
1F
100
AcDbEntity
  8
0
  6
HIDDEN
 62
     7
370
     0
100
AcDbCircle
 10
137.703626686
 20
113.9981424727
 30
0.0
 40
5.000000000000018
100
AcDbArc
 50
33.3670129692
 51
84.588765182
  0
LINE
  5
1B6
330
1F
100
AcDbEntity
  8
0
  6
HIDDEN
 62
     7
370
     0
100
AcDbLine
 10
131.0656679666
 20
118.798142574
 30
0.0
 11
129.8820994666
 21
116.7481423311
 31
0.0
  0
LINE
  5
1B7
330
1F
100
AcDbEntity
  8
0
  6
HIDDEN
 62
     7
370
     0
100
AcDbLine
 10
129.8820994666
 20
95.7481426142
 30
0.0
 11
131.0656679666
 21
93.6981423713
 31
0.0
  0
ARC
  5
1B8
330
1F
100
AcDbEntity
  8
0
  6
HIDDEN
 62
     7
370
     0
100
AcDbCircle
 10
148.8294499582
 20
96.3731424727
 30
0.0
 40
1.000000000000028
100
AcDbArc
 50
218.6821874535
 51
360.0
  0
ARC
  5
1B9
330
1F
100
AcDbEntity
  8
0
  6
HIDDEN
 62
     7
370
     0
100
AcDbCircle
 10
148.8294499582
 20
116.1231424727
 30
0.0
 40
1.000000000000028
100
AcDbArc
 50
0.0
 51
141.3178125465
  0
LINE
  5
1BA
330
1F
100
AcDbEntity
  8
0
  6
HIDDEN
 62
     7
370
     0
100
AcDbLine
 10
207.5667934364
 20
109.7416868855
 30
0.0
 11
207.1753995364
 21
107.452848037
 31
0.0
  0
LINE
  5
1BB
330
1F
100
AcDbEntity
  8
0
  6
HIDDEN
 62
     7
370
     0
100
AcDbLine
 10
207.1753995364
 20
107.452848037
 30
0.0
 11
208.9442493265
 21
105.9484699638
 31
0.0
  0
LINE
  5
1BC
330
1F
100
AcDbEntity
  8
0
  6
HIDDEN
 62
     7
370
     0
100
AcDbLine
 10
208.5161836689
 20
110.1739083372
 30
0.0
 11
207.6285438483
 21
109.8515741017
 31
0.0
  0
LINE
  5
1BD
330
1F
100
AcDbEntity
  8
0
  6
HIDDEN
 62
     7
370
     0
100
AcDbLine
 10
217.1337114518
 20
113.3032471828
 30
0.0
 11
209.7648190206
 21
110.6273334429
 31
0.0
  0
LINE
  5
1BE
330
1F
100
AcDbEntity
  8
0
  6
HIDDEN
 62
     7
370
     0
100
AcDbLine
 10
210.8995200937
 20
106.5710354727
 30
0.0
 11
217.1500207728
 21
108.8408206545
 31
0.0
  0
LINE
  5
1BF
330
1F
100
AcDbEntity
  8
0
  6
HIDDEN
 62
     7
370
     0
100
AcDbLine
 10
209.0621175116
 20
105.9038082442
 30
0.0
 11
210.8995200937
 21
106.5710354727
 31
0.0
  0
LINE
  5
1C0
330
1F
100
AcDbEntity
  8
0
  6
HIDDEN
 62
     7
370
     0
100
AcDbLine
 10
128.0794501176
 20
95.7481426142
 30
0.0
 11
129.8820994666
 21
95.7481426142
 31
0.0
  0
LINE
  5
1C1
330
1F
100
AcDbEntity
  8
0
  6
HIDDEN
 62
     7
370
     0
100
AcDbLine
 10
129.8820994666
 20
116.7481423311
 30
0.0
 11
125.5794497078
 21
116.7481423311
 31
0.0
  0
LINE
  5
1C2
330
1F
100
AcDbEntity
  8
0
  6
HIDDEN
 62
     7
370
     0
100
AcDbLine
 10
141.8794499582
 20
95.7481426142
 30
0.0
 11
148.0488249903
 21
95.7481426142
 31
0.0
  0
LINE
  5
1C3
330
1F
100
AcDbEntity
  8
0
  6
HIDDEN
 62
     7
370
     0
100
AcDbLine
 10
148.0488249903
 20
116.7481423311
 30
0.0
 11
141.8794499582
 21
116.7481423311
 31
0.0
  0
LINE
  5
1C4
330
1F
100
AcDbEntity
  8
0
  6
HIDDEN
 62
     7
370
     0
100
AcDbLine
 10
207.7794479078
 20
108.0917200728
 30
0.0
 11
207.7794479078
 21
106.8937274234
 31
0.0
  0
LINE
  5
1C5
330
1F
100
AcDbEntity
  8
0
  6
HIDDEN
 62
     7
370
     0
100
AcDbLine
 10
211.9794519489
 20
106.8951900655
 30
0.0
 11
211.9794519489
 21
107.9349995546
 31
0.0
  0
LINE
  5
1C6
330
1F
100
AcDbEntity
  8
0
  6
HIDDEN
 62
     7
370
     0
100
AcDbLine
 10
155.1794497168
 20
99.9981423795
 30
0.0
 11
157.6794491952
 21
99.9981423795
 31
0.0
  0
LINE
  5
1C7
330
1F
100
AcDbEntity
  8
0
  6
HIDDEN
 62
     7
370
     0
100
AcDbLine
 10
157.6794491952
 20
112.4981425658
 30
0.0
 11
155.1794497168
 21
112.4981425658
 31
0.0
  0
LINE
  5
1C8
330
1F
100
AcDbEntity
  8
0
  6
HIDDEN
 62
     7
370
     0
100
AcDbLine
 10
149.8294504231
 20
100.2481424205
 30
0.0
 11
150.3294495737
 21
100.7481425025
 31
0.0
  0
LINE
  5
1C9
330
1F
100
AcDbEntity
  8
0
  6
HIDDEN
 62
     7
370
     0
100
AcDbLine
 10
150.3294495737
 20
111.7481424429
 30
0.0
 11
149.8294504231
 21
112.2481425248
 31
0.0
  0
LINE
  5
1CA
330
1F
100
AcDbEntity
  8
0
  6
HIDDEN
 62
     7
370
     0
100
AcDbLine
 10
150.3294495737
 20
100.7481425025
 30
0.0
 11
155.1794497168
 21
100.7481425025
 31
0.0
  0
LINE
  5
1CB
330
1F
100
AcDbEntity
  8
0
  6
HIDDEN
 62
     7
370
     0
100
AcDbLine
 10
155.1794497168
 20
111.7481424429
 30
0.0
 11
150.3294495737
 21
111.7481424429
 31
0.0
  0
LINE
  5
1CC
330
1F
100
AcDbEntity
  8
0
  6
HIDDEN
 62
     7
370
     0
100
AcDbLine
 10
149.8294504231
 20
126.2481420256
 30
0.0
 11
149.8294504231
 21
123.1481417038
 31
0.0
  0
LINE
  5
1CD
330
1F
100
AcDbEntity
  8
0
  6
HIDDEN
 62
     7
370
     0
100
AcDbLine
 10
138.6466293001
 20
91.2068377204
 30
0.0
 11
138.178700708
 21
91.7026747905
 31
0.0
  0
LINE
  5
1CE
330
1F
100
AcDbEntity
  8
0
  6
HIDDEN
 62
     7
370
     0
100
AcDbLine
 10
133.5807958489
 20
91.9825279109
 30
0.0
 11
133.0633222928
 21
91.4867029481
 31
0.0
  0
LINE
  5
1CF
330
1F
100
AcDbEntity
  8
0
  6
HIDDEN
 62
     7
370
     0
100
AcDbLine
 10
133.0626880621
 20
121.0096322887
 30
0.0
 11
133.5803739598
 21
120.5137449272
 31
0.0
  0
LINE
  5
1D0
330
1F
100
AcDbEntity
  8
0
  6
HIDDEN
 62
     7
370
     0
100
AcDbLine
 10
138.1780147889
 20
120.7933922254
 30
0.0
 11
138.645918701
 21
121.2892861061
 31
0.0
  0
LINE
  5
1D1
330
1F
100
AcDbEntity
  8
0
  6
HIDDEN
 62
     7
370
     0
100
AcDbLine
 10
157.6794491952
 20
103.7481425286
 30
0.0
 11
211.9794519489
 21
103.7481425286
 31
0.0
  0
LINE
  5
1D2
330
1F
100
AcDbEntity
  8
0
  6
HIDDEN
 62
     7
370
     0
100
AcDbLine
 10
211.9794519489
 20
108.7481424168
 30
0.0
 11
157.6794491952
 21
108.7481424168
 31
0.0
  0
LINE
  5
1D3
330
1F
100
AcDbEntity
  8
0
  6
HIDDEN
 62
     7
370
     0
100
AcDbLine
 10
211.9794519489
 20
103.7481425286
 30
0.0
 11
213.481600756
 21
106.2481424727
 31
0.0
  0
LINE
  5
1D4
330
1F
100
AcDbEntity
  8
0
  6
HIDDEN
 62
     7
370
     0
100
AcDbLine
 10
213.481600756
 20
106.2481424727
 30
0.0
 11
211.9794519489
 21
108.7481424168
 31
0.0
  0
LINE
  5
1D5
330
1F
100
AcDbEntity
  8
0
  6
HIDDEN
 62
     7
370
     0
100
AcDbLine
 10
138.179449957
 20
118.9749970056
 30
0.0
 11
138.179449957
 21
120.7816631489
 31
0.0
  0
LINE
  5
1D6
330
1F
100
AcDbEntity
  8
0
  6
HIDDEN
 62
     7
370
     0
100
AcDbLine
 10
133.5794500878
 20
120.5126394473
 30
0.0
 11
133.5794500878
 21
118.9926399805
 31
0.0
  0
LINE
  5
1D7
330
1F
100
AcDbEntity
  8
0
  6
HIDDEN
 62
     7
370
     0
100
AcDbLine
 10
138.179449957
 20
91.7147298299
 30
0.0
 11
138.179449957
 21
93.5212879397
 31
0.0
  0
LINE
  5
1D8
330
1F
100
AcDbEntity
  8
0
  6
HIDDEN
 62
     7
370
     0
100
AcDbLine
 10
133.5794500878
 20
93.5036449649
 30
0.0
 11
133.5794500878
 21
91.9895342507
 31
0.0
  0
LINE
  5
1D9
330
1F
100
AcDbEntity
  8
0
  6
HIDDEN
 62
     7
370
     0
100
AcDbLine
 10
237.0737226551
 20
110.5524397411
 30
0.0
 11
237.0737226551
 21
110.2176087864
 31
0.0
  0
LINE
  5
1DA
330
1F
100
AcDbEntity
  8
0
  6
HIDDEN
 62
     7
370
     0
100
AcDbLine
 10
241.2737266963
 20
110.2176087864
 30
0.0
 11
241.2737266963
 21
110.2413258471
 31
0.0
  0
LINE
  5
1DB
330
1F
100
AcDbEntity
  8
0
  6
HIDDEN
 62
     7
370
     0
100
AcDbLine
 10
207.7794479078
 20
105.602557522
 30
0.0
 11
207.7794479078
 21
104.5658187198
 31
0.0
  0
LINE
  5
1DC
330
1F
100
AcDbEntity
  8
0
  6
HIDDEN
 62
     7
370
     0
100
AcDbLine
 10
242.7940474694
 20
115.8849376209
 30
0.0
 11
242.7940474694
 21
115.3393334665
 31
0.0
  0
LINE
  5
1DD
330
1F
100
AcDbEntity
  8
0
  6
HIDDEN
 62
     7
370
     0
100
AcDbLine
 10
246.9940515106
 20
115.3366372876
 30
0.0
 11
246.9940515106
 21
115.8849376209
 31
0.0
  0
LINE
  5
1DE
330
1F
100
AcDbEntity
  8
0
  6
HIDDEN
 62
     7
370
     0
100
AcDbLine
 10
207.3794485872
 20
104.5036130075
 30
0.0
 11
207.3794485872
 21
103.0144633681
 31
0.0
  0
LINE
  5
1DF
330
1F
100
AcDbEntity
  8
0
  6
HIDDEN
 62
     7
370
     0
100
AcDbLine
 10
212.3794512695
 20
103.0133036386
 30
0.0
 11
212.3794512695
 21
104.5036130075
 31
0.0
  0
LINE
  5
1E0
330
1F
100
AcDbEntity
  8
VERMASSUNG
100
AcDbLine
 10
251.8794499582
 20
123.2481424727
 30
0.0
 11
251.8794499582
 21
107.3507537736
 31
0.0
  0
DIMENSION
  5
1E1
330
1F
100
AcDbEntity
  8
VERMASSUNG
100
AcDbDimension
  2
_D
 10
251.8794499582
 20
123.2481424727
 30
0.0
 11
257.232179074
 21
101.8381565055
 31
0.0
 70
   162
  1
<>
 71
     1
 42
-1.0
  3
SLDDIMSTYLE0
100
AcDb2LineAngularDimension
 13
248.8611375755
 23
109.7042987989
 33
0.0
 14
249.3281478805
 24
114.5754193293
 34
0.0
 15
251.8794499582
 25
107.3507537736
 35
0.0
 16
249.9823675428
 26
101.5210886979
 36
0.0
  0
DIMENSION
  5
1EE
330
1F
100
AcDbEntity
  8
VERMASSUNG
100
AcDbDimension
  2
_D_1
 10
116.6771148341
 20
86.2481424727
 30
0.0
 11
116.6771148341
 21
106.2481424727
 31
0.0
 70
   160
  1
HSK %%c<>
 71
     2
 42
-1.0
  3
SLDDIMSTYLE1
100
AcDbAlignedDimension
 13
142.1794499582
 23
126.2481424727
 33
0.0
 14
142.1794499582
 24
86.2481424727
 34
0.0
 50
90.0
100
AcDbRotatedDimension
  0
DIMENSION
  5
1FB
330
1F
100
AcDbEntity
  8
VERMASSUNG
100
AcDbDimension
  2
_D_2
 10
251.8794499582
 20
131.2746311329
 30
0.0
 11
196.8794499582
 21
131.2746311329
 31
0.0
 70
   160
  1
<>
 71
     2
 42
-1.0
  3
SLDDIMSTYLE1
100
AcDbAlignedDimension
 13
141.8794499582
 23
125.9481424727
 33
0.0
 14
251.8794499582
 24
123.2481424727
 34
0.0
100
AcDbRotatedDimension
  0
DIMENSION
  5
205
330
1F
100
AcDbEntity
  8
VERMASSUNG
100
AcDbDimension
  2
_D_3
 10
251.8794499582
 20
137.2746311329
 30
0.0
 11
186.9294499582
 21
137.2746311329
 31
0.0
 70
   160
  1
<>
 71
     2
 42
-1.0
  3
SLDDIMSTYLE1
100
AcDbAlignedDimension
 13
121.9794499582
 23
118.1781424727
 33
0.0
 14
251.8794499582
 24
123.2481424727
 34
0.0
 50
0.0
100
AcDbRotatedDimension
  0
DIMENSION
  5
20F
330
1F
100
AcDbEntity
  8
VERMASSUNG
100
AcDbDimension
  2
_D_4
 10
259.4901817559
 20
106.2481424727
 30
0.0
 11
259.4901817559
 21
114.7481424727
 31
0.0
 70
   160
  1
<>
 71
     2
 42
-1.0
  3
SLDDIMSTYLE1
100
AcDbAlignedDimension
 13
251.8794499582
 23
123.2481424727
 33
0.0
 14
251.327568743
 24
106.2481424727
 34
0.0
 50
90.0
100
AcDbRotatedDimension
  0
LINE
  5
219
330
1F
100
AcDbEntity
  8
VERMASSUNG
  6
CENTERX2
370
     0
100
AcDbLine
 10
119.433018641
 20
106.2481424727
 30
0.0
 11
251.327568743
 21
106.2481424727
 31
0.0
  0
LINE
  5
21A
330
1F
100
AcDbEntity
  8
0
  6
Continuous
 62
     7
370
    15
100
AcDbLine
 10
67.3659894264
 20
122.5819404192
 30
0.0
 11
64.1440890831
 21
123.2082157351
 31
0.0
  0
LINE
  5
21B
330
1F
100
AcDbEntity
  8
0
  6
Continuous
 62
     7
370
    15
100
AcDbLine
 10
63.1751194478
 20
109.3513039362
 30
0.0
 11
63.4769581838
 21
109.3671224501
 31
0.0
  0
LWPOLYLINE
  5
21C
330
1F
100
AcDbEntity
  8
0
  6
Continuous
 62
     7
370
    15
100
AcDbPolyline
 90
        9
 70
   128
 43
0.0
 10
64.1137546217
 20
122.7744112678
 10
64.1198285129
 20
122.8612719991
 10
64.125729742
 20
122.9456647255
 10
64.1311785448
 20
123.02358476
 10
64.1359166038
 20
123.0913422026
 10
64.139719299
 20
123.1457239904
 10
64.142406351
 20
123.1841503598
 10
64.1438503726
 20
123.2048015066
 10
64.1440890831
 20
123.2082157351
  0
LINE
  5
21D
330
1F
100
AcDbEntity
  8
0
  6
Continuous
 62
     7
370
    15
100
AcDbLine
 10
68.8504368181
 20
122.2747306295
 30
0.0
 11
67.3659894264
 21
122.5819404192
 31
0.0
  0
LINE
  5
21E
330
1F
100
AcDbEntity
  8
0
  6
Continuous
 62
     7
370
    15
100
AcDbLine
 10
68.0367682244
 20
110.6387244493
 30
0.0
 11
68.8504368181
 21
122.2747306295
 31
0.0
  0
LINE
  5
21F
330
1F
100
AcDbEntity
  8
0
  6
Continuous
 62
     7
370
    15
100
AcDbLine
 10
68.0367682244
 20
110.6387244493
 30
0.0
 11
66.5262892025
 21
110.5736687735
 31
0.0
  0
LINE
  5
220
330
1F
100
AcDbEntity
  8
0
  6
Continuous
 62
     7
370
    15
100
AcDbLine
 10
63.274054427
 20
110.7661396221
 30
0.0
 11
64.1137546217
 21
122.7744112678
 31
0.0
  0
LWPOLYLINE
  5
221
330
1F
100
AcDbEntity
  8
0
  6
Continuous
 62
     7
370
    15
100
AcDbPolyline
 90
        9
 70
   128
 43
0.0
 10
63.2486899149
 20
110.4034099683
 10
63.249534508
 20
110.4154878251
 10
63.2511979666
 20
110.4392770633
 10
63.2536298244
 20
110.4740545109
 10
63.2567562161
 20
110.5187635824
 10
63.2604820303
 20
110.5720454782
 10
63.2646941694
 20
110.6322815597
 10
63.2692645768
 20
110.697641778
 10
63.274054427
 20
110.7661396221
  0
LINE
  5
222
330
1F
100
AcDbEntity
  8
0
  6
Continuous
 62
     7
370
    15
100
AcDbLine
 10
63.1752256768
 20
109.3528222248
 30
0.0
 11
63.2486899149
 21
110.4034099683
 31
0.0
  0
LINE
  5
223
330
1F
100
AcDbEntity
  8
0
  6
Continuous
 62
     7
370
    15
100
AcDbLine
 10
63.1751194478
 20
109.3513039362
 30
0.0
 11
63.1752256768
 21
109.3528222248
 31
0.0
  0
LINE
  5
224
330
1F
100
AcDbEntity
  8
0
  6
Continuous
 62
     7
370
    15
100
AcDbLine
 10
77.1468813646
 20
109.7042987079
 30
0.0
 11
63.5145003207
 21
109.9039996464
 31
0.0
  0
LINE
  5
225
330
1F
100
AcDbEntity
  8
0
  6
Continuous
 62
     7
370
    15
100
AcDbLine
 10
63.5511368045
 20
110.4279261038
 30
0.0
 11
63.5145003207
 21
109.9039996464
 31
0.0
  0
LINE
  5
226
330
1F
100
AcDbEntity
  8
0
  6
Continuous
 62
     7
370
    15
100
AcDbLine
 10
63.5511368045
 20
110.4279261038
 30
0.0
 11
65.6425146035
 21
110.5180012949
 31
0.0
  0
LINE
  5
227
330
1F
100
AcDbEntity
  8
0
  6
Continuous
 62
     7
370
    15
100
AcDbLine
 10
65.6425146035
 20
110.5180012949
 30
0.0
 11
68.0149131103
 21
110.3261814408
 31
0.0
  0
LINE
  5
228
330
1F
100
AcDbEntity
  8
0
  6
Continuous
 62
     7
370
    15
100
AcDbLine
 10
68.0367682244
 20
110.6387244493
 30
0.0
 11
68.0149131103
 21
110.3261814408
 31
0.0
  0
SPLINE
  5
229
330
1F
100
AcDbEntity
  8
0
  6
Continuous
 62
     7
370
    15
100
AcDbSpline
210
0.0
220
0.0
230
1.0
 70
     8
 71
     3
 72
    28
 73
    24
 74
     0
 42
0.00000001
 43
0.00000001
 12
1.0
 22
0.0
 32
0.0
 13
1.0
 23
0.0
 33
0.0
 40
0.0
 40
0.0
 40
0.0
 40
0.0
 40
0.0358097066415982
 40
0.071528944014455
 40
0.1071801108999697
 40
0.1427857345450929
 40
0.1783684286965575
 40
0.2139508508183632
 40
0.249555658893833
 40
0.2852054682227337
 40
0.3209228086240279
 40
0.3567300824459221
 40
0.3926495237671526
 40
0.4287031591478143
 40
0.4649127702552695
 40
0.5012998586521695
 40
0.5737717993959228
 40
0.6455354355193382
 40
0.7167667554872122
 40
0.7876457130084744
 40
0.8583549521110134
 40
0.9290784317330094
 40
1.0
 40
1.0
 40
1.0
 40
1.0
 10
77.14688108819556
 20
114.5754193291676
 30
0.0
 10
77.07816636403628
 20
114.6859910747129
 30
0.0
 10
76.94091051587894
 20
114.9068552185008
 30
0.0
 10
76.72480621652521
 20
115.2310342071721
 30
0.0
 10
76.50160326004013
 20
115.5493581709265
 30
0.0
 10
76.27054920911146
 20
115.8613593225353
 30
0.0
 10
76.03184545050712
 20
116.16716216288
 30
0.0
 10
75.78543844813397
 20
116.4667328931838
 30
0.0
 10
75.53134292329922
 20
116.7600801088235
 30
0.0
 10
75.26955536470625
 20
117.0472010916842
 30
0.0
 10
75.00007716692426
 20
117.3280962110838
 30
0.0
 10
74.7229085127224
 20
117.602765033506
 30
0.0
 10
74.43804965948874
 20
117.8712074922819
 30
0.0
 10
74.14550189409476
 20
118.1334231149624
 30
0.0
 10
73.84526236051781
 20
118.3894129591437
 30
0.0
 10
73.43613696721646
 20
118.7212638232132
 30
0.0
 10
72.91190348221942
 20
119.1158499401591
 30
0.0
 10
72.26390750713563
 20
119.5549537414501
 30
0.0
 10
71.599388556484
 20
119.9577755584906
 30
0.0
 10
70.91844468111398
 20
120.3245395968859
 30
0.0
 10
70.22078344314615
 20
120.6543299215525
 30
0.0
 10
69.5075456833445
 20
120.9505235891989
 30
0.0
 10
69.01996831710284
 20
121.1167628882472
 30
0.0
 10
68.77583869887255
 20
121.1999987794543
 30
0.0
  0
LINE
  5
22A
330
1F
100
AcDbEntity
  8
0
  6
Continuous
 62
     7
370
    15
100
AcDbLine
 10
77.1468813646
 20
114.5754189186
 30
0.0
 11
77.1468813646
 21
109.7042987079
 31
0.0
  0
SPLINE
  5
22B
330
1F
100
AcDbEntity
  8
0
  6
Continuous
 62
     7
370
    15
100
AcDbSpline
210
0.0
220
0.0
230
1.0
 70
     8
 71
     3
 72
    27
 73
    23
 74
     0
 42
0.00000001
 43
0.00000001
 12
1.0
 22
0.0
 32
0.0
 13
1.0
 23
0.0
 33
0.0
 40
0.0
 40
0.0
 40
0.0
 40
0.0
 40
0.0373788115837117
 40
0.0760837156605963
 40
0.1161152936375268
 40
0.1574740700906438
 40
0.2001605197841937
 40
0.2441750736368265
 40
0.2895181238188231
 40
0.3361900281275255
 40
0.3841911137599859
 40
0.4335216805796193
 40
0.4841820039560139
 40
0.5361723372430202
 40
0.5894929139489302
 40
0.644143949643469
 40
0.7001256436389355
 40
0.7574381804768203
 40
0.8160817312462294
 40
0.8760564547564413
 40
0.9373624985825035
 40
1.0
 40
1.0
 40
1.0
 40
1.0
 10
68.83080506245784
 20
121.9934180923336
 30
0.0
 10
68.95548095710193
 20
121.9525378878925
 30
0.0
 10
69.20925588776248
 20
121.8693271671909
 30
0.0
 10
69.5922397452475
 20
121.7301331730386
 30
0.0
 10
69.98465674037998
 20
121.5766934904549
 30
0.0
 10
70.38555628052883
 20
121.4072048359462
 30
0.0
 10
70.79430974737802
 20
121.2210171988158
 30
0.0
 10
71.21011262232895
 20
121.0171552854806
 30
0.0
 10
71.63212070418939
 20
120.7947404084115
 30
0.0
 10
72.05940811459386
 20
120.5528781679265
 30
0.0
 10
72.49097560984937
 20
120.2906967074
 30
0.0
 10
72.9257450501383
 20
120.007343225214
 30
0.0
 10
73.36255815623433
 20
119.7019927449571
 30
0.0
 10
73.80017419281796
 20
119.3738537837171
 30
0.0
 10
74.23726945413425
 20
119.022176141938
 30
0.0
 10
74.67243270443541
 20
118.6462557510761
 30
0.0
 10
75.1041780495144
 20
118.2454519204961
 30
0.0
 10
75.53089277144711
 20
117.8191587437829
 30
0.0
 10
75.95103915839545
 20
117.3669554593846
 30
0.0
 10
76.36237802004477
 20
116.8880672439305
 30
0.0
 10
76.76497159066285
 20
116.3834892904387
 30
0.0
 10
77.01867313641175
 20
116.0301851408862
 30
0.0
 10
77.14688659763105
 20
115.8516353896675
 30
0.0
  0
SPLINE
  5
22C
330
1F
100
AcDbEntity
  8
0
  6
Continuous
 62
     7
370
    15
100
AcDbSpline
210
0.0
220
0.0
230
1.0
 70
    24
 71
     3
 72
     9
 73
     5
 74
     0
 42
0.00000001
 43
0.00000001
 12
1.0
 22
0.0
 32
0.0
 13
1.0
 23
0.0
 33
0.0
 40
0.0
 40
0.0
 40
0.0
 40
0.0
 40
0.5092918105238716
 40
1.0
 40
1.0
 40
1.0
 40
1.0
 10
77.14688109633505
 20
115.854297182644
 30
0.0
 10
77.14688109633505
 20
115.6389650557042
 30
0.0
 10
77.14688109633505
 20
115.2161580863199
 30
0.0
 10
77.14688109633505
 20
114.785078573929
 30
0.0
 10
77.14688109633505
 20
114.5735443268835
 30
0.0
  0
LINE
  5
22D
330
1F
100
AcDbEntity
  8
0
  6
Continuous
 62
     7
370
    15
100
AcDbLine
 10
77.1468813646
 20
109.7042987079
 30
0.0
 11
77.1468813646
 21
106.2481424727
 31
0.0
  0
ARC
  5
22E
330
1F
100
AcDbEntity
  8
0
  6
Continuous
 62
     7
370
    15
100
AcDbCircle
 10
64.1468810963
 20
106.2481424727
 30
0.0
 40
13.00000000000006
100
AcDbArc
 50
262.0926611235
 51
0.0
  0
LINE
  5
22F
330
1F
100
AcDbEntity
  8
0
  6
Continuous
 62
     7
370
    15
100
AcDbLine
 10
63.5145003207
 20
109.9039996464
 30
0.0
 11
62.3584526938
 21
93.3717482679
 31
0.0
  0
SPLINE
  5
230
330
1F
100
AcDbEntity
  8
0
  6
Continuous
 62
     7
370
    15
100
AcDbSpline
210
0.0
220
0.0
230
1.0
 70
     8
 71
     3
 72
    14
 73
    10
 74
     0
 42
0.00000001
 43
0.00000001
 12
1.0
 22
0.0
 32
0.0
 13
1.0
 23
0.0
 33
0.0
 40
0.0
 40
0.0
 40
0.0
 40
0.0
 40
0.25
 40
0.25
 40
0.5
 40
0.5
 40
0.75
 40
0.75
 40
1.0
 40
1.0
 40
1.0
 40
1.0
 10
59.08907291754974
 20
110.3690240961233
 30
0.0
 10
59.15392774334669
 20
110.5048891745863
 30
0.0
 10
59.20653811959734
 20
110.6445806774433
 30
0.0
 10
59.28645036868491
 20
110.9319936630581
 30
0.0
 10
59.3138730230284
 20
111.0814458683182
 30
0.0
 10
59.3383737147275
 20
111.3809849315062
 30
0.0
 10
59.33570025449133
 20
111.5297956756102
 30
0.0
 10
59.29840631549465
 20
111.8253903521918
 30
0.0
 10
59.26315922313573
 20
111.9734037594584
 30
0.0
 10
59.21116525956833
 20
112.1150259318318
 30
0.0
  0
SPLINE
  5
231
330
1F
100
AcDbEntity
  8
0
  6
Continuous
 62
     7
370
    15
100
AcDbSpline
210
0.0
220
0.0
230
1.0
 70
     8
 71
     3
 72
    14
 73
    10
 74
     0
 42
0.00000001
 43
0.00000001
 12
1.0
 22
0.0
 32
0.0
 13
1.0
 23
0.0
 33
0.0
 40
0.0
 40
0.0
 40
0.0
 40
0.0
 40
0.0218454117238949
 40
0.1858225343132398
 40
0.3497758202538936
 40
0.5115917528153437
 40
0.6733872186132142
 40
0.8366657168469169
 40
1.0
 40
1.0
 40
1.0
 40
1.0
 10
63.83191516486915
 20
118.7439200423866
 30
0.0
 10
63.82120656656963
 20
118.7437343491827
 30
0.0
 10
63.73011655187406
 20
118.7421547963596
 30
0.0
 10
63.40249637653834
 20
118.7293080566511
 30
0.0
 10
62.85886763409855
 20
118.6867301139785
 30
0.0
 10
62.16970125167643
 20
118.5982029745626
 30
0.0
 10
61.38458120905855
 20
118.4482672548477
 30
0.0
 10
60.52066014127927
 20
118.2255146312743
 30
0.0
 10
59.91728352059933
 20
118.0071211003642
 30
0.0
 10
59.61554368239815
 20
117.8979056842833
 30
0.0
  0
SPLINE
  5
232
330
1F
100
AcDbEntity
  8
0
  6
Continuous
 62
     7
370
    15
100
AcDbSpline
210
0.0
220
0.0
230
1.0
 70
     8
 71
     3
 72
    22
 73
    18
 74
     0
 42
0.00000001
 43
0.00000001
 12
1.0
 22
0.0
 32
0.0
 13
1.0
 23
0.0
 33
0.0
 40
0.0
 40
0.0
 40
0.0
 40
0.0
 40
0.125
 40
0.125
 40
0.25
 40
0.25
 40
0.375
 40
0.375
 40
0.5
 40
0.5
 40
0.625
 40
0.625
 40
0.75
 40
0.75
 40
0.875
 40
0.875
 40
1.0
 40
1.0
 40
1.0
 40
1.0
 10
58.03830860513359
 20
95.34239434979365
 30
0.0
 10
58.32362439344284
 20
95.18258209701344
 30
0.0
 10
58.60612306882368
 20
95.0390351339161
 30
0.0
 10
59.16257831758337
 20
94.78076209784754
 30
0.0
 10
59.43748952242741
 20
94.66569566677263
 30
0.0
 10
59.97098873535646
 20
94.46283950679963
 30
0.0
 10
60.22340534115082
 20
94.37725671786683
 30
0.0
 10
60.69767977113795
 20
94.23087985494527
 30
0.0
 10
60.92075053244144
 20
94.16981831726731
 30
0.0
 10
61.3270470573335
 20
94.06855426900894
 30
0.0
 10
61.50723106903681
 20
94.02897726383996
 30
0.0
 10
61.82177907539279
 20
93.96524170536313
 30
0.0
 10
61.95698143141983
 20
93.94097166799504
 30
0.0
 10
62.17403347534272
 20
93.90431867199203
 30
0.0
 10
62.25548772272094
 20
93.89194133948224
 30
0.0
 10
62.36519555585235
 20
93.87564587851502
 30
0.0
 10
62.39341543792194
 20
93.87173919123828
 30
0.0
 10
62.39341543792194
 20
93.87173919123828
 30
0.0
  0
SPLINE
  5
233
330
1F
100
AcDbEntity
  8
0
  6
Continuous
 62
     7
370
    15
100
AcDbSpline
210
0.0
220
0.0
230
1.0
 70
     8
 71
     3
 72
    14
 73
    10
 74
     0
 42
0.00000001
 43
0.00000001
 12
1.0
 22
0.0
 32
0.0
 13
1.0
 23
0.0
 33
0.0
 40
0.0
 40
0.0
 40
0.0
 40
0.0
 40
0.25
 40
0.25
 40
0.5
 40
0.5
 40
0.75
 40
0.75
 40
1.0
 40
1.0
 40
1.0
 40
1.0
 10
55.33928113565398
 20
110.082913325657
 30
0.0
 10
55.29366554729173
 20
110.1274958324592
 30
0.0
 10
55.25269434815745
 20
110.1693022690912
 30
0.0
 10
55.19670484217599
 20
110.2562391645496
 30
0.0
 10
55.18305253473326
 20
110.3018281598451
 30
0.0
 10
55.20793583211876
 20
110.4066662348103
 30
0.0
 10
55.24785327937769
 20
110.4672955061829
 30
0.0
 10
55.36042380026633
 20
110.5911141954463
 30
0.0
 10
55.43176867986843
 20
110.6545715089818
 30
0.0
 10
55.50904980659825
 20
110.7164986311545
 30
0.0
  0
SPLINE
  5
234
330
1F
100
AcDbEntity
  8
0
  6
Continuous
 62
     7
370
    15
100
AcDbSpline
210
0.0
220
0.0
230
1.0
 70
     8
 71
     3
 72
    15
 73
    11
 74
     0
 42
0.00000001
 43
0.00000001
 12
1.0
 22
0.0
 32
0.0
 13
1.0
 23
0.0
 33
0.0
 40
0.0
 40
0.0
 40
0.0
 40
0.0
 40
0.0866272628289694
 40
0.4608721622655001
 40
0.5539380333070564
 40
0.6152454800813387
 40
0.6673926634594006
 40
0.737048242921239
 40
0.9600462818417609
 40
1.0
 40
1.0
 40
1.0
 40
1.0
 10
57.2981360482889
 20
108.9594494972586
 30
0.0
 10
57.27275882980349
 20
109.0347590618434
 30
0.0
 10
57.13774759692239
 20
109.4354190935243
 30
0.0
 10
56.8454042128686
 20
109.7932594132728
 30
0.0
 10
56.50469634266991
 20
110.0723183895754
 30
0.0
 10
56.33763299769627
 20
110.1602118293127
 30
0.0
 10
56.16658410449165
 20
110.2078481332866
 30
0.0
 10
55.85055707527318
 20
110.2236335897458
 30
0.0
 10
55.58146756531604
 20
110.1623459310479
 30
0.0
 10
55.37122627554891
 20
110.0933905326553
 30
0.0
 10
55.33928155180986
 20
110.082913232243
 30
0.0
  0
ARC
  5
235
330
1F
100
AcDbEntity
  8
0
  6
Continuous
 62
     7
370
    15
100
AcDbCircle
 10
55.4180797237
 20
107.6312915328
 30
0.0
 40
2.223310723207609
100
AcDbArc
 50
34.3553161039
 51
99.0593421693
  0
SPLINE
  5
236
330
1F
100
AcDbEntity
  8
0
  6
Continuous
 62
     7
370
    15
100
AcDbSpline
210
0.0
220
0.0
230
1.0
 70
     8
 71
     3
 72
    16
 73
    12
 74
     0
 42
0.00000001
 43
0.00000001
 12
1.0
 22
0.0
 32
0.0
 13
1.0
 23
0.0
 33
0.0
 40
0.0
 40
0.0
 40
0.0
 40
0.0
 40
0.1079639038008658
 40
0.2116056000999365
 40
0.2554910541322086
 40
0.2916578017463488
 40
0.3365972339150342
 40
0.4678883786133221
 40
0.7684226629743071
 40
0.9463680289063313
 40
1.0
 40
1.0
 40
1.0
 40
1.0
 10
55.50904954996879
 20
110.7164987318426
 30
0.0
 10
55.60905813389366
 20
110.6998561060437
 30
0.0
 10
55.80507157608636
 20
110.6672371223331
 30
0.0
 10
56.05691507224855
 20
110.57538555
 30
0.0
 10
56.27440820953566
 20
110.4992583315289
 30
0.0
 10
56.44152250390606
 20
110.4519334775593
 30
0.0
 10
56.71550621598191
 20
110.3954114227278
 30
0.0
 10
57.22588813796961
 20
110.3046048139876
 30
0.0
 10
57.75498879617879
 20
110.0434516027191
 30
0.0
 10
58.11175463145442
 20
109.6587965986535
 30
0.0
 10
58.16323373506486
 20
109.4145945716255
 30
0.0
 10
58.17515599754627
 20
109.3580387953877
 30
0.0
  0
ELLIPSE
  5
237
330
1F
100
AcDbEntity
  8
0
  6
Continuous
 62
     7
370
    15
100
AcDbEllipse
 10
57.0955942365
 20
111.0720339686
 30
0.0
 11
1.689201569812667
 21
1.709770704533455
 31
0.0
210
0.0
220
0.0
230
1.0
 40
0.8581657892
 41
5.89959360413129
 42
11.37980906577208
  0
ARC
  5
238
330
1F
100
AcDbEntity
  8
0
  6
Continuous
 62
     7
370
    15
100
AcDbCircle
 10
64.1468810963
 20
106.2481424727
 30
0.0
 40
12.50000000000005
100
AcDbArc
 50
111.2542395221
 51
240.7457604779
  0
LWPOLYLINE
  5
239
330
1F
100
AcDbEntity
  8
0
  6
Continuous
 62
     7
370
    15
100
AcDbPolyline
 90
        8
 70
   128
 43
0.0
 10
55.5141057002
 20
110.7353677929
 10
55.5111720341
 20
110.7244196303
 10
55.500506528
 20
110.6846153692
 10
55.4821911382
 20
110.6162600175
 10
55.4564894291
 20
110.5203412429
 10
55.4237739297
 20
110.3982434564
 10
55.3845149579
 20
110.2517291859
 10
55.3392815518
 20
110.0829132322
  0
SPLINE
  5
23A
330
1F
100
AcDbEntity
  8
0
  6
Continuous
 62
     7
370
    15
100
AcDbSpline
210
0.0
220
0.0
230
1.0
 70
    24
 71
     3
 72
    10
 73
     6
 74
     0
 42
0.00000001
 43
0.00000001
 12
1.0
 22
0.0
 32
0.0
 13
1.0
 23
0.0
 33
0.0
 40
0.0
 40
0.0
 40
0.0
 40
0.0
 40
0.5
 40
0.5
 40
1.0
 40
1.0
 40
1.0
 40
1.0
 10
59.64688109633498
 20
125.1190195058184
 30
0.0
 10
59.64688109633498
 20
125.2774539487062
 30
0.0
 10
59.64688109633498
 20
125.4364746435081
 30
0.0
 10
59.64688109633498
 20
125.6664824677638
 30
0.0
 10
59.64688109633498
 20
125.7353177425805
 30
0.0
 10
59.64688109633498
 20
125.7353177425805
 30
0.0
  0
SPLINE
  5
23B
330
1F
100
AcDbEntity
  8
0
  6
Continuous
 62
     7
370
    15
100
AcDbSpline
210
0.0
220
0.0
230
1.0
 70
    24
 71
     3
 72
    12
 73
     8
 74
     0
 42
0.00000001
 43
0.00000001
 12
1.0
 22
0.0
 32
0.0
 13
1.0
 23
0.0
 33
0.0
 40
0.0
 40
0.0
 40
0.0
 40
0.0
 40
0.2499999999999986
 40
0.2499999999999986
 40
0.4999999999999972
 40
0.4999999999999972
 40
1.0
 40
1.0
 40
1.0
 40
1.0
 10
52.29688109633497
 20
122.3595514737528
 30
0.0
 10
52.29688109633497
 20
122.3595514737529
 30
0.0
 10
52.29688109633497
 20
122.3339268411481
 30
0.0
 10
52.29688109633497
 20
122.2453834682163
 30
0.0
 10
52.29688109633497
 20
122.1825009851017
 30
0.0
 10
52.29688109633497
 20
121.9651397971681
 30
0.0
 10
52.29688109633498
 20
121.7864927871568
 30
0.0
 10
52.29688109633497
 20
121.6083996319811
 30
0.0
  0
ARC
  5
23C
330
1F
100
AcDbEntity
  8
0
  6
Continuous
 62
     7
370
    15
100
AcDbCircle
 10
64.1468810963
 20
106.2481424727
 30
0.0
 40
20.00000000000007
100
AcDbArc
 50
103.0028781629
 51
126.3346172154
  0
SPLINE
  5
23D
330
1F
100
AcDbEntity
  8
0
  6
Continuous
 62
     7
370
    15
100
AcDbSpline
210
0.0
220
0.0
230
1.0
 70
    24
 71
     3
 72
    10
 73
     6
 74
     0
 42
0.00000001
 43
0.00000001
 12
1.0
 22
0.0
 32
0.0
 13
1.0
 23
0.0
 33
0.0
 40
0.0
 40
0.0
 40
0.0
 40
0.0
 40
0.5
 40
0.5
 40
1.0
 40
1.0
 40
1.0
 40
1.0
 10
58.64688109633498
 20
87.64411065158879
 30
0.0
 10
58.64688109633498
 20
87.48447848268556
 30
0.0
 10
58.64688109633498
 20
87.32342884892154
 30
0.0
 10
58.64688109633498
 20
87.09043796524497
 30
0.0
 10
58.64688109633498
 20
87.01925794964599
 30
0.0
 10
58.64688109633498
 20
87.01925794964599
 30
0.0
  0
ARC
  5
23E
330
1F
100
AcDbEntity
  8
0
  6
Continuous
 62
     7
370
    15
100
AcDbCircle
 10
64.1468810963
 20
106.2481424727
 30
0.0
 40
20.00000000000008
100
AcDbArc
 50
143.6653827846
 51
254.0379858372
  0
SPLINE
  5
23F
330
1F
100
AcDbEntity
  8
0
  6
Continuous
 62
     7
370
    15
100
AcDbSpline
210
0.0
220
0.0
230
1.0
 70
    24
 71
     3
 72
    12
 73
     8
 74
     0
 42
0.00000001
 43
0.00000001
 12
1.0
 22
0.0
 32
0.0
 13
1.0
 23
0.0
 33
0.0
 40
0.0
 40
0.0
 40
0.0
 40
0.0
 40
0.2499999999999986
 40
0.2499999999999986
 40
0.4999999999999971
 40
0.4999999999999971
 40
1.0
 40
1.0
 40
1.0
 40
1.0
 10
48.03547209525757
 20
118.0981424726754
 30
0.0
 10
48.03547209525756
 20
118.0981424726754
 30
0.0
 10
48.0609569108471
 20
118.0981424726754
 30
0.0
 10
48.14989757365943
 20
118.0981424726754
 30
0.0
 10
48.21293621756192
 20
118.0981424726754
 30
0.0
 10
48.43035412943885
 20
118.0981424726754
 30
0.0
 10
48.60992629705255
 20
118.0981424726754
 30
0.0
 10
48.78662393702923
 20
118.0981424726754
 30
0.0
  0
SPLINE
  5
240
330
1F
100
AcDbEntity
  8
0
  6
Continuous
 62
     7
370
    15
100
AcDbSpline
210
0.0
220
0.0
230
1.0
 70
    24
 71
     3
 72
    10
 73
     6
 74
     0
 42
0.00000001
 43
0.00000001
 12
1.0
 22
0.0
 32
0.0
 13
1.0
 23
0.0
 33
0.0
 40
0.0
 40
0.0
 40
0.0
 40
0.0
 40
0.5
 40
0.5
 40
1.0
 40
1.0
 40
1.0
 40
1.0
 10
68.64688109633502
 20
125.7353177425804
 30
0.0
 10
68.64688109633502
 20
125.7353177425804
 30
0.0
 10
68.64688109633502
 20
125.6667323400746
 30
0.0
 10
68.64688109633502
 20
125.436959070755
 30
0.0
 10
68.64688109633502
 20
125.2784608690874
 30
0.0
 10
68.64688109633502
 20
125.1190195058184
 30
0.0
  0
ARC
  5
241
330
1F
100
AcDbEntity
  8
0
  6
Continuous
 62
     7
370
    15
100
AcDbCircle
 10
64.1468810963
 20
106.2481424727
 30
0.0
 40
20.00000000000008
100
AcDbArc
 50
285.9620141628
 51
76.9971218371
  0
SPLINE
  5
242
330
1F
100
AcDbEntity
  8
0
  6
Continuous
 62
     7
370
    15
100
AcDbSpline
210
0.0
220
0.0
230
1.0
 70
    24
 71
     3
 72
    12
 73
     8
 74
     0
 42
0.00000001
 43
0.00000001
 12
1.0
 22
0.0
 32
0.0
 13
1.0
 23
0.0
 33
0.0
 40
0.0
 40
0.0
 40
0.0
 40
0.0
 40
0.2499999999999981
 40
0.2499999999999981
 40
0.4999999999999961
 40
0.4999999999999961
 40
1.0
 40
1.0
 40
1.0
 40
1.0
 10
69.64688109633502
 20
87.01925794964599
 30
0.0
 10
69.64688109633502
 20
87.01925794964599
 30
0.0
 10
69.64688109633502
 20
87.03623354600408
 30
0.0
 10
69.64688109633502
 20
87.10070904346328
 30
0.0
 10
69.64688109633502
 20
87.14782267525786
 30
0.0
 10
69.64688109633502
 20
87.32443258924535
 30
0.0
 10
69.64688109633502
 20
87.48428146505347
 30
0.0
 10
69.64688109633502
 20
87.64411065158849
 30
0.0
  0
LINE
  5
243
330
1F
100
AcDbEntity
  8
0
  6
Continuous
 62
     7
370
    15
100
AcDbLine
 10
68.6468809026
 20
123.1481417038
 30
0.0
 11
64.4531345342
 21
123.1481417038
 31
0.0
  0
LINE
  5
244
330
1F
100
AcDbEntity
  8
0
  6
Continuous
 62
     7
370
    15
100
AcDbLine
 10
64.1398884149
 20
123.1481417038
 30
0.0
 11
59.6468812901
 21
123.1481417038
 31
0.0
  0
LINE
  5
245
330
1F
100
AcDbEntity
  8
0
  6
Continuous
 62
     7
370
    15
100
AcDbLine
 10
69.6468810665
 20
89.3481432416
 30
0.0
 11
58.6468811261
 21
89.3481432416
 31
0.0
  0
LINE
  5
246
330
1F
100
AcDbEntity
  8
0
  6
Continuous
 62
     7
370
    15
100
AcDbLine
 10
69.6468810665
 20
87.6441097774
 30
0.0
 11
69.6468810665
 21
89.3481432416
 31
0.0
  0
LINE
  5
247
330
1F
100
AcDbEntity
  8
0
  6
Continuous
 62
     7
370
    15
100
AcDbLine
 10
68.6468809026
 20
125.1190195747
 30
0.0
 11
68.6468809026
 21
123.1481417038
 31
0.0
  0
LINE
  5
248
330
1F
100
AcDbEntity
  8
0
  6
Continuous
 62
     7
370
    15
100
AcDbLine
 10
59.6468812901
 20
123.1481417038
 30
0.0
 11
59.6468812901
 21
125.1190195747
 31
0.0
  0
LINE
  5
249
330
1F
100
AcDbEntity
  8
0
  6
Continuous
 62
     7
370
    15
100
AcDbLine
 10
48.786623508
 20
118.0981428318
 30
0.0
 11
52.2968807372
 21
118.0981428318
 31
0.0
  0
LINE
  5
24A
330
1F
100
AcDbEntity
  8
0
  6
Continuous
 62
     7
370
    15
100
AcDbLine
 10
58.6468811261
 20
89.3481432416
 30
0.0
 11
58.6468811261
 21
87.6441097774
 31
0.0
  0
LINE
  5
24B
330
1F
100
AcDbEntity
  8
0
  6
Continuous
 62
     7
370
    15
100
AcDbLine
 10
52.2968807372
 20
121.608400061
 30
0.0
 11
52.2968807372
 21
118.0981428318
 31
0.0
  0
SPLINE
  5
24C
330
1F
100
AcDbEntity
  8
0
  6
Continuous
 62
     7
370
    15
100
AcDbSpline
210
0.0
220
0.0
230
1.0
 70
     8
 71
     3
 72
    20
 73
    16
 74
     0
 42
0.00000001
 43
0.00000001
 12
1.0
 22
0.0
 32
0.0
 13
1.0
 23
0.0
 33
0.0
 40
0.0
 40
0.0
 40
0.0
 40
0.0
 40
0.25
 40
0.25
 40
0.375
 40
0.375
 40
0.5
 40
0.5
 40
0.625
 40
0.625
 40
0.75
 40
0.75
 40
0.875
 40
0.875
 40
1.0
 40
1.0
 40
1.0
 40
1.0
 10
48.03547209525748
 20
118.0981424726754
 30
0.0
 10
48.45886064368343
 20
118.6737868667736
 30
0.0
 10
48.89613645063528
 20
119.2034119117425
 30
0.0
 10
49.55255398118992
 20
119.9270192788292
 30
0.0
 10
49.77258962074106
 20
120.1575787846574
 30
0.0
 10
50.20258716503472
 20
120.5886215685745
 30
0.0
 10
50.41050778886203
 20
120.7872137216283
 30
0.0
 10
50.8070147587669
 20
121.1518504180225
 30
0.0
 10
50.99563072969537
 20
121.3179134654331
 30
0.0
 10
51.34728078889631
 20
121.6177103244407
 30
0.0
 10
51.5070175694445
 20
121.7486487355755
 30
0.0
 10
51.78561439008062
 20
121.9717212574645
 30
0.0
 10
51.90539877801518
 20
122.0646307152738
 30
0.0
 10
52.10125360358379
 20
122.2142956719863
 30
0.0
 10
52.17709650585643
 20
122.2708782740528
 30
0.0
 10
52.22663235256904
 20
122.3076465088139
 30
0.0
  0
SPLINE
  5
24D
330
1F
100
AcDbEntity
  8
0
  6
Continuous
 62
     7
370
    15
100
AcDbSpline
210
0.0
220
0.0
230
1.0
 70
     8
 71
     3
 72
     8
 73
     4
 74
     0
 42
0.00000001
 43
0.00000001
 12
1.0
 22
0.0
 32
0.0
 13
1.0
 23
0.0
 33
0.0
 40
0.0
 40
0.0
 40
0.0
 40
0.0
 40
1.0
 40
1.0
 40
1.0
 40
1.0
 10
52.22663235256912
 20
122.3076465088139
 30
0.0
 10
52.27256620936043
 20
121.5990176021203
 30
0.0
 10
52.2941409412673
 20
120.8841180294786
 30
0.0
 10
52.29663546890512
 20
120.1620211786061
 30
0.0
  0
LINE
  5
24E
330
1F
100
AcDbEntity
  8
0
  6
Continuous
 62
     7
370
    15
100
AcDbLine
 10
52.2966357994
 20
120.1620216437
 30
0.0
 11
52.2966357994
 21
119.7637741409
 31
0.0
  0
LINE
  5
24F
330
1F
100
AcDbEntity
  8
0
  6
Continuous
 62
     7
370
    15
100
AcDbLine
 10
52.2266320067
 20
122.3076472946
 30
0.0
 11
52.2968807372
 21
122.3595517643
 31
0.0
  0
SPLINE
  5
250
330
1F
100
AcDbEntity
  8
0
  6
Continuous
 62
     7
370
    15
100
AcDbSpline
210
0.0
220
0.0
230
1.0
 70
     8
 71
     3
 72
    22
 73
    18
 74
     0
 42
0.00000001
 43
0.00000001
 12
1.0
 22
0.0
 32
0.0
 13
1.0
 23
0.0
 33
0.0
 40
0.0
 40
0.0
 40
0.0
 40
0.0
 40
0.1249999999999999
 40
0.1249999999999999
 40
0.2499999999999999
 40
0.2499999999999999
 40
0.3749999999999999
 40
0.3749999999999999
 40
0.5
 40
0.5
 40
0.625
 40
0.625
 40
0.75
 40
0.75
 40
0.8750000000000001
 40
0.8750000000000001
 40
1.0
 40
1.0
 40
1.0
 40
1.0
 10
65.14688109633501
 20
86.27315811723716
 30
0.0
 10
65.44561882473266
 20
86.28811370984648
 30
0.0
 10
65.7388241495671
 20
86.30950190649293
 30
0.0
 10
66.31477923019469
 20
86.36388015310823
 30
0.0
 10
66.60052152401005
 20
86.3973263167166
 30
0.0
 10
67.14405066500373
 20
86.47209059211433
 30
0.0
 10
67.40154385322535
 20
86.51318908107528
 30
0.0
 10
67.88874885049063
 20
86.59974201003904
 30
0.0
 10
68.11888847267977
 20
86.64539290913692
 30
0.0
 10
68.53209412888327
 20
86.73367246430178
 30
0.0
 10
68.71792986957914
 20
86.77677381430904
 30
0.0
 10
69.04702644976257
 20
86.85697799416428
 30
0.0
 10
69.18698630657661
 20
86.89327284155385
 30
0.0
 10
69.41267266780628
 20
86.95345206070357
 30
0.0
 10
69.49994407614501
 20
86.97773939813466
 30
0.0
 10
69.6173442894959
 20
87.01073749244603
 30
0.0
 10
69.64688109633504
 20
87.0192579496459
 30
0.0
 10
69.64688109633504
 20
87.0192579496459
 30
0.0
  0
SPLINE
  5
251
330
1F
100
AcDbEntity
  8
0
  6
Continuous
 62
     7
370
    15
100
AcDbSpline
210
0.0
220
0.0
230
1.0
 70
     8
 71
     3
 72
    22
 73
    18
 74
     0
 42
0.00000001
 43
0.00000001
 12
1.0
 22
0.0
 32
0.0
 13
1.0
 23
0.0
 33
0.0
 40
0.0
 40
0.0
 40
0.0
 40
0.0
 40
0.125
 40
0.125
 40
0.2500000000000001
 40
0.2500000000000001
 40
0.3750000000000001
 40
0.3750000000000001
 40
0.5000000000000001
 40
0.5000000000000001
 40
0.6250000000000001
 40
0.6250000000000001
 40
0.7500000000000002
 40
0.7500000000000002
 40
0.8750000000000002
 40
0.8750000000000002
 40
1.0
 40
1.0
 40
1.0
 40
1.0
 10
58.64688109633498
 20
87.01925794964592
 30
0.0
 10
58.64688109633497
 20
87.01925794964592
 30
0.0
 10
58.67640699475492
 20
87.0107438485796
 30
0.0
 10
58.79181182804157
 20
86.9783000796977
 30
0.0
 10
58.87919463310742
 20
86.95396619099566
 30
0.0
 10
59.10586805241502
 20
86.89350616623882
 30
0.0
 10
59.24434389874759
 20
86.85759274546032
 30
0.0
 10
59.57115439591137
 20
86.7778827193912
 30
0.0
 10
59.76019923189136
 20
86.73400441820186
 30
0.0
 10
60.17306751436708
 20
86.64576079583169
 30
0.0
 10
60.39853940561841
 20
86.60095245437071
 30
0.0
 10
60.88939501016609
 20
86.51363144645154
 30
0.0
 10
61.14823516810816
 20
86.47234065787588
 30
0.0
 10
61.68798799390399
 20
86.39800243458205
 30
0.0
 10
61.97209108273305
 20
86.36459230884738
 30
0.0
 10
62.55354421787496
 20
86.30957290732125
 30
0.0
 10
62.84819468350324
 20
86.28811114085492
 30
0.0
 10
63.146881096335
 20
86.27315811723713
 30
0.0
  0
SPLINE
  5
252
330
1F
100
AcDbEntity
  8
0
  6
Continuous
 62
     7
370
    15
100
AcDbSpline
210
0.0
220
0.0
230
1.0
 70
     8
 71
     3
 72
    38
 73
    34
 74
     0
 42
0.00000001
 43
0.00000001
 12
1.0
 22
0.0
 32
0.0
 13
1.0
 23
0.0
 33
0.0
 40
0.0
 40
0.0
 40
0.0
 40
0.0
 40
0.0625
 40
0.0625
 40
0.125
 40
0.125
 40
0.1875
 40
0.1875
 40
0.25
 40
0.25
 40
0.3125
 40
0.3125
 40
0.375
 40
0.375
 40
0.4375
 40
0.4375
 40
0.5
 40
0.5
 40
0.5625
 40
0.5625
 40
0.625
 40
0.625
 40
0.6875
 40
0.6875
 40
0.75
 40
0.75
 40
0.8125
 40
0.8125
 40
0.875
 40
0.875
 40
0.9375
 40
0.9375
 40
1.0
 40
1.0
 40
1.0
 40
1.0
 10
59.64688109633498
 20
125.7353177425805
 30
0.0
 10
59.64688109633498
 20
125.7353177425805
 30
0.0
 10
59.6762415189065
 20
125.7421633098367
 30
0.0
 10
59.79109510941381
 20
125.7681474692703
 30
0.0
 10
59.87804719215834
 20
125.7876003880932
 30
0.0
 10
60.10416007604297
 20
125.8356324926325
 30
0.0
 10
60.24238540051667
 20
125.8640165096118
 30
0.0
 10
60.56879023575393
 20
125.9261725230906
 30
0.0
 10
60.75811201007921
 20
125.9600706987674
 30
0.0
 10
61.17168106359593
 20
126.0267181310931
 30
0.0
 10
61.39752715351963
 20
126.0598155485061
 30
0.0
 10
61.88895764248237
 20
126.1218215191683
 30
0.0
 10
62.14931509763267
 20
126.149987488416
 30
0.0
 10
62.69025990919084
 20
126.1968757574455
 30
0.0
 10
62.97480375110315
 20
126.2158877447654
 30
0.0
 10
63.5560169257305
 20
126.2415287813069
 30
0.0
 10
63.84857853359148
 20
126.2480858975124
 30
0.0
 10
64.4375485242012
 20
126.2481983191473
 30
0.0
 10
64.73677965754547
 20
126.2415327959153
 30
0.0
 10
65.31462199900565
 20
126.2161172852139
 30
0.0
 10
65.59559223214663
 20
126.1974863918122
 30
0.0
 10
66.14159703174494
 20
126.1503080607728
 30
0.0
 10
66.40360933146833
 20
126.1219264075192
 30
0.0
 10
66.89011116966088
 20
126.0606334564186
 30
0.0
 10
67.11848076089389
 20
126.0272818731567
 30
0.0
 10
67.5362274597839
 20
125.9599940147973
 30
0.0
 10
67.72177910075403
 20
125.9267507186479
 30
0.0
 10
68.04770581224207
 20
125.8647447466734
 30
0.0
 10
68.18912769365264
 20
125.8357296892028
 30
0.0
 10
68.41500483985644
 20
125.7877548083534
 30
0.0
 10
68.500645608314
 20
125.768600571013
 30
0.0
 10
68.61687049149997
 20
125.7423145402917
 30
0.0
 10
68.64688109633502
 20
125.7353177425805
 30
0.0
 10
68.64688109633502
 20
125.7353177425805
 30
0.0
  0
ARC
  5
253
330
1F
100
AcDbEntity
  8
0
  6
Continuous
 62
     7
370
    15
100
AcDbCircle
 10
64.1468810963
 20
106.2481424727
 30
0.0
 40
20.00000000000007
100
AcDbArc
 50
267.1340160174
 51
272.8659839826
  0
CIRCLE
  5
254
330
1F
100
AcDbEntity
  8
VERMASSUNG
  6
CENTERX2
100
AcDbCircle
 10
64.1468810963
 20
107.2082150685
 30
0.0
 40
16.00000000000009
  0
DIMENSION
  5
255
330
1F
100
AcDbEntity
  8
VERMASSUNG
100
AcDbDimension
  2
_D_5
 10
39.7587297649
 20
123.2082150685
 30
0.0
 11
39.7587297649
 21
106.7605526552
 31
0.0
 70
   160
  1
%%c<>
 71
     2
 42
-1.0
  3
SLDDIMSTYLE1
100
AcDbAlignedDimension
 13
64.1468810963
 23
91.2082150685
 33
0.0
 14
64.1468810963
 24
123.2082150685
 34
0.0
 50
90.0
100
AcDbRotatedDimension
  0
INSERT
  5
26B
330
1F
100
AcDbEntity
  8
VERMASSUNG
100
AcDbBlockReference
  2
SW_CENTERMARKSYMBOL_0
 10
64.1468810963
 20
106.2481424727
 30
0.0
  0
OLE2FRAME
  5
26C
330
1F
100
AcDbEntity
  8
0
100
AcDbOle2Frame
 70
     2
  3
Paintbrush-Bild
 10
13.8511154363
 20
38.264191557
 30
0.0
 11
51.6290888628
 21
31.9806341108
 31
0.0
 71
     2
 72
     0
 73
     1
 90
    12928
310
80552BED0767C5B32B40DDAF6807D121434000000000000000006FFBDDFB85D0
310
4940DDAF6807D121434000000000000000006FFBDDFB85D04940416F4BD60AFB
310
3F4000000000000000002BED0767C5B32B40416F4BD60AFB3F40000000000000
310
0000000000000100000000010000010000000100000000000100000000320000
310
D0CF11E0A1B11AE1000000000000000000000000000000003E000300FEFF0900
310
0600000000000000000000000100000001000000000000000010000002000000
310
01000000FEFFFFFF0000000000000000FFFFFFFFFFFFFFFFFFFFFFFFFFFFFFFF
310
FFFFFFFFFFFFFFFFFFFFFFFFFFFFFFFFFFFFFFFFFFFFFFFFFFFFFFFFFFFFFFFF
310
FFFFFFFFFFFFFFFFFFFFFFFFFFFFFFFFFFFFFFFFFFFFFFFFFFFFFFFFFFFFFFFF
310
FFFFFFFFFFFFFFFFFFFFFFFFFFFFFFFFFFFFFFFFFFFFFFFFFFFFFFFFFFFFFFFF
310
FFFFFFFFFFFFFFFFFFFFFFFFFFFFFFFFFFFFFFFFFFFFFFFFFFFFFFFFFFFFFFFF
310
FFFFFFFFFFFFFFFFFFFFFFFFFFFFFFFFFFFFFFFFFFFFFFFFFFFFFFFFFFFFFFFF
310
FFFFFFFFFFFFFFFFFFFFFFFFFFFFFFFFFFFFFFFFFFFFFFFFFFFFFFFFFFFFFFFF
310
FFFFFFFFFFFFFFFFFFFFFFFFFFFFFFFFFFFFFFFFFFFFFFFFFFFFFFFFFFFFFFFF
310
FFFFFFFFFFFFFFFFFFFFFFFFFFFFFFFFFFFFFFFFFFFFFFFFFFFFFFFFFFFFFFFF
310
FFFFFFFFFFFFFFFFFFFFFFFFFFFFFFFFFFFFFFFFFFFFFFFFFFFFFFFFFFFFFFFF
310
FFFFFFFFFFFFFFFFFFFFFFFFFFFFFFFFFFFFFFFFFFFFFFFFFFFFFFFFFFFFFFFF
310
FFFFFFFFFFFFFFFFFFFFFFFFFFFFFFFFFFFFFFFFFFFFFFFFFFFFFFFFFFFFFFFF
310
FFFFFFFFFFFFFFFFFFFFFFFFFFFFFFFFFFFFFFFFFFFFFFFFFFFFFFFFFFFFFFFF
310
FFFFFFFFFFFFFFFFFFFFFFFFFFFFFFFFFFFFFFFFFFFFFFFFFFFFFFFFFFFFFFFF
310
FDFFFFFFFEFFFFFFFEFFFFFFFEFFFFFF05000000060000000700000008000000
310
090000000A0000000B0000000C0000000D0000000E0000000F00000010000000
310
11000000120000001300000014000000150000001600000017000000FEFFFFFF
310
FFFFFFFFFFFFFFFFFFFFFFFFFFFFFFFFFFFFFFFFFFFFFFFFFFFFFFFFFFFFFFFF
310
FFFFFFFFFFFFFFFFFFFFFFFFFFFFFFFFFFFFFFFFFFFFFFFFFFFFFFFFFFFFFFFF
310
FFFFFFFFFFFFFFFFFFFFFFFFFFFFFFFFFFFFFFFFFFFFFFFFFFFFFFFFFFFFFFFF
310
FFFFFFFFFFFFFFFFFFFFFFFFFFFFFFFFFFFFFFFFFFFFFFFFFFFFFFFFFFFFFFFF
310
FFFFFFFFFFFFFFFFFFFFFFFFFFFFFFFFFFFFFFFFFFFFFFFFFFFFFFFFFFFFFFFF
310
FFFFFFFFFFFFFFFFFFFFFFFFFFFFFFFFFFFFFFFFFFFFFFFFFFFFFFFFFFFFFFFF
310
FFFFFFFFFFFFFFFFFFFFFFFFFFFFFFFFFFFFFFFFFFFFFFFFFFFFFFFFFFFFFFFF
310
FFFFFFFFFFFFFFFFFFFFFFFFFFFFFFFFFFFFFFFFFFFFFFFFFFFFFFFFFFFFFFFF
310
FFFFFFFFFFFFFFFFFFFFFFFFFFFFFFFFFFFFFFFFFFFFFFFFFFFFFFFFFFFFFFFF
310
FFFFFFFFFFFFFFFFFFFFFFFFFFFFFFFFFFFFFFFFFFFFFFFFFFFFFFFFFFFFFFFF
310
FFFFFFFFFFFFFFFFFFFFFFFFFFFFFFFFFFFFFFFFFFFFFFFFFFFFFFFFFFFFFFFF
310
FFFFFFFFFFFFFFFFFFFFFFFFFFFFFFFFFFFFFFFFFFFFFFFFFFFFFFFFFFFFFFFF
310
FFFFFFFFFFFFFFFFFFFFFFFFFFFFFFFFFFFFFFFFFFFFFFFFFFFFFFFFFFFFFFFF
310
52006F006F007400200045006E00740072007900000000000000000000000000
310
0000000000000000000000000000000000000000000000000000000000000000
310
16000500FFFFFFFFFFFFFFFF020000000A00030000000000C000000000000046
310
00000000000000000000000040AED596A323CD0103000000C000000000000000
310
01004F006C006500000000000000000000000000000000000000000000000000
310
0000000000000000000000000000000000000000000000000000000000000000
310
0A000200FFFFFFFFFFFFFFFFFFFFFFFF00000000000000000000000000000000
310
0000000000000000000000000000000000000000000000001400000000000000
310
010043006F006D0070004F0062006A0000000000000000000000000000000000
310
0000000000000000000000000000000000000000000000000000000000000000
310
120002010100000003000000FFFFFFFF00000000000000000000000000000000
310
0000000000000000000000000000000000000000010000004D00000000000000
310
01004F006C006500310030004E00610074006900760065000000000000000000
310
0000000000000000000000000000000000000000000000000000000000000000
310
1A000200FFFFFFFFFFFFFFFFFFFFFFFF00000000000000000000000000000000
310
0000000000000000000000000000000000000000040000002426000000000000
310
FEFFFFFF02000000FEFFFFFFFFFFFFFFFFFFFFFFFFFFFFFFFFFFFFFFFFFFFFFF
310
FFFFFFFFFFFFFFFFFFFFFFFFFFFFFFFFFFFFFFFFFFFFFFFFFFFFFFFFFFFFFFFF
310
FFFFFFFFFFFFFFFFFFFFFFFFFFFFFFFFFFFFFFFFFFFFFFFFFFFFFFFFFFFFFFFF
310
FFFFFFFFFFFFFFFFFFFFFFFFFFFFFFFFFFFFFFFFFFFFFFFFFFFFFFFFFFFFFFFF
310
FFFFFFFFFFFFFFFFFFFFFFFFFFFFFFFFFFFFFFFFFFFFFFFFFFFFFFFFFFFFFFFF
310
FFFFFFFFFFFFFFFFFFFFFFFFFFFFFFFFFFFFFFFFFFFFFFFFFFFFFFFFFFFFFFFF
310
FFFFFFFFFFFFFFFFFFFFFFFFFFFFFFFFFFFFFFFFFFFFFFFFFFFFFFFFFFFFFFFF
310
FFFFFFFFFFFFFFFFFFFFFFFFFFFFFFFFFFFFFFFFFFFFFFFFFFFFFFFFFFFFFFFF
310
FFFFFFFFFFFFFFFFFFFFFFFFFFFFFFFFFFFFFFFFFFFFFFFFFFFFFFFFFFFFFFFF
310
FFFFFFFFFFFFFFFFFFFFFFFFFFFFFFFFFFFFFFFFFFFFFFFFFFFFFFFFFFFFFFFF
310
FFFFFFFFFFFFFFFFFFFFFFFFFFFFFFFFFFFFFFFFFFFFFFFFFFFFFFFFFFFFFFFF
310
FFFFFFFFFFFFFFFFFFFFFFFFFFFFFFFFFFFFFFFFFFFFFFFFFFFFFFFFFFFFFFFF
310
FFFFFFFFFFFFFFFFFFFFFFFFFFFFFFFFFFFFFFFFFFFFFFFFFFFFFFFFFFFFFFFF
310
FFFFFFFFFFFFFFFFFFFFFFFFFFFFFFFFFFFFFFFFFFFFFFFFFFFFFFFFFFFFFFFF
310
FFFFFFFFFFFFFFFFFFFFFFFFFFFFFFFFFFFFFFFFFFFFFFFFFFFFFFFFFFFFFFFF
310
FFFFFFFFFFFFFFFFFFFFFFFFFFFFFFFFFFFFFFFFFFFFFFFFFFFFFFFFFFFFFFFF
310
0100000200000000000000000000000000000000000000000000000000000000
310
0000000000000000000000000000000000000000000000000000000000000000
310
0100FEFF030A0000FFFFFFFF0A00030000000000C00000000000004607000000
310
5042727573680007000000504272757368000700000050427275736800F439B2
310
7100000000000000000000000000000000000000000000000000000000000000
310
0000000000000000000000000000000000000000000000000000000000000000
310
0000000000000000000000000000000000000000000000000000000000000000
310
0000000000000000000000000000000000000000000000000000000000000000
310
0000000000000000000000000000000000000000000000000000000000000000
310
0000000000000000000000000000000000000000000000000000000000000000
310
0000000000000000000000000000000000000000000000000000000000000000
310
0000000000000000000000000000000000000000000000000000000000000000
310
0000000000000000000000000000000000000000000000000000000000000000
310
0000000000000000000000000000000000000000000000000000000000000000
310
0000000000000000000000000000000000000000000000000000000000000000
310
0000000000000000000000000000000000000000000000000000000000000000
310
20260000424D0E260000000000003E00000028000000B40200006E0000000100
310
01000000000000000000130B0000130B00000200000002000000000000FFFFFF
310
FFFFFFFFFFFFFFFFFFFFFFFFFFFFFFFFFFFFFFFFFFFFFFFFFFFFFFFFFFFFFFFF
310
FFFFFFFFFFFFFFFFFFFFFFFFFFFFFFFFFFFFFFFFFFFFFFFFFFFFFFFFFFFFFFFF
310
FFFFFFFFFFFFFFFFFFFFFFFFFFFFFFFFFFFFFFFFFFFFFFFFF000FFFFFFFFFFFF
310
FFFFFFFFFFFFFFFFFFFFFFFFFFFFFFFFFFFFFFFFFFFFFFFFFFFFFFFFFFFFFFFF
310
FFFFFFFFFFFFFFFFFFFFFFFFFFFFFFFFFFFFFFFFFFFFFFFFFFFFFFFFFFFFFFFF
310
FFFFFFFFFFFFFFFFFFFFFFFFFFFFFFFFF000FFFFFFFFFFFFFFFFFFFFFFFFFFFF
310
FFFFFFFFFFFFFFFFFFFFFFFFFFFFFFFFFFFFFFFFFFFFFFFFFFFFFFFFFFFFFFFF
310
FFFFFFFFFFFFFFFFFFFFFFFFFFFFFFFFFFFFFFFFFFFFFFFFFFFFFFFFFFFFFFFF
310
FFFFFFFFFFFFFFFFF000FFFFFFFFFFFFFFFFFFFFFFFFFFFFFFFFFFFFFFFFFFFF
310
FFFFFFFFFFFFFFFFFFFFFFFFFFFFFFFFFFFFFFFFFFFFFFFFFFFFFFFFFFFFFFFF
310
FFFFFFFFFFFFFFFFFFFFFFFFFFFFFFFFFFFFFFFFFFFFFFFFFFFFFFFFFFFFFFFF
310
F000FFFFFFFFFFFFFFFFFFFFFFFFFFFFFFFFFFFFFFFFFFFFFFFFFFFFFFFFFFFF
310
FFFFFFFFFFFFFFFFFFFFFFFFFFFFFFFFFFFFFFFFFFFFFFFFFFFFFFFFFFFFFFFF
310
FFFFFFFFFFFFFFFFFFFFFFFFFFFFFFFFFFFFFFFFFFFFFFFFF000FFFFFFFFFFFF
310
FFFFFFFFFFFFFFFFFFFFFFFFFFFFFFFFFFFFFFFFFFFFFFFFFFFFFFFFFFFFFFFF
310
FFFFFFFFFFFFFFFFFFFFFFFFFFFFFFFFFFFFFFFFFFFFFFFFFFFFFFFFFFFFFFFF
310
FFFFFFFFFFFFFFFFFFFFFFFFFFFFFFFFF000FFFFFFFFFFFFFFFFFFFFFFFFFFFF
310
FFFFFFFFFFFFFFFFFFFFFFFFFFFFFFFFFFFFFFFFFFFFFFFFFFFFFFFFFFFFFFFF
310
FFFFFFFFFFFFFFFFFFFFFFFFFFFFFFFFFFFFFFFFFFFFFFFFFFFFFFFFFFFFFFFF
310
FFFFFFFFFFFFFFFFF000FFFFFFFFFFFFFFFFFFFFFFFFFFFFFFFFFFFFFFFFFFFF
310
FFFFFFFFFFFFFFFFFFFFFFFFFFFFFFFFFFFFFFFFFFFFFFFFFFFFFFFFFFFFFFFF
310
FFFFFFFFFFFFFFFFFFFFFFFFFFFFFFFFFFFFFFFFFFFFFFFFFFFFFFFFFFFFFFFF
310
F000FFFFFFFFFFFFFFFFFFFFFFFFFFFFFFFFFFFFFFFFFFFFFFFFFFFFFFFFFFFF
310
FFFFFFFFFFFFFFFFFFFFFFFFFFFFFFFFFFFFFFFFFFFFFFFFFFFFFFFFFFFFFFFF
310
FFFFFFFFFFFFFFFFFFFFFFFFFFFFFFFFFFFFFFFFFFFFFFFFF000FFFFFFFFFFFF
310
FFFFFFFFFFFFFFFFFFFFFFFFFFFFFFFFFFFFFFFFFFFFFFFFFFFFFFFFFFFFFFFF
310
FFFFFFFFFFFFFFFFFFFFFFFFFFFFFFFFFFFFFFFFFFFFFFFFFFFFFFFFFFFFFFFF
310
FFFFFFFFFFFFFFFFFFFFFFFFFFFFFFFFF000FFFFFFFFFFFFFFFFFFFFFFFFFFFF
310
FFFFFFFFFFFFFFFFFFFFFFFFFFFFFFFFFFFFFFFFFFFFFFFFFFFFFFFFFFFFFFFF
310
FFFFFFFFFFFFFFFFFFFFFFFFFFFFFFFFFFFFFFFFFFFFFFFFFFFFFFFFFFFFFFFF
310
FFFFFFFFFFFFFFFFF000FFFFFFFFFFFFFFFFFFFFFFFFFFFFFFFFFFFFFFFFFFFF
310
FFFFFFFFFFFFFFFFFFFFFFFFFFFFFFFFFFFFFFFFFFFFFFFFFFFFFFFFFFFFFFFF
310
FFFFFFFFFFFFFFFFFFFFFFFFFFFFFFFFFFFFFFFFFFFFFFFFFFFFFFFFFFFFFFFF
310
F000FFFFFFFFFFFFFFFFFFFFFFFFFFFFFFFFFFFFFFFFFFFFFFFFFFFFFFFFFFFF
310
FFFFFFFFFFFFFFFFFFFFFFFFFFFFFFFFFFFFFFFFFFFFFFFFFFFFFFFFFFFFFFFF
310
FFFFFFFFFFFFFFFFFFFFFFFFFFFFFFFFFFFFFFFFFFFFFFFFF000FFFFFFFFFFFF
310
FFFFFFFFFFFFFFFFFFFFFFFFFFFFFFFFFFFFFFFFFFFFFFFFFFFFFFFFFFFFFFFF
310
FFFFFFFFFFFFFFFFFFFFFFFFFFFFFFFFFFFFFFFFFFFFFFFFFFFFFFFFFFFFFFFF
310
FFFFFFFFFFFFFFFFFFFFFFFFFFFFFFFFF000FFFFFFFFFFFFFFFFFFFFFFFFFFFF
310
FFFFFFFFFFFFFFFFFFFFFFFFFFFFFFFFFFFFFFFFFFFFFFFFFFFFFFFFFFFFFFFF
310
FFFFFFFFFFFFFFFFFFFFFFFFFFFFFFFFFFFFFFFFFFFFFFFFFFFFFFFFFFFFFFFF
310
FFFFFFFFFFFFFFFFF000FFFFFFFFFFFFFFFFFFFFFFFFFFFFFFFFFFFFFFFFFFFF
310
FFFFFFFFFFFFFFFFFFFFFFFFFFFFFFFFFFFFFFFFFFFFFFFFFFFFFFFFFFFFFFFF
310
FFFFFFFFFFFFFFFFFFFFFFFFFFFFFFFFFFFFFFFFFFFFFFFFFFFFFFFFFFFFFFFF
310
F000FFFFFFFFFFFFFFFFFFFFFFFFFFFFFFFFFFFFFFFFFFFFFFFFFFFFFFFFFFFF
310
FFFFFFFFFFFFFFFFFFFFFFFFFFFFFFFFFFFFFFFFFFFFFFFFFFFFFFFFFFFFFFFF
310
FFFFFFFFFFFFFFFFFFFFFFFFFFFFFFFFFFFFFFFFFFFFFFFFF000FFFFFFFFFFFF
310
FFFFFFFFFFFFFFFFFFFFFFFFFFFFFFFFFFFFFFFFFFFFFFFFFFFFFFFFFFFFFFFF
310
FFFFFFFFFFFFFFFFFFFFFFFFFFFFFFFFFFFFFFFFFFFFFFFFFFFFFFFFFFFFFFFF
310
FFFFFFFFFFFFFFFFFFFFFFFFFFFFFFFFF000FFFFFFFFFFFFFFFFFFFFFFFFFFFF
310
FFFFFFFFFFFFFFFFFFFFFFFFFFFFFFFFFFFFFFFFFFFFFFFFFFFFFFFFFFFFFFFF
310
FFFFFFFFFFFFFFFFFFFFFFFFFFFFFFFFFFFFFFFFFFFFFFFFFFFFFFFFFFFFFFFF
310
FFFFFFFFFFFFFFFFF000FFFFF80003FFFFFFFFFFFFFFFFFFFFFFFFFFFFFFFFFF
310
FFFFF00007FFFFFFFFFF00007FFFFFF800000000000000007FFFFFFFFFFFFFFF
310
FFFFFFFC001FFFFFFFFFFFFFFC001FFFFFFFFFFFFFFFFFFFFFFFFFFE0007FFFF
310
F000FFFF8000007FFFFFFFF8000FFFFFC0007FFFFF80007FFFFF0000007FFFFF
310
FFF8000007FFFFF800000000000000007FFFFFF0001FFFFFFFFFFFC00001FFFF
310
FFFFFFFFC00001FFFFFFFF000000000003FFFFE000007FFFF000FFFE0000000F
310
FFFFFFF0000FFFFF80007FFFFF80007FFFFC0000001FFFFFFFC0000001FFFFF8
310
00000000000000007FFFFFF0001FFFFFFFFFFE0000003FFFFFFFFFFE0000003F
310
FFFFFF000000000003FFFF0000000FFFF000FFF800000003FFFFFFF00007FFFF
310
80007FFFFF80007FFFF000000007FFFFFF000000003FFFF80000000000000000
310
7FFFFFF0001FFFFFFFFFF80000000FFFFFFFFFF80000000FFFFFFF0000000000
310
03FFFC00000003FFF000FFE000000000FFFFFFF00007FFFF80003FFFFF80007F
310
FFC000000001FFFFFC000000001FFFF800000000000000007FFFFFF0001FFFFF
310
FFFFE000000003FFFFFFFFE000000003FFFFFF000000000003FFF000000000FF
310
F000FF80000000007FFFFFF00007FFFF80003FFFFF80007FFF8000000000FFFF
310
F80000000007FFF800000000000000007FFFFFF0001FFFFFFFFFC000000001FF
310
FFFFFFC000000001FFFFFF000000000003FFC0000000007FF000FF0000000000
310
3FFFFFE00007FFFF00003FFFFF80007FFE00000000003FFFF00000000003FFF8
310
00000000000000007FFFFFF0001FFFFFFFFF8000000000FFFFFFFF8000000000
310
FFFFFF000000000003FF80000000003FF000FE00000000001FFFFFE00003FFFF
310
00003FFFFF80007FFC00000000001FFFE00000000001FFF8000001FFFE000000
310
7FFFFFF0001FFFFFFFFE00000000003FFFFFFE00000000003FFFFF0000000000
310
03FF00000000001FF000FC00000000000FFFFFE00003FFFF00001FFFFF80007F
310
F800000000001FFFC00000000000FFF8000001FFFE0000007FFFFFF0001FFFFF
310
FFFC00000000001FFFFFFC00000000001FFFFF000000000003FE00000000000F
310
F000F8000000000007FFFFE00003FFFF00001FFFFF80007FF800000000000FFF
310
800000000000FFF8000001FFFE0000007FFFFFF0001FFFFFFFF800000000000F
310
FFFFF800000000000FFFFF000000000003FC000000000007F000F80000000000
310
03FFFFC00003FFFE00001FFFFF80007FF0000000000007FF0000000000007FF8
310
000001FFFE0000007FFFFFF0001FFFFFFFF0000000000007FFFFF00000000000
310
07FFFF000000000003F8000000000003F000F0000000000003FFFFC00001FFFE
310
00001FFFFF80007FE0000000000007FE0000000000003FF8000001FFFE000000
310
7FFFFFF0001FFFFFFFF0000000000007FFFFF0000000000007FFFF0000000000
310
03F800001F800003F000E00001FFF00001FFFFC00001FFFE00000FFFFF80007F
310
E00001FFE00003FE00001FFF00003FF8000001FFFE0000007FFFFFF0001FFFFF
310
FFE000003E000003FFFFE000003E000003FFFF000000000003F00001FFF80001
310
F000E00007FFFC0001FFFFC00001FFFE00000FFFFF80007FC0000FFFFC0003FC
310
0000FFFFC0001FF8000001FFFE0000007FFFFFF0001FFFFFFFC00003FFE00001
310
FFFFC00003FFE00001FFFF0001FFFFFFFFF00007FFFE0001F000E0000FFFFF00
310
00FFFF800001FFFC00000FFFFF80007FC0001FFFFE0001FC0001FFFFE0001FF8
310
000001FFFE0000007FFFFFF0001FFFFFFF80000FFFF80000FFFF80000FFFF800
310
00FFFF0003FFFFFFFFE0000FFFFF8000F000C0003FFFFF8000FFFF800000FFFC
310
000007FFFF80007F80003FFFFF0001FC0003FFFFF0001FF8000001FFFE000000
310
7FFFFFF0001FFFFFFF80003FFFFE0000FFFF80003FFFFE0000FFFF0003FFFFFF
310
FFE0003FFFFF8000F000C0003FFFFF8000FFFF800000FFFC000007FFFF80007F
310
80007FFFFF8001F80007FFFFF8000FF8000001FFFE0000007FFFFFF0001FFFFF
310
FF00007FFFFF00007FFF00007FFFFF00007FFF0003FFFFFFFFE0003FFFFFC000
310
F000C0007FFFFFC000FFFF000000FFFC000007FFFF80007F8000FFFFFF8000F8
310
000FFFFFF8000FF8000001FFFE0000007FFFFFF0001FFFFFFF0000FFFFFF8000
310
7FFF0000FFFFFF80007FFF0003FFFFFFFFC0007FFFFFC00070008000FFFFFFC0
310
00FFFF000000FFF8000007FFFF80007F8000FFFFFF8000F8000FFFFFF8000FF8
310
000001FFFE0000007FFFFFF0001FFFFFFE0001FFFFFFC0003FFE0001FFFFFFC0
310
003FFF0003FFFFFFFFC0007FFFFFE00070008000FFFFFFC0007FFF0000007FF8
310
000003FFFF80007F0001FFFFFF8000F8000FFFFFF8000FF8000001FFFE000000
310
7FFFFFF0001FFFFFFE0001FFFFFFC0003FFE0001FFFFFFC0003FFF0003FFFFFF
310
FFC000FFFFFFE00070008000FFFFFFC0007FFF0000007FF8000003FFFF80007F
310
0001FFFFFF8000F8001FFFFFF8000FF8000001FFFE0000007FFFFFF0001FFFFF
310
FE0003FFFFFFE0003FFE0003FFFFFFE0003FFF0003FFFFFFFFC000FFFFFFE000
310
70008000FFFFFFC0007FFE0000007FF8000003FFFF80007F0001FFFFFF8000F0
310
001FFFFFF8000FF8000001FFFE0000007FFFFFF0001FFFFFFC0003FFFFFFE000
310
1FFC0003FFFFFFE0001FFF0003FFFFFFFFC000FFFFFFC00070008000FFFFFF80
310
007FFE0000007FF0000003FFFF80007F0001FFFFFF0000F0001FFFFFF8000FF8
310
000001FFFE0000007FFFFFF0001FFFFFFC0007FFFFFFF0001FFC0007FFFFFFF0
310
001FFF0003FFFFFFFFC000FFFFFFC00070008001FFFFFF0000FFFE0000003FF0
310
000001FFFF80007F0001FFFFFF0000F8001FFFFFF0000FF8000001FFFE000000
310
7FFFFFF0001FFFFFFC0007FFFFFFF0001FFC0007FFFFFFF0001FFF0003FFFFFF
310
FFC001FFFFFF80007000FFFFFFFFFE0000FFFE0008003FF0008001FFFF80007F
310
FFFFFFFFFC0000FFFFFFFFFFE0000FF8000001FFFE0000007FFFFFF0001FFFFF
310
F8000FFFFFFFF8000FF8000FFFFFFFF8000FFF0003FFFFFFFFFFFFFFFFFF0000
310
7000FFFFFFFFFC0000FFFC0008003FF0008001FFFF80007FFFFFFFFFF80001FF
310
FFFFFFFF80000FF8000001FFFE0000007FFFFFF0001FFFFFF8000FFFFFFFF800
310
0FF8000FFFFFFFF8000FFF0003FFFFFFFFFFFFFFFFFE0000F000FFFFFFFFE000
310
00FFFC000C003FE000C001FFFF80007FFFFFFFFFC00001FFFFFFFFFE00001FF8
310
000001FFFE0000007FFFFFF0001FFFFFF8000FFFFFFFF8000FF8000FFFFFFFF8
310
000FFF0003FFFFFFFFFFFFFFFFF00000F000FFFFFFFE000001FFFC000C001FE0
310
00C000FFFF80007FFFFFFFFE000001FFFFFFFFE000001FF80FFFFFFFFFFFFFC0
310
7FFFFFF0001FFFFFF8000FFFFFFFF8000FF8000FFFFFFFF8000FFF0003FFFFFF
310
FFFFFFFFFF800000F000FFFFFFC0000001FFFC001C001FE001C000FFFF80007F
310
FFFFFF80000003FFFFFFF80000001FF80FFFFFFFFFFFFFC07FFFFFF0001FFFFF
310
F8001FFFFFFFFC000FF8001FFFFFFFFC000FFF0003FFFFFFFFFFFFFFF0000001
310
F000FFFFF800000001FFF8001C001FE001C000FFFF80007FFFFFF800000003FF
310
FFFF800000003FF80FFFFFFFFFFFFFC07FFFFFF0001FFFFFF8001FFFFFFFFC00
310
0FF8001FFFFFFFFC000FFF0003FFFFFFFFFFFFFE00000001F000FFFFC0000000
310
03FFF8001E001FC001E000FFFF80007FFFFF8000000007FFFFFC000000003FF8
310
0FFFFFFFFFFFFFC07FFFFFF0001FFFFFF8001FFFFFFFFC000FF8001FFFFFFFFC
310
000FFF0003FFFFFFFFFFFFE000000003F000FFFE0000000007FFF8001E000FC0
310
01E0007FFF80007FFFFE0000000007FFFFE0000000007FF80FFFFFFFFFFFFFC0
310
7FFFFFF0001FFFFFF0001FFFFFFFFC0007F0001FFFFFFFFC0007FF0003FFFFFF
310
FFFFFF0000000003F000FFF80000000007FFF8001E000FC003E0007FFF80007F
310
FFF0000000000FFFFF8000000000FFF80FFFFFFFFFFFFFC07FFFFFF0001FFFFF
310
F0001FFFFFFFFC0007F0001FFFFFFFFC0007FF0003FFFFFFFFFFFC0000000007
310
F000FFE0000000000FFFF0003E000FC003E0007FFF80007FFFC0000000001FFF
310
FE0000000001FFF80FFFFFFFFFFFFFC07FFFFFF0001FFFFFF0001FFFFFFFFC00
310
07F0001FFFFFFFFC0007FF0003FFFFFFFFFFF0000000000FF000FFC000000000
310
1FFFF0003F000F8003F0003FFF80007FFF80000000003FFFF80000000003FFF8
310
0FFFFFFFFFFFFFC07FFFFFF0001FFFFFF0001FFFFFFFFC0007F0001FFFFFFFFC
310
0007FF0003FFFFFFFFFFE0000000001FF000FF00000000007FFFF0003F000780
310
03F0003FFF80007FFF00000000007FFFF00000000007FFF80FFFFFFFFFFFFFC0
310
7FFFFFF0001FFFFFF0001FFFFFFFFC0007F0001FFFFFFFFC0007FF0003FFFFFF
310
FFFF80000000007FF000FE0000000000FFFFE0003F00078007F0003FFF80007F
310
FE0000000001FFFFE0000000001FFFF80FFFFFFFFFFFFFC07FFFFFF0001FFFFF
310
F0001FFFFFFFFC0007F0001FFFFFFFFC0007FF0003FFFFFFFFFF0000000000FF
310
F000FC0000000003FFFFE0007F00078007F0003FFF80007FFC0000000007FFFF
310
C0000000007FFFF80FFFFFFFFFFFFFC07FFFFFF0001FFFFFF8001FFFFFFFFC00
310
0FF8001FFFFFFFFC000FFF0003FFFFFFFFFE0000000003FFF000FC000000000F
310
FFFFE0007F80070007F8001FFF80007FF8000000001FFFFF8000000001FFFFF8
310
0FFFFFFFFFFFFFC07FFFFFF0001FFFFFF8001FFFFFFFFC000FF8001FFFFFFFFC
310
000FFF0003FFFFFFFFFC000000000FFFF000F8000000007FFFFFE0007F800700
310
07F8001FFF80007FF000000000FFFFFF800000000FFFFFF80FFFFFFFFFFFFFC0
310
7FFFFFF0001FFFFFF8000FFFFFFFF8000FF8000FFFFFFFF8000FFF0003FFFFFF
310
FFFC000000007FFFF000F800000007FFFFFFC0007F8003000FF8001FFF80007F
310
F000000007FFFFFF000000007FFFFFF80FFFFFFFFFFFFFC07FFFFFF0001FFFFF
310
F8000FFFFFFFF8000FF8000FFFFFFFF8000FFF0003FFFFFFFFF80000000FFFFF
310
F000F0000000FFFFFFFFC000FF8003000FF8001FFF80007FE0000000FFFFFFFF
310
0000000FFFFFFFF8000001FFFE0000007FFFFFF0001FFFFFF8000FFFFFFFF800
310
0FF8000FFFFFFFF8000FFF0003FFFFFFFFF8000000FFFFFFF000F000000FFFFF
310
FFFFC000FFC002000FF8000FFF80007FE000001FFFFFFFFE000001FFFFFFFFF8
310
000001FFFE0000007FFFFFF0001FFFFFF8000FFFFFFFF8000FF8000FFFFFFFF8
310
000FFF0003FFFFFFFFF000001FFFFFFFF000E00000FFFFFFFFFFC000FFC00200
310
0FFC000FFF80007FE00001FFFFFFFFFE00001FFFFFFFFFF8000001FFFE000000
310
7FFFFFF0001FFFFFFC000FFFFFFFF8001FFC000FFFFFFFF8001FFF0003FFFFFF
310
FFF00001FFFFFFFFF000E00007FFFFFFFFFF8000FFC000001FFC000FFF80007F
310
C0000FFFFFFFFFFE0000FFFFFFFFFFF8000001FFFE0000007FFFFFF0001FFFFF
310
FC0007FFFFFFF0001FFC0007FFFFFFF0001FFF0003FFFFFFFFF00007FFFFFFFF
310
F000E0001FFFFFFFFFFF8000FFC000001FFC000FFF80007FC0003FFFFFFFFFFE
310
0001FFFFFFFFFFF8000001FFFE0000007FFFFFF0001FFFFFFC0007FFFFFFF000
310
1FFC0007FFFFFFF0001FFF0003FFFFFFFFF0001FFFFFFFFFF000E0003FFFFF00
310
03FF8001FFE000001FFC0007FF80007FC0007FFFFF0007FC0003FFFFF0003FF8
310
000001FFFE0000007FFFFFF0001FFFFFFC0003FFFFFFE0001FFC0003FFFFFFE0
310
001FFF0003FFFFFFFFF0003FFFFFFFFFF000E0003FFFFF0001FF8001FFE00000
310
1FFE0007FF80007FC0007FFFFE0003FC0007FFFFE0003FF8000001FFFE000000
310
7FFFFFF0001FFFFFFE0003FFFFFFE0003FFE0003FFFFFFE0003FFF0003FFFFFF
310
FFF0003FFFFF8001F000E0003FFFFF0001FF0001FFE000001FFE0007FF80007F
310
C0007FFFFE0003FC0007FFFFE0003FF8000001FFFE0000007FFFFFF0001FFFFF
310
FE0001FFFFFFC0003FFE0001FFFFFFC0003FFF0003FFFFFFFFF0003FFFFF0001
310
F000E0003FFFFF0003FF0001FFE000003FFE0007FF80007FC0007FFFFE0003FC
310
0007FFFFE0003FF8000001FFFE0000007FFFFFF0001FFFFFFF0001FFFFFFC000
310
7FFF0001FFFFFFC0007FFF0003FFFFFFFFF0003FFFFF0001F000E0003FFFFE00
310
03FF0003FFF000003FFE0003FF80007FC0007FFFFC0003FE0007FFFFE0003FF8
310
000001FFFE0000007FFFFFF0001FFFFFFF0000FFFFFF80007FFF0000FFFFFF80
310
007FFF0003FFFFFFFFF0003FFFFF0001F000E0003FFFFE0003FF0003FFF00000
310
3FFF0003FF80007FC0007FFFFC0007FE0007FFFFC0003FF8000001FFFE000000
310
7FFFFFF0001FFFFFFF80007FFFFF0000FFFF80007FFFFF0000FFFF0003FFFFFF
310
FFF0003FFFFF0003F000E0003FFFFC0003FE0003FFF000003FFF0003FF80007F
310
E0003FFFF80007FE0003FFFFC0007FF8000001FFFE0000007FFFFFF0001FFFFF
310
FF80003FFFFE0000FFFF80003FFFFE0000FFFF0003FFFFFFFFF0001FFFFE0003
310
F000F0001FFFF80003FE0003FFF000007FFF0001FF80007FE0003FFFF00007FE
310
0001FFFF80007FF8000001FFFE0000007FFFFFF0001FFFFFFFC0000FFFF80001
310
FFFFC0000FFFF80001FFFF0003FFFFFFFFF0001FFFFC0003F000F0000FFFF000
310
07FE0007FFF800007FFF0001FF80007FE0001FFFE00007FF0000FFFE00007FF8
310
000001FFFE0000007FFFFFF0001FFFFFFFC00003FFE00001FFFFC00003FFE000
310
01FFFF0003FFFFFFFFF8000FFFF80003F000F00003FFC00007FC0007FFF80000
310
7FFF8001FF80007FF00007FF80000FFF00007FF80000FFF8000001FFFE000000
310
7F80000000000001FFE000003E000003FFFFE000003E000003FFFF0003FFFFFF
310
FFF80003FFE00007F000F800000000000FFC0007FFF800007FFF8001FF80007F
310
F000000000000FFF000000000000FFF8000001FFFE0000007F80000000000001
310
FFF0000000000007FFFFF0000000000007FFFF0003FFFFFFFFFC00007E000007
310
F000F800000000000FFC0007FFF80000FFFF8000FF80007FF800000000001FFF
310
800000000001FFF8000001FFFE0000007F80000000000001FFF800000000000F
310
FFFFF800000000000FFFFF0003FFFFFFFFFC00000000000FF000FC0000000000
310
1FFC0007FFFC0000FFFF8000FF80007FF800000000003FFFC00000000001FFF8
310
000001FFFE0000007F80000000000001FFF800000000000FFFFFF80000000000
310
0FFFFF0003FFFFFFFFFE00000000001FF000FE00000000003FF8000FFFFC0000
310
FFFF8000FF80007FFC00000000003FFFC00000000003FFF8000001FFFE000000
310
7F80000000000001FFFC00000000001FFFFFFC00000000001FFFFF0003FFFFFF
310
FFFF00000000001FF000FF00000000003FF8000FFFFC0000FFFFC000FF80007F
310
FE00000000007FFFE00000000007FFF8000001FFFE0000007F80000000000001
310
FFFE00000000003FFFFFFE00000000003FFFFF0003FFFFFFFFFF80000000003F
310
F000FF80000000007FF8000FFFFC0001FFFFC0007F80007FFF0000000000FFFF
310
F0000000000FFFF800000000000000007F80000000000001FFFF8000000000FF
310
FFFFFF8000000000FFFFFF0003FFFFFFFFFFC0000000007FF000FFC000000000
310
FFF8000FFFFE0001FFFFC0007F80007FFF8000000001FFFFF8000000001FFFF8
310
00000000000000007F80000000000001FFFFC000000001FFFFFFFFC000000001
310
FFFFFF0003FFFFFFFFFFE000000000FFF000FFE000000003FFF0001FFFFE0001
310
FFFFC0007F80007FFFC000000007FFFFFE000000003FFFF80000000000000000
310
7F80000000000001FFFFE000000003FFFFFFFFE000000003FFFFFF0003FFFFFF
310
FFFFF000000003FFF000FFF80000000FFFF0001FFFFE0001FFFFE0007F80007F
310
FFF00000000FFFFFFF00000000FFFFF800000000000000007F80000000000001
310
FFFFF80000000FFFFFFFFFF80000000FFFFFFF0003FFFFFFFFFFFC0000000FFF
310
F000FFFE0000003FFFF0001FFFFE0003FFFFE0003F80007FFFFC0000003FFFFF
310
FFC0000003FFFFF800000000000000007F80000000000001FFFFFE0000003FFF
310
FFFFFFFE0000003FFFFFFF0003FFFFFFFFFFFF0000003FFFF000FFFF800000FF
310
FFF0001FFFFF0003FFFFE0003F80007FFFFF000001FFFFFFFFF800001FFFFFF8
310
00000000000000007F80000000000001FFFFFFC00001FFFFFFFFFFFFC00001FF
310
FFFFFF0003FFFFFFFFFFFFC00000FFFFF000FFFFF8000FFFFFFFFFFFFFFFFFFF
310
FFFFFFFFFFFFFFFFFFFFF0001FFFFFFFFFFF0000FFFFFFF80000000000000000
310
7FFFFFFFFFFFFFFFFFFFFFFC001FFFFFFFFFFFFFFC001FFFFFFFFFFFFFFFFFFF
310
FFFFFFFC001FFFFFF000FFFFFFFFFFFFFFFFFFFFFFFFFFFFFFFFFFFFFFFFFFFF
310
FFFFFFFFFFFFFFFFFFFFFFFFFFFFFFFFFFFFFFFFFFFFFFFFFFFFFFFFFFFFFFFF
310
FFFFFFFFFFFFFFFFFFFFFFFFFFFFFFFFFFFFFFFFFFFFFFFFFFFFFFFFFFFFFFFF
310
F000FFFFFFFFFFFFFFFFFFFFFFFFFFFFFFFFFFFFFFFFFFFFFFFFFFFFFFFFFFFF
310
FFFFFFFFFFFFFFFFFFFFFFFFFFFFFFFFFFFFFFFFFFFFFFFFFFFFFFFFFFFFFFFF
310
FFFFFFFFFFFFFFFFFFFFFFFFFFFFFFFFFFFFFFFFFFFFFFFFF000FFFFFFFFFFFF
310
FFFFFFFFFFFFFFFFFFFFFFFFFFFFFFFFFFFFFFFFFFFFFFFFFFFFFFFFFFFFFFFF
310
FFFFFFFFFFFFFFFFFFFFFFFFFFFFFFFFFFFFFFFFFFFFFFFFFFFFFFFFFFFFFFFF
310
FFFFFFFFFFFFFFFFFFFFFFFFFFFFFFFFF000FFFFFFFFFFFFFFFFFFFFFFFFFFFF
310
FFFFFFFFFFFFFFFFFFFFFFFFFFFFFFFFFFFFFFFFFFFFFFFFFFFFFFFFFFFFFFFF
310
FFFFFFFFFFFFFFFFFFFFFFFFFFFFFFFFFFFFFFFFFFFFFFFFFFFFFFFFFFFFFFFF
310
FFFFFFFFFFFFFFFFF000FFFFFFFFFFFFFFFFFFFFFFFFFFFFFFFFFFFFFFFFFFFF
310
FFFFFFFFFFFFFFFFFFFFFFFFFFFFFFFFFFFFFFFFFFFFFFFFFFFFFFFFFFFFFFFF
310
FFFFFFFFFFFFFFFFFFFFFFFFFFFFFFFFFFFFFFFFFFFFFFFFFFFFFFFFFFFFFFFF
310
F000FFFFFFFFFFFFFFFFFFFFFFFFFFFFFFFFFFFFFFFFFFFFFFFFFFFFFFFFFFFF
310
FFFFFFFFFFFFFFFFFFFFFFFFFFFFFFFFFFFFFFFFFFFFFFFFFFFFFFFFFFFFFFFF
310
FFFFFFFFFFFFFFFFFFFFFFFFFFFFFFFFFFFFFFFFFFFFFFFFF000FFFFFFFFFFFF
310
FFFFFFFFFFFFFFFFFFFFFFFFFFFFFFFFFFFFFFFFFFFFFFFFFFFFFFFFFFFFFFFF
310
FFFFFFFFFFFFFFFFFFFFFFFFFFFFFFFFFFFFFFFFFFFFFFFFFFFFFFFFFFFFFFFF
310
FFFFFFFFFFFFFFFFFFFFFFFFFFFFFFFFF000FFFFFFFFFFFFFFFFFFFFFFFFFFFF
310
FFFFFFFFFFFFFFFFFFFFFFFFFFFFFFFFFFFFFFFFFFFFFFFFFFFFFFFFFFFFFFFF
310
FFFFFFFFFFFFFFFFFFFFFFFFFFFFFFFFFFFFFFFFFFFFFFFFFFFFFFFFFFFFFFFF
310
FFFFFFFFFFFFFFFFF000FFFFFFFFFFFFFFFFFFFFFFFFFFFFFFFFFFFFFFFFFFFF
310
FFFFFFFFFFFFFFFFFFFFFFFFFFFFFFFFFFFFFFFFFFFFFFFFFFFFFFFFFFFFFFFF
310
FFFFFFFFFFFFFFFFFFFFFFFFFFFFFFFFFFFFFFFFFFFFFFFFFFFFFFFFFFFFFFFF
310
F000FFFFFFFFFFFFFFFFFFFFFFFFFFFFFFFFFFFFFFFFFFFFFFFFFFFFFFFFFFFF
310
FFFFFFFFFFFFFFFFFFFFFFFFFFFFFFFFFFFFFFFFFFFFFFFFFFFFFFFFFFFFFFFF
310
FFFFFFFFFFFFFFFFFFFFFFFFFFFFFFFFFFFFFFFFFFFFFFFFF000FFFFFFFFFFFF
310
FFFFFFFFFFFFFFFFFFFFFFFFFFFFFFFFFFFFFFFFFFFFFFFFFFFFFFFFFFFFFFFF
310
FFFFFFFFFFFFFFFFFFFFFFFFFFFFFFFFFFFFFFFFFFFFFFFFFFFFFFFFFFFFFFFF
310
FFFFFFFFFFFFFFFFFFFFFFFFFFFFFFFFF000FFFFFFFFFFFFFFFFFFFFFFFFFFFF
310
FFFFFFFFFFFFFFFFFFFFFFFFFFFFFFFFFFFFFFFFFFFFFFFFFFFFFFFFFFFFFFFF
310
FFFFFFFFFFFFFFFFFFFFFFFFFFFFFFFFFFFFFFFFFFFFFFFFFFFFFFFFFFFFFFFF
310
FFFFFFFFFFFFFFFFF000FFFFFFFFFFFFFFFFFFFFFFFFFFFFFFFFFFFFFFFFFFFF
310
FFFFFFFFFFFFFFFFFFFFFFFFFFFFFFFFFFFFFFFFFFFFFFFFFFFFFFFFFFFFFFFF
310
FFFFFFFFFFFFFFFFFFFFFFFFFFFFFFFFFFFFFFFFFFFFFFFFFFFFFFFFFFFFFFFF
310
F000FFFFFFFFFFFFFFFFFFFFFFFFFFFFFFFFFFFFFFFFFFFFFFFFFFFFFFFFFFFF
310
FFFFFFFFFFFFFFFFFFFFFFFFFFFFFFFFFFFFFFFFFFFFFFFFFFFFFFFFFFFFFFFF
310
FFFFFFFFFFFFFFFFFFFFFFFFFFFFFFFFFFFFFFFFFFFFFFFFF000FFFFFFFFFFFF
310
FFFFFFFFFFFFFFFFFFFFFFFFFFFFFFFFFFFFFFFFFFFFFFFFFFFFFFFFFFFFFFFF
310
FFFFFFFFFFFFFFFFFFFFFFFFFFFFFFFFFFFFFFFFFFFFFFFFFFFFFFFFFFFFFFFF
310
FFFFFFFFFFFFFFFFFFFFFFFFFFFFFFFFF000FFFFFFFFFFFFFFFFFFFFFFFFFFFF
310
FFFFFFFFFFFFFFFFFFFFFFFFFFFFFFFFFFFFFFFFFFFFFFFFFFFFFFFFFFFFFFFF
310
FFFFFFFFFFFFFFFFFFFFFFFFFFFFFFFFFFFFFFFFFFFFFFFFFFFFFFFFFFFFFFFF
310
FFFFFFFFFFFFFFFFF000FFFFFFFFFFFFFFFFFFFFFFFFFFFFFFFFFFFFFFFFFFFF
310
FFFFFFFFFFFFFFFFFFFFFFFFFFFFFFFFFFFFFFFFFFFFFFFFFFFFFFFFFFFFFFFF
310
FFFFFFFFFFFFFFFFFFFFFFFFFFFFFFFFFFFFFFFFFFFFFFFFFFFFFFFFFFFFFFFF
310
F000FFFFFFFFFFFFFFFFFFFFFFFFFFFFFFFFFFFFFFFFFFFFFFFFFFFFFFFFFFFF
310
FFFFFFFFFFFFFFFFFFFFFFFFFFFFFFFFFFFFFFFFFFFFFFFFFFFFFFFFFFFFFFFF
310
FFFFFFFFFFFFFFFFFFFFFFFFFFFFFFFFFFFFFFFFFFFFFFFFF000FFFFFFFFFFFF
310
FFFFFFFFFFFFFFFFFFFFFFFFFFFFFFFFFFFFFFFFFFFFFFFFFFFFFFFFFFFFFFFF
310
FFFFFFFFFFFFFFFFFFFFFFFFFFFFFFFFFFFFFFFFFFFFFFFFFFFFFFFFFFFFFFFF
310
FFFFFFFFFFFFFFFFFFFFFFFFFFFFFFFFF000FFFFFFFFFFFFFFFFFFFFFFFFFFFF
310
FFFFFFFFFFFFFFFFFFFFFFFFFFFFFFFFFFFFFFFFFFFFFFFFFFFFFFFFFFFFFFFF
310
FFFFFFFFFFFFFFFFFFFFFFFFFFFFFFFFFFFFFFFFFFFFFFFFFFFFFFFFFFFFFFFF
310
FFFFFFFFFFFFFFFFF000FFFFFFFFFFFFFFFFFFFFFFFFFFFFFFFFFFFFFFFFFFFF
310
FFFFFFFFFFFFFFFFFFFFFFFFFFFFFFFFFFFFFFFFFFFFFFFFFFFFFFFFFFFFFFFF
310
FFFFFFFFFFFFFFFFFFFFFFFFFFFFFFFFFFFFFFFFFFFFFFFFFFFFFFFFFFFFFFFF
310
F000FFFFFFFFFFFFFFFFFFFFFFFFFFFFFFFFFFFFFFFFFFFFFFFFFFFFFFFFFFFF
310
FFFFFFFFFFFFFFFFFFFFFFFFFFFFFFFFFFFFFFFFFFFFFFFFFFFFFFFFFFFFFFFF
310
FFFFFFFFFFFFFFFFFFFFFFFFFFFFFFFFFFFFFFFFFFFFFFFFF000FFFFFFFFFFFF
310
FFFFFFFFFFFFFFFFFFFFFFFFFFFFFFFFFFFFFFFFFFFFFFFFFFFFFFFFFFFFFFFF
310
FFFFFFFFFFFFFFFFFFFFFFFFFFFFFFFFFFFFFFFFFFFFFFFFFFFFFFFFFFFFFFFF
310
FFFFFFFFFFFFFFFFFFFFFFFFFFFFFFFFF0000000000000000000000000000000
310
0000000000000000000000000000000000000000000000000000000000000000
310
0000000000000000000000000000000000000000000000000000000000000000
310
0000000000000000000000000000000000000000000000000000000000000000
310
0000000000000000000000000000000000000000000000000000000000000000
310
0000000000000000000000000000000000000000000000000000000000000000
310
0000000000000000000000000000000000000000000000000000000000000000
310
0000000000000000000000000000000000000000000000000000000000000000
310
0000000000000000000000000000000000000000000000000000000000000000
310
0000000000000000000000000000000000000000000000000000000000000000
310
0000000000000000000000000000000000000000000000000000000000000000
310
0000000000000000000000000000000000000000000000000000000000000000
310
0000000000000000000000000000000000000000000000000000000000000000
310
0000000000000000000000000000000000000000000000000000000000000000
310
0000000000000000000000000000000000000000000000000000000000000000
310
0000000000000000000000000000000000000000000000000000000000000000
  1
OLE
  0
ENDSEC
  0
SECTION
  2
OBJECTS
  0
DICTIONARY
  5
C
330
0
100
AcDbDictionary
281
     1
  3
ACAD_GROUP
350
D
  3
ACAD_LAYOUT
350
1A
  3
ACAD_MLINESTYLE
350
17
  3
ACAD_PLOTSETTINGS
350
19
  3
ACAD_PLOTSTYLENAME
350
E
  0
DICTIONARY
  5
D
102
{ACAD_REACTORS
330
C
102
}
330
C
100
AcDbDictionary
281
     1
  0
DICTIONARY
  5
1A
102
{ACAD_REACTORS
330
C
102
}
330
C
100
AcDbDictionary
281
     1
  3
Layout1
350
1E
  3
Layout2
350
26
  3
Model
350
22
  0
DICTIONARY
  5
17
102
{ACAD_REACTORS
330
C
102
}
330
C
100
AcDbDictionary
281
     1
  3
Standard
350
18
  0
DICTIONARY
  5
19
102
{ACAD_REACTORS
330
C
102
}
330
C
100
AcDbDictionary
281
     1
  0
ACDBDICTIONARYWDFLT
  5
E
102
{ACAD_REACTORS
330
C
102
}
330
C
100
AcDbDictionary
281
     1
  3
Normal
350
F
100
AcDbDictionaryWithDefault
340
F
  0
LAYOUT
  5
1E
102
{ACAD_REACTORS
330
1A
102
}
330
1A
100
AcDbPlotSettings
  1

  2
none_device
  4

  6

 40
0.0
 41
0.0
 42
0.0
 43
0.0
 44
0.0
 45
0.0
 46
0.0
 47
0.0
 48
0.0
 49
0.0
140
0.0
141
0.0
142
1.0
143
1.0
 70
   688
 72
     0
 73
     0
 74
     5
  7

 75
    16
147
1.0
148
0.0
149
0.0
100
AcDbLayout
  1
Layout1
 70
     1
 71
     1
 10
0.0
 20
0.0
 11
420.0
 21
297.0
 12
0.0
 22
0.0
 32
0.0
 14
1.0000000000E+20
 24
1.0000000000E+20
 34
1.0000000000E+20
 15
-1.0000000000E+20
 25
-1.0000000000E+20
 35
-1.0000000000E+20
146
0.0
 13
0.0
 23
0.0
 33
0.0
 16
1.0
 26
0.0
 36
0.0
 17
0.0
 27
1.0
 37
0.0
 76
     0
330
1B
  0
LAYOUT
  5
26
102
{ACAD_REACTORS
330
1A
102
}
330
1A
100
AcDbPlotSettings
  1

  2
none_device
  4

  6

 40
0.0
 41
0.0
 42
0.0
 43
0.0
 44
0.0
 45
0.0
 46
0.0
 47
0.0
 48
0.0
 49
0.0
140
0.0
141
0.0
142
1.0
143
1.0
 70
   688
 72
     0
 73
     0
 74
     5
  7

 75
    16
147
1.0
148
0.0
149
0.0
100
AcDbLayout
  1
Layout2
 70
     1
 71
     2
 10
0.0
 20
0.0
 11
0.0
 21
0.0
 12
0.0
 22
0.0
 32
0.0
 14
0.0
 24
0.0
 34
0.0
 15
0.0
 25
0.0
 35
0.0
146
0.0
 13
0.0
 23
0.0
 33
0.0
 16
1.0
 26
0.0
 36
0.0
 17
0.0
 27
1.0
 37
0.0
 76
     0
330
23
  0
LAYOUT
  5
22
102
{ACAD_REACTORS
330
1A
102
}
330
1A
100
AcDbPlotSettings
  1

  2
none_device
  4

  6

 40
0.0
 41
0.0
 42
0.0
 43
0.0
 44
0.0
 45
0.0
 46
0.0
 47
0.0
 48
0.0
 49
0.0
140
0.0
141
0.0
142
1.0
143
1.0
 70
  1712
 72
     0
 73
     0
 74
     0
  7

 75
     0
147
1.0
148
0.0
149
0.0
100
AcDbLayout
  1
Model
 70
     1
 71
     0
 10
0.0
 20
0.0
 11
297.0
 21
210.0
 12
0.0
 22
0.0
 32
0.0
 14
0.0
 24
0.0
 34
0.0
 15
297.0
 25
210.0
 35
0.0
146
0.0
 13
0.0
 23
0.0
 33
0.0
 16
1.0
 26
0.0
 36
0.0
 17
0.0
 27
1.0
 37
0.0
 76
     0
330
1F
331
29
  0
MLINESTYLE
  5
18
102
{ACAD_REACTORS
330
17
102
}
330
17
100
AcDbMlineStyle
  2
Standard
 70
     0
  3

 62
   256
 51
90.0
 52
90.0
 71
     2
 49
0.5
 62
   256
  6
BYLAYER
 49
-0.5
 62
   256
  6
BYLAYER
  0
ACDBPLACEHOLDER
  5
F
102
{ACAD_REACTORS
330
E
102
}
330
E
  0
ENDSEC
  0
EOF
