  0
SECTION
  2
HEADER
  9
$ACADVER
  1
AC1015
  9
$ACADMAINTVER
 70
     6
  9
$DWGCODEPAGE
  3
ANSI_1252
  9
$INSBASE
 10
0.0
 20
0.0
 30
0.0
  9
$EXTMIN
 10
0.0
 20
0.0
 30
0.0
  9
$EXTMAX
 10
297.0
 20
210.0
 30
0.0
  9
$LIMMIN
 10
0.0
 20
0.0
  9
$LIMMAX
 10
297.0
 20
210.0
  9
$ORTHOMODE
 70
     0
  9
$REGENMODE
 70
     1
  9
$FILLMODE
 70
     1
  9
$QTEXTMODE
 70
     0
  9
$MIRRTEXT
 70
     1
  9
$LTSCALE
 40
1.0
  9
$ATTMODE
 70
     1
  9
$TEXTSIZE
 40
2.0
  9
$TRACEWID
 40
1.0
  9
$TEXTSTYLE
  7
Standard
  9
$CLAYER
  8
0
  9
$CELTYPE
  6
ByLayer
  9
$CECOLOR
 62
   256
  9
$CELTSCALE
 40
1.0
  9
$DISPSILH
 70
     0
  9
$DIMSCALE
 40
1.0
  9
$DIMASZ
 40
3.0
  9
$DIMEXO
 40
0.0
  9
$DIMDLI
 40
3.75
  9
$DIMRND
 40
0.0
  9
$DIMDLE
 40
0.0
  9
$DIMEXE
 40
1.0
  9
$DIMTP
 40
0.0
  9
$DIMTM
 40
0.0
  9
$DIMTXT
 40
2.0
  9
$DIMCEN
 40
2.5
  9
$DIMTSZ
 40
0.0
  9
$DIMTOL
 70
     0
  9
$DIMLIM
 70
     0
  9
$DIMTIH
 70
     1
  9
$DIMTOH
 70
     1
  9
$DIMSE1
 70
     0
  9
$DIMSE2
 70
     0
  9
$DIMTAD
 70
     1
  9
$DIMZIN
 70
     0
  9
$DIMBLK
  1

  9
$DIMASO
 70
     1
  9
$DIMSHO
 70
     1
  9
$DIMPOST
  1

  9
$DIMAPOST
  1

  9
$DIMALT
 70
     0
  9
$DIMALTD
 70
     3
  9
$DIMALTF
 40
0.0393700787
  9
$DIMLFAC
 40
1.0
  9
$DIMTOFL
 70
     1
  9
$DIMTVP
 40
0.0
  9
$DIMTIX
 70
     0
  9
$DIMSOXD
 70
     0
  9
$DIMSAH
 70
     0
  9
$DIMBLK1
  1

  9
$DIMBLK2
  1

  9
$DIMSTYLE
  2
ISO-25
  9
$DIMCLRD
 70
     0
  9
$DIMCLRE
 70
     0
  9
$DIMCLRT
 70
     0
  9
$DIMTFAC
 40
1.0
  9
$DIMGAP
 40
1.524
  9
$DIMJUST
 70
     0
  9
$DIMSD1
 70
     0
  9
$DIMSD2
 70
     0
  9
$DIMTOLJ
 70
     0
  9
$DIMTZIN
 70
     0
  9
$DIMALTZ
 70
     0
  9
$DIMALTTZ
 70
     0
  9
$DIMUPT
 70
     0
  9
$DIMDEC
 70
     2
  9
$DIMTDEC
 70
     3
  9
$DIMALTU
 70
     2
  9
$DIMALTTD
 70
     3
  9
$DIMTXSTY
  7
Standard
  9
$DIMAUNIT
 70
     0
  9
$DIMADEC
 70
     2
  9
$DIMALTRND
 40
0.0
  9
$DIMAZIN
 70
     0
  9
$DIMDSEP
 70
    44
  9
$DIMATFIT
 70
     3
  9
$DIMFRAC
 70
     0
  9
$DIMLDRBLK
  1

  9
$DIMLUNIT
 70
     2
  9
$DIMLWD
 70
    -2
  9
$DIMLWE
 70
    -2
  9
$DIMTMOVE
 70
     0
  9
$LUNITS
 70
     2
  9
$LUPREC
 70
     2
  9
$SKETCHINC
 40
1.0
  9
$FILLETRAD
 40
10.0
  9
$AUNITS
 70
     0
  9
$AUPREC
 70
     2
  9
$MENU
  1
.
  9
$ELEVATION
 40
0.0
  9
$PELEVATION
 40
0.0
  9
$THICKNESS
 40
0.0
  9
$LIMCHECK
 70
     0
  9
$CHAMFERA
 40
10.0
  9
$CHAMFERB
 40
10.0
  9
$CHAMFERC
 40
20.0
  9
$CHAMFERD
 40
0.0
  9
$SKPOLY
 70
     0
  9
$TDCREATE
 40
2456044.582151678
  9
$TDUCREATE
 40
2456044.498818345
  9
$TDUPDATE
 40
2456044.582153125
  9
$TDUUPDATE
 40
2456044.498819792
  9
$TDINDWG
 40
0.0000000116
  9
$TDUSRTIMER
 40
0.0000000116
  9
$USRTIMER
 70
     1
  9
$ANGBASE
 50
0.0
  9
$ANGDIR
 70
     0
  9
$PDMODE
 70
     0
  9
$PDSIZE
 40
-1.0
  9
$PLINEWID
 40
0.0
  9
$SPLFRAME
 70
     0
  9
$SPLINETYPE
 70
     6
  9
$SPLINESEGS
 70
     8
  9
$HANDSEED
  5
26E
  9
$SURFTAB1
 70
     6
  9
$SURFTAB2
 70
     6
  9
$SURFTYPE
 70
     6
  9
$SURFU
 70
     6
  9
$SURFV
 70
     6
  9
$UCSBASE
  2

  9
$UCSNAME
  2

  9
$UCSORG
 10
0.0
 20
0.0
 30
0.0
  9
$UCSXDIR
 10
1.0
 20
0.0
 30
0.0
  9
$UCSYDIR
 10
0.0
 20
1.0
 30
0.0
  9
$UCSORTHOREF
  2

  9
$UCSORTHOVIEW
 70
     0
  9
$UCSORGTOP
 10
0.0
 20
0.0
 30
0.0
  9
$UCSORGBOTTOM
 10
0.0
 20
0.0
 30
0.0
  9
$UCSORGLEFT
 10
0.0
 20
0.0
 30
0.0
  9
$UCSORGRIGHT
 10
0.0
 20
0.0
 30
0.0
  9
$UCSORGFRONT
 10
0.0
 20
0.0
 30
0.0
  9
$UCSORGBACK
 10
0.0
 20
0.0
 30
0.0
  9
$PUCSBASE
  2

  9
$PUCSNAME
  2

  9
$PUCSORG
 10
0.0
 20
0.0
 30
0.0
  9
$PUCSXDIR
 10
1.0
 20
0.0
 30
0.0
  9
$PUCSYDIR
 10
0.0
 20
1.0
 30
0.0
  9
$PUCSORTHOREF
  2

  9
$PUCSORTHOVIEW
 70
     0
  9
$PUCSORGTOP
 10
0.0
 20
0.0
 30
0.0
  9
$PUCSORGBOTTOM
 10
0.0
 20
0.0
 30
0.0
  9
$PUCSORGLEFT
 10
0.0
 20
0.0
 30
0.0
  9
$PUCSORGRIGHT
 10
0.0
 20
0.0
 30
0.0
  9
$PUCSORGFRONT
 10
0.0
 20
0.0
 30
0.0
  9
$PUCSORGBACK
 10
0.0
 20
0.0
 30
0.0
  9
$USERI1
 70
     0
  9
$USERI2
 70
     0
  9
$USERI3
 70
     0
  9
$USERI4
 70
     0
  9
$USERI5
 70
     0
  9
$USERR1
 40
0.0
  9
$USERR2
 40
0.0
  9
$USERR3
 40
0.0
  9
$USERR4
 40
0.0
  9
$USERR5
 40
0.0
  9
$WORLDVIEW
 70
     1
  9
$SHADEDGE
 70
     3
  9
$SHADEDIF
 70
    70
  9
$TILEMODE
 70
     1
  9
$MAXACTVP
 70
    64
  9
$PINSBASE
 10
0.0
 20
0.0
 30
0.0
  9
$PLIMCHECK
 70
     0
  9
$PEXTMIN
 10
1.0000000000E+20
 20
1.0000000000E+20
 30
1.0000000000E+20
  9
$PEXTMAX
 10
-1.0000000000E+20
 20
-1.0000000000E+20
 30
-1.0000000000E+20
  9
$PLIMMIN
 10
0.0
 20
0.0
  9
$PLIMMAX
 10
420.0
 20
297.0
  9
$UNITMODE
 70
     0
  9
$VISRETAIN
 70
     1
  9
$PLINEGEN
 70
     0
  9
$PSLTSCALE
 70
     1
  9
$TREEDEPTH
 70
  3020
  9
$CMLSTYLE
  2
Standard
  9
$CMLJUST
 70
     0
  9
$CMLSCALE
 40
20.0
  9
$PROXYGRAPHICS
 70
     1
  9
$MEASUREMENT
 70
     1
  9
$CELWEIGHT
370
    -1
  9
$ENDCAPS
280
     0
  9
$JOINSTYLE
280
     0
  9
$LWDISPLAY
290
     1
  9
$INSUNITS
 70
     4
  9
$HYPERLINKBASE
  1

  9
$STYLESHEET
  1

  9
$XEDIT
290
     1
  9
$CEPSNTYPE
380
     0
  9
$PSTYLEMODE
290
     1
  9
$FINGERPRINTGUID
  2
{4D490F12-B619-472C-9400-B3A7B6EEAFA0}
  9
$VERSIONGUID
  2
{FAEB1C32-E019-11D5-929B-00C0DF256EC4}
  9
$EXTNAMES
290
     1
  9
$PSVPSCALE
 40
0.0
  9
$OLESTARTUP
290
     0
  0
ENDSEC
  0
SECTION
  2
CLASSES
  0
CLASS
  1
ACDBDICTIONARYWDFLT
  2
AcDbDictionaryWithDefault
  3
ObjectDBX Classes
 90
        0
280
     0
281
     0
  0
CLASS
  1
VISUALSTYLE
  2
AcDbVisualStyle
  3
ObjectDBX Classes
 90
     4095
280
     0
281
     0
  0
CLASS
  1
MATERIAL
  2
AcDbMaterial
  3
ObjectDBX Classes
 90
     1153
280
     0
281
     0
  0
CLASS
  1
ACDBPLACEHOLDER
  2
AcDbPlaceHolder
  3
ObjectDBX Classes
 90
        0
280
     0
281
     0
  0
CLASS
  1
LAYOUT
  2
AcDbLayout
  3
ObjectDBX Classes
 90
        0
280
     0
281
     0
  0
ENDSEC
  0
SECTION
  2
TABLES
  0
TABLE
  2
VPORT
  5
8
330
0
100
AcDbSymbolTable
 70
     1
  0
VPORT
  5
29
330
8
100
AcDbSymbolTableRecord
100
AcDbViewportTableRecord
  2
*Active
 70
     0
 10
0.0
 20
0.0
 11
1.0
 21
1.0
 12
148.5
 22
105.0
 13
0.0
 23
0.0
 14
10.0
 24
10.0
 15
10.0
 25
10.0
 16
0.0
 26
0.0
 36
1.0
 17
0.0
 27
0.0
 37
0.0
 40
210.0
 41
1.4142857143
 42
50.0
 43
0.0
 44
0.0
 50
0.0
 51
0.0
 71
     0
 72
  2000
 73
     1
 74
     3
 75
     0
 76
     0
 77
     0
 78
     0
281
     0
 65
     1
110
0.0
120
0.0
130
0.0
111
1.0
121
0.0
131
0.0
112
0.0
122
1.0
132
0.0
 79
     0
146
0.0
  0
ENDTAB
  0
TABLE
  2
LTYPE
  5
5
330
0
100
AcDbSymbolTable
 70
     6
  0
LTYPE
  5
14
330
5
100
AcDbSymbolTableRecord
100
AcDbLinetypeTableRecord
  2
ByBlock
 70
     0
  3

 72
    65
 73
     0
 40
0.0
  0
LTYPE
  5
15
330
5
100
AcDbSymbolTableRecord
100
AcDbLinetypeTableRecord
  2
ByLayer
 70
     0
  3

 72
    65
 73
     0
 40
0.0
  0
LTYPE
  5
16
330
5
100
AcDbSymbolTableRecord
100
AcDbLinetypeTableRecord
  2
Continuous
 70
     0
  3
Solid line
 72
    65
 73
     0
 40
0.0
  0
LTYPE
  5
3F
330
5
100
AcDbSymbolTableRecord
100
AcDbLinetypeTableRecord
  2
HIDDEN
 70
     0
  3
Hidden __ __ __ __ __ __ __ __ __ __ __ __ __ __
 72
    65
 73
     2
 40
1.905
 49
1.27
 74
     0
 49
-0.635
 74
     0
  0
LTYPE
  5
40
330
5
100
AcDbSymbolTableRecord
100
AcDbLinetypeTableRecord
  2
PHANTOM
 70
     0
  3
Phantom ______  __  __  ______  __  __  ______
 72
    65
 73
     6
 40
12.7
 49
6.35
 74
     0
 49
-1.27
 74
     0
 49
1.27
 74
     0
 49
-1.27
 74
     0
 49
1.27
 74
     0
 49
-1.27
 74
     0
  0
LTYPE
  5
41
330
5
100
AcDbSymbolTableRecord
100
AcDbLinetypeTableRecord
  2
CENTER
 70
     0
  3
Center ____ _ ____ _ ____ _ ____ _ ____ _ ____
 72
    65
 73
     4
 40
10.16
 49
6.35
 74
     0
 49
-1.27
 74
     0
 49
1.27
 74
     0
 49
-1.27
 74
     0
  0
LTYPE
  5
42
330
5
100
AcDbSymbolTableRecord
100
AcDbLinetypeTableRecord
  2
CENTERX2
 70
     0
  3
Center (2x) ________  __  ________  __  _____
 72
    65
 73
     4
 40
20.32
 49
12.7
 74
     0
 49
-2.54
 74
     0
 49
2.54
 74
     0
 49
-2.54
 74
     0
  0
LTYPE
  5
43
330
5
100
AcDbSymbolTableRecord
100
AcDbLinetypeTableRecord
  2
DOT2
 70
     0
  3
Dot (.5x) ........................................
 72
    65
 73
     2
 40
0.635
 49
0.0
 74
     0
 49
-0.635
 74
     0
  0
ENDTAB
  0
TABLE
  2
LAYER
  5
2
330
0
100
AcDbSymbolTable
 70
     5
  0
LAYER
  5
10
330
2
100
AcDbSymbolTableRecord
100
AcDbLayerTableRecord
  2
0
 70
     0
 62
     7
  6
Continuous
370
    -3
390
F
  0
LAYER
  5
44
330
2
100
AcDbSymbolTableRecord
100
AcDbLayerTableRecord
  2
FORMAT
 70
     0
 62
     7
  6
Continuous
370
    -3
390
F
  0
LAYER
  5
45
330
2
100
AcDbSymbolTableRecord
100
AcDbLayerTableRecord
  2
VERMASSUNG
 70
     0
 62
     7
  6
Continuous
370
    -3
390
F
  0
LAYER
  5
46
330
2
100
AcDbSymbolTableRecord
100
AcDbLayerTableRecord
  2
KOPF_DÜNN
 70
     0
 62
     7
  6
Continuous
370
    -3
390
F
  0
LAYER
  5
47
330
2
100
AcDbSymbolTableRecord
100
AcDbLayerTableRecord
  2
KOPF_DICK
 70
     0
 62
     7
  6
Continuous
370
    15
390
F
  0
ENDTAB
  0
TABLE
  2
STYLE
  5
3
330
0
100
AcDbSymbolTable
 70
     3
  0
STYLE
  5
11
330
3
100
AcDbSymbolTableRecord
100
AcDbTextStyleTableRecord
  2
Standard
 70
     0
 40
0.0
 41
1.0
 50
0.0
 71
     0
 42
2.0
  3
txt
  4

  0
STYLE
  5
48
330
3
100
AcDbSymbolTableRecord
100
AcDbTextStyleTableRecord
  2
SLDTEXTSTYLE0
 70
     0
 40
0.0
 41
0.7
 50
0.0
 71
     0
 42
0.2
  3
TXT
  4

  0
STYLE
  5
4C
330
3
100
AcDbSymbolTableRecord
100
AcDbTextStyleTableRecord
  2
SLDTEXTSTYLE1
 70
     0
 40
0.0
 41
0.6526315789
 50
0.0
 71
     0
 42
0.2
  3
TXT
  4

  0
ENDTAB
  0
TABLE
  2
VIEW
  5
6
330
0
100
AcDbSymbolTable
 70
     0
  0
ENDTAB
  0
TABLE
  2
UCS
  5
7
330
0
100
AcDbSymbolTable
 70
     0
  0
ENDTAB
  0
TABLE
  2
APPID
  5
9
330
0
100
AcDbSymbolTable
 70
     1
  0
APPID
  5
12
330
9
100
AcDbSymbolTableRecord
100
AcDbRegAppTableRecord
  2
ACAD
 70
     0
  0
ENDTAB
  0
TABLE
  2
DIMSTYLE
  5
A
330
0
100
AcDbSymbolTable
 70
     3
100
AcDbDimStyleTable
  0
DIMSTYLE
105
27
330
A
100
AcDbSymbolTableRecord
100
AcDbDimStyleTableRecord
  2
ISO-25
 70
     0
 41
2.5
 42
0.625
 43
3.75
 44
1.25
 73
     0
 74
     0
 77
     1
 78
     8
140
2.5
141
2.5
143
0.0393700787
147
0.625
171
     3
172
     1
178
     0
271
     2
272
     2
274
     3
278
    44
283
     0
284
     8
340
11
  0
DIMSTYLE
105
1E3
102
{ACAD_REACTORS
330
1E2
102
}
330
A
100
AcDbSymbolTableRecord
100
AcDbDimStyleTableRecord
  2
SLDDIMSTYLE0
 70
     0
 41
3.0
 44
0.0
 73
     0
 74
     0
 77
     1
 78
    12
 79
     3
140
2.0
147
0.5
173
     1
178
     0
272
     3
276
     2
284
    12
340
48
  0
DIMSTYLE
105
1F0
102
{ACAD_REACTORS
330
1EF
330
1FC
330
206
330
210
330
256
102
}
330
A
100
AcDbSymbolTableRecord
100
AcDbDimStyleTableRecord
  2
SLDDIMSTYLE1
 70
     0
 41
3.0
 44
0.0
 45
0.000000001
 73
     0
 74
     0
 77
     1
 78
    12
 79
     3
140
2.0
147
0.5
173
     1
178
     0
271
     2
272
     3
276
     2
284
    12
340
48
  0
ENDTAB
  0
TABLE
  2
BLOCK_RECORD
  5
1
330
0
100
AcDbSymbolTable
 70
     8
  0
BLOCK_RECORD
  5
1F
330
1
100
AcDbSymbolTableRecord
100
AcDbBlockTableRecord
  2
*Model_Space
340
22
  0
BLOCK_RECORD
  5
1B
330
1
100
AcDbSymbolTableRecord
100
AcDbBlockTableRecord
  2
*Paper_Space
340
1E
  0
BLOCK_RECORD
  5
23
330
1
100
AcDbSymbolTableRecord
100
AcDbBlockTableRecord
  2
*Paper_Space0
340
26
  0
BLOCK_RECORD
  5
1E4
330
1
100
AcDbSymbolTableRecord
100
AcDbBlockTableRecord
  2
_D
340
0
  0
BLOCK_RECORD
  5
1F1
330
1
100
AcDbSymbolTableRecord
100
AcDbBlockTableRecord
  2
_D_1
340
0
  0
BLOCK_RECORD
  5
1FD
330
1
100
AcDbSymbolTableRecord
100
AcDbBlockTableRecord
  2
_D_2
340
0
  0
BLOCK_RECORD
  5
207
330
1
100
AcDbSymbolTableRecord
100
AcDbBlockTableRecord
  2
_D_3
340
0
  0
BLOCK_RECORD
  5
211
330
1
100
AcDbSymbolTableRecord
100
AcDbBlockTableRecord
  2
_D_4
340
0
  0
BLOCK_RECORD
  5
257
330
1
100
AcDbSymbolTableRecord
100
AcDbBlockTableRecord
  2
_D_5
340
0
  0
BLOCK_RECORD
  5
261
330
1
100
AcDbSymbolTableRecord
100
AcDbBlockTableRecord
  2
SW_CENTERMARKSYMBOL_0
340
0
102
{BLKREFS
331
26C
102
}
  0
ENDTAB
  0
ENDSEC
  0
SECTION
  2
BLOCKS
  0
BLOCK
  5
20
330
1F
100
AcDbEntity
  8
0
100
AcDbBlockBegin
  2
*Model_Space
 70
     0
 10
0.0
 20
0.0
 30
0.0
  3
*Model_Space
  1

  0
ENDBLK
  5
21
330
1F
100
AcDbEntity
  8
0
100
AcDbBlockEnd
  0
BLOCK
  5
1C
330
1B
100
AcDbEntity
 67
     1
  8
0
100
AcDbBlockBegin
  2
*Paper_Space
 70
     0
 10
0.0
 20
0.0
 30
0.0
  3
*Paper_Space
  1

  0
ENDBLK
  5
1D
330
1B
100
AcDbEntity
 67
     1
  8
0
100
AcDbBlockEnd
  0
BLOCK
  5
24
330
23
100
AcDbEntity
  8
0
100
AcDbBlockBegin
  2
*Paper_Space0
 70
     0
 10
0.0
 20
0.0
 30
0.0
  3
*Paper_Space0
  1

  0
ENDBLK
  5
25
330
23
100
AcDbEntity
  8
0
100
AcDbBlockEnd
  0
BLOCK
  5
1E5
330
1E4
100
AcDbEntity
  8
0
100
AcDbBlockBegin
  2
_D
 70
     0
 10
0.0
 20
0.0
 30
0.0
  3
_D
  1

  0
ARC
  5
1E7
330
1E4
100
AcDbEntity
  8
VERMASSUNG
100
AcDbCircle
 10
263.0696096644
 20
140.8763037878
 30
0.0
 40
39.79130664297384
100
AcDbArc
 50
264.5236038322
 51
270.0
  0
ARC
  5
1E8
330
1E4
100
AcDbEntity
  8
VERMASSUNG
100
AcDbCircle
 10
263.0696096644
 20
140.8763037878
 30
0.0
 40
39.79130664297383
100
AcDbArc
 50
255.9065902322
 51
264.5236038322
  0
ARC
  5
1E9
330
1E4
100
AcDbEntity
  8
VERMASSUNG
100
AcDbCircle
 10
263.0696096644
 20
140.8763037878
 30
0.0
 40
39.79130664297384
100
AcDbArc
 50
270.0
 51
282.3473737107
  0
SOLID
  5
1EA
330
1E4
100
AcDbEntity
  8
VERMASSUNG
100
AcDbTrace
 10
259.2720993995
 20
101.2666206265
 30
0.0
 11
256.3584419524
 21
102.1110732779
 31
0.0
 12
256.2389102063
 22
101.2190462819
 32
0.0
 13
256.2389102063
 23
101.2190462819
 33
0.0
  0
SOLID
  5
1EB
330
1E4
100
AcDbEntity
  8
VERMASSUNG
100
AcDbTrace
 10
263.0696096644
 20
101.0849971449
 30
0.0
 11
266.0844138759
 21
100.7481654863
 31
0.0
 12
266.0505589204
 22
101.6475285064
 32
0.0
 13
266.0505589204
 23
101.6475285064
 33
0.0
  0
LINE
  5
1EC
330
1E4
100
AcDbEntity
  8
VERMASSUNG
100
AcDbLine
 10
260.0512972817
 20
109.3939933209
 30
0.0
 11
259.1766637231
 21
100.2711850275
 31
0.0
  0
LINE
  5
1ED
330
1E4
100
AcDbEntity
  8
VERMASSUNG
100
AcDbLine
 10
263.0696096644
 20
108.9963690491
 30
0.0
 11
263.0696096644
 21
100.0849971449
 31
0.0
  0
MTEXT
  5
1EE
330
1E4
100
AcDbEntity
  8
VERMASSUNG
100
AcDbMText
 10
267.088674431
 20
103.8579689775
 30
0.0
 40
2.0
 41
0.0
 71
     1
 72
     1
  1
5°
  7
SLDTEXTSTYLE0
 11
0.9897837346288857
 21
0.1425768517821021
 31
0.0
 73
     1
 44
1.0
  0
ENDBLK
  5
1E6
330
1E4
100
AcDbEntity
  8
0
100
AcDbBlockEnd
  0
BLOCK
  5
1F2
330
1F1
100
AcDbEntity
  8
0
100
AcDbBlockBegin
  2
_D_1
 70
     0
 10
0.0
 20
0.0
 30
0.0
  3
_D_1
  1

  0
SOLID
  5
1F4
330
1F1
100
AcDbEntity
  8
VERMASSUNG
100
AcDbTrace
 10
98.1274001522
 20
125.9378369946
 30
0.0
 11
97.6774001522
 21
122.9378369946
 31
0.0
 12
98.5774001522
 22
122.9378369946
 32
0.0
 13
98.5774001522
 23
122.9378369946
 33
0.0
  0
SOLID
  5
1F5
330
1F1
100
AcDbEntity
  8
VERMASSUNG
100
AcDbTrace
 10
98.1274001522
 20
85.9378369946
 30
0.0
 11
98.5774001522
 21
88.9378369946
 31
0.0
 12
97.6774001522
 22
88.9378369946
 32
0.0
 13
97.6774001522
 23
88.9378369946
 33
0.0
  0
LINE
  5
1F6
330
1F1
100
AcDbEntity
  8
VERMASSUNG
100
AcDbLine
 10
123.3696096644
 20
125.9378369946
 30
0.0
 11
97.1274001522
 21
125.9378369946
 31
0.0
  0
LINE
  5
1F7
330
1F1
100
AcDbEntity
  8
VERMASSUNG
100
AcDbLine
 10
123.3696096644
 20
85.9378369946
 30
0.0
 11
97.1274001522
 21
85.9378369946
 31
0.0
  0
LINE
  5
1F8
330
1F1
100
AcDbEntity
  8
VERMASSUNG
100
AcDbLine
 10
98.1274001522
 20
125.9378369946
 30
0.0
 11
98.1274001522
 21
85.9378369946
 31
0.0
  0
MTEXT
  5
1F9
330
1F1
100
AcDbEntity
  8
VERMASSUNG
100
AcDbMText
 10
95.3492646632
 20
99.6337389949
 30
0.0
 40
2.0
 41
0.0
 71
     1
 72
     1
  1
HSK
  7
SLDTEXTSTYLE0
 11
-7.044195017643634E-15
 21
1.0
 31
0.0
 73
     1
 44
1.0
  0
MTEXT
  5
1FA
330
1F1
100
AcDbEntity
  8
VERMASSUNG
100
AcDbMText
 10
95.5492646727
 20
105.633739047
 30
0.0
 40
2.0
 41
0.0
 71
     1
 72
     1
  1
%%c
  7
SLDTEXTSTYLE0
 11
-7.044195017643634E-15
 21
1.0
 31
0.0
 73
     1
 44
1.0
  0
MTEXT
  5
1FB
330
1F1
100
AcDbEntity
  8
VERMASSUNG
100
AcDbMText
 10
95.5492647891
 20
109.2433611253
 30
0.0
 40
2.0
 41
0.0
 71
     1
 72
     1
  1
40
  7
SLDTEXTSTYLE0
 11
-7.044195017643634E-15
 21
1.0
 31
0.0
 73
     1
 44
1.0
  0
ENDBLK
  5
1F3
330
1F1
100
AcDbEntity
  8
0
100
AcDbBlockEnd
  0
BLOCK
  5
1FE
330
1FD
100
AcDbEntity
  8
0
100
AcDbBlockBegin
  2
_D_2
 70
     0
 10
0.0
 20
0.0
 30
0.0
  3
_D_2
  1

  0
SOLID
  5
200
330
1FD
100
AcDbEntity
  8
VERMASSUNG
100
AcDbTrace
 10
271.8675904454
 20
122.9378369946
 30
0.0
 11
271.4175904454
 21
119.9378369946
 31
0.0
 12
272.3175904454
 22
119.9378369946
 32
0.0
 13
272.3175904454
 23
119.9378369946
 33
0.0
  0
SOLID
  5
201
330
1FD
100
AcDbEntity
  8
VERMASSUNG
100
AcDbTrace
 10
271.8675904454
 20
105.9378369946
 30
0.0
 11
272.3175904454
 21
108.9378369946
 31
0.0
 12
271.4175904454
 22
108.9378369946
 32
0.0
 13
271.4175904454
 23
108.9378369946
 33
0.0
  0
LINE
  5
202
330
1FD
100
AcDbEntity
  8
VERMASSUNG
100
AcDbLine
 10
263.0696096644
 20
122.9378369946
 30
0.0
 11
272.8675904454
 21
122.9378369946
 31
0.0
  0
LINE
  5
203
330
1FD
100
AcDbEntity
  8
VERMASSUNG
100
AcDbLine
 10
262.6633029544
 20
105.9378369946
 30
0.0
 11
272.8675904454
 21
105.9378369946
 31
0.0
  0
LINE
  5
204
330
1FD
100
AcDbEntity
  8
VERMASSUNG
100
AcDbLine
 10
271.8675904454
 20
122.9378369946
 30
0.0
 11
271.8675904454
 21
105.9378369946
 31
0.0
  0
MTEXT
  5
205
330
1FD
100
AcDbEntity
  8
VERMASSUNG
100
AcDbMText
 10
269.2894550822
 20
113.2381628651
 30
0.0
 40
2.0
 41
0.0
 71
     1
 72
     1
  1
17
  7
SLDTEXTSTYLE0
 11
-7.044195017643634E-15
 21
1.0
 31
0.0
 73
     1
 44
1.0
  0
ENDBLK
  5
1FF
330
1FD
100
AcDbEntity
  8
0
100
AcDbBlockEnd
  0
BLOCK
  5
208
330
207
100
AcDbEntity
  8
0
100
AcDbBlockBegin
  2
_D_3
 70
     0
 10
0.0
 20
0.0
 30
0.0
  3
_D_3
  1

  0
SOLID
  5
20A
330
207
100
AcDbEntity
  8
VERMASSUNG
100
AcDbTrace
 10
123.0696096644
 20
130.4078709677
 30
0.0
 11
126.0696096644
 21
129.9578709677
 31
0.0
 12
126.0696096644
 22
130.8578709677
 32
0.0
 13
126.0696096644
 23
130.8578709677
 33
0.0
  0
SOLID
  5
20B
330
207
100
AcDbEntity
  8
VERMASSUNG
100
AcDbTrace
 10
263.0696096644
 20
130.4078709677
 30
0.0
 11
260.0696096644
 21
130.8578709677
 31
0.0
 12
260.0696096644
 22
129.9578709677
 32
0.0
 13
260.0696096644
 23
129.9578709677
 33
0.0
  0
LINE
  5
20C
330
207
100
AcDbEntity
  8
VERMASSUNG
100
AcDbLine
 10
123.0696096644
 20
125.6378369946
 30
0.0
 11
123.0696096644
 21
131.4078709677
 31
0.0
  0
LINE
  5
20D
330
207
100
AcDbEntity
  8
VERMASSUNG
100
AcDbLine
 10
263.0696096644
 20
122.9378369946
 30
0.0
 11
263.0696096644
 21
131.4078709677
 31
0.0
  0
LINE
  5
20E
330
207
100
AcDbEntity
  8
VERMASSUNG
100
AcDbLine
 10
123.0696096644
 20
130.4078709677
 30
0.0
 11
263.0696096644
 21
130.4078709677
 31
0.0
  0
MTEXT
  5
20F
330
207
100
AcDbEntity
  8
VERMASSUNG
100
AcDbMText
 10
191.0701527818
 20
132.9860063309
 30
0.0
 40
2.0
 41
0.0
 71
     1
 72
     1
  1
140
  7
SLDTEXTSTYLE0
 73
     1
 44
1.0
  0
ENDBLK
  5
209
330
207
100
AcDbEntity
  8
0
100
AcDbBlockEnd
  0
BLOCK
  5
212
330
211
100
AcDbEntity
  8
0
100
AcDbBlockBegin
  2
_D_4
 70
     0
 10
0.0
 20
0.0
 30
0.0
  3
_D_4
  1

  0
SOLID
  5
214
330
211
100
AcDbEntity
  8
VERMASSUNG
100
AcDbTrace
 10
103.1696096644
 20
136.4078709677
 30
0.0
 11
106.1696096644
 21
135.9578709677
 31
0.0
 12
106.1696096644
 22
136.8578709677
 32
0.0
 13
106.1696096644
 23
136.8578709677
 33
0.0
  0
SOLID
  5
215
330
211
100
AcDbEntity
  8
VERMASSUNG
100
AcDbTrace
 10
263.0696096644
 20
136.4078709677
 30
0.0
 11
260.0696096644
 21
136.8578709677
 31
0.0
 12
260.0696096644
 22
135.9578709677
 32
0.0
 13
260.0696096644
 23
135.9578709677
 33
0.0
  0
LINE
  5
216
330
211
100
AcDbEntity
  8
VERMASSUNG
100
AcDbLine
 10
103.1696096644
 20
117.8678369946
 30
0.0
 11
103.1696096644
 21
137.4078709677
 31
0.0
  0
LINE
  5
217
330
211
100
AcDbEntity
  8
VERMASSUNG
100
AcDbLine
 10
263.0696096644
 20
122.9378369946
 30
0.0
 11
263.0696096644
 21
137.4078709677
 31
0.0
  0
LINE
  5
218
330
211
100
AcDbEntity
  8
VERMASSUNG
100
AcDbLine
 10
103.1696096644
 20
136.4078709677
 30
0.0
 11
263.0696096644
 21
136.4078709677
 31
0.0
  0
MTEXT
  5
219
330
211
100
AcDbEntity
  8
VERMASSUNG
100
AcDbMText
 10
180.2200914573
 20
138.9860063309
 30
0.0
 40
2.0
 41
0.0
 71
     1
 72
     1
  1
159.9
  7
SLDTEXTSTYLE0
 73
     1
 44
1.0
  0
ENDBLK
  5
213
330
211
100
AcDbEntity
  8
0
100
AcDbBlockEnd
  0
BLOCK
  5
258
330
257
100
AcDbEntity
  8
0
100
AcDbBlockBegin
  2
_D_5
 70
     0
 10
0.0
 20
0.0
 30
0.0
  3
_D_5
  1

  0
SOLID
  5
25A
330
257
100
AcDbEntity
  8
VERMASSUNG
100
AcDbTrace
 10
30.2365478801
 20
90.8979095904
 30
0.0
 11
30.6865478801
 21
93.8979095904
 31
0.0
 12
29.7865478801
 22
93.8979095904
 32
0.0
 13
29.7865478801
 23
93.8979095904
 33
0.0
  0
SOLID
  5
25B
330
257
100
AcDbEntity
  8
VERMASSUNG
100
AcDbTrace
 10
30.2365478801
 20
122.8979095904
 30
0.0
 11
29.7865478801
 21
119.8979095904
 31
0.0
 12
30.6865478801
 22
119.8979095904
 32
0.0
 13
30.6865478801
 23
119.8979095904
 33
0.0
  0
LINE
  5
25C
330
257
100
AcDbEntity
  8
VERMASSUNG
100
AcDbLine
 10
52.9145540502
 20
90.8979095904
 30
0.0
 11
29.2365478801
 21
90.8979095904
 31
0.0
  0
LINE
  5
25D
330
257
100
AcDbEntity
  8
VERMASSUNG
100
AcDbLine
 10
52.9145540502
 20
122.8979095904
 30
0.0
 11
29.2365478801
 21
122.8979095904
 31
0.0
  0
LINE
  5
25E
330
257
100
AcDbEntity
  8
VERMASSUNG
100
AcDbLine
 10
30.2365478801
 20
90.8979095904
 30
0.0
 11
30.2365478801
 21
122.8979095904
 31
0.0
  0
MTEXT
  5
25F
330
257
100
AcDbEntity
  8
VERMASSUNG
100
AcDbMText
 10
27.6584124006
 20
103.4917538884
 30
0.0
 40
2.0
 41
0.0
 71
     1
 72
     1
  1
%%c
  7
SLDTEXTSTYLE0
 11
6.123233995736766E-17
 21
1.0
 31
0.0
 73
     1
 44
1.0
  0
MTEXT
  5
260
330
257
100
AcDbEntity
  8
VERMASSUNG
100
AcDbMText
 10
27.658412517
 20
107.0993366429
 30
0.0
 40
2.0
 41
0.0
 71
     1
 72
     1
  1
32
  7
SLDTEXTSTYLE0
 11
6.123233995736766E-17
 21
1.0
 31
0.0
 73
     1
 44
1.0
  0
ENDBLK
  5
259
330
257
100
AcDbEntity
  8
0
100
AcDbBlockEnd
  0
BLOCK
  5
262
330
261
100
AcDbEntity
  8
0
100
AcDbBlockBegin
  2
SW_CENTERMARKSYMBOL_0
 70
     0
 10
0.0
 20
0.0
 30
0.0
  3
SW_CENTERMARKSYMBOL_0
  1

  0
LINE
  5
264
330
261
100
AcDbEntity
  8
VERMASSUNG
 62
     0
100
AcDbLine
 10
0.0
 20
0.0
 30
0.0
 11
0.0
 21
2.5
 31
0.0
  0
LINE
  5
265
330
261
100
AcDbEntity
  8
VERMASSUNG
 62
     0
100
AcDbLine
 10
0.0
 20
0.0
 30
0.0
 11
-2.5
 21
0.0
 31
0.0
  0
LINE
  5
266
330
261
100
AcDbEntity
  8
VERMASSUNG
 62
     0
100
AcDbLine
 10
0.0
 20
0.0
 30
0.0
 11
0.0
 21
-2.5
 31
0.0
  0
LINE
  5
267
330
261
100
AcDbEntity
  8
VERMASSUNG
 62
     0
100
AcDbLine
 10
0.0
 20
0.0
 30
0.0
 11
2.5
 21
0.0
 31
0.0
  0
LINE
  5
268
330
261
100
AcDbEntity
  8
VERMASSUNG
 62
     0
100
AcDbLine
 10
0.0
 20
5.0
 30
0.0
 11
0.0
 21
22.5
 31
0.0
  0
LINE
  5
269
330
261
100
AcDbEntity
  8
VERMASSUNG
 62
     0
100
AcDbLine
 10
-5.0
 20
0.0
 30
0.0
 11
-22.5
 21
0.0
 31
0.0
  0
LINE
  5
26A
330
261
100
AcDbEntity
  8
VERMASSUNG
 62
     0
100
AcDbLine
 10
0.0
 20
-5.0
 30
0.0
 11
0.0
 21
-22.5
 31
0.0
  0
LINE
  5
26B
330
261
100
AcDbEntity
  8
VERMASSUNG
 62
     0
100
AcDbLine
 10
5.0
 20
0.0
 30
0.0
 11
22.5
 21
0.0
 31
0.0
  0
ENDBLK
  5
263
330
261
100
AcDbEntity
  8
0
100
AcDbBlockEnd
  0
ENDSEC
  0
SECTION
  2
ENTITIES
  0
MTEXT
  5
49
330
1F
100
AcDbEntity
  8
KOPF_DÜNN
100
AcDbMText
 10
13.8892156294
 20
23.8442973028
 30
0.0
 40
3.0
 41
0.0
 71
     1
 72
     1
  1
HA4.BCC.RLA.140
  7
SLDTEXTSTYLE0
 73
     1
 44
1.0
  0
MTEXT
  5
4A
330
1F
100
AcDbEntity
  8
VERMASSUNG
100
AcDbMText
 10
13.9329988022
 20
28.8834360957
 30
0.0
 40
3.0
 41
0.0
 71
     1
 72
     1
  1
Bohrstange_Boring bar
  7
SLDTEXTSTYLE0
 73
     1
 44
1.0
  0
MTEXT
  5
4B
330
1F
100
AcDbEntity
  8
VERMASSUNG
100
AcDbMText
 10
98.8601118557
 20
13.8365368179
 30
0.0
 40
2.0
 41
0.0
 71
     1
 72
     1
  1
Datum: 21.11.2006
  7
SLDTEXTSTYLE0
 73
     1
 44
1.0
  0
MTEXT
  5
4D
330
1F
100
AcDbEntity
  8
VERMASSUNG
100
AcDbMText
 10
13.933048693
 20
18.0482802738
 30
0.0
 40
2.0
 41
0.0
 71
     1
 72
     1
  1
DIN 69893 HSK 40 A ICTM / CC.. 12 04..
  7
SLDTEXTSTYLE1
 73
     1
 44
1.0
  0
MTEXT
  5
4E
330
1F
100
AcDbEntity
  8
VERMASSUNG
100
AcDbMText
 10
13.9808475933
 20
13.9090973692
 30
0.0
 40
2.0
 41
0.0
 71
     1
 72
     1
  1
Gewicht: 572g
  7
SLDTEXTSTYLE0
 73
     1
 44
1.0
  0
LINE
  5
4F
330
1F
100
AcDbEntity
  8
0
  6
Continuous
 62
     7
370
    15
100
AcDbLine
 10
254.6860381588
 20
115.5602469344
 30
0.0
 11
254.6860381588
 21
115.6718873654
 31
0.0
  0
LINE
  5
50
330
1F
100
AcDbEntity
  8
0
  6
Continuous
 62
     7
370
    15
100
AcDbLine
 10
257.4859961495
 20
116.2485325013
 30
0.0
 11
257.4859961495
 21
116.1368604053
 31
0.0
  0
LINE
  5
51
330
1F
100
AcDbEntity
  8
0
  6
Continuous
 62
     7
370
    15
100
AcDbLine
 10
252.5842144713
 20
115.9345752795
 30
0.0
 11
252.5842144713
 21
115.9206240673
 31
0.0
  0
LINE
  5
52
330
1F
100
AcDbEntity
  8
0
  6
Continuous
 62
     7
370
    15
100
AcDbLine
 10
259.584213756
 20
115.9206240673
 30
0.0
 11
259.584213756
 21
115.9345752795
 31
0.0
  0
LINE
  5
53
330
1F
100
AcDbEntity
  8
0
  6
Continuous
 62
     7
370
    15
100
AcDbLine
 10
123.3696096786
 20
85.9378374417
 30
0.0
 11
131.0196101293
 21
85.9378374417
 31
0.0
  0
LINE
  5
54
330
1F
100
AcDbEntity
  8
0
  6
Continuous
 62
     7
370
    15
100
AcDbLine
 10
131.0737572238
 20
125.9378365476
 30
0.0
 11
123.3696096786
 21
125.9378365476
 31
0.0
  0
ARC
  5
55
330
1F
100
AcDbEntity
  8
0
  6
Continuous
 62
     7
370
    15
100
AcDbCircle
 10
123.3696096644
 20
86.2378369946
 30
0.0
 40
0.3000000000000114
100
AcDbArc
 50
180.0
 51
270.0
  0
ARC
  5
56
330
1F
100
AcDbEntity
  8
0
  6
Continuous
 62
     7
370
    15
100
AcDbCircle
 10
123.3696096644
 20
125.6378369946
 30
0.0
 40
0.3000000000000114
100
AcDbArc
 50
90.0
 51
180.0
  0
ARC
  5
57
330
1F
100
AcDbEntity
  8
0
  6
Continuous
 62
     7
370
    15
100
AcDbCircle
 10
122.5696096644
 20
90.4841365938
 30
0.0
 40
0.6000000000000019
100
AcDbArc
 50
33.5573097619
 51
90.0
  0
ARC
  5
58
330
1F
100
AcDbEntity
  8
0
  6
Continuous
 62
     7
370
    15
100
AcDbCircle
 10
122.5696096644
 20
121.3915373954
 30
0.0
 40
0.6000000000000019
100
AcDbArc
 50
270.0
 51
326.4426902381
  0
LINE
  5
59
330
1F
100
AcDbEntity
  8
0
  6
Continuous
 62
     7
370
    15
100
AcDbLine
 10
114.305392988
 20
120.7026488383
 30
0.0
 11
106.769609414
 21
120.3251046364
 31
0.0
  0
LINE
  5
5A
330
1F
100
AcDbEntity
  8
0
  6
Continuous
 62
     7
370
    15
100
AcDbLine
 10
121.0696095694
 20
121.0415375654
 30
0.0
 11
119.7823015135
 21
120.9770425458
 31
0.0
  0
LINE
  5
5B
330
1F
100
AcDbEntity
  8
0
  6
Continuous
 62
     7
370
    15
100
AcDbLine
 10
119.7823895235
 20
90.8986267869
 30
0.0
 11
121.0696095694
 21
90.8341364239
 31
0.0
  0
LINE
  5
5C
330
1F
100
AcDbEntity
  8
0
  6
Continuous
 62
     7
370
    15
100
AcDbLine
 10
109.2696098238
 20
91.4253185738
 30
0.0
 11
114.3067154661
 21
91.1729590271
 31
0.0
  0
LINE
  5
5D
330
1F
100
AcDbEntity
  8
0
  6
Continuous
 62
     7
370
    15
100
AcDbLine
 10
121.0696095694
 20
90.8341364239
 30
0.0
 11
121.9263224956
 21
91.0636925374
 31
0.0
  0
LINE
  5
5E
330
1F
100
AcDbEntity
  8
0
  6
Continuous
 62
     7
370
    15
100
AcDbLine
 10
121.9263224956
 20
120.8119814519
 30
0.0
 11
121.0696095694
 21
121.0415375654
 31
0.0
  0
ARC
  5
5F
330
1F
100
AcDbEntity
  8
0
  6
Continuous
 62
     7
370
    15
100
AcDbCircle
 10
122.0816138648
 20
90.4841365938
 30
0.0
 40
0.5999999999999934
100
AcDbArc
 50
90.0
 51
105.0
  0
ARC
  5
60
330
1F
100
AcDbEntity
  8
0
  6
Continuous
 62
     7
370
    15
100
AcDbCircle
 10
122.0816138648
 20
121.3915373954
 30
0.0
 40
0.5999999999999943
100
AcDbArc
 50
255.0
 51
270.0
  0
LINE
  5
61
330
1F
100
AcDbEntity
  8
0
  6
Continuous
 62
     7
370
    15
100
AcDbLine
 10
122.0816138992
 20
91.0841369305
 30
0.0
 11
122.5696096406
 21
91.0841369305
 31
0.0
  0
LINE
  5
62
330
1F
100
AcDbEntity
  8
0
  6
Continuous
 62
     7
370
    15
100
AcDbLine
 10
122.5696096406
 20
120.7915370588
 30
0.0
 11
122.0816138992
 21
120.7915370588
 31
0.0
  0
ARC
  5
63
330
1F
100
AcDbEntity
  8
0
  6
Continuous
 62
     7
370
    15
100
AcDbCircle
 10
144.0196096644
 20
92.4378369946
 30
0.0
 40
1.0
100
AcDbArc
 50
90.0
 51
180.0
  0
ARC
  5
64
330
1F
100
AcDbEntity
  8
0
  6
Continuous
 62
     7
370
    15
100
AcDbCircle
 10
144.0196096644
 20
119.4378369946
 30
0.0
 40
1.0
100
AcDbArc
 50
180.0
 51
270.0
  0
LINE
  5
65
330
1F
100
AcDbEntity
  8
0
  6
Continuous
 62
     7
370
    15
100
AcDbLine
 10
144.0196103975
 20
93.4378368084
 30
0.0
 11
239.0696063265
 21
93.4378368084
 31
0.0
  0
LINE
  5
66
330
1F
100
AcDbEntity
  8
0
  6
Continuous
 62
     7
370
    15
100
AcDbLine
 10
234.2861324176
 20
118.4378371809
 30
0.0
 11
144.0196103975
 21
118.4378371809
 31
0.0
  0
LINE
  5
67
330
1F
100
AcDbEntity
  8
0
  6
Continuous
 62
     7
370
    15
100
AcDbLine
 10
239.0696063265
 20
118.4378371809
 30
0.0
 11
234.2861324176
 21
118.4378371809
 31
0.0
  0
ARC
  5
68
330
1F
100
AcDbEntity
  8
0
  6
Continuous
 62
     7
370
    15
100
AcDbCircle
 10
105.8696096644
 20
119.7178369946
 30
0.0
 40
0.9000000000000005
100
AcDbArc
 50
270.0
 51
311.1792132368
  0
ARC
  5
69
330
1F
100
AcDbEntity
  8
0
  6
Continuous
 62
     7
370
    15
100
AcDbCircle
 10
108.3696096644
 20
92.2168369946
 30
0.0
 40
0.8999999999999964
100
AcDbArc
 50
30.4426030216
 51
90.0
  0
LINE
  5
6A
330
1F
100
AcDbEntity
  8
0
  6
Continuous
 62
     7
370
    15
100
AcDbLine
 10
104.1196092591
 20
118.8178372804
 30
0.0
 11
103.1696099415
 21
117.8678370316
 31
0.0
  0
LINE
  5
6B
330
1F
100
AcDbEntity
  8
0
  6
Continuous
 62
     7
370
    15
100
AcDbLine
 10
105.8696090803
 20
118.8178372804
 30
0.0
 11
104.1196092591
 21
118.8178372804
 31
0.0
  0
LINE
  5
6C
330
1F
100
AcDbEntity
  8
0
  6
Continuous
 62
     7
370
    15
100
AcDbLine
 10
104.1196092591
 20
93.1168369253
 30
0.0
 11
108.36960949
 21
93.1168369253
 31
0.0
  0
LINE
  5
6D
330
1F
100
AcDbEntity
  8
0
  6
Continuous
 62
     7
370
    15
100
AcDbLine
 10
103.1696099415
 20
94.0668371741
 30
0.0
 11
104.1196092591
 21
93.1168369253
 31
0.0
  0
LINE
  5
6E
330
1F
100
AcDbEntity
  8
0
  6
Continuous
 62
     7
370
    15
100
AcDbLine
 10
239.5696073398
 20
92.9378367264
 30
0.0
 11
244.7809308395
 21
92.9378367264
 31
0.0
  0
LINE
  5
6F
330
1F
100
AcDbEntity
  8
0
  6
Continuous
 62
     7
370
    15
100
AcDbLine
 10
239.0696063265
 20
93.4378368084
 30
0.0
 11
239.5696073398
 21
92.9378367264
 31
0.0
  0
CIRCLE
  5
70
330
1F
100
AcDbEntity
  8
0
  6
Continuous
 62
     7
370
    15
100
AcDbCircle
 10
256.0898645733
 20
115.9343450024
 30
0.0
 40
3.494278136758143
  0
CIRCLE
  5
71
330
1F
100
AcDbEntity
  8
0
  6
Continuous
 62
     7
370
    15
100
AcDbCircle
 10
256.0884448849
 20
115.9694074556
 30
0.0
 40
2.629662697963994
  0
CIRCLE
  5
72
330
1F
100
AcDbEntity
  8
0
  6
Continuous
 62
     7
370
    15
100
AcDbCircle
 10
256.0876966996
 20
115.969556119
 30
0.0
 40
1.996445019621867
  0
SPLINE
  5
73
330
1F
100
AcDbEntity
  8
0
  6
Continuous
 62
     7
370
    15
100
AcDbSpline
210
0.0
220
0.0
230
1.0
 70
     8
 71
     3
 72
    15
 73
    11
 74
     0
 42
0.00000001
 43
0.00000001
 12
1.0
 22
0.0
 32
0.0
 13
1.0
 23
0.0
 33
0.0
 40
0.0
 40
0.0
 40
0.0
 40
0.0
 40
0.1262419390413297
 40
0.2533635654285467
 40
0.379419406202589
 40
0.5042664669034873
 40
0.6284509467783566
 40
0.7526371065096433
 40
0.8774894501240684
 40
1.0
 40
1.0
 40
1.0
 40
1.0
 10
256.2372639402744
 20
117.6650359530378
 30
0.0
 10
256.2173437010755
 20
117.7050234639228
 30
0.0
 10
256.1773644131627
 20
117.7852771292845
 30
0.0
 10
256.0711573289535
 20
117.8720072981993
 30
0.0
 10
255.9449761959053
 20
117.9200433016029
 30
0.0
 10
255.8103478162483
 20
117.9227464895203
 30
0.0
 10
255.6830382373824
 20
117.8810105061708
 30
0.0
 10
255.5774398907262
 20
117.7996393513421
 30
0.0
 10
255.501764191614
 20
117.6887931965438
 30
0.0
 10
255.4855158775136
 20
117.6027860012278
 30
0.0
 10
255.4774686321612
 20
117.5601895202327
 30
0.0
  0
SPLINE
  5
74
330
1F
100
AcDbEntity
  8
0
  6
Continuous
 62
     7
370
    15
100
AcDbSpline
210
0.0
220
0.0
230
1.0
 70
     8
 71
     3
 72
    12
 73
     8
 74
     0
 42
0.00000001
 43
0.00000001
 12
1.0
 22
0.0
 32
0.0
 13
1.0
 23
0.0
 33
0.0
 40
0.0
 40
0.0
 40
0.0
 40
0.0
 40
0.2058750895638936
 40
0.4120978211731053
 40
0.6141730785144869
 40
0.8132882189872408
 40
1.0
 40
1.0
 40
1.0
 40
1.0
 10
255.4774686321612
 20
117.5601895202327
 30
0.0
 10
255.4628754096562
 20
117.4838338457809
 30
0.0
 10
255.4336643224336
 20
117.3309935621778
 30
0.0
 10
255.2976770885671
 20
117.1362073375199
 30
0.0
 10
255.1123717025253
 20
116.9989068473624
 30
0.0
 10
254.898146908328
 20
116.9283962361023
 30
0.0
 10
254.7541951690621
 20
116.9395650515111
 30
0.0
 10
254.684533141553
 20
116.9449699346352
 30
0.0
  0
SPLINE
  5
75
330
1F
100
AcDbEntity
  8
0
  6
Continuous
 62
     7
370
    15
100
AcDbSpline
210
0.0
220
0.0
230
1.0
 70
     8
 71
     3
 72
    15
 73
    11
 74
     0
 42
0.00000001
 43
0.00000001
 12
1.0
 22
0.0
 32
0.0
 13
1.0
 23
0.0
 33
0.0
 40
0.0
 40
0.0
 40
0.0
 40
0.0
 40
0.1268705330197694
 40
0.2539931705417685
 40
0.3800529239242385
 40
0.5048999972436998
 40
0.6290827610060624
 40
0.7532680197732406
 40
0.8781247028517096
 40
1.0
 40
1.0
 40
1.0
 40
1.0
 10
254.684533141553
 20
116.9449699346352
 30
0.0
 10
254.6400372664288
 20
116.9479772075896
 30
0.0
 10
254.5509570984036
 20
116.953997729252
 30
0.0
 10
254.4233135018776
 20
116.9058292424532
 30
0.0
 10
254.3192169117084
 20
116.8209865422161
 30
0.0
 10
254.2499384943169
 20
116.7060065563715
 30
0.0
 10
254.2225352199383
 20
116.5749946350066
 30
0.0
 10
254.2400187531569
 20
116.4427758114727
 30
0.0
 10
254.297644918499
 20
116.3217805694855
 30
0.0
 10
254.3632420735703
 20
116.2644611659379
 30
0.0
 10
254.3956443294879
 20
116.2361477736759
 30
0.0
  0
SPLINE
  5
76
330
1F
100
AcDbEntity
  8
0
  6
Continuous
 62
     7
370
    15
100
AcDbSpline
210
0.0
220
0.0
230
1.0
 70
     8
 71
     3
 72
    12
 73
     8
 74
     0
 42
0.00000001
 43
0.00000001
 12
1.0
 22
0.0
 32
0.0
 13
1.0
 23
0.0
 33
0.0
 40
0.0
 40
0.0
 40
0.0
 40
0.0
 40
0.2058002853345661
 40
0.412003025413096
 40
0.6140579153881748
 40
0.8131847125805404
 40
1.0
 40
1.0
 40
1.0
 40
1.0
 10
254.3956443294879
 20
116.2361477736759
 30
0.0
 10
254.4539249514482
 20
116.1849861903853
 30
0.0
 10
254.5706001666043
 20
116.0825629742737
 30
0.0
 10
254.6705781214231
 20
115.8670905690926
 30
0.0
 10
254.6972701144618
 20
115.6384259699604
 30
0.0
 10
254.652560747508
 20
115.418747466967
 30
0.0
 10
254.5721898788555
 20
115.3006836550963
 30
0.0
 10
254.5332863554355
 20
115.243534860425
 30
0.0
  0
SPLINE
  5
77
330
1F
100
AcDbEntity
  8
0
  6
Continuous
 62
     7
370
    15
100
AcDbSpline
210
0.0
220
0.0
230
1.0
 70
     8
 71
     3
 72
    15
 73
    11
 74
     0
 42
0.00000001
 43
0.00000001
 12
1.0
 22
0.0
 32
0.0
 13
1.0
 23
0.0
 33
0.0
 40
0.0
 40
0.0
 40
0.0
 40
0.0
 40
0.1268051713630582
 40
0.2539284169387275
 40
0.3799905214431641
 40
0.5048407493589878
 40
0.6290305126888486
 40
0.7532056772243413
 40
0.8780546708951431
 40
1.0
 40
1.0
 40
1.0
 40
1.0
 10
254.5332863554355
 20
115.243534860425
 30
0.0
 10
254.5088449185323
 20
115.2068540834886
 30
0.0
 10
254.4599007365733
 20
115.1334005206771
 30
0.0
 10
254.4387638477571
 20
114.9995841710888
 30
0.0
 10
254.4609154868885
 20
114.8675556164527
 30
0.0
 10
254.5262233404793
 20
114.7502862647236
 30
0.0
 10
254.6260571991402
 20
114.6609864979592
 30
0.0
 10
254.7489955616586
 20
114.6096325869521
 30
0.0
 10
254.8819875860126
 20
114.5983753390473
 30
0.0
 10
254.9637785341184
 20
114.625939926016
 30
0.0
 10
255.0041928514835
 20
114.6395600635934
 30
0.0
  0
SPLINE
  5
78
330
1F
100
AcDbEntity
  8
0
  6
Continuous
 62
     7
370
    15
100
AcDbSpline
210
0.0
220
0.0
230
1.0
 70
     8
 71
     3
 72
    12
 73
     8
 74
     0
 42
0.00000001
 43
0.00000001
 12
1.0
 22
0.0
 32
0.0
 13
1.0
 23
0.0
 33
0.0
 40
0.0
 40
0.0
 40
0.0
 40
0.0
 40
0.2058493049724207
 40
0.412051815350847
 40
0.6141079831273426
 40
0.81324450146277
 40
1.0
 40
1.0
 40
1.0
 40
1.0
 10
255.0041928514835
 20
114.6395600635934
 30
0.0
 10
255.0770730674542
 20
114.6639289792831
 30
0.0
 10
255.2229585505162
 20
114.7127086239334
 30
0.0
 10
255.4589146544524
 20
114.6907013305131
 30
0.0
 10
255.6708456724545
 20
114.5994388372188
 30
0.0
 10
255.8403764500412
 20
114.4516719044895
 30
0.0
 10
255.9039759736182
 20
114.3239687553071
 30
0.0
 10
255.934755466878
 20
114.2621658046174
 30
0.0
  0
SPLINE
  5
79
330
1F
100
AcDbEntity
  8
0
  6
Continuous
 62
     7
370
    15
100
AcDbSpline
210
0.0
220
0.0
230
1.0
 70
     8
 71
     3
 72
    15
 73
    11
 74
     0
 42
0.00000001
 43
0.00000001
 12
1.0
 22
0.0
 32
0.0
 13
1.0
 23
0.0
 33
0.0
 40
0.0
 40
0.0
 40
0.0
 40
0.0
 40
0.1262546029497009
 40
0.2533791405316598
 40
0.3794478649125724
 40
0.5043077351963579
 40
0.6284786425567177
 40
0.7526641520182628
 40
0.877512898152415
 40
1.0
 40
1.0
 40
1.0
 40
1.0
 10
255.934755466878
 20
114.2621658046174
 30
0.0
 10
255.9546813520914
 20
114.2231095409551
 30
0.0
 10
255.994670418246
 20
114.1447279034707
 30
0.0
 10
256.1008776982974
 20
114.0600348262629
 30
0.0
 10
256.2270733790505
 20
114.0132935139744
 30
0.0
 10
256.3617077028025
 20
114.0110028561827
 30
0.0
 10
256.4890145200461
 20
114.0522903245902
 30
0.0
 10
256.5946072114275
 20
114.1323461908616
 30
0.0
 10
256.6702844862119
 20
114.241153494479
 30
0.0
 10
256.6865236317455
 20
114.3253278521701
 30
0.0
 10
256.6945656761524
 20
114.3670131687451
 30
0.0
  0
SPLINE
  5
7A
330
1F
100
AcDbEntity
  8
0
  6
Continuous
 62
     7
370
    15
100
AcDbSpline
210
0.0
220
0.0
230
1.0
 70
     8
 71
     3
 72
    12
 73
     8
 74
     0
 42
0.00000001
 43
0.00000001
 12
1.0
 22
0.0
 32
0.0
 13
1.0
 23
0.0
 33
0.0
 40
0.0
 40
0.0
 40
0.0
 40
0.0
 40
0.2058740080503248
 40
0.4120981817690461
 40
0.6141691015038024
 40
0.8133132303920756
 40
1.0
 40
1.0
 40
1.0
 40
1.0
 10
256.6945656761524
 20
114.3670131687451
 30
0.0
 10
256.7091587716699
 20
114.4417656890001
 30
0.0
 10
256.7383697837162
 20
114.5913978740996
 30
0.0
 10
256.8743593140572
 20
114.7835985188772
 30
0.0
 10
257.0596549297608
 20
114.9211095994089
 30
0.0
 10
257.273883558941
 20
114.9943306272821
 30
0.0
 10
257.4178346172623
 20
114.9861776331542
 30
0.0
 10
257.4874862655994
 20
114.9822327543426
 30
0.0
  0
SPLINE
  5
7B
330
1F
100
AcDbEntity
  8
0
  6
Continuous
 62
     7
370
    15
100
AcDbSpline
210
0.0
220
0.0
230
1.0
 70
     8
 71
     3
 72
    15
 73
    11
 74
     0
 42
0.00000001
 43
0.00000001
 12
1.0
 22
0.0
 32
0.0
 13
1.0
 23
0.0
 33
0.0
 40
0.0
 40
0.0
 40
0.0
 40
0.0
 40
0.1268809643700543
 40
0.2539855143584058
 40
0.380038670908032
 40
0.5048781545121321
 40
0.6290574640486326
 40
0.7532433978185717
 40
0.8780992912011891
 40
1.0
 40
1.0
 40
1.0
 40
1.0
 10
257.4874862655994
 20
114.9822327543426
 30
0.0
 10
257.531987377011
 20
114.9801605526779
 30
0.0
 10
257.6210680182839
 20
114.9760124977804
 30
0.0
 10
257.7487078098357
 20
115.0262320489584
 30
0.0
 10
257.8528037731795
 20
115.1123471637077
 30
0.0
 10
257.9220761487669
 20
115.2277282366166
 30
0.0
 10
257.9495056771959
 20
115.3582636886376
 30
0.0
 10
257.932009551733
 20
115.4891595152794
 30
0.0
 10
257.8744034657343
 20
115.6081368621874
 30
0.0
 10
257.8087992466475
 20
115.6636371233693
 30
0.0
 10
257.7763899788257
 20
115.6910549153018
 30
0.0
  0
SPLINE
  5
7C
330
1F
100
AcDbEntity
  8
0
  6
Continuous
 62
     7
370
    15
100
AcDbSpline
210
0.0
220
0.0
230
1.0
 70
     8
 71
     3
 72
    12
 73
     8
 74
     0
 42
0.00000001
 43
0.00000001
 12
1.0
 22
0.0
 32
0.0
 13
1.0
 23
0.0
 33
0.0
 40
0.0
 40
0.0
 40
0.0
 40
0.0
 40
0.2058345463973801
 40
0.412078796496348
 40
0.6141727473784098
 40
0.8133070954647987
 40
1.0
 40
1.0
 40
1.0
 40
1.0
 10
257.7763899788257
 20
115.6910549153018
 30
0.0
 10
257.7181050289898
 20
115.7406236150954
 30
0.0
 10
257.6014191159466
 20
115.8398596787803
 30
0.0
 10
257.5014160293281
 20
116.0527824459603
 30
0.0
 10
257.4747619456014
 20
116.281680008805
 30
0.0
 10
257.5195067227112
 20
116.5040535180096
 30
0.0
 10
257.5998646204366
 20
116.6250968311096
 30
0.0
 10
257.6387479528781
 20
116.6836668972302
 30
0.0
  0
SPLINE
  5
7D
330
1F
100
AcDbEntity
  8
0
  6
Continuous
 62
     7
370
    15
100
AcDbSpline
210
0.0
220
0.0
230
1.0
 70
     8
 71
     3
 72
    15
 73
    11
 74
     0
 42
0.00000001
 43
0.00000001
 12
1.0
 22
0.0
 32
0.0
 13
1.0
 23
0.0
 33
0.0
 40
0.0
 40
0.0
 40
0.0
 40
0.0
 40
0.126789921017523
 40
0.2538954395131409
 40
0.3799401023532516
 40
0.5047842670056542
 40
0.6289580112523507
 40
0.7531406878786409
 40
0.8780085296381889
 40
1.0
 40
1.0
 40
1.0
 40
1.0
 10
257.6387479528781
 20
116.6836668972302
 30
0.0
 10
257.6631898184759
 20
116.7212806656976
 30
0.0
 10
257.7121343888225
 20
116.7966018284535
 30
0.0
 10
257.7332650827805
 20
116.9324555406145
 30
0.0
 10
257.7111384439577
 20
117.0657652250301
 30
0.0
 10
257.6458196114645
 20
117.1834200259041
 30
0.0
 10
257.5460194209265
 20
117.272277302428
 30
0.0
 10
257.4230787968338
 20
117.3223171239979
 30
0.0
 10
257.2900676028958
 20
117.3315606371258
 30
0.0
 10
257.2082558181186
 20
117.3021678021825
 30
0.0
 10
257.167826555669
 20
117.2876426253844
 30
0.0
  0
SPLINE
  5
7E
330
1F
100
AcDbEntity
  8
0
  6
Continuous
 62
     7
370
    15
100
AcDbSpline
210
0.0
220
0.0
230
1.0
 70
     8
 71
     3
 72
    12
 73
     8
 74
     0
 42
0.00000001
 43
0.00000001
 12
1.0
 22
0.0
 32
0.0
 13
1.0
 23
0.0
 33
0.0
 40
0.0
 40
0.0
 40
0.0
 40
0.0
 40
0.2058865216496285
 40
0.4121258516323054
 40
0.6142211467399846
 40
0.8133458207582822
 40
1.0
 40
1.0
 40
1.0
 40
1.0
 10
257.167826555669
 20
117.2876426253844
 30
0.0
 10
257.0949363882809
 20
117.2616684326579
 30
0.0
 10
256.9490311484927
 20
117.2096755376782
 30
0.0
 10
256.7130448669685
 20
117.2291293120458
 30
0.0
 10
256.5010969146886
 20
117.3206152959606
 30
0.0
 10
256.3316112402031
 20
117.4711244233946
 30
0.0
 10
256.2680279193461
 20
117.6018069020292
 30
0.0
 10
256.2372639402744
 20
117.6650359530378
 30
0.0
  0
LWPOLYLINE
  5
7F
330
1F
100
AcDbEntity
  8
0
  6
Continuous
 62
     7
370
    15
100
AcDbPolyline
 90
        3
 70
   128
 43
0.0
 10
254.4498994574
 20
114.9370515023
 10
254.4690325484
 20
115.0142227535
 10
254.5332863554
 20
115.1284960334
  0
ARC
  5
80
330
1F
100
AcDbEntity
  8
0
  6
Continuous
 62
     7
370
    15
100
AcDbCircle
 10
257.5495511993
 20
115.2553193255
 30
0.0
 40
0.3927843526867157
100
AcDbArc
 50
10.0494699052
 51
54.7240634534
  0
ARC
  5
81
330
1F
100
AcDbEntity
  8
0
  6
Continuous
 62
     7
370
    15
100
AcDbCircle
 10
253.9994126267
 20
115.5602754492
 30
0.0
 40
0.6866255327322796
100
AcDbArc
 50
321.0352135224
 51
359.9976205683
  0
ARC
  5
82
330
1F
100
AcDbEntity
  8
0
  6
Continuous
 62
     7
370
    15
100
AcDbCircle
 10
258.1732403248
 20
116.1370639367
 30
0.0
 40
0.6872442054333062
100
AcDbArc
 50
180.0169684835
 51
234.7284911852
  0
ARC
  5
83
330
1F
100
AcDbEntity
  8
0
  6
Continuous
 62
     7
370
    15
100
AcDbCircle
 10
254.6234642902
 20
116.4408702506
 30
0.0
 40
0.393850284822075
100
AcDbArc
 50
81.0799556876
 51
171.5768064157
  0
ARC
  5
84
330
1F
100
AcDbEntity
  8
0
  6
Continuous
 62
     7
370
    15
100
AcDbCircle
 10
257.3321169524
 20
116.8144585504
 30
0.0
 40
0.3940296347997534
100
AcDbArc
 50
8.1064536139
 51
114.6421359215
  0
ARC
  5
85
330
1F
100
AcDbEntity
  8
0
  6
Continuous
 62
     7
370
    15
100
AcDbCircle
 10
254.7914504937
 20
117.51075858
 30
0.0
 40
0.6891457466292348
100
AcDbArc
 50
261.0748079926
 51
354.5392455983
  0
ARC
  5
86
330
1F
100
AcDbEntity
  8
0
  6
Continuous
 62
     7
370
    15
100
AcDbCircle
 10
256.8804528143
 20
117.7999666892
 30
0.0
 40
0.6900491750811475
100
AcDbArc
 50
201.2367975206
 51
294.6109154134
  0
ARC
  5
87
330
1F
100
AcDbEntity
  8
0
  6
Continuous
 62
     7
370
    15
100
AcDbCircle
 10
255.8698100763
 20
117.4074116187
 30
0.0
 40
0.3941548115661694
100
AcDbArc
 50
21.2104682467
 51
174.5018857554
  0
ARC
  5
88
330
1F
100
AcDbEntity
  8
0
  6
Continuous
 62
     7
370
    15
100
AcDbCircle
 10
256.0842141137
 20
115.9269642328
 30
0.0
 40
3.500005384896456
100
AcDbArc
 50
180.1037898184
 51
359.8962101816
  0
LINE
  5
89
330
1F
100
AcDbEntity
  8
0
  6
Continuous
 62
     7
370
    15
100
AcDbLine
 10
262.5947251543
 20
122.8963903387
 30
0.0
 11
250.5571201071
 21
121.8458025951
 31
0.0
  0
ARC
  5
8A
330
1F
100
AcDbEntity
  8
0
  6
Continuous
 62
     7
370
    15
100
AcDbCircle
 10
262.6300253802
 20
122.4984348481
 30
0.0
 40
0.3995180576474173
100
AcDbArc
 50
355.0707143736
 51
95.0690948092
  0
LINE
  5
8B
330
1F
100
AcDbEntity
  8
0
  6
Continuous
 62
     7
370
    15
100
AcDbLine
 10
261.9749113545
 20
110.455834144
 30
0.0
 11
263.028065823
 21
122.4641057898
 31
0.0
  0
ARC
  5
8C
330
1F
100
AcDbEntity
  8
0
  6
Continuous
 62
     7
370
    15
100
AcDbCircle
 10
261.576959119
 20
110.491141913
 30
0.0
 40
0.3995154819268034
100
AcDbArc
 50
274.9300432167
 51
354.9297863882
  0
LINE
  5
8D
330
1F
100
AcDbEntity
  8
0
  6
Continuous
 62
     7
370
    15
100
AcDbLine
 10
249.573703073
 20
109.0425167468
 30
0.0
 11
261.611293219
 21
110.0931044903
 31
0.0
  0
ARC
  5
8E
330
1F
100
AcDbEntity
  8
0
  6
Continuous
 62
     7
370
    15
100
AcDbCircle
 10
249.5383866122
 20
109.4404559627
 30
0.0
 40
0.3995032815494616
100
AcDbArc
 50
175.0681888731
 51
275.0716203097
  0
LINE
  5
8F
330
1F
100
AcDbEntity
  8
0
  6
Continuous
 62
     7
370
    15
100
AcDbLine
 10
250.1935168728
 20
121.4830738727
 30
0.0
 11
249.1403624043
 21
109.4748012957
 31
0.0
  0
ARC
  5
90
330
1F
100
AcDbEntity
  8
0
  6
Continuous
 62
     7
370
    15
100
AcDbCircle
 10
250.5914632393
 20
121.4477723757
 30
0.0
 40
0.399509081600406
100
AcDbArc
 50
94.9314225518
 51
174.9306079807
  0
ARC
  5
91
330
1F
100
AcDbEntity
  8
0
  6
Continuous
 62
     7
370
    15
100
AcDbCircle
 10
249.5384183332
 20
109.440444407
 30
0.0
 40
0.3795373031871178
100
AcDbArc
 50
175.069817231
 51
275.0700826533
  0
LINE
  5
92
330
1F
100
AcDbEntity
  8
0
  6
Continuous
 62
     7
370
    15
100
AcDbLine
 10
249.5719596371
 20
109.0623921018
 30
0.0
 11
261.6095497832
 21
110.1129798454
 31
0.0
  0
ARC
  5
93
330
1F
100
AcDbEntity
  8
0
  6
Continuous
 62
     7
370
    15
100
AcDbCircle
 10
261.5769418245
 20
110.491107536
 30
0.0
 40
0.3795310651172468
100
AcDbArc
 50
274.9287259179
 51
354.9309184715
  0
LINE
  5
94
330
1F
100
AcDbEntity
  8
0
  6
Continuous
 62
     7
370
    15
100
AcDbLine
 10
261.954988502
 20
110.4575733889
 30
0.0
 11
263.0081429705
 21
122.4658455003
 31
0.0
  0
ARC
  5
95
330
1F
100
AcDbEntity
  8
0
  6
Continuous
 62
     7
370
    15
100
AcDbCircle
 10
262.6300047642
 20
122.4984584673
 30
0.0
 40
0.3795419722093791
100
AcDbArc
 50
355.0706572198
 51
95.0692426645
  0
LINE
  5
96
330
1F
100
AcDbEntity
  8
0
  6
Continuous
 62
     7
370
    15
100
AcDbLine
 10
262.5964685902
 20
122.8765159149
 30
0.0
 11
250.558863543
 21
121.8259281714
 31
0.0
  0
ARC
  5
97
330
1F
100
AcDbEntity
  8
0
  6
Continuous
 62
     7
370
    15
100
AcDbCircle
 10
250.5914897969
 20
121.4477985342
 30
0.0
 40
0.3795345767775701
100
AcDbArc
 50
94.931452368
 51
174.9307410561
  0
LINE
  5
98
330
1F
100
AcDbEntity
  8
0
  6
Continuous
 62
     7
370
    15
100
AcDbLine
 10
250.2134397253
 20
121.4813341622
 30
0.0
 11
249.1602852568
 21
109.4730625164
 31
0.0
  0
LINE
  5
99
330
1F
100
AcDbEntity
  8
0
  6
Continuous
 62
     7
370
    15
100
AcDbLine
 10
250.4578336701
 20
110.3078362767
 30
0.0
 11
249.5388343558
 21
109.4247198899
 31
0.0
  0
LINE
  5
9A
330
1F
100
AcDbEntity
  8
0
  6
Continuous
 62
     7
370
    15
100
AcDbLine
 10
261.0027297959
 20
111.022573733
 30
0.0
 11
261.5764245018
 21
110.4753076334
 31
0.0
  0
LINE
  5
9B
330
1F
100
AcDbEntity
  8
0
  6
Continuous
 62
     7
370
    15
100
AcDbLine
 10
251.1656835303
 20
120.8356640537
 30
0.0
 11
250.5919888243
 21
121.4329920013
 31
0.0
  0
LINE
  5
9C
330
1F
100
AcDbEntity
  8
0
  6
Continuous
 62
     7
370
    15
100
AcDbLine
 10
252.5081589445
 20
111.3213997569
 30
0.0
 11
259.2451676354
 21
111.9093758289
 31
0.0
  0
LINE
  5
9D
330
1F
100
AcDbEntity
  8
0
  6
Continuous
 62
     7
370
    15
100
AcDbLine
 10
261.7105796561
 20
121.533172508
 30
0.0
 11
262.6295789704
 21
122.4835797448
 31
0.0
  0
ARC
  5
9E
330
1F
100
AcDbEntity
  8
0
  6
Continuous
 62
     7
370
    15
100
AcDbCircle
 10
252.4198976749
 20
112.3162846124
 30
0.0
 40
0.9987922342873916
100
AcDbArc
 50
175.0704770986
 51
275.0697261244
  0
LINE
  5
9F
330
1F
100
AcDbEntity
  8
0
  6
Continuous
 62
     7
370
    15
100
AcDbLine
 10
259.6602692828
 20
120.6175082598
 30
0.0
 11
252.9232605919
 21
120.0295317222
 31
0.0
  0
ARC
  5
A0
330
1F
100
AcDbEntity
  8
0
  6
Continuous
 62
     7
370
    15
100
AcDbCircle
 10
259.7485246012
 20
119.6226310853
 30
0.0
 40
0.9987840575105577
100
AcDbArc
 50
355.0699407603
 51
95.0694250041
  0
LINE
  5
A1
330
1F
100
AcDbEntity
  8
0
  6
Continuous
 62
     7
370
    15
100
AcDbLine
 10
260.1541980729
 20
112.8162004289
 30
0.0
 11
260.7436135039
 21
119.5367959563
 31
0.0
  0
ARC
  5
A2
330
1F
100
AcDbEntity
  8
0
  6
Continuous
 62
     7
370
    15
100
AcDbCircle
 10
259.1593273523
 20
112.9044580375
 30
0.0
 40
0.9987778311884262
100
AcDbArc
 50
274.930386813
 51
354.9304114167
  0
LINE
  5
A3
330
1F
100
AcDbEntity
  8
0
  6
Continuous
 62
     7
370
    15
100
AcDbLine
 10
252.0142152533
 20
119.1227075879
 30
0.0
 11
251.4247998223
 21
112.4021111291
 31
0.0
  0
ARC
  5
A4
330
1F
100
AcDbEntity
  8
0
  6
Continuous
 62
     7
370
    15
100
AcDbCircle
 10
253.0090926287
 20
119.0344413867
 30
0.0
 40
0.9987852193195895
100
AcDbArc
 50
94.9298754417
 51
174.9299541633
  0
CIRCLE
  5
A5
330
1F
100
AcDbEntity
  8
0
  6
Continuous
 62
     7
370
    15
100
AcDbCircle
 10
256.0778520033
 20
115.9670868736
 30
0.0
 40
3.793809380573049
  0
LINE
  5
A6
330
1F
100
AcDbEntity
  8
0
  6
Continuous
 62
     7
370
    15
100
AcDbLine
 10
252.2986635193
 20
116.2196186606
 30
0.0
 11
252.284209393
 21
115.8892338399
 31
0.0
  0
ARC
  5
A7
330
1F
100
AcDbEntity
  8
0
  6
Continuous
 62
     7
370
    15
100
AcDbCircle
 10
256.0839137966
 20
115.8817708287
 30
0.0
 40
3.800297464535251
100
AcDbArc
 50
0.1125173296
 51
174.8996509357
  0
SPLINE
  5
A8
330
1F
100
AcDbEntity
  8
0
  6
Continuous
 62
     7
370
    15
100
AcDbSpline
210
0.0
220
0.0
230
1.0
 70
     8
 71
     3
 72
    11
 73
     7
 74
     0
 42
0.00000001
 43
0.00000001
 12
1.0
 22
0.0
 32
0.0
 13
1.0
 23
0.0
 33
0.0
 40
0.0
 40
0.0
 40
0.0
 40
0.0
 40
0.0076315873180734
 40
0.3209934879269772
 40
0.6632147413141513
 40
1.0
 40
1.0
 40
1.0
 40
1.0
 10
250.9467705711719
 20
110.8008295532692
 30
0.0
 10
250.9456536168531
 20
110.7996535198094
 30
0.0
 10
250.8986732118982
 20
110.7501881770925
 30
0.0
 10
250.7946666572612
 20
110.6420933128582
 30
0.0
 10
250.6252004446372
 20
110.4705259531693
 30
0.0
 10
250.5133240413222
 20
110.3617759583892
 30
0.0
 10
250.4578336700793
 20
110.3078362767029
 30
0.0
  0
SPLINE
  5
A9
330
1F
100
AcDbEntity
  8
0
  6
Continuous
 62
     7
370
    15
100
AcDbSpline
210
0.0
220
0.0
230
1.0
 70
     8
 71
     3
 72
    11
 73
     7
 74
     0
 42
0.00000001
 43
0.00000001
 12
1.0
 22
0.0
 32
0.0
 13
1.0
 23
0.0
 33
0.0
 40
0.0
 40
0.0
 40
0.0
 40
0.0
 40
0.3372265978900999
 40
0.6736353219190939
 40
0.9918871607727571
 40
1.0
 40
1.0
 40
1.0
 40
1.0
 10
261.0027297958728
 20
111.0225737329948
 30
0.0
 10
260.9478274855574
 20
111.0755923424503
 30
0.0
 10
260.8381560192055
 20
111.181500975612
 30
0.0
 10
260.6667163949537
 20
111.3543758597742
 30
0.0
 10
260.5611927623554
 20
111.463686872617
 30
0.0
 10
260.5132705219938
 20
111.514263206683
 30
0.0
 10
260.512079261243
 20
111.5155204434324
 30
0.0
  0
SPLINE
  5
AA
330
1F
100
AcDbEntity
  8
0
  6
Continuous
 62
     7
370
    15
100
AcDbSpline
210
0.0
220
0.0
230
1.0
 70
     8
 71
     3
 72
    11
 73
     7
 74
     0
 42
0.00000001
 43
0.00000001
 12
1.0
 22
0.0
 32
0.0
 13
1.0
 23
0.0
 33
0.0
 40
0.0
 40
0.0
 40
0.0
 40
0.0
 40
0.0081131873401266
 40
0.3263648690138731
 40
0.6627733115049855
 40
1.0
 40
1.0
 40
1.0
 40
1.0
 10
251.6563340649005
 20
120.3496896896887
 30
0.0
 10
251.6551428049542
 20
120.3508119109372
 30
0.0
 10
251.6072226251201
 20
120.3959549078167
 30
0.0
 10
251.5016960170303
 20
120.49703284989
 30
0.0
 10
251.3302574366618
 20
120.6662378985753
 30
0.0
 10
251.2205859040624
 20
120.7791429544208
 30
0.0
 10
251.1656835302707
 20
120.8356640536714
 30
0.0
  0
SPLINE
  5
AB
330
1F
100
AcDbEntity
  8
0
  6
Continuous
 62
     7
370
    15
100
AcDbSpline
210
0.0
220
0.0
230
1.0
 70
     8
 71
     3
 72
    11
 73
     7
 74
     0
 42
0.00000001
 43
0.00000001
 12
1.0
 22
0.0
 32
0.0
 13
1.0
 23
0.0
 33
0.0
 40
0.0
 40
0.0
 40
0.0
 40
0.0
 40
0.3367742382545793
 40
0.6790158431683638
 40
0.9923676627743194
 40
0.9999999999999999
 40
0.9999999999999999
 40
0.9999999999999999
 40
0.9999999999999999
 10
261.7105796560642
 20
121.5331725079942
 30
0.0
 10
261.6550958529269
 20
121.4764006422215
 30
0.0
 10
261.5432274939792
 20
121.3619352469298
 30
0.0
 10
261.3737464045925
 20
121.1954652312838
 30
0.0
 10
261.2697490330776
 20
121.0958911697985
 30
0.0
 10
261.2227746104341
 20
121.0517422363425
 30
0.0
 10
261.2216576561328
 20
121.0506924663115
 30
0.0
  0
LINE
  5
AC
330
1F
100
AcDbEntity
  8
0
  6
Continuous
 62
     7
370
    15
100
AcDbLine
 10
137.0344498754
 20
86.7089520444
 30
0.0
 11
137.0344498754
 21
117.7878373538
 31
0.0
  0
LINE
  5
AD
330
1F
100
AcDbEntity
  8
0
  6
Continuous
 62
     7
370
    15
100
AcDbLine
 10
137.0344498754
 20
86.7089520444
 30
0.0
 11
135.5196099356
 21
86.7089520444
 31
0.0
  0
SPLINE
  5
AE
330
1F
100
AcDbEntity
  8
0
  6
Continuous
 62
     7
370
    15
100
AcDbSpline
210
0.0
220
0.0
230
1.0
 70
     8
 71
     3
 72
    22
 73
    18
 74
     0
 42
0.00000001
 43
0.00000001
 12
1.0
 22
0.0
 32
0.0
 13
1.0
 23
0.0
 33
0.0
 40
0.0
 40
0.0
 40
0.0
 40
0.0
 40
0.125
 40
0.125
 40
0.25
 40
0.25
 40
0.375
 40
0.375
 40
0.5
 40
0.5
 40
0.625
 40
0.625
 40
0.75
 40
0.75
 40
0.875
 40
0.875
 40
1.0
 40
1.0
 40
1.0
 40
1.0
 10
135.5196096643802
 20
86.70895247161143
 30
0.0
 10
135.2204852353396
 20
86.70895247161143
 30
0.0
 10
134.9266627870907
 20
86.70043837054504
 30
0.0
 10
134.3490985108444
 20
86.66799460166317
 30
0.0
 10
134.0622808330305
 20
86.64366071296112
 30
0.0
 10
133.5178183041311
 20
86.5832006882043
 30
0.0
 10
133.2598630335098
 20
86.54728726742579
 30
0.0
 10
132.7718050901499
 20
86.46757724135666
 30
0.0
 10
132.5421067914862
 20
86.42369894016733
 30
0.0
 10
132.1296878085336
 20
86.33545531779714
 30
0.0
 10
131.9441608656735
 20
86.29064697633618
 30
0.0
 10
131.6156408207727
 20
86.20332596841699
 30
0.0
 10
131.4772269338732
 20
86.16203517984134
 30
0.0
 10
131.2526347872573
 20
86.08769695654752
 30
0.0
 10
131.165555975133
 20
86.05428683081284
 30
0.0
 10
131.049054167178
 20
85.9992674292867
 30
0.0
 10
131.0196096643802
 20
85.97780566282043
 30
0.0
 10
131.0196096643802
 20
85.96285263920264
 30
0.0
  0
LINE
  5
AF
330
1F
100
AcDbEntity
  8
0
  6
Continuous
 62
     7
370
    15
100
AcDbLine
 10
131.0196101293
 20
85.962852766
 30
0.0
 11
131.0196101293
 21
85.9378374417
 31
0.0
  0
SPLINE
  5
B0
330
1F
100
AcDbEntity
  8
0
  6
Continuous
 62
     7
370
    15
100
AcDbSpline
210
0.0
220
0.0
230
1.0
 70
     8
 71
     3
 72
    12
 73
     8
 74
     0
 42
0.00000001
 43
0.00000001
 12
1.0
 22
0.0
 32
0.0
 13
1.0
 23
0.0
 33
0.0
 40
0.0
 40
0.0
 40
0.0
 40
0.0
 40
0.211117100542305
 40
0.4221029713453049
 40
0.6364761097001761
 40
0.8531927327909691
 40
1.0
 40
1.0
 40
1.0
 40
1.0
 10
135.5196099355813
 20
125.4250130851197
 30
0.0
 10
135.0210381354974
 20
125.4364727326472
 30
0.0
 10
134.0242044460246
 20
125.4593849044205
 30
0.0
 10
132.6880974527012
 20
125.6195238882507
 30
0.0
 10
131.673040375524
 20
125.7948691995534
 30
0.0
 10
131.0809560972934
 20
125.9238761007535
 30
0.0
 10
131.0758281280029
 20
125.9252254176068
 30
0.0
 10
131.0737572237846
 20
125.9257703323293
 30
0.0
  0
LINE
  5
B1
330
1F
100
AcDbEntity
  8
0
  6
Continuous
 62
     7
370
    15
100
AcDbLine
 10
137.0344498754
 20
125.4250130851
 30
0.0
 11
135.5196099356
 21
125.4250130851
 31
0.0
  0
LINE
  5
B2
330
1F
100
AcDbEntity
  8
0
  6
Continuous
 62
     7
370
    15
100
AcDbLine
 10
137.0344498754
 20
121.9973418165
 30
0.0
 11
137.0344498754
 21
125.4250130851
 31
0.0
  0
SPLINE
  5
B3
330
1F
100
AcDbEntity
  8
0
  6
Continuous
 62
     7
370
    15
100
AcDbSpline
210
0.0
220
0.0
230
1.0
 70
     8
 71
     3
 72
    20
 73
    16
 74
     0
 42
0.00000001
 43
0.00000001
 12
1.0
 22
0.0
 32
0.0
 13
1.0
 23
0.0
 33
0.0
 40
0.0
 40
0.0
 40
0.0
 40
0.0
 40
0.25
 40
0.25
 40
0.375
 40
0.375
 40
0.5
 40
0.5
 40
0.625
 40
0.625
 40
0.75
 40
0.75
 40
0.875
 40
0.875
 40
1.0
 40
1.0
 40
1.0
 40
1.0
 10
131.0196096643802
 20
117.7878369946409
 30
0.0
 10
131.2434108940292
 20
118.363481388739
 30
0.0
 10
131.5223583067906
 20
118.893106433708
 30
0.0
 10
132.0543176855322
 20
119.6167138007947
 30
0.0
 10
132.2519063757387
 20
119.8472733066229
 30
0.0
 10
132.6870972592114
 20
120.2783160905399
 30
0.0
 10
132.9224166466171
 20
120.4769082435938
 30
0.0
 10
133.4315828758649
 20
120.841544939988
 30
0.0
 10
133.7053933270423
 20
121.0076079873986
 30
0.0
 10
134.2962415120722
 20
121.3074048464061
 30
0.0
 10
134.6082936873216
 20
121.438343257541
 30
0.0
 10
135.2562392508275
 20
121.66141577943
 30
0.0
 10
135.5935851482026
 20
121.7543252372393
 30
0.0
 10
136.2965032759893
 20
121.9039901939518
 30
0.0
 10
136.6631239504933
 20
121.9605727960182
 30
0.0
 10
137.0344499654868
 20
121.9973410307793
 30
0.0
  0
LINE
  5
B4
330
1F
100
AcDbEntity
  8
0
  6
Continuous
 62
     7
370
    15
100
AcDbLine
 10
131.0196101293
 20
117.7878373538
 30
0.0
 11
137.0344498754
 21
117.7878373538
 31
0.0
  0
LINE
  5
B5
330
1F
100
AcDbEntity
  8
0
  6
Continuous
 62
     7
370
    15
100
AcDbLine
 10
138.0296099558
 20
88.5087142934
 30
0.0
 11
138.0296099558
 21
117.7878373538
 31
0.0
  0
SPLINE
  5
B6
330
1F
100
AcDbEntity
  8
0
  6
Continuous
 62
     7
370
    15
100
AcDbSpline
210
0.0
220
0.0
230
1.0
 70
     8
 71
     3
 72
     8
 73
     4
 74
     0
 42
0.00000001
 43
0.00000001
 12
1.0
 22
0.0
 32
0.0
 13
1.0
 23
0.0
 33
0.0
 40
0.0
 40
0.0
 40
0.0
 40
0.0
 40
1.0
 40
1.0
 40
1.0
 40
1.0
 10
138.0296096643802
 20
88.5087136066511
 30
0.0
 10
137.6989710377656
 20
87.90819325554011
 30
0.0
 10
137.3671552371921
 20
87.30832414483508
 30
0.0
 10
137.0344499654867
 20
86.70895247161143
 30
0.0
  0
SPLINE
  5
B7
330
1F
100
AcDbEntity
  8
0
  6
Continuous
 62
     7
370
    15
100
AcDbSpline
210
0.0
220
0.0
230
1.0
 70
    24
 71
     3
 72
     8
 73
     4
 74
     0
 42
0.00000001
 43
0.00000001
 12
1.0
 22
0.0
 32
0.0
 13
1.0
 23
0.0
 33
0.0
 40
0.0
 40
0.0
 40
0.0
 40
0.0
 40
1.0
 40
1.0
 40
1.0
 40
1.0
 10
137.0344499654867
 20
117.7878369946409
 30
0.0
 10
137.3735512998835
 20
117.7878369946409
 30
0.0
 10
137.706373618331
 20
117.7878369946409
 30
0.0
 10
138.0296096643802
 20
117.7878369946409
 30
0.0
  0
LINE
  5
B8
330
1F
100
AcDbEntity
  8
0
  6
Continuous
 62
     7
370
    15
100
AcDbLine
 10
141.104770042
 20
86.7089520444
 30
0.0
 11
141.104770042
 21
117.7878373538
 31
0.0
  0
SPLINE
  5
B9
330
1F
100
AcDbEntity
  8
0
  6
Continuous
 62
     7
370
    15
100
AcDbSpline
210
0.0
220
0.0
230
1.0
 70
     8
 71
     3
 72
     8
 73
     4
 74
     0
 42
0.00000001
 43
0.00000001
 12
1.0
 22
0.0
 32
0.0
 13
1.0
 23
0.0
 33
0.0
 40
0.0
 40
0.0
 40
0.0
 40
0.0
 40
1.0
 40
1.0
 40
1.0
 40
1.0
 10
141.1047693632736
 20
86.70895247161143
 30
0.0
 10
140.7720640915683
 20
87.30832414483508
 30
0.0
 10
140.4402482909948
 20
87.90819325554011
 30
0.0
 10
140.1096096643802
 20
88.50871360665111
 30
0.0
  0
LINE
  5
BA
330
1F
100
AcDbEntity
  8
0
  6
Continuous
 62
     7
370
    15
100
AcDbLine
 10
140.1096090302
 20
88.5087142934
 30
0.0
 11
140.1096090302
 21
117.7878373538
 31
0.0
  0
SPLINE
  5
BB
330
1F
100
AcDbEntity
  8
0
  6
Continuous
 62
     7
370
    15
100
AcDbSpline
210
0.0
220
0.0
230
1.0
 70
    24
 71
     3
 72
     8
 73
     4
 74
     0
 42
0.00000001
 43
0.00000001
 12
1.0
 22
0.0
 32
0.0
 13
1.0
 23
0.0
 33
0.0
 40
0.0
 40
0.0
 40
0.0
 40
0.0
 40
1.0
 40
1.0
 40
1.0
 40
1.0
 10
140.1096096643802
 20
117.7878369946409
 30
0.0
 10
140.4331139644566
 20
117.7878369946409
 30
0.0
 10
140.7657448349118
 20
117.7878369946409
 30
0.0
 10
141.1047693632736
 20
117.7878369946409
 30
0.0
  0
LINE
  5
BC
330
1F
100
AcDbEntity
  8
0
  6
Continuous
 62
     7
370
    15
100
AcDbLine
 10
142.4196093902
 20
86.7089520444
 30
0.0
 11
141.104770042
 21
86.7089520444
 31
0.0
  0
LINE
  5
BD
330
1F
100
AcDbEntity
  8
0
  6
Continuous
 62
     7
370
    15
100
AcDbLine
 10
141.104770042
 20
117.7878373538
 30
0.0
 11
142.4196093902
 21
117.7878373538
 31
0.0
  0
LINE
  5
BE
330
1F
100
AcDbEntity
  8
0
  6
Continuous
 62
     7
370
    15
100
AcDbLine
 10
143.0196102336
 20
87.3338042993
 30
0.0
 11
143.0196102336
 21
117.7878373538
 31
0.0
  0
SPLINE
  5
BF
330
1F
100
AcDbEntity
  8
0
  6
Continuous
 62
     7
370
    15
100
AcDbSpline
210
0.0
220
0.0
230
1.0
 70
     8
 71
     3
 72
    10
 73
     6
 74
     0
 42
0.00000001
 43
0.00000001
 12
1.0
 22
0.0
 32
0.0
 13
1.0
 23
0.0
 33
0.0
 40
0.0
 40
0.0
 40
0.0
 40
0.0
 40
0.5
 40
0.5
 40
1.0
 40
1.0
 40
1.0
 40
1.0
 10
143.0196096643802
 20
87.3338051735543
 30
0.0
 10
143.0196096643802
 20
87.17417300465107
 30
0.0
 10
142.9579731506749
 20
87.01312337088702
 30
0.0
 10
142.738946784432
 20
86.78013248721044
 30
0.0
 10
142.5813298963846
 20
86.70895247161144
 30
0.0
 10
142.4196096643802
 20
86.70895247161145
 30
0.0
  0
SPLINE
  5
C0
330
1F
100
AcDbEntity
  8
0
  6
Continuous
 62
     7
370
    15
100
AcDbSpline
210
0.0
220
0.0
230
1.0
 70
    24
 71
     3
 72
    12
 73
     8
 74
     0
 42
0.00000001
 43
0.00000001
 12
1.0
 22
0.0
 32
0.0
 13
1.0
 23
0.0
 33
0.0
 40
0.0
 40
0.0
 40
0.0
 40
0.0
 40
0.250000000000002
 40
0.250000000000002
 40
0.500000000000004
 40
0.500000000000004
 40
1.0
 40
1.0
 40
1.0
 40
1.0
 10
142.4196096643802
 20
117.7878369946409
 30
0.0
 10
142.5091256756705
 20
117.7878369946409
 30
0.0
 10
142.596753179591
 20
117.7878369946409
 30
0.0
 10
142.7500170380709
 20
117.7878369946409
 30
0.0
 10
142.8157808029278
 20
117.7878369946409
 30
0.0
 10
142.971018461922
 20
117.7878369946409
 30
0.0
 10
143.0196096643802
 20
117.7878369946409
 30
0.0
 10
143.0196096643802
 20
117.7878369946409
 30
0.0
  0
LINE
  5
C1
330
1F
100
AcDbEntity
  8
0
  6
Continuous
 62
     7
370
    15
100
AcDbLine
 10
123.0696096644
 20
86.2378369321
 30
0.0
 11
123.0696096644
 21
125.6378370572
 31
0.0
  0
SPLINE
  5
C2
330
1F
100
AcDbEntity
  8
0
  6
Continuous
 62
     7
370
    15
100
AcDbSpline
210
0.0
220
0.0
230
1.0
 70
    24
 71
     3
 72
    16
 73
    12
 74
     0
 42
0.00000001
 43
0.00000001
 12
1.0
 22
0.0
 32
0.0
 13
1.0
 23
0.0
 33
0.0
 40
0.0
 40
0.0
 40
0.0
 40
0.0
 40
0.5000000000000007
 40
0.5000000000000007
 40
0.750000000000001
 40
0.750000000000001
 40
0.8750000000000004
 40
0.8750000000000004
 40
0.9375000000000002
 40
0.9375000000000002
 40
1.0
 40
1.0
 40
1.0
 40
1.0
 10
140.0743872637989
 20
89.03783699464084
 30
0.0
 10
140.0444129459447
 20
89.03783699464084
 30
0.0
 10
139.9978965513395
 20
89.03783699464084
 30
0.0
 10
139.8880352456052
 20
89.03783699464083
 30
0.0
 10
139.8448825950757
 20
89.03783699464084
 30
0.0
 10
139.7560985419618
 20
89.03783699464084
 30
0.0
 10
139.7229093740833
 20
89.03783699464084
 30
0.0
 10
139.6581630737336
 20
89.03783699464083
 30
0.0
 10
139.6338918627513
 20
89.03783699464083
 30
0.0
 10
139.5774305855323
 20
89.03783699464083
 30
0.0
 10
139.544626979459
 20
89.03783699464083
 30
0.0
 10
139.5096096643802
 20
89.03783699464083
 30
0.0
  0
SPLINE
  5
C3
330
1F
100
AcDbEntity
  8
0
  6
Continuous
 62
     7
370
    15
100
AcDbSpline
210
0.0
220
0.0
230
1.0
 70
    24
 71
     3
 72
    12
 73
     8
 74
     0
 42
0.00000001
 43
0.00000001
 12
1.0
 22
0.0
 32
0.0
 13
1.0
 23
0.0
 33
0.0
 40
0.0
 40
0.0
 40
0.0
 40
0.0
 40
0.2499999999999988
 40
0.2499999999999988
 40
0.4999999999999976
 40
0.4999999999999976
 40
1.0
 40
1.0
 40
1.0
 40
1.0
 10
139.5096096643802
 20
117.7878369946409
 30
0.0
 10
139.6033956587598
 20
117.7878369946409
 30
0.0
 10
139.6944281355667
 20
117.7878369946409
 30
0.0
 10
139.8483909802403
 20
117.7878369946409
 30
0.0
 10
139.9128320126782
 20
117.7878369946409
 30
0.0
 10
140.0633041148095
 20
117.7878369946409
 30
0.0
 10
140.1096096643802
 20
117.7878369946409
 30
0.0
 10
140.1096096643802
 20
117.7878369946409
 30
0.0
  0
SPLINE
  5
C4
330
1F
100
AcDbEntity
  8
0
  6
Continuous
 62
     7
370
    15
100
AcDbSpline
210
0.0
220
0.0
230
1.0
 70
    24
 71
     3
 72
    16
 73
    12
 74
     0
 42
0.00000001
 43
0.00000001
 12
1.0
 22
0.0
 32
0.0
 13
1.0
 23
0.0
 33
0.0
 40
0.0
 40
0.0
 40
0.0
 40
0.0
 40
0.0625000000000011
 40
0.0625000000000011
 40
0.1250000000000021
 40
0.1250000000000021
 40
0.250000000000001
 40
0.250000000000001
 40
0.5000000000000001
 40
0.5000000000000001
 40
1.0
 40
1.0
 40
1.0
 40
1.0
 10
138.6296096643536
 20
89.03783699464084
 30
0.0
 10
138.5951309971684
 20
89.03783699464083
 30
0.0
 10
138.5613108203315
 20
89.03783699464083
 30
0.0
 10
138.5047887531478
 20
89.03783699464084
 30
0.0
 10
138.4804626736215
 20
89.03783699464084
 30
0.0
 10
138.4160097740703
 20
89.03783699464083
 30
0.0
 10
138.3823814987117
 20
89.03783699464084
 30
0.0
 10
138.2943041831869
 20
89.03783699464083
 30
0.0
 10
138.2514847299193
 20
89.03783699464084
 30
0.0
 10
138.1408280957222
 20
89.03783699464083
 30
0.0
 10
138.0945955097782
 20
89.03783699464083
 30
0.0
 10
138.0648320649616
 20
89.03783699464084
 30
0.0
  0
SPLINE
  5
C5
330
1F
100
AcDbEntity
  8
0
  6
Continuous
 62
     7
370
    15
100
AcDbSpline
210
0.0
220
0.0
230
1.0
 70
    24
 71
     3
 72
    14
 73
    10
 74
     0
 42
0.00000001
 43
0.00000001
 12
1.0
 22
0.0
 32
0.0
 13
1.0
 23
0.0
 33
0.0
 40
0.0
 40
0.0
 40
0.0
 40
0.0
 40
0.25
 40
0.25
 40
0.5
 40
0.5
 40
0.75
 40
0.75
 40
1.0
 40
1.0
 40
1.0
 40
1.0
 10
138.0296096643802
 20
117.7878369946409
 30
0.0
 10
138.0296096643802
 20
117.7878369946409
 30
0.0
 10
138.0416361652679
 20
117.7878369946409
 30
0.0
 10
138.089789296229
 20
117.7878369946409
 30
0.0
 10
138.1265165478071
 20
117.7878369946409
 30
0.0
 10
138.2260912679372
 20
117.7878369946409
 30
0.0
 10
138.2898512874214
 20
117.7878369946409
 30
0.0
 10
138.4455042146381
 20
117.7878369946409
 30
0.0
 10
138.5371851947766
 20
117.7878369946409
 30
0.0
 10
138.6296096643802
 20
117.7878369946409
 30
0.0
  0
LINE
  5
C6
330
1F
100
AcDbEntity
  8
0
  6
Continuous
 62
     7
370
    15
100
AcDbLine
 10
139.5096100494
 20
89.0378377635
 30
0.0
 11
138.6296098679
 21
89.0378377635
 31
0.0
  0
LINE
  5
C7
330
1F
100
AcDbEntity
  8
0
  6
Continuous
 62
     7
370
    15
100
AcDbLine
 10
138.6296098679
 20
117.7878373538
 30
0.0
 11
139.5096100494
 21
117.7878373538
 31
0.0
  0
SPLINE
  5
C8
330
1F
100
AcDbEntity
  8
0
  6
Continuous
 62
     7
370
    15
100
AcDbSpline
210
0.0
220
0.0
230
1.0
 70
     8
 71
     3
 72
     8
 73
     4
 74
     0
 42
0.00000001
 43
0.00000001
 12
1.0
 22
0.0
 32
0.0
 13
1.0
 23
0.0
 33
0.0
 40
0.0
 40
0.0
 40
0.0
 40
0.0
 40
1.0
 40
1.0
 40
1.0
 40
1.0
 10
138.0296096643802
 20
119.4534688174444
 30
0.0
 10
138.0296096643802
 20
119.3320253687303
 30
0.0
 10
138.0499165890567
 20
119.2112634095813
 30
0.0
 10
138.0922992053444
 20
119.0964920257682
 30
0.0
  0
SPLINE
  5
C9
330
1F
100
AcDbEntity
  8
0
  6
Continuous
 62
     7
370
    15
100
AcDbSpline
210
0.0
220
0.0
230
1.0
 70
     8
 71
     3
 72
     8
 73
     4
 74
     0
 42
0.00000001
 43
0.00000001
 12
1.0
 22
0.0
 32
0.0
 13
1.0
 23
0.0
 33
0.0
 40
0.0
 40
0.0
 40
0.0
 40
0.0
 40
1.0
 40
1.0
 40
1.0
 40
1.0
 10
137.0344499654868
 20
121.9973410307793
 30
0.0
 10
137.3787750780574
 20
121.2887121240858
 30
0.0
 10
137.7112852984156
 20
120.573812551444
 30
0.0
 10
138.0296096643802
 20
119.8517157005715
 30
0.0
  0
LINE
  5
CA
330
1F
100
AcDbEntity
  8
0
  6
Continuous
 62
     7
370
    15
100
AcDbLine
 10
138.0296099558
 20
119.8517161657
 30
0.0
 11
138.0296099558
 21
119.4534686629
 31
0.0
  0
LINE
  5
CB
330
1F
100
AcDbEntity
  8
0
  6
Continuous
 62
     7
370
    15
100
AcDbLine
 10
109.2696098238
 20
91.4253185738
 30
0.0
 11
109.2696098238
 21
92.3342605357
 31
0.0
  0
SPLINE
  5
CC
330
1F
100
AcDbEntity
  8
0
  6
Continuous
 62
     7
370
    15
100
AcDbSpline
210
0.0
220
0.0
230
1.0
 70
     8
 71
     3
 72
    10
 73
     6
 74
     0
 42
0.00000001
 43
0.00000001
 12
1.0
 22
0.0
 32
0.0
 13
1.0
 23
0.0
 33
0.0
 40
0.0
 40
0.0
 40
0.0
 40
0.0
 40
0.5
 40
0.5
 40
1.0
 40
1.0
 40
1.0
 40
1.0
 10
108.9783744618949
 20
93.00383364743291
 30
0.0
 10
109.0162488648396
 20
92.87767153938026
 30
0.0
 10
109.0970399121655
 20
92.75971249839837
 30
0.0
 10
109.2221698547568
 20
92.53666651580939
 30
0.0
 10
109.2696096643802
 20
92.43187144231403
 30
0.0
 10
109.2696096643802
 20
92.33426080891662
 30
0.0
  0
SPLINE
  5
CD
330
1F
100
AcDbEntity
  8
0
  6
Continuous
 62
     7
370
    15
100
AcDbSpline
210
0.0
220
0.0
230
1.0
 70
     8
 71
     3
 72
    16
 73
    12
 74
     0
 42
0.00000001
 43
0.00000001
 12
1.0
 22
0.0
 32
0.0
 13
1.0
 23
0.0
 33
0.0
 40
0.0
 40
0.0
 40
0.0
 40
0.0
 40
0.0625000000000003
 40
0.0625000000000003
 40
0.1250000000000007
 40
0.1250000000000007
 40
0.2500000000000013
 40
0.2500000000000013
 40
0.5000000000000011
 40
0.5000000000000011
 40
1.0
 40
1.0
 40
1.0
 40
1.0
 10
108.3696096643802
 20
93.65396369608793
 30
0.0
 10
108.4009254637074
 20
93.65656831797999
 30
0.0
 10
108.4336398021331
 20
93.65479941752005
 30
0.0
 10
108.4949463556099
 20
93.64326452307007
 30
0.0
 10
108.5234572458278
 20
93.63373754572387
 30
0.0
 10
108.5993512191842
 20
93.60022394559898
 30
0.0
 10
108.6386908042172
 20
93.57183643127911
 30
0.0
 10
108.7401265851986
 20
93.4838154810712
 30
0.0
 10
108.7849519448046
 20
93.42218282886408
 30
0.0
 10
108.8992342997698
 20
93.23879463518887
 30
0.0
 10
108.9440482076126
 20
93.11817664072403
 30
0.0
 10
108.9783744618949
 20
93.00383364743291
 30
0.0
  0
SPLINE
  5
CE
330
1F
100
AcDbEntity
  8
0
  6
Continuous
 62
     7
370
    15
100
AcDbSpline
210
0.0
220
0.0
230
1.0
 70
     8
 71
     3
 72
    10
 73
     6
 74
     0
 42
0.00000001
 43
0.00000001
 12
1.0
 22
0.0
 32
0.0
 13
1.0
 23
0.0
 33
0.0
 40
0.0
 40
0.0
 40
0.0
 40
0.0
 40
0.5
 40
0.5
 40
1.0
 40
1.0
 40
1.0
 40
1.0
 10
104.2798182296647
 20
93.22665673218967
 30
0.0
 10
104.9436333353483
 20
93.3203659192546
 30
0.0
 10
105.621621003626
 20
93.39618411567974
 30
0.0
 10
106.9880466956715
 20
93.53462831332763
 30
0.0
 10
107.6771831320379
 20
93.59637266077893
 30
0.0
 10
108.3696096643802
 20
93.65396369608794
 30
0.0
  0
SPLINE
  5
CF
330
1F
100
AcDbEntity
  8
0
  6
Continuous
 62
     7
370
    15
100
AcDbSpline
210
0.0
220
0.0
230
1.0
 70
     8
 71
     3
 72
     8
 73
     4
 74
     0
 42
0.00000001
 43
0.00000001
 12
1.0
 22
0.0
 32
0.0
 13
1.0
 23
0.0
 33
0.0
 40
0.0000002108190109
 40
0.0000002108190109
 40
0.0000002108190109
 40
0.0000002108190109
 40
0.0001710235456397
 40
0.0001710235456397
 40
0.0001710235456397
 40
0.0001710235456397
 10
104.1196096643802
 20
93.20730144368142
 30
0.0
 10
104.1735978504701
 20
93.21293158628497
 30
0.0
 10
104.227187510546
 20
93.2192269797465
 30
0.0
 10
104.2798182296647
 20
93.22665673218965
 30
0.0
  0
SPLINE
  5
D0
330
1F
100
AcDbEntity
  8
0
  6
Continuous
 62
     7
370
    15
100
AcDbSpline
210
0.0
220
0.0
230
1.0
 70
     8
 71
     3
 72
     8
 73
     4
 74
     0
 42
0.00000001
 43
0.00000001
 12
1.0
 22
0.0
 32
0.0
 13
1.0
 23
0.0
 33
0.0
 40
0.000003532078448
 40
0.000003532078448
 40
0.000003532078448
 40
0.000003532078448
 40
0.0000638548434643
 40
0.0000638548434643
 40
0.0000638548434643
 40
0.0000638548434643
 10
104.1110935148111
 20
93.23465929509729
 30
0.0
 10
104.1136426859333
 20
93.22549809175855
 30
0.0
 10
104.116484608715
 20
93.21637708844982
 30
0.0
 10
104.1196096643802
 20
93.20730144368147
 30
0.0
  0
ELLIPSE
  5
D1
330
1F
100
AcDbEntity
  8
0
  6
Continuous
 62
     7
370
    15
100
AcDbEllipse
 10
90.6428674565
 20
105.2985393169
 30
0.0
 11
13.37355272666616
 21
-13.37146352987011
 31
0.0
210
0.0
220
0.0
230
1.0
 40
0.1761188775
 41
0.3023035477142528
 42
0.3822730435340363
  0
ELLIPSE
  5
D2
330
1F
100
AcDbEntity
  8
0
  6
Continuous
 62
     7
370
    15
100
AcDbEllipse
 10
90.5634890258
 20
106.576947446
 30
0.0
 11
13.36963611134298
 21
13.36754752639483
 31
0.0
210
0.0
220
0.0
230
1.0
 40
0.1761188775
 41
5.933076931846603
 42
5.976720052691197
  0
SPLINE
  5
D3
330
1F
100
AcDbEntity
  8
0
  6
Continuous
 62
     7
370
    15
100
AcDbSpline
210
0.0
220
0.0
230
1.0
 70
     8
 71
     3
 72
     8
 73
     4
 74
     0
 42
0.00000001
 43
0.00000001
 12
1.0
 22
0.0
 32
0.0
 13
1.0
 23
0.0
 33
0.0
 40
0.0
 40
0.0
 40
0.0
 40
0.0
 40
1.0
 40
1.0
 40
1.0
 40
1.0
 10
104.1196096643802
 20
118.8034175416192
 30
0.0
 10
104.0738447566909
 20
118.7418971624604
 30
0.0
 10
104.0394576350609
 20
118.6780023027109
 30
0.0
 10
104.0204423813879
 20
118.6112723576672
 30
0.0
  0
SPLINE
  5
D4
330
1F
100
AcDbEntity
  8
0
  6
Continuous
 62
     7
370
    15
100
AcDbSpline
210
0.0
220
0.0
230
1.0
 70
     8
 71
     3
 72
    12
 73
     8
 74
     0
 42
0.00000001
 43
0.00000001
 12
1.0
 22
0.0
 32
0.0
 13
1.0
 23
0.0
 33
0.0
 40
0.0
 40
0.0
 40
0.0
 40
0.0
 40
0.25
 40
0.25
 40
0.5
 40
0.5
 40
1.0
 40
1.0
 40
1.0
 40
1.0
 10
105.8696096643803
 20
118.7186308533001
 30
0.0
 10
105.7275672611911
 20
118.7344565814763
 30
0.0
 10
105.5834491546869
 20
118.7454777152516
 30
0.0
 10
105.2936946410144
 20
118.7640140771188
 30
0.0
 10
105.1479527376556
 20
118.7712847828546
 30
0.0
 10
104.7092724984758
 20
118.7897456331825
 30
0.0
 10
104.4148968824045
 20
118.7976245000061
 30
0.0
 10
104.1196096643802
 20
118.8034175416192
 30
0.0
  0
SPLINE
  5
D5
330
1F
100
AcDbEntity
  8
0
  6
Continuous
 62
     7
370
    15
100
AcDbSpline
210
0.0
220
0.0
230
1.0
 70
     8
 71
     3
 72
    20
 73
    16
 74
     0
 42
0.00000001
 43
0.00000001
 12
1.0
 22
0.0
 32
0.0
 13
1.0
 23
0.0
 33
0.0
 40
0.0
 40
0.0
 40
0.0
 40
0.0
 40
0.2499999999999998
 40
0.2499999999999998
 40
0.4999999999999996
 40
0.4999999999999996
 40
0.7499999999999993
 40
0.7499999999999993
 40
0.8749999999999988
 40
0.8749999999999988
 40
0.9374999999999997
 40
0.9374999999999997
 40
0.9687499999999998
 40
0.9687499999999998
 40
1.0
 40
1.0
 40
1.0
 40
1.0
 10
106.7696096643812
 20
119.4953611163887
 30
0.0
 10
106.7696096643812
 20
119.4347517166913
 30
0.0
 10
106.7442146448042
 20
119.3689257512878
 30
0.0
 10
106.6579214590223
 20
119.2348779819411
 30
0.0
 10
106.5972854803391
 20
119.1661826237994
 30
0.0
 10
106.4491836861178
 20
119.025784072145
 30
0.0
 10
106.3624140793391
 20
118.9540805675636
 30
0.0
 10
106.2137762840099
 20
118.8479171658147
 30
0.0
 10
106.1614870671237
 20
118.8123888171832
 30
0.0
 10
106.0707232388138
 20
118.7626848866677
 30
0.0
 10
106.0383572463618
 20
118.7464238886526
 30
0.0
 10
105.9806680906955
 20
118.7273113203067
 30
0.0
 10
105.9596810628082
 20
118.7219201782252
 30
0.0
 10
105.9143920838177
 20
118.7161828098327
 30
0.0
 10
105.8913778149793
 20
118.7162055434861
 30
0.0
 10
105.8696096643796
 20
118.718630853299
 30
0.0
  0
LINE
  5
D6
330
1F
100
AcDbEntity
  8
0
  6
Continuous
 62
     7
370
    15
100
AcDbLine
 10
106.769609414
 20
119.495361415
 30
0.0
 11
106.769609414
 21
120.3251046364
 31
0.0
  0
LINE
  5
D7
330
1F
100
AcDbEntity
  8
0
  6
Continuous
 62
     7
370
    15
100
AcDbLine
 10
121.0696095694
 20
90.8341364239
 30
0.0
 11
121.0696095694
 21
121.0415375654
 31
0.0
  0
SPLINE
  5
D8
330
1F
100
AcDbEntity
  8
0
  6
Continuous
 62
     7
370
    15
100
AcDbSpline
210
0.0
220
0.0
230
1.0
 70
     8
 71
     3
 72
    18
 73
    14
 74
     0
 42
0.00000001
 43
0.00000001
 12
1.0
 22
0.0
 32
0.0
 13
1.0
 23
0.0
 33
0.0
 40
0.0
 40
0.0
 40
0.0
 40
0.0
 40
0.0647987055308793
 40
0.1911457431666448
 40
0.3159453184352518
 40
0.3775977083606854
 40
0.4397856493455953
 40
0.5017220995336993
 40
0.5630628754677616
 40
0.6866516188868883
 40
0.8118021473332026
 40
0.9380327409414257
 40
1.0
 40
1.0
 40
1.0
 40
1.0
 10
114.3072565644976
 20
91.18375584971191
 30
0.0
 10
114.2966114377088
 20
91.18232114060388
 30
0.0
 10
114.2652100284603
 20
91.17808897984634
 30
0.0
 10
114.6840933766239
 20
91.23890630972427
 30
0.0
 10
115.3286569822826
 20
91.30445644298472
 30
0.0
 10
115.9823183391459
 20
91.33466103565202
 30
0.0
 10
116.5135033276099
 20
91.33823576154795
 30
0.0
 10
117.0649107189727
 20
91.32115530079115
 30
0.0
 10
117.7958125401566
 20
91.2681376943793
 30
0.0
 10
118.6576840420001
 20
91.15035358409025
 30
0.0
 10
119.4239883899247
 20
90.9978119273484
 30
0.0
 10
119.824467840104
 20
90.89861901614607
 30
0.0
 10
119.7932103334589
 20
90.90656438879624
 30
0.0
 10
119.7829182818528
 20
90.90918053429606
 30
0.0
  0
SPLINE
  5
D9
330
1F
100
AcDbEntity
  8
0
  6
Continuous
 62
     7
370
    15
100
AcDbSpline
210
0.0
220
0.0
230
1.0
 70
     8
 71
     3
 72
    18
 73
    14
 74
     0
 42
0.00000001
 43
0.00000001
 12
1.0
 22
0.0
 32
0.0
 13
1.0
 23
0.0
 33
0.0
 40
0.0
 40
0.0
 40
0.0
 40
0.0
 40
0.0628581906661193
 40
0.188821099002829
 40
0.3136429384039809
 40
0.4369193679427552
 40
0.4982390324135774
 40
0.5602488727579926
 40
0.6224808204920839
 40
0.684256874301895
 40
0.8091590031135478
 40
0.9354526781227457
 40
1.0
 40
1.0
 40
1.0
 40
1.0
 10
119.7828386537727
 20
120.9663211603093
 30
0.0
 10
119.7934986765486
 20
120.9689647933929
 30
0.0
 10
119.8255205530074
 20
120.976906060854
 30
0.0
 10
119.420046644631
 20
120.8772120868076
 30
0.0
 10
118.6571097847056
 20
120.7247946418398
 30
0.0
 10
117.7957072199598
 20
120.6075148754124
 30
0.0
 10
117.0655803699242
 20
120.5546164201004
 30
0.0
 10
116.5138004425953
 20
120.5375119746848
 30
0.0
 10
115.9818329232437
 20
120.5410562538169
 30
0.0
 10
115.3272133068612
 20
120.5712469715229
 30
0.0
 10
114.6828075741065
 20
120.6369105911918
 30
0.0
 10
114.2653747351718
 20
120.6977360811726
 30
0.0
 10
114.2956872156879
 20
120.6932486934131
 30
0.0
 10
114.3059396743771
 20
120.6917309437323
 30
0.0
  0
SPLINE
  5
DA
330
1F
100
AcDbEntity
  8
0
  6
Continuous
 62
     7
370
    15
100
AcDbSpline
210
0.0
220
0.0
230
1.0
 70
     8
 71
     3
 72
    26
 73
    22
 74
     0
 42
0.00000001
 43
0.00000001
 12
1.0
 22
0.0
 32
0.0
 13
1.0
 23
0.0
 33
0.0
 40
0.0
 40
0.0
 40
0.0
 40
0.0
 40
0.2499999999999947
 40
0.2499999999999947
 40
0.3749999999999917
 40
0.3749999999999917
 40
0.4374999999999894
 40
0.4374999999999894
 40
0.4687499999999892
 40
0.4687499999999892
 40
0.4999999999999891
 40
0.4999999999999891
 40
0.5312499999999889
 40
0.5312499999999889
 40
0.5624999999999888
 40
0.5624999999999888
 40
0.6249999999999901
 40
0.6249999999999901
 40
0.7499999999999931
 40
0.7499999999999931
 40
1.0
 40
1.0
 40
1.0
 40
1.0
 10
103.929579710768
 20
118.3259175742538
 30
0.0
 10
103.8821916013396
 20
118.1902618322306
 30
0.0
 10
103.8245502994352
 20
118.0463004339014
 30
0.0
 10
103.7025024868918
 20
117.803527860647
 30
0.0
 10
103.6564534791153
 20
117.7184882201976
 30
0.0
 10
103.5658001949496
 20
117.5781122471572
 30
0.0
 10
103.5314476946641
 20
117.5282008698184
 30
0.0
 10
103.4690125222735
 20
117.4516656049641
 30
0.0
 10
103.4457185034755
 20
117.4252611259772
 30
0.0
 10
103.3966659663489
 20
117.3776663607162
 30
0.0
 10
103.3722345166921
 20
117.3582237468644
 30
0.0
 10
103.3316049210723
 20
117.3333159691963
 30
0.0
 10
103.3154426392212
 20
117.3272461378854
 30
0.0
 10
103.288460595118
 20
117.3215572662916
 30
0.0
 10
103.2777110722952
 20
117.3219477743723
 30
0.0
 10
103.2496750981381
 20
117.3280901211608
 30
0.0
 10
103.2368138661055
 20
117.3387541275788
 30
0.0
 10
103.2058110049452
 20
117.377766917939
 30
0.0
 10
103.194951522876
 20
117.4138189083433
 30
0.0
 10
103.171674266938
 20
117.5314983058424
 30
0.0
 10
103.1696096643801
 20
117.6228282061754
 30
0.0
 10
103.1696096643801
 20
117.7160684590816
 30
0.0
  0
SPLINE
  5
DB
330
1F
100
AcDbEntity
  8
0
  6
Continuous
 62
     7
370
    15
100
AcDbSpline
210
0.0
220
0.0
230
1.0
 70
     8
 71
     3
 72
    24
 73
    20
 74
     0
 42
0.00000001
 43
0.00000001
 12
1.0
 22
0.0
 32
0.0
 13
1.0
 23
0.0
 33
0.0
 40
0.0
 40
0.0
 40
0.0
 40
0.0
 40
0.2499999999999987
 40
0.2499999999999987
 40
0.3749999999999979
 40
0.3749999999999979
 40
0.4374999999999985
 40
0.4374999999999985
 40
0.499999999999999
 40
0.499999999999999
 40
0.5312500000000006
 40
0.5312500000000006
 40
0.562500000000002
 40
0.562500000000002
 40
0.6250000000000032
 40
0.6250000000000032
 40
0.7500000000000029
 40
0.7500000000000029
 40
1.0
 40
1.0
 40
1.0
 40
1.0
 10
103.1696096643802
 20
94.39032379341951
 30
0.0
 10
103.1696096643802
 20
94.47523274708908
 30
0.0
 10
103.1723342928125
 20
94.55756244313595
 30
0.0
 10
103.1986916139305
 20
94.65997483055496
 30
0.0
 10
103.2109053322027
 20
94.69079192693935
 30
0.0
 10
103.2455159823351
 20
94.7198894430163
 30
0.0
 10
103.2599026927025
 20
94.72684708365493
 30
0.0
 10
103.3011511758048
 20
94.72573734237808
 30
0.0
 10
103.3296907257357
 20
94.71744393676936
 30
0.0
 10
103.390613391247
 20
94.67286050290815
 30
0.0
 10
103.4136793613868
 20
94.65239878965089
 30
0.0
 10
103.4575752413931
 20
94.60778617137055
 30
0.0
 10
103.4784552769532
 20
94.58391009316419
 30
0.0
 10
103.5356655402464
 20
94.51401299600217
 30
0.0
 10
103.5680121640227
 20
94.46843540721768
 30
0.0
 10
103.6541781075146
 20
94.33955191959878
 30
0.0
 10
103.6998421275546
 20
94.25971874246672
 30
0.0
 10
103.8203896910059
 20
94.03393793335435
 30
0.0
 10
103.879449779707
 20
93.89910654838302
 30
0.0
 10
103.929579710768
 20
93.77085140971546
 30
0.0
  0
LINE
  5
DC
330
1F
100
AcDbEntity
  8
0
  6
Continuous
 62
     7
370
    15
100
AcDbLine
 10
103.1696099415
 20
94.3903236885
 30
0.0
 11
103.1696099415
 21
117.7160687048
 31
0.0
  0
SPLINE
  5
DD
330
1F
100
AcDbEntity
  8
0
  6
Continuous
 62
     7
370
    15
100
AcDbSpline
210
0.0
220
0.0
230
1.0
 70
     8
 71
     3
 72
    14
 73
    10
 74
     0
 42
0.00000001
 43
0.00000001
 12
1.0
 22
0.0
 32
0.0
 13
1.0
 23
0.0
 33
0.0
 40
0.0
 40
0.0
 40
0.0
 40
0.0
 40
0.25
 40
0.25
 40
0.5
 40
0.5
 40
0.75
 40
0.75
 40
1.0
 40
1.0
 40
1.0
 40
1.0
 10
234.6735715922541
 20
118.4378292232247
 30
0.0
 10
233.9999825742622
 20
118.4378292232247
 30
0.0
 10
233.3451262159104
 20
118.4391791442022
 30
0.0
 10
232.0730496986289
 20
118.426927126839
 30
0.0
 10
231.4912658476497
 20
118.41338094832
 30
0.0
 10
230.4386164992561
 20
118.3256194568626
 30
0.0
 10
229.9981916106552
 20
118.2532529981817
 30
0.0
 10
229.2863147014244
 20
117.9992820163754
 30
0.0
 10
229.0366485647789
 20
117.8248918731398
 30
0.0
 10
228.8780166345195
 20
117.5876001025087
 30
0.0
  0
ELLIPSE
  5
DE
330
1F
100
AcDbEntity
  8
0
  6
Continuous
 62
     7
370
    15
100
AcDbEllipse
 10
230.3069751504
 20
105.9378369946
 30
0.0
 11
-0.2516063682710126
 21
12.499819213438
 31
0.0
210
0.0
220
0.0
230
1.0
 40
0.2671959542
 41
0.3655781774467198
 42
2.625631571542026
  0
SPLINE
  5
DF
330
1F
100
AcDbEntity
  8
0
  6
Continuous
 62
     7
370
    15
100
AcDbSpline
210
0.0
220
0.0
230
1.0
 70
     8
 71
     3
 72
    22
 73
    18
 74
     0
 42
0.00000001
 43
0.00000001
 12
1.0
 22
0.0
 32
0.0
 13
1.0
 23
0.0
 33
0.0
 40
0.0
 40
0.0
 40
0.0
 40
0.0
 40
0.1249999999999999
 40
0.1249999999999999
 40
0.2499999999999999
 40
0.2499999999999999
 40
0.3749999999999998
 40
0.3749999999999998
 40
0.4999999999999999
 40
0.4999999999999999
 40
0.6249999999999999
 40
0.6249999999999999
 40
0.75
 40
0.75
 40
0.875
 40
0.875
 40
1.0
 40
1.0
 40
1.0
 40
1.0
 10
228.8780166345195
 20
95.03208887175914
 30
0.0
 10
228.9572676222081
 20
94.87227661897893
 30
0.0
 10
229.059623679286
 20
94.72872965588157
 30
0.0
 10
229.3131208684711
 20
94.470456619813
 30
0.0
 10
229.4648512937827
 20
94.3553901887381
 30
0.0
 10
229.8198454371577
 20
94.15253402876509
 30
0.0
 10
230.0188086827362
 20
94.0669512398323
 30
0.0
 10
230.4593230584277
 20
93.92057437691074
 30
0.0
 10
230.7024274731935
 20
93.85951283923278
 30
0.0
 10
231.2267982887336
 20
93.7582487909744
 30
0.0
 10
231.5035764848895
 20
93.71867178580543
 30
0.0
 10
232.085427286192
 20
93.65493622732859
 30
0.0
 10
232.393094418153
 20
93.6306661899605
 30
0.0
 10
233.0253916566487
 20
93.5940131939575
 30
0.0
 10
233.3472957118452
 20
93.58163586144771
 30
0.0
 10
234.0023090335566
 20
93.56534040048048
 30
0.0
 10
234.3370538741511
 20
93.56143371320377
 30
0.0
 10
234.6735715922541
 20
93.56143371320377
 30
0.0
  0
LINE
  5
E0
330
1F
100
AcDbEntity
  8
0
  6
Continuous
 62
     7
370
    15
100
AcDbLine
 10
234.6735700592
 20
93.5614335586
 30
0.0
 11
239.0696063265
 21
93.5614335586
 31
0.0
  0
LINE
  5
E1
330
1F
100
AcDbEntity
  8
0
  6
Continuous
 62
     7
370
    15
100
AcDbLine
 10
239.0696063265
 20
93.5614335586
 30
0.0
 11
239.0696063265
 21
93.4378368084
 31
0.0
  0
LINE
  5
E2
330
1F
100
AcDbEntity
  8
0
  6
Continuous
 62
     7
370
    15
100
AcDbLine
 10
239.0696063265
 20
118.437828799
 30
0.0
 11
234.6735700592
 21
118.437828799
 31
0.0
  0
ELLIPSE
  5
E3
330
1F
100
AcDbEntity
  8
0
  6
Continuous
 62
     7
370
    15
100
AcDbEllipse
 10
228.3320267051
 20
110.7617284905
 30
0.0
 11
0.05251766933000113
 21
2.241541408624272
 31
0.0
210
0.0
220
0.0
230
1.0
 40
0.2635807735
 41
5.202529271799068
 42
10.68274473343981
  0
SPLINE
  5
E4
330
1F
100
AcDbEntity
  8
0
  6
Continuous
 62
     7
370
    15
100
AcDbSpline
210
0.0
220
0.0
230
1.0
 70
     8
 71
     3
 72
     8
 73
     4
 74
     0
 42
0.00000001
 43
0.00000001
 12
1.0
 22
0.0
 32
0.0
 13
1.0
 23
0.0
 33
0.0
 40
0.0
 40
0.0
 40
0.0
 40
0.0
 40
1.0
 40
1.0
 40
1.0
 40
1.0
 10
138.0296096643802
 20
123.6515136901711
 30
0.0
 10
137.6985893333605
 20
124.2430693866288
 30
0.0
 10
137.3668080618764
 20
124.834202050874
 30
0.0
 10
137.0344499654867
 20
125.4250122645459
 30
0.0
  0
LINE
  5
E5
330
1F
100
AcDbEntity
  8
0
  6
Continuous
 62
     7
370
    15
100
AcDbLine
 10
138.0296099558
 20
119.8517161657
 30
0.0
 11
138.0296099558
 21
123.6515141327
 31
0.0
  0
SPLINE
  5
E6
330
1F
100
AcDbEntity
  8
0
  6
Continuous
 62
     7
370
    15
100
AcDbSpline
210
0.0
220
0.0
230
1.0
 70
     8
 71
     3
 72
    10
 73
     6
 74
     0
 42
0.00000001
 43
0.00000001
 12
1.0
 22
0.0
 32
0.0
 13
1.0
 23
0.0
 33
0.0
 40
0.0
 40
0.0
 40
0.0
 40
0.0
 40
0.5
 40
0.5
 40
1.0
 40
1.0
 40
1.0
 40
1.0
 10
138.2779540501301
 20
122.8378369946409
 30
0.0
 10
138.2006293182559
 20
122.8957189955025
 30
0.0
 10
138.1372494927194
 20
122.9727923401364
 30
0.0
 10
138.0516790439464
 20
123.1472953983303
 30
0.0
 10
138.0296096643802
 20
123.2441006018107
 30
0.0
 10
138.0296096643802
 20
123.3404409664607
 30
0.0
  0
SPLINE
  5
E7
330
1F
100
AcDbEntity
  8
0
  6
Continuous
 62
     7
370
    15
100
AcDbSpline
210
0.0
220
0.0
230
1.0
 70
    24
 71
     3
 72
    12
 73
     8
 74
     0
 42
0.00000001
 43
0.00000001
 12
1.0
 22
0.0
 32
0.0
 13
1.0
 23
0.0
 33
0.0
 40
0.0
 40
0.0
 40
0.0
 40
0.0
 40
0.2499999999999991
 40
0.2499999999999991
 40
0.4999999999999982
 40
0.4999999999999982
 40
1.0
 40
1.0
 40
1.0
 40
1.0
 10
138.6296096643802
 20
122.8378369946409
 30
0.0
 10
138.5780174641056
 20
122.8378369946409
 30
0.0
 10
138.531112455311
 20
122.8378369946409
 30
0.0
 10
138.4577787294345
 20
122.8378369946409
 30
0.0
 10
138.4285488999855
 20
122.8378369946409
 30
0.0
 10
138.3503161199226
 20
122.8378369946409
 30
0.0
 10
138.311881962015
 20
122.8378369946409
 30
0.0
 10
138.2779540501301
 20
122.8378369946409
 30
0.0
  0
SPLINE
  5
E8
330
1F
100
AcDbEntity
  8
0
  6
Continuous
 62
     7
370
    15
100
AcDbSpline
210
0.0
220
0.0
230
1.0
 70
     8
 71
     3
 72
    12
 73
     8
 74
     0
 42
0.00000001
 43
0.00000001
 12
1.0
 22
0.0
 32
0.0
 13
1.0
 23
0.0
 33
0.0
 40
0.0
 40
0.0
 40
0.0
 40
0.0
 40
0.5000000000000002
 40
0.5000000000000002
 40
0.7500000000000001
 40
0.7500000000000001
 40
1.0
 40
1.0
 40
1.0
 40
1.0
 10
138.0922992053452
 20
119.096492025768
 30
0.0
 10
138.1352070493459
 20
118.9802983344923
 30
0.0
 10
138.201494211309
 20
118.8701631361399
 30
0.0
 10
138.3385861970716
 20
118.7437087728099
 30
0.0
 10
138.3909525262538
 20
118.7080381692339
 30
0.0
 10
138.5051137425303
 20
118.658543696827
 30
0.0
 10
138.5676505781238
 20
118.644847854792
 30
0.0
 10
138.6296096643802
 20
118.644847854792
 30
0.0
  0
LINE
  5
E9
330
1F
100
AcDbEntity
  8
0
  6
Continuous
 62
     7
370
    15
100
AcDbLine
 10
138.6296098679
 20
118.6448478375
 30
0.0
 11
139.5096100494
 21
118.6448478375
 31
0.0
  0
SPLINE
  5
EA
330
1F
100
AcDbEntity
  8
0
  6
Continuous
 62
     7
370
    15
100
AcDbSpline
210
0.0
220
0.0
230
1.0
 70
     8
 71
     3
 72
    12
 73
     8
 74
     0
 42
0.00000001
 43
0.00000001
 12
1.0
 22
0.0
 32
0.0
 13
1.0
 23
0.0
 33
0.0
 40
0.0
 40
0.0
 40
0.0
 40
0.0
 40
0.2499999999999978
 40
0.2499999999999978
 40
0.4999999999999956
 40
0.4999999999999956
 40
1.0
 40
1.0
 40
1.0
 40
1.0
 10
139.5096096643802
 20
118.644847854792
 30
0.0
 10
139.6028606827133
 20
118.644847854792
 30
0.0
 10
139.6943663915393
 20
118.6759091731914
 30
0.0
 10
139.8492899260743
 20
118.778529823572
 30
0.0
 10
139.9128847440166
 20
118.8481823516507
 30
0.0
 10
140.0634437006996
 20
119.0833972835526
 30
0.0
 10
140.1096096643802
 20
119.2682033729619
 30
0.0
 10
140.1096096643802
 20
119.4536841748956
 30
0.0
  0
LINE
  5
EB
330
1F
100
AcDbEntity
  8
0
  6
Continuous
 62
     7
370
    15
100
AcDbLine
 10
140.1096090302
 20
119.4536837984
 30
0.0
 11
140.1096090302
 21
119.8519247819
 31
0.0
  0
SPLINE
  5
EC
330
1F
100
AcDbEntity
  8
0
  6
Continuous
 62
     7
370
    15
100
AcDbSpline
210
0.0
220
0.0
230
1.0
 70
     8
 71
     3
 72
     8
 73
     4
 74
     0
 42
0.00000001
 43
0.00000001
 12
1.0
 22
0.0
 32
0.0
 13
1.0
 23
0.0
 33
0.0
 40
0.0
 40
0.0
 40
0.0
 40
0.0
 40
1.0
 40
1.0
 40
1.0
 40
1.0
 10
140.1096096643802
 20
119.8519248940963
 30
0.0
 10
140.4331672226351
 20
120.5880412927188
 30
0.0
 10
140.7656615428521
 20
121.3201328881375
 30
0.0
 10
141.1047693632736
 20
122.0492459957183
 30
0.0
  0
LINE
  5
ED
330
1F
100
AcDbEntity
  8
0
  6
Continuous
 62
     7
370
    15
100
AcDbLine
 10
141.104770042
 20
122.0492462863
 30
0.0
 11
142.4196093902
 21
122.0492462863
 31
0.0
  0
SPLINE
  5
EE
330
1F
100
AcDbEntity
  8
0
  6
Continuous
 62
     7
370
    15
100
AcDbSpline
210
0.0
220
0.0
230
1.0
 70
     8
 71
     3
 72
    12
 73
     8
 74
     0
 42
0.00000001
 43
0.00000001
 12
1.0
 22
0.0
 32
0.0
 13
1.0
 23
0.0
 33
0.0
 40
0.0
 40
0.0
 40
0.0
 40
0.0
 40
0.2500000000000034
 40
0.2500000000000034
 40
0.5000000000000068
 40
0.5000000000000068
 40
1.0
 40
1.0
 40
1.0
 40
1.0
 10
142.4196096643802
 20
122.0492459957183
 30
0.0
 10
142.5088980234239
 20
122.0492459957183
 30
0.0
 10
142.5969568543261
 20
122.0236213631136
 30
0.0
 10
142.7496105675753
 20
121.9350779901818
 30
0.0
 10
142.8154040609173
 20
121.8721955070671
 30
0.0
 10
142.9708447076333
 20
121.6548343191335
 30
0.0
 10
143.0196096643802
 20
121.4761873091222
 30
0.0
 10
143.0196096643802
 20
121.2980941539465
 30
0.0
  0
LINE
  5
EF
330
1F
100
AcDbEntity
  8
0
  6
Continuous
 62
     7
370
    15
100
AcDbLine
 10
143.0196102336
 20
121.298094583
 30
0.0
 11
143.0196102336
 21
117.7878373538
 31
0.0
  0
SPLINE
  5
F0
330
1F
100
AcDbEntity
  8
0
  6
Continuous
 62
     7
370
    15
100
AcDbSpline
210
0.0
220
0.0
230
1.0
 70
     8
 71
     3
 72
     8
 73
     4
 74
     0
 42
0.00000001
 43
0.00000001
 12
1.0
 22
0.0
 32
0.0
 13
1.0
 23
0.0
 33
0.0
 40
0.0
 40
0.0
 40
0.0
 40
0.0
 40
1.0
 40
1.0
 40
1.0
 40
1.0
 10
141.1047693632736
 20
125.4250122645459
 30
0.0
 10
140.772411266884
 20
124.834202050874
 30
0.0
 10
140.4406299953999
 20
124.2430693866288
 30
0.0
 10
140.1096096643802
 20
123.6515136901711
 30
0.0
  0
LINE
  5
F1
330
1F
100
AcDbEntity
  8
0
  6
Continuous
 62
     7
370
    15
100
AcDbLine
 10
141.104770042
 20
122.0492462863
 30
0.0
 11
141.104770042
 21
125.4250130851
 31
0.0
  0
LINE
  5
F2
330
1F
100
AcDbEntity
  8
0
  6
Continuous
 62
     7
370
    15
100
AcDbLine
 10
140.1096090302
 20
119.8519247819
 30
0.0
 11
140.1096090302
 21
123.6515141327
 31
0.0
  0
LINE
  5
F3
330
1F
100
AcDbEntity
  8
0
  6
Continuous
 62
     7
370
    15
100
AcDbLine
 10
142.4196093902
 20
125.4250130851
 30
0.0
 11
141.104770042
 21
125.4250130851
 31
0.0
  0
SPLINE
  5
F4
330
1F
100
AcDbEntity
  8
0
  6
Continuous
 62
     7
370
    15
100
AcDbSpline
210
0.0
220
0.0
230
1.0
 70
     8
 71
     3
 72
    10
 73
     6
 74
     0
 42
0.00000001
 43
0.00000001
 12
1.0
 22
0.0
 32
0.0
 13
1.0
 23
0.0
 33
0.0
 40
0.0
 40
0.0
 40
0.0
 40
0.0
 40
0.5
 40
0.5
 40
1.0
 40
1.0
 40
1.0
 40
1.0
 10
143.0196096643802
 20
124.8087140277838
 30
0.0
 10
143.0196096643802
 20
124.9671484706716
 30
0.0
 10
142.9574484478972
 20
125.1261691654736
 30
0.0
 10
142.7369391072256
 20
125.3561769897292
 30
0.0
 10
142.5780240042805
 20
125.425012264546
 30
0.0
 10
142.4196096643802
 20
125.4250122645459
 30
0.0
  0
LINE
  5
F5
330
1F
100
AcDbEntity
  8
0
  6
Continuous
 62
     7
370
    15
100
AcDbLine
 10
143.0196102336
 20
121.298094583
 30
0.0
 11
143.0196102336
 21
124.8087140967
 31
0.0
  0
SPLINE
  5
F6
330
1F
100
AcDbEntity
  8
0
  6
Continuous
 62
     7
370
    15
100
AcDbSpline
210
0.0
220
0.0
230
1.0
 70
    24
 71
     3
 72
    12
 73
     8
 74
     0
 42
0.00000001
 43
0.00000001
 12
1.0
 22
0.0
 32
0.0
 13
1.0
 23
0.0
 33
0.0
 40
0.0
 40
0.0
 40
0.0
 40
0.0
 40
0.4999999999999974
 40
0.4999999999999974
 40
0.7499999999999987
 40
0.7499999999999987
 40
1.0
 40
1.0
 40
1.0
 40
1.0
 10
139.8612652786311
 20
122.8378369946409
 30
0.0
 10
139.8270953172805
 20
122.8378369946409
 30
0.0
 10
139.787845176229
 20
122.8378369946409
 30
0.0
 10
139.709845165716
 20
122.8378369946409
 30
0.0
 10
139.6804422373152
 20
122.8378369946409
 30
0.0
 10
139.6072976431666
 20
122.8378369946409
 30
0.0
 10
139.5606676651987
 20
122.8378369946409
 30
0.0
 10
139.5096096643802
 20
122.8378369946409
 30
0.0
  0
SPLINE
  5
F7
330
1F
100
AcDbEntity
  8
0
  6
Continuous
 62
     7
370
    15
100
AcDbSpline
210
0.0
220
0.0
230
1.0
 70
     8
 71
     3
 72
    10
 73
     6
 74
     0
 42
0.00000001
 43
0.00000001
 12
1.0
 22
0.0
 32
0.0
 13
1.0
 23
0.0
 33
0.0
 40
0.0
 40
0.0
 40
0.0
 40
0.0
 40
0.5
 40
0.5
 40
1.0
 40
1.0
 40
1.0
 40
1.0
 10
140.1096096643802
 20
123.3404409664596
 30
0.0
 10
140.1096096643801
 20
123.2438984189841
 30
0.0
 10
140.0876690417991
 20
123.147437218715
 30
0.0
 10
140.0015388564089
 20
122.9720346244719
 30
0.0
 10
139.9384565492665
 20
122.8956190921053
 30
0.0
 10
139.8612652786349
 20
122.8378369946444
 30
0.0
  0
LINE
  5
F8
330
1F
100
AcDbEntity
  8
0
  6
Continuous
 62
     7
370
    15
100
AcDbLine
 10
139.5096100494
 20
122.8378362257
 30
0.0
 11
138.6296098679
 21
122.8378362257
 31
0.0
  0
SPLINE
  5
F9
330
1F
100
AcDbEntity
  8
0
  6
Continuous
 62
     7
370
    15
100
AcDbSpline
210
0.0
220
0.0
230
1.0
 70
     8
 71
     3
 72
    14
 73
    10
 74
     0
 42
0.00000001
 43
0.00000001
 12
1.0
 22
0.0
 32
0.0
 13
1.0
 23
0.0
 33
0.0
 40
0.0
 40
0.0
 40
0.0
 40
0.0
 40
0.25
 40
0.25
 40
0.5
 40
0.5
 40
0.75
 40
0.75
 40
1.0
 40
1.0
 40
1.0
 40
1.0
 10
228.8780166345195
 20
110.0587186180887
 30
0.0
 10
228.8928126211686
 20
110.1945836965518
 30
0.0
 10
228.9050718532135
 20
110.3342751994088
 30
0.0
 10
228.9224831494779
 20
110.6216881850235
 30
0.0
 10
228.9276296974536
 20
110.7711403902837
 30
0.0
 10
228.9286970332588
 20
111.0706794534717
 30
0.0
 10
228.9247031302159
 20
111.2194901975757
 30
0.0
 10
228.9077394306095
 20
111.5150848741574
 30
0.0
 10
228.8945615250952
 20
111.6630982814239
 30
0.0
 10
228.8780166345195
 20
111.8047204537973
 30
0.0
  0
LINE
  5
FA
330
1F
100
AcDbEntity
  8
0
  6
Continuous
 62
     7
370
    15
100
AcDbLine
 10
103.1696099415
 20
94.1193646986
 30
0.0
 11
103.1696099415
 21
94.3903236885
 31
0.0
  0
LINE
  5
FB
330
1F
100
AcDbEntity
  8
0
  6
Continuous
 62
     7
370
    15
100
AcDbLine
 10
103.1696099415
 20
117.8117509235
 30
0.0
 11
103.1696099415
 21
117.7160687048
 31
0.0
  0
LINE
  5
FC
330
1F
100
AcDbEntity
  8
0
  6
Continuous
 62
     7
370
    15
100
AcDbLine
 10
104.1196092591
 20
118.8178372804
 30
0.0
 11
104.1196092591
 21
118.803417613
 31
0.0
  0
LINE
  5
FD
330
1F
100
AcDbEntity
  8
0
  6
Continuous
 62
     7
370
    15
100
AcDbLine
 10
103.1696099415
 20
117.8678370316
 30
0.0
 11
103.1696099415
 21
117.8117509235
 31
0.0
  0
LINE
  5
FE
330
1F
100
AcDbEntity
  8
0
  6
Continuous
 62
     7
370
    15
100
AcDbLine
 10
104.1196092591
 20
93.1168369253
 30
0.0
 11
104.1196092591
 21
93.2073018749
 31
0.0
  0
LINE
  5
FF
330
1F
100
AcDbEntity
  8
0
  6
Continuous
 62
     7
370
    15
100
AcDbLine
 10
103.1696099415
 20
94.0668371741
 30
0.0
 11
103.1696099415
 21
94.1193646986
 31
0.0
  0
ARC
  5
100
330
1F
100
AcDbEntity
  8
0
  6
Continuous
 62
     7
370
    15
100
AcDbCircle
 10
250.3652790207
 20
110.2413816838
 30
0.0
 40
2.09735521590165
100
AcDbArc
 50
118.345463002
 51
333.0467223738
  0
LINE
  5
101
330
1F
100
AcDbEntity
  8
0
  6
Continuous
 62
     7
370
    15
100
AcDbLine
 10
261.7090448365
 20
110.1141514492
 30
0.0
 11
261.6633876786
 21
109.5936941684
 31
0.0
  0
LINE
  5
102
330
1F
100
AcDbEntity
  8
0
  6
Continuous
 62
     7
370
    15
100
AcDbLine
 10
245.0907706842
 20
93.0614427898
 30
0.0
 11
239.5696073398
 21
93.0614427898
 31
0.0
  0
LINE
  5
103
330
1F
100
AcDbEntity
  8
0
  6
Continuous
 62
     7
370
    15
100
AcDbLine
 10
239.5696073398
 20
93.0614427898
 30
0.0
 11
239.0696063265
 21
93.5614335586
 31
0.0
  0
SPLINE
  5
104
330
1F
100
AcDbEntity
  8
0
  6
Continuous
 62
     7
370
    15
100
AcDbSpline
210
0.0
220
0.0
230
1.0
 70
     8
 71
     3
 72
     8
 73
     4
 74
     0
 42
0.00000001
 43
0.00000001
 12
1.0
 22
0.0
 32
0.0
 13
1.0
 23
0.0
 33
0.0
 40
0.0
 40
0.0
 40
0.0
 40
0.0
 40
1.0
 40
1.0
 40
1.0
 40
1.0
 10
239.0696096643802
 20
118.4378292232247
 30
0.0
 10
239.8011101980385
 20
119.1693872547234
 30
0.0
 10
240.5327694337301
 20
119.9007871144822
 30
0.0
 10
241.2645253924975
 20
120.6320905743596
 30
0.0
  0
LINE
  5
105
330
1F
100
AcDbEntity
  8
0
  6
Continuous
 62
     7
370
    15
100
AcDbLine
 10
241.2645250186
 20
120.6320909087
 30
0.0
 11
250.1871689782
 21
121.4108200048
 31
0.0
  0
LINE
  5
106
330
1F
100
AcDbEntity
  8
0
  6
Continuous
 62
     7
370
    15
100
AcDbLine
 10
261.6633876786
 20
109.5936941684
 30
0.0
 11
245.0907706842
 21
93.0614427898
 31
0.0
  0
LINE
  5
107
330
1F
100
AcDbEntity
  8
0
  6
Continuous
 62
     7
370
    15
100
AcDbLine
 10
239.5696073398
 20
93.0614427898
 30
0.0
 11
239.5696073398
 21
92.9378367264
 31
0.0
  0
ELLIPSE
  5
108
330
1F
100
AcDbEntity
  8
0
  6
Continuous
 62
     7
370
    15
100
AcDbEllipse
 10
257.9067300667
 20
105.9378369946
 30
0.0
 11
13.17784690311692
 21
12.98255003967754
 31
0.0
210
0.0
220
0.0
230
1.0
 40
0.0510967938
 41
3.193411666407434
 42
3.331420764873113
  0
ARC
  5
109
330
1F
100
AcDbEntity
  8
0
  6
Continuous
 62
     7
370
    15
100
AcDbCircle
 10
250.3582187926
 20
109.9060590483
 30
0.0
 40
2.094424224623697
100
AcDbArc
 50
119.1309665645
 51
175.3810857242
  0
LWPOLYLINE
  5
10A
330
1F
100
AcDbEntity
  8
0
  6
HIDDEN
 62
     7
370
     0
100
AcDbPolyline
 90
       22
 70
   128
 43
0.0
 10
220.4576387629
 20
102.4516726148
 10
221.0399835929
 20
102.3582625904
 10
221.6249659285
 20
102.4348033362
 10
222.1605956182
 20
102.6744941019
 10
222.5992932543
 20
103.0560371701
 10
222.9020699486
 20
103.5455310021
 10
223.0420216545
 20
104.0994817859
 10
223.0067208037
 20
104.6686685413
 10
222.7992966399
 20
105.2025164945
 10
222.4381818995
 20
105.6535910002
 10
221.9554587826
 20
105.9818120676
 10
221.3940351829
 20
106.1580158248
 10
220.8037778363
 20
106.1665457792
 10
220.2371388301
 20
106.0066440305
 10
219.7444766387
 20
105.6925185376
 10
219.3695485219
 20
105.2520807253
 10
219.1456883773
 20
104.7244654738
 10
219.0927669033
 20
104.1565535825
 10
219.2155077681
 20
103.5988066115
 10
219.5029809698
 20
103.100782796
 10
219.9296682701
 20
102.7067339283
 10
220.4576387629
 20
102.4516726148
  0
LWPOLYLINE
  5
10B
330
1F
100
AcDbEntity
  8
0
  6
HIDDEN
 62
     7
370
     0
100
AcDbPolyline
 90
       25
 70
   128
 43
0.0
 10
220.2970638499
 20
101.8966825914
 10
220.9387674555
 20
101.7818025548
 10
221.5893894061
 20
101.8312623028
 10
222.204583846
 20
102.0416920774
 10
222.7424338087
 20
102.3987506751
 10
223.1662824377
 20
102.8781051983
 10
223.4472512826
 20
103.447088809
 10
223.5661849007
 20
104.0669258919
 10
223.5149770603
 20
104.6953757296
 10
223.2971295342
 20
105.2896104057
 10
222.9274689779
 20
105.809133861
 10
222.431208156
 20
106.2185414312
 10
221.8421503529
 20
106.4899326421
 10
221.2004467472
 20
106.6048126786
 10
220.5498322472
 20
106.5553525814
 10
219.9346303567
 20
106.3449230688
 10
219.396780394
 20
105.9878644819
 10
218.972931765
 20
105.5085098024
 10
218.6919703707
 20
104.9395262499
 10
218.5730367526
 20
104.319689167
 10
218.6242371425
 20
103.6912394457
 10
218.8420921192
 20
103.0970046532
 10
219.2117452249
 20
102.5774812561
 10
219.7080134973
 20
102.1680737149
 10
220.2970638499
 20
101.8966825914
  0
LWPOLYLINE
  5
10C
330
1F
100
AcDbEntity
  8
0
  6
HIDDEN
 62
     7
370
     0
100
AcDbPolyline
 90
       25
 70
   128
 43
0.0
 10
220.2970638499
 20
101.4437492241
 10
220.9387674555
 20
101.3288691875
 10
221.5893894061
 20
101.3783289355
 10
222.204583846
 20
101.5887584772
 10
222.7424338087
 20
101.9458173078
 10
223.1662824377
 20
102.4251718309
 10
223.4472512826
 20
102.9941554416
 10
223.5661849007
 20
103.6139925246
 10
223.5149770603
 20
104.2424423622
 10
223.2971295342
 20
104.8366770383
 10
222.9274689779
 20
105.3562005518
 10
222.431208156
 20
105.7656081075
 10
221.8421503529
 20
106.0369993329
 10
221.2004467472
 20
106.151879355
 10
220.5498322472
 20
106.1024192723
 10
219.9346303567
 20
105.8919897378
 10
219.396780394
 20
105.5349311619
 10
218.972931765
 20
105.0555764933
 10
218.6919703707
 20
104.486592999
 10
218.5730367526
 20
103.8667557996
 10
218.6242371425
 20
103.2383060784
 10
218.8420921192
 20
102.6440712858
 10
219.2117452249
 20
102.1245478887
 10
219.7080134973
 20
101.7151403476
 10
220.2970638499
 20
101.4437492241
  0
LWPOLYLINE
  5
10D
330
1F
100
AcDbEntity
  8
0
  6
HIDDEN
 62
     7
370
     0
100
AcDbPolyline
 90
       22
 70
   128
 43
0.0
 10
220.4515739903
 20
101.0101482507
 10
221.0396930203
 20
100.9158131902
 10
221.630464457
 20
100.9931120325
 10
222.1714064106
 20
101.2351767395
 10
222.6144402847
 20
101.6204988819
 10
222.9202195629
 20
102.1148411792
 10
223.0615570769
 20
102.6742787335
 10
223.0259060487
 20
103.2491031338
 10
222.8164255247
 20
103.7882385545
 10
222.4517345056
 20
104.2437809056
 10
221.9642355666
 20
104.575252929
 10
221.3972463831
 20
104.7532020139
 10
220.8011403307
 20
104.7618163985
 10
220.228898488
 20
104.6003308848
 10
219.7313487157
 20
104.2830940105
 10
219.3527102098
 20
103.8382938832
 10
219.1266297922
 20
103.3054525733
 10
219.0731867775
 20
102.7319157266
 10
219.1971420869
 20
102.1686443828
 10
219.487468861
 20
101.6656880502
 10
219.9183731899
 20
101.2677357767
 10
220.4515739903
 20
101.0101482507
  0
LWPOLYLINE
  5
10E
330
1F
100
AcDbEntity
  8
0
  6
HIDDEN
 62
     7
370
     0
100
AcDbPolyline
 90
       22
 70
   128
 43
0.0
 10
220.4515739903
 20
102.0830309254
 10
221.0396930203
 20
101.9886953991
 10
221.630464457
 20
102.0659944743
 10
222.1714064106
 20
102.3080591813
 10
222.6144402847
 20
102.6933815565
 10
222.9202195629
 20
103.187723621
 10
223.0615570769
 20
103.7471611753
 10
223.0259060487
 20
104.3219854592
 10
222.8164255247
 20
104.8611211127
 10
222.4517345056
 20
105.3166634056
 10
221.9642355666
 20
105.648135429
 10
221.3972463831
 20
105.8260844339
 10
220.8011403307
 20
105.8346988839
 10
220.228898488
 20
105.6732133266
 10
219.7313487157
 20
105.3559765106
 10
219.3527102098
 20
104.9111762086
 10
219.1266297922
 20
104.3783350151
 10
219.0731867775
 20
103.8047981684
 10
219.1971420869
 20
103.2415268246
 10
219.487468861
 20
102.7385702592
 10
219.9183731899
 20
102.3406184513
 10
220.4515739903
 20
102.0830309254
  0
LWPOLYLINE
  5
10F
330
1F
100
AcDbEntity
  8
0
  6
HIDDEN
 62
     7
370
     0
100
AcDbPolyline
 90
       25
 70
   128
 43
0.0
 10
220.2970638499
 20
101.2651639294
 10
220.9387674555
 20
101.1502838929
 10
221.5893894061
 20
101.1997441065
 10
222.204583846
 20
101.4101736483
 10
222.7424338087
 20
101.7672320132
 10
223.1662824377
 20
102.2465867691
 10
223.4472512826
 20
102.8155703798
 10
223.5661849007
 20
103.4354074628
 10
223.5149770603
 20
104.063857184
 10
223.2971295342
 20
104.6580919765
 10
222.9274689779
 20
105.1776153736
 10
222.431208156
 20
105.587022973
 10
221.8421503529
 20
105.8584141911
 10
221.2004467472
 20
105.9732942095
 10
220.5498322472
 20
105.9238341368
 10
219.9346303567
 20
105.713404596
 10
219.396780394
 20
105.3563460128
 10
218.972931765
 20
104.876991315
 10
218.6919703707
 20
104.3080078207
 10
218.5730367526
 20
103.6881707378
 10
218.6242371425
 20
103.0597207837
 10
218.8420921192
 20
102.465486224
 10
219.2117452249
 20
101.9459625941
 10
219.7080134973
 20
101.536555053
 10
220.2970638499
 20
101.2651639294
  0
LWPOLYLINE
  5
110
330
1F
100
AcDbEntity
  8
0
  6
HIDDEN
 62
     7
370
     0
100
AcDbPolyline
 90
       24
 70
   128
 43
0.0
 10
220.3588738665
 20
101.580959582
 10
220.9753870592
 20
101.4740903166
 10
221.598896347
 20
101.531850477
 10
222.1831485257
 20
101.7499569107
 10
222.6848110184
 20
102.1122332432
 10
223.0666830763
 20
102.5918112837
 10
223.3004450426
 20
103.1531228919
 10
223.3687519655
 20
103.7545379486
 10
223.2665449008
 20
104.351452389
 10
223.0014010891
 20
104.8995959109
 10
222.5929826125
 20
105.3583150615
 10
222.0715835318
 20
105.6935888019
 10
221.4758723602
 20
105.8805513867
 10
220.8500310406
 20
105.9053366853
 10
220.2404766902
 20
105.766106467
 10
219.6924119815
 20
105.4731868035
 10
219.2464947328
 20
105.0483022237
 10
218.9357831702
 20
104.5229644051
 10
218.78332939
 20
103.9361353733
 10
218.800435923
 20
103.3313375201
 10
218.9858436212
 20
102.7534257856
 10
219.3257838115
 20
102.2452614971
 10
219.795066081
 20
101.8445327182
 10
220.3588738665
 20
101.580959582
  0
LWPOLYLINE
  5
111
330
1F
100
AcDbEntity
  8
0
  6
HIDDEN
 62
     7
370
     0
100
AcDbPolyline
 90
       25
 70
   128
 43
0.0
 10
220.2970638499
 20
101.0865786348
 10
220.9387674555
 20
100.9716985982
 10
221.5893894061
 20
101.0211588119
 10
222.204583846
 20
101.2315883536
 10
222.7424338087
 20
101.5886471842
 10
223.1662824377
 20
102.0680017073
 10
223.4472512826
 20
102.6369850852
 10
223.5661849007
 20
103.256822401
 10
223.5149770603
 20
103.8852721222
 10
223.2971295342
 20
104.4795067983
 10
222.9274689779
 20
104.9990302536
 10
222.431208156
 20
105.408437853
 10
221.8421503529
 20
105.6798290638
 10
221.2004467472
 20
105.7947090713
 10
220.5498322472
 20
105.7452489886
 10
219.9346303567
 20
105.5348194614
 10
219.396780394
 20
105.1777608928
 10
218.972931765
 20
104.6984062532
 10
218.6919703707
 20
104.1294226425
 10
218.5730367526
 20
103.5095854432
 10
218.6242371425
 20
102.8811357219
 10
218.8420921192
 20
102.2869011622
 10
219.2117452249
 20
101.7673777651
 10
219.7080134973
 20
101.357970224
 10
220.2970638499
 20
101.0865786348
  0
LWPOLYLINE
  5
112
330
1F
100
AcDbEntity
  8
0
  6
HIDDEN
 62
     7
370
     0
100
AcDbPolyline
 90
       24
 70
   128
 43
0.0
 10
220.3588738665
 20
101.4023742874
 10
220.9753870592
 20
101.2955050219
 10
221.598896347
 20
101.353265648
 10
222.1831485257
 20
101.5713716161
 10
222.6848110184
 20
101.9336481814
 10
223.0666830763
 20
102.4132262219
 10
223.3004450426
 20
102.9745375973
 10
223.3687519655
 20
103.5759528868
 10
223.2665449008
 20
104.1728673272
 10
223.0014010891
 20
104.7210107327
 10
222.5929826125
 20
105.1797299415
 10
222.0715835318
 20
105.5150036528
 10
221.4758723602
 20
105.7019662522
 10
220.8500310406
 20
105.7267515398
 10
220.2404766902
 20
105.5875213179
 10
219.6924119815
 20
105.2946016544
 10
219.2464947328
 20
104.8697171037
 10
218.9357831702
 20
104.3443793433
 10
218.78332939
 20
103.7575503115
 10
218.800435923
 20
103.1527522255
 10
218.9858436212
 20
102.5748407238
 10
219.3257838115
 20
102.0666762025
 10
219.795066081
 20
101.6659474235
 10
220.3588738665
 20
101.4023742874
  0
LWPOLYLINE
  5
113
330
1F
100
AcDbEntity
  8
0
  6
HIDDEN
 62
     7
370
     0
100
AcDbPolyline
 90
       25
 70
   128
 43
0.0
 10
220.2970638499
 20
100.9079938058
 10
220.9387674555
 20
100.7931137693
 10
221.5893894061
 20
100.8425735172
 10
222.204583846
 20
101.053003059
 10
222.7424338087
 20
101.4100618896
 10
223.1662824377
 20
101.8894164127
 10
223.4472512826
 20
102.4584000234
 10
223.5661849007
 20
103.0782371063
 10
223.5149770603
 20
103.7066870604
 10
223.2971295342
 20
104.3009216201
 10
222.9274689779
 20
104.8204451336
 10
222.431208156
 20
105.2298526748
 10
221.8421503529
 20
105.5012439147
 10
221.2004467472
 20
105.6161239222
 10
220.5498322472
 20
105.566663854
 10
219.9346303567
 20
105.3562343123
 10
219.396780394
 20
104.9991757146
 10
218.972931765
 20
104.519821075
 10
218.6919703707
 20
103.9508374643
 10
218.5730367526
 20
103.3310003814
 10
218.6242371425
 20
102.7025506601
 10
218.8420921192
 20
102.1083158676
 10
219.2117452249
 20
101.5887924705
 10
219.7080134973
 20
101.1793849294
 10
220.2970638499
 20
100.9079938058
  0
LWPOLYLINE
  5
114
330
1F
100
AcDbEntity
  8
0
  6
HIDDEN
 62
     7
370
     0
100
AcDbPolyline
 90
       24
 70
   128
 43
0.0
 10
220.3588738665
 20
101.2237889927
 10
220.9753870592
 20
101.1169197273
 10
221.598896347
 20
101.1746803534
 10
222.1831485257
 20
101.3927867871
 10
222.6848110184
 20
101.7550628867
 10
223.0666830763
 20
102.2346411601
 10
223.3004450426
 20
102.7959525355
 10
223.3687519655
 20
103.3973675922
 10
223.2665449008
 20
103.994282149
 10
223.0014010891
 20
104.5424256709
 10
222.5929826125
 20
105.0011447633
 10
222.0715835318
 20
105.3364185037
 10
221.4758723602
 20
105.5233811031
 10
220.8500310406
 20
105.5481663907
 10
220.2404766902
 20
105.4089361688
 10
219.6924119815
 20
105.1160165344
 10
219.2464947328
 20
104.6911319254
 10
218.9357831702
 20
104.1657941651
 10
218.78332939
 20
103.5789650169
 10
218.800435923
 20
102.9741671637
 10
218.9858436212
 20
102.3962554291
 10
219.3257838115
 20
101.8880911407
 10
219.795066081
 20
101.4873621289
 10
220.3588738665
 20
101.2237889927
  0
LWPOLYLINE
  5
115
330
1F
100
AcDbEntity
  8
0
  6
HIDDEN
 62
     7
370
     0
100
AcDbPolyline
 90
       25
 70
   128
 43
0.0
 10
220.2970638499
 20
100.7294085112
 10
220.9387674555
 20
100.6145284746
 10
221.5893894061
 20
100.6639886883
 10
222.204583846
 20
100.87441823
 10
222.7424338087
 20
101.2314765949
 10
223.1662824377
 20
101.7108315837
 10
223.4472512826
 20
102.2798149616
 10
223.5661849007
 20
102.8996520445
 10
223.5149770603
 20
103.5281017658
 10
223.2971295342
 20
104.1223365583
 10
222.9274689779
 20
104.6418599554
 10
222.431208156
 20
105.0512675547
 10
221.8421503529
 20
105.3226587947
 10
221.2004467472
 20
105.437538773
 10
220.5498322472
 20
105.388078734
 10
219.9346303567
 20
105.1776491923
 10
219.396780394
 20
104.8205905363
 10
218.972931765
 20
104.3412358968
 10
218.6919703707
 20
103.7722524025
 10
218.5730367526
 20
103.1524153196
 10
218.6242371425
 20
102.5239653655
 10
218.8420921192
 20
101.929730573
 10
219.2117452249
 20
101.4102071759
 10
219.7080134973
 20
101.0007996347
 10
220.2970638499
 20
100.7294085112
  0
LWPOLYLINE
  5
116
330
1F
100
AcDbEntity
  8
0
  6
HIDDEN
 62
     7
370
     0
100
AcDbPolyline
 90
       24
 70
   128
 43
0.0
 10
220.3588738665
 20
101.0452041638
 10
220.9753870592
 20
100.9383348983
 10
221.598896347
 20
100.9960950587
 10
222.1831485257
 20
101.2142014925
 10
222.6848110184
 20
101.5764780578
 10
223.0666830763
 20
102.0560558655
 10
223.3004450426
 20
102.6173674737
 10
223.3687519655
 20
103.2187825304
 10
223.2665449008
 20
103.8156969708
 10
223.0014010891
 20
104.3638404927
 10
222.5929826125
 20
104.8225595851
 10
222.0715835318
 20
105.1578333836
 10
221.4758723602
 20
105.344795983
 10
220.8500310406
 20
105.3695812707
 10
220.2404766902
 20
105.2303510487
 10
219.6924119815
 20
104.9374313562
 10
219.2464947328
 20
104.5125467472
 10
218.9357831702
 20
103.9872089869
 10
218.78332939
 20
103.4003799551
 10
218.800435923
 20
102.7955821019
 10
218.9858436212
 20
102.2176703673
 10
219.3257838115
 20
101.709505846
 10
219.795066081
 20
101.3087772999
 10
220.3588738665
 20
101.0452041638
  0
LWPOLYLINE
  5
117
330
1F
100
AcDbEntity
  8
0
  6
HIDDEN
 62
     7
370
     0
100
AcDbPolyline
 90
       25
 70
   128
 43
0.0
 10
220.2970638499
 20
100.587058184
 10
220.9387674555
 20
100.4721781474
 10
221.5893894061
 20
100.5216378954
 10
222.204583846
 20
100.7320674371
 10
222.7424338087
 20
101.0891262677
 10
223.1662824377
 20
101.5684807908
 10
223.4472512826
 20
102.1374644015
 10
223.5661849007
 20
102.7573014845
 10
223.5149770603
 20
103.3857514386
 10
223.2971295342
 20
103.9799859982
 10
222.9274689779
 20
104.4995095117
 10
222.431208156
 20
104.9089170529
 10
221.8421503529
 20
105.1803082928
 10
221.2004467472
 20
105.2951883294
 10
220.5498322472
 20
105.2457282322
 10
219.9346303567
 20
105.0352986904
 10
219.396780394
 20
104.6782400927
 10
218.972931765
 20
104.1988854532
 10
218.6919703707
 20
103.6299018424
 10
218.5730367526
 20
103.0100647595
 10
218.6242371425
 20
102.3816150383
 10
218.8420921192
 20
101.7873802457
 10
219.2117452249
 20
101.2678568486
 10
219.7080134973
 20
100.8584493075
 10
220.2970638499
 20
100.587058184
  0
LWPOLYLINE
  5
118
330
1F
100
AcDbEntity
  8
0
  6
HIDDEN
 62
     7
370
     0
100
AcDbPolyline
 90
       24
 70
   128
 43
0.0
 10
220.3403293714
 20
100.6794342075
 10
220.9729283676
 20
100.5697770279
 10
221.6127022728
 20
100.6290445339
 10
222.2121908888
 20
100.8528404173
 10
222.7269440517
 20
101.2245675784
 10
223.1187775359
 20
101.7166560751
 10
223.3586415276
 20
102.2926106353
 10
223.4287291393
 20
102.9097149849
 10
223.3238547668
 20
103.5222011388
 10
223.0517968163
 20
104.0846439546
 10
222.6327240095
 20
104.5553297272
 10
222.0977201685
 20
104.8993496925
 10
221.4864745364
 20
105.09118957
 10
220.8443015441
 20
105.1166214284
 10
220.2188476548
 20
104.9737591066
 10
219.6564852819
 20
104.6731980287
 10
219.1989302263
 20
104.237229517
 10
218.8801198825
 20
103.6981873449
 10
218.7236874923
 20
103.0960495819
 10
218.7412410602
 20
102.4754744258
 10
218.9314841852
 20
101.8824869071
 10
219.280298017
 20
101.3610659402
 10
219.7618141398
 20
100.9498832982
 10
220.3403293714
 20
100.6794342075
  0
ARC
  5
119
330
1F
100
AcDbEntity
  8
0
  6
HIDDEN
 62
     7
370
     0
100
AcDbCircle
 10
254.8397376055
 20
114.8821889114
 30
0.0
 40
0.3936796738580856
100
AcDbArc
 50
171.989275523
 51
294.6919059972
  0
ARC
  5
11A
330
1F
100
AcDbEntity
  8
0
  6
HIDDEN
 62
     7
370
     0
100
AcDbCircle
 10
257.5487684566
 20
115.2558172491
 30
0.0
 40
0.3934686986723274
100
AcDbArc
 50
261.0397860113
 51
9.9581866364
  0
ARC
  5
11B
330
1F
100
AcDbEntity
  8
0
  6
HIDDEN
 62
     7
370
     0
100
AcDbCircle
 10
253.9987163735
 20
115.5600032206
 30
0.0
 40
0.687321828546465
100
AcDbArc
 50
0.0203162069
 51
54.7251434618
  0
ARC
  5
11C
330
1F
100
AcDbEntity
  8
0
  6
HIDDEN
 62
     7
370
     0
100
AcDbCircle
 10
258.1726216816
 20
116.1368318905
 30
0.0
 40
0.6866255327322707
100
AcDbArc
 50
141.0352135224
 51
179.9976205683
  0
ARC
  5
11D
330
1F
100
AcDbEntity
  8
0
  6
HIDDEN
 62
     7
370
     0
100
AcDbCircle
 10
254.6223352288
 20
116.4416847108
 30
0.0
 40
0.3926146195614272
100
AcDbArc
 50
171.670245879
 51
234.732975229
  0
ARC
  5
11E
330
1F
100
AcDbEntity
  8
0
  6
HIDDEN
 62
     7
370
     0
100
AcDbCircle
 10
257.3336985297
 20
116.8153409251
 30
0.0
 40
0.3923399741938211
100
AcDbArc
 50
321.0334269901
 51
8.0114519593
  0
ARC
  5
11F
330
1F
100
AcDbEntity
  8
0
  6
HIDDEN
 62
     7
370
     0
100
AcDbCircle
 10
256.0842141137
 20
115.9142930491
 30
0.0
 40
3.500005368338304
100
AcDbArc
 50
0.1036400753
 51
179.8963599247
  0
ARC
  5
120
330
1F
100
AcDbEntity
  8
0
  6
HIDDEN
 62
     7
370
     0
100
AcDbCircle
 10
257.3805793655
 20
114.1863518052
 30
0.0
 40
0.6891411165198243
100
AcDbArc
 50
81.0756271797
 51
174.5393853715
  0
ARC
  5
121
330
1F
100
AcDbEntity
  8
0
  6
HIDDEN
 62
     7
370
     0
100
AcDbCircle
 10
255.2915676656
 20
113.8971448437
 30
0.0
 40
0.6900466563016214
100
AcDbArc
 50
21.2365052615
 51
114.6111091872
  0
ARC
  5
122
330
1F
100
AcDbEntity
  8
0
  6
HIDDEN
 62
     7
370
     0
100
AcDbCircle
 10
256.3022152528
 20
114.2897082329
 30
0.0
 40
0.394164859187263
100
AcDbArc
 50
201.211852329
 51
354.5003352092
  0
CIRCLE
  5
123
330
1F
100
AcDbEntity
  8
0
  6
HIDDEN
 62
     7
370
     0
100
AcDbCircle
 10
256.0882337332
 20
115.6903739998
 30
0.0
 40
2.495907870335856
  0
CIRCLE
  5
124
330
1F
100
AcDbEntity
  8
0
  6
HIDDEN
 62
     7
370
     0
100
AcDbCircle
 10
256.0882338072
 20
115.3206650151
 30
0.0
 40
2.495907796941271
  0
CIRCLE
  5
125
330
1F
100
AcDbEntity
  8
0
  6
HIDDEN
 62
     7
370
     0
100
AcDbCircle
 10
256.0870046799
 20
115.2580773423
 30
0.0
 40
1.597140763653736
  0
LINE
  5
126
330
1F
100
AcDbEntity
  8
0
  6
HIDDEN
 62
     7
370
     0
100
AcDbLine
 10
249.7417434677
 20
109.3104005095
 30
0.0
 11
249.5388343558
 21
109.2127755519
 31
0.0
  0
LINE
  5
127
330
1F
100
AcDbEntity
  8
0
  6
HIDDEN
 62
     7
370
     0
100
AcDbLine
 10
261.406163834
 20
110.3284189713
 30
0.0
 11
261.5764245018
 21
110.2633632955
 31
0.0
  0
ARC
  5
128
330
1F
100
AcDbEntity
  8
0
  6
HIDDEN
 62
     7
370
     0
100
AcDbCircle
 10
256.0842066631
 20
115.8962990615
 30
0.0
 40
3.800003838179639
100
AcDbArc
 50
180.1065282118
 51
359.8934717882
  0
LINE
  5
129
330
1F
100
AcDbEntity
  8
0
  6
HIDDEN
 62
     7
370
     0
100
AcDbLine
 10
262.4266698584
 20
121.9644251515
 30
0.0
 11
262.6295789704
 21
122.2716349412
 31
0.0
  0
LINE
  5
12A
330
1F
100
AcDbEntity
  8
0
  6
HIDDEN
 62
     7
370
     0
100
AcDbLine
 10
250.7622494921
 20
120.9464066897
 30
0.0
 11
250.5919888243
 21
121.221048129
 31
0.0
  0
CIRCLE
  5
12B
330
1F
100
AcDbEntity
  8
0
  6
HIDDEN
 62
     7
370
     0
100
AcDbCircle
 10
256.0796120833
 20
115.7826076352
 30
0.0
 40
2.745521836506758
  0
CIRCLE
  5
12C
330
1F
100
AcDbEntity
  8
0
  6
HIDDEN
 62
     7
370
     0
100
AcDbCircle
 10
256.0796120894
 20
115.6355955716
 30
0.0
 40
2.745521842683007
  0
LINE
  5
12D
330
1F
100
AcDbEntity
  8
0
  6
HIDDEN
 62
     7
370
     0
100
AcDbLine
 10
262.4266698584
 20
121.9644251515
 30
0.0
 11
250.7622494921
 21
120.9464066897
 31
0.0
  0
LINE
  5
12E
330
1F
100
AcDbEntity
  8
0
  6
HIDDEN
 62
     7
370
     0
100
AcDbLine
 10
261.406163834
 20
110.3284189713
 30
0.0
 11
262.4266698584
 21
121.9644251515
 31
0.0
  0
LINE
  5
12F
330
1F
100
AcDbEntity
  8
0
  6
HIDDEN
 62
     7
370
     0
100
AcDbLine
 10
250.7622494921
 20
120.9464066897
 30
0.0
 11
249.7417434677
 21
109.3104005095
 31
0.0
  0
LINE
  5
130
330
1F
100
AcDbEntity
  8
0
  6
HIDDEN
 62
     7
370
     0
100
AcDbLine
 10
249.7417434677
 20
109.3104005095
 30
0.0
 11
261.406163834
 21
110.3284189713
 31
0.0
  0
LINE
  5
131
330
1F
100
AcDbEntity
  8
0
  6
HIDDEN
 62
     7
370
     0
100
AcDbLine
 10
137.0344498754
 20
121.9973418165
 30
0.0
 11
137.0344498754
 21
117.7878373538
 31
0.0
  0
LINE
  5
132
330
1F
100
AcDbEntity
  8
0
  6
HIDDEN
 62
     7
370
     0
100
AcDbLine
 10
114.7186012566
 20
91.2390819986
 30
0.0
 11
114.4998903945
 21
91.2095106442
 31
0.0
  0
SPLINE
  5
133
330
1F
100
AcDbEntity
  8
0
  6
HIDDEN
 62
     7
370
     0
100
AcDbSpline
210
0.0
220
0.0
230
1.0
 70
     8
 71
     3
 72
     9
 73
     5
 74
     0
 42
0.00000001
 43
0.00000001
 12
1.0
 22
0.0
 32
0.0
 13
1.0
 23
0.0
 33
0.0
 40
0.0
 40
0.0
 40
0.0
 40
0.0
 40
0.0013268147208897
 40
1.0
 40
1.0
 40
1.0
 40
1.0
 10
115.4902658052739
 20
91.30888462554695
 30
0.0
 10
115.4898364070734
 20
91.30886476464154
 30
0.0
 10
115.1662055385789
 20
91.2938959034218
 30
0.0
 10
114.9422548270433
 20
91.26647075695664
 30
0.0
 10
114.7186012566086
 20
91.23908199857952
 30
0.0
  0
SPLINE
  5
134
330
1F
100
AcDbEntity
  8
0
  6
HIDDEN
 62
     7
370
     0
100
AcDbSpline
210
0.0
220
0.0
230
1.0
 70
     8
 71
     3
 72
     9
 73
     5
 74
     0
 42
0.00000001
 43
0.00000001
 12
1.0
 22
0.0
 32
0.0
 13
1.0
 23
0.0
 33
0.0
 40
0.0
 40
0.0
 40
0.0
 40
0.0
 40
0.6768574399336622
 40
0.9999999999999999
 40
0.9999999999999999
 40
0.9999999999999999
 40
0.9999999999999999
 10
114.3044020608064
 20
120.6918939251828
 30
0.0
 10
114.4016051212746
 20
120.675118752391
 30
0.0
 10
114.5452144764111
 20
120.6503348439901
 30
0.0
 10
114.9561499924174
 20
120.6146560979605
 30
0.0
 10
115.0889407470819
 20
120.6031267766285
 30
0.0
  0
SPLINE
  5
135
330
1F
100
AcDbEntity
  8
0
  6
HIDDEN
 62
     7
370
     0
100
AcDbSpline
210
0.0
220
0.0
230
1.0
 70
     8
 71
     3
 72
    15
 73
    11
 74
     0
 42
0.00000001
 43
0.00000001
 12
1.0
 22
0.0
 32
0.0
 13
1.0
 23
0.0
 33
0.0
 40
0.0
 40
0.0
 40
0.0
 40
0.0
 40
0.1360947993897038
 40
0.2722233504338452
 40
0.4072157477284721
 40
0.5405337273204607
 40
0.674528402193116
 40
0.8104813419156445
 40
0.9466524598609822
 40
1.0
 40
1.0
 40
1.0
 40
1.0
 10
118.8937864825126
 20
93.2650271106887
 30
0.0
 10
118.7158862207042
 20
93.28896950720646
 30
0.0
 10
118.3600415776339
 20
93.33686023798167
 30
0.0
 10
117.625718397134
 20
93.39256972633386
 30
0.0
 10
116.8463097432594
 20
93.40302051779874
 30
0.0
 10
116.0945235628502
 20
93.36581999500049
 30
0.0
 10
115.4472296562164
 20
93.29646566677428
 30
0.0
 10
114.9914302858262
 20
93.22765838961678
 30
0.0
 10
114.765208126027
 20
93.18706196986915
 30
0.0
 10
114.7926576580891
 20
93.19196566630906
 30
0.0
 10
114.8003844171759
 20
93.19334600608828
 30
0.0
  0
SPLINE
  5
136
330
1F
100
AcDbEntity
  8
0
  6
HIDDEN
 62
     7
370
     0
100
AcDbSpline
210
0.0
220
0.0
230
1.0
 70
     8
 71
     3
 72
    15
 73
    11
 74
     0
 42
0.00000001
 43
0.00000001
 12
1.0
 22
0.0
 32
0.0
 13
1.0
 23
0.0
 33
0.0
 40
0.0
 40
0.0
 40
0.0
 40
0.0
 40
0.0809850953378773
 40
0.2142994841332234
 40
0.3489242590596051
 40
0.4852277276366004
 40
0.6209655570397145
 40
0.7547097406923156
 40
0.8881684412294678
 40
1.0
 40
1.0
 40
1.0
 40
1.0
 10
114.8003844171759
 20
118.6823279831934
 30
0.0
 10
114.7974211383123
 20
118.6828361118332
 30
0.0
 10
114.7895798296224
 20
118.6841807012903
 30
0.0
 10
115.0610708310878
 20
118.6364569687135
 30
0.0
 10
115.5550538481325
 20
118.5652930545105
 30
0.0
 10
116.2334312502706
 20
118.499199874656
 30
0.0
 10
117.0050717325332
 20
118.4706579035411
 30
0.0
 10
117.7754402462844
 20
118.4912125584407
 30
0.0
 10
118.4369523232898
 20
118.5484774214147
 30
0.0
 10
118.7507303220113
 20
118.5911787112836
 30
0.0
 10
118.8937864825126
 20
118.610646878593
 30
0.0
  0
SPLINE
  5
137
330
1F
100
AcDbEntity
  8
0
  6
HIDDEN
 62
     7
370
     0
100
AcDbSpline
210
0.0
220
0.0
230
1.0
 70
     8
 71
     3
 72
     9
 73
     5
 74
     0
 42
0.00000001
 43
0.00000001
 12
1.0
 22
0.0
 32
0.0
 13
1.0
 23
0.0
 33
0.0
 40
0.0
 40
0.0
 40
0.0
 40
0.0
 40
0.5104603684361959
 40
1.0
 40
1.0
 40
1.0
 40
1.0
 10
118.8937864825126
 20
118.610646878593
 30
0.0
 10
119.0337599498467
 20
118.6279875244484
 30
0.0
 10
119.3079702039411
 20
118.66195812614
 30
0.0
 10
119.3459681015324
 20
118.6637856878439
 30
0.0
 10
119.3645695783194
 20
118.664680351727
 30
0.0
  0
SPLINE
  5
138
330
1F
100
AcDbEntity
  8
0
  6
HIDDEN
 62
     7
370
     0
100
AcDbSpline
210
0.0
220
0.0
230
1.0
 70
     8
 71
     3
 72
    10
 73
     6
 74
     0
 42
0.00000001
 43
0.00000001
 12
1.0
 22
0.0
 32
0.0
 13
1.0
 23
0.0
 33
0.0
 40
0.0
 40
0.0
 40
0.0
 40
0.0
 40
0.0225618016766431
 40
0.5337624807944359
 40
1.0
 40
1.0
 40
1.0
 40
1.0
 10
119.3642040342089
 20
93.21102716516735
 30
0.0
 10
119.3660052193748
 20
93.21086182249901
 30
0.0
 10
119.4086172889376
 20
93.20695017953244
 30
0.0
 10
119.2691891252183
 20
93.21681514250817
 30
0.0
 10
119.0150234020737
 20
93.24945697387226
 30
0.0
 10
118.8937864825126
 20
93.2650271106887
 30
0.0
  0
LINE
  5
139
330
1F
100
AcDbEntity
  8
0
  6
HIDDEN
 62
     7
370
     0
100
AcDbLine
 10
111.0722591728
 20
95.4378371362
 30
0.0
 11
111.0722591728
 21
116.4378368531
 31
0.0
  0
SPLINE
  5
13A
330
1F
100
AcDbEntity
  8
0
  6
HIDDEN
 62
     7
370
     0
100
AcDbSpline
210
0.0
220
0.0
230
1.0
 70
     8
 71
     3
 72
    14
 73
    10
 74
     0
 42
0.00000001
 43
0.00000001
 12
1.0
 22
0.0
 32
0.0
 13
1.0
 23
0.0
 33
0.0
 40
0.0
 40
0.0
 40
0.0
 40
0.0
 40
0.1552136338751002
 40
0.3103528609621442
 40
0.4674554425835021
 40
0.6258994803958822
 40
0.7822403318132921
 40
0.9363740569363371
 40
1.0
 40
1.0
 40
1.0
 40
1.0
 10
221.0696071013805
 20
100.3531495344269
 30
0.0
 10
220.7916525796426
 20
100.3778196808448
 30
0.0
 10
220.2358767828583
 20
100.4271481472299
 30
0.0
 10
219.4938041771337
 20
100.8138492394576
 30
0.0
 10
218.923051680227
 20
101.3941243813869
 30
0.0
 10
218.5868932251198
 20
102.141492005149
 30
0.0
 10
218.5454980487716
 20
102.9531820836124
 30
0.0
 10
218.6952434967127
 20
103.6146237245103
 30
0.0
 10
218.9287598822312
 20
103.9239857678845
 30
0.0
 10
218.996989689767
 20
104.0143764812875
 30
0.0
  0
SPLINE
  5
13B
330
1F
100
AcDbEntity
  8
0
  6
HIDDEN
 62
     7
370
     0
100
AcDbSpline
210
0.0
220
0.0
230
1.0
 70
     8
 71
     3
 72
    14
 73
    10
 74
     0
 42
0.00000001
 43
0.00000001
 12
1.0
 22
0.0
 32
0.0
 13
1.0
 23
0.0
 33
0.0
 40
0.0
 40
0.0
 40
0.0
 40
0.0
 40
0.093138354655931
 40
0.2517666350653939
 40
0.4076425505388122
 40
0.5631900625734818
 40
0.7212645203295958
 40
0.8809614576652647
 40
1.0
 40
1.0
 40
1.0
 40
1.0
 10
223.162370882928
 20
103.9800153348971
 30
0.0
 10
223.2531634032886
 20
103.842773539345
 30
0.0
 10
223.4985889041442
 20
103.47178883402
 30
0.0
 10
223.60966985822
 20
102.7515200324989
 30
0.0
 10
223.4949023387812
 20
101.9535209427688
 30
0.0
 10
223.1051691099511
 20
101.2470114884036
 30
0.0
 10
222.4916587390116
 20
100.7089754497651
 30
0.0
 10
221.7748681452999
 20
100.401324611353
 30
0.0
 10
221.2806647421245
 20
100.3675664913344
 30
0.0
 10
221.0696071013805
 20
100.3531495344269
 30
0.0
  0
LINE
  5
13C
330
1F
100
AcDbEntity
  8
0
  6
HIDDEN
 62
     7
370
     0
100
AcDbLine
 10
239.0696063265
 20
93.5614335586
 30
0.0
 11
239.0696063265
 21
118.437828799
 31
0.0
  0
LINE
  5
13D
330
1F
100
AcDbEntity
  8
0
  6
HIDDEN
 62
     7
370
     0
100
AcDbLine
 10
129.2389846966
 20
95.4378371362
 30
0.0
 11
129.2389846966
 21
116.4378368531
 31
0.0
  0
LINE
  5
13E
330
1F
100
AcDbEntity
  8
0
  6
HIDDEN
 62
     7
370
     0
100
AcDbLine
 10
131.0196101293
 20
96.0628365402
 30
0.0
 11
131.0196101293
 21
115.8125794728
 31
0.0
  0
LWPOLYLINE
  5
13F
330
1F
100
AcDbEntity
  8
0
  6
HIDDEN
 62
     7
370
     0
100
AcDbPolyline
 90
       19
 70
   128
 43
0.0
 10
218.9996942505
 20
108.0852726709
 10
218.8579693064
 20
108.6067683764
 10
218.7722354755
 20
109.0423728574
 10
218.7495708093
 20
109.3560895652
 10
218.7918528542
 20
109.5219937388
 10
218.8955872878
 20
109.5263760772
 10
219.0522059426
 20
109.3688738302
 10
219.2487522587
 20
109.0625029292
 10
219.4689988717
 20
108.6325806801
 10
219.6947440132
 20
108.1146342449
 10
219.9073239788
 20
107.5514651139
 10
220.0891777501
 20
106.9896115924
 10
220.2252700552
 20
106.4755034286
 10
220.3043728694
 20
106.0516246189
 10
220.3199296817
 20
105.7530031367
 10
220.2706664428
 20
105.6043160325
 10
220.1606511697
 20
105.6178503032
 10
219.9989735708
 20
105.7924875177
 10
219.798992537
 20
106.1137962507
  0
SPLINE
  5
140
330
1F
100
AcDbEntity
  8
0
  6
HIDDEN
 62
     7
370
     0
100
AcDbSpline
210
0.0
220
0.0
230
1.0
 70
     8
 71
     3
 72
    18
 73
    14
 74
     0
 42
0.00000001
 43
0.00000001
 12
1.0
 22
0.0
 32
0.0
 13
1.0
 23
0.0
 33
0.0
 40
0.0
 40
0.0
 40
0.0
 40
0.0
 40
0.1249999999999963
 40
0.1249999999999963
 40
0.2499999999999927
 40
0.2499999999999927
 40
0.4999999999999958
 40
0.4999999999999958
 40
0.7499999999999989
 40
0.7499999999999989
 40
0.8749999999999994
 40
0.8749999999999994
 40
1.0
 40
1.0
 40
1.0
 40
1.0
 10
219.7989932056945
 20
106.1137962493747
 30
0.0
 10
219.7318156974676
 20
106.1767115008431
 30
0.0
 10
219.6648487854953
 20
106.2434601508487
 30
0.0
 10
219.5333628194129
 20
106.3867116998146
 30
0.0
 10
219.4686433655247
 20
106.4637270298615
 30
0.0
 10
219.2908319864266
 20
106.7014619869799
 30
0.0
 10
219.1904822941862
 20
106.8745027333129
 30
0.0
 10
219.0447051226168
 20
107.2326315283477
 30
0.0
 10
218.9976678165276
 20
107.4216307349134
 30
0.0
 10
218.9698280115078
 20
107.6914257842991
 30
0.0
 10
218.9675527182291
 20
107.7804753751438
 30
0.0
 10
218.9754535744314
 20
107.9431545690618
 30
0.0
 10
218.9853598796919
 20
108.0175968975674
 30
0.0
 10
218.9996910141981
 20
108.0852727670946
 30
0.0
  0
SPLINE
  5
141
330
1F
100
AcDbEntity
  8
0
  6
HIDDEN
 62
     7
370
     0
100
AcDbSpline
210
0.0
220
0.0
230
1.0
 70
    11
 71
     3
 72
    62
 73
    58
 74
     0
 42
0.00000001
 43
0.00000001
 12
1.0
 22
0.0
 32
0.0
 13
1.0
 23
0.0
 33
0.0
 40
0.0
 40
0.0
 40
0.0
 40
0.0
 40
0.0000199683288951
 40
0.0000199683288951
 40
0.0000199683288951
 40
0.0000416100355401
 40
0.0000416100355401
 40
0.0000416100355401
 40
0.0000630404673544
 40
0.0000630404673544
 40
0.0000630404673544
 40
0.0000846794277684
 40
0.0000846794277684
 40
0.0000846794277684
 40
0.000106808342764
 40
0.000106808342764
 40
0.000106808342764
 40
0.0001294006144292
 40
0.0001294006144292
 40
0.0001294006144292
 40
0.0001521893128586
 40
0.0001521893128586
 40
0.0001521893128586
 40
0.0001748998441021
 40
0.0001748998441021
 40
0.0001748998441021
 40
0.0001974176028301
 40
0.0001974176028301
 40
0.0001974176028301
 40
0.0002197365362426
 40
0.0002197365362426
 40
0.0002197365362426
 40
0.0002418350709435
 40
0.0002418350709435
 40
0.0002418350709435
 40
0.0002636822924112
 40
0.0002636822924112
 40
0.0002636822924112
 40
0.0002853551193469
 40
0.0002853551193469
 40
0.0002853551193469
 40
0.0003070853588745
 40
0.0003070853588745
 40
0.0003070853588745
 40
0.0003291523305126
 40
0.0003291523305126
 40
0.0003291523305126
 40
0.0003517091698828
 40
0.0003517091698828
 40
0.0003517091698828
 40
0.0003746593323364
 40
0.0003746593323364
 40
0.0003746593323364
 40
0.0003976576867024
 40
0.0003976576867024
 40
0.0003976576867024
 40
0.0004140490854007
 40
0.0004140490854007
 40
0.0004140490854007
 40
0.0004140490854007
 10
221.0969833268518
 20
108.7774555170883
 30
0.0
 10
221.090717804775
 20
108.7796609231585
 30
0.0
 10
221.0840255594478
 20
108.7809580195925
 30
0.0
 10
221.0773797650826
 20
108.7812429466882
 30
0.0
 10
221.0701934951965
 20
108.7815510457499
 30
0.0
 10
221.0628701643589
 20
108.7806777158077
 30
0.0
 10
221.0560274398998
 20
108.7787000638908
 30
0.0
 10
221.049248288494
 20
108.7767407855577
 30
0.0
 10
221.0427558872308
 20
108.773646706723
 30
0.0
 10
221.0370670074881
 20
108.7696857020578
 30
0.0
 10
221.0313219115931
 20
108.7656855556894
 30
0.0
 10
221.0262406511163
 20
108.7606963018402
 30
0.0
 10
221.0222054297103
 20
108.755126543685
 30
0.0
 10
221.018079819001
 20
108.7494320224725
 30
0.0
 10
221.0149355581381
 20
108.7429783528227
 30
0.0
 10
221.0130057004298
 20
108.7362800786316
 30
0.0
 10
221.0110362630502
 20
108.7294444287732
 30
0.0
 10
221.010278361659
 20
108.7221671498988
 30
0.0
 10
221.0107911071482
 20
108.7150363300941
 30
0.0
 10
221.0113081468891
 20
108.7078457895581
 30
0.0
 10
221.0131331779612
 20
108.7006049099988
 30
0.0
 10
221.016122331927
 20
108.6939178484447
 30
0.0
 10
221.0191010344567
 20
108.6872541678866
 30
0.0
 10
221.0233198827727
 20
108.6809549886244
 30
0.0
 10
221.0284333370767
 20
108.675558866086
 30
0.0
 10
221.0335037731245
 20
108.6702081398233
 30
0.0
 10
221.0395958310361
 20
108.6655961886528
 30
0.0
 10
221.0462040141495
 20
108.6621253298624
 30
0.0
 10
221.0527542739988
 20
108.6586848944829
 30
0.0
 10
221.0599954198521
 20
108.6562699266319
 30
0.0
 10
221.0673211858531
 20
108.6551020777521
 30
0.0
 10
221.0745750948911
 20
108.6539456840667
 30
0.0
 10
221.0821155224599
 20
108.653980867757
 30
0.0
 10
221.0893043240999
 20
108.6552204578055
 30
0.0
 10
221.0964126570109
 20
108.6564461723514
 30
0.0
 10
221.1033749558369
 20
108.6588843685248
 30
0.0
 10
221.1096046248197
 20
108.6623335321202
 30
0.0
 10
221.1157863439328
 20
108.6657561474439
 30
0.0
 10
221.1214164694036
 20
108.6702673390982
 30
0.0
 10
221.1260384321361
 20
108.6754842945049
 30
0.0
 10
221.1306736573416
 20
108.6807162196839
 30
0.0
 10
221.134421483106
 20
108.6867975136256
 30
0.0
 10
221.1370003234202
 20
108.6932232955599
 30
0.0
 10
221.1396190774685
 20
108.6997485318693
 30
0.0
 10
221.1411046010961
 20
108.7068026235761
 30
0.0
 10
221.1413625146353
 20
108.7138161985876
 30
0.0
 10
221.141626077106
 20
108.7209833878861
 30
0.0
 10
221.1406159710625
 20
108.7283014343505
 30
0.0
 10
221.1384249216412
 20
108.7351827351046
 30
0.0
 10
221.1361966782184
 20
108.7421808488833
 30
0.0
 10
221.1326848377075
 20
108.7489200324865
 30
0.0
 10
221.1281703549257
 20
108.7548403493664
 30
0.0
 10
221.1236481641032
 20
108.760770774612
 30
0.0
 10
221.1179896479228
 20
108.7660458488197
 30
0.0
 10
221.1116588329557
 20
108.7701972532758
 30
0.0
 10
221.1071148223217
 20
108.7731769685404
 30
0.0
 10
221.102147568429
 20
108.7756377516119
 30
0.0
 10
221.0969833268518
 20
108.7774555170883
 30
0.0
  0
SPLINE
  5
142
330
1F
100
AcDbEntity
  8
0
  6
HIDDEN
 62
     7
370
     0
100
AcDbSpline
210
0.0
220
0.0
230
1.0
 70
     8
 71
     3
 72
    12
 73
     8
 74
     0
 42
0.00000001
 43
0.00000001
 12
1.0
 22
0.0
 32
0.0
 13
1.0
 23
0.0
 33
0.0
 40
0.0
 40
0.0
 40
0.0
 40
0.0
 40
0.2500000000000059
 40
0.2500000000000059
 40
0.5000000000000119
 40
0.5000000000000119
 40
1.0
 40
1.0
 40
1.0
 40
1.0
 10
222.5676990026486
 20
106.9751215126378
 30
0.0
 10
222.4453387498943
 20
106.9537043982795
 30
0.0
 10
222.3220797385064
 20
106.9284011875409
 30
0.0
 10
222.073478102583
 20
106.8609859001062
 30
0.0
 10
221.9460978832629
 20
106.8175365666019
 30
0.0
 10
221.5762119911128
 20
106.657645000767
 30
0.0
 10
221.3499521084352
 20
106.5156791460557
 30
0.0
 10
221.1267507302995
 20
106.3689247426132
 30
0.0
  0
SPLINE
  5
143
330
1F
100
AcDbEntity
  8
0
  6
HIDDEN
 62
     7
370
     0
100
AcDbSpline
210
0.0
220
0.0
230
1.0
 70
     8
 71
     3
 72
    18
 73
    14
 74
     0
 42
0.00000001
 43
0.00000001
 12
1.0
 22
0.0
 32
0.0
 13
1.0
 23
0.0
 33
0.0
 40
0.0
 40
0.0
 40
0.0
 40
0.0
 40
0.2499999999999866
 40
0.2499999999999866
 40
0.3749999999999886
 40
0.3749999999999886
 40
0.4999999999999907
 40
0.4999999999999907
 40
0.6249999999999927
 40
0.6249999999999927
 40
0.7499999999999948
 40
0.7499999999999948
 40
1.0
 40
1.0
 40
1.0
 40
1.0
 10
221.1267507302994
 20
106.3689247426132
 30
0.0
 10
221.2456390448559
 20
106.3452907296578
 30
0.0
 10
221.3645577684176
 20
106.3309130695955
 30
0.0
 10
221.5529169222471
 20
106.3327918106821
 30
0.0
 10
221.6170564223414
 20
106.3372733569113
 30
0.0
 10
221.7562733168338
 20
106.3623205435966
 30
0.0
 10
221.8309573804316
 20
106.38410027935
 30
0.0
 10
221.974499916143
 20
106.4470820694641
 30
0.0
 10
222.0425748137207
 20
106.4872043737433
 30
0.0
 10
222.1656853282706
 20
106.5721051079398
 30
0.0
 10
222.2227994440174
 20
106.6179880551871
 30
0.0
 10
222.3838027808734
 20
106.7607023415928
 30
0.0
 10
222.4791980366251
 20
106.8637538641686
 30
0.0
 10
222.5676990026485
 20
106.9751215126378
 30
0.0
  0
SPLINE
  5
144
330
1F
100
AcDbEntity
  8
0
  6
HIDDEN
 62
     7
370
     0
100
AcDbSpline
210
0.0
220
0.0
230
1.0
 70
     8
 71
     3
 72
    14
 73
    10
 74
     0
 42
0.00000001
 43
0.00000001
 12
1.0
 22
0.0
 32
0.0
 13
1.0
 23
0.0
 33
0.0
 40
0.0
 40
0.0
 40
0.0
 40
0.0
 40
0.25
 40
0.25
 40
0.5
 40
0.5
 40
0.75
 40
0.75
 40
1.0
 40
1.0
 40
1.0
 40
1.0
 10
219.526652945047
 20
109.7726078476224
 30
0.0
 10
219.6814520787945
 20
109.8171903544247
 30
0.0
 10
219.8383357792426
 20
109.8589967910566
 30
0.0
 10
220.1582014371783
 20
109.945933686515
 30
0.0
 10
220.320912038812
 20
109.9915226818106
 30
0.0
 10
220.6369705821592
 20
110.0963607567758
 30
0.0
 10
220.7923409539214
 20
110.1569900281484
 30
0.0
 10
221.081860030775
 20
110.2808087174118
 30
0.0
 10
221.2195501575486
 20
110.3442660309473
 30
0.0
 10
221.3553785413205
 20
110.40619315312
 30
0.0
  0
SPLINE
  5
145
330
1F
100
AcDbEntity
  8
0
  6
HIDDEN
 62
     7
370
     0
100
AcDbSpline
210
0.0
220
0.0
230
1.0
 70
     8
 71
     3
 72
    22
 73
    18
 74
     0
 42
0.00000001
 43
0.00000001
 12
1.0
 22
0.0
 32
0.0
 13
1.0
 23
0.0
 33
0.0
 40
0.0
 40
0.0
 40
0.0
 40
0.0
 40
0.2500000000000007
 40
0.2500000000000007
 40
0.5000000000000014
 40
0.5000000000000014
 40
0.6250000000000016
 40
0.6250000000000016
 40
0.6875000000000013
 40
0.6875000000000013
 40
0.750000000000001
 40
0.750000000000001
 40
0.8125000000000008
 40
0.8125000000000008
 40
0.8750000000000006
 40
0.8750000000000006
 40
1.0
 40
1.0
 40
1.0
 40
1.0
 10
218.9996910141981
 20
108.0852727670946
 30
0.0
 10
219.0436950408314
 20
108.3683097629395
 30
0.0
 10
219.1294094176065
 20
108.626397702971
 30
0.0
 10
219.3566599793217
 20
109.1064030433547
 30
0.0
 10
219.4949519458276
 20
109.3169582361762
 30
0.0
 10
219.7125759427859
 20
109.594299011281
 30
0.0
 10
219.7890038610079
 20
109.6812274887938
 30
0.0
 10
219.8790699663991
 20
109.7923736442306
 30
0.0
 10
219.9042164709411
 20
109.8259483605396
 30
0.0
 10
219.925279470693
 20
109.8768209111105
 30
0.0
 10
219.9188293030038
 20
109.8920970761984
 30
0.0
 10
219.8830163075475
 20
109.904820681244
 30
0.0
 10
219.8551837463974
 20
109.9033739628447
 30
0.0
 10
219.7950378602678
 20
109.8927825594389
 30
0.0
 10
219.7622760442351
 20
109.8835603542538
 30
0.0
 10
219.6622097655705
 20
109.8481903216739
 30
0.0
 10
219.5930215595441
 20
109.8142933653801
 30
0.0
 10
219.5266529450471
 20
109.7726078476225
 30
0.0
  0
SPLINE
  5
146
330
1F
100
AcDbEntity
  8
0
  6
HIDDEN
 62
     7
370
     0
100
AcDbSpline
210
0.0
220
0.0
230
1.0
 70
     8
 71
     3
 72
    58
 73
    54
 74
     0
 42
0.00000001
 43
0.00000001
 12
1.0
 22
0.0
 32
0.0
 13
1.0
 23
0.0
 33
0.0
 40
0.0
 40
0.0
 40
0.0
 40
0.0
 40
0.0312500000000023
 40
0.0312500000000023
 40
0.0625000000000046
 40
0.0625000000000046
 40
0.0937500000000069
 40
0.0937500000000069
 40
0.1093750000000081
 40
0.1093750000000081
 40
0.1250000000000093
 40
0.1250000000000093
 40
0.15625000000001
 40
0.15625000000001
 40
0.1875000000000107
 40
0.1875000000000107
 40
0.2500000000000094
 40
0.2500000000000094
 40
0.3125000000000082
 40
0.3125000000000082
 40
0.375000000000007
 40
0.375000000000007
 40
0.4062500000000052
 40
0.4062500000000052
 40
0.4375000000000034
 40
0.4375000000000034
 40
0.5000000000000011
 40
0.5000000000000011
 40
0.5624999999999988
 40
0.5624999999999988
 40
0.6249999999999963
 40
0.6249999999999963
 40
0.687499999999994
 40
0.687499999999994
 40
0.7187499999999938
 40
0.7187499999999938
 40
0.7499999999999934
 40
0.7499999999999934
 40
0.7656249999999936
 40
0.7656249999999936
 40
0.7812499999999936
 40
0.7812499999999936
 40
0.7968749999999937
 40
0.7968749999999937
 40
0.8124999999999937
 40
0.8124999999999937
 40
0.8437499999999938
 40
0.8437499999999938
 40
0.8749999999999939
 40
0.8749999999999939
 40
0.9374999999999969
 40
0.9374999999999969
 40
1.0
 40
1.0
 40
1.0
 40
1.0
 10
221.3553785413204
 20
110.4061931531199
 30
0.0
 10
221.2677573437127
 20
110.3970979795817
 30
0.0
 10
221.1819007782721
 20
110.3817370894382
 30
0.0
 10
221.0163312134477
 20
110.3396457617404
 30
0.0
 10
220.9363135941778
 20
110.3128582209657
 30
0.0
 10
220.7950662350611
 20
110.2502311879098
 30
0.0
 10
220.7300383586914
 20
110.2127095349312
 30
0.0
 10
220.6984391592776
 20
110.1617290856259
 30
0.0
 10
220.7006775211403
 20
110.1463479884639
 30
0.0
 10
220.7266899409278
 20
110.1206536432467
 30
0.0
 10
220.7495121578603
 20
110.1098781885085
 30
0.0
 10
220.8302542036675
 20
110.0797971633887
 30
0.0
 10
220.898939845364
 20
110.0620442696778
 30
0.0
 10
221.044101344833
 20
110.0202607615373
 30
0.0
 10
221.1216823860522
 20
109.9966414036093
 30
0.0
 10
221.3582205734775
 20
109.9146139504739
 30
0.0
 10
221.5224763639383
 20
109.8450347407279
 30
0.0
 10
221.8573583332932
 20
109.6640896228069
 30
0.0
 10
222.0298634779728
 20
109.5514951289914
 30
0.0
 10
222.3617036145409
 20
109.2804458294077
 30
0.0
 10
222.52507336195
 20
109.1184240647619
 30
0.0
 10
222.7405186365757
 20
108.8422419101257
 30
0.0
 10
222.8086850633215
 20
108.7427660744622
 30
0.0
 10
222.9280662852277
 20
108.5395675287852
 30
0.0
 10
222.979972226441
 20
108.4352862443682
 30
0.0
 10
223.1104538137195
 20
108.1137069001678
 30
0.0
 10
223.1584061853567
 20
107.8959797160431
 30
0.0
 10
223.1771690590953
 20
107.4998532102386
 30
0.0
 10
223.1494772528621
 20
107.3197429329326
 30
0.0
 10
223.0448205631218
 20
107.0085756627229
 30
0.0
 10
222.9667557234736
 20
106.8730951746692
 30
0.0
 10
222.7781733043872
 20
106.6443419747952
 30
0.0
 10
222.6678853302053
 20
106.549938663558
 30
0.0
 10
222.4773635470196
 20
106.4297750196875
 30
0.0
 10
222.4095784086735
 20
106.3933958720946
 30
0.0
 10
222.2640441623588
 20
106.3262560849531
 30
0.0
 10
222.1862462149827
 20
106.2955873612081
 30
0.0
 10
222.0545135081559
 20
106.2480888800882
 30
0.0
 10
222.0072261031643
 20
106.2316596920661
 30
0.0
 10
221.9053633576825
 20
106.1958862711188
 30
0.0
 10
221.8498764646929
 20
106.1760661784491
 30
0.0
 10
221.7388922148718
 20
106.1350865767088
 30
0.0
 10
221.6829785751067
 20
106.1138814004024
 30
0.0
 10
221.5765907176683
 20
106.0742664122885
 30
0.0
 10
221.525407582799
 20
106.0556279967265
 30
0.0
 10
221.37392219034
 20
106.0035720814536
 30
0.0
 10
221.2782851334306
 20
105.974952105026
 30
0.0
 10
221.0883388485072
 20
105.9293102207004
 30
0.0
 10
220.9943580129519
 20
105.9123067120772
 30
0.0
 10
220.7116171763773
 20
105.8798370118771
 30
0.0
 10
220.5228003906088
 20
105.8832644273723
 30
0.0
 10
220.1549006818881
 20
105.9492921887124
 30
0.0
 10
219.9715494968825
 20
106.0126064101259
 30
0.0
 10
219.7989932056945
 20
106.1137962493747
 30
0.0
  0
SPLINE
  5
147
330
1F
100
AcDbEntity
  8
0
  6
HIDDEN
 62
     7
370
     0
100
AcDbSpline
210
0.0
220
0.0
230
1.0
 70
     8
 71
     3
 72
    14
 73
    10
 74
     0
 42
0.00000001
 43
0.00000001
 12
1.0
 22
0.0
 32
0.0
 13
1.0
 23
0.0
 33
0.0
 40
0.0
 40
0.0
 40
0.0
 40
0.0
 40
0.2500000000000001
 40
0.2500000000000001
 40
0.5000000000000002
 40
0.5000000000000002
 40
0.7500000000000003
 40
0.7500000000000003
 40
1.0
 40
1.0
 40
1.0
 40
1.0
 10
106.7696096643802
 20
115.9620264880613
 30
0.0
 10
106.7696096643802
 20
115.9255546235274
 30
0.0
 10
106.7472390325762
 20
115.8878188710149
 30
0.0
 10
106.6600235013279
 20
115.8126831493155
 30
0.0
 10
106.5960022952512
 20
115.7763108630934
 30
0.0
 10
106.43251699751
 20
115.7120873239313
 30
0.0
 10
106.3332021233367
 20
115.6845643613088
 30
0.0
 10
106.1133758526317
 20
115.6463921944217
 30
0.0
 10
105.9923722903225
 20
115.635742696389
 30
0.0
 10
105.8696096643802
 20
115.635742696389
 30
0.0
  0
LINE
  5
148
330
1F
100
AcDbEntity
  8
0
  6
HIDDEN
 62
     7
370
     0
100
AcDbLine
 10
105.8696090803
 20
115.6357427363
 30
0.0
 11
104.1196092591
 21
115.6357427363
 31
0.0
  0
LINE
  5
149
330
1F
100
AcDbEntity
  8
0
  6
HIDDEN
 62
     7
370
     0
100
AcDbLine
 10
104.1196092591
 20
96.239931253
 30
0.0
 11
108.36960949
 21
96.239931253
 31
0.0
  0
SPLINE
  5
14A
330
1F
100
AcDbEntity
  8
0
  6
HIDDEN
 62
     7
370
     0
100
AcDbSpline
210
0.0
220
0.0
230
1.0
 70
     8
 71
     3
 72
    14
 73
    10
 74
     0
 42
0.00000001
 43
0.00000001
 12
1.0
 22
0.0
 32
0.0
 13
1.0
 23
0.0
 33
0.0
 40
0.0
 40
0.0
 40
0.0
 40
0.0
 40
0.2499999999999998
 40
0.2499999999999998
 40
0.4999999999999999
 40
0.4999999999999999
 40
0.75
 40
0.75
 40
1.0
 40
1.0
 40
1.0
 40
1.0
 10
108.3696096643802
 20
96.23993129289265
 30
0.0
 10
108.4922150877667
 20
96.23993129289263
 30
0.0
 10
108.6125581898594
 20
96.22938795098267
 30
0.0
 10
108.8328581940384
 20
96.19120499035803
 30
0.0
 10
108.9325019403259
 20
96.16356372221725
 30
0.0
 10
109.0953900253869
 20
96.09963239742989
 30
0.0
 10
109.1600346821896
 20
96.062913658466
 30
0.0
 10
109.2467576470855
 20
95.98833701302037
 30
0.0
 10
109.2696096643802
 20
95.95008127914667
 30
0.0
 10
109.2696096643802
 20
95.91364750122042
 30
0.0
  0
LINE
  5
14B
330
1F
100
AcDbEntity
  8
0
  6
HIDDEN
 62
     7
370
     0
100
AcDbLine
 10
104.1196092591
 20
96.239931253
 30
0.0
 11
104.1196092591
 21
115.6357427363
 31
0.0
  0
ARC
  5
14C
330
1F
100
AcDbEntity
  8
0
  6
HIDDEN
 62
     7
370
     0
100
AcDbCircle
 10
221.0767604443
 20
108.5034314646
 30
0.0
 40
2.135092090883673
100
AcDbArc
 50
271.3416879687
 51
314.2907747873
  0
SPLINE
  5
14D
330
1F
100
AcDbEntity
  8
0
  6
HIDDEN
 62
     7
370
     0
100
AcDbSpline
210
0.0
220
0.0
230
1.0
 70
     8
 71
     3
 72
    64
 73
    60
 74
     0
 42
0.00000001
 43
0.00000001
 12
1.0
 22
0.0
 32
0.0
 13
1.0
 23
0.0
 33
0.0
 40
-0.0625000000000002
 40
-0.0625000000000002
 40
0.0
 40
0.0
 40
0.0312499999999999
 40
0.0312499999999999
 40
0.0624999999999998
 40
0.0624999999999998
 40
0.0937499999999997
 40
0.0937499999999997
 40
0.1249999999999996
 40
0.1249999999999996
 40
0.1562499999999995
 40
0.1562499999999995
 40
0.1874999999999994
 40
0.1874999999999994
 40
0.2187499999999993
 40
0.2187499999999993
 40
0.2499999999999992
 40
0.2499999999999992
 40
0.2812499999999992
 40
0.2812499999999992
 40
0.3124999999999991
 40
0.3124999999999991
 40
0.343749999999999
 40
0.343749999999999
 40
0.3749999999999989
 40
0.3749999999999989
 40
0.4062499999999988
 40
0.4062499999999988
 40
0.4374999999999987
 40
0.4374999999999987
 40
0.4687499999999986
 40
0.4687499999999986
 40
0.4999999999999984
 40
0.4999999999999984
 40
0.5624999999999982
 40
0.5624999999999982
 40
0.5937499999999981
 40
0.5937499999999981
 40
0.624999999999998
 40
0.624999999999998
 40
0.6562499999999979
 40
0.6562499999999979
 40
0.6874999999999978
 40
0.6874999999999978
 40
0.7187499999999977
 40
0.7187499999999977
 40
0.7499999999999976
 40
0.7499999999999976
 40
0.7812499999999974
 40
0.7812499999999974
 40
0.8124999999999973
 40
0.8124999999999973
 40
0.8749999999999996
 40
0.8749999999999996
 40
0.9062499999999997
 40
0.9062499999999997
 40
0.9374999999999998
 40
0.9374999999999998
 40
1.0
 40
1.0
 40
1.03125
 40
1.03125
 10
223.1696096643801
 20
106.8721482951344
 30
0.0
 10
223.1696096643802
 20
106.4412527635285
 30
0.0
 10
223.154004065839
 20
106.2978618943595
 30
0.0
 10
223.0940746452601
 20
106.0115935155896
 30
0.0
 10
223.0492061983563
 20
105.8686475894233
 30
0.0
 10
222.9373852258323
 20
105.5983083493537
 30
0.0
 10
222.8692055458038
 20
105.4675175370896
 30
0.0
 10
222.7158293465407
 20
105.22373740843
 30
0.0
 10
222.6310018351506
 20
105.1106908724044
 30
0.0
 10
222.4456333580009
 20
104.9002419188307
 30
0.0
 10
222.3442302688074
 20
104.8022616988438
 30
0.0
 10
222.1298607260059
 20
104.627585897713
 30
0.0
 10
222.0165915305954
 20
104.5501598891108
 30
0.0
 10
221.7731971671279
 20
104.4169399059012
 30
0.0
 10
221.6418011916204
 20
104.3609140866936
 30
0.0
 10
221.3659637550948
 20
104.2828303853574
 30
0.0
 10
221.2179467231192
 20
104.26067738387
 30
0.0
 10
220.9255589072928
 20
104.2602695919609
 30
0.0
 10
220.7771802884531
 20
104.2820958919199
 30
0.0
 10
220.5017067148511
 20
104.359334633341
 30
0.0
 10
220.3702089518547
 20
104.414995932148
 30
0.0
 10
220.1263439691567
 20
104.5477893283547
 30
0.0
 10
220.0127881893303
 20
104.6250900007532
 30
0.0
 10
219.7977641906794
 20
104.7997102744414
 30
0.0
 10
219.6964261181685
 20
104.8973649390304
 30
0.0
 10
219.5109875111164
 20
105.1072089916229
 30
0.0
 10
219.4259721761556
 20
105.2200781235431
 30
0.0
 10
219.2719940570557
 20
105.4639381241866
 30
0.0
 10
219.2038498515175
 20
105.5941877246235
 30
0.0
 10
219.0917107208329
 20
105.8638153948707
 30
0.0
 10
219.0465275575383
 20
106.0066616481295
 30
0.0
 10
218.9859681266861
 20
106.2926501902583
 30
0.0
 10
218.9700880740734
 20
106.4355998707969
 30
0.0
 10
218.9686844145129
 20
106.8641825065239
 30
0.0
 10
219.0325518343656
 20
107.1329959196217
 30
0.0
 10
219.1997900187518
 20
107.4688102546638
 30
0.0
 10
219.2678848102753
 20
107.5714673795526
 30
0.0
 10
219.4208204240499
 20
107.7532181707858
 30
0.0
 10
219.5055113970999
 20
107.8327760330671
 30
0.0
 10
219.6908151295509
 20
107.973297290063
 30
0.0
 10
219.7921591552636
 20
108.0344224885263
 30
0.0
 10
220.0062528417732
 20
108.1370384145992
 30
0.0
 10
220.1194839386398
 20
108.1791091587364
 30
0.0
 10
220.3631258825304
 20
108.2472607412242
 30
0.0
 10
220.4942194291557
 20
108.2732452332691
 30
0.0
 10
220.7700066891065
 20
108.3080775232098
 30
0.0
 10
220.9176718421247
 20
108.3171299128366
 30
0.0
 10
221.2100552449918
 20
108.3175821275997
 30
0.0
 10
221.3585508901365
 20
108.3089575493794
 30
0.0
 10
221.6357164377303
 20
108.2748518636553
 30
0.0
 10
221.7672012582323
 20
108.2492226626379
 30
0.0
 10
222.1328976414247
 20
108.1484511113672
 30
0.0
 10
222.3490628787737
 20
108.0472829750827
 30
0.0
 10
222.6281368267942
 20
107.8376427907983
 30
0.0
 10
222.7147641207077
 20
107.7569106275367
 30
0.0
 10
222.8683685379988
 20
107.5755929258262
 30
0.0
 10
222.9355246203702
 20
107.4753129692376
 30
0.0
 10
223.1047466764288
 20
107.1394160786176
 30
0.0
 10
223.1696096643801
 20
106.8721482951344
 30
0.0
 10
223.1696096643802
 20
106.4412527635285
 30
0.0
  0
ARC
  5
14E
330
1F
100
AcDbEntity
  8
0
  6
HIDDEN
 62
     7
370
     0
100
AcDbCircle
 10
221.0665402272
 20
108.2839392984
 30
0.0
 40
2.141819593915629
100
AcDbArc
 50
82.2495956062
 51
135.9689193388
  0
LINE
  5
14F
330
1F
100
AcDbEntity
  8
0
  6
HIDDEN
 62
     7
370
     0
100
AcDbLine
 10
106.769609414
 20
116.937836935
 30
0.0
 11
106.769609414
 21
119.495361415
 31
0.0
  0
LINE
  5
150
330
1F
100
AcDbEntity
  8
0
  6
HIDDEN
 62
     7
370
     0
100
AcDbLine
 10
109.2696098238
 20
94.9378370542
 30
0.0
 11
109.2696098238
 21
92.3342605357
 31
0.0
  0
LINE
  5
151
330
1F
100
AcDbEntity
  8
0
  6
HIDDEN
 62
     7
370
     0
100
AcDbLine
 10
104.1196092591
 20
116.937836935
 30
0.0
 11
104.1196092591
 21
118.803417613
 31
0.0
  0
LINE
  5
152
330
1F
100
AcDbEntity
  8
0
  6
HIDDEN
 62
     7
370
     0
100
AcDbLine
 10
104.1196092591
 20
94.9378370542
 30
0.0
 11
104.1196092591
 21
93.2073018749
 31
0.0
  0
LINE
  5
153
330
1F
100
AcDbEntity
  8
0
  6
HIDDEN
 62
     7
370
     0
100
AcDbLine
 10
136.369609423
 20
99.6878369015
 30
0.0
 11
136.369609423
 21
112.1878370878
 31
0.0
  0
LINE
  5
154
330
1F
100
AcDbEntity
  8
0
  6
HIDDEN
 62
     7
370
     0
100
AcDbLine
 10
138.8696089014
 20
99.6878369015
 30
0.0
 11
138.8696089014
 21
112.1878370878
 31
0.0
  0
LINE
  5
155
330
1F
100
AcDbEntity
  8
0
  6
HIDDEN
 62
     7
370
     0
100
AcDbLine
 10
131.5196092799
 20
100.4378370244
 30
0.0
 11
131.5196092799
 21
111.4378369648
 31
0.0
  0
LINE
  5
156
330
1F
100
AcDbEntity
  8
0
  6
HIDDEN
 62
     7
370
     0
100
AcDbLine
 10
131.0196101293
 20
85.962852766
 30
0.0
 11
131.0196101293
 21
89.0378377635
 31
0.0
  0
LINE
  5
157
330
1F
100
AcDbEntity
  8
0
  6
HIDDEN
 62
     7
370
     0
100
AcDbLine
 10
135.5196099356
 20
89.0378377635
 30
0.0
 11
131.0196101293
 21
89.0378377635
 31
0.0
  0
LINE
  5
158
330
1F
100
AcDbEntity
  8
0
  6
HIDDEN
 62
     7
370
     0
100
AcDbLine
 10
138.0648316443
 20
89.0378377635
 30
0.0
 11
135.5196099356
 21
89.0378377635
 31
0.0
  0
LINE
  5
159
330
1F
100
AcDbEntity
  8
0
  6
HIDDEN
 62
     7
370
     0
100
AcDbLine
 10
143.0196102336
 20
89.0378377635
 30
0.0
 11
140.0743864104
 21
89.0378377635
 31
0.0
  0
ELLIPSE
  5
15A
330
1F
100
AcDbEntity
  8
0
  6
HIDDEN
 62
     7
370
     0
100
AcDbEllipse
 10
101.0638429246
 20
105.9378369946
 30
0.0
 11
12.26424774976725
 21
0.0
 31
0.0
210
0.0
220
0.0
230
1.0
 40
0.8164965809
 41
4.884943637108982
 42
4.964202354313273
  0
ELLIPSE
  5
15B
330
1F
100
AcDbEntity
  8
0
  6
HIDDEN
 62
     7
370
     0
100
AcDbEllipse
 10
101.0638429246
 20
105.9378369946
 30
0.0
 11
12.26424774976725
 21
0.0
 31
0.0
210
0.0
220
0.0
230
1.0
 40
0.8164965809
 41
1.318982952866326
 42
1.398241670070617
  0
LINE
  5
15C
330
1F
100
AcDbEntity
  8
0
  6
HIDDEN
 62
     7
370
     0
100
AcDbLine
 10
138.2779536396
 20
122.8378362257
 30
0.0
 11
135.5196099356
 21
122.8378362257
 31
0.0
  0
LINE
  5
15D
330
1F
100
AcDbEntity
  8
0
  6
HIDDEN
 62
     7
370
     0
100
AcDbLine
 10
143.0196102336
 20
122.8378362257
 30
0.0
 11
139.8612644151
 21
122.8378362257
 31
0.0
  0
LINE
  5
15E
330
1F
100
AcDbEntity
  8
0
  6
HIDDEN
 62
     7
370
     0
100
AcDbLine
 10
135.5196099356
 20
122.8378362257
 30
0.0
 11
131.0196101293
 21
122.8378362257
 31
0.0
  0
LINE
  5
15F
330
1F
100
AcDbEntity
  8
0
  6
HIDDEN
 62
     7
370
     0
100
AcDbLine
 10
104.1196092591
 20
94.9378370542
 30
0.0
 11
104.1196092591
 21
96.239931253
 31
0.0
  0
LINE
  5
160
330
1F
100
AcDbEntity
  8
0
  6
HIDDEN
 62
     7
370
     0
100
AcDbLine
 10
109.2696098238
 20
94.9378370542
 30
0.0
 11
109.2696098238
 21
95.9136470456
 31
0.0
  0
LINE
  5
161
330
1F
100
AcDbEntity
  8
0
  6
HIDDEN
 62
     7
370
     0
100
AcDbLine
 10
104.1196092591
 20
116.937836935
 30
0.0
 11
104.1196092591
 21
115.6357427363
 31
0.0
  0
LINE
  5
162
330
1F
100
AcDbEntity
  8
0
  6
HIDDEN
 62
     7
370
     0
100
AcDbLine
 10
106.769609414
 20
116.937836935
 30
0.0
 11
106.769609414
 21
115.9620269437
 31
0.0
  0
SPLINE
  5
163
330
1F
100
AcDbEntity
  8
0
  6
HIDDEN
 62
     7
370
     0
100
AcDbSpline
210
0.0
220
0.0
230
1.0
 70
     8
 71
     3
 72
    10
 73
     6
 74
     0
 42
0.00000001
 43
0.00000001
 12
1.0
 22
0.0
 32
0.0
 13
1.0
 23
0.0
 33
0.0
 40
0.0
 40
0.0
 40
0.0
 40
0.0
 40
0.340073048213783
 40
0.6293642575442642
 40
1.0
 40
1.0
 40
1.0
 40
1.0
 10
115.1539833843704
 20
91.732012410872
 30
0.0
 10
115.2734682667886
 20
91.7464888925836
 30
0.0
 10
115.4945958001403
 20
91.77328013702984
 30
0.0
 10
115.9635715991721
 20
91.8099037658584
 30
0.0
 10
116.3265321542111
 20
91.81631351347238
 30
0.0
 10
116.5303822234269
 20
91.81991342943194
 30
0.0
  0
SPLINE
  5
164
330
1F
100
AcDbEntity
  8
0
  6
HIDDEN
 62
     7
370
     0
100
AcDbSpline
210
0.0
220
0.0
230
1.0
 70
     8
 71
     3
 72
    35
 73
    31
 74
     0
 42
0.00000001
 43
0.00000001
 12
1.0
 22
0.0
 32
0.0
 13
1.0
 23
0.0
 33
0.0
 40
0.0
 40
0.0
 40
0.0
 40
0.0
 40
0.0576495611131256
 40
0.1201798125337209
 40
0.1526300397129012
 40
0.1691541161443351
 40
0.1774910845763889
 40
0.1816783064478698
 40
0.1837766084429591
 40
0.1848269201185906
 40
0.185352390728791
 40
0.1856151890660206
 40
0.1857465967612118
 40
0.1858123207269063
 40
0.1858451626285529
 40
0.1858616121559454
 40
0.185869801779156
 40
0.1858739303610407
 40
0.1858759613878585
 40
0.1858780278606368
 40
0.2005622856066176
 40
0.3114269069284106
 40
0.4365363428701297
 40
0.55746395933811
 40
0.6208318334157106
 40
0.6860885295595479
 40
0.7283086795755583
 40
0.8112017416248181
 40
0.9357981610881174
 40
1.0
 40
1.0
 40
1.0
 40
1.0
 10
119.3296710588034
 20
91.4044234205413
 30
0.0
 10
119.3389152078837
 20
91.4019131004997
 30
0.0
 10
119.358186128287
 20
91.39667993330507
 30
0.0
 10
119.2375270982192
 20
91.43086389013513
 30
0.0
 10
119.1283226414217
 20
91.46002227113627
 30
0.0
 10
119.0615987718348
 20
91.47761913506346
 30
0.0
 10
119.0256355836636
 20
91.48704199600013
 30
0.0
 10
119.0069532263814
 20
91.49192175318919
 30
0.0
 10
118.9974406348744
 20
91.4944038073429
 30
0.0
 10
118.9926405508904
 20
91.49565564156029
 30
0.0
 10
118.9902299525136
 20
91.49628242019526
 30
0.0
 10
118.9890214657992
 20
91.49659838879147
 30
0.0
 10
118.9884173435765
 20
91.49675496563212
 30
0.0
 10
118.9881141097344
 20
91.49683508659423
 30
0.0
 10
118.9879637643766
 20
91.4968737602092
 30
0.0
 10
118.9878872110701
 20
91.49689378605248
 30
0.0
 10
118.9878499321626
 20
91.49690285990968
 30
0.0
 10
118.987830823646
 20
91.4969088161208
 30
0.0
 10
118.9878203034353
 20
91.4969112001866
 30
0.0
 10
118.9677437704517
 20
91.50135588784312
 30
0.0
 10
118.8006911193
 20
91.55029595115525
 30
0.0
 10
118.3583653018977
 20
91.64400457997414
 30
0.0
 10
117.5572418007749
 20
91.77780766189223
 30
0.0
 10
116.7919226750126
 20
91.82392495536688
 30
0.0
 10
116.2105113681176
 20
91.82228387797488
 30
0.0
 10
115.8431413750881
 20
91.80497543885329
 30
0.0
 10
115.47715452087
 20
91.77104993776811
 30
0.0
 10
115.0819606169438
 20
91.72712130271803
 30
0.0
 10
114.7842667076201
 20
91.67346048656867
 30
0.0
 10
114.8019758816314
 20
91.67776222022856
 30
0.0
 10
114.8079979792234
 20
91.6792250473428
 30
0.0
  0
SPLINE
  5
165
330
1F
100
AcDbEntity
  8
0
  6
HIDDEN
 62
     7
370
     0
100
AcDbSpline
210
0.0
220
0.0
230
1.0
 70
     8
 71
     3
 72
    18
 73
    14
 74
     0
 42
0.00000001
 43
0.00000001
 12
1.0
 22
0.0
 32
0.0
 13
1.0
 23
0.0
 33
0.0
 40
0.0
 40
0.0
 40
0.0
 40
0.0
 40
0.0641162575398197
 40
0.1887350829229183
 40
0.3134873437358971
 40
0.3788143378738544
 40
0.4422721285159834
 40
0.5634361536467615
 40
0.6882806105316817
 40
0.8133071580077461
 40
0.8790032287032744
 40
0.9417258523860157
 40
0.9999999999999999
 40
0.9999999999999999
 40
0.9999999999999999
 40
0.9999999999999999
 10
114.8078834265467
 20
120.1964116890359
 30
0.0
 10
114.8019040820877
 20
120.1978246511334
 30
0.0
 10
114.7843030536497
 20
120.2019839007353
 30
0.0
 10
115.123543122225
 20
120.1422678938684
 30
0.0
 10
115.6637882086935
 20
120.0805148392124
 30
0.0
 10
116.2098022137532
 20
120.0531227690126
 30
0.0
 10
116.7915073494804
 20
120.05179483431
 30
0.0
 10
117.5566022499559
 20
120.0984466629107
 30
0.0
 10
118.3897878517242
 20
120.233755736287
 30
0.0
 10
118.9350339432423
 20
120.3633976771049
 30
0.0
 10
119.2119111742431
 20
120.4375975098391
 30
0.0
 10
119.3570677047385
 20
120.478379405904
 30
0.0
 10
119.3398874219395
 20
120.4736395408759
 30
0.0
 10
119.3316130992022
 20
120.4713567395139
 30
0.0
  0
LINE
  5
166
330
1F
100
AcDbEntity
  8
0
  6
HIDDEN
 62
     7
370
     0
100
AcDbLine
 10
115.2253357321
 20
120.1354994674
 30
0.0
 11
115.1539805904
 21
120.1435907979
 31
0.0
  0
LINE
  5
167
330
1F
100
AcDbEntity
  8
0
  6
HIDDEN
 62
     7
370
     0
100
AcDbLine
 10
223.1696128473
 20
106.5848845874
 30
0.0
 11
223.1696128473
 21
103.4378370505
 31
0.0
  0
LINE
  5
168
330
1F
100
AcDbEntity
  8
0
  6
HIDDEN
 62
     7
370
     0
100
AcDbLine
 10
223.1696128473
 20
108.4378369388
 30
0.0
 11
223.1696128473
 21
107.6246940766
 31
0.0
  0
SPLINE
  5
169
330
1F
100
AcDbEntity
  8
0
  6
HIDDEN
 62
     7
370
     0
100
AcDbSpline
210
0.0
220
0.0
230
1.0
 70
     8
 71
     3
 72
    64
 73
    60
 74
     0
 42
0.00000001
 43
0.00000001
 12
1.0
 22
0.0
 32
0.0
 13
1.0
 23
0.0
 33
0.0
 40
-0.0624999999999999
 40
-0.0624999999999999
 40
0.0
 40
0.0
 40
0.03125
 40
0.03125
 40
0.0625
 40
0.0625
 40
0.09375
 40
0.09375
 40
0.125
 40
0.125
 40
0.15625
 40
0.15625
 40
0.1875
 40
0.1875
 40
0.21875
 40
0.21875
 40
0.2499999999999999
 40
0.2499999999999999
 40
0.2812499999999999
 40
0.2812499999999999
 40
0.3124999999999999
 40
0.3124999999999999
 40
0.3437499999999999
 40
0.3437499999999999
 40
0.3749999999999999
 40
0.3749999999999999
 40
0.40625
 40
0.40625
 40
0.4375
 40
0.4375
 40
0.46875
 40
0.46875
 40
0.5
 40
0.5
 40
0.5625
 40
0.5625
 40
0.59375
 40
0.59375
 40
0.625
 40
0.625
 40
0.65625
 40
0.65625
 40
0.6875
 40
0.6875
 40
0.71875
 40
0.71875
 40
0.75
 40
0.75
 40
0.7812500000000001
 40
0.7812500000000001
 40
0.8125000000000001
 40
0.8125000000000001
 40
0.8750000000000001
 40
0.8750000000000001
 40
0.9062500000000001
 40
0.9062500000000001
 40
0.9375000000000001
 40
0.9375000000000001
 40
1.0
 40
1.0
 40
1.03125
 40
1.03125
 10
223.1696096643802
 20
105.0035256941473
 30
0.0
 10
223.1696096643802
 20
105.4344212257532
 30
0.0
 10
223.154004065839
 20
105.5778120949222
 30
0.0
 10
223.09407464526
 20
105.864080473692
 30
0.0
 10
223.0492061983563
 20
106.0070263998583
 30
0.0
 10
222.9373852258323
 20
106.277365639928
 30
0.0
 10
222.8692055458037
 20
106.408156452192
 30
0.0
 10
222.7158293465406
 20
106.6519365808517
 30
0.0
 10
222.6310018351506
 20
106.7649831168772
 30
0.0
 10
222.4456333580009
 20
106.9754320704509
 30
0.0
 10
222.3442302688075
 20
107.0734122904379
 30
0.0
 10
222.1298607260059
 20
107.2480880915687
 30
0.0
 10
222.0165915305955
 20
107.3255141001709
 30
0.0
 10
221.7731971671279
 20
107.4587340833805
 30
0.0
 10
221.6418011916204
 20
107.5147599025881
 30
0.0
 10
221.3659637550948
 20
107.5928436039243
 30
0.0
 10
221.2179467231192
 20
107.6149966054116
 30
0.0
 10
220.9255589072928
 20
107.6154043973207
 30
0.0
 10
220.7771802884531
 20
107.5935780973618
 30
0.0
 10
220.5017067148511
 20
107.5163393559407
 30
0.0
 10
220.3702089518547
 20
107.4606780571337
 30
0.0
 10
220.1263439691566
 20
107.327884660927
 30
0.0
 10
220.0127881893303
 20
107.2505839885285
 30
0.0
 10
219.7977641906793
 20
107.0759637148403
 30
0.0
 10
219.6964261181685
 20
106.9783090502512
 30
0.0
 10
219.5109875111164
 20
106.7684649976588
 30
0.0
 10
219.4259721761555
 20
106.6555958657385
 30
0.0
 10
219.2719940570557
 20
106.411735865095
 30
0.0
 10
219.2038498515176
 20
106.2814862646582
 30
0.0
 10
219.0917107208329
 20
106.011858594411
 30
0.0
 10
219.0465275575384
 20
105.8690123411521
 30
0.0
 10
218.985968126686
 20
105.5830237990234
 30
0.0
 10
218.9700880740734
 20
105.4400741184848
 30
0.0
 10
218.968684414513
 20
105.0114914827578
 30
0.0
 10
219.0325518343656
 20
104.74267806966
 30
0.0
 10
219.1997900187517
 20
104.4068637346179
 30
0.0
 10
219.2678848102753
 20
104.3042066097291
 30
0.0
 10
219.4208204240499
 20
104.1224558184959
 30
0.0
 10
219.5055113970998
 20
104.0428979562146
 30
0.0
 10
219.6908151295509
 20
103.9023766992187
 30
0.0
 10
219.7921591552635
 20
103.8412515007554
 30
0.0
 10
220.0062528417732
 20
103.7386355746825
 30
0.0
 10
220.1194839386397
 20
103.6965648305453
 30
0.0
 10
220.3631258825304
 20
103.6284132480575
 30
0.0
 10
220.4942194291557
 20
103.6024287560126
 30
0.0
 10
220.7700066891065
 20
103.5675964660719
 30
0.0
 10
220.9176718421247
 20
103.5585440764451
 30
0.0
 10
221.2100552449918
 20
103.558091861682
 30
0.0
 10
221.3585508901365
 20
103.5667164399023
 30
0.0
 10
221.6357164377303
 20
103.6008221256264
 30
0.0
 10
221.7672012582324
 20
103.6264513266438
 30
0.0
 10
222.1328976414247
 20
103.7272228779145
 30
0.0
 10
222.3490628787735
 20
103.8283910141991
 30
0.0
 10
222.6281368267943
 20
104.0380311984834
 30
0.0
 10
222.7147641207077
 20
104.118763361745
 30
0.0
 10
222.8683685379989
 20
104.3000810634555
 30
0.0
 10
222.9355246203702
 20
104.4003610200441
 30
0.0
 10
223.1047466764288
 20
104.7362579106641
 30
0.0
 10
223.1696096643802
 20
105.0035256941473
 30
0.0
 10
223.1696096643802
 20
105.4344212257532
 30
0.0
  0
LINE
  5
16A
330
1F
100
AcDbEntity
  8
0
  6
HIDDEN
 62
     7
370
     0
100
AcDbLine
 10
250.2262845263
 20
121.414233302
 30
0.0
 11
249.4101479277
 21
112.1085116875
 31
0.0
  0
LINE
  5
16B
330
1F
100
AcDbEntity
  8
0
  6
HIDDEN
 62
     7
370
     0
100
AcDbLine
 10
249.4101479277
 20
112.1085116875
 30
0.0
 11
249.3694826588
 21
112.0872658912
 31
0.0
  0
LINE
  5
16C
330
1F
100
AcDbEntity
  8
0
  6
HIDDEN
 62
     7
370
     0
100
AcDbLine
 10
252.2348120436
 20
109.2907265529
 30
0.0
 11
261.7093428597
 21
110.1176206258
 31
0.0
  0
LINE
  5
16D
330
1F
100
AcDbEntity
  8
0
  6
HIDDEN
 62
     7
370
     0
100
AcDbLine
 10
261.7093428597
 20
110.1176206258
 30
0.0
 11
261.7090448365
 21
110.1141514492
 31
0.0
  0
LINE
  5
16E
330
1F
100
AcDbEntity
  8
0
  6
HIDDEN
 62
     7
370
     0
100
AcDbLine
 10
250.1871689782
 20
121.4108200048
 30
0.0
 11
250.2262845263
 21
121.414233302
 31
0.0
  0
LINE
  5
16F
330
1F
100
AcDbEntity
  8
0
  6
HIDDEN
 62
     7
370
     0
100
AcDbLine
 10
239.5696073398
 20
93.0614427898
 30
0.0
 11
239.5696073398
 21
105.9378369946
 31
0.0
  0
ELLIPSE
  5
170
330
1F
100
AcDbEntity
  8
0
  6
HIDDEN
 62
     7
370
     0
100
AcDbEllipse
 10
257.9067300667
 20
105.9378369946
 30
0.0
 11
13.17784690311692
 21
12.98255003967754
 31
0.0
210
0.0
220
0.0
230
1.0
 40
0.0510967938
 41
1.622615339612357
 42
3.193411666407434
  0
SPLINE
  5
171
330
1F
100
AcDbEntity
  8
0
  6
HIDDEN
 62
     7
370
     0
100
AcDbSpline
210
0.0
220
0.0
230
1.0
 70
     8
 71
     3
 72
    12
 73
     8
 74
     0
 42
0.00000001
 43
0.00000001
 12
1.0
 22
0.0
 32
0.0
 13
1.0
 23
0.0
 33
0.0
 40
0.0
 40
0.0
 40
0.0
 40
0.0
 40
0.4999999999999993
 40
0.4999999999999993
 40
0.7499999999999997
 40
0.7499999999999997
 40
1.0
 40
1.0
 40
1.0
 40
1.0
 10
241.7634732345211
 20
113.8025359836712
 30
0.0
 10
241.1319355692717
 20
112.5824642252242
 30
0.0
 10
240.5855833418256
 20
111.3263194674576
 30
0.0
 10
239.9940461131934
 20
109.345556213778
 30
0.0
 10
239.8357050244159
 20
108.6654045379902
 30
0.0
 10
239.6242431276878
 20
107.3067027525885
 30
0.0
 10
239.5696096643802
 20
106.6240402573679
 30
0.0
 10
239.5696096643802
 20
105.9378369946408
 30
0.0
  0
SPLINE
  5
172
330
1F
100
AcDbEntity
  8
0
  6
HIDDEN
 62
     7
370
     0
100
AcDbSpline
210
0.0
220
0.0
230
1.0
 70
     8
 71
     3
 72
    20
 73
    16
 74
     0
 42
0.00000001
 43
0.00000001
 12
1.0
 22
0.0
 32
0.0
 13
1.0
 23
0.0
 33
0.0
 40
0.0
 40
0.0
 40
0.0
 40
0.0
 40
0.2500000000000005
 40
0.2500000000000005
 40
0.3750000000000004
 40
0.3750000000000004
 40
0.5000000000000003
 40
0.5000000000000003
 40
0.6250000000000002
 40
0.6250000000000002
 40
0.6875000000000002
 40
0.6875000000000002
 40
0.7500000000000002
 40
0.7500000000000002
 40
1.0
 40
1.0
 40
1.0
 40
1.0
 10
241.7634732345213
 20
113.8025359836718
 30
0.0
 10
241.679413810878
 20
114.8426141090598
 30
0.0
 10
241.6037628803557
 20
115.7800901988016
 30
0.0
 10
241.503912822701
 20
117.034960739522
 30
0.0
 10
241.4729178831486
 20
117.4279262267648
 30
0.0
 10
241.4172407974135
 20
118.1437610482008
 30
0.0
 10
241.3923407777811
 20
118.4693475523637
 30
0.0
 10
241.3485322355034
 20
119.0566973954227
 30
0.0
 10
241.3296231997206
 20
119.3184643489819
 30
0.0
 10
241.3060054642135
 20
119.6618540178673
 30
0.0
 10
241.2989165615674
 20
119.7682526975719
 30
0.0
 10
241.2865340104404
 20
119.9617234301331
 30
0.0
 10
241.2812140358796
 20
120.0491631742186
 30
0.0
 10
241.2589146660553
 20
120.440803574664
 30
0.0
 10
241.254696248593
 20
120.6102261122111
 30
0.0
 10
241.2645253924975
 20
120.6320905743596
 30
0.0
  0
ELLIPSE
  5
173
330
1F
100
AcDbEntity
  8
0
  6
HIDDEN
 62
     7
370
     0
100
AcDbEllipse
 10
250.3638835433
 20
109.6097223629
 30
0.0
 11
2.099281448397761
 21
0.1276543563555492
 31
0.0
210
0.0
220
0.0
230
1.0
 40
0.4303093993
 41
5.785598212635344
 42
5.923521446741095
  0
ELLIPSE
  5
174
330
1F
100
AcDbEntity
  8
0
  6
HIDDEN
 62
     7
370
     0
100
AcDbEllipse
 10
250.3638835433
 20
109.6097223629
 30
0.0
 11
-1.616902374425194
 21
2.318196838028342
 31
0.0
210
0.0
220
0.0
230
1.0
 40
0.57803977
 41
5.737920332829648
 42
5.875843566935391
  0
LINE
  5
175
330
1F
100
AcDbEntity
  8
0
  6
HIDDEN
 62
     7
370
     0
100
AcDbLine
 10
249.6764316782
 20
112.0765002679
 30
0.0
 11
249.6764316782
 21
111.9104799118
 31
0.0
  0
ARC
  5
176
330
1F
100
AcDbEntity
  8
0
  6
HIDDEN
 62
     7
370
     0
100
AcDbCircle
 10
250.3654609096
 20
109.9294376854
 30
0.0
 40
2.097448350864867
100
AcDbArc
 50
340.9616749845
 51
109.1782614982
  0
LINE
  5
177
330
1F
100
AcDbEntity
  8
0
  6
HIDDEN
 62
     7
370
     0
100
AcDbLine
 10
252.348180078
 20
109.2452489075
 30
0.0
 11
252.348180078
 21
109.4112694964
 31
0.0
  0
ARC
  5
178
330
1F
100
AcDbEntity
  8
0
  6
HIDDEN
 62
     7
370
     0
100
AcDbCircle
 10
250.3654429868
 20
109.9083613942
 30
0.0
 40
2.09594307026285
100
AcDbArc
 50
269.9573239234
 51
119.334110095
  0
ARC
  5
179
330
1F
100
AcDbEntity
  8
0
  6
HIDDEN
 62
     7
370
     0
100
AcDbCircle
 10
250.3609681848
 20
109.9093217101
 30
0.0
 40
2.096904829042234
100
AcDbArc
 50
175.4759947488
 51
270.0796129135
  0
LINE
  5
17A
330
1F
100
AcDbEntity
  8
0
  6
HIDDEN
 62
     7
370
     0
100
AcDbLine
 10
252.348180078
 20
109.4112694964
 30
0.0
 11
261.4736064896
 21
110.2076958169
 31
0.0
  0
LINE
  5
17B
330
1F
100
AcDbEntity
  8
0
  6
HIDDEN
 62
     7
370
     0
100
AcDbLine
 10
261.7093428597
 20
110.1176206258
 30
0.0
 11
261.4736064896
 21
110.2076958169
 31
0.0
  0
LINE
  5
17C
330
1F
100
AcDbEntity
  8
0
  6
HIDDEN
 62
     7
370
     0
100
AcDbLine
 10
260.0512906536
 20
109.3939932298
 30
0.0
 11
261.6633876786
 21
109.5936941684
 31
0.0
  0
ELLIPSE
  5
17D
330
1F
100
AcDbEntity
  8
0
  6
HIDDEN
 62
     7
370
     0
100
AcDbEllipse
 10
248.9176334393
 20
105.2413869347
 30
0.0
 11
1.319091535962088
 21
16.17220446745456
 31
0.0
210
0.0
220
0.0
230
1.0
 40
0.1269385516
 41
6.158161196043135
 42
6.288262304979927
  0
LINE
  5
17E
330
1F
100
AcDbEntity
  8
0
  6
HIDDEN
 62
     7
370
     0
100
AcDbLine
 10
250.482420586
 20
121.2664817695
 30
0.0
 11
249.6764316782
 21
112.0765002679
 31
0.0
  0
LWPOLYLINE
  5
17F
330
1F
100
AcDbEntity
  8
0
  6
HIDDEN
 62
     7
370
     0
100
AcDbPolyline
 90
       23
 70
   128
 43
0.0
 10
221.0696071014
 20
102.2270690419
 10
221.661250256
 20
102.3092352089
 10
222.2049563751
 20
102.5490773145
 10
222.6566850767
 20
102.9271647104
 10
222.9798391089
 20
103.4128671281
 10
223.1482371315
 20
103.9668354907
 10
223.1482371315
 20
104.5441908764
 10
222.9798391089
 20
105.0981594135
 10
222.6566850767
 20
105.5838616858
 10
222.2049563751
 20
105.9619490798
 10
221.661250256
 20
106.2017911873
 10
221.0696071014
 20
106.2839574416
 10
220.4779713973
 20
106.2017911873
 10
219.9342652783
 20
105.9619490798
 10
219.4825365767
 20
105.5838616858
 10
219.1593825445
 20
105.0981594135
 10
218.9909845218
 20
104.5441908764
 10
218.9909845218
 20
103.9668354907
 10
219.1593825445
 20
103.4128671281
 10
219.4825365767
 20
102.9271647104
 10
219.9342652783
 20
102.5490773145
 10
220.4779713973
 20
102.3092352089
 10
221.0696071014
 20
102.2270690419
  0
LINE
  5
180
330
1F
100
AcDbEntity
  8
0
  6
HIDDEN
 62
     7
370
     0
100
AcDbLine
 10
261.4736064896
 20
110.2076958169
 30
0.0
 11
261.1779972538
 21
110.0158759628
 31
0.0
  0
LINE
  5
181
330
1F
100
AcDbEntity
  8
0
  6
HIDDEN
 62
     7
370
     0
100
AcDbLine
 10
250.4500701651
 20
120.731646498
 30
0.0
 11
249.6764316782
 21
111.9104799118
 31
0.0
  0
ELLIPSE
  5
182
330
1F
100
AcDbEntity
  8
0
  6
HIDDEN
 62
     7
370
     0
100
AcDbEllipse
 10
249.0706177971
 20
105.254738728
 30
0.0
 11
1.412683827499308
 21
16.18410441030946
 31
0.0
210
0.0
220
0.0
230
1.0
 40
0.0059881853
 41
5.986995678803349
 42
6.137631810106576
  0
CIRCLE
  5
183
330
1F
100
AcDbEntity
  8
0
  6
HIDDEN
 62
     7
370
     0
100
AcDbCircle
 10
256.0831119936
 20
115.6427974268
 30
0.0
 40
2.99807650391762
  0
LINE
  5
184
330
1F
100
AcDbEntity
  8
0
  6
HIDDEN
 62
     7
370
     0
100
AcDbLine
 10
262.1317013726
 20
120.8898390878
 30
0.0
 11
261.3519832119
 21
121.6853040506
 31
0.0
  0
LINE
  5
185
330
1F
100
AcDbEntity
  8
0
  6
HIDDEN
 62
     7
370
     0
100
AcDbLine
 10
252.348180078
 20
109.2452489075
 30
0.0
 11
261.1779972538
 21
110.0158759628
 31
0.0
  0
LINE
  5
186
330
1F
100
AcDbEntity
  8
0
  6
HIDDEN
 62
     7
370
     0
100
AcDbLine
 10
250.4500701651
 20
120.731646498
 30
0.0
 11
261.3517745957
 21
121.6830986787
 31
0.0
  0
LINE
  5
187
330
1F
100
AcDbEntity
  8
0
  6
HIDDEN
 62
     7
370
     0
100
AcDbLine
 10
262.1316566691
 20
120.8897263978
 30
0.0
 11
261.1779972538
 21
110.0158759628
 31
0.0
  0
LINE
  5
188
330
1F
100
AcDbEntity
  8
0
  6
HIDDEN
 62
     7
370
     0
100
AcDbLine
 10
140.1096090302
 20
119.4536837984
 30
0.0
 11
140.1096090302
 21
117.7878373538
 31
0.0
  0
LINE
  5
189
330
1F
100
AcDbEntity
  8
0
  6
HIDDEN
 62
     7
370
     0
100
AcDbLine
 10
138.0296099558
 20
119.4534686629
 30
0.0
 11
138.0296099558
 21
117.7878373538
 31
0.0
  0
CIRCLE
  5
18A
330
1F
100
AcDbEntity
  8
0
  6
HIDDEN
 62
     7
370
     0
100
AcDbCircle
 10
256.0833249005
 20
115.578452019
 30
0.0
 40
2.09870446757211
  0
SPLINE
  5
18B
330
1F
100
AcDbEntity
  8
0
  6
HIDDEN
 62
     7
370
     0
100
AcDbSpline
210
0.0
220
0.0
230
1.0
 70
     8
 71
     3
 72
    27
 73
    23
 74
     0
 42
0.00000001
 43
0.00000001
 12
1.0
 22
0.0
 32
0.0
 13
1.0
 23
0.0
 33
0.0
 40
0.0
 40
0.0
 40
0.0
 40
0.0
 40
0.0373788116421671
 40
0.0760837157713631
 40
0.1161152937944545
 40
0.1574740702875808
 40
0.2001605200149872
 40
0.2441750738953199
 40
0.2895181240988645
 40
0.3361900284229582
 40
0.3841911140646549
 40
0.4335216808873695
 40
0.4841820042606874
 40
0.5361723375384619
 40
0.589492914228985
 40
0.6441439499019802
 40
0.7001256438697495
 40
0.7574381806737794
 40
0.8160817314031793
 40
0.8760564548672284
 40
0.9373624986409733
 40
1.0
 40
1.0
 40
1.0
 40
1.0
 10
261.3520704437594
 20
121.683112614299
 30
0.0
 10
261.3345367184084
 20
121.6422324097923
 30
0.0
 10
261.2988472216746
 20
121.5590216889663
 30
0.0
 10
261.2433478717405
 20
121.4198276946033
 30
0.0
 10
261.185346449943
 20
121.2663880118084
 30
0.0
 10
261.1248366261613
 20
121.0968993570893
 30
0.0
 10
261.061926511272
 20
120.9107117197542
 30
0.0
 10
260.9966925908575
 20
120.7068498062245
 30
0.0
 10
260.9292203533601
 20
120.4844349289756
 30
0.0
 10
260.8595923484997
 20
120.2425726883309
 30
0.0
 10
260.7878909691257
 20
119.9803912276697
 30
0.0
 10
260.7141970574733
 20
119.6970377453794
 30
0.0
 10
260.638589632773
 20
119.3916872650539
 30
0.0
 10
260.5611452642681
 20
119.0635483037869
 30
0.0
 10
260.481937470305
 20
118.7118706620275
 30
0.0
 10
260.4010361608432
 20
118.3359502712376
 30
0.0
 10
260.3185066402905
 20
117.9351464407874
 30
0.0
 10
260.2344101593346
 20
117.5088532642668
 30
0.0
 10
260.1487982984624
 20
117.0566499801291
 30
0.0
 10
260.0617310155625
 20
116.5777617650084
 30
0.0
 10
259.9732031937534
 20
116.0731838119251
 30
0.0
 10
259.9139865514065
 20
115.7198796626862
 30
0.0
 10
259.8840601642638
 20
115.541329911633
 30
0.0
  0
SPLINE
  5
18C
330
1F
100
AcDbEntity
  8
0
  6
HIDDEN
 62
     7
370
     0
100
AcDbSpline
210
0.0
220
0.0
230
1.0
 70
     8
 71
     3
 72
    28
 73
    24
 74
     0
 42
0.00000001
 43
0.00000001
 12
1.0
 22
0.0
 32
0.0
 13
1.0
 23
0.0
 33
0.0
 40
0.0
 40
0.0
 40
0.0
 40
0.0
 40
0.0358097066417436
 40
0.0715289440147237
 40
0.107180110900339
 40
0.1427857345455401
 40
0.1783684286970603
 40
0.2139508508188992
 40
0.2495556588943799
 40
0.2852054682232699
 40
0.3209228086245313
 40
0.3567300824463713
 40
0.3926495237675256
 40
0.4287031591480907
 40
0.4649127702554286
 40
0.5012998586521912
 40
0.5737717993961976
 40
0.6455354355197849
 40
0.7167667554877457
 40
0.7876457130090079
 40
0.8583549521114587
 40
0.9290784317332768
 40
1.0
 40
1.0
 40
1.0
 40
1.0
 10
260.5183075876968
 20
114.265113851133
 30
0.0
 10
260.5369378092757
 20
114.3756855966788
 30
0.0
 10
260.5741511852362
 20
114.5965497404675
 30
0.0
 10
260.6304831703436
 20
114.92072872914
 30
0.0
 10
260.6870832961983
 20
115.2390526928953
 30
0.0
 10
260.7439946371333
 20
115.5510538445048
 30
0.0
 10
260.8012055973246
 20
115.8568566848501
 30
0.0
 10
260.8587191920888
 20
116.1564274151542
 30
0.0
 10
260.9165345253012
 20
116.449774630794
 30
0.0
 10
260.9746517466641
 20
116.7368956136545
 30
0.0
 10
261.033070728629
 20
117.0177907330539
 30
0.0
 10
261.0917914082769
 20
117.2924595554756
 30
0.0
 10
261.1508137491397
 20
117.5609020142508
 30
0.0
 10
261.2101375555511
 20
117.8231176369303
 30
0.0
 10
261.2697632626334
 20
118.0791074811104
 30
0.0
 10
261.3493853749346
 20
118.4109583451794
 30
0.0
 10
261.4484725526416
 20
118.8055444621252
 30
0.0
 10
261.5662894879375
 20
119.2446482634169
 30
0.0
 10
261.6825586673083
 20
119.6474700804576
 30
0.0
 10
261.7972901287961
 20
120.0142341188529
 30
0.0
 10
261.9104302301945
 20
120.3440244435193
 30
0.0
 10
262.0221694332654
 20
120.6402181111651
 30
0.0
 10
262.0950809689206
 20
120.8064574102129
 30
0.0
 10
262.1315877196365
 20
120.8896933014197
 30
0.0
  0
LINE
  5
18D
330
1F
100
AcDbEntity
  8
0
  6
HIDDEN
 62
     7
370
     0
100
AcDbLine
 10
141.104770042
 20
122.0492462863
 30
0.0
 11
141.104770042
 21
117.7878373538
 31
0.0
  0
ELLIPSE
  5
18E
330
1F
100
AcDbEntity
  8
0
  6
HIDDEN
 62
     7
370
     0
100
AcDbEllipse
 10
256.084210455
 20
115.026331597
 30
0.0
 11
0.0
 21
2.105127985970441
 31
0.0
210
0.0
220
0.0
230
1.0
 40
0.9975640503
 41
1.594849659573526
 42
4.879074605398507
  0
SPLINE
  5
18F
330
1F
100
AcDbEntity
  8
0
  6
HIDDEN
 62
     7
370
     0
100
AcDbSpline
210
0.0
220
0.0
230
1.0
 70
     8
 71
     3
 72
    32
 73
    28
 74
     0
 42
0.00000001
 43
0.00000001
 12
1.0
 22
0.0
 32
0.0
 13
1.0
 23
0.0
 33
0.0
 40
0.0
 40
0.0
 40
0.0
 40
0.0
 40
0.0624999999999995
 40
0.0624999999999995
 40
0.1249999999999989
 40
0.1249999999999989
 40
0.2499999999999988
 40
0.2499999999999988
 40
0.312499999999999
 40
0.312499999999999
 40
0.3749999999999992
 40
0.3749999999999992
 40
0.4374999999999994
 40
0.4374999999999994
 40
0.4999999999999996
 40
0.4999999999999996
 40
0.5624999999999997
 40
0.5624999999999997
 40
0.6249999999999998
 40
0.6249999999999998
 40
0.6875
 40
0.6875
 40
0.7500000000000001
 40
0.7500000000000001
 40
0.875
 40
0.875
 40
1.0
 40
1.0
 40
1.0
 40
1.0
 10
253.984817916622
 20
114.9757011355133
 30
0.0
 10
253.9819172499658
 20
115.1028577619934
 30
0.0
 10
253.9893659764278
 20
115.228640946403
 30
0.0
 10
254.0241544779557
 20
115.4775767430244
 30
0.0
 10
254.0518031301375
 20
115.6015514386218
 30
0.0
 10
254.1633399013191
 20
115.9615709449735
 30
0.0
 10
254.2740058115498
 20
116.187017344837
 30
0.0
 10
254.5058191476304
 20
116.5030723365758
 30
0.0
 10
254.593704323781
 20
116.6034703940336
 30
0.0
 10
254.7906507278538
 20
116.7891058397066
 30
0.0
 10
254.9014383137871
 20
116.8758755649916
 30
0.0
 10
255.1459979151029
 20
117.0280353232339
 30
0.0
 10
255.2783890489925
 20
117.0929810411218
 30
0.0
 10
255.5690486240323
 20
117.1946927288875
 30
0.0
 10
255.7201999911628
 20
117.2288785322183
 30
0.0
 10
256.0355946055336
 20
117.2602240995575
 30
0.0
 10
256.1909167074512
 20
117.2564390568549
 30
0.0
 10
256.4961381016842
 20
117.2133931036935
 30
0.0
 10
256.6397834998921
 20
117.1750555775789
 30
0.0
 10
256.9109641530801
 20
117.0715836630581
 30
0.0
 10
257.0347002831983
 20
117.007928389316
 30
0.0
 10
257.2627537381636
 20
116.8626262464242
 30
0.0
 10
257.3681395197831
 20
116.7799191151894
 30
0.0
 10
257.6527117703985
 20
116.5133463041967
 30
0.0
 10
257.8028539253376
 20
116.3116535211453
 30
0.0
 10
258.0362975980672
 20
115.8645278725981
 30
0.0
 10
258.1149890507283
 20
115.6273109239064
 30
0.0
 10
258.1551046361175
 20
115.375603545383
 30
0.0
  0
LWPOLYLINE
  5
190
330
1F
100
AcDbEntity
  8
0
  6
HIDDEN
 62
     7
370
     0
100
AcDbPolyline
 90
       25
 70
   128
 43
0.0
 10
221.0696071014
 20
101.7784931001
 10
221.7166602239
 20
101.8607759152
 10
222.3196133599
 20
102.1020168674
 10
222.8373765573
 20
102.4857757848
 10
223.234671317
 20
102.9859001983
 10
223.4844222292
 20
103.568307427
 10
223.5696121678
 20
104.1933075294
 10
223.4844222292
 20
104.8183075155
 10
223.234671317
 20
105.4007148023
 10
222.8373765573
 20
105.9008392886
 10
222.3196133599
 20
106.2845982788
 10
221.7166602239
 20
106.5258392601
 10
221.0696071014
 20
106.6081220752
 10
220.4225614294
 20
106.5258392601
 10
219.8196082935
 20
106.2845982788
 10
219.3018450961
 20
105.9008392886
 10
218.9045428857
 20
105.4007148023
 10
218.6547919735
 20
104.8183075155
 10
218.5696094856
 20
104.1933075294
 10
218.6547919735
 20
103.568307427
 10
218.9045428857
 20
102.9859001983
 10
219.3018450961
 20
102.4857757848
 10
219.8196082935
 20
102.1020168674
 10
220.4225614294
 20
101.8607759152
 10
221.0696071014
 20
101.7784931001
  0
SPLINE
  5
191
330
1F
100
AcDbEntity
  8
0
  6
HIDDEN
 62
     7
370
     0
100
AcDbSpline
210
0.0
220
0.0
230
1.0
 70
     8
 71
     3
 72
    24
 73
    20
 74
     0
 42
0.00000001
 43
0.00000001
 12
1.0
 22
0.0
 32
0.0
 13
1.0
 23
0.0
 33
0.0
 40
0.0
 40
0.0
 40
0.0
 40
0.0
 40
0.250000000000008
 40
0.250000000000008
 40
0.3750000000000127
 40
0.3750000000000127
 40
0.4375000000000151
 40
0.4375000000000151
 40
0.5000000000000175
 40
0.5000000000000175
 40
0.5312500000000181
 40
0.5312500000000181
 40
0.5625000000000187
 40
0.5625000000000187
 40
0.6250000000000169
 40
0.6250000000000169
 40
0.7500000000000124
 40
0.7500000000000124
 40
1.0
 40
1.0
 40
1.0
 40
1.0
 10
103.1696096643802
 20
94.39032379341951
 30
0.0
 10
103.1696096643802
 20
94.47523274708908
 30
0.0
 10
103.1723342928125
 20
94.55756244313595
 30
0.0
 10
103.1986916139305
 20
94.65997483055497
 30
0.0
 10
103.2109053322027
 20
94.69079192693937
 30
0.0
 10
103.2455159823351
 20
94.7198894430163
 30
0.0
 10
103.2599026927025
 20
94.72684708365493
 30
0.0
 10
103.3011511758048
 20
94.72573734237808
 30
0.0
 10
103.3296907257357
 20
94.71744393676936
 30
0.0
 10
103.390613391247
 20
94.67286050290815
 30
0.0
 10
103.4136793613868
 20
94.65239878965087
 30
0.0
 10
103.4575752413931
 20
94.60778617137055
 30
0.0
 10
103.4784552769532
 20
94.58391009316416
 30
0.0
 10
103.5356655402464
 20
94.51401299600215
 30
0.0
 10
103.5680121640228
 20
94.46843540721767
 30
0.0
 10
103.6541781075146
 20
94.33955191959876
 30
0.0
 10
103.6998421275546
 20
94.2597187424667
 30
0.0
 10
103.8203896910059
 20
94.03393793335435
 30
0.0
 10
103.879449779707
 20
93.899106548383
 30
0.0
 10
103.929579710768
 20
93.77085140971546
 30
0.0
  0
SPLINE
  5
192
330
1F
100
AcDbEntity
  8
0
  6
HIDDEN
 62
     7
370
     0
100
AcDbSpline
210
0.0
220
0.0
230
1.0
 70
     8
 71
     3
 72
     9
 73
     5
 74
     0
 42
0.00000001
 43
0.00000001
 12
1.0
 22
0.0
 32
0.0
 13
1.0
 23
0.0
 33
0.0
 40
0.0
 40
0.0
 40
0.0
 40
0.0
 40
0.5092918105237748
 40
0.9999999999999999
 40
0.9999999999999999
 40
0.9999999999999999
 40
0.9999999999999999
 10
259.8857407089375
 20
115.5439917046095
 30
0.0
 10
259.9975101058722
 20
115.3286595776697
 30
0.0
 10
260.2169705303777
 20
114.9058526082854
 30
0.0
 10
260.4196942491668
 20
114.4747730958945
 30
0.0
 10
260.5191724381776
 20
114.2632388488489
 30
0.0
  0
ELLIPSE
  5
193
330
1F
100
AcDbEntity
  8
0
  6
HIDDEN
 62
     7
370
     0
100
AcDbEllipse
 10
2393.2042331687
 20
292.3851697175
 30
0.0
 11
2621.752605686763
 21
228.814888928916
 31
4.796163466380678E-14
210
1.150237858278758E-18
220
-2.227882722340911E-16
230
1.0
 40
0.0060796773
 41
2.524636314450564
 42
2.532746013732568
  0
ELLIPSE
  5
194
330
1F
100
AcDbEntity
  8
0
  6
HIDDEN
 62
     7
370
     0
100
AcDbEllipse
 10
2393.2042331687
 20
292.3851697175
 30
0.0
 11
2621.752605686763
 21
228.814888928916
 31
4.796163466380678E-14
210
1.150237858278758E-18
220
-2.227882722340911E-16
230
1.0
 40
0.0060796773
 41
2.520754859386727
 42
2.52189022886015
  0
LINE
  5
195
330
1F
100
AcDbEntity
  8
0
  6
HIDDEN
 62
     7
370
     0
100
AcDbLine
 10
260.5183079466
 20
114.2651134406
 30
0.0
 11
260.0512906536
 21
109.3939932298
 31
0.0
  0
LINE
  5
196
330
1F
100
AcDbEntity
  8
0
  6
HIDDEN
 62
     7
370
     0
100
AcDbLine
 10
260.0512906536
 20
109.3939932298
 30
0.0
 11
256.5616920218
 21
105.9378369946
 31
0.0
  0
CIRCLE
  5
197
330
1F
100
AcDbEntity
  8
0
  6
HIDDEN
 62
     7
370
     0
100
AcDbCircle
 10
130.0696096644
 20
105.9378369946
 30
0.0
 40
5.0
  0
LINE
  5
198
330
1F
100
AcDbEntity
  8
0
  6
HIDDEN
 62
     7
370
     0
100
AcDbLine
 10
218.5696094856
 20
104.1933075294
 30
0.0
 11
218.5696094856
 21
103.7403741621
 31
0.0
  0
LINE
  5
199
330
1F
100
AcDbEntity
  8
0
  6
HIDDEN
 62
     7
370
     0
100
AcDbLine
 10
223.5696121678
 20
103.7403741621
 30
0.0
 11
223.5696121678
 21
104.1933075294
 31
0.0
  0
LINE
  5
19A
330
1F
100
AcDbEntity
  8
0
  6
HIDDEN
 62
     7
370
     0
100
AcDbLine
 10
219.0696104988
 20
103.920331062
 30
0.0
 11
219.0696104988
 21
102.8474483874
 31
0.0
  0
LINE
  5
19B
330
1F
100
AcDbEntity
  8
0
  6
HIDDEN
 62
     7
370
     0
100
AcDbLine
 10
223.0696111545
 20
102.8474483874
 30
0.0
 11
223.0696111545
 21
103.920331062
 31
0.0
  0
LINE
  5
19C
330
1F
100
AcDbEntity
  8
0
  6
HIDDEN
 62
     7
370
     0
100
AcDbLine
 10
218.5696094856
 20
103.026033682
 30
0.0
 11
218.5696094856
 21
102.883683122
 31
0.0
  0
LINE
  5
19D
330
1F
100
AcDbEntity
  8
0
  6
HIDDEN
 62
     7
370
     0
100
AcDbLine
 10
223.5696121678
 20
102.883683122
 30
0.0
 11
223.5696121678
 21
103.026033682
 31
0.0
  0
CIRCLE
  5
19E
330
1F
100
AcDbEntity
  8
0
  6
HIDDEN
 62
     7
370
     0
100
AcDbCircle
 10
221.0696096644
 20
103.4686142065
 30
0.0
 40
1.999999999999986
  0
LINE
  5
19F
330
1F
100
AcDbEntity
  8
0
  6
HIDDEN
 62
     7
370
     0
100
AcDbLine
 10
254.4459953532
 20
115.0000293974
 30
0.0
 11
254.4459953532
 21
114.8817812328
 31
0.0
  0
LINE
  5
1A0
330
1F
100
AcDbEntity
  8
0
  6
HIDDEN
 62
     7
370
     0
100
AcDbLine
 10
257.9423293099
 20
115.2554781411
 30
0.0
 11
257.9423293099
 21
115.3737579707
 31
0.0
  0
LINE
  5
1A1
330
1F
100
AcDbEntity
  8
0
  6
HIDDEN
 62
     7
370
     0
100
AcDbLine
 10
254.2297049984
 20
116.5598466296
 30
0.0
 11
254.2297049984
 21
116.4416291986
 31
0.0
  0
LINE
  5
1A2
330
1F
100
AcDbEntity
  8
0
  6
HIDDEN
 62
     7
370
     0
100
AcDbLine
 10
257.7260389552
 20
116.8153270383
 30
0.0
 11
257.7260389552
 21
116.9335752029
 31
0.0
  0
SPLINE
  5
1A3
330
1F
100
AcDbEntity
  8
0
  6
HIDDEN
 62
     7
370
     0
100
AcDbSpline
210
0.0
220
0.0
230
1.0
 70
    11
 71
     3
 72
    32
 73
    28
 74
     0
 42
0.00000001
 43
0.00000001
 12
1.0
 22
0.0
 32
0.0
 13
1.0
 23
0.0
 33
0.0
 40
0.0
 40
0.0
 40
0.0
 40
0.0
 40
0.0168038810692934
 40
0.0581365995667602
 40
0.0995654643132645
 40
0.1409745360192217
 40
0.1823471146544794
 40
0.2236777664899928
 40
0.2649706330383487
 40
0.3062409179972828
 40
0.3475052596230544
 40
0.3887823209814992
 40
0.4300896202074367
 40
0.4714380626210937
 40
0.5128279790708471
 40
0.554248743165882
 40
0.5956788624836847
 40
0.637090429261516
 40
0.6784666122682189
 40
0.7198012346737275
 40
0.7610967026297913
 40
0.8023689273277954
 40
0.8436340278227016
 40
0.8849085485943465
 40
0.926212516543739
 40
0.9675568613325806
 40
1.0
 40
1.0
 40
1.0
 40
1.0
 10
258.3422019705173
 20
116.0535033096004
 30
0.0
 10
258.3505146970345
 20
115.9743212581804
 30
0.0
 10
258.3792743419551
 20
115.7003741148214
 30
0.0
 10
258.3281614537071
 20
115.2248750595272
 30
0.0
 10
258.1200979334919
 20
114.668253103408
 30
0.0
 10
257.7732702721826
 20
114.1830643121328
 30
0.0
 10
257.3133427176439
 20
113.8030664723077
 30
0.0
 10
256.7708210978101
 20
113.5536808330328
 30
0.0
 10
256.1824634649439
 20
113.4515706326362
 30
0.0
 10
255.5877907690521
 20
113.5033790180133
 30
0.0
 10
255.0266588017473
 20
113.7054386027427
 30
0.0
 10
254.5365223200588
 20
114.0440540558376
 30
0.0
 10
254.150049995107
 20
114.4965781750319
 30
0.0
 10
253.8930551661703
 20
115.0328653567287
 30
0.0
 10
253.7828776102954
 20
115.6171810006223
 30
0.0
 10
253.8271114419676
 20
116.2104296583939
 30
0.0
 10
254.0230778147431
 20
116.7726845325674
 30
0.0
 10
254.3576708379564
 20
117.2659716905397
 30
0.0
 10
254.8083454369857
 20
117.656963614764
 30
0.0
 10
255.3446560445
 20
117.9193255454812
 30
0.0
 10
255.9303896904684
 20
118.0355635405813
 30
0.0
 10
256.526212837782
 20
117.9980584243495
 30
0.0
 10
257.0919578799686
 20
117.8095264077744
 30
0.0
 10
257.5907007285368
 20
117.4828161732888
 30
0.0
 10
257.9859620567911
 20
117.0395028617779
 30
0.0
 10
258.2435095951276
 20
116.548505063037
 30
0.0
 10
258.3120610341642
 20
116.204678274091
 30
0.0
 10
258.3422019705173
 20
116.0535033096004
 30
0.0
  0
LINE
  5
1A4
330
1F
100
AcDbEntity
  8
0
  6
HIDDEN
 62
     7
370
     0
100
AcDbLine
 10
253.5842164978
 20
115.6904281352
 30
0.0
 11
253.5842164978
 21
115.3207182188
 31
0.0
  0
LINE
  5
1A5
330
1F
100
AcDbEntity
  8
0
  6
HIDDEN
 62
     7
370
     0
100
AcDbLine
 10
258.5842117295
 20
115.3207182188
 30
0.0
 11
258.5842117295
 21
115.6904281352
 31
0.0
  0
LINE
  5
1A6
330
1F
100
AcDbEntity
  8
0
  6
HIDDEN
 62
     7
370
     0
100
AcDbLine
 10
252.284209393
 20
115.9694542412
 30
0.0
 11
252.284209393
 21
115.8892338399
 31
0.0
  0
LINE
  5
1A7
330
1F
100
AcDbEntity
  8
0
  6
HIDDEN
 62
     7
370
     0
100
AcDbLine
 10
259.8842039332
 20
115.8892338399
 30
0.0
 11
259.8842039332
 21
115.9694542412
 31
0.0
  0
LINE
  5
1A8
330
1F
100
AcDbEntity
  8
0
  6
HIDDEN
 62
     7
370
     0
100
AcDbLine
 10
253.3342048153
 20
115.78442466
 30
0.0
 11
253.3342048153
 21
115.6374125976
 31
0.0
  0
LINE
  5
1A9
330
1F
100
AcDbEntity
  8
0
  6
HIDDEN
 62
     7
370
     0
100
AcDbLine
 10
258.8342085108
 20
115.6374125976
 30
0.0
 11
258.8342085108
 21
115.78442466
 31
0.0
  0
LINE
  5
1AA
330
1F
100
AcDbEntity
  8
0
  6
HIDDEN
 62
     7
370
     0
100
AcDbLine
 10
123.0696096644
 20
89.7306430389
 30
0.0
 11
123.1637705021
 21
90.4006327737
 31
0.0
  0
LINE
  5
1AB
330
1F
100
AcDbEntity
  8
0
  6
HIDDEN
 62
     7
370
     0
100
AcDbLine
 10
123.1637705021
 20
121.4750412155
 30
0.0
 11
123.0696096644
 21
122.1450309504
 31
0.0
  0
ARC
  5
1AC
330
1F
100
AcDbEntity
  8
0
  6
HIDDEN
 62
     7
370
     0
100
AcDbCircle
 10
122.5696096644
 20
90.4841365938
 30
0.0
 40
0.6000000000000093
100
AcDbArc
 50
352.0
 51
0.0
  0
ARC
  5
1AD
330
1F
100
AcDbEntity
  8
0
  6
HIDDEN
 62
     7
370
     0
100
AcDbCircle
 10
122.5696096644
 20
90.4841365938
 30
0.0
 40
0.6000000000000085
100
AcDbArc
 50
0.0
 51
33.5573097619
  0
ARC
  5
1AE
330
1F
100
AcDbEntity
  8
0
  6
HIDDEN
 62
     7
370
     0
100
AcDbCircle
 10
122.5696096644
 20
121.3915373954
 30
0.0
 40
0.6000000000000146
100
AcDbArc
 50
348.75
 51
8.0
  0
LWPOLYLINE
  5
1AF
330
1F
100
AcDbEntity
  8
0
  6
HIDDEN
 62
     7
370
     0
100
AcDbPolyline
 90
        3
 70
   128
 43
0.0
 10
123.1580808343
 20
121.2744827617
 10
123.1239373845
 20
121.161927772
 10
123.0696096644
 20
121.0598753069
  0
LINE
  5
1B0
330
1F
100
AcDbEntity
  8
0
  6
HIDDEN
 62
     7
370
     0
100
AcDbLine
 10
123.1696096619
 20
90.4841370184
 30
0.0
 11
123.1696096619
 21
121.3915369708
 31
0.0
  0
LINE
  5
1B1
330
1F
100
AcDbEntity
  8
0
  6
HIDDEN
 62
     7
370
     0
100
AcDbLine
 10
112.602237761
 20
93.1878372331
 30
0.0
 11
114.8003844172
 21
93.1878372331
 31
0.0
  0
LINE
  5
1B2
330
1F
100
AcDbEntity
  8
0
  6
HIDDEN
 62
     7
370
     0
100
AcDbLine
 10
114.8003844172
 20
118.6878367562
 30
0.0
 11
112.602237761
 21
118.6878367562
 31
0.0
  0
ARC
  5
1B3
330
1F
100
AcDbEntity
  8
0
  6
HIDDEN
 62
     7
370
     0
100
AcDbCircle
 10
112.6022376085
 20
93.5878369946
 30
0.0
 40
0.4000000000000199
100
AcDbArc
 50
210.0
 51
270.0
  0
ARC
  5
1B4
330
1F
100
AcDbEntity
  8
0
  6
HIDDEN
 62
     7
370
     0
100
AcDbCircle
 10
112.6022376085
 20
118.2878369946
 30
0.0
 40
0.4000000000000057
100
AcDbArc
 50
90.0
 51
150.0
  0
ARC
  5
1B5
330
1F
100
AcDbEntity
  8
0
  6
HIDDEN
 62
     7
370
     0
100
AcDbCircle
 10
118.8937863923
 20
98.1878369946
 30
0.0
 40
5.000000000000014
100
AcDbArc
 50
275.4010580626
 51
326.6329870308
  0
ARC
  5
1B6
330
1F
100
AcDbEntity
  8
0
  6
HIDDEN
 62
     7
370
     0
100
AcDbCircle
 10
118.8937863923
 20
113.6878369946
 30
0.0
 40
4.999999999999999
100
AcDbArc
 50
33.3670129692
 51
84.5979312296
  0
LINE
  5
1B7
330
1F
100
AcDbEntity
  8
0
  6
HIDDEN
 62
     7
370
     0
100
AcDbLine
 10
112.2558276728
 20
118.487837096
 30
0.0
 11
111.0722591728
 21
116.4378368531
 31
0.0
  0
LINE
  5
1B8
330
1F
100
AcDbEntity
  8
0
  6
HIDDEN
 62
     7
370
     0
100
AcDbLine
 10
111.0722591728
 20
95.4378371362
 30
0.0
 11
112.2558276728
 21
93.3878368933
 31
0.0
  0
ARC
  5
1B9
330
1F
100
AcDbEntity
  8
0
  6
HIDDEN
 62
     7
370
     0
100
AcDbCircle
 10
130.0196096644
 20
96.0628369946
 30
0.0
 40
1.0
100
AcDbArc
 50
218.6821874535
 51
0.0
  0
ARC
  5
1BA
330
1F
100
AcDbEntity
  8
0
  6
HIDDEN
 62
     7
370
     0
100
AcDbCircle
 10
130.0196096644
 20
115.8128369946
 30
0.0
 40
1.0
100
AcDbArc
 50
0.0
 51
141.3178125465
  0
LINE
  5
1BB
330
1F
100
AcDbEntity
  8
0
  6
HIDDEN
 62
     7
370
     0
100
AcDbLine
 10
218.7569543347
 20
109.4313814074
 30
0.0
 11
218.3655604348
 21
107.1425425589
 31
0.0
  0
LINE
  5
1BC
330
1F
100
AcDbEntity
  8
0
  6
HIDDEN
 62
     7
370
     0
100
AcDbLine
 10
218.3655604348
 20
107.1425425589
 30
0.0
 11
220.1344102249
 21
105.6381644858
 31
0.0
  0
LINE
  5
1BD
330
1F
100
AcDbEntity
  8
0
  6
HIDDEN
 62
     7
370
     0
100
AcDbLine
 10
219.7063371167
 20
109.8636028592
 30
0.0
 11
218.8186972961
 21
109.5412686237
 31
0.0
  0
LINE
  5
1BE
330
1F
100
AcDbEntity
  8
0
  6
HIDDEN
 62
     7
370
     0
100
AcDbLine
 10
228.3238723502
 20
112.9929417048
 30
0.0
 11
220.9549724683
 21
110.3170279649
 31
0.0
  0
LINE
  5
1BF
330
1F
100
AcDbEntity
  8
0
  6
HIDDEN
 62
     7
370
     0
100
AcDbLine
 10
222.0896809921
 20
106.2607299946
 30
0.0
 11
228.3401816711
 21
108.5305151765
 31
0.0
  0
LINE
  5
1C0
330
1F
100
AcDbEntity
  8
0
  6
HIDDEN
 62
     7
370
     0
100
AcDbLine
 10
220.2522784099
 20
105.5935027662
 30
0.0
 11
222.0896809921
 21
106.2607299946
 31
0.0
  0
LINE
  5
1C1
330
1F
100
AcDbEntity
  8
0
  6
HIDDEN
 62
     7
370
     0
100
AcDbLine
 10
109.2696098238
 20
95.4378371362
 30
0.0
 11
111.0722591728
 21
95.4378371362
 31
0.0
  0
LINE
  5
1C2
330
1F
100
AcDbEntity
  8
0
  6
HIDDEN
 62
     7
370
     0
100
AcDbLine
 10
111.0722591728
 20
116.4378368531
 30
0.0
 11
106.769609414
 21
116.4378368531
 31
0.0
  0
LINE
  5
1C3
330
1F
100
AcDbEntity
  8
0
  6
HIDDEN
 62
     7
370
     0
100
AcDbLine
 10
123.0696096644
 20
95.4378371362
 30
0.0
 11
129.2389846966
 21
95.4378371362
 31
0.0
  0
LINE
  5
1C4
330
1F
100
AcDbEntity
  8
0
  6
HIDDEN
 62
     7
370
     0
100
AcDbLine
 10
129.2389846966
 20
116.4378368531
 30
0.0
 11
123.0696096644
 21
116.4378368531
 31
0.0
  0
LINE
  5
1C5
330
1F
100
AcDbEntity
  8
0
  6
HIDDEN
 62
     7
370
     0
100
AcDbLine
 10
218.9696088061
 20
107.7814145947
 30
0.0
 11
218.9696088061
 21
106.5834219453
 31
0.0
  0
LINE
  5
1C6
330
1F
100
AcDbEntity
  8
0
  6
HIDDEN
 62
     7
370
     0
100
AcDbLine
 10
223.1696128473
 20
106.5848845874
 30
0.0
 11
223.1696128473
 21
107.6246940766
 31
0.0
  0
LINE
  5
1C7
330
1F
100
AcDbEntity
  8
0
  6
HIDDEN
 62
     7
370
     0
100
AcDbLine
 10
136.369609423
 20
99.6878369015
 30
0.0
 11
138.8696089014
 21
99.6878369015
 31
0.0
  0
LINE
  5
1C8
330
1F
100
AcDbEntity
  8
0
  6
HIDDEN
 62
     7
370
     0
100
AcDbLine
 10
138.8696089014
 20
112.1878370878
 30
0.0
 11
136.369609423
 21
112.1878370878
 31
0.0
  0
LINE
  5
1C9
330
1F
100
AcDbEntity
  8
0
  6
HIDDEN
 62
     7
370
     0
100
AcDbLine
 10
131.0196101293
 20
99.9378369425
 30
0.0
 11
131.5196092799
 21
100.4378370244
 31
0.0
  0
LINE
  5
1CA
330
1F
100
AcDbEntity
  8
0
  6
HIDDEN
 62
     7
370
     0
100
AcDbLine
 10
131.5196092799
 20
111.4378369648
 30
0.0
 11
131.0196101293
 21
111.9378370468
 31
0.0
  0
LINE
  5
1CB
330
1F
100
AcDbEntity
  8
0
  6
HIDDEN
 62
     7
370
     0
100
AcDbLine
 10
131.5196092799
 20
100.4378370244
 30
0.0
 11
136.369609423
 21
100.4378370244
 31
0.0
  0
LINE
  5
1CC
330
1F
100
AcDbEntity
  8
0
  6
HIDDEN
 62
     7
370
     0
100
AcDbLine
 10
136.369609423
 20
111.4378369648
 30
0.0
 11
131.5196092799
 21
111.4378369648
 31
0.0
  0
LINE
  5
1CD
330
1F
100
AcDbEntity
  8
0
  6
HIDDEN
 62
     7
370
     0
100
AcDbLine
 10
131.0196101293
 20
125.9378365476
 30
0.0
 11
131.0196101293
 21
122.8378362257
 31
0.0
  0
LINE
  5
1CE
330
1F
100
AcDbEntity
  8
0
  6
HIDDEN
 62
     7
370
     0
100
AcDbLine
 10
119.8367890064
 20
90.8965322424
 30
0.0
 11
119.3688604143
 21
91.3923693125
 31
0.0
  0
LINE
  5
1CF
330
1F
100
AcDbEntity
  8
0
  6
HIDDEN
 62
     7
370
     0
100
AcDbLine
 10
114.7709555551
 20
91.6722224329
 30
0.0
 11
114.253481999
 21
91.17639747
 31
0.0
  0
LINE
  5
1D0
330
1F
100
AcDbEntity
  8
0
  6
HIDDEN
 62
     7
370
     0
100
AcDbLine
 10
114.2528477684
 20
120.6993268107
 30
0.0
 11
114.770533666
 21
120.2034394492
 31
0.0
  0
LINE
  5
1D1
330
1F
100
AcDbEntity
  8
0
  6
HIDDEN
 62
     7
370
     0
100
AcDbLine
 10
119.3681744952
 20
120.4830867473
 30
0.0
 11
119.8360784072
 21
120.9789806281
 31
0.0
  0
LINE
  5
1D2
330
1F
100
AcDbEntity
  8
0
  6
HIDDEN
 62
     7
370
     0
100
AcDbLine
 10
223.1696128473
 20
103.4378370505
 30
0.0
 11
224.6717616543
 21
105.9378369946
 31
0.0
  0
LINE
  5
1D3
330
1F
100
AcDbEntity
  8
0
  6
HIDDEN
 62
     7
370
     0
100
AcDbLine
 10
224.6717616543
 20
105.9378369946
 30
0.0
 11
223.1696128473
 21
108.4378369388
 31
0.0
  0
LINE
  5
1D4
330
1F
100
AcDbEntity
  8
0
  6
HIDDEN
 62
     7
370
     0
100
AcDbLine
 10
138.8696089014
 20
103.4378370505
 30
0.0
 11
223.1696128473
 21
103.4378370505
 31
0.0
  0
LINE
  5
1D5
330
1F
100
AcDbEntity
  8
0
  6
HIDDEN
 62
     7
370
     0
100
AcDbLine
 10
223.1696128473
 20
108.4378369388
 30
0.0
 11
138.8696089014
 21
108.4378369388
 31
0.0
  0
LINE
  5
1D6
330
1F
100
AcDbEntity
  8
0
  6
HIDDEN
 62
     7
370
     0
100
AcDbLine
 10
119.3696096633
 20
118.6646915276
 30
0.0
 11
119.3696096633
 21
120.4713576708
 31
0.0
  0
LINE
  5
1D7
330
1F
100
AcDbEntity
  8
0
  6
HIDDEN
 62
     7
370
     0
100
AcDbLine
 10
114.769609794
 20
120.1964070324
 30
0.0
 11
114.769609794
 21
118.6823345025
 31
0.0
  0
LINE
  5
1D8
330
1F
100
AcDbEntity
  8
0
  6
HIDDEN
 62
     7
370
     0
100
AcDbLine
 10
119.3696096633
 20
91.4044243519
 30
0.0
 11
119.3696096633
 21
93.2109824617
 31
0.0
  0
LINE
  5
1D9
330
1F
100
AcDbEntity
  8
0
  6
HIDDEN
 62
     7
370
     0
100
AcDbLine
 10
114.769609794
 20
93.1933394868
 30
0.0
 11
114.769609794
 21
91.6792287726
 31
0.0
  0
LINE
  5
1DA
330
1F
100
AcDbEntity
  8
0
  6
HIDDEN
 62
     7
370
     0
100
AcDbLine
 10
248.2638761029
 20
110.242134263
 30
0.0
 11
248.2638761029
 21
109.9073033084
 31
0.0
  0
LINE
  5
1DB
330
1F
100
AcDbEntity
  8
0
  6
HIDDEN
 62
     7
370
     0
100
AcDbLine
 10
252.4638875946
 20
109.9073033084
 30
0.0
 11
252.4638875946
 21
109.931020369
 31
0.0
  0
LINE
  5
1DC
330
1F
100
AcDbEntity
  8
0
  6
HIDDEN
 62
     7
370
     0
100
AcDbLine
 10
218.9696088061
 20
105.292252044
 30
0.0
 11
218.9696088061
 21
104.2555132417
 31
0.0
  0
LINE
  5
1DD
330
1F
100
AcDbEntity
  8
0
  6
HIDDEN
 62
     7
370
     0
100
AcDbLine
 10
253.9842083678
 20
115.5746321429
 30
0.0
 11
253.9842083678
 21
115.0290279884
 31
0.0
  0
LINE
  5
1DE
330
1F
100
AcDbEntity
  8
0
  6
HIDDEN
 62
     7
370
     0
100
AcDbLine
 10
258.1842049584
 20
115.0263318096
 30
0.0
 11
258.1842049584
 21
115.5746321429
 31
0.0
  0
LINE
  5
1DF
330
1F
100
AcDbEntity
  8
0
  6
HIDDEN
 62
     7
370
     0
100
AcDbLine
 10
218.5696094856
 20
104.1933075294
 30
0.0
 11
218.5696094856
 21
102.70415789
 31
0.0
  0
LINE
  5
1E0
330
1F
100
AcDbEntity
  8
0
  6
HIDDEN
 62
     7
370
     0
100
AcDbLine
 10
223.5696121678
 20
102.7029981606
 30
0.0
 11
223.5696121678
 21
104.1933075294
 31
0.0
  0
LINE
  5
1E1
330
1F
100
AcDbEntity
  8
VERMASSUNG
100
AcDbLine
 10
263.0696096644
 20
122.9378369946
 30
0.0
 11
263.0696096644
 21
108.9963690491
 31
0.0
  0
DIMENSION
  5
1E2
330
1F
100
AcDbEntity
  8
VERMASSUNG
100
AcDbDimension
  2
_D
 10
263.0696096644
 20
122.9378369946
 30
0.0
 11
268.7429288938
 21
101.491515693
 31
0.0
 70
   162
  1
<>
 71
     1
 42
-1.0
  3
SLDDIMSTYLE0
100
AcDb2LineAngularDimension
 13
260.0512972817
 23
109.3939933209
 33
0.0
 14
260.5183075868
 24
114.2651138512
 34
0.0
 15
263.0696096644
 25
108.9963690491
 35
0.0
 16
261.1686841463
 26
101.1304289512
 36
0.0
  0
DIMENSION
  5
1EF
330
1F
100
AcDbEntity
  8
VERMASSUNG
100
AcDbDimension
  2
_D_1
 10
98.1274001522
 20
85.9378369946
 30
0.0
 11
98.1274001522
 21
105.9378369946
 31
0.0
 70
   160
  1
HSK %%c<>
 71
     2
 42
-1.0
  3
SLDDIMSTYLE1
100
AcDbAlignedDimension
 13
123.3696096644
 23
125.9378369946
 33
0.0
 14
123.3696096644
 24
85.9378369946
 34
0.0
 50
90.0
100
AcDbRotatedDimension
  0
DIMENSION
  5
1FC
330
1F
100
AcDbEntity
  8
VERMASSUNG
100
AcDbDimension
  2
_D_2
 10
271.8675904454
 20
105.9378369946
 30
0.0
 11
271.8675904454
 21
114.4378369946
 31
0.0
 70
   160
  1
<>
 71
     2
 42
-1.0
  3
SLDDIMSTYLE1
100
AcDbAlignedDimension
 13
263.0696096644
 23
122.9378369946
 33
0.0
 14
262.6633029544
 24
105.9378369946
 34
0.0
 50
90.0
100
AcDbRotatedDimension
  0
DIMENSION
  5
206
330
1F
100
AcDbEntity
  8
VERMASSUNG
100
AcDbDimension
  2
_D_3
 10
263.0696096644
 20
130.4078709677
 30
0.0
 11
193.0696096644
 21
130.4078709677
 31
0.0
 70
   160
  1
<>
 71
     2
 42
-1.0
  3
SLDDIMSTYLE1
100
AcDbAlignedDimension
 13
123.0696096644
 23
125.6378369946
 33
0.0
 14
263.0696096644
 24
122.9378369946
 34
0.0
100
AcDbRotatedDimension
  0
DIMENSION
  5
210
330
1F
100
AcDbEntity
  8
VERMASSUNG
100
AcDbDimension
  2
_D_4
 10
263.0696096644
 20
136.4078709677
 30
0.0
 11
183.1196096644
 21
136.4078709677
 31
0.0
 70
   160
  1
<>
 71
     2
 42
-1.0
  3
SLDDIMSTYLE1
100
AcDbAlignedDimension
 13
103.1696096644
 23
117.8678369946
 33
0.0
 14
263.0696096644
 24
122.9378369946
 34
0.0
 50
0.0
100
AcDbRotatedDimension
  0
LINE
  5
21A
330
1F
100
AcDbEntity
  8
VERMASSUNG
  6
CENTERX2
370
     0
100
AcDbLine
 10
100.6467067551
 20
105.9378369946
 30
0.0
 11
262.6633029544
 21
105.9378369946
 31
0.0
  0
LINE
  5
21B
330
1F
100
AcDbEntity
  8
0
  6
Continuous
 62
     7
370
    15
100
AcDbLine
 10
56.1336623803
 20
122.2716349412
 30
0.0
 11
52.911762037
 21
122.8979102571
 31
0.0
  0
LINE
  5
21C
330
1F
100
AcDbEntity
  8
0
  6
Continuous
 62
     7
370
    15
100
AcDbLine
 10
51.9427924017
 20
109.0409984582
 30
0.0
 11
52.2446311377
 21
109.0568169721
 31
0.0
  0
LWPOLYLINE
  5
21D
330
1F
100
AcDbEntity
  8
0
  6
Continuous
 62
     7
370
    15
100
AcDbPolyline
 90
        9
 70
   128
 43
0.0
 10
52.8814275756
 20
122.4641057898
 10
52.8875014668
 20
122.550966521
 10
52.8934026959
 20
122.6353592474
 10
52.8988514987
 20
122.713279282
 10
52.9035895577
 20
122.7810367246
 10
52.9073922528
 20
122.8354185123
 10
52.9100793049
 20
122.8738448818
 10
52.9115233265
 20
122.8944960285
 10
52.911762037
 20
122.8979102571
  0
LINE
  5
21E
330
1F
100
AcDbEntity
  8
0
  6
Continuous
 62
     7
370
    15
100
AcDbLine
 10
57.618109772
 20
121.9644251515
 30
0.0
 11
56.1336623803
 21
122.2716349412
 31
0.0
  0
LINE
  5
21F
330
1F
100
AcDbEntity
  8
0
  6
Continuous
 62
     7
370
    15
100
AcDbLine
 10
56.8044411783
 20
110.3284189713
 30
0.0
 11
57.618109772
 21
121.9644251515
 31
0.0
  0
LINE
  5
220
330
1F
100
AcDbEntity
  8
0
  6
Continuous
 62
     7
370
    15
100
AcDbLine
 10
56.8044411783
 20
110.3284189713
 30
0.0
 11
55.2939621564
 21
110.2633632955
 31
0.0
  0
LINE
  5
221
330
1F
100
AcDbEntity
  8
0
  6
Continuous
 62
     7
370
    15
100
AcDbLine
 10
52.0417273809
 20
110.455834144
 30
0.0
 11
52.8814275756
 21
122.4641057898
 31
0.0
  0
LWPOLYLINE
  5
222
330
1F
100
AcDbEntity
  8
0
  6
Continuous
 62
     7
370
    15
100
AcDbPolyline
 90
        9
 70
   128
 43
0.0
 10
52.0163628687
 20
110.0931044903
 10
52.0172074619
 20
110.1051823471
 10
52.0188709204
 20
110.1289715853
 10
52.0213027783
 20
110.1637490329
 10
52.02442917
 20
110.2084581044
 10
52.0281549842
 20
110.2617400002
 10
52.0323671233
 20
110.3219760817
 10
52.0369375307
 20
110.3873363
 10
52.0417273809
 20
110.455834144
  0
LINE
  5
223
330
1F
100
AcDbEntity
  8
0
  6
Continuous
 62
     7
370
    15
100
AcDbLine
 10
51.9428986307
 20
109.0425167468
 30
0.0
 11
52.0163628687
 21
110.0931044903
 31
0.0
  0
LINE
  5
224
330
1F
100
AcDbEntity
  8
0
  6
Continuous
 62
     7
370
    15
100
AcDbLine
 10
51.9427924017
 20
109.0409984582
 30
0.0
 11
51.9428986307
 21
109.0425167468
 31
0.0
  0
LINE
  5
225
330
1F
100
AcDbEntity
  8
0
  6
Continuous
 62
     7
370
    15
100
AcDbLine
 10
65.9145543184
 20
109.3939932298
 30
0.0
 11
52.2821732746
 21
109.5936941684
 31
0.0
  0
LINE
  5
226
330
1F
100
AcDbEntity
  8
0
  6
Continuous
 62
     7
370
    15
100
AcDbLine
 10
52.3188097584
 20
110.1176206258
 30
0.0
 11
52.2821732746
 21
109.5936941684
 31
0.0
  0
LINE
  5
227
330
1F
100
AcDbEntity
  8
0
  6
Continuous
 62
     7
370
    15
100
AcDbLine
 10
52.3188097584
 20
110.1176206258
 30
0.0
 11
54.4101875574
 21
110.2076958169
 31
0.0
  0
LINE
  5
228
330
1F
100
AcDbEntity
  8
0
  6
Continuous
 62
     7
370
    15
100
AcDbLine
 10
54.4101875574
 20
110.2076958169
 30
0.0
 11
56.7825860642
 21
110.0158759628
 31
0.0
  0
LINE
  5
229
330
1F
100
AcDbEntity
  8
0
  6
Continuous
 62
     7
370
    15
100
AcDbLine
 10
56.8044411783
 20
110.3284189713
 30
0.0
 11
56.7825860642
 21
110.0158759628
 31
0.0
  0
SPLINE
  5
22A
330
1F
100
AcDbEntity
  8
0
  6
Continuous
 62
     7
370
    15
100
AcDbSpline
210
0.0
220
0.0
230
1.0
 70
     8
 71
     3
 72
    28
 73
    24
 74
     0
 42
0.00000001
 43
0.00000001
 12
1.0
 22
0.0
 32
0.0
 13
1.0
 23
0.0
 33
0.0
 40
0.0
 40
0.0
 40
0.0
 40
0.0
 40
0.0358097066417436
 40
0.0715289440147237
 40
0.107180110900339
 40
0.1427857345455401
 40
0.1783684286970603
 40
0.2139508508188992
 40
0.2495556588943799
 40
0.2852054682232699
 40
0.3209228086245313
 40
0.3567300824463713
 40
0.3926495237675256
 40
0.4287031591480907
 40
0.4649127702554286
 40
0.5012998586521912
 40
0.5737717993961976
 40
0.6455354355197849
 40
0.7167667554877457
 40
0.7876457130090079
 40
0.8583549521114587
 40
0.9290784317332768
 40
1.0
 40
1.0
 40
1.0
 40
1.0
 10
65.91455404208705
 20
114.265113851133
 30
0.0
 10
65.8458393179275
 20
114.3756855966788
 30
0.0
 10
65.70858346976964
 20
114.5965497404675
 30
0.0
 10
65.49247917041521
 20
114.92072872914
 30
0.0
 10
65.26927621392959
 20
115.2390526928953
 30
0.0
 10
65.03822216300046
 20
115.5510538445048
 30
0.0
 10
64.7995184043958
 20
115.8568566848501
 30
0.0
 10
64.55311140202247
 20
116.1564274151542
 30
0.0
 10
64.29901587718764
 20
116.449774630794
 30
0.0
 10
64.03722831859474
 20
116.7368956136545
 30
0.0
 10
63.76775012081293
 20
117.0177907330539
 30
0.0
 10
63.4905814666114
 20
117.2924595554756
 30
0.0
 10
63.20572261337819
 20
117.5609020142508
 30
0.0
 10
62.91317484798478
 20
117.8231176369303
 30
0.0
 10
62.61293531440854
 20
118.0791074811104
 30
0.0
 10
62.2038099211067
 20
118.4109583451794
 30
0.0
 10
61.67957643610833
 20
118.8055444621252
 30
0.0
 10
61.03158046102273
 20
119.2446482634169
 30
0.0
 10
60.3670615103702
 20
119.6474700804576
 30
0.0
 10
59.6861176350002
 20
120.0142341188529
 30
0.0
 10
58.9884563970333
 20
120.3440244435193
 30
0.0
 10
58.27521863723355
 20
120.6402181111651
 30
0.0
 10
57.78764127099341
 20
120.8064574102129
 30
0.0
 10
57.54351165276405
 20
120.8896933014197
 30
0.0
  0
LINE
  5
22B
330
1F
100
AcDbEntity
  8
0
  6
Continuous
 62
     7
370
    15
100
AcDbLine
 10
65.9145543184
 20
114.2651134406
 30
0.0
 11
65.9145543184
 21
109.3939932298
 31
0.0
  0
SPLINE
  5
22C
330
1F
100
AcDbEntity
  8
0
  6
Continuous
 62
     7
370
    15
100
AcDbSpline
210
0.0
220
0.0
230
1.0
 70
     8
 71
     3
 72
    27
 73
    23
 74
     0
 42
0.00000001
 43
0.00000001
 12
1.0
 22
0.0
 32
0.0
 13
1.0
 23
0.0
 33
0.0
 40
0.0
 40
0.0
 40
0.0
 40
0.0
 40
0.0373788116421671
 40
0.0760837157713631
 40
0.1161152937944545
 40
0.1574740702875808
 40
0.2001605200149872
 40
0.2441750738953199
 40
0.2895181240988645
 40
0.3361900284229582
 40
0.3841911140646549
 40
0.4335216808873695
 40
0.4841820042606874
 40
0.5361723375384619
 40
0.589492914228985
 40
0.6441439499019802
 40
0.7001256438697495
 40
0.7574381806737794
 40
0.8160817314031793
 40
0.8760564548672284
 40
0.9373624986409733
 40
1.0
 40
1.0
 40
1.0
 40
1.0
 10
57.59847801634935
 20
121.683112614299
 30
0.0
 10
57.7231539111869
 20
121.6422324097923
 30
0.0
 10
57.97692884221384
 20
121.5590216889663
 30
0.0
 10
58.3599127002065
 20
121.4198276946033
 30
0.0
 10
58.75232969577675
 20
121.2663880118084
 30
0.0
 10
59.15322923629317
 20
121.0968993570893
 30
0.0
 10
59.56198270344044
 20
120.9107117197542
 30
0.0
 10
59.97778557862088
 20
120.7068498062245
 30
0.0
 10
60.39979366064356
 20
120.4844349289756
 30
0.0
 10
60.82708107114463
 20
120.2425726883309
 30
0.0
 10
61.25864856643317
 20
119.9803912276697
 30
0.0
 10
61.69341800669409
 20
119.6970377453794
 30
0.0
 10
62.13023111270411
 20
119.3916872650539
 30
0.0
 10
62.56784714914733
 20
119.0635483037869
 30
0.0
 10
63.00494241027287
 20
118.7118706620275
 30
0.0
 10
63.44010566033769
 20
118.3359502712376
 30
0.0
 10
63.87185100514009
 20
117.9351464407874
 30
0.0
 10
64.29856572676199
 20
117.5088532642668
 30
0.0
 10
64.71871211337168
 20
117.0566499801291
 30
0.0
 10
65.13005097466277
 20
116.5777617650084
 30
0.0
 10
65.5326445449077
 20
116.0731838119251
 30
0.0
 10
65.7863460904252
 20
115.7198796626862
 30
0.0
 10
65.91455955152247
 20
115.541329911633
 30
0.0
  0
SPLINE
  5
22D
330
1F
100
AcDbEntity
  8
0
  6
Continuous
 62
     7
370
    15
100
AcDbSpline
210
0.0
220
0.0
230
1.0
 70
    24
 71
     3
 72
     9
 73
     5
 74
     0
 42
0.00000001
 43
0.00000001
 12
1.0
 22
0.0
 32
0.0
 13
1.0
 23
0.0
 33
0.0
 40
0.0
 40
0.0
 40
0.0
 40
0.0
 40
0.5092918105237748
 40
0.9999999999999999
 40
0.9999999999999999
 40
0.9999999999999999
 40
0.9999999999999999
 10
65.91455405022653
 20
115.5439917046095
 30
0.0
 10
65.91455405022653
 20
115.3286595776697
 30
0.0
 10
65.91455405022653
 20
114.9058526082854
 30
0.0
 10
65.91455405022654
 20
114.4747730958945
 30
0.0
 10
65.91455405022653
 20
114.2632388488489
 30
0.0
  0
LINE
  5
22E
330
1F
100
AcDbEntity
  8
0
  6
Continuous
 62
     7
370
    15
100
AcDbLine
 10
65.9145543184
 20
109.3939932298
 30
0.0
 11
65.9145543184
 21
105.9378369946
 31
0.0
  0
ARC
  5
22F
330
1F
100
AcDbEntity
  8
0
  6
Continuous
 62
     7
370
    15
100
AcDbCircle
 10
52.9145540502
 20
105.9378369946
 30
0.0
 40
13.00000000000001
100
AcDbArc
 50
262.0926611235
 51
0.0
  0
LINE
  5
230
330
1F
100
AcDbEntity
  8
0
  6
Continuous
 62
     7
370
    15
100
AcDbLine
 10
52.2821732746
 20
109.5936941684
 30
0.0
 11
51.1261256477
 21
93.0614427898
 31
0.0
  0
SPLINE
  5
231
330
1F
100
AcDbEntity
  8
0
  6
Continuous
 62
     7
370
    15
100
AcDbSpline
210
0.0
220
0.0
230
1.0
 70
     8
 71
     3
 72
    14
 73
    10
 74
     0
 42
0.00000001
 43
0.00000001
 12
1.0
 22
0.0
 32
0.0
 13
1.0
 23
0.0
 33
0.0
 40
0.0
 40
0.0
 40
0.0
 40
0.0
 40
0.25
 40
0.25
 40
0.5
 40
0.5
 40
0.75
 40
0.75
 40
1.0
 40
1.0
 40
1.0
 40
1.0
 10
47.85674587144125
 20
110.0587186180887
 30
0.0
 10
47.92160069723821
 20
110.1945836965518
 30
0.0
 10
47.97421107348887
 20
110.3342751994088
 30
0.0
 10
48.05412332257645
 20
110.6216881850235
 30
0.0
 10
48.08154597691993
 20
110.7711403902837
 30
0.0
 10
48.10604666861904
 20
111.0706794534717
 30
0.0
 10
48.10337320838286
 20
111.2194901975757
 30
0.0
 10
48.06607926938617
 20
111.5150848741574
 30
0.0
 10
48.03083217702724
 20
111.6630982814239
 30
0.0
 10
47.97883821345985
 20
111.8047204537973
 30
0.0
  0
SPLINE
  5
232
330
1F
100
AcDbEntity
  8
0
  6
Continuous
 62
     7
370
    15
100
AcDbSpline
210
0.0
220
0.0
230
1.0
 70
     8
 71
     3
 72
    14
 73
    10
 74
     0
 42
0.00000001
 43
0.00000001
 12
1.0
 22
0.0
 32
0.0
 13
1.0
 23
0.0
 33
0.0
 40
0.0
 40
0.0
 40
0.0
 40
0.0
 40
0.0218454117238949
 40
0.1858225343132398
 40
0.3497758202538936
 40
0.5115917528153437
 40
0.6733872186132142
 40
0.8366657168469169
 40
1.0
 40
1.0
 40
1.0
 40
1.0
 10
52.59958811876066
 20
118.4336145643521
 30
0.0
 10
52.58887952046113
 20
118.4334288711481
 30
0.0
 10
52.49778950576557
 20
118.431849318325
 30
0.0
 10
52.17016933042985
 20
118.4190025786166
 30
0.0
 10
51.62654058799005
 20
118.3764246359439
 30
0.0
 10
50.93737420556794
 20
118.2878974965281
 30
0.0
 10
50.15225416295007
 20
118.1379617768132
 30
0.0
 10
49.28833309517077
 20
117.9152091532398
 30
0.0
 10
48.68495647449084
 20
117.6968156223296
 30
0.0
 10
48.38321663628966
 20
117.5876002062488
 30
0.0
  0
SPLINE
  5
233
330
1F
100
AcDbEntity
  8
0
  6
Continuous
 62
     7
370
    15
100
AcDbSpline
210
0.0
220
0.0
230
1.0
 70
     8
 71
     3
 72
    22
 73
    18
 74
     0
 42
0.00000001
 43
0.00000001
 12
1.0
 22
0.0
 32
0.0
 13
1.0
 23
0.0
 33
0.0
 40
0.0
 40
0.0
 40
0.0
 40
0.0
 40
0.1249999999999999
 40
0.1249999999999999
 40
0.2499999999999999
 40
0.2499999999999999
 40
0.3749999999999998
 40
0.3749999999999998
 40
0.4999999999999999
 40
0.4999999999999999
 40
0.6249999999999999
 40
0.6249999999999999
 40
0.75
 40
0.75
 40
0.875
 40
0.875
 40
1.0
 40
1.0
 40
1.0
 40
1.0
 10
46.8059815590251
 20
95.03208887175914
 30
0.0
 10
47.09129734733436
 20
94.87227661897893
 30
0.0
 10
47.3737960227152
 20
94.72872965588157
 30
0.0
 10
47.93025127147489
 20
94.470456619813
 30
0.0
 10
48.20516247631893
 20
94.3553901887381
 30
0.0
 10
48.73866168924798
 20
94.15253402876509
 30
0.0
 10
48.99107829504234
 20
94.0669512398323
 30
0.0
 10
49.46535272502947
 20
93.92057437691074
 30
0.0
 10
49.68842348633295
 20
93.85951283923278
 30
0.0
 10
50.09472001122501
 20
93.7582487909744
 30
0.0
 10
50.27490402292833
 20
93.71867178580543
 30
0.0
 10
50.58945202928432
 20
93.65493622732859
 30
0.0
 10
50.72465438531137
 20
93.6306661899605
 30
0.0
 10
50.94170642923426
 20
93.5940131939575
 30
0.0
 10
51.02316067661246
 20
93.58163586144771
 30
0.0
 10
51.13286850974388
 20
93.56534040048048
 30
0.0
 10
51.16108839181346
 20
93.56143371320377
 30
0.0
 10
51.16108839181346
 20
93.56143371320377
 30
0.0
  0
SPLINE
  5
234
330
1F
100
AcDbEntity
  8
0
  6
Continuous
 62
     7
370
    15
100
AcDbSpline
210
0.0
220
0.0
230
1.0
 70
     8
 71
     3
 72
    14
 73
    10
 74
     0
 42
0.00000001
 43
0.00000001
 12
1.0
 22
0.0
 32
0.0
 13
1.0
 23
0.0
 33
0.0
 40
0.0
 40
0.0
 40
0.0
 40
0.0
 40
0.25
 40
0.25
 40
0.5
 40
0.5
 40
0.75
 40
0.75
 40
1.0
 40
1.0
 40
1.0
 40
1.0
 10
44.10695408954558
 20
109.7726078476224
 30
0.0
 10
44.06133850118334
 20
109.8171903544247
 30
0.0
 10
44.02036730204902
 20
109.8589967910566
 30
0.0
 10
43.96437779606757
 20
109.945933686515
 30
0.0
 10
43.95072548862481
 20
109.9915226818106
 30
0.0
 10
43.97560878601035
 20
110.0963607567758
 30
0.0
 10
44.01552623326923
 20
110.1569900281484
 30
0.0
 10
44.12809675415794
 20
110.2808087174118
 30
0.0
 10
44.19944163376002
 20
110.3442660309473
 30
0.0
 10
44.27672276048986
 20
110.40619315312
 30
0.0
  0
SPLINE
  5
235
330
1F
100
AcDbEntity
  8
0
  6
Continuous
 62
     7
370
    15
100
AcDbSpline
210
0.0
220
0.0
230
1.0
 70
     8
 71
     3
 72
    15
 73
    11
 74
     0
 42
0.00000001
 43
0.00000001
 12
1.0
 22
0.0
 32
0.0
 13
1.0
 23
0.0
 33
0.0
 40
0.0
 40
0.0
 40
0.0
 40
0.0
 40
0.1057864880472938
 40
0.4721812684963805
 40
0.5632938395184967
 40
0.623316047687914
 40
0.6743693976029302
 40
0.7425638894514489
 40
0.9608843465475331
 40
1.0
 40
1.0
 40
1.0
 40
1.0
 10
46.08558377440721
 20
108.5941652536768
 30
0.0
 10
46.05421836211725
 20
108.6883751178543
 30
0.0
 10
45.91421787211742
 20
109.1088837668634
 30
0.0
 10
45.61330834995729
 20
109.483163493374
 30
0.0
 10
45.27234998507129
 20
109.7619991209439
 30
0.0
 10
45.10531018045173
 20
109.8499086033255
 30
0.0
 10
44.93425587476239
 20
109.8975418326729
 30
0.0
 10
44.61823131171204
 20
109.9133290030413
 30
0.0
 10
44.34914045371205
 20
109.8520404074961
 30
0.0
 10
44.13889922080146
 20
109.783085048617
 30
0.0
 10
44.10695450570137
 20
109.7726077542085
 30
0.0
  0
ARC
  5
236
330
1F
100
AcDbEntity
  8
0
  6
Continuous
 62
     7
370
    15
100
AcDbCircle
 10
44.1866021698
 20
107.3229592485
 30
0.0
 40
2.221496199765792
100
AcDbArc
 50
34.3256664373
 51
99.088991836
  0
SPLINE
  5
237
330
1F
100
AcDbEntity
  8
0
  6
Continuous
 62
     7
370
    15
100
AcDbSpline
210
0.0
220
0.0
230
1.0
 70
     8
 71
     3
 72
    16
 73
    12
 74
     0
 42
0.00000001
 43
0.00000001
 12
1.0
 22
0.0
 32
0.0
 13
1.0
 23
0.0
 33
0.0
 40
0.0
 40
0.0
 40
0.0
 40
0.0
 40
0.1078033088017196
 40
0.2112908393329485
 40
0.2551110142839284
 40
0.2912239642990773
 40
0.3360965496067593
 40
0.4671924003176271
 40
0.7672796435709714
 40
0.9449603179266088
 40
1.0
 40
1.0
 40
1.0
 40
1.0
 10
44.27672250386029
 20
110.406193253808
 30
0.0
 10
44.37673109213525
 20
110.389550631171
 30
0.0
 10
44.57274454285396
 20
110.3569316536575
 30
0.0
 10
44.82458798878128
 20
110.2650800448115
 30
0.0
 10
45.04208121384448
 20
110.1889528901397
 30
0.0
 10
45.20919528684428
 20
110.1416278752689
 30
0.0
 10
45.48318066956913
 20
110.0851070347339
 30
0.0
 10
45.99353220672024
 20
109.9942783410416
 30
0.0
 10
46.52287048104927
 20
109.733297838967
 30
0.0
 10
46.88011798103475
 20
109.3471900733409
 30
0.0
 10
46.93176369879978
 20
109.1012887159502
 30
0.0
 10
46.94397820349484
 20
109.043131652512
 30
0.0
  0
ELLIPSE
  5
238
330
1F
100
AcDbEntity
  8
0
  6
Continuous
 62
     7
370
    15
100
AcDbEllipse
 10
45.8632671904
 20
110.7617284905
 30
0.0
 11
1.689201569812674
 21
1.709770704533469
 31
0.0
210
0.0
220
0.0
230
1.0
 40
0.8581657892
 41
5.899593604131318
 42
11.37980906577208
  0
ARC
  5
239
330
1F
100
AcDbEntity
  8
0
  6
Continuous
 62
     7
370
    15
100
AcDbCircle
 10
52.9145540502
 20
105.9378369946
 30
0.0
 40
12.50000000000004
100
AcDbArc
 50
111.2542395221
 51
240.7457604779
  0
LWPOLYLINE
  5
23A
330
1F
100
AcDbEntity
  8
0
  6
Continuous
 62
     7
370
    15
100
AcDbPolyline
 90
        8
 70
   128
 43
0.0
 10
44.2817786541
 20
110.4250623148
 10
44.278844988
 20
110.4141141523
 10
44.2681794819
 20
110.3743098911
 10
44.2498640921
 20
110.3059545394
 10
44.224162383
 20
110.2100357648
 10
44.1914468836
 20
110.0879379783
 10
44.1521879118
 20
109.9414237079
 10
44.1069545057
 20
109.7726077542
  0
SPLINE
  5
23B
330
1F
100
AcDbEntity
  8
0
  6
Continuous
 62
     7
370
    15
100
AcDbSpline
210
0.0
220
0.0
230
1.0
 70
    24
 71
     3
 72
    10
 73
     6
 74
     0
 42
0.00000001
 43
0.00000001
 12
1.0
 22
0.0
 32
0.0
 13
1.0
 23
0.0
 33
0.0
 40
0.0
 40
0.0
 40
0.0
 40
0.0
 40
0.5
 40
0.5
 40
1.0
 40
1.0
 40
1.0
 40
1.0
 10
48.4145540502265
 20
124.8087140277838
 30
0.0
 10
48.4145540502265
 20
124.9671484706716
 30
0.0
 10
48.4145540502265
 20
125.1261691654736
 30
0.0
 10
48.4145540502265
 20
125.3561769897292
 30
0.0
 10
48.4145540502265
 20
125.425012264546
 30
0.0
 10
48.4145540502265
 20
125.4250122645459
 30
0.0
  0
SPLINE
  5
23C
330
1F
100
AcDbEntity
  8
0
  6
Continuous
 62
     7
370
    15
100
AcDbSpline
210
0.0
220
0.0
230
1.0
 70
    24
 71
     3
 72
    12
 73
     8
 74
     0
 42
0.00000001
 43
0.00000001
 12
1.0
 22
0.0
 32
0.0
 13
1.0
 23
0.0
 33
0.0
 40
0.0
 40
0.0
 40
0.0
 40
0.0
 40
0.2500000000000034
 40
0.2500000000000034
 40
0.5000000000000068
 40
0.5000000000000068
 40
1.0
 40
1.0
 40
1.0
 40
1.0
 10
41.0645540502265
 20
122.0492459957183
 30
0.0
 10
41.06455405022649
 20
122.0492459957183
 30
0.0
 10
41.0645540502265
 20
122.0236213631136
 30
0.0
 10
41.0645540502265
 20
121.9350779901818
 30
0.0
 10
41.0645540502265
 20
121.8721955070671
 30
0.0
 10
41.0645540502265
 20
121.6548343191335
 30
0.0
 10
41.0645540502265
 20
121.4761873091222
 30
0.0
 10
41.0645540502265
 20
121.2980941539465
 30
0.0
  0
ARC
  5
23D
330
1F
100
AcDbEntity
  8
0
  6
Continuous
 62
     7
370
    15
100
AcDbCircle
 10
52.9145540502
 20
105.9378369946
 30
0.0
 40
20.00000000000003
100
AcDbArc
 50
103.0028781629
 51
126.3346172154
  0
SPLINE
  5
23E
330
1F
100
AcDbEntity
  8
0
  6
Continuous
 62
     7
370
    15
100
AcDbSpline
210
0.0
220
0.0
230
1.0
 70
    24
 71
     3
 72
    10
 73
     6
 74
     0
 42
0.00000001
 43
0.00000001
 12
1.0
 22
0.0
 32
0.0
 13
1.0
 23
0.0
 33
0.0
 40
0.0
 40
0.0
 40
0.0
 40
0.0
 40
0.5
 40
0.5
 40
1.0
 40
1.0
 40
1.0
 40
1.0
 10
47.4145540502265
 20
87.3338051735543
 30
0.0
 10
47.4145540502265
 20
87.17417300465107
 30
0.0
 10
47.4145540502265
 20
87.01312337088702
 30
0.0
 10
47.4145540502265
 20
86.78013248721044
 30
0.0
 10
47.4145540502265
 20
86.70895247161144
 30
0.0
 10
47.4145540502265
 20
86.70895247161145
 30
0.0
  0
ARC
  5
23F
330
1F
100
AcDbEntity
  8
0
  6
Continuous
 62
     7
370
    15
100
AcDbCircle
 10
52.9145540502
 20
105.9378369946
 30
0.0
 40
20.00000000000003
100
AcDbArc
 50
143.6653827846
 51
254.0379858372
  0
SPLINE
  5
240
330
1F
100
AcDbEntity
  8
0
  6
Continuous
 62
     7
370
    15
100
AcDbSpline
210
0.0
220
0.0
230
1.0
 70
    24
 71
     3
 72
    12
 73
     8
 74
     0
 42
0.00000001
 43
0.00000001
 12
1.0
 22
0.0
 32
0.0
 13
1.0
 23
0.0
 33
0.0
 40
0.0
 40
0.0
 40
0.0
 40
0.0
 40
0.250000000000002
 40
0.250000000000002
 40
0.500000000000004
 40
0.500000000000004
 40
1.0
 40
1.0
 40
1.0
 40
1.0
 10
36.80314504914905
 20
117.7878369946409
 30
0.0
 10
36.80314504914905
 20
117.7878369946409
 30
0.0
 10
36.82862986473859
 20
117.7878369946409
 30
0.0
 10
36.91757052755093
 20
117.7878369946409
 30
0.0
 10
36.98060917145343
 20
117.7878369946409
 30
0.0
 10
37.19802708333037
 20
117.7878369946409
 30
0.0
 10
37.37759925094408
 20
117.7878369946409
 30
0.0
 10
37.55429689092077
 20
117.7878369946409
 30
0.0
  0
SPLINE
  5
241
330
1F
100
AcDbEntity
  8
0
  6
Continuous
 62
     7
370
    15
100
AcDbSpline
210
0.0
220
0.0
230
1.0
 70
    24
 71
     3
 72
    10
 73
     6
 74
     0
 42
0.00000001
 43
0.00000001
 12
1.0
 22
0.0
 32
0.0
 13
1.0
 23
0.0
 33
0.0
 40
0.0
 40
0.0
 40
0.0
 40
0.0
 40
0.5
 40
0.5
 40
1.0
 40
1.0
 40
1.0
 40
1.0
 10
57.41455405022651
 20
125.4250122645459
 30
0.0
 10
57.41455405022651
 20
125.4250122645459
 30
0.0
 10
57.41455405022651
 20
125.3564268620401
 30
0.0
 10
57.41455405022651
 20
125.1266535927205
 30
0.0
 10
57.41455405022651
 20
124.9681553910528
 30
0.0
 10
57.41455405022651
 20
124.8087140277838
 30
0.0
  0
ARC
  5
242
330
1F
100
AcDbEntity
  8
0
  6
Continuous
 62
     7
370
    15
100
AcDbCircle
 10
52.9145540502
 20
105.9378369946
 30
0.0
 40
20.00000000000002
100
AcDbArc
 50
285.9620141628
 51
76.9971218371
  0
SPLINE
  5
243
330
1F
100
AcDbEntity
  8
0
  6
Continuous
 62
     7
370
    15
100
AcDbSpline
210
0.0
220
0.0
230
1.0
 70
    24
 71
     3
 72
    12
 73
     8
 74
     0
 42
0.00000001
 43
0.00000001
 12
1.0
 22
0.0
 32
0.0
 13
1.0
 23
0.0
 33
0.0
 40
0.0
 40
0.0
 40
0.0
 40
0.0
 40
0.2499999999999999
 40
0.2499999999999999
 40
0.4999999999999998
 40
0.4999999999999998
 40
1.0
 40
1.0
 40
1.0
 40
1.0
 10
58.41455405022652
 20
86.70895247161145
 30
0.0
 10
58.41455405022652
 20
86.70895247161145
 30
0.0
 10
58.41455405022652
 20
86.72592806796953
 30
0.0
 10
58.41455405022651
 20
86.79040356542875
 30
0.0
 10
58.41455405022652
 20
86.83751719722333
 30
0.0
 10
58.41455405022652
 20
87.01412711121081
 30
0.0
 10
58.41455405022652
 20
87.17397598701895
 30
0.0
 10
58.41455405022652
 20
87.333805173554
 30
0.0
  0
LINE
  5
244
330
1F
100
AcDbEntity
  8
0
  6
Continuous
 62
     7
370
    15
100
AcDbLine
 10
57.4145538565
 20
122.8378362257
 30
0.0
 11
53.2208074881
 21
122.8378362257
 31
0.0
  0
LINE
  5
245
330
1F
100
AcDbEntity
  8
0
  6
Continuous
 62
     7
370
    15
100
AcDbLine
 10
52.9075613688
 20
122.8378362257
 30
0.0
 11
48.4145542439
 21
122.8378362257
 31
0.0
  0
LINE
  5
246
330
1F
100
AcDbEntity
  8
0
  6
Continuous
 62
     7
370
    15
100
AcDbLine
 10
58.4145540204
 20
89.0378377635
 30
0.0
 11
47.41455408
 21
89.0378377635
 31
0.0
  0
LINE
  5
247
330
1F
100
AcDbEntity
  8
0
  6
Continuous
 62
     7
370
    15
100
AcDbLine
 10
58.4145540204
 20
87.3338042993
 30
0.0
 11
58.4145540204
 21
89.0378377635
 31
0.0
  0
LINE
  5
248
330
1F
100
AcDbEntity
  8
0
  6
Continuous
 62
     7
370
    15
100
AcDbLine
 10
57.4145538565
 20
124.8087140967
 30
0.0
 11
57.4145538565
 21
122.8378362257
 31
0.0
  0
LINE
  5
249
330
1F
100
AcDbEntity
  8
0
  6
Continuous
 62
     7
370
    15
100
AcDbLine
 10
48.4145542439
 20
122.8378362257
 30
0.0
 11
48.4145542439
 21
124.8087140967
 31
0.0
  0
LINE
  5
24A
330
1F
100
AcDbEntity
  8
0
  6
Continuous
 62
     7
370
    15
100
AcDbLine
 10
37.5542964619
 20
117.7878373538
 30
0.0
 11
41.0645536911
 21
117.7878373538
 31
0.0
  0
LINE
  5
24B
330
1F
100
AcDbEntity
  8
0
  6
Continuous
 62
     7
370
    15
100
AcDbLine
 10
47.41455408
 20
89.0378377635
 30
0.0
 11
47.41455408
 21
87.3338042993
 31
0.0
  0
LINE
  5
24C
330
1F
100
AcDbEntity
  8
0
  6
Continuous
 62
     7
370
    15
100
AcDbLine
 10
41.0645536911
 20
121.298094583
 30
0.0
 11
41.0645536911
 21
117.7878373538
 31
0.0
  0
SPLINE
  5
24D
330
1F
100
AcDbEntity
  8
0
  6
Continuous
 62
     7
370
    15
100
AcDbSpline
210
0.0
220
0.0
230
1.0
 70
     8
 71
     3
 72
    20
 73
    16
 74
     0
 42
0.00000001
 43
0.00000001
 12
1.0
 22
0.0
 32
0.0
 13
1.0
 23
0.0
 33
0.0
 40
0.0
 40
0.0
 40
0.0
 40
0.0
 40
0.25
 40
0.25
 40
0.375
 40
0.375
 40
0.5
 40
0.5
 40
0.625
 40
0.625
 40
0.75
 40
0.75
 40
0.875
 40
0.875
 40
1.0
 40
1.0
 40
1.0
 40
1.0
 10
36.80314504914902
 20
117.7878369946409
 30
0.0
 10
37.22653359757498
 20
118.363481388739
 30
0.0
 10
37.66380940452679
 20
118.893106433708
 30
0.0
 10
38.32022693508144
 20
119.6167138007947
 30
0.0
 10
38.54026257463259
 20
119.8472733066229
 30
0.0
 10
38.97026011892625
 20
120.2783160905399
 30
0.0
 10
39.17818074275355
 20
120.4769082435938
 30
0.0
 10
39.57468771265842
 20
120.841544939988
 30
0.0
 10
39.7633036835869
 20
121.0076079873986
 30
0.0
 10
40.11495374278784
 20
121.3074048464061
 30
0.0
 10
40.27469052333604
 20
121.438343257541
 30
0.0
 10
40.55328734397217
 20
121.66141577943
 30
0.0
 10
40.67307173190672
 20
121.7543252372393
 30
0.0
 10
40.86892655747534
 20
121.9039901939518
 30
0.0
 10
40.94476945974796
 20
121.9605727960182
 30
0.0
 10
40.99430530646057
 20
121.9973410307793
 30
0.0
  0
SPLINE
  5
24E
330
1F
100
AcDbEntity
  8
0
  6
Continuous
 62
     7
370
    15
100
AcDbSpline
210
0.0
220
0.0
230
1.0
 70
     8
 71
     3
 72
     8
 73
     4
 74
     0
 42
0.00000001
 43
0.00000001
 12
1.0
 22
0.0
 32
0.0
 13
1.0
 23
0.0
 33
0.0
 40
0.0
 40
0.0
 40
0.0
 40
0.0
 40
1.0
 40
1.0
 40
1.0
 40
1.0
 10
40.99430530646067
 20
121.9973410307793
 30
0.0
 10
41.04023916325198
 20
121.2887121240858
 30
0.0
 10
41.06181389515885
 20
120.573812551444
 30
0.0
 10
41.06430842279666
 20
119.8517157005715
 30
0.0
  0
LINE
  5
24F
330
1F
100
AcDbEntity
  8
0
  6
Continuous
 62
     7
370
    15
100
AcDbLine
 10
41.0643087533
 20
119.8517161657
 30
0.0
 11
41.0643087533
 21
119.4534686629
 31
0.0
  0
LINE
  5
250
330
1F
100
AcDbEntity
  8
0
  6
Continuous
 62
     7
370
    15
100
AcDbLine
 10
40.9943049606
 20
121.9973418165
 30
0.0
 11
41.0645536911
 21
122.0492462863
 31
0.0
  0
SPLINE
  5
251
330
1F
100
AcDbEntity
  8
0
  6
Continuous
 62
     7
370
    15
100
AcDbSpline
210
0.0
220
0.0
230
1.0
 70
     8
 71
     3
 72
    22
 73
    18
 74
     0
 42
0.00000001
 43
0.00000001
 12
1.0
 22
0.0
 32
0.0
 13
1.0
 23
0.0
 33
0.0
 40
0.0
 40
0.0
 40
0.0
 40
0.0
 40
0.1250000000000001
 40
0.1250000000000001
 40
0.2500000000000001
 40
0.2500000000000001
 40
0.3750000000000001
 40
0.3750000000000001
 40
0.5000000000000001
 40
0.5000000000000001
 40
0.6250000000000001
 40
0.6250000000000001
 40
0.75
 40
0.75
 40
0.875
 40
0.875
 40
1.0
 40
1.0
 40
1.0
 40
1.0
 10
53.91455405022651
 20
85.96285263920265
 30
0.0
 10
54.21329177862417
 20
85.97780823181198
 30
0.0
 10
54.50649710345861
 20
85.99919642845838
 30
0.0
 10
55.08245218408619
 20
86.05357467507368
 30
0.0
 10
55.36819447790157
 20
86.08702083868205
 30
0.0
 10
55.91172361889524
 20
86.16178511407979
 30
0.0
 10
56.16921680711686
 20
86.20288360304073
 30
0.0
 10
56.65642180438215
 20
86.28943653200449
 30
0.0
 10
56.8865614265713
 20
86.33508743110238
 30
0.0
 10
57.29976708277478
 20
86.42336698626724
 30
0.0
 10
57.48560282347066
 20
86.4664683362745
 30
0.0
 10
57.81469940365409
 20
86.54667251612975
 30
0.0
 10
57.95465926046813
 20
86.5829673635193
 30
0.0
 10
58.18034562169778
 20
86.64314658266902
 30
0.0
 10
58.26761703003653
 20
86.66743392010012
 30
0.0
 10
58.3850172433874
 20
86.70043201441149
 30
0.0
 10
58.41455405022652
 20
86.70895247161141
 30
0.0
 10
58.41455405022652
 20
86.70895247161141
 30
0.0
  0
SPLINE
  5
252
330
1F
100
AcDbEntity
  8
0
  6
Continuous
 62
     7
370
    15
100
AcDbSpline
210
0.0
220
0.0
230
1.0
 70
     8
 71
     3
 72
    22
 73
    18
 74
     0
 42
0.00000001
 43
0.00000001
 12
1.0
 22
0.0
 32
0.0
 13
1.0
 23
0.0
 33
0.0
 40
0.0
 40
0.0
 40
0.0
 40
0.0
 40
0.125
 40
0.125
 40
0.25
 40
0.25
 40
0.375
 40
0.375
 40
0.5
 40
0.5
 40
0.625
 40
0.625
 40
0.75
 40
0.75
 40
0.875
 40
0.875
 40
1.0
 40
1.0
 40
1.0
 40
1.0
 10
47.4145540502265
 20
86.70895247161143
 30
0.0
 10
47.4145540502265
 20
86.70895247161143
 30
0.0
 10
47.44407994864643
 20
86.70043837054504
 30
0.0
 10
47.55948478193309
 20
86.66799460166317
 30
0.0
 10
47.64686758699893
 20
86.64366071296112
 30
0.0
 10
47.87354100630654
 20
86.5832006882043
 30
0.0
 10
48.0120168526391
 20
86.54728726742579
 30
0.0
 10
48.33882734980288
 20
86.46757724135666
 30
0.0
 10
48.52787218578287
 20
86.42369894016733
 30
0.0
 10
48.94074046825859
 20
86.33545531779714
 30
0.0
 10
49.16621235950991
 20
86.29064697633618
 30
0.0
 10
49.6570679640576
 20
86.20332596841699
 30
0.0
 10
49.91590812199967
 20
86.16203517984134
 30
0.0
 10
50.45566094779549
 20
86.08769695654752
 30
0.0
 10
50.73976403662456
 20
86.05428683081284
 30
0.0
 10
51.32121717176646
 20
85.9992674292867
 30
0.0
 10
51.61586763739475
 20
85.97780566282043
 30
0.0
 10
51.91455405022651
 20
85.96285263920264
 30
0.0
  0
SPLINE
  5
253
330
1F
100
AcDbEntity
  8
0
  6
Continuous
 62
     7
370
    15
100
AcDbSpline
210
0.0
220
0.0
230
1.0
 70
     8
 71
     3
 72
    38
 73
    34
 74
     0
 42
0.00000001
 43
0.00000001
 12
1.0
 22
0.0
 32
0.0
 13
1.0
 23
0.0
 33
0.0
 40
0.0
 40
0.0
 40
0.0
 40
0.0
 40
0.0625
 40
0.0625
 40
0.125
 40
0.125
 40
0.1875000000000001
 40
0.1875000000000001
 40
0.2500000000000001
 40
0.2500000000000001
 40
0.3125000000000001
 40
0.3125000000000001
 40
0.3750000000000001
 40
0.3750000000000001
 40
0.4375000000000001
 40
0.4375000000000001
 40
0.5
 40
0.5
 40
0.5624999999999999
 40
0.5624999999999999
 40
0.6249999999999999
 40
0.6249999999999999
 40
0.6874999999999999
 40
0.6874999999999999
 40
0.7499999999999999
 40
0.7499999999999999
 40
0.8125
 40
0.8125
 40
0.875
 40
0.875
 40
0.9375
 40
0.9375
 40
1.0
 40
1.0
 40
1.0
 40
1.0
 10
48.4145540502265
 20
125.4250122645459
 30
0.0
 10
48.4145540502265
 20
125.4250122645459
 30
0.0
 10
48.44391447279801
 20
125.4318578318021
 30
0.0
 10
48.55876806330532
 20
125.4578419912358
 30
0.0
 10
48.64572014604985
 20
125.4772949100586
 30
0.0
 10
48.87183302993448
 20
125.525327014598
 30
0.0
 10
49.01005835440819
 20
125.5537110315773
 30
0.0
 10
49.33646318964544
 20
125.6158670450561
 30
0.0
 10
49.52578496397073
 20
125.6497652207328
 30
0.0
 10
49.93935401748745
 20
125.7164126530586
 30
0.0
 10
50.16520010741115
 20
125.7495100704716
 30
0.0
 10
50.65663059637388
 20
125.8115160411338
 30
0.0
 10
50.91698805152419
 20
125.8396820103815
 30
0.0
 10
51.45793286308236
 20
125.8865702794109
 30
0.0
 10
51.74247670499467
 20
125.9055822667309
 30
0.0
 10
52.32368987962202
 20
125.9312233032724
 30
0.0
 10
52.61625148748299
 20
125.9377804194778
 30
0.0
 10
53.20522147809272
 20
125.9378928411128
 30
0.0
 10
53.50445261143699
 20
125.9312273178808
 30
0.0
 10
54.08229495289717
 20
125.9058118071794
 30
0.0
 10
54.36326518603814
 20
125.8871809137777
 30
0.0
 10
54.90926998563645
 20
125.8400025827382
 30
0.0
 10
55.17128228535984
 20
125.8116209294847
 30
0.0
 10
55.6577841235524
 20
125.750327978384
 30
0.0
 10
55.8861537147854
 20
125.7169763951222
 30
0.0
 10
56.3039004136754
 20
125.6496885367628
 30
0.0
 10
56.48945205464555
 20
125.6164452406133
 30
0.0
 10
56.81537876613358
 20
125.5544392686388
 30
0.0
 10
56.95680064754415
 20
125.5254242111682
 30
0.0
 10
57.18267779374794
 20
125.4774493303189
 30
0.0
 10
57.26831856220551
 20
125.4582950929784
 30
0.0
 10
57.38454344539147
 20
125.4320090622572
 30
0.0
 10
57.41455405022651
 20
125.4250122645459
 30
0.0
 10
57.41455405022651
 20
125.4250122645459
 30
0.0
  0
ARC
  5
254
330
1F
100
AcDbEntity
  8
0
  6
Continuous
 62
     7
370
    15
100
AcDbCircle
 10
52.9145540502
 20
105.9378369946
 30
0.0
 40
20.00000000000003
100
AcDbArc
 50
267.1340160174
 51
272.8659839826
  0
CIRCLE
  5
255
330
1F
100
AcDbEntity
  8
VERMASSUNG
  6
CENTERX2
100
AcDbCircle
 10
52.9145540502
 20
106.8979095904
 30
0.0
 40
16.0
  0
DIMENSION
  5
256
330
1F
100
AcDbEntity
  8
VERMASSUNG
100
AcDbDimension
  2
_D_5
 10
30.2365478801
 20
122.8979095904
 30
0.0
 11
30.2365478801
 21
106.6945536288
 31
0.0
 70
   160
  1
%%c<>
 71
     2
 42
-1.0
  3
SLDDIMSTYLE1
100
AcDbAlignedDimension
 13
52.9145540502
 23
90.8979095904
 33
0.0
 14
52.9145540502
 24
122.8979095904
 34
0.0
 50
90.0
100
AcDbRotatedDimension
  0
INSERT
  5
26C
330
1F
100
AcDbEntity
  8
VERMASSUNG
100
AcDbBlockReference
  2
SW_CENTERMARKSYMBOL_0
 10
52.9145540502
 20
105.9378369946
 30
0.0
  0
OLE2FRAME
  5
26D
330
1F
100
AcDbEntity
  8
0
100
AcDbOle2Frame
 70
     2
  3
Paintbrush-Bild
 10
13.8511154363
 20
38.264191557
 30
0.0
 11
51.6290888628
 21
31.9806341108
 31
0.0
 71
     2
 72
     0
 73
     1
 90
    12928
310
80552BED0767C5B32B40DDAF6807D121434000000000000000006FFBDDFB85D0
310
4940DDAF6807D121434000000000000000006FFBDDFB85D04940416F4BD60AFB
310
3F4000000000000000002BED0767C5B32B40416F4BD60AFB3F40000000000000
310
0000000000000100000000010000010000000100000000000100000000320000
310
D0CF11E0A1B11AE1000000000000000000000000000000003E000300FEFF0900
310
0600000000000000000000000100000001000000000000000010000002000000
310
01000000FEFFFFFF0000000000000000FFFFFFFFFFFFFFFFFFFFFFFFFFFFFFFF
310
FFFFFFFFFFFFFFFFFFFFFFFFFFFFFFFFFFFFFFFFFFFFFFFFFFFFFFFFFFFFFFFF
310
FFFFFFFFFFFFFFFFFFFFFFFFFFFFFFFFFFFFFFFFFFFFFFFFFFFFFFFFFFFFFFFF
310
FFFFFFFFFFFFFFFFFFFFFFFFFFFFFFFFFFFFFFFFFFFFFFFFFFFFFFFFFFFFFFFF
310
FFFFFFFFFFFFFFFFFFFFFFFFFFFFFFFFFFFFFFFFFFFFFFFFFFFFFFFFFFFFFFFF
310
FFFFFFFFFFFFFFFFFFFFFFFFFFFFFFFFFFFFFFFFFFFFFFFFFFFFFFFFFFFFFFFF
310
FFFFFFFFFFFFFFFFFFFFFFFFFFFFFFFFFFFFFFFFFFFFFFFFFFFFFFFFFFFFFFFF
310
FFFFFFFFFFFFFFFFFFFFFFFFFFFFFFFFFFFFFFFFFFFFFFFFFFFFFFFFFFFFFFFF
310
FFFFFFFFFFFFFFFFFFFFFFFFFFFFFFFFFFFFFFFFFFFFFFFFFFFFFFFFFFFFFFFF
310
FFFFFFFFFFFFFFFFFFFFFFFFFFFFFFFFFFFFFFFFFFFFFFFFFFFFFFFFFFFFFFFF
310
FFFFFFFFFFFFFFFFFFFFFFFFFFFFFFFFFFFFFFFFFFFFFFFFFFFFFFFFFFFFFFFF
310
FFFFFFFFFFFFFFFFFFFFFFFFFFFFFFFFFFFFFFFFFFFFFFFFFFFFFFFFFFFFFFFF
310
FFFFFFFFFFFFFFFFFFFFFFFFFFFFFFFFFFFFFFFFFFFFFFFFFFFFFFFFFFFFFFFF
310
FFFFFFFFFFFFFFFFFFFFFFFFFFFFFFFFFFFFFFFFFFFFFFFFFFFFFFFFFFFFFFFF
310
FDFFFFFFFEFFFFFFFEFFFFFFFEFFFFFF05000000060000000700000008000000
310
090000000A0000000B0000000C0000000D0000000E0000000F00000010000000
310
11000000120000001300000014000000150000001600000017000000FEFFFFFF
310
FFFFFFFFFFFFFFFFFFFFFFFFFFFFFFFFFFFFFFFFFFFFFFFFFFFFFFFFFFFFFFFF
310
FFFFFFFFFFFFFFFFFFFFFFFFFFFFFFFFFFFFFFFFFFFFFFFFFFFFFFFFFFFFFFFF
310
FFFFFFFFFFFFFFFFFFFFFFFFFFFFFFFFFFFFFFFFFFFFFFFFFFFFFFFFFFFFFFFF
310
FFFFFFFFFFFFFFFFFFFFFFFFFFFFFFFFFFFFFFFFFFFFFFFFFFFFFFFFFFFFFFFF
310
FFFFFFFFFFFFFFFFFFFFFFFFFFFFFFFFFFFFFFFFFFFFFFFFFFFFFFFFFFFFFFFF
310
FFFFFFFFFFFFFFFFFFFFFFFFFFFFFFFFFFFFFFFFFFFFFFFFFFFFFFFFFFFFFFFF
310
FFFFFFFFFFFFFFFFFFFFFFFFFFFFFFFFFFFFFFFFFFFFFFFFFFFFFFFFFFFFFFFF
310
FFFFFFFFFFFFFFFFFFFFFFFFFFFFFFFFFFFFFFFFFFFFFFFFFFFFFFFFFFFFFFFF
310
FFFFFFFFFFFFFFFFFFFFFFFFFFFFFFFFFFFFFFFFFFFFFFFFFFFFFFFFFFFFFFFF
310
FFFFFFFFFFFFFFFFFFFFFFFFFFFFFFFFFFFFFFFFFFFFFFFFFFFFFFFFFFFFFFFF
310
FFFFFFFFFFFFFFFFFFFFFFFFFFFFFFFFFFFFFFFFFFFFFFFFFFFFFFFFFFFFFFFF
310
FFFFFFFFFFFFFFFFFFFFFFFFFFFFFFFFFFFFFFFFFFFFFFFFFFFFFFFFFFFFFFFF
310
FFFFFFFFFFFFFFFFFFFFFFFFFFFFFFFFFFFFFFFFFFFFFFFFFFFFFFFFFFFFFFFF
310
52006F006F007400200045006E00740072007900000000000000000000000000
310
0000000000000000000000000000000000000000000000000000000000000000
310
16000500FFFFFFFFFFFFFFFF020000000A00030000000000C000000000000046
310
000000000000000000000000E08B51DEA323CD0103000000C000000000000000
310
01004F006C006500000000000000000000000000000000000000000000000000
310
0000000000000000000000000000000000000000000000000000000000000000
310
0A000200FFFFFFFFFFFFFFFFFFFFFFFF00000000000000000000000000000000
310
0000000000000000000000000000000000000000000000001400000000000000
310
010043006F006D0070004F0062006A0000000000000000000000000000000000
310
0000000000000000000000000000000000000000000000000000000000000000
310
120002010100000003000000FFFFFFFF00000000000000000000000000000000
310
0000000000000000000000000000000000000000010000004D00000000000000
310
01004F006C006500310030004E00610074006900760065000000000000000000
310
0000000000000000000000000000000000000000000000000000000000000000
310
1A000200FFFFFFFFFFFFFFFFFFFFFFFF00000000000000000000000000000000
310
0000000000000000000000000000000000000000040000002426000000000000
310
FEFFFFFF02000000FEFFFFFFFFFFFFFFFFFFFFFFFFFFFFFFFFFFFFFFFFFFFFFF
310
FFFFFFFFFFFFFFFFFFFFFFFFFFFFFFFFFFFFFFFFFFFFFFFFFFFFFFFFFFFFFFFF
310
FFFFFFFFFFFFFFFFFFFFFFFFFFFFFFFFFFFFFFFFFFFFFFFFFFFFFFFFFFFFFFFF
310
FFFFFFFFFFFFFFFFFFFFFFFFFFFFFFFFFFFFFFFFFFFFFFFFFFFFFFFFFFFFFFFF
310
FFFFFFFFFFFFFFFFFFFFFFFFFFFFFFFFFFFFFFFFFFFFFFFFFFFFFFFFFFFFFFFF
310
FFFFFFFFFFFFFFFFFFFFFFFFFFFFFFFFFFFFFFFFFFFFFFFFFFFFFFFFFFFFFFFF
310
FFFFFFFFFFFFFFFFFFFFFFFFFFFFFFFFFFFFFFFFFFFFFFFFFFFFFFFFFFFFFFFF
310
FFFFFFFFFFFFFFFFFFFFFFFFFFFFFFFFFFFFFFFFFFFFFFFFFFFFFFFFFFFFFFFF
310
FFFFFFFFFFFFFFFFFFFFFFFFFFFFFFFFFFFFFFFFFFFFFFFFFFFFFFFFFFFFFFFF
310
FFFFFFFFFFFFFFFFFFFFFFFFFFFFFFFFFFFFFFFFFFFFFFFFFFFFFFFFFFFFFFFF
310
FFFFFFFFFFFFFFFFFFFFFFFFFFFFFFFFFFFFFFFFFFFFFFFFFFFFFFFFFFFFFFFF
310
FFFFFFFFFFFFFFFFFFFFFFFFFFFFFFFFFFFFFFFFFFFFFFFFFFFFFFFFFFFFFFFF
310
FFFFFFFFFFFFFFFFFFFFFFFFFFFFFFFFFFFFFFFFFFFFFFFFFFFFFFFFFFFFFFFF
310
FFFFFFFFFFFFFFFFFFFFFFFFFFFFFFFFFFFFFFFFFFFFFFFFFFFFFFFFFFFFFFFF
310
FFFFFFFFFFFFFFFFFFFFFFFFFFFFFFFFFFFFFFFFFFFFFFFFFFFFFFFFFFFFFFFF
310
FFFFFFFFFFFFFFFFFFFFFFFFFFFFFFFFFFFFFFFFFFFFFFFFFFFFFFFFFFFFFFFF
310
0100000200000000000000000000000000000000000000000000000000000000
310
0000000000000000000000000000000000000000000000000000000000000000
310
0100FEFF030A0000FFFFFFFF0A00030000000000C00000000000004607000000
310
5042727573680007000000504272757368000700000050427275736800F439B2
310
7100000000000000000000000000000000000000000000000000000000000000
310
0000000000000000000000000000000000000000000000000000000000000000
310
0000000000000000000000000000000000000000000000000000000000000000
310
0000000000000000000000000000000000000000000000000000000000000000
310
0000000000000000000000000000000000000000000000000000000000000000
310
0000000000000000000000000000000000000000000000000000000000000000
310
0000000000000000000000000000000000000000000000000000000000000000
310
0000000000000000000000000000000000000000000000000000000000000000
310
0000000000000000000000000000000000000000000000000000000000000000
310
0000000000000000000000000000000000000000000000000000000000000000
310
0000000000000000000000000000000000000000000000000000000000000000
310
0000000000000000000000000000000000000000000000000000000000000000
310
20260000424D0E260000000000003E00000028000000B40200006E0000000100
310
01000000000000000000130B0000130B00000200000002000000000000FFFFFF
310
FFFFFFFFFFFFFFFFFFFFFFFFFFFFFFFFFFFFFFFFFFFFFFFFFFFFFFFFFFFFFFFF
310
FFFFFFFFFFFFFFFFFFFFFFFFFFFFFFFFFFFFFFFFFFFFFFFFFFFFFFFFFFFFFFFF
310
FFFFFFFFFFFFFFFFFFFFFFFFFFFFFFFFFFFFFFFFFFFFFFFFF000FFFFFFFFFFFF
310
FFFFFFFFFFFFFFFFFFFFFFFFFFFFFFFFFFFFFFFFFFFFFFFFFFFFFFFFFFFFFFFF
310
FFFFFFFFFFFFFFFFFFFFFFFFFFFFFFFFFFFFFFFFFFFFFFFFFFFFFFFFFFFFFFFF
310
FFFFFFFFFFFFFFFFFFFFFFFFFFFFFFFFF000FFFFFFFFFFFFFFFFFFFFFFFFFFFF
310
FFFFFFFFFFFFFFFFFFFFFFFFFFFFFFFFFFFFFFFFFFFFFFFFFFFFFFFFFFFFFFFF
310
FFFFFFFFFFFFFFFFFFFFFFFFFFFFFFFFFFFFFFFFFFFFFFFFFFFFFFFFFFFFFFFF
310
FFFFFFFFFFFFFFFFF000FFFFFFFFFFFFFFFFFFFFFFFFFFFFFFFFFFFFFFFFFFFF
310
FFFFFFFFFFFFFFFFFFFFFFFFFFFFFFFFFFFFFFFFFFFFFFFFFFFFFFFFFFFFFFFF
310
FFFFFFFFFFFFFFFFFFFFFFFFFFFFFFFFFFFFFFFFFFFFFFFFFFFFFFFFFFFFFFFF
310
F000FFFFFFFFFFFFFFFFFFFFFFFFFFFFFFFFFFFFFFFFFFFFFFFFFFFFFFFFFFFF
310
FFFFFFFFFFFFFFFFFFFFFFFFFFFFFFFFFFFFFFFFFFFFFFFFFFFFFFFFFFFFFFFF
310
FFFFFFFFFFFFFFFFFFFFFFFFFFFFFFFFFFFFFFFFFFFFFFFFF000FFFFFFFFFFFF
310
FFFFFFFFFFFFFFFFFFFFFFFFFFFFFFFFFFFFFFFFFFFFFFFFFFFFFFFFFFFFFFFF
310
FFFFFFFFFFFFFFFFFFFFFFFFFFFFFFFFFFFFFFFFFFFFFFFFFFFFFFFFFFFFFFFF
310
FFFFFFFFFFFFFFFFFFFFFFFFFFFFFFFFF000FFFFFFFFFFFFFFFFFFFFFFFFFFFF
310
FFFFFFFFFFFFFFFFFFFFFFFFFFFFFFFFFFFFFFFFFFFFFFFFFFFFFFFFFFFFFFFF
310
FFFFFFFFFFFFFFFFFFFFFFFFFFFFFFFFFFFFFFFFFFFFFFFFFFFFFFFFFFFFFFFF
310
FFFFFFFFFFFFFFFFF000FFFFFFFFFFFFFFFFFFFFFFFFFFFFFFFFFFFFFFFFFFFF
310
FFFFFFFFFFFFFFFFFFFFFFFFFFFFFFFFFFFFFFFFFFFFFFFFFFFFFFFFFFFFFFFF
310
FFFFFFFFFFFFFFFFFFFFFFFFFFFFFFFFFFFFFFFFFFFFFFFFFFFFFFFFFFFFFFFF
310
F000FFFFFFFFFFFFFFFFFFFFFFFFFFFFFFFFFFFFFFFFFFFFFFFFFFFFFFFFFFFF
310
FFFFFFFFFFFFFFFFFFFFFFFFFFFFFFFFFFFFFFFFFFFFFFFFFFFFFFFFFFFFFFFF
310
FFFFFFFFFFFFFFFFFFFFFFFFFFFFFFFFFFFFFFFFFFFFFFFFF000FFFFFFFFFFFF
310
FFFFFFFFFFFFFFFFFFFFFFFFFFFFFFFFFFFFFFFFFFFFFFFFFFFFFFFFFFFFFFFF
310
FFFFFFFFFFFFFFFFFFFFFFFFFFFFFFFFFFFFFFFFFFFFFFFFFFFFFFFFFFFFFFFF
310
FFFFFFFFFFFFFFFFFFFFFFFFFFFFFFFFF000FFFFFFFFFFFFFFFFFFFFFFFFFFFF
310
FFFFFFFFFFFFFFFFFFFFFFFFFFFFFFFFFFFFFFFFFFFFFFFFFFFFFFFFFFFFFFFF
310
FFFFFFFFFFFFFFFFFFFFFFFFFFFFFFFFFFFFFFFFFFFFFFFFFFFFFFFFFFFFFFFF
310
FFFFFFFFFFFFFFFFF000FFFFFFFFFFFFFFFFFFFFFFFFFFFFFFFFFFFFFFFFFFFF
310
FFFFFFFFFFFFFFFFFFFFFFFFFFFFFFFFFFFFFFFFFFFFFFFFFFFFFFFFFFFFFFFF
310
FFFFFFFFFFFFFFFFFFFFFFFFFFFFFFFFFFFFFFFFFFFFFFFFFFFFFFFFFFFFFFFF
310
F000FFFFFFFFFFFFFFFFFFFFFFFFFFFFFFFFFFFFFFFFFFFFFFFFFFFFFFFFFFFF
310
FFFFFFFFFFFFFFFFFFFFFFFFFFFFFFFFFFFFFFFFFFFFFFFFFFFFFFFFFFFFFFFF
310
FFFFFFFFFFFFFFFFFFFFFFFFFFFFFFFFFFFFFFFFFFFFFFFFF000FFFFFFFFFFFF
310
FFFFFFFFFFFFFFFFFFFFFFFFFFFFFFFFFFFFFFFFFFFFFFFFFFFFFFFFFFFFFFFF
310
FFFFFFFFFFFFFFFFFFFFFFFFFFFFFFFFFFFFFFFFFFFFFFFFFFFFFFFFFFFFFFFF
310
FFFFFFFFFFFFFFFFFFFFFFFFFFFFFFFFF000FFFFFFFFFFFFFFFFFFFFFFFFFFFF
310
FFFFFFFFFFFFFFFFFFFFFFFFFFFFFFFFFFFFFFFFFFFFFFFFFFFFFFFFFFFFFFFF
310
FFFFFFFFFFFFFFFFFFFFFFFFFFFFFFFFFFFFFFFFFFFFFFFFFFFFFFFFFFFFFFFF
310
FFFFFFFFFFFFFFFFF000FFFFFFFFFFFFFFFFFFFFFFFFFFFFFFFFFFFFFFFFFFFF
310
FFFFFFFFFFFFFFFFFFFFFFFFFFFFFFFFFFFFFFFFFFFFFFFFFFFFFFFFFFFFFFFF
310
FFFFFFFFFFFFFFFFFFFFFFFFFFFFFFFFFFFFFFFFFFFFFFFFFFFFFFFFFFFFFFFF
310
F000FFFFFFFFFFFFFFFFFFFFFFFFFFFFFFFFFFFFFFFFFFFFFFFFFFFFFFFFFFFF
310
FFFFFFFFFFFFFFFFFFFFFFFFFFFFFFFFFFFFFFFFFFFFFFFFFFFFFFFFFFFFFFFF
310
FFFFFFFFFFFFFFFFFFFFFFFFFFFFFFFFFFFFFFFFFFFFFFFFF000FFFFFFFFFFFF
310
FFFFFFFFFFFFFFFFFFFFFFFFFFFFFFFFFFFFFFFFFFFFFFFFFFFFFFFFFFFFFFFF
310
FFFFFFFFFFFFFFFFFFFFFFFFFFFFFFFFFFFFFFFFFFFFFFFFFFFFFFFFFFFFFFFF
310
FFFFFFFFFFFFFFFFFFFFFFFFFFFFFFFFF000FFFFFFFFFFFFFFFFFFFFFFFFFFFF
310
FFFFFFFFFFFFFFFFFFFFFFFFFFFFFFFFFFFFFFFFFFFFFFFFFFFFFFFFFFFFFFFF
310
FFFFFFFFFFFFFFFFFFFFFFFFFFFFFFFFFFFFFFFFFFFFFFFFFFFFFFFFFFFFFFFF
310
FFFFFFFFFFFFFFFFF000FFFFF80003FFFFFFFFFFFFFFFFFFFFFFFFFFFFFFFFFF
310
FFFFF00007FFFFFFFFFF00007FFFFFF800000000000000007FFFFFFFFFFFFFFF
310
FFFFFFFC001FFFFFFFFFFFFFFC001FFFFFFFFFFFFFFFFFFFFFFFFFFE0007FFFF
310
F000FFFF8000007FFFFFFFF8000FFFFFC0007FFFFF80007FFFFF0000007FFFFF
310
FFF8000007FFFFF800000000000000007FFFFFF0001FFFFFFFFFFFC00001FFFF
310
FFFFFFFFC00001FFFFFFFF000000000003FFFFE000007FFFF000FFFE0000000F
310
FFFFFFF0000FFFFF80007FFFFF80007FFFFC0000001FFFFFFFC0000001FFFFF8
310
00000000000000007FFFFFF0001FFFFFFFFFFE0000003FFFFFFFFFFE0000003F
310
FFFFFF000000000003FFFF0000000FFFF000FFF800000003FFFFFFF00007FFFF
310
80007FFFFF80007FFFF000000007FFFFFF000000003FFFF80000000000000000
310
7FFFFFF0001FFFFFFFFFF80000000FFFFFFFFFF80000000FFFFFFF0000000000
310
03FFFC00000003FFF000FFE000000000FFFFFFF00007FFFF80003FFFFF80007F
310
FFC000000001FFFFFC000000001FFFF800000000000000007FFFFFF0001FFFFF
310
FFFFE000000003FFFFFFFFE000000003FFFFFF000000000003FFF000000000FF
310
F000FF80000000007FFFFFF00007FFFF80003FFFFF80007FFF8000000000FFFF
310
F80000000007FFF800000000000000007FFFFFF0001FFFFFFFFFC000000001FF
310
FFFFFFC000000001FFFFFF000000000003FFC0000000007FF000FF0000000000
310
3FFFFFE00007FFFF00003FFFFF80007FFE00000000003FFFF00000000003FFF8
310
00000000000000007FFFFFF0001FFFFFFFFF8000000000FFFFFFFF8000000000
310
FFFFFF000000000003FF80000000003FF000FE00000000001FFFFFE00003FFFF
310
00003FFFFF80007FFC00000000001FFFE00000000001FFF8000001FFFE000000
310
7FFFFFF0001FFFFFFFFE00000000003FFFFFFE00000000003FFFFF0000000000
310
03FF00000000001FF000FC00000000000FFFFFE00003FFFF00001FFFFF80007F
310
F800000000001FFFC00000000000FFF8000001FFFE0000007FFFFFF0001FFFFF
310
FFFC00000000001FFFFFFC00000000001FFFFF000000000003FE00000000000F
310
F000F8000000000007FFFFE00003FFFF00001FFFFF80007FF800000000000FFF
310
800000000000FFF8000001FFFE0000007FFFFFF0001FFFFFFFF800000000000F
310
FFFFF800000000000FFFFF000000000003FC000000000007F000F80000000000
310
03FFFFC00003FFFE00001FFFFF80007FF0000000000007FF0000000000007FF8
310
000001FFFE0000007FFFFFF0001FFFFFFFF0000000000007FFFFF00000000000
310
07FFFF000000000003F8000000000003F000F0000000000003FFFFC00001FFFE
310
00001FFFFF80007FE0000000000007FE0000000000003FF8000001FFFE000000
310
7FFFFFF0001FFFFFFFF0000000000007FFFFF0000000000007FFFF0000000000
310
03F800001F800003F000E00001FFF00001FFFFC00001FFFE00000FFFFF80007F
310
E00001FFE00003FE00001FFF00003FF8000001FFFE0000007FFFFFF0001FFFFF
310
FFE000003E000003FFFFE000003E000003FFFF000000000003F00001FFF80001
310
F000E00007FFFC0001FFFFC00001FFFE00000FFFFF80007FC0000FFFFC0003FC
310
0000FFFFC0001FF8000001FFFE0000007FFFFFF0001FFFFFFFC00003FFE00001
310
FFFFC00003FFE00001FFFF0001FFFFFFFFF00007FFFE0001F000E0000FFFFF00
310
00FFFF800001FFFC00000FFFFF80007FC0001FFFFE0001FC0001FFFFE0001FF8
310
000001FFFE0000007FFFFFF0001FFFFFFF80000FFFF80000FFFF80000FFFF800
310
00FFFF0003FFFFFFFFE0000FFFFF8000F000C0003FFFFF8000FFFF800000FFFC
310
000007FFFF80007F80003FFFFF0001FC0003FFFFF0001FF8000001FFFE000000
310
7FFFFFF0001FFFFFFF80003FFFFE0000FFFF80003FFFFE0000FFFF0003FFFFFF
310
FFE0003FFFFF8000F000C0003FFFFF8000FFFF800000FFFC000007FFFF80007F
310
80007FFFFF8001F80007FFFFF8000FF8000001FFFE0000007FFFFFF0001FFFFF
310
FF00007FFFFF00007FFF00007FFFFF00007FFF0003FFFFFFFFE0003FFFFFC000
310
F000C0007FFFFFC000FFFF000000FFFC000007FFFF80007F8000FFFFFF8000F8
310
000FFFFFF8000FF8000001FFFE0000007FFFFFF0001FFFFFFF0000FFFFFF8000
310
7FFF0000FFFFFF80007FFF0003FFFFFFFFC0007FFFFFC00070008000FFFFFFC0
310
00FFFF000000FFF8000007FFFF80007F8000FFFFFF8000F8000FFFFFF8000FF8
310
000001FFFE0000007FFFFFF0001FFFFFFE0001FFFFFFC0003FFE0001FFFFFFC0
310
003FFF0003FFFFFFFFC0007FFFFFE00070008000FFFFFFC0007FFF0000007FF8
310
000003FFFF80007F0001FFFFFF8000F8000FFFFFF8000FF8000001FFFE000000
310
7FFFFFF0001FFFFFFE0001FFFFFFC0003FFE0001FFFFFFC0003FFF0003FFFFFF
310
FFC000FFFFFFE00070008000FFFFFFC0007FFF0000007FF8000003FFFF80007F
310
0001FFFFFF8000F8001FFFFFF8000FF8000001FFFE0000007FFFFFF0001FFFFF
310
FE0003FFFFFFE0003FFE0003FFFFFFE0003FFF0003FFFFFFFFC000FFFFFFE000
310
70008000FFFFFFC0007FFE0000007FF8000003FFFF80007F0001FFFFFF8000F0
310
001FFFFFF8000FF8000001FFFE0000007FFFFFF0001FFFFFFC0003FFFFFFE000
310
1FFC0003FFFFFFE0001FFF0003FFFFFFFFC000FFFFFFC00070008000FFFFFF80
310
007FFE0000007FF0000003FFFF80007F0001FFFFFF0000F0001FFFFFF8000FF8
310
000001FFFE0000007FFFFFF0001FFFFFFC0007FFFFFFF0001FFC0007FFFFFFF0
310
001FFF0003FFFFFFFFC000FFFFFFC00070008001FFFFFF0000FFFE0000003FF0
310
000001FFFF80007F0001FFFFFF0000F8001FFFFFF0000FF8000001FFFE000000
310
7FFFFFF0001FFFFFFC0007FFFFFFF0001FFC0007FFFFFFF0001FFF0003FFFFFF
310
FFC001FFFFFF80007000FFFFFFFFFE0000FFFE0008003FF0008001FFFF80007F
310
FFFFFFFFFC0000FFFFFFFFFFE0000FF8000001FFFE0000007FFFFFF0001FFFFF
310
F8000FFFFFFFF8000FF8000FFFFFFFF8000FFF0003FFFFFFFFFFFFFFFFFF0000
310
7000FFFFFFFFFC0000FFFC0008003FF0008001FFFF80007FFFFFFFFFF80001FF
310
FFFFFFFF80000FF8000001FFFE0000007FFFFFF0001FFFFFF8000FFFFFFFF800
310
0FF8000FFFFFFFF8000FFF0003FFFFFFFFFFFFFFFFFE0000F000FFFFFFFFE000
310
00FFFC000C003FE000C001FFFF80007FFFFFFFFFC00001FFFFFFFFFE00001FF8
310
000001FFFE0000007FFFFFF0001FFFFFF8000FFFFFFFF8000FF8000FFFFFFFF8
310
000FFF0003FFFFFFFFFFFFFFFFF00000F000FFFFFFFE000001FFFC000C001FE0
310
00C000FFFF80007FFFFFFFFE000001FFFFFFFFE000001FF80FFFFFFFFFFFFFC0
310
7FFFFFF0001FFFFFF8000FFFFFFFF8000FF8000FFFFFFFF8000FFF0003FFFFFF
310
FFFFFFFFFF800000F000FFFFFFC0000001FFFC001C001FE001C000FFFF80007F
310
FFFFFF80000003FFFFFFF80000001FF80FFFFFFFFFFFFFC07FFFFFF0001FFFFF
310
F8001FFFFFFFFC000FF8001FFFFFFFFC000FFF0003FFFFFFFFFFFFFFF0000001
310
F000FFFFF800000001FFF8001C001FE001C000FFFF80007FFFFFF800000003FF
310
FFFF800000003FF80FFFFFFFFFFFFFC07FFFFFF0001FFFFFF8001FFFFFFFFC00
310
0FF8001FFFFFFFFC000FFF0003FFFFFFFFFFFFFE00000001F000FFFFC0000000
310
03FFF8001E001FC001E000FFFF80007FFFFF8000000007FFFFFC000000003FF8
310
0FFFFFFFFFFFFFC07FFFFFF0001FFFFFF8001FFFFFFFFC000FF8001FFFFFFFFC
310
000FFF0003FFFFFFFFFFFFE000000003F000FFFE0000000007FFF8001E000FC0
310
01E0007FFF80007FFFFE0000000007FFFFE0000000007FF80FFFFFFFFFFFFFC0
310
7FFFFFF0001FFFFFF0001FFFFFFFFC0007F0001FFFFFFFFC0007FF0003FFFFFF
310
FFFFFF0000000003F000FFF80000000007FFF8001E000FC003E0007FFF80007F
310
FFF0000000000FFFFF8000000000FFF80FFFFFFFFFFFFFC07FFFFFF0001FFFFF
310
F0001FFFFFFFFC0007F0001FFFFFFFFC0007FF0003FFFFFFFFFFFC0000000007
310
F000FFE0000000000FFFF0003E000FC003E0007FFF80007FFFC0000000001FFF
310
FE0000000001FFF80FFFFFFFFFFFFFC07FFFFFF0001FFFFFF0001FFFFFFFFC00
310
07F0001FFFFFFFFC0007FF0003FFFFFFFFFFF0000000000FF000FFC000000000
310
1FFFF0003F000F8003F0003FFF80007FFF80000000003FFFF80000000003FFF8
310
0FFFFFFFFFFFFFC07FFFFFF0001FFFFFF0001FFFFFFFFC0007F0001FFFFFFFFC
310
0007FF0003FFFFFFFFFFE0000000001FF000FF00000000007FFFF0003F000780
310
03F0003FFF80007FFF00000000007FFFF00000000007FFF80FFFFFFFFFFFFFC0
310
7FFFFFF0001FFFFFF0001FFFFFFFFC0007F0001FFFFFFFFC0007FF0003FFFFFF
310
FFFF80000000007FF000FE0000000000FFFFE0003F00078007F0003FFF80007F
310
FE0000000001FFFFE0000000001FFFF80FFFFFFFFFFFFFC07FFFFFF0001FFFFF
310
F0001FFFFFFFFC0007F0001FFFFFFFFC0007FF0003FFFFFFFFFF0000000000FF
310
F000FC0000000003FFFFE0007F00078007F0003FFF80007FFC0000000007FFFF
310
C0000000007FFFF80FFFFFFFFFFFFFC07FFFFFF0001FFFFFF8001FFFFFFFFC00
310
0FF8001FFFFFFFFC000FFF0003FFFFFFFFFE0000000003FFF000FC000000000F
310
FFFFE0007F80070007F8001FFF80007FF8000000001FFFFF8000000001FFFFF8
310
0FFFFFFFFFFFFFC07FFFFFF0001FFFFFF8001FFFFFFFFC000FF8001FFFFFFFFC
310
000FFF0003FFFFFFFFFC000000000FFFF000F8000000007FFFFFE0007F800700
310
07F8001FFF80007FF000000000FFFFFF800000000FFFFFF80FFFFFFFFFFFFFC0
310
7FFFFFF0001FFFFFF8000FFFFFFFF8000FF8000FFFFFFFF8000FFF0003FFFFFF
310
FFFC000000007FFFF000F800000007FFFFFFC0007F8003000FF8001FFF80007F
310
F000000007FFFFFF000000007FFFFFF80FFFFFFFFFFFFFC07FFFFFF0001FFFFF
310
F8000FFFFFFFF8000FF8000FFFFFFFF8000FFF0003FFFFFFFFF80000000FFFFF
310
F000F0000000FFFFFFFFC000FF8003000FF8001FFF80007FE0000000FFFFFFFF
310
0000000FFFFFFFF8000001FFFE0000007FFFFFF0001FFFFFF8000FFFFFFFF800
310
0FF8000FFFFFFFF8000FFF0003FFFFFFFFF8000000FFFFFFF000F000000FFFFF
310
FFFFC000FFC002000FF8000FFF80007FE000001FFFFFFFFE000001FFFFFFFFF8
310
000001FFFE0000007FFFFFF0001FFFFFF8000FFFFFFFF8000FF8000FFFFFFFF8
310
000FFF0003FFFFFFFFF000001FFFFFFFF000E00000FFFFFFFFFFC000FFC00200
310
0FFC000FFF80007FE00001FFFFFFFFFE00001FFFFFFFFFF8000001FFFE000000
310
7FFFFFF0001FFFFFFC000FFFFFFFF8001FFC000FFFFFFFF8001FFF0003FFFFFF
310
FFF00001FFFFFFFFF000E00007FFFFFFFFFF8000FFC000001FFC000FFF80007F
310
C0000FFFFFFFFFFE0000FFFFFFFFFFF8000001FFFE0000007FFFFFF0001FFFFF
310
FC0007FFFFFFF0001FFC0007FFFFFFF0001FFF0003FFFFFFFFF00007FFFFFFFF
310
F000E0001FFFFFFFFFFF8000FFC000001FFC000FFF80007FC0003FFFFFFFFFFE
310
0001FFFFFFFFFFF8000001FFFE0000007FFFFFF0001FFFFFFC0007FFFFFFF000
310
1FFC0007FFFFFFF0001FFF0003FFFFFFFFF0001FFFFFFFFFF000E0003FFFFF00
310
03FF8001FFE000001FFC0007FF80007FC0007FFFFF0007FC0003FFFFF0003FF8
310
000001FFFE0000007FFFFFF0001FFFFFFC0003FFFFFFE0001FFC0003FFFFFFE0
310
001FFF0003FFFFFFFFF0003FFFFFFFFFF000E0003FFFFF0001FF8001FFE00000
310
1FFE0007FF80007FC0007FFFFE0003FC0007FFFFE0003FF8000001FFFE000000
310
7FFFFFF0001FFFFFFE0003FFFFFFE0003FFE0003FFFFFFE0003FFF0003FFFFFF
310
FFF0003FFFFF8001F000E0003FFFFF0001FF0001FFE000001FFE0007FF80007F
310
C0007FFFFE0003FC0007FFFFE0003FF8000001FFFE0000007FFFFFF0001FFFFF
310
FE0001FFFFFFC0003FFE0001FFFFFFC0003FFF0003FFFFFFFFF0003FFFFF0001
310
F000E0003FFFFF0003FF0001FFE000003FFE0007FF80007FC0007FFFFE0003FC
310
0007FFFFE0003FF8000001FFFE0000007FFFFFF0001FFFFFFF0001FFFFFFC000
310
7FFF0001FFFFFFC0007FFF0003FFFFFFFFF0003FFFFF0001F000E0003FFFFE00
310
03FF0003FFF000003FFE0003FF80007FC0007FFFFC0003FE0007FFFFE0003FF8
310
000001FFFE0000007FFFFFF0001FFFFFFF0000FFFFFF80007FFF0000FFFFFF80
310
007FFF0003FFFFFFFFF0003FFFFF0001F000E0003FFFFE0003FF0003FFF00000
310
3FFF0003FF80007FC0007FFFFC0007FE0007FFFFC0003FF8000001FFFE000000
310
7FFFFFF0001FFFFFFF80007FFFFF0000FFFF80007FFFFF0000FFFF0003FFFFFF
310
FFF0003FFFFF0003F000E0003FFFFC0003FE0003FFF000003FFF0003FF80007F
310
E0003FFFF80007FE0003FFFFC0007FF8000001FFFE0000007FFFFFF0001FFFFF
310
FF80003FFFFE0000FFFF80003FFFFE0000FFFF0003FFFFFFFFF0001FFFFE0003
310
F000F0001FFFF80003FE0003FFF000007FFF0001FF80007FE0003FFFF00007FE
310
0001FFFF80007FF8000001FFFE0000007FFFFFF0001FFFFFFFC0000FFFF80001
310
FFFFC0000FFFF80001FFFF0003FFFFFFFFF0001FFFFC0003F000F0000FFFF000
310
07FE0007FFF800007FFF0001FF80007FE0001FFFE00007FF0000FFFE00007FF8
310
000001FFFE0000007FFFFFF0001FFFFFFFC00003FFE00001FFFFC00003FFE000
310
01FFFF0003FFFFFFFFF8000FFFF80003F000F00003FFC00007FC0007FFF80000
310
7FFF8001FF80007FF00007FF80000FFF00007FF80000FFF8000001FFFE000000
310
7F80000000000001FFE000003E000003FFFFE000003E000003FFFF0003FFFFFF
310
FFF80003FFE00007F000F800000000000FFC0007FFF800007FFF8001FF80007F
310
F000000000000FFF000000000000FFF8000001FFFE0000007F80000000000001
310
FFF0000000000007FFFFF0000000000007FFFF0003FFFFFFFFFC00007E000007
310
F000F800000000000FFC0007FFF80000FFFF8000FF80007FF800000000001FFF
310
800000000001FFF8000001FFFE0000007F80000000000001FFF800000000000F
310
FFFFF800000000000FFFFF0003FFFFFFFFFC00000000000FF000FC0000000000
310
1FFC0007FFFC0000FFFF8000FF80007FF800000000003FFFC00000000001FFF8
310
000001FFFE0000007F80000000000001FFF800000000000FFFFFF80000000000
310
0FFFFF0003FFFFFFFFFE00000000001FF000FE00000000003FF8000FFFFC0000
310
FFFF8000FF80007FFC00000000003FFFC00000000003FFF8000001FFFE000000
310
7F80000000000001FFFC00000000001FFFFFFC00000000001FFFFF0003FFFFFF
310
FFFF00000000001FF000FF00000000003FF8000FFFFC0000FFFFC000FF80007F
310
FE00000000007FFFE00000000007FFF8000001FFFE0000007F80000000000001
310
FFFE00000000003FFFFFFE00000000003FFFFF0003FFFFFFFFFF80000000003F
310
F000FF80000000007FF8000FFFFC0001FFFFC0007F80007FFF0000000000FFFF
310
F0000000000FFFF800000000000000007F80000000000001FFFF8000000000FF
310
FFFFFF8000000000FFFFFF0003FFFFFFFFFFC0000000007FF000FFC000000000
310
FFF8000FFFFE0001FFFFC0007F80007FFF8000000001FFFFF8000000001FFFF8
310
00000000000000007F80000000000001FFFFC000000001FFFFFFFFC000000001
310
FFFFFF0003FFFFFFFFFFE000000000FFF000FFE000000003FFF0001FFFFE0001
310
FFFFC0007F80007FFFC000000007FFFFFE000000003FFFF80000000000000000
310
7F80000000000001FFFFE000000003FFFFFFFFE000000003FFFFFF0003FFFFFF
310
FFFFF000000003FFF000FFF80000000FFFF0001FFFFE0001FFFFE0007F80007F
310
FFF00000000FFFFFFF00000000FFFFF800000000000000007F80000000000001
310
FFFFF80000000FFFFFFFFFF80000000FFFFFFF0003FFFFFFFFFFFC0000000FFF
310
F000FFFE0000003FFFF0001FFFFE0003FFFFE0003F80007FFFFC0000003FFFFF
310
FFC0000003FFFFF800000000000000007F80000000000001FFFFFE0000003FFF
310
FFFFFFFE0000003FFFFFFF0003FFFFFFFFFFFF0000003FFFF000FFFF800000FF
310
FFF0001FFFFF0003FFFFE0003F80007FFFFF000001FFFFFFFFF800001FFFFFF8
310
00000000000000007F80000000000001FFFFFFC00001FFFFFFFFFFFFC00001FF
310
FFFFFF0003FFFFFFFFFFFFC00000FFFFF000FFFFF8000FFFFFFFFFFFFFFFFFFF
310
FFFFFFFFFFFFFFFFFFFFF0001FFFFFFFFFFF0000FFFFFFF80000000000000000
310
7FFFFFFFFFFFFFFFFFFFFFFC001FFFFFFFFFFFFFFC001FFFFFFFFFFFFFFFFFFF
310
FFFFFFFC001FFFFFF000FFFFFFFFFFFFFFFFFFFFFFFFFFFFFFFFFFFFFFFFFFFF
310
FFFFFFFFFFFFFFFFFFFFFFFFFFFFFFFFFFFFFFFFFFFFFFFFFFFFFFFFFFFFFFFF
310
FFFFFFFFFFFFFFFFFFFFFFFFFFFFFFFFFFFFFFFFFFFFFFFFFFFFFFFFFFFFFFFF
310
F000FFFFFFFFFFFFFFFFFFFFFFFFFFFFFFFFFFFFFFFFFFFFFFFFFFFFFFFFFFFF
310
FFFFFFFFFFFFFFFFFFFFFFFFFFFFFFFFFFFFFFFFFFFFFFFFFFFFFFFFFFFFFFFF
310
FFFFFFFFFFFFFFFFFFFFFFFFFFFFFFFFFFFFFFFFFFFFFFFFF000FFFFFFFFFFFF
310
FFFFFFFFFFFFFFFFFFFFFFFFFFFFFFFFFFFFFFFFFFFFFFFFFFFFFFFFFFFFFFFF
310
FFFFFFFFFFFFFFFFFFFFFFFFFFFFFFFFFFFFFFFFFFFFFFFFFFFFFFFFFFFFFFFF
310
FFFFFFFFFFFFFFFFFFFFFFFFFFFFFFFFF000FFFFFFFFFFFFFFFFFFFFFFFFFFFF
310
FFFFFFFFFFFFFFFFFFFFFFFFFFFFFFFFFFFFFFFFFFFFFFFFFFFFFFFFFFFFFFFF
310
FFFFFFFFFFFFFFFFFFFFFFFFFFFFFFFFFFFFFFFFFFFFFFFFFFFFFFFFFFFFFFFF
310
FFFFFFFFFFFFFFFFF000FFFFFFFFFFFFFFFFFFFFFFFFFFFFFFFFFFFFFFFFFFFF
310
FFFFFFFFFFFFFFFFFFFFFFFFFFFFFFFFFFFFFFFFFFFFFFFFFFFFFFFFFFFFFFFF
310
FFFFFFFFFFFFFFFFFFFFFFFFFFFFFFFFFFFFFFFFFFFFFFFFFFFFFFFFFFFFFFFF
310
F000FFFFFFFFFFFFFFFFFFFFFFFFFFFFFFFFFFFFFFFFFFFFFFFFFFFFFFFFFFFF
310
FFFFFFFFFFFFFFFFFFFFFFFFFFFFFFFFFFFFFFFFFFFFFFFFFFFFFFFFFFFFFFFF
310
FFFFFFFFFFFFFFFFFFFFFFFFFFFFFFFFFFFFFFFFFFFFFFFFF000FFFFFFFFFFFF
310
FFFFFFFFFFFFFFFFFFFFFFFFFFFFFFFFFFFFFFFFFFFFFFFFFFFFFFFFFFFFFFFF
310
FFFFFFFFFFFFFFFFFFFFFFFFFFFFFFFFFFFFFFFFFFFFFFFFFFFFFFFFFFFFFFFF
310
FFFFFFFFFFFFFFFFFFFFFFFFFFFFFFFFF000FFFFFFFFFFFFFFFFFFFFFFFFFFFF
310
FFFFFFFFFFFFFFFFFFFFFFFFFFFFFFFFFFFFFFFFFFFFFFFFFFFFFFFFFFFFFFFF
310
FFFFFFFFFFFFFFFFFFFFFFFFFFFFFFFFFFFFFFFFFFFFFFFFFFFFFFFFFFFFFFFF
310
FFFFFFFFFFFFFFFFF000FFFFFFFFFFFFFFFFFFFFFFFFFFFFFFFFFFFFFFFFFFFF
310
FFFFFFFFFFFFFFFFFFFFFFFFFFFFFFFFFFFFFFFFFFFFFFFFFFFFFFFFFFFFFFFF
310
FFFFFFFFFFFFFFFFFFFFFFFFFFFFFFFFFFFFFFFFFFFFFFFFFFFFFFFFFFFFFFFF
310
F000FFFFFFFFFFFFFFFFFFFFFFFFFFFFFFFFFFFFFFFFFFFFFFFFFFFFFFFFFFFF
310
FFFFFFFFFFFFFFFFFFFFFFFFFFFFFFFFFFFFFFFFFFFFFFFFFFFFFFFFFFFFFFFF
310
FFFFFFFFFFFFFFFFFFFFFFFFFFFFFFFFFFFFFFFFFFFFFFFFF000FFFFFFFFFFFF
310
FFFFFFFFFFFFFFFFFFFFFFFFFFFFFFFFFFFFFFFFFFFFFFFFFFFFFFFFFFFFFFFF
310
FFFFFFFFFFFFFFFFFFFFFFFFFFFFFFFFFFFFFFFFFFFFFFFFFFFFFFFFFFFFFFFF
310
FFFFFFFFFFFFFFFFFFFFFFFFFFFFFFFFF000FFFFFFFFFFFFFFFFFFFFFFFFFFFF
310
FFFFFFFFFFFFFFFFFFFFFFFFFFFFFFFFFFFFFFFFFFFFFFFFFFFFFFFFFFFFFFFF
310
FFFFFFFFFFFFFFFFFFFFFFFFFFFFFFFFFFFFFFFFFFFFFFFFFFFFFFFFFFFFFFFF
310
FFFFFFFFFFFFFFFFF000FFFFFFFFFFFFFFFFFFFFFFFFFFFFFFFFFFFFFFFFFFFF
310
FFFFFFFFFFFFFFFFFFFFFFFFFFFFFFFFFFFFFFFFFFFFFFFFFFFFFFFFFFFFFFFF
310
FFFFFFFFFFFFFFFFFFFFFFFFFFFFFFFFFFFFFFFFFFFFFFFFFFFFFFFFFFFFFFFF
310
F000FFFFFFFFFFFFFFFFFFFFFFFFFFFFFFFFFFFFFFFFFFFFFFFFFFFFFFFFFFFF
310
FFFFFFFFFFFFFFFFFFFFFFFFFFFFFFFFFFFFFFFFFFFFFFFFFFFFFFFFFFFFFFFF
310
FFFFFFFFFFFFFFFFFFFFFFFFFFFFFFFFFFFFFFFFFFFFFFFFF000FFFFFFFFFFFF
310
FFFFFFFFFFFFFFFFFFFFFFFFFFFFFFFFFFFFFFFFFFFFFFFFFFFFFFFFFFFFFFFF
310
FFFFFFFFFFFFFFFFFFFFFFFFFFFFFFFFFFFFFFFFFFFFFFFFFFFFFFFFFFFFFFFF
310
FFFFFFFFFFFFFFFFFFFFFFFFFFFFFFFFF000FFFFFFFFFFFFFFFFFFFFFFFFFFFF
310
FFFFFFFFFFFFFFFFFFFFFFFFFFFFFFFFFFFFFFFFFFFFFFFFFFFFFFFFFFFFFFFF
310
FFFFFFFFFFFFFFFFFFFFFFFFFFFFFFFFFFFFFFFFFFFFFFFFFFFFFFFFFFFFFFFF
310
FFFFFFFFFFFFFFFFF000FFFFFFFFFFFFFFFFFFFFFFFFFFFFFFFFFFFFFFFFFFFF
310
FFFFFFFFFFFFFFFFFFFFFFFFFFFFFFFFFFFFFFFFFFFFFFFFFFFFFFFFFFFFFFFF
310
FFFFFFFFFFFFFFFFFFFFFFFFFFFFFFFFFFFFFFFFFFFFFFFFFFFFFFFFFFFFFFFF
310
F000FFFFFFFFFFFFFFFFFFFFFFFFFFFFFFFFFFFFFFFFFFFFFFFFFFFFFFFFFFFF
310
FFFFFFFFFFFFFFFFFFFFFFFFFFFFFFFFFFFFFFFFFFFFFFFFFFFFFFFFFFFFFFFF
310
FFFFFFFFFFFFFFFFFFFFFFFFFFFFFFFFFFFFFFFFFFFFFFFFF000FFFFFFFFFFFF
310
FFFFFFFFFFFFFFFFFFFFFFFFFFFFFFFFFFFFFFFFFFFFFFFFFFFFFFFFFFFFFFFF
310
FFFFFFFFFFFFFFFFFFFFFFFFFFFFFFFFFFFFFFFFFFFFFFFFFFFFFFFFFFFFFFFF
310
FFFFFFFFFFFFFFFFFFFFFFFFFFFFFFFFF000FFFFFFFFFFFFFFFFFFFFFFFFFFFF
310
FFFFFFFFFFFFFFFFFFFFFFFFFFFFFFFFFFFFFFFFFFFFFFFFFFFFFFFFFFFFFFFF
310
FFFFFFFFFFFFFFFFFFFFFFFFFFFFFFFFFFFFFFFFFFFFFFFFFFFFFFFFFFFFFFFF
310
FFFFFFFFFFFFFFFFF000FFFFFFFFFFFFFFFFFFFFFFFFFFFFFFFFFFFFFFFFFFFF
310
FFFFFFFFFFFFFFFFFFFFFFFFFFFFFFFFFFFFFFFFFFFFFFFFFFFFFFFFFFFFFFFF
310
FFFFFFFFFFFFFFFFFFFFFFFFFFFFFFFFFFFFFFFFFFFFFFFFFFFFFFFFFFFFFFFF
310
F000FFFFFFFFFFFFFFFFFFFFFFFFFFFFFFFFFFFFFFFFFFFFFFFFFFFFFFFFFFFF
310
FFFFFFFFFFFFFFFFFFFFFFFFFFFFFFFFFFFFFFFFFFFFFFFFFFFFFFFFFFFFFFFF
310
FFFFFFFFFFFFFFFFFFFFFFFFFFFFFFFFFFFFFFFFFFFFFFFFF000FFFFFFFFFFFF
310
FFFFFFFFFFFFFFFFFFFFFFFFFFFFFFFFFFFFFFFFFFFFFFFFFFFFFFFFFFFFFFFF
310
FFFFFFFFFFFFFFFFFFFFFFFFFFFFFFFFFFFFFFFFFFFFFFFFFFFFFFFFFFFFFFFF
310
FFFFFFFFFFFFFFFFFFFFFFFFFFFFFFFFF0000000000000000000000000000000
310
0000000000000000000000000000000000000000000000000000000000000000
310
0000000000000000000000000000000000000000000000000000000000000000
310
0000000000000000000000000000000000000000000000000000000000000000
310
0000000000000000000000000000000000000000000000000000000000000000
310
0000000000000000000000000000000000000000000000000000000000000000
310
0000000000000000000000000000000000000000000000000000000000000000
310
0000000000000000000000000000000000000000000000000000000000000000
310
0000000000000000000000000000000000000000000000000000000000000000
310
0000000000000000000000000000000000000000000000000000000000000000
310
0000000000000000000000000000000000000000000000000000000000000000
310
0000000000000000000000000000000000000000000000000000000000000000
310
0000000000000000000000000000000000000000000000000000000000000000
310
0000000000000000000000000000000000000000000000000000000000000000
310
0000000000000000000000000000000000000000000000000000000000000000
310
0000000000000000000000000000000000000000000000000000000000000000
  1
OLE
  0
ENDSEC
  0
SECTION
  2
OBJECTS
  0
DICTIONARY
  5
C
330
0
100
AcDbDictionary
281
     1
  3
ACAD_GROUP
350
D
  3
ACAD_LAYOUT
350
1A
  3
ACAD_MLINESTYLE
350
17
  3
ACAD_PLOTSETTINGS
350
19
  3
ACAD_PLOTSTYLENAME
350
E
  0
DICTIONARY
  5
D
102
{ACAD_REACTORS
330
C
102
}
330
C
100
AcDbDictionary
281
     1
  0
DICTIONARY
  5
1A
102
{ACAD_REACTORS
330
C
102
}
330
C
100
AcDbDictionary
281
     1
  3
Layout1
350
1E
  3
Layout2
350
26
  3
Model
350
22
  0
DICTIONARY
  5
17
102
{ACAD_REACTORS
330
C
102
}
330
C
100
AcDbDictionary
281
     1
  3
Standard
350
18
  0
DICTIONARY
  5
19
102
{ACAD_REACTORS
330
C
102
}
330
C
100
AcDbDictionary
281
     1
  0
ACDBDICTIONARYWDFLT
  5
E
102
{ACAD_REACTORS
330
C
102
}
330
C
100
AcDbDictionary
281
     1
  3
Normal
350
F
100
AcDbDictionaryWithDefault
340
F
  0
LAYOUT
  5
1E
102
{ACAD_REACTORS
330
1A
102
}
330
1A
100
AcDbPlotSettings
  1

  2
none_device
  4

  6

 40
0.0
 41
0.0
 42
0.0
 43
0.0
 44
0.0
 45
0.0
 46
0.0
 47
0.0
 48
0.0
 49
0.0
140
0.0
141
0.0
142
1.0
143
1.0
 70
   688
 72
     0
 73
     0
 74
     5
  7

 75
    16
147
1.0
148
0.0
149
0.0
100
AcDbLayout
  1
Layout1
 70
     1
 71
     1
 10
0.0
 20
0.0
 11
420.0
 21
297.0
 12
0.0
 22
0.0
 32
0.0
 14
1.0000000000E+20
 24
1.0000000000E+20
 34
1.0000000000E+20
 15
-1.0000000000E+20
 25
-1.0000000000E+20
 35
-1.0000000000E+20
146
0.0
 13
0.0
 23
0.0
 33
0.0
 16
1.0
 26
0.0
 36
0.0
 17
0.0
 27
1.0
 37
0.0
 76
     0
330
1B
  0
LAYOUT
  5
26
102
{ACAD_REACTORS
330
1A
102
}
330
1A
100
AcDbPlotSettings
  1

  2
none_device
  4

  6

 40
0.0
 41
0.0
 42
0.0
 43
0.0
 44
0.0
 45
0.0
 46
0.0
 47
0.0
 48
0.0
 49
0.0
140
0.0
141
0.0
142
1.0
143
1.0
 70
   688
 72
     0
 73
     0
 74
     5
  7

 75
    16
147
1.0
148
0.0
149
0.0
100
AcDbLayout
  1
Layout2
 70
     1
 71
     2
 10
0.0
 20
0.0
 11
0.0
 21
0.0
 12
0.0
 22
0.0
 32
0.0
 14
0.0
 24
0.0
 34
0.0
 15
0.0
 25
0.0
 35
0.0
146
0.0
 13
0.0
 23
0.0
 33
0.0
 16
1.0
 26
0.0
 36
0.0
 17
0.0
 27
1.0
 37
0.0
 76
     0
330
23
  0
LAYOUT
  5
22
102
{ACAD_REACTORS
330
1A
102
}
330
1A
100
AcDbPlotSettings
  1

  2
none_device
  4

  6

 40
0.0
 41
0.0
 42
0.0
 43
0.0
 44
0.0
 45
0.0
 46
0.0
 47
0.0
 48
0.0
 49
0.0
140
0.0
141
0.0
142
1.0
143
1.0
 70
  1712
 72
     0
 73
     0
 74
     0
  7

 75
     0
147
1.0
148
0.0
149
0.0
100
AcDbLayout
  1
Model
 70
     1
 71
     0
 10
0.0
 20
0.0
 11
297.0
 21
210.0
 12
0.0
 22
0.0
 32
0.0
 14
0.0
 24
0.0
 34
0.0
 15
297.0
 25
210.0
 35
0.0
146
0.0
 13
0.0
 23
0.0
 33
0.0
 16
1.0
 26
0.0
 36
0.0
 17
0.0
 27
1.0
 37
0.0
 76
     0
330
1F
331
29
  0
MLINESTYLE
  5
18
102
{ACAD_REACTORS
330
17
102
}
330
17
100
AcDbMlineStyle
  2
Standard
 70
     0
  3

 62
   256
 51
90.0
 52
90.0
 71
     2
 49
0.5
 62
   256
  6
BYLAYER
 49
-0.5
 62
   256
  6
BYLAYER
  0
ACDBPLACEHOLDER
  5
F
102
{ACAD_REACTORS
330
E
102
}
330
E
  0
ENDSEC
  0
EOF
