  0
SECTION
  2
HEADER
  9
$ACADVER
  1
AC1015
  9
$ACADMAINTVER
 70
     6
  9
$DWGCODEPAGE
  3
ANSI_1252
  9
$INSBASE
 10
0.0
 20
0.0
 30
0.0
  9
$EXTMIN
 10
0.0
 20
0.0
 30
0.0
  9
$EXTMAX
 10
297.0
 20
210.0
 30
0.0
  9
$LIMMIN
 10
0.0
 20
0.0
  9
$LIMMAX
 10
297.0
 20
210.0
  9
$ORTHOMODE
 70
     0
  9
$REGENMODE
 70
     1
  9
$FILLMODE
 70
     1
  9
$QTEXTMODE
 70
     0
  9
$MIRRTEXT
 70
     1
  9
$LTSCALE
 40
1.0
  9
$ATTMODE
 70
     1
  9
$TEXTSIZE
 40
2.0
  9
$TRACEWID
 40
1.0
  9
$TEXTSTYLE
  7
STANDARD
  9
$CLAYER
  8
0
  9
$CELTYPE
  6
ByLayer
  9
$CECOLOR
 62
   256
  9
$CELTSCALE
 40
1.0
  9
$DISPSILH
 70
     0
  9
$DIMSCALE
 40
1.0
  9
$DIMASZ
 40
3.0
  9
$DIMEXO
 40
0.0
  9
$DIMDLI
 40
3.75
  9
$DIMRND
 40
0.0
  9
$DIMDLE
 40
0.0
  9
$DIMEXE
 40
1.0
  9
$DIMTP
 40
0.0
  9
$DIMTM
 40
0.0
  9
$DIMTXT
 40
2.0
  9
$DIMCEN
 40
2.5
  9
$DIMTSZ
 40
0.0
  9
$DIMTOL
 70
     0
  9
$DIMLIM
 70
     0
  9
$DIMTIH
 70
     1
  9
$DIMTOH
 70
     1
  9
$DIMSE1
 70
     0
  9
$DIMSE2
 70
     0
  9
$DIMTAD
 70
     1
  9
$DIMZIN
 70
     0
  9
$DIMBLK
  1

  9
$DIMASO
 70
     1
  9
$DIMSHO
 70
     1
  9
$DIMPOST
  1

  9
$DIMAPOST
  1

  9
$DIMALT
 70
     0
  9
$DIMALTD
 70
     3
  9
$DIMALTF
 40
0.0393700787
  9
$DIMLFAC
 40
1.0
  9
$DIMTOFL
 70
     1
  9
$DIMTVP
 40
0.0
  9
$DIMTIX
 70
     0
  9
$DIMSOXD
 70
     0
  9
$DIMSAH
 70
     0
  9
$DIMBLK1
  1

  9
$DIMBLK2
  1

  9
$DIMSTYLE
  2
ISO-25
  9
$DIMCLRD
 70
     0
  9
$DIMCLRE
 70
     0
  9
$DIMCLRT
 70
     0
  9
$DIMTFAC
 40
1.0
  9
$DIMGAP
 40
1.524
  9
$DIMJUST
 70
     0
  9
$DIMSD1
 70
     0
  9
$DIMSD2
 70
     0
  9
$DIMTOLJ
 70
     0
  9
$DIMTZIN
 70
     0
  9
$DIMALTZ
 70
     0
  9
$DIMALTTZ
 70
     0
  9
$DIMUPT
 70
     0
  9
$DIMDEC
 70
     2
  9
$DIMTDEC
 70
     3
  9
$DIMALTU
 70
     2
  9
$DIMALTTD
 70
     3
  9
$DIMTXSTY
  7
STANDARD
  9
$DIMAUNIT
 70
     0
  9
$DIMADEC
 70
     2
  9
$DIMALTRND
 40
0.0
  9
$DIMAZIN
 70
     0
  9
$DIMDSEP
 70
    44
  9
$DIMATFIT
 70
     3
  9
$DIMFRAC
 70
     0
  9
$DIMLDRBLK
  1

  9
$DIMLUNIT
 70
     2
  9
$DIMLWD
 70
    -2
  9
$DIMLWE
 70
    -2
  9
$DIMTMOVE
 70
     0
  9
$LUNITS
 70
     2
  9
$LUPREC
 70
     2
  9
$SKETCHINC
 40
1.0
  9
$FILLETRAD
 40
10.0
  9
$AUNITS
 70
     0
  9
$AUPREC
 70
     2
  9
$MENU
  1
.
  9
$ELEVATION
 40
0.0
  9
$PELEVATION
 40
0.0
  9
$THICKNESS
 40
0.0
  9
$LIMCHECK
 70
     0
  9
$CHAMFERA
 40
10.0
  9
$CHAMFERB
 40
10.0
  9
$CHAMFERC
 40
20.0
  9
$CHAMFERD
 40
0.0
  9
$SKPOLY
 70
     0
  9
$TDCREATE
 40
2457070.366124421
  9
$TDUCREATE
 40
2457070.324457755
  9
$TDUPDATE
 40
2457070.366124954
  9
$TDUUPDATE
 40
2457070.324458287
  9
$TDINDWG
 40
0.0000000116
  9
$TDUSRTIMER
 40
0.0000000116
  9
$USRTIMER
 70
     1
  9
$ANGBASE
 50
0.0
  9
$ANGDIR
 70
     0
  9
$PDMODE
 70
     0
  9
$PDSIZE
 40
-1.0
  9
$PLINEWID
 40
0.0
  9
$SPLFRAME
 70
     0
  9
$SPLINETYPE
 70
     6
  9
$SPLINESEGS
 70
     8
  9
$HANDSEED
  5
2AB
  9
$SURFTAB1
 70
     6
  9
$SURFTAB2
 70
     6
  9
$SURFTYPE
 70
     6
  9
$SURFU
 70
     6
  9
$SURFV
 70
     6
  9
$UCSBASE
  2

  9
$UCSNAME
  2

  9
$UCSORG
 10
0.0
 20
0.0
 30
0.0
  9
$UCSXDIR
 10
1.0
 20
0.0
 30
0.0
  9
$UCSYDIR
 10
0.0
 20
1.0
 30
0.0
  9
$UCSORTHOREF
  2

  9
$UCSORTHOVIEW
 70
     0
  9
$UCSORGTOP
 10
0.0
 20
0.0
 30
0.0
  9
$UCSORGBOTTOM
 10
0.0
 20
0.0
 30
0.0
  9
$UCSORGLEFT
 10
0.0
 20
0.0
 30
0.0
  9
$UCSORGRIGHT
 10
0.0
 20
0.0
 30
0.0
  9
$UCSORGFRONT
 10
0.0
 20
0.0
 30
0.0
  9
$UCSORGBACK
 10
0.0
 20
0.0
 30
0.0
  9
$PUCSBASE
  2

  9
$PUCSNAME
  2

  9
$PUCSORG
 10
0.0
 20
0.0
 30
0.0
  9
$PUCSXDIR
 10
1.0
 20
0.0
 30
0.0
  9
$PUCSYDIR
 10
0.0
 20
1.0
 30
0.0
  9
$PUCSORTHOREF
  2

  9
$PUCSORTHOVIEW
 70
     0
  9
$PUCSORGTOP
 10
0.0
 20
0.0
 30
0.0
  9
$PUCSORGBOTTOM
 10
0.0
 20
0.0
 30
0.0
  9
$PUCSORGLEFT
 10
0.0
 20
0.0
 30
0.0
  9
$PUCSORGRIGHT
 10
0.0
 20
0.0
 30
0.0
  9
$PUCSORGFRONT
 10
0.0
 20
0.0
 30
0.0
  9
$PUCSORGBACK
 10
0.0
 20
0.0
 30
0.0
  9
$USERI1
 70
     0
  9
$USERI2
 70
     0
  9
$USERI3
 70
     0
  9
$USERI4
 70
     0
  9
$USERI5
 70
     0
  9
$USERR1
 40
0.0
  9
$USERR2
 40
0.0
  9
$USERR3
 40
0.0
  9
$USERR4
 40
0.0
  9
$USERR5
 40
0.0
  9
$WORLDVIEW
 70
     1
  9
$SHADEDGE
 70
     3
  9
$SHADEDIF
 70
    70
  9
$TILEMODE
 70
     1
  9
$MAXACTVP
 70
    64
  9
$PINSBASE
 10
0.0
 20
0.0
 30
0.0
  9
$PLIMCHECK
 70
     0
  9
$PEXTMIN
 10
1.0000000000E+20
 20
1.0000000000E+20
 30
1.0000000000E+20
  9
$PEXTMAX
 10
-1.0000000000E+20
 20
-1.0000000000E+20
 30
-1.0000000000E+20
  9
$PLIMMIN
 10
0.0
 20
0.0
  9
$PLIMMAX
 10
420.0
 20
297.0
  9
$UNITMODE
 70
     0
  9
$VISRETAIN
 70
     1
  9
$PLINEGEN
 70
     0
  9
$PSLTSCALE
 70
     1
  9
$TREEDEPTH
 70
  3020
  9
$CMLSTYLE
  2
Standard
  9
$CMLJUST
 70
     0
  9
$CMLSCALE
 40
20.0
  9
$PROXYGRAPHICS
 70
     1
  9
$MEASUREMENT
 70
     1
  9
$CELWEIGHT
370
    -1
  9
$ENDCAPS
280
     0
  9
$JOINSTYLE
280
     0
  9
$LWDISPLAY
290
     1
  9
$INSUNITS
 70
     4
  9
$HYPERLINKBASE
  1

  9
$STYLESHEET
  1

  9
$XEDIT
290
     1
  9
$CEPSNTYPE
380
     0
  9
$PSTYLEMODE
290
     1
  9
$FINGERPRINTGUID
  2
{C480C29E-3CFF-4DA4-B695-106B85D69C10}
  9
$VERSIONGUID
  2
{FAEB1C32-E019-11D5-929B-00C0DF256EC4}
  9
$EXTNAMES
290
     1
  9
$PSVPSCALE
 40
0.0
  9
$OLESTARTUP
290
     0
  0
ENDSEC
  0
SECTION
  2
CLASSES
  0
CLASS
  1
ACDBDICTIONARYWDFLT
  2
AcDbDictionaryWithDefault
  3
ObjectDBX Classes
 90
        0
280
     0
281
     0
  0
CLASS
  1
VISUALSTYLE
  2
AcDbVisualStyle
  3
ObjectDBX Classes
 90
     4095
280
     0
281
     0
  0
CLASS
  1
MATERIAL
  2
AcDbMaterial
  3
ObjectDBX Classes
 90
     1153
280
     0
281
     0
  0
CLASS
  1
ACDBPLACEHOLDER
  2
AcDbPlaceHolder
  3
ObjectDBX Classes
 90
        0
280
     0
281
     0
  0
CLASS
  1
LAYOUT
  2
AcDbLayout
  3
ObjectDBX Classes
 90
        0
280
     0
281
     0
  0
ENDSEC
  0
SECTION
  2
TABLES
  0
TABLE
  2
VPORT
  5
8
330
0
100
AcDbSymbolTable
 70
     1
  0
VPORT
  5
29
330
8
100
AcDbSymbolTableRecord
100
AcDbViewportTableRecord
  2
*Active
 70
     0
 10
0.0
 20
0.0
 11
1.0
 21
1.0
 12
148.5
 22
105.0
 13
0.0
 23
0.0
 14
10.0
 24
10.0
 15
10.0
 25
10.0
 16
0.0
 26
0.0
 36
1.0
 17
0.0
 27
0.0
 37
0.0
 40
210.0
 41
1.4142857143
 42
50.0
 43
0.0
 44
0.0
 50
0.0
 51
0.0
 71
     0
 72
  2000
 73
     1
 74
     3
 75
     0
 76
     0
 77
     0
 78
     0
281
     0
 65
     1
110
0.0
120
0.0
130
0.0
111
1.0
121
0.0
131
0.0
112
0.0
122
1.0
132
0.0
 79
     0
146
0.0
  0
ENDTAB
  0
TABLE
  2
LTYPE
  5
5
330
0
100
AcDbSymbolTable
 70
     8
  0
LTYPE
  5
14
330
5
100
AcDbSymbolTableRecord
100
AcDbLinetypeTableRecord
  2
ByBlock
 70
     0
  3

 72
    65
 73
     0
 40
0.0
  0
LTYPE
  5
15
330
5
100
AcDbSymbolTableRecord
100
AcDbLinetypeTableRecord
  2
ByLayer
 70
     0
  3

 72
    65
 73
     0
 40
0.0
  0
LTYPE
  5
16
330
5
100
AcDbSymbolTableRecord
100
AcDbLinetypeTableRecord
  2
Continuous
 70
     0
  3
Solid line
 72
    65
 73
     0
 40
0.0
  0
LTYPE
  5
3F
330
5
100
AcDbSymbolTableRecord
100
AcDbLinetypeTableRecord
  2
SLD-Durchgehend
 70
     0
  3
SolidWorks Line Style
 72
    65
 73
     0
 40
0.0
  0
LTYPE
  5
40
330
5
100
AcDbSymbolTableRecord
100
AcDbLinetypeTableRecord
  2
SLD-Gestrichelt
 70
     0
  3
SolidWorks Line Style
 72
    65
 73
     2
 40
1.905
 49
1.27
 74
     0
 49
-0.635
 74
     0
  0
LTYPE
  5
41
330
5
100
AcDbSymbolTableRecord
100
AcDbLinetypeTableRecord
  2
SLD-Phantom
 70
     0
  3
SolidWorks Line Style
 72
    65
 73
     6
 40
12.7
 49
6.35
 74
     0
 49
-1.27
 74
     0
 49
1.27
 74
     0
 49
-1.27
 74
     0
 49
1.27
 74
     0
 49
-1.27
 74
     0
  0
LTYPE
  5
42
330
5
100
AcDbSymbolTableRecord
100
AcDbLinetypeTableRecord
  2
SLD-Kette
 70
     0
  3
SolidWorks Line Style
 72
    65
 73
     4
 40
10.16
 49
6.35
 74
     0
 49
-1.27
 74
     0
 49
1.27
 74
     0
 49
-1.27
 74
     0
  0
LTYPE
  5
43
330
5
100
AcDbSymbolTableRecord
100
AcDbLinetypeTableRecord
  2
SLD-Punktstrich
 70
     0
  3
SolidWorks Line Style
 72
    65
 73
     4
 40
19.05
 49
15.24
 74
     0
 49
-1.27
 74
     0
 49
1.27
 74
     0
 49
-1.27
 74
     0
  0
LTYPE
  5
44
330
5
100
AcDbSymbolTableRecord
100
AcDbLinetypeTableRecord
  2
SLD-Naht
 70
     0
  3
SolidWorks Line Style
 72
    65
 73
     2
 40
0.635
 49
0.0
 74
     0
 49
-0.635
 74
     0
  0
LTYPE
  5
45
330
5
100
AcDbSymbolTableRecord
100
AcDbLinetypeTableRecord
  2
SLD-Dicke-Dünne-Kette
 70
     0
  3
SolidWorks Line Style
 72
    65
 73
     4
 40
10.16
 49
6.35
 74
     0
 49
-1.27
 74
     0
 49
1.27
 74
     0
 49
-1.27
 74
     0
  0
ENDTAB
  0
TABLE
  2
LAYER
  5
2
330
0
100
AcDbSymbolTable
 70
     5
  0
LAYER
  5
10
330
2
100
AcDbSymbolTableRecord
100
AcDbLayerTableRecord
  2
0
 70
     0
 62
     7
  6
Continuous
370
    -3
390
F
  0
LAYER
  5
46
330
2
100
AcDbSymbolTableRecord
100
AcDbLayerTableRecord
  2
FORMAT
 70
     0
 62
     7
  6
SLD-Durchgehend
370
    -3
390
F
  0
LAYER
  5
47
330
2
100
AcDbSymbolTableRecord
100
AcDbLayerTableRecord
  2
VERMASSUNG
 70
     0
 62
     7
  6
SLD-Durchgehend
370
    -3
390
F
  0
LAYER
  5
48
330
2
100
AcDbSymbolTableRecord
100
AcDbLayerTableRecord
  2
KOPF_DÜNN
 70
     0
 62
     7
  6
SLD-Durchgehend
370
    -3
390
F
  0
LAYER
  5
49
330
2
100
AcDbSymbolTableRecord
100
AcDbLayerTableRecord
  2
KOPF_DICK
 70
     0
 62
     7
  6
SLD-Durchgehend
370
    15
390
F
  0
ENDTAB
  0
TABLE
  2
STYLE
  5
3
330
0
100
AcDbSymbolTable
 70
     2
  0
STYLE
  5
11
330
3
100
AcDbSymbolTableRecord
100
AcDbTextStyleTableRecord
  2
STANDARD
 70
     0
 40
0.0
 41
1.0
 50
0.0
 71
     0
 42
2.0
  3
ISOCPEUR.TTF
  4

1001
ACAD
1000
ISOCPEUR
1071
       34
  0
STYLE
  5
4A
330
3
100
AcDbSymbolTableRecord
100
AcDbTextStyleTableRecord
  2
SLDTEXTSTYLE0
 70
     0
 40
0.0
 41
1.0
 50
0.0
 71
     0
 42
0.2
  3
ISOCPEUR.TTF
  4

1001
ACAD
1000
ISOCPEUR
1071
      290
  0
ENDTAB
  0
TABLE
  2
VIEW
  5
6
330
0
100
AcDbSymbolTable
 70
     0
  0
ENDTAB
  0
TABLE
  2
UCS
  5
7
330
0
100
AcDbSymbolTable
 70
     0
  0
ENDTAB
  0
TABLE
  2
APPID
  5
9
330
0
100
AcDbSymbolTable
 70
     1
  0
APPID
  5
12
330
9
100
AcDbSymbolTableRecord
100
AcDbRegAppTableRecord
  2
ACAD
 70
     0
  0
ENDTAB
  0
TABLE
  2
DIMSTYLE
  5
A
330
0
100
AcDbSymbolTable
 70
     3
100
AcDbDimStyleTable
  0
DIMSTYLE
105
27
330
A
100
AcDbSymbolTableRecord
100
AcDbDimStyleTableRecord
  2
ISO-25
 70
     0
 41
2.5
 42
0.625
 43
3.75
 44
1.25
 73
     0
 74
     0
 77
     1
 78
     8
140
2.5
141
2.5
143
0.0393700787
147
0.625
171
     3
172
     1
178
     0
271
     2
272
     2
274
     3
278
    44
283
     0
284
     8
340
11
  0
DIMSTYLE
105
21C
102
{ACAD_REACTORS
330
21B
330
226
330
230
330
23C
330
293
102
}
330
A
100
AcDbSymbolTableRecord
100
AcDbDimStyleTableRecord
  2
SLDDIMSTYLE0
 70
     0
 41
3.0
 44
0.0
 45
0.000000001
 73
     0
 74
     0
 77
     1
 78
    12
 79
     3
140
2.0
147
0.5
173
     1
178
     0
271
     2
272
     3
276
     2
284
    12
340
4A
  0
DIMSTYLE
105
247
102
{ACAD_REACTORS
330
246
102
}
330
A
100
AcDbSymbolTableRecord
100
AcDbDimStyleTableRecord
  2
SLDDIMSTYLE1
 70
     0
 41
3.0
 44
0.0
 73
     0
 74
     0
 77
     1
 78
    12
 79
     3
140
2.0
147
0.5
173
     1
178
     0
179
     2
272
     3
276
     2
284
    12
340
4A
  0
ENDTAB
  0
TABLE
  2
BLOCK_RECORD
  5
1
330
0
100
AcDbSymbolTable
 70
     8
  0
BLOCK_RECORD
  5
1F
330
1
100
AcDbSymbolTableRecord
100
AcDbBlockTableRecord
  2
*Model_Space
340
22
  0
BLOCK_RECORD
  5
1B
330
1
100
AcDbSymbolTableRecord
100
AcDbBlockTableRecord
  2
*Paper_Space
340
1E
  0
BLOCK_RECORD
  5
23
330
1
100
AcDbSymbolTableRecord
100
AcDbBlockTableRecord
  2
*Paper_Space0
340
26
  0
BLOCK_RECORD
  5
21D
330
1
100
AcDbSymbolTableRecord
100
AcDbBlockTableRecord
  2
_D
340
0
  0
BLOCK_RECORD
  5
227
330
1
100
AcDbSymbolTableRecord
100
AcDbBlockTableRecord
  2
_D_1
340
0
  0
BLOCK_RECORD
  5
231
330
1
100
AcDbSymbolTableRecord
100
AcDbBlockTableRecord
  2
_D_2
340
0
  0
BLOCK_RECORD
  5
23D
330
1
100
AcDbSymbolTableRecord
100
AcDbBlockTableRecord
  2
_D_3
340
0
  0
BLOCK_RECORD
  5
248
330
1
100
AcDbSymbolTableRecord
100
AcDbBlockTableRecord
  2
_D_4
340
0
  0
BLOCK_RECORD
  5
294
330
1
100
AcDbSymbolTableRecord
100
AcDbBlockTableRecord
  2
_D_5
340
0
  0
BLOCK_RECORD
  5
29E
330
1
100
AcDbSymbolTableRecord
100
AcDbBlockTableRecord
  2
SW_CENTERMARKSYMBOL_0
340
0
102
{BLKREFS
331
2A9
102
}
  0
ENDTAB
  0
ENDSEC
  0
SECTION
  2
BLOCKS
  0
BLOCK
  5
20
330
1F
100
AcDbEntity
  8
0
100
AcDbBlockBegin
  2
*Model_Space
 70
     0
 10
0.0
 20
0.0
 30
0.0
  3
*Model_Space
  1

  0
ENDBLK
  5
21
330
1F
100
AcDbEntity
  8
0
100
AcDbBlockEnd
  0
BLOCK
  5
1C
330
1B
100
AcDbEntity
 67
     1
  8
0
100
AcDbBlockBegin
  2
*Paper_Space
 70
     0
 10
0.0
 20
0.0
 30
0.0
  3
*Paper_Space
  1

  0
ENDBLK
  5
1D
330
1B
100
AcDbEntity
 67
     1
  8
0
100
AcDbBlockEnd
  0
BLOCK
  5
24
330
23
100
AcDbEntity
  8
0
100
AcDbBlockBegin
  2
*Paper_Space0
 70
     0
 10
0.0
 20
0.0
 30
0.0
  3
*Paper_Space0
  1

  0
ENDBLK
  5
25
330
23
100
AcDbEntity
  8
0
100
AcDbBlockEnd
  0
BLOCK
  5
21E
330
21D
100
AcDbEntity
  8
0
100
AcDbBlockBegin
  2
_D
 70
     0
 10
0.0
 20
0.0
 30
0.0
  3
_D
  1

  0
SOLID
  5
220
330
21D
100
AcDbEntity
  8
VERMASSUNG
100
AcDbTrace
 10
157.4357639977
 20
147.2571387145
 30
0.0
 11
160.4357639977
 21
146.8071387145
 31
0.0
 12
160.4357639977
 22
147.7071387145
 32
0.0
 13
160.4357639977
 23
147.7071387145
 33
0.0
  0
SOLID
  5
221
330
21D
100
AcDbEntity
  8
VERMASSUNG
100
AcDbTrace
 10
232.3357639977
 20
147.2571387145
 30
0.0
 11
229.3357639977
 21
147.7071387145
 31
0.0
 12
229.3357639977
 22
146.8071387145
 32
0.0
 13
229.3357639977
 23
146.8071387145
 33
0.0
  0
LINE
  5
222
330
21D
100
AcDbEntity
  8
VERMASSUNG
100
AcDbLine
 10
157.4357639977
 20
129.1871387145
 30
0.0
 11
157.4357639977
 21
148.2571387145
 31
0.0
  0
LINE
  5
223
330
21D
100
AcDbEntity
  8
VERMASSUNG
100
AcDbLine
 10
232.3357639977
 20
90.2571387145
 30
0.0
 11
232.3357639977
 21
148.2571387145
 31
0.0
  0
LINE
  5
224
330
21D
100
AcDbEntity
  8
VERMASSUNG
100
AcDbLine
 10
157.4357639977
 20
147.2571387145
 30
0.0
 11
232.3357639977
 21
147.2571387145
 31
0.0
  0
MTEXT
  5
225
330
21D
100
AcDbEntity
  8
VERMASSUNG
100
AcDbMText
 10
192.3858428932
 20
149.8571385981
 30
0.0
 40
2.0
 41
0.0
 71
     1
 72
     1
  1
74.9
  7
SLDTEXTSTYLE0
 73
     1
 44
1.0
  0
ENDBLK
  5
21F
330
21D
100
AcDbEntity
  8
0
100
AcDbBlockEnd
  0
BLOCK
  5
228
330
227
100
AcDbEntity
  8
0
100
AcDbBlockBegin
  2
_D_1
 70
     0
 10
0.0
 20
0.0
 30
0.0
  3
_D_1
  1

  0
SOLID
  5
22A
330
227
100
AcDbEntity
  8
VERMASSUNG
100
AcDbTrace
 10
177.3357639977
 20
141.2571387145
 30
0.0
 11
180.3357639977
 21
140.8071387145
 31
0.0
 12
180.3357639977
 22
141.7071387145
 32
0.0
 13
180.3357639977
 23
141.7071387145
 33
0.0
  0
SOLID
  5
22B
330
227
100
AcDbEntity
  8
VERMASSUNG
100
AcDbTrace
 10
232.3357639977
 20
141.2571387145
 30
0.0
 11
229.3357639977
 21
141.7071387145
 31
0.0
 12
229.3357639977
 22
140.8071387145
 32
0.0
 13
229.3357639977
 23
140.8071387145
 33
0.0
  0
LINE
  5
22C
330
227
100
AcDbEntity
  8
VERMASSUNG
100
AcDbLine
 10
177.3357639977
 20
136.9571387145
 30
0.0
 11
177.3357639977
 21
142.2571387145
 31
0.0
  0
LINE
  5
22D
330
227
100
AcDbEntity
  8
VERMASSUNG
100
AcDbLine
 10
232.3357639977
 20
90.2571387145
 30
0.0
 11
232.3357639977
 21
142.2571387145
 31
0.0
  0
LINE
  5
22E
330
227
100
AcDbEntity
  8
VERMASSUNG
100
AcDbLine
 10
177.3357639977
 20
141.2571387145
 30
0.0
 11
232.3357639977
 21
141.2571387145
 31
0.0
  0
MTEXT
  5
22F
330
227
100
AcDbEntity
  8
VERMASSUNG
100
AcDbMText
 10
203.4374736367
 20
143.8571385981
 30
0.0
 40
2.0
 41
0.0
 71
     1
 72
     1
  1
55
  7
SLDTEXTSTYLE0
 73
     1
 44
1.0
  0
ENDBLK
  5
229
330
227
100
AcDbEntity
  8
0
100
AcDbBlockEnd
  0
BLOCK
  5
232
330
231
100
AcDbEntity
  8
0
100
AcDbBlockBegin
  2
_D_2
 70
     0
 10
0.0
 20
0.0
 30
0.0
  3
_D_2
  1

  0
SOLID
  5
234
330
231
100
AcDbEntity
  8
VERMASSUNG
100
AcDbTrace
 10
153.2214821581
 20
137.2571387145
 30
0.0
 11
152.7714821581
 21
134.2571387145
 31
0.0
 12
153.6714821581
 22
134.2571387145
 32
0.0
 13
153.6714821581
 23
134.2571387145
 33
0.0
  0
SOLID
  5
235
330
231
100
AcDbEntity
  8
VERMASSUNG
100
AcDbTrace
 10
153.2214821581
 20
97.2571387145
 30
0.0
 11
153.6714821581
 21
100.2571387145
 31
0.0
 12
152.7714821581
 22
100.2571387145
 32
0.0
 13
152.7714821581
 23
100.2571387145
 33
0.0
  0
LINE
  5
236
330
231
100
AcDbEntity
  8
VERMASSUNG
100
AcDbLine
 10
177.6357639977
 20
137.2571387145
 30
0.0
 11
152.2214821581
 21
137.2571387145
 31
0.0
  0
LINE
  5
237
330
231
100
AcDbEntity
  8
VERMASSUNG
100
AcDbLine
 10
177.6357639977
 20
97.2571387145
 30
0.0
 11
152.2214821581
 21
97.2571387145
 31
0.0
  0
LINE
  5
238
330
231
100
AcDbEntity
  8
VERMASSUNG
100
AcDbLine
 10
153.2214821581
 20
137.2571387145
 30
0.0
 11
153.2214821581
 21
97.2571387145
 31
0.0
  0
MTEXT
  5
239
330
231
100
AcDbEntity
  8
VERMASSUNG
100
AcDbMText
 10
150.4214821486
 20
110.9544229806
 30
0.0
 40
2.0
 41
0.0
 71
     1
 72
     1
  1
HSK 
  7
SLDTEXTSTYLE0
 11
-7.044195017643634E-15
 21
1.0
 31
0.0
 73
     1
 44
1.0
  0
MTEXT
  5
23A
330
231
100
AcDbEntity
  8
VERMASSUNG
100
AcDbMText
 10
150.6214821581
 20
116.9544230327
 30
0.0
 40
2.0
 41
0.0
 71
     1
 72
     1
  1
%%c
  7
SLDTEXTSTYLE0
 11
-7.044195017643634E-15
 21
1.0
 31
0.0
 73
     1
 44
1.0
  0
MTEXT
  5
23B
330
231
100
AcDbEntity
  8
VERMASSUNG
100
AcDbMText
 10
150.6214822745
 20
120.5620309449
 30
0.0
 40
2.0
 41
0.0
 71
     1
 72
     1
  1
40
  7
SLDTEXTSTYLE0
 11
-7.044195017643634E-15
 21
1.0
 31
0.0
 73
     1
 44
1.0
  0
ENDBLK
  5
233
330
231
100
AcDbEntity
  8
0
100
AcDbBlockEnd
  0
BLOCK
  5
23E
330
23D
100
AcDbEntity
  8
0
100
AcDbBlockBegin
  2
_D_3
 70
     0
 10
0.0
 20
0.0
 30
0.0
  3
_D_3
  1

  0
SOLID
  5
240
330
23D
100
AcDbEntity
  8
VERMASSUNG
100
AcDbTrace
 10
239.79524839
 20
90.2571387145
 30
0.0
 11
240.24524839
 21
93.2571387145
 31
0.0
 12
239.34524839
 22
93.2571387145
 32
0.0
 13
239.34524839
 23
93.2571387145
 33
0.0
  0
SOLID
  5
241
330
23D
100
AcDbEntity
  8
VERMASSUNG
100
AcDbTrace
 10
239.79524839
 20
117.2571387145
 30
0.0
 11
239.34524839
 21
114.2571387145
 31
0.0
 12
240.24524839
 22
114.2571387145
 32
0.0
 13
240.24524839
 23
114.2571387145
 33
0.0
  0
LINE
  5
242
330
23D
100
AcDbEntity
  8
VERMASSUNG
100
AcDbLine
 10
232.3357639977
 20
90.2571387145
 30
0.0
 11
240.79524839
 21
90.2571387145
 31
0.0
  0
LINE
  5
243
330
23D
100
AcDbEntity
  8
VERMASSUNG
100
AcDbLine
 10
232.3357639977
 20
117.2571387145
 30
0.0
 11
240.79524839
 21
117.2571387145
 31
0.0
  0
LINE
  5
244
330
23D
100
AcDbEntity
  8
VERMASSUNG
100
AcDbLine
 10
239.79524839
 20
90.2571387145
 30
0.0
 11
239.79524839
 21
117.2571387145
 31
0.0
  0
MTEXT
  5
245
330
23D
100
AcDbEntity
  8
VERMASSUNG
100
AcDbMText
 10
237.1952485064
 20
102.3588483535
 30
0.0
 40
2.0
 41
0.0
 71
     1
 72
     1
  1
27
  7
SLDTEXTSTYLE0
 11
-1.608122649676637E-16
 21
1.0
 31
0.0
 73
     1
 44
1.0
  0
ENDBLK
  5
23F
330
23D
100
AcDbEntity
  8
0
100
AcDbBlockEnd
  0
BLOCK
  5
249
330
248
100
AcDbEntity
  8
0
100
AcDbBlockBegin
  2
_D_4
 70
     0
 10
0.0
 20
0.0
 30
0.0
  3
_D_4
  1

  0
ARC
  5
24B
330
248
100
AcDbEntity
  8
VERMASSUNG
100
AcDbCircle
 10
232.3357639977
 20
82.0839450503
 30
0.0
 40
29.37275759673589
100
AcDbArc
 50
90.0
 51
94.9969695613
  0
ARC
  5
24C
330
248
100
AcDbEntity
  8
VERMASSUNG
100
AcDbCircle
 10
232.3357639977
 20
82.0839450503
 30
0.0
 40
29.37275759673589
100
AcDbArc
 50
78.3517344123
 51
90.0
  0
ARC
  5
24D
330
248
100
AcDbEntity
  8
VERMASSUNG
100
AcDbCircle
 10
232.3357639977
 20
82.0839450503
 30
0.0
 40
29.37275759673589
100
AcDbArc
 50
94.9969695613
 51
109.6540213702
  0
SOLID
  5
24E
330
248
100
AcDbEntity
  8
VERMASSUNG
100
AcDbTrace
 10
232.3357639977
 20
111.456702647
 30
0.0
 11
235.3089887739
 21
110.8546773736
 31
0.0
 12
235.3547711378
 22
111.753512161
 32
0.0
 13
235.3547711378
 23
111.753512161
 33
0.0
  0
SOLID
  5
24F
330
248
100
AcDbEntity
  8
VERMASSUNG
100
AcDbTrace
 10
229.777307143
 20
111.3450657971
 30
0.0
 11
226.743921309
 21
111.3777824909
 31
0.0
 12
226.8678209221
 22
110.4863516827
 32
0.0
 13
226.8678209221
 23
110.4863516827
 33
0.0
  0
MTEXT
  5
250
330
248
100
AcDbEntity
  8
VERMASSUNG
100
AcDbMText
 10
223.3182205084
 20
112.7862182659
 30
0.0
 40
2.0
 41
0.0
 71
     1
 72
     1
  1
5°
  7
SLDTEXTSTYLE0
 11
0.970123507567864
 21
0.2426115827082962
 31
0.0
 73
     1
 44
1.0
  0
ENDBLK
  5
24A
330
248
100
AcDbEntity
  8
0
100
AcDbBlockEnd
  0
BLOCK
  5
295
330
294
100
AcDbEntity
  8
0
100
AcDbBlockBegin
  2
_D_5
 70
     0
 10
0.0
 20
0.0
 30
0.0
  3
_D_5
  1

  0
SOLID
  5
297
330
294
100
AcDbEntity
  8
VERMASSUNG
100
AcDbTrace
 10
46.0122959739
 20
90.3080728677
 30
0.0
 11
46.4622959739
 21
93.3080728677
 31
0.0
 12
45.5622959739
 22
93.3080728677
 32
0.0
 13
45.5622959739
 23
93.3080728677
 33
0.0
  0
SOLID
  5
298
330
294
100
AcDbEntity
  8
VERMASSUNG
100
AcDbTrace
 10
46.0122959739
 20
140.3080728677
 30
0.0
 11
45.5622959739
 21
137.3080728677
 31
0.0
 12
46.4622959739
 22
137.3080728677
 32
0.0
 13
46.4622959739
 23
137.3080728677
 33
0.0
  0
LINE
  5
299
330
294
100
AcDbEntity
  8
VERMASSUNG
100
AcDbLine
 10
76.0122959739
 20
90.3080728677
 30
0.0
 11
45.0122959739
 21
90.3080728677
 31
0.0
  0
LINE
  5
29A
330
294
100
AcDbEntity
  8
VERMASSUNG
100
AcDbLine
 10
76.0122959739
 20
140.3080728677
 30
0.0
 11
45.0122959739
 21
140.3080728677
 31
0.0
  0
LINE
  5
29B
330
294
100
AcDbEntity
  8
VERMASSUNG
100
AcDbLine
 10
46.0122959739
 20
90.3080728677
 30
0.0
 11
46.0122959739
 21
140.3080728677
 31
0.0
  0
MTEXT
  5
29C
330
294
100
AcDbEntity
  8
VERMASSUNG
100
AcDbMText
 10
43.4122959739
 20
112.1055368795
 30
0.0
 40
2.0
 41
0.0
 71
     1
 72
     1
  1
%%c
  7
SLDTEXTSTYLE0
 11
6.123233995736766E-17
 21
1.0
 31
0.0
 73
     1
 44
1.0
  0
MTEXT
  5
29D
330
294
100
AcDbEntity
  8
VERMASSUNG
100
AcDbMText
 10
43.4122960903
 20
115.7140281337
 30
0.0
 40
2.0
 41
0.0
 71
     1
 72
     1
  1
50
  7
SLDTEXTSTYLE0
 11
6.123233995736766E-17
 21
1.0
 31
0.0
 73
     1
 44
1.0
  0
ENDBLK
  5
296
330
294
100
AcDbEntity
  8
0
100
AcDbBlockEnd
  0
BLOCK
  5
29F
330
29E
100
AcDbEntity
  8
0
100
AcDbBlockBegin
  2
SW_CENTERMARKSYMBOL_0
 70
     0
 10
0.0
 20
0.0
 30
0.0
  3
SW_CENTERMARKSYMBOL_0
  1

  0
LINE
  5
2A1
330
29E
100
AcDbEntity
  8
VERMASSUNG
 62
     0
100
AcDbLine
 10
0.0
 20
0.0
 30
0.0
 11
0.0
 21
2.5
 31
0.0
  0
LINE
  5
2A2
330
29E
100
AcDbEntity
  8
VERMASSUNG
 62
     0
100
AcDbLine
 10
0.0
 20
0.0
 30
0.0
 11
-2.5
 21
0.0
 31
0.0
  0
LINE
  5
2A3
330
29E
100
AcDbEntity
  8
VERMASSUNG
 62
     0
100
AcDbLine
 10
0.0
 20
0.0
 30
0.0
 11
0.0
 21
-2.5
 31
0.0
  0
LINE
  5
2A4
330
29E
100
AcDbEntity
  8
VERMASSUNG
 62
     0
100
AcDbLine
 10
0.0
 20
0.0
 30
0.0
 11
2.5
 21
0.0
 31
0.0
  0
LINE
  5
2A5
330
29E
100
AcDbEntity
  8
VERMASSUNG
 62
     0
100
AcDbLine
 10
0.0
 20
5.0
 30
0.0
 11
0.0
 21
22.5
 31
0.0
  0
LINE
  5
2A6
330
29E
100
AcDbEntity
  8
VERMASSUNG
 62
     0
100
AcDbLine
 10
-5.0
 20
0.0
 30
0.0
 11
-22.5
 21
0.0
 31
0.0
  0
LINE
  5
2A7
330
29E
100
AcDbEntity
  8
VERMASSUNG
 62
     0
100
AcDbLine
 10
0.0
 20
-5.0
 30
0.0
 11
0.0
 21
-22.5
 31
0.0
  0
LINE
  5
2A8
330
29E
100
AcDbEntity
  8
VERMASSUNG
 62
     0
100
AcDbLine
 10
5.0
 20
0.0
 30
0.0
 11
22.5
 21
0.0
 31
0.0
  0
ENDBLK
  5
2A0
330
29E
100
AcDbEntity
  8
0
100
AcDbBlockEnd
  0
ENDSEC
  0
SECTION
  2
ENTITIES
  0
MTEXT
  5
4B
330
1F
100
AcDbEntity
  8
KOPF_DÜNN
100
AcDbMText
 10
13.8892156294
 20
23.8770940835
 30
0.0
 40
3.0
 41
0.0
 71
     1
 72
     1
  1
HA4.KCC.LLA.055
  7
SLDTEXTSTYLE0
 73
     1
 44
1.0
  0
MTEXT
  5
4C
330
1F
100
AcDbEntity
  8
VERMASSUNG
100
AcDbMText
 10
13.9329988022
 20
28.9162328764
 30
0.0
 40
3.0
 41
0.0
 71
     1
 72
     1
  1
Klemmhalter links_Turning tool left 95° /80° /95°
  7
SLDTEXTSTYLE0
 73
     1
 44
1.0
  0
MTEXT
  5
4D
330
1F
100
AcDbEntity
  8
VERMASSUNG
100
AcDbMText
 10
98.8601118557
 20
13.8584013384
 30
0.0
 40
2.0
 41
0.0
 71
     1
 72
     1
  1
Datum: 12.11.2008
  7
SLDTEXTSTYLE0
 73
     1
 44
1.0
  0
MTEXT
  5
4E
330
1F
100
AcDbEntity
  8
VERMASSUNG
100
AcDbMText
 10
13.933048693
 20
18.0701447943
 30
0.0
 40
2.0
 41
0.0
 71
     1
 72
     1
  1
DIN 69893 HSK 40 A ICTM  / CC.. 12 04..
  7
SLDTEXTSTYLE0
 73
     1
 44
1.0
  0
MTEXT
  5
4F
330
1F
100
AcDbEntity
  8
VERMASSUNG
100
AcDbMText
 10
13.9808475933
 20
13.9309618897
 30
0.0
 40
2.0
 41
0.0
 71
     1
 72
     1
  1
Gewicht: 344g
  7
SLDTEXTSTYLE0
 73
     1
 44
1.0
  0
LINE
  5
50
330
1F
100
AcDbEntity
  8
0
  6
SLD-Durchgehend
 62
     7
370
    15
100
AcDbLine
 10
226.683883644
 20
97.7637805048
 30
0.0
 11
226.683883644
 21
97.7078955623
 31
0.0
  0
LINE
  5
51
330
1F
100
AcDbEntity
  8
0
  6
SLD-Durchgehend
 62
     7
370
    15
100
AcDbLine
 10
223.9316168197
 20
96.8537572774
 30
0.0
 11
223.9316168197
 21
96.9096776101
 31
0.0
  0
LINE
  5
52
330
1F
100
AcDbEntity
  8
0
  6
SLD-Durchgehend
 62
     7
370
    15
100
AcDbLine
 10
228.8106295236
 20
97.295444459
 30
0.0
 11
228.8106295236
 21
97.302425653
 31
0.0
  0
LINE
  5
53
330
1F
100
AcDbEntity
  8
0
  6
SLD-Durchgehend
 62
     7
370
    15
100
AcDbLine
 10
221.8106265136
 20
97.302425653
 30
0.0
 11
221.8106265136
 21
97.295444459
 31
0.0
  0
LINE
  5
54
330
1F
100
AcDbEntity
  8
0
  6
SLD-Durchgehend
 62
     7
370
    15
100
AcDbLine
 10
177.6357640119
 20
97.2571391615
 30
0.0
 11
185.2857644626
 21
97.2571391615
 31
0.0
  0
LINE
  5
55
330
1F
100
AcDbEntity
  8
0
  6
SLD-Durchgehend
 62
     7
370
    15
100
AcDbLine
 10
185.3012914725
 20
137.2571382675
 30
0.0
 11
177.6357640119
 21
137.2571382675
 31
0.0
  0
ARC
  5
56
330
1F
100
AcDbEntity
  8
0
  6
SLD-Durchgehend
 62
     7
370
    15
100
AcDbCircle
 10
177.6357639977
 20
97.5571387145
 30
0.0
 40
0.3000000000000114
100
AcDbArc
 50
180.0
 51
270.0
  0
ARC
  5
57
330
1F
100
AcDbEntity
  8
0
  6
SLD-Durchgehend
 62
     7
370
    15
100
AcDbCircle
 10
177.6357639977
 20
136.9571387145
 30
0.0
 40
0.3000000000000114
100
AcDbArc
 50
90.0
 51
180.0
  0
ARC
  5
58
330
1F
100
AcDbEntity
  8
0
  6
SLD-Durchgehend
 62
     7
370
    15
100
AcDbCircle
 10
198.2857639977
 20
99.7571387145
 30
0.0
 40
1.000000000000015
100
AcDbArc
 50
90.0
 51
143.1137328946
  0
ARC
  5
59
330
1F
100
AcDbEntity
  8
0
  6
SLD-Durchgehend
 62
     7
370
    15
100
AcDbCircle
 10
198.2857639977
 20
134.7571387145
 30
0.0
 40
1.000000000000012
100
AcDbArc
 50
216.8997536805
 51
270.0
  0
LINE
  5
5A
330
1F
100
AcDbEntity
  8
0
  6
SLD-Durchgehend
 62
     7
370
    15
100
AcDbLine
 10
198.2857647308
 20
100.7571388039
 30
0.0
 11
211.5684363016
 21
100.7571388039
 31
0.0
  0
LINE
  5
5B
330
1F
100
AcDbEntity
  8
0
  6
SLD-Durchgehend
 62
     7
370
    15
100
AcDbLine
 10
211.5684363016
 20
133.7571386251
 30
0.0
 11
198.2857647308
 21
133.7571386251
 31
0.0
  0
ARC
  5
5C
330
1F
100
AcDbEntity
  8
0
  6
SLD-Durchgehend
 62
     7
370
    15
100
AcDbCircle
 10
176.835757245
 20
101.803431561
 30
0.0
 40
0.60000675266771
100
AcDbArc
 50
33.5571153394
 51
90.0
  0
ARC
  5
5D
330
1F
100
AcDbEntity
  8
0
  6
SLD-Durchgehend
 62
     7
370
    15
100
AcDbCircle
 10
176.835757245
 20
132.710845868
 30
0.0
 40
0.6000067526677242
100
AcDbArc
 50
270.0
 51
326.4428846606
  0
LINE
  5
5E
330
1F
100
AcDbEntity
  8
0
  6
SLD-Durchgehend
 62
     7
370
    15
100
AcDbLine
 10
175.3357639027
 20
102.1534381437
 30
0.0
 11
176.1924758975
 21
102.3829933259
 31
0.0
  0
LINE
  5
5F
330
1F
100
AcDbEntity
  8
0
  6
SLD-Durchgehend
 62
     7
370
    15
100
AcDbLine
 10
176.1924758975
 20
132.1312841031
 30
0.0
 11
175.3357639027
 21
132.3608392852
 31
0.0
  0
LINE
  5
60
330
1F
100
AcDbEntity
  8
0
  6
SLD-Durchgehend
 62
     7
370
    15
100
AcDbLine
 10
168.5198309787
 20
132.0193596187
 30
0.0
 11
161.0357637473
 21
131.6444063562
 31
0.0
  0
LINE
  5
61
330
1F
100
AcDbEntity
  8
0
  6
SLD-Durchgehend
 62
     7
370
    15
100
AcDbLine
 10
175.3357639027
 20
132.3608392852
 30
0.0
 11
174.1010313344
 21
132.2989789772
 31
0.0
  0
LINE
  5
62
330
1F
100
AcDbEntity
  8
0
  6
SLD-Durchgehend
 62
     7
370
    15
100
AcDbLine
 10
174.1020273839
 20
102.2152490917
 30
0.0
 11
175.3357639027
 21
102.1534381437
 31
0.0
  0
LINE
  5
63
330
1F
100
AcDbEntity
  8
0
  6
SLD-Durchgehend
 62
     7
370
    15
100
AcDbLine
 10
163.5357641571
 20
102.7446202937
 30
0.0
 11
168.5202938461
 21
102.4948945272
 31
0.0
  0
ARC
  5
64
330
1F
100
AcDbEntity
  8
0
  6
SLD-Durchgehend
 62
     7
370
    15
100
AcDbCircle
 10
176.3477690871
 20
101.803431561
 30
0.0
 40
0.60000675266771
100
AcDbArc
 50
90.0
 51
105.0
  0
ARC
  5
65
330
1F
100
AcDbEntity
  8
0
  6
SLD-Durchgehend
 62
     7
370
    15
100
AcDbCircle
 10
176.3477690871
 20
132.710845868
 30
0.0
 40
0.6000067526677242
100
AcDbArc
 50
255.0
 51
270.0
  0
LINE
  5
66
330
1F
100
AcDbEntity
  8
0
  6
SLD-Durchgehend
 62
     7
370
    15
100
AcDbLine
 10
176.3477690474
 20
102.4034386504
 30
0.0
 11
176.8357572218
 21
102.4034386504
 31
0.0
  0
LINE
  5
67
330
1F
100
AcDbEntity
  8
0
  6
SLD-Durchgehend
 62
     7
370
    15
100
AcDbLine
 10
176.8357572218
 20
132.1108387786
 30
0.0
 11
176.3477690474
 21
132.1108387786
 31
0.0
  0
ARC
  5
68
330
1F
100
AcDbEntity
  8
0
  6
SLD-Durchgehend
 62
     7
370
    15
100
AcDbCircle
 10
160.1357639977
 20
131.0371387145
 30
0.0
 40
0.9000000000000341
100
AcDbArc
 50
270.0
 51
311.1792132368
  0
ARC
  5
69
330
1F
100
AcDbEntity
  8
0
  6
SLD-Durchgehend
 62
     7
370
    15
100
AcDbCircle
 10
162.6357639977
 20
103.5361387145
 30
0.0
 40
0.8999999999999915
100
AcDbArc
 50
29.8499024808
 51
90.0
  0
LINE
  5
6A
330
1F
100
AcDbEntity
  8
0
  6
SLD-Durchgehend
 62
     7
370
    15
100
AcDbLine
 10
158.3857635924
 20
130.1371390003
 30
0.0
 11
157.4357642748
 21
129.1871387514
 31
0.0
  0
LINE
  5
6B
330
1F
100
AcDbEntity
  8
0
  6
SLD-Durchgehend
 62
     7
370
    15
100
AcDbLine
 10
160.1357634135
 20
130.1371390003
 30
0.0
 11
158.3857635924
 21
130.1371390003
 31
0.0
  0
LINE
  5
6C
330
1F
100
AcDbEntity
  8
0
  6
SLD-Durchgehend
 62
     7
370
    15
100
AcDbLine
 10
158.3857635924
 20
104.4361386451
 30
0.0
 11
162.6357638233
 21
104.4361386451
 31
0.0
  0
LINE
  5
6D
330
1F
100
AcDbEntity
  8
0
  6
SLD-Durchgehend
 62
     7
370
    15
100
AcDbLine
 10
157.4357642748
 20
105.386138894
 30
0.0
 11
158.3857635924
 21
104.4361386451
 31
0.0
  0
ARC
  5
6E
330
1F
100
AcDbEntity
  8
0
  6
SLD-Durchgehend
 62
     7
370
    15
100
AcDbCircle
 10
211.5684370097
 20
134.7571387145
 30
0.0
 40
1.0
100
AcDbArc
 50
270.0
 51
330.0
  0
ARC
  5
6F
330
1F
100
AcDbEntity
  8
0
  6
SLD-Durchgehend
 62
     7
370
    15
100
AcDbCircle
 10
211.5684370097
 20
99.7571387145
 30
0.0
 40
1.000000000000014
100
AcDbArc
 50
89.6116197036
 51
90.0
  0
LINE
  5
70
330
1F
100
AcDbEntity
  8
0
  6
SLD-Durchgehend
 62
     7
370
    15
100
AcDbLine
 10
215.5493299433
 20
134.2571396384
 30
0.0
 11
212.4344619878
 21
134.2571396384
 31
0.0
  0
LINE
  5
71
330
1F
100
AcDbEntity
  8
0
  6
SLD-Durchgehend
 62
     7
370
    15
100
AcDbLine
 10
218.4465366372
 20
103.7048278379
 30
0.0
 11
219.4996911057
 21
91.6745662692
 31
0.0
  0
ARC
  5
72
330
1F
100
AcDbEntity
  8
0
  6
SLD-Durchgehend
 62
     7
370
    15
100
AcDbCircle
 10
218.8449061298
 20
103.7395557958
 30
0.0
 40
0.3998803367259195
100
AcDbArc
 50
84.9828397048
 51
184.9821783303
  0
LINE
  5
73
330
1F
100
AcDbEntity
  8
0
  6
SLD-Durchgehend
 62
     7
370
    15
100
AcDbLine
 10
230.9174749025
 20
103.085392155
 30
0.0
 11
218.8798773059
 21
104.137904011
 31
0.0
  0
ARC
  5
74
330
1F
100
AcDbEntity
  8
0
  6
SLD-Durchgehend
 62
     7
370
    15
100
AcDbCircle
 10
230.8827399006
 20
102.6870215781
 30
0.0
 40
0.3998820288150107
100
AcDbArc
 50
5.0179609017
 51
85.0168296923
  0
LINE
  5
75
330
1F
100
AcDbEntity
  8
0
  6
SLD-Durchgehend
 62
     7
370
    15
100
AcDbLine
 10
232.3342400559
 20
90.6917359683
 30
0.0
 11
231.2810893127
 21
102.7219984683
 31
0.0
  0
ARC
  5
76
330
1F
100
AcDbEntity
  8
0
  6
SLD-Durchgehend
 62
     7
370
    15
100
AcDbCircle
 10
231.9358786203
 20
90.6570002494
 30
0.0
 40
0.3998729842778057
100
AcDbArc
 50
264.9821241627
 51
4.9833864279
  0
LINE
  5
77
330
1F
100
AcDbEntity
  8
0
  6
SLD-Durchgehend
 62
     7
370
    15
100
AcDbLine
 10
219.8633055159
 20
91.3111716512
 30
0.0
 11
231.9009031125
 21
90.2586597952
 31
0.0
  0
ARC
  5
78
330
1F
100
AcDbEntity
  8
0
  6
SLD-Durchgehend
 62
     7
370
    15
100
AcDbCircle
 10
219.898038068
 20
91.7095396872
 30
0.0
 40
0.3998792846755657
100
AcDbArc
 50
185.0174959948
 51
265.017147759
  0
ARC
  5
79
330
1F
100
AcDbEntity
  8
0
  6
SLD-Durchgehend
 62
     7
370
    15
100
AcDbCircle
 10
231.9358716403
 20
90.6569971036
 30
0.0
 40
0.3798813834508356
100
AcDbArc
 50
264.9823996696
 51
4.9831109678
  0
LINE
  5
7A
330
1F
100
AcDbEntity
  8
0
  6
SLD-Durchgehend
 62
     7
370
    15
100
AcDbLine
 10
232.3143172034
 20
90.6899943951
 30
0.0
 11
231.2611664602
 21
102.7202559638
 31
0.0
  0
ARC
  5
7B
330
1F
100
AcDbEntity
  8
0
  6
SLD-Durchgehend
 62
     7
370
    15
100
AcDbCircle
 10
230.882737234
 20
102.687031072
 30
0.0
 40
0.3798849465496566
100
AcDbArc
 50
5.0175228579
 51
85.0173989878
  0
LINE
  5
7C
330
1F
100
AcDbEntity
  8
0
  6
SLD-Durchgehend
 62
     7
370
    15
100
AcDbLine
 10
230.9157314666
 20
103.0654804784
 30
0.0
 11
218.87813387
 21
104.1179923344
 31
0.0
  0
ARC
  5
7D
330
1F
100
AcDbEntity
  8
0
  6
SLD-Durchgehend
 62
     7
370
    15
100
AcDbCircle
 10
218.8449089277
 20
103.7395665529
 30
0.0
 40
0.3798815195136284
100
AcDbArc
 50
84.9824241268
 51
184.9830865106
  0
LINE
  5
7E
330
1F
100
AcDbEntity
  8
0
  6
SLD-Durchgehend
 62
     7
370
    15
100
AcDbLine
 10
218.466463215
 20
103.7065694112
 30
0.0
 11
219.5196139582
 21
91.6763078424
 31
0.0
  0
ARC
  5
7F
330
1F
100
AcDbEntity
  8
0
  6
SLD-Durchgehend
 62
     7
370
    15
100
AcDbCircle
 10
219.8980448641
 20
91.709534415
 30
0.0
 40
0.3798867668781091
100
AcDbArc
 50
185.0177532301
 51
265.0171686156
  0
LINE
  5
80
330
1F
100
AcDbEntity
  8
0
  6
SLD-Durchgehend
 62
     7
370
    15
100
AcDbLine
 10
219.8650489517
 20
91.3310833278
 30
0.0
 11
231.9026465484
 21
90.2785714719
 31
0.0
  0
LINE
  5
81
330
1F
100
AcDbEntity
  8
0
  6
SLD-Durchgehend
 62
     7
370
    15
100
AcDbLine
 10
230.3089152046
 20
102.1339921284
 30
0.0
 11
230.8826099106
 21
102.6948140937
 31
0.0
  0
LINE
  5
82
330
1F
100
AcDbEntity
  8
0
  6
SLD-Durchgehend
 62
     7
370
    15
100
AcDbLine
 10
219.7640153536
 20
102.8457172218
 30
0.0
 11
218.8450160392
 21
103.7473250183
 31
0.0
  0
LINE
  5
83
330
1F
100
AcDbEntity
  8
0
  6
SLD-Durchgehend
 62
     7
370
    15
100
AcDbLine
 10
220.4718614885
 20
92.302931473
 30
0.0
 11
219.8981705078
 21
91.7170625183
 31
0.0
  0
LINE
  5
84
330
1F
100
AcDbEntity
  8
0
  6
SLD-Durchgehend
 62
     7
370
    15
100
AcDbLine
 10
231.0167650648
 20
91.59982577
 30
0.0
 11
231.9357643791
 21
90.664552525
 31
0.0
  0
ARC
  5
85
330
1F
100
AcDbEntity
  8
0
  6
SLD-Durchgehend
 62
     7
370
    15
100
AcDbCircle
 10
221.7269039195
 20
100.8589822526
 30
0.0
 40
0.9996962560607604
100
AcDbArc
 50
84.9825264858
 51
184.9824915493
  0
LINE
  5
86
330
1F
100
AcDbEntity
  8
0
  6
SLD-Durchgehend
 62
     7
370
    15
100
AcDbLine
 10
228.5513418683
 20
101.2657955292
 30
0.0
 11
221.8143369027
 21
101.8548477444
 31
0.0
  0
ARC
  5
87
330
1F
100
AcDbEntity
  8
0
  6
SLD-Durchgehend
 62
     7
370
    15
100
AcDbCircle
 10
228.4645129196
 20
100.2698717468
 30
0.0
 40
0.9997016788674253
100
AcDbArc
 50
5.0176909807
 51
85.0173049749
  0
LINE
  5
88
330
1F
100
AcDbEntity
  8
0
  6
SLD-Durchgehend
 62
     7
370
    15
100
AcDbLine
 10
220.730985231
 20
100.7721573117
 30
0.0
 11
221.3203969368
 21
94.0392538908
 31
0.0
  0
LINE
  5
89
330
1F
100
AcDbEntity
  8
0
  6
SLD-Durchgehend
 62
     7
370
    15
100
AcDbLine
 10
230.0497951873
 20
93.6244074258
 30
0.0
 11
229.4603834816
 21
100.3573089841
 31
0.0
  0
ARC
  5
8A
330
1F
100
AcDbEntity
  8
0
  6
SLD-Durchgehend
 62
     7
370
    15
100
AcDbCircle
 10
229.0538780642
 20
93.5375809187
 30
0.0
 40
0.9996948326577457
100
AcDbArc
 50
264.9824292627
 51
4.9825887725
  0
LINE
  5
8B
330
1F
100
AcDbEntity
  8
0
  6
SLD-Durchgehend
 62
     7
370
    15
100
AcDbLine
 10
222.2294348248
 20
93.1307692084
 30
0.0
 11
228.9664435157
 21
92.5417169931
 31
0.0
  0
ARC
  5
8C
330
1F
100
AcDbEntity
  8
0
  6
SLD-Durchgehend
 62
     7
370
    15
100
AcDbCircle
 10
222.3162627383
 20
94.1266880507
 30
0.0
 40
0.999696667530998
100
AcDbArc
 50
185.017539141
 51
265.0173394857
  0
CIRCLE
  5
8D
330
1F
100
AcDbEntity
  8
0
  6
SLD-Durchgehend
 62
     7
370
    15
100
AcDbCircle
 10
225.3898823414
 20
97.1998682527
 30
0.0
 40
3.799238885276333
  0
CIRCLE
  5
8E
330
1F
100
AcDbEntity
  8
0
  6
SLD-Durchgehend
 62
     7
370
    15
100
AcDbCircle
 10
225.3898823414
 20
97.2400026678
 30
0.0
 40
3.799238885276333
  0
ARC
  5
8F
330
1F
100
AcDbEntity
  8
0
  6
SLD-Durchgehend
 62
     7
370
    15
100
AcDbCircle
 10
198.0671077843
 20
80.7627886161
 30
0.0
 40
30.95822239518154
100
AcDbArc
 50
44.2224036132
 51
45.5051824077
  0
ARC
  5
90
330
1F
100
AcDbEntity
  8
0
  6
SLD-Durchgehend
 62
     7
370
    15
100
AcDbCircle
 10
250.5246550638
 20
81.4870505637
 30
0.0
 40
28.89588783941614
100
AcDbArc
 50
134.3954111672
 51
135.7733442975
  0
ARC
  5
91
330
1F
100
AcDbEntity
  8
0
  6
SLD-Durchgehend
 62
     7
370
    15
100
AcDbCircle
 10
240.8413414908
 20
72.3388532964
 30
0.0
 40
28.52157311591975
100
AcDbArc
 50
134.1848049261
 51
135.5758736028
  0
ARC
  5
92
330
1F
100
AcDbEntity
  8
0
  6
SLD-Durchgehend
 62
     7
370
    15
100
AcDbCircle
 10
209.4269334138
 20
70.3687739798
 30
0.0
 40
30.27999984869784
100
AcDbArc
 50
44.5199517353
 51
45.8244276906
  0
CIRCLE
  5
93
330
1F
100
AcDbEntity
  8
0
  6
SLD-Durchgehend
 62
     7
370
    15
100
AcDbCircle
 10
225.3095793725
 20
97.296917132
 30
0.0
 40
3.499145916315286
  0
CIRCLE
  5
94
330
1F
100
AcDbEntity
  8
0
  6
SLD-Durchgehend
 62
     7
370
    15
100
AcDbCircle
 10
225.3098158964
 20
97.2790942526
 30
0.0
 40
2.63331623335535
  0
CIRCLE
  5
95
330
1F
100
AcDbEntity
  8
0
  6
SLD-Durchgehend
 62
     7
370
    15
100
AcDbCircle
 10
225.3099995066
 20
97.2788250985
 30
0.0
 40
1.999492283676677
  0
ARC
  5
96
330
1F
100
AcDbEntity
  8
0
  6
SLD-Durchgehend
 62
     7
370
    15
100
AcDbCircle
 10
226.8070815653
 20
96.783310505
 30
0.0
 40
0.393623905289533
100
AcDbArc
 50
264.8200288604
 51
58.534497198
  0
ARC
  5
97
330
1F
100
AcDbEntity
  8
0
  6
SLD-Durchgehend
 62
     7
370
    15
100
AcDbCircle
 10
227.3733656146
 20
97.7063534896
 30
0.0
 40
0.6892827379911258
100
AcDbArc
 50
144.9548934882
 51
238.4347572136
  0
ARC
  5
98
330
1F
100
AcDbEntity
  8
0
  6
SLD-Durchgehend
 62
     7
370
    15
100
AcDbCircle
 10
226.4857292308
 20
98.327562806
 30
0.0
 40
0.3941384820583455
100
AcDbArc
 50
325.1170335785
 51
118.2935082107
  0
ARC
  5
99
330
1F
100
AcDbEntity
  8
0
  6
SLD-Durchgehend
 62
     7
370
    15
100
AcDbCircle
 10
225.9719872268
 20
99.2855507375
 30
0.0
 40
0.6929095324637734
100
AcDbArc
 50
205.2451184686
 51
298.1521586206
  0
ARC
  5
9A
330
1F
100
AcDbEntity
  8
0
  6
SLD-Durchgehend
 62
     7
370
    15
100
AcDbCircle
 10
224.9883561358
 20
98.8220771696
 30
0.0
 40
0.3944441505809378
100
AcDbArc
 50
25.2011665194
 51
178.1616727422
  0
ARC
  5
9B
330
1F
100
AcDbEntity
  8
0
  6
SLD-Durchgehend
 62
     7
370
    15
100
AcDbCircle
 10
223.9022920707
 20
98.8567575163
 30
0.0
 40
0.6921734905371375
100
AcDbArc
 50
265.1651772425
 51
358.1763855629
  0
ARC
  5
9C
330
1F
100
AcDbEntity
  8
0
  6
SLD-Durchgehend
 62
     7
370
    15
100
AcDbCircle
 10
223.809457706
 20
97.7746863649
 30
0.0
 40
0.3938740134925182
100
AcDbArc
 50
84.9755844692
 51
238.3794701964
  0
ARC
  5
9D
330
1F
100
AcDbEntity
  8
0
  6
SLD-Durchgehend
 62
     7
370
    15
100
AcDbCircle
 10
223.24338645
 20
96.8522487769
 30
0.0
 40
0.6884056288709641
100
AcDbArc
 50
324.8770997315
 51
58.5121345859
  0
ARC
  5
9E
330
1F
100
AcDbEntity
  8
0
  6
SLD-Durchgehend
 62
     7
370
    15
100
AcDbCircle
 10
224.1279632479
 20
96.2291691888
 30
0.0
 40
0.3935856605705162
100
AcDbArc
 50
144.7746697208
 51
298.6362877068
  0
ARC
  5
9F
330
1F
100
AcDbEntity
  8
0
  6
SLD-Durchgehend
 62
     7
370
    15
100
AcDbCircle
 10
224.6464696297
 20
95.2817289126
 30
0.0
 40
0.6864571839032722
100
AcDbArc
 50
24.6755372658
 51
118.7217398235
  0
ARC
  5
A0
330
1F
100
AcDbEntity
  8
0
  6
SLD-Durchgehend
 62
     7
370
    15
100
AcDbCircle
 10
225.6278548219
 20
95.7328179894
 30
0.0
 40
0.3936346243591154
100
AcDbArc
 50
204.7032958234
 51
358.6596561226
  0
ARC
  5
A1
330
1F
100
AcDbEntity
  8
0
  6
SLD-Durchgehend
 62
     7
370
    15
100
AcDbCircle
 10
226.7078025384
 20
95.7076529863
 30
0.0
 40
0.6866062532587794
100
AcDbArc
 50
84.6732913688
 51
178.6682714365
  0
LWPOLYLINE
  5
A2
330
1F
100
AcDbEntity
  8
0
  6
SLD-Durchgehend
 62
     7
370
    15
100
AcDbPolyline
 90
        3
 70
   128
 43
0.0
 10
226.8805752464
 20
98.3859337869
 10
226.8655399748
 20
98.2781946662
 10
226.8090496727
 20
98.1596969071
  0
ARC
  5
A3
330
1F
100
AcDbEntity
  8
0
  6
SLD-Durchgehend
 62
     7
370
    15
100
AcDbCircle
 10
223.8087798848
 20
97.832396953
 30
0.0
 40
0.3936335867396253
100
AcDbArc
 50
179.9997763606
 51
238.4737377726
  0
ARC
  5
A4
330
1F
100
AcDbEntity
  8
0
  6
SLD-Durchgehend
 62
     7
370
    15
100
AcDbCircle
 10
227.3726610223
 20
97.7637720107
 30
0.0
 40
0.6887773784077857
100
AcDbArc
 50
144.9127808416
 51
179.9992934237
  0
ARC
  5
A5
330
1F
100
AcDbEntity
  8
0
  6
SLD-Durchgehend
 62
     7
370
    15
100
AcDbCircle
 10
223.2426202353
 20
96.9096015559
 30
0.0
 40
0.6889965886753275
100
AcDbArc
 50
0.0063245332
 51
58.4675051182
  0
ARC
  5
A6
330
1F
100
AcDbEntity
  8
0
  6
SLD-Durchgehend
 62
     7
370
    15
100
AcDbCircle
 10
226.8064426413
 20
96.8412031052
 30
0.0
 40
0.3939115505316763
100
AcDbArc
 50
264.9171291311
 51
359.979130382
  0
ARC
  5
A7
330
1F
100
AcDbEntity
  8
0
  6
SLD-Durchgehend
 62
     7
370
    15
100
AcDbCircle
 10
224.1289121671
 20
96.287737363
 30
0.0
 40
0.3940069549017876
100
AcDbArc
 50
186.2237517143
 51
298.4457862913
  0
LINE
  5
A8
330
1F
100
AcDbEntity
  8
0
  6
SLD-Durchgehend
 62
     7
370
    15
100
AcDbLine
 10
226.0213817426
 20
95.7811642441
 30
0.0
 11
226.0213817426
 21
95.7236103716
 31
0.0
  0
ARC
  5
A9
330
1F
100
AcDbEntity
  8
0
  6
SLD-Durchgehend
 62
     7
370
    15
100
AcDbCircle
 10
226.7104677757
 20
95.7622047268
 30
0.0
 40
0.6893468098733476
100
AcDbArc
 50
84.9169665692
 51
178.4239611907
  0
ARC
  5
AA
330
1F
100
AcDbEntity
  8
0
  6
SLD-Durchgehend
 62
     7
370
    15
100
AcDbCircle
 10
225.627501171
 20
95.7920923306
 30
0.0
 40
0.3940321404669956
100
AcDbArc
 50
204.9508341819
 51
358.4107552048
  0
ARC
  5
AB
330
1F
100
AcDbEntity
  8
0
  6
SLD-Durchgehend
 62
     7
370
    15
100
AcDbCircle
 10
224.6449872323
 20
95.334828007
 30
0.0
 40
0.6896764505217445
100
AcDbArc
 50
24.9611207266
 51
118.4351476328
  0
ARC
  5
AC
330
1F
100
AcDbEntity
  8
0
  6
SLD-Durchgehend
 62
     7
370
    15
100
AcDbCircle
 10
225.3106280186
 20
97.3007814856
 30
0.0
 40
3.500001891200888
100
AcDbArc
 50
0.0269153736
 51
179.9730846264
  0
LINE
  5
AD
330
1F
100
AcDbEntity
  8
0
  6
SLD-Durchgehend
 62
     7
370
    15
100
AcDbLine
 10
185.2857644626
 20
129.1071390736
 30
0.0
 11
191.3006042086
 21
129.1071390736
 31
0.0
  0
LINE
  5
AE
330
1F
100
AcDbEntity
  8
0
  6
SLD-Durchgehend
 62
     7
370
    15
100
AcDbLine
 10
191.3006042086
 20
98.0282537642
 30
0.0
 11
191.3006042086
 21
129.1071390736
 31
0.0
  0
LINE
  5
AF
330
1F
100
AcDbEntity
  8
0
  6
SLD-Durchgehend
 62
     7
370
    15
100
AcDbLine
 10
191.3006042086
 20
98.0282537642
 30
0.0
 11
189.7857642689
 21
98.0282537642
 31
0.0
  0
ARC
  5
B0
330
1F
100
AcDbEntity
  8
0
  6
SLD-Durchgehend
 62
     7
370
    15
100
AcDbCircle
 10
189.251414651
 20
87.3074847591
 30
0.0
 40
10.73407739745367
100
AcDbArc
 50
87.1465980851
 51
111.6813871243
  0
LINE
  5
B1
330
1F
100
AcDbEntity
  8
0
  6
SLD-Durchgehend
 62
     7
370
    15
100
AcDbLine
 10
185.2857644626
 20
97.2821544859
 30
0.0
 11
185.2857644626
 21
97.2571391615
 31
0.0
  0
LWPOLYLINE
  5
B2
330
1F
100
AcDbEntity
  8
0
  6
SLD-Durchgehend
 62
     7
370
    15
100
AcDbPolyline
 90
       11
 70
   128
 43
0.0
 10
189.7857642689
 20
136.744314805
 10
189.0517582142
 20
136.7581319067
 10
188.3177521595
 20
136.7995291951
 10
187.6458345869
 20
136.8614565584
 10
187.015606738
 20
136.9402222338
 10
186.4694717296
 20
137.0244808498
 10
186.0022085675
 20
137.1082160625
 10
185.6490603604
 20
137.1785420927
 10
185.4060308033
 20
137.2304223481
 10
185.2956867733
 20
137.2549086812
 10
185.3012914725
 20
137.2536513957
  0
LINE
  5
B3
330
1F
100
AcDbEntity
  8
0
  6
SLD-Durchgehend
 62
     7
370
    15
100
AcDbLine
 10
191.3006042086
 20
136.744314805
 30
0.0
 11
189.7857642689
 21
136.744314805
 31
0.0
  0
LINE
  5
B4
330
1F
100
AcDbEntity
  8
0
  6
SLD-Durchgehend
 62
     7
370
    15
100
AcDbLine
 10
191.3006042086
 20
133.3685480061
 30
0.0
 11
191.3006042086
 21
136.744314805
 31
0.0
  0
LINE
  5
B5
330
1F
100
AcDbEntity
  8
0
  6
SLD-Durchgehend
 62
     7
370
    15
100
AcDbLine
 10
189.7794340693
 20
133.3685480061
 30
0.0
 11
191.3006042086
 21
133.3685480061
 31
0.0
  0
ARC
  5
B6
330
1F
100
AcDbEntity
  8
0
  6
SLD-Durchgehend
 62
     7
370
    15
100
AcDbCircle
 10
189.4555215585
 20
129.2101157158
 30
0.0
 40
4.171028461616027
100
AcDbArc
 50
85.5460566573
 51
181.4146934227
  0
LINE
  5
B7
330
1F
100
AcDbEntity
  8
0
  6
SLD-Durchgehend
 62
     7
370
    15
100
AcDbLine
 10
195.3709243753
 20
98.0282537642
 30
0.0
 11
195.3709243753
 21
129.1071390736
 31
0.0
  0
LWPOLYLINE
  5
B8
330
1F
100
AcDbEntity
  8
0
  6
SLD-Durchgehend
 62
     7
370
    15
100
AcDbPolyline
 90
        3
 70
   128
 43
0.0
 10
195.3709243753
 20
98.0282537642
 10
194.4316129156
 20
99.7266080233
 10
194.3757633635
 20
99.8280160132
  0
LINE
  5
B9
330
1F
100
AcDbEntity
  8
0
  6
SLD-Durchgehend
 62
     7
370
    15
100
AcDbLine
 10
194.3757633635
 20
99.8280160132
 30
0.0
 11
194.3757633635
 21
129.1071390736
 31
0.0
  0
LINE
  5
BA
330
1F
100
AcDbEntity
  8
0
  6
SLD-Durchgehend
 62
     7
370
    15
100
AcDbLine
 10
194.3757633635
 20
129.1071390736
 30
0.0
 11
195.3709243753
 21
129.1071390736
 31
0.0
  0
LINE
  5
BB
330
1F
100
AcDbEntity
  8
0
  6
SLD-Durchgehend
 62
     7
370
    15
100
AcDbLine
 10
197.2857645669
 20
98.6531060192
 30
0.0
 11
197.2857645669
 21
129.1071390736
 31
0.0
  0
ARC
  5
BC
330
1F
100
AcDbEntity
  8
0
  6
SLD-Durchgehend
 62
     7
370
    15
100
AcDbCircle
 10
196.6745038617
 20
98.6395608369
 30
0.0
 40
0.6114107634496255
100
AcDbArc
 50
271.0552300829
 51
1.2694334473
  0
LINE
  5
BD
330
1F
100
AcDbEntity
  8
0
  6
SLD-Durchgehend
 62
     7
370
    15
100
AcDbLine
 10
196.6857637235
 20
129.1071390736
 30
0.0
 11
197.2857645669
 21
129.1071390736
 31
0.0
  0
LINE
  5
BE
330
1F
100
AcDbEntity
  8
0
  6
SLD-Durchgehend
 62
     7
370
    15
100
AcDbLine
 10
196.6857637235
 20
98.0282537642
 30
0.0
 11
195.3709243753
 21
98.0282537642
 31
0.0
  0
LINE
  5
BF
330
1F
100
AcDbEntity
  8
0
  6
SLD-Durchgehend
 62
     7
370
    15
100
AcDbLine
 10
195.3709243753
 20
129.1071390736
 30
0.0
 11
196.6857637235
 21
129.1071390736
 31
0.0
  0
LINE
  5
C0
330
1F
100
AcDbEntity
  8
0
  6
SLD-Durchgehend
 62
     7
370
    15
100
AcDbLine
 10
192.2957642891
 20
99.8280160132
 30
0.0
 11
192.2957642891
 21
129.1071390736
 31
0.0
  0
LWPOLYLINE
  5
C1
330
1F
100
AcDbEntity
  8
0
  6
SLD-Durchgehend
 62
     7
370
    15
100
AcDbPolyline
 90
        3
 70
   128
 43
0.0
 10
192.2957642891
 20
99.8280160132
 10
192.2399156683
 20
99.7266080233
 10
191.3006042086
 20
98.0282537642
  0
LINE
  5
C2
330
1F
100
AcDbEntity
  8
0
  6
SLD-Durchgehend
 62
     7
370
    15
100
AcDbLine
 10
191.3006042086
 20
129.1071390736
 30
0.0
 11
192.2957642891
 21
129.1071390736
 31
0.0
  0
LINE
  5
C3
330
1F
100
AcDbEntity
  8
0
  6
SLD-Durchgehend
 62
     7
370
    15
100
AcDbLine
 10
177.3357639977
 20
97.5571386519
 30
0.0
 11
177.3357639977
 21
136.9571387771
 31
0.0
  0
LINE
  5
C4
330
1F
100
AcDbEntity
  8
0
  6
SLD-Durchgehend
 62
     7
370
    15
100
AcDbLine
 10
192.8957642012
 20
100.3571394834
 30
0.0
 11
192.3309859776
 21
100.3571394834
 31
0.0
  0
LINE
  5
C5
330
1F
100
AcDbEntity
  8
0
  6
SLD-Durchgehend
 62
     7
370
    15
100
AcDbLine
 10
192.2957642891
 20
129.1071390736
 30
0.0
 11
192.8957642012
 21
129.1071390736
 31
0.0
  0
LINE
  5
C6
330
1F
100
AcDbEntity
  8
0
  6
SLD-Durchgehend
 62
     7
370
    15
100
AcDbLine
 10
194.3405407437
 20
100.3571394834
 30
0.0
 11
193.7757643827
 21
100.3571394834
 31
0.0
  0
LINE
  5
C7
330
1F
100
AcDbEntity
  8
0
  6
SLD-Durchgehend
 62
     7
370
    15
100
AcDbLine
 10
193.7757643827
 20
129.1071390736
 30
0.0
 11
194.3757633635
 21
129.1071390736
 31
0.0
  0
LINE
  5
C8
330
1F
100
AcDbEntity
  8
0
  6
SLD-Durchgehend
 62
     7
370
    15
100
AcDbLine
 10
197.4197390445
 20
134.1571379456
 30
0.0
 11
197.4857642271
 21
134.1571379456
 31
0.0
  0
LINE
  5
C9
330
1F
100
AcDbEntity
  8
0
  6
SLD-Durchgehend
 62
     7
370
    15
100
AcDbLine
 10
197.3888638385
 20
100.3571394834
 30
0.0
 11
197.4857642271
 21
100.3571394834
 31
0.0
  0
LINE
  5
CA
330
1F
100
AcDbEntity
  8
0
  6
SLD-Durchgehend
 62
     7
370
    15
100
AcDbLine
 10
197.3357635506
 20
117.25058238
 30
0.0
 11
197.3357635506
 21
129.1071390736
 31
0.0
  0
LINE
  5
CB
330
1F
100
AcDbEntity
  8
0
  6
SLD-Durchgehend
 62
     7
370
    15
100
AcDbLine
 10
197.4197390445
 20
117.2571387145
 30
0.0
 11
197.3357635506
 21
117.25058238
 31
0.0
  0
LINE
  5
CC
330
1F
100
AcDbEntity
  8
0
  6
SLD-Durchgehend
 62
     7
370
    15
100
AcDbLine
 10
197.4197390445
 20
117.2571387145
 30
0.0
 11
197.4197390445
 21
129.1071390736
 31
0.0
  0
LINE
  5
CD
330
1F
100
AcDbEntity
  8
0
  6
SLD-Durchgehend
 62
     7
370
    15
100
AcDbLine
 10
197.4197390445
 20
129.1071390736
 30
0.0
 11
197.6148883768
 21
129.1071390736
 31
0.0
  0
LWPOLYLINE
  5
CE
330
1F
100
AcDbEntity
  8
0
  6
SLD-Durchgehend
 62
     7
370
    15
100
AcDbPolyline
 90
        3
 70
   128
 43
0.0
 10
197.4197390445
 20
129.4463761154
 10
197.4318611392
 20
129.4178618121
 10
197.6148883768
 20
129.1071390736
  0
LINE
  5
CF
330
1F
100
AcDbEntity
  8
0
  6
SLD-Durchgehend
 62
     7
370
    15
100
AcDbLine
 10
197.4197390445
 20
129.4463761154
 30
0.0
 11
197.4197390445
 21
134.1571379456
 31
0.0
  0
LINE
  5
D0
330
1F
100
AcDbEntity
  8
0
  6
SLD-Durchgehend
 62
     7
370
    15
100
AcDbLine
 10
193.7757643827
 20
100.3571394834
 30
0.0
 11
192.8957642012
 21
100.3571394834
 31
0.0
  0
LINE
  5
D1
330
1F
100
AcDbEntity
  8
0
  6
SLD-Durchgehend
 62
     7
370
    15
100
AcDbLine
 10
192.8957642012
 20
129.1071390736
 30
0.0
 11
193.7757643827
 21
129.1071390736
 31
0.0
  0
LINE
  5
D2
330
1F
100
AcDbEntity
  8
0
  6
SLD-Durchgehend
 62
     7
370
    15
100
AcDbLine
 10
197.4197390445
 20
117.2571387145
 30
0.0
 11
197.3357635506
 21
117.2571387145
 31
0.0
  0
LINE
  5
D3
330
1F
100
AcDbEntity
  8
0
  6
SLD-Durchgehend
 62
     7
370
    15
100
AcDbLine
 10
197.3357635506
 20
129.1071390736
 30
0.0
 11
197.4197390445
 21
129.1071390736
 31
0.0
  0
ELLIPSE
  5
D4
330
1F
100
AcDbEntity
  8
0
  6
SLD-Durchgehend
 62
     7
370
    15
100
AcDbEllipse
 10
207.4550190463
 20
107.5156714423
 30
0.0
 11
-0.1866316782056856
 21
2.643744201837066
 31
0.0
210
0.0
220
0.0
230
1.0
 40
0.2269344014
 41
0.0
 42
6.283185307179586
  0
ELLIPSE
  5
D5
330
1F
100
AcDbEntity
  8
0
  6
SLD-Durchgehend
 62
     7
370
    15
100
AcDbEllipse
 10
209.5078641228
 20
117.2571387145
 30
0.0
 11
0.1662137056449922
 21
16.49993997746708
 31
0.0
210
0.0
220
0.0
230
1.0
 40
0.2677607417
 41
0.2121758551615965
 42
3.00462458172784
  0
ARC
  5
D6
330
1F
100
AcDbEntity
  8
0
  6
SLD-Durchgehend
 62
     7
370
    15
100
AcDbCircle
 10
210.7972556363
 20
112.1679697909
 30
0.0
 40
11.43672321122446
100
AcDbArc
 50
259.636979201
 51
273.8664002951
  0
ARC
  5
D7
330
1F
100
AcDbEntity
  8
0
  6
SLD-Durchgehend
 62
     7
370
    15
100
AcDbCircle
 10
210.9488247286
 20
126.4343827255
 30
0.0
 40
7.304060662522364
100
AcDbArc
 50
85.1336868959
 51
107.6026996543
  0
LINE
  5
D8
330
1F
100
AcDbEntity
  8
0
  6
SLD-Durchgehend
 62
     7
370
    15
100
AcDbLine
 10
175.3357639027
 20
102.1534381437
 30
0.0
 11
175.3357639027
 21
132.3608392852
 31
0.0
  0
LINE
  5
D9
330
1F
100
AcDbEntity
  8
0
  6
SLD-Durchgehend
 62
     7
370
    15
100
AcDbLine
 10
163.5357641571
 20
102.7446202937
 30
0.0
 11
163.5357641571
 21
103.6535622555
 31
0.0
  0
ARC
  5
DA
330
1F
100
AcDbEntity
  8
0
  6
SLD-Durchgehend
 62
     7
370
    15
100
AcDbCircle
 10
160.3972235519
 20
102.6865558638
 30
0.0
 40
3.284134359664614
100
AcDbArc
 50
17.1244326527
 51
29.8895177058
  0
LWPOLYLINE
  5
DB
330
1F
100
AcDbEntity
  8
0
  6
SLD-Durchgehend
 62
     7
370
    15
100
AcDbPolyline
 90
        7
 70
   128
 43
0.0
 10
162.6357638233
 20
104.9732649702
 10
162.6990788572
 20
104.9728123474
 10
162.7604530149
 20
104.9613719809
 10
162.8378561654
 20
104.9309046942
 10
162.9432194822
 20
104.8577977347
 10
163.1312926256
 20
104.6067159626
 10
163.2445284122
 20
104.3231356892
  0
ARC
  5
DC
330
1F
100
AcDbEntity
  8
0
  6
SLD-Durchgehend
 62
     7
370
    15
100
AcDbCircle
 10
168.3909041058
 20
30.1047666751
 30
0.0
 40
75.08937126268324
100
AcDbArc
 50
94.395681249
 51
97.5337113535
  0
LINE
  5
DD
330
1F
100
AcDbEntity
  8
0
  6
SLD-Durchgehend
 62
     7
370
    15
100
AcDbLine
 10
158.3857635924
 20
104.5266035947
 30
0.0
 11
158.5459734269
 21
104.5459583405
 31
0.0
  0
LINE
  5
DE
330
1F
100
AcDbEntity
  8
0
  6
SLD-Durchgehend
 62
     7
370
    15
100
AcDbLine
 10
158.3772475787
 20
104.5539611953
 30
0.0
 11
158.3857635924
 21
104.5266035947
 31
0.0
  0
ELLIPSE
  5
DF
330
1F
100
AcDbEntity
  8
0
  6
SLD-Durchgehend
 62
     7
370
    15
100
AcDbEllipse
 10
144.9090217898
 20
116.6178410367
 30
0.0
 11
13.37355272666622
 21
-13.37146352987013
 31
0.0
210
0.0
220
0.0
230
1.0
 40
0.1761188775
 41
0.3023035477142397
 42
0.3822730435340269
  0
ELLIPSE
  5
E0
330
1F
100
AcDbEntity
  8
0
  6
SLD-Durchgehend
 62
     7
370
    15
100
AcDbEllipse
 10
144.8296433591
 20
117.8962491658
 30
0.0
 11
13.369636111343
 21
13.36754752639484
 31
0.0
210
0.0
220
0.0
230
1.0
 40
0.1761188775
 41
5.933076931846598
 42
5.976720052691196
  0
LINE
  5
E1
330
1F
100
AcDbEntity
  8
0
  6
SLD-Durchgehend
 62
     7
370
    15
100
AcDbLine
 10
158.3857635924
 20
130.1227193329
 30
0.0
 11
158.2865963646
 21
129.9305744472
 31
0.0
  0
LWPOLYLINE
  5
E2
330
1F
100
AcDbEntity
  8
0
  6
SLD-Durchgehend
 62
     7
370
    15
100
AcDbPolyline
 90
        3
 70
   128
 43
0.0
 10
160.1357634135
 20
130.037932657
 10
159.2721293637
 20
130.0965612757
 10
158.3857635924
 20
130.1227193329
  0
ARC
  5
E3
330
1F
100
AcDbEntity
  8
0
  6
SLD-Durchgehend
 62
     7
370
    15
100
AcDbCircle
 10
159.9807987688
 20
131.1272727487
 30
0.0
 40
1.100307173752306
100
AcDbArc
 50
278.0963186522
 51
343.4942707128
  0
LINE
  5
E4
330
1F
100
AcDbEntity
  8
0
  6
SLD-Durchgehend
 62
     7
370
    15
100
AcDbLine
 10
161.0357637473
 20
130.8146631348
 30
0.0
 11
161.0357637473
 21
131.6444063562
 31
0.0
  0
LWPOLYLINE
  5
E5
330
1F
100
AcDbEntity
  8
0
  6
SLD-Durchgehend
 62
     7
370
    15
100
AcDbPolyline
 90
       18
 70
   128
 43
0.0
 10
168.5203068846
 20
102.4951720613
 10
168.5189080381
 20
102.494971827
 10
168.5742081099
 20
102.5034682828
 10
168.735236577
 20
102.5263294581
 10
168.9990066879
 20
102.5595907125
 10
169.3495322906
 20
102.5968231264
 10
169.7724076875
 20
102.6296336207
 10
170.2541338236
 20
102.650759742
 10
170.7839236551
 20
102.6540733877
 10
171.3324507655
 20
102.6365850124
 10
171.8739808493
 20
102.5974489751
 10
172.391290027
 20
102.5398494679
 10
172.8743102358
 20
102.4685930464
 10
173.2970217199
 20
102.3934213448
 10
173.6402350434
 20
102.3231763396
 10
173.894247222
 20
102.2657528523
 10
174.0504826375
 20
102.2279541942
 10
174.1020420522
 20
102.2155405956
  0
LWPOLYLINE
  5
E6
330
1F
100
AcDbEntity
  8
0
  6
SLD-Durchgehend
 62
     7
370
    15
100
AcDbPolyline
 90
       18
 70
   128
 43
0.0
 10
174.1010432088
 20
132.2987377647
 10
174.0503722758
 20
132.2860224175
 10
173.8954579414
 20
132.2485841814
 10
173.6374762331
 20
132.1904817599
 10
173.2951614031
 20
132.1202907714
 10
172.8733677373
 20
132.0452522489
 10
172.3921989978
 20
131.9743683565
 10
171.8748255589
 20
131.9168778139
 10
171.3333858133
 20
131.8777957934
 10
170.7841373936
 20
131.8602766845
 10
170.2538609461
 20
131.8635595965
 10
169.7710577355
 20
131.8847015503
 10
169.3484323987
 20
131.9175139072
 10
168.9975938716
 20
131.9548543546
 10
168.7347448387
 20
131.9880466911
 10
168.5736670115
 20
132.0108668882
 10
168.5189285272
 20
132.0193111899
 10
168.5198412233
 20
132.0191677663
  0
LWPOLYLINE
  5
E7
330
1F
100
AcDbEntity
  8
0
  6
SLD-Durchgehend
 62
     7
370
    15
100
AcDbPolyline
 90
       13
 70
   128
 43
0.0
 10
158.1957346716
 20
129.645219073
 10
158.0310116478
 20
129.2476514357
 10
157.94852627
 20
129.0886690843
 10
157.8405617692
 20
128.9114160466
 10
157.7873255082
 20
128.8365023214
 10
157.7228388705
 20
128.7577413025
 10
157.6840399721
 20
128.7175798792
 10
157.6446729668
 20
128.6835065114
 10
157.6131570109
 20
128.6621354523
 10
157.5735907026
 20
128.6450102928
 10
157.523612208
 20
128.6467052999
 10
157.4522840747
 20
128.777869046
 10
157.4357642748
 20
129.0353704247
  0
LWPOLYLINE
  5
E8
330
1F
100
AcDbEntity
  8
0
  6
SLD-Durchgehend
 62
     7
370
    15
100
AcDbPolyline
 90
       11
 70
   128
 43
0.0
 10
157.4357642748
 20
105.7096254083
 10
157.4607479342
 20
105.9616059068
 10
157.5192945965
 20
106.0410114008
 10
157.5710947581
 20
106.0416242111
 10
157.6048458883
 20
106.0273461047
 10
157.6486608901
 20
105.997716077
 10
157.6921480664
 20
105.9590112421
 10
157.7398764857
 20
105.9081209826
 10
157.8084087887
 20
105.8223443109
 10
157.9476172992
 20
105.6087678301
 10
158.1957346716
 20
105.0901534039
  0
LINE
  5
E9
330
1F
100
AcDbEntity
  8
0
  6
SLD-Durchgehend
 62
     7
370
    15
100
AcDbLine
 10
157.4357642748
 20
105.7096254083
 30
0.0
 11
157.4357642748
 21
129.0353704247
 31
0.0
  0
LINE
  5
EA
330
1F
100
AcDbEntity
  8
0
  6
SLD-Durchgehend
 62
     7
370
    15
100
AcDbLine
 10
191.3006042086
 20
133.3685480061
 30
0.0
 11
192.2957642891
 21
131.1712265018
 31
0.0
  0
LINE
  5
EB
330
1F
100
AcDbEntity
  8
0
  6
SLD-Durchgehend
 62
     7
370
    15
100
AcDbLine
 10
192.2957642891
 20
131.1712265018
 30
0.0
 11
192.2957642891
 21
130.7729855183
 31
0.0
  0
LWPOLYLINE
  5
EC
330
1F
100
AcDbEntity
  8
0
  6
SLD-Durchgehend
 62
     7
370
    15
100
AcDbPolyline
 90
        6
 70
   128
 43
0.0
 10
192.2957642891
 20
130.7729855183
 10
192.3407788345
 20
130.4682306948
 10
192.4652258822
 20
130.2120378244
 10
192.6123366647
 20
130.0612827766
 10
192.7625422322
 20
129.9846209589
 10
192.8957642012
 20
129.9641495573
  0
LINE
  5
ED
330
1F
100
AcDbEntity
  8
0
  6
SLD-Durchgehend
 62
     7
370
    15
100
AcDbLine
 10
192.8957642012
 20
129.9641495573
 30
0.0
 11
193.7757643827
 21
129.9641495573
 31
0.0
  0
ARC
  5
EE
330
1F
100
AcDbEntity
  8
0
  6
SLD-Durchgehend
 62
     7
370
    15
100
AcDbCircle
 10
193.6502223895
 20
130.6842365594
 30
0.0
 40
0.7309487551174734
100
AcDbArc
 50
279.8897062559
 51
6.9738377009
  0
LINE
  5
EF
330
1F
100
AcDbEntity
  8
0
  6
SLD-Durchgehend
 62
     7
370
    15
100
AcDbLine
 10
194.3757633635
 20
130.7729855183
 30
0.0
 11
194.3757633635
 21
131.1712265018
 31
0.0
  0
LINE
  5
F0
330
1F
100
AcDbEntity
  8
0
  6
SLD-Durchgehend
 62
     7
370
    15
100
AcDbLine
 10
194.3757633635
 20
131.1712265018
 30
0.0
 11
195.3709243753
 21
133.3685480061
 31
0.0
  0
LINE
  5
F1
330
1F
100
AcDbEntity
  8
0
  6
SLD-Durchgehend
 62
     7
370
    15
100
AcDbLine
 10
195.3709243753
 20
133.3685480061
 30
0.0
 11
196.6857637235
 21
133.3685480061
 31
0.0
  0
ARC
  5
F2
330
1F
100
AcDbEntity
  8
0
  6
SLD-Durchgehend
 62
     7
370
    15
100
AcDbCircle
 10
196.5901850181
 20
132.676993626
 30
0.0
 40
0.6981280323795389
100
AcDbArc
 50
355.1028521375
 51
82.1310855252
  0
LINE
  5
F3
330
1F
100
AcDbEntity
  8
0
  6
SLD-Durchgehend
 62
     7
370
    15
100
AcDbLine
 10
197.2857645669
 20
132.6173963028
 30
0.0
 11
197.2857645669
 21
130.1345415416
 31
0.0
  0
LWPOLYLINE
  5
F4
330
1F
100
AcDbEntity
  8
0
  6
SLD-Durchgehend
 62
     7
370
    15
100
AcDbPolyline
 90
        3
 70
   128
 43
0.0
 10
197.2857645669
 20
130.1345415416
 10
197.2908160605
 20
129.9977684396
 10
197.3357635506
 20
129.7068875286
  0
LINE
  5
F5
330
1F
100
AcDbEntity
  8
0
  6
SLD-Durchgehend
 62
     7
370
    15
100
AcDbLine
 10
197.3357635506
 20
129.4463761154
 30
0.0
 11
197.3357635506
 21
129.7068875286
 31
0.0
  0
LINE
  5
F6
330
1F
100
AcDbEntity
  8
0
  6
SLD-Durchgehend
 62
     7
370
    15
100
AcDbLine
 10
197.3357635506
 20
129.4463761154
 30
0.0
 11
197.4197390445
 21
129.4463761154
 31
0.0
  0
ARC
  5
F7
330
1F
100
AcDbEntity
  8
0
  6
SLD-Durchgehend
 62
     7
370
    15
100
AcDbCircle
 10
196.6776594274
 20
136.1362084814
 30
0.0
 40
0.6081603245705153
100
AcDbArc
 50
359.2281322855
 51
89.2364584066
  0
LINE
  5
F8
330
1F
100
AcDbEntity
  8
0
  6
SLD-Durchgehend
 62
     7
370
    15
100
AcDbLine
 10
197.2857645669
 20
132.6173963028
 30
0.0
 11
197.2857645669
 21
136.1280158165
 31
0.0
  0
LINE
  5
F9
330
1F
100
AcDbEntity
  8
0
  6
SLD-Durchgehend
 62
     7
370
    15
100
AcDbLine
 10
196.6857637235
 20
136.744314805
 30
0.0
 11
195.3709243753
 21
136.744314805
 31
0.0
  0
LINE
  5
FA
330
1F
100
AcDbEntity
  8
0
  6
SLD-Durchgehend
 62
     7
370
    15
100
AcDbLine
 10
195.3709243753
 20
133.3685480061
 30
0.0
 11
195.3709243753
 21
136.744314805
 31
0.0
  0
LINE
  5
FB
330
1F
100
AcDbEntity
  8
0
  6
SLD-Durchgehend
 62
     7
370
    15
100
AcDbLine
 10
197.3357635506
 20
134.1571379456
 30
0.0
 11
197.2858260342
 21
134.1571379456
 31
0.0
  0
LINE
  5
FC
330
1F
100
AcDbEntity
  8
0
  6
SLD-Durchgehend
 62
     7
370
    15
100
AcDbLine
 10
197.3357635506
 20
129.7068875286
 30
0.0
 11
197.3357635506
 21
134.1571379456
 31
0.0
  0
LINE
  5
FD
330
1F
100
AcDbEntity
  8
0
  6
SLD-Durchgehend
 62
     7
370
    15
100
AcDbLine
 10
193.7757643827
 20
134.1571379456
 30
0.0
 11
192.8957642012
 21
134.1571379456
 31
0.0
  0
LWPOLYLINE
  5
FE
330
1F
100
AcDbEntity
  8
0
  6
SLD-Durchgehend
 62
     7
370
    15
100
AcDbPolyline
 90
        3
 70
   128
 43
0.0
 10
192.2957642891
 20
134.9708158526
 10
191.3666880646
 20
136.6268228742
 10
191.3006042086
 20
136.744314805
  0
LINE
  5
FF
330
1F
100
AcDbEntity
  8
0
  6
SLD-Durchgehend
 62
     7
370
    15
100
AcDbLine
 10
192.2957642891
 20
131.1712265018
 30
0.0
 11
192.2957642891
 21
134.9708158526
 31
0.0
  0
ARC
  5
100
330
1F
100
AcDbEntity
  8
0
  6
SLD-Durchgehend
 62
     7
370
    15
100
AcDbCircle
 10
192.9224679996
 20
134.6567479941
 30
0.0
 40
0.6267108666969675
100
AcDbArc
 50
179.726192355
 51
232.8629641269
  0
LINE
  5
101
330
1F
100
AcDbEntity
  8
0
  6
SLD-Durchgehend
 62
     7
370
    15
100
AcDbLine
 10
192.8957642012
 20
134.1571379456
 30
0.0
 11
192.5441079729
 21
134.1571379456
 31
0.0
  0
LINE
  5
102
330
1F
100
AcDbEntity
  8
0
  6
SLD-Durchgehend
 62
     7
370
    15
100
AcDbLine
 10
194.1274187484
 20
134.1571379456
 30
0.0
 11
193.7757643827
 21
134.1571379456
 31
0.0
  0
ARC
  5
103
330
1F
100
AcDbEntity
  8
0
  6
SLD-Durchgehend
 62
     7
370
    15
100
AcDbCircle
 10
193.7485736896
 20
134.656988817
 30
0.0
 40
0.6271957208092165
100
AcDbArc
 50
307.1590768283
 51
0.2515960212
  0
LWPOLYLINE
  5
104
330
1F
100
AcDbEntity
  8
0
  6
SLD-Durchgehend
 62
     7
370
    15
100
AcDbPolyline
 90
        3
 70
   128
 43
0.0
 10
195.3709243753
 20
136.744314805
 10
195.304839588
 20
136.6268228742
 10
194.3757633635
 20
134.9708158526
  0
LINE
  5
105
330
1F
100
AcDbEntity
  8
0
  6
SLD-Durchgehend
 62
     7
370
    15
100
AcDbLine
 10
194.3757633635
 20
131.1712265018
 30
0.0
 11
194.3757633635
 21
134.9708158526
 31
0.0
  0
LINE
  5
106
330
1F
100
AcDbEntity
  8
0
  6
SLD-Durchgehend
 62
     7
370
    15
100
AcDbLine
 10
197.4197390445
 20
134.1571379456
 30
0.0
 11
197.3357635506
 21
134.1571379456
 31
0.0
  0
LINE
  5
107
330
1F
100
AcDbEntity
  8
0
  6
SLD-Durchgehend
 62
     7
370
    15
100
AcDbLine
 10
157.4357642748
 20
105.4386664185
 30
0.0
 11
157.4357642748
 21
105.7096254083
 31
0.0
  0
LINE
  5
108
330
1F
100
AcDbEntity
  8
0
  6
SLD-Durchgehend
 62
     7
370
    15
100
AcDbLine
 10
157.4357642748
 20
129.1310526434
 30
0.0
 11
157.4357642748
 21
129.0353704247
 31
0.0
  0
LINE
  5
109
330
1F
100
AcDbEntity
  8
0
  6
SLD-Durchgehend
 62
     7
370
    15
100
AcDbLine
 10
158.3857635924
 20
130.1371390003
 30
0.0
 11
158.3857635924
 21
130.1227193329
 31
0.0
  0
LINE
  5
10A
330
1F
100
AcDbEntity
  8
0
  6
SLD-Durchgehend
 62
     7
370
    15
100
AcDbLine
 10
157.4357642748
 20
129.1871387514
 30
0.0
 11
157.4357642748
 21
129.1310526434
 31
0.0
  0
LINE
  5
10B
330
1F
100
AcDbEntity
  8
0
  6
SLD-Durchgehend
 62
     7
370
    15
100
AcDbLine
 10
158.3857635924
 20
104.4361386451
 30
0.0
 11
158.3857635924
 21
104.5266035947
 31
0.0
  0
LINE
  5
10C
330
1F
100
AcDbEntity
  8
0
  6
SLD-Durchgehend
 62
     7
370
    15
100
AcDbLine
 10
157.4357642748
 20
105.386138894
 30
0.0
 11
157.4357642748
 21
105.4386664185
 31
0.0
  0
LINE
  5
10D
330
1F
100
AcDbEntity
  8
0
  6
SLD-Durchgehend
 62
     7
370
    15
100
AcDbLine
 10
211.5684363016
 20
100.7572766396
 30
0.0
 11
211.6377453276
 21
100.7548682395
 31
0.0
  0
LINE
  5
10E
330
1F
100
AcDbEntity
  8
0
  6
SLD-Durchgehend
 62
     7
370
    15
100
AcDbLine
 10
211.6377453276
 20
133.7145790461
 30
0.0
 11
211.5684363016
 21
133.7121147665
 31
0.0
  0
ARC
  5
10F
330
1F
100
AcDbEntity
  8
0
  6
SLD-Durchgehend
 62
     7
370
    15
100
AcDbCircle
 10
211.5683740039
 20
99.7572265032
 30
0.0
 40
1.00005070598365
100
AcDbArc
 50
14.996836549
 51
86.0223230802
  0
ARC
  5
110
330
1F
100
AcDbEntity
  8
0
  6
SLD-Durchgehend
 62
     7
370
    15
100
AcDbCircle
 10
211.5684021346
 20
134.7121666165
 30
0.0
 40
0.999994719500678
100
AcDbArc
 50
273.9762843072
 51
330.0044719741
  0
LINE
  5
111
330
1F
100
AcDbEntity
  8
0
  6
SLD-Durchgehend
 62
     7
370
    15
100
AcDbLine
 10
212.4344619878
 20
134.2122368517
 30
0.0
 11
215.5505779155
 21
134.2122368517
 31
0.0
  0
LINE
  5
112
330
1F
100
AcDbEntity
  8
0
  6
SLD-Durchgehend
 62
     7
370
    15
100
AcDbLine
 10
229.4601934918
 20
114.3593506425
 30
0.0
 11
215.5505779155
 21
134.2122368517
 31
0.0
  0
LINE
  5
113
330
1F
100
AcDbEntity
  8
0
  6
SLD-Durchgehend
 62
     7
370
    15
100
AcDbLine
 10
230.4435099431
 20
103.1268332156
 30
0.0
 11
229.4601934918
 21
114.3593506425
 31
0.0
  0
ARC
  5
114
330
1F
100
AcDbEntity
  8
0
  6
SLD-Durchgehend
 62
     7
370
    15
100
AcDbCircle
 10
219.3259808107
 20
103.2703050849
 30
0.0
 40
2.099360028884936
100
AcDbArc
 50
17.3752102743
 51
252.5899042289
  0
LINE
  5
115
330
1F
100
AcDbEntity
  8
0
  6
SLD-Durchgehend
 62
     7
370
    15
100
AcDbLine
 10
214.5816559859
 20
92.3763904723
 30
0.0
 11
219.4757114121
 21
91.948475689
 31
0.0
  0
LINE
  5
116
330
1F
100
AcDbEntity
  8
0
  6
SLD-Durchgehend
 62
     7
370
    15
100
AcDbLine
 10
212.5343630978
 20
100.0160053375
 30
0.0
 11
214.5816559859
 21
92.3763904723
 31
0.0
  0
LINE
  5
117
330
1F
100
AcDbEntity
  8
0
  6
SLD-Durchgehend
 62
     7
370
    15
100
AcDbLine
 10
229.4601934918
 20
114.9719129319
 30
0.0
 11
227.8610344001
 21
117.2571387145
 31
0.0
  0
LINE
  5
118
330
1F
100
AcDbEntity
  8
0
  6
SLD-Durchgehend
 62
     7
370
    15
100
AcDbLine
 10
229.4601934918
 20
114.9719129319
 30
0.0
 11
229.4601934918
 21
114.3593506425
 31
0.0
  0
ELLIPSE
  5
119
330
1F
100
AcDbEntity
  8
0
  6
SLD-Durchgehend
 62
     7
370
    15
100
AcDbEllipse
 10
227.4456076708
 20
117.2571387145
 30
0.0
 11
-11.90026243613434
 21
16.9988794478331
 31
0.0
210
0.0
220
0.0
230
1.0
 40
0.016401811
 41
4.700907207223624
 42
6.344400666943294
  0
LINE
  5
11A
330
1F
100
AcDbEntity
  8
0
  6
SLD-Durchgehend
 62
     7
370
    15
100
AcDbLine
 10
230.4962749549
 20
103.1222194436
 30
0.0
 11
229.4601934918
 21
114.9719129319
 31
0.0
  0
ARC
  5
11B
330
1F
100
AcDbEntity
  8
0
  6
SLD-Durchgehend
 62
     7
370
    15
100
AcDbCircle
 10
219.3245106166
 20
103.4378804543
 30
0.0
 40
2.098967387524796
100
AcDbArc
 50
182.300036618
 51
251.0740726292
  0
LINE
  5
11C
330
1F
100
AcDbEntity
  8
0
  6
SLD-Gestrichelt
 62
     7
370
     0
100
AcDbLine
 10
185.2857644626
 20
97.2571391615
 30
0.0
 11
185.2857644626
 21
97.2821544859
 31
0.0
  0
ARC
  5
11D
330
1F
100
AcDbEntity
  8
0
  6
SLD-Gestrichelt
 62
     7
370
     0
100
AcDbCircle
 10
189.2169865355
 20
87.5151334159
 30
0.0
 40
10.52849502866595
100
AcDbArc
 50
86.9032197167
 51
111.9247654927
  0
LINE
  5
11E
330
1F
100
AcDbEntity
  8
0
  6
SLD-Gestrichelt
 62
     7
370
     0
100
AcDbLine
 10
189.7857642689
 20
98.0282537642
 30
0.0
 11
191.3006042086
 21
98.0282537642
 31
0.0
  0
LINE
  5
11F
330
1F
100
AcDbEntity
  8
0
  6
SLD-Gestrichelt
 62
     7
370
     0
100
AcDbLine
 10
191.3006042086
 20
136.744314805
 30
0.0
 11
191.3006042086
 21
98.0282537642
 31
0.0
  0
LINE
  5
120
330
1F
100
AcDbEntity
  8
0
  6
SLD-Gestrichelt
 62
     7
370
     0
100
AcDbLine
 10
189.7857642689
 20
136.744314805
 30
0.0
 11
191.3006042086
 21
136.744314805
 31
0.0
  0
ARC
  5
121
330
1F
100
AcDbEntity
  8
0
  6
SLD-Gestrichelt
 62
     7
370
     0
100
AcDbCircle
 10
189.8550130192
 20
157.3505393315
 30
0.0
 40
20.60634088398747
100
AcDbArc
 50
257.2330230875
 51
269.8074539958
  0
CIRCLE
  5
122
330
1F
100
AcDbEntity
  8
0
  6
SLD-Gestrichelt
 62
     7
370
     0
100
AcDbCircle
 10
184.3354370064
 20
117.2553146912
 30
0.0
 40
4.999673246496712
  0
LINE
  5
123
330
1F
100
AcDbEntity
  8
0
  6
SLD-Gestrichelt
 62
     7
370
     0
100
AcDbLine
 10
177.3357639977
 20
136.9571387771
 30
0.0
 11
177.3357639977
 21
97.5571386519
 31
0.0
  0
LWPOLYLINE
  5
124
330
1F
100
AcDbEntity
  8
0
  6
SLD-Gestrichelt
 62
     7
370
     0
100
AcDbPolyline
 90
        3
 70
   128
 43
0.0
 10
192.3309859776
 20
100.3571394834
 10
192.3035203435
 20
100.245298818
 10
192.2957642891
 20
100.1442596319
  0
LINE
  5
125
330
1F
100
AcDbEntity
  8
0
  6
SLD-Gestrichelt
 62
     7
370
     0
100
AcDbLine
 10
192.2957642891
 20
100.1442596319
 30
0.0
 11
192.2957642891
 21
129.1071390736
 31
0.0
  0
LWPOLYLINE
  5
126
330
1F
100
AcDbEntity
  8
0
  6
SLD-Gestrichelt
 62
     7
370
     0
100
AcDbPolyline
 90
        3
 70
   128
 43
0.0
 10
194.3757633635
 20
100.1442596319
 10
194.3680073091
 20
100.245298818
 10
194.3405407437
 20
100.3571394834
  0
LINE
  5
127
330
1F
100
AcDbEntity
  8
0
  6
SLD-Gestrichelt
 62
     7
370
     0
100
AcDbLine
 10
194.3757633635
 20
100.1442596319
 30
0.0
 11
194.3757633635
 21
129.1071390736
 31
0.0
  0
LINE
  5
128
330
1F
100
AcDbEntity
  8
0
  6
SLD-Gestrichelt
 62
     7
370
     0
100
AcDbLine
 10
197.4197390445
 20
134.1571379456
 30
0.0
 11
197.4857642271
 21
134.1571379456
 31
0.0
  0
LINE
  5
129
330
1F
100
AcDbEntity
  8
0
  6
SLD-Gestrichelt
 62
     7
370
     0
100
AcDbLine
 10
197.4197390445
 20
134.1571379456
 30
0.0
 11
197.4197390445
 21
117.2571387145
 31
0.0
  0
LINE
  5
12A
330
1F
100
AcDbEntity
  8
0
  6
SLD-Gestrichelt
 62
     7
370
     0
100
AcDbLine
 10
197.3357635506
 20
114.7236127875
 30
0.0
 11
197.4197390445
 21
117.2571387145
 31
0.0
  0
LINE
  5
12B
330
1F
100
AcDbEntity
  8
0
  6
SLD-Gestrichelt
 62
     7
370
     0
100
AcDbLine
 10
197.3357635506
 20
134.1571379456
 30
0.0
 11
197.3357635506
 21
114.7236127875
 31
0.0
  0
LINE
  5
12C
330
1F
100
AcDbEntity
  8
0
  6
SLD-Gestrichelt
 62
     7
370
     0
100
AcDbLine
 10
197.2858260342
 20
134.1571379456
 30
0.0
 11
197.3357635506
 21
134.1571379456
 31
0.0
  0
LINE
  5
12D
330
1F
100
AcDbEntity
  8
0
  6
SLD-Gestrichelt
 62
     7
370
     0
100
AcDbLine
 10
197.2857645669
 20
134.168673307
 30
0.0
 11
197.2858260342
 21
134.1571379456
 31
0.0
  0
LINE
  5
12E
330
1F
100
AcDbEntity
  8
0
  6
SLD-Gestrichelt
 62
     7
370
     0
100
AcDbLine
 10
197.2857645669
 20
134.168673307
 30
0.0
 11
197.2857645669
 21
100.3571394834
 31
0.0
  0
LINE
  5
12F
330
1F
100
AcDbEntity
  8
0
  6
SLD-Gestrichelt
 62
     7
370
     0
100
AcDbLine
 10
197.2857645669
 20
100.3571394834
 30
0.0
 11
197.4857642271
 21
100.3571394834
 31
0.0
  0
LINE
  5
130
330
1F
100
AcDbEntity
  8
0
  6
SLD-Gestrichelt
 62
     7
370
     0
100
AcDbLine
 10
197.3888638385
 20
100.3571394834
 30
0.0
 11
197.2857645669
 21
100.3571394834
 31
0.0
  0
LINE
  5
131
330
1F
100
AcDbEntity
  8
0
  6
SLD-Gestrichelt
 62
     7
370
     0
100
AcDbLine
 10
197.2857645669
 20
129.1071390736
 30
0.0
 11
197.3357635506
 21
129.1071390736
 31
0.0
  0
LINE
  5
132
330
1F
100
AcDbEntity
  8
0
  6
SLD-Gestrichelt
 62
     7
370
     0
100
AcDbLine
 10
197.2857645669
 20
100.3571394834
 30
0.0
 11
197.2857645669
 21
129.1071390736
 31
0.0
  0
LINE
  5
133
330
1F
100
AcDbEntity
  8
0
  6
SLD-Gestrichelt
 62
     7
370
     0
100
AcDbLine
 10
197.3357635506
 20
117.2571387145
 30
0.0
 11
197.3357635506
 21
117.25058238
 31
0.0
  0
LINE
  5
134
330
1F
100
AcDbEntity
  8
0
  6
SLD-Gestrichelt
 62
     7
370
     0
100
AcDbLine
 10
197.3357635506
 20
129.1071390736
 30
0.0
 11
197.3357635506
 21
117.2571387145
 31
0.0
  0
LINE
  5
135
330
1F
100
AcDbEntity
  8
0
  6
SLD-Gestrichelt
 62
     7
370
     0
100
AcDbLine
 10
185.2857644626
 20
129.1071390736
 30
0.0
 11
189.7794340693
 21
129.1071390736
 31
0.0
  0
LWPOLYLINE
  5
136
330
1F
100
AcDbEntity
  8
0
  6
SLD-Gestrichelt
 62
     7
370
     0
100
AcDbPolyline
 90
       22
 70
   128
 43
0.0
 10
202.6748868593
 20
119.1104612083
 10
202.3021752902
 20
119.063535007
 10
201.4716478952
 20
119.2029829838
 10
200.7345694073
 20
119.6079668592
 10
200.1798904457
 20
120.2241659633
 10
199.860932953
 20
120.9804115354
 10
199.8119658747
 20
121.7906335372
 10
200.0399592289
 20
122.5614962171
 10
200.5208215632
 20
123.2076259333
 10
201.2004057833
 20
123.6603548753
 10
202.0008719482
 20
123.8767411563
 10
202.839814774
 20
123.8409066576
 10
203.6380439022
 20
123.5506893139
 10
204.3034720191
 20
123.0187248442
 10
204.7346669205
 20
122.3028115931
 10
204.8742703118
 20
121.5112754147
 10
204.7346184918
 20
120.7421207803
 10
204.347275845
 20
120.051842416
 10
203.7350672253
 20
119.4936886898
 10
203.4004877278
 20
119.3462037484
 10
202.9419734099
 20
119.1440884725
 10
202.6748868593
 20
119.1104612083
  0
LINE
  5
137
330
1F
100
AcDbEntity
  8
0
  6
SLD-Gestrichelt
 62
     7
370
     0
100
AcDbLine
 10
177.3357639977
 20
101.0499373081
 30
0.0
 11
177.3357639977
 21
133.4643401208
 31
0.0
  0
LINE
  5
138
330
1F
100
AcDbEntity
  8
0
  6
SLD-Gestrichelt
 62
     7
370
     0
100
AcDbLine
 10
175.3357639027
 20
132.3608392852
 30
0.0
 11
175.3357639027
 21
102.1534381437
 31
0.0
  0
LINE
  5
139
330
1F
100
AcDbEntity
  8
0
  6
SLD-Gestrichelt
 62
     7
370
     0
100
AcDbLine
 10
158.3772475787
 20
104.5539611953
 30
0.0
 11
158.3857635924
 21
104.5266035947
 31
0.0
  0
LINE
  5
13A
330
1F
100
AcDbEntity
  8
0
  6
SLD-Gestrichelt
 62
     7
370
     0
100
AcDbLine
 10
158.3857635924
 20
104.5266035947
 30
0.0
 11
158.5459734269
 21
104.5459583405
 31
0.0
  0
ARC
  5
13B
330
1F
100
AcDbEntity
  8
0
  6
SLD-Gestrichelt
 62
     7
370
     0
100
AcDbCircle
 10
168.3909041058
 20
30.1047666751
 30
0.0
 40
75.08937126268324
100
AcDbArc
 50
94.395681249
 51
97.5337113535
  0
LWPOLYLINE
  5
13C
330
1F
100
AcDbEntity
  8
0
  6
SLD-Gestrichelt
 62
     7
370
     0
100
AcDbPolyline
 90
        7
 70
   128
 43
0.0
 10
162.6357638233
 20
104.9732649702
 10
162.6990788572
 20
104.9728123474
 10
162.7604530149
 20
104.9613719809
 10
162.8378561654
 20
104.9309046942
 10
162.9432194822
 20
104.8577977347
 10
163.1312926256
 20
104.6067159626
 10
163.2445284122
 20
104.3231356892
  0
ARC
  5
13D
330
1F
100
AcDbEntity
  8
0
  6
SLD-Gestrichelt
 62
     7
370
     0
100
AcDbCircle
 10
160.3972235519
 20
102.6865558638
 30
0.0
 40
3.284134359664614
100
AcDbArc
 50
17.1244326527
 51
29.8895177058
  0
LINE
  5
13E
330
1F
100
AcDbEntity
  8
0
  6
SLD-Gestrichelt
 62
     7
370
     0
100
AcDbLine
 10
163.5357641571
 20
103.6535622555
 30
0.0
 11
163.5357641571
 21
102.7446202937
 31
0.0
  0
LINE
  5
13F
330
1F
100
AcDbEntity
  8
0
  6
SLD-Gestrichelt
 62
     7
370
     0
100
AcDbLine
 10
161.0357637473
 20
131.6444063562
 30
0.0
 11
161.0357637473
 21
130.8146631348
 31
0.0
  0
ARC
  5
140
330
1F
100
AcDbEntity
  8
0
  6
SLD-Gestrichelt
 62
     7
370
     0
100
AcDbCircle
 10
159.9807987688
 20
131.1272727487
 30
0.0
 40
1.100307173752306
100
AcDbArc
 50
278.0963186522
 51
343.4942707128
  0
LWPOLYLINE
  5
141
330
1F
100
AcDbEntity
  8
0
  6
SLD-Gestrichelt
 62
     7
370
     0
100
AcDbPolyline
 90
        3
 70
   128
 43
0.0
 10
160.1357634135
 20
130.037932657
 10
159.2721293637
 20
130.0965612757
 10
158.3857635924
 20
130.1227193329
  0
LINE
  5
142
330
1F
100
AcDbEntity
  8
0
  6
SLD-Gestrichelt
 62
     7
370
     0
100
AcDbLine
 10
158.3857635924
 20
130.1227193329
 30
0.0
 11
158.2865963646
 21
129.9305744472
 31
0.0
  0
ELLIPSE
  5
143
330
1F
100
AcDbEntity
  8
0
  6
SLD-Gestrichelt
 62
     7
370
     0
100
AcDbEllipse
 10
144.8296433591
 20
117.8962491658
 30
0.0
 11
13.369636111343
 21
13.36754752639487
 31
0.0
210
0.0
220
0.0
230
1.0
 40
0.1761188775
 41
5.933076931846593
 42
5.976720052691191
  0
ELLIPSE
  5
144
330
1F
100
AcDbEntity
  8
0
  6
SLD-Gestrichelt
 62
     7
370
     0
100
AcDbEllipse
 10
144.9090217898
 20
116.6178410367
 30
0.0
 11
13.37355272666622
 21
-13.37146352987013
 31
0.0
210
0.0
220
0.0
230
1.0
 40
0.1761188775
 41
0.3023035477142389
 42
0.3822730435340204
  0
ARC
  5
145
330
1F
100
AcDbEntity
  8
0
  6
SLD-Gestrichelt
 62
     7
370
     0
100
AcDbCircle
 10
171.6655146602
 20
81.1235835851
 30
0.0
 40
21.60178524906596
100
AcDbArc
 50
97.1287248107
 51
98.3719928051
  0
LWPOLYLINE
  5
146
330
1F
100
AcDbEntity
  8
0
  6
SLD-Gestrichelt
 62
     7
370
     0
100
AcDbPolyline
 90
       16
 70
   128
 43
0.0
 10
174.1020420522
 20
102.2155405956
 10
174.1035335653
 20
102.2151820365
 10
174.0475987972
 20
102.2290345284
 10
173.8865654406
 20
102.2673761475
 10
173.6238966186
 20
102.3261705416
 10
173.2758774378
 20
102.3975731808
 10
172.856456782
 20
102.4721339348
 10
172.3773243793
 20
102.5417530912
 10
171.8519285277
 20
102.5989251214
 10
171.3032049083
 20
102.6380257684
 10
170.7617646971
 20
102.6548435914
 10
170.2406934419
 20
102.6504151526
 10
169.7551321194
 20
102.6281267407
 10
169.3422679745
 20
102.5960519913
 10
169.3293263161
 20
102.5950461629
 10
168.9847555899
 20
102.5583837184
  0
LWPOLYLINE
  5
147
330
1F
100
AcDbEntity
  8
0
  6
SLD-Gestrichelt
 62
     7
370
     0
100
AcDbPolyline
 90
       16
 70
   128
 43
0.0
 10
168.9846373119
 20
131.9558788094
 10
169.3300778934
 20
131.9192852828
 10
169.3363931917
 20
131.9187944758
 10
169.7561435358
 20
131.8862168121
 10
170.2418231361
 20
131.8639069799
 10
170.7636631981
 20
131.8594291809
 10
171.3047779121
 20
131.8762544545
 10
171.8545725525
 20
131.9155478853
 10
172.3791702607
 20
131.9727543744
 10
172.8586747267
 20
132.0424797016
 10
173.2772059695
 20
132.1168830621
 10
173.6249234018
 20
132.1882260966
 10
173.8868341272
 20
132.2468789297
 10
174.0475699262
 20
132.2852112356
 10
174.1022162096
 20
132.2990329939
 10
174.1010432088
 20
132.2987377647
  0
ARC
  5
148
330
1F
100
AcDbEntity
  8
0
  6
SLD-Gestrichelt
 62
     7
370
     0
100
AcDbCircle
 10
170.2185773997
 20
142.75635662
 30
0.0
 40
10.87073728310233
100
AcDbArc
 50
261.009721592
 51
263.4822940933
  0
ARC
  5
149
330
1F
100
AcDbEntity
  8
0
  6
SLD-Gestrichelt
 62
     7
370
     0
100
AcDbCircle
 10
171.3335747406
 20
91.9513573327
 30
0.0
 40
12.76430890823062
100
AcDbArc
 50
81.773666861
 51
100.2786770347
  0
ARC
  5
14A
330
1F
100
AcDbEntity
  8
0
  6
SLD-Gestrichelt
 62
     7
370
     0
100
AcDbCircle
 10
171.3335747406
 20
142.5629200962
 30
0.0
 40
12.76430890823064
100
AcDbArc
 50
259.7213229653
 51
278.226333139
  0
LWPOLYLINE
  5
14B
330
1F
100
AcDbEntity
  8
0
  6
SLD-Gestrichelt
 62
     7
370
     0
100
AcDbPolyline
 90
        6
 70
   128
 43
0.0
 10
173.1599408158
 20
129.9299485984
 10
173.5183114142
 20
129.9735950309
 10
173.6306140155
 20
129.983971827
 10
173.6355528192
 20
129.9844281751
 10
173.4968297605
 20
129.9714259806
 10
173.1599408158
 20
129.9299485984
  0
LWPOLYLINE
  5
14C
330
1F
100
AcDbEntity
  8
0
  6
SLD-Gestrichelt
 62
     7
370
     0
100
AcDbPolyline
 90
        6
 70
   128
 43
0.0
 10
173.1599408158
 20
104.5843288305
 10
173.5183114142
 20
104.5406823981
 10
173.6307090104
 20
104.5302962887
 10
173.6355528192
 20
104.5298492539
 10
173.4968297605
 20
104.5428514484
 10
173.1599408158
 20
104.5843288305
  0
LINE
  5
14D
330
1F
100
AcDbEntity
  8
0
  6
SLD-Gestrichelt
 62
     7
370
     0
100
AcDbLine
 10
177.3357639977
 20
106.757138856
 30
0.0
 11
177.3357639977
 21
127.7448767799
 31
0.0
  0
LWPOLYLINE
  5
14E
330
1F
100
AcDbEntity
  8
0
  6
SLD-Gestrichelt
 62
     7
370
     0
100
AcDbPolyline
 90
       10
 70
   128
 43
0.0
 10
197.288986943
 20
116.8060163039
 10
197.1793143966
 20
116.7518268924
 10
196.9195201018
 20
116.6203506876
 10
196.7429785945
 20
116.5286405597
 10
196.5574218848
 20
116.4260964145
 10
196.2939693549
 20
116.2479947091
 10
195.8727563688
 20
115.7635676212
 10
195.7261326679
 20
115.4293965086
 10
195.6855884709
 20
115.1874861683
 10
195.7240688571
 20
114.96655806
  0
LWPOLYLINE
  5
14F
330
1F
100
AcDbEntity
  8
0
  6
SLD-Gestrichelt
 62
     7
370
     0
100
AcDbPolyline
 90
       23
 70
   128
 43
0.0
 10
197.288986943
 20
116.8060163039
 10
197.475419096
 20
116.8951599105
 10
197.6095947393
 20
116.89698312
 10
197.6847673722
 20
116.8113942843
 10
197.6971558251
 20
116.6426975399
 10
197.6461398371
 20
116.399376537
 10
197.534282408
 20
116.09366769
 10
197.367208726
 20
115.7409447481
 10
197.1533211836
 20
115.3589459139
 10
196.9033784189
 20
114.9668816946
 10
196.6299458363
 20
114.5844685382
 10
196.3467772075
 20
114.2309375576
 10
196.068110592
 20
113.9240677006
 10
195.8079605319
 20
113.6792912151
 10
195.5794121095
 20
113.5089176244
 10
195.3939541199
 20
113.4215148634
 10
195.2609184154
 20
113.421478309
 10
195.1869918921
 20
113.5088098238
 10
195.1758923896
 20
113.6791177563
 10
195.2281787016
 20
113.9238371982
 10
195.3412226357
 20
114.2306616533
 10
195.5093375363
 20
114.584160969
 10
195.7240688571
 20
114.96655806
  0
LWPOLYLINE
  5
150
330
1F
100
AcDbEntity
  8
0
  6
SLD-Gestrichelt
 62
     7
370
     0
100
AcDbPolyline
 90
        6
 70
   128
 43
0.0
 10
198.1361552098
 20
116.2821155743
 10
198.2318988957
 20
116.3295982408
 10
198.2413033911
 20
116.3982789152
 10
198.1561171778
 20
116.512266279
 10
197.8098328181
 20
116.7176337334
 10
197.288986943
 20
116.8060163039
  0
LWPOLYLINE
  5
151
330
1F
100
AcDbEntity
  8
0
  6
SLD-Gestrichelt
 62
     7
370
     0
100
AcDbPolyline
 90
       21
 70
   128
 43
0.0
 10
195.7240688571
 20
114.96655806
 10
195.7900381603
 20
114.1403724908
 10
196.0377830037
 20
113.5143218565
 10
196.2016939142
 20
113.2900668311
 10
196.3690153279
 20
113.1368963982
 10
196.5538325676
 20
113.0263898525
 10
196.9088694968
 20
112.913580146
 10
197.7795983621
 20
112.9016280177
 10
198.547399319
 20
113.1004649217
 10
199.0742503622
 20
113.3645526136
 10
199.4570127644
 20
113.6587411168
 10
199.7534452894
 20
114.0078885949
 10
199.916395075
 20
114.3354398667
 10
199.9814870723
 20
114.7621234416
 10
199.8237526932
 20
115.2649065483
 10
199.6203369417
 20
115.5002333692
 10
199.3774908551
 20
115.6403638891
 10
199.2849471935
 20
115.6325732594
 10
199.2541148283
 20
115.5629500284
 10
199.2640371391
 20
115.4385837729
 10
199.3008653589
 20
115.2574510782
  0
LWPOLYLINE
  5
152
330
1F
100
AcDbEntity
  8
0
  6
SLD-Gestrichelt
 62
     7
370
     0
100
AcDbPolyline
 90
        3
 70
   128
 43
0.0
 10
199.3008653589
 20
115.2574510782
 10
198.5827541866
 20
115.8346933083
 10
198.1361552098
 20
116.2821155743
  0
LINE
  5
153
330
1F
100
AcDbEntity
  8
0
  6
SLD-Gestrichelt
 62
     7
370
     0
100
AcDbLine
 10
165.3384135061
 20
127.7571385729
 30
0.0
 11
165.3384135061
 21
106.757138856
 31
0.0
  0
LINE
  5
154
330
1F
100
AcDbEntity
  8
0
  6
SLD-Gestrichelt
 62
     7
370
     0
100
AcDbLine
 10
189.7794340693
 20
129.1071390736
 30
0.0
 11
197.6148883768
 21
129.1071390736
 31
0.0
  0
LINE
  5
155
330
1F
100
AcDbEntity
  8
0
  6
SLD-Gestrichelt
 62
     7
370
     0
100
AcDbLine
 10
197.2857645669
 20
130.1345415416
 30
0.0
 11
197.2857645669
 21
134.168673307
 31
0.0
  0
LINE
  5
156
330
1F
100
AcDbEntity
  8
0
  6
SLD-Gestrichelt
 62
     7
370
     0
100
AcDbLine
 10
192.2957642891
 20
130.7729855183
 30
0.0
 11
192.2957642891
 21
134.6597429368
 31
0.0
  0
LINE
  5
157
330
1F
100
AcDbEntity
  8
0
  6
SLD-Gestrichelt
 62
     7
370
     0
100
AcDbLine
 10
194.3757633635
 20
130.7729855183
 30
0.0
 11
194.3757633635
 21
134.6597429368
 31
0.0
  0
LINE
  5
158
330
1F
100
AcDbEntity
  8
0
  6
SLD-Gestrichelt
 62
     7
370
     0
100
AcDbLine
 10
197.3357635506
 20
134.1571379456
 30
0.0
 11
197.3357635506
 21
129.4463761154
 31
0.0
  0
LWPOLYLINE
  5
159
330
1F
100
AcDbEntity
  8
0
  6
SLD-Gestrichelt
 62
     7
370
     0
100
AcDbPolyline
 90
       25
 70
   128
 43
0.0
 10
199.1871881255
 20
114.8776153571
 10
198.6964761236
 20
114.9085313085
 10
198.026458449
 20
115.067820065
 10
197.4223635116
 20
115.4082086872
 10
197.0522354313
 20
115.8442777817
 10
196.8822206327
 20
116.3035368084
 10
196.8676733741
 20
116.8336074046
 10
196.9928300896
 20
117.3123467636
 10
197.3204265305
 20
117.8901200186
 10
197.9663695165
 20
118.509064778
 10
198.3566253402
 20
118.7346436785
 10
198.8047293343
 20
118.8903948062
 10
199.224338583
 20
118.9340661516
 10
199.6404199817
 20
118.8657549213
 10
200.1025981226
 20
118.6350318606
 10
200.6325020411
 20
118.0991131699
 10
200.9900349148
 20
117.3878325356
 10
201.1107156941
 20
116.7924634067
 10
201.0808425912
 20
116.2121059609
 10
200.9144562253
 20
115.7296815657
 10
200.6072501608
 20
115.3271389197
 10
200.1091546335
 20
115.023326129
 10
199.6750577309
 20
114.9122274949
 10
199.2811045566
 20
114.8787823043
 10
199.1871881255
 20
114.8776153571
  0
ARC
  5
15A
330
1F
100
AcDbEntity
  8
0
  6
SLD-Gestrichelt
 62
     7
370
     0
100
AcDbCircle
 10
197.3628902468
 20
114.2288844055
 30
0.0
 40
2.194013886821426
100
AcDbArc
 50
27.9568133341
 51
69.3631835595
  0
LINE
  5
15B
330
1F
100
AcDbEntity
  8
0
  6
SLD-Gestrichelt
 62
     7
370
     0
100
AcDbLine
 10
157.4357642748
 20
107.3921322826
 30
0.0
 11
157.4357642748
 21
127.1221451464
 31
0.0
  0
LINE
  5
15C
330
1F
100
AcDbEntity
  8
0
  6
SLD-Gestrichelt
 62
     7
370
     0
100
AcDbLine
 10
183.5051390299
 20
127.7571385729
 30
0.0
 11
183.5051390299
 21
106.757138856
 31
0.0
  0
LINE
  5
15D
330
1F
100
AcDbEntity
  8
0
  6
SLD-Gestrichelt
 62
     7
370
     0
100
AcDbLine
 10
185.2857644626
 20
127.1321382377
 30
0.0
 11
185.2857644626
 21
107.38213826
 31
0.0
  0
LINE
  5
15E
330
1F
100
AcDbEntity
  8
0
  6
SLD-Gestrichelt
 62
     7
370
     0
100
AcDbLine
 10
158.3857635924
 20
107.5592329729
 30
0.0
 11
162.6357638233
 21
107.5592329729
 31
0.0
  0
LINE
  5
15F
330
1F
100
AcDbEntity
  8
0
  6
SLD-Gestrichelt
 62
     7
370
     0
100
AcDbLine
 10
158.3857635924
 20
126.9550444561
 30
0.0
 11
158.3857635924
 21
107.5592329729
 31
0.0
  0
LINE
  5
160
330
1F
100
AcDbEntity
  8
0
  6
SLD-Gestrichelt
 62
     7
370
     0
100
AcDbLine
 10
160.1357634135
 20
126.9550444561
 30
0.0
 11
158.3857635924
 21
126.9550444561
 31
0.0
  0
LWPOLYLINE
  5
161
330
1F
100
AcDbEntity
  8
0
  6
SLD-Gestrichelt
 62
     7
370
     0
100
AcDbPolyline
 90
        6
 70
   128
 43
0.0
 10
161.0357637473
 20
127.2813286635
 10
160.979983113
 20
127.1787099543
 10
160.8188214668
 20
127.0794728774
 10
160.570307351
 20
127.0007165152
 10
160.2785649666
 20
126.9597681242
 10
160.1357634135
 20
126.9550444561
  0
LINE
  5
162
330
1F
100
AcDbEntity
  8
0
  6
SLD-Gestrichelt
 62
     7
370
     0
100
AcDbLine
 10
161.0357637473
 20
127.2813286635
 30
0.0
 11
161.0357637473
 21
127.7571385729
 31
0.0
  0
LWPOLYLINE
  5
163
330
1F
100
AcDbEntity
  8
0
  6
SLD-Gestrichelt
 62
     7
370
     0
100
AcDbPolyline
 90
        6
 70
   128
 43
0.0
 10
161.0357637473
 20
127.2813286635
 10
160.979983113
 20
127.1787099543
 10
160.8188214668
 20
127.0794728774
 10
160.570307351
 20
127.0007165152
 10
160.2785649666
 20
126.9597681242
 10
160.1357634135
 20
126.9550444561
  0
LWPOLYLINE
  5
164
330
1F
100
AcDbEntity
  8
0
  6
SLD-Gestrichelt
 62
     7
370
     0
100
AcDbPolyline
 90
        6
 70
   128
 43
0.0
 10
162.6357638233
 20
107.5592329729
 10
162.917794376
 20
107.5405431914
 10
163.1677501791
 20
107.4888100851
 10
163.3686103814
 20
107.4110111225
 10
163.5001736649
 20
107.3145344856
 10
163.5357641571
 20
107.2329487655
  0
LINE
  5
165
330
1F
100
AcDbEntity
  8
0
  6
SLD-Gestrichelt
 62
     7
370
     0
100
AcDbLine
 10
163.5357641571
 20
107.2329487655
 30
0.0
 11
163.5357641571
 21
106.757138856
 31
0.0
  0
LWPOLYLINE
  5
166
330
1F
100
AcDbEntity
  8
0
  6
SLD-Gestrichelt
 62
     7
370
     0
100
AcDbPolyline
 90
        6
 70
   128
 43
0.0
 10
162.6357638233
 20
107.5592329729
 10
162.917794376
 20
107.5405431914
 10
163.1677501791
 20
107.4888100851
 10
163.3686103814
 20
107.4110111225
 10
163.5001736649
 20
107.3145344856
 10
163.5357641571
 20
107.2329487655
  0
LINE
  5
167
330
1F
100
AcDbEntity
  8
0
  6
SLD-Gestrichelt
 62
     7
370
     0
100
AcDbLine
 10
158.3857635924
 20
107.5592329729
 30
0.0
 11
158.3857635924
 21
126.9550444561
 31
0.0
  0
LINE
  5
168
330
1F
100
AcDbEntity
  8
0
  6
SLD-Gestrichelt
 62
     7
370
     0
100
AcDbLine
 10
161.0357637473
 20
128.2571386549
 30
0.0
 11
161.0357637473
 21
130.8146631348
 31
0.0
  0
LINE
  5
169
330
1F
100
AcDbEntity
  8
0
  6
SLD-Gestrichelt
 62
     7
370
     0
100
AcDbLine
 10
163.5357641571
 20
106.2571387741
 30
0.0
 11
163.5357641571
 21
103.6535622555
 31
0.0
  0
LINE
  5
16A
330
1F
100
AcDbEntity
  8
0
  6
SLD-Gestrichelt
 62
     7
370
     0
100
AcDbLine
 10
158.3857635924
 20
128.2571386549
 30
0.0
 11
158.3857635924
 21
130.1371390003
 31
0.0
  0
LINE
  5
16B
330
1F
100
AcDbEntity
  8
0
  6
SLD-Gestrichelt
 62
     7
370
     0
100
AcDbLine
 10
157.4357642748
 20
128.2571386549
 30
0.0
 11
157.4357642748
 21
129.1871387514
 31
0.0
  0
LINE
  5
16C
330
1F
100
AcDbEntity
  8
0
  6
SLD-Gestrichelt
 62
     7
370
     0
100
AcDbLine
 10
158.3857635924
 20
106.2571387741
 30
0.0
 11
158.3857635924
 21
104.4361386451
 31
0.0
  0
LINE
  5
16D
330
1F
100
AcDbEntity
  8
0
  6
SLD-Gestrichelt
 62
     7
370
     0
100
AcDbLine
 10
157.4357642748
 20
106.2571387741
 30
0.0
 11
157.4357642748
 21
105.386138894
 31
0.0
  0
LINE
  5
16E
330
1F
100
AcDbEntity
  8
0
  6
SLD-Gestrichelt
 62
     7
370
     0
100
AcDbLine
 10
193.1357632347
 20
123.5071388076
 30
0.0
 11
193.1357632347
 21
111.0071386214
 31
0.0
  0
LINE
  5
16F
330
1F
100
AcDbEntity
  8
0
  6
SLD-Gestrichelt
 62
     7
370
     0
100
AcDbLine
 10
190.6357637563
 20
123.5071388076
 30
0.0
 11
190.6357637563
 21
111.0071386214
 31
0.0
  0
LINE
  5
170
330
1F
100
AcDbEntity
  8
0
  6
SLD-Gestrichelt
 62
     7
370
     0
100
AcDbLine
 10
185.7857636132
 20
122.7571386847
 30
0.0
 11
185.7857636132
 21
111.7571387443
 31
0.0
  0
LINE
  5
171
330
1F
100
AcDbEntity
  8
0
  6
SLD-Gestrichelt
 62
     7
370
     0
100
AcDbLine
 10
185.2857644626
 20
111.2571386623
 30
0.0
 11
185.2857644626
 21
123.2448108497
 31
0.0
  0
LINE
  5
172
330
1F
100
AcDbEntity
  8
0
  6
SLD-Gestrichelt
 62
     7
370
     0
100
AcDbLine
 10
185.2857644626
 20
97.2821544859
 30
0.0
 11
185.2857644626
 21
100.3571394834
 31
0.0
  0
LINE
  5
173
330
1F
100
AcDbEntity
  8
0
  6
SLD-Gestrichelt
 62
     7
370
     0
100
AcDbLine
 10
189.7857642689
 20
100.3571394834
 30
0.0
 11
185.2857644626
 21
100.3571394834
 31
0.0
  0
LINE
  5
174
330
1F
100
AcDbEntity
  8
0
  6
SLD-Gestrichelt
 62
     7
370
     0
100
AcDbLine
 10
197.2857645669
 20
100.3571394834
 30
0.0
 11
194.3405407437
 21
100.3571394834
 31
0.0
  0
LINE
  5
175
330
1F
100
AcDbEntity
  8
0
  6
SLD-Gestrichelt
 62
     7
370
     0
100
AcDbLine
 10
194.3757633635
 20
99.8280160132
 30
0.0
 11
194.3757633635
 21
100.1442596319
 31
0.0
  0
LINE
  5
176
330
1F
100
AcDbEntity
  8
0
  6
SLD-Gestrichelt
 62
     7
370
     0
100
AcDbLine
 10
197.2857645669
 20
100.3571394834
 30
0.0
 11
197.2857645669
 21
98.6531060192
 31
0.0
  0
LINE
  5
177
330
1F
100
AcDbEntity
  8
0
  6
SLD-Gestrichelt
 62
     7
370
     0
100
AcDbLine
 10
192.3309859776
 20
100.3571394834
 30
0.0
 11
189.7857642689
 21
100.3571394834
 31
0.0
  0
LINE
  5
178
330
1F
100
AcDbEntity
  8
0
  6
SLD-Gestrichelt
 62
     7
370
     0
100
AcDbLine
 10
192.2957642891
 20
100.1442596319
 30
0.0
 11
192.2957642891
 21
99.8280160132
 31
0.0
  0
LINE
  5
179
330
1F
100
AcDbEntity
  8
0
  6
SLD-Gestrichelt
 62
     7
370
     0
100
AcDbLine
 10
190.6357637563
 20
111.7571387443
 30
0.0
 11
190.6357637563
 21
122.7448564026
 31
0.0
  0
ELLIPSE
  5
17A
330
1F
100
AcDbEntity
  8
0
  6
SLD-Gestrichelt
 62
     7
370
     0
100
AcDbEllipse
 10
155.3299972579
 20
117.2571387145
 30
0.0
 11
12.26424774976726
 21
0.0
 31
0.0
210
0.0
220
0.0
230
1.0
 40
0.8164965809
 41
1.318982952866327
 42
1.39824167007062
  0
LINE
  5
17B
330
1F
100
AcDbEntity
  8
0
  6
SLD-Gestrichelt
 62
     7
370
     0
100
AcDbLine
 10
157.4357642748
 20
128.2571386549
 30
0.0
 11
157.4357642748
 21
127.1221451464
 31
0.0
  0
ELLIPSE
  5
17C
330
1F
100
AcDbEntity
  8
0
  6
SLD-Gestrichelt
 62
     7
370
     0
100
AcDbEllipse
 10
155.3299972579
 20
117.2571387145
 30
0.0
 11
12.26424774976726
 21
0.0
 31
0.0
210
0.0
220
0.0
230
1.0
 40
0.8164965809
 41
4.884943637108978
 42
4.964202354313271
  0
LINE
  5
17D
330
1F
100
AcDbEntity
  8
0
  6
SLD-Gestrichelt
 62
     7
370
     0
100
AcDbLine
 10
157.4357642748
 20
106.2571387741
 30
0.0
 11
157.4357642748
 21
107.3921322826
 31
0.0
  0
LINE
  5
17E
330
1F
100
AcDbEntity
  8
0
  6
SLD-Gestrichelt
 62
     7
370
     0
100
AcDbLine
 10
197.2858260342
 20
134.1571379456
 30
0.0
 11
194.1274187484
 21
134.1571379456
 31
0.0
  0
LINE
  5
17F
330
1F
100
AcDbEntity
  8
0
  6
SLD-Gestrichelt
 62
     7
370
     0
100
AcDbLine
 10
197.2857645669
 20
134.168673307
 30
0.0
 11
197.2857645669
 21
136.1280158165
 31
0.0
  0
LINE
  5
180
330
1F
100
AcDbEntity
  8
0
  6
SLD-Gestrichelt
 62
     7
370
     0
100
AcDbLine
 10
194.3757633635
 20
134.9708158526
 30
0.0
 11
194.3757633635
 21
134.6597429368
 31
0.0
  0
LINE
  5
181
330
1F
100
AcDbEntity
  8
0
  6
SLD-Gestrichelt
 62
     7
370
     0
100
AcDbLine
 10
192.5441079729
 20
134.1571379456
 30
0.0
 11
189.7857642689
 21
134.1571379456
 31
0.0
  0
LINE
  5
182
330
1F
100
AcDbEntity
  8
0
  6
SLD-Gestrichelt
 62
     7
370
     0
100
AcDbLine
 10
192.2957642891
 20
134.6597429368
 30
0.0
 11
192.2957642891
 21
134.9708158526
 31
0.0
  0
LINE
  5
183
330
1F
100
AcDbEntity
  8
0
  6
SLD-Gestrichelt
 62
     7
370
     0
100
AcDbLine
 10
189.7857642689
 20
134.1571379456
 30
0.0
 11
185.2857644626
 21
134.1571379456
 31
0.0
  0
LINE
  5
184
330
1F
100
AcDbEntity
  8
0
  6
SLD-Gestrichelt
 62
     7
370
     0
100
AcDbLine
 10
158.3857635924
 20
128.2571386549
 30
0.0
 11
158.3857635924
 21
126.9550444561
 31
0.0
  0
LINE
  5
185
330
1F
100
AcDbEntity
  8
0
  6
SLD-Gestrichelt
 62
     7
370
     0
100
AcDbLine
 10
163.5357641571
 20
106.2571387741
 30
0.0
 11
163.5357641571
 21
107.2329487655
 31
0.0
  0
LINE
  5
186
330
1F
100
AcDbEntity
  8
0
  6
SLD-Gestrichelt
 62
     7
370
     0
100
AcDbLine
 10
158.3857635924
 20
106.2571387741
 30
0.0
 11
158.3857635924
 21
107.5592329729
 31
0.0
  0
LINE
  5
187
330
1F
100
AcDbEntity
  8
0
  6
SLD-Gestrichelt
 62
     7
370
     0
100
AcDbLine
 10
161.0357637473
 20
128.2571386549
 30
0.0
 11
161.0357637473
 21
127.2813286635
 31
0.0
  0
LWPOLYLINE
  5
188
330
1F
100
AcDbEntity
  8
0
  6
SLD-Gestrichelt
 62
     7
370
     0
100
AcDbPolyline
 90
       54
 70
   128
 43
0.0
 10
169.1915930205
 20
103.0180146921
 10
169.4201377177
 20
103.0513141307
 10
169.800272859
 20
103.0936501923
 10
170.201955545
 20
103.1228126961
 10
170.5735211217
 20
103.1388007107
 10
170.5737222874
 20
103.1388025734
 10
170.8835281388
 20
103.1416151676
 10
171.7098319859
 20
103.0914504084
 10
172.1613995687
 20
103.0364716428
 10
172.3873523951
 20
103.0015079308
 10
172.6085261398
 20
102.9615625742
 10
173.0431683318
 20
102.869738825
 10
173.2888973274
 20
102.8083963323
 10
173.4627584883
 20
102.761329152
 10
173.5943189778
 20
102.7238657701
 10
173.6357437403
 20
102.7116486806
 10
173.6348871563
 20
102.7119141075
 10
173.5972619572
 20
102.7235919613
 10
173.4721282919
 20
102.7584476399
 10
173.3749045015
 20
102.7844678613
 10
173.3174106994
 20
102.7996251363
 10
173.2864325822
 20
102.8077416125
 10
173.2703854286
 20
102.8119334954
 10
173.2622223862
 20
102.8140634301
 10
173.2581059405
 20
102.8151363137
 10
173.25603887
 20
102.8156746182
 10
173.2550032393
 20
102.8159447017
 10
173.2544849583
 20
102.8160797435
 10
173.2542255849
 20
102.81614773
 10
173.2540961311
 20
102.8161812577
 10
173.2540309385
 20
102.8161980215
 10
173.2539988079
 20
102.8162064034
 10
173.2539825098
 20
102.81621106
 10
173.2539745935
 20
102.8162129226
 10
173.2539662116
 20
102.8162147853
 10
173.1940733225
 20
102.832078934
 10
173.0791406662
 20
102.8610039505
 10
172.8950140023
 20
102.9029889035
 10
172.6246552498
 20
102.9580356556
 10
172.1833336123
 20
103.0335277322
 10
171.7994498976
 20
103.0843090269
 10
170.9271042564
 20
103.1394572931
 10
170.4866701693
 20
103.1386405233
 10
170.3438434706
 20
103.1341627243
 10
170.2042843171
 20
103.1275810677
 10
170.0687861957
 20
103.1188964847
 10
169.8263452344
 20
103.0976325276
 10
169.6383289018
 20
103.0782544988
 10
169.4302397736
 20
103.0530445281
 10
169.1961341494
 20
103.0186545107
 10
169.0820555159
 20
102.998947725
 10
169.0741495185
 20
102.9985286298
 10
169.0677150109
 20
102.9981877658
 10
169.1915930205
 20
103.0180146921
  0
LWPOLYLINE
  5
189
330
1F
100
AcDbEntity
  8
0
  6
SLD-Gestrichelt
 62
     7
370
     0
100
AcDbPolyline
 90
       47
 70
   128
 43
0.0
 10
169.7966043794
 20
131.4201932403
 10
169.4201349237
 20
131.4628925177
 10
169.1939837255
 20
131.4958576116
 10
169.1916768395
 20
131.496193819
 10
169.067816525
 20
131.5160328525
 10
169.0404235341
 20
131.5215881917
 10
169.0363741436
 20
131.5224096182
 10
169.0817016133
 20
131.5153231847
 10
169.1265000918
 20
131.5073240551
 10
169.195243805
 20
131.4956434074
 10
169.2940506109
 20
131.4802812415
 10
169.4290709638
 20
131.4612375575
 10
169.660931635
 20
131.4334198835
 10
169.8644889475
 20
131.4128953966
 10
169.950463991
 20
131.4050545919
 10
170.0187904716
 20
131.3992151993
 10
170.067728679
 20
131.3953762877
 10
170.4857383811
 20
131.3756266612
 10
170.9265249737
 20
131.3748070973
 10
171.3704161302
 20
131.3929185274
 10
171.8001269692
 20
131.4299600202
 10
171.98236072
 20
131.452193484
 10
172.1831785471
 20
131.4805895093
 10
172.3986274519
 20
131.5151480961
 10
172.6232382425
 20
131.5558692443
 10
172.9193722785
 20
131.6165300089
 10
173.1102356643
 20
131.6608320925
 10
173.1761737683
 20
131.6775092858
 10
173.2225582891
 20
131.6896984357
 10
173.251625798
 20
131.6973976794
 10
173.4707292125
 20
131.7552719268
 10
173.596783723
 20
131.7902766171
 10
173.6349195198
 20
131.8021509799
 10
173.6357493282
 20
131.8024089563
 10
173.5987292559
 20
131.791032851
 10
173.476768141
 20
131.7557739097
 10
173.2513808601
 20
131.6966321322
 10
172.9571280957
 20
131.6281389448
 10
172.6097415158
 20
131.5600080419
 10
172.2139196427
 20
131.490425207
 10
171.8124693216
 20
131.4277714121
 10
171.3899995156
 20
131.389175542
 10
170.9236020178
 20
131.3722720373
 10
170.4918650866
 20
131.3755614686
 10
170.4907223538
 20
131.375617348
 10
170.1725164384
 20
131.3910828906
 10
169.7966043794
 20
131.4201932403
  0
LWPOLYLINE
  5
18A
330
1F
100
AcDbEntity
  8
0
  6
SLD-Gestrichelt
 62
     7
370
     0
100
AcDbPolyline
 90
       25
 70
   128
 43
0.0
 10
199.6655507901
 20
115.5797736722
 10
200.1562609293
 20
115.6515665355
 10
200.8262804666
 20
115.9646403979
 10
201.4303735413
 20
116.4972651753
 10
201.8005016216
 20
117.0648052506
 10
201.9705164202
 20
117.586786859
 10
201.9850636789
 20
118.1222813905
 10
201.8599069633
 20
118.5546454511
 10
201.5323105224
 20
119.0145865551
 10
200.8863675364
 20
119.4233137651
 10
200.4885679998
 20
119.546828559
 10
200.0480077186
 20
119.6179513357
 10
199.6283984699
 20
119.6364811625
 10
199.2123170712
 20
119.607105153
 10
198.7501389303
 20
119.4934309463
 10
198.2202350118
 20
119.163284777
 10
197.8627021381
 20
118.6186135749
 10
197.7420213588
 20
118.0829359803
 10
197.7718963244
 20
117.4876650624
 10
197.9382808276
 20
116.9238768346
 10
198.2454868921
 20
116.3802382074
 10
198.7435824194
 20
115.883866791
 10
199.177679322
 20
115.6598003584
 10
199.5716324964
 20
115.5825906902
 10
199.6655507901
 20
115.5797736722
  0
LINE
  5
18B
330
1F
100
AcDbEntity
  8
0
  6
SLD-Gestrichelt
 62
     7
370
     0
100
AcDbLine
 10
202.4357642003
 20
119.7571386586
 30
0.0
 11
202.4357642003
 21
114.7571387704
 31
0.0
  0
LINE
  5
18C
330
1F
100
AcDbEntity
  8
0
  6
SLD-Gestrichelt
 62
     7
370
     0
100
AcDbLine
 10
193.1357632347
 20
114.7571387704
 30
0.0
 11
193.1357632347
 21
119.7443120184
 31
0.0
  0
LINE
  5
18D
330
1F
100
AcDbEntity
  8
0
  6
SLD-Gestrichelt
 62
     7
370
     0
100
AcDbLine
 10
230.4458457001
 20
103.100145236
 30
0.0
 11
230.4435099431
 21
103.1268332156
 31
0.0
  0
LINE
  5
18E
330
1F
100
AcDbEntity
  8
0
  6
SLD-Gestrichelt
 62
     7
370
     0
100
AcDbLine
 10
221.3295462497
 20
103.8972325626
 30
0.0
 11
230.4458457001
 21
103.100145236
 31
0.0
  0
LINE
  5
18F
330
1F
100
AcDbEntity
  8
0
  6
SLD-Gestrichelt
 62
     7
370
     0
100
AcDbLine
 10
219.5138956376
 20
91.9451378289
 30
0.0
 11
218.6978335448
 21
101.2671217325
 31
0.0
  0
LINE
  5
190
330
1F
100
AcDbEntity
  8
0
  6
SLD-Gestrichelt
 62
     7
370
     0
100
AcDbLine
 10
219.4757114121
 20
91.948475689
 30
0.0
 11
219.5138956376
 21
91.9451378289
 31
0.0
  0
LWPOLYLINE
  5
191
330
1F
100
AcDbEntity
  8
0
  6
SLD-Gestrichelt
 62
     7
370
     0
100
AcDbPolyline
 90
        3
 70
   128
 43
0.0
 10
212.5343630978
 20
114.3834092657
 10
212.4470869967
 20
116.3815051553
 10
212.4344619878
 20
117.2571387145
  0
LINE
  5
192
330
1F
100
AcDbEntity
  8
0
  6
SLD-Gestrichelt
 62
     7
370
     0
100
AcDbLine
 10
212.4344619878
 20
117.2571387145
 30
0.0
 11
212.4344619878
 21
134.2571396384
 31
0.0
  0
LINE
  5
193
330
1F
100
AcDbEntity
  8
0
  6
SLD-Gestrichelt
 62
     7
370
     0
100
AcDbLine
 10
230.4671431848
 20
103.0125049877
 30
0.0
 11
230.4671431848
 21
102.9252568263
 31
0.0
  0
LINE
  5
194
330
1F
100
AcDbEntity
  8
0
  6
SLD-Gestrichelt
 62
     7
370
     0
100
AcDbLine
 10
230.4671431848
 20
102.9252568263
 30
0.0
 11
230.4458457001
 21
103.100145236
 31
0.0
  0
LINE
  5
195
330
1F
100
AcDbEntity
  8
0
  6
SLD-Gestrichelt
 62
     7
370
     0
100
AcDbLine
 10
230.9250335165
 20
98.218508065
 30
0.0
 11
230.4962749549
 21
103.1222194436
 31
0.0
  0
LWPOLYLINE
  5
196
330
1F
100
AcDbEntity
  8
0
  6
SLD-Gestrichelt
 62
     7
370
     0
100
AcDbPolyline
 90
        7
 70
   128
 43
0.0
 10
231.449085004
 20
91.7956996712
 10
231.4069966742
 20
92.3563204709
 10
231.3459130892
 20
93.1320022795
 10
231.2663706907
 20
94.1159185025
 10
231.1691145369
 20
95.2988415959
 10
231.0550014445
 20
96.6704003516
 10
230.9250335165
 20
98.2185062024
  0
LINE
  5
197
330
1F
100
AcDbEntity
  8
0
  6
SLD-Gestrichelt
 62
     7
370
     0
100
AcDbLine
 10
230.4671431848
 20
103.0125049877
 30
0.0
 11
231.449085004
 21
91.7956996712
 31
0.0
  0
ARC
  5
198
330
1F
100
AcDbEntity
  8
0
  6
SLD-Gestrichelt
 62
     7
370
     0
100
AcDbCircle
 10
219.324901471
 20
103.4380452765
 30
0.0
 40
2.099364547011708
100
AcDbArc
 50
270.0180704341
 51
182.3041032149
  0
LWPOLYLINE
  5
199
330
1F
100
AcDbEntity
  8
0
  6
SLD-Gestrichelt
 62
     7
370
     0
100
AcDbPolyline
 90
        3
 70
   128
 43
0.0
 10
218.643719978
 20
101.452386007
 10
218.8741254576
 20
101.387748495
 10
219.3255635866
 20
101.3386808339
  0
ELLIPSE
  5
19A
330
1F
100
AcDbEntity
  8
0
  6
SLD-Gestrichelt
 62
     7
370
     0
100
AcDbEllipse
 10
219.3255622408
 20
103.49727173
 30
0.0
 11
2.0986147920284
 21
-0.1066102203083972
 31
0.0
210
0.0
220
0.0
230
1.0
 40
0.7153386092
 41
0.2186647895229174
 42
0.3398830866869212
  0
LINE
  5
19B
330
1F
100
AcDbEntity
  8
0
  6
SLD-Gestrichelt
 62
     7
370
     0
100
AcDbLine
 10
221.3907490441
 20
103.80610358
 30
0.0
 11
221.3907490441
 21
103.7188544872
 31
0.0
  0
ARC
  5
19C
330
1F
100
AcDbEntity
  8
0
  6
SLD-Gestrichelt
 62
     7
370
     0
100
AcDbCircle
 10
219.3260737824
 20
103.4260515549
 30
0.0
 40
2.099362636082526
100
AcDbArc
 50
259.5352236511
 51
10.4298824326
  0
LINE
  5
19D
330
1F
100
AcDbEntity
  8
0
  6
SLD-Gestrichelt
 62
     7
370
     0
100
AcDbLine
 10
218.9447644123
 20
101.2743599716
 30
0.0
 11
218.9447644123
 21
101.361608133
 31
0.0
  0
ELLIPSE
  5
19E
330
1F
100
AcDbEntity
  8
0
  6
SLD-Gestrichelt
 62
     7
370
     0
100
AcDbEllipse
 10
219.3255622408
 20
103.49727173
 30
0.0
 11
1.524364985095275
 21
1.910935730384722
 31
0.0
210
0.0
220
0.0
230
1.0
 40
0.755863691
 41
3.650357678800446
 42
3.771575975964475
  0
LINE
  5
19F
330
1F
100
AcDbEntity
  8
0
  6
SLD-Gestrichelt
 62
     7
370
     0
100
AcDbLine
 10
230.4671431848
 20
102.9252568263
 30
0.0
 11
221.3907490441
 21
103.7188544872
 31
0.0
  0
LINE
  5
1A0
330
1F
100
AcDbEntity
  8
0
  6
SLD-Gestrichelt
 62
     7
370
     0
100
AcDbLine
 10
218.9447644123
 20
101.2743599716
 30
0.0
 11
219.7546686002
 21
92.0227523896
 31
0.0
  0
ELLIPSE
  5
1A1
330
1F
100
AcDbEntity
  8
0
  6
SLD-Gestrichelt
 62
     7
370
     0
100
AcDbEllipse
 10
217.3759883438
 20
117.2259419144
 30
0.0
 11
-2.171559574460816
 21
25.27937094423519
 31
0.0
210
0.0
220
0.0
230
1.0
 40
0.1239698459
 41
3.130894416717012
 42
3.2093238026347
  0
ARC
  5
1A2
330
1F
100
AcDbEntity
  8
0
  6
SLD-Gestrichelt
 62
     7
370
     0
100
AcDbCircle
 10
312.5863231107
 20
119.994376465
 30
0.0
 40
100.2091695172199
100
AcDbArc
 50
183.2098156602
 51
192.0252549969
  0
LWPOLYLINE
  5
1A3
330
1F
100
AcDbEntity
  8
0
  6
SLD-Gestrichelt
 62
     7
370
     0
100
AcDbPolyline
 90
       10
 70
   128
 43
0.0
 10
214.5816559859
 20
92.3763904723
 10
214.5806278058
 20
92.4794562164
 10
214.5796555051
 20
92.7432030442
 10
214.5787204572
 20
93.1801367554
 10
214.5778785416
 20
93.7817171219
 10
214.5771483847
 20
94.5482458922
 10
214.57657469
 20
95.4713672402
 10
214.5761835345
 20
96.5784080329
 10
214.5760382482
 20
97.8362187746
 10
214.5761574575
 20
99.1165153685
  0
LWPOLYLINE
  5
1A4
330
1F
100
AcDbEntity
  8
0
  6
SLD-Gestrichelt
 62
     7
370
     0
100
AcDbPolyline
 90
       30
 70
   128
 43
0.0
 10
201.2521388897
 20
117.9086260966
 10
201.6967187592
 20
117.9357608201
 10
202.1205115088
 20
118.0564745449
 10
202.5036985942
 20
118.265122874
 10
202.8283632317
 20
118.5519495051
 10
203.0793267258
 20
118.9035429855
 10
203.2448544123
 20
119.3034630272
 10
203.3172032752
 20
119.7330097205
 10
203.2929926135
 20
120.1720980465
 10
203.173353053
 20
120.6001969989
 10
202.9638799795
 20
120.9972887303
 10
202.6743690439
 20
121.3448056954
 10
202.318354226
 20
121.6264986436
 10
201.9124857106
 20
121.8291958797
 10
201.4757401266
 20
121.9434193338
 10
201.0285395154
 20
121.9638283367
 10
200.5917939314
 20
121.8894678171
 10
200.185925416
 20
121.7238157991
 10
199.829910598
 20
121.4746176268
 10
199.5403996625
 20
121.1535253099
 10
199.330926589
 20
120.7755529325
 10
199.2112870284
 20
120.3583739701
 10
199.1870763668
 20
119.9214954398
 10
199.2594252297
 20
119.4853449709
 10
199.4249510535
 20
119.070316898
 10
199.6759145477
 20
118.6958171896
 10
200.0005810478
 20
118.3793570384
 10
200.3837681332
 20
118.1357338795
 10
200.8075608828
 20
117.976339185
 10
201.2521388897
 20
117.9086260966
  0
LINE
  5
1A5
330
1F
100
AcDbEntity
  8
0
  6
SLD-Gestrichelt
 62
     7
370
     0
100
AcDbLine
 10
185.2857644626
 20
100.3571394834
 30
0.0
 11
189.7857642689
 21
100.3571394834
 31
0.0
  0
LINE
  5
1A6
330
1F
100
AcDbEntity
  8
0
  6
SLD-Gestrichelt
 62
     7
370
     0
100
AcDbLine
 10
197.3357635506
 20
134.1571379456
 30
0.0
 11
197.4197390445
 21
134.1571379456
 31
0.0
  0
LINE
  5
1A7
330
1F
100
AcDbEntity
  8
0
  6
SLD-Gestrichelt
 62
     7
370
     0
100
AcDbLine
 10
197.3357635506
 20
117.2571387145
 30
0.0
 11
197.3357635506
 21
134.1571379456
 31
0.0
  0
LINE
  5
1A8
330
1F
100
AcDbEntity
  8
0
  6
SLD-Gestrichelt
 62
     7
370
     0
100
AcDbLine
 10
219.7313706347
 20
92.3761073503
 30
0.0
 11
218.9447644123
 21
101.361608133
 31
0.0
  0
ELLIPSE
  5
1A9
330
1F
100
AcDbEntity
  8
0
  6
SLD-Gestrichelt
 62
     7
370
     0
100
AcDbEllipse
 10
217.5454590289
 20
117.2111241827
 30
0.0
 11
-2.211209241634918
 21
25.2887142446837
 31
0.0
210
0.0
220
0.0
230
1.0
 40
0.0029955906
 41
3.230443815685278
 42
3.331038989261744
  0
LINE
  5
1AA
330
1F
100
AcDbEntity
  8
0
  6
SLD-Gestrichelt
 62
     7
370
     0
100
AcDbLine
 10
161.0357637473
 20
128.2571386549
 30
0.0
 11
161.0357637473
 21
130.8146631348
 31
0.0
  0
LINE
  5
1AB
330
1F
100
AcDbEntity
  8
0
  6
SLD-Gestrichelt
 62
     7
370
     0
100
AcDbLine
 10
163.5357641571
 20
106.2571387741
 30
0.0
 11
163.5357641571
 21
103.6535622555
 31
0.0
  0
LINE
  5
1AC
330
1F
100
AcDbEntity
  8
0
  6
SLD-Gestrichelt
 62
     7
370
     0
100
AcDbLine
 10
194.3757633635
 20
134.6597429368
 30
0.0
 11
194.3757633635
 21
100.1442596319
 31
0.0
  0
ARC
  5
1AD
330
1F
100
AcDbEntity
  8
0
  6
SLD-Gestrichelt
 62
     7
370
     0
100
AcDbCircle
 10
193.7473473478
 20
134.6575947707
 30
0.0
 40
0.6284196872648712
100
AcDbArc
 50
307.2148147453
 51
0.1958581042
  0
LWPOLYLINE
  5
1AE
330
1F
100
AcDbEntity
  8
0
  6
SLD-Gestrichelt
 62
     7
370
     0
100
AcDbPolyline
 90
        3
 70
   128
 43
0.0
 10
194.3405407437
 20
100.3571394834
 10
194.3680073091
 20
100.245298818
 10
194.3757633635
 20
100.1442596319
  0
LINE
  5
1AF
330
1F
100
AcDbEntity
  8
0
  6
SLD-Gestrichelt
 62
     7
370
     0
100
AcDbLine
 10
193.7757643827
 20
134.1571379456
 30
0.0
 11
194.1274187484
 21
134.1571379456
 31
0.0
  0
LINE
  5
1B0
330
1F
100
AcDbEntity
  8
0
  6
SLD-Gestrichelt
 62
     7
370
     0
100
AcDbLine
 10
193.7757643827
 20
100.3571394834
 30
0.0
 11
194.3405407437
 21
100.3571394834
 31
0.0
  0
ARC
  5
1B1
330
1F
100
AcDbEntity
  8
0
  6
SLD-Gestrichelt
 62
     7
370
     0
100
AcDbCircle
 10
192.9235240735
 20
134.657269814
 30
0.0
 40
0.6277646558949662
100
AcDbArc
 50
179.774278685
 51
232.8148777969
  0
LINE
  5
1B2
330
1F
100
AcDbEntity
  8
0
  6
SLD-Gestrichelt
 62
     7
370
     0
100
AcDbLine
 10
192.2957642891
 20
134.6597429368
 30
0.0
 11
192.2957642891
 21
100.1442596319
 31
0.0
  0
LWPOLYLINE
  5
1B3
330
1F
100
AcDbEntity
  8
0
  6
SLD-Gestrichelt
 62
     7
370
     0
100
AcDbPolyline
 90
        3
 70
   128
 43
0.0
 10
192.2957642891
 20
100.1442596319
 10
192.3035203435
 20
100.245298818
 10
192.3309859776
 20
100.3571394834
  0
LINE
  5
1B4
330
1F
100
AcDbEntity
  8
0
  6
SLD-Gestrichelt
 62
     7
370
     0
100
AcDbLine
 10
192.5441079729
 20
134.1571379456
 30
0.0
 11
192.8957642012
 21
134.1571379456
 31
0.0
  0
LINE
  5
1B5
330
1F
100
AcDbEntity
  8
0
  6
SLD-Gestrichelt
 62
     7
370
     0
100
AcDbLine
 10
192.3309859776
 20
100.3571394834
 30
0.0
 11
192.8957642012
 21
100.3571394834
 31
0.0
  0
LINE
  5
1B6
330
1F
100
AcDbEntity
  8
0
  6
SLD-Gestrichelt
 62
     7
370
     0
100
AcDbLine
 10
157.4357642748
 20
106.2571387741
 30
0.0
 11
157.4357642748
 21
105.3913151848
 31
0.0
  0
LINE
  5
1B7
330
1F
100
AcDbEntity
  8
0
  6
SLD-Gestrichelt
 62
     7
370
     0
100
AcDbLine
 10
158.3857635924
 20
106.2571387741
 30
0.0
 11
158.3857635924
 21
104.4420525435
 31
0.0
  0
LINE
  5
1B8
330
1F
100
AcDbEntity
  8
0
  6
SLD-Gestrichelt
 62
     7
370
     0
100
AcDbLine
 10
158.3857635924
 20
128.2571386549
 30
0.0
 11
158.3857635924
 21
130.1298793408
 31
0.0
  0
LINE
  5
1B9
330
1F
100
AcDbEntity
  8
0
  6
SLD-Gestrichelt
 62
     7
370
     0
100
AcDbLine
 10
157.4357642748
 20
128.2571386549
 30
0.0
 11
157.4357642748
 21
129.181611352
 31
0.0
  0
LINE
  5
1BA
330
1F
100
AcDbEntity
  8
0
  6
SLD-Gestrichelt
 62
     7
370
     0
100
AcDbLine
 10
157.4357642748
 20
127.1221451464
 30
0.0
 11
157.4357642748
 21
107.3921322826
 31
0.0
  0
LINE
  5
1BB
330
1F
100
AcDbEntity
  8
0
  6
SLD-Gestrichelt
 62
     7
370
     0
100
AcDbLine
 10
192.8957642012
 20
134.1571379456
 30
0.0
 11
193.7757643827
 21
134.1571379456
 31
0.0
  0
LINE
  5
1BC
330
1F
100
AcDbEntity
  8
0
  6
SLD-Gestrichelt
 62
     7
370
     0
100
AcDbLine
 10
192.8957642012
 20
100.3571394834
 30
0.0
 11
193.7757643827
 21
100.3571394834
 31
0.0
  0
CIRCLE
  5
1BD
330
1F
100
AcDbEntity
  8
0
  6
SLD-Gestrichelt
 62
     7
370
     0
100
AcDbCircle
 10
225.310414887
 20
97.445437531
 30
0.0
 40
2.999493705780953
  0
LINE
  5
1BE
330
1F
100
AcDbEntity
  8
0
  6
SLD-Gestrichelt
 62
     7
370
     0
100
AcDbLine
 10
230.9836621352
 20
91.3922600451
 30
0.0
 11
231.449085004
 21
91.7956996712
 31
0.0
  0
LINE
  5
1BF
330
1F
100
AcDbEntity
  8
0
  6
SLD-Gestrichelt
 62
     7
370
     0
100
AcDbLine
 10
221.3907490441
 20
103.80610358
 30
0.0
 11
230.4671431848
 21
103.0125049877
 31
0.0
  0
LINE
  5
1C0
330
1F
100
AcDbEntity
  8
0
  6
SLD-Gestrichelt
 62
     7
370
     0
100
AcDbLine
 10
230.9836621352
 20
91.3922581825
 30
0.0
 11
219.7313706347
 21
92.3761073503
 31
0.0
  0
CIRCLE
  5
1C1
330
1F
100
AcDbEntity
  8
0
  6
SLD-Gestrichelt
 62
     7
370
     0
100
AcDbCircle
 10
225.3101345866
 20
97.4764655232
 30
0.0
 40
2.099591877847887
  0
LWPOLYLINE
  5
1C2
330
1F
100
AcDbEntity
  8
0
  6
SLD-Gestrichelt
 62
     7
370
     0
100
AcDbPolyline
 90
        3
 70
   128
 43
0.0
 10
194.3757633635
 20
134.9708158526
 10
195.304839588
 20
136.6268228742
 10
195.3709243753
 20
136.744314805
  0
ARC
  5
1C3
330
1F
100
AcDbEntity
  8
0
  6
SLD-Gestrichelt
 62
     7
370
     0
100
AcDbCircle
 10
196.6764749101
 20
136.1350552888
 30
0.0
 40
0.6093303209641197
100
AcDbArc
 50
359.3380584991
 51
89.126532193
  0
LINE
  5
1C4
330
1F
100
AcDbEntity
  8
0
  6
SLD-Gestrichelt
 62
     7
370
     0
100
AcDbLine
 10
195.3709243753
 20
136.744314805
 30
0.0
 11
196.6857637235
 21
136.744314805
 31
0.0
  0
LWPOLYLINE
  5
1C5
330
1F
100
AcDbEntity
  8
0
  6
SLD-Gestrichelt
 62
     7
370
     0
100
AcDbPolyline
 90
        3
 70
   128
 43
0.0
 10
191.3006042086
 20
136.744314805
 10
191.3666880646
 20
136.6268228742
 10
192.2957642891
 20
134.9708158526
  0
LINE
  5
1C6
330
1F
100
AcDbEntity
  8
0
  6
SLD-Gestrichelt
 62
     7
370
     0
100
AcDbLine
 10
197.2857645669
 20
136.1280158165
 30
0.0
 11
197.2857645669
 21
98.6531060192
 31
0.0
  0
ARC
  5
1C7
330
1F
100
AcDbEntity
  8
0
  6
SLD-Gestrichelt
 62
     7
370
     0
100
AcDbCircle
 10
196.6728928986
 20
98.6411077294
 30
0.0
 40
0.6129891033281305
100
AcDbArc
 50
271.2031178686
 51
1.1215456616
  0
LINE
  5
1C8
330
1F
100
AcDbEntity
  8
0
  6
SLD-Gestrichelt
 62
     7
370
     0
100
AcDbLine
 10
192.2957642891
 20
134.9708158526
 30
0.0
 11
192.2957642891
 21
99.8280160132
 31
0.0
  0
LINE
  5
1C9
330
1F
100
AcDbEntity
  8
0
  6
SLD-Gestrichelt
 62
     7
370
     0
100
AcDbLine
 10
194.3757633635
 20
134.9708158526
 30
0.0
 11
194.3757633635
 21
99.8280160132
 31
0.0
  0
LINE
  5
1CA
330
1F
100
AcDbEntity
  8
0
  6
SLD-Gestrichelt
 62
     7
370
     0
100
AcDbLine
 10
195.3709243753
 20
136.744314805
 30
0.0
 11
195.3709243753
 21
98.0282537642
 31
0.0
  0
LWPOLYLINE
  5
1CB
330
1F
100
AcDbEntity
  8
0
  6
SLD-Gestrichelt
 62
     7
370
     0
100
AcDbPolyline
 90
        7
 70
   128
 43
0.0
 10
230.4860006043
 20
97.6800732318
 10
230.6101421782
 20
96.1560979488
 10
230.7182687291
 20
94.8166586462
 10
230.8101716407
 20
93.6644431207
 10
230.8858509132
 20
92.6991719755
 10
230.9437381991
 20
91.9409822676
 10
230.9836621352
 20
91.3922581825
  0
ELLIPSE
  5
1CC
330
1F
100
AcDbEntity
  8
0
  6
SLD-Gestrichelt
 62
     7
370
     0
100
AcDbEllipse
 10
225.3106277954
 20
97.8802101299
 30
0.0
 11
0.0
 21
-2.101280043027515
 31
0.0
210
0.0
220
0.0
230
1.0
 40
0.999390827
 41
1.607752704637526
 42
4.495462540404151
  0
ARC
  5
1CD
330
1F
100
AcDbEntity
  8
0
  6
SLD-Gestrichelt
 62
     7
370
     0
100
AcDbCircle
 10
225.3046518939
 20
97.8143509756
 30
0.0
 40
2.109428480802271
100
AcDbArc
 50
165.7815860457
 51
3.9006336123
  0
LWPOLYLINE
  5
1CE
330
1F
100
AcDbEntity
  8
0
  6
SLD-Gestrichelt
 62
     7
370
     0
100
AcDbPolyline
 90
        3
 70
   128
 43
0.0
 10
194.3757633635
 20
99.8280160132
 10
194.4316129156
 20
99.7266080233
 10
195.3709243753
 20
98.0282537642
  0
LINE
  5
1CF
330
1F
100
AcDbEntity
  8
0
  6
SLD-Gestrichelt
 62
     7
370
     0
100
AcDbLine
 10
195.3709243753
 20
98.0282537642
 30
0.0
 11
196.6857637235
 21
98.0282537642
 31
0.0
  0
LWPOLYLINE
  5
1D0
330
1F
100
AcDbEntity
  8
0
  6
SLD-Gestrichelt
 62
     7
370
     0
100
AcDbPolyline
 90
        3
 70
   128
 43
0.0
 10
191.3006042086
 20
98.0282537642
 10
192.2399156683
 20
99.7266080233
 10
192.2957642891
 20
99.8280160132
  0
LINE
  5
1D1
330
1F
100
AcDbEntity
  8
0
  6
SLD-Gestrichelt
 62
     7
370
     0
100
AcDbLine
 10
157.4357642748
 20
105.4386664185
 30
0.0
 11
157.4357642748
 21
105.7096254083
 31
0.0
  0
LINE
  5
1D2
330
1F
100
AcDbEntity
  8
0
  6
SLD-Gestrichelt
 62
     7
370
     0
100
AcDbLine
 10
157.4357642748
 20
129.1310526434
 30
0.0
 11
157.4357642748
 21
129.0353704247
 31
0.0
  0
LWPOLYLINE
  5
1D3
330
1F
100
AcDbEntity
  8
0
  6
SLD-Gestrichelt
 62
     7
370
     0
100
AcDbPolyline
 90
       13
 70
   128
 43
0.0
 10
158.1957346716
 20
129.645219073
 10
158.0310116478
 20
129.2476514357
 10
157.94852627
 20
129.0886690843
 10
157.8405617692
 20
128.9114160466
 10
157.7873255082
 20
128.8365023214
 10
157.7228388705
 20
128.7577413025
 10
157.6840399721
 20
128.7175798792
 10
157.6446729668
 20
128.6835065114
 10
157.6131570109
 20
128.6621354523
 10
157.5735907026
 20
128.6450102928
 10
157.523612208
 20
128.6467052999
 10
157.4522840747
 20
128.777869046
 10
157.4357642748
 20
129.0353704247
  0
LWPOLYLINE
  5
1D4
330
1F
100
AcDbEntity
  8
0
  6
SLD-Gestrichelt
 62
     7
370
     0
100
AcDbPolyline
 90
       11
 70
   128
 43
0.0
 10
157.4357642748
 20
105.7096254083
 10
157.4607479342
 20
105.9616059068
 10
157.5192945965
 20
106.0410114008
 10
157.5710947581
 20
106.0416242111
 10
157.6048458883
 20
106.0273461047
 10
157.6486608901
 20
105.997716077
 10
157.6921480664
 20
105.9590112421
 10
157.7398764857
 20
105.9081209826
 10
157.8084087887
 20
105.8223443109
 10
157.9476172992
 20
105.6087678301
 10
158.1957346716
 20
105.0901534039
  0
LINE
  5
1D5
330
1F
100
AcDbEntity
  8
0
  6
SLD-Gestrichelt
 62
     7
370
     0
100
AcDbLine
 10
157.4357642748
 20
129.0353704247
 30
0.0
 11
157.4357642748
 21
105.7096254083
 31
0.0
  0
LWPOLYLINE
  5
1D6
330
1F
100
AcDbEntity
  8
0
  6
SLD-Gestrichelt
 62
     7
370
     0
100
AcDbPolyline
 90
       32
 70
   128
 43
0.0
 10
201.2938751795
 20
117.5835163743
 10
201.789476625
 20
117.6103301407
 10
202.2647864141
 20
117.7349089415
 10
202.7003492185
 20
117.9521525049
 10
203.078328348
 20
118.253166904
 10
203.3832526722
 20
118.625628413
 10
203.6026387432
 20
119.0542886037
 10
203.7275030234
 20
119.5215980991
 10
203.7527344146
 20
120.0084248561
 10
203.6772991487
 20
120.4948385715
 10
203.504287354
 20
120.9609250075
 10
203.2407808074
 20
121.3876027617
 10
202.8975660869
 20
121.7574039477
 10
202.4886968502
 20
122.0551878217
 10
202.0309126892
 20
122.2687643024
 10
201.5429536768
 20
122.3893887366
 10
201.0447966822
 20
122.4121227863
 10
200.5568376698
 20
122.336036526
 10
200.0990516462
 20
122.1642438325
 10
199.6901824095
 20
121.9037785198
 10
199.3469695517
 20
121.5653037655
 10
199.0834630051
 20
121.162677184
 10
198.9104512104
 20
120.7123822536
 10
198.8350159445
 20
120.2328538059
 10
198.8602473357
 20
119.7437238882
 10
198.9851116159
 20
119.2650177985
 10
199.2044958242
 20
118.816333474
 10
199.5094201484
 20
118.4160403212
 10
199.8874011406
 20
118.0805263578
 10
200.3229639449
 20
117.8235275441
 10
200.7982737341
 20
117.6555654095
 10
201.2938751795
 20
117.5835163743
  0
CIRCLE
  5
1D7
330
1F
100
AcDbEntity
  8
0
  6
SLD-Gestrichelt
 62
     7
370
     0
100
AcDbCircle
 10
184.3357639977
 20
117.2571387145
 30
0.0
 40
5.0
  0
LINE
  5
1D8
330
1F
100
AcDbEntity
  8
0
  6
SLD-Gestrichelt
 62
     7
370
     0
100
AcDbLine
 10
230.9250335165
 20
98.218508065
 30
0.0
 11
230.4860006043
 21
97.6800750944
 31
0.0
  0
ELLIPSE
  5
1D9
330
1F
100
AcDbEntity
  8
0
  6
SLD-Gestrichelt
 62
     7
370
     0
100
AcDbEllipse
 10
5800.0633104375
 20
-370.8983773828
 30
0.0
 11
-8187.872503842793
 21
715.9096438399944
 31
-8.171241461241151E-14
210
-9.903972886773543E-18
220
8.659575119963473E-19
230
1.0
 40
0.0030416916
 41
0.8203416701587164
 42
0.8217911261274333
  0
ELLIPSE
  5
1DA
330
1F
100
AcDbEntity
  8
0
  6
SLD-Gestrichelt
 62
     7
370
     0
100
AcDbEllipse
 10
5800.0633104375
 20
-370.8983773828
 30
0.0
 11
-8187.872503842793
 21
715.9096438399944
 31
-8.171241461241151E-14
210
-9.903972886773543E-18
220
8.659575119963473E-19
230
1.0
 40
0.0030416916
 41
0.8224830337583765
 42
0.8229958067941299
  0
LINE
  5
1DB
330
1F
100
AcDbEntity
  8
0
  6
SLD-Gestrichelt
 62
     7
370
     0
100
AcDbLine
 10
197.3357635506
 20
117.2571387145
 30
0.0
 11
197.3357635506
 21
114.7236127875
 31
0.0
  0
LINE
  5
1DC
330
1F
100
AcDbEntity
  8
0
  6
SLD-Gestrichelt
 62
     7
370
     0
100
AcDbLine
 10
177.3357639977
 20
101.0499373081
 30
0.0
 11
177.4299247699
 21
101.719927043
 31
0.0
  0
LINE
  5
1DD
330
1F
100
AcDbEntity
  8
0
  6
SLD-Gestrichelt
 62
     7
370
     0
100
AcDbLine
 10
177.4299247699
 20
132.794350386
 30
0.0
 11
177.3357639977
 21
133.4643401208
 31
0.0
  0
ARC
  5
1DE
330
1F
100
AcDbEntity
  8
0
  6
SLD-Gestrichelt
 62
     7
370
     0
100
AcDbCircle
 10
176.835757245
 20
101.803431561
 30
0.0
 40
0.6000067526677242
100
AcDbArc
 50
352.0
 51
0.0
  0
ARC
  5
1DF
330
1F
100
AcDbEntity
  8
0
  6
SLD-Gestrichelt
 62
     7
370
     0
100
AcDbCircle
 10
176.835757245
 20
101.803431561
 30
0.0
 40
0.6000067526677242
100
AcDbArc
 50
0.0
 51
33.5571153394
  0
ARC
  5
1E0
330
1F
100
AcDbEntity
  8
0
  6
SLD-Gestrichelt
 62
     7
370
     0
100
AcDbCircle
 10
176.835757245
 20
132.710845868
 30
0.0
 40
0.6000067526677085
100
AcDbArc
 50
348.75
 51
8.0
  0
LWPOLYLINE
  5
1E1
330
1F
100
AcDbEntity
  8
0
  6
SLD-Gestrichelt
 62
     7
370
     0
100
AcDbPolyline
 90
        3
 70
   128
 43
0.0
 10
177.4242350366
 20
132.5937900695
 10
177.3900912048
 20
132.4812332171
 10
177.3357639977
 20
132.3791816834
  0
LINE
  5
1E2
330
1F
100
AcDbEntity
  8
0
  6
SLD-Gestrichelt
 62
     7
370
     0
100
AcDbLine
 10
177.4357639951
 20
101.8034312877
 30
0.0
 11
177.4357639951
 21
132.7108461413
 31
0.0
  0
LINE
  5
1E3
330
1F
100
AcDbEntity
  8
0
  6
SLD-Gestrichelt
 62
     7
370
     0
100
AcDbLine
 10
177.4357639951
 20
101.8034312877
 30
0.0
 11
177.4357639951
 21
132.7108461413
 31
0.0
  0
LINE
  5
1E4
330
1F
100
AcDbEntity
  8
0
  6
SLD-Gestrichelt
 62
     7
370
     0
100
AcDbLine
 10
166.8683920943
 20
104.5071389529
 30
0.0
 11
169.0665387505
 21
104.5071389529
 31
0.0
  0
LINE
  5
1E5
330
1F
100
AcDbEntity
  8
0
  6
SLD-Gestrichelt
 62
     7
370
     0
100
AcDbLine
 10
169.0665387505
 20
130.0071384761
 30
0.0
 11
166.8683920943
 21
130.0071384761
 31
0.0
  0
ARC
  5
1E6
330
1F
100
AcDbEntity
  8
0
  6
SLD-Gestrichelt
 62
     7
370
     0
100
AcDbCircle
 10
166.8683919418
 20
104.9071387145
 30
0.0
 40
0.3999999999999915
100
AcDbArc
 50
210.0
 51
270.0
  0
ARC
  5
1E7
330
1F
100
AcDbEntity
  8
0
  6
SLD-Gestrichelt
 62
     7
370
     0
100
AcDbCircle
 10
166.8683919418
 20
129.6071387145
 30
0.0
 40
0.4000000000000341
100
AcDbArc
 50
90.0
 51
150.0
  0
ARC
  5
1E8
330
1F
100
AcDbEntity
  8
0
  6
SLD-Gestrichelt
 62
     7
370
     0
100
AcDbCircle
 10
173.1599407255
 20
109.5071387145
 30
0.0
 40
5.000000000000014
100
AcDbArc
 50
275.4073980571
 51
326.6329870308
  0
ARC
  5
1E9
330
1F
100
AcDbEntity
  8
0
  6
SLD-Gestrichelt
 62
     7
370
     0
100
AcDbCircle
 10
173.1599407255
 20
125.0071387145
 30
0.0
 40
5.00000000000001
100
AcDbArc
 50
33.3670129692
 51
84.588585443
  0
LINE
  5
1EA
330
1F
100
AcDbEntity
  8
0
  6
SLD-Gestrichelt
 62
     7
370
     0
100
AcDbLine
 10
197.3685442426
 20
116.8515836474
 30
0.0
 11
195.4285955944
 21
115.8578014004
 31
0.0
  0
LINE
  5
1EB
330
1F
100
AcDbEntity
  8
0
  6
SLD-Gestrichelt
 62
     7
370
     0
100
AcDbLine
 10
195.4285955944
 20
115.8578014004
 30
0.0
 11
195.1773508408
 21
113.6926503389
 31
0.0
  0
LINE
  5
1EC
330
1F
100
AcDbEntity
  8
0
  6
SLD-Gestrichelt
 62
     7
370
     0
100
AcDbLine
 10
198.0566258498
 20
116.5906219397
 30
0.0
 11
197.6332261183
 21
116.8843122435
 31
0.0
  0
LINE
  5
1ED
330
1F
100
AcDbEntity
  8
0
  6
SLD-Gestrichelt
 62
     7
370
     0
100
AcDbLine
 10
207.3790493377
 20
110.1241204891
 30
0.0
 11
199.5565078177
 21
115.5502279292
 31
0.0
  0
LINE
  5
1EE
330
1F
100
AcDbEntity
  8
0
  6
SLD-Gestrichelt
 62
     7
370
     0
100
AcDbLine
 10
195.2394141772
 20
113.4332746736
 30
0.0
 11
207.5309871652
 21
104.9072220924
 31
0.0
  0
LINE
  5
1EF
330
1F
100
AcDbEntity
  8
0
  6
SLD-Gestrichelt
 62
     7
370
     0
100
AcDbLine
 10
166.5219820061
 20
129.8071388158
 30
0.0
 11
165.3384135061
 21
127.7571385729
 31
0.0
  0
LINE
  5
1F0
330
1F
100
AcDbEntity
  8
0
  6
SLD-Gestrichelt
 62
     7
370
     0
100
AcDbLine
 10
165.3384135061
 20
106.757138856
 30
0.0
 11
166.5219820061
 21
104.7071386132
 31
0.0
  0
LINE
  5
1F1
330
1F
100
AcDbEntity
  8
0
  6
SLD-Gestrichelt
 62
     7
370
     0
100
AcDbLine
 10
199.7359345623
 20
113.981713774
 30
0.0
 11
200.8250120052
 21
115.5803001023
 31
0.0
  0
LINE
  5
1F2
330
1F
100
AcDbEntity
  8
0
  6
SLD-Gestrichelt
 62
     7
370
     0
100
AcDbLine
 10
197.246632255
 20
117.7874589924
 30
0.0
 11
195.9363023707
 21
115.8641105288
 31
0.0
  0
ARC
  5
1F3
330
1F
100
AcDbEntity
  8
0
  6
SLD-Gestrichelt
 62
     7
370
     0
100
AcDbCircle
 10
184.2857639977
 20
107.3821387145
 30
0.0
 40
1.00000000000001
100
AcDbArc
 50
218.6821874535
 51
0.0
  0
ARC
  5
1F4
330
1F
100
AcDbEntity
  8
0
  6
SLD-Gestrichelt
 62
     7
370
     0
100
AcDbCircle
 10
184.2857639977
 20
127.1321387145
 30
0.0
 40
1.000000000000019
100
AcDbArc
 50
0.0
 51
141.3178125465
  0
LINE
  5
1F5
330
1F
100
AcDbEntity
  8
0
  6
SLD-Gestrichelt
 62
     7
370
     0
100
AcDbLine
 10
163.5357641571
 20
106.757138856
 30
0.0
 11
165.3384135061
 21
106.757138856
 31
0.0
  0
LINE
  5
1F6
330
1F
100
AcDbEntity
  8
0
  6
SLD-Gestrichelt
 62
     7
370
     0
100
AcDbLine
 10
165.3384135061
 20
127.7571385729
 30
0.0
 11
161.0357637473
 21
127.7571385729
 31
0.0
  0
LINE
  5
1F7
330
1F
100
AcDbEntity
  8
0
  6
SLD-Gestrichelt
 62
     7
370
     0
100
AcDbLine
 10
177.3357639977
 20
106.757138856
 30
0.0
 11
183.5051390299
 21
106.757138856
 31
0.0
  0
LINE
  5
1F8
330
1F
100
AcDbEntity
  8
0
  6
SLD-Gestrichelt
 62
     7
370
     0
100
AcDbLine
 10
183.5051390299
 20
127.7571385729
 30
0.0
 11
177.3357639977
 21
127.7571385729
 31
0.0
  0
LINE
  5
1F9
330
1F
100
AcDbEntity
  8
0
  6
SLD-Gestrichelt
 62
     7
370
     0
100
AcDbLine
 10
190.6357637563
 20
111.0071386214
 30
0.0
 11
193.1357632347
 21
111.0071386214
 31
0.0
  0
LINE
  5
1FA
330
1F
100
AcDbEntity
  8
0
  6
SLD-Gestrichelt
 62
     7
370
     0
100
AcDbLine
 10
193.1357632347
 20
123.5071388076
 30
0.0
 11
190.6357637563
 21
123.5071388076
 31
0.0
  0
LINE
  5
1FB
330
1F
100
AcDbEntity
  8
0
  6
SLD-Gestrichelt
 62
     7
370
     0
100
AcDbLine
 10
185.2857644626
 20
111.2571386623
 30
0.0
 11
185.7857636132
 21
111.7571387443
 31
0.0
  0
LINE
  5
1FC
330
1F
100
AcDbEntity
  8
0
  6
SLD-Gestrichelt
 62
     7
370
     0
100
AcDbLine
 10
185.7857636132
 20
122.7571386847
 30
0.0
 11
185.2857644626
 21
123.2571387666
 31
0.0
  0
LINE
  5
1FD
330
1F
100
AcDbEntity
  8
0
  6
SLD-Gestrichelt
 62
     7
370
     0
100
AcDbLine
 10
185.7857636132
 20
111.7571387443
 30
0.0
 11
190.6357637563
 21
111.7571387443
 31
0.0
  0
LINE
  5
1FE
330
1F
100
AcDbEntity
  8
0
  6
SLD-Gestrichelt
 62
     7
370
     0
100
AcDbLine
 10
190.6357637563
 20
122.7571386847
 30
0.0
 11
185.7857636132
 21
122.7571386847
 31
0.0
  0
LINE
  5
1FF
330
1F
100
AcDbEntity
  8
0
  6
SLD-Gestrichelt
 62
     7
370
     0
100
AcDbLine
 10
185.2857644626
 20
137.2571382675
 30
0.0
 11
185.2857644626
 21
134.1571379456
 31
0.0
  0
LINE
  5
200
330
1F
100
AcDbEntity
  8
0
  6
SLD-Gestrichelt
 62
     7
370
     0
100
AcDbLine
 10
174.1029433397
 20
102.2158339623
 30
0.0
 11
173.6350147475
 21
102.7116710323
 31
0.0
  0
LINE
  5
201
330
1F
100
AcDbEntity
  8
0
  6
SLD-Gestrichelt
 62
     7
370
     0
100
AcDbLine
 10
169.0371098884
 20
102.9915241528
 30
0.0
 11
168.5196363323
 21
102.4956991899
 31
0.0
  0
LINE
  5
202
330
1F
100
AcDbEntity
  8
0
  6
SLD-Gestrichelt
 62
     7
370
     0
100
AcDbLine
 10
168.5190021017
 20
132.0186285305
 30
0.0
 11
169.0366879993
 21
131.522741169
 31
0.0
  0
LINE
  5
203
330
1F
100
AcDbEntity
  8
0
  6
SLD-Gestrichelt
 62
     7
370
     0
100
AcDbLine
 10
173.6343288285
 20
131.8023884672
 30
0.0
 11
174.1022327405
 21
132.2982823479
 31
0.0
  0
LINE
  5
204
330
1F
100
AcDbEntity
  8
0
  6
SLD-Gestrichelt
 62
     7
370
     0
100
AcDbLine
 10
193.1357632347
 20
114.7571387704
 30
0.0
 11
202.4357642003
 21
114.7571387704
 31
0.0
  0
LINE
  5
205
330
1F
100
AcDbEntity
  8
0
  6
SLD-Gestrichelt
 62
     7
370
     0
100
AcDbLine
 10
202.4357642003
 20
119.7571386586
 30
0.0
 11
193.1357632347
 21
119.7571386586
 31
0.0
  0
LINE
  5
206
330
1F
100
AcDbEntity
  8
0
  6
SLD-Gestrichelt
 62
     7
370
     0
100
AcDbLine
 10
202.4357642003
 20
114.7571387704
 30
0.0
 11
203.93791487
 21
117.2571387145
 31
0.0
  0
LINE
  5
207
330
1F
100
AcDbEntity
  8
0
  6
SLD-Gestrichelt
 62
     7
370
     0
100
AcDbLine
 10
203.93791487
 20
117.2571387145
 30
0.0
 11
202.4357642003
 21
119.7571386586
 31
0.0
  0
LINE
  5
208
330
1F
100
AcDbEntity
  8
0
  6
SLD-Gestrichelt
 62
     7
370
     0
100
AcDbLine
 10
173.6357639966
 20
129.9839932474
 30
0.0
 11
173.6357639966
 21
131.8021779883
 31
0.0
  0
LINE
  5
209
330
1F
100
AcDbEntity
  8
0
  6
SLD-Gestrichelt
 62
     7
370
     0
100
AcDbLine
 10
169.0357641273
 20
131.5216394144
 30
0.0
 11
169.0357641273
 21
130.0016362223
 31
0.0
  0
LINE
  5
20A
330
1F
100
AcDbEntity
  8
0
  6
SLD-Gestrichelt
 62
     7
370
     0
100
AcDbLine
 10
173.6357639966
 20
102.7119150388
 30
0.0
 11
173.6357639966
 21
104.5302841815
 31
0.0
  0
LINE
  5
20B
330
1F
100
AcDbEntity
  8
0
  6
SLD-Gestrichelt
 62
     7
370
     0
100
AcDbLine
 10
169.0357641273
 20
104.5126412067
 30
0.0
 11
169.0357641273
 21
102.9985323551
 31
0.0
  0
LINE
  5
20C
330
1F
100
AcDbEntity
  8
0
  6
SLD-Gestrichelt
 62
     7
370
     0
100
AcDbLine
 10
221.4255618819
 20
103.425536305
 30
0.0
 11
221.4255618819
 21
103.4374022859
 31
0.0
  0
LINE
  5
20D
330
1F
100
AcDbEntity
  8
0
  6
SLD-Gestrichelt
 62
     7
370
     0
100
AcDbLine
 10
217.225561566
 20
103.4374022859
 30
0.0
 11
217.225561566
 21
103.2698852944
 31
0.0
  0
LINE
  5
20E
330
1F
100
AcDbEntity
  8
0
  6
SLD-Gestrichelt
 62
     7
370
     0
100
AcDbLine
 10
201.6051958271
 20
116.7254818723
 30
0.0
 11
202.9876547822
 21
118.7547064622
 31
0.0
  0
LINE
  5
20F
330
1F
100
AcDbEntity
  8
0
  6
SLD-Gestrichelt
 62
     7
370
     0
100
AcDbLine
 10
199.5166229972
 20
121.1194342471
 30
0.0
 11
198.0264156082
 21
118.932052865
 31
0.0
  0
ARC
  5
210
330
1F
100
AcDbEntity
  8
0
  6
SLD-Gestrichelt
 62
     7
370
     0
100
AcDbCircle
 10
160.1357639977
 20
131.0371387145
 30
0.0
 40
0.9000000000000341
100
AcDbArc
 50
270.0
 51
311.1792132368
  0
ARC
  5
211
330
1F
100
AcDbEntity
  8
0
  6
SLD-Gestrichelt
 62
     7
370
     0
100
AcDbCircle
 10
162.6357639977
 20
103.5361387145
 30
0.0
 40
0.9000000000000131
100
AcDbArc
 50
29.8499024808
 51
90.0
  0
LINE
  5
212
330
1F
100
AcDbEntity
  8
0
  6
SLD-Gestrichelt
 62
     7
370
     0
100
AcDbLine
 10
157.4357642748
 20
105.386138894
 30
0.0
 11
158.3857635924
 21
104.4361386451
 31
0.0
  0
LINE
  5
213
330
1F
100
AcDbEntity
  8
0
  6
SLD-Gestrichelt
 62
     7
370
     0
100
AcDbLine
 10
160.1357634135
 20
130.1371390003
 30
0.0
 11
158.3857635924
 21
130.1371390003
 31
0.0
  0
LINE
  5
214
330
1F
100
AcDbEntity
  8
0
  6
SLD-Gestrichelt
 62
     7
370
     0
100
AcDbLine
 10
158.3857635924
 20
104.4361386451
 30
0.0
 11
162.6357638233
 21
104.4361386451
 31
0.0
  0
LINE
  5
215
330
1F
100
AcDbEntity
  8
0
  6
SLD-Gestrichelt
 62
     7
370
     0
100
AcDbLine
 10
158.3857635924
 20
130.1371390003
 30
0.0
 11
157.4357642748
 21
129.1871387514
 31
0.0
  0
LINE
  5
216
330
1F
100
AcDbEntity
  8
0
  6
SLD-Gestrichelt
 62
     7
370
     0
100
AcDbLine
 10
227.4106281766
 20
97.4755268547
 30
0.0
 11
227.4106281766
 21
97.8770945224
 31
0.0
  0
LINE
  5
217
330
1F
100
AcDbEntity
  8
0
  6
SLD-Gestrichelt
 62
     7
370
     0
100
AcDbLine
 10
223.2106278607
 20
97.8618189695
 30
0.0
 11
223.2106278607
 21
97.4755268547
 31
0.0
  0
LINE
  5
218
330
1F
100
AcDbEntity
  8
0
  6
SLD-Gestrichelt
 62
     7
370
     0
100
AcDbLine
 10
203.3599658825
 20
118.5907549228
 30
0.0
 11
204.4552775987
 21
120.1984921939
 31
0.0
  0
LINE
  5
219
330
1F
100
AcDbEntity
  8
0
  6
SLD-Gestrichelt
 62
     7
370
     0
100
AcDbLine
 10
200.1960600682
 20
122.8271750736
 30
0.0
 11
199.2277844765
 21
121.4059069756
 31
0.0
  0
LINE
  5
21A
330
1F
100
AcDbEntity
  8
VERMASSUNG
100
AcDbLine
 10
232.3357639977
 20
90.2571387145
 30
0.0
 11
232.3357639977
 21
112.3581594152
 31
0.0
  0
DIMENSION
  5
21B
330
1F
100
AcDbEntity
  8
VERMASSUNG
100
AcDbDimension
  2
_D
 10
232.3357639977
 20
147.2571387145
 30
0.0
 11
194.8857639977
 21
147.2571387145
 31
0.0
 70
   160
  1
<>
 71
     2
 42
-1.0
  3
SLDDIMSTYLE0
100
AcDbAlignedDimension
 13
157.4357639977
 23
129.1871387145
 33
0.0
 14
232.3357639977
 24
90.2571387145
 34
0.0
100
AcDbRotatedDimension
  0
DIMENSION
  5
226
330
1F
100
AcDbEntity
  8
VERMASSUNG
100
AcDbDimension
  2
_D_1
 10
232.3357639977
 20
141.2571387145
 30
0.0
 11
204.8357639977
 21
141.2571387145
 31
0.0
 70
   160
  1
<>
 71
     2
 42
-1.0
  3
SLDDIMSTYLE0
100
AcDbAlignedDimension
 13
177.3357639977
 23
136.9571387145
 33
0.0
 14
232.3357639977
 24
90.2571387145
 34
0.0
100
AcDbRotatedDimension
  0
DIMENSION
  5
230
330
1F
100
AcDbEntity
  8
VERMASSUNG
100
AcDbDimension
  2
_D_2
 10
153.2214821581
 20
97.2571387145
 30
0.0
 11
153.2214821581
 21
117.2571387145
 31
0.0
 70
   160
  1
HSK %%c<>
 71
     2
 42
-1.0
  3
SLDDIMSTYLE0
100
AcDbAlignedDimension
 13
177.6357639977
 23
137.2571387145
 33
0.0
 14
177.6357639977
 24
97.2571387145
 34
0.0
 50
90.0
100
AcDbRotatedDimension
  0
DIMENSION
  5
23C
330
1F
100
AcDbEntity
  8
VERMASSUNG
100
AcDbDimension
  2
_D_3
 10
239.79524839
 20
117.2571387145
 30
0.0
 11
239.79524839
 21
103.7571387145
 31
0.0
 70
   160
  1
<>
 71
     2
 42
-1.0
  3
SLDDIMSTYLE0
100
AcDbAlignedDimension
 13
232.3357639977
 23
90.2571387145
 33
0.0
 14
232.3357639977
 24
117.2571387145
 34
0.0
 50
90.0
100
AcDbRotatedDimension
  0
DIMENSION
  5
246
330
1F
100
AcDbEntity
  8
VERMASSUNG
100
AcDbDimension
  2
_D_4
 10
232.3357639977
 20
90.2571387145
 30
0.0
 11
225.2095927886
 21
110.579147677
 31
0.0
 70
   162
  1
<>
 71
     1
 42
-1.0
  3
SLDDIMSTYLE1
100
AcDb2LineAngularDimension
 13
229.4601924378
 23
114.9719128411
 33
0.0
 14
230.9250326162
 24
98.2185072654
 34
0.0
 15
232.3357639977
 25
117.2571387145
 35
0.0
 16
231.0553183464
 26
111.4287801627
 36
0.0
  0
LINE
  5
251
330
1F
100
AcDbEntity
  8
VERMASSUNG
  6
SLD-Punktstrich
370
     0
100
AcDbLine
 10
155.577675059
 20
117.2571387145
 30
0.0
 11
232.8713270283
 21
117.2571387145
 31
0.0
  0
LINE
  5
252
330
1F
100
AcDbEntity
  8
0
  6
SLD-Durchgehend
 62
     7
370
    15
100
AcDbLine
 10
76.0122959739
 20
90.2571380141
 30
0.0
 11
79.2540901577
 21
90.770589188
 31
0.0
  0
LINE
  5
253
330
1F
100
AcDbEntity
  8
0
  6
SLD-Durchgehend
 62
     7
370
    15
100
AcDbLine
 10
75.828618644
 20
104.1130814704
 30
0.0
 11
75.5275158565
 21
104.1394248608
 31
0.0
  0
LINE
  5
254
330
1F
100
AcDbEntity
  8
0
  6
SLD-Durchgehend
 62
     7
370
    15
100
AcDbLine
 10
80.3412728248
 20
102.6831194761
 30
0.0
 11
78.8339842813
 21
102.8008507568
 31
0.0
  0
LINE
  5
255
330
1F
100
AcDbEntity
  8
0
  6
SLD-Durchgehend
 62
     7
370
    15
100
AcDbLine
 10
80.7483548535
 20
91.0258051011
 30
0.0
 11
80.3412728248
 21
102.6831194761
 31
0.0
  0
LINE
  5
256
330
1F
100
AcDbEntity
  8
0
  6
SLD-Durchgehend
 62
     7
370
    15
100
AcDbLine
 10
80.7483548535
 20
91.0258051011
 30
0.0
 11
79.2540901577
 21
90.770589188
 31
0.0
  0
LINE
  5
257
330
1F
100
AcDbEntity
  8
0
  6
SLD-Durchgehend
 62
     7
370
    15
100
AcDbLine
 10
75.9971194986
 20
90.6917359683
 30
0.0
 11
75.5770134976
 21
102.7219984683
 31
0.0
  0
LWPOLYLINE
  5
258
330
1F
100
AcDbEntity
  8
0
  6
SLD-Durchgehend
 62
     7
370
    15
100
AcDbPolyline
 90
        9
 70
   128
 43
0.0
 10
76.0122959739
 20
90.2571380141
 10
76.0121765459
 20
90.2605578306
 10
76.011454095
 20
90.2812462303
 10
76.0101097501
 20
90.3197433802
 10
76.0082072436
 20
90.3742238882
 10
76.0058367693
 20
90.442106128
 10
76.0031107077
 20
90.5201695862
 10
76.0001582942
 20
90.6047169122
 10
75.9971194986
 20
90.6917359683
  0
LWPOLYLINE
  5
259
330
1F
100
AcDbEntity
  8
0
  6
SLD-Durchgehend
 62
     7
370
    15
100
AcDbPolyline
 90
        9
 70
   128
 43
0.0
 10
75.5770134976
 20
102.7219984683
 10
75.5746171173
 20
102.7906220409
 10
75.5723304876
 20
102.8561014685
 10
75.5702231665
 20
102.916447446
 10
75.5683590953
 20
102.9698271307
 10
75.5667949681
 20
103.0146181586
 10
75.5655782825
 20
103.0494589362
 10
75.5647460294
 20
103.0732924122
 10
75.5643235
 20
103.085392155
  0
LINE
  5
25A
330
1F
100
AcDbEntity
  8
0
  6
SLD-Durchgehend
 62
     7
370
    15
100
AcDbLine
 10
75.5643235
 20
103.085392155
 30
0.0
 11
75.527568971
 21
104.137904011
 31
0.0
  0
LINE
  5
25B
330
1F
100
AcDbEntity
  8
0
  6
SLD-Durchgehend
 62
     7
370
    15
100
AcDbLine
 10
75.527568971
 20
104.137904011
 30
0.0
 11
75.5275158565
 21
104.1394248608
 31
0.0
  0
ARC
  5
25C
330
1F
100
AcDbEntity
  8
0
  6
SLD-Durchgehend
 62
     7
370
    15
100
AcDbCircle
 10
75.9736984148
 20
115.8525420641
 30
0.0
 40
24.52086857272619
100
AcDbArc
 50
281.1642154303
 51
314.0161461702
  0
LINE
  5
25D
330
1F
100
AcDbEntity
  8
0
  6
SLD-Durchgehend
 62
     7
370
    15
100
AcDbLine
 10
93.0122968978
 20
98.218508065
 30
0.0
 11
93.0122968978
 21
97.6800750944
 31
0.0
  0
ARC
  5
25E
330
1F
100
AcDbEntity
  8
0
  6
SLD-Durchgehend
 62
     7
370
    15
100
AcDbCircle
 10
75.9773264665
 20
115.8113928378
 30
0.0
 40
24.87840237614002
100
AcDbArc
 50
281.0262980627
 51
313.2143140238
  0
LINE
  5
25F
330
1F
100
AcDbEntity
  8
0
  6
SLD-Durchgehend
 62
     7
370
    15
100
AcDbLine
 10
80.3297700597
 20
103.0125049877
 30
0.0
 11
77.8312931773
 21
102.9252568263
 31
0.0
  0
LINE
  5
260
330
1F
100
AcDbEntity
  8
0
  6
SLD-Durchgehend
 62
     7
370
    15
100
AcDbLine
 10
77.8312931773
 20
102.9252568263
 30
0.0
 11
75.863991163
 21
103.100145236
 31
0.0
  0
LINE
  5
261
330
1F
100
AcDbEntity
  8
0
  6
SLD-Durchgehend
 62
     7
370
    15
100
AcDbLine
 10
75.863991163
 20
103.100145236
 30
0.0
 11
75.4708110592
 21
114.3593506425
 31
0.0
  0
LINE
  5
262
330
1F
100
AcDbEntity
  8
0
  6
SLD-Durchgehend
 62
     7
370
    15
100
AcDbLine
 10
93.0122968978
 20
114.9719129319
 30
0.0
 11
75.4708110592
 21
114.3593506425
 31
0.0
  0
LINE
  5
263
330
1F
100
AcDbEntity
  8
0
  6
SLD-Durchgehend
 62
     7
370
    15
100
AcDbLine
 10
93.0122968978
 20
98.218508065
 30
0.0
 11
93.0122968978
 21
114.9719129319
 31
0.0
  0
LINE
  5
264
330
1F
100
AcDbEntity
  8
0
  6
SLD-Durchgehend
 62
     7
370
    15
100
AcDbLine
 10
80.3297700597
 20
103.0125049877
 30
0.0
 11
80.3412728248
 21
102.6831194761
 31
0.0
  0
ARC
  5
265
330
1F
100
AcDbEntity
  8
0
  6
SLD-Durchgehend
 62
     7
370
    15
100
AcDbCircle
 10
76.0122959739
 20
117.2571387145
 30
0.0
 40
17.00000000000003
100
AcDbArc
 50
0.0
 51
94.1652388993
  0
LINE
  5
266
330
1F
100
AcDbEntity
  8
0
  6
SLD-Durchgehend
 62
     7
370
    15
100
AcDbLine
 10
75.4708110592
 20
114.3593506425
 30
0.0
 11
74.7775330212
 21
134.2122368517
 31
0.0
  0
LINE
  5
267
330
1F
100
AcDbEntity
  8
0
  6
SLD-Durchgehend
 62
     7
370
    15
100
AcDbLine
 10
93.0122968978
 20
114.9719129319
 30
0.0
 11
93.0122968978
 21
117.2571387145
 31
0.0
  0
ARC
  5
268
330
1F
100
AcDbEntity
  8
0
  6
SLD-Durchgehend
 62
     7
370
    15
100
AcDbCircle
 10
75.9440330335
 20
116.5589666967
 30
0.0
 40
15.7991512957249
100
AcDbArc
 50
261.8904350921
 51
268.9170698514
  0
ARC
  5
269
330
1F
100
AcDbEntity
  8
0
  6
SLD-Durchgehend
 62
     7
370
    15
100
AcDbCircle
 10
76.0123833867
 20
117.2564827633
 30
0.0
 40
16.50066071319578
100
AcDbArc
 50
94.2338018386
 51
102.0020596131
  0
ELLIPSE
  5
26A
330
1F
100
AcDbEntity
  8
0
  6
SLD-Durchgehend
 62
     7
370
    15
100
AcDbEllipse
 10
68.6864834662
 20
107.5156714423
 30
0.0
 11
-1.689113411873436
 21
2.35888182040155
 31
0.0
210
0.0
220
0.0
230
1.0
 40
0.7071815479
 41
0.0
 42
6.283185307179586
  0
ARC
  5
26B
330
1F
100
AcDbEntity
  8
0
  6
SLD-Durchgehend
 62
     7
370
    15
100
AcDbCircle
 10
76.0122959739
 20
117.2571387145
 30
0.0
 40
16.50000000000002
100
AcDbArc
 50
102.0022367305
 51
261.9977632695
  0
LINE
  5
26C
330
1F
100
AcDbEntity
  8
0
  6
SLD-Durchgehend
 62
     7
370
    15
100
AcDbLine
 10
74.7794570172
 20
134.1571379456
 30
0.0
 11
74.1711006969
 21
134.1571379456
 31
0.0
  0
ARC
  5
26D
330
1F
100
AcDbEntity
  8
0
  6
SLD-Durchgehend
 62
     7
370
    15
100
AcDbCircle
 10
76.0122959739
 20
117.2571387145
 30
0.0
 40
17.1877501000801
100
AcDbArc
 50
351.5235436167
 51
79.5011042616
  0
LINE
  5
26E
330
1F
100
AcDbEntity
  8
0
  6
SLD-Durchgehend
 62
     7
370
    15
100
AcDbLine
 10
80.5122957802
 20
134.1571379456
 30
0.0
 11
79.1441889717
 21
134.1571379456
 31
0.0
  0
LINE
  5
26F
330
1F
100
AcDbEntity
  8
0
  6
SLD-Durchgehend
 62
     7
370
    15
100
AcDbLine
 10
80.5122957802
 20
134.168673307
 30
0.0
 11
80.5122957802
 21
134.1571379456
 31
0.0
  0
LINE
  5
270
330
1F
100
AcDbEntity
  8
0
  6
SLD-Durchgehend
 62
     7
370
    15
100
AcDbLine
 10
75.6594896495
 20
100.3571394834
 30
0.0
 11
71.4691694131
 21
100.3571394834
 31
0.0
  0
LINE
  5
271
330
1F
100
AcDbEntity
  8
0
  6
SLD-Durchgehend
 62
     7
370
    15
100
AcDbLine
 10
63.1348931467
 20
129.1071390736
 30
0.0
 11
63.5625471598
 21
129.1071390736
 31
0.0
  0
ARC
  5
272
330
1F
100
AcDbEntity
  8
0
  6
SLD-Durchgehend
 62
     7
370
    15
100
AcDbCircle
 10
76.0122959739
 20
117.2571387145
 30
0.0
 40
17.18775010008008
100
AcDbArc
 50
136.4138466575
 51
180.0218556991
  0
LINE
  5
273
330
1F
100
AcDbEntity
  8
0
  6
SLD-Durchgehend
 62
     7
370
    15
100
AcDbLine
 10
59.01229505
 20
117.2571387145
 30
0.0
 11
58.8245478696
 21
117.25058238
 31
0.0
  0
ARC
  5
274
330
1F
100
AcDbEntity
  8
0
  6
SLD-Durchgehend
 62
     7
370
    15
100
AcDbCircle
 10
76.0122959739
 20
117.2571387145
 30
0.0
 40
17.00000000000001
100
AcDbArc
 50
135.8084932736
 51
180.0
  0
LINE
  5
275
330
1F
100
AcDbEntity
  8
0
  6
SLD-Durchgehend
 62
     7
370
    15
100
AcDbLine
 10
63.823058573
 20
129.1071390736
 30
0.0
 11
64.1622956148
 21
129.1071390736
 31
0.0
  0
LINE
  5
276
330
1F
100
AcDbEntity
  8
0
  6
SLD-Durchgehend
 62
     7
370
    15
100
AcDbLine
 10
64.1622956148
 20
129.4463761154
 30
0.0
 11
64.1622956148
 21
129.1071390736
 31
0.0
  0
ARC
  5
277
330
1F
100
AcDbEntity
  8
0
  6
SLD-Durchgehend
 62
     7
370
    15
100
AcDbCircle
 10
76.0122959739
 20
117.2571387145
 30
0.0
 40
17.00000000000001
100
AcDbArc
 50
96.2176502519
 51
134.1915067264
  0
LINE
  5
278
330
1F
100
AcDbEntity
  8
0
  6
SLD-Durchgehend
 62
     7
370
    15
100
AcDbLine
 10
71.5122961676
 20
134.1571379456
 30
0.0
 11
71.5122961676
 21
134.168673307
 31
0.0
  0
ARC
  5
279
330
1F
100
AcDbEntity
  8
0
  6
SLD-Durchgehend
 62
     7
370
    15
100
AcDbCircle
 10
76.0122959739
 20
117.2571387145
 30
0.0
 40
17.1877501000801
100
AcDbArc
 50
100.4988957384
 51
133.5861533425
  0
LINE
  5
27A
330
1F
100
AcDbEntity
  8
0
  6
SLD-Durchgehend
 62
     7
370
    15
100
AcDbLine
 10
72.8804029761
 20
134.1571379456
 30
0.0
 11
71.5122961676
 21
134.1571379456
 31
0.0
  0
LINE
  5
27B
330
1F
100
AcDbEntity
  8
0
  6
SLD-Durchgehend
 62
     7
370
    15
100
AcDbLine
 10
64.1622956148
 20
130.1345415416
 30
0.0
 11
64.1622956148
 21
129.7068875286
 31
0.0
  0
LINE
  5
27C
330
1F
100
AcDbEntity
  8
0
  6
SLD-Durchgehend
 62
     7
370
    15
100
AcDbLine
 10
72.8804029761
 20
134.1571379456
 30
0.0
 11
74.1711006969
 21
134.1571379456
 31
0.0
  0
LINE
  5
27D
330
1F
100
AcDbEntity
  8
0
  6
SLD-Durchgehend
 62
     7
370
    15
100
AcDbLine
 10
64.1622956148
 20
129.4463761154
 30
0.0
 11
64.1622956148
 21
129.7068875286
 31
0.0
  0
LINE
  5
27E
330
1F
100
AcDbEntity
  8
0
  6
SLD-Durchgehend
 62
     7
370
    15
100
AcDbLine
 10
77.8534912508
 20
134.1571379456
 30
0.0
 11
79.1441889717
 21
134.1571379456
 31
0.0
  0
LINE
  5
27F
330
1F
100
AcDbEntity
  8
0
  6
SLD-Durchgehend
 62
     7
370
    15
100
AcDbLine
 10
63.823058573
 20
129.1071390736
 30
0.0
 11
63.5625471598
 21
129.1071390736
 31
0.0
  0
LINE
  5
280
330
1F
100
AcDbEntity
  8
0
  6
SLD-Durchgehend
 62
     7
370
    15
100
AcDbLine
 10
71.5122961676
 20
136.1280158165
 30
0.0
 11
71.5122961676
 21
136.744314805
 31
0.0
  0
ARC
  5
281
330
1F
100
AcDbEntity
  8
0
  6
SLD-Durchgehend
 62
     7
370
    15
100
AcDbCircle
 10
76.0122959739
 20
117.2571387145
 30
0.0
 40
20.00000000000002
100
AcDbArc
 50
103.0028781629
 51
126.3346172154
  0
LINE
  5
282
330
1F
100
AcDbEntity
  8
0
  6
SLD-Durchgehend
 62
     7
370
    15
100
AcDbLine
 10
64.1622956148
 20
133.3685480061
 30
0.0
 11
64.1622956148
 21
132.6173963028
 31
0.0
  0
ARC
  5
283
330
1F
100
AcDbEntity
  8
0
  6
SLD-Durchgehend
 62
     7
370
    15
100
AcDbCircle
 10
76.0122959739
 20
117.2571387145
 30
0.0
 40
20.00000000000001
100
AcDbArc
 50
143.6653827846
 51
254.0379858372
  0
LINE
  5
284
330
1F
100
AcDbEntity
  8
0
  6
SLD-Durchgehend
 62
     7
370
    15
100
AcDbLine
 10
70.5122960037
 20
98.6531060192
 30
0.0
 11
70.5122960037
 21
98.0282537642
 31
0.0
  0
LINE
  5
285
330
1F
100
AcDbEntity
  8
0
  6
SLD-Durchgehend
 62
     7
370
    15
100
AcDbLine
 10
59.9008866823
 20
129.1071390736
 30
0.0
 11
60.6520383856
 21
129.1071390736
 31
0.0
  0
LINE
  5
286
330
1F
100
AcDbEntity
  8
0
  6
SLD-Durchgehend
 62
     7
370
    15
100
AcDbLine
 10
80.5122957802
 20
136.744314805
 30
0.0
 11
80.5122957802
 21
136.1280158165
 31
0.0
  0
ARC
  5
287
330
1F
100
AcDbEntity
  8
0
  6
SLD-Durchgehend
 62
     7
370
    15
100
AcDbCircle
 10
76.0122959739
 20
117.2571387145
 30
0.0
 40
20.00000000000001
100
AcDbArc
 50
328.2116693829
 51
76.9971218371
  0
LINE
  5
288
330
1F
100
AcDbEntity
  8
0
  6
SLD-Durchgehend
 62
     7
370
    15
100
AcDbLine
 10
80.5122957802
 20
136.1280158165
 30
0.0
 11
80.5122957802
 21
134.168673307
 31
0.0
  0
LINE
  5
289
330
1F
100
AcDbEntity
  8
0
  6
SLD-Durchgehend
 62
     7
370
    15
100
AcDbLine
 10
70.5122960037
 20
100.3571394834
 30
0.0
 11
70.5122960037
 21
98.6531060192
 31
0.0
  0
LINE
  5
28A
330
1F
100
AcDbEntity
  8
0
  6
SLD-Durchgehend
 62
     7
370
    15
100
AcDbLine
 10
60.6520383856
 20
129.1071390736
 30
0.0
 11
63.1348931467
 21
129.1071390736
 31
0.0
  0
LINE
  5
28B
330
1F
100
AcDbEntity
  8
0
  6
SLD-Durchgehend
 62
     7
370
    15
100
AcDbLine
 10
71.4691694131
 20
100.3571394834
 30
0.0
 11
70.5122960037
 21
100.3571394834
 31
0.0
  0
LINE
  5
28C
330
1F
100
AcDbEntity
  8
0
  6
SLD-Durchgehend
 62
     7
370
    15
100
AcDbLine
 10
71.5122961676
 20
134.168673307
 30
0.0
 11
71.5122961676
 21
136.1280158165
 31
0.0
  0
LINE
  5
28D
330
1F
100
AcDbEntity
  8
0
  6
SLD-Durchgehend
 62
     7
370
    15
100
AcDbLine
 10
64.1622956148
 20
132.6173963028
 30
0.0
 11
64.1622956148
 21
130.1345415416
 31
0.0
  0
ARC
  5
28E
330
1F
100
AcDbEntity
  8
0
  6
SLD-Durchgehend
 62
     7
370
    15
100
AcDbCircle
 10
76.0084904079
 20
117.2609442804
 30
0.0
 40
19.99468001395847
100
AcDbArc
 50
126.3322940084
 51
143.6677059916
  0
ARC
  5
28F
330
1F
100
AcDbEntity
  8
0
  6
SLD-Durchgehend
 62
     7
370
    15
100
AcDbCircle
 10
76.0143830556
 20
117.2697407976
 30
0.0
 40
20.0126906033349
100
AcDbArc
 50
254.0421632182
 51
267.1298520507
  0
ARC
  5
290
330
1F
100
AcDbEntity
  8
0
  6
SLD-Durchgehend
 62
     7
370
    15
100
AcDbCircle
 10
76.0122959739
 20
117.2550441652
 30
0.0
 40
20.00204160398589
100
AcDbArc
 50
76.9984728682
 51
103.0015271318
  0
ARC
  5
291
330
1F
100
AcDbEntity
  8
0
  6
SLD-Durchgehend
 62
     7
370
    15
100
AcDbCircle
 10
76.0122959739
 20
117.2571387145
 30
0.0
 40
20.0
100
AcDbArc
 50
267.1340160174
 51
269.2995485898
  0
CIRCLE
  5
292
330
1F
100
AcDbEntity
  8
VERMASSUNG
  6
SLD-Punktstrich
100
AcDbCircle
 10
76.0122959739
 20
115.3080728677
 30
0.0
 40
25.0
  0
DIMENSION
  5
293
330
1F
100
AcDbEntity
  8
VERMASSUNG
100
AcDbDimension
  2
_D_5
 10
46.0122959739
 20
140.3080728677
 30
0.0
 11
46.0122959739
 21
115.3080728677
 31
0.0
 70
   160
  1
%%c<>
 71
     2
 42
-1.0
  3
SLDDIMSTYLE0
100
AcDbAlignedDimension
 13
76.0122959739
 23
90.3080728677
 33
0.0
 14
76.0122959739
 24
140.3080728677
 34
0.0
 50
90.0
100
AcDbRotatedDimension
  0
INSERT
  5
2A9
330
1F
100
AcDbEntity
  8
VERMASSUNG
100
AcDbBlockReference
  2
SW_CENTERMARKSYMBOL_0
 10
76.0122959739
 20
117.2571387145
 30
0.0
  0
OLE2FRAME
  5
2AA
330
1F
100
AcDbEntity
  8
0
100
AcDbOle2Frame
 70
     2
  3
Paintbrush-Bild
 10
13.8511154363
 20
38.264191557
 30
0.0
 11
51.6290888628
 21
31.9806341108
 31
0.0
 71
     2
 72
     0
 73
     1
 90
    12928
310
80552BED0767C5B32B40DDAF6807D121434000000000000000006FFBDDFB85D0
310
4940DDAF6807D121434000000000000000006FFBDDFB85D04940416F4BD60AFB
310
3F4000000000000000002BED0767C5B32B40416F4BD60AFB3F40000000000000
310
0000000000000100000000010000010000000100000000000100000000320000
310
D0CF11E0A1B11AE1000000000000000000000000000000003E000300FEFF0900
310
0600000000000000000000000100000001000000000000000010000002000000
310
01000000FEFFFFFF0000000000000000FFFFFFFFFFFFFFFFFFFFFFFFFFFFFFFF
310
FFFFFFFFFFFFFFFFFFFFFFFFFFFFFFFFFFFFFFFFFFFFFFFFFFFFFFFFFFFFFFFF
310
FFFFFFFFFFFFFFFFFFFFFFFFFFFFFFFFFFFFFFFFFFFFFFFFFFFFFFFFFFFFFFFF
310
FFFFFFFFFFFFFFFFFFFFFFFFFFFFFFFFFFFFFFFFFFFFFFFFFFFFFFFFFFFFFFFF
310
FFFFFFFFFFFFFFFFFFFFFFFFFFFFFFFFFFFFFFFFFFFFFFFFFFFFFFFFFFFFFFFF
310
FFFFFFFFFFFFFFFFFFFFFFFFFFFFFFFFFFFFFFFFFFFFFFFFFFFFFFFFFFFFFFFF
310
FFFFFFFFFFFFFFFFFFFFFFFFFFFFFFFFFFFFFFFFFFFFFFFFFFFFFFFFFFFFFFFF
310
FFFFFFFFFFFFFFFFFFFFFFFFFFFFFFFFFFFFFFFFFFFFFFFFFFFFFFFFFFFFFFFF
310
FFFFFFFFFFFFFFFFFFFFFFFFFFFFFFFFFFFFFFFFFFFFFFFFFFFFFFFFFFFFFFFF
310
FFFFFFFFFFFFFFFFFFFFFFFFFFFFFFFFFFFFFFFFFFFFFFFFFFFFFFFFFFFFFFFF
310
FFFFFFFFFFFFFFFFFFFFFFFFFFFFFFFFFFFFFFFFFFFFFFFFFFFFFFFFFFFFFFFF
310
FFFFFFFFFFFFFFFFFFFFFFFFFFFFFFFFFFFFFFFFFFFFFFFFFFFFFFFFFFFFFFFF
310
FFFFFFFFFFFFFFFFFFFFFFFFFFFFFFFFFFFFFFFFFFFFFFFFFFFFFFFFFFFFFFFF
310
FFFFFFFFFFFFFFFFFFFFFFFFFFFFFFFFFFFFFFFFFFFFFFFFFFFFFFFFFFFFFFFF
310
FDFFFFFFFEFFFFFFFEFFFFFFFEFFFFFF05000000060000000700000008000000
310
090000000A0000000B0000000C0000000D0000000E0000000F00000010000000
310
11000000120000001300000014000000150000001600000017000000FEFFFFFF
310
FFFFFFFFFFFFFFFFFFFFFFFFFFFFFFFFFFFFFFFFFFFFFFFFFFFFFFFFFFFFFFFF
310
FFFFFFFFFFFFFFFFFFFFFFFFFFFFFFFFFFFFFFFFFFFFFFFFFFFFFFFFFFFFFFFF
310
FFFFFFFFFFFFFFFFFFFFFFFFFFFFFFFFFFFFFFFFFFFFFFFFFFFFFFFFFFFFFFFF
310
FFFFFFFFFFFFFFFFFFFFFFFFFFFFFFFFFFFFFFFFFFFFFFFFFFFFFFFFFFFFFFFF
310
FFFFFFFFFFFFFFFFFFFFFFFFFFFFFFFFFFFFFFFFFFFFFFFFFFFFFFFFFFFFFFFF
310
FFFFFFFFFFFFFFFFFFFFFFFFFFFFFFFFFFFFFFFFFFFFFFFFFFFFFFFFFFFFFFFF
310
FFFFFFFFFFFFFFFFFFFFFFFFFFFFFFFFFFFFFFFFFFFFFFFFFFFFFFFFFFFFFFFF
310
FFFFFFFFFFFFFFFFFFFFFFFFFFFFFFFFFFFFFFFFFFFFFFFFFFFFFFFFFFFFFFFF
310
FFFFFFFFFFFFFFFFFFFFFFFFFFFFFFFFFFFFFFFFFFFFFFFFFFFFFFFFFFFFFFFF
310
FFFFFFFFFFFFFFFFFFFFFFFFFFFFFFFFFFFFFFFFFFFFFFFFFFFFFFFFFFFFFFFF
310
FFFFFFFFFFFFFFFFFFFFFFFFFFFFFFFFFFFFFFFFFFFFFFFFFFFFFFFFFFFFFFFF
310
FFFFFFFFFFFFFFFFFFFFFFFFFFFFFFFFFFFFFFFFFFFFFFFFFFFFFFFFFFFFFFFF
310
FFFFFFFFFFFFFFFFFFFFFFFFFFFFFFFFFFFFFFFFFFFFFFFFFFFFFFFFFFFFFFFF
310
52006F006F007400200045006E00740072007900000000000000000000000000
310
0000000000000000000000000000000000000000000000000000000000000000
310
16000500FFFFFFFFFFFFFFFF020000000A00030000000000C000000000000046
310
000000000000000000000000C03ED0C6BC49D00103000000C000000000000000
310
01004F006C006500000000000000000000000000000000000000000000000000
310
0000000000000000000000000000000000000000000000000000000000000000
310
0A000200FFFFFFFFFFFFFFFFFFFFFFFF00000000000000000000000000000000
310
0000000000000000000000000000000000000000000000001400000000000000
310
010043006F006D0070004F0062006A0000000000000000000000000000000000
310
0000000000000000000000000000000000000000000000000000000000000000
310
120002010100000003000000FFFFFFFF00000000000000000000000000000000
310
0000000000000000000000000000000000000000010000004D00000000000000
310
01004F006C006500310030004E00610074006900760065000000000000000000
310
0000000000000000000000000000000000000000000000000000000000000000
310
1A000200FFFFFFFFFFFFFFFFFFFFFFFF00000000000000000000000000000000
310
0000000000000000000000000000000000000000040000002426000000000000
310
FEFFFFFF02000000FEFFFFFFFFFFFFFFFFFFFFFFFFFFFFFFFFFFFFFFFFFFFFFF
310
FFFFFFFFFFFFFFFFFFFFFFFFFFFFFFFFFFFFFFFFFFFFFFFFFFFFFFFFFFFFFFFF
310
FFFFFFFFFFFFFFFFFFFFFFFFFFFFFFFFFFFFFFFFFFFFFFFFFFFFFFFFFFFFFFFF
310
FFFFFFFFFFFFFFFFFFFFFFFFFFFFFFFFFFFFFFFFFFFFFFFFFFFFFFFFFFFFFFFF
310
FFFFFFFFFFFFFFFFFFFFFFFFFFFFFFFFFFFFFFFFFFFFFFFFFFFFFFFFFFFFFFFF
310
FFFFFFFFFFFFFFFFFFFFFFFFFFFFFFFFFFFFFFFFFFFFFFFFFFFFFFFFFFFFFFFF
310
FFFFFFFFFFFFFFFFFFFFFFFFFFFFFFFFFFFFFFFFFFFFFFFFFFFFFFFFFFFFFFFF
310
FFFFFFFFFFFFFFFFFFFFFFFFFFFFFFFFFFFFFFFFFFFFFFFFFFFFFFFFFFFFFFFF
310
FFFFFFFFFFFFFFFFFFFFFFFFFFFFFFFFFFFFFFFFFFFFFFFFFFFFFFFFFFFFFFFF
310
FFFFFFFFFFFFFFFFFFFFFFFFFFFFFFFFFFFFFFFFFFFFFFFFFFFFFFFFFFFFFFFF
310
FFFFFFFFFFFFFFFFFFFFFFFFFFFFFFFFFFFFFFFFFFFFFFFFFFFFFFFFFFFFFFFF
310
FFFFFFFFFFFFFFFFFFFFFFFFFFFFFFFFFFFFFFFFFFFFFFFFFFFFFFFFFFFFFFFF
310
FFFFFFFFFFFFFFFFFFFFFFFFFFFFFFFFFFFFFFFFFFFFFFFFFFFFFFFFFFFFFFFF
310
FFFFFFFFFFFFFFFFFFFFFFFFFFFFFFFFFFFFFFFFFFFFFFFFFFFFFFFFFFFFFFFF
310
FFFFFFFFFFFFFFFFFFFFFFFFFFFFFFFFFFFFFFFFFFFFFFFFFFFFFFFFFFFFFFFF
310
FFFFFFFFFFFFFFFFFFFFFFFFFFFFFFFFFFFFFFFFFFFFFFFFFFFFFFFFFFFFFFFF
310
0100000200000000000000000000000000000000000000000000000000000000
310
0000000000000000000000000000000000000000000000000000000000000000
310
0100FEFF030A0000FFFFFFFF0A00030000000000C00000000000004607000000
310
5042727573680007000000504272757368000700000050427275736800F439B2
310
7100000000000000000000000000000000000000000000000000000000000000
310
0000000000000000000000000000000000000000000000000000000000000000
310
0000000000000000000000000000000000000000000000000000000000000000
310
0000000000000000000000000000000000000000000000000000000000000000
310
0000000000000000000000000000000000000000000000000000000000000000
310
0000000000000000000000000000000000000000000000000000000000000000
310
0000000000000000000000000000000000000000000000000000000000000000
310
0000000000000000000000000000000000000000000000000000000000000000
310
0000000000000000000000000000000000000000000000000000000000000000
310
0000000000000000000000000000000000000000000000000000000000000000
310
0000000000000000000000000000000000000000000000000000000000000000
310
0000000000000000000000000000000000000000000000000000000000000000
310
20260000424D0E260000000000003E00000028000000B40200006E0000000100
310
01000000000000000000130B0000130B00000200000002000000000000FFFFFF
310
FFFFFFFFFFFFFFFFFFFFFFFFFFFFFFFFFFFFFFFFFFFFFFFFFFFFFFFFFFFFFFFF
310
FFFFFFFFFFFFFFFFFFFFFFFFFFFFFFFFFFFFFFFFFFFFFFFFFFFFFFFFFFFFFFFF
310
FFFFFFFFFFFFFFFFFFFFFFFFFFFFFFFFFFFFFFFFFFFFFFFFF000FFFFFFFFFFFF
310
FFFFFFFFFFFFFFFFFFFFFFFFFFFFFFFFFFFFFFFFFFFFFFFFFFFFFFFFFFFFFFFF
310
FFFFFFFFFFFFFFFFFFFFFFFFFFFFFFFFFFFFFFFFFFFFFFFFFFFFFFFFFFFFFFFF
310
FFFFFFFFFFFFFFFFFFFFFFFFFFFFFFFFF000FFFFFFFFFFFFFFFFFFFFFFFFFFFF
310
FFFFFFFFFFFFFFFFFFFFFFFFFFFFFFFFFFFFFFFFFFFFFFFFFFFFFFFFFFFFFFFF
310
FFFFFFFFFFFFFFFFFFFFFFFFFFFFFFFFFFFFFFFFFFFFFFFFFFFFFFFFFFFFFFFF
310
FFFFFFFFFFFFFFFFF000FFFFFFFFFFFFFFFFFFFFFFFFFFFFFFFFFFFFFFFFFFFF
310
FFFFFFFFFFFFFFFFFFFFFFFFFFFFFFFFFFFFFFFFFFFFFFFFFFFFFFFFFFFFFFFF
310
FFFFFFFFFFFFFFFFFFFFFFFFFFFFFFFFFFFFFFFFFFFFFFFFFFFFFFFFFFFFFFFF
310
F000FFFFFFFFFFFFFFFFFFFFFFFFFFFFFFFFFFFFFFFFFFFFFFFFFFFFFFFFFFFF
310
FFFFFFFFFFFFFFFFFFFFFFFFFFFFFFFFFFFFFFFFFFFFFFFFFFFFFFFFFFFFFFFF
310
FFFFFFFFFFFFFFFFFFFFFFFFFFFFFFFFFFFFFFFFFFFFFFFFF000FFFFFFFFFFFF
310
FFFFFFFFFFFFFFFFFFFFFFFFFFFFFFFFFFFFFFFFFFFFFFFFFFFFFFFFFFFFFFFF
310
FFFFFFFFFFFFFFFFFFFFFFFFFFFFFFFFFFFFFFFFFFFFFFFFFFFFFFFFFFFFFFFF
310
FFFFFFFFFFFFFFFFFFFFFFFFFFFFFFFFF000FFFFFFFFFFFFFFFFFFFFFFFFFFFF
310
FFFFFFFFFFFFFFFFFFFFFFFFFFFFFFFFFFFFFFFFFFFFFFFFFFFFFFFFFFFFFFFF
310
FFFFFFFFFFFFFFFFFFFFFFFFFFFFFFFFFFFFFFFFFFFFFFFFFFFFFFFFFFFFFFFF
310
FFFFFFFFFFFFFFFFF000FFFFFFFFFFFFFFFFFFFFFFFFFFFFFFFFFFFFFFFFFFFF
310
FFFFFFFFFFFFFFFFFFFFFFFFFFFFFFFFFFFFFFFFFFFFFFFFFFFFFFFFFFFFFFFF
310
FFFFFFFFFFFFFFFFFFFFFFFFFFFFFFFFFFFFFFFFFFFFFFFFFFFFFFFFFFFFFFFF
310
F000FFFFFFFFFFFFFFFFFFFFFFFFFFFFFFFFFFFFFFFFFFFFFFFFFFFFFFFFFFFF
310
FFFFFFFFFFFFFFFFFFFFFFFFFFFFFFFFFFFFFFFFFFFFFFFFFFFFFFFFFFFFFFFF
310
FFFFFFFFFFFFFFFFFFFFFFFFFFFFFFFFFFFFFFFFFFFFFFFFF000FFFFFFFFFFFF
310
FFFFFFFFFFFFFFFFFFFFFFFFFFFFFFFFFFFFFFFFFFFFFFFFFFFFFFFFFFFFFFFF
310
FFFFFFFFFFFFFFFFFFFFFFFFFFFFFFFFFFFFFFFFFFFFFFFFFFFFFFFFFFFFFFFF
310
FFFFFFFFFFFFFFFFFFFFFFFFFFFFFFFFF000FFFFFFFFFFFFFFFFFFFFFFFFFFFF
310
FFFFFFFFFFFFFFFFFFFFFFFFFFFFFFFFFFFFFFFFFFFFFFFFFFFFFFFFFFFFFFFF
310
FFFFFFFFFFFFFFFFFFFFFFFFFFFFFFFFFFFFFFFFFFFFFFFFFFFFFFFFFFFFFFFF
310
FFFFFFFFFFFFFFFFF000FFFFFFFFFFFFFFFFFFFFFFFFFFFFFFFFFFFFFFFFFFFF
310
FFFFFFFFFFFFFFFFFFFFFFFFFFFFFFFFFFFFFFFFFFFFFFFFFFFFFFFFFFFFFFFF
310
FFFFFFFFFFFFFFFFFFFFFFFFFFFFFFFFFFFFFFFFFFFFFFFFFFFFFFFFFFFFFFFF
310
F000FFFFFFFFFFFFFFFFFFFFFFFFFFFFFFFFFFFFFFFFFFFFFFFFFFFFFFFFFFFF
310
FFFFFFFFFFFFFFFFFFFFFFFFFFFFFFFFFFFFFFFFFFFFFFFFFFFFFFFFFFFFFFFF
310
FFFFFFFFFFFFFFFFFFFFFFFFFFFFFFFFFFFFFFFFFFFFFFFFF000FFFFFFFFFFFF
310
FFFFFFFFFFFFFFFFFFFFFFFFFFFFFFFFFFFFFFFFFFFFFFFFFFFFFFFFFFFFFFFF
310
FFFFFFFFFFFFFFFFFFFFFFFFFFFFFFFFFFFFFFFFFFFFFFFFFFFFFFFFFFFFFFFF
310
FFFFFFFFFFFFFFFFFFFFFFFFFFFFFFFFF000FFFFFFFFFFFFFFFFFFFFFFFFFFFF
310
FFFFFFFFFFFFFFFFFFFFFFFFFFFFFFFFFFFFFFFFFFFFFFFFFFFFFFFFFFFFFFFF
310
FFFFFFFFFFFFFFFFFFFFFFFFFFFFFFFFFFFFFFFFFFFFFFFFFFFFFFFFFFFFFFFF
310
FFFFFFFFFFFFFFFFF000FFFFFFFFFFFFFFFFFFFFFFFFFFFFFFFFFFFFFFFFFFFF
310
FFFFFFFFFFFFFFFFFFFFFFFFFFFFFFFFFFFFFFFFFFFFFFFFFFFFFFFFFFFFFFFF
310
FFFFFFFFFFFFFFFFFFFFFFFFFFFFFFFFFFFFFFFFFFFFFFFFFFFFFFFFFFFFFFFF
310
F000FFFFFFFFFFFFFFFFFFFFFFFFFFFFFFFFFFFFFFFFFFFFFFFFFFFFFFFFFFFF
310
FFFFFFFFFFFFFFFFFFFFFFFFFFFFFFFFFFFFFFFFFFFFFFFFFFFFFFFFFFFFFFFF
310
FFFFFFFFFFFFFFFFFFFFFFFFFFFFFFFFFFFFFFFFFFFFFFFFF000FFFFFFFFFFFF
310
FFFFFFFFFFFFFFFFFFFFFFFFFFFFFFFFFFFFFFFFFFFFFFFFFFFFFFFFFFFFFFFF
310
FFFFFFFFFFFFFFFFFFFFFFFFFFFFFFFFFFFFFFFFFFFFFFFFFFFFFFFFFFFFFFFF
310
FFFFFFFFFFFFFFFFFFFFFFFFFFFFFFFFF000FFFFFFFFFFFFFFFFFFFFFFFFFFFF
310
FFFFFFFFFFFFFFFFFFFFFFFFFFFFFFFFFFFFFFFFFFFFFFFFFFFFFFFFFFFFFFFF
310
FFFFFFFFFFFFFFFFFFFFFFFFFFFFFFFFFFFFFFFFFFFFFFFFFFFFFFFFFFFFFFFF
310
FFFFFFFFFFFFFFFFF000FFFFF80003FFFFFFFFFFFFFFFFFFFFFFFFFFFFFFFFFF
310
FFFFF00007FFFFFFFFFF00007FFFFFF800000000000000007FFFFFFFFFFFFFFF
310
FFFFFFFC001FFFFFFFFFFFFFFC001FFFFFFFFFFFFFFFFFFFFFFFFFFE0007FFFF
310
F000FFFF8000007FFFFFFFF8000FFFFFC0007FFFFF80007FFFFF0000007FFFFF
310
FFF8000007FFFFF800000000000000007FFFFFF0001FFFFFFFFFFFC00001FFFF
310
FFFFFFFFC00001FFFFFFFF000000000003FFFFE000007FFFF000FFFE0000000F
310
FFFFFFF0000FFFFF80007FFFFF80007FFFFC0000001FFFFFFFC0000001FFFFF8
310
00000000000000007FFFFFF0001FFFFFFFFFFE0000003FFFFFFFFFFE0000003F
310
FFFFFF000000000003FFFF0000000FFFF000FFF800000003FFFFFFF00007FFFF
310
80007FFFFF80007FFFF000000007FFFFFF000000003FFFF80000000000000000
310
7FFFFFF0001FFFFFFFFFF80000000FFFFFFFFFF80000000FFFFFFF0000000000
310
03FFFC00000003FFF000FFE000000000FFFFFFF00007FFFF80003FFFFF80007F
310
FFC000000001FFFFFC000000001FFFF800000000000000007FFFFFF0001FFFFF
310
FFFFE000000003FFFFFFFFE000000003FFFFFF000000000003FFF000000000FF
310
F000FF80000000007FFFFFF00007FFFF80003FFFFF80007FFF8000000000FFFF
310
F80000000007FFF800000000000000007FFFFFF0001FFFFFFFFFC000000001FF
310
FFFFFFC000000001FFFFFF000000000003FFC0000000007FF000FF0000000000
310
3FFFFFE00007FFFF00003FFFFF80007FFE00000000003FFFF00000000003FFF8
310
00000000000000007FFFFFF0001FFFFFFFFF8000000000FFFFFFFF8000000000
310
FFFFFF000000000003FF80000000003FF000FE00000000001FFFFFE00003FFFF
310
00003FFFFF80007FFC00000000001FFFE00000000001FFF8000001FFFE000000
310
7FFFFFF0001FFFFFFFFE00000000003FFFFFFE00000000003FFFFF0000000000
310
03FF00000000001FF000FC00000000000FFFFFE00003FFFF00001FFFFF80007F
310
F800000000001FFFC00000000000FFF8000001FFFE0000007FFFFFF0001FFFFF
310
FFFC00000000001FFFFFFC00000000001FFFFF000000000003FE00000000000F
310
F000F8000000000007FFFFE00003FFFF00001FFFFF80007FF800000000000FFF
310
800000000000FFF8000001FFFE0000007FFFFFF0001FFFFFFFF800000000000F
310
FFFFF800000000000FFFFF000000000003FC000000000007F000F80000000000
310
03FFFFC00003FFFE00001FFFFF80007FF0000000000007FF0000000000007FF8
310
000001FFFE0000007FFFFFF0001FFFFFFFF0000000000007FFFFF00000000000
310
07FFFF000000000003F8000000000003F000F0000000000003FFFFC00001FFFE
310
00001FFFFF80007FE0000000000007FE0000000000003FF8000001FFFE000000
310
7FFFFFF0001FFFFFFFF0000000000007FFFFF0000000000007FFFF0000000000
310
03F800001F800003F000E00001FFF00001FFFFC00001FFFE00000FFFFF80007F
310
E00001FFE00003FE00001FFF00003FF8000001FFFE0000007FFFFFF0001FFFFF
310
FFE000003E000003FFFFE000003E000003FFFF000000000003F00001FFF80001
310
F000E00007FFFC0001FFFFC00001FFFE00000FFFFF80007FC0000FFFFC0003FC
310
0000FFFFC0001FF8000001FFFE0000007FFFFFF0001FFFFFFFC00003FFE00001
310
FFFFC00003FFE00001FFFF0001FFFFFFFFF00007FFFE0001F000E0000FFFFF00
310
00FFFF800001FFFC00000FFFFF80007FC0001FFFFE0001FC0001FFFFE0001FF8
310
000001FFFE0000007FFFFFF0001FFFFFFF80000FFFF80000FFFF80000FFFF800
310
00FFFF0003FFFFFFFFE0000FFFFF8000F000C0003FFFFF8000FFFF800000FFFC
310
000007FFFF80007F80003FFFFF0001FC0003FFFFF0001FF8000001FFFE000000
310
7FFFFFF0001FFFFFFF80003FFFFE0000FFFF80003FFFFE0000FFFF0003FFFFFF
310
FFE0003FFFFF8000F000C0003FFFFF8000FFFF800000FFFC000007FFFF80007F
310
80007FFFFF8001F80007FFFFF8000FF8000001FFFE0000007FFFFFF0001FFFFF
310
FF00007FFFFF00007FFF00007FFFFF00007FFF0003FFFFFFFFE0003FFFFFC000
310
F000C0007FFFFFC000FFFF000000FFFC000007FFFF80007F8000FFFFFF8000F8
310
000FFFFFF8000FF8000001FFFE0000007FFFFFF0001FFFFFFF0000FFFFFF8000
310
7FFF0000FFFFFF80007FFF0003FFFFFFFFC0007FFFFFC00070008000FFFFFFC0
310
00FFFF000000FFF8000007FFFF80007F8000FFFFFF8000F8000FFFFFF8000FF8
310
000001FFFE0000007FFFFFF0001FFFFFFE0001FFFFFFC0003FFE0001FFFFFFC0
310
003FFF0003FFFFFFFFC0007FFFFFE00070008000FFFFFFC0007FFF0000007FF8
310
000003FFFF80007F0001FFFFFF8000F8000FFFFFF8000FF8000001FFFE000000
310
7FFFFFF0001FFFFFFE0001FFFFFFC0003FFE0001FFFFFFC0003FFF0003FFFFFF
310
FFC000FFFFFFE00070008000FFFFFFC0007FFF0000007FF8000003FFFF80007F
310
0001FFFFFF8000F8001FFFFFF8000FF8000001FFFE0000007FFFFFF0001FFFFF
310
FE0003FFFFFFE0003FFE0003FFFFFFE0003FFF0003FFFFFFFFC000FFFFFFE000
310
70008000FFFFFFC0007FFE0000007FF8000003FFFF80007F0001FFFFFF8000F0
310
001FFFFFF8000FF8000001FFFE0000007FFFFFF0001FFFFFFC0003FFFFFFE000
310
1FFC0003FFFFFFE0001FFF0003FFFFFFFFC000FFFFFFC00070008000FFFFFF80
310
007FFE0000007FF0000003FFFF80007F0001FFFFFF0000F0001FFFFFF8000FF8
310
000001FFFE0000007FFFFFF0001FFFFFFC0007FFFFFFF0001FFC0007FFFFFFF0
310
001FFF0003FFFFFFFFC000FFFFFFC00070008001FFFFFF0000FFFE0000003FF0
310
000001FFFF80007F0001FFFFFF0000F8001FFFFFF0000FF8000001FFFE000000
310
7FFFFFF0001FFFFFFC0007FFFFFFF0001FFC0007FFFFFFF0001FFF0003FFFFFF
310
FFC001FFFFFF80007000FFFFFFFFFE0000FFFE0008003FF0008001FFFF80007F
310
FFFFFFFFFC0000FFFFFFFFFFE0000FF8000001FFFE0000007FFFFFF0001FFFFF
310
F8000FFFFFFFF8000FF8000FFFFFFFF8000FFF0003FFFFFFFFFFFFFFFFFF0000
310
7000FFFFFFFFFC0000FFFC0008003FF0008001FFFF80007FFFFFFFFFF80001FF
310
FFFFFFFF80000FF8000001FFFE0000007FFFFFF0001FFFFFF8000FFFFFFFF800
310
0FF8000FFFFFFFF8000FFF0003FFFFFFFFFFFFFFFFFE0000F000FFFFFFFFE000
310
00FFFC000C003FE000C001FFFF80007FFFFFFFFFC00001FFFFFFFFFE00001FF8
310
000001FFFE0000007FFFFFF0001FFFFFF8000FFFFFFFF8000FF8000FFFFFFFF8
310
000FFF0003FFFFFFFFFFFFFFFFF00000F000FFFFFFFE000001FFFC000C001FE0
310
00C000FFFF80007FFFFFFFFE000001FFFFFFFFE000001FF80FFFFFFFFFFFFFC0
310
7FFFFFF0001FFFFFF8000FFFFFFFF8000FF8000FFFFFFFF8000FFF0003FFFFFF
310
FFFFFFFFFF800000F000FFFFFFC0000001FFFC001C001FE001C000FFFF80007F
310
FFFFFF80000003FFFFFFF80000001FF80FFFFFFFFFFFFFC07FFFFFF0001FFFFF
310
F8001FFFFFFFFC000FF8001FFFFFFFFC000FFF0003FFFFFFFFFFFFFFF0000001
310
F000FFFFF800000001FFF8001C001FE001C000FFFF80007FFFFFF800000003FF
310
FFFF800000003FF80FFFFFFFFFFFFFC07FFFFFF0001FFFFFF8001FFFFFFFFC00
310
0FF8001FFFFFFFFC000FFF0003FFFFFFFFFFFFFE00000001F000FFFFC0000000
310
03FFF8001E001FC001E000FFFF80007FFFFF8000000007FFFFFC000000003FF8
310
0FFFFFFFFFFFFFC07FFFFFF0001FFFFFF8001FFFFFFFFC000FF8001FFFFFFFFC
310
000FFF0003FFFFFFFFFFFFE000000003F000FFFE0000000007FFF8001E000FC0
310
01E0007FFF80007FFFFE0000000007FFFFE0000000007FF80FFFFFFFFFFFFFC0
310
7FFFFFF0001FFFFFF0001FFFFFFFFC0007F0001FFFFFFFFC0007FF0003FFFFFF
310
FFFFFF0000000003F000FFF80000000007FFF8001E000FC003E0007FFF80007F
310
FFF0000000000FFFFF8000000000FFF80FFFFFFFFFFFFFC07FFFFFF0001FFFFF
310
F0001FFFFFFFFC0007F0001FFFFFFFFC0007FF0003FFFFFFFFFFFC0000000007
310
F000FFE0000000000FFFF0003E000FC003E0007FFF80007FFFC0000000001FFF
310
FE0000000001FFF80FFFFFFFFFFFFFC07FFFFFF0001FFFFFF0001FFFFFFFFC00
310
07F0001FFFFFFFFC0007FF0003FFFFFFFFFFF0000000000FF000FFC000000000
310
1FFFF0003F000F8003F0003FFF80007FFF80000000003FFFF80000000003FFF8
310
0FFFFFFFFFFFFFC07FFFFFF0001FFFFFF0001FFFFFFFFC0007F0001FFFFFFFFC
310
0007FF0003FFFFFFFFFFE0000000001FF000FF00000000007FFFF0003F000780
310
03F0003FFF80007FFF00000000007FFFF00000000007FFF80FFFFFFFFFFFFFC0
310
7FFFFFF0001FFFFFF0001FFFFFFFFC0007F0001FFFFFFFFC0007FF0003FFFFFF
310
FFFF80000000007FF000FE0000000000FFFFE0003F00078007F0003FFF80007F
310
FE0000000001FFFFE0000000001FFFF80FFFFFFFFFFFFFC07FFFFFF0001FFFFF
310
F0001FFFFFFFFC0007F0001FFFFFFFFC0007FF0003FFFFFFFFFF0000000000FF
310
F000FC0000000003FFFFE0007F00078007F0003FFF80007FFC0000000007FFFF
310
C0000000007FFFF80FFFFFFFFFFFFFC07FFFFFF0001FFFFFF8001FFFFFFFFC00
310
0FF8001FFFFFFFFC000FFF0003FFFFFFFFFE0000000003FFF000FC000000000F
310
FFFFE0007F80070007F8001FFF80007FF8000000001FFFFF8000000001FFFFF8
310
0FFFFFFFFFFFFFC07FFFFFF0001FFFFFF8001FFFFFFFFC000FF8001FFFFFFFFC
310
000FFF0003FFFFFFFFFC000000000FFFF000F8000000007FFFFFE0007F800700
310
07F8001FFF80007FF000000000FFFFFF800000000FFFFFF80FFFFFFFFFFFFFC0
310
7FFFFFF0001FFFFFF8000FFFFFFFF8000FF8000FFFFFFFF8000FFF0003FFFFFF
310
FFFC000000007FFFF000F800000007FFFFFFC0007F8003000FF8001FFF80007F
310
F000000007FFFFFF000000007FFFFFF80FFFFFFFFFFFFFC07FFFFFF0001FFFFF
310
F8000FFFFFFFF8000FF8000FFFFFFFF8000FFF0003FFFFFFFFF80000000FFFFF
310
F000F0000000FFFFFFFFC000FF8003000FF8001FFF80007FE0000000FFFFFFFF
310
0000000FFFFFFFF8000001FFFE0000007FFFFFF0001FFFFFF8000FFFFFFFF800
310
0FF8000FFFFFFFF8000FFF0003FFFFFFFFF8000000FFFFFFF000F000000FFFFF
310
FFFFC000FFC002000FF8000FFF80007FE000001FFFFFFFFE000001FFFFFFFFF8
310
000001FFFE0000007FFFFFF0001FFFFFF8000FFFFFFFF8000FF8000FFFFFFFF8
310
000FFF0003FFFFFFFFF000001FFFFFFFF000E00000FFFFFFFFFFC000FFC00200
310
0FFC000FFF80007FE00001FFFFFFFFFE00001FFFFFFFFFF8000001FFFE000000
310
7FFFFFF0001FFFFFFC000FFFFFFFF8001FFC000FFFFFFFF8001FFF0003FFFFFF
310
FFF00001FFFFFFFFF000E00007FFFFFFFFFF8000FFC000001FFC000FFF80007F
310
C0000FFFFFFFFFFE0000FFFFFFFFFFF8000001FFFE0000007FFFFFF0001FFFFF
310
FC0007FFFFFFF0001FFC0007FFFFFFF0001FFF0003FFFFFFFFF00007FFFFFFFF
310
F000E0001FFFFFFFFFFF8000FFC000001FFC000FFF80007FC0003FFFFFFFFFFE
310
0001FFFFFFFFFFF8000001FFFE0000007FFFFFF0001FFFFFFC0007FFFFFFF000
310
1FFC0007FFFFFFF0001FFF0003FFFFFFFFF0001FFFFFFFFFF000E0003FFFFF00
310
03FF8001FFE000001FFC0007FF80007FC0007FFFFF0007FC0003FFFFF0003FF8
310
000001FFFE0000007FFFFFF0001FFFFFFC0003FFFFFFE0001FFC0003FFFFFFE0
310
001FFF0003FFFFFFFFF0003FFFFFFFFFF000E0003FFFFF0001FF8001FFE00000
310
1FFE0007FF80007FC0007FFFFE0003FC0007FFFFE0003FF8000001FFFE000000
310
7FFFFFF0001FFFFFFE0003FFFFFFE0003FFE0003FFFFFFE0003FFF0003FFFFFF
310
FFF0003FFFFF8001F000E0003FFFFF0001FF0001FFE000001FFE0007FF80007F
310
C0007FFFFE0003FC0007FFFFE0003FF8000001FFFE0000007FFFFFF0001FFFFF
310
FE0001FFFFFFC0003FFE0001FFFFFFC0003FFF0003FFFFFFFFF0003FFFFF0001
310
F000E0003FFFFF0003FF0001FFE000003FFE0007FF80007FC0007FFFFE0003FC
310
0007FFFFE0003FF8000001FFFE0000007FFFFFF0001FFFFFFF0001FFFFFFC000
310
7FFF0001FFFFFFC0007FFF0003FFFFFFFFF0003FFFFF0001F000E0003FFFFE00
310
03FF0003FFF000003FFE0003FF80007FC0007FFFFC0003FE0007FFFFE0003FF8
310
000001FFFE0000007FFFFFF0001FFFFFFF0000FFFFFF80007FFF0000FFFFFF80
310
007FFF0003FFFFFFFFF0003FFFFF0001F000E0003FFFFE0003FF0003FFF00000
310
3FFF0003FF80007FC0007FFFFC0007FE0007FFFFC0003FF8000001FFFE000000
310
7FFFFFF0001FFFFFFF80007FFFFF0000FFFF80007FFFFF0000FFFF0003FFFFFF
310
FFF0003FFFFF0003F000E0003FFFFC0003FE0003FFF000003FFF0003FF80007F
310
E0003FFFF80007FE0003FFFFC0007FF8000001FFFE0000007FFFFFF0001FFFFF
310
FF80003FFFFE0000FFFF80003FFFFE0000FFFF0003FFFFFFFFF0001FFFFE0003
310
F000F0001FFFF80003FE0003FFF000007FFF0001FF80007FE0003FFFF00007FE
310
0001FFFF80007FF8000001FFFE0000007FFFFFF0001FFFFFFFC0000FFFF80001
310
FFFFC0000FFFF80001FFFF0003FFFFFFFFF0001FFFFC0003F000F0000FFFF000
310
07FE0007FFF800007FFF0001FF80007FE0001FFFE00007FF0000FFFE00007FF8
310
000001FFFE0000007FFFFFF0001FFFFFFFC00003FFE00001FFFFC00003FFE000
310
01FFFF0003FFFFFFFFF8000FFFF80003F000F00003FFC00007FC0007FFF80000
310
7FFF8001FF80007FF00007FF80000FFF00007FF80000FFF8000001FFFE000000
310
7F80000000000001FFE000003E000003FFFFE000003E000003FFFF0003FFFFFF
310
FFF80003FFE00007F000F800000000000FFC0007FFF800007FFF8001FF80007F
310
F000000000000FFF000000000000FFF8000001FFFE0000007F80000000000001
310
FFF0000000000007FFFFF0000000000007FFFF0003FFFFFFFFFC00007E000007
310
F000F800000000000FFC0007FFF80000FFFF8000FF80007FF800000000001FFF
310
800000000001FFF8000001FFFE0000007F80000000000001FFF800000000000F
310
FFFFF800000000000FFFFF0003FFFFFFFFFC00000000000FF000FC0000000000
310
1FFC0007FFFC0000FFFF8000FF80007FF800000000003FFFC00000000001FFF8
310
000001FFFE0000007F80000000000001FFF800000000000FFFFFF80000000000
310
0FFFFF0003FFFFFFFFFE00000000001FF000FE00000000003FF8000FFFFC0000
310
FFFF8000FF80007FFC00000000003FFFC00000000003FFF8000001FFFE000000
310
7F80000000000001FFFC00000000001FFFFFFC00000000001FFFFF0003FFFFFF
310
FFFF00000000001FF000FF00000000003FF8000FFFFC0000FFFFC000FF80007F
310
FE00000000007FFFE00000000007FFF8000001FFFE0000007F80000000000001
310
FFFE00000000003FFFFFFE00000000003FFFFF0003FFFFFFFFFF80000000003F
310
F000FF80000000007FF8000FFFFC0001FFFFC0007F80007FFF0000000000FFFF
310
F0000000000FFFF800000000000000007F80000000000001FFFF8000000000FF
310
FFFFFF8000000000FFFFFF0003FFFFFFFFFFC0000000007FF000FFC000000000
310
FFF8000FFFFE0001FFFFC0007F80007FFF8000000001FFFFF8000000001FFFF8
310
00000000000000007F80000000000001FFFFC000000001FFFFFFFFC000000001
310
FFFFFF0003FFFFFFFFFFE000000000FFF000FFE000000003FFF0001FFFFE0001
310
FFFFC0007F80007FFFC000000007FFFFFE000000003FFFF80000000000000000
310
7F80000000000001FFFFE000000003FFFFFFFFE000000003FFFFFF0003FFFFFF
310
FFFFF000000003FFF000FFF80000000FFFF0001FFFFE0001FFFFE0007F80007F
310
FFF00000000FFFFFFF00000000FFFFF800000000000000007F80000000000001
310
FFFFF80000000FFFFFFFFFF80000000FFFFFFF0003FFFFFFFFFFFC0000000FFF
310
F000FFFE0000003FFFF0001FFFFE0003FFFFE0003F80007FFFFC0000003FFFFF
310
FFC0000003FFFFF800000000000000007F80000000000001FFFFFE0000003FFF
310
FFFFFFFE0000003FFFFFFF0003FFFFFFFFFFFF0000003FFFF000FFFF800000FF
310
FFF0001FFFFF0003FFFFE0003F80007FFFFF000001FFFFFFFFF800001FFFFFF8
310
00000000000000007F80000000000001FFFFFFC00001FFFFFFFFFFFFC00001FF
310
FFFFFF0003FFFFFFFFFFFFC00000FFFFF000FFFFF8000FFFFFFFFFFFFFFFFFFF
310
FFFFFFFFFFFFFFFFFFFFF0001FFFFFFFFFFF0000FFFFFFF80000000000000000
310
7FFFFFFFFFFFFFFFFFFFFFFC001FFFFFFFFFFFFFFC001FFFFFFFFFFFFFFFFFFF
310
FFFFFFFC001FFFFFF000FFFFFFFFFFFFFFFFFFFFFFFFFFFFFFFFFFFFFFFFFFFF
310
FFFFFFFFFFFFFFFFFFFFFFFFFFFFFFFFFFFFFFFFFFFFFFFFFFFFFFFFFFFFFFFF
310
FFFFFFFFFFFFFFFFFFFFFFFFFFFFFFFFFFFFFFFFFFFFFFFFFFFFFFFFFFFFFFFF
310
F000FFFFFFFFFFFFFFFFFFFFFFFFFFFFFFFFFFFFFFFFFFFFFFFFFFFFFFFFFFFF
310
FFFFFFFFFFFFFFFFFFFFFFFFFFFFFFFFFFFFFFFFFFFFFFFFFFFFFFFFFFFFFFFF
310
FFFFFFFFFFFFFFFFFFFFFFFFFFFFFFFFFFFFFFFFFFFFFFFFF000FFFFFFFFFFFF
310
FFFFFFFFFFFFFFFFFFFFFFFFFFFFFFFFFFFFFFFFFFFFFFFFFFFFFFFFFFFFFFFF
310
FFFFFFFFFFFFFFFFFFFFFFFFFFFFFFFFFFFFFFFFFFFFFFFFFFFFFFFFFFFFFFFF
310
FFFFFFFFFFFFFFFFFFFFFFFFFFFFFFFFF000FFFFFFFFFFFFFFFFFFFFFFFFFFFF
310
FFFFFFFFFFFFFFFFFFFFFFFFFFFFFFFFFFFFFFFFFFFFFFFFFFFFFFFFFFFFFFFF
310
FFFFFFFFFFFFFFFFFFFFFFFFFFFFFFFFFFFFFFFFFFFFFFFFFFFFFFFFFFFFFFFF
310
FFFFFFFFFFFFFFFFF000FFFFFFFFFFFFFFFFFFFFFFFFFFFFFFFFFFFFFFFFFFFF
310
FFFFFFFFFFFFFFFFFFFFFFFFFFFFFFFFFFFFFFFFFFFFFFFFFFFFFFFFFFFFFFFF
310
FFFFFFFFFFFFFFFFFFFFFFFFFFFFFFFFFFFFFFFFFFFFFFFFFFFFFFFFFFFFFFFF
310
F000FFFFFFFFFFFFFFFFFFFFFFFFFFFFFFFFFFFFFFFFFFFFFFFFFFFFFFFFFFFF
310
FFFFFFFFFFFFFFFFFFFFFFFFFFFFFFFFFFFFFFFFFFFFFFFFFFFFFFFFFFFFFFFF
310
FFFFFFFFFFFFFFFFFFFFFFFFFFFFFFFFFFFFFFFFFFFFFFFFF000FFFFFFFFFFFF
310
FFFFFFFFFFFFFFFFFFFFFFFFFFFFFFFFFFFFFFFFFFFFFFFFFFFFFFFFFFFFFFFF
310
FFFFFFFFFFFFFFFFFFFFFFFFFFFFFFFFFFFFFFFFFFFFFFFFFFFFFFFFFFFFFFFF
310
FFFFFFFFFFFFFFFFFFFFFFFFFFFFFFFFF000FFFFFFFFFFFFFFFFFFFFFFFFFFFF
310
FFFFFFFFFFFFFFFFFFFFFFFFFFFFFFFFFFFFFFFFFFFFFFFFFFFFFFFFFFFFFFFF
310
FFFFFFFFFFFFFFFFFFFFFFFFFFFFFFFFFFFFFFFFFFFFFFFFFFFFFFFFFFFFFFFF
310
FFFFFFFFFFFFFFFFF000FFFFFFFFFFFFFFFFFFFFFFFFFFFFFFFFFFFFFFFFFFFF
310
FFFFFFFFFFFFFFFFFFFFFFFFFFFFFFFFFFFFFFFFFFFFFFFFFFFFFFFFFFFFFFFF
310
FFFFFFFFFFFFFFFFFFFFFFFFFFFFFFFFFFFFFFFFFFFFFFFFFFFFFFFFFFFFFFFF
310
F000FFFFFFFFFFFFFFFFFFFFFFFFFFFFFFFFFFFFFFFFFFFFFFFFFFFFFFFFFFFF
310
FFFFFFFFFFFFFFFFFFFFFFFFFFFFFFFFFFFFFFFFFFFFFFFFFFFFFFFFFFFFFFFF
310
FFFFFFFFFFFFFFFFFFFFFFFFFFFFFFFFFFFFFFFFFFFFFFFFF000FFFFFFFFFFFF
310
FFFFFFFFFFFFFFFFFFFFFFFFFFFFFFFFFFFFFFFFFFFFFFFFFFFFFFFFFFFFFFFF
310
FFFFFFFFFFFFFFFFFFFFFFFFFFFFFFFFFFFFFFFFFFFFFFFFFFFFFFFFFFFFFFFF
310
FFFFFFFFFFFFFFFFFFFFFFFFFFFFFFFFF000FFFFFFFFFFFFFFFFFFFFFFFFFFFF
310
FFFFFFFFFFFFFFFFFFFFFFFFFFFFFFFFFFFFFFFFFFFFFFFFFFFFFFFFFFFFFFFF
310
FFFFFFFFFFFFFFFFFFFFFFFFFFFFFFFFFFFFFFFFFFFFFFFFFFFFFFFFFFFFFFFF
310
FFFFFFFFFFFFFFFFF000FFFFFFFFFFFFFFFFFFFFFFFFFFFFFFFFFFFFFFFFFFFF
310
FFFFFFFFFFFFFFFFFFFFFFFFFFFFFFFFFFFFFFFFFFFFFFFFFFFFFFFFFFFFFFFF
310
FFFFFFFFFFFFFFFFFFFFFFFFFFFFFFFFFFFFFFFFFFFFFFFFFFFFFFFFFFFFFFFF
310
F000FFFFFFFFFFFFFFFFFFFFFFFFFFFFFFFFFFFFFFFFFFFFFFFFFFFFFFFFFFFF
310
FFFFFFFFFFFFFFFFFFFFFFFFFFFFFFFFFFFFFFFFFFFFFFFFFFFFFFFFFFFFFFFF
310
FFFFFFFFFFFFFFFFFFFFFFFFFFFFFFFFFFFFFFFFFFFFFFFFF000FFFFFFFFFFFF
310
FFFFFFFFFFFFFFFFFFFFFFFFFFFFFFFFFFFFFFFFFFFFFFFFFFFFFFFFFFFFFFFF
310
FFFFFFFFFFFFFFFFFFFFFFFFFFFFFFFFFFFFFFFFFFFFFFFFFFFFFFFFFFFFFFFF
310
FFFFFFFFFFFFFFFFFFFFFFFFFFFFFFFFF000FFFFFFFFFFFFFFFFFFFFFFFFFFFF
310
FFFFFFFFFFFFFFFFFFFFFFFFFFFFFFFFFFFFFFFFFFFFFFFFFFFFFFFFFFFFFFFF
310
FFFFFFFFFFFFFFFFFFFFFFFFFFFFFFFFFFFFFFFFFFFFFFFFFFFFFFFFFFFFFFFF
310
FFFFFFFFFFFFFFFFF000FFFFFFFFFFFFFFFFFFFFFFFFFFFFFFFFFFFFFFFFFFFF
310
FFFFFFFFFFFFFFFFFFFFFFFFFFFFFFFFFFFFFFFFFFFFFFFFFFFFFFFFFFFFFFFF
310
FFFFFFFFFFFFFFFFFFFFFFFFFFFFFFFFFFFFFFFFFFFFFFFFFFFFFFFFFFFFFFFF
310
F000FFFFFFFFFFFFFFFFFFFFFFFFFFFFFFFFFFFFFFFFFFFFFFFFFFFFFFFFFFFF
310
FFFFFFFFFFFFFFFFFFFFFFFFFFFFFFFFFFFFFFFFFFFFFFFFFFFFFFFFFFFFFFFF
310
FFFFFFFFFFFFFFFFFFFFFFFFFFFFFFFFFFFFFFFFFFFFFFFFF000FFFFFFFFFFFF
310
FFFFFFFFFFFFFFFFFFFFFFFFFFFFFFFFFFFFFFFFFFFFFFFFFFFFFFFFFFFFFFFF
310
FFFFFFFFFFFFFFFFFFFFFFFFFFFFFFFFFFFFFFFFFFFFFFFFFFFFFFFFFFFFFFFF
310
FFFFFFFFFFFFFFFFFFFFFFFFFFFFFFFFF000FFFFFFFFFFFFFFFFFFFFFFFFFFFF
310
FFFFFFFFFFFFFFFFFFFFFFFFFFFFFFFFFFFFFFFFFFFFFFFFFFFFFFFFFFFFFFFF
310
FFFFFFFFFFFFFFFFFFFFFFFFFFFFFFFFFFFFFFFFFFFFFFFFFFFFFFFFFFFFFFFF
310
FFFFFFFFFFFFFFFFF000FFFFFFFFFFFFFFFFFFFFFFFFFFFFFFFFFFFFFFFFFFFF
310
FFFFFFFFFFFFFFFFFFFFFFFFFFFFFFFFFFFFFFFFFFFFFFFFFFFFFFFFFFFFFFFF
310
FFFFFFFFFFFFFFFFFFFFFFFFFFFFFFFFFFFFFFFFFFFFFFFFFFFFFFFFFFFFFFFF
310
F000FFFFFFFFFFFFFFFFFFFFFFFFFFFFFFFFFFFFFFFFFFFFFFFFFFFFFFFFFFFF
310
FFFFFFFFFFFFFFFFFFFFFFFFFFFFFFFFFFFFFFFFFFFFFFFFFFFFFFFFFFFFFFFF
310
FFFFFFFFFFFFFFFFFFFFFFFFFFFFFFFFFFFFFFFFFFFFFFFFF000FFFFFFFFFFFF
310
FFFFFFFFFFFFFFFFFFFFFFFFFFFFFFFFFFFFFFFFFFFFFFFFFFFFFFFFFFFFFFFF
310
FFFFFFFFFFFFFFFFFFFFFFFFFFFFFFFFFFFFFFFFFFFFFFFFFFFFFFFFFFFFFFFF
310
FFFFFFFFFFFFFFFFFFFFFFFFFFFFFFFFF0000000000000000000000000000000
310
0000000000000000000000000000000000000000000000000000000000000000
310
0000000000000000000000000000000000000000000000000000000000000000
310
0000000000000000000000000000000000000000000000000000000000000000
310
0000000000000000000000000000000000000000000000000000000000000000
310
0000000000000000000000000000000000000000000000000000000000000000
310
0000000000000000000000000000000000000000000000000000000000000000
310
0000000000000000000000000000000000000000000000000000000000000000
310
0000000000000000000000000000000000000000000000000000000000000000
310
0000000000000000000000000000000000000000000000000000000000000000
310
0000000000000000000000000000000000000000000000000000000000000000
310
0000000000000000000000000000000000000000000000000000000000000000
310
0000000000000000000000000000000000000000000000000000000000000000
310
0000000000000000000000000000000000000000000000000000000000000000
310
0000000000000000000000000000000000000000000000000000000000000000
310
0000000000000000000000000000000000000000000000000000000000000000
  1
OLE
  0
ENDSEC
  0
SECTION
  2
OBJECTS
  0
DICTIONARY
  5
C
330
0
100
AcDbDictionary
281
     1
  3
ACAD_GROUP
350
D
  3
ACAD_LAYOUT
350
1A
  3
ACAD_MLINESTYLE
350
17
  3
ACAD_PLOTSETTINGS
350
19
  3
ACAD_PLOTSTYLENAME
350
E
  0
DICTIONARY
  5
D
102
{ACAD_REACTORS
330
C
102
}
330
C
100
AcDbDictionary
281
     1
  0
DICTIONARY
  5
1A
102
{ACAD_REACTORS
330
C
102
}
330
C
100
AcDbDictionary
281
     1
  3
Layout1
350
1E
  3
Layout2
350
26
  3
Model
350
22
  0
DICTIONARY
  5
17
102
{ACAD_REACTORS
330
C
102
}
330
C
100
AcDbDictionary
281
     1
  3
Standard
350
18
  0
DICTIONARY
  5
19
102
{ACAD_REACTORS
330
C
102
}
330
C
100
AcDbDictionary
281
     1
  0
ACDBDICTIONARYWDFLT
  5
E
102
{ACAD_REACTORS
330
C
102
}
330
C
100
AcDbDictionary
281
     1
  3
Normal
350
F
100
AcDbDictionaryWithDefault
340
F
  0
LAYOUT
  5
1E
102
{ACAD_REACTORS
330
1A
102
}
330
1A
100
AcDbPlotSettings
  1

  2
none_device
  4

  6

 40
0.0
 41
0.0
 42
0.0
 43
0.0
 44
0.0
 45
0.0
 46
0.0
 47
0.0
 48
0.0
 49
0.0
140
0.0
141
0.0
142
1.0
143
1.0
 70
   688
 72
     0
 73
     0
 74
     5
  7

 75
    16
147
1.0
148
0.0
149
0.0
100
AcDbLayout
  1
Layout1
 70
     1
 71
     1
 10
0.0
 20
0.0
 11
420.0
 21
297.0
 12
0.0
 22
0.0
 32
0.0
 14
1.0000000000E+20
 24
1.0000000000E+20
 34
1.0000000000E+20
 15
-1.0000000000E+20
 25
-1.0000000000E+20
 35
-1.0000000000E+20
146
0.0
 13
0.0
 23
0.0
 33
0.0
 16
1.0
 26
0.0
 36
0.0
 17
0.0
 27
1.0
 37
0.0
 76
     0
330
1B
  0
LAYOUT
  5
26
102
{ACAD_REACTORS
330
1A
102
}
330
1A
100
AcDbPlotSettings
  1

  2
none_device
  4

  6

 40
0.0
 41
0.0
 42
0.0
 43
0.0
 44
0.0
 45
0.0
 46
0.0
 47
0.0
 48
0.0
 49
0.0
140
0.0
141
0.0
142
1.0
143
1.0
 70
   688
 72
     0
 73
     0
 74
     5
  7

 75
    16
147
1.0
148
0.0
149
0.0
100
AcDbLayout
  1
Layout2
 70
     1
 71
     2
 10
0.0
 20
0.0
 11
0.0
 21
0.0
 12
0.0
 22
0.0
 32
0.0
 14
0.0
 24
0.0
 34
0.0
 15
0.0
 25
0.0
 35
0.0
146
0.0
 13
0.0
 23
0.0
 33
0.0
 16
1.0
 26
0.0
 36
0.0
 17
0.0
 27
1.0
 37
0.0
 76
     0
330
23
  0
LAYOUT
  5
22
102
{ACAD_REACTORS
330
1A
102
}
330
1A
100
AcDbPlotSettings
  1

  2
none_device
  4

  6

 40
0.0
 41
0.0
 42
0.0
 43
0.0
 44
0.0
 45
0.0
 46
0.0
 47
0.0
 48
0.0
 49
0.0
140
0.0
141
0.0
142
1.0
143
1.0
 70
  1712
 72
     0
 73
     0
 74
     0
  7

 75
     0
147
1.0
148
0.0
149
0.0
100
AcDbLayout
  1
Model
 70
     1
 71
     0
 10
0.0
 20
0.0
 11
297.0
 21
210.0
 12
0.0
 22
0.0
 32
0.0
 14
0.0
 24
0.0
 34
0.0
 15
297.0
 25
210.0
 35
0.0
146
0.0
 13
0.0
 23
0.0
 33
0.0
 16
1.0
 26
0.0
 36
0.0
 17
0.0
 27
1.0
 37
0.0
 76
     0
330
1F
331
29
  0
MLINESTYLE
  5
18
102
{ACAD_REACTORS
330
17
102
}
330
17
100
AcDbMlineStyle
  2
Standard
 70
     0
  3

 62
   256
 51
90.0
 52
90.0
 71
     2
 49
0.5
 62
   256
  6
BYLAYER
 49
-0.5
 62
   256
  6
BYLAYER
  0
ACDBPLACEHOLDER
  5
F
102
{ACAD_REACTORS
330
E
102
}
330
E
  0
ENDSEC
  0
EOF
