  0
SECTION
  2
HEADER
  9
$ACADVER
  1
AC1015
  9
$ACADMAINTVER
 70
     6
  9
$DWGCODEPAGE
  3
ANSI_1252
  9
$INSBASE
 10
0.0
 20
0.0
 30
0.0
  9
$EXTMIN
 10
0.0
 20
0.0
 30
0.0
  9
$EXTMAX
 10
297.0
 20
210.0
 30
0.0
  9
$LIMMIN
 10
0.0
 20
0.0
  9
$LIMMAX
 10
297.0
 20
210.0
  9
$ORTHOMODE
 70
     0
  9
$REGENMODE
 70
     1
  9
$FILLMODE
 70
     1
  9
$QTEXTMODE
 70
     0
  9
$MIRRTEXT
 70
     1
  9
$LTSCALE
 40
1.0
  9
$ATTMODE
 70
     1
  9
$TEXTSIZE
 40
2.0
  9
$TRACEWID
 40
1.0
  9
$TEXTSTYLE
  7
Standard
  9
$CLAYER
  8
0
  9
$CELTYPE
  6
ByLayer
  9
$CECOLOR
 62
   256
  9
$CELTSCALE
 40
1.0
  9
$DISPSILH
 70
     0
  9
$DIMSCALE
 40
1.0
  9
$DIMASZ
 40
3.0
  9
$DIMEXO
 40
0.0
  9
$DIMDLI
 40
3.75
  9
$DIMRND
 40
0.0
  9
$DIMDLE
 40
0.0
  9
$DIMEXE
 40
1.0
  9
$DIMTP
 40
0.0
  9
$DIMTM
 40
0.0
  9
$DIMTXT
 40
2.0
  9
$DIMCEN
 40
2.5
  9
$DIMTSZ
 40
0.0
  9
$DIMTOL
 70
     0
  9
$DIMLIM
 70
     0
  9
$DIMTIH
 70
     1
  9
$DIMTOH
 70
     1
  9
$DIMSE1
 70
     0
  9
$DIMSE2
 70
     0
  9
$DIMTAD
 70
     1
  9
$DIMZIN
 70
     0
  9
$DIMBLK
  1

  9
$DIMASO
 70
     1
  9
$DIMSHO
 70
     1
  9
$DIMPOST
  1

  9
$DIMAPOST
  1

  9
$DIMALT
 70
     0
  9
$DIMALTD
 70
     3
  9
$DIMALTF
 40
0.0393700787
  9
$DIMLFAC
 40
1.0
  9
$DIMTOFL
 70
     1
  9
$DIMTVP
 40
0.0
  9
$DIMTIX
 70
     0
  9
$DIMSOXD
 70
     0
  9
$DIMSAH
 70
     0
  9
$DIMBLK1
  1

  9
$DIMBLK2
  1

  9
$DIMSTYLE
  2
ISO-25
  9
$DIMCLRD
 70
     0
  9
$DIMCLRE
 70
     0
  9
$DIMCLRT
 70
     0
  9
$DIMTFAC
 40
1.0
  9
$DIMGAP
 40
1.524
  9
$DIMJUST
 70
     0
  9
$DIMSD1
 70
     0
  9
$DIMSD2
 70
     0
  9
$DIMTOLJ
 70
     0
  9
$DIMTZIN
 70
     0
  9
$DIMALTZ
 70
     0
  9
$DIMALTTZ
 70
     0
  9
$DIMUPT
 70
     0
  9
$DIMDEC
 70
     2
  9
$DIMTDEC
 70
     3
  9
$DIMALTU
 70
     2
  9
$DIMALTTD
 70
     3
  9
$DIMTXSTY
  7
Standard
  9
$DIMAUNIT
 70
     0
  9
$DIMADEC
 70
     2
  9
$DIMALTRND
 40
0.0
  9
$DIMAZIN
 70
     0
  9
$DIMDSEP
 70
    44
  9
$DIMATFIT
 70
     3
  9
$DIMFRAC
 70
     0
  9
$DIMLDRBLK
  1

  9
$DIMLUNIT
 70
     2
  9
$DIMLWD
 70
    -2
  9
$DIMLWE
 70
    -2
  9
$DIMTMOVE
 70
     0
  9
$LUNITS
 70
     2
  9
$LUPREC
 70
     2
  9
$SKETCHINC
 40
1.0
  9
$FILLETRAD
 40
10.0
  9
$AUNITS
 70
     0
  9
$AUPREC
 70
     2
  9
$MENU
  1
.
  9
$ELEVATION
 40
0.0
  9
$PELEVATION
 40
0.0
  9
$THICKNESS
 40
0.0
  9
$LIMCHECK
 70
     0
  9
$CHAMFERA
 40
10.0
  9
$CHAMFERB
 40
10.0
  9
$CHAMFERC
 40
20.0
  9
$CHAMFERD
 40
0.0
  9
$SKPOLY
 70
     0
  9
$TDCREATE
 40
2456092.546226933
  9
$TDUCREATE
 40
2456092.4628936
  9
$TDUPDATE
 40
2456092.546228553
  9
$TDUUPDATE
 40
2456092.46289522
  9
$TDINDWG
 40
0.0000000116
  9
$TDUSRTIMER
 40
0.0000000116
  9
$USRTIMER
 70
     1
  9
$ANGBASE
 50
0.0
  9
$ANGDIR
 70
     0
  9
$PDMODE
 70
     0
  9
$PDSIZE
 40
-1.0
  9
$PLINEWID
 40
0.0
  9
$SPLFRAME
 70
     0
  9
$SPLINETYPE
 70
     6
  9
$SPLINESEGS
 70
     8
  9
$HANDSEED
  5
357
  9
$SURFTAB1
 70
     6
  9
$SURFTAB2
 70
     6
  9
$SURFTYPE
 70
     6
  9
$SURFU
 70
     6
  9
$SURFV
 70
     6
  9
$UCSBASE
  2

  9
$UCSNAME
  2

  9
$UCSORG
 10
0.0
 20
0.0
 30
0.0
  9
$UCSXDIR
 10
1.0
 20
0.0
 30
0.0
  9
$UCSYDIR
 10
0.0
 20
1.0
 30
0.0
  9
$UCSORTHOREF
  2

  9
$UCSORTHOVIEW
 70
     0
  9
$UCSORGTOP
 10
0.0
 20
0.0
 30
0.0
  9
$UCSORGBOTTOM
 10
0.0
 20
0.0
 30
0.0
  9
$UCSORGLEFT
 10
0.0
 20
0.0
 30
0.0
  9
$UCSORGRIGHT
 10
0.0
 20
0.0
 30
0.0
  9
$UCSORGFRONT
 10
0.0
 20
0.0
 30
0.0
  9
$UCSORGBACK
 10
0.0
 20
0.0
 30
0.0
  9
$PUCSBASE
  2

  9
$PUCSNAME
  2

  9
$PUCSORG
 10
0.0
 20
0.0
 30
0.0
  9
$PUCSXDIR
 10
1.0
 20
0.0
 30
0.0
  9
$PUCSYDIR
 10
0.0
 20
1.0
 30
0.0
  9
$PUCSORTHOREF
  2

  9
$PUCSORTHOVIEW
 70
     0
  9
$PUCSORGTOP
 10
0.0
 20
0.0
 30
0.0
  9
$PUCSORGBOTTOM
 10
0.0
 20
0.0
 30
0.0
  9
$PUCSORGLEFT
 10
0.0
 20
0.0
 30
0.0
  9
$PUCSORGRIGHT
 10
0.0
 20
0.0
 30
0.0
  9
$PUCSORGFRONT
 10
0.0
 20
0.0
 30
0.0
  9
$PUCSORGBACK
 10
0.0
 20
0.0
 30
0.0
  9
$USERI1
 70
     0
  9
$USERI2
 70
     0
  9
$USERI3
 70
     0
  9
$USERI4
 70
     0
  9
$USERI5
 70
     0
  9
$USERR1
 40
0.0
  9
$USERR2
 40
0.0
  9
$USERR3
 40
0.0
  9
$USERR4
 40
0.0
  9
$USERR5
 40
0.0
  9
$WORLDVIEW
 70
     1
  9
$SHADEDGE
 70
     3
  9
$SHADEDIF
 70
    70
  9
$TILEMODE
 70
     1
  9
$MAXACTVP
 70
    64
  9
$PINSBASE
 10
0.0
 20
0.0
 30
0.0
  9
$PLIMCHECK
 70
     0
  9
$PEXTMIN
 10
1.0000000000E+20
 20
1.0000000000E+20
 30
1.0000000000E+20
  9
$PEXTMAX
 10
-1.0000000000E+20
 20
-1.0000000000E+20
 30
-1.0000000000E+20
  9
$PLIMMIN
 10
0.0
 20
0.0
  9
$PLIMMAX
 10
420.0
 20
297.0
  9
$UNITMODE
 70
     0
  9
$VISRETAIN
 70
     1
  9
$PLINEGEN
 70
     0
  9
$PSLTSCALE
 70
     1
  9
$TREEDEPTH
 70
  3020
  9
$CMLSTYLE
  2
Standard
  9
$CMLJUST
 70
     0
  9
$CMLSCALE
 40
20.0
  9
$PROXYGRAPHICS
 70
     1
  9
$MEASUREMENT
 70
     1
  9
$CELWEIGHT
370
    -1
  9
$ENDCAPS
280
     0
  9
$JOINSTYLE
280
     0
  9
$LWDISPLAY
290
     1
  9
$INSUNITS
 70
     4
  9
$HYPERLINKBASE
  1

  9
$STYLESHEET
  1

  9
$XEDIT
290
     1
  9
$CEPSNTYPE
380
     0
  9
$PSTYLEMODE
290
     1
  9
$FINGERPRINTGUID
  2
{49B9A64A-E4DC-4F37-B26C-280764C6E719}
  9
$VERSIONGUID
  2
{FAEB1C32-E019-11D5-929B-00C0DF256EC4}
  9
$EXTNAMES
290
     1
  9
$PSVPSCALE
 40
0.0
  9
$OLESTARTUP
290
     0
  0
ENDSEC
  0
SECTION
  2
CLASSES
  0
CLASS
  1
ACDBDICTIONARYWDFLT
  2
AcDbDictionaryWithDefault
  3
ObjectDBX Classes
 90
        0
280
     0
281
     0
  0
CLASS
  1
VISUALSTYLE
  2
AcDbVisualStyle
  3
ObjectDBX Classes
 90
     4095
280
     0
281
     0
  0
CLASS
  1
MATERIAL
  2
AcDbMaterial
  3
ObjectDBX Classes
 90
     1153
280
     0
281
     0
  0
CLASS
  1
ACDBPLACEHOLDER
  2
AcDbPlaceHolder
  3
ObjectDBX Classes
 90
        0
280
     0
281
     0
  0
CLASS
  1
LAYOUT
  2
AcDbLayout
  3
ObjectDBX Classes
 90
        0
280
     0
281
     0
  0
ENDSEC
  0
SECTION
  2
TABLES
  0
TABLE
  2
VPORT
  5
8
330
0
100
AcDbSymbolTable
 70
     1
  0
VPORT
  5
29
330
8
100
AcDbSymbolTableRecord
100
AcDbViewportTableRecord
  2
*Active
 70
     0
 10
0.0
 20
0.0
 11
1.0
 21
1.0
 12
148.5
 22
105.0
 13
0.0
 23
0.0
 14
10.0
 24
10.0
 15
10.0
 25
10.0
 16
0.0
 26
0.0
 36
1.0
 17
0.0
 27
0.0
 37
0.0
 40
210.0
 41
1.4142857143
 42
50.0
 43
0.0
 44
0.0
 50
0.0
 51
0.0
 71
     0
 72
  2000
 73
     1
 74
     3
 75
     0
 76
     0
 77
     0
 78
     0
281
     0
 65
     1
110
0.0
120
0.0
130
0.0
111
1.0
121
0.0
131
0.0
112
0.0
122
1.0
132
0.0
 79
     0
146
0.0
  0
ENDTAB
  0
TABLE
  2
LTYPE
  5
5
330
0
100
AcDbSymbolTable
 70
     6
  0
LTYPE
  5
14
330
5
100
AcDbSymbolTableRecord
100
AcDbLinetypeTableRecord
  2
ByBlock
 70
     0
  3

 72
    65
 73
     0
 40
0.0
  0
LTYPE
  5
15
330
5
100
AcDbSymbolTableRecord
100
AcDbLinetypeTableRecord
  2
ByLayer
 70
     0
  3

 72
    65
 73
     0
 40
0.0
  0
LTYPE
  5
16
330
5
100
AcDbSymbolTableRecord
100
AcDbLinetypeTableRecord
  2
Continuous
 70
     0
  3
Solid line
 72
    65
 73
     0
 40
0.0
  0
LTYPE
  5
3F
330
5
100
AcDbSymbolTableRecord
100
AcDbLinetypeTableRecord
  2
HIDDEN
 70
     0
  3
Hidden __ __ __ __ __ __ __ __ __ __ __ __ __ __
 72
    65
 73
     2
 40
1.905
 49
1.27
 74
     0
 49
-0.635
 74
     0
  0
LTYPE
  5
40
330
5
100
AcDbSymbolTableRecord
100
AcDbLinetypeTableRecord
  2
PHANTOM
 70
     0
  3
Phantom ______  __  __  ______  __  __  ______
 72
    65
 73
     6
 40
12.7
 49
6.35
 74
     0
 49
-1.27
 74
     0
 49
1.27
 74
     0
 49
-1.27
 74
     0
 49
1.27
 74
     0
 49
-1.27
 74
     0
  0
LTYPE
  5
41
330
5
100
AcDbSymbolTableRecord
100
AcDbLinetypeTableRecord
  2
CENTER
 70
     0
  3
Center ____ _ ____ _ ____ _ ____ _ ____ _ ____
 72
    65
 73
     4
 40
10.16
 49
6.35
 74
     0
 49
-1.27
 74
     0
 49
1.27
 74
     0
 49
-1.27
 74
     0
  0
LTYPE
  5
42
330
5
100
AcDbSymbolTableRecord
100
AcDbLinetypeTableRecord
  2
CENTERX2
 70
     0
  3
Center (2x) ________  __  ________  __  _____
 72
    65
 73
     4
 40
20.32
 49
12.7
 74
     0
 49
-2.54
 74
     0
 49
2.54
 74
     0
 49
-2.54
 74
     0
  0
LTYPE
  5
43
330
5
100
AcDbSymbolTableRecord
100
AcDbLinetypeTableRecord
  2
DOT2
 70
     0
  3
Dot (.5x) ........................................
 72
    65
 73
     2
 40
0.635
 49
0.0
 74
     0
 49
-0.635
 74
     0
  0
ENDTAB
  0
TABLE
  2
LAYER
  5
2
330
0
100
AcDbSymbolTable
 70
     5
  0
LAYER
  5
10
330
2
100
AcDbSymbolTableRecord
100
AcDbLayerTableRecord
  2
0
 70
     0
 62
     7
  6
Continuous
370
    -3
390
F
  0
LAYER
  5
44
330
2
100
AcDbSymbolTableRecord
100
AcDbLayerTableRecord
  2
FORMAT
 70
     0
 62
     7
  6
Continuous
370
    -3
390
F
  0
LAYER
  5
45
330
2
100
AcDbSymbolTableRecord
100
AcDbLayerTableRecord
  2
VERMASSUNG
 70
     0
 62
     7
  6
Continuous
370
    -3
390
F
  0
LAYER
  5
46
330
2
100
AcDbSymbolTableRecord
100
AcDbLayerTableRecord
  2
KOPF_DÜNN
 70
     0
 62
     7
  6
Continuous
370
    -3
390
F
  0
LAYER
  5
47
330
2
100
AcDbSymbolTableRecord
100
AcDbLayerTableRecord
  2
KOPF_DICK
 70
     0
 62
     7
  6
Continuous
370
    15
390
F
  0
ENDTAB
  0
TABLE
  2
STYLE
  5
3
330
0
100
AcDbSymbolTable
 70
     3
  0
STYLE
  5
11
330
3
100
AcDbSymbolTableRecord
100
AcDbTextStyleTableRecord
  2
Standard
 70
     0
 40
0.0
 41
1.0
 50
0.0
 71
     0
 42
2.0
  3
txt
  4

  0
STYLE
  5
48
330
3
100
AcDbSymbolTableRecord
100
AcDbTextStyleTableRecord
  2
SLDTEXTSTYLE0
 70
     0
 40
0.0
 41
0.7
 50
0.0
 71
     0
 42
0.2
  3
TXT
  4

  0
STYLE
  5
4C
330
3
100
AcDbSymbolTableRecord
100
AcDbTextStyleTableRecord
  2
SLDTEXTSTYLE1
 70
     0
 40
0.0
 41
0.6450980392
 50
0.0
 71
     0
 42
0.2
  3
TXT
  4

  0
ENDTAB
  0
TABLE
  2
VIEW
  5
6
330
0
100
AcDbSymbolTable
 70
     0
  0
ENDTAB
  0
TABLE
  2
UCS
  5
7
330
0
100
AcDbSymbolTable
 70
     0
  0
ENDTAB
  0
TABLE
  2
APPID
  5
9
330
0
100
AcDbSymbolTable
 70
     1
  0
APPID
  5
12
330
9
100
AcDbSymbolTableRecord
100
AcDbRegAppTableRecord
  2
ACAD
 70
     0
  0
ENDTAB
  0
TABLE
  2
DIMSTYLE
  5
A
330
0
100
AcDbSymbolTable
 70
     2
100
AcDbDimStyleTable
  0
DIMSTYLE
105
27
330
A
100
AcDbSymbolTableRecord
100
AcDbDimStyleTableRecord
  2
ISO-25
 70
     0
 41
2.5
 42
0.625
 43
3.75
 44
1.25
 73
     0
 74
     0
 77
     1
 78
     8
140
2.5
141
2.5
143
0.0393700787
147
0.625
171
     3
172
     1
178
     0
271
     2
272
     2
274
     3
278
    44
283
     0
284
     8
340
11
  0
DIMSTYLE
105
1FB
102
{ACAD_REACTORS
330
1FA
330
205
330
33F
330
34B
102
}
330
A
100
AcDbSymbolTableRecord
100
AcDbDimStyleTableRecord
  2
SLDDIMSTYLE0
 70
     0
 41
3.0
 44
0.0
 45
0.000000001
 73
     0
 74
     0
 77
     1
 78
    12
 79
     3
140
2.0
147
0.5
173
     1
178
     0
271
     2
272
     3
276
     2
284
    12
340
48
  0
ENDTAB
  0
TABLE
  2
BLOCK_RECORD
  5
1
330
0
100
AcDbSymbolTable
 70
     5
  0
BLOCK_RECORD
  5
1F
330
1
100
AcDbSymbolTableRecord
100
AcDbBlockTableRecord
  2
*Model_Space
340
22
  0
BLOCK_RECORD
  5
1B
330
1
100
AcDbSymbolTableRecord
100
AcDbBlockTableRecord
  2
*Paper_Space
340
1E
  0
BLOCK_RECORD
  5
23
330
1
100
AcDbSymbolTableRecord
100
AcDbBlockTableRecord
  2
*Paper_Space0
340
26
  0
BLOCK_RECORD
  5
1FC
330
1
100
AcDbSymbolTableRecord
100
AcDbBlockTableRecord
  2
_D
340
0
  0
BLOCK_RECORD
  5
206
330
1
100
AcDbSymbolTableRecord
100
AcDbBlockTableRecord
  2
_D_1
340
0
  0
BLOCK_RECORD
  5
340
330
1
100
AcDbSymbolTableRecord
100
AcDbBlockTableRecord
  2
_D_2
340
0
  0
BLOCK_RECORD
  5
34C
330
1
100
AcDbSymbolTableRecord
100
AcDbBlockTableRecord
  2
_D_3
340
0
  0
ENDTAB
  0
ENDSEC
  0
SECTION
  2
BLOCKS
  0
BLOCK
  5
20
330
1F
100
AcDbEntity
  8
0
100
AcDbBlockBegin
  2
*Model_Space
 70
     0
 10
0.0
 20
0.0
 30
0.0
  3
*Model_Space
  1

  0
ENDBLK
  5
21
330
1F
100
AcDbEntity
  8
0
100
AcDbBlockEnd
  0
BLOCK
  5
1C
330
1B
100
AcDbEntity
 67
     1
  8
0
100
AcDbBlockBegin
  2
*Paper_Space
 70
     0
 10
0.0
 20
0.0
 30
0.0
  3
*Paper_Space
  1

  0
ENDBLK
  5
1D
330
1B
100
AcDbEntity
 67
     1
  8
0
100
AcDbBlockEnd
  0
BLOCK
  5
24
330
23
100
AcDbEntity
  8
0
100
AcDbBlockBegin
  2
*Paper_Space0
 70
     0
 10
0.0
 20
0.0
 30
0.0
  3
*Paper_Space0
  1

  0
ENDBLK
  5
25
330
23
100
AcDbEntity
  8
0
100
AcDbBlockEnd
  0
BLOCK
  5
1FD
330
1FC
100
AcDbEntity
  8
0
100
AcDbBlockBegin
  2
_D
 70
     0
 10
0.0
 20
0.0
 30
0.0
  3
_D
  1

  0
SOLID
  5
1FF
330
1FC
100
AcDbEntity
  8
VERMASSUNG
100
AcDbTrace
 10
201.7213349602
 20
173.5131781156
 30
0.0
 11
198.7213349602
 21
173.9631781156
 31
0.0
 12
198.7213349602
 22
173.0631781156
 32
0.0
 13
198.7213349602
 23
173.0631781156
 33
0.0
  0
SOLID
  5
200
330
1FC
100
AcDbEntity
  8
VERMASSUNG
100
AcDbTrace
 10
121.7213349602
 20
173.5131781156
 30
0.0
 11
124.7213349602
 21
173.0631781156
 31
0.0
 12
124.7213349602
 22
173.9631781156
 32
0.0
 13
124.7213349602
 23
173.9631781156
 33
0.0
  0
LINE
  5
201
330
1FC
100
AcDbEntity
  8
VERMASSUNG
100
AcDbLine
 10
201.7213349602
 20
143.5131781156
 30
0.0
 11
201.7213349602
 21
174.5131781156
 31
0.0
  0
LINE
  5
202
330
1FC
100
AcDbEntity
  8
VERMASSUNG
100
AcDbLine
 10
121.7213349602
 20
163.2131781156
 30
0.0
 11
121.7213349602
 21
174.5131781156
 31
0.0
  0
LINE
  5
203
330
1FC
100
AcDbEntity
  8
VERMASSUNG
100
AcDbLine
 10
201.7213349602
 20
173.5131781156
 30
0.0
 11
121.7213349602
 21
173.5131781156
 31
0.0
  0
MTEXT
  5
204
330
1FC
100
AcDbEntity
  8
VERMASSUNG
100
AcDbMText
 10
159.4213349091
 20
176.0913134787
 30
0.1
 40
2.0
 41
0.0
 71
     1
 72
     1
  1
80
  7
SLDTEXTSTYLE0
 73
     1
 44
1.0
  0
ENDBLK
  5
1FE
330
1FC
100
AcDbEntity
  8
0
100
AcDbBlockEnd
  0
BLOCK
  5
207
330
206
100
AcDbEntity
  8
0
100
AcDbBlockBegin
  2
_D_1
 70
     0
 10
0.0
 20
0.0
 30
0.0
  3
_D_1
  1

  0
SOLID
  5
209
330
206
100
AcDbEntity
  8
VERMASSUNG
100
AcDbTrace
 10
201.7213349602
 20
179.5131781156
 30
0.0
 11
198.7213349602
 21
179.9631781156
 31
0.0
 12
198.7213349602
 22
179.0631781156
 32
0.0
 13
198.7213349602
 23
179.0631781156
 33
0.0
  0
SOLID
  5
20A
330
206
100
AcDbEntity
  8
VERMASSUNG
100
AcDbTrace
 10
101.8213349602
 20
179.5131781156
 30
0.0
 11
104.8213349602
 21
179.0631781156
 31
0.0
 12
104.8213349602
 22
179.9631781156
 32
0.0
 13
104.8213349602
 23
179.9631781156
 33
0.0
  0
LINE
  5
20B
330
206
100
AcDbEntity
  8
VERMASSUNG
100
AcDbLine
 10
201.7213349602
 20
143.5131781156
 30
0.0
 11
201.7213349602
 21
180.5131781156
 31
0.0
  0
LINE
  5
20C
330
206
100
AcDbEntity
  8
VERMASSUNG
100
AcDbLine
 10
101.8213349602
 20
156.9591617067
 30
0.0
 11
101.8213349602
 21
180.5131781156
 31
0.0
  0
LINE
  5
20D
330
206
100
AcDbEntity
  8
VERMASSUNG
100
AcDbLine
 10
201.7213349602
 20
179.5131781156
 30
0.0
 11
101.8213349602
 21
179.5131781156
 31
0.0
  0
MTEXT
  5
20E
330
206
100
AcDbEntity
  8
VERMASSUNG
100
AcDbMText
 10
148.4713347452
 20
182.0913134787
 30
0.1
 40
2.0
 41
0.0
 71
     1
 72
     1
  1
99.9
  7
SLDTEXTSTYLE0
 73
     1
 44
1.0
  0
ENDBLK
  5
208
330
206
100
AcDbEntity
  8
0
100
AcDbBlockEnd
  0
BLOCK
  5
341
330
340
100
AcDbEntity
  8
0
100
AcDbBlockBegin
  2
_D_2
 70
     0
 10
0.0
 20
0.0
 30
0.0
  3
_D_2
  1

  0
SOLID
  5
343
330
340
100
AcDbEntity
  8
VERMASSUNG
100
AcDbTrace
 10
93.9547882299
 20
100.5054950742
 30
0.0
 11
93.5047882299
 21
97.5054950742
 31
0.0
 12
94.4047882299
 22
97.5054950742
 32
0.0
 13
94.4047882299
 23
97.5054950742
 33
0.0
  0
SOLID
  5
344
330
340
100
AcDbEntity
  8
VERMASSUNG
100
AcDbTrace
 10
93.9547882299
 20
60.5054950742
 30
0.0
 11
94.4047882299
 21
63.5054950742
 31
0.0
 12
93.5047882299
 22
63.5054950742
 32
0.0
 13
93.5047882299
 23
63.5054950742
 33
0.0
  0
LINE
  5
345
330
340
100
AcDbEntity
  8
VERMASSUNG
100
AcDbLine
 10
122.0213349602
 20
100.5054950742
 30
0.0
 11
92.9547882299
 21
100.5054950742
 31
0.0
  0
LINE
  5
346
330
340
100
AcDbEntity
  8
VERMASSUNG
100
AcDbLine
 10
122.0213349602
 20
60.5054950742
 30
0.0
 11
92.9547882299
 21
60.5054950742
 31
0.0
  0
LINE
  5
347
330
340
100
AcDbEntity
  8
VERMASSUNG
100
AcDbLine
 10
93.9547882299
 20
100.5054950742
 30
0.0
 11
93.9547882299
 21
60.5054950742
 31
0.0
  0
MTEXT
  5
348
330
340
100
AcDbEntity
  8
VERMASSUNG
100
AcDbMText
 10
91.1766527408
 20
72.5004944233
 30
0.1
 40
2.0
 41
0.0
 71
     1
 72
     1
  1
HSK T
  7
SLDTEXTSTYLE0
 11
-7.044195017643634E-15
 21
1.0
 31
0.0
 73
     1
 44
1.0
  0
MTEXT
  5
349
330
340
100
AcDbEntity
  8
VERMASSUNG
100
AcDbMText
 10
91.3766527503
 20
80.1004945514
 30
0.1
 40
2.0
 41
0.0
 71
     1
 72
     1
  1
%%c
  7
SLDTEXTSTYLE0
 11
-7.044195017643634E-15
 21
1.0
 31
0.0
 73
     1
 44
1.0
  0
MTEXT
  5
34A
330
340
100
AcDbEntity
  8
VERMASSUNG
100
AcDbMText
 10
91.1766527408
 20
83.7104945657
 30
0.1
 40
2.0
 41
0.0
 71
     1
 72
     1
  1
40
  7
SLDTEXTSTYLE0
 11
-7.044195017643634E-15
 21
1.0
 31
0.0
 73
     1
 44
1.0
  0
ENDBLK
  5
342
330
340
100
AcDbEntity
  8
0
100
AcDbBlockEnd
  0
BLOCK
  5
34D
330
34C
100
AcDbEntity
  8
0
100
AcDbBlockBegin
  2
_D_3
 70
     0
 10
0.0
 20
0.0
 30
0.0
  3
_D_3
  1

  0
SOLID
  5
34F
330
34C
100
AcDbEntity
  8
VERMASSUNG
100
AcDbTrace
 10
211.8848677813
 20
97.0054950742
 30
0.0
 11
211.4348677813
 21
94.0054950742
 31
0.0
 12
212.3348677813
 22
94.0054950742
 32
0.0
 13
212.3348677813
 23
94.0054950742
 33
0.0
  0
SOLID
  5
350
330
34C
100
AcDbEntity
  8
VERMASSUNG
100
AcDbTrace
 10
211.8848677813
 20
64.0054950742
 30
0.0
 11
212.3348677813
 21
67.0054950742
 31
0.0
 12
211.4348677813
 22
67.0054950742
 32
0.0
 13
211.4348677813
 23
67.0054950742
 33
0.0
  0
LINE
  5
351
330
34C
100
AcDbEntity
  8
VERMASSUNG
100
AcDbLine
 10
167.7156462411
 20
97.0054950742
 30
0.0
 11
212.8848677813
 21
97.0054950742
 31
0.0
  0
LINE
  5
352
330
34C
100
AcDbEntity
  8
VERMASSUNG
100
AcDbLine
 10
167.7156462411
 20
64.0054950742
 30
0.0
 11
212.8848677813
 21
64.0054950742
 31
0.0
  0
LINE
  5
353
330
34C
100
AcDbEntity
  8
VERMASSUNG
100
AcDbLine
 10
211.8848677813
 20
97.0054950742
 30
0.0
 11
211.8848677813
 21
64.0054950742
 31
0.0
  0
MTEXT
  5
354
330
34C
100
AcDbEntity
  8
VERMASSUNG
100
AcDbMText
 10
209.3067323018
 20
76.4004952488
 30
0.1
 40
2.0
 41
0.0
 71
     1
 72
     1
  1
%%c
  7
SLDTEXTSTYLE0
 11
-7.044195017643634E-15
 21
1.0
 31
0.0
 73
     1
 44
1.0
  0
MTEXT
  5
355
330
34C
100
AcDbEntity
  8
VERMASSUNG
100
AcDbMText
 10
209.1067322923
 20
80.0104952631
 30
0.1
 40
2.0
 41
0.0
 71
     1
 72
     1
  1
33
  7
SLDTEXTSTYLE0
 11
-7.044195017643634E-15
 21
1.0
 31
0.0
 73
     1
 44
1.0
  0
ENDBLK
  5
34E
330
34C
100
AcDbEntity
  8
0
100
AcDbBlockEnd
  0
ENDSEC
  0
SECTION
  2
ENTITIES
  0
MTEXT
  5
49
330
1F
100
AcDbEntity
  8
KOPF_DÜNN
100
AcDbMText
 10
13.8892156294
 20
23.8442973028
 30
0.0
 40
3.0
 41
0.0
 71
     1
 72
     1
  1
HA4.KCC.NMA.080
  7
SLDTEXTSTYLE0
 73
     1
 44
1.0
  0
MTEXT
  5
4A
330
1F
100
AcDbEntity
  8
VERMASSUNG
100
AcDbMText
 10
13.9329988022
 20
28.8834360957
 30
0.0
 40
3.0
 41
0.0
 71
     1
 72
     1
  1
Klemmhalter_Turning tool
  7
SLDTEXTSTYLE0
 73
     1
 44
1.0
  0
MTEXT
  5
4B
330
1F
100
AcDbEntity
  8
VERMASSUNG
100
AcDbMText
 10
98.8601118557
 20
13.8365368179
 30
0.0
 40
2.0
 41
0.0
 71
     1
 72
     1
  1
Datum: 13.06.2012
  7
SLDTEXTSTYLE0
 73
     1
 44
1.0
  0
MTEXT
  5
4D
330
1F
100
AcDbEntity
  8
VERMASSUNG
100
AcDbMText
 10
13.933048693
 20
18.0482802738
 30
0.0
 40
2.0
 41
0.0
 71
     1
 72
     1
  1
DIN 69893 HSK T 40 / CC.. 12 04.. / 50° / 80° / 50°
  7
SLDTEXTSTYLE1
 73
     1
 44
1.0
  0
MTEXT
  5
4E
330
1F
100
AcDbEntity
  8
VERMASSUNG
100
AcDbMText
 10
13.9808475933
 20
13.9090973692
 30
0.0
 40
2.0
 41
0.0
 71
     1
 72
     1
  1
Gewicht: 427g
  7
SLDTEXTSTYLE0
 73
     1
 44
1.0
  0
ARC
  5
4F
330
1F
100
AcDbEntity
  8
0
  6
Continuous
 62
     7
370
    15
100
AcDbCircle
 10
122.0213349602
 20
123.8131781156
 30
0.0
 40
0.2999999999999972
100
AcDbArc
 50
180.0
 51
270.0
  0
ARC
  5
50
330
1F
100
AcDbEntity
  8
0
  6
Continuous
 62
     7
370
    15
100
AcDbCircle
 10
122.0213349602
 20
163.2131781156
 30
0.0
 40
0.2999999999999972
100
AcDbArc
 50
90.0
 51
180.0
  0
LINE
  5
51
330
1F
100
AcDbEntity
  8
0
  6
Continuous
 62
     7
370
    15
100
AcDbLine
 10
133.7061731757
 20
123.5131781156
 30
0.0
 11
135.6861752613
 21
123.5131781156
 31
0.0
  0
LINE
  5
52
330
1F
100
AcDbEntity
  8
0
  6
Continuous
 62
     7
370
    15
100
AcDbLine
 10
122.0213349602
 20
123.5131781156
 30
0.0
 11
123.7213349602
 21
123.5131781156
 31
0.0
  0
LINE
  5
53
330
1F
100
AcDbEntity
  8
0
  6
Continuous
 62
     7
370
    15
100
AcDbLine
 10
135.6861752613
 20
163.5131781156
 30
0.0
 11
122.0213349602
 21
163.5131781156
 31
0.0
  0
ARC
  5
54
330
1F
100
AcDbEntity
  8
0
  6
Continuous
 62
     7
370
    15
100
AcDbCircle
 10
141.0713349602
 20
162.9131781156
 30
0.0
 40
0.5999999999999943
100
AcDbArc
 50
0.0
 51
90.0
  0
ARC
  5
55
330
1F
100
AcDbEntity
  8
0
  6
Continuous
 62
     7
370
    15
100
AcDbCircle
 10
141.0713349602
 20
124.1131781156
 30
0.0
 40
0.6000000000000085
100
AcDbArc
 50
270.0
 51
0.0
  0
LINE
  5
56
330
1F
100
AcDbEntity
  8
0
  6
Continuous
 62
     7
370
    15
100
AcDbLine
 10
138.7613349602
 20
125.2368452757
 30
0.0
 11
139.7564946591
 21
123.5131781156
 31
0.0
  0
LINE
  5
57
330
1F
100
AcDbEntity
  8
0
  6
Continuous
 62
     7
370
    15
100
AcDbLine
 10
139.7564946591
 20
123.5131781156
 30
0.0
 11
141.0713349602
 21
123.5131781156
 31
0.0
  0
LINE
  5
58
330
1F
100
AcDbEntity
  8
0
  6
Continuous
 62
     7
370
    15
100
AcDbLine
 10
139.7564946591
 20
163.5131781156
 30
0.0
 11
138.7613349602
 21
161.7895109555
 31
0.0
  0
LINE
  5
59
330
1F
100
AcDbEntity
  8
0
  6
Continuous
 62
     7
370
    15
100
AcDbLine
 10
141.0713349602
 20
163.5131781156
 30
0.0
 11
139.7564946591
 21
163.5131781156
 31
0.0
  0
LINE
  5
5A
330
1F
100
AcDbEntity
  8
0
  6
Continuous
 62
     7
370
    15
100
AcDbLine
 10
136.6813349602
 20
161.7895109555
 30
0.0
 11
135.6861752613
 21
163.5131781156
 31
0.0
  0
LINE
  5
5B
330
1F
100
AcDbEntity
  8
0
  6
Continuous
 62
     7
370
    15
100
AcDbLine
 10
135.6861752613
 20
123.5131781156
 30
0.0
 11
136.6813349602
 21
125.2368452757
 31
0.0
  0
ARC
  5
5C
330
1F
100
AcDbEntity
  8
0
  6
Continuous
 62
     7
370
    15
100
AcDbCircle
 10
138.1613349602
 20
161.4881781156
 30
0.0
 40
0.6000000000000227
100
AcDbArc
 50
270.0
 51
0.0
  0
ARC
  5
5D
330
1F
100
AcDbEntity
  8
0
  6
Continuous
 62
     7
370
    15
100
AcDbCircle
 10
137.2813349602
 20
161.4881781156
 30
0.0
 40
0.5999999999999943
100
AcDbArc
 50
180.0
 51
270.0
  0
ARC
  5
5E
330
1F
100
AcDbEntity
  8
0
  6
Continuous
 62
     7
370
    15
100
AcDbCircle
 10
138.1613349602
 20
125.5381781156
 30
0.0
 40
0.6000000000000227
100
AcDbArc
 50
0.0
 51
90.0
  0
ARC
  5
5F
330
1F
100
AcDbEntity
  8
0
  6
Continuous
 62
     7
370
    15
100
AcDbCircle
 10
137.2813349602
 20
125.5381781156
 30
0.0
 40
0.5999999999999943
100
AcDbArc
 50
90.0
 51
180.0
  0
ARC
  5
60
330
1F
100
AcDbEntity
  8
0
  6
Continuous
 62
     7
370
    15
100
AcDbCircle
 10
142.6713349602
 20
126.0131781156
 30
0.0
 40
1.0
100
AcDbArc
 50
90.0
 51
180.0
  0
ARC
  5
61
330
1F
100
AcDbEntity
  8
0
  6
Continuous
 62
     7
370
    15
100
AcDbCircle
 10
142.6713349602
 20
161.0131781156
 30
0.0
 40
1.0
100
AcDbArc
 50
180.0
 51
270.0
  0
LINE
  5
62
330
1F
100
AcDbEntity
  8
0
  6
Continuous
 62
     7
370
    15
100
AcDbLine
 10
137.2813349602
 20
126.1381781156
 30
0.0
 11
138.1613349602
 21
126.1381781156
 31
0.0
  0
LINE
  5
63
330
1F
100
AcDbEntity
  8
0
  6
Continuous
 62
     7
370
    15
100
AcDbLine
 10
138.1613349602
 20
160.8881781156
 30
0.0
 11
137.2813349602
 21
160.8881781156
 31
0.0
  0
LINE
  5
64
330
1F
100
AcDbEntity
  8
0
  6
Continuous
 62
     7
370
    15
100
AcDbLine
 10
194.0450685041
 20
127.0131781156
 30
0.0
 11
197.8606469552
 21
127.0131781156
 31
0.0
  0
LINE
  5
65
330
1F
100
AcDbEntity
  8
0
  6
Continuous
 62
     7
370
    15
100
AcDbLine
 10
159.2156382842
 20
127.0131781156
 30
0.0
 11
189.8523160027
 21
127.0131781156
 31
0.0
  0
LINE
  5
66
330
1F
100
AcDbEntity
  8
0
  6
Continuous
 62
     7
370
    15
100
AcDbLine
 10
142.6713349602
 20
127.0131781156
 30
0.0
 11
154.2213349602
 21
127.0131781156
 31
0.0
  0
LINE
  5
67
330
1F
100
AcDbEntity
  8
0
  6
Continuous
 62
     7
370
    15
100
AcDbLine
 10
162.2197885273
 20
160.0131781156
 30
0.0
 11
142.6713349602
 21
160.0131781156
 31
0.0
  0
ARC
  5
68
330
1F
100
AcDbEntity
  8
0
  6
Continuous
 62
     7
370
    15
100
AcDbCircle
 10
121.2213282075
 20
128.0594709621
 30
0.0
 40
0.6000067526677242
100
AcDbArc
 50
33.5571153394
 51
90.0
  0
ARC
  5
69
330
1F
100
AcDbEntity
  8
0
  6
Continuous
 62
     7
370
    15
100
AcDbCircle
 10
121.2213282075
 20
158.9668852691
 30
0.0
 40
0.6000067526677321
100
AcDbArc
 50
270.0
 51
326.4428846606
  0
LINE
  5
6A
330
1F
100
AcDbEntity
  8
0
  6
Continuous
 62
     7
370
    15
100
AcDbLine
 10
119.7213349602
 20
158.6168785164
 30
0.0
 11
102.5813050066
 21
157.7581595808
 31
0.0
  0
LINE
  5
6B
330
1F
100
AcDbEntity
  8
0
  6
Continuous
 62
     7
370
    15
100
AcDbLine
 10
102.5813050066
 20
129.2681966503
 30
0.0
 11
119.7213349602
 21
128.4094777148
 31
0.0
  0
LINE
  5
6C
330
1F
100
AcDbEntity
  8
0
  6
Continuous
 62
     7
370
    15
100
AcDbLine
 10
119.7213349602
 20
128.4094777148
 30
0.0
 11
120.5780468749
 21
128.6390329805
 31
0.0
  0
LINE
  5
6D
330
1F
100
AcDbEntity
  8
0
  6
Continuous
 62
     7
370
    15
100
AcDbLine
 10
120.5780468749
 20
158.3873232507
 30
0.0
 11
119.7213349602
 21
158.6168785164
 31
0.0
  0
ARC
  5
6E
330
1F
100
AcDbEntity
  8
0
  6
Continuous
 62
     7
370
    15
100
AcDbCircle
 10
120.7333400496
 20
128.0594709621
 30
0.0
 40
0.6000067526677242
100
AcDbArc
 50
90.0
 51
105.0
  0
ARC
  5
6F
330
1F
100
AcDbEntity
  8
0
  6
Continuous
 62
     7
370
    15
100
AcDbCircle
 10
120.7333400496
 20
158.9668852691
 30
0.0
 40
0.6000067526677242
100
AcDbArc
 50
255.0
 51
270.0
  0
LINE
  5
70
330
1F
100
AcDbEntity
  8
0
  6
Continuous
 62
     7
370
    15
100
AcDbLine
 10
120.7333400496
 20
128.6594777148
 30
0.0
 11
121.2213282075
 21
128.6594777148
 31
0.0
  0
LINE
  5
71
330
1F
100
AcDbEntity
  8
0
  6
Continuous
 62
     7
370
    15
100
AcDbLine
 10
121.2213282075
 20
158.3668785164
 30
0.0
 11
120.7333400496
 21
158.3668785164
 31
0.0
  0
ARC
  5
72
330
1F
100
AcDbEntity
  8
0
  6
Continuous
 62
     7
370
    15
100
AcDbCircle
 10
102.6213349602
 20
130.0671945244
 30
0.0
 40
0.7999999999999972
100
AcDbArc
 50
180.0
 51
267.1318680593
  0
ARC
  5
73
330
1F
100
AcDbEntity
  8
0
  6
Continuous
 62
     7
370
    15
100
AcDbCircle
 10
102.6213349602
 20
156.9591617067
 30
0.0
 40
0.8000000000000022
100
AcDbArc
 50
92.8681319407
 51
180.0
  0
LINE
  5
74
330
1F
100
AcDbEntity
  8
0
  6
Continuous
 62
     7
370
    15
100
AcDbLine
 10
182.4082214205
 20
143.5131781156
 30
0.0
 11
182.4450567888
 21
143.2131781156
 31
0.0
  0
LINE
  5
75
330
1F
100
AcDbEntity
  8
0
  6
Continuous
 62
     7
370
    15
100
AcDbLine
 10
201.3213349602
 20
140.2554395444
 30
0.0
 11
201.7213349602
 21
143.5131781156
 31
0.0
  0
LINE
  5
76
330
1F
100
AcDbEntity
  8
0
  6
Continuous
 62
     7
370
    15
100
AcDbLine
 10
121.7213349602
 20
143.5131781156
 30
0.0
 11
121.7213349602
 21
163.2131781156
 31
0.0
  0
LINE
  5
77
330
1F
100
AcDbEntity
  8
0
  6
Continuous
 62
     7
370
    15
100
AcDbLine
 10
121.7213349602
 20
123.8131781156
 30
0.0
 11
121.7213349602
 21
143.5131781156
 31
0.0
  0
LINE
  5
78
330
1F
100
AcDbEntity
  8
0
  6
Continuous
 62
     7
370
    15
100
AcDbLine
 10
135.6861752613
 20
149.0131781156
 30
0.0
 11
135.6861752613
 21
163.5131781156
 31
0.0
  0
LINE
  5
79
330
1F
100
AcDbEntity
  8
0
  6
Continuous
 62
     7
370
    15
100
AcDbLine
 10
135.6861752613
 20
149.0131781156
 30
0.0
 11
134.1713349602
 21
149.0131781156
 31
0.0
  0
LINE
  5
7A
330
1F
100
AcDbEntity
  8
0
  6
Continuous
 62
     7
370
    15
100
AcDbLine
 10
134.1713349602
 20
138.0131781156
 30
0.0
 11
135.6861752613
 21
138.0131781156
 31
0.0
  0
LINE
  5
7B
330
1F
100
AcDbEntity
  8
0
  6
Continuous
 62
     7
370
    15
100
AcDbLine
 10
135.6861752613
 20
123.5131781156
 30
0.0
 11
135.6861752613
 21
138.0131781156
 31
0.0
  0
SPLINE
  5
7C
330
1F
100
AcDbEntity
  8
0
  6
Continuous
 62
     7
370
    15
100
AcDbSpline
210
0.0
220
0.0
230
1.0
 70
     8
 71
     3
 72
    37
 73
    33
 74
     0
 42
0.00000001
 43
0.00000001
 12
1.0
 22
0.0
 32
0.0
 13
1.0
 23
0.0
 33
0.0
 40
0.0
 40
0.0
 40
0.0
 40
0.0
 40
0.0258214628078406
 40
0.0783601674804436
 40
0.1051385178041315
 40
0.1309591254040441
 40
0.1834525498226199
 40
0.2101802439541509
 40
0.2364792653115458
 40
0.2899443398302639
 40
0.3171724454303582
 40
0.3438317872544498
 40
0.3706806061347028
 40
0.3981359861477656
 40
0.4258052978680247
 40
0.4519206865256126
 40
0.5050808527090509
 40
0.5321954610858372
 40
0.557704658787
 40
0.6095785437724597
 40
0.6359989369183394
 40
0.6617844967791648
 40
0.7141886885183629
 40
0.7408617442809335
 40
0.7673663077104764
 40
0.8212660889668221
 40
0.848728191041826
 40
0.8752954592414813
 40
0.9293734654349918
 40
0.9569591798137739
 40
0.9828507617053125
 40
1.0
 40
1.0
 40
1.0
 40
1.0
 10
123.721334960183
 20
123.5131781155905
 30
0.0
 10
123.7246678237746
 20
123.514011109292
 30
0.0
 10
123.7347820357839
 20
123.5165389879966
 30
0.0
 10
123.8294283148117
 20
123.5401284540343
 30
0.0
 10
123.9861748770527
 20
123.5778813635427
 30
0.0
 10
124.186382724232
 20
123.6248123731129
 30
0.0
 10
124.4484017241877
 20
123.6834300227687
 30
0.0
 10
124.7681437966423
 20
123.7493988928994
 30
0.0
 10
125.1269007205417
 20
123.818968847667
 30
0.0
 10
125.5393763169338
 20
123.8907593205839
 30
0.0
 10
125.9962633552303
 20
123.9585113310788
 30
0.0
 10
126.3596696290018
 20
124.0059367800485
 30
0.0
 10
126.741300794831
 20
124.0485964174496
 30
0.0
 10
127.1427333290296
 20
124.0854703033008
 30
0.0
 10
127.5528321525499
 20
124.1144906685241
 30
0.0
 10
128.1040727127535
 20
124.1418344721499
 30
0.0
 10
128.664943270765
 20
124.1517717268542
 30
0.0
 10
129.2202461827047
 20
124.1432959783428
 30
0.0
 10
129.7638794421845
 20
124.123453501108
 30
0.0
 10
130.2921275439872
 20
124.0876030935216
 30
0.0
 10
130.7969410811648
 20
124.0385154213512
 30
0.0
 10
131.2850942629464
 20
123.9818321788524
 30
0.0
 10
131.7416279267524
 20
123.9161196330784
 30
0.0
 10
132.1574929677296
 20
123.8465139035517
 30
0.0
 10
132.5473877478462
 20
123.7754449472858
 30
0.0
 10
132.8882174840769
 20
123.7059480626896
 30
0.0
 10
133.1682562803333
 20
123.6445290742822
 30
0.0
 10
133.4062670255449
 20
123.5901177251702
 30
0.0
 10
133.5807992737292
 20
123.5479777344192
 30
0.0
 10
133.6775846097884
 20
123.5240990724148
 30
0.0
 10
133.7226549037019
 20
123.5128520534607
 30
0.0
 10
133.7108691186835
 20
123.5157896952048
 30
0.0
 10
133.7061731757415
 20
123.5169601728601
 30
0.0
  0
SPLINE
  5
7D
330
1F
100
AcDbEntity
  8
0
  6
Continuous
 62
     7
370
    15
100
AcDbSpline
210
0.0
220
0.0
230
1.0
 70
     8
 71
     3
 72
    22
 73
    18
 74
     0
 42
0.00000001
 43
0.00000001
 12
1.0
 22
0.0
 32
0.0
 13
1.0
 23
0.0
 33
0.0
 40
0.0
 40
0.0
 40
0.0
 40
0.0
 40
0.125
 40
0.125
 40
0.25
 40
0.25
 40
0.375
 40
0.375
 40
0.5
 40
0.5
 40
0.625
 40
0.625
 40
0.75
 40
0.75
 40
0.875
 40
0.875
 40
1.0
 40
1.0
 40
1.0
 40
1.0
 10
134.171334960183
 20
149.0131781155906
 30
0.0
 10
133.8722105311424
 20
149.0131781155906
 30
0.0
 10
133.5783880828936
 20
148.9836522171706
 30
0.0
 10
133.0008238066472
 20
148.868247383884
 30
0.0
 10
132.7140061288333
 20
148.7808645788182
 30
0.0
 10
132.169543599934
 20
148.5541911595105
 30
0.0
 10
131.9115883293127
 20
148.415715313178
 30
0.0
 10
131.4235303859527
 20
148.0889048160142
 30
0.0
 10
131.193832087289
 20
147.8998599800342
 30
0.0
 10
130.7814131043364
 20
147.4869916975585
 30
0.0
 10
130.5958861614763
 20
147.2615198063071
 30
0.0
 10
130.2673661165755
 20
146.7706642017595
 30
0.0
 10
130.128952229676
 20
146.5118240438174
 30
0.0
 10
129.9043600830601
 20
145.9720712180216
 30
0.0
 10
129.8172812709359
 20
145.6879681291925
 30
0.0
 10
129.7007794629808
 20
145.1065149940506
 30
0.0
 10
129.671334960183
 20
144.8118645284223
 30
0.0
 10
129.671334960183
 20
144.5131781155906
 30
0.0
  0
SPLINE
  5
7E
330
1F
100
AcDbEntity
  8
0
  6
Continuous
 62
     7
370
    15
100
AcDbSpline
210
0.0
220
0.0
230
1.0
 70
     8
 71
     3
 72
    22
 73
    18
 74
     0
 42
0.00000001
 43
0.00000001
 12
1.0
 22
0.0
 32
0.0
 13
1.0
 23
0.0
 33
0.0
 40
0.0
 40
0.0
 40
0.0
 40
0.0
 40
0.1250000000000001
 40
0.1250000000000001
 40
0.2500000000000002
 40
0.2500000000000002
 40
0.3750000000000003
 40
0.3750000000000003
 40
0.5000000000000004
 40
0.5000000000000004
 40
0.6250000000000003
 40
0.6250000000000003
 40
0.7500000000000002
 40
0.7500000000000002
 40
0.8750000000000001
 40
0.8750000000000001
 40
1.0
 40
1.0
 40
1.0
 40
1.0
 10
129.671334960183
 20
142.5131781155906
 30
0.0
 10
129.671334960183
 20
142.2144403871929
 30
0.0
 10
129.7007833813132
 20
141.9212350623584
 30
0.0
 10
129.8156212475371
 20
141.3452799817309
 30
0.0
 10
129.9024340860748
 20
141.0595376879155
 30
0.0
 10
130.1280814583708
 20
140.5160085469218
 30
0.0
 10
130.265918600035
 20
140.2585153587002
 30
0.0
 10
130.5911195599393
 20
139.7713103614349
 30
0.0
 10
130.7798218398473
 20
139.5411707392458
 30
0.0
 10
131.1921535600796
 20
139.1279650830423
 30
0.0
 10
131.4173004864315
 20
138.9421293423464
 30
0.0
 10
131.9072763377887
 20
138.613032762163
 30
0.0
 10
132.1679839799106
 20
138.4730729053489
 30
0.0
 10
132.7088413606263
 20
138.2473865441193
 30
0.0
 10
132.9925319866803
 20
138.1601151357805
 30
0.0
 10
133.5766143576097
 20
138.0427149224297
 30
0.0
 10
133.8721819126016
 20
138.0131781155906
 30
0.0
 10
134.171334960183
 20
138.0131781155906
 30
0.0
  0
LINE
  5
7F
330
1F
100
AcDbEntity
  8
0
  6
Continuous
 62
     7
370
    15
100
AcDbLine
 10
129.6713349602
 20
144.5131781156
 30
0.0
 11
129.6713349602
 21
142.5131781156
 31
0.0
  0
LINE
  5
80
330
1F
100
AcDbEntity
  8
0
  6
Continuous
 62
     7
370
    15
100
AcDbLine
 10
141.6713349602
 20
149.0131781156
 30
0.0
 11
141.6713349602
 21
162.9131781156
 31
0.0
  0
SPLINE
  5
81
330
1F
100
AcDbEntity
  8
0
  6
Continuous
 62
     7
370
    15
100
AcDbSpline
210
0.0
220
0.0
230
1.0
 70
    24
 71
     3
 72
    10
 73
     6
 74
     0
 42
0.00000001
 43
0.00000001
 12
1.0
 22
0.0
 32
0.0
 13
1.0
 23
0.0
 33
0.0
 40
0.0
 40
0.0
 40
0.0
 40
0.0
 40
0.5
 40
0.5
 40
1.0
 40
1.0
 40
1.0
 40
1.0
 10
141.671334960183
 20
149.0131781155906
 30
0.0
 10
141.671334960183
 20
149.0131781155906
 30
0.0
 10
141.6096984464777
 20
149.0131781155906
 30
0.0
 10
141.3906720802349
 20
149.0131781155906
 30
0.0
 10
141.2330551921874
 20
149.0131781155906
 30
0.0
 10
141.071334960183
 20
149.0131781155906
 30
0.0
  0
LINE
  5
82
330
1F
100
AcDbEntity
  8
0
  6
Continuous
 62
     7
370
    15
100
AcDbLine
 10
141.6713349602
 20
124.1131781156
 30
0.0
 11
141.6713349602
 21
138.0131781156
 31
0.0
  0
SPLINE
  5
83
330
1F
100
AcDbEntity
  8
0
  6
Continuous
 62
     7
370
    15
100
AcDbSpline
210
0.0
220
0.0
230
1.0
 70
    24
 71
     3
 72
    12
 73
     8
 74
     0
 42
0.00000001
 43
0.00000001
 12
1.0
 22
0.0
 32
0.0
 13
1.0
 23
0.0
 33
0.0
 40
0.0
 40
0.0
 40
0.0
 40
0.0
 40
0.2500000000000038
 40
0.2500000000000038
 40
0.5000000000000077
 40
0.5000000000000077
 40
1.0
 40
1.0
 40
1.0
 40
1.0
 10
141.071334960183
 20
138.0131781155906
 30
0.0
 10
141.1511004406532
 20
138.0131781155906
 30
0.0
 10
141.2315217243103
 20
138.0131781155906
 30
0.0
 10
141.3782036409729
 20
138.0131781155906
 30
0.0
 10
141.4445574505368
 20
138.0131781155906
 30
0.0
 10
141.6107615312634
 20
138.0131781155906
 30
0.0
 10
141.671334960183
 20
138.0131781155906
 30
0.0
 10
141.6713349601831
 20
138.0131781155906
 30
0.0
  0
LINE
  5
84
330
1F
100
AcDbEntity
  8
0
  6
Continuous
 62
     7
370
    15
100
AcDbLine
 10
139.7564946591
 20
123.5131781156
 30
0.0
 11
139.7564946591
 21
138.0131781156
 31
0.0
  0
LINE
  5
85
330
1F
100
AcDbEntity
  8
0
  6
Continuous
 62
     7
370
    15
100
AcDbLine
 10
138.7613349602
 20
125.2368452757
 30
0.0
 11
138.7613349602
 21
138.0131781156
 31
0.0
  0
SPLINE
  5
86
330
1F
100
AcDbEntity
  8
0
  6
Continuous
 62
     7
370
    15
100
AcDbSpline
210
0.0
220
0.0
230
1.0
 70
    24
 71
     3
 72
     8
 73
     4
 74
     0
 42
0.00000001
 43
0.00000001
 12
1.0
 22
0.0
 32
0.0
 13
1.0
 23
0.0
 33
0.0
 40
0.0
 40
0.0
 40
0.0
 40
0.0
 40
1.0
 40
1.0
 40
1.0
 40
1.0
 10
138.761334960183
 20
138.0131781155906
 30
0.0
 10
139.0919735867976
 20
138.0131781155906
 30
0.0
 10
139.4237893873711
 20
138.0131781155906
 30
0.0
 10
139.7564946590765
 20
138.0131781155906
 30
0.0
  0
LINE
  5
87
330
1F
100
AcDbEntity
  8
0
  6
Continuous
 62
     7
370
    15
100
AcDbLine
 10
139.7564946591
 20
138.0131781156
 30
0.0
 11
141.0713349602
 21
138.0131781156
 31
0.0
  0
LINE
  5
88
330
1F
100
AcDbEntity
  8
0
  6
Continuous
 62
     7
370
    15
100
AcDbLine
 10
139.7564946591
 20
149.0131781156
 30
0.0
 11
139.7564946591
 21
163.5131781156
 31
0.0
  0
LINE
  5
89
330
1F
100
AcDbEntity
  8
0
  6
Continuous
 62
     7
370
    15
100
AcDbLine
 10
138.7613349602
 20
149.0131781156
 30
0.0
 11
138.7613349602
 21
161.7895109555
 31
0.0
  0
SPLINE
  5
8A
330
1F
100
AcDbEntity
  8
0
  6
Continuous
 62
     7
370
    15
100
AcDbSpline
210
0.0
220
0.0
230
1.0
 70
    24
 71
     3
 72
     8
 73
     4
 74
     0
 42
0.00000001
 43
0.00000001
 12
1.0
 22
0.0
 32
0.0
 13
1.0
 23
0.0
 33
0.0
 40
0.0
 40
0.0
 40
0.0
 40
0.0
 40
1.0
 40
1.0
 40
1.0
 40
1.0
 10
139.7564946590765
 20
149.0131781155906
 30
0.0
 10
139.4237893873711
 20
149.0131781155906
 30
0.0
 10
139.0919735867976
 20
149.0131781155906
 30
0.0
 10
138.761334960183
 20
149.0131781155906
 30
0.0
  0
LINE
  5
8B
330
1F
100
AcDbEntity
  8
0
  6
Continuous
 62
     7
370
    15
100
AcDbLine
 10
141.0713349602
 20
149.0131781156
 30
0.0
 11
139.7564946591
 21
149.0131781156
 31
0.0
  0
LINE
  5
8C
330
1F
100
AcDbEntity
  8
0
  6
Continuous
 62
     7
370
    15
100
AcDbLine
 10
136.6813349602
 20
149.0131781156
 30
0.0
 11
136.6813349602
 21
161.7895109555
 31
0.0
  0
SPLINE
  5
8D
330
1F
100
AcDbEntity
  8
0
  6
Continuous
 62
     7
370
    15
100
AcDbSpline
210
0.0
220
0.0
230
1.0
 70
    24
 71
     3
 72
     8
 73
     4
 74
     0
 42
0.00000001
 43
0.00000001
 12
1.0
 22
0.0
 32
0.0
 13
1.0
 23
0.0
 33
0.0
 40
0.0
 40
0.0
 40
0.0
 40
0.0
 40
1.0
 40
1.0
 40
1.0
 40
1.0
 10
136.681334960183
 20
149.0131781155906
 30
0.0
 10
136.3506963335684
 20
149.0131781155906
 30
0.0
 10
136.0188805329949
 20
149.0131781155906
 30
0.0
 10
135.6861752612896
 20
149.0131781155906
 30
0.0
  0
LINE
  5
8E
330
1F
100
AcDbEntity
  8
0
  6
Continuous
 62
     7
370
    15
100
AcDbLine
 10
136.6813349602
 20
125.2368452757
 30
0.0
 11
136.6813349602
 21
138.0131781156
 31
0.0
  0
SPLINE
  5
8F
330
1F
100
AcDbEntity
  8
0
  6
Continuous
 62
     7
370
    15
100
AcDbSpline
210
0.0
220
0.0
230
1.0
 70
    24
 71
     3
 72
     8
 73
     4
 74
     0
 42
0.00000001
 43
0.00000001
 12
1.0
 22
0.0
 32
0.0
 13
1.0
 23
0.0
 33
0.0
 40
0.0
 40
0.0
 40
0.0
 40
0.0
 40
1.0
 40
1.0
 40
1.0
 40
1.0
 10
135.6861752612896
 20
138.0131781155906
 30
0.0
 10
136.0188805329949
 20
138.0131781155906
 30
0.0
 10
136.3506963335684
 20
138.0131781155906
 30
0.0
 10
136.681334960183
 20
138.0131781155906
 30
0.0
  0
SPLINE
  5
90
330
1F
100
AcDbEntity
  8
0
  6
Continuous
 62
     7
370
    15
100
AcDbSpline
210
0.0
220
0.0
230
1.0
 70
     8
 71
     3
 72
    16
 73
    12
 74
     0
 42
0.00000001
 43
0.00000001
 12
1.0
 22
0.0
 32
0.0
 13
1.0
 23
0.0
 33
0.0
 40
0.0
 40
0.0
 40
0.0
 40
0.0
 40
0.5000000000000013
 40
0.5000000000000013
 40
0.750000000000002
 40
0.750000000000002
 40
0.875000000000003
 40
0.875000000000003
 40
0.9375000000000014
 40
0.9375000000000014
 40
1.0
 40
1.0
 40
1.0
 40
1.0
 10
138.7261125596018
 20
149.013178115591
 30
0.0
 10
138.6960761400751
 20
148.7425460390707
 30
0.0
 10
138.6494420428703
 20
148.4750200359049
 30
0.0
 10
138.5390576312916
 20
148.0812976734227
 30
0.0
 10
138.495719982771
 20
147.9504548942234
 30
0.0
 10
138.4072383483864
 20
147.7656378305923
 30
0.0
 10
138.3738628437698
 20
147.7053591780623
 30
0.0
 10
138.3093706343192
 20
147.6255000873872
 30
0.0
 10
138.2851662971326
 20
147.6005271864074
 30
0.0
 10
138.2294124873222
 20
147.5619308840216
 30
0.0
 10
138.195828461254
 20
147.5481037654632
 30
0.0
 10
138.161334960183
 20
147.5481037654632
 30
0.0
  0
SPLINE
  5
91
330
1F
100
AcDbEntity
  8
0
  6
Continuous
 62
     7
370
    15
100
AcDbSpline
210
0.0
220
0.0
230
1.0
 70
     8
 71
     3
 72
    16
 73
    12
 74
     0
 42
0.00000001
 43
0.00000001
 12
1.0
 22
0.0
 32
0.0
 13
1.0
 23
0.0
 33
0.0
 40
0.0
 40
0.0
 40
0.0
 40
0.0
 40
0.0625000000000015
 40
0.0625000000000015
 40
0.1250000000000029
 40
0.1250000000000029
 40
0.2500000000000039
 40
0.2500000000000039
 40
0.5000000000000031
 40
0.5000000000000031
 40
1.0
 40
1.0
 40
1.0
 40
1.0
 10
137.2813349601564
 20
147.5481037654632
 30
0.0
 10
137.2468562929712
 20
147.5481037654698
 30
0.0
 10
137.2130361161344
 20
147.5619606383724
 30
0.0
 10
137.1565140489507
 20
147.601338360647
 30
0.0
 10
137.1321879694244
 20
147.6267016650505
 30
0.0
 10
137.0677350698732
 20
147.7070494249327
 30
0.0
 10
137.0341067945145
 20
147.7681082331875
 30
0.0
 10
136.9460294789897
 20
147.9529894050079
 30
0.0
 10
136.9032100257221
 20
148.0824801588533
 30
0.0
 10
136.7925533915251
 20
148.477935541203
 30
0.0
 10
136.7463208055811
 20
148.7450055769835
 30
0.0
 10
136.7165573607644
 20
149.0131781155906
 30
0.0
  0
SPLINE
  5
92
330
1F
100
AcDbEntity
  8
0
  6
Continuous
 62
     7
370
    15
100
AcDbSpline
210
0.0
220
0.0
230
1.0
 70
     8
 71
     3
 72
    16
 73
    12
 74
     0
 42
0.00000001
 43
0.00000001
 12
1.0
 22
0.0
 32
0.0
 13
1.0
 23
0.0
 33
0.0
 40
0.0
 40
0.0
 40
0.0
 40
0.0
 40
0.0624999999999978
 40
0.0624999999999978
 40
0.1249999999999955
 40
0.1249999999999955
 40
0.249999999999995
 40
0.249999999999995
 40
0.4999999999999967
 40
0.4999999999999967
 40
1.0
 40
1.0
 40
1.0
 40
1.0
 10
138.161334960183
 20
139.4782524657178
 30
0.0
 10
138.1956227836431
 20
139.4782524657178
 30
0.0
 10
138.2295066929646
 20
139.4644387625756
 30
0.0
 10
138.2858428857815
 20
139.4252809537404
 30
0.0
 10
138.3101047419485
 20
139.4000540437055
 30
0.0
 10
138.3743978599956
 20
139.3201156257046
 30
0.0
 10
138.4079616494223
 20
139.2593421622022
 30
0.0
 10
138.4958780216448
 20
139.075298383496
 30
0.0
 10
138.5386345643615
 20
138.9463768289754
 30
0.0
 10
138.6491793060117
 20
138.5526519489174
 30
0.0
 10
138.6961587197738
 20
138.2830661382011
 30
0.0
 10
138.7261125596017
 20
138.0131781155906
 30
0.0
  0
SPLINE
  5
93
330
1F
100
AcDbEntity
  8
0
  6
Continuous
 62
     7
370
    15
100
AcDbSpline
210
0.0
220
0.0
230
1.0
 70
     8
 71
     3
 72
    16
 73
    12
 74
     0
 42
0.00000001
 43
0.00000001
 12
1.0
 22
0.0
 32
0.0
 13
1.0
 23
0.0
 33
0.0
 40
0.0
 40
0.0
 40
0.0
 40
0.0
 40
0.5000000000000001
 40
0.5000000000000001
 40
0.7500000000000002
 40
0.7500000000000002
 40
0.8749999999999996
 40
0.8749999999999996
 40
0.9374999999999998
 40
0.9374999999999998
 40
1.0
 40
1.0
 40
1.0
 40
1.0
 10
136.7165573607644
 20
138.0131781155906
 30
0.0
 10
136.7463347664546
 20
138.2814764434978
 30
0.0
 10
136.7933080123184
 20
138.5516584286112
 30
0.0
 10
136.9036254716736
 20
138.9450873616076
 30
0.0
 10
136.9467699421351
 20
139.0754947002442
 30
0.0
 10
137.035431741805
 20
139.2607340665464
 30
0.0
 10
137.0684829489345
 20
139.3204576693465
 30
0.0
 10
137.1328285334202
 20
139.4003412218188
 30
0.0
 10
137.1569736468538
 20
139.4254420145002
 30
0.0
 10
137.2135925674792
 20
139.4646774263411
 30
0.0
 10
137.2471951143575
 20
139.4782524657175
 30
0.0
 10
137.2813349601832
 20
139.4782524657174
 30
0.0
  0
SPLINE
  5
94
330
1F
100
AcDbEntity
  8
0
  6
Continuous
 62
     7
370
    15
100
AcDbSpline
210
0.0
220
0.0
230
1.0
 70
     8
 71
     3
 72
    18
 73
    14
 74
     0
 42
0.00000001
 43
0.00000001
 12
1.0
 22
0.0
 32
0.0
 13
1.0
 23
0.0
 33
0.0
 40
0.0
 40
0.0
 40
0.0
 40
0.0
 40
0.25
 40
0.25
 40
0.5
 40
0.5
 40
0.5625
 40
0.5625
 40
0.625
 40
0.625
 40
0.75
 40
0.75
 40
1.0
 40
1.0
 40
1.0
 40
1.0
 10
141.671334960183
 20
138.9700514389503
 30
0.0
 10
141.671334960183
 20
139.7244783692373
 30
0.0
 10
141.726275858816
 20
140.4775933358224
 30
0.0
 10
141.8269057523682
 20
141.9840442002507
 30
0.0
 10
141.8706084291554
 20
142.737468421185
 30
0.0
 10
141.8715038900185
 20
143.680354635968
 30
0.0
 10
141.8692438965009
 20
143.8725030745077
 30
0.0
 10
141.8601760624134
 20
144.2531825677899
 30
0.0
 10
141.8533776577484
 20
144.443436112577
 30
0.0
 10
141.8276722043617
 20
145.0139946029848
 30
0.0
 10
141.8033732390101
 20
145.3940950395583
 30
0.0
 10
141.7273085828272
 20
146.5342698433916
 30
0.0
 10
141.671334960183
 20
147.2941776737654
 30
0.0
 10
141.671334960183
 20
148.0563047922308
 30
0.0
  0
LINE
  5
95
330
1F
100
AcDbEntity
  8
0
  6
Continuous
 62
     7
370
    15
100
AcDbLine
 10
137.2813349602
 20
139.4782524658
 30
0.0
 11
138.1613349602
 21
139.4782524657
 31
0.0
  0
LINE
  5
96
330
1F
100
AcDbEntity
  8
0
  6
Continuous
 62
     7
370
    15
100
AcDbLine
 10
138.1613349602
 20
147.5481037655
 30
0.0
 11
137.2813349602
 21
147.5481037655
 31
0.0
  0
LINE
  5
97
330
1F
100
AcDbEntity
  8
0
  6
Continuous
 62
     7
370
    15
100
AcDbLine
 10
141.6713349602
 20
148.0563047922
 30
0.0
 11
141.6713349602
 21
149.0131781156
 31
0.0
  0
LINE
  5
98
330
1F
100
AcDbEntity
  8
0
  6
Continuous
 62
     7
370
    15
100
AcDbLine
 10
141.6713349602
 20
138.0131781156
 30
0.0
 11
141.6713349602
 21
138.970051439
 31
0.0
  0
ARC
  5
99
330
1F
100
AcDbEntity
  8
0
  6
Continuous
 62
     7
370
    15
100
AcDbCircle
 10
156.7213066322
 20
110.6386030371
 30
0.0
 40
16.56431608493427
100
AcDbArc
 50
81.3391909171
 51
98.6805433878
  0
LINE
  5
9A
330
1F
100
AcDbEntity
  8
0
  6
Continuous
 62
     7
370
    15
100
AcDbLine
 10
162.2197885273
 20
160.0131781156
 30
0.0
 11
166.1255384453
 21
145.4367209803
 31
0.0
  0
SPLINE
  5
9B
330
1F
100
AcDbEntity
  8
0
  6
Continuous
 62
     7
370
    15
100
AcDbSpline
210
0.0
220
0.0
230
1.0
 70
     8
 71
     3
 72
    14
 73
    10
 74
     0
 42
0.00000001
 43
0.00000001
 12
1.0
 22
0.0
 32
0.0
 13
1.0
 23
0.0
 33
0.0
 40
0.0
 40
0.0
 40
0.0
 40
0.0
 40
0.25
 40
0.25
 40
0.5
 40
0.5
 40
0.75
 40
0.75
 40
1.0
 40
1.0
 40
1.0
 40
1.0
 10
166.1255384452527
 20
145.436720980283
 30
0.0
 10
166.2105564095279
 20
145.119429618052
 30
0.0
 10
166.3443075172045
 20
144.8233383549339
 30
0.0
 10
166.7101651231542
 20
144.2746028715989
 30
0.0
 10
166.9331720895043
 20
144.0360077067191
 30
0.0
 10
167.4560710136846
 20
143.6339310104527
 30
0.0
 10
167.7447087577846
 20
143.4793725428921
 30
0.0
 10
168.3684366875183
 20
143.267051441364
 30
0.0
 10
168.6927507611027
 20
143.2131781155905
 30
0.0
 10
169.0233159241199
 20
143.2131781155905
 30
0.0
  0
LINE
  5
9C
330
1F
100
AcDbEntity
  8
0
  6
Continuous
 62
     7
370
    15
100
AcDbLine
 10
169.0233159241
 20
143.2131781156
 30
0.0
 11
181.7589179107
 21
143.2131781156
 31
0.0
  0
ELLIPSE
  5
9D
330
1F
100
AcDbEntity
  8
0
  6
Continuous
 62
     7
370
    15
100
AcDbEllipse
 10
201.4769073429
 20
143.5131781156
 30
0.0
 11
19.15971909552027
 21
6.95635735483296
 31
0.0
210
0.0
220
0.0
230
1.0
 40
0.7809050507
 41
2.724569244520967
 42
4.253561217977754
  0
LINE
  5
9E
330
1F
100
AcDbEntity
  8
0
  6
Continuous
 62
     7
370
    15
100
AcDbLine
 10
197.8606469552
 20
127.0131781156
 30
0.0
 11
197.8615262332
 21
127.0177812104
 31
0.0
  0
SPLINE
  5
9F
330
1F
100
AcDbEntity
  8
0
  6
Continuous
 62
     7
370
    15
100
AcDbSpline
210
0.0
220
0.0
230
1.0
 70
     8
 71
     3
 72
    17
 73
    13
 74
     0
 42
0.00000001
 43
0.00000001
 12
1.0
 22
0.0
 32
0.0
 13
1.0
 23
0.0
 33
0.0
 40
0.0
 40
0.0
 40
0.0
 40
0.0
 40
0.1052574377259204
 40
0.2135827005719288
 40
0.3188357899597031
 40
0.4271119858831098
 40
0.5329002072228333
 40
0.6417342911343115
 40
0.7478595005933164
 40
0.8570941925296947
 40
0.9626372175793384
 40
1.0
 40
1.0
 40
1.0
 40
1.0
 10
191.9519774903084
 20
127.1473600792075
 30
0.0
 10
192.0678302514595
 20
127.1466419297951
 30
0.0
 10
192.302912409357
 20
127.1451846998432
 30
0.0
 10
192.6440051329685
 20
127.1337788365365
 30
0.0
 10
192.9684174529916
 20
127.1168242006462
 30
0.0
 10
193.2617787695093
 20
127.0957983508073
 30
0.0
 10
193.5212413524349
 20
127.0728628138535
 30
0.0
 10
193.7345942031435
 20
127.0509213956157
 30
0.0
 10
193.9004764941019
 20
127.0319539527451
 30
0.0
 10
194.005443022071
 20
127.0190983303252
 30
0.0
 10
194.0541972628047
 20
127.012896702074
 30
0.0
 10
194.0469605465503
 20
127.0138152472741
 30
0.0
 10
194.0450685040949
 20
127.0140554012963
 30
0.0
  0
LINE
  5
A0
330
1F
100
AcDbEntity
  8
0
  6
Continuous
 62
     7
370
    15
100
AcDbLine
 10
192.0711394961
 20
127.1461007343
 30
0.0
 11
191.8809921297
 21
127.1468389203
 31
0.0
  0
SPLINE
  5
A1
330
1F
100
AcDbEntity
  8
0
  6
Continuous
 62
     7
370
    15
100
AcDbSpline
210
0.0
220
0.0
230
1.0
 70
     8
 71
     3
 72
    17
 73
    13
 74
     0
 42
0.00000001
 43
0.00000001
 12
1.0
 22
0.0
 32
0.0
 13
1.0
 23
0.0
 33
0.0
 40
0.0
 40
0.0
 40
0.0
 40
0.0
 40
0.1038128560544345
 40
0.211935501739245
 40
0.3169899633602393
 40
0.4250508723414795
 40
0.5308225032593086
 40
0.6396387434850747
 40
0.7457618011797008
 40
0.8549937772864036
 40
0.9270184034120258
 40
1.0
 40
1.0
 40
1.0
 40
1.0
 10
189.8523160026918
 20
127.0132209205344
 30
0.0
 10
189.8575860574889
 20
127.0138962006057
 30
0.0
 10
189.8683449533527
 20
127.0152747949933
 30
0.0
 10
189.9578045873023
 20
127.0264462910838
 30
0.0
 10
190.1000220047421
 20
127.0431860208944
 30
0.0
 10
190.2939092037278
 20
127.0640625941094
 30
0.0
 10
190.5364614479558
 20
127.0869528609205
 30
0.0
 10
190.8176889007476
 20
127.1090050797157
 30
0.0
 10
191.1343211935005
 20
127.1280636133701
 30
0.0
 10
191.4362478135693
 20
127.140055391162
 30
0.0
 10
191.7121627634186
 20
127.14633460036
 30
0.0
 10
191.8716883176849
 20
127.1470167523015
 30
0.0
 10
191.9519774903084
 20
127.1473600792075
 30
0.0
  0
LINE
  5
A2
330
1F
100
AcDbEntity
  8
0
  6
Continuous
 62
     7
370
    15
100
AcDbLine
 10
191.8314196163
 20
143.2131781156
 30
0.0
 11
181.7589179107
 21
143.2131781156
 31
0.0
  0
LINE
  5
A3
330
1F
100
AcDbEntity
  8
0
  6
Continuous
 62
     7
370
    15
100
AcDbLine
 10
191.8314196163
 20
143.2131781156
 30
0.0
 11
191.8314196163
 21
141.2531781156
 31
0.0
  0
LINE
  5
A4
330
1F
100
AcDbEntity
  8
0
  6
Continuous
 62
     7
370
    15
100
AcDbLine
 10
191.8314196163
 20
141.2531781156
 30
0.0
 11
191.5926460326
 21
138.7531781156
 31
0.0
  0
LINE
  5
A5
330
1F
100
AcDbEntity
  8
0
  6
Continuous
 62
     7
370
    15
100
AcDbLine
 10
191.8314196163
 20
138.7531781156
 30
0.0
 11
191.5926460326
 21
138.7531781156
 31
0.0
  0
LINE
  5
A6
330
1F
100
AcDbEntity
  8
0
  6
Continuous
 62
     7
370
    15
100
AcDbLine
 10
197.8615262332
 20
127.0177812104
 30
0.0
 11
200.1032084534
 21
138.7531781156
 31
0.0
  0
SPLINE
  5
A7
330
1F
100
AcDbEntity
  8
0
  6
Continuous
 62
     7
370
    15
100
AcDbSpline
210
0.0
220
0.0
230
1.0
 70
     8
 71
     3
 72
    39
 73
    35
 74
     0
 42
0.00000001
 43
0.00000001
 12
1.0
 22
0.0
 32
0.0
 13
1.0
 23
0.0
 33
0.0
 40
-0.0936307374834674
 40
-0.0624866940518835
 40
-0.0311899125704248
 40
0.0
 40
0.0313950051306797
 40
0.0632578417333787
 40
0.0952224636477227
 40
0.1268300883541535
 40
0.1583319028230767
 40
0.1900733366302649
 40
0.2215799771181888
 40
0.2525506668390317
 40
0.2832646329733582
 40
0.3142453913338125
 40
0.3451008643996114
 40
0.3756595953882572
 40
0.4062483587849174
 40
0.4375428428480352
 40
0.4689219037422903
 40
0.5001883476926339
 40
0.5315602582318535
 40
0.5633787432097843
 40
0.5952897280239504
 40
0.6268283118816909
 40
0.6582867464516448
 40
0.6900582026392518
 40
0.7215959795544815
 40
0.7526086401062468
 40
0.783441846006685
 40
0.8143773968256288
 40
0.8453229801620306
 40
0.8757917625066934
 40
0.9063692625165326
 40
0.9375133059481165
 40
0.9688100874295752
 40
1.0
 40
1.03139500513068
 40
1.063257841733379
 40
1.095222463647723
 10
113.7016825336525
 20
141.4635593090344
 30
0.0
 10
113.3544363670222
 20
141.9050453788448
 30
0.0
 10
113.0970365902953
 20
142.4082263191123
 30
0.0
 10
112.9412606538164
 20
142.956657490806
 30
0.0
 10
112.8858667362402
 20
143.5258351063391
 30
0.0
 10
112.9420105925606
 20
144.0929982374249
 30
0.0
 10
113.1041121323511
 20
144.6375501270526
 30
0.0
 10
113.3693290729494
 20
145.1384973471944
 30
0.0
 10
113.7193629525967
 20
145.5799232117586
 30
0.0
 10
114.1462247542958
 20
145.9390503340143
 30
0.0
 10
114.6337147660219
 20
146.2054268590651
 30
0.0
 10
115.1653512818955
 20
146.3650514799603
 30
0.0
 10
115.7164761626586
 20
146.4208963074514
 30
0.0
 10
116.263930717656
 20
146.3607416836233
 30
0.0
 10
116.788574162354
 20
146.1910842120992
 30
0.0
 10
117.2703284500348
 20
145.9167567074149
 30
0.0
 10
117.6954048617115
 20
145.5555978720844
 30
0.0
 10
118.0411447143262
 20
145.1162374697635
 30
0.0
 10
118.2980145714331
 20
144.6149128664583
 30
0.0
 10
118.4529457399099
 20
144.0677051862083
 30
0.0
 10
118.5077513480142
 20
143.4994349144276
 30
0.0
 10
118.4508138556766
 20
142.9333054929336
 30
0.0
 10
118.2883485104737
 20
142.3902426861695
 30
0.0
 10
118.0244725620135
 20
141.8908784332835
 30
0.0
 10
117.6769227406412
 20
141.4510400026442
 30
0.0
 10
117.2533176951016
 20
141.0929184193577
 30
0.0
 10
116.7699439515617
 20
140.8265024088664
 30
0.0
 10
116.2412474491427
 20
140.664650429851
 30
0.0
 10
115.6919053960415
 20
140.6058729468493
 30
0.0
 10
115.142962770188
 20
140.6622641128651
 30
0.0
 10
114.6154116568594
 20
140.8287466118666
 30
0.0
 10
114.129855348091
 20
141.1022140569755
 30
0.0
 10
113.7016825336525
 20
141.4635593090344
 30
0.0
 10
113.3544363670222
 20
141.9050453788448
 30
0.0
 10
113.0970365902953
 20
142.4082263191123
 30
0.0
  0
SPLINE
  5
A8
330
1F
100
AcDbEntity
  8
0
  6
Continuous
 62
     7
370
    15
100
AcDbSpline
210
0.0
220
0.0
230
1.0
 70
     8
 71
     3
 72
    35
 73
    31
 74
     0
 42
0.00000001
 43
0.00000001
 12
1.0
 22
0.0
 32
0.0
 13
1.0
 23
0.0
 33
0.0
 40
-0.0968759714105335
 40
-0.0666637412865829
 40
-0.0343786691642837
 40
0.0
 40
0.0402501657296218
 40
0.0744868225722956
 40
0.1027071323073724
 40
0.124917950875141
 40
0.1620537621248075
 40
0.2036866238058425
 40
0.249906444772969
 40
0.2843401088017922
 40
0.3106265062079874
 40
0.3287516660532261
 40
0.3698185616128222
 40
0.4071583514065797
 40
0.451949094674636
 40
0.500041466443584
 40
0.5203026891026117
 40
0.5628788326078381
 40
0.5977565702324343
 40
0.6256573753251403
 40
0.6860513535559893
 40
0.7499481360750937
 40
0.7710338117834908
 40
0.8124324596680225
 40
0.8472054374745032
 40
0.8749589221791378
 40
0.9031240285894665
 40
0.9333362587134171
 40
0.9656213308357163
 40
1.0
 40
1.040250165729622
 40
1.074486822572296
 40
1.102707132307372
 10
113.5651087378515
 20
142.6653270374671
 30
0.0
 10
113.8037715263833
 20
142.205049747643
 30
0.0
 10
114.1502058442429
 20
141.8044999644092
 30
0.0
 10
114.55496593089
 20
141.5135802572804
 30
0.0
 10
114.9285643490361
 20
141.3437746644723
 30
0.0
 10
115.3371951324603
 20
141.2315695772807
 30
0.0
 10
115.8272618740011
 20
141.1918622386761
 30
0.0
 10
116.425652181161
 20
141.29294713834
 30
0.0
 10
116.9607783864629
 20
141.5467094198073
 30
0.0
 10
117.3550346950868
 20
141.8746744628661
 30
0.0
 10
117.5949637211864
 20
142.1664595848327
 30
0.0
 10
117.8087454702678
 20
142.5150593024769
 30
0.0
 10
117.9765132885644
 20
142.9535914926597
 30
0.0
 10
118.0469769105129
 20
143.5490684830006
 30
0.0
 10
117.9574517192809
 20
144.1794540547068
 30
0.0
 10
117.7246152273074
 20
144.6800323458882
 30
0.0
 10
117.4051810764291
 20
145.1021922892054
 30
0.0
 10
117.053089532633
 20
145.4160442056915
 30
0.0
 10
116.605388977009
 20
145.6524170573495
 30
0.0
 10
116.0385154423832
 20
145.8222525604668
 30
0.0
 10
115.2856652307089
 20
145.8336483422075
 30
0.0
 10
114.6144937809699
 20
145.5631333131404
 30
0.0
 10
114.1297006899834
 20
145.1945461948089
 30
0.0
 10
113.8153439838625
 20
144.839848292193
 30
0.0
 10
113.5805100297062
 20
144.3938913006436
 30
0.0
 10
113.4555717019388
 20
143.9728348577056
 30
0.0
 10
113.408747393774
 20
143.5576929307905
 30
0.0
 10
113.4402610243125
 20
143.1187512531913
 30
0.0
 10
113.5651087378515
 20
142.6653270374671
 30
0.0
 10
113.8037715263833
 20
142.205049747643
 30
0.0
 10
114.1502058442429
 20
141.8044999644092
 30
0.0
  0
SPLINE
  5
A9
330
1F
100
AcDbEntity
  8
0
  6
Continuous
 62
     7
370
    15
100
AcDbSpline
210
0.0
220
0.0
230
1.0
 70
     8
 71
     3
 72
     8
 73
     4
 74
     0
 42
0.00000001
 43
0.00000001
 12
1.0
 22
0.0
 32
0.0
 13
1.0
 23
0.0
 33
0.0
 40
0.0
 40
0.0
 40
0.0
 40
0.0
 40
1.0
 40
1.0
 40
1.0
 40
1.0
 10
102.7628188106139
 20
137.0472721292907
 30
0.0
 10
102.7769532552421
 20
137.1455075300667
 30
0.0
 10
102.8000106303907
 20
137.2425281625394
 30
0.0
 10
102.830334960183
 20
137.3386185094092
 30
0.0
  0
SPLINE
  5
AA
330
1F
100
AcDbEntity
  8
0
  6
Continuous
 62
     7
370
    15
100
AcDbSpline
210
0.0
220
0.0
230
1.0
 70
     8
 71
     3
 72
    10
 73
     6
 74
     0
 42
0.00000001
 43
0.00000001
 12
1.0
 22
0.0
 32
0.0
 13
1.0
 23
0.0
 33
0.0
 40
0.0
 40
0.0
 40
0.0
 40
0.0
 40
0.5
 40
0.5
 40
1.0
 40
1.0
 40
1.0
 40
1.0
 10
102.830334960183
 20
137.3386185094092
 30
0.0
 10
103.0456939907404
 20
137.2991090295972
 30
0.0
 10
103.2601353290644
 20
137.2563664881995
 30
0.0
 10
103.6851265476849
 20
137.157180381332
 30
0.0
 10
103.8964992794076
 20
137.1036323078243
 30
0.0
 10
104.1005115684845
 20
137.0241802461383
 30
0.0
  0
SPLINE
  5
AB
330
1F
100
AcDbEntity
  8
0
  6
Continuous
 62
     7
370
    15
100
AcDbSpline
210
0.0
220
0.0
230
1.0
 70
     8
 71
     3
 72
    10
 73
     6
 74
     0
 42
0.00000001
 43
0.00000001
 12
1.0
 22
0.0
 32
0.0
 13
1.0
 23
0.0
 33
0.0
 40
0.0
 40
0.0
 40
0.0
 40
0.0
 40
0.5
 40
0.5
 40
1.0
 40
1.0
 40
1.0
 40
1.0
 10
104.1005115684845
 20
137.0241802461383
 30
0.0
 10
104.5734159990742
 20
136.8400088309712
 30
0.0
 10
105.0564209319186
 20
136.6810164307203
 30
0.0
 10
106.0322353102715
 20
136.3874727881321
 30
0.0
 10
106.5257095232955
 20
136.2535306968592
 30
0.0
 10
107.0213349601829
 20
136.1278100244791
 30
0.0
  0
SPLINE
  5
AC
330
1F
100
AcDbEntity
  8
0
  6
Continuous
 62
     7
370
    15
100
AcDbSpline
210
0.0
220
0.0
230
1.0
 70
     8
 71
     3
 72
    14
 73
    10
 74
     0
 42
0.00000001
 43
0.00000001
 12
1.0
 22
0.0
 32
0.0
 13
1.0
 23
0.0
 33
0.0
 40
0.0
 40
0.0
 40
0.0
 40
0.0
 40
0.1249999999999981
 40
0.1249999999999981
 40
0.2499999999999962
 40
0.2499999999999962
 40
0.4999999999999969
 40
0.4999999999999969
 40
1.0
 40
1.0
 40
1.0
 40
1.0
 10
107.021334960183
 20
136.1278100244792
 30
0.0
 10
107.0703472829943
 20
136.1153775266287
 30
0.0
 10
107.1231535079898
 20
136.1238255210767
 30
0.0
 10
107.2082205997193
 20
136.1667410483709
 30
0.0
 10
107.2428047850601
 20
136.1984325603102
 30
0.0
 10
107.3313604703973
 20
136.3005546903559
 30
0.0
 10
107.3722961717185
 20
136.3791304725467
 30
0.0
 10
107.4761766986215
 20
136.6192048021529
 30
0.0
 10
107.5194004980536
 20
136.7907207893585
 30
0.0
 10
107.5535998673262
 20
136.9645787605546
 30
0.0
  0
SPLINE
  5
AD
330
1F
100
AcDbEntity
  8
0
  6
Continuous
 62
     7
370
    15
100
AcDbSpline
210
0.0
220
0.0
230
1.0
 70
     8
 71
     3
 72
    12
 73
     8
 74
     0
 42
0.00000001
 43
0.00000001
 12
1.0
 22
0.0
 32
0.0
 13
1.0
 23
0.0
 33
0.0
 40
0.0
 40
0.0
 40
0.0
 40
0.0
 40
0.2500000000000006
 40
0.2500000000000006
 40
0.5000000000000012
 40
0.5000000000000012
 40
1.0
 40
1.0
 40
1.0
 40
1.0
 10
107.5535998673262
 20
136.9645787605546
 30
0.0
 10
107.5790240842201
 20
137.0938268391729
 30
0.0
 10
107.6196359237894
 20
137.2213792543617
 30
0.0
 10
107.7042370700616
 20
137.4775690774474
 30
0.0
 10
107.7483338663471
 20
137.606143765617
 30
0.0
 10
107.8644029748331
 20
137.9974181164882
 30
0.0
 10
107.921334960183
 20
138.2654052382098
 30
0.0
 10
107.921334960183
 20
138.5480679214887
 30
0.0
  0
LINE
  5
AE
330
1F
100
AcDbEntity
  8
0
  6
Continuous
 62
     7
370
    15
100
AcDbLine
 10
107.9213349602
 20
138.5480679215
 30
0.0
 11
107.9213349602
 21
148.4782883097
 31
0.0
  0
SPLINE
  5
AF
330
1F
100
AcDbEntity
  8
0
  6
Continuous
 62
     7
370
    15
100
AcDbSpline
210
0.0
220
0.0
230
1.0
 70
     8
 71
     3
 72
    12
 73
     8
 74
     0
 42
0.00000001
 43
0.00000001
 12
1.0
 22
0.0
 32
0.0
 13
1.0
 23
0.0
 33
0.0
 40
0.0
 40
0.0
 40
0.0
 40
0.0
 40
0.2500000000000006
 40
0.2500000000000006
 40
0.5000000000000012
 40
0.5000000000000012
 40
1.0
 40
1.0
 40
1.0
 40
1.0
 10
107.5535998673262
 20
150.0617774706265
 30
0.0
 10
107.5790240842201
 20
149.9325293920082
 30
0.0
 10
107.6196359237894
 20
149.8049769768194
 30
0.0
 10
107.7042370700616
 20
149.5487871537337
 30
0.0
 10
107.7483338663471
 20
149.4202124655641
 30
0.0
 10
107.8644029748331
 20
149.0289381146929
 30
0.0
 10
107.921334960183
 20
148.7609509929713
 30
0.0
 10
107.921334960183
 20
148.4782883096924
 30
0.0
  0
SPLINE
  5
B0
330
1F
100
AcDbEntity
  8
0
  6
Continuous
 62
     7
370
    15
100
AcDbSpline
210
0.0
220
0.0
230
1.0
 70
     8
 71
     3
 72
    14
 73
    10
 74
     0
 42
0.00000001
 43
0.00000001
 12
1.0
 22
0.0
 32
0.0
 13
1.0
 23
0.0
 33
0.0
 40
0.0
 40
0.0
 40
0.0
 40
0.0
 40
0.1250000000000019
 40
0.1250000000000019
 40
0.2500000000000038
 40
0.2500000000000038
 40
0.5000000000000031
 40
0.5000000000000031
 40
1.0
 40
1.0
 40
1.0
 40
1.0
 10
107.021334960183
 20
150.8985462067019
 30
0.0
 10
107.0703472829944
 20
150.9109787045524
 30
0.0
 10
107.1231535079898
 20
150.9025307101045
 30
0.0
 10
107.2082205997194
 20
150.8596151828102
 30
0.0
 10
107.2428047850601
 20
150.8279236708708
 30
0.0
 10
107.3313604703973
 20
150.7258015408252
 30
0.0
 10
107.3722961717186
 20
150.6472257586343
 30
0.0
 10
107.4761766986215
 20
150.4071514290282
 30
0.0
 10
107.5194004980536
 20
150.2356354418226
 30
0.0
 10
107.5535998673262
 20
150.0617774706265
 30
0.0
  0
SPLINE
  5
B1
330
1F
100
AcDbEntity
  8
0
  6
Continuous
 62
     7
370
    15
100
AcDbSpline
210
0.0
220
0.0
230
1.0
 70
     8
 71
     3
 72
    10
 73
     6
 74
     0
 42
0.00000001
 43
0.00000001
 12
1.0
 22
0.0
 32
0.0
 13
1.0
 23
0.0
 33
0.0
 40
0.0
 40
0.0
 40
0.0
 40
0.0
 40
0.5
 40
0.5
 40
1.0
 40
1.0
 40
1.0
 40
1.0
 10
104.1005115684845
 20
150.0021759850428
 30
0.0
 10
104.5734159990742
 20
150.1863474002099
 30
0.0
 10
105.0564209319186
 20
150.3453398004608
 30
0.0
 10
106.0322353102715
 20
150.638883443049
 30
0.0
 10
106.5257095232956
 20
150.772825534322
 30
0.0
 10
107.021334960183
 20
150.898546206702
 30
0.0
  0
SPLINE
  5
B2
330
1F
100
AcDbEntity
  8
0
  6
Continuous
 62
     7
370
    15
100
AcDbSpline
210
0.0
220
0.0
230
1.0
 70
     8
 71
     3
 72
    10
 73
     6
 74
     0
 42
0.00000001
 43
0.00000001
 12
1.0
 22
0.0
 32
0.0
 13
1.0
 23
0.0
 33
0.0
 40
0.0
 40
0.0
 40
0.0
 40
0.0
 40
0.5
 40
0.5
 40
1.0
 40
1.0
 40
1.0
 40
1.0
 10
102.830334960183
 20
149.6877377217719
 30
0.0
 10
103.0456939907404
 20
149.7272472015839
 30
0.0
 10
103.2601353290644
 20
149.7699897429816
 30
0.0
 10
103.6851265476849
 20
149.8691758498492
 30
0.0
 10
103.8964992794076
 20
149.9227239233568
 30
0.0
 10
104.1005115684845
 20
150.0021759850428
 30
0.0
  0
SPLINE
  5
B3
330
1F
100
AcDbEntity
  8
0
  6
Continuous
 62
     7
370
    15
100
AcDbSpline
210
0.0
220
0.0
230
1.0
 70
     8
 71
     3
 72
     8
 73
     4
 74
     0
 42
0.00000001
 43
0.00000001
 12
1.0
 22
0.0
 32
0.0
 13
1.0
 23
0.0
 33
0.0
 40
0.0
 40
0.0
 40
0.0
 40
0.0
 40
1.0
 40
1.0
 40
1.0
 40
1.0
 10
102.7628188106139
 20
149.9790841018904
 30
0.0
 10
102.7769532552421
 20
149.8808487011144
 30
0.0
 10
102.8000106303907
 20
149.7838280686417
 30
0.0
 10
102.830334960183
 20
149.6877377217719
 30
0.0
  0
ELLIPSE
  5
B4
330
1F
100
AcDbEntity
  8
0
  6
Continuous
 62
     7
370
    15
100
AcDbEllipse
 10
89.2945927523
 20
143.7458634411
 30
0.0
 11
11.13693598682927
 21
11.10090879287065
 31
0.0
210
0.0
220
0.0
230
1.0
 40
0.6999052427
 41
5.802043396094633
 42
5.882012891914425
  0
ELLIPSE
  5
B5
330
1F
100
AcDbEntity
  8
0
  6
Continuous
 62
     7
370
    15
100
AcDbEllipse
 10
89.2945927523
 20
143.28049279
 30
0.0
 11
11.13693598682927
 21
-11.10090879287065
 31
0.0
210
0.0
220
0.0
230
1.0
 40
0.6999052427
 41
0.4011724152651825
 42
0.4811419110849734
  0
LINE
  5
B6
330
1F
100
AcDbEntity
  8
0
  6
Continuous
 62
     7
370
    15
100
AcDbLine
 10
119.7213349602
 20
143.5131781156
 30
0.0
 11
119.7213349602
 21
158.6168785164
 31
0.0
  0
LINE
  5
B7
330
1F
100
AcDbEntity
  8
0
  6
Continuous
 62
     7
370
    15
100
AcDbLine
 10
119.7213349602
 20
128.4094777148
 30
0.0
 11
119.7213349602
 21
143.5131781156
 31
0.0
  0
ARC
  5
B8
330
1F
100
AcDbEntity
  8
0
  6
Continuous
 62
     7
370
    15
100
AcDbCircle
 10
107.0213349602
 20
146.5791781156
 30
0.0
 40
0.8999999999999773
100
AcDbArc
 50
0.0
 51
90.0
  0
ARC
  5
B9
330
1F
100
AcDbEntity
  8
0
  6
Continuous
 62
     7
370
    15
100
AcDbCircle
 10
107.0213349602
 20
140.4471781156
 30
0.0
 40
0.8999999999999773
100
AcDbArc
 50
270.0
 51
0.0
  0
LINE
  5
BA
330
1F
100
AcDbEntity
  8
0
  6
Continuous
 62
     7
370
    15
100
AcDbLine
 10
102.8303349602
 20
147.4791781156
 30
0.0
 11
102.8303349602
 21
149.6877377218
 31
0.0
  0
LINE
  5
BB
330
1F
100
AcDbEntity
  8
0
  6
Continuous
 62
     7
370
    15
100
AcDbLine
 10
102.8303349602
 20
147.4791781156
 30
0.0
 11
101.8213349602
 21
148.4881781156
 31
0.0
  0
LINE
  5
BC
330
1F
100
AcDbEntity
  8
0
  6
Continuous
 62
     7
370
    15
100
AcDbLine
 10
101.8213349602
 20
148.4881781156
 30
0.0
 11
101.8213349602
 21
149.6570776604
 31
0.0
  0
LINE
  5
BD
330
1F
100
AcDbEntity
  8
0
  6
Continuous
 62
     7
370
    15
100
AcDbLine
 10
101.8213349602
 20
138.5381781156
 30
0.0
 11
101.8213349602
 21
137.3692785708
 31
0.0
  0
LINE
  5
BE
330
1F
100
AcDbEntity
  8
0
  6
Continuous
 62
     7
370
    15
100
AcDbLine
 10
102.8303349602
 20
139.5471781156
 30
0.0
 11
101.8213349602
 21
138.5381781156
 31
0.0
  0
LINE
  5
BF
330
1F
100
AcDbEntity
  8
0
  6
Continuous
 62
     7
370
    15
100
AcDbLine
 10
102.8303349602
 20
139.5471781156
 30
0.0
 11
102.8303349602
 21
137.3386185094
 31
0.0
  0
LINE
  5
C0
330
1F
100
AcDbEntity
  8
0
  6
Continuous
 62
     7
370
    15
100
AcDbLine
 10
107.0213349602
 20
147.4791781156
 30
0.0
 11
102.8303349602
 21
147.4791781156
 31
0.0
  0
LINE
  5
C1
330
1F
100
AcDbEntity
  8
0
  6
Continuous
 62
     7
370
    15
100
AcDbLine
 10
107.0213349602
 20
139.5471781156
 30
0.0
 11
102.8303349602
 21
139.5471781156
 31
0.0
  0
SPLINE
  5
C2
330
1F
100
AcDbEntity
  8
0
  6
Continuous
 62
     7
370
    15
100
AcDbSpline
210
0.0
220
0.0
230
1.0
 70
     8
 71
     3
 72
     9
 73
     5
 74
     0
 42
0.00000001
 43
0.00000001
 12
1.0
 22
0.0
 32
0.0
 13
1.0
 23
0.0
 33
0.0
 40
0.0
 40
0.0
 40
0.0
 40
0.0
 40
0.5237332358399656
 40
1.0
 40
1.0
 40
1.0
 40
1.0
 10
117.5455116880605
 20
144.9140275955384
 30
0.0
 10
117.5827905334389
 20
144.8634801728415
 30
0.0
 10
117.6539696048196
 20
144.7669664913758
 30
0.0
 10
117.7128371189918
 20
144.6622717140339
 30
0.0
 10
117.7408737594808
 20
144.6124090712049
 30
0.0
  0
LINE
  5
C3
330
1F
100
AcDbEntity
  8
0
  6
Continuous
 62
     7
370
    15
100
AcDbLine
 10
117.5455116881
 20
142.1123286356
 30
0.0
 11
117.4326356646
 21
141.9773249895
 31
0.0
  0
SPLINE
  5
C4
330
1F
100
AcDbEntity
  8
0
  6
Continuous
 62
     7
370
    15
100
AcDbSpline
210
0.0
220
0.0
230
1.0
 70
     8
 71
     3
 72
    11
 73
     7
 74
     0
 42
0.00000001
 43
0.00000001
 12
1.0
 22
0.0
 32
0.0
 13
1.0
 23
0.0
 33
0.0
 40
0.0
 40
0.0
 40
0.0
 40
0.0
 40
0.1226860160440865
 40
0.3394719075758488
 40
0.7779687604616666
 40
1.0
 40
1.0
 40
1.0
 40
1.0
 10
117.018839941804
 20
145.4097931733992
 30
0.0
 10
117.0436347259394
 20
145.3933914988419
 30
0.0
 10
117.1122418332509
 20
145.3480081052903
 30
0.0
 10
117.2581960529036
 20
145.22860472111
 30
0.0
 10
117.4118570182745
 20
145.0808679186017
 30
0.0
 10
117.5118873061884
 20
144.9560007098585
 30
0.0
 10
117.5455116880605
 20
144.9140275955384
 30
0.0
  0
LINE
  5
C5
330
1F
100
AcDbEntity
  8
0
  6
Continuous
 62
     7
370
    15
100
AcDbLine
 10
101.8213349602
 20
149.6570776604
 30
0.0
 11
101.8213349602
 21
150.4015315909
 31
0.0
  0
SPLINE
  5
C6
330
1F
100
AcDbEntity
  8
0
  6
Continuous
 62
     7
370
    15
100
AcDbSpline
210
0.0
220
0.0
230
1.0
 70
     8
 71
     3
 72
    24
 73
    20
 74
     0
 42
0.00000001
 43
0.00000001
 12
1.0
 22
0.0
 32
0.0
 13
1.0
 23
0.0
 33
0.0
 40
0.0
 40
0.0
 40
0.0
 40
0.0
 40
0.2499999999999964
 40
0.2499999999999964
 40
0.374999999999995
 40
0.374999999999995
 40
0.437499999999994
 40
0.437499999999994
 40
0.499999999999993
 40
0.499999999999993
 40
0.5312499999999932
 40
0.5312499999999932
 40
0.5624999999999934
 40
0.5624999999999934
 40
0.6249999999999943
 40
0.6249999999999943
 40
0.7499999999999958
 40
0.7499999999999958
 40
1.0
 40
1.0
 40
1.0
 40
1.0
 10
101.821334960183
 20
150.4015315909236
 30
0.0
 10
101.821334960183
 20
150.634960024209
 30
0.0
 10
101.824060219163
 20
150.8692684896309
 30
0.0
 10
101.8504650931977
 20
151.227937719191
 30
0.0
 10
101.8626988939387
 20
151.3483908635714
 30
0.0
 10
101.8973982733517
 20
151.5296456284456
 30
0.0
 10
101.9118227858597
 20
151.5908608307824
 30
0.0
 10
101.9532134036242
 20
151.7084474251794
 30
0.0
 10
101.9818735842824
 20
151.7690968018253
 30
0.0
 10
102.0430074544789
 20
151.8244001305955
 30
0.0
 10
102.0661057325417
 20
151.8354311151039
 30
0.0
 10
102.1099708421449
 20
151.8408927672508
 30
0.0
 10
102.1308346533326
 20
151.8362244636641
 30
0.0
 10
102.1879746570955
 20
151.8111871375817
 30
0.0
 10
102.220289162456
 20
151.7804455730308
 30
0.0
 10
102.3063834047351
 20
151.6780336218224
 30
0.0
 10
102.352037943789
 20
151.5920747257595
 30
0.0
 10
102.4724150088342
 20
151.3242001284256
 30
0.0
 10
102.5313113650857
 20
151.1267974191084
 30
0.0
 10
102.5813050065711
 20
150.9215489703422
 30
0.0
  0
SPLINE
  5
C7
330
1F
100
AcDbEntity
  8
0
  6
Continuous
 62
     7
370
    15
100
AcDbSpline
210
0.0
220
0.0
230
1.0
 70
     8
 71
     3
 72
    24
 73
    20
 74
     0
 42
0.00000001
 43
0.00000001
 12
1.0
 22
0.0
 32
0.0
 13
1.0
 23
0.0
 33
0.0
 40
0.0
 40
0.0
 40
0.0
 40
0.0
 40
0.2499999999999964
 40
0.2499999999999964
 40
0.374999999999995
 40
0.374999999999995
 40
0.437499999999994
 40
0.437499999999994
 40
0.499999999999993
 40
0.499999999999993
 40
0.5312499999999932
 40
0.5312499999999932
 40
0.5624999999999934
 40
0.5624999999999934
 40
0.6249999999999943
 40
0.6249999999999943
 40
0.7499999999999958
 40
0.7499999999999958
 40
1.0
 40
1.0
 40
1.0
 40
1.0
 10
101.821334960183
 20
136.6248246402575
 30
0.0
 10
101.821334960183
 20
136.3913962069721
 30
0.0
 10
101.824060219163
 20
136.1570877415502
 30
0.0
 10
101.8504650931977
 20
135.7984185119901
 30
0.0
 10
101.8626988939387
 20
135.6779653676097
 30
0.0
 10
101.8973982733517
 20
135.4967106027355
 30
0.0
 10
101.9118227858597
 20
135.4354954003988
 30
0.0
 10
101.9532134036242
 20
135.3179088060018
 30
0.0
 10
101.9818735842824
 20
135.2572594293558
 30
0.0
 10
102.0430074544789
 20
135.2019561005856
 30
0.0
 10
102.0661057325417
 20
135.1909251160772
 30
0.0
 10
102.1099708421449
 20
135.1854634639303
 30
0.0
 10
102.1308346533326
 20
135.190131767517
 30
0.0
 10
102.1879746570955
 20
135.2151690935994
 30
0.0
 10
102.220289162456
 20
135.2459106581503
 30
0.0
 10
102.3063834047351
 20
135.3483226093587
 30
0.0
 10
102.352037943789
 20
135.4342815054217
 30
0.0
 10
102.4724150088342
 20
135.7021561027555
 30
0.0
 10
102.5313113650857
 20
135.8995588120727
 30
0.0
 10
102.5813050065711
 20
136.1048072608389
 30
0.0
  0
LINE
  5
C8
330
1F
100
AcDbEntity
  8
0
  6
Continuous
 62
     7
370
    15
100
AcDbLine
 10
101.8213349602
 20
137.3692785708
 30
0.0
 11
101.8213349602
 21
136.6248246403
 31
0.0
  0
LINE
  5
C9
330
1F
100
AcDbEntity
  8
0
  6
Continuous
 62
     7
370
    15
100
AcDbLine
 10
101.8213349602
 20
130.0671945244
 30
0.0
 11
101.8213349602
 21
136.6248246403
 31
0.0
  0
LINE
  5
CA
330
1F
100
AcDbEntity
  8
0
  6
Continuous
 62
     7
370
    15
100
AcDbLine
 10
101.8213349602
 20
150.4015315909
 30
0.0
 11
101.8213349602
 21
156.9591617067
 31
0.0
  0
SPLINE
  5
CB
330
1F
100
AcDbEntity
  8
0
  6
Continuous
 62
     7
370
    15
100
AcDbSpline
210
0.0
220
0.0
230
1.0
 70
     8
 71
     3
 72
    11
 73
     7
 74
     0
 42
0.00000001
 43
0.00000001
 12
1.0
 22
0.0
 32
0.0
 13
1.0
 23
0.0
 33
0.0
 40
0.0
 40
0.0
 40
0.0
 40
0.0
 40
0.2871756444774704
 40
0.5743810337680799
 40
0.8587936217738554
 40
0.9999999999999999
 40
0.9999999999999999
 40
0.9999999999999999
 40
0.9999999999999999
 10
105.421334960183
 20
140.3881781155906
 30
0.0
 10
105.4104680444838
 20
140.2817452240458
 30
0.0
 10
105.388733087522
 20
140.0688684169486
 30
0.0
 10
105.2175901178138
 20
139.7947196215485
 30
0.0
 10
105.0130913894076
 20
139.6082596364701
 30
0.0
 10
104.8548675248438
 20
139.5623946199764
 30
0.0
 10
104.8023740491376
 20
139.5471781155906
 30
0.0
  0
LINE
  5
CC
330
1F
100
AcDbEntity
  8
0
  6
Continuous
 62
     7
370
    15
100
AcDbLine
 10
105.4213349602
 20
140.3881781156
 30
0.0
 11
105.4213349602
 21
146.6381781156
 31
0.0
  0
SPLINE
  5
CD
330
1F
100
AcDbEntity
  8
0
  6
Continuous
 62
     7
370
    15
100
AcDbSpline
210
0.0
220
0.0
230
1.0
 70
     8
 71
     3
 72
    11
 73
     7
 74
     0
 42
0.00000001
 43
0.00000001
 12
1.0
 22
0.0
 32
0.0
 13
1.0
 23
0.0
 33
0.0
 40
0.0
 40
0.0
 40
0.0
 40
0.0
 40
0.2871756444774704
 40
0.5743810337680799
 40
0.8587936217738554
 40
0.9999999999999999
 40
0.9999999999999999
 40
0.9999999999999999
 40
0.9999999999999999
 10
105.421334960183
 20
146.6381781155905
 30
0.0
 10
105.4104680444838
 20
146.7446110071353
 30
0.0
 10
105.388733087522
 20
146.9574878142325
 30
0.0
 10
105.2175901178138
 20
147.2316366096326
 30
0.0
 10
105.0130913894076
 20
147.418096594711
 30
0.0
 10
104.8548675248438
 20
147.4639616112047
 30
0.0
 10
104.8023740491376
 20
147.4791781155905
 30
0.0
  0
LINE
  5
CE
330
1F
100
AcDbEntity
  8
0
  6
Continuous
 62
     7
370
    15
100
AcDbLine
 10
192.0647781904
 20
140.2554395444
 30
0.0
 11
191.8314196163
 21
143.2121752378
 31
0.0
  0
LINE
  5
CF
330
1F
100
AcDbEntity
  8
0
  6
Continuous
 62
     7
370
    15
100
AcDbLine
 10
191.8313404648
 20
143.2131781156
 30
0.0
 11
191.8076631465
 21
143.5131781156
 31
0.0
  0
LINE
  5
D0
330
1F
100
AcDbEntity
  8
0
  6
Continuous
 62
     7
370
    15
100
AcDbLine
 10
192.0647781904
 20
138.7531781156
 30
0.0
 11
192.0647781904
 21
140.2554395444
 31
0.0
  0
LINE
  5
D1
330
1F
100
AcDbEntity
  8
0
  6
Continuous
 62
     7
370
    15
100
AcDbLine
 10
191.8314196163
 20
138.7531781156
 30
0.0
 11
192.0647781904
 21
138.7531781156
 31
0.0
  0
LINE
  5
D2
330
1F
100
AcDbEntity
  8
0
  6
Continuous
 62
     7
370
    15
100
AcDbLine
 10
182.574783695
 20
143.2131781156
 30
0.0
 11
182.5511063767
 21
143.5131781156
 31
0.0
  0
LINE
  5
D3
330
1F
100
AcDbEntity
  8
0
  6
Continuous
 62
     7
370
    15
100
AcDbLine
 10
182.5511063767
 20
143.5131781156
 30
0.0
 11
191.8076631465
 21
143.5131781156
 31
0.0
  0
LINE
  5
D4
330
1F
100
AcDbEntity
  8
0
  6
Continuous
 62
     7
370
    15
100
AcDbLine
 10
192.0647781904
 20
140.2554395444
 30
0.0
 11
192.3218932342
 21
143.5131781156
 31
0.0
  0
LINE
  5
D5
330
1F
100
AcDbEntity
  8
0
  6
Continuous
 62
     7
370
    15
100
AcDbLine
 10
191.8076631465
 20
143.5131781156
 30
0.0
 11
192.3218932342
 21
143.5131781156
 31
0.0
  0
LINE
  5
D6
330
1F
100
AcDbEntity
  8
0
  6
Continuous
 62
     7
370
    15
100
AcDbLine
 10
201.3213349602
 20
140.2554395444
 30
0.0
 11
201.5784500041
 21
143.5131781156
 31
0.0
  0
LINE
  5
D7
330
1F
100
AcDbEntity
  8
0
  6
Continuous
 62
     7
370
    15
100
AcDbLine
 10
201.0343746842
 20
138.7531781156
 30
0.0
 11
201.3213349602
 21
140.2554395444
 31
0.0
  0
LINE
  5
D8
330
1F
100
AcDbEntity
  8
0
  6
Continuous
 62
     7
370
    15
100
AcDbLine
 10
192.0647781904
 20
138.7531781156
 30
0.0
 11
201.0343746842
 21
138.7531781156
 31
0.0
  0
LINE
  5
D9
330
1F
100
AcDbEntity
  8
0
  6
Continuous
 62
     7
370
    15
100
AcDbLine
 10
192.3218932342
 20
143.5131781156
 30
0.0
 11
201.5784500041
 21
143.5131781156
 31
0.0
  0
LINE
  5
DA
330
1F
100
AcDbEntity
  8
0
  6
Continuous
 62
     7
370
    15
100
AcDbLine
 10
191.4219905807
 20
143.5131781158
 30
0.0
 11
192.7075658001
 21
143.5131781158
 31
0.0
  0
LINE
  5
DB
330
1F
100
AcDbEntity
  8
0
  6
Continuous
 62
     7
370
    15
100
AcDbLine
 10
186.2414302372
 20
143.5131781158
 30
0.0
 11
191.4219905807
 21
143.5131781158
 31
0.0
  0
LINE
  5
DC
330
1F
100
AcDbEntity
  8
0
  6
Continuous
 62
     7
370
    15
100
AcDbLine
 10
182.4082214205
 20
143.5131781156
 30
0.0
 11
182.5511063767
 21
143.5131781156
 31
0.0
  0
LINE
  5
DD
330
1F
100
AcDbEntity
  8
0
  6
Continuous
 62
     7
370
    15
100
AcDbLine
 10
201.5784500041
 20
143.5131781156
 30
0.0
 11
201.7213349602
 21
143.5131781156
 31
0.0
  0
LINE
  5
DE
330
1F
100
AcDbEntity
  8
0
  6
HIDDEN
 62
     7
370
     0
100
AcDbLine
 10
156.7213349602
 20
131.0834401392
 30
0.0
 11
159.0213349602
 21
131.0834401392
 31
0.0
  0
LINE
  5
DF
330
1F
100
AcDbEntity
  8
0
  6
HIDDEN
 62
     7
370
     0
100
AcDbLine
 10
154.4213349602
 20
131.0834401392
 30
0.0
 11
156.7213349602
 21
131.0834401392
 31
0.0
  0
LINE
  5
E0
330
1F
100
AcDbEntity
  8
0
  6
HIDDEN
 62
     7
370
     0
100
AcDbLine
 10
156.7213349602
 20
130.5731781156
 30
0.0
 11
159.2213349602
 21
130.5731781156
 31
0.0
  0
LINE
  5
E1
330
1F
100
AcDbEntity
  8
0
  6
HIDDEN
 62
     7
370
     0
100
AcDbLine
 10
154.2213349602
 20
130.5731781156
 30
0.0
 11
156.7213349602
 21
130.5731781156
 31
0.0
  0
LINE
  5
E2
330
1F
100
AcDbEntity
  8
0
  6
HIDDEN
 62
     7
370
     0
100
AcDbLine
 10
156.7213349602
 20
130.3934401392
 30
0.0
 11
159.0213349602
 21
130.3934401392
 31
0.0
  0
LINE
  5
E3
330
1F
100
AcDbEntity
  8
0
  6
HIDDEN
 62
     7
370
     0
100
AcDbLine
 10
154.4213349602
 20
130.3934401392
 30
0.0
 11
156.7213349602
 21
130.3934401392
 31
0.0
  0
LINE
  5
E4
330
1F
100
AcDbEntity
  8
0
  6
HIDDEN
 62
     7
370
     0
100
AcDbLine
 10
156.7213349602
 20
133.3131781156
 30
0.0
 11
158.7017197179
 21
133.3131781156
 31
0.0
  0
LINE
  5
E5
330
1F
100
AcDbEntity
  8
0
  6
HIDDEN
 62
     7
370
     0
100
AcDbLine
 10
154.7409502025
 20
133.3131781156
 30
0.0
 11
156.7213349602
 21
133.3131781156
 31
0.0
  0
LINE
  5
E6
330
1F
100
AcDbEntity
  8
0
  6
HIDDEN
 62
     7
370
     0
100
AcDbLine
 10
156.7213349602
 20
133.0131781156
 30
0.0
 11
159.2213349602
 21
133.0131781156
 31
0.0
  0
LINE
  5
E7
330
1F
100
AcDbEntity
  8
0
  6
HIDDEN
 62
     7
370
     0
100
AcDbLine
 10
154.2213349602
 20
133.0131781156
 30
0.0
 11
156.7213349602
 21
133.0131781156
 31
0.0
  0
LINE
  5
E8
330
1F
100
AcDbEntity
  8
0
  6
HIDDEN
 62
     7
370
     0
100
AcDbLine
 10
156.7213349602
 20
131.2631781156
 30
0.0
 11
159.2213349602
 21
131.2631781156
 31
0.0
  0
LINE
  5
E9
330
1F
100
AcDbEntity
  8
0
  6
HIDDEN
 62
     7
370
     0
100
AcDbLine
 10
154.2213349602
 20
131.2631781156
 30
0.0
 11
156.7213349602
 21
131.2631781156
 31
0.0
  0
LINE
  5
EA
330
1F
100
AcDbEntity
  8
0
  6
HIDDEN
 62
     7
370
     0
100
AcDbLine
 10
156.7213349602
 20
129.0134401392
 30
0.0
 11
159.0213349602
 21
129.0134401392
 31
0.0
  0
LINE
  5
EB
330
1F
100
AcDbEntity
  8
0
  6
HIDDEN
 62
     7
370
     0
100
AcDbLine
 10
154.4213349602
 20
129.0134401392
 30
0.0
 11
156.7213349602
 21
129.0134401392
 31
0.0
  0
LINE
  5
EC
330
1F
100
AcDbEntity
  8
0
  6
HIDDEN
 62
     7
370
     0
100
AcDbLine
 10
156.7213349602
 20
128.5031781156
 30
0.0
 11
159.2213349602
 21
128.5031781156
 31
0.0
  0
LINE
  5
ED
330
1F
100
AcDbEntity
  8
0
  6
HIDDEN
 62
     7
370
     0
100
AcDbLine
 10
154.2213349602
 20
128.5031781156
 30
0.0
 11
156.7213349602
 21
128.5031781156
 31
0.0
  0
LINE
  5
EE
330
1F
100
AcDbEntity
  8
0
  6
HIDDEN
 62
     7
370
     0
100
AcDbLine
 10
156.7213349602
 20
127.9531781156
 30
0.0
 11
159.2213349602
 21
127.9531781156
 31
0.0
  0
LINE
  5
EF
330
1F
100
AcDbEntity
  8
0
  6
HIDDEN
 62
     7
370
     0
100
AcDbLine
 10
154.2213349602
 20
127.9531781156
 30
0.0
 11
156.7213349602
 21
127.9531781156
 31
0.0
  0
LINE
  5
F0
330
1F
100
AcDbEntity
  8
0
  6
HIDDEN
 62
     7
370
     0
100
AcDbLine
 10
156.7213349602
 20
129.8831781156
 30
0.0
 11
159.2213349602
 21
129.8831781156
 31
0.0
  0
LINE
  5
F1
330
1F
100
AcDbEntity
  8
0
  6
HIDDEN
 62
     7
370
     0
100
AcDbLine
 10
154.2213349602
 20
129.8831781156
 30
0.0
 11
156.7213349602
 21
129.8831781156
 31
0.0
  0
LINE
  5
F2
330
1F
100
AcDbEntity
  8
0
  6
HIDDEN
 62
     7
370
     0
100
AcDbLine
 10
156.7213349602
 20
129.7034401392
 30
0.0
 11
159.0213349602
 21
129.7034401392
 31
0.0
  0
LINE
  5
F3
330
1F
100
AcDbEntity
  8
0
  6
HIDDEN
 62
     7
370
     0
100
AcDbLine
 10
154.4213349602
 20
129.7034401392
 30
0.0
 11
156.7213349602
 21
129.7034401392
 31
0.0
  0
LINE
  5
F4
330
1F
100
AcDbEntity
  8
0
  6
HIDDEN
 62
     7
370
     0
100
AcDbLine
 10
156.7213349602
 20
129.1931781156
 30
0.0
 11
159.2213349602
 21
129.1931781156
 31
0.0
  0
LINE
  5
F5
330
1F
100
AcDbEntity
  8
0
  6
HIDDEN
 62
     7
370
     0
100
AcDbLine
 10
154.2213349602
 20
129.1931781156
 30
0.0
 11
156.7213349602
 21
129.1931781156
 31
0.0
  0
LINE
  5
F6
330
1F
100
AcDbEntity
  8
0
  6
HIDDEN
 62
     7
370
     0
100
AcDbLine
 10
156.7213349602
 20
127.8131781156
 30
0.0
 11
159.0813349602
 21
127.8131781156
 31
0.0
  0
LINE
  5
F7
330
1F
100
AcDbEntity
  8
0
  6
HIDDEN
 62
     7
370
     0
100
AcDbLine
 10
154.3613349602
 20
127.8131781156
 30
0.0
 11
156.7213349602
 21
127.8131781156
 31
0.0
  0
LINE
  5
F8
330
1F
100
AcDbEntity
  8
0
  6
HIDDEN
 62
     7
370
     0
100
AcDbLine
 10
156.7213349602
 20
131.9584775772
 30
0.0
 11
158.7213349602
 21
131.9584775772
 31
0.0
  0
LINE
  5
F9
330
1F
100
AcDbEntity
  8
0
  6
HIDDEN
 62
     7
370
     0
100
AcDbLine
 10
154.7213349602
 20
131.9584775772
 30
0.0
 11
156.7213349602
 21
131.9584775772
 31
0.0
  0
LINE
  5
FA
330
1F
100
AcDbEntity
  8
0
  6
HIDDEN
 62
     7
370
     0
100
AcDbLine
 10
129.6713349602
 20
159.6245871167
 30
0.0
 11
135.6861752613
 21
159.6245871167
 31
0.0
  0
LINE
  5
FB
330
1F
100
AcDbEntity
  8
0
  6
HIDDEN
 62
     7
370
     0
100
AcDbLine
 10
135.6861752613
 20
139.0131781156
 30
0.0
 11
135.6861752613
 21
138.0131781156
 31
0.0
  0
LINE
  5
FC
330
1F
100
AcDbEntity
  8
0
  6
HIDDEN
 62
     7
370
     0
100
AcDbLine
 10
135.6861752613
 20
149.0131781156
 30
0.0
 11
135.6861752613
 21
148.0131781156
 31
0.0
  0
SPLINE
  5
FD
330
1F
100
AcDbEntity
  8
0
  6
HIDDEN
 62
     7
370
     0
100
AcDbSpline
210
0.0
220
0.0
230
1.0
 70
     8
 71
     3
 72
    12
 73
     8
 74
     0
 42
0.00000001
 43
0.00000001
 12
1.0
 22
0.0
 32
0.0
 13
1.0
 23
0.0
 33
0.0
 40
0.0
 40
0.0
 40
0.0
 40
0.0
 40
0.250000000000002
 40
0.250000000000002
 40
0.500000000000004
 40
0.500000000000004
 40
1.0
 40
1.0
 40
1.0
 40
1.0
 10
141.071334960183
 20
159.624587116668
 30
0.0
 10
141.1595218255519
 20
159.624587116668
 30
0.0
 10
141.2482092188532
 20
159.5993069665036
 30
0.0
 10
141.402461711972
 20
159.5096956210018
 30
0.0
 10
141.467807693048
 20
159.4467099840758
 30
0.0
 10
141.6222175629991
 20
159.2304232623182
 30
0.0
 10
141.671334960183
 20
159.0504435048979
 30
0.0
 10
141.671334960183
 20
158.8734352748962
 30
0.0
  0
LINE
  5
FE
330
1F
100
AcDbEntity
  8
0
  6
HIDDEN
 62
     7
370
     0
100
AcDbLine
 10
139.7564946591
 20
139.0131781156
 30
0.0
 11
139.7564946591
 21
138.0131781156
 31
0.0
  0
SPLINE
  5
FF
330
1F
100
AcDbEntity
  8
0
  6
HIDDEN
 62
     7
370
     0
100
AcDbSpline
210
0.0
220
0.0
230
1.0
 70
     8
 71
     3
 72
     8
 73
     4
 74
     0
 42
0.00000001
 43
0.00000001
 12
1.0
 22
0.0
 32
0.0
 13
1.0
 23
0.0
 33
0.0
 40
0.0
 40
0.0
 40
0.0
 40
0.0
 40
1.0
 40
1.0
 40
1.0
 40
1.0
 10
138.761334960183
 20
157.4272660150459
 30
0.0
 10
139.0849716158052
 20
158.1635623657904
 30
0.0
 10
139.4174618373219
 20
158.8956352631422
 30
0.0
 10
139.7564946590765
 20
159.6245871166681
 30
0.0
  0
LINE
  5
100
330
1F
100
AcDbEntity
  8
0
  6
HIDDEN
 62
     7
370
     0
100
AcDbLine
 10
139.7564946591
 20
159.6245871167
 30
0.0
 11
141.0713349602
 21
159.6245871167
 31
0.0
  0
SPLINE
  5
101
330
1F
100
AcDbEntity
  8
0
  6
HIDDEN
 62
     7
370
     0
100
AcDbSpline
210
0.0
220
0.0
230
1.0
 70
     8
 71
     3
 72
     8
 73
     4
 74
     0
 42
0.00000001
 43
0.00000001
 12
1.0
 22
0.0
 32
0.0
 13
1.0
 23
0.0
 33
0.0
 40
0.0
 40
0.0
 40
0.0
 40
0.0
 40
1.0
 40
1.0
 40
1.0
 40
1.0
 10
135.6861752612896
 20
159.624587116668
 30
0.0
 10
136.0252080830442
 20
158.8956352631422
 30
0.0
 10
136.3576983045608
 20
158.1635623657904
 30
0.0
 10
136.681334960183
 20
157.4272660150459
 30
0.0
  0
SPLINE
  5
102
330
1F
100
AcDbEntity
  8
0
  6
HIDDEN
 62
     7
370
     0
100
AcDbSpline
210
0.0
220
0.0
230
1.0
 70
     8
 71
     3
 72
    12
 73
     8
 74
     0
 42
0.00000001
 43
0.00000001
 12
1.0
 22
0.0
 32
0.0
 13
1.0
 23
0.0
 33
0.0
 40
0.0
 40
0.0
 40
0.0
 40
0.0
 40
0.2500000000000003
 40
0.2500000000000003
 40
0.5000000000000006
 40
0.5000000000000006
 40
1.0
 40
1.0
 40
1.0
 40
1.0
 10
138.161334960183
 20
156.2201889757418
 30
0.0
 10
138.2539930496893
 20
156.2201889757418
 30
0.0
 10
138.346056459247
 20
156.2513273214349
 30
0.0
 10
138.5002140097377
 20
156.3532404061693
 30
0.0
 10
138.5647029431024
 20
156.4236989353137
 30
0.0
 10
138.714754492052
 20
156.6580302587002
 30
0.0
 10
138.761334960183
 20
156.8428154652478
 30
0.0
 10
138.761334960183
 20
157.0290252958453
 30
0.0
  0
SPLINE
  5
103
330
1F
100
AcDbEntity
  8
0
  6
HIDDEN
 62
     7
370
     0
100
AcDbSpline
210
0.0
220
0.0
230
1.0
 70
     8
 71
     3
 72
    12
 73
     8
 74
     0
 42
0.00000001
 43
0.00000001
 12
1.0
 22
0.0
 32
0.0
 13
1.0
 23
0.0
 33
0.0
 40
0.0
 40
0.0
 40
0.0
 40
0.0
 40
0.4999999999999987
 40
0.4999999999999987
 40
0.7499999999999993
 40
0.7499999999999993
 40
1.0
 40
1.0
 40
1.0
 40
1.0
 10
136.681334960183
 20
157.0290252958453
 30
0.0
 10
136.681334960183
 20
156.8444638641352
 30
0.0
 10
136.7283310576913
 20
156.6573401189004
 30
0.0
 10
136.8778369956916
 20
156.4239224714424
 30
0.0
 10
136.94235561825
 20
156.3532969404093
 30
0.0
 10
137.096795310979
 20
156.2512168749526
 30
0.0
 10
137.187733698982
 20
156.2201889757417
 30
0.0
 10
137.281334960183
 20
156.2201889757417
 30
0.0
  0
LINE
  5
104
330
1F
100
AcDbEntity
  8
0
  6
HIDDEN
 62
     7
370
     0
100
AcDbLine
 10
138.7613349602
 20
139.0131781156
 30
0.0
 11
138.7613349602
 21
138.0131781156
 31
0.0
  0
LINE
  5
105
330
1F
100
AcDbEntity
  8
0
  6
HIDDEN
 62
     7
370
     0
100
AcDbLine
 10
136.6813349602
 20
139.0131781156
 30
0.0
 11
136.6813349602
 21
138.0131781156
 31
0.0
  0
LINE
  5
106
330
1F
100
AcDbEntity
  8
0
  6
HIDDEN
 62
     7
370
     0
100
AcDbLine
 10
141.6713970833
 20
139.0131781156
 30
0.0
 11
141.6747181394
 21
139.1358525695
 31
0.0
  0
SPLINE
  5
107
330
1F
100
AcDbEntity
  8
0
  6
HIDDEN
 62
     7
370
     0
100
AcDbSpline
210
0.0
220
0.0
230
1.0
 70
     8
 71
     3
 72
    12
 73
     8
 74
     0
 42
0.00000001
 43
0.00000001
 12
1.0
 22
0.0
 32
0.0
 13
1.0
 23
0.0
 33
0.0
 40
0.0
 40
0.0
 40
0.0
 40
0.0
 40
0.4999999999999978
 40
0.4999999999999978
 40
0.7499999999999989
 40
0.7499999999999989
 40
1.0
 40
1.0
 40
1.0
 40
1.0
 10
141.671334960183
 20
156.3905808040212
 30
0.0
 10
141.671334960183
 20
156.2080541004735
 30
0.0
 10
141.6985557083107
 20
156.0234634451383
 30
0.0
 10
141.7790021540836
 20
155.7631821229638
 30
0.0
 10
141.8124493825616
 20
155.6786276701527
 30
0.0
 10
141.8948589523359
 20
155.5146797204085
 30
0.0
 10
141.9441420492195
 20
155.4352294963671
 30
0.0
 10
142.0004586718561
 20
155.3631781155887
 30
0.0
  0
LINE
  5
108
330
1F
100
AcDbEntity
  8
0
  6
HIDDEN
 62
     7
370
     0
100
AcDbLine
 10
137.2813349602
 20
156.2201889757
 30
0.0
 11
138.1613349602
 21
156.2201889757
 31
0.0
  0
ELLIPSE
  5
109
330
1F
100
AcDbEntity
  8
0
  6
HIDDEN
 62
     7
370
     0
100
AcDbEllipse
 10
89.2152143216
 20
143.7457952963
 30
0.0
 11
11.13367439321753
 21
11.09765775028171
 31
0.0
210
0.0
220
0.0
230
1.0
 40
0.6999052427
 41
5.806205102868842
 42
5.849848223713439
  0
SPLINE
  5
10A
330
1F
100
AcDbEntity
  8
0
  6
HIDDEN
 62
     7
370
     0
100
AcDbSpline
210
0.0
220
0.0
230
1.0
 70
     8
 71
     3
 72
    12
 73
     8
 74
     0
 42
0.00000001
 43
0.00000001
 12
1.0
 22
0.0
 32
0.0
 13
1.0
 23
0.0
 33
0.0
 40
0.0
 40
0.0
 40
0.0
 40
0.0
 40
0.2500000000000015
 40
0.2500000000000015
 40
0.500000000000003
 40
0.500000000000003
 40
1.0
 40
1.0
 40
1.0
 40
1.0
 10
104.5213349601831
 20
150.02081667473
 30
0.0
 10
104.3792925569938
 20
149.9740517289469
 30
0.0
 10
104.2351744504897
 20
149.935997279118
 30
0.0
 10
103.9454199368172
 20
149.8662617287241
 30
0.0
 10
103.7996780334584
 20
149.8350232570438
 30
0.0
 10
103.3609977942786
 20
149.7474151893348
 30
0.0
 10
103.0666221782074
 20
149.6970805719693
 30
0.0
 10
102.771334960183
 20
149.6505769596841
 30
0.0
  0
SPLINE
  5
10B
330
1F
100
AcDbEntity
  8
0
  6
HIDDEN
 62
     7
370
     0
100
AcDbSpline
210
0.0
220
0.0
230
1.0
 70
     8
 71
     3
 72
    20
 73
    16
 74
     0
 42
0.00000001
 43
0.00000001
 12
1.0
 22
0.0
 32
0.0
 13
1.0
 23
0.0
 33
0.0
 40
0.0
 40
0.0
 40
0.0
 40
0.0
 40
0.2500000000000012
 40
0.2500000000000012
 40
0.5000000000000023
 40
0.5000000000000023
 40
0.7500000000000036
 40
0.7500000000000036
 40
0.8750000000000038
 40
0.8750000000000038
 40
0.9375000000000019
 40
0.9375000000000019
 40
0.968750000000001
 40
0.968750000000001
 40
1.0
 40
1.0
 40
1.0
 40
1.0
 10
105.421334960184
 20
148.3284669764908
 30
0.0
 10
105.421334960184
 20
148.4991137273169
 30
0.0
 10
105.3959399406071
 20
148.6700783895945
 30
0.0
 10
105.3096467548251
 20
148.9951572455911
 30
0.0
 10
105.2490107761419
 20
149.1508651609964
 30
0.0
 10
105.1009089819206
 20
149.4516091166341
 30
0.0
 10
105.014139375142
 20
149.596574433333
 30
0.0
 10
104.8655015798128
 20
149.8003585634847
 30
0.0
 10
104.8132123629266
 20
149.8667811797046
 30
0.0
 10
104.7224485346166
 20
149.9561283113992
 30
0.0
 10
104.6900825421647
 20
149.9847562727365
 30
0.0
 10
104.6323933864984
 20
150.0160373525169
 30
0.0
 10
104.611406358611
 20
150.0243029348021
 30
0.0
 10
104.5661173796205
 20
150.0305631531687
 30
0.0
 10
104.543103110782
 20
150.0279834528193
 30
0.0
 10
104.5213349601824
 20
150.0208166747322
 30
0.0
  0
SPLINE
  5
10C
330
1F
100
AcDbEntity
  8
0
  6
HIDDEN
 62
     7
370
     0
100
AcDbSpline
210
0.0
220
0.0
230
1.0
 70
     8
 71
     3
 72
    20
 73
    16
 74
     0
 42
0.00000001
 43
0.00000001
 12
1.0
 22
0.0
 32
0.0
 13
1.0
 23
0.0
 33
0.0
 40
0.0
 40
0.0
 40
0.0
 40
0.0
 40
0.25
 40
0.25
 40
0.5
 40
0.5
 40
0.75
 40
0.75
 40
0.8749999999999991
 40
0.8749999999999991
 40
0.9374999999999999
 40
0.9374999999999999
 40
0.96875
 40
0.96875
 40
1.0
 40
1.0
 40
1.0
 40
1.0
 10
105.421334960184
 20
138.6978892546904
 30
0.0
 10
105.421334960184
 20
138.5272425038642
 30
0.0
 10
105.3959399406071
 20
138.3562778415866
 30
0.0
 10
105.3096467548251
 20
138.0311989855901
 30
0.0
 10
105.2490107761419
 20
137.8754910701847
 30
0.0
 10
105.1009089819206
 20
137.574747114547
 30
0.0
 10
105.014139375142
 20
137.4297817978481
 30
0.0
 10
104.8655015798128
 20
137.2259976676965
 30
0.0
 10
104.8132123629266
 20
137.1595750514765
 30
0.0
 10
104.7224485346166
 20
137.0702279197819
 30
0.0
 10
104.6900825421647
 20
137.0415999584446
 30
0.0
 10
104.6323933864984
 20
137.0103188786642
 30
0.0
 10
104.611406358611
 20
137.0020532963791
 30
0.0
 10
104.5661173796205
 20
136.9957930780125
 30
0.0
 10
104.543103110782
 20
136.9983727783618
 30
0.0
 10
104.5213349601824
 20
137.0055395564489
 30
0.0
  0
SPLINE
  5
10D
330
1F
100
AcDbEntity
  8
0
  6
HIDDEN
 62
     7
370
     0
100
AcDbSpline
210
0.0
220
0.0
230
1.0
 70
     8
 71
     3
 72
    12
 73
     8
 74
     0
 42
0.00000001
 43
0.00000001
 12
1.0
 22
0.0
 32
0.0
 13
1.0
 23
0.0
 33
0.0
 40
0.0
 40
0.0
 40
0.0
 40
0.0
 40
0.2500000000000015
 40
0.2500000000000015
 40
0.500000000000003
 40
0.500000000000003
 40
1.0
 40
1.0
 40
1.0
 40
1.0
 10
104.5213349601831
 20
137.0055395564511
 30
0.0
 10
104.3792925569938
 20
137.0523045022342
 30
0.0
 10
104.2351744504897
 20
137.0903589520632
 30
0.0
 10
103.9454199368172
 20
137.160094502457
 30
0.0
 10
103.7996780334584
 20
137.1913329741374
 30
0.0
 10
103.3609977942786
 20
137.2789410418463
 30
0.0
 10
103.0666221782074
 20
137.3292756592118
 30
0.0
 10
102.771334960183
 20
137.375779271497
 30
0.0
  0
ELLIPSE
  5
10E
330
1F
100
AcDbEntity
  8
0
  6
HIDDEN
 62
     7
370
     0
100
AcDbEllipse
 10
89.2152143216
 20
143.2805609349
 30
0.0
 11
11.13367439321753
 21
-11.09765775028171
 31
0.0
210
0.0
220
0.0
230
1.0
 40
0.6999052427
 41
0.4333370834661686
 42
0.4769802043107646
  0
SPLINE
  5
10F
330
1F
100
AcDbEntity
  8
0
  6
HIDDEN
 62
     7
370
     0
100
AcDbSpline
210
0.0
220
0.0
230
1.0
 70
     8
 71
     3
 72
     9
 73
     5
 74
     0
 42
0.00000001
 43
0.00000001
 12
1.0
 22
0.0
 32
0.0
 13
1.0
 23
0.0
 33
0.0
 40
0.0
 40
0.0
 40
0.0
 40
0.0
 40
0.1291001755635953
 40
1.0
 40
1.0
 40
1.0
 40
1.0
 10
117.6611122402461
 20
142.2808291923674
 30
0.0
 10
117.6569346412158
 20
142.2730655962309
 30
0.0
 10
117.6245752814232
 20
142.2129293795085
 30
0.0
 10
117.5823156198796
 20
142.1591580644697
 30
0.0
 10
117.5455116880605
 20
142.1123286356427
 30
0.0
  0
SPLINE
  5
110
330
1F
100
AcDbEntity
  8
0
  6
HIDDEN
 62
     7
370
     0
100
AcDbSpline
210
0.0
220
0.0
230
1.0
 70
     8
 71
     3
 72
    11
 73
     7
 74
     0
 42
0.00000001
 43
0.00000001
 12
1.0
 22
0.0
 32
0.0
 13
1.0
 23
0.0
 33
0.0
 40
0.0
 40
0.0
 40
0.0
 40
0.0
 40
0.2017583601045762
 40
0.5049231043541053
 40
0.7978320662857552
 40
1.0
 40
1.0
 40
1.0
 40
1.0
 10
113.8484373821748
 20
142.1908426869628
 30
0.0
 10
113.8212904182661
 20
142.2253355109304
 30
0.0
 10
113.7533520721998
 20
142.3116577022221
 30
0.0
 10
113.6729614237524
 20
142.4659752196989
 30
0.0
 10
113.5950833039997
 20
142.6216852658729
 30
0.0
 10
113.5653715280027
 20
142.7255282661759
 30
0.0
 10
113.5532385272242
 20
142.7679332440421
 30
0.0
  0
LINE
  5
111
330
1F
100
AcDbEntity
  8
0
  6
HIDDEN
 62
     7
370
     0
100
AcDbLine
 10
109.723984691
 20
143.5131781156
 30
0.0
 11
109.723984691
 21
154.0131781156
 31
0.0
  0
LINE
  5
112
330
1F
100
AcDbEntity
  8
0
  6
HIDDEN
 62
     7
370
     0
100
AcDbLine
 10
109.723984691
 20
133.0131781156
 30
0.0
 11
109.723984691
 21
143.5131781156
 31
0.0
  0
SPLINE
  5
113
330
1F
100
AcDbEntity
  8
0
  6
HIDDEN
 62
     7
370
     0
100
AcDbSpline
210
0.0
220
0.0
230
1.0
 70
     8
 71
     3
 72
    26
 73
    22
 74
     0
 42
0.00000001
 43
0.00000001
 12
1.0
 22
0.0
 32
0.0
 13
1.0
 23
0.0
 33
0.0
 40
0.0
 40
0.0
 40
0.0
 40
0.0
 40
0.2500000000000042
 40
0.2500000000000042
 40
0.3750000000000059
 40
0.3750000000000059
 40
0.4375000000000072
 40
0.4375000000000072
 40
0.468750000000007
 40
0.468750000000007
 40
0.500000000000007
 40
0.500000000000007
 40
0.5312500000000069
 40
0.5312500000000069
 40
0.5625000000000067
 40
0.5625000000000067
 40
0.6250000000000056
 40
0.6250000000000056
 40
0.7500000000000036
 40
0.7500000000000036
 40
1.0
 40
1.0
 40
1.0
 40
1.0
 10
102.5813050065709
 20
136.4807563066879
 30
0.0
 10
102.5339168971424
 20
136.2465987815225
 30
0.0
 10
102.476275595238
 20
136.019599982479
 30
0.0
 10
102.3542277826947
 20
135.709431750744
 30
0.0
 10
102.3081787749182
 20
135.610425550411
 30
0.0
 10
102.2175254907526
 20
135.4897982053813
 30
0.0
 10
102.183172990467
 20
135.4531078146607
 30
0.0
 10
102.1207378180765
 20
135.4253771344418
 30
0.0
 10
102.0974437992784
 20
135.4209385793121
 30
0.0
 10
102.0483912621519
 20
135.4335930603629
 30
0.0
 10
102.0239598124951
 20
135.4516076978389
 30
0.0
 10
101.9833302168752
 20
135.5019671315769
 30
0.0
 10
101.9671679350241
 20
135.5325457579033
 30
0.0
 10
101.940185890921
 20
135.5958059309313
 30
0.0
 10
101.9294363680981
 20
135.6283083451943
 30
0.0
 10
101.901400393941
 20
135.7271560089014
 30
0.0
 10
101.8885391619084
 20
135.7940588525444
 30
0.0
 10
101.857536300748
 20
135.9918919150071
 30
0.0
 10
101.8466768186789
 20
136.1226949460267
 30
0.0
 10
101.8233995627409
 20
136.5140745767256
 30
0.0
 10
101.8213349601829
 20
136.7710379096552
 30
0.0
 10
101.8213349601829
 20
137.0272133990994
 30
0.0
  0
SPLINE
  5
114
330
1F
100
AcDbEntity
  8
0
  6
HIDDEN
 62
     7
370
     0
100
AcDbSpline
210
0.0
220
0.0
230
1.0
 70
     8
 71
     3
 72
    26
 73
    22
 74
     0
 42
0.00000001
 43
0.00000001
 12
1.0
 22
0.0
 32
0.0
 13
1.0
 23
0.0
 33
0.0
 40
0.0
 40
0.0
 40
0.0
 40
0.0
 40
0.2500000000000003
 40
0.2500000000000003
 40
0.3750000000000004
 40
0.3750000000000004
 40
0.4375000000000011
 40
0.4375000000000011
 40
0.4687500000000013
 40
0.4687500000000013
 40
0.5000000000000017
 40
0.5000000000000017
 40
0.5312500000000019
 40
0.5312500000000019
 40
0.5625000000000022
 40
0.5625000000000022
 40
0.6250000000000018
 40
0.6250000000000018
 40
0.7500000000000009
 40
0.7500000000000009
 40
1.0
 40
1.0
 40
1.0
 40
1.0
 10
102.5813050065709
 20
150.5455999244933
 30
0.0
 10
102.5339168971424
 20
150.7797574496587
 30
0.0
 10
102.476275595238
 20
151.0067562487021
 30
0.0
 10
102.3542277826947
 20
151.3169244804371
 30
0.0
 10
102.3081787749182
 20
151.4159306807702
 30
0.0
 10
102.2175254907526
 20
151.5365580257998
 30
0.0
 10
102.183172990467
 20
151.5732484165204
 30
0.0
 10
102.1207378180765
 20
151.6009790967393
 30
0.0
 10
102.0974437992784
 20
151.605417651869
 30
0.0
 10
102.0483912621519
 20
151.5927631708182
 30
0.0
 10
102.0239598124951
 20
151.5747485333423
 30
0.0
 10
101.9833302168752
 20
151.5243890996042
 30
0.0
 10
101.9671679350241
 20
151.4938104732778
 30
0.0
 10
101.9401858909209
 20
151.4305503002498
 30
0.0
 10
101.9294363680981
 20
151.3980478859868
 30
0.0
 10
101.901400393941
 20
151.2992002222797
 30
0.0
 10
101.8885391619084
 20
151.2322973786367
 30
0.0
 10
101.857536300748
 20
151.034464316174
 30
0.0
 10
101.8466768186789
 20
150.9036612851544
 30
0.0
 10
101.8233995627409
 20
150.5122816544554
 30
0.0
 10
101.8213349601829
 20
150.2553183215259
 30
0.0
 10
101.8213349601829
 20
149.9991428320817
 30
0.0
  0
LINE
  5
115
330
1F
100
AcDbEntity
  8
0
  6
HIDDEN
 62
     7
370
     0
100
AcDbLine
 10
127.8907102104
 20
143.5131781156
 30
0.0
 11
127.8907102104
 21
154.0131781156
 31
0.0
  0
LINE
  5
116
330
1F
100
AcDbEntity
  8
0
  6
HIDDEN
 62
     7
370
     0
100
AcDbLine
 10
127.8907102104
 20
133.0131781156
 30
0.0
 11
127.8907102104
 21
143.5131781156
 31
0.0
  0
LINE
  5
117
330
1F
100
AcDbEntity
  8
0
  6
HIDDEN
 62
     7
370
     0
100
AcDbLine
 10
129.6713349602
 20
144.5131781156
 30
0.0
 11
129.6713349602
 21
153.3881781156
 31
0.0
  0
LINE
  5
118
330
1F
100
AcDbEntity
  8
0
  6
HIDDEN
 62
     7
370
     0
100
AcDbLine
 10
129.6713349602
 20
133.6381781156
 30
0.0
 11
129.6713349602
 21
142.5131781156
 31
0.0
  0
LINE
  5
119
330
1F
100
AcDbEntity
  8
0
  6
HIDDEN
 62
     7
370
     0
100
AcDbLine
 10
102.7713349602
 20
133.0131781156
 30
0.0
 11
102.7713349602
 21
139.4881781156
 31
0.0
  0
LINE
  5
11A
330
1F
100
AcDbEntity
  8
0
  6
HIDDEN
 62
     7
370
     0
100
AcDbLine
 10
104.5213349602
 20
139.4881781156
 30
0.0
 11
102.7713349602
 21
139.4881781156
 31
0.0
  0
SPLINE
  5
11B
330
1F
100
AcDbEntity
  8
0
  6
HIDDEN
 62
     7
370
     0
100
AcDbSpline
210
0.0
220
0.0
230
1.0
 70
     8
 71
     3
 72
     9
 73
     5
 74
     0
 42
0.00000001
 43
0.00000001
 12
1.0
 22
0.0
 32
0.0
 13
1.0
 23
0.0
 33
0.0
 40
0.0
 40
0.0
 40
0.0
 40
0.0
 40
0.5071376499419528
 40
1.0
 40
1.0
 40
1.0
 40
1.0
 10
104.8023740491376
 20
139.5471781155906
 30
0.0
 10
104.7570300418147
 20
139.528280233964
 30
0.0
 10
104.667618405096
 20
139.4910164227903
 30
0.0
 10
104.5696298364197
 20
139.4891151710107
 30
0.0
 10
104.521334960183
 20
139.4881781155906
 30
0.0
  0
SPLINE
  5
11C
330
1F
100
AcDbEntity
  8
0
  6
HIDDEN
 62
     7
370
     0
100
AcDbSpline
210
0.0
220
0.0
230
1.0
 70
     8
 71
     3
 72
     9
 73
     5
 74
     0
 42
0.00000001
 43
0.00000001
 12
1.0
 22
0.0
 32
0.0
 13
1.0
 23
0.0
 33
0.0
 40
0.0
 40
0.0
 40
0.0
 40
0.0
 40
0.5071376499419528
 40
1.0
 40
1.0
 40
1.0
 40
1.0
 10
104.8023740491376
 20
147.4791781155905
 30
0.0
 10
104.7570300418147
 20
147.4980759972171
 30
0.0
 10
104.667618405096
 20
147.5353398083908
 30
0.0
 10
104.5696298364197
 20
147.5372410601704
 30
0.0
 10
104.521334960183
 20
147.5381781155906
 30
0.0
  0
LINE
  5
11D
330
1F
100
AcDbEntity
  8
0
  6
HIDDEN
 62
     7
370
     0
100
AcDbLine
 10
104.5213349602
 20
147.5381781156
 30
0.0
 11
102.7713349602
 21
147.5381781156
 31
0.0
  0
LINE
  5
11E
330
1F
100
AcDbEntity
  8
0
  6
HIDDEN
 62
     7
370
     0
100
AcDbLine
 10
102.7713349602
 20
147.5381781156
 30
0.0
 11
102.7713349602
 21
154.0131781156
 31
0.0
  0
LINE
  5
11F
330
1F
100
AcDbEntity
  8
0
  6
HIDDEN
 62
     7
370
     0
100
AcDbLine
 10
184.7877214472
 20
141.2531781156
 30
0.0
 11
191.8314196163
 21
141.2531781156
 31
0.0
  0
LINE
  5
120
330
1F
100
AcDbEntity
  8
0
  6
HIDDEN
 62
     7
370
     0
100
AcDbLine
 10
184.7877214472
 20
138.7531781156
 30
0.0
 11
191.5926460326
 21
138.7531781156
 31
0.0
  0
LINE
  5
121
330
1F
100
AcDbEntity
  8
0
  6
HIDDEN
 62
     7
370
     0
100
AcDbLine
 10
137.5213349602
 20
143.5131781156
 30
0.0
 11
137.5213349602
 21
149.7631781156
 31
0.0
  0
LINE
  5
122
330
1F
100
AcDbEntity
  8
0
  6
HIDDEN
 62
     7
370
     0
100
AcDbLine
 10
137.5213349602
 20
137.2631781156
 30
0.0
 11
137.5213349602
 21
143.5131781156
 31
0.0
  0
LINE
  5
123
330
1F
100
AcDbEntity
  8
0
  6
HIDDEN
 62
     7
370
     0
100
AcDbLine
 10
135.0213349602
 20
143.5131781156
 30
0.0
 11
135.0213349602
 21
149.7631781156
 31
0.0
  0
LINE
  5
124
330
1F
100
AcDbEntity
  8
0
  6
HIDDEN
 62
     7
370
     0
100
AcDbLine
 10
135.0213349602
 20
137.2631781156
 30
0.0
 11
135.0213349602
 21
143.5131781156
 31
0.0
  0
LINE
  5
125
330
1F
100
AcDbEntity
  8
0
  6
HIDDEN
 62
     7
370
     0
100
AcDbLine
 10
130.1713349602
 20
143.5131781156
 30
0.0
 11
130.1713349602
 21
149.0131781156
 31
0.0
  0
LINE
  5
126
330
1F
100
AcDbEntity
  8
0
  6
HIDDEN
 62
     7
370
     0
100
AcDbLine
 10
130.1713349602
 20
138.0131781156
 30
0.0
 11
130.1713349602
 21
143.5131781156
 31
0.0
  0
LINE
  5
127
330
1F
100
AcDbEntity
  8
0
  6
HIDDEN
 62
     7
370
     0
100
AcDbLine
 10
128.7213349602
 20
128.8131781156
 30
0.0
 11
124.0213349602
 21
128.8131781156
 31
0.0
  0
LINE
  5
128
330
1F
100
AcDbEntity
  8
0
  6
HIDDEN
 62
     7
370
     0
100
AcDbLine
 10
133.4213349602
 20
128.8131781156
 30
0.0
 11
128.7213349602
 21
128.8131781156
 31
0.0
  0
LINE
  5
129
330
1F
100
AcDbEntity
  8
0
  6
HIDDEN
 62
     7
370
     0
100
AcDbLine
 10
191.9519774903
 20
137.8531781156
 30
0.0
 11
194.0519774903
 21
137.8531781156
 31
0.0
  0
LINE
  5
12A
330
1F
100
AcDbEntity
  8
0
  6
HIDDEN
 62
     7
370
     0
100
AcDbLine
 10
189.8519774903
 20
137.8531781156
 30
0.0
 11
191.9519774903
 21
137.8531781156
 31
0.0
  0
LINE
  5
12B
330
1F
100
AcDbEntity
  8
0
  6
HIDDEN
 62
     7
370
     0
100
AcDbLine
 10
154.2213349602
 20
133.0131781156
 30
0.0
 11
159.2213349602
 21
133.0131781156
 31
0.0
  0
LINE
  5
12C
330
1F
100
AcDbEntity
  8
0
  6
HIDDEN
 62
     7
370
     0
100
AcDbLine
 10
154.6213349602
 20
133.1587662093
 30
0.0
 11
158.8213349602
 21
133.1587662093
 31
0.0
  0
SPLINE
  5
12D
330
1F
100
AcDbEntity
  8
0
  6
HIDDEN
 62
     7
370
     0
100
AcDbSpline
210
0.0
220
0.0
230
1.0
 70
     8
 71
     3
 72
    29
 73
    25
 74
     0
 42
0.00000001
 43
0.00000001
 12
1.0
 22
0.0
 32
0.0
 13
1.0
 23
0.0
 33
0.0
 40
0.0
 40
0.0
 40
0.0
 40
0.0
 40
0.0415883169050076
 40
0.0845811827060828
 40
0.1261327573759544
 40
0.16870460814507
 40
0.225637627472588
 40
0.2842054059439631
 40
0.3422879653060528
 40
0.4019003944229992
 40
0.4333793033810844
 40
0.4654999864672193
 40
0.4970540555176159
 40
0.5298383371901075
 40
0.5636630647342122
 40
0.5984578728131772
 40
0.6529638548949239
 40
0.708918971556198
 40
0.766632605923069
 40
0.8258747083629283
 40
0.8703930210373871
 40
0.9160654762825284
 40
0.9606486875715707
 40
1.0
 40
1.0
 40
1.0
 40
1.0
 10
154.621334960183
 20
141.0131781155906
 30
0.0
 10
154.6253221751502
 20
141.0165321175143
 30
0.0
 10
154.6334312640175
 20
141.0233533949938
 30
0.0
 10
154.6976920629278
 20
141.0771066363537
 30
0.0
 10
154.7963236955676
 20
141.158553103828
 30
0.0
 10
154.9417408319486
 20
141.2763128766878
 30
0.0
 10
155.1437820240475
 20
141.4345747035992
 30
0.0
 10
155.4063721970228
 20
141.6275375859473
 30
0.0
 10
155.709872675541
 20
141.8275071991276
 30
0.0
 10
155.9995735457096
 20
141.9839685182639
 30
0.0
 10
156.2616919653866
 20
142.0855284031144
 30
0.0
 10
156.4764987909732
 20
142.1405383687791
 30
0.0
 10
156.7031262720961
 20
142.1630647982084
 30
0.0
 10
156.9347065471229
 20
142.146489244007
 30
0.0
 10
157.1651365362671
 20
142.0914201421078
 30
0.0
 10
157.4278314195176
 20
141.9906520027105
 30
0.0
 10
157.7111227216429
 20
141.8399256415499
 30
0.0
 10
158.0042342282835
 20
141.649775962987
 30
0.0
 10
158.2704822329599
 20
141.4562508675126
 30
0.0
 10
158.4816450414517
 20
141.2917418310807
 30
0.0
 10
158.639479923194
 20
141.1642269618867
 30
0.0
 10
158.7450931556456
 20
141.0770277911497
 30
0.0
 10
158.8110539168377
 20
141.0218265676149
 30
0.0
 10
158.815856633724
 20
141.0177818227493
 30
0.0
 10
158.8181083080568
 20
141.0158855110547
 30
0.0
  0
LINE
  5
12E
330
1F
100
AcDbEntity
  8
0
  6
HIDDEN
 62
     7
370
     0
100
AcDbLine
 10
159.8213349602
 20
146.0131781156
 30
0.0
 11
159.8213349602
 21
141.0131781156
 31
0.0
  0
SPLINE
  5
12F
330
1F
100
AcDbEntity
  8
0
  6
HIDDEN
 62
     7
370
     0
100
AcDbSpline
210
0.0
220
0.0
230
1.0
 70
     8
 71
     3
 72
    43
 73
    39
 74
     0
 42
0.00000001
 43
0.00000001
 12
1.0
 22
0.0
 32
0.0
 13
1.0
 23
0.0
 33
0.0
 40
0.0
 40
0.0
 40
0.0
 40
0.0
 40
0.0069263400445832
 40
0.0263570991422561
 40
0.0658934879657297
 40
0.0860337857425099
 40
0.1251949781185901
 40
0.165209724117582
 40
0.193351760885183
 40
0.2217100263887534
 40
0.2506760869412648
 40
0.2798251546119766
 40
0.3085586692885324
 40
0.3374544424739027
 40
0.3668943434502441
 40
0.3965613230990578
 40
0.4286079953711703
 40
0.4612869306384055
 40
0.5099324373404043
 40
0.526749132763161
 40
0.5543837451240851
 40
0.5825997794321902
 40
0.6073820487540987
 40
0.6323615860600272
 40
0.6578264329886299
 40
0.6834211176953033
 40
0.7100262514740812
 40
0.7367595711026482
 40
0.7639048929992177
 40
0.791203501336143
 40
0.8151450710680536
 40
0.8392191804243831
 40
0.8637561488421136
 40
0.8884771888389734
 40
0.9286706002700664
 40
0.949265373814788
 40
0.9700173300150667
 40
1.0
 40
1.0
 40
1.0
 40
1.0
 10
158.8199917655941
 20
146.0120500218316
 30
0.0
 10
158.8203849655989
 20
146.0123802298895
 30
0.0
 10
158.8218812264587
 20
146.013636784789
 30
0.0
 10
158.8109405670083
 20
146.0044483761333
 30
0.0
 10
158.7833890693278
 20
145.9813439586777
 30
0.0
 10
158.7259465772353
 20
145.9335357815057
 30
0.0
 10
158.648325594178
 20
145.8694581162852
 30
0.0
 10
158.539075686098
 20
145.7809000267887
 30
0.0
 10
158.4242465293444
 20
145.6899766030648
 30
0.0
 10
158.3115477074675
 20
145.6028715296324
 30
0.0
 10
158.1872716595954
 20
145.5097705353275
 30
0.0
 10
158.0527880481482
 20
145.4130462000593
 30
0.0
 10
157.9092456186517
 20
145.3151374548096
 30
0.0
 10
157.7561809183572
 20
145.2177761323742
 30
0.0
 10
157.5920020451248
 20
145.1229189150995
 30
0.0
 10
157.4115040427199
 20
145.0320418335685
 30
0.0
 10
157.2124790466044
 20
144.9513278634793
 30
0.0
 10
156.9586604161212
 20
144.8808498119616
 30
0.0
 10
156.7247783489248
 20
144.8625079219996
 30
0.0
 10
156.5069536663981
 20
144.883567711771
 30
0.0
 10
156.3403639126036
 20
144.9182284596507
 30
0.0
 10
156.1641085760016
 20
144.9768835893017
 30
0.0
 10
156.0022724063444
 20
145.0465160459852
 30
0.0
 10
155.8537837617663
 20
145.1217940697097
 30
0.0
 10
155.7111523508547
 20
145.2032327584247
 30
0.0
 10
155.5728343408163
 20
145.2895454544563
 30
0.0
 10
155.4397028462235
 20
145.3785383260906
 30
0.0
 10
155.3117288135752
 20
145.4688148500897
 30
0.0
 10
155.1908275778524
 20
145.5577917640262
 30
0.0
 10
155.0825529254195
 20
145.6401996760681
 30
0.0
 10
154.9868562835073
 20
145.7148707287805
 30
0.0
 10
154.902859383425
 20
145.7816784819066
 30
0.0
 10
154.8271530276267
 20
145.8428464454915
 30
0.0
 10
154.74738241539
 20
145.9081257307654
 30
0.0
 10
154.6883094649127
 20
145.9571425208784
 30
0.0
 10
154.65009535428
 20
145.9890558991512
 30
0.0
 10
154.6267460607616
 20
146.0086291123932
 30
0.0
 10
154.6233449289332
 20
146.0114883753725
 30
0.0
 10
154.621334960183
 20
146.0131781155906
 30
0.0
  0
LINE
  5
130
330
1F
100
AcDbEntity
  8
0
  6
HIDDEN
 62
     7
370
     0
100
AcDbLine
 10
158.8213349602
 20
150.484939362
 30
0.0
 11
156.7256484926
 21
153.0728966218
 31
0.0
  0
LINE
  5
131
330
1F
100
AcDbEntity
  8
0
  6
HIDDEN
 62
     7
370
     0
100
AcDbLine
 10
156.727912972
 20
153.0835501597
 30
0.0
 11
158.8213349602
 21
154.7787698605
 31
0.0
  0
LINE
  5
132
330
1F
100
AcDbEntity
  8
0
  6
HIDDEN
 62
     7
370
     0
100
AcDbLine
 10
154.6213349602
 20
155.0131781156
 30
0.0
 11
158.8213349602
 21
155.0131781156
 31
0.0
  0
LINE
  5
133
330
1F
100
AcDbEntity
  8
0
  6
HIDDEN
 62
     7
370
     0
100
AcDbLine
 10
183.7416557167
 20
138.7131781156
 30
0.0
 11
185.8416557167
 21
138.7131781156
 31
0.0
  0
LINE
  5
134
330
1F
100
AcDbEntity
  8
0
  6
HIDDEN
 62
     7
370
     0
100
AcDbLine
 10
181.6416557167
 20
138.7131781156
 30
0.0
 11
183.7416557167
 21
138.7131781156
 31
0.0
  0
LINE
  5
135
330
1F
100
AcDbEntity
  8
0
  6
HIDDEN
 62
     7
370
     0
100
AcDbLine
 10
184.7877214472
 20
141.2531781156
 30
0.0
 11
184.7877214472
 21
138.7531781156
 31
0.0
  0
ELLIPSE
  5
136
330
1F
100
AcDbEntity
  8
0
  6
HIDDEN
 62
     7
370
     0
100
AcDbEllipse
 10
183.7416557167
 20
135.3688316876
 30
0.0
 11
-1.36178908973477
 21
17.10265383053536
 31
0.0
210
0.0
220
0.0
230
1.0
 40
0.0934710297
 41
5.056174330182633
 42
5.181421729999454
  0
LINE
  5
137
330
1F
100
AcDbEntity
  8
0
  6
HIDDEN
 62
     7
370
     0
100
AcDbLine
 10
105.4213349602
 20
140.3881781156
 30
0.0
 11
105.4213349602
 21
138.6978892547
 31
0.0
  0
LINE
  5
138
330
1F
100
AcDbEntity
  8
0
  6
HIDDEN
 62
     7
370
     0
100
AcDbLine
 10
105.4213349602
 20
146.6381781156
 30
0.0
 11
105.4213349602
 21
148.3284669765
 31
0.0
  0
ARC
  5
139
330
1F
100
AcDbEntity
  8
0
  6
HIDDEN
 62
     7
370
     0
100
AcDbCircle
 10
134.1650054349
 20
159.8631781156
 30
0.0
 40
4.500000000000029
100
AcDbArc
 50
183.0392600505
 51
270.0
  0
LINE
  5
13A
330
1F
100
AcDbEntity
  8
0
  6
HIDDEN
 62
     7
370
     0
100
AcDbLine
 10
134.1650054349
 20
155.3631781156
 30
0.0
 11
142.0004586719
 21
155.3631781156
 31
0.0
  0
LINE
  5
13B
330
1F
100
AcDbEntity
  8
0
  6
HIDDEN
 62
     7
370
     0
100
AcDbLine
 10
138.7613349602
 20
149.0131781156
 30
0.0
 11
138.7613349602
 21
148.0131781156
 31
0.0
  0
LINE
  5
13C
330
1F
100
AcDbEntity
  8
0
  6
HIDDEN
 62
     7
370
     0
100
AcDbLine
 10
136.6813349602
 20
149.0131781156
 30
0.0
 11
136.6813349602
 21
148.0131781156
 31
0.0
  0
LINE
  5
13D
330
1F
100
AcDbEntity
  8
0
  6
HIDDEN
 62
     7
370
     0
100
AcDbLine
 10
139.7564946591
 20
149.0131781156
 30
0.0
 11
139.7564946591
 21
148.0131781156
 31
0.0
  0
ARC
  5
13E
330
1F
100
AcDbEntity
  8
0
  6
HIDDEN
 62
     7
370
     0
100
AcDbCircle
 10
134.1713349602
 20
143.5131781156
 30
0.0
 40
4.5
100
AcDbArc
 50
90.0
 51
270.0
  0
LINE
  5
13F
330
1F
100
AcDbEntity
  8
0
  6
HIDDEN
 62
     7
370
     0
100
AcDbLine
 10
136.9296793459
 20
148.0131781156
 30
0.0
 11
134.1713349602
 21
148.0131781156
 31
0.0
  0
LINE
  5
140
330
1F
100
AcDbEntity
  8
0
  6
HIDDEN
 62
     7
370
     0
100
AcDbLine
 10
141.6713970833
 20
148.0131781156
 30
0.0
 11
138.5129905744
 21
148.0131781156
 31
0.0
  0
LINE
  5
141
330
1F
100
AcDbEntity
  8
0
  6
HIDDEN
 62
     7
370
     0
100
AcDbLine
 10
134.1713349602
 20
139.0131781156
 30
0.0
 11
136.9296793459
 21
139.0131781156
 31
0.0
  0
LINE
  5
142
330
1F
100
AcDbEntity
  8
0
  6
HIDDEN
 62
     7
370
     0
100
AcDbLine
 10
138.5129905744
 20
139.0131781156
 30
0.0
 11
141.6713970833
 21
139.0131781156
 31
0.0
  0
LINE
  5
143
330
1F
100
AcDbEntity
  8
0
  6
HIDDEN
 62
     7
370
     0
100
AcDbLine
 10
191.8855195202
 20
143.0131781156
 30
0.0
 11
195.4519774903
 21
143.0131781156
 31
0.0
  0
LINE
  5
144
330
1F
100
AcDbEntity
  8
0
  6
HIDDEN
 62
     7
370
     0
100
AcDbLine
 10
188.4519774903
 20
143.0131781156
 30
0.0
 11
191.8855195202
 21
143.0131781156
 31
0.0
  0
LINE
  5
145
330
1F
100
AcDbEntity
  8
0
  6
HIDDEN
 62
     7
370
     0
100
AcDbLine
 10
191.8855195202
 20
142.8131781156
 30
0.0
 11
195.4519774903
 21
142.8131781156
 31
0.0
  0
LINE
  5
146
330
1F
100
AcDbEntity
  8
0
  6
HIDDEN
 62
     7
370
     0
100
AcDbLine
 10
188.4519774903
 20
142.8131781156
 30
0.0
 11
191.8855195202
 21
142.8131781156
 31
0.0
  0
LINE
  5
147
330
1F
100
AcDbEntity
  8
0
  6
HIDDEN
 62
     7
370
     0
100
AcDbLine
 10
191.921596704
 20
133.3131781156
 30
0.0
 11
193.5519774903
 21
133.3131781156
 31
0.0
  0
LINE
  5
148
330
1F
100
AcDbEntity
  8
0
  6
HIDDEN
 62
     7
370
     0
100
AcDbLine
 10
190.3519774903
 20
133.3131781156
 30
0.0
 11
191.921596704
 21
133.3131781156
 31
0.0
  0
LINE
  5
149
330
1F
100
AcDbEntity
  8
0
  6
HIDDEN
 62
     7
370
     0
100
AcDbLine
 10
191.9045075117
 20
134.2131781156
 30
0.0
 11
194.4519774903
 21
134.2131781156
 31
0.0
  0
LINE
  5
14A
330
1F
100
AcDbEntity
  8
0
  6
HIDDEN
 62
     7
370
     0
100
AcDbLine
 10
189.4519774903
 20
134.2131781156
 30
0.0
 11
191.9045075117
 21
134.2131781156
 31
0.0
  0
LINE
  5
14B
330
1F
100
AcDbEntity
  8
0
  6
HIDDEN
 62
     7
370
     0
100
AcDbLine
 10
191.9045075117
 20
139.5131781156
 30
0.0
 11
194.4519774903
 21
139.5131781156
 31
0.0
  0
LINE
  5
14C
330
1F
100
AcDbEntity
  8
0
  6
HIDDEN
 62
     7
370
     0
100
AcDbLine
 10
189.4519774903
 20
139.5131781156
 30
0.0
 11
191.9045075117
 21
139.5131781156
 31
0.0
  0
SPLINE
  5
14D
330
1F
100
AcDbEntity
  8
0
  6
HIDDEN
 62
     7
370
     0
100
AcDbSpline
210
0.0
220
0.0
230
1.0
 70
     8
 71
     3
 72
    12
 73
     8
 74
     0
 42
0.00000001
 43
0.00000001
 12
1.0
 22
0.0
 32
0.0
 13
1.0
 23
0.0
 33
0.0
 40
0.0
 40
0.0
 40
0.0
 40
0.0
 40
0.2357874155417119
 40
0.4731981586285436
 40
0.7086272368276465
 40
0.9418061608002903
 40
1.0
 40
1.0
 40
1.0
 40
1.0
 10
193.6110163179261
 20
143.4620714526916
 30
0.0
 10
193.6531924694476
 20
143.4687407341411
 30
0.0
 10
193.7378351429854
 20
143.4821252130966
 30
0.0
 10
193.8399155457982
 20
143.4968944317516
 30
0.0
 10
193.9035887270604
 20
143.5057013226485
 30
0.0
 10
193.9289078844605
 20
143.5089935428583
 30
0.0
 10
193.91850244163
 20
143.5073743888641
 30
0.0
 10
193.9164242354852
 20
143.5070510065886
 30
0.0
  0
SPLINE
  5
14E
330
1F
100
AcDbEntity
  8
0
  6
HIDDEN
 62
     7
370
     0
100
AcDbSpline
210
0.0
220
0.0
230
1.0
 70
     8
 71
     3
 72
    10
 73
     6
 74
     0
 42
0.00000001
 43
0.00000001
 12
1.0
 22
0.0
 32
0.0
 13
1.0
 23
0.0
 33
0.0
 40
0.0
 40
0.0
 40
0.0
 40
0.0
 40
0.3342374952797172
 40
0.6702707527246877
 40
1.0
 40
1.0
 40
1.0
 40
1.0
 10
193.9007178922868
 20
143.5045643424716
 30
0.0
 10
193.8825254459773
 20
143.5018504377132
 30
0.0
 10
193.8460428105641
 20
143.4964080471646
 30
0.0
 10
193.7466506975028
 20
143.4814874970318
 30
0.0
 10
193.6652037467998
 20
143.468424748959
 30
0.0
 10
193.6248658762262
 20
143.4619552195714
 30
0.0
  0
SPLINE
  5
14F
330
1F
100
AcDbEntity
  8
0
  6
HIDDEN
 62
     7
370
     0
100
AcDbSpline
210
0.0
220
0.0
230
1.0
 70
     8
 71
     3
 72
    17
 73
    13
 74
     0
 42
0.00000001
 43
0.00000001
 12
1.0
 22
0.0
 32
0.0
 13
1.0
 23
0.0
 33
0.0
 40
0.0
 40
0.0
 40
0.0
 40
0.0
 40
0.1015021851812776
 40
0.2058851588163179
 40
0.3074937179050374
 40
0.4121649835731826
 40
0.5117335401582344
 40
0.6142795520907424
 40
0.7124580058481456
 40
0.8133988273150373
 40
0.9056223946751614
 40
1.0
 40
1.0
 40
1.0
 40
1.0
 10
193.6248658762262
 20
143.4619552195714
 30
0.0
 10
193.5886499618181
 20
143.4561319808408
 30
0.0
 10
193.5151902695341
 20
143.4443202308895
 30
0.0
 10
193.4140446085983
 20
143.4296810146745
 30
0.0
 10
193.3220063162012
 20
143.4183058094443
 30
0.0
 10
193.2444569482555
 20
143.411483306353
 30
0.0
 10
193.1820056067446
 20
143.4095714031261
 30
0.0
 10
193.1375549498825
 20
143.4126628412759
 30
0.0
 10
193.110698935887
 20
143.4204133938921
 30
0.0
 10
193.1027625147248
 20
143.4317796141185
 30
0.0
 10
193.11080145921
 20
143.4458050988042
 30
0.0
 10
193.1291241137173
 20
143.4565305759933
 30
0.0
 10
193.1383911951118
 20
143.4619552195714
 30
0.0
  0
LINE
  5
150
330
1F
100
AcDbEntity
  8
0
  6
HIDDEN
 62
     7
370
     0
100
AcDbLine
 10
193.1383911951
 20
143.4619552196
 30
0.0
 11
193.1555709307
 21
143.4796389049
 31
0.0
  0
SPLINE
  5
151
330
1F
100
AcDbEntity
  8
0
  6
HIDDEN
 62
     7
370
     0
100
AcDbSpline
210
0.0
220
0.0
230
1.0
 70
     8
 71
     3
 72
    23
 73
    19
 74
     0
 42
0.00000001
 43
0.00000001
 12
1.0
 22
0.0
 32
0.0
 13
1.0
 23
0.0
 33
0.0
 40
0.0
 40
0.0
 40
0.0
 40
0.0
 40
0.0625065224134611
 40
0.1268032294228315
 40
0.1894476925803216
 40
0.2539381432713591
 40
0.3160572949799599
 40
0.3800123143127895
 40
0.4415418845482096
 40
0.5048752096397779
 40
0.566080361205206
 40
0.6290610219317568
 40
0.6902737759323413
 40
0.7532438799218213
 40
0.8147897755420597
 40
0.8780884206729146
 40
0.938246332217337
 40
1.0
 40
1.0
 40
1.0
 40
1.0
 10
191.4767811496143
 20
143.4623349399649
 30
0.0
 10
191.4613296538512
 20
143.4657200748244
 30
0.0
 10
191.4299841320316
 20
143.4725872946864
 30
0.0
 10
191.3738694633472
 20
143.4816871486339
 30
0.0
 10
191.312220501965
 20
143.4897863731933
 30
0.0
 10
191.2473002892496
 20
143.4964965342663
 30
0.0
 10
191.1800864029917
 20
143.5018447734849
 30
0.0
 10
191.1139074804399
 20
143.5056359553096
 30
0.0
 10
191.0492978721381
 20
143.5079077181054
 30
0.0
 10
190.9893624184189
 20
143.5085958151928
 30
0.0
 10
190.9344992434372
 20
143.507718578802
 30
0.0
 10
190.8872107807884
 20
143.5053166633597
 30
0.0
 10
190.8478606523732
 20
143.5013851619688
 30
0.0
 10
190.8181905078297
 20
143.4960508906199
 30
0.0
 10
190.7984431532563
 20
143.4893039261516
 30
0.0
 10
190.7898405137369
 20
143.4814157632493
 30
0.0
 10
190.7912255022866
 20
143.4724995520689
 30
0.0
 10
190.8008239902004
 20
143.4659066626187
 30
0.0
 10
190.8056860536493
 20
143.4625670692258
 30
0.0
  0
SPLINE
  5
152
330
1F
100
AcDbEntity
  8
0
  6
HIDDEN
 62
     7
370
     0
100
AcDbSpline
210
0.0
220
0.0
230
1.0
 70
     8
 71
     3
 72
    17
 73
    13
 74
     0
 42
0.00000001
 43
0.00000001
 12
1.0
 22
0.0
 32
0.0
 13
1.0
 23
0.0
 33
0.0
 40
0.0
 40
0.0
 40
0.0
 40
0.0
 40
0.1014898822867226
 40
0.2058601172582689
 40
0.3074578824585347
 40
0.412117841680167
 40
0.5116797789146076
 40
0.6142181466596717
 40
0.7124037419661728
 40
0.8133516758228709
 40
0.9055981370557047
 40
0.9999999999999999
 40
0.9999999999999999
 40
0.9999999999999999
 40
0.9999999999999999
 10
190.8056860536493
 20
143.4625670692258
 30
0.0
 10
190.8142015695747
 20
143.4567515985241
 30
0.0
 10
190.8314742776261
 20
143.4449556100612
 30
0.0
 10
190.8333234075762
 20
143.4303494201253
 30
0.0
 10
190.8169418065152
 20
143.4190124538065
 30
0.0
 10
190.78142390563
 20
143.4122294707926
 30
0.0
 10
190.7279326293958
 20
143.4103543743418
 30
0.0
 10
190.6595956743574
 20
143.4134756730315
 30
0.0
 10
190.5771683099384
 20
143.421248988071
 30
0.0
 10
190.4864870505103
 20
143.4326317356156
 30
0.0
 10
190.389176223928
 20
143.4466700076962
 30
0.0
 10
190.3218487236747
 20
143.4574021077363
 30
0.0
 10
190.2877962269309
 20
143.4628301245243
 30
0.0
  0
SPLINE
  5
153
330
1F
100
AcDbEntity
  8
0
  6
HIDDEN
 62
     7
370
     0
100
AcDbSpline
210
0.0
220
0.0
230
1.0
 70
     8
 71
     3
 72
    23
 73
    19
 74
     0
 42
0.00000001
 43
0.00000001
 12
1.0
 22
0.0
 32
0.0
 13
1.0
 23
0.0
 33
0.0
 40
0.0
 40
0.0
 40
0.0
 40
0.0
 40
0.062242649204808
 40
0.1262521514661155
 40
0.1888981177529229
 40
0.2533901296440992
 40
0.315510503380368
 40
0.3794668212464731
 40
0.44099689949928
 40
0.5043307901200801
 40
0.5655357116527755
 40
0.6285161663439385
 40
0.6897281621782023
 40
0.7526974991099636
 40
0.8142424170099329
 40
0.877540052769017
 40
0.9379613017252395
 40
1.0
 40
1.0
 40
1.0
 40
1.0
 10
190.2877962269309
 20
143.4628301245243
 30
0.0
 10
190.2667611653644
 20
143.4662003392034
 30
0.0
 10
190.2240939297484
 20
143.473036437274
 30
0.0
 10
190.1648247269531
 20
143.4821127036383
 30
0.0
 10
190.1105013089812
 20
143.4902058581852
 30
0.0
 10
190.0640909888465
 20
143.4969222716138
 30
0.0
 10
190.0261488680892
 20
143.5022767961183
 30
0.0
 10
189.9985224339055
 20
143.5060739481524
 30
0.0
 10
189.9813269303675
 20
143.5083513643708
 30
0.0
 10
189.975282195189
 20
143.5090445764122
 30
0.0
 10
189.9803348377847
 20
143.5081719660789
 30
0.0
 10
189.9961689344246
 20
143.5057740712285
 30
0.0
 10
190.0226014147043
 20
143.5018460445717
 30
0.0
 10
190.0584418244653
 20
143.4965146634889
 30
0.0
 10
190.1033179305125
 20
143.489770057384
 30
0.0
 10
190.1549270867757
 20
143.4818724896832
 30
0.0
 10
190.2122285049108
 20
143.4729288853468
 30
0.0
 10
190.2531935919531
 20
143.4663028150529
 30
0.0
 10
190.2739466686308
 20
143.4629460213828
 30
0.0
  0
SPLINE
  5
154
330
1F
100
AcDbEntity
  8
0
  6
HIDDEN
 62
     7
370
     0
100
AcDbSpline
210
0.0
220
0.0
230
1.0
 70
     8
 71
     3
 72
    17
 73
    13
 74
     0
 42
0.00000001
 43
0.00000001
 12
1.0
 22
0.0
 32
0.0
 13
1.0
 23
0.0
 33
0.0
 40
0.0
 40
0.0
 40
0.0
 40
0.0
 40
0.101500473047598
 40
0.205881775169307
 40
0.3074885968904815
 40
0.4121578043089584
 40
0.5117295539132699
 40
0.6142784881921449
 40
0.7124655806085991
 40
0.8134156189215063
 40
0.9056310190756339
 40
1.0
 40
1.0
 40
1.0
 40
1.0
 10
190.2739466686307
 20
143.4629460213828
 30
0.0
 10
190.3101621470296
 20
143.4571261294645
 30
0.0
 10
190.3836209867522
 20
143.4453211630102
 30
0.0
 10
190.4847656909021
 20
143.4306949454468
 30
0.0
 10
190.5768028377685
 20
143.4193322216627
 30
0.0
 10
190.6543523641857
 20
143.4125183581122
 30
0.0
 10
190.7168048259611
 20
143.4106088259308
 30
0.0
 10
190.7612578555409
 20
143.413696001425
 30
0.0
 10
190.7881153036789
 20
143.4214374622231
 30
0.0
 10
190.796050057915
 20
143.4327925804204
 30
0.0
 10
190.7880090935163
 20
143.4468062603939
 30
0.0
 10
190.7696877534184
 20
143.4575248625612
 30
0.0
 10
190.7604213497451
 20
143.4629460213828
 30
0.0
  0
SPLINE
  5
155
330
1F
100
AcDbEntity
  8
0
  6
HIDDEN
 62
     7
370
     0
100
AcDbSpline
210
0.0
220
0.0
230
1.0
 70
     8
 71
     3
 72
    15
 73
    11
 74
     0
 42
0.00000001
 43
0.00000001
 12
1.0
 22
0.0
 32
0.0
 13
1.0
 23
0.0
 33
0.0
 40
0.0
 40
0.0
 40
0.0
 40
0.0
 40
0.0116175993749132
 40
0.1555069661107187
 40
0.2981945202331555
 40
0.4395187662438091
 40
0.5800879233515033
 40
0.7206660721475335
 40
0.862004052706997
 40
0.9999999999999999
 40
0.9999999999999999
 40
0.9999999999999999
 40
0.9999999999999999
 10
190.7432409885314
 20
143.4806170170789
 30
0.0
 10
190.7426960382073
 20
143.4811393316536
 30
0.0
 10
190.7354016248916
 20
143.4881307549465
 30
0.0
 10
190.7635925599141
 20
143.4975258656249
 30
0.0
 10
190.8290195817919
 20
143.5070021264964
 30
0.0
 10
190.9331675877803
 20
143.5098067636108
 30
0.0
 10
191.0582199319731
 20
143.506446824728
 30
0.0
 10
191.1912714789845
 20
143.4969651365894
 30
0.0
 10
191.3190171535729
 20
143.4823756029774
 30
0.0
 10
191.3850469762035
 20
143.4692931097431
 30
0.0
 10
191.4176668874099
 20
143.4628301245243
 30
0.0
  0
SPLINE
  5
156
330
1F
100
AcDbEntity
  8
0
  6
HIDDEN
 62
     7
370
     0
100
AcDbSpline
210
0.0
220
0.0
230
1.0
 70
     8
 71
     3
 72
    12
 73
     8
 74
     0
 42
0.00000001
 43
0.00000001
 12
1.0
 22
0.0
 32
0.0
 13
1.0
 23
0.0
 33
0.0
 40
0.0
 40
0.0
 40
0.0
 40
0.0
 40
0.2058321750920933
 40
0.4120750343577188
 40
0.6141697879284648
 40
0.8133029339857891
 40
1.0
 40
1.0
 40
1.0
 40
1.0
 10
191.4176668874099
 20
143.4628301245243
 30
0.0
 10
191.4765776472754
 20
143.4513370337902
 30
0.0
 10
191.5945167079919
 20
143.4283279208709
 30
0.0
 10
191.8221528153733
 20
143.4098015183931
 30
0.0
 10
192.05287487002
 20
143.411092606661
 30
0.0
 10
192.2648370777325
 20
143.4305331731514
 30
0.0
 10
192.370771448343
 20
143.4521210439637
 30
0.0
 10
192.4220313952427
 20
143.4625670692258
 30
0.0
  0
SPLINE
  5
157
330
1F
100
AcDbEntity
  8
0
  6
HIDDEN
 62
     7
370
     0
100
AcDbSpline
210
0.0
220
0.0
230
1.0
 70
     8
 71
     3
 72
    15
 73
    11
 74
     0
 42
0.00000001
 43
0.00000001
 12
1.0
 22
0.0
 32
0.0
 13
1.0
 23
0.0
 33
0.0
 40
0.0
 40
0.0
 40
0.0
 40
0.0
 40
0.1413664089934363
 40
0.283088439377017
 40
0.423627382853931
 40
0.562825371455989
 40
0.7012816621888632
 40
0.839748408863846
 40
0.9789644178156426
 40
0.9999999999999999
 40
0.9999999999999999
 40
0.9999999999999999
 40
0.9999999999999999
 10
192.4220313952427
 20
143.4625670692258
 30
0.0
 10
192.4550350501532
 20
143.4692691295029
 30
0.0
 10
192.5211253839805
 20
143.4826901097625
 30
0.0
 10
192.6513658261874
 20
143.497339277764
 30
0.0
 10
192.7862314641945
 20
143.5065087257922
 30
0.0
 10
192.9124906315199
 20
143.5093603989184
 30
0.0
 10
193.0168541734455
 20
143.5060312201114
 30
0.0
 10
193.0835803607133
 20
143.4963089641415
 30
0.0
 10
193.1125823493032
 20
143.4864027820543
 30
0.0
 10
193.106023176344
 20
143.479014016459
 30
0.0
 10
193.1051621800763
 20
143.4780441229009
 30
0.0
  0
SPLINE
  5
158
330
1F
100
AcDbEntity
  8
0
  6
HIDDEN
 62
     7
370
     0
100
AcDbSpline
210
0.0
220
0.0
230
1.0
 70
     8
 71
     3
 72
    17
 73
    13
 74
     0
 42
0.00000001
 43
0.00000001
 12
1.0
 22
0.0
 32
0.0
 13
1.0
 23
0.0
 33
0.0
 40
0.0
 40
0.0
 40
0.0
 40
0.0
 40
0.1015098469729523
 40
0.2059006998424356
 40
0.3075184015868517
 40
0.4121990015723995
 40
0.5117774950831236
 40
0.6143342058937974
 40
0.7125142060558476
 40
0.8134571906890212
 40
0.9056523878265463
 40
0.9999999999999999
 40
0.9999999999999999
 40
0.9999999999999999
 40
0.9999999999999999
 10
193.0931264912077
 20
143.4623349399649
 30
0.0
 10
193.0846099263461
 20
143.456507458891
 30
0.0
 10
193.0673350833872
 20
143.4446871038493
 30
0.0
 10
193.0654903095931
 20
143.4300280561029
 30
0.0
 10
193.0818815121563
 20
143.4186269816089
 30
0.0
 10
193.1174146473913
 20
143.4117732927934
 30
0.0
 10
193.1709272164677
 20
143.4098265885477
 30
0.0
 10
193.2392856050686
 20
143.4128835293429
 30
0.0
 10
193.3217309201969
 20
143.4206018762509
 30
0.0
 10
193.4124069486741
 20
143.4319402857273
 30
0.0
 10
193.5096899633221
 20
143.445941266786
 30
0.0
 10
193.5769820509098
 20
143.4566535231087
 30
0.0
 10
193.6110163179261
 20
143.4620714526916
 30
0.0
  0
LINE
  5
159
330
1F
100
AcDbEntity
  8
0
  6
HIDDEN
 62
     7
370
     0
100
AcDbLine
 10
193.1078664856
 20
141.8131781156
 30
0.0
 11
192.4220313952
 21
141.8131781156
 31
0.0
  0
LINE
  5
15A
330
1F
100
AcDbEntity
  8
0
  6
HIDDEN
 62
     7
370
     0
100
AcDbLine
 10
191.4176668874
 20
141.8131781156
 30
0.0
 11
190.7415794019
 21
141.8131781156
 31
0.0
  0
LINE
  5
15B
330
1F
100
AcDbEntity
  8
0
  6
HIDDEN
 62
     7
370
     0
100
AcDbLine
 10
192.4220313952
 20
141.8131781156
 30
0.0
 11
191.4176668874
 21
141.8131781156
 31
0.0
  0
LINE
  5
15C
330
1F
100
AcDbEntity
  8
0
  6
HIDDEN
 62
     7
370
     0
100
AcDbLine
 10
193.6110163179
 20
141.8131781156
 30
0.0
 11
193.1078664856
 21
141.8131781156
 31
0.0
  0
LINE
  5
15D
330
1F
100
AcDbEntity
  8
0
  6
HIDDEN
 62
     7
370
     0
100
AcDbLine
 10
190.7415794019
 20
141.8131781156
 30
0.0
 11
190.2739466686
 21
141.8131781156
 31
0.0
  0
LINE
  5
15E
330
1F
100
AcDbEntity
  8
0
  6
HIDDEN
 62
     7
370
     0
100
AcDbLine
 10
193.9216933562
 20
141.8131781156
 30
0.0
 11
193.6110163179
 21
141.8131781156
 31
0.0
  0
LINE
  5
15F
330
1F
100
AcDbEntity
  8
0
  6
HIDDEN
 62
     7
370
     0
100
AcDbLine
 10
190.2739466686
 20
141.8131781156
 30
0.0
 11
189.9771191887
 21
141.8131781156
 31
0.0
  0
LINE
  5
160
330
1F
100
AcDbEntity
  8
0
  6
HIDDEN
 62
     7
370
     0
100
AcDbLine
 10
191.8314196163
 20
143.2121752378
 30
0.0
 11
191.8313404648
 21
143.2131781156
 31
0.0
  0
LINE
  5
161
330
1F
100
AcDbEntity
  8
0
  6
HIDDEN
 62
     7
370
     0
100
AcDbLine
 10
183.0951816966
 20
138.7531781156
 30
0.0
 11
184.7877214472
 21
138.7531781156
 31
0.0
  0
LINE
  5
162
330
1F
100
AcDbEntity
  8
0
  6
HIDDEN
 62
     7
370
     0
100
AcDbLine
 10
183.0951816966
 20
138.7531781156
 30
0.0
 11
182.8082214205
 21
140.2554395444
 31
0.0
  0
LINE
  5
163
330
1F
100
AcDbEntity
  8
0
  6
HIDDEN
 62
     7
370
     0
100
AcDbLine
 10
182.8082214205
 20
140.2554395444
 30
0.0
 11
182.574783695
 21
143.2131781156
 31
0.0
  0
LINE
  5
164
330
1F
100
AcDbEntity
  8
0
  6
HIDDEN
 62
     7
370
     0
100
AcDbLine
 10
192.0647781904
 20
143.2937850135
 30
0.0
 11
191.8205188987
 21
143.5131781158
 31
0.0
  0
LINE
  5
165
330
1F
100
AcDbEntity
  8
0
  6
HIDDEN
 62
     7
370
     0
100
AcDbLine
 10
192.0647781904
 20
143.2937850135
 30
0.0
 11
192.309037482
 21
143.5131781158
 31
0.0
  0
LINE
  5
166
330
1F
100
AcDbEntity
  8
0
  6
HIDDEN
 62
     7
370
     0
100
AcDbLine
 10
192.0647781904
 20
142.9349548904
 30
0.0
 11
192.0647781904
 21
143.2937850135
 31
0.0
  0
LINE
  5
167
330
1F
100
AcDbEntity
  8
0
  6
HIDDEN
 62
     7
370
     0
100
AcDbLine
 10
190.779202971
 20
143.0441182234
 30
0.0
 11
190.7907188539
 21
143.0443475227
 31
0.0
  0
SPLINE
  5
168
330
1F
100
AcDbEntity
  8
0
  6
HIDDEN
 62
     7
370
     0
100
AcDbSpline
210
0.0
220
0.0
230
1.0
 70
    24
 71
     3
 72
     9
 73
     5
 74
     0
 42
0.00000001
 43
0.00000001
 12
1.0
 22
0.0
 32
0.0
 13
1.0
 23
0.0
 33
0.0
 40
0.0
 40
0.0
 40
0.0
 40
0.0
 40
0.2411261205246742
 40
0.9999999999999999
 40
0.9999999999999999
 40
0.9999999999999999
 40
0.9999999999999999
 10
192.0647781903637
 20
142.8832496583123
 30
0.0
 10
192.0647781903637
 20
142.880053624113
 30
0.0
 10
192.0647781903637
 20
142.8667990078467
 30
0.0
 10
192.0647781903637
 20
142.9055487347746
 30
0.0
 10
192.0647781903637
 20
142.9349548903769
 30
0.0
  0
LINE
  5
169
330
1F
100
AcDbEntity
  8
0
  6
HIDDEN
 62
     7
370
     0
100
AcDbLine
 10
193.3372894384
 20
143.0444133301
 30
0.0
 11
193.3503534097
 21
143.0441182234
 31
0.0
  0
SPLINE
  5
16A
330
1F
100
AcDbEntity
  8
0
  6
HIDDEN
 62
     7
370
     0
100
AcDbSpline
210
0.0
220
0.0
230
1.0
 70
     8
 71
     3
 72
    11
 73
     7
 74
     0
 42
0.00000001
 43
0.00000001
 12
1.0
 22
0.0
 32
0.0
 13
1.0
 23
0.0
 33
0.0
 40
0.0
 40
0.0
 40
0.0
 40
0.0
 40
0.3367831131414452
 40
0.6790111347689778
 40
0.9923717339918595
 40
1.0
 40
1.0
 40
1.0
 40
1.0
 10
184.1078841715658
 20
142.8114624918217
 30
0.0
 10
184.1863586527521
 20
142.7911680568378
 30
0.0
 10
184.3445763437275
 20
142.7502510785503
 30
0.0
 10
184.5842118112377
 20
142.7866892054122
 30
0.0
 10
184.7313691790901
 20
142.8477519207346
 30
0.0
 10
184.7977545417753
 20
142.8859122103521
 30
0.0
 10
184.7993321828104
 20
142.8868190855484
 30
0.0
  0
SPLINE
  5
16B
330
1F
100
AcDbEntity
  8
0
  6
HIDDEN
 62
     7
370
     0
100
AcDbSpline
210
0.0
220
0.0
230
1.0
 70
     8
 71
     3
 72
    11
 73
     7
 74
     0
 42
0.00000001
 43
0.00000001
 12
1.0
 22
0.0
 32
0.0
 13
1.0
 23
0.0
 33
0.0
 40
0.0
 40
0.0
 40
0.0
 40
0.0
 40
0.0076282660081602
 40
0.3209888652312675
 40
0.6632168868587096
 40
1.0
 40
1.0
 40
1.0
 40
1.0
 10
199.3302241979168
 20
142.8868190855484
 30
0.0
 10
199.331801838952
 20
142.8859122103521
 30
0.0
 10
199.3981872016374
 20
142.8477519207346
 30
0.0
 10
199.5453445694895
 20
142.7866892054122
 30
0.0
 10
199.7849800369998
 20
142.7502510785503
 30
0.0
 10
199.9431977279751
 20
142.7911680568378
 30
0.0
 10
200.0216722091614
 20
142.8114624918218
 30
0.0
  0
LINE
  5
16C
330
1F
100
AcDbEntity
  8
0
  6
HIDDEN
 62
     7
370
     0
100
AcDbLine
 10
200.0216722092
 20
142.8114624918
 30
0.0
 11
201.3213349602
 21
143.2937850135
 31
0.0
  0
LINE
  5
16D
330
1F
100
AcDbEntity
  8
0
  6
HIDDEN
 62
     7
370
     0
100
AcDbLine
 10
184.1078841716
 20
142.8114624918
 30
0.0
 11
182.8082214205
 21
143.2937850135
 31
0.0
  0
LINE
  5
16E
330
1F
100
AcDbEntity
  8
0
  6
HIDDEN
 62
     7
370
     0
100
AcDbLine
 10
185.5986426275
 20
143.0441182234
 30
0.0
 11
185.6163236589
 21
143.044658878
 31
0.0
  0
LINE
  5
16F
330
1F
100
AcDbEntity
  8
0
  6
HIDDEN
 62
     7
370
     0
100
AcDbLine
 10
182.8082214205
 20
143.2937850135
 30
0.0
 11
182.5639621289
 21
143.5131781158
 31
0.0
  0
LINE
  5
170
330
1F
100
AcDbEntity
  8
0
  6
HIDDEN
 62
     7
370
     0
100
AcDbLine
 10
201.3213349602
 20
143.2937850135
 30
0.0
 11
201.5655942519
 21
143.5131781158
 31
0.0
  0
LINE
  5
171
330
1F
100
AcDbEntity
  8
0
  6
HIDDEN
 62
     7
370
     0
100
AcDbLine
 10
159.2213349602
 20
130.5731781156
 30
0.0
 11
159.0213349602
 21
131.0834401392
 31
0.0
  0
LINE
  5
172
330
1F
100
AcDbEntity
  8
0
  6
HIDDEN
 62
     7
370
     0
100
AcDbLine
 10
154.4213349602
 20
131.0834401392
 30
0.0
 11
154.2213349602
 21
130.5731781156
 31
0.0
  0
LINE
  5
173
330
1F
100
AcDbEntity
  8
0
  6
HIDDEN
 62
     7
370
     0
100
AcDbLine
 10
154.2213349602
 20
130.5731781156
 30
0.0
 11
154.4213349602
 21
130.3934401392
 31
0.0
  0
LINE
  5
174
330
1F
100
AcDbEntity
  8
0
  6
HIDDEN
 62
     7
370
     0
100
AcDbLine
 10
159.0213349602
 20
130.3934401392
 30
0.0
 11
159.2213349602
 21
130.5731781156
 31
0.0
  0
LINE
  5
175
330
1F
100
AcDbEntity
  8
0
  6
HIDDEN
 62
     7
370
     0
100
AcDbLine
 10
159.2213349602
 20
133.0131781156
 30
0.0
 11
158.7017197179
 21
133.3131781156
 31
0.0
  0
LINE
  5
176
330
1F
100
AcDbEntity
  8
0
  6
HIDDEN
 62
     7
370
     0
100
AcDbLine
 10
154.7409502025
 20
133.3131781156
 30
0.0
 11
154.2213349602
 21
133.0131781156
 31
0.0
  0
LINE
  5
177
330
1F
100
AcDbEntity
  8
0
  6
HIDDEN
 62
     7
370
     0
100
AcDbLine
 10
154.2213349602
 20
133.0131781156
 30
0.0
 11
154.2213349602
 21
131.2631781156
 31
0.0
  0
LINE
  5
178
330
1F
100
AcDbEntity
  8
0
  6
HIDDEN
 62
     7
370
     0
100
AcDbLine
 10
159.2213349602
 20
131.2631781156
 30
0.0
 11
159.2213349602
 21
133.0131781156
 31
0.0
  0
LINE
  5
179
330
1F
100
AcDbEntity
  8
0
  6
HIDDEN
 62
     7
370
     0
100
AcDbLine
 10
154.2213349602
 20
131.2631781156
 30
0.0
 11
154.4213349602
 21
131.0834401392
 31
0.0
  0
LINE
  5
17A
330
1F
100
AcDbEntity
  8
0
  6
HIDDEN
 62
     7
370
     0
100
AcDbLine
 10
159.0213349602
 20
131.0834401392
 30
0.0
 11
159.2213349602
 21
131.2631781156
 31
0.0
  0
LINE
  5
17B
330
1F
100
AcDbEntity
  8
0
  6
HIDDEN
 62
     7
370
     0
100
AcDbLine
 10
159.2213349602
 20
128.5031781156
 30
0.0
 11
159.0213349602
 21
129.0134401392
 31
0.0
  0
LINE
  5
17C
330
1F
100
AcDbEntity
  8
0
  6
HIDDEN
 62
     7
370
     0
100
AcDbLine
 10
154.4213349602
 20
129.0134401392
 30
0.0
 11
154.2213349602
 21
128.5031781156
 31
0.0
  0
LINE
  5
17D
330
1F
100
AcDbEntity
  8
0
  6
HIDDEN
 62
     7
370
     0
100
AcDbLine
 10
154.2213349602
 20
128.5031781156
 30
0.0
 11
154.2213349602
 21
127.9531781156
 31
0.0
  0
LINE
  5
17E
330
1F
100
AcDbEntity
  8
0
  6
HIDDEN
 62
     7
370
     0
100
AcDbLine
 10
159.2213349602
 20
127.9531781156
 30
0.0
 11
159.2213349602
 21
128.5031781156
 31
0.0
  0
LINE
  5
17F
330
1F
100
AcDbEntity
  8
0
  6
HIDDEN
 62
     7
370
     0
100
AcDbLine
 10
159.2213349602
 20
129.8831781156
 30
0.0
 11
159.0213349602
 21
130.3934401392
 31
0.0
  0
LINE
  5
180
330
1F
100
AcDbEntity
  8
0
  6
HIDDEN
 62
     7
370
     0
100
AcDbLine
 10
154.4213349602
 20
130.3934401392
 30
0.0
 11
154.2213349602
 21
129.8831781156
 31
0.0
  0
LINE
  5
181
330
1F
100
AcDbEntity
  8
0
  6
HIDDEN
 62
     7
370
     0
100
AcDbLine
 10
154.2213349602
 20
129.8831781156
 30
0.0
 11
154.4213349602
 21
129.7034401392
 31
0.0
  0
LINE
  5
182
330
1F
100
AcDbEntity
  8
0
  6
HIDDEN
 62
     7
370
     0
100
AcDbLine
 10
159.0213349602
 20
129.7034401392
 30
0.0
 11
159.2213349602
 21
129.8831781156
 31
0.0
  0
LINE
  5
183
330
1F
100
AcDbEntity
  8
0
  6
HIDDEN
 62
     7
370
     0
100
AcDbLine
 10
159.2213349602
 20
129.1931781156
 30
0.0
 11
159.0213349602
 21
129.7034401392
 31
0.0
  0
LINE
  5
184
330
1F
100
AcDbEntity
  8
0
  6
HIDDEN
 62
     7
370
     0
100
AcDbLine
 10
154.4213349602
 20
129.7034401392
 30
0.0
 11
154.2213349602
 21
129.1931781156
 31
0.0
  0
LINE
  5
185
330
1F
100
AcDbEntity
  8
0
  6
HIDDEN
 62
     7
370
     0
100
AcDbLine
 10
154.2213349602
 20
129.1931781156
 30
0.0
 11
154.4213349602
 21
129.0134401392
 31
0.0
  0
LINE
  5
186
330
1F
100
AcDbEntity
  8
0
  6
HIDDEN
 62
     7
370
     0
100
AcDbLine
 10
159.0213349602
 20
129.0134401392
 30
0.0
 11
159.2213349602
 21
129.1931781156
 31
0.0
  0
LINE
  5
187
330
1F
100
AcDbEntity
  8
0
  6
HIDDEN
 62
     7
370
     0
100
AcDbLine
 10
154.2213349602
 20
127.9531781156
 30
0.0
 11
154.3613349602
 21
127.8131781156
 31
0.0
  0
LINE
  5
188
330
1F
100
AcDbEntity
  8
0
  6
HIDDEN
 62
     7
370
     0
100
AcDbLine
 10
159.0813349602
 20
127.8131781156
 30
0.0
 11
159.2213349602
 21
127.9531781156
 31
0.0
  0
LINE
  5
189
330
1F
100
AcDbEntity
  8
0
  6
HIDDEN
 62
     7
370
     0
100
AcDbLine
 10
158.7213349602
 20
131.9584775772
 30
0.0
 11
156.7213349602
 21
133.1131781156
 31
0.0
  0
LINE
  5
18A
330
1F
100
AcDbEntity
  8
0
  6
HIDDEN
 62
     7
370
     0
100
AcDbLine
 10
156.7213349602
 20
133.1131781156
 30
0.0
 11
154.7213349602
 21
131.9584775772
 31
0.0
  0
LINE
  5
18B
330
1F
100
AcDbEntity
  8
0
  6
HIDDEN
 62
     7
370
     0
100
AcDbLine
 10
154.7213349602
 20
131.9584775772
 30
0.0
 11
154.7213349602
 21
127.8131781156
 31
0.0
  0
LINE
  5
18C
330
1F
100
AcDbEntity
  8
0
  6
HIDDEN
 62
     7
370
     0
100
AcDbLine
 10
158.7213349602
 20
127.8131781156
 30
0.0
 11
158.7213349602
 21
131.9584775772
 31
0.0
  0
CIRCLE
  5
18D
330
1F
100
AcDbEntity
  8
0
  6
HIDDEN
 62
     7
370
     0
100
AcDbCircle
 10
156.7213349602
 20
130.2131781156
 30
0.0
 40
2.0
  0
LINE
  5
18E
330
1F
100
AcDbEntity
  8
0
  6
HIDDEN
 62
     7
370
     0
100
AcDbLine
 10
121.7213349602
 20
127.3059774305
 30
0.0
 11
121.8154957357
 21
127.9759661618
 31
0.0
  0
LINE
  5
18F
330
1F
100
AcDbEntity
  8
0
  6
HIDDEN
 62
     7
370
     0
100
AcDbLine
 10
121.8154957357
 20
159.0503900694
 30
0.0
 11
121.7213349602
 21
159.7203788007
 31
0.0
  0
ARC
  5
190
330
1F
100
AcDbEntity
  8
0
  6
HIDDEN
 62
     7
370
     0
100
AcDbCircle
 10
121.2213282075
 20
128.0594709621
 30
0.0
 40
0.6000067526677242
100
AcDbArc
 50
352.0
 51
0.0
  0
ARC
  5
191
330
1F
100
AcDbEntity
  8
0
  6
HIDDEN
 62
     7
370
     0
100
AcDbCircle
 10
121.2213282075
 20
128.0594709621
 30
0.0
 40
0.6000067526677242
100
AcDbArc
 50
0.0
 51
33.5571153394
  0
ARC
  5
192
330
1F
100
AcDbEntity
  8
0
  6
HIDDEN
 62
     7
370
     0
100
AcDbCircle
 10
121.2213282075
 20
158.9668852691
 30
0.0
 40
0.6000067526677308
100
AcDbArc
 50
348.75
 51
8.0
  0
LWPOLYLINE
  5
193
330
1F
100
AcDbEntity
  8
0
  6
HIDDEN
 62
     7
370
     0
100
AcDbPolyline
 90
        3
 70
   128
 43
0.0
 10
121.8098059987
 20
158.8498297585
 10
121.7756621657
 20
158.7372726255
 10
121.7213349602
 20
158.635220754
  0
LINE
  5
194
330
1F
100
AcDbEntity
  8
0
  6
HIDDEN
 62
     7
370
     0
100
AcDbLine
 10
121.8213349602
 20
128.0594709621
 30
0.0
 11
121.8213349602
 21
158.9668852691
 31
0.0
  0
ARC
  5
195
330
1F
100
AcDbEntity
  8
0
  6
HIDDEN
 62
     7
370
     0
100
AcDbCircle
 10
117.5455116881
 20
135.7631781156
 30
0.0
 40
5.000000000000014
100
AcDbArc
 50
270.0
 51
326.6329870308
  0
ARC
  5
196
330
1F
100
AcDbEntity
  8
0
  6
HIDDEN
 62
     7
370
     0
100
AcDbCircle
 10
117.5455116881
 20
151.2631781156
 30
0.0
 40
4.999999999999998
100
AcDbArc
 50
33.3670129692
 51
90.0
  0
ARC
  5
197
330
1F
100
AcDbEntity
  8
0
  6
HIDDEN
 62
     7
370
     0
100
AcDbCircle
 10
111.2539629043
 20
131.1631781156
 30
0.0
 40
0.4000000000000341
100
AcDbArc
 50
210.0
 51
270.0
  0
ARC
  5
198
330
1F
100
AcDbEntity
  8
0
  6
HIDDEN
 62
     7
370
     0
100
AcDbCircle
 10
111.2539629043
 20
155.8631781156
 30
0.0
 40
0.4000000000000069
100
AcDbArc
 50
90.0
 51
150.0
  0
LINE
  5
199
330
1F
100
AcDbEntity
  8
0
  6
HIDDEN
 62
     7
370
     0
100
AcDbLine
 10
111.2539629043
 20
130.7631781156
 30
0.0
 11
117.5455116881
 21
130.7631781156
 31
0.0
  0
LINE
  5
19A
330
1F
100
AcDbEntity
  8
0
  6
HIDDEN
 62
     7
370
     0
100
AcDbLine
 10
117.5455116881
 20
156.2631781156
 30
0.0
 11
111.2539629043
 21
156.2631781156
 31
0.0
  0
LINE
  5
19B
330
1F
100
AcDbEntity
  8
0
  6
HIDDEN
 62
     7
370
     0
100
AcDbLine
 10
110.9075527428
 20
156.0631781156
 30
0.0
 11
109.723984691
 21
154.0131781156
 31
0.0
  0
LINE
  5
19C
330
1F
100
AcDbEntity
  8
0
  6
HIDDEN
 62
     7
370
     0
100
AcDbLine
 10
109.723984691
 20
133.0131781156
 30
0.0
 11
110.9075527428
 21
130.9631781156
 31
0.0
  0
ARC
  5
19D
330
1F
100
AcDbEntity
  8
0
  6
HIDDEN
 62
     7
370
     0
100
AcDbCircle
 10
128.6713349602
 20
133.6381781156
 30
0.0
 40
1.000000000000017
100
AcDbArc
 50
218.6821874535
 51
0.0
  0
ARC
  5
19E
330
1F
100
AcDbEntity
  8
0
  6
HIDDEN
 62
     7
370
     0
100
AcDbCircle
 10
128.6713349602
 20
153.3881781156
 30
0.0
 40
1.0
100
AcDbArc
 50
0.0
 51
141.3178125465
  0
LINE
  5
19F
330
1F
100
AcDbEntity
  8
0
  6
HIDDEN
 62
     7
370
     0
100
AcDbLine
 10
102.7713349602
 20
133.0131781156
 30
0.0
 11
109.723984691
 21
133.0131781156
 31
0.0
  0
LINE
  5
1A0
330
1F
100
AcDbEntity
  8
0
  6
HIDDEN
 62
     7
370
     0
100
AcDbLine
 10
109.723984691
 20
154.0131781156
 30
0.0
 11
102.7713349602
 21
154.0131781156
 31
0.0
  0
LINE
  5
1A1
330
1F
100
AcDbEntity
  8
0
  6
HIDDEN
 62
     7
370
     0
100
AcDbLine
 10
121.7213349602
 20
133.0131781156
 30
0.0
 11
127.8907102104
 21
133.0131781156
 31
0.0
  0
LINE
  5
1A2
330
1F
100
AcDbEntity
  8
0
  6
HIDDEN
 62
     7
370
     0
100
AcDbLine
 10
127.8907102104
 20
154.0131781156
 30
0.0
 11
121.7213349602
 21
154.0131781156
 31
0.0
  0
LINE
  5
1A3
330
1F
100
AcDbEntity
  8
0
  6
HIDDEN
 62
     7
370
     0
100
AcDbLine
 10
102.7713349602
 20
154.0131781156
 30
0.0
 11
101.8213349602
 21
154.5616608713
 31
0.0
  0
LINE
  5
1A4
330
1F
100
AcDbEntity
  8
0
  6
HIDDEN
 62
     7
370
     0
100
AcDbLine
 10
101.8213349602
 20
132.4646953599
 30
0.0
 11
102.7713349602
 21
133.0131781156
 31
0.0
  0
LINE
  5
1A5
330
1F
100
AcDbEntity
  8
0
  6
HIDDEN
 62
     7
370
     0
100
AcDbLine
 10
135.0213349602
 20
137.2631781156
 30
0.0
 11
137.5213349602
 21
137.2631781156
 31
0.0
  0
LINE
  5
1A6
330
1F
100
AcDbEntity
  8
0
  6
HIDDEN
 62
     7
370
     0
100
AcDbLine
 10
137.5213349602
 20
149.7631781156
 30
0.0
 11
135.0213349602
 21
149.7631781156
 31
0.0
  0
LINE
  5
1A7
330
1F
100
AcDbEntity
  8
0
  6
HIDDEN
 62
     7
370
     0
100
AcDbLine
 10
129.6713349602
 20
137.5131781156
 30
0.0
 11
130.1713349602
 21
138.0131781156
 31
0.0
  0
LINE
  5
1A8
330
1F
100
AcDbEntity
  8
0
  6
HIDDEN
 62
     7
370
     0
100
AcDbLine
 10
130.1713349602
 20
149.0131781156
 30
0.0
 11
129.6713349602
 21
149.5131781156
 31
0.0
  0
LINE
  5
1A9
330
1F
100
AcDbEntity
  8
0
  6
HIDDEN
 62
     7
370
     0
100
AcDbLine
 10
130.1713349602
 20
138.0131781156
 30
0.0
 11
134.1713349602
 21
138.0131781156
 31
0.0
  0
LINE
  5
1AA
330
1F
100
AcDbEntity
  8
0
  6
HIDDEN
 62
     7
370
     0
100
AcDbLine
 10
134.1713349602
 20
149.0131781156
 30
0.0
 11
130.1713349602
 21
149.0131781156
 31
0.0
  0
LINE
  5
1AB
330
1F
100
AcDbEntity
  8
0
  6
HIDDEN
 62
     7
370
     0
100
AcDbLine
 10
123.7213349602
 20
128.5131781156
 30
0.0
 11
123.7213349602
 21
123.5131781156
 31
0.0
  0
LINE
  5
1AC
330
1F
100
AcDbEntity
  8
0
  6
HIDDEN
 62
     7
370
     0
100
AcDbLine
 10
133.7213349602
 20
123.5131781156
 30
0.0
 11
133.7213349602
 21
128.5131781156
 31
0.0
  0
ARC
  5
1AD
330
1F
100
AcDbEntity
  8
0
  6
HIDDEN
 62
     7
370
     0
100
AcDbCircle
 10
124.0213349602
 20
128.5131781156
 30
0.0
 40
0.3000000000000398
100
AcDbArc
 50
90.0
 51
180.0
  0
ARC
  5
1AE
330
1F
100
AcDbEntity
  8
0
  6
HIDDEN
 62
     7
370
     0
100
AcDbCircle
 10
133.4213349602
 20
128.5131781156
 30
0.0
 40
0.3000000000000398
100
AcDbArc
 50
0.0
 51
90.0
  0
LINE
  5
1AF
330
1F
100
AcDbEntity
  8
0
  6
HIDDEN
 62
     7
370
     0
100
AcDbLine
 10
188.9519774903
 20
138.7531781156
 30
0.0
 11
189.8519774903
 21
137.8531781156
 31
0.0
  0
LINE
  5
1B0
330
1F
100
AcDbEntity
  8
0
  6
HIDDEN
 62
     7
370
     0
100
AcDbLine
 10
194.0519774903
 20
137.8531781156
 30
0.0
 11
194.9519774903
 21
138.7531781156
 31
0.0
  0
LINE
  5
1B1
330
1F
100
AcDbEntity
  8
0
  6
HIDDEN
 62
     7
370
     0
100
AcDbLine
 10
159.2213349602
 20
133.0131781156
 30
0.0
 11
158.8213349602
 21
133.1587662093
 31
0.0
  0
LINE
  5
1B2
330
1F
100
AcDbEntity
  8
0
  6
HIDDEN
 62
     7
370
     0
100
AcDbLine
 10
154.6213349602
 20
133.1587662093
 30
0.0
 11
154.2213349602
 21
133.0131781156
 31
0.0
  0
LINE
  5
1B3
330
1F
100
AcDbEntity
  8
0
  6
HIDDEN
 62
     7
370
     0
100
AcDbLine
 10
154.2213349602
 20
133.0131781156
 30
0.0
 11
154.2213349602
 21
127.0131781156
 31
0.0
  0
LINE
  5
1B4
330
1F
100
AcDbEntity
  8
0
  6
HIDDEN
 62
     7
370
     0
100
AcDbLine
 10
159.2213349602
 20
127.0131781156
 30
0.0
 11
159.2213349602
 21
133.0131781156
 31
0.0
  0
LINE
  5
1B5
330
1F
100
AcDbEntity
  8
0
  6
HIDDEN
 62
     7
370
     0
100
AcDbLine
 10
158.8181083081
 20
141.0131781156
 30
0.0
 11
159.8213349602
 21
141.0131781156
 31
0.0
  0
LINE
  5
1B6
330
1F
100
AcDbEntity
  8
0
  6
HIDDEN
 62
     7
370
     0
100
AcDbLine
 10
137.5213349602
 20
141.0131781156
 30
0.0
 11
154.6213349602
 21
141.0131781156
 31
0.0
  0
LINE
  5
1B7
330
1F
100
AcDbEntity
  8
0
  6
HIDDEN
 62
     7
370
     0
100
AcDbLine
 10
154.6213349602
 20
146.0131781156
 30
0.0
 11
137.5213349602
 21
146.0131781156
 31
0.0
  0
LINE
  5
1B8
330
1F
100
AcDbEntity
  8
0
  6
HIDDEN
 62
     7
370
     0
100
AcDbLine
 10
159.8213349602
 20
146.0131781156
 30
0.0
 11
158.8199917656
 21
146.0131781156
 31
0.0
  0
LINE
  5
1B9
330
1F
100
AcDbEntity
  8
0
  6
HIDDEN
 62
     7
370
     0
100
AcDbLine
 10
159.8213349602
 20
141.0131781156
 30
0.0
 11
161.3234865078
 21
143.5131781156
 31
0.0
  0
LINE
  5
1BA
330
1F
100
AcDbEntity
  8
0
  6
HIDDEN
 62
     7
370
     0
100
AcDbLine
 10
161.3234865078
 20
143.5131781156
 30
0.0
 11
159.8213349602
 21
146.0131781156
 31
0.0
  0
LINE
  5
1BB
330
1F
100
AcDbEntity
  8
0
  6
HIDDEN
 62
     7
370
     0
100
AcDbLine
 10
189.8519774903
 20
137.8531781156
 30
0.0
 11
189.8519774903
 21
127.0131781156
 31
0.0
  0
LINE
  5
1BC
330
1F
100
AcDbEntity
  8
0
  6
HIDDEN
 62
     7
370
     0
100
AcDbLine
 10
194.0519774903
 20
127.0131781156
 30
0.0
 11
194.0519774903
 21
137.8531781156
 31
0.0
  0
LINE
  5
1BD
330
1F
100
AcDbEntity
  8
0
  6
HIDDEN
 62
     7
370
     0
100
AcDbLine
 10
154.6213349602
 20
155.0131781156
 30
0.0
 11
154.6213349602
 21
146.0131781156
 31
0.0
  0
LINE
  5
1BE
330
1F
100
AcDbEntity
  8
0
  6
HIDDEN
 62
     7
370
     0
100
AcDbLine
 10
158.8213349602
 20
154.7787698605
 30
0.0
 11
158.8213349602
 21
155.0131781156
 31
0.0
  0
LINE
  5
1BF
330
1F
100
AcDbEntity
  8
0
  6
HIDDEN
 62
     7
370
     0
100
AcDbLine
 10
158.8213349602
 20
146.0120501052
 30
0.0
 11
158.8213349602
 21
150.484939362
 31
0.0
  0
LINE
  5
1C0
330
1F
100
AcDbEntity
  8
0
  6
HIDDEN
 62
     7
370
     0
100
AcDbLine
 10
158.8213349602
 20
155.0131781156
 30
0.0
 11
156.7213349602
 21
155.7775156075
 31
0.0
  0
LINE
  5
1C1
330
1F
100
AcDbEntity
  8
0
  6
HIDDEN
 62
     7
370
     0
100
AcDbLine
 10
156.7213349602
 20
155.7775156075
 30
0.0
 11
154.6213349602
 21
155.0131781156
 31
0.0
  0
LINE
  5
1C2
330
1F
100
AcDbEntity
  8
0
  6
HIDDEN
 62
     7
370
     0
100
AcDbLine
 10
154.6213349602
 20
141.0131781156
 30
0.0
 11
154.6213349602
 21
133.1587662093
 31
0.0
  0
LINE
  5
1C3
330
1F
100
AcDbEntity
  8
0
  6
HIDDEN
 62
     7
370
     0
100
AcDbLine
 10
158.8213349602
 20
133.1587662093
 30
0.0
 11
158.8213349602
 21
141.0158831376
 31
0.0
  0
LINE
  5
1C4
330
1F
100
AcDbEntity
  8
0
  6
HIDDEN
 62
     7
370
     0
100
AcDbLine
 10
158.8213349602
 20
150.484939362
 30
0.0
 11
165.1323099417
 21
149.1435002192
 31
0.0
  0
LINE
  5
1C5
330
1F
100
AcDbEntity
  8
0
  6
HIDDEN
 62
     7
370
     0
100
AcDbLine
 10
163.9122964402
 20
153.6966525927
 30
0.0
 11
158.8213349602
 21
154.7787698605
 31
0.0
  0
LINE
  5
1C6
330
1F
100
AcDbEntity
  8
0
  6
HIDDEN
 62
     7
370
     0
100
AcDbLine
 10
181.6416557167
 20
138.7131781156
 30
0.0
 11
183.7416557167
 21
137.4513708156
 31
0.0
  0
LINE
  5
1C7
330
1F
100
AcDbEntity
  8
0
  6
HIDDEN
 62
     7
370
     0
100
AcDbLine
 10
183.7416557167
 20
137.4513708156
 30
0.0
 11
185.8416557167
 21
138.7131781156
 31
0.0
  0
LINE
  5
1C8
330
1F
100
AcDbEntity
  8
0
  6
HIDDEN
 62
     7
370
     0
100
AcDbLine
 10
181.6416557167
 20
143.2131781156
 30
0.0
 11
181.6416557167
 21
138.7131781156
 31
0.0
  0
LINE
  5
1C9
330
1F
100
AcDbEntity
  8
0
  6
HIDDEN
 62
     7
370
     0
100
AcDbLine
 10
185.8416557167
 20
138.7131781156
 30
0.0
 11
185.8416557167
 21
138.7531781156
 31
0.0
  0
LINE
  5
1CA
330
1F
100
AcDbEntity
  8
0
  6
HIDDEN
 62
     7
370
     0
100
AcDbLine
 10
195.4519774903
 20
143.0131781156
 30
0.0
 11
194.5859520865
 21
143.5131781156
 31
0.0
  0
LINE
  5
1CB
330
1F
100
AcDbEntity
  8
0
  6
HIDDEN
 62
     7
370
     0
100
AcDbLine
 10
189.3180028941
 20
143.5131781156
 30
0.0
 11
188.4519774903
 21
143.0131781156
 31
0.0
  0
LINE
  5
1CC
330
1F
100
AcDbEntity
  8
0
  6
HIDDEN
 62
     7
370
     0
100
AcDbLine
 10
188.4519774903
 20
142.8131781156
 30
0.0
 11
189.471884578
 21
141.0466472208
 31
0.0
  0
LINE
  5
1CD
330
1F
100
AcDbEntity
  8
0
  6
HIDDEN
 62
     7
370
     0
100
AcDbLine
 10
194.4320704026
 20
141.0466472208
 30
0.0
 11
195.4519774903
 21
142.8131781156
 31
0.0
  0
LINE
  5
1CE
330
1F
100
AcDbEntity
  8
0
  6
HIDDEN
 62
     7
370
     0
100
AcDbLine
 10
188.4519774903
 20
143.0131781156
 30
0.0
 11
188.4519774903
 21
142.8131781156
 31
0.0
  0
LINE
  5
1CF
330
1F
100
AcDbEntity
  8
0
  6
HIDDEN
 62
     7
370
     0
100
AcDbLine
 10
195.4519774903
 20
142.8131781156
 30
0.0
 11
195.4519774903
 21
143.0131781156
 31
0.0
  0
LINE
  5
1D0
330
1F
100
AcDbEntity
  8
0
  6
HIDDEN
 62
     7
370
     0
100
AcDbLine
 10
189.4519774903
 20
134.2131781156
 30
0.0
 11
190.3519774903
 21
133.3131781156
 31
0.0
  0
LINE
  5
1D1
330
1F
100
AcDbEntity
  8
0
  6
HIDDEN
 62
     7
370
     0
100
AcDbLine
 10
193.5519774903
 20
133.3131781156
 30
0.0
 11
194.4519774903
 21
134.2131781156
 31
0.0
  0
LINE
  5
1D2
330
1F
100
AcDbEntity
  8
0
  6
HIDDEN
 62
     7
370
     0
100
AcDbLine
 10
189.4519774903
 20
139.5131781156
 30
0.0
 11
189.4519774903
 21
134.2131781156
 31
0.0
  0
LINE
  5
1D3
330
1F
100
AcDbEntity
  8
0
  6
HIDDEN
 62
     7
370
     0
100
AcDbLine
 10
194.4519774903
 20
134.2131781156
 30
0.0
 11
194.4519774903
 21
139.5131781156
 31
0.0
  0
ARC
  5
1D4
330
1F
100
AcDbEntity
  8
0
  6
HIDDEN
 62
     7
370
     0
100
AcDbCircle
 10
188.1728464723
 20
140.2966472208
 30
0.0
 40
1.500000000000025
100
AcDbArc
 50
328.5124864464
 51
30.0
  0
ARC
  5
1D5
330
1F
100
AcDbEntity
  8
0
  6
HIDDEN
 62
     7
370
     0
100
AcDbCircle
 10
195.7311085083
 20
140.2966472208
 30
0.0
 40
1.500000000000014
100
AcDbArc
 50
150.0
 51
211.4875135536
  0
LINE
  5
1D6
330
1F
100
AcDbEntity
  8
0
  6
HIDDEN
 62
     7
370
     0
100
AcDbLine
 10
189.9519774903
 20
143.5131781156
 30
0.0
 11
189.9793726535
 21
143.5083476092
 31
0.0
  0
LINE
  5
1D7
330
1F
100
AcDbEntity
  8
0
  6
HIDDEN
 62
     7
370
     0
100
AcDbLine
 10
193.9164484999
 20
143.506913396
 30
0.0
 11
193.9519774903
 21
143.5131781156
 31
0.0
  0
LINE
  5
1D8
330
1F
100
AcDbEntity
  8
0
  6
HIDDEN
 62
     7
370
     0
100
AcDbLine
 10
193.1078664856
 20
141.8131781156
 30
0.0
 11
193.1078664856
 21
143.4780441229
 31
0.0
  0
LINE
  5
1D9
330
1F
100
AcDbEntity
  8
0
  6
HIDDEN
 62
     7
370
     0
100
AcDbLine
 10
190.7415794019
 20
143.4806170171
 30
0.0
 11
190.7415794019
 21
141.8131781156
 31
0.0
  0
LINE
  5
1DA
330
1F
100
AcDbEntity
  8
0
  6
HIDDEN
 62
     7
370
     0
100
AcDbLine
 10
193.067331501
 20
143.4357425299
 30
0.0
 11
193.067331501
 21
141.8131781156
 31
0.0
  0
LINE
  5
1DB
330
1F
100
AcDbEntity
  8
0
  6
HIDDEN
 62
     7
370
     0
100
AcDbLine
 10
190.7933947585
 20
141.8131781156
 30
0.0
 11
190.7933947585
 21
143.4331248116
 31
0.0
  0
LINE
  5
1DC
330
1F
100
AcDbEntity
  8
0
  6
HIDDEN
 62
     7
370
     0
100
AcDbLine
 10
193.9216933562
 20
141.8131781156
 30
0.0
 11
193.9216933562
 21
143.5078883062
 31
0.0
  0
LINE
  5
1DD
330
1F
100
AcDbEntity
  8
0
  6
HIDDEN
 62
     7
370
     0
100
AcDbLine
 10
189.9771191887
 20
143.5087858459
 30
0.0
 11
189.9771191887
 21
141.8131781156
 31
0.0
  0
LINE
  5
1DE
330
1F
100
AcDbEntity
  8
0
  6
HIDDEN
 62
     7
370
     0
100
AcDbLine
 10
193.1054177863
 20
143.4321127473
 30
0.0
 11
193.1054177863
 21
141.8131781156
 31
0.0
  0
LINE
  5
1DF
330
1F
100
AcDbEntity
  8
0
  6
HIDDEN
 62
     7
370
     0
100
AcDbLine
 10
190.8314810439
 20
141.8131781156
 30
0.0
 11
190.8314810439
 21
143.4360438436
 31
0.0
  0
LINE
  5
1E0
330
1F
100
AcDbEntity
  8
0
  6
HIDDEN
 62
     7
370
     0
100
AcDbLine
 10
193.157233143
 20
141.8131781156
 30
0.0
 11
193.157233143
 21
143.4796389049
 31
0.0
  0
LINE
  5
1E1
330
1F
100
AcDbEntity
  8
0
  6
HIDDEN
 62
     7
370
     0
100
AcDbLine
 10
190.7909460592
 20
143.4783707837
 30
0.0
 11
190.7909460592
 21
141.8131781156
 31
0.0
  0
SPLINE
  5
1E2
330
1F
100
AcDbEntity
  8
0
  6
HIDDEN
 62
     7
370
     0
100
AcDbSpline
210
0.0
220
0.0
230
1.0
 70
     8
 71
     3
 72
    11
 73
     7
 74
     0
 42
0.00000001
 43
0.00000001
 12
1.0
 22
0.0
 32
0.0
 13
1.0
 23
0.0
 33
0.0
 40
0.0
 40
0.0
 40
0.0
 40
0.0
 40
0.1595039229349435
 40
0.5116619344133566
 40
0.8945955776726787
 40
0.9999999999999999
 40
0.9999999999999999
 40
0.9999999999999999
 40
0.9999999999999999
 10
190.7914382664809
 20
143.031603290762
 30
0.0
 10
190.8481578310099
 20
143.0317255922832
 30
0.0
 10
191.0301047171555
 20
143.0321179151288
 30
0.0
 10
191.4113510200314
 20
142.9891134937592
 30
0.0
 10
191.7829408031836
 20
142.9333125008568
 30
0.0
 10
192.0120256019451
 20
142.8787655776503
 30
0.0
 10
192.0614719846439
 20
142.866991998371
 30
0.0
  0
SPLINE
  5
1E3
330
1F
100
AcDbEntity
  8
0
  6
HIDDEN
 62
     7
370
     0
100
AcDbSpline
210
0.0
220
0.0
230
1.0
 70
     8
 71
     3
 72
    11
 73
     7
 74
     0
 42
0.00000001
 43
0.00000001
 12
1.0
 22
0.0
 32
0.0
 13
1.0
 23
0.0
 33
0.0
 40
0.0
 40
0.0
 40
0.0
 40
0.0
 40
0.0877345529326679
 40
0.5135680935288827
 40
0.8653077214723011
 40
1.0
 40
1.0
 40
1.0
 40
1.0
 10
192.0681524540377
 20
142.8671211350301
 30
0.0
 10
192.1093909007453
 20
142.8771169036396
 30
0.0
 10
192.3507866763866
 20
142.9356287174749
 30
0.0
 10
192.7324981144503
 20
142.9911429090378
 30
0.0
 10
193.1199368830496
 20
143.0335386482082
 30
0.0
 10
193.2909641347167
 20
143.0321116656369
 30
0.0
 10
193.3383213288294
 20
143.0317165362644
 30
0.0
  0
LINE
  5
1E4
330
1F
100
AcDbEntity
  8
0
  6
HIDDEN
 62
     7
370
     0
100
AcDbLine
 10
185.5986426275
 20
143.0441182234
 30
0.0
 11
190.779202971
 21
143.0441182234
 31
0.0
  0
LINE
  5
1E5
330
1F
100
AcDbEntity
  8
0
  6
HIDDEN
 62
     7
370
     0
100
AcDbLine
 10
193.3503534097
 20
143.0441182234
 30
0.0
 11
198.5309137532
 21
143.0441182234
 31
0.0
  0
LINE
  5
1E6
330
1F
100
AcDbEntity
  8
0
  6
HIDDEN
 62
     7
370
     0
100
AcDbLine
 10
188.2647781904
 20
143.5131781156
 30
0.0
 11
188.2647781904
 21
142.3631781158
 31
0.0
  0
LINE
  5
1E7
330
1F
100
AcDbEntity
  8
0
  6
HIDDEN
 62
     7
370
     0
100
AcDbLine
 10
195.8647781904
 20
142.3631781158
 30
0.0
 11
195.8647781904
 21
143.5131781156
 31
0.0
  0
ARC
  5
1E8
330
1F
100
AcDbEntity
  8
0
  6
HIDDEN
 62
     7
370
     0
100
AcDbCircle
 10
188.4647781904
 20
142.3631781158
 30
0.0
 40
0.2000000000000119
100
AcDbArc
 50
180.0
 51
249.8944902121
  0
ARC
  5
1E9
330
1F
100
AcDbEntity
  8
0
  6
HIDDEN
 62
     7
370
     0
100
AcDbCircle
 10
195.6647781904
 20
142.3631781158
 30
0.0
 40
0.2000000000000314
100
AcDbArc
 50
290.1055097879
 51
0.0
  0
ARC
  5
1EA
330
1F
100
AcDbEntity
  8
0
  6
HIDDEN
 62
     7
370
     0
100
AcDbCircle
 10
187.9147781904
 20
140.8606801956
 30
0.0
 40
1.400000000000006
100
AcDbArc
 50
0.0
 51
69.8944902121
  0
ARC
  5
1EB
330
1F
100
AcDbEntity
  8
0
  6
HIDDEN
 62
     7
370
     0
100
AcDbCircle
 10
196.2147781904
 20
140.8606801956
 30
0.0
 40
1.400000000000034
100
AcDbArc
 50
110.1055097879
 51
180.0
  0
LINE
  5
1EC
330
1F
100
AcDbEntity
  8
0
  6
HIDDEN
 62
     7
370
     0
100
AcDbLine
 10
189.3147781904
 20
140.8606801956
 30
0.0
 11
189.3147781904
 21
138.7531781156
 31
0.0
  0
LINE
  5
1ED
330
1F
100
AcDbEntity
  8
0
  6
HIDDEN
 62
     7
370
     0
100
AcDbLine
 10
194.8147781904
 20
138.7531781156
 30
0.0
 11
194.8147781904
 21
140.8606801956
 31
0.0
  0
SPLINE
  5
1EE
330
1F
100
AcDbEntity
  8
0
  6
HIDDEN
 62
     7
370
     0
100
AcDbSpline
210
0.0
220
0.0
230
1.0
 70
     8
 71
     3
 72
    11
 73
     7
 74
     0
 42
0.00000001
 43
0.00000001
 12
1.0
 22
0.0
 32
0.0
 13
1.0
 23
0.0
 33
0.0
 40
0.0
 40
0.0
 40
0.0
 40
0.0
 40
0.1627566387541677
 40
0.5337837509936869
 40
0.8911953082382073
 40
0.9999999999999999
 40
0.9999999999999999
 40
0.9999999999999999
 40
0.9999999999999999
 10
184.8322846720304
 20
142.8909545707305
 30
0.0
 10
184.8528477702952
 20
142.9022669731783
 30
0.0
 10
184.9202874016852
 20
142.9393676202401
 30
0.0
 10
185.1440409122657
 20
142.996207804772
 30
0.0
 10
185.3912223157234
 20
143.0353245956777
 30
0.0
 10
185.5755611251536
 20
143.0318066358445
 30
0.0
 10
185.6185817778711
 20
143.0309856208411
 30
0.0
  0
SPLINE
  5
1EF
330
1F
100
AcDbEntity
  8
0
  6
HIDDEN
 62
     7
370
     0
100
AcDbSpline
210
0.0
220
0.0
230
1.0
 70
     8
 71
     3
 72
    12
 73
     8
 74
     0
 42
0.00000001
 43
0.00000001
 12
1.0
 22
0.0
 32
0.0
 13
1.0
 23
0.0
 33
0.0
 40
0.0
 40
0.0
 40
0.0
 40
0.0
 40
0.0248155735306147
 40
0.3184445137019406
 40
0.616380898110942
 40
0.9248617914237665
 40
1.0
 40
1.0
 40
1.0
 40
1.0
 10
198.5296929327954
 20
143.0433236411678
 30
0.0
 10
198.5402881144905
 20
143.0435658772398
 30
0.0
 10
198.6762502141903
 20
143.0466743586152
 30
0.0
 10
198.8956527948589
 20
143.0259644717836
 30
0.0
 10
199.1393228334676
 20
142.9740081507839
 30
0.0
 10
199.273684522591
 20
142.922098987962
 30
0.0
 10
199.3163122751816
 20
142.8926713166817
 30
0.0
 10
199.3246616325246
 20
142.8869074157402
 30
0.0
  0
LINE
  5
1F0
330
1F
100
AcDbEntity
  8
0
  6
HIDDEN
 62
     7
370
     0
100
AcDbLine
 10
185.8842178469
 20
143.5131781158
 30
0.0
 11
184.7993321828
 21
142.8868190855
 31
0.0
  0
LINE
  5
1F1
330
1F
100
AcDbEntity
  8
0
  6
HIDDEN
 62
     7
370
     0
100
AcDbLine
 10
199.3302241979
 20
142.8868190855
 30
0.0
 11
198.2453385338
 21
143.5131781158
 31
0.0
  0
SPLINE
  5
1F2
330
1F
100
AcDbEntity
  8
0
  6
HIDDEN
 62
     7
370
     0
100
AcDbSpline
210
0.0
220
0.0
230
1.0
 70
     8
 71
     3
 72
     9
 73
     5
 74
     0
 42
0.00000001
 43
0.00000001
 12
1.0
 22
0.0
 32
0.0
 13
1.0
 23
0.0
 33
0.0
 40
0.0
 40
0.0
 40
0.0
 40
0.0
 40
0.8350687362569339
 40
1.0
 40
1.0
 40
1.0
 40
1.0
 10
184.8199526437801
 20
142.8859831137113
 30
0.0
 10
184.8315154838455
 20
142.8947409855419
 30
0.0
 10
184.8453620566645
 20
142.9052285914723
 30
0.0
 10
184.8781799258812
 20
142.914811485186
 30
0.0
 10
184.8835926185245
 20
142.9163920039566
 30
0.0
  0
LINE
  5
1F3
330
1F
100
AcDbEntity
  8
0
  6
HIDDEN
 62
     7
370
     0
100
AcDbLine
 10
185.5506957087
 20
143.0315678368
 30
0.0
 11
185.6174012205
 21
143.0324809775
 31
0.0
  0
LINE
  5
1F4
330
1F
100
AcDbEntity
  8
0
  6
HIDDEN
 62
     7
370
     0
100
AcDbLine
 10
198.5248870244
 20
143.040410292
 30
0.0
 11
198.6777105652
 21
143.0362025293
 31
0.0
  0
LINE
  5
1F5
330
1F
100
AcDbEntity
  8
0
  6
HIDDEN
 62
     7
370
     0
100
AcDbLine
 10
199.2726926636
 20
142.9142548765
 30
0.0
 11
199.3217218761
 21
142.8868645505
 31
0.0
  0
LINE
  5
1F6
330
1F
100
AcDbEntity
  8
0
  6
HIDDEN
 62
     7
370
     0
100
AcDbLine
 10
182.4450567888
 20
143.2131781156
 30
0.0
 11
182.8082214205
 21
140.2554395444
 31
0.0
  0
LINE
  5
1F7
330
1F
100
AcDbEntity
  8
0
  6
HIDDEN
 62
     7
370
     0
100
AcDbLine
 10
182.4282214205
 20
143.5131781158
 30
0.0
 11
182.8082214205
 21
143.2937850135
 31
0.0
  0
LINE
  5
1F8
330
1F
100
AcDbEntity
  8
0
  6
HIDDEN
 62
     7
370
     0
100
AcDbLine
 10
201.3213349602
 20
143.2937850135
 30
0.0
 11
201.7013349602
 21
143.5131781158
 31
0.0
  0
LINE
  5
1F9
330
1F
100
AcDbEntity
  8
VERMASSUNG
  6
CENTERX2
100
AcDbLine
 10
201.7213349602
 20
143.5131781156
 30
0.0
 11
103.2350385272
 21
143.5131781156
 31
0.0
  0
DIMENSION
  5
1FA
330
1F
100
AcDbEntity
  8
VERMASSUNG
100
AcDbDimension
  2
_D
 10
121.7213349602
 20
173.5131781156
 30
0.0
 11
161.7213349602
 21
173.5131781156
 31
0.0
 70
   160
  1
<>
 71
     2
 42
-1.0
  3
SLDDIMSTYLE0
100
AcDbAlignedDimension
 13
201.7213349602
 23
143.5131781156
 33
0.0
 14
121.7213349602
 24
163.2131781156
 34
0.0
100
AcDbRotatedDimension
  0
DIMENSION
  5
205
330
1F
100
AcDbEntity
  8
VERMASSUNG
100
AcDbDimension
  2
_D_1
 10
101.8213349602
 20
179.5131781156
 30
0.0
 11
151.7713349602
 21
179.5131781156
 31
0.0
 70
   160
  1
<>
 71
     2
 42
-1.0
  3
SLDDIMSTYLE0
100
AcDbAlignedDimension
 13
201.7213349602
 23
143.5131781156
 33
0.0
 14
101.8213349602
 24
156.9591617067
 34
0.0
100
AcDbRotatedDimension
  0
LINE
  5
20F
330
1F
100
AcDbEntity
  8
0
  6
Continuous
 62
     7
370
    15
100
AcDbLine
 10
122.0213349602
 20
60.5054950742
 30
0.0
 11
129.6713349602
 21
60.5054950742
 31
0.0
  0
LINE
  5
210
330
1F
100
AcDbEntity
  8
0
  6
Continuous
 62
     7
370
    15
100
AcDbLine
 10
129.6775394742
 20
100.5054950742
 30
0.0
 11
122.0213349602
 21
100.5054950742
 31
0.0
  0
ARC
  5
211
330
1F
100
AcDbEntity
  8
0
  6
Continuous
 62
     7
370
    15
100
AcDbCircle
 10
122.0213349602
 20
60.8054950742
 30
0.0
 40
0.3000000000000043
100
AcDbArc
 50
180.0
 51
270.0
  0
ARC
  5
212
330
1F
100
AcDbEntity
  8
0
  6
Continuous
 62
     7
370
    15
100
AcDbCircle
 10
122.0213349602
 20
100.2054950742
 30
0.0
 40
0.2999999999999972
100
AcDbArc
 50
90.0
 51
180.0
  0
ARC
  5
213
330
1F
100
AcDbEntity
  8
0
  6
Continuous
 62
     7
370
    15
100
AcDbCircle
 10
142.6713349602
 20
63.0054950742
 30
0.0
 40
1.0
100
AcDbArc
 50
90.0
 51
143.1142427467
  0
ARC
  5
214
330
1F
100
AcDbEntity
  8
0
  6
Continuous
 62
     7
370
    15
100
AcDbCircle
 10
142.6713349602
 20
98.0054950742
 30
0.0
 40
1.0
100
AcDbArc
 50
216.8994515981
 51
270.0
  0
LINE
  5
215
330
1F
100
AcDbEntity
  8
0
  6
Continuous
 62
     7
370
    15
100
AcDbLine
 10
142.6713349602
 20
64.0054950742
 30
0.0
 11
167.7300920941
 21
64.0054950742
 31
0.0
  0
LINE
  5
216
330
1F
100
AcDbEntity
  8
0
  6
Continuous
 62
     7
370
    15
100
AcDbLine
 10
167.7375926164
 20
97.0054950742
 30
0.0
 11
142.6713349602
 21
97.0054950742
 31
0.0
  0
ARC
  5
217
330
1F
100
AcDbEntity
  8
0
  6
Continuous
 62
     7
370
    15
100
AcDbCircle
 10
121.2213282075
 20
65.0517879207
 30
0.0
 40
0.6000067526677164
100
AcDbArc
 50
33.5571153394
 51
90.0
  0
ARC
  5
218
330
1F
100
AcDbEntity
  8
0
  6
Continuous
 62
     7
370
    15
100
AcDbCircle
 10
121.2213282075
 20
95.9592022276
 30
0.0
 40
0.6000067526677085
100
AcDbArc
 50
270.0
 51
326.4428846606
  0
LINE
  5
219
330
1F
100
AcDbEntity
  8
0
  6
Continuous
 62
     7
370
    15
100
AcDbLine
 10
112.9054022391
 20
95.2677158797
 30
0.0
 11
105.4213349602
 21
94.8927626092
 31
0.0
  0
LINE
  5
21A
330
1F
100
AcDbEntity
  8
0
  6
Continuous
 62
     7
370
    15
100
AcDbLine
 10
119.7213349602
 20
95.609195475
 30
0.0
 11
118.4866022176
 21
95.5473351171
 31
0.0
  0
LINE
  5
21B
330
1F
100
AcDbEntity
  8
0
  6
Continuous
 62
     7
370
    15
100
AcDbLine
 10
118.4341148584
 20
65.4662846584
 30
0.0
 11
119.7213349602
 21
65.4017946733
 31
0.0
  0
LINE
  5
21C
330
1F
100
AcDbEntity
  8
0
  6
Continuous
 62
     7
370
    15
100
AcDbLine
 10
107.9213349602
 20
65.9929770381
 30
0.0
 11
112.9584404828
 21
65.740617042
 31
0.0
  0
LINE
  5
21D
330
1F
100
AcDbEntity
  8
0
  6
Continuous
 62
     7
370
    15
100
AcDbLine
 10
119.7213349602
 20
65.4017946733
 30
0.0
 11
120.5780468749
 21
65.631349939
 31
0.0
  0
LINE
  5
21E
330
1F
100
AcDbEntity
  8
0
  6
Continuous
 62
     7
370
    15
100
AcDbLine
 10
120.5780468749
 20
95.3796402093
 30
0.0
 11
119.7213349602
 21
95.609195475
 31
0.0
  0
ARC
  5
21F
330
1F
100
AcDbEntity
  8
0
  6
Continuous
 62
     7
370
    15
100
AcDbCircle
 10
120.7333400496
 20
65.0517879207
 30
0.0
 40
0.60000675266771
100
AcDbArc
 50
90.0
 51
105.0
  0
ARC
  5
220
330
1F
100
AcDbEntity
  8
0
  6
Continuous
 62
     7
370
    15
100
AcDbCircle
 10
120.7333400496
 20
95.9592022276
 30
0.0
 40
0.6000067526677096
100
AcDbArc
 50
255.0
 51
270.0
  0
LINE
  5
221
330
1F
100
AcDbEntity
  8
0
  6
Continuous
 62
     7
370
    15
100
AcDbLine
 10
120.7333400496
 20
65.6517946733
 30
0.0
 11
121.2213282075
 21
65.6517946733
 31
0.0
  0
LINE
  5
222
330
1F
100
AcDbEntity
  8
0
  6
Continuous
 62
     7
370
    15
100
AcDbLine
 10
121.2213282075
 20
95.359195475
 30
0.0
 11
120.7333400496
 21
95.359195475
 31
0.0
  0
ARC
  5
223
330
1F
100
AcDbEntity
  8
0
  6
Continuous
 62
     7
370
    15
100
AcDbCircle
 10
104.5213349602
 20
94.2854950742
 30
0.0
 40
0.9000000000000057
100
AcDbArc
 50
270.0
 51
311.221922679
  0
ARC
  5
224
330
1F
100
AcDbEntity
  8
0
  6
Continuous
 62
     7
370
    15
100
AcDbCircle
 10
107.0213349602
 20
66.7254950742
 30
0.0
 40
0.8999999999999915
100
AcDbArc
 50
34.6391318474
 51
90.0
  0
LINE
  5
225
330
1F
100
AcDbEntity
  8
0
  6
Continuous
 62
     7
370
    15
100
AcDbLine
 10
102.7713349602
 20
93.3854950742
 30
0.0
 11
101.8213349602
 21
92.4354950742
 31
0.0
  0
LINE
  5
226
330
1F
100
AcDbEntity
  8
0
  6
Continuous
 62
     7
370
    15
100
AcDbLine
 10
104.5213349602
 20
93.3854950742
 30
0.0
 11
102.7713349602
 21
93.3854950742
 31
0.0
  0
LINE
  5
227
330
1F
100
AcDbEntity
  8
0
  6
Continuous
 62
     7
370
    15
100
AcDbLine
 10
102.8303349602
 20
67.6254950742
 30
0.0
 11
107.0213349602
 21
67.6254950742
 31
0.0
  0
LINE
  5
228
330
1F
100
AcDbEntity
  8
0
  6
Continuous
 62
     7
370
    15
100
AcDbLine
 10
101.8213349602
 20
68.6344950742
 30
0.0
 11
102.8303349602
 21
67.6254950742
 31
0.0
  0
LINE
  5
229
330
1F
100
AcDbEntity
  8
0
  6
Continuous
 62
     7
370
    15
100
AcDbLine
 10
129.6713349602
 20
92.3554950742
 30
0.0
 11
135.6861752613
 21
92.3554950742
 31
0.0
  0
LINE
  5
22A
330
1F
100
AcDbEntity
  8
0
  6
Continuous
 62
     7
370
    15
100
AcDbLine
 10
135.6861752613
 20
61.2766105511
 30
0.0
 11
135.6861752613
 21
92.3554950742
 31
0.0
  0
LINE
  5
22B
330
1F
100
AcDbEntity
  8
0
  6
Continuous
 62
     7
370
    15
100
AcDbLine
 10
135.6861752613
 20
61.2766105511
 30
0.0
 11
134.1713349602
 21
61.2766105511
 31
0.0
  0
SPLINE
  5
22C
330
1F
100
AcDbEntity
  8
0
  6
Continuous
 62
     7
370
    15
100
AcDbSpline
210
0.0
220
0.0
230
1.0
 70
     8
 71
     3
 72
    22
 73
    18
 74
     0
 42
0.00000001
 43
0.00000001
 12
1.0
 22
0.0
 32
0.0
 13
1.0
 23
0.0
 33
0.0
 40
0.0
 40
0.0
 40
0.0
 40
0.0
 40
0.125
 40
0.125
 40
0.25
 40
0.25
 40
0.375
 40
0.375
 40
0.5
 40
0.5
 40
0.625
 40
0.625
 40
0.75
 40
0.75
 40
0.875
 40
0.875
 40
1.0
 40
1.0
 40
1.0
 40
1.0
 10
134.171334960183
 20
61.27661055112171
 30
0.0
 10
133.8722105311424
 20
61.27661055112171
 30
0.0
 10
133.5783880828936
 20
61.2680964500553
 30
0.0
 10
133.0008238066472
 20
61.23565268117341
 30
0.0
 10
132.7140061288333
 20
61.21131879247138
 30
0.0
 10
132.169543599934
 20
61.15085876771455
 30
0.0
 10
131.9115883293127
 20
61.11494534693606
 30
0.0
 10
131.4235303859527
 20
61.03523532086692
 30
0.0
 10
131.193832087289
 20
60.99135701967758
 30
0.0
 10
130.7814131043364
 20
60.9031133973074
 30
0.0
 10
130.5958861614763
 20
60.85830505584644
 30
0.0
 10
130.2673661165755
 20
60.77098404792726
 30
0.0
 10
130.128952229676
 20
60.7296932593516
 30
0.0
 10
129.9043600830601
 20
60.65535503605778
 30
0.0
 10
129.8172812709359
 20
60.62194491032311
 30
0.0
 10
129.7007794629808
 20
60.56692550879697
 30
0.0
 10
129.671334960183
 20
60.54546374233072
 30
0.0
 10
129.671334960183
 20
60.53051071871294
 30
0.0
  0
LINE
  5
22D
330
1F
100
AcDbEntity
  8
0
  6
Continuous
 62
     7
370
    15
100
AcDbLine
 10
129.6713349602
 20
60.5305107187
 30
0.0
 11
129.6713349602
 21
60.5054950742
 31
0.0
  0
SPLINE
  5
22E
330
1F
100
AcDbEntity
  8
0
  6
Continuous
 62
     7
370
    15
100
AcDbSpline
210
0.0
220
0.0
230
1.0
 70
     8
 71
     3
 72
    22
 73
    18
 74
     0
 42
0.00000001
 43
0.00000001
 12
1.0
 22
0.0
 32
0.0
 13
1.0
 23
0.0
 33
0.0
 40
0.0
 40
0.0
 40
0.0
 40
0.0
 40
0.0518344464113138
 40
0.157297134370347
 40
0.2110483246268082
 40
0.2628812405553372
 40
0.3682639313051733
 40
0.4219262420452606
 40
0.4745889105917598
 40
0.5816625023623717
 40
0.6361992806057237
 40
0.6894010263054784
 40
0.7429796733640567
 40
0.7977609895324902
 40
0.8529644449565247
 40
0.9052741495390448
 40
1.0
 40
1.0
 40
1.0
 40
1.0
 10
134.171334960183
 20
99.99267034405618
 30
0.0
 10
134.0488836192463
 20
99.99336684645621
 30
0.0
 10
133.6772920163127
 20
99.99548045698339
 30
0.0
 10
133.1830589234056
 20
100.0151951229145
 30
0.0
 10
132.7058532456357
 20
100.0466227939141
 30
0.0
 10
132.2427632574241
 20
100.085578188276
 30
0.0
 10
131.8044722475233
 20
100.1339944373942
 30
0.0
 10
131.39981043171
 20
100.1880495856827
 30
0.0
 10
131.0177443227067
 20
100.244692564206
 30
0.0
 10
130.6762797275405
 20
100.3026204943439
 30
0.0
 10
130.3850320667635
 20
100.3567555485793
 30
0.0
 10
130.1929443492457
 20
100.3943764312371
 30
0.0
 10
130.0286024397936
 20
100.4279692468611
 30
0.0
 10
129.8918940128706
 20
100.4569117110037
 30
0.0
 10
129.7886351417695
 20
100.4793654560651
 30
0.0
 10
129.6942649982549
 20
100.5003033140042
 30
0.0
 10
129.6840927927239
 20
100.5026158331608
 30
0.0
 10
129.6775394742446
 20
100.5041056452253
 30
0.0
  0
LINE
  5
22F
330
1F
100
AcDbEntity
  8
0
  6
Continuous
 62
     7
370
    15
100
AcDbLine
 10
135.6861752613
 20
99.9926703441
 30
0.0
 11
134.1713349602
 21
99.9926703441
 31
0.0
  0
LINE
  5
230
330
1F
100
AcDbEntity
  8
0
  6
Continuous
 62
     7
370
    15
100
AcDbLine
 10
135.6861752613
 20
96.6169040752
 30
0.0
 11
135.6861752613
 21
99.9926703441
 31
0.0
  0
LINE
  5
231
330
1F
100
AcDbEntity
  8
0
  6
Continuous
 62
     7
370
    15
100
AcDbLine
 10
134.1650054349
 20
96.6169040752
 30
0.0
 11
135.6861752613
 21
96.6169040752
 31
0.0
  0
SPLINE
  5
232
330
1F
100
AcDbEntity
  8
0
  6
Continuous
 62
     7
370
    15
100
AcDbSpline
210
0.0
220
0.0
230
1.0
 70
     8
 71
     3
 72
    22
 73
    18
 74
     0
 42
0.00000001
 43
0.00000001
 12
1.0
 22
0.0
 32
0.0
 13
1.0
 23
0.0
 33
0.0
 40
0.0
 40
0.0
 40
0.0
 40
0.0
 40
0.2499999999999999
 40
0.2499999999999999
 40
0.3749999999999999
 40
0.3749999999999999
 40
0.4999999999999999
 40
0.4999999999999999
 40
0.6249999999999999
 40
0.6249999999999999
 40
0.7499999999999999
 40
0.7499999999999999
 40
0.8749999999999998
 40
0.8749999999999998
 40
0.9374999999999999
 40
0.9374999999999999
 40
1.0
 40
1.0
 40
1.0
 40
1.0
 10
129.671334960183
 20
92.35549507415111
 30
0.0
 10
129.6933159781697
 20
92.91836771604913
 30
0.0
 10
129.7722928615244
 20
93.44899259977866
 30
0.0
 10
130.0186907545568
 20
94.19470359070024
 30
0.0
 10
130.1232153696477
 20
94.43632381709895
 30
0.0
 10
130.3850619649542
 20
94.89518259242486
 30
0.0
 10
130.5402785871201
 20
95.10936126489469
 30
0.0
 10
130.908870340184
 20
95.50658982404022
 30
0.0
 10
131.1250040326489
 20
95.69103465906002
 30
0.0
 10
131.6088985276358
 20
96.01211450694365
 30
0.0
 10
131.8793640726435
 20
96.15146533704966
 30
0.0
 10
132.4755906381537
 20
96.38077087147525
 30
0.0
 10
132.7910839048737
 20
96.46730688095157
 30
0.0
 10
133.2918005528922
 20
96.55619648528283
 30
0.0
 10
133.4645969875073
 20
96.57900499114446
 30
0.0
 10
133.8129657602893
 20
96.6092961538407
 30
0.0
 10
133.9883667891998
 20
96.61690407522858
 30
0.0
 10
134.1650054348878
 20
96.61690407522858
 30
0.0
  0
LINE
  5
233
330
1F
100
AcDbEntity
  8
0
  6
Continuous
 62
     7
370
    15
100
AcDbLine
 10
121.7213349602
 20
60.8054950742
 30
0.0
 11
121.7213349602
 21
100.2054950742
 31
0.0
  0
LINE
  5
234
330
1F
100
AcDbEntity
  8
0
  6
Continuous
 62
     7
370
    15
100
AcDbLine
 10
136.6813349602
 20
63.0763716862
 30
0.0
 11
136.6813349602
 21
92.3554950742
 31
0.0
  0
SPLINE
  5
235
330
1F
100
AcDbEntity
  8
0
  6
Continuous
 62
     7
370
    15
100
AcDbSpline
210
0.0
220
0.0
230
1.0
 70
     8
 71
     3
 72
     8
 73
     4
 74
     0
 42
0.00000001
 43
0.00000001
 12
1.0
 22
0.0
 32
0.0
 13
1.0
 23
0.0
 33
0.0
 40
0.0
 40
0.0
 40
0.0
 40
0.0
 40
1.0
 40
1.0
 40
1.0
 40
1.0
 10
136.681334960183
 20
63.07637168616139
 30
0.0
 10
136.3506963335684
 20
62.4758513350504
 30
0.0
 10
136.0188805329949
 20
61.87598222434537
 30
0.0
 10
135.6861752612896
 20
61.27661055112171
 30
0.0
  0
SPLINE
  5
236
330
1F
100
AcDbEntity
  8
0
  6
Continuous
 62
     7
370
    15
100
AcDbSpline
210
0.0
220
0.0
230
1.0
 70
    24
 71
     3
 72
     8
 73
     4
 74
     0
 42
0.00000001
 43
0.00000001
 12
1.0
 22
0.0
 32
0.0
 13
1.0
 23
0.0
 33
0.0
 40
0.0
 40
0.0
 40
0.0
 40
0.0
 40
1.0
 40
1.0
 40
1.0
 40
1.0
 10
135.6861752612896
 20
92.35549507415111
 30
0.0
 10
136.0252080830442
 20
92.35549507415111
 30
0.0
 10
136.3576983045608
 20
92.35549507415111
 30
0.0
 10
136.681334960183
 20
92.35549507415111
 30
0.0
  0
LINE
  5
237
330
1F
100
AcDbEntity
  8
0
  6
Continuous
 62
     7
370
    15
100
AcDbLine
 10
141.0713349602
 20
61.2766105511
 30
0.0
 11
139.7564946591
 21
61.2766105511
 31
0.0
  0
LINE
  5
238
330
1F
100
AcDbEntity
  8
0
  6
Continuous
 62
     7
370
    15
100
AcDbLine
 10
139.7564946591
 20
61.2766105511
 30
0.0
 11
139.7564946591
 21
92.3554950742
 31
0.0
  0
LINE
  5
239
330
1F
100
AcDbEntity
  8
0
  6
Continuous
 62
     7
370
    15
100
AcDbLine
 10
139.7564946591
 20
92.3554950742
 30
0.0
 11
141.0713349602
 21
92.3554950742
 31
0.0
  0
SPLINE
  5
23A
330
1F
100
AcDbEntity
  8
0
  6
Continuous
 62
     7
370
    15
100
AcDbSpline
210
0.0
220
0.0
230
1.0
 70
     8
 71
     3
 72
     8
 73
     4
 74
     0
 42
0.00000001
 43
0.00000001
 12
1.0
 22
0.0
 32
0.0
 13
1.0
 23
0.0
 33
0.0
 40
0.0
 40
0.0
 40
0.0
 40
0.0
 40
1.0
 40
1.0
 40
1.0
 40
1.0
 10
139.7564946590765
 20
61.2766105511217
 30
0.0
 10
139.4237893873711
 20
61.87598222434536
 30
0.0
 10
139.0919735867976
 20
62.4758513350504
 30
0.0
 10
138.761334960183
 20
63.07637168616139
 30
0.0
  0
LINE
  5
23B
330
1F
100
AcDbEntity
  8
0
  6
Continuous
 62
     7
370
    15
100
AcDbLine
 10
138.7613349602
 20
63.0763716862
 30
0.0
 11
138.7613349602
 21
92.3554950742
 31
0.0
  0
SPLINE
  5
23C
330
1F
100
AcDbEntity
  8
0
  6
Continuous
 62
     7
370
    15
100
AcDbSpline
210
0.0
220
0.0
230
1.0
 70
    24
 71
     3
 72
     8
 73
     4
 74
     0
 42
0.00000001
 43
0.00000001
 12
1.0
 22
0.0
 32
0.0
 13
1.0
 23
0.0
 33
0.0
 40
0.0
 40
0.0
 40
0.0
 40
0.0
 40
1.0
 40
1.0
 40
1.0
 40
1.0
 10
138.761334960183
 20
92.35549507415111
 30
0.0
 10
139.0849716158052
 20
92.35549507415111
 30
0.0
 10
139.4174618373219
 20
92.35549507415111
 30
0.0
 10
139.7564946590765
 20
92.35549507415111
 30
0.0
  0
LINE
  5
23D
330
1F
100
AcDbEntity
  8
0
  6
Continuous
 62
     7
370
    15
100
AcDbLine
 10
141.6713349602
 20
61.9014632531
 30
0.0
 11
141.6713349602
 21
92.3554950742
 31
0.0
  0
SPLINE
  5
23E
330
1F
100
AcDbEntity
  8
0
  6
Continuous
 62
     7
370
    15
100
AcDbSpline
210
0.0
220
0.0
230
1.0
 70
     8
 71
     3
 72
    10
 73
     6
 74
     0
 42
0.00000001
 43
0.00000001
 12
1.0
 22
0.0
 32
0.0
 13
1.0
 23
0.0
 33
0.0
 40
0.0
 40
0.0
 40
0.0
 40
0.0
 40
0.5
 40
0.5
 40
1.0
 40
1.0
 40
1.0
 40
1.0
 10
141.671334960183
 20
61.90146325306458
 30
0.0
 10
141.671334960183
 20
61.74183108416135
 30
0.0
 10
141.6096984464777
 20
61.58078145039729
 30
0.0
 10
141.3906720802349
 20
61.3477905667207
 30
0.0
 10
141.2330551921874
 20
61.2766105511217
 30
0.0
 10
141.071334960183
 20
61.2766105511217
 30
0.0
  0
SPLINE
  5
23F
330
1F
100
AcDbEntity
  8
0
  6
Continuous
 62
     7
370
    15
100
AcDbSpline
210
0.0
220
0.0
230
1.0
 70
    24
 71
     3
 72
    12
 73
     8
 74
     0
 42
0.00000001
 43
0.00000001
 12
1.0
 22
0.0
 32
0.0
 13
1.0
 23
0.0
 33
0.0
 40
0.0
 40
0.0
 40
0.0
 40
0.0
 40
0.250000000000002
 40
0.250000000000002
 40
0.500000000000004
 40
0.500000000000004
 40
1.0
 40
1.0
 40
1.0
 40
1.0
 10
141.071334960183
 20
92.35549507415111
 30
0.0
 10
141.1595218255519
 20
92.35549507415111
 30
0.0
 10
141.2482092188532
 20
92.35549507415111
 30
0.0
 10
141.402461711972
 20
92.35549507415111
 30
0.0
 10
141.467807693048
 20
92.35549507415111
 30
0.0
 10
141.6222175629991
 20
92.35549507415111
 30
0.0
 10
141.671334960183
 20
92.35549507415111
 30
0.0
 10
141.671334960183
 20
92.35549507415111
 30
0.0
  0
SPLINE
  5
240
330
1F
100
AcDbEntity
  8
0
  6
Continuous
 62
     7
370
    15
100
AcDbSpline
210
0.0
220
0.0
230
1.0
 70
    24
 71
     3
 72
    16
 73
    12
 74
     0
 42
0.00000001
 43
0.00000001
 12
1.0
 22
0.0
 32
0.0
 13
1.0
 23
0.0
 33
0.0
 40
0.0
 40
0.0
 40
0.0
 40
0.0
 40
0.5000000000000013
 40
0.5000000000000013
 40
0.750000000000002
 40
0.750000000000002
 40
0.875000000000003
 40
0.875000000000003
 40
0.9375000000000014
 40
0.9375000000000014
 40
1.0
 40
1.0
 40
1.0
 40
1.0
 10
138.7261125596018
 20
63.60549507415111
 30
0.0
 10
138.6960761400751
 20
63.60549507415111
 30
0.0
 10
138.6494420428703
 20
63.60549507415111
 30
0.0
 10
138.5390576312916
 20
63.60549507415111
 30
0.0
 10
138.495719982771
 20
63.60549507415111
 30
0.0
 10
138.4072383483864
 20
63.60549507415111
 30
0.0
 10
138.3738628437698
 20
63.60549507415111
 30
0.0
 10
138.3093706343192
 20
63.60549507415111
 30
0.0
 10
138.2851662971326
 20
63.60549507415111
 30
0.0
 10
138.2294124873222
 20
63.60549507415111
 30
0.0
 10
138.195828461254
 20
63.60549507415111
 30
0.0
 10
138.161334960183
 20
63.60549507415111
 30
0.0
  0
SPLINE
  5
241
330
1F
100
AcDbEntity
  8
0
  6
Continuous
 62
     7
370
    15
100
AcDbSpline
210
0.0
220
0.0
230
1.0
 70
    24
 71
     3
 72
    12
 73
     8
 74
     0
 42
0.00000001
 43
0.00000001
 12
1.0
 22
0.0
 32
0.0
 13
1.0
 23
0.0
 33
0.0
 40
0.0
 40
0.0
 40
0.0
 40
0.0
 40
0.2500000000000003
 40
0.2500000000000003
 40
0.5000000000000006
 40
0.5000000000000006
 40
1.0
 40
1.0
 40
1.0
 40
1.0
 10
138.161334960183
 20
92.35549507415111
 30
0.0
 10
138.2539930496893
 20
92.35549507415111
 30
0.0
 10
138.346056459247
 20
92.35549507415111
 30
0.0
 10
138.5002140097377
 20
92.35549507415111
 30
0.0
 10
138.5647029431024
 20
92.35549507415111
 30
0.0
 10
138.714754492052
 20
92.35549507415111
 30
0.0
 10
138.761334960183
 20
92.35549507415111
 30
0.0
 10
138.761334960183
 20
92.35549507415111
 30
0.0
  0
SPLINE
  5
242
330
1F
100
AcDbEntity
  8
0
  6
Continuous
 62
     7
370
    15
100
AcDbSpline
210
0.0
220
0.0
230
1.0
 70
    24
 71
     3
 72
    16
 73
    12
 74
     0
 42
0.00000001
 43
0.00000001
 12
1.0
 22
0.0
 32
0.0
 13
1.0
 23
0.0
 33
0.0
 40
0.0
 40
0.0
 40
0.0
 40
0.0
 40
0.0625000000000015
 40
0.0625000000000015
 40
0.1250000000000029
 40
0.1250000000000029
 40
0.2500000000000039
 40
0.2500000000000039
 40
0.5000000000000031
 40
0.5000000000000031
 40
1.0
 40
1.0
 40
1.0
 40
1.0
 10
137.2813349601564
 20
63.60549507415111
 30
0.0
 10
137.2468562929712
 20
63.60549507415111
 30
0.0
 10
137.2130361161344
 20
63.60549507415111
 30
0.0
 10
137.1565140489507
 20
63.60549507415111
 30
0.0
 10
137.1321879694244
 20
63.60549507415111
 30
0.0
 10
137.0677350698732
 20
63.60549507415111
 30
0.0
 10
137.0341067945145
 20
63.60549507415111
 30
0.0
 10
136.9460294789897
 20
63.60549507415111
 30
0.0
 10
136.9032100257221
 20
63.60549507415111
 30
0.0
 10
136.7925533915251
 20
63.60549507415111
 30
0.0
 10
136.7463208055811
 20
63.60549507415111
 30
0.0
 10
136.7165573607644
 20
63.60549507415111
 30
0.0
  0
SPLINE
  5
243
330
1F
100
AcDbEntity
  8
0
  6
Continuous
 62
     7
370
    15
100
AcDbSpline
210
0.0
220
0.0
230
1.0
 70
    24
 71
     3
 72
    12
 73
     8
 74
     0
 42
0.00000001
 43
0.00000001
 12
1.0
 22
0.0
 32
0.0
 13
1.0
 23
0.0
 33
0.0
 40
0.0
 40
0.0
 40
0.0
 40
0.0
 40
0.4999999999999987
 40
0.4999999999999987
 40
0.7499999999999993
 40
0.7499999999999993
 40
1.0
 40
1.0
 40
1.0
 40
1.0
 10
136.681334960183
 20
92.35549507415111
 30
0.0
 10
136.681334960183
 20
92.35549507415111
 30
0.0
 10
136.7283310576913
 20
92.35549507415111
 30
0.0
 10
136.8778369956916
 20
92.35549507415111
 30
0.0
 10
136.94235561825
 20
92.35549507415111
 30
0.0
 10
137.096795310979
 20
92.35549507415111
 30
0.0
 10
137.187733698982
 20
92.35549507415111
 30
0.0
 10
137.281334960183
 20
92.35549507415111
 30
0.0
  0
SPLINE
  5
244
330
1F
100
AcDbEntity
  8
0
  6
Continuous
 62
     7
370
    15
100
AcDbSpline
210
0.0
220
0.0
230
1.0
 70
    24
 71
     3
 72
    10
 73
     6
 74
     0
 42
0.00000001
 43
0.00000001
 12
1.0
 22
0.0
 32
0.0
 13
1.0
 23
0.0
 33
0.0
 40
0.0
 40
0.0
 40
0.0
 40
0.0
 40
0.5
 40
0.5
 40
1.0
 40
1.0
 40
1.0
 40
1.0
 10
141.871334960183
 20
97.4054950741511
 30
0.0
 10
141.871334960183
 20
97.4054950741511
 30
0.0
 10
141.8286894953647
 20
97.4054950741511
 30
0.0
 10
141.7287777072251
 20
97.4054950741511
 30
0.0
 10
141.6735518358437
 20
97.4054950741511
 30
0.0
 10
141.6713970833063
 20
97.4054950741511
 30
0.0
  0
SPLINE
  5
245
330
1F
100
AcDbEntity
  8
0
  6
Continuous
 62
     7
370
    15
100
AcDbSpline
210
0.0
220
0.0
230
1.0
 70
    24
 71
     3
 72
    10
 73
     6
 74
     0
 42
0.00000001
 43
0.00000001
 12
1.0
 22
0.0
 32
0.0
 13
1.0
 23
0.0
 33
0.0
 40
0.0
 40
0.0
 40
0.0
 40
0.0
 40
0.4845059909500733
 40
0.9696283429636295
 40
1.0
 40
1.0
 40
1.0
 40
1.0
 10
141.871334960183
 20
63.60549507415111
 30
0.0
 10
141.8669437876668
 20
63.60549507415111
 30
0.0
 10
141.8581558564335
 20
63.60549507415111
 30
0.0
 10
141.8153638078012
 20
63.60549507415111
 30
0.0
 10
141.792511227534
 20
63.60549507415111
 30
0.0
 10
141.791164808918
 20
63.60549507415111
 30
0.0
  0
SPLINE
  5
246
330
1F
100
AcDbEntity
  8
0
  6
Continuous
 62
     7
370
    15
100
AcDbSpline
210
0.0
220
0.0
230
1.0
 70
    24
 71
     3
 72
    12
 73
     8
 74
     0
 42
0.00000001
 43
0.00000001
 12
1.0
 22
0.0
 32
0.0
 13
1.0
 23
0.0
 33
0.0
 40
0.0
 40
0.0
 40
0.0
 40
0.0
 40
0.4999999999999978
 40
0.4999999999999978
 40
0.7499999999999989
 40
0.7499999999999989
 40
1.0
 40
1.0
 40
1.0
 40
1.0
 10
141.671334960183
 20
92.35549507415111
 30
0.0
 10
141.671334960183
 20
92.35549507415111
 30
0.0
 10
141.6985557083107
 20
92.35549507415111
 30
0.0
 10
141.7790021540836
 20
92.35549507415111
 30
0.0
 10
141.8124493825616
 20
92.35549507415111
 30
0.0
 10
141.8948589523359
 20
92.35549507415111
 30
0.0
 10
141.9441420492195
 20
92.35549507415111
 30
0.0
 10
142.0004586718561
 20
92.35549507415111
 30
0.0
  0
SPLINE
  5
247
330
1F
100
AcDbEntity
  8
0
  6
Continuous
 62
     7
370
    15
100
AcDbSpline
210
0.0
220
0.0
230
1.0
 70
     8
 71
     3
 72
    10
 73
     6
 74
     0
 42
0.00000001
 43
0.00000001
 12
1.0
 22
0.0
 32
0.0
 13
1.0
 23
0.0
 33
0.0
 40
0.0
 40
0.0
 40
0.0
 40
0.0
 40
0.5
 40
0.5
 40
1.0
 40
1.0
 40
1.0
 40
1.0
 10
141.671334960183
 20
93.38289776258172
 30
0.0
 10
141.671334960183
 20
93.20018905044675
 30
0.0
 10
141.6983082938911
 20
93.01668076068596
 30
0.0
 10
141.8058986616769
 20
92.6683767823653
 30
0.0
 10
141.88736320602
 20
92.5001891998224
 30
0.0
 10
142.0004586718559
 20
92.35549507414967
 30
0.0
  0
LINE
  5
248
330
1F
100
AcDbEntity
  8
0
  6
Continuous
 62
     7
370
    15
100
AcDbLine
 10
138.1613349602
 20
63.6054950742
 30
0.0
 11
137.2813349602
 21
63.6054950742
 31
0.0
  0
LINE
  5
249
330
1F
100
AcDbEntity
  8
0
  6
Continuous
 62
     7
370
    15
100
AcDbLine
 10
137.2813349602
 20
92.3554950742
 30
0.0
 11
138.1613349602
 21
92.3554950742
 31
0.0
  0
LINE
  5
24A
330
1F
100
AcDbEntity
  8
0
  6
Continuous
 62
     7
370
    15
100
AcDbLine
 10
181.7589179107
 20
97.002767576
 30
0.0
 11
169.0233159241
 21
97.002767576
 31
0.0
  0
SPLINE
  5
24B
330
1F
100
AcDbEntity
  8
0
  6
Continuous
 62
     7
370
    15
100
AcDbSpline
210
0.0
220
0.0
230
1.0
 70
     8
 71
     3
 72
    16
 73
    12
 74
     0
 42
0.00000001
 43
0.00000001
 12
1.0
 22
0.0
 32
0.0
 13
1.0
 23
0.0
 33
0.0
 40
0.0
 40
0.0
 40
0.0
 40
0.0
 40
0.2499999999999999
 40
0.2499999999999999
 40
0.4999999999999999
 40
0.4999999999999999
 40
0.7499999999999998
 40
0.7499999999999998
 40
0.8749999999999999
 40
0.8749999999999999
 40
1.0
 40
1.0
 40
1.0
 40
1.0
 10
169.0233159241199
 20
97.00276757599214
 30
0.0
 10
168.6927429147601
 20
97.00276757599214
 30
0.0
 10
168.3712299453322
 20
97.00399029650846
 30
0.0
 10
167.746227585375
 20
97.00580005734975
 30
0.0
 10
167.457927487342
 20
97.00628145723
 30
0.0
 10
166.935188634565
 20
96.99849026913357
 30
0.0
 10
166.7112033712114
 20
96.99023911104223
 30
0.0
 10
166.4374079078645
 20
96.96451118799483
 30
0.0
 10
166.3573934665689
 20
96.95371955458235
 30
0.0
 10
166.223047391473
 20
96.92729673737901
 30
0.0
 10
166.1680487048184
 20
96.91161196724823
 30
0.0
 10
166.1255384452527
 20
96.89298978346194
 30
0.0
  0
ELLIPSE
  5
24C
330
1F
100
AcDbEntity
  8
0
  6
Continuous
 62
     7
370
    15
100
AcDbEllipse
 10
166.6409502025
 20
80.5054950742
 30
0.0
 11
0.0
 21
16.5
 31
0.0
210
0.0
220
0.0
230
1.0
 40
0.2679491924
 41
0.1168440434831823
 42
3.024748610106611
  0
SPLINE
  5
24D
330
1F
100
AcDbEntity
  8
0
  6
Continuous
 62
     7
370
    15
100
AcDbSpline
210
0.0
220
0.0
230
1.0
 70
     8
 71
     3
 72
    14
 73
    10
 74
     0
 42
0.00000001
 43
0.00000001
 12
1.0
 22
0.0
 32
0.0
 13
1.0
 23
0.0
 33
0.0
 40
0.0
 40
0.0
 40
0.0
 40
0.0
 40
0.25
 40
0.25
 40
0.5
 40
0.5
 40
0.75
 40
0.75
 40
1.0
 40
1.0
 40
1.0
 40
1.0
 10
166.1255384452527
 20
64.11800036484027
 30
0.0
 10
166.2105564095279
 20
64.08075711645641
 30
0.0
 10
166.3443075172045
 20
64.05529581614422
 30
0.0
 10
166.7101651231542
 20
64.02078070532372
 30
0.0
 10
166.9331720895043
 20
64.01255473550341
 30
0.0
 10
167.4560710136846
 20
64.00471174323211
 30
0.0
 10
167.7447087577846
 20
64.0051881661927
 30
0.0
 10
168.3684366875183
 20
64.0069893074521
 30
0.0
 10
168.6927507611027
 20
64.00822257231009
 30
0.0
 10
169.0233159241199
 20
64.00822257231009
 30
0.0
  0
LINE
  5
24E
330
1F
100
AcDbEntity
  8
0
  6
Continuous
 62
     7
370
    15
100
AcDbLine
 10
169.0233159241
 20
64.0082225723
 30
0.0
 11
181.7589179107
 21
64.0082225723
 31
0.0
  0
ELLIPSE
  5
24F
330
1F
100
AcDbEntity
  8
0
  6
Continuous
 62
     7
370
    15
100
AcDbEllipse
 10
164.5223031909
 20
80.5054950742
 30
0.0
 11
0.0
 21
2.100000000000009
 31
0.0
210
0.0
220
0.0
230
1.0
 40
0.2904794051
 41
0.0
 42
6.283185307179586
  0
LINE
  5
250
330
1F
100
AcDbEntity
  8
0
  6
Continuous
 62
     7
370
    15
100
AcDbLine
 10
107.9213349602
 20
65.9929770381
 30
0.0
 11
107.9213349602
 21
66.8687483761
 31
0.0
  0
SPLINE
  5
251
330
1F
100
AcDbEntity
  8
0
  6
Continuous
 62
     7
370
    15
100
AcDbSpline
210
0.0
220
0.0
230
1.0
 70
     8
 71
     3
 72
    12
 73
     8
 74
     0
 42
0.00000001
 43
0.00000001
 12
1.0
 22
0.0
 32
0.0
 13
1.0
 23
0.0
 33
0.0
 40
0.0
 40
0.0
 40
0.0
 40
0.0
 40
0.2500000000000006
 40
0.2500000000000006
 40
0.5000000000000012
 40
0.5000000000000012
 40
1.0
 40
1.0
 40
1.0
 40
1.0
 10
107.5535998673262
 20
67.57511921126638
 30
0.0
 10
107.5790240842201
 20
67.50823361819258
 30
0.0
 10
107.6196359237894
 20
67.44378512850898
 30
0.0
 10
107.7042370700616
 20
67.31878446843112
 30
0.0
 10
107.7483338663471
 20
67.25826572323899
 30
0.0
 10
107.8644029748331
 20
67.08205966713058
 30
0.0
 10
107.921334960183
 20
66.97166525215879
 30
0.0
 10
107.921334960183
 20
66.86874837606562
 30
0.0
  0
SPLINE
  5
252
330
1F
100
AcDbEntity
  8
0
  6
Continuous
 62
     7
370
    15
100
AcDbSpline
210
0.0
220
0.0
230
1.0
 70
     8
 71
     3
 72
    14
 73
    10
 74
     0
 42
0.00000001
 43
0.00000001
 12
1.0
 22
0.0
 32
0.0
 13
1.0
 23
0.0
 33
0.0
 40
0.0
 40
0.0
 40
0.0
 40
0.0
 40
0.1250000000000019
 40
0.1250000000000019
 40
0.2500000000000038
 40
0.2500000000000038
 40
0.5000000000000031
 40
0.5000000000000031
 40
1.0
 40
1.0
 40
1.0
 40
1.0
 10
107.021334960183
 20
68.0651250266401
 30
0.0
 10
107.0703472829944
 20
68.06965008579526
 30
0.0
 10
107.1231535079898
 20
68.06153070024074
 30
0.0
 10
107.2082205997194
 20
68.0312006250893
 30
0.0
 10
107.2428047850601
 20
68.01054566801281
 30
0.0
 10
107.3313604703973
 20
67.94600954468599
 30
0.0
 10
107.3722961717186
 20
67.89877136463336
 30
0.0
 10
107.4761766986215
 20
67.75897526334967
 30
0.0
 10
107.5194004980536
 20
67.66509032448039
 30
0.0
 10
107.5535998673262
 20
67.57511921126637
 30
0.0
  0
SPLINE
  5
253
330
1F
100
AcDbEntity
  8
0
  6
Continuous
 62
     7
370
    15
100
AcDbSpline
210
0.0
220
0.0
230
1.0
 70
     8
 71
     3
 72
    10
 73
     6
 74
     0
 42
0.00000001
 43
0.00000001
 12
1.0
 22
0.0
 32
0.0
 13
1.0
 23
0.0
 33
0.0
 40
0.0
 40
0.0
 40
0.0
 40
0.0
 40
0.5
 40
0.5
 40
1.0
 40
1.0
 40
1.0
 40
1.0
 10
104.1005115684845
 20
67.7388729470736
 30
0.0
 10
104.5734159990742
 20
67.80590586019711
 30
0.0
 10
105.0564209319186
 20
67.86377436136296
 30
0.0
 10
106.0322353102715
 20
67.97061550972315
 30
0.0
 10
106.5257095232956
 20
68.01936644406187
 30
0.0
 10
107.021334960183
 20
68.06512502664013
 30
0.0
  0
SPLINE
  5
254
330
1F
100
AcDbEntity
  8
0
  6
Continuous
 62
     7
370
    15
100
AcDbSpline
210
0.0
220
0.0
230
1.0
 70
     8
 71
     3
 72
    10
 73
     6
 74
     0
 42
0.00000001
 43
0.00000001
 12
1.0
 22
0.0
 32
0.0
 13
1.0
 23
0.0
 33
0.0
 40
0.0
 40
0.0
 40
0.0
 40
0.0
 40
0.5
 40
0.5
 40
1.0
 40
1.0
 40
1.0
 40
1.0
 10
102.830334960183
 20
67.65442819659484
 30
0.0
 10
103.0456939907404
 20
67.66144102756537
 30
0.0
 10
103.2601353290644
 20
67.67021575122067
 30
0.0
 10
103.6851265476849
 20
67.69526892876848
 30
0.0
 10
103.8964992794076
 20
67.70995476156882
 30
0.0
 10
104.1005115684845
 20
67.73887294707359
 30
0.0
  0
SPLINE
  5
255
330
1F
100
AcDbEntity
  8
0
  6
Continuous
 62
     7
370
    15
100
AcDbSpline
210
0.0
220
0.0
230
1.0
 70
     8
 71
     3
 72
     8
 73
     4
 74
     0
 42
0.00000001
 43
0.00000001
 12
1.0
 22
0.0
 32
0.0
 13
1.0
 23
0.0
 33
0.0
 40
0.0
 40
0.0
 40
0.0
 40
0.0
 40
1.0
 40
1.0
 40
1.0
 40
1.0
 10
102.7628188106139
 20
67.80231737460754
 30
0.0
 10
102.7769532552421
 20
67.75152105097432
 30
0.0
 10
102.8000106303907
 20
67.70228230041407
 30
0.0
 10
102.830334960183
 20
67.65442819659484
 30
0.0
  0
ELLIPSE
  5
256
330
1F
100
AcDbEntity
  8
0
  6
Continuous
 62
     7
370
    15
100
AcDbEllipse
 10
89.2945927523
 20
79.8661973964
 30
0.0
 11
13.37355272666626
 21
-13.37146352987014
 31
0.0
210
0.0
220
0.0
230
1.0
 40
0.1761188775
 41
0.3023035477142475
 42
0.3822730435340403
  0
ELLIPSE
  5
257
330
1F
100
AcDbEntity
  8
0
  6
Continuous
 62
     7
370
    15
100
AcDbEllipse
 10
89.2152143216
 20
81.1446055255
 30
0.0
 11
13.36963611134304
 21
13.36754752639483
 31
0.0
210
0.0
220
0.0
230
1.0
 40
0.1761188775
 41
5.933076931846598
 42
5.976720052691197
  0
SPLINE
  5
258
330
1F
100
AcDbEntity
  8
0
  6
Continuous
 62
     7
370
    15
100
AcDbSpline
210
0.0
220
0.0
230
1.0
 70
     8
 71
     3
 72
     8
 73
     4
 74
     0
 42
0.00000001
 43
0.00000001
 12
1.0
 22
0.0
 32
0.0
 13
1.0
 23
0.0
 33
0.0
 40
0.0
 40
0.0
 40
0.0
 40
0.0
 40
1.0
 40
1.0
 40
1.0
 40
1.0
 10
102.771334960183
 20
93.37107562112945
 30
0.0
 10
102.7255700524937
 20
93.30955524197063
 30
0.0
 10
102.6911829308637
 20
93.24566038222117
 30
0.0
 10
102.6721676771908
 20
93.17893043717746
 30
0.0
  0
SPLINE
  5
259
330
1F
100
AcDbEntity
  8
0
  6
Continuous
 62
     7
370
    15
100
AcDbSpline
210
0.0
220
0.0
230
1.0
 70
     8
 71
     3
 72
    12
 73
     8
 74
     0
 42
0.00000001
 43
0.00000001
 12
1.0
 22
0.0
 32
0.0
 13
1.0
 23
0.0
 33
0.0
 40
0.0
 40
0.0
 40
0.0
 40
0.0
 40
0.2500000000000015
 40
0.2500000000000015
 40
0.500000000000003
 40
0.500000000000003
 40
1.0
 40
1.0
 40
1.0
 40
1.0
 10
104.5213349601831
 20
93.2862889328103
 30
0.0
 10
104.3792925569938
 20
93.3021146609865
 30
0.0
 10
104.2351744504897
 20
93.31313579476183
 30
0.0
 10
103.9454199368172
 20
93.331672156629
 30
0.0
 10
103.7996780334584
 20
93.33894286236479
 30
0.0
 10
103.3609977942786
 20
93.35740371269277
 30
0.0
 10
103.0666221782074
 20
93.36528257951633
 30
0.0
 10
102.771334960183
 20
93.37107562112945
 30
0.0
  0
SPLINE
  5
25A
330
1F
100
AcDbEntity
  8
0
  6
Continuous
 62
     7
370
    15
100
AcDbSpline
210
0.0
220
0.0
230
1.0
 70
     8
 71
     3
 72
    20
 73
    16
 74
     0
 42
0.00000001
 43
0.00000001
 12
1.0
 22
0.0
 32
0.0
 13
1.0
 23
0.0
 33
0.0
 40
0.0
 40
0.0
 40
0.0
 40
0.0
 40
0.2500000000000012
 40
0.2500000000000012
 40
0.5000000000000023
 40
0.5000000000000023
 40
0.7500000000000036
 40
0.7500000000000036
 40
0.8750000000000038
 40
0.8750000000000038
 40
0.9375000000000019
 40
0.9375000000000019
 40
0.968750000000001
 40
0.968750000000001
 40
1.0
 40
1.0
 40
1.0
 40
1.0
 10
105.421334960184
 20
94.06301919589896
 30
0.0
 10
105.421334960184
 20
94.00240979620159
 30
0.0
 10
105.3959399406071
 20
93.93658383079804
 30
0.0
 10
105.3096467548251
 20
93.8025360614514
 30
0.0
 10
105.2490107761419
 20
93.73384070330962
 30
0.0
 10
105.1009089819206
 20
93.5934421516552
 30
0.0
 10
105.014139375142
 20
93.52173864707383
 30
0.0
 10
104.8655015798128
 20
93.41557524532499
 30
0.0
 10
104.8132123629266
 20
93.38004689669346
 30
0.0
 10
104.7224485346166
 20
93.33034296617797
 30
0.0
 10
104.6900825421647
 20
93.31408196816285
 30
0.0
 10
104.6323933864984
 20
93.29496939981689
 30
0.0
 10
104.611406358611
 20
93.28957825773536
 30
0.0
 10
104.5661173796205
 20
93.28384088934286
 30
0.0
 10
104.543103110782
 20
93.28386362299628
 30
0.0
 10
104.5213349601824
 20
93.28628893280914
 30
0.0
  0
LINE
  5
25B
330
1F
100
AcDbEntity
  8
0
  6
Continuous
 62
     7
370
    15
100
AcDbLine
 10
105.4213349602
 20
94.0630191959
 30
0.0
 11
105.4213349602
 21
94.8927626092
 31
0.0
  0
LINE
  5
25C
330
1F
100
AcDbEntity
  8
0
  6
Continuous
 62
     7
370
    15
100
AcDbLine
 10
119.7213349602
 20
65.4017946733
 30
0.0
 11
119.7213349602
 21
95.609195475
 31
0.0
  0
SPLINE
  5
25D
330
1F
100
AcDbEntity
  8
0
  6
Continuous
 62
     7
370
    15
100
AcDbSpline
210
0.0
220
0.0
230
1.0
 70
     8
 71
     3
 72
    18
 73
    14
 74
     0
 42
0.00000001
 43
0.00000001
 12
1.0
 22
0.0
 32
0.0
 13
1.0
 23
0.0
 33
0.0
 40
0.0
 40
0.0
 40
0.0
 40
0.0
 40
0.0647987051964491
 40
0.1911457418934229
 40
0.3159453219936786
 40
0.3775977181147795
 40
0.4397856484594751
 40
0.5017220926046851
 40
0.5630628839447047
 40
0.6866516283643269
 40
0.8118021582222715
 40
0.9380327414081064
 40
1.0
 40
1.0
 40
1.0
 40
1.0
 10
112.958981416821
 20
65.75141408487805
 30
0.0
 10
112.9483364613786
 20
65.74997936081455
 30
0.0
 10
112.9169355576215
 20
65.74574715594721
 30
0.0
 10
113.3358187530887
 20
65.8065632585612
 30
0.0
 10
113.9803821391218
 20
65.87211601002684
 30
0.0
 10
114.6340438663631
 20
65.90231801450857
 30
0.0
 10
115.1652286700227
 20
65.90589463208524
 30
0.0
 10
115.716636096457
 20
65.88881345855341
 30
0.0
 10
116.4475379046703
 20
65.83579608957447
 30
0.0
 10
117.309409574969
 20
65.718011958675
 30
0.0
 10
118.0757136984581
 20
65.56546946801284
 30
0.0
 10
118.4761931383213
 20
65.4662768021214
 30
0.0
 10
118.4449356675039
 20
65.47422259818534
 30
0.0
 10
118.4346436271768
 20
65.47683888323283
 30
0.0
  0
SPLINE
  5
25E
330
1F
100
AcDbEntity
  8
0
  6
Continuous
 62
     7
370
    15
100
AcDbSpline
210
0.0
220
0.0
230
1.0
 70
     8
 71
     3
 72
    20
 73
    16
 74
     0
 42
0.00000001
 43
0.00000001
 12
1.0
 22
0.0
 32
0.0
 13
1.0
 23
0.0
 33
0.0
 40
0.0
 40
0.0
 40
0.0
 40
0.0
 40
0.0630568144419705
 40
0.1259401266022019
 40
0.1894847731235525
 40
0.3141571851043741
 40
0.4372859823990717
 40
0.4985322438662017
 40
0.5604678414213202
 40
0.6226252499181621
 40
0.6843273489608368
 40
0.8090799712308039
 40
0.9352224227462307
 40
0.9988607643466427
 40
1.0
 40
1.0
 40
1.0
 40
1.0
 10
118.4866142688575
 20
95.54709457380497
 30
0.0
 10
118.4771571711187
 20
95.54467226290251
 30
0.0
 10
118.4582689970638
 20
95.53983430614198
 30
0.0
 10
118.2960140240421
 20
95.49985060651194
 30
0.0
 10
117.956148263737
 20
95.42238135792726
 30
0.0
 10
117.3048934040195
 20
95.29145845479154
 30
0.0
 10
116.4479326873276
 20
95.17529210005843
 30
0.0
 10
115.7171834174486
 20
95.12225656972274
 30
0.0
 10
115.1656684988662
 20
95.10515715202843
 30
0.0
 10
114.6331107129315
 20
95.10878187026991
 30
0.0
 10
113.9812801469912
 20
95.13853794572456
 30
0.0
 10
113.3153633535623
 20
95.2075861854308
 30
0.0
 10
112.9741017922415
 20
95.25643063324864
 30
0.0
 10
112.8875335337514
 20
95.27033466895594
 30
0.0
 10
112.9051028747831
 20
95.26757233251627
 30
0.0
 10
112.905411864723
 20
95.26752375162928
 30
0.0
  0
SPLINE
  5
25F
330
1F
100
AcDbEntity
  8
0
  6
Continuous
 62
     7
370
    15
100
AcDbSpline
210
0.0
220
0.0
230
1.0
 70
     8
 71
     3
 72
    26
 73
    22
 74
     0
 42
0.00000001
 43
0.00000001
 12
1.0
 22
0.0
 32
0.0
 13
1.0
 23
0.0
 33
0.0
 40
0.0
 40
0.0
 40
0.0
 40
0.0
 40
0.2500000000000003
 40
0.2500000000000003
 40
0.3750000000000004
 40
0.3750000000000004
 40
0.4375000000000011
 40
0.4375000000000011
 40
0.4687500000000013
 40
0.4687500000000013
 40
0.5000000000000017
 40
0.5000000000000017
 40
0.5312500000000019
 40
0.5312500000000019
 40
0.5625000000000022
 40
0.5625000000000022
 40
0.6250000000000018
 40
0.6250000000000018
 40
0.7500000000000009
 40
0.7500000000000009
 40
1.0
 40
1.0
 40
1.0
 40
1.0
 10
102.5813050065709
 20
92.89357565376402
 30
0.0
 10
102.5339168971424
 20
92.75791991174094
 30
0.0
 10
102.476275595238
 20
92.61395851341173
 30
0.0
 10
102.3542277826947
 20
92.37118594015732
 30
0.0
 10
102.3081787749182
 20
92.28614629970794
 30
0.0
 10
102.2175254907526
 20
92.1457703266676
 30
0.0
 10
102.183172990467
 20
92.09585894932879
 30
0.0
 10
102.1207378180765
 20
92.0193236844745
 30
0.0
 10
102.0974437992784
 20
91.99291920548762
 30
0.0
 10
102.0483912621519
 20
91.94532444022659
 30
0.0
 10
102.0239598124951
 20
91.92588182637475
 30
0.0
 10
101.9833302168752
 20
91.90097404870664
 30
0.0
 10
101.9671679350241
 20
91.89490421739569
 30
0.0
 10
101.9401858909209
 20
91.88921534580189
 30
0.0
 10
101.9294363680981
 20
91.88960585388263
 30
0.0
 10
101.901400393941
 20
91.89574820067106
 30
0.0
 10
101.8885391619084
 20
91.90641220708906
 30
0.0
 10
101.857536300748
 20
91.94542499744927
 30
0.0
 10
101.8466768186789
 20
91.98147698785358
 30
0.0
 10
101.8233995627409
 20
92.09915638535266
 30
0.0
 10
101.8213349601829
 20
92.19048628568565
 30
0.0
 10
101.8213349601829
 20
92.28372653859192
 30
0.0
  0
SPLINE
  5
260
330
1F
100
AcDbEntity
  8
0
  6
Continuous
 62
     7
370
    15
100
AcDbSpline
210
0.0
220
0.0
230
1.0
 70
     8
 71
     3
 72
    24
 73
    20
 74
     0
 42
0.00000001
 43
0.00000001
 12
1.0
 22
0.0
 32
0.0
 13
1.0
 23
0.0
 33
0.0
 40
0.0
 40
0.0
 40
0.0
 40
0.0
 40
0.2499999999999964
 40
0.2499999999999964
 40
0.374999999999995
 40
0.374999999999995
 40
0.437499999999994
 40
0.437499999999994
 40
0.499999999999993
 40
0.499999999999993
 40
0.5312499999999932
 40
0.5312499999999932
 40
0.5624999999999934
 40
0.5624999999999934
 40
0.6249999999999943
 40
0.6249999999999943
 40
0.7499999999999958
 40
0.7499999999999958
 40
1.0
 40
1.0
 40
1.0
 40
1.0
 10
101.821334960183
 20
68.95798187292974
 30
0.0
 10
101.821334960183
 20
69.04294287447702
 30
0.0
 10
101.824060219163
 20
69.12532402149647
 30
0.0
 10
101.8504650931977
 20
69.22776946497083
 30
0.0
 10
101.8626988939387
 20
69.25859188532755
 30
0.0
 10
101.8973982733517
 20
69.28763691627066
 30
0.0
 10
101.9118227858597
 20
69.29456718221597
 30
0.0
 10
101.9532134036242
 20
69.29331822711117
 30
0.0
 10
101.9818735842824
 20
69.28489326772555
 30
0.0
 10
102.0430074544789
 20
69.23996472744516
 30
0.0
 10
102.0661057325417
 20
69.21939900336396
 30
0.0
 10
102.1099708421449
 20
69.17470660754843
 30
0.0
 10
102.1308346533326
 20
69.15080467988325
 30
0.0
 10
102.1879746570955
 20
69.08088471651999
 30
0.0
 10
102.220289162456
 20
69.0353073237355
 30
0.0
 10
102.3063834047351
 20
68.90641284289094
 30
0.0
 10
102.352037943789
 20
68.82654181767987
 30
0.0
 10
102.4724150088342
 20
68.6009408407973
 30
0.0
 10
102.5313113650857
 20
68.46641593723965
 30
0.0
 10
102.5813050065711
 20
68.33850948922559
 30
0.0
  0
LINE
  5
261
330
1F
100
AcDbEntity
  8
0
  6
Continuous
 62
     7
370
    15
100
AcDbLine
 10
101.8213349602
 20
68.9579818729
 30
0.0
 11
101.8213349602
 21
92.2837265386
 31
0.0
  0
LINE
  5
262
330
1F
100
AcDbEntity
  8
0
  6
Continuous
 62
     7
370
    15
100
AcDbLine
 10
141.0713349602
 20
99.9926703441
 30
0.0
 11
139.7564946591
 21
99.9926703441
 31
0.0
  0
LINE
  5
263
330
1F
100
AcDbEntity
  8
0
  6
Continuous
 62
     7
370
    15
100
AcDbLine
 10
139.7564946591
 20
96.6169040752
 30
0.0
 11
141.0713349602
 21
96.6169040752
 31
0.0
  0
LINE
  5
264
330
1F
100
AcDbEntity
  8
0
  6
Continuous
 62
     7
370
    15
100
AcDbLine
 10
139.7564946591
 20
96.6169040752
 30
0.0
 11
139.7564946591
 21
99.9926703441
 31
0.0
  0
SPLINE
  5
265
330
1F
100
AcDbEntity
  8
0
  6
Continuous
 62
     7
370
    15
100
AcDbSpline
210
0.0
220
0.0
230
1.0
 70
     8
 71
     3
 72
     8
 73
     4
 74
     0
 42
0.00000001
 43
0.00000001
 12
1.0
 22
0.0
 32
0.0
 13
1.0
 23
0.0
 33
0.0
 40
0.0
 40
0.0
 40
0.0
 40
0.0
 40
1.0
 40
1.0
 40
1.0
 40
1.0
 10
139.7564946590765
 20
99.9926703440562
 30
0.0
 10
139.4241365626868
 20
99.40186013038422
 30
0.0
 10
139.0923552912027
 20
98.81072746613903
 30
0.0
 10
138.761334960183
 20
98.21917176968132
 30
0.0
  0
SPLINE
  5
266
330
1F
100
AcDbEntity
  8
0
  6
Continuous
 62
     7
370
    15
100
AcDbSpline
210
0.0
220
0.0
230
1.0
 70
     8
 71
     3
 72
     8
 73
     4
 74
     0
 42
0.00000001
 43
0.00000001
 12
1.0
 22
0.0
 32
0.0
 13
1.0
 23
0.0
 33
0.0
 40
0.0
 40
0.0
 40
0.0
 40
0.0
 40
1.0
 40
1.0
 40
1.0
 40
1.0
 10
138.761334960183
 20
94.41958297360648
 30
0.0
 10
139.0848925184379
 20
95.15569937222907
 30
0.0
 10
139.4173868386549
 20
95.8877909676477
 30
0.0
 10
139.7564946590765
 20
96.61690407522858
 30
0.0
  0
LINE
  5
267
330
1F
100
AcDbEntity
  8
0
  6
Continuous
 62
     7
370
    15
100
AcDbLine
 10
138.7613349602
 20
94.4195829736
 30
0.0
 11
138.7613349602
 21
98.2191717697
 31
0.0
  0
SPLINE
  5
268
330
1F
100
AcDbEntity
  8
0
  6
Continuous
 62
     7
370
    15
100
AcDbSpline
210
0.0
220
0.0
230
1.0
 70
     8
 71
     3
 72
     8
 73
     4
 74
     0
 42
0.00000001
 43
0.00000001
 12
1.0
 22
0.0
 32
0.0
 13
1.0
 23
0.0
 33
0.0
 40
0.0
 40
0.0
 40
0.0
 40
0.0
 40
1.0
 40
1.0
 40
1.0
 40
1.0
 10
136.681334960183
 20
98.21917176968132
 30
0.0
 10
136.3503146291634
 20
98.81072746613903
 30
0.0
 10
136.0185333576793
 20
99.40186013038422
 30
0.0
 10
135.6861752612896
 20
99.9926703440562
 30
0.0
  0
LINE
  5
269
330
1F
100
AcDbEntity
  8
0
  6
Continuous
 62
     7
370
    15
100
AcDbLine
 10
136.6813349602
 20
94.4195829736
 30
0.0
 11
136.6813349602
 21
98.2191717697
 31
0.0
  0
SPLINE
  5
26A
330
1F
100
AcDbEntity
  8
0
  6
Continuous
 62
     7
370
    15
100
AcDbSpline
210
0.0
220
0.0
230
1.0
 70
     8
 71
     3
 72
     8
 73
     4
 74
     0
 42
0.00000001
 43
0.00000001
 12
1.0
 22
0.0
 32
0.0
 13
1.0
 23
0.0
 33
0.0
 40
0.0
 40
0.0
 40
0.0
 40
0.0
 40
1.0
 40
1.0
 40
1.0
 40
1.0
 10
135.6861752612896
 20
96.61690407522858
 30
0.0
 10
136.0255983025712
 20
95.8871132137092
 30
0.0
 10
136.3581090460663
 20
95.15494485828755
 30
0.0
 10
136.681334960183
 20
94.41958297360657
 30
0.0
  0
SPLINE
  5
26B
330
1F
100
AcDbEntity
  8
0
  6
Continuous
 62
     7
370
    15
100
AcDbSpline
210
0.0
220
0.0
230
1.0
 70
     8
 71
     3
 72
    10
 73
     6
 74
     0
 42
0.00000001
 43
0.00000001
 12
1.0
 22
0.0
 32
0.0
 13
1.0
 23
0.0
 33
0.0
 40
0.0
 40
0.0
 40
0.0
 40
0.0
 40
0.5
 40
0.5
 40
1.0
 40
1.0
 40
1.0
 40
1.0
 10
141.6713349601831
 20
99.37637210729402
 30
0.0
 10
141.6713349601831
 20
99.53480655018184
 30
0.0
 10
141.6091737437001
 20
99.69382724498382
 30
0.0
 10
141.3886644030284
 20
99.92383506923946
 30
0.0
 10
141.2297493000833
 20
99.99267034405624
 30
0.0
 10
141.071334960183
 20
99.99267034405624
 30
0.0
  0
LINE
  5
26C
330
1F
100
AcDbEntity
  8
0
  6
Continuous
 62
     7
370
    15
100
AcDbLine
 10
141.6713349602
 20
95.8657522335
 30
0.0
 11
141.6713349602
 21
99.3763721073
 31
0.0
  0
SPLINE
  5
26D
330
1F
100
AcDbEntity
  8
0
  6
Continuous
 62
     7
370
    15
100
AcDbSpline
210
0.0
220
0.0
230
1.0
 70
     8
 71
     3
 72
    12
 73
     8
 74
     0
 42
0.00000001
 43
0.00000001
 12
1.0
 22
0.0
 32
0.0
 13
1.0
 23
0.0
 33
0.0
 40
0.0
 40
0.0
 40
0.0
 40
0.0
 40
0.25
 40
0.25
 40
0.5
 40
0.5
 40
1.0
 40
1.0
 40
1.0
 40
1.0
 10
141.071334960183
 20
96.61690407522858
 30
0.0
 10
141.1606233192268
 20
96.61690407522858
 30
0.0
 10
141.248682150129
 20
96.59127944262383
 30
0.0
 10
141.4013358633781
 20
96.50273606969202
 30
0.0
 10
141.4671293567201
 20
96.43985358657736
 30
0.0
 10
141.6225700034362
 20
96.22249239864377
 30
0.0
 10
141.671334960183
 20
96.04384538863245
 30
0.0
 10
141.671334960183
 20
95.86575223345673
 30
0.0
  0
SPLINE
  5
26E
330
1F
100
AcDbEntity
  8
0
  6
Continuous
 62
     7
370
    15
100
AcDbSpline
210
0.0
220
0.0
230
1.0
 70
    24
 71
     3
 72
    12
 73
     8
 74
     0
 42
0.00000001
 43
0.00000001
 12
1.0
 22
0.0
 32
0.0
 13
1.0
 23
0.0
 33
0.0
 40
0.0
 40
0.0
 40
0.0
 40
0.0
 40
0.5
 40
0.5
 40
0.75
 40
0.75
 40
1.0
 40
1.0
 40
1.0
 40
1.0
 10
138.512990574433
 20
97.4054950741511
 30
0.0
 10
138.4788448261421
 20
97.4054950741511
 30
0.0
 10
138.439651667737
 20
97.4054950741511
 30
0.0
 10
138.3618040090833
 20
97.4054950741511
 30
0.0
 10
138.332399550298
 20
97.4054950741511
 30
0.0
 10
138.2593920289921
 20
97.4054950741511
 30
0.0
 10
138.2124867111843
 20
97.4054950741511
 30
0.0
 10
138.161334960183
 20
97.4054950741511
 30
0.0
  0
SPLINE
  5
26F
330
1F
100
AcDbEntity
  8
0
  6
Continuous
 62
     7
370
    15
100
AcDbSpline
210
0.0
220
0.0
230
1.0
 70
     8
 71
     3
 72
    10
 73
     6
 74
     0
 42
0.00000001
 43
0.00000001
 12
1.0
 22
0.0
 32
0.0
 13
1.0
 23
0.0
 33
0.0
 40
0.0
 40
0.0
 40
0.0
 40
0.0
 40
0.5
 40
0.5
 40
1.0
 40
1.0
 40
1.0
 40
1.0
 10
138.761334960183
 20
97.90809904596982
 30
0.0
 10
138.7613349601829
 20
97.8115564984933
 30
0.0
 10
138.7393943376014
 20
97.7150952982232
 30
0.0
 10
138.6532641522095
 20
97.5396927039789
 30
0.0
 10
138.5901818450659
 20
97.46327717161185
 30
0.0
 10
138.512990574433
 20
97.40549507415112
 30
0.0
  0
SPLINE
  5
270
330
1F
100
AcDbEntity
  8
0
  6
Continuous
 62
     7
370
    15
100
AcDbSpline
210
0.0
220
0.0
230
1.0
 70
     8
 71
     3
 72
    12
 73
     8
 74
     0
 42
0.00000001
 43
0.00000001
 12
1.0
 22
0.0
 32
0.0
 13
1.0
 23
0.0
 33
0.0
 40
0.0
 40
0.0
 40
0.0
 40
0.0
 40
0.25
 40
0.25
 40
0.5
 40
0.5
 40
1.0
 40
1.0
 40
1.0
 40
1.0
 10
138.161334960183
 20
93.21250593430237
 30
0.0
 10
138.2538769269048
 20
93.21250593430237
 30
0.0
 10
138.3460863040493
 20
93.2435392812186
 30
0.0
 10
138.5012232644261
 20
93.34635014704345
 30
0.0
 10
138.5650331618871
 20
93.41652296138909
 30
0.0
 10
138.7141595976882
 20
93.64943544491707
 30
0.0
 10
138.761334960183
 20
93.83623080698698
 30
0.0
 10
138.761334960183
 20
94.02134225440585
 30
0.0
  0
SPLINE
  5
271
330
1F
100
AcDbEntity
  8
0
  6
Continuous
 62
     7
370
    15
100
AcDbSpline
210
0.0
220
0.0
230
1.0
 70
     8
 71
     3
 72
    10
 73
     6
 74
     0
 42
0.00000001
 43
0.00000001
 12
1.0
 22
0.0
 32
0.0
 13
1.0
 23
0.0
 33
0.0
 40
0.0
 40
0.0
 40
0.0
 40
0.0
 40
0.5
 40
0.5
 40
1.0
 40
1.0
 40
1.0
 40
1.0
 10
136.929679345933
 20
97.4054950741511
 30
0.0
 10
136.8523546140588
 20
97.46337707501276
 30
0.0
 10
136.7889747885223
 20
97.54045041964665
 30
0.0
 10
136.7034043397492
 20
97.71495347784051
 30
0.0
 10
136.681334960183
 20
97.81175868132095
 30
0.0
 10
136.681334960183
 20
97.90809904597096
 30
0.0
  0
SPLINE
  5
272
330
1F
100
AcDbEntity
  8
0
  6
Continuous
 62
     7
370
    15
100
AcDbSpline
210
0.0
220
0.0
230
1.0
 70
    24
 71
     3
 72
    12
 73
     8
 74
     0
 42
0.00000001
 43
0.00000001
 12
1.0
 22
0.0
 32
0.0
 13
1.0
 23
0.0
 33
0.0
 40
0.0
 40
0.0
 40
0.0
 40
0.0
 40
0.2499999999999991
 40
0.2499999999999991
 40
0.4999999999999982
 40
0.4999999999999982
 40
1.0
 40
1.0
 40
1.0
 40
1.0
 10
137.281334960183
 20
97.4054950741511
 30
0.0
 10
137.2297427599084
 20
97.4054950741511
 30
0.0
 10
137.1828377511139
 20
97.4054950741511
 30
0.0
 10
137.1095040252374
 20
97.4054950741511
 30
0.0
 10
137.0802741957884
 20
97.4054950741511
 30
0.0
 10
137.0020414157254
 20
97.4054950741511
 30
0.0
 10
136.9636072578178
 20
97.4054950741511
 30
0.0
 10
136.929679345933
 20
97.4054950741511
 30
0.0
  0
SPLINE
  5
273
330
1F
100
AcDbEntity
  8
0
  6
Continuous
 62
     7
370
    15
100
AcDbSpline
210
0.0
220
0.0
230
1.0
 70
     8
 71
     3
 72
    12
 73
     8
 74
     0
 42
0.00000001
 43
0.00000001
 12
1.0
 22
0.0
 32
0.0
 13
1.0
 23
0.0
 33
0.0
 40
0.0
 40
0.0
 40
0.0
 40
0.0
 40
0.4999999999999968
 40
0.4999999999999968
 40
0.7499999999999983
 40
0.7499999999999983
 40
1.0
 40
1.0
 40
1.0
 40
1.0
 10
136.681334960183
 20
94.02134225440585
 30
0.0
 10
136.681334960183
 20
93.83557617782776
 30
0.0
 10
136.7278807054396
 20
93.65040286583749
 30
0.0
 10
136.8779816538293
 20
93.41599226249396
 30
0.0
 10
136.9419184701234
 20
93.34589636508186
 30
0.0
 10
137.0972862018531
 20
93.24321584727778
 30
0.0
 10
137.188529484771
 20
93.2125059343023
 30
0.0
 10
137.281334960183
 20
93.2125059343023
 30
0.0
  0
LINE
  5
274
330
1F
100
AcDbEntity
  8
0
  6
Continuous
 62
     7
370
    15
100
AcDbLine
 10
138.1613349602
 20
97.4054950742
 30
0.0
 11
137.2813349602
 21
97.4054950742
 31
0.0
  0
LINE
  5
275
330
1F
100
AcDbEntity
  8
0
  6
Continuous
 62
     7
370
    15
100
AcDbLine
 10
137.2813349602
 20
93.2125059343
 30
0.0
 11
138.1613349602
 21
93.2125059343
 31
0.0
  0
LINE
  5
276
330
1F
100
AcDbEntity
  8
0
  6
Continuous
 62
     7
370
    15
100
AcDbLine
 10
136.6813349602
 20
94.4195829736
 30
0.0
 11
136.6813349602
 21
94.0213422544
 31
0.0
  0
LINE
  5
277
330
1F
100
AcDbEntity
  8
0
  6
Continuous
 62
     7
370
    15
100
AcDbLine
 10
138.7613349602
 20
94.0213422544
 30
0.0
 11
138.7613349602
 21
94.4195829736
 31
0.0
  0
LINE
  5
278
330
1F
100
AcDbEntity
  8
0
  6
Continuous
 62
     7
370
    15
100
AcDbLine
 10
141.6713349602
 20
95.8657522335
 30
0.0
 11
141.6713349602
 21
93.3828977626
 31
0.0
  0
LINE
  5
279
330
1F
100
AcDbEntity
  8
0
  6
Continuous
 62
     7
370
    15
100
AcDbLine
 10
101.8213349602
 20
68.6870228014
 30
0.0
 11
101.8213349602
 21
68.9579818729
 31
0.0
  0
LINE
  5
27A
330
1F
100
AcDbEntity
  8
0
  6
Continuous
 62
     7
370
    15
100
AcDbLine
 10
101.8213349602
 20
92.3794092115
 30
0.0
 11
101.8213349602
 21
92.2837265386
 31
0.0
  0
LINE
  5
27B
330
1F
100
AcDbEntity
  8
0
  6
Continuous
 62
     7
370
    15
100
AcDbLine
 10
102.7713349602
 20
93.3854950742
 30
0.0
 11
102.7713349602
 21
93.3710756211
 31
0.0
  0
LINE
  5
27C
330
1F
100
AcDbEntity
  8
0
  6
Continuous
 62
     7
370
    15
100
AcDbLine
 10
101.8213349602
 20
92.4354950742
 30
0.0
 11
101.8213349602
 21
92.3794092115
 31
0.0
  0
LINE
  5
27D
330
1F
100
AcDbEntity
  8
0
  6
Continuous
 62
     7
370
    15
100
AcDbLine
 10
102.8303349602
 20
67.6254950742
 30
0.0
 11
102.8303349602
 21
67.6544281966
 31
0.0
  0
LINE
  5
27E
330
1F
100
AcDbEntity
  8
0
  6
Continuous
 62
     7
370
    15
100
AcDbLine
 10
101.8213349602
 20
68.6344950742
 30
0.0
 11
101.8213349602
 21
68.6870228014
 31
0.0
  0
ARC
  5
27F
330
1F
100
AcDbEntity
  8
0
  6
Continuous
 62
     7
370
    15
100
AcDbCircle
 10
183.7416557167
 20
80.5054950742
 30
0.0
 40
2.099999999999997
100
AcDbArc
 50
67.3000174185
 51
292.6999825815
  0
LINE
  5
280
330
1F
100
AcDbEntity
  8
0
  6
Continuous
 62
     7
370
    15
100
AcDbLine
 10
191.8027667863
 20
72.4360124594
 30
0.0
 11
181.7589179107
 21
64.0082225723
 31
0.0
  0
LINE
  5
281
330
1F
100
AcDbEntity
  8
0
  6
Continuous
 62
     7
370
    15
100
AcDbLine
 10
191.8027667863
 20
88.5749776889
 30
0.0
 11
181.7589179107
 21
97.002767576
 31
0.0
  0
CIRCLE
  5
282
330
1F
100
AcDbEntity
  8
0
  6
Continuous
 62
     7
370
    15
100
AcDbCircle
 10
191.9519774903
 20
80.5054950742
 30
0.0
 40
3.500000000000003
  0
CIRCLE
  5
283
330
1F
100
AcDbEntity
  8
0
  6
Continuous
 62
     7
370
    15
100
AcDbCircle
 10
191.9519774903
 20
80.5054950742
 30
0.0
 40
2.633974596215569
  0
CIRCLE
  5
284
330
1F
100
AcDbEntity
  8
0
  6
Continuous
 62
     7
370
    15
100
AcDbCircle
 10
191.9519774903
 20
80.5054950742
 30
0.0
 40
1.999999999999998
  0
SPLINE
  5
285
330
1F
100
AcDbEntity
  8
0
  6
Continuous
 62
     7
370
    15
100
AcDbSpline
210
0.0
220
0.0
230
1.0
 70
     8
 71
     3
 72
    15
 73
    11
 74
     0
 42
0.00000001
 43
0.00000001
 12
1.0
 22
0.0
 32
0.0
 13
1.0
 23
0.0
 33
0.0
 40
0.0
 40
0.0
 40
0.0
 40
0.0
 40
0.1262470803731038
 40
0.2533633350513323
 40
0.3794185517357439
 40
0.5042689738350543
 40
0.6284502821606321
 40
0.752636129223148
 40
0.8774891912114705
 40
1.0
 40
1.0
 40
1.0
 40
1.0
 10
193.6110163179261
 20
80.09048132924958
 30
0.0
 10
193.6532418451919
 20
80.10403039004173
 30
0.0
 10
193.737983610156
 20
80.13122179295544
 30
0.0
 10
193.8393189873998
 20
80.22283217271927
 30
0.0
 10
193.9057955417209
 20
80.34013528113367
 30
0.0
 10
193.9291231319619
 20
80.47275121163752
 30
0.0
 10
193.9077366956093
 20
80.6049688038282
 30
0.0
 10
193.8441585047795
 20
80.72182336146491
 30
0.0
 10
193.7471125078048
 20
80.81364164481323
 30
0.0
 10
193.6653567087534
 20
80.84290568170192
 30
0.0
 10
193.6248658762262
 20
80.85739915165124
 30
0.0
  0
SPLINE
  5
286
330
1F
100
AcDbEntity
  8
0
  6
Continuous
 62
     7
370
    15
100
AcDbSpline
210
0.0
220
0.0
230
1.0
 70
     8
 71
     3
 72
    17
 73
    13
 74
     0
 42
0.00000001
 43
0.00000001
 12
1.0
 22
0.0
 32
0.0
 13
1.0
 23
0.0
 33
0.0
 40
0.0
 40
0.0
 40
0.0
 40
0.0
 40
0.1015021851812783
 40
0.2058851588163192
 40
0.3074937179050297
 40
0.4121649835731758
 40
0.5117335401582347
 40
0.6142795520907437
 40
0.7124580058481443
 40
0.8133988273150368
 40
0.9056223946751608
 40
1.0
 40
1.0
 40
1.0
 40
1.0
 10
193.6248658762262
 20
80.85739915165124
 30
0.0
 10
193.5886499618182
 20
80.86847478321377
 30
0.0
 10
193.5151902695341
 20
80.89094038983269
 30
0.0
 10
193.4140446085983
 20
80.9472048612272
 30
0.0
 10
193.3220063162012
 20
81.01926580412629
 30
0.0
 10
193.2444569482555
 20
81.10506155451685
 30
0.0
 10
193.1820056067446
 20
81.20289746569878
 30
0.0
 10
193.1375549498825
 20
81.30748126859525
 30
0.0
 10
193.1106989358871
 20
81.41817294604208
 30
0.0
 10
193.1027625147248
 20
81.52745898114262
 30
0.0
 10
193.11080145921
 20
81.63516624593558
 30
0.0
 10
193.1291241137173
 20
81.70231244802447
 30
0.0
 10
193.1383911951118
 20
81.73627310147927
 30
0.0
  0
SPLINE
  5
287
330
1F
100
AcDbEntity
  8
0
  6
Continuous
 62
     7
370
    15
100
AcDbSpline
210
0.0
220
0.0
230
1.0
 70
     8
 71
     3
 72
    15
 73
    11
 74
     0
 42
0.00000001
 43
0.00000001
 12
1.0
 22
0.0
 32
0.0
 13
1.0
 23
0.0
 33
0.0
 40
0.0
 40
0.0
 40
0.0
 40
0.0
 40
0.1268765508973323
 40
0.2539936290345743
 40
0.3800496379885112
 40
0.5049006370991362
 40
0.6290821973265643
 40
0.7532679407718168
 40
0.8781205851189224
 40
1.0
 40
1.0
 40
1.0
 40
1.0
 10
193.1383911951119
 20
81.73627310147927
 30
0.0
 10
193.1477973495487
 20
81.77984018985074
 30
0.0
 10
193.1666274902152
 20
81.86705695925123
 30
0.0
 10
193.1376791857112
 20
82.00079827020664
 30
0.0
 10
193.0691348584866
 20
82.11690384868179
 30
0.0
 10
192.9658028429702
 20
82.20324004041315
 30
0.0
 10
192.8405257375384
 20
82.25061546229867
 30
0.0
 10
192.7075304338179
 20
82.25375807313316
 30
0.0
 10
192.5797786651542
 20
82.21546838197412
 30
0.0
 10
192.5137581345718
 20
82.15941502615496
 30
0.0
 10
192.4811456574469
 20
82.13172608199937
 30
0.0
  0
SPLINE
  5
288
330
1F
100
AcDbEntity
  8
0
  6
Continuous
 62
     7
370
    15
100
AcDbSpline
210
0.0
220
0.0
230
1.0
 70
     8
 71
     3
 72
    12
 73
     8
 74
     0
 42
0.00000001
 43
0.00000001
 12
1.0
 22
0.0
 32
0.0
 13
1.0
 23
0.0
 33
0.0
 40
0.0
 40
0.0
 40
0.0
 40
0.0
 40
0.2057949882087141
 40
0.412001015528268
 40
0.6140549927929512
 40
0.8131810826683182
 40
1.0
 40
1.0
 40
1.0
 40
1.0
 10
192.4811456574469
 20
82.13172608199937
 30
0.0
 10
192.4222440392771
 20
82.08197234813882
 30
0.0
 10
192.3043231573671
 20
81.98236550612916
 30
0.0
 10
192.0767240283906
 20
81.91682869032104
 30
0.0
 10
191.8460344549179
 20
81.925996384885
 30
0.0
 10
191.6340425252503
 20
82.00446544725578
 30
0.0
 10
191.5280752320027
 20
82.10243897223661
 30
0.0
 10
191.4767811496143
 20
82.14986362477076
 30
0.0
  0
SPLINE
  5
289
330
1F
100
AcDbEntity
  8
0
  6
Continuous
 62
     7
370
    15
100
AcDbSpline
210
0.0
220
0.0
230
1.0
 70
     8
 71
     3
 72
    23
 73
    19
 74
     0
 42
0.00000001
 43
0.00000001
 12
1.0
 22
0.0
 32
0.0
 13
1.0
 23
0.0
 33
0.0
 40
0.0
 40
0.0
 40
0.0
 40
0.0
 40
0.0625065224134705
 40
0.1268032294228407
 40
0.1894476925803185
 40
0.2539381432713684
 40
0.3160572949799559
 40
0.3800123143127982
 40
0.4415418845482056
 40
0.5048752096397735
 40
0.5660803612052122
 40
0.6290610219317534
 40
0.6902737759323452
 40
0.7532438799218247
 40
0.8147897755420631
 40
0.8780884206729157
 40
0.9382463322173376
 40
1.0
 40
1.0
 40
1.0
 40
1.0
 10
191.4767811496143
 20
82.14986362477076
 30
0.0
 10
191.4613296538512
 20
82.16533383098695
 30
0.0
 10
191.4299841320316
 20
82.19671730957937
 30
0.0
 10
191.3738694633472
 20
82.23292216920895
 30
0.0
 10
191.312220501965
 20
82.26008214876728
 30
0.0
 10
191.2473002892496
 20
82.27610810339243
 30
0.0
 10
191.1800864029917
 20
82.28101891030393
 30
0.0
 10
191.1139074804399
 20
82.27460818065596
 30
0.0
 10
191.0492978721381
 20
82.25705211101396
 30
0.0
 10
190.9893624184189
 20
82.22931741665742
 30
0.0
 10
190.9344992434372
 20
82.19169625099616
 30
0.0
 10
190.8872107807884
 20
82.14600318167417
 30
0.0
 10
190.8478606523732
 20
82.09266036943195
 30
0.0
 10
190.8181905078296
 20
82.03405232335781
 30
0.0
 10
190.7984431532563
 20
81.97075011065284
 30
0.0
 10
190.789840513737
 20
81.90620712921144
 30
0.0
 10
190.7912255022866
 20
81.8409980459057
 30
0.0
 10
190.8008239902004
 20
81.79944649960504
 30
0.0
 10
190.8056860536493
 20
81.77839878288879
 30
0.0
  0
SPLINE
  5
28A
330
1F
100
AcDbEntity
  8
0
  6
Continuous
 62
     7
370
    15
100
AcDbSpline
210
0.0
220
0.0
230
1.0
 70
     8
 71
     3
 72
    17
 73
    13
 74
     0
 42
0.00000001
 43
0.00000001
 12
1.0
 22
0.0
 32
0.0
 13
1.0
 23
0.0
 33
0.0
 40
0.0
 40
0.0
 40
0.0
 40
0.0
 40
0.1014898822867226
 40
0.2058601172582689
 40
0.3074578824585349
 40
0.4121178416801706
 40
0.5116797789146059
 40
0.6142181466596698
 40
0.7124037419661711
 40
0.8133516758228592
 40
0.9055981370556929
 40
0.9999999999999999
 40
0.9999999999999999
 40
0.9999999999999999
 40
0.9999999999999999
 10
190.8056860536493
 20
81.77839878288879
 30
0.0
 10
190.8142015695747
 20
81.74150076236796
 30
0.0
 10
190.8314742776261
 20
81.66665753011794
 30
0.0
 10
190.8333234075761
 20
81.55094091506126
 30
0.0
 10
190.8169418065152
 20
81.43521247218459
 30
0.0
 10
190.7814239056299
 20
81.32516193568381
 30
0.0
 10
190.7279326293958
 20
81.22216477275518
 30
0.0
 10
190.6595956743574
 20
81.13137556924045
 30
0.0
 10
190.5771683099384
 20
81.05276468847654
 30
0.0
 10
190.4864870505103
 20
80.99123516157319
 30
0.0
 10
190.3891762239281
 20
80.944329872375
 30
0.0
 10
190.3218487236748
 20
80.92661971323649
 30
0.0
 10
190.2877962269309
 20
80.91766237583158
 30
0.0
  0
SPLINE
  5
28B
330
1F
100
AcDbEntity
  8
0
  6
Continuous
 62
     7
370
    15
100
AcDbSpline
210
0.0
220
0.0
230
1.0
 70
     8
 71
     3
 72
    23
 73
    19
 74
     0
 42
0.00000001
 43
0.00000001
 12
1.0
 22
0.0
 32
0.0
 13
1.0
 23
0.0
 33
0.0
 40
0.0
 40
0.0
 40
0.0
 40
0.0
 40
0.0622426492048078
 40
0.1262521514661036
 40
0.1888981177529212
 40
0.2533901296440886
 40
0.3155105033803572
 40
0.379466821246462
 40
0.4409968994992721
 40
0.5043307901200716
 40
0.5655357116527684
 40
0.6285161663439279
 40
0.6897281621781916
 40
0.7526974991099527
 40
0.814242417009922
 40
0.8775400527690058
 40
0.9379613017252395
 40
1.0
 40
1.0
 40
1.0
 40
1.0
 10
190.2877962269309
 20
80.91766237583158
 30
0.0
 10
190.2667611653644
 20
80.91204426016184
 30
0.0
 10
190.2240939297484
 20
80.90064854999278
 30
0.0
 10
190.1648247269531
 20
80.87031186022647
 30
0.0
 10
190.1105013089812
 20
80.8306410498043
 30
0.0
 10
190.0640909888465
 20
80.78249889772053
 30
0.0
 10
190.0261488680892
 20
80.72679993033587
 30
0.0
 10
189.9985224339055
 20
80.66632145295672
 30
0.0
 10
189.9813269303675
 20
80.60161410327775
 30
0.0
 10
189.975282195189
 20
80.53584946530337
 30
0.0
 10
189.9803348377847
 20
80.46951827604427
 30
0.0
 10
189.9961689344245
 20
80.40569569898723
 30
0.0
 10
190.0226014147043
 20
80.34490770168647
 30
0.0
 10
190.0584418244653
 20
80.28985668558872
 30
0.0
 10
190.1033179305125
 20
80.24103857641474
 30
0.0
 10
190.1549270867757
 20
80.20118567286293
 30
0.0
 10
190.2122285049108
 20
80.16961976513404
 30
0.0
 10
190.2531935919532
 20
80.15709144860956
 30
0.0
 10
190.2739466686308
 20
80.15074455343016
 30
0.0
  0
SPLINE
  5
28C
330
1F
100
AcDbEntity
  8
0
  6
Continuous
 62
     7
370
    15
100
AcDbSpline
210
0.0
220
0.0
230
1.0
 70
     8
 71
     3
 72
    17
 73
    13
 74
     0
 42
0.00000001
 43
0.00000001
 12
1.0
 22
0.0
 32
0.0
 13
1.0
 23
0.0
 33
0.0
 40
0.0
 40
0.0
 40
0.0
 40
0.0
 40
0.1015004730475988
 40
0.2058817751693086
 40
0.3074885968904741
 40
0.4121578043089519
 40
0.511729553913271
 40
0.6142784881921419
 40
0.7124655806085969
 40
0.8134156189215048
 40
0.9056310190756331
 40
1.0
 40
1.0
 40
1.0
 40
1.0
 10
190.2739466686308
 20
80.15074455343016
 30
0.0
 10
190.3101621470296
 20
80.13966907998568
 30
0.0
 10
190.3836209867522
 20
80.1172037843558
 30
0.0
 10
190.4847656909021
 20
80.06094023393172
 30
0.0
 10
190.5768028377686
 20
79.98888088594043
 30
0.0
 10
190.6543523641857
 20
79.90308635802222
 30
0.0
 10
190.7168048259611
 20
79.8052505353443
 30
0.0
 10
190.7612578555409
 20
79.70066267135971
 30
0.0
 10
190.7881153036789
 20
79.58996354204407
 30
0.0
 10
190.7960500579149
 20
79.48067336608787
 30
0.0
 10
190.7880090935164
 20
79.37296863691232
 30
0.0
 10
190.7696877534184
 20
79.30582826230014
 30
0.0
 10
190.7604213497451
 20
79.27187060360218
 30
0.0
  0
SPLINE
  5
28D
330
1F
100
AcDbEntity
  8
0
  6
Continuous
 62
     7
370
    15
100
AcDbSpline
210
0.0
220
0.0
230
1.0
 70
     8
 71
     3
 72
    15
 73
    11
 74
     0
 42
0.00000001
 43
0.00000001
 12
1.0
 22
0.0
 32
0.0
 13
1.0
 23
0.0
 33
0.0
 40
0.0
 40
0.0
 40
0.0
 40
0.0
 40
0.1268702503427832
 40
0.2539810595568224
 40
0.3800301963396425
 40
0.5048749967546825
 40
0.6290527571815631
 40
0.7532384607998318
 40
0.8780953942143753
 40
1.0
 40
1.0
 40
1.0
 40
1.0
 10
190.7604213497451
 20
79.27187060360218
 30
0.0
 10
190.751015346425
 20
79.22830492050035
 30
0.0
 10
190.732185505048
 20
79.14109094933985
 30
0.0
 10
190.7611308362304
 20
79.00735321942422
 30
0.0
 10
190.8296699843087
 20
78.89124978292908
 30
0.0
 10
190.9329950592229
 20
78.80491285145983
 30
0.0
 10
191.0582660379377
 20
78.75753269437756
 30
0.0
 10
191.1912590996608
 20
78.7543825059932
 30
0.0
 10
191.3190201699467
 20
78.79266647371153
 30
0.0
 10
191.3850479736095
 20
78.8487241367475
 30
0.0
 10
191.4176668874099
 20
78.87641762308176
 30
0.0
  0
SPLINE
  5
28E
330
1F
100
AcDbEntity
  8
0
  6
Continuous
 62
     7
370
    15
100
AcDbSpline
210
0.0
220
0.0
230
1.0
 70
     8
 71
     3
 72
    12
 73
     8
 74
     0
 42
0.00000001
 43
0.00000001
 12
1.0
 22
0.0
 32
0.0
 13
1.0
 23
0.0
 33
0.0
 40
0.0
 40
0.0
 40
0.0
 40
0.0
 40
0.2058321750920929
 40
0.412075034357718
 40
0.6141697879284637
 40
0.8133029339857989
 40
1.0
 40
1.0
 40
1.0
 40
1.0
 10
191.4176668874099
 20
78.87641762308176
 30
0.0
 10
191.4765776472754
 20
78.92617757334271
 30
0.0
 10
191.5945167079918
 20
79.0257967568073
 30
0.0
 10
191.8221528153733
 20
79.0913272593638
 30
0.0
 10
192.05287487002
 20
79.08213135093635
 30
0.0
 10
192.2648370777325
 20
79.00363128224254
 30
0.0
 10
192.3707714483431
 20
78.90567807160488
 30
0.0
 10
192.4220313952427
 20
78.85828008031089
 30
0.0
  0
SPLINE
  5
28F
330
1F
100
AcDbEntity
  8
0
  6
Continuous
 62
     7
370
    15
100
AcDbSpline
210
0.0
220
0.0
230
1.0
 70
     8
 71
     3
 72
    15
 73
    11
 74
     0
 42
0.00000001
 43
0.00000001
 12
1.0
 22
0.0
 32
0.0
 13
1.0
 23
0.0
 33
0.0
 40
0.0
 40
0.0
 40
0.0
 40
0.0
 40
0.126788029197498
 40
0.2538950064076086
 40
0.379940902287726
 40
0.5047841289691923
 40
0.6289621452108967
 40
0.753149539127965
 40
0.8780089278145619
 40
1.0
 40
1.0
 40
1.0
 40
1.0
 10
192.4220313952427
 20
78.85828008031089
 30
0.0
 10
192.4550341736563
 20
78.82836881889706
 30
0.0
 10
192.521122752285
 20
78.76847105128924
 30
0.0
 10
192.6513763471396
 20
78.72664997046837
 30
0.0
 10
192.7861925387942
 20
78.7279244426284
 30
0.0
 10
192.9126341254564
 20
78.77420815801733
 30
0.0
 10
193.0163216124525
 20
78.85898129435603
 30
0.0
 10
193.0855730250584
 20
78.97256570823653
 30
0.0
 10
193.1163368110476
 20
79.10237611772416
 30
0.0
 10
193.100803099044
 20
79.18761881754472
 30
0.0
 10
193.0931264912077
 20
79.22974492219267
 30
0.0
  0
SPLINE
  5
290
330
1F
100
AcDbEntity
  8
0
  6
Continuous
 62
     7
370
    15
100
AcDbSpline
210
0.0
220
0.0
230
1.0
 70
     8
 71
     3
 72
    17
 73
    13
 74
     0
 42
0.00000001
 43
0.00000001
 12
1.0
 22
0.0
 32
0.0
 13
1.0
 23
0.0
 33
0.0
 40
0.0
 40
0.0
 40
0.0
 40
0.0
 40
0.1015098469729503
 40
0.2059006998424341
 40
0.3075184015868511
 40
0.412199001572399
 40
0.5117774950831291
 40
0.6143342058937961
 40
0.7125142060558467
 40
0.8134571906890206
 40
0.905652387826546
 40
1.0
 40
1.0
 40
1.0
 40
1.0
 10
193.0931264912077
 20
79.22974492219267
 30
0.0
 10
193.0846099263461
 20
79.2666488006885
 30
0.0
 10
193.0673350833872
 20
79.3415039466254
 30
0.0
 10
193.0654903095932
 20
79.45723758212272
 30
0.0
 10
193.0818815121563
 20
79.57298230945041
 30
0.0
 10
193.1174146473913
 20
79.68304692295763
 30
0.0
 10
193.1709272164678
 20
79.78605611434443
 30
0.0
 10
193.2392856050686
 20
79.87684633898309
 30
0.0
 10
193.3217309201969
 20
79.955448931252
 30
0.0
 10
193.4124069486742
 20
80.0169537886718
 30
0.0
 10
193.5096899633221
 20
80.06383053395534
 30
0.0
 10
193.5769820509098
 20
80.08152965732981
 30
0.0
 10
193.6110163179261
 20
80.09048132924958
 30
0.0
  0
LINE
  5
291
330
1F
100
AcDbEntity
  8
0
  6
Continuous
 62
     7
370
    15
100
AcDbLine
 10
182.5511063767
 20
80.1990772969
 30
0.0
 11
191.8076631465
 21
72.4319039254
 31
0.0
  0
ARC
  5
292
330
1F
100
AcDbEntity
  8
0
  6
Continuous
 62
     7
370
    15
100
AcDbCircle
 10
182.8082214205
 20
80.5054950742
 30
0.0
 40
0.4000000000000118
100
AcDbArc
 50
130.0
 51
230.0
  0
LINE
  5
293
330
1F
100
AcDbEntity
  8
0
  6
Continuous
 62
     7
370
    15
100
AcDbLine
 10
191.8076631465
 20
88.5790862229
 30
0.0
 11
182.5511063767
 21
80.8119128514
 31
0.0
  0
ARC
  5
294
330
1F
100
AcDbEntity
  8
0
  6
Continuous
 62
     7
370
    15
100
AcDbCircle
 10
192.0647781904
 20
88.2726684457
 30
0.0
 40
0.4000000000000118
100
AcDbArc
 50
50.0
 51
130.0
  0
LINE
  5
295
330
1F
100
AcDbEntity
  8
0
  6
Continuous
 62
     7
370
    15
100
AcDbLine
 10
201.5784500041
 20
80.8119128514
 30
0.0
 11
192.3218932342
 21
88.5790862229
 31
0.0
  0
ARC
  5
296
330
1F
100
AcDbEntity
  8
0
  6
Continuous
 62
     7
370
    15
100
AcDbCircle
 10
201.3213349602
 20
80.5054950742
 30
0.0
 40
0.3999999999999935
100
AcDbArc
 50
310.0
 51
50.0
  0
LINE
  5
297
330
1F
100
AcDbEntity
  8
0
  6
Continuous
 62
     7
370
    15
100
AcDbLine
 10
192.3218932342
 20
72.4319039254
 30
0.0
 11
201.5784500041
 21
80.1990772969
 31
0.0
  0
ARC
  5
298
330
1F
100
AcDbEntity
  8
0
  6
Continuous
 62
     7
370
    15
100
AcDbCircle
 10
192.0647781904
 20
72.7383217026
 30
0.0
 40
0.40000000000003
100
AcDbArc
 50
230.0
 51
310.0
  0
ARC
  5
299
330
1F
100
AcDbEntity
  8
0
  6
Continuous
 62
     7
370
    15
100
AcDbCircle
 10
201.3213349602
 20
80.5054950742
 30
0.0
 40
0.3799999999999856
100
AcDbArc
 50
310.0
 51
50.0
  0
LINE
  5
29A
330
1F
100
AcDbEntity
  8
0
  6
Continuous
 62
     7
370
    15
100
AcDbLine
 10
201.5655942519
 20
80.7965919625
 30
0.0
 11
192.3090374819
 21
88.5637653338
 31
0.0
  0
ARC
  5
29B
330
1F
100
AcDbEntity
  8
0
  6
Continuous
 62
     7
370
    15
100
AcDbCircle
 10
192.0647781904
 20
88.2726684457
 30
0.0
 40
0.3799999999999856
100
AcDbArc
 50
50.0
 51
130.0
  0
LINE
  5
29C
330
1F
100
AcDbEntity
  8
0
  6
Continuous
 62
     7
370
    15
100
AcDbLine
 10
191.8205188987
 20
88.5637653341
 30
0.0
 11
182.5639621289
 21
80.7965919625
 31
0.0
  0
ARC
  5
29D
330
1F
100
AcDbEntity
  8
0
  6
Continuous
 62
     7
370
    15
100
AcDbCircle
 10
182.8082214205
 20
80.5054950742
 30
0.0
 40
0.3800000000000148
100
AcDbArc
 50
130.0
 51
230.0
  0
LINE
  5
29E
330
1F
100
AcDbEntity
  8
0
  6
Continuous
 62
     7
370
    15
100
AcDbLine
 10
182.5639621289
 20
80.2143981858
 30
0.0
 11
191.8205188987
 21
72.4472248142
 31
0.0
  0
ARC
  5
29F
330
1F
100
AcDbEntity
  8
0
  6
Continuous
 62
     7
370
    15
100
AcDbCircle
 10
192.0647781904
 20
72.7383217026
 30
0.0
 40
0.3800000000000039
100
AcDbArc
 50
230.0
 51
310.0
  0
LINE
  5
2A0
330
1F
100
AcDbEntity
  8
0
  6
Continuous
 62
     7
370
    15
100
AcDbLine
 10
192.309037482
 20
72.4472248142
 30
0.0
 11
201.5655942519
 21
80.2143981858
 31
0.0
  0
LINE
  5
2A1
330
1F
100
AcDbEntity
  8
0
  6
Continuous
 62
     7
370
    15
100
AcDbLine
 10
192.0647781904
 20
88.2726684457
 30
0.0
 11
192.3090374819
 21
88.5637653338
 31
0.0
  0
LINE
  5
2A2
330
1F
100
AcDbEntity
  8
0
  6
Continuous
 62
     7
370
    15
100
AcDbLine
 10
201.3213349602
 20
80.5054950742
 30
0.0
 11
201.5655942519
 21
80.7965919625
 31
0.0
  0
LINE
  5
2A3
330
1F
100
AcDbEntity
  8
0
  6
Continuous
 62
     7
370
    15
100
AcDbLine
 10
200.0216722092
 20
80.5054950742
 30
0.0
 11
201.3213349602
 21
80.5054950742
 31
0.0
  0
LINE
  5
2A4
330
1F
100
AcDbEntity
  8
0
  6
Continuous
 62
     7
370
    15
100
AcDbLine
 10
192.0647781904
 20
87.4613421446
 30
0.0
 11
192.0647781904
 21
88.2726684457
 31
0.0
  0
LINE
  5
2A5
330
1F
100
AcDbEntity
  8
0
  6
Continuous
 62
     7
370
    15
100
AcDbLine
 10
182.8082214205
 20
80.5054950742
 30
0.0
 11
182.5639621289
 21
80.7965919625
 31
0.0
  0
LINE
  5
2A6
330
1F
100
AcDbEntity
  8
0
  6
Continuous
 62
     7
370
    15
100
AcDbLine
 10
192.0647781904
 20
88.2726684457
 30
0.0
 11
191.8205188987
 21
88.5637653341
 31
0.0
  0
LINE
  5
2A7
330
1F
100
AcDbEntity
  8
0
  6
Continuous
 62
     7
370
    15
100
AcDbLine
 10
184.1078841716
 20
80.5054950742
 30
0.0
 11
182.8082214205
 21
80.5054950742
 31
0.0
  0
ARC
  5
2A8
330
1F
100
AcDbEntity
  8
0
  6
Continuous
 62
     7
370
    15
100
AcDbCircle
 10
192.0647781904
 20
84.8525013476
 30
0.0
 40
1.000000000000011
100
AcDbArc
 50
50.0
 51
130.0
  0
LINE
  5
2A9
330
1F
100
AcDbEntity
  8
0
  6
Continuous
 62
     7
370
    15
100
AcDbLine
 10
186.2414302372
 20
79.739450631
 30
0.0
 11
191.4219905807
 21
75.3924443576
 31
0.0
  0
ARC
  5
2AA
330
1F
100
AcDbEntity
  8
0
  6
Continuous
 62
     7
370
    15
100
AcDbCircle
 10
186.8842178469
 20
80.5054950742
 30
0.0
 40
0.9999999999999857
100
AcDbArc
 50
130.0
 51
230.0
  0
LINE
  5
2AB
330
1F
100
AcDbEntity
  8
0
  6
Continuous
 62
     7
370
    15
100
AcDbLine
 10
191.4219905807
 20
85.6185457907
 30
0.0
 11
186.2414302372
 21
81.2715395173
 31
0.0
  0
LINE
  5
2AC
330
1F
100
AcDbEntity
  8
0
  6
Continuous
 62
     7
370
    15
100
AcDbLine
 10
197.8881261435
 20
81.2715395173
 30
0.0
 11
192.7075658001
 21
85.6185457907
 31
0.0
  0
ARC
  5
2AD
330
1F
100
AcDbEntity
  8
0
  6
Continuous
 62
     7
370
    15
100
AcDbCircle
 10
197.2453385338
 20
80.5054950742
 30
0.0
 40
1.000000000295378
100
AcDbArc
 50
310.0
 51
50.0
  0
LINE
  5
2AE
330
1F
100
AcDbEntity
  8
0
  6
Continuous
 62
     7
370
    15
100
AcDbLine
 10
192.7075658001
 20
75.3924443576
 30
0.0
 11
197.8881261437
 21
79.7394506308
 31
0.0
  0
ARC
  5
2AF
330
1F
100
AcDbEntity
  8
0
  6
Continuous
 62
     7
370
    15
100
AcDbCircle
 10
192.0647781904
 20
76.1584888007
 30
0.0
 40
0.9999999999999931
100
AcDbArc
 50
230.0
 51
310.0
  0
CIRCLE
  5
2B0
330
1F
100
AcDbEntity
  8
0
  6
Continuous
 62
     7
370
    15
100
AcDbCircle
 10
192.0647781904
 20
80.5054950742
 30
0.0
 40
3.800000000000003
  0
LINE
  5
2B1
330
1F
100
AcDbEntity
  8
0
  6
Continuous
 62
     7
370
    15
100
AcDbLine
 10
192.0647781904
 20
72.7383217026
 30
0.0
 11
191.8205188987
 21
72.4472248142
 31
0.0
  0
LINE
  5
2B2
330
1F
100
AcDbEntity
  8
0
  6
Continuous
 62
     7
370
    15
100
AcDbLine
 10
182.8082214205
 20
80.5054950742
 30
0.0
 11
182.5639621289
 21
80.2143981858
 31
0.0
  0
LINE
  5
2B3
330
1F
100
AcDbEntity
  8
0
  6
Continuous
 62
     7
370
    15
100
AcDbLine
 10
192.0647781904
 20
73.5496480037
 30
0.0
 11
192.0647781904
 21
72.7383217026
 31
0.0
  0
LINE
  5
2B4
330
1F
100
AcDbEntity
  8
0
  6
Continuous
 62
     7
370
    15
100
AcDbLine
 10
201.3213349602
 20
80.5054950742
 30
0.0
 11
201.5655942519
 21
80.2143981858
 31
0.0
  0
LINE
  5
2B5
330
1F
100
AcDbEntity
  8
0
  6
Continuous
 62
     7
370
    15
100
AcDbLine
 10
192.0647781904
 20
72.7383217026
 30
0.0
 11
192.309037482
 21
72.4472248142
 31
0.0
  0
SPLINE
  5
2B6
330
1F
100
AcDbEntity
  8
0
  6
Continuous
 62
     7
370
    15
100
AcDbSpline
210
0.0
220
0.0
230
1.0
 70
    24
 71
     3
 72
    11
 73
     7
 74
     0
 42
0.00000001
 43
0.00000001
 12
1.0
 22
0.0
 32
0.0
 13
1.0
 23
0.0
 33
0.0
 40
0.0
 40
0.0
 40
0.0
 40
0.0
 40
0.3372314186521309
 40
0.6736321483071527
 40
0.9918835608968766
 40
1.0
 40
1.0
 40
1.0
 40
1.0
 10
192.0647781903636
 20
87.46134214462074
 30
0.0
 10
192.0647781903636
 20
87.38369642818797
 30
0.0
 10
192.0647781903636
 20
87.22859625698649
 30
0.0
 10
192.0647781903636
 20
86.98612627421291
 30
0.0
 10
192.0647781903637
 20
86.83695694505157
 30
0.0
 10
192.0647781903636
 20
86.76913663320353
 30
0.0
 10
192.0647781903636
 20
86.76745001049171
 30
0.0
  0
SPLINE
  5
2B7
330
1F
100
AcDbEntity
  8
0
  6
Continuous
 62
     7
370
    15
100
AcDbSpline
210
0.0
220
0.0
230
1.0
 70
    24
 71
     3
 72
    11
 73
     7
 74
     0
 42
0.00000001
 43
0.00000001
 12
1.0
 22
0.0
 32
0.0
 13
1.0
 23
0.0
 33
0.0
 40
0.0
 40
0.0
 40
0.0
 40
0.0
 40
0.0076282660081602
 40
0.3209888652312676
 40
0.6632168868587096
 40
1.0
 40
1.0
 40
1.0
 40
1.0
 10
199.3302241979168
 20
80.50549507415168
 30
0.0
 10
199.331801838952
 20
80.50549507415168
 30
0.0
 10
199.3981872016372
 20
80.5054950741519
 30
0.0
 10
199.5453445694896
 20
80.50549507415154
 30
0.0
 10
199.7849800369998
 20
80.5054950741518
 30
0.0
 10
199.9431977279751
 20
80.5054950741515
 30
0.0
 10
200.0216722091614
 20
80.50549507415136
 30
0.0
  0
SPLINE
  5
2B8
330
1F
100
AcDbEntity
  8
0
  6
Continuous
 62
     7
370
    15
100
AcDbSpline
210
0.0
220
0.0
230
1.0
 70
    24
 71
     3
 72
    11
 73
     7
 74
     0
 42
0.00000001
 43
0.00000001
 12
1.0
 22
0.0
 32
0.0
 13
1.0
 23
0.0
 33
0.0
 40
0.0
 40
0.0
 40
0.0
 40
0.0
 40
0.3367831131414453
 40
0.6790111347689778
 40
0.9923717339918595
 40
1.0
 40
1.0
 40
1.0
 40
1.0
 10
184.1078841715658
 20
80.50549507415161
 30
0.0
 10
184.1863586527521
 20
80.5054950741516
 30
0.0
 10
184.3445763437275
 20
80.50549507415154
 30
0.0
 10
184.5842118112377
 20
80.50549507415188
 30
0.0
 10
184.7313691790901
 20
80.50549507415111
 30
0.0
 10
184.7977545417753
 20
80.50549507415161
 30
0.0
 10
184.7993321828104
 20
80.50549507415161
 30
0.0
  0
SPLINE
  5
2B9
330
1F
100
AcDbEntity
  8
0
  6
Continuous
 62
     7
370
    15
100
AcDbSpline
210
0.0
220
0.0
230
1.0
 70
    24
 71
     3
 72
    11
 73
     7
 74
     0
 42
0.00000001
 43
0.00000001
 12
1.0
 22
0.0
 32
0.0
 13
1.0
 23
0.0
 33
0.0
 40
0.0
 40
0.0
 40
0.0
 40
0.0
 40
0.008116439103124
 40
0.3263678516928478
 40
0.6627685813478693
 40
0.9999999999999999
 40
0.9999999999999999
 40
0.9999999999999999
 40
0.9999999999999999
 10
192.0647781903637
 20
74.24354013781156
 30
0.0
 10
192.0647781903637
 20
74.24185351509976
 30
0.0
 10
192.0647781903637
 20
74.17403320325172
 30
0.0
 10
192.0647781903637
 20
74.02486387409039
 30
0.0
 10
192.0647781903637
 20
73.78239389131679
 30
0.0
 10
192.0647781903637
 20
73.62729372011532
 30
0.0
 10
192.0647781903637
 20
73.54964800368255
 30
0.0
  0
CIRCLE
  5
2BA
330
1F
100
AcDbEntity
  8
0
  6
HIDDEN
 62
     7
370
     0
100
AcDbCircle
 10
156.7213349602
 20
80.5054950742
 30
0.0
 40
1.98038475772934
  0
CIRCLE
  5
2BB
330
1F
100
AcDbEntity
  8
0
  6
HIDDEN
 62
     7
370
     0
100
AcDbCircle
 10
156.7213349602
 20
80.5054950742
 30
0.0
 40
2.5
  0
CIRCLE
  5
2BC
330
1F
100
AcDbEntity
  8
0
  6
HIDDEN
 62
     7
370
     0
100
AcDbCircle
 10
156.7213349602
 20
80.5054950742
 30
0.0
 40
2.0
  0
CIRCLE
  5
2BD
330
1F
100
AcDbEntity
  8
0
  6
HIDDEN
 62
     7
370
     0
100
AcDbCircle
 10
156.7213349602
 20
80.5054950742
 30
0.0
 40
2.300000000000011
  0
CIRCLE
  5
2BE
330
1F
100
AcDbEntity
  8
0
  6
HIDDEN
 62
     7
370
     0
100
AcDbCircle
 10
156.7213349602
 20
80.5054950742
 30
0.0
 40
2.360000000000014
  0
LINE
  5
2BF
330
1F
100
AcDbEntity
  8
0
  6
HIDDEN
 62
     7
370
     0
100
AcDbLine
 10
135.6861752613
 20
96.6169040752
 30
0.0
 11
135.6861752613
 21
92.3554950742
 31
0.0
  0
LINE
  5
2C0
330
1F
100
AcDbEntity
  8
0
  6
HIDDEN
 62
     7
370
     0
100
AcDbLine
 10
141.6713349602
 20
93.3828977626
 30
0.0
 11
141.6713349602
 21
92.3554950742
 31
0.0
  0
ELLIPSE
  5
2C1
330
1F
100
AcDbEntity
  8
0
  6
HIDDEN
 62
     7
370
     0
100
AcDbEllipse
 10
201.4769073429
 20
80.5054950742
 30
0.0
 11
19.87342319798929
 21
16.42659542512062
 31
0.0
210
0.0
220
0.0
230
1.0
 40
0.0782280126
 41
1.688779553690708
 42
3.217771527147641
  0
ELLIPSE
  5
2C2
330
1F
100
AcDbEntity
  8
0
  6
HIDDEN
 62
     7
370
     0
100
AcDbEllipse
 10
201.0124582602
 20
80.5054950742
 30
0.0
 11
0.0
 21
16.5
 31
0.0
210
0.0
220
0.0
230
1.0
 40
0.191018867
 41
1.547174793540713
 42
1.59441786004908
  0
ELLIPSE
  5
2C3
330
1F
100
AcDbEntity
  8
0
  6
HIDDEN
 62
     7
370
     0
100
AcDbEllipse
 10
201.4769073429
 20
80.5054950742
 30
0.0
 11
19.87342319798929
 21
-16.42659542512062
 31
0.0
210
0.0
220
0.0
230
1.0
 40
0.0782280126
 41
3.065413780032122
 42
4.594405753488882
  0
SPLINE
  5
2C4
330
1F
100
AcDbEntity
  8
0
  6
HIDDEN
 62
     7
370
     0
100
AcDbSpline
210
0.0
220
0.0
230
1.0
 70
     8
 71
     3
 72
     9
 73
     5
 74
     0
 42
0.00000001
 43
0.00000001
 12
1.0
 22
0.0
 32
0.0
 13
1.0
 23
0.0
 33
0.0
 40
0.0
 40
0.0
 40
0.0
 40
0.0
 40
0.6768575959218855
 40
0.9999999999999999
 40
0.9999999999999999
 40
0.9999999999999999
 40
0.9999999999999999
 10
112.9561272000626
 20
95.25955175338643
 30
0.0
 10
113.0533305433992
 20
95.242776685733
 30
0.0
 10
113.1969402833537
 20
95.21799293837682
 30
0.0
 10
113.6078754257432
 20
95.18231449324678
 30
0.0
 10
113.7406659955751
 20
95.17078527471371
 30
0.0
  0
SPLINE
  5
2C5
330
1F
100
AcDbEntity
  8
0
  6
HIDDEN
 62
     7
370
     0
100
AcDbSpline
210
0.0
220
0.0
230
1.0
 70
     8
 71
     3
 72
    22
 73
    18
 74
     0
 42
0.00000001
 43
0.00000001
 12
1.0
 22
0.0
 32
0.0
 13
1.0
 23
0.0
 33
0.0
 40
0.0
 40
0.0
 40
0.0
 40
0.0
 40
0.0670874836359506
 40
0.1361106374043574
 40
0.2032006626721199
 40
0.2722660935726647
 40
0.338788500763185
 40
0.4072892646062367
 40
0.4730099592228747
 40
0.540620106688933
 40
0.606688346593726
 40
0.6746185494482642
 40
0.741635992692098
 40
0.8105882181941201
 40
0.8776910419860445
 40
0.9467915512649857
 40
1.0
 40
1.0
 40
1.0
 40
1.0
 10
117.5455116880605
 20
67.83268478067123
 30
0.0
 10
117.4628783686943
 20
67.84417480792848
 30
0.0
 10
117.2952275169973
 20
67.86748638333744
 30
0.0
 10
116.9865705146394
 20
67.90237327885775
 30
0.0
 10
116.6422162986265
 20
67.93259115115217
 30
0.0
 10
116.2742607887633
 20
67.95438315022075
 30
0.0
 10
115.8879956362663
 20
67.96555192989533
 30
0.0
 10
115.5029679205941
 20
67.96472656749636
 30
0.0
 10
115.1224426424427
 20
67.95218832843979
 30
0.0
 10
114.7632048440613
 20
67.9297177620928
 30
0.0
 10
114.4271714490999
 20
67.8993899210427
 30
0.0
 10
114.1280005087501
 20
67.86485991382523
 30
0.0
 10
113.8696643048524
 20
67.82939949000856
 30
0.0
 10
113.6639481850986
 20
67.79740807286188
 30
0.0
 10
113.516865436063
 20
67.77255732280689
 30
0.0
 10
113.4326805081725
 20
67.757550955569
 30
0.0
 10
113.4282104210293
 20
67.75673600253552
 30
0.0
 10
113.4262657850316
 20
67.75638147096721
 30
0.0
  0
SPLINE
  5
2C6
330
1F
100
AcDbEntity
  8
0
  6
HIDDEN
 62
     7
370
     0
100
AcDbSpline
210
0.0
220
0.0
230
1.0
 70
     8
 71
     3
 72
    31
 73
    27
 74
     0
 42
0.00000001
 43
0.00000001
 12
1.0
 22
0.0
 32
0.0
 13
1.0
 23
0.0
 33
0.0
 40
0.0
 40
0.0
 40
0.0
 40
0.0
 40
0.0468648371178975
 40
0.0810815400948433
 40
0.1138410289497654
 40
0.1804561079679745
 40
0.2143858842883932
 40
0.2474706866004603
 40
0.3147385183199093
 40
0.3489979890562504
 40
0.3824825049907482
 40
0.4161998688659061
 40
0.4506554623658763
 40
0.4853683247074688
 40
0.5187039444152431
 40
0.5865380796026086
 40
0.6211239618004766
 40
0.6539792442951199
 40
0.7208135791534138
 40
0.7548711931789184
 40
0.7876695502458009
 40
0.8543551182983115
 40
0.8883158005396525
 40
0.9159131706862559
 40
0.9717348843213316
 40
1.0
 40
1.0
 40
1.0
 40
1.0
 10
113.4281189832159
 20
93.25427434058189
 30
0.0
 10
113.4281333557752
 20
93.25426852847859
 30
0.0
 10
113.4281582219502
 20
93.25425847287367
 30
0.0
 10
113.4654831039617
 20
93.24758461588718
 30
0.0
 10
113.5260372248126
 20
93.23695181119356
 30
0.0
 10
113.6179463666011
 20
93.22128364944652
 30
0.0
 10
113.7381245036249
 20
93.20205136613022
 30
0.0
 10
113.8771601254166
 20
93.18084569364242
 30
0.0
 10
114.0428562380735
 20
93.1575802375893
 30
0.0
 10
114.2316863369871
 20
93.13420812137764
 30
0.0
 10
114.3841501689919
 20
93.11709747954167
 30
0.0
 10
114.5463419633555
 20
93.10088478628724
 30
0.0
 10
114.719065455668
 20
93.0858975672585
 30
0.0
 10
114.8986053458582
 20
93.07285002169029
 30
0.0
 10
115.1444805453356
 20
93.05852572831947
 30
0.0
 10
115.3999965524129
 20
93.04926449199498
 30
0.0
 10
115.6579149674111
 20
93.0459939140121
 30
0.0
 10
115.9144993066252
 20
93.04668455556556
 30
0.0
 10
116.168748716774
 20
93.05321605932552
 30
0.0
 10
116.4150883460307
 20
93.06506402606857
 30
0.0
 10
116.654604604468
 20
93.08004242050626
 30
0.0
 10
116.8821592998844
 20
93.09913668969652
 30
0.0
 10
117.0842213124372
 20
93.11990678750068
 30
0.0
 10
117.2587310347349
 20
93.13976994147738
 30
0.0
 10
117.4117792332798
 20
93.15935277528945
 30
0.0
 10
117.5118677373072
 20
93.17353733967224
 30
0.0
 10
117.5455116880605
 20
93.178305367631
 30
0.0
  0
SPLINE
  5
2C7
330
1F
100
AcDbEntity
  8
0
  6
HIDDEN
 62
     7
370
     0
100
AcDbSpline
210
0.0
220
0.0
230
1.0
 70
     8
 71
     3
 72
    14
 73
    10
 74
     0
 42
0.00000001
 43
0.00000001
 12
1.0
 22
0.0
 32
0.0
 13
1.0
 23
0.0
 33
0.0
 40
0.0
 40
0.0
 40
0.0
 40
0.0
 40
0.1253481480199125
 40
0.2515753139417607
 40
0.3805614421708147
 40
0.5104966985861844
 40
0.6358946239533798
 40
0.8909213062470688
 40
1.0
 40
1.0
 40
1.0
 40
1.0
 10
117.5455116880605
 20
93.178305367631
 30
0.0
 10
117.582557917663
 20
93.18348131329954
 30
0.0
 10
117.6569101676947
 20
93.19386950153431
 30
0.0
 10
117.7530586897527
 20
93.20566009870304
 30
0.0
 10
117.8370610728572
 20
93.21514513620177
 30
0.0
 10
117.9057628318887
 20
93.22221156814153
 30
0.0
 10
117.9762219454301
 20
93.22894356085222
 30
0.0
 10
118.0169174644542
 20
93.23242550449149
 30
0.0
 10
118.0194528681831
 20
93.23264203953215
 30
0.0
 10
118.0202124244685
 20
93.23270690910272
 30
0.0
  0
SPLINE
  5
2C8
330
1F
100
AcDbEntity
  8
0
  6
HIDDEN
 62
     7
370
     0
100
AcDbSpline
210
0.0
220
0.0
230
1.0
 70
     8
 71
     3
 72
    12
 73
     8
 74
     0
 42
0.00000001
 43
0.00000001
 12
1.0
 22
0.0
 32
0.0
 13
1.0
 23
0.0
 33
0.0
 40
0.0
 40
0.0
 40
0.0
 40
0.0
 40
0.021240926382698
 40
0.2735975635367368
 40
0.5332706763907658
 40
0.7638358635936798
 40
1.0
 40
1.0
 40
1.0
 40
1.0
 10
118.0188444041338
 20
67.7784033152606
 30
0.0
 10
118.0196666709536
 20
67.77833201720568
 30
0.0
 10
118.0302580262643
 20
67.77741364981604
 30
0.0
 10
117.9902822774664
 20
67.78076723290516
 30
0.0
 10
117.8971540778761
 20
67.78949945308209
 30
0.0
 10
117.7474193914074
 20
67.80525700002643
 30
0.0
 10
117.6133503593631
 20
67.82346936112617
 30
0.0
 10
117.5455116880605
 20
67.83268478067123
 30
0.0
  0
LINE
  5
2C9
330
1F
100
AcDbEntity
  8
0
  6
HIDDEN
 62
     7
370
     0
100
AcDbLine
 10
109.723984691
 20
70.0054950742
 30
0.0
 11
109.723984691
 21
91.0054950742
 31
0.0
  0
CIRCLE
  5
2CA
330
1F
100
AcDbEntity
  8
0
  6
HIDDEN
 62
     7
370
     0
100
AcDbCircle
 10
156.7213349602
 20
80.5054950742
 30
0.0
 40
2.099999999999994
  0
LINE
  5
2CB
330
1F
100
AcDbEntity
  8
0
  6
HIDDEN
 62
     7
370
     0
100
AcDbLine
 10
127.8907102104
 20
70.0054950742
 30
0.0
 11
127.8907102104
 21
91.0054950742
 31
0.0
  0
LINE
  5
2CC
330
1F
100
AcDbEntity
  8
0
  6
HIDDEN
 62
     7
370
     0
100
AcDbLine
 10
129.6713349602
 20
70.6304950742
 30
0.0
 11
129.6713349602
 21
90.3804950742
 31
0.0
  0
SPLINE
  5
2CD
330
1F
100
AcDbEntity
  8
0
  6
HIDDEN
 62
     7
370
     0
100
AcDbSpline
210
0.0
220
0.0
230
1.0
 70
     8
 71
     3
 72
    14
 73
    10
 74
     0
 42
0.00000001
 43
0.00000001
 12
1.0
 22
0.0
 32
0.0
 13
1.0
 23
0.0
 33
0.0
 40
0.0
 40
0.0
 40
0.0
 40
0.0
 40
0.2499999999999999
 40
0.2499999999999999
 40
0.4999999999999998
 40
0.4999999999999998
 40
0.7499999999999997
 40
0.7499999999999997
 40
1.0
 40
1.0
 40
1.0
 40
1.0
 10
105.421334960183
 20
90.52968456757152
 30
0.0
 10
105.421334960183
 20
90.4932127030377
 30
0.0
 10
105.398964328379
 20
90.45547695052521
 30
0.0
 10
105.3117487971307
 20
90.38034122882576
 30
0.0
 10
105.2477275910541
 20
90.34396894260367
 30
0.0
 10
105.0842422933128
 20
90.27974540344157
 30
0.0
 10
104.9849274191396
 20
90.25222244081911
 30
0.0
 10
104.7651011484345
 20
90.214050273932
 30
0.0
 10
104.6440975861254
 20
90.20340077589931
 30
0.0
 10
104.521334960183
 20
90.20340077589931
 30
0.0
  0
LINE
  5
2CE
330
1F
100
AcDbEntity
  8
0
  6
HIDDEN
 62
     7
370
     0
100
AcDbLine
 10
104.5213349602
 20
90.2034007759
 30
0.0
 11
102.7713349602
 21
90.2034007759
 31
0.0
  0
ARC
  5
2CF
330
1F
100
AcDbEntity
  8
0
  6
HIDDEN
 62
     7
370
     0
100
AcDbCircle
 10
106.7963349602
 20
80.5054950742
 30
0.0
 40
10.49999999999999
100
AcDbArc
 50
247.4596895365
 51
247.8078280674
  0
LINE
  5
2D0
330
1F
100
AcDbEntity
  8
0
  6
HIDDEN
 62
     7
370
     0
100
AcDbLine
 10
102.8303349602
 20
70.783311986
 30
0.0
 11
107.0213349602
 21
70.783311986
 31
0.0
  0
SPLINE
  5
2D1
330
1F
100
AcDbEntity
  8
0
  6
HIDDEN
 62
     7
370
     0
100
AcDbSpline
210
0.0
220
0.0
230
1.0
 70
     8
 71
     3
 72
    14
 73
    10
 74
     0
 42
0.00000001
 43
0.00000001
 12
1.0
 22
0.0
 32
0.0
 13
1.0
 23
0.0
 33
0.0
 40
0.0
 40
0.0
 40
0.0
 40
0.0
 40
0.25
 40
0.25
 40
0.5
 40
0.5
 40
0.75
 40
0.75
 40
1.0
 40
1.0
 40
1.0
 40
1.0
 10
107.021334960183
 20
70.7833119859759
 30
0.0
 10
107.143803048102
 20
70.7833119859759
 30
0.0
 10
107.2640141269708
 20
70.77297496625602
 30
0.0
 10
107.4842204462234
 20
70.73550773767805
 30
0.0
 10
107.5838758989214
 20
70.7083765693888
 30
0.0
 10
107.7468632518772
 20
70.64560952318197
 30
0.0
 10
107.8116006126236
 20
70.60954582925505
 30
0.0
 10
107.8984359627407
 20
70.53635315938698
 30
0.0
 10
107.921334960183
 20
70.49881037387598
 30
0.0
 10
107.921334960183
 20
70.46310272969454
 30
0.0
  0
LINE
  5
2D2
330
1F
100
AcDbEntity
  8
0
  6
HIDDEN
 62
     7
370
     0
100
AcDbLine
 10
102.7713349602
 20
70.8075893724
 30
0.0
 11
102.7713349602
 21
90.2034007759
 31
0.0
  0
LINE
  5
2D3
330
1F
100
AcDbEntity
  8
0
  6
HIDDEN
 62
     7
370
     0
100
AcDbLine
 10
105.4213349602
 20
91.5054950742
 30
0.0
 11
105.4213349602
 21
94.0630191959
 31
0.0
  0
LINE
  5
2D4
330
1F
100
AcDbEntity
  8
0
  6
HIDDEN
 62
     7
370
     0
100
AcDbLine
 10
107.9213349602
 20
69.5054950742
 30
0.0
 11
107.9213349602
 21
66.8687483761
 31
0.0
  0
LINE
  5
2D5
330
1F
100
AcDbEntity
  8
0
  6
HIDDEN
 62
     7
370
     0
100
AcDbLine
 10
102.7713349602
 20
91.5054950742
 30
0.0
 11
102.7713349602
 21
93.3710756211
 31
0.0
  0
LINE
  5
2D6
330
1F
100
AcDbEntity
  8
0
  6
HIDDEN
 62
     7
370
     0
100
AcDbLine
 10
102.8303349602
 20
69.5054950742
 30
0.0
 11
102.8303349602
 21
67.6544281966
 31
0.0
  0
LINE
  5
2D7
330
1F
100
AcDbEntity
  8
0
  6
HIDDEN
 62
     7
370
     0
100
AcDbLine
 10
135.0213349602
 20
74.2554950742
 30
0.0
 11
135.0213349602
 21
86.7554950742
 31
0.0
  0
LINE
  5
2D8
330
1F
100
AcDbEntity
  8
0
  6
HIDDEN
 62
     7
370
     0
100
AcDbLine
 10
137.5213349602
 20
74.2554950742
 30
0.0
 11
137.5213349602
 21
86.7554950742
 31
0.0
  0
LINE
  5
2D9
330
1F
100
AcDbEntity
  8
0
  6
HIDDEN
 62
     7
370
     0
100
AcDbLine
 10
130.1713349602
 20
75.0054950742
 30
0.0
 11
130.1713349602
 21
86.0054950742
 31
0.0
  0
LINE
  5
2DA
330
1F
100
AcDbEntity
  8
0
  6
HIDDEN
 62
     7
370
     0
100
AcDbLine
 10
129.6713349602
 20
60.5305107187
 30
0.0
 11
129.6713349602
 21
63.6054950742
 31
0.0
  0
LINE
  5
2DB
330
1F
100
AcDbEntity
  8
0
  6
HIDDEN
 62
     7
370
     0
100
AcDbLine
 10
134.1713349602
 20
63.6054950742
 30
0.0
 11
129.6713349602
 21
63.6054950742
 31
0.0
  0
LINE
  5
2DC
330
1F
100
AcDbEntity
  8
0
  6
HIDDEN
 62
     7
370
     0
100
AcDbLine
 10
136.7165573608
 20
63.6054950742
 30
0.0
 11
134.1713349602
 21
63.6054950742
 31
0.0
  0
LINE
  5
2DD
330
1F
100
AcDbEntity
  8
0
  6
HIDDEN
 62
     7
370
     0
100
AcDbLine
 10
141.6713349602
 20
63.6054950742
 30
0.0
 11
138.7261125596
 21
63.6054950742
 31
0.0
  0
ELLIPSE
  5
2DE
330
1F
100
AcDbEntity
  8
0
  6
HIDDEN
 62
     7
370
     0
100
AcDbEllipse
 10
99.7155682204
 20
80.5054950742
 30
0.0
 11
12.26424774976732
 21
0.0
 31
0.0
210
0.0
220
0.0
230
1.0
 40
0.8164965809
 41
1.318982952866325
 42
1.398241670070617
  0
ELLIPSE
  5
2DF
330
1F
100
AcDbEntity
  8
0
  6
HIDDEN
 62
     7
370
     0
100
AcDbEllipse
 10
99.7155682204
 20
80.5054950742
 30
0.0
 11
12.26424774976731
 21
0.0
 31
0.0
210
0.0
220
0.0
230
1.0
 40
0.8164965809
 41
4.88494363710898
 42
4.964202354313272
  0
LINE
  5
2E0
330
1F
100
AcDbEntity
  8
0
  6
HIDDEN
 62
     7
370
     0
100
AcDbLine
 10
141.6713970833
 20
97.4054950742
 30
0.0
 11
138.5129905744
 21
97.4054950742
 31
0.0
  0
LINE
  5
2E1
330
1F
100
AcDbEntity
  8
0
  6
HIDDEN
 62
     7
370
     0
100
AcDbLine
 10
134.1713349602
 20
97.4054950742
 30
0.0
 11
129.6713349602
 21
97.4054950742
 31
0.0
  0
LINE
  5
2E2
330
1F
100
AcDbEntity
  8
0
  6
HIDDEN
 62
     7
370
     0
100
AcDbLine
 10
136.9296793459
 20
97.4054950742
 30
0.0
 11
134.1713349602
 21
97.4054950742
 31
0.0
  0
LINE
  5
2E3
330
1F
100
AcDbEntity
  8
0
  6
HIDDEN
 62
     7
370
     0
100
AcDbLine
 10
102.7713349602
 20
91.5054950742
 30
0.0
 11
102.7713349602
 21
90.2034007759
 31
0.0
  0
LINE
  5
2E4
330
1F
100
AcDbEntity
  8
0
  6
HIDDEN
 62
     7
370
     0
100
AcDbLine
 10
105.4213349602
 20
91.5054950742
 30
0.0
 11
105.4213349602
 21
90.5296845676
 31
0.0
  0
LINE
  5
2E5
330
1F
100
AcDbEntity
  8
0
  6
HIDDEN
 62
     7
370
     0
100
AcDbLine
 10
102.8303349602
 20
69.5054950742
 30
0.0
 11
102.8303349602
 21
70.783311986
 31
0.0
  0
LINE
  5
2E6
330
1F
100
AcDbEntity
  8
0
  6
HIDDEN
 62
     7
370
     0
100
AcDbLine
 10
107.9213349602
 20
69.5054950742
 30
0.0
 11
107.9213349602
 21
70.4631027297
 31
0.0
  0
SPLINE
  5
2E7
330
1F
100
AcDbEntity
  8
0
  6
HIDDEN
 62
     7
370
     0
100
AcDbSpline
210
0.0
220
0.0
230
1.0
 70
     8
 71
     3
 72
    10
 73
     6
 74
     0
 42
0.00000001
 43
0.00000001
 12
1.0
 22
0.0
 32
0.0
 13
1.0
 23
0.0
 33
0.0
 40
0.0
 40
0.0
 40
0.0
 40
0.0
 40
0.3401192823038333
 40
0.6294236104408755
 40
1.0
 40
1.0
 40
1.0
 40
1.0
 10
113.8057087000498
 20
66.29967040868385
 30
0.0
 10
113.9252134532326
 20
66.31414627681949
 30
0.0
 10
114.1463685512431
 20
66.34093527015287
 30
0.0
 10
114.6153681811899
 20
66.3775572840093
 30
0.0
 10
114.9783088214615
 20
66.38397039423471
 30
0.0
 10
115.1821293430942
 20
66.38757187427413
 30
0.0
  0
SPLINE
  5
2E8
330
1F
100
AcDbEntity
  8
0
  6
HIDDEN
 62
     7
370
     0
100
AcDbSpline
210
0.0
220
0.0
230
1.0
 70
     8
 71
     3
 72
    35
 73
    31
 74
     0
 42
0.00000001
 43
0.00000001
 12
1.0
 22
0.0
 32
0.0
 13
1.0
 23
0.0
 33
0.0
 40
0.0
 40
0.0
 40
0.0
 40
0.0
 40
0.0576513096445404
 40
0.120183457613061
 40
0.1526346544139948
 40
0.1691592367221386
 40
0.1774964597010543
 40
0.1816838177424293
 40
0.1837821844940514
 40
0.1848325399011718
 40
0.1853580106224996
 40
0.1856208192386981
 40
0.1857522418608087
 40
0.1858179577503822
 40
0.1858508168398003
 40
0.1858672466706677
 40
0.1858754616576409
 40
0.1858795691690122
 40
0.1858816229291689
 40
0.1858836766923069
 40
0.2005683862713866
 40
0.3114363451013596
 40
0.436549573484161
 40
0.5574808844840986
 40
0.6208506497896865
 40
0.6861093617541927
 40
0.7283307633149448
 40
0.8112263252394275
 40
0.9358265451115106
 40
0.9999999999999999
 40
0.9999999999999999
 40
0.9999999999999999
 40
0.9999999999999999
 10
117.981396430128
 20
65.9720817151119
 30
0.0
 10
117.9906405432361
 20
65.96957108847562
 30
0.0
 10
118.0099113886469
 20
65.96433728213567
 30
0.0
 10
117.8892525313051
 20
65.99852304877498
 30
0.0
 10
117.780047935314
 20
66.02767892213885
 30
0.0
 10
117.7133244459829
 20
66.0452781191075
 30
0.0
 10
117.6773608491729
 20
66.05469921552506
 30
0.0
 10
117.6586786280856
 20
66.05957983506102
 30
0.0
 10
117.6491657479446
 20
66.06206163294138
 30
0.0
 10
117.6443659345831
 20
66.06331303158873
 30
0.0
 10
117.641955207035
 20
66.06394134889624
 30
0.0
 10
117.6407471341178
 20
66.06425616320946
 30
0.0
 10
117.640142420483
 20
66.06441373424622
 30
0.0
 10
117.6398398943321
 20
66.06449256074589
 30
0.0
 10
117.6396885889231
 20
66.06453198424164
 30
0.0
 10
117.6396129256347
 20
66.0645516985503
 30
0.0
 10
117.6395750913447
 20
66.06456155634599
 30
0.0
 10
117.6395561735379
 20
66.06456648540255
 30
0.0
 10
117.6395453631701
 20
66.06456930205532
 30
0.0
 10
117.6202157990721
 20
66.06960562048292
 30
0.0
 10
117.4496443186097
 20
66.11575814585234
 30
0.0
 10
117.0114267829383
 20
66.21272089006017
 30
0.0
 10
116.2085971549411
 20
66.34517230736675
 30
0.0
 10
115.4436956846423
 20
66.39162110742701
 30
0.0
 10
114.8622270866907
 20
66.389934678632
 30
0.0
 10
114.4948682548437
 20
66.3726348989882
 30
0.0
 10
114.1288791535619
 20
66.33870771311372
 30
0.0
 10
113.733688732959
 20
66.2947800216783
 30
0.0
 10
113.4360156090544
 20
66.24112147505434
 30
0.0
 10
113.4537055936274
 20
66.24542269287285
 30
0.0
 10
113.4597192892786
 20
66.2468848883193
 30
0.0
  0
LINE
  5
2E9
330
1F
100
AcDbEntity
  8
0
  6
HIDDEN
 62
     7
370
     0
100
AcDbLine
 10
113.8057063249
 20
94.7112487132
 30
0.0
 11
113.5949699357
 21
94.7419672094
 31
0.0
  0
SPLINE
  5
2EA
330
1F
100
AcDbEntity
  8
0
  6
HIDDEN
 62
     7
370
     0
100
AcDbSpline
210
0.0
220
0.0
230
1.0
 70
     8
 71
     3
 72
    33
 73
    29
 74
     0
 42
0.00000001
 43
0.00000001
 12
1.0
 22
0.0
 32
0.0
 13
1.0
 23
0.0
 33
0.0
 40
0.0
 40
0.0
 40
0.0
 40
0.0
 40
0.0077228145719471
 40
0.0638523530040083
 40
0.0991751230456591
 40
0.1408009317230199
 40
0.1887325466140078
 40
0.2400889650283169
 40
0.2787340316335273
 40
0.2939019479513222
 40
0.3055742709982474
 40
0.3137507643268432
 40
0.3788401695052115
 40
0.4420671998957424
 40
0.5035389075555933
 40
0.5633718286565756
 40
0.5894517292522503
 40
0.6189973884585386
 40
0.6520132962173396
 40
0.6885023333614962
 40
0.7415505830055708
 40
0.7806263958459365
 40
0.7955153221968154
 40
0.8065616765260668
 40
0.8137651967545213
 40
0.8792223199853434
 40
0.9417168504672577
 40
1.0
 40
1.0
 40
1.0
 40
1.0
 10
113.4259761500383
 20
94.76994848184589
 30
0.0
 10
113.4244418316749
 20
94.77025276357057
 30
0.0
 10
113.4117560631838
 20
94.77276856968196
 30
0.0
 10
113.4527509700757
 20
94.7665558166964
 30
0.0
 10
113.5306304837221
 20
94.75214416393976
 30
0.0
 10
113.6428814679553
 20
94.73376414302331
 30
0.0
 10
113.8114200030058
 20
94.7092037857431
 30
0.0
 10
114.0200144230266
 20
94.68393168181784
 30
0.0
 10
114.2051337869351
 20
94.66528647766691
 30
0.0
 10
114.3288992227706
 20
94.6539776791385
 30
0.0
 10
114.3972420678847
 20
94.6480826894326
 30
0.0
 10
114.5666876187592
 20
94.63474272062916
 30
0.0
 10
114.8613173946078
 20
94.62107303610345
 30
0.0
 10
115.305316599009
 20
94.61986523974514
 30
0.0
 10
115.7524046961452
 20
94.63774105738166
 30
0.0
 10
116.1076551549724
 20
94.66798684672155
 30
0.0
 10
116.376768327688
 20
94.70111060753669
 30
0.0
 10
116.5778762089158
 20
94.72968298333215
 30
0.0
 10
116.7937025145913
 20
94.76431627471644
 30
0.0
 10
117.0456088567748
 20
94.8103109968019
 30
0.0
 10
117.2860786240738
 20
94.85969924026652
 30
0.0
 10
117.4607296238503
 20
94.90016955920454
 30
0.0
 10
117.5567279638736
 20
94.92446209761732
 30
0.0
 10
117.6031135444842
 20
94.93672083810145
 30
0.0
 10
117.7157362470871
 20
94.96658454611847
 30
0.0
 10
117.8667948189227
 20
95.00584333545747
 30
0.0
 10
117.9981614992554
 20
95.04283297386107
 30
0.0
 10
118.0132224715608
 20
95.048009161516
 30
0.0
 10
118.0204903781878
 20
95.05050701144215
 30
0.0
  0
SPLINE
  5
2EB
330
1F
100
AcDbEntity
  8
0
  6
HIDDEN
 62
     7
370
     0
100
AcDbSpline
210
0.0
220
0.0
230
1.0
 70
     8
 71
     3
 72
    10
 73
     6
 74
     0
 42
0.00000001
 43
0.00000001
 12
1.0
 22
0.0
 32
0.0
 13
1.0
 23
0.0
 33
0.0
 40
0.0
 40
0.0
 40
0.0
 40
0.0
 40
0.2532633721246093
 40
0.5869403297172792
 40
1.0
 40
1.0
 40
1.0
 40
1.0
 10
114.8762934486614
 20
94.62397377547046
 30
0.0
 10
114.7686343001289
 20
94.62868990933407
 30
0.0
 10
114.5191331756409
 20
94.6396195954615
 30
0.0
 10
114.1377067991928
 20
94.67029222076113
 30
0.0
 10
113.923947783932
 20
94.69666212132348
 30
0.0
 10
113.8057063249389
 20
94.71124871320217
 30
0.0
  0
LINE
  5
2EC
330
1F
100
AcDbEntity
  8
0
  6
HIDDEN
 62
     7
370
     0
100
AcDbLine
 10
159.8213349602
 20
80.5054950742
 30
0.0
 11
159.8213349602
 21
78.0054950742
 31
0.0
  0
LINE
  5
2ED
330
1F
100
AcDbEntity
  8
0
  6
HIDDEN
 62
     7
370
     0
100
AcDbLine
 10
159.8213349602
 20
83.0054950742
 30
0.0
 11
159.8213349602
 21
80.5054950742
 31
0.0
  0
LINE
  5
2EE
330
1F
100
AcDbEntity
  8
0
  6
HIDDEN
 62
     7
370
     0
100
AcDbLine
 10
184.5520578166
 20
78.5681648399
 30
0.0
 11
191.8314196163
 21
72.4600550385
 31
0.0
  0
LINE
  5
2EF
330
1F
100
AcDbEntity
  8
0
  6
HIDDEN
 62
     7
370
     0
100
AcDbLine
 10
191.8314196163
 20
72.4600550385
 30
0.0
 11
191.8027667863
 21
72.4360124594
 31
0.0
  0
LINE
  5
2F0
330
1F
100
AcDbEntity
  8
0
  6
HIDDEN
 62
     7
370
     0
100
AcDbLine
 10
191.8314196163
 20
88.5509351098
 30
0.0
 11
184.5520578166
 21
82.4428253084
 31
0.0
  0
LINE
  5
2F1
330
1F
100
AcDbEntity
  8
0
  6
HIDDEN
 62
     7
370
     0
100
AcDbLine
 10
191.8314196163
 20
88.5509351098
 30
0.0
 11
191.8027667863
 21
88.5749776889
 31
0.0
  0
LINE
  5
2F2
330
1F
100
AcDbEntity
  8
0
  6
HIDDEN
 62
     7
370
     0
100
AcDbLine
 10
191.8314196163
 20
88.2367787426
 30
0.0
 11
184.7877214472
 21
82.3264142067
 31
0.0
  0
ARC
  5
2F3
330
1F
100
AcDbEntity
  8
0
  6
HIDDEN
 62
     7
370
     0
100
AcDbCircle
 10
183.7416557167
 20
80.5054950742
 30
0.0
 40
2.099999999999997
100
AcDbArc
 50
60.123870014
 51
67.3000174185
  0
LINE
  5
2F4
330
1F
100
AcDbEntity
  8
0
  6
HIDDEN
 62
     7
370
     0
100
AcDbLine
 10
191.8314196163
 20
88.5509351098
 30
0.0
 11
191.8314196163
 21
88.2367787426
 31
0.0
  0
LINE
  5
2F5
330
1F
100
AcDbEntity
  8
0
  6
HIDDEN
 62
     7
370
     0
100
AcDbLine
 10
184.7877214472
 20
78.6845759416
 30
0.0
 11
191.8314196163
 21
72.7742114057
 31
0.0
  0
LINE
  5
2F6
330
1F
100
AcDbEntity
  8
0
  6
HIDDEN
 62
     7
370
     0
100
AcDbLine
 10
191.8314196163
 20
72.4600550385
 30
0.0
 11
191.8314196163
 21
72.7742114057
 31
0.0
  0
ARC
  5
2F7
330
1F
100
AcDbEntity
  8
0
  6
HIDDEN
 62
     7
370
     0
100
AcDbCircle
 10
183.7416557167
 20
80.5054950742
 30
0.0
 40
2.099999999999995
100
AcDbArc
 50
292.6999825815
 51
299.876129986
  0
LINE
  5
2F8
330
1F
100
AcDbEntity
  8
0
  6
HIDDEN
 62
     7
370
     0
100
AcDbLine
 10
138.7613349602
 20
94.0213422544
 30
0.0
 11
138.7613349602
 21
92.3554950742
 31
0.0
  0
LINE
  5
2F9
330
1F
100
AcDbEntity
  8
0
  6
HIDDEN
 62
     7
370
     0
100
AcDbLine
 10
136.6813349602
 20
94.0213422544
 30
0.0
 11
136.6813349602
 21
92.3554950742
 31
0.0
  0
LINE
  5
2FA
330
1F
100
AcDbEntity
  8
0
  6
HIDDEN
 62
     7
370
     0
100
AcDbLine
 10
139.7564946591
 20
96.6169040752
 30
0.0
 11
139.7564946591
 21
92.3554950742
 31
0.0
  0
LINE
  5
2FB
330
1F
100
AcDbEntity
  8
0
  6
HIDDEN
 62
     7
370
     0
100
AcDbLine
 10
200.1032084534
 20
80.1157760202
 30
0.0
 11
200.1032084534
 21
80.8952141281
 31
0.0
  0
CIRCLE
  5
2FC
330
1F
100
AcDbEntity
  8
0
  6
HIDDEN
 62
     7
370
     0
100
AcDbCircle
 10
191.9519774903
 20
80.5054950742
 30
0.0
 40
3.0
  0
LINE
  5
2FD
330
1F
100
AcDbEntity
  8
0
  6
HIDDEN
 62
     7
370
     0
100
AcDbLine
 10
200.1032084534
 20
80.1157760202
 30
0.0
 11
191.5926460326
 21
72.9745662318
 31
0.0
  0
ARC
  5
2FE
330
1F
100
AcDbEntity
  8
0
  6
HIDDEN
 62
     7
370
     0
100
AcDbCircle
 10
183.7416557167
 20
80.5054950742
 30
0.0
 40
2.099999999999995
100
AcDbArc
 50
299.876129986
 51
60.123870014
  0
LINE
  5
2FF
330
1F
100
AcDbEntity
  8
0
  6
HIDDEN
 62
     7
370
     0
100
AcDbLine
 10
200.1032084534
 20
80.8952141281
 30
0.0
 11
191.5926460326
 21
88.0364239165
 31
0.0
  0
CIRCLE
  5
300
330
1F
100
AcDbEntity
  8
0
  6
HIDDEN
 62
     7
370
     0
100
AcDbCircle
 10
191.9519774903
 20
80.5054950742
 30
0.0
 40
2.100000000000009
  0
LINE
  5
301
330
1F
100
AcDbEntity
  8
0
  6
HIDDEN
 62
     7
370
     0
100
AcDbLine
 10
197.8615262332
 20
80.1157760202
 30
0.0
 11
200.1032084534
 21
80.1157760202
 31
0.0
  0
LINE
  5
302
330
1F
100
AcDbEntity
  8
0
  6
HIDDEN
 62
     7
370
     0
100
AcDbLine
 10
200.1032084534
 20
80.8952141281
 30
0.0
 11
197.8615262332
 21
80.8952141281
 31
0.0
  0
CIRCLE
  5
303
330
1F
100
AcDbEntity
  8
0
  6
HIDDEN
 62
     7
370
     0
100
AcDbCircle
 10
128.7213349602
 20
80.5054950742
 30
0.0
 40
5.0
  0
CIRCLE
  5
304
330
1F
100
AcDbEntity
  8
0
  6
HIDDEN
 62
     7
370
     0
100
AcDbCircle
 10
191.9519774903
 20
80.5054950742
 30
0.0
 40
2.499999999999991
  0
CIRCLE
  5
305
330
1F
100
AcDbEntity
  8
0
  6
HIDDEN
 62
     7
370
     0
100
AcDbCircle
 10
191.9519774903
 20
80.5054950742
 30
0.0
 40
1.599999999999998
  0
LINE
  5
306
330
1F
100
AcDbEntity
  8
0
  6
HIDDEN
 62
     7
370
     0
100
AcDbLine
 10
191.8205188987
 20
88.5637653341
 30
0.0
 11
191.8076631465
 21
88.5790862229
 31
0.0
  0
LINE
  5
307
330
1F
100
AcDbEntity
  8
0
  6
HIDDEN
 62
     7
370
     0
100
AcDbLine
 10
192.3090374819
 20
88.5637653338
 30
0.0
 11
192.3218932342
 21
88.5790862229
 31
0.0
  0
LINE
  5
308
330
1F
100
AcDbEntity
  8
0
  6
HIDDEN
 62
     7
370
     0
100
AcDbLine
 10
182.5639621289
 20
80.2143981858
 30
0.0
 11
182.5511063767
 21
80.1990772969
 31
0.0
  0
LINE
  5
309
330
1F
100
AcDbEntity
  8
0
  6
HIDDEN
 62
     7
370
     0
100
AcDbLine
 10
182.5639621289
 20
80.7965919625
 30
0.0
 11
182.5511063767
 21
80.8119128514
 31
0.0
  0
LINE
  5
30A
330
1F
100
AcDbEntity
  8
0
  6
HIDDEN
 62
     7
370
     0
100
AcDbLine
 10
201.5655942519
 20
80.2143981858
 30
0.0
 11
201.5784500041
 21
80.1990772969
 31
0.0
  0
LINE
  5
30B
330
1F
100
AcDbEntity
  8
0
  6
HIDDEN
 62
     7
370
     0
100
AcDbLine
 10
201.5655942519
 20
80.7965919625
 30
0.0
 11
201.5784500041
 21
80.8119128514
 31
0.0
  0
LINE
  5
30C
330
1F
100
AcDbEntity
  8
0
  6
HIDDEN
 62
     7
370
     0
100
AcDbLine
 10
192.309037482
 20
72.4472248142
 30
0.0
 11
192.3218932342
 21
72.4319039254
 31
0.0
  0
LINE
  5
30D
330
1F
100
AcDbEntity
  8
0
  6
HIDDEN
 62
     7
370
     0
100
AcDbLine
 10
191.8205188987
 20
72.4472248142
 30
0.0
 11
191.8076631465
 21
72.4319039254
 31
0.0
  0
CIRCLE
  5
30E
330
1F
100
AcDbEntity
  8
0
  6
HIDDEN
 62
     7
370
     0
100
AcDbCircle
 10
192.0647781904
 20
80.5054950742
 30
0.0
 40
2.750000000000001
  0
LINE
  5
30F
330
1F
100
AcDbEntity
  8
0
  6
HIDDEN
 62
     7
370
     0
100
AcDbLine
 10
192.0647781904
 20
72.9791099644
 30
0.0
 11
201.0343746842
 21
80.5054950742
 31
0.0
  0
LINE
  5
310
330
1F
100
AcDbEntity
  8
0
  6
HIDDEN
 62
     7
370
     0
100
AcDbLine
 10
183.0951816966
 20
80.5054950742
 30
0.0
 11
192.0647781904
 21
72.9791099644
 31
0.0
  0
LINE
  5
311
330
1F
100
AcDbEntity
  8
0
  6
HIDDEN
 62
     7
370
     0
100
AcDbLine
 10
192.0647781904
 20
88.0318801839
 30
0.0
 11
183.0951816966
 21
80.5054950742
 31
0.0
  0
LINE
  5
312
330
1F
100
AcDbEntity
  8
0
  6
HIDDEN
 62
     7
370
     0
100
AcDbLine
 10
201.0343746842
 20
80.5054950742
 30
0.0
 11
192.0647781904
 21
88.0318801839
 31
0.0
  0
LINE
  5
313
330
1F
100
AcDbEntity
  8
0
  6
HIDDEN
 62
     7
370
     0
100
AcDbLine
 10
121.7213349602
 20
64.2982943891
 30
0.0
 11
121.8154957357
 21
64.9682831203
 31
0.0
  0
LINE
  5
314
330
1F
100
AcDbEntity
  8
0
  6
HIDDEN
 62
     7
370
     0
100
AcDbLine
 10
121.8154957357
 20
96.042707028
 30
0.0
 11
121.7213349602
 21
96.7126957592
 31
0.0
  0
ARC
  5
315
330
1F
100
AcDbEntity
  8
0
  6
HIDDEN
 62
     7
370
     0
100
AcDbCircle
 10
121.2213282075
 20
65.0517879207
 30
0.0
 40
0.6000067526677242
100
AcDbArc
 50
352.0
 51
0.0
  0
ARC
  5
316
330
1F
100
AcDbEntity
  8
0
  6
HIDDEN
 62
     7
370
     0
100
AcDbCircle
 10
121.2213282075
 20
65.0517879207
 30
0.0
 40
0.6000067526677242
100
AcDbArc
 50
0.0
 51
33.5571153394
  0
ARC
  5
317
330
1F
100
AcDbEntity
  8
0
  6
HIDDEN
 62
     7
370
     0
100
AcDbCircle
 10
121.2213282075
 20
95.9592022276
 30
0.0
 40
0.6000067526677281
100
AcDbArc
 50
348.75
 51
8.0
  0
LWPOLYLINE
  5
318
330
1F
100
AcDbEntity
  8
0
  6
HIDDEN
 62
     7
370
     0
100
AcDbPolyline
 90
        3
 70
   128
 43
0.0
 10
121.8098059987
 20
95.842146717
 10
121.7756621657
 20
95.7295895841
 10
121.7213349602
 20
95.6275377126
  0
LINE
  5
319
330
1F
100
AcDbEntity
  8
0
  6
HIDDEN
 62
     7
370
     0
100
AcDbLine
 10
121.8213349602
 20
65.0517879207
 30
0.0
 11
121.8213349602
 21
95.9592022276
 31
0.0
  0
ARC
  5
31A
330
1F
100
AcDbEntity
  8
0
  6
HIDDEN
 62
     7
370
     0
100
AcDbCircle
 10
111.2539629043
 20
68.1554950742
 30
0.0
 40
0.4000000000000069
100
AcDbArc
 50
210.0
 51
270.0
  0
ARC
  5
31B
330
1F
100
AcDbEntity
  8
0
  6
HIDDEN
 62
     7
370
     0
100
AcDbCircle
 10
111.2539629043
 20
92.8554950742
 30
0.0
 40
0.4000000000000057
100
AcDbArc
 50
90.0
 51
150.0
  0
LINE
  5
31C
330
1F
100
AcDbEntity
  8
0
  6
HIDDEN
 62
     7
370
     0
100
AcDbLine
 10
111.2539629043
 20
67.7554950742
 30
0.0
 11
113.426265785
 21
67.7554950742
 31
0.0
  0
LINE
  5
31D
330
1F
100
AcDbEntity
  8
0
  6
HIDDEN
 62
     7
370
     0
100
AcDbLine
 10
113.4281189832
 20
93.2554950742
 30
0.0
 11
111.2539629043
 21
93.2554950742
 31
0.0
  0
ARC
  5
31E
330
1F
100
AcDbEntity
  8
0
  6
HIDDEN
 62
     7
370
     0
100
AcDbCircle
 10
117.5455116881
 20
72.7554950742
 30
0.0
 40
4.99999999999999
100
AcDbArc
 50
275.4315974358
 51
326.6329870308
  0
ARC
  5
31F
330
1F
100
AcDbEntity
  8
0
  6
HIDDEN
 62
     7
370
     0
100
AcDbCircle
 10
117.5455116881
 20
88.2554950742
 30
0.0
 40
4.999999999999998
100
AcDbArc
 50
33.3670129692
 51
84.5633037847
  0
LINE
  5
320
330
1F
100
AcDbEntity
  8
0
  6
HIDDEN
 62
     7
370
     0
100
AcDbLine
 10
110.9075527428
 20
93.0554950742
 30
0.0
 11
109.723984691
 21
91.0054950742
 31
0.0
  0
LINE
  5
321
330
1F
100
AcDbEntity
  8
0
  6
HIDDEN
 62
     7
370
     0
100
AcDbLine
 10
109.723984691
 20
70.0054950742
 30
0.0
 11
110.9075527428
 21
67.9554950742
 31
0.0
  0
LINE
  5
322
330
1F
100
AcDbEntity
  8
0
  6
HIDDEN
 62
     7
370
     0
100
AcDbLine
 10
156.7265453264
 20
78.4054950742
 30
0.0
 11
164.5223031909
 21
78.4054950742
 31
0.0
  0
LINE
  5
323
330
1F
100
AcDbEntity
  8
0
  6
HIDDEN
 62
     7
370
     0
100
AcDbLine
 10
164.5223031909
 20
82.6054950742
 30
0.0
 11
156.7265453264
 21
82.6054950742
 31
0.0
  0
ARC
  5
324
330
1F
100
AcDbEntity
  8
0
  6
HIDDEN
 62
     7
370
     0
100
AcDbCircle
 10
128.6713349602
 20
70.6304950742
 30
0.0
 40
1.0
100
AcDbArc
 50
218.6821874535
 51
0.0
  0
ARC
  5
325
330
1F
100
AcDbEntity
  8
0
  6
HIDDEN
 62
     7
370
     0
100
AcDbCircle
 10
128.6713349602
 20
90.3804950742
 30
0.0
 40
1.0
100
AcDbArc
 50
0.0
 51
141.3178125465
  0
LINE
  5
326
330
1F
100
AcDbEntity
  8
0
  6
HIDDEN
 62
     7
370
     0
100
AcDbLine
 10
107.9213349602
 20
70.0054950742
 30
0.0
 11
109.723984691
 21
70.0054950742
 31
0.0
  0
LINE
  5
327
330
1F
100
AcDbEntity
  8
0
  6
HIDDEN
 62
     7
370
     0
100
AcDbLine
 10
109.723984691
 20
91.0054950742
 30
0.0
 11
105.4213349602
 21
91.0054950742
 31
0.0
  0
LINE
  5
328
330
1F
100
AcDbEntity
  8
0
  6
HIDDEN
 62
     7
370
     0
100
AcDbLine
 10
121.7213349602
 20
70.0054950742
 30
0.0
 11
127.8907102104
 21
70.0054950742
 31
0.0
  0
LINE
  5
329
330
1F
100
AcDbEntity
  8
0
  6
HIDDEN
 62
     7
370
     0
100
AcDbLine
 10
127.8907102104
 20
91.0054950742
 30
0.0
 11
121.7213349602
 21
91.0054950742
 31
0.0
  0
LINE
  5
32A
330
1F
100
AcDbEntity
  8
0
  6
HIDDEN
 62
     7
370
     0
100
AcDbLine
 10
135.0213349602
 20
74.2554950742
 30
0.0
 11
137.5213349602
 21
74.2554950742
 31
0.0
  0
LINE
  5
32B
330
1F
100
AcDbEntity
  8
0
  6
HIDDEN
 62
     7
370
     0
100
AcDbLine
 10
137.5213349602
 20
86.7554950742
 30
0.0
 11
135.0213349602
 21
86.7554950742
 31
0.0
  0
LINE
  5
32C
330
1F
100
AcDbEntity
  8
0
  6
HIDDEN
 62
     7
370
     0
100
AcDbLine
 10
129.6713349602
 20
74.5054950742
 30
0.0
 11
130.1713349602
 21
75.0054950742
 31
0.0
  0
LINE
  5
32D
330
1F
100
AcDbEntity
  8
0
  6
HIDDEN
 62
     7
370
     0
100
AcDbLine
 10
130.1713349602
 20
86.0054950742
 30
0.0
 11
129.6713349602
 21
86.5054950742
 31
0.0
  0
LINE
  5
32E
330
1F
100
AcDbEntity
  8
0
  6
HIDDEN
 62
     7
370
     0
100
AcDbLine
 10
130.1713349602
 20
75.0054950742
 30
0.0
 11
135.0213349602
 21
75.0054950742
 31
0.0
  0
LINE
  5
32F
330
1F
100
AcDbEntity
  8
0
  6
HIDDEN
 62
     7
370
     0
100
AcDbLine
 10
135.0213349602
 20
86.0054950742
 30
0.0
 11
130.1713349602
 21
86.0054950742
 31
0.0
  0
LINE
  5
330
330
1F
100
AcDbEntity
  8
0
  6
HIDDEN
 62
     7
370
     0
100
AcDbLine
 10
129.6713349602
 20
100.5054950742
 30
0.0
 11
129.6713349602
 21
97.4054950742
 31
0.0
  0
LINE
  5
331
330
1F
100
AcDbEntity
  8
0
  6
HIDDEN
 62
     7
370
     0
100
AcDbLine
 10
118.4885142046
 20
65.4641904607
 30
0.0
 11
118.0205856165
 21
65.9600269416
 31
0.0
  0
LINE
  5
332
330
1F
100
AcDbEntity
  8
0
  6
HIDDEN
 62
     7
370
     0
100
AcDbLine
 10
113.4226806013
 20
66.2398806553
 30
0.0
 11
112.9052068854
 21
65.7440553425
 31
0.0
  0
LINE
  5
333
330
1F
100
AcDbEntity
  8
0
  6
HIDDEN
 62
     7
370
     0
100
AcDbLine
 10
112.9045726535
 20
95.2669847471
 30
0.0
 11
113.4222589016
 21
94.7710977005
 31
0.0
  0
LINE
  5
334
330
1F
100
AcDbEntity
  8
0
  6
HIDDEN
 62
     7
370
     0
100
AcDbLine
 10
118.0198997365
 20
95.0507452336
 30
0.0
 11
118.4878036327
 21
95.5466391063
 31
0.0
  0
LINE
  5
335
330
1F
100
AcDbEntity
  8
0
  6
HIDDEN
 62
     7
370
     0
100
AcDbLine
 10
159.8213349602
 20
78.0054950742
 30
0.0
 11
161.3234865078
 21
80.5054950742
 31
0.0
  0
LINE
  5
336
330
1F
100
AcDbEntity
  8
0
  6
HIDDEN
 62
     7
370
     0
100
AcDbLine
 10
161.3234865078
 20
80.5054950742
 30
0.0
 11
159.8213349602
 21
83.0054950742
 31
0.0
  0
LINE
  5
337
330
1F
100
AcDbEntity
  8
0
  6
HIDDEN
 62
     7
370
     0
100
AcDbLine
 10
137.5213349602
 20
78.0054950742
 30
0.0
 11
159.8213349602
 21
78.0054950742
 31
0.0
  0
LINE
  5
338
330
1F
100
AcDbEntity
  8
0
  6
HIDDEN
 62
     7
370
     0
100
AcDbLine
 10
159.8213349602
 20
83.0054950742
 30
0.0
 11
137.5213349602
 21
83.0054950742
 31
0.0
  0
LINE
  5
339
330
1F
100
AcDbEntity
  8
0
  6
HIDDEN
 62
     7
370
     0
100
AcDbLine
 10
118.0213349602
 20
93.2327075595
 30
0.0
 11
118.0213349602
 21
95.0505346796
 31
0.0
  0
LINE
  5
33A
330
1F
100
AcDbEntity
  8
0
  6
HIDDEN
 62
     7
370
     0
100
AcDbLine
 10
113.4213349602
 20
94.7699953759
 30
0.0
 11
113.4213349602
 21
93.2542756419
 31
0.0
  0
LINE
  5
33B
330
1F
100
AcDbEntity
  8
0
  6
HIDDEN
 62
     7
370
     0
100
AcDbLine
 10
118.0213349602
 20
65.9720824241
 30
0.0
 11
118.0213349602
 21
67.7783975498
 31
0.0
  0
LINE
  5
33C
330
1F
100
AcDbEntity
  8
0
  6
HIDDEN
 62
     7
370
     0
100
AcDbLine
 10
113.4213349602
 20
67.7563793158
 30
0.0
 11
113.4213349602
 21
66.24688853
 31
0.0
  0
CIRCLE
  5
33D
330
1F
100
AcDbEntity
  8
0
  6
HIDDEN
 62
     7
370
     0
100
AcDbCircle
 10
191.9519774903
 20
80.5054950742
 30
0.0
 40
2.279131018014131
  0
LINE
  5
33E
330
1F
100
AcDbEntity
  8
VERMASSUNG
  6
CENTERX2
100
AcDbLine
 10
201.7213349602
 20
80.5054950742
 30
0.0
 11
98.7010299719
 21
80.5054950742
 31
0.0
  0
DIMENSION
  5
33F
330
1F
100
AcDbEntity
  8
VERMASSUNG
100
AcDbDimension
  2
_D_2
 10
93.9547882299
 20
60.5054950742
 30
0.0
 11
93.9547882299
 21
80.5054950742
 31
0.0
 70
   160
  1
HSK T%%c<>
 71
     2
 42
-1.0
  3
SLDDIMSTYLE0
100
AcDbAlignedDimension
 13
122.0213349602
 23
100.5054950742
 33
0.0
 14
122.0213349602
 24
60.5054950742
 34
0.0
 50
90.0
100
AcDbRotatedDimension
  0
DIMENSION
  5
34B
330
1F
100
AcDbEntity
  8
VERMASSUNG
100
AcDbDimension
  2
_D_3
 10
211.8848677813
 20
64.0054950742
 30
0.0
 11
211.8848677813
 21
80.5054950742
 31
0.0
 70
   160
  1
%%c<>
 71
     2
 42
-1.0
  3
SLDDIMSTYLE0
100
AcDbAlignedDimension
 13
167.7156462411
 23
97.0054950742
 33
0.0
 14
167.7156462411
 24
64.0054950742
 34
0.0
 50
90.0
100
AcDbRotatedDimension
  0
OLE2FRAME
  5
356
330
1F
100
AcDbEntity
  8
0
100
AcDbOle2Frame
 70
     2
  3
Paintbrush-Bild
 10
13.8511154363
 20
38.264191557
 30
0.0
 11
51.6290888628
 21
31.9806341108
 31
0.0
 71
     2
 72
     0
 73
     1
 90
    12928
310
80552BED0767C5B32B40DDAF6807D121434000000000000000006FFBDDFB85D0
310
4940DDAF6807D121434000000000000000006FFBDDFB85D04940416F4BD60AFB
310
3F4000000000000000002BED0767C5B32B40416F4BD60AFB3F40000000000000
310
0000000000000100000000010000010000000100000000000100000000320000
310
D0CF11E0A1B11AE1000000000000000000000000000000003E000300FEFF0900
310
0600000000000000000000000100000001000000000000000010000002000000
310
01000000FEFFFFFF0000000000000000FFFFFFFFFFFFFFFFFFFFFFFFFFFFFFFF
310
FFFFFFFFFFFFFFFFFFFFFFFFFFFFFFFFFFFFFFFFFFFFFFFFFFFFFFFFFFFFFFFF
310
FFFFFFFFFFFFFFFFFFFFFFFFFFFFFFFFFFFFFFFFFFFFFFFFFFFFFFFFFFFFFFFF
310
FFFFFFFFFFFFFFFFFFFFFFFFFFFFFFFFFFFFFFFFFFFFFFFFFFFFFFFFFFFFFFFF
310
FFFFFFFFFFFFFFFFFFFFFFFFFFFFFFFFFFFFFFFFFFFFFFFFFFFFFFFFFFFFFFFF
310
FFFFFFFFFFFFFFFFFFFFFFFFFFFFFFFFFFFFFFFFFFFFFFFFFFFFFFFFFFFFFFFF
310
FFFFFFFFFFFFFFFFFFFFFFFFFFFFFFFFFFFFFFFFFFFFFFFFFFFFFFFFFFFFFFFF
310
FFFFFFFFFFFFFFFFFFFFFFFFFFFFFFFFFFFFFFFFFFFFFFFFFFFFFFFFFFFFFFFF
310
FFFFFFFFFFFFFFFFFFFFFFFFFFFFFFFFFFFFFFFFFFFFFFFFFFFFFFFFFFFFFFFF
310
FFFFFFFFFFFFFFFFFFFFFFFFFFFFFFFFFFFFFFFFFFFFFFFFFFFFFFFFFFFFFFFF
310
FFFFFFFFFFFFFFFFFFFFFFFFFFFFFFFFFFFFFFFFFFFFFFFFFFFFFFFFFFFFFFFF
310
FFFFFFFFFFFFFFFFFFFFFFFFFFFFFFFFFFFFFFFFFFFFFFFFFFFFFFFFFFFFFFFF
310
FFFFFFFFFFFFFFFFFFFFFFFFFFFFFFFFFFFFFFFFFFFFFFFFFFFFFFFFFFFFFFFF
310
FFFFFFFFFFFFFFFFFFFFFFFFFFFFFFFFFFFFFFFFFFFFFFFFFFFFFFFFFFFFFFFF
310
FDFFFFFFFEFFFFFFFEFFFFFFFEFFFFFF05000000060000000700000008000000
310
090000000A0000000B0000000C0000000D0000000E0000000F00000010000000
310
11000000120000001300000014000000150000001600000017000000FEFFFFFF
310
FFFFFFFFFFFFFFFFFFFFFFFFFFFFFFFFFFFFFFFFFFFFFFFFFFFFFFFFFFFFFFFF
310
FFFFFFFFFFFFFFFFFFFFFFFFFFFFFFFFFFFFFFFFFFFFFFFFFFFFFFFFFFFFFFFF
310
FFFFFFFFFFFFFFFFFFFFFFFFFFFFFFFFFFFFFFFFFFFFFFFFFFFFFFFFFFFFFFFF
310
FFFFFFFFFFFFFFFFFFFFFFFFFFFFFFFFFFFFFFFFFFFFFFFFFFFFFFFFFFFFFFFF
310
FFFFFFFFFFFFFFFFFFFFFFFFFFFFFFFFFFFFFFFFFFFFFFFFFFFFFFFFFFFFFFFF
310
FFFFFFFFFFFFFFFFFFFFFFFFFFFFFFFFFFFFFFFFFFFFFFFFFFFFFFFFFFFFFFFF
310
FFFFFFFFFFFFFFFFFFFFFFFFFFFFFFFFFFFFFFFFFFFFFFFFFFFFFFFFFFFFFFFF
310
FFFFFFFFFFFFFFFFFFFFFFFFFFFFFFFFFFFFFFFFFFFFFFFFFFFFFFFFFFFFFFFF
310
FFFFFFFFFFFFFFFFFFFFFFFFFFFFFFFFFFFFFFFFFFFFFFFFFFFFFFFFFFFFFFFF
310
FFFFFFFFFFFFFFFFFFFFFFFFFFFFFFFFFFFFFFFFFFFFFFFFFFFFFFFFFFFFFFFF
310
FFFFFFFFFFFFFFFFFFFFFFFFFFFFFFFFFFFFFFFFFFFFFFFFFFFFFFFFFFFFFFFF
310
FFFFFFFFFFFFFFFFFFFFFFFFFFFFFFFFFFFFFFFFFFFFFFFFFFFFFFFFFFFFFFFF
310
FFFFFFFFFFFFFFFFFFFFFFFFFFFFFFFFFFFFFFFFFFFFFFFFFFFFFFFFFFFFFFFF
310
52006F006F007400200045006E00740072007900000000000000000000000000
310
0000000000000000000000000000000000000000000000000000000000000000
310
16000500FFFFFFFFFFFFFFFF020000000A00030000000000C000000000000046
310
000000000000000000000000300719985449CD0103000000C000000000000000
310
01004F006C006500000000000000000000000000000000000000000000000000
310
0000000000000000000000000000000000000000000000000000000000000000
310
0A000200FFFFFFFFFFFFFFFFFFFFFFFF00000000000000000000000000000000
310
0000000000000000000000000000000000000000000000001400000000000000
310
010043006F006D0070004F0062006A0000000000000000000000000000000000
310
0000000000000000000000000000000000000000000000000000000000000000
310
120002010100000003000000FFFFFFFF00000000000000000000000000000000
310
0000000000000000000000000000000000000000010000004D00000000000000
310
01004F006C006500310030004E00610074006900760065000000000000000000
310
0000000000000000000000000000000000000000000000000000000000000000
310
1A000200FFFFFFFFFFFFFFFFFFFFFFFF00000000000000000000000000000000
310
0000000000000000000000000000000000000000040000002426000000000000
310
FEFFFFFF02000000FEFFFFFFFFFFFFFFFFFFFFFFFFFFFFFFFFFFFFFFFFFFFFFF
310
FFFFFFFFFFFFFFFFFFFFFFFFFFFFFFFFFFFFFFFFFFFFFFFFFFFFFFFFFFFFFFFF
310
FFFFFFFFFFFFFFFFFFFFFFFFFFFFFFFFFFFFFFFFFFFFFFFFFFFFFFFFFFFFFFFF
310
FFFFFFFFFFFFFFFFFFFFFFFFFFFFFFFFFFFFFFFFFFFFFFFFFFFFFFFFFFFFFFFF
310
FFFFFFFFFFFFFFFFFFFFFFFFFFFFFFFFFFFFFFFFFFFFFFFFFFFFFFFFFFFFFFFF
310
FFFFFFFFFFFFFFFFFFFFFFFFFFFFFFFFFFFFFFFFFFFFFFFFFFFFFFFFFFFFFFFF
310
FFFFFFFFFFFFFFFFFFFFFFFFFFFFFFFFFFFFFFFFFFFFFFFFFFFFFFFFFFFFFFFF
310
FFFFFFFFFFFFFFFFFFFFFFFFFFFFFFFFFFFFFFFFFFFFFFFFFFFFFFFFFFFFFFFF
310
FFFFFFFFFFFFFFFFFFFFFFFFFFFFFFFFFFFFFFFFFFFFFFFFFFFFFFFFFFFFFFFF
310
FFFFFFFFFFFFFFFFFFFFFFFFFFFFFFFFFFFFFFFFFFFFFFFFFFFFFFFFFFFFFFFF
310
FFFFFFFFFFFFFFFFFFFFFFFFFFFFFFFFFFFFFFFFFFFFFFFFFFFFFFFFFFFFFFFF
310
FFFFFFFFFFFFFFFFFFFFFFFFFFFFFFFFFFFFFFFFFFFFFFFFFFFFFFFFFFFFFFFF
310
FFFFFFFFFFFFFFFFFFFFFFFFFFFFFFFFFFFFFFFFFFFFFFFFFFFFFFFFFFFFFFFF
310
FFFFFFFFFFFFFFFFFFFFFFFFFFFFFFFFFFFFFFFFFFFFFFFFFFFFFFFFFFFFFFFF
310
FFFFFFFFFFFFFFFFFFFFFFFFFFFFFFFFFFFFFFFFFFFFFFFFFFFFFFFFFFFFFFFF
310
FFFFFFFFFFFFFFFFFFFFFFFFFFFFFFFFFFFFFFFFFFFFFFFFFFFFFFFFFFFFFFFF
310
0100000200000000000000000000000000000000000000000000000000000000
310
0000000000000000000000000000000000000000000000000000000000000000
310
0100FEFF030A0000FFFFFFFF0A00030000000000C00000000000004607000000
310
5042727573680007000000504272757368000700000050427275736800F439B2
310
7100000000000000000000000000000000000000000000000000000000000000
310
0000000000000000000000000000000000000000000000000000000000000000
310
0000000000000000000000000000000000000000000000000000000000000000
310
0000000000000000000000000000000000000000000000000000000000000000
310
0000000000000000000000000000000000000000000000000000000000000000
310
0000000000000000000000000000000000000000000000000000000000000000
310
0000000000000000000000000000000000000000000000000000000000000000
310
0000000000000000000000000000000000000000000000000000000000000000
310
0000000000000000000000000000000000000000000000000000000000000000
310
0000000000000000000000000000000000000000000000000000000000000000
310
0000000000000000000000000000000000000000000000000000000000000000
310
0000000000000000000000000000000000000000000000000000000000000000
310
20260000424D0E260000000000003E00000028000000B40200006E0000000100
310
01000000000000000000130B0000130B00000200000002000000000000FFFFFF
310
FFFFFFFFFFFFFFFFFFFFFFFFFFFFFFFFFFFFFFFFFFFFFFFFFFFFFFFFFFFFFFFF
310
FFFFFFFFFFFFFFFFFFFFFFFFFFFFFFFFFFFFFFFFFFFFFFFFFFFFFFFFFFFFFFFF
310
FFFFFFFFFFFFFFFFFFFFFFFFFFFFFFFFFFFFFFFFFFFFFFFFF000FFFFFFFFFFFF
310
FFFFFFFFFFFFFFFFFFFFFFFFFFFFFFFFFFFFFFFFFFFFFFFFFFFFFFFFFFFFFFFF
310
FFFFFFFFFFFFFFFFFFFFFFFFFFFFFFFFFFFFFFFFFFFFFFFFFFFFFFFFFFFFFFFF
310
FFFFFFFFFFFFFFFFFFFFFFFFFFFFFFFFF000FFFFFFFFFFFFFFFFFFFFFFFFFFFF
310
FFFFFFFFFFFFFFFFFFFFFFFFFFFFFFFFFFFFFFFFFFFFFFFFFFFFFFFFFFFFFFFF
310
FFFFFFFFFFFFFFFFFFFFFFFFFFFFFFFFFFFFFFFFFFFFFFFFFFFFFFFFFFFFFFFF
310
FFFFFFFFFFFFFFFFF000FFFFFFFFFFFFFFFFFFFFFFFFFFFFFFFFFFFFFFFFFFFF
310
FFFFFFFFFFFFFFFFFFFFFFFFFFFFFFFFFFFFFFFFFFFFFFFFFFFFFFFFFFFFFFFF
310
FFFFFFFFFFFFFFFFFFFFFFFFFFFFFFFFFFFFFFFFFFFFFFFFFFFFFFFFFFFFFFFF
310
F000FFFFFFFFFFFFFFFFFFFFFFFFFFFFFFFFFFFFFFFFFFFFFFFFFFFFFFFFFFFF
310
FFFFFFFFFFFFFFFFFFFFFFFFFFFFFFFFFFFFFFFFFFFFFFFFFFFFFFFFFFFFFFFF
310
FFFFFFFFFFFFFFFFFFFFFFFFFFFFFFFFFFFFFFFFFFFFFFFFF000FFFFFFFFFFFF
310
FFFFFFFFFFFFFFFFFFFFFFFFFFFFFFFFFFFFFFFFFFFFFFFFFFFFFFFFFFFFFFFF
310
FFFFFFFFFFFFFFFFFFFFFFFFFFFFFFFFFFFFFFFFFFFFFFFFFFFFFFFFFFFFFFFF
310
FFFFFFFFFFFFFFFFFFFFFFFFFFFFFFFFF000FFFFFFFFFFFFFFFFFFFFFFFFFFFF
310
FFFFFFFFFFFFFFFFFFFFFFFFFFFFFFFFFFFFFFFFFFFFFFFFFFFFFFFFFFFFFFFF
310
FFFFFFFFFFFFFFFFFFFFFFFFFFFFFFFFFFFFFFFFFFFFFFFFFFFFFFFFFFFFFFFF
310
FFFFFFFFFFFFFFFFF000FFFFFFFFFFFFFFFFFFFFFFFFFFFFFFFFFFFFFFFFFFFF
310
FFFFFFFFFFFFFFFFFFFFFFFFFFFFFFFFFFFFFFFFFFFFFFFFFFFFFFFFFFFFFFFF
310
FFFFFFFFFFFFFFFFFFFFFFFFFFFFFFFFFFFFFFFFFFFFFFFFFFFFFFFFFFFFFFFF
310
F000FFFFFFFFFFFFFFFFFFFFFFFFFFFFFFFFFFFFFFFFFFFFFFFFFFFFFFFFFFFF
310
FFFFFFFFFFFFFFFFFFFFFFFFFFFFFFFFFFFFFFFFFFFFFFFFFFFFFFFFFFFFFFFF
310
FFFFFFFFFFFFFFFFFFFFFFFFFFFFFFFFFFFFFFFFFFFFFFFFF000FFFFFFFFFFFF
310
FFFFFFFFFFFFFFFFFFFFFFFFFFFFFFFFFFFFFFFFFFFFFFFFFFFFFFFFFFFFFFFF
310
FFFFFFFFFFFFFFFFFFFFFFFFFFFFFFFFFFFFFFFFFFFFFFFFFFFFFFFFFFFFFFFF
310
FFFFFFFFFFFFFFFFFFFFFFFFFFFFFFFFF000FFFFFFFFFFFFFFFFFFFFFFFFFFFF
310
FFFFFFFFFFFFFFFFFFFFFFFFFFFFFFFFFFFFFFFFFFFFFFFFFFFFFFFFFFFFFFFF
310
FFFFFFFFFFFFFFFFFFFFFFFFFFFFFFFFFFFFFFFFFFFFFFFFFFFFFFFFFFFFFFFF
310
FFFFFFFFFFFFFFFFF000FFFFFFFFFFFFFFFFFFFFFFFFFFFFFFFFFFFFFFFFFFFF
310
FFFFFFFFFFFFFFFFFFFFFFFFFFFFFFFFFFFFFFFFFFFFFFFFFFFFFFFFFFFFFFFF
310
FFFFFFFFFFFFFFFFFFFFFFFFFFFFFFFFFFFFFFFFFFFFFFFFFFFFFFFFFFFFFFFF
310
F000FFFFFFFFFFFFFFFFFFFFFFFFFFFFFFFFFFFFFFFFFFFFFFFFFFFFFFFFFFFF
310
FFFFFFFFFFFFFFFFFFFFFFFFFFFFFFFFFFFFFFFFFFFFFFFFFFFFFFFFFFFFFFFF
310
FFFFFFFFFFFFFFFFFFFFFFFFFFFFFFFFFFFFFFFFFFFFFFFFF000FFFFFFFFFFFF
310
FFFFFFFFFFFFFFFFFFFFFFFFFFFFFFFFFFFFFFFFFFFFFFFFFFFFFFFFFFFFFFFF
310
FFFFFFFFFFFFFFFFFFFFFFFFFFFFFFFFFFFFFFFFFFFFFFFFFFFFFFFFFFFFFFFF
310
FFFFFFFFFFFFFFFFFFFFFFFFFFFFFFFFF000FFFFFFFFFFFFFFFFFFFFFFFFFFFF
310
FFFFFFFFFFFFFFFFFFFFFFFFFFFFFFFFFFFFFFFFFFFFFFFFFFFFFFFFFFFFFFFF
310
FFFFFFFFFFFFFFFFFFFFFFFFFFFFFFFFFFFFFFFFFFFFFFFFFFFFFFFFFFFFFFFF
310
FFFFFFFFFFFFFFFFF000FFFFFFFFFFFFFFFFFFFFFFFFFFFFFFFFFFFFFFFFFFFF
310
FFFFFFFFFFFFFFFFFFFFFFFFFFFFFFFFFFFFFFFFFFFFFFFFFFFFFFFFFFFFFFFF
310
FFFFFFFFFFFFFFFFFFFFFFFFFFFFFFFFFFFFFFFFFFFFFFFFFFFFFFFFFFFFFFFF
310
F000FFFFFFFFFFFFFFFFFFFFFFFFFFFFFFFFFFFFFFFFFFFFFFFFFFFFFFFFFFFF
310
FFFFFFFFFFFFFFFFFFFFFFFFFFFFFFFFFFFFFFFFFFFFFFFFFFFFFFFFFFFFFFFF
310
FFFFFFFFFFFFFFFFFFFFFFFFFFFFFFFFFFFFFFFFFFFFFFFFF000FFFFFFFFFFFF
310
FFFFFFFFFFFFFFFFFFFFFFFFFFFFFFFFFFFFFFFFFFFFFFFFFFFFFFFFFFFFFFFF
310
FFFFFFFFFFFFFFFFFFFFFFFFFFFFFFFFFFFFFFFFFFFFFFFFFFFFFFFFFFFFFFFF
310
FFFFFFFFFFFFFFFFFFFFFFFFFFFFFFFFF000FFFFFFFFFFFFFFFFFFFFFFFFFFFF
310
FFFFFFFFFFFFFFFFFFFFFFFFFFFFFFFFFFFFFFFFFFFFFFFFFFFFFFFFFFFFFFFF
310
FFFFFFFFFFFFFFFFFFFFFFFFFFFFFFFFFFFFFFFFFFFFFFFFFFFFFFFFFFFFFFFF
310
FFFFFFFFFFFFFFFFF000FFFFF80003FFFFFFFFFFFFFFFFFFFFFFFFFFFFFFFFFF
310
FFFFF00007FFFFFFFFFF00007FFFFFF800000000000000007FFFFFFFFFFFFFFF
310
FFFFFFFC001FFFFFFFFFFFFFFC001FFFFFFFFFFFFFFFFFFFFFFFFFFE0007FFFF
310
F000FFFF8000007FFFFFFFF8000FFFFFC0007FFFFF80007FFFFF0000007FFFFF
310
FFF8000007FFFFF800000000000000007FFFFFF0001FFFFFFFFFFFC00001FFFF
310
FFFFFFFFC00001FFFFFFFF000000000003FFFFE000007FFFF000FFFE0000000F
310
FFFFFFF0000FFFFF80007FFFFF80007FFFFC0000001FFFFFFFC0000001FFFFF8
310
00000000000000007FFFFFF0001FFFFFFFFFFE0000003FFFFFFFFFFE0000003F
310
FFFFFF000000000003FFFF0000000FFFF000FFF800000003FFFFFFF00007FFFF
310
80007FFFFF80007FFFF000000007FFFFFF000000003FFFF80000000000000000
310
7FFFFFF0001FFFFFFFFFF80000000FFFFFFFFFF80000000FFFFFFF0000000000
310
03FFFC00000003FFF000FFE000000000FFFFFFF00007FFFF80003FFFFF80007F
310
FFC000000001FFFFFC000000001FFFF800000000000000007FFFFFF0001FFFFF
310
FFFFE000000003FFFFFFFFE000000003FFFFFF000000000003FFF000000000FF
310
F000FF80000000007FFFFFF00007FFFF80003FFFFF80007FFF8000000000FFFF
310
F80000000007FFF800000000000000007FFFFFF0001FFFFFFFFFC000000001FF
310
FFFFFFC000000001FFFFFF000000000003FFC0000000007FF000FF0000000000
310
3FFFFFE00007FFFF00003FFFFF80007FFE00000000003FFFF00000000003FFF8
310
00000000000000007FFFFFF0001FFFFFFFFF8000000000FFFFFFFF8000000000
310
FFFFFF000000000003FF80000000003FF000FE00000000001FFFFFE00003FFFF
310
00003FFFFF80007FFC00000000001FFFE00000000001FFF8000001FFFE000000
310
7FFFFFF0001FFFFFFFFE00000000003FFFFFFE00000000003FFFFF0000000000
310
03FF00000000001FF000FC00000000000FFFFFE00003FFFF00001FFFFF80007F
310
F800000000001FFFC00000000000FFF8000001FFFE0000007FFFFFF0001FFFFF
310
FFFC00000000001FFFFFFC00000000001FFFFF000000000003FE00000000000F
310
F000F8000000000007FFFFE00003FFFF00001FFFFF80007FF800000000000FFF
310
800000000000FFF8000001FFFE0000007FFFFFF0001FFFFFFFF800000000000F
310
FFFFF800000000000FFFFF000000000003FC000000000007F000F80000000000
310
03FFFFC00003FFFE00001FFFFF80007FF0000000000007FF0000000000007FF8
310
000001FFFE0000007FFFFFF0001FFFFFFFF0000000000007FFFFF00000000000
310
07FFFF000000000003F8000000000003F000F0000000000003FFFFC00001FFFE
310
00001FFFFF80007FE0000000000007FE0000000000003FF8000001FFFE000000
310
7FFFFFF0001FFFFFFFF0000000000007FFFFF0000000000007FFFF0000000000
310
03F800001F800003F000E00001FFF00001FFFFC00001FFFE00000FFFFF80007F
310
E00001FFE00003FE00001FFF00003FF8000001FFFE0000007FFFFFF0001FFFFF
310
FFE000003E000003FFFFE000003E000003FFFF000000000003F00001FFF80001
310
F000E00007FFFC0001FFFFC00001FFFE00000FFFFF80007FC0000FFFFC0003FC
310
0000FFFFC0001FF8000001FFFE0000007FFFFFF0001FFFFFFFC00003FFE00001
310
FFFFC00003FFE00001FFFF0001FFFFFFFFF00007FFFE0001F000E0000FFFFF00
310
00FFFF800001FFFC00000FFFFF80007FC0001FFFFE0001FC0001FFFFE0001FF8
310
000001FFFE0000007FFFFFF0001FFFFFFF80000FFFF80000FFFF80000FFFF800
310
00FFFF0003FFFFFFFFE0000FFFFF8000F000C0003FFFFF8000FFFF800000FFFC
310
000007FFFF80007F80003FFFFF0001FC0003FFFFF0001FF8000001FFFE000000
310
7FFFFFF0001FFFFFFF80003FFFFE0000FFFF80003FFFFE0000FFFF0003FFFFFF
310
FFE0003FFFFF8000F000C0003FFFFF8000FFFF800000FFFC000007FFFF80007F
310
80007FFFFF8001F80007FFFFF8000FF8000001FFFE0000007FFFFFF0001FFFFF
310
FF00007FFFFF00007FFF00007FFFFF00007FFF0003FFFFFFFFE0003FFFFFC000
310
F000C0007FFFFFC000FFFF000000FFFC000007FFFF80007F8000FFFFFF8000F8
310
000FFFFFF8000FF8000001FFFE0000007FFFFFF0001FFFFFFF0000FFFFFF8000
310
7FFF0000FFFFFF80007FFF0003FFFFFFFFC0007FFFFFC00070008000FFFFFFC0
310
00FFFF000000FFF8000007FFFF80007F8000FFFFFF8000F8000FFFFFF8000FF8
310
000001FFFE0000007FFFFFF0001FFFFFFE0001FFFFFFC0003FFE0001FFFFFFC0
310
003FFF0003FFFFFFFFC0007FFFFFE00070008000FFFFFFC0007FFF0000007FF8
310
000003FFFF80007F0001FFFFFF8000F8000FFFFFF8000FF8000001FFFE000000
310
7FFFFFF0001FFFFFFE0001FFFFFFC0003FFE0001FFFFFFC0003FFF0003FFFFFF
310
FFC000FFFFFFE00070008000FFFFFFC0007FFF0000007FF8000003FFFF80007F
310
0001FFFFFF8000F8001FFFFFF8000FF8000001FFFE0000007FFFFFF0001FFFFF
310
FE0003FFFFFFE0003FFE0003FFFFFFE0003FFF0003FFFFFFFFC000FFFFFFE000
310
70008000FFFFFFC0007FFE0000007FF8000003FFFF80007F0001FFFFFF8000F0
310
001FFFFFF8000FF8000001FFFE0000007FFFFFF0001FFFFFFC0003FFFFFFE000
310
1FFC0003FFFFFFE0001FFF0003FFFFFFFFC000FFFFFFC00070008000FFFFFF80
310
007FFE0000007FF0000003FFFF80007F0001FFFFFF0000F0001FFFFFF8000FF8
310
000001FFFE0000007FFFFFF0001FFFFFFC0007FFFFFFF0001FFC0007FFFFFFF0
310
001FFF0003FFFFFFFFC000FFFFFFC00070008001FFFFFF0000FFFE0000003FF0
310
000001FFFF80007F0001FFFFFF0000F8001FFFFFF0000FF8000001FFFE000000
310
7FFFFFF0001FFFFFFC0007FFFFFFF0001FFC0007FFFFFFF0001FFF0003FFFFFF
310
FFC001FFFFFF80007000FFFFFFFFFE0000FFFE0008003FF0008001FFFF80007F
310
FFFFFFFFFC0000FFFFFFFFFFE0000FF8000001FFFE0000007FFFFFF0001FFFFF
310
F8000FFFFFFFF8000FF8000FFFFFFFF8000FFF0003FFFFFFFFFFFFFFFFFF0000
310
7000FFFFFFFFFC0000FFFC0008003FF0008001FFFF80007FFFFFFFFFF80001FF
310
FFFFFFFF80000FF8000001FFFE0000007FFFFFF0001FFFFFF8000FFFFFFFF800
310
0FF8000FFFFFFFF8000FFF0003FFFFFFFFFFFFFFFFFE0000F000FFFFFFFFE000
310
00FFFC000C003FE000C001FFFF80007FFFFFFFFFC00001FFFFFFFFFE00001FF8
310
000001FFFE0000007FFFFFF0001FFFFFF8000FFFFFFFF8000FF8000FFFFFFFF8
310
000FFF0003FFFFFFFFFFFFFFFFF00000F000FFFFFFFE000001FFFC000C001FE0
310
00C000FFFF80007FFFFFFFFE000001FFFFFFFFE000001FF80FFFFFFFFFFFFFC0
310
7FFFFFF0001FFFFFF8000FFFFFFFF8000FF8000FFFFFFFF8000FFF0003FFFFFF
310
FFFFFFFFFF800000F000FFFFFFC0000001FFFC001C001FE001C000FFFF80007F
310
FFFFFF80000003FFFFFFF80000001FF80FFFFFFFFFFFFFC07FFFFFF0001FFFFF
310
F8001FFFFFFFFC000FF8001FFFFFFFFC000FFF0003FFFFFFFFFFFFFFF0000001
310
F000FFFFF800000001FFF8001C001FE001C000FFFF80007FFFFFF800000003FF
310
FFFF800000003FF80FFFFFFFFFFFFFC07FFFFFF0001FFFFFF8001FFFFFFFFC00
310
0FF8001FFFFFFFFC000FFF0003FFFFFFFFFFFFFE00000001F000FFFFC0000000
310
03FFF8001E001FC001E000FFFF80007FFFFF8000000007FFFFFC000000003FF8
310
0FFFFFFFFFFFFFC07FFFFFF0001FFFFFF8001FFFFFFFFC000FF8001FFFFFFFFC
310
000FFF0003FFFFFFFFFFFFE000000003F000FFFE0000000007FFF8001E000FC0
310
01E0007FFF80007FFFFE0000000007FFFFE0000000007FF80FFFFFFFFFFFFFC0
310
7FFFFFF0001FFFFFF0001FFFFFFFFC0007F0001FFFFFFFFC0007FF0003FFFFFF
310
FFFFFF0000000003F000FFF80000000007FFF8001E000FC003E0007FFF80007F
310
FFF0000000000FFFFF8000000000FFF80FFFFFFFFFFFFFC07FFFFFF0001FFFFF
310
F0001FFFFFFFFC0007F0001FFFFFFFFC0007FF0003FFFFFFFFFFFC0000000007
310
F000FFE0000000000FFFF0003E000FC003E0007FFF80007FFFC0000000001FFF
310
FE0000000001FFF80FFFFFFFFFFFFFC07FFFFFF0001FFFFFF0001FFFFFFFFC00
310
07F0001FFFFFFFFC0007FF0003FFFFFFFFFFF0000000000FF000FFC000000000
310
1FFFF0003F000F8003F0003FFF80007FFF80000000003FFFF80000000003FFF8
310
0FFFFFFFFFFFFFC07FFFFFF0001FFFFFF0001FFFFFFFFC0007F0001FFFFFFFFC
310
0007FF0003FFFFFFFFFFE0000000001FF000FF00000000007FFFF0003F000780
310
03F0003FFF80007FFF00000000007FFFF00000000007FFF80FFFFFFFFFFFFFC0
310
7FFFFFF0001FFFFFF0001FFFFFFFFC0007F0001FFFFFFFFC0007FF0003FFFFFF
310
FFFF80000000007FF000FE0000000000FFFFE0003F00078007F0003FFF80007F
310
FE0000000001FFFFE0000000001FFFF80FFFFFFFFFFFFFC07FFFFFF0001FFFFF
310
F0001FFFFFFFFC0007F0001FFFFFFFFC0007FF0003FFFFFFFFFF0000000000FF
310
F000FC0000000003FFFFE0007F00078007F0003FFF80007FFC0000000007FFFF
310
C0000000007FFFF80FFFFFFFFFFFFFC07FFFFFF0001FFFFFF8001FFFFFFFFC00
310
0FF8001FFFFFFFFC000FFF0003FFFFFFFFFE0000000003FFF000FC000000000F
310
FFFFE0007F80070007F8001FFF80007FF8000000001FFFFF8000000001FFFFF8
310
0FFFFFFFFFFFFFC07FFFFFF0001FFFFFF8001FFFFFFFFC000FF8001FFFFFFFFC
310
000FFF0003FFFFFFFFFC000000000FFFF000F8000000007FFFFFE0007F800700
310
07F8001FFF80007FF000000000FFFFFF800000000FFFFFF80FFFFFFFFFFFFFC0
310
7FFFFFF0001FFFFFF8000FFFFFFFF8000FF8000FFFFFFFF8000FFF0003FFFFFF
310
FFFC000000007FFFF000F800000007FFFFFFC0007F8003000FF8001FFF80007F
310
F000000007FFFFFF000000007FFFFFF80FFFFFFFFFFFFFC07FFFFFF0001FFFFF
310
F8000FFFFFFFF8000FF8000FFFFFFFF8000FFF0003FFFFFFFFF80000000FFFFF
310
F000F0000000FFFFFFFFC000FF8003000FF8001FFF80007FE0000000FFFFFFFF
310
0000000FFFFFFFF8000001FFFE0000007FFFFFF0001FFFFFF8000FFFFFFFF800
310
0FF8000FFFFFFFF8000FFF0003FFFFFFFFF8000000FFFFFFF000F000000FFFFF
310
FFFFC000FFC002000FF8000FFF80007FE000001FFFFFFFFE000001FFFFFFFFF8
310
000001FFFE0000007FFFFFF0001FFFFFF8000FFFFFFFF8000FF8000FFFFFFFF8
310
000FFF0003FFFFFFFFF000001FFFFFFFF000E00000FFFFFFFFFFC000FFC00200
310
0FFC000FFF80007FE00001FFFFFFFFFE00001FFFFFFFFFF8000001FFFE000000
310
7FFFFFF0001FFFFFFC000FFFFFFFF8001FFC000FFFFFFFF8001FFF0003FFFFFF
310
FFF00001FFFFFFFFF000E00007FFFFFFFFFF8000FFC000001FFC000FFF80007F
310
C0000FFFFFFFFFFE0000FFFFFFFFFFF8000001FFFE0000007FFFFFF0001FFFFF
310
FC0007FFFFFFF0001FFC0007FFFFFFF0001FFF0003FFFFFFFFF00007FFFFFFFF
310
F000E0001FFFFFFFFFFF8000FFC000001FFC000FFF80007FC0003FFFFFFFFFFE
310
0001FFFFFFFFFFF8000001FFFE0000007FFFFFF0001FFFFFFC0007FFFFFFF000
310
1FFC0007FFFFFFF0001FFF0003FFFFFFFFF0001FFFFFFFFFF000E0003FFFFF00
310
03FF8001FFE000001FFC0007FF80007FC0007FFFFF0007FC0003FFFFF0003FF8
310
000001FFFE0000007FFFFFF0001FFFFFFC0003FFFFFFE0001FFC0003FFFFFFE0
310
001FFF0003FFFFFFFFF0003FFFFFFFFFF000E0003FFFFF0001FF8001FFE00000
310
1FFE0007FF80007FC0007FFFFE0003FC0007FFFFE0003FF8000001FFFE000000
310
7FFFFFF0001FFFFFFE0003FFFFFFE0003FFE0003FFFFFFE0003FFF0003FFFFFF
310
FFF0003FFFFF8001F000E0003FFFFF0001FF0001FFE000001FFE0007FF80007F
310
C0007FFFFE0003FC0007FFFFE0003FF8000001FFFE0000007FFFFFF0001FFFFF
310
FE0001FFFFFFC0003FFE0001FFFFFFC0003FFF0003FFFFFFFFF0003FFFFF0001
310
F000E0003FFFFF0003FF0001FFE000003FFE0007FF80007FC0007FFFFE0003FC
310
0007FFFFE0003FF8000001FFFE0000007FFFFFF0001FFFFFFF0001FFFFFFC000
310
7FFF0001FFFFFFC0007FFF0003FFFFFFFFF0003FFFFF0001F000E0003FFFFE00
310
03FF0003FFF000003FFE0003FF80007FC0007FFFFC0003FE0007FFFFE0003FF8
310
000001FFFE0000007FFFFFF0001FFFFFFF0000FFFFFF80007FFF0000FFFFFF80
310
007FFF0003FFFFFFFFF0003FFFFF0001F000E0003FFFFE0003FF0003FFF00000
310
3FFF0003FF80007FC0007FFFFC0007FE0007FFFFC0003FF8000001FFFE000000
310
7FFFFFF0001FFFFFFF80007FFFFF0000FFFF80007FFFFF0000FFFF0003FFFFFF
310
FFF0003FFFFF0003F000E0003FFFFC0003FE0003FFF000003FFF0003FF80007F
310
E0003FFFF80007FE0003FFFFC0007FF8000001FFFE0000007FFFFFF0001FFFFF
310
FF80003FFFFE0000FFFF80003FFFFE0000FFFF0003FFFFFFFFF0001FFFFE0003
310
F000F0001FFFF80003FE0003FFF000007FFF0001FF80007FE0003FFFF00007FE
310
0001FFFF80007FF8000001FFFE0000007FFFFFF0001FFFFFFFC0000FFFF80001
310
FFFFC0000FFFF80001FFFF0003FFFFFFFFF0001FFFFC0003F000F0000FFFF000
310
07FE0007FFF800007FFF0001FF80007FE0001FFFE00007FF0000FFFE00007FF8
310
000001FFFE0000007FFFFFF0001FFFFFFFC00003FFE00001FFFFC00003FFE000
310
01FFFF0003FFFFFFFFF8000FFFF80003F000F00003FFC00007FC0007FFF80000
310
7FFF8001FF80007FF00007FF80000FFF00007FF80000FFF8000001FFFE000000
310
7F80000000000001FFE000003E000003FFFFE000003E000003FFFF0003FFFFFF
310
FFF80003FFE00007F000F800000000000FFC0007FFF800007FFF8001FF80007F
310
F000000000000FFF000000000000FFF8000001FFFE0000007F80000000000001
310
FFF0000000000007FFFFF0000000000007FFFF0003FFFFFFFFFC00007E000007
310
F000F800000000000FFC0007FFF80000FFFF8000FF80007FF800000000001FFF
310
800000000001FFF8000001FFFE0000007F80000000000001FFF800000000000F
310
FFFFF800000000000FFFFF0003FFFFFFFFFC00000000000FF000FC0000000000
310
1FFC0007FFFC0000FFFF8000FF80007FF800000000003FFFC00000000001FFF8
310
000001FFFE0000007F80000000000001FFF800000000000FFFFFF80000000000
310
0FFFFF0003FFFFFFFFFE00000000001FF000FE00000000003FF8000FFFFC0000
310
FFFF8000FF80007FFC00000000003FFFC00000000003FFF8000001FFFE000000
310
7F80000000000001FFFC00000000001FFFFFFC00000000001FFFFF0003FFFFFF
310
FFFF00000000001FF000FF00000000003FF8000FFFFC0000FFFFC000FF80007F
310
FE00000000007FFFE00000000007FFF8000001FFFE0000007F80000000000001
310
FFFE00000000003FFFFFFE00000000003FFFFF0003FFFFFFFFFF80000000003F
310
F000FF80000000007FF8000FFFFC0001FFFFC0007F80007FFF0000000000FFFF
310
F0000000000FFFF800000000000000007F80000000000001FFFF8000000000FF
310
FFFFFF8000000000FFFFFF0003FFFFFFFFFFC0000000007FF000FFC000000000
310
FFF8000FFFFE0001FFFFC0007F80007FFF8000000001FFFFF8000000001FFFF8
310
00000000000000007F80000000000001FFFFC000000001FFFFFFFFC000000001
310
FFFFFF0003FFFFFFFFFFE000000000FFF000FFE000000003FFF0001FFFFE0001
310
FFFFC0007F80007FFFC000000007FFFFFE000000003FFFF80000000000000000
310
7F80000000000001FFFFE000000003FFFFFFFFE000000003FFFFFF0003FFFFFF
310
FFFFF000000003FFF000FFF80000000FFFF0001FFFFE0001FFFFE0007F80007F
310
FFF00000000FFFFFFF00000000FFFFF800000000000000007F80000000000001
310
FFFFF80000000FFFFFFFFFF80000000FFFFFFF0003FFFFFFFFFFFC0000000FFF
310
F000FFFE0000003FFFF0001FFFFE0003FFFFE0003F80007FFFFC0000003FFFFF
310
FFC0000003FFFFF800000000000000007F80000000000001FFFFFE0000003FFF
310
FFFFFFFE0000003FFFFFFF0003FFFFFFFFFFFF0000003FFFF000FFFF800000FF
310
FFF0001FFFFF0003FFFFE0003F80007FFFFF000001FFFFFFFFF800001FFFFFF8
310
00000000000000007F80000000000001FFFFFFC00001FFFFFFFFFFFFC00001FF
310
FFFFFF0003FFFFFFFFFFFFC00000FFFFF000FFFFF8000FFFFFFFFFFFFFFFFFFF
310
FFFFFFFFFFFFFFFFFFFFF0001FFFFFFFFFFF0000FFFFFFF80000000000000000
310
7FFFFFFFFFFFFFFFFFFFFFFC001FFFFFFFFFFFFFFC001FFFFFFFFFFFFFFFFFFF
310
FFFFFFFC001FFFFFF000FFFFFFFFFFFFFFFFFFFFFFFFFFFFFFFFFFFFFFFFFFFF
310
FFFFFFFFFFFFFFFFFFFFFFFFFFFFFFFFFFFFFFFFFFFFFFFFFFFFFFFFFFFFFFFF
310
FFFFFFFFFFFFFFFFFFFFFFFFFFFFFFFFFFFFFFFFFFFFFFFFFFFFFFFFFFFFFFFF
310
F000FFFFFFFFFFFFFFFFFFFFFFFFFFFFFFFFFFFFFFFFFFFFFFFFFFFFFFFFFFFF
310
FFFFFFFFFFFFFFFFFFFFFFFFFFFFFFFFFFFFFFFFFFFFFFFFFFFFFFFFFFFFFFFF
310
FFFFFFFFFFFFFFFFFFFFFFFFFFFFFFFFFFFFFFFFFFFFFFFFF000FFFFFFFFFFFF
310
FFFFFFFFFFFFFFFFFFFFFFFFFFFFFFFFFFFFFFFFFFFFFFFFFFFFFFFFFFFFFFFF
310
FFFFFFFFFFFFFFFFFFFFFFFFFFFFFFFFFFFFFFFFFFFFFFFFFFFFFFFFFFFFFFFF
310
FFFFFFFFFFFFFFFFFFFFFFFFFFFFFFFFF000FFFFFFFFFFFFFFFFFFFFFFFFFFFF
310
FFFFFFFFFFFFFFFFFFFFFFFFFFFFFFFFFFFFFFFFFFFFFFFFFFFFFFFFFFFFFFFF
310
FFFFFFFFFFFFFFFFFFFFFFFFFFFFFFFFFFFFFFFFFFFFFFFFFFFFFFFFFFFFFFFF
310
FFFFFFFFFFFFFFFFF000FFFFFFFFFFFFFFFFFFFFFFFFFFFFFFFFFFFFFFFFFFFF
310
FFFFFFFFFFFFFFFFFFFFFFFFFFFFFFFFFFFFFFFFFFFFFFFFFFFFFFFFFFFFFFFF
310
FFFFFFFFFFFFFFFFFFFFFFFFFFFFFFFFFFFFFFFFFFFFFFFFFFFFFFFFFFFFFFFF
310
F000FFFFFFFFFFFFFFFFFFFFFFFFFFFFFFFFFFFFFFFFFFFFFFFFFFFFFFFFFFFF
310
FFFFFFFFFFFFFFFFFFFFFFFFFFFFFFFFFFFFFFFFFFFFFFFFFFFFFFFFFFFFFFFF
310
FFFFFFFFFFFFFFFFFFFFFFFFFFFFFFFFFFFFFFFFFFFFFFFFF000FFFFFFFFFFFF
310
FFFFFFFFFFFFFFFFFFFFFFFFFFFFFFFFFFFFFFFFFFFFFFFFFFFFFFFFFFFFFFFF
310
FFFFFFFFFFFFFFFFFFFFFFFFFFFFFFFFFFFFFFFFFFFFFFFFFFFFFFFFFFFFFFFF
310
FFFFFFFFFFFFFFFFFFFFFFFFFFFFFFFFF000FFFFFFFFFFFFFFFFFFFFFFFFFFFF
310
FFFFFFFFFFFFFFFFFFFFFFFFFFFFFFFFFFFFFFFFFFFFFFFFFFFFFFFFFFFFFFFF
310
FFFFFFFFFFFFFFFFFFFFFFFFFFFFFFFFFFFFFFFFFFFFFFFFFFFFFFFFFFFFFFFF
310
FFFFFFFFFFFFFFFFF000FFFFFFFFFFFFFFFFFFFFFFFFFFFFFFFFFFFFFFFFFFFF
310
FFFFFFFFFFFFFFFFFFFFFFFFFFFFFFFFFFFFFFFFFFFFFFFFFFFFFFFFFFFFFFFF
310
FFFFFFFFFFFFFFFFFFFFFFFFFFFFFFFFFFFFFFFFFFFFFFFFFFFFFFFFFFFFFFFF
310
F000FFFFFFFFFFFFFFFFFFFFFFFFFFFFFFFFFFFFFFFFFFFFFFFFFFFFFFFFFFFF
310
FFFFFFFFFFFFFFFFFFFFFFFFFFFFFFFFFFFFFFFFFFFFFFFFFFFFFFFFFFFFFFFF
310
FFFFFFFFFFFFFFFFFFFFFFFFFFFFFFFFFFFFFFFFFFFFFFFFF000FFFFFFFFFFFF
310
FFFFFFFFFFFFFFFFFFFFFFFFFFFFFFFFFFFFFFFFFFFFFFFFFFFFFFFFFFFFFFFF
310
FFFFFFFFFFFFFFFFFFFFFFFFFFFFFFFFFFFFFFFFFFFFFFFFFFFFFFFFFFFFFFFF
310
FFFFFFFFFFFFFFFFFFFFFFFFFFFFFFFFF000FFFFFFFFFFFFFFFFFFFFFFFFFFFF
310
FFFFFFFFFFFFFFFFFFFFFFFFFFFFFFFFFFFFFFFFFFFFFFFFFFFFFFFFFFFFFFFF
310
FFFFFFFFFFFFFFFFFFFFFFFFFFFFFFFFFFFFFFFFFFFFFFFFFFFFFFFFFFFFFFFF
310
FFFFFFFFFFFFFFFFF000FFFFFFFFFFFFFFFFFFFFFFFFFFFFFFFFFFFFFFFFFFFF
310
FFFFFFFFFFFFFFFFFFFFFFFFFFFFFFFFFFFFFFFFFFFFFFFFFFFFFFFFFFFFFFFF
310
FFFFFFFFFFFFFFFFFFFFFFFFFFFFFFFFFFFFFFFFFFFFFFFFFFFFFFFFFFFFFFFF
310
F000FFFFFFFFFFFFFFFFFFFFFFFFFFFFFFFFFFFFFFFFFFFFFFFFFFFFFFFFFFFF
310
FFFFFFFFFFFFFFFFFFFFFFFFFFFFFFFFFFFFFFFFFFFFFFFFFFFFFFFFFFFFFFFF
310
FFFFFFFFFFFFFFFFFFFFFFFFFFFFFFFFFFFFFFFFFFFFFFFFF000FFFFFFFFFFFF
310
FFFFFFFFFFFFFFFFFFFFFFFFFFFFFFFFFFFFFFFFFFFFFFFFFFFFFFFFFFFFFFFF
310
FFFFFFFFFFFFFFFFFFFFFFFFFFFFFFFFFFFFFFFFFFFFFFFFFFFFFFFFFFFFFFFF
310
FFFFFFFFFFFFFFFFFFFFFFFFFFFFFFFFF000FFFFFFFFFFFFFFFFFFFFFFFFFFFF
310
FFFFFFFFFFFFFFFFFFFFFFFFFFFFFFFFFFFFFFFFFFFFFFFFFFFFFFFFFFFFFFFF
310
FFFFFFFFFFFFFFFFFFFFFFFFFFFFFFFFFFFFFFFFFFFFFFFFFFFFFFFFFFFFFFFF
310
FFFFFFFFFFFFFFFFF000FFFFFFFFFFFFFFFFFFFFFFFFFFFFFFFFFFFFFFFFFFFF
310
FFFFFFFFFFFFFFFFFFFFFFFFFFFFFFFFFFFFFFFFFFFFFFFFFFFFFFFFFFFFFFFF
310
FFFFFFFFFFFFFFFFFFFFFFFFFFFFFFFFFFFFFFFFFFFFFFFFFFFFFFFFFFFFFFFF
310
F000FFFFFFFFFFFFFFFFFFFFFFFFFFFFFFFFFFFFFFFFFFFFFFFFFFFFFFFFFFFF
310
FFFFFFFFFFFFFFFFFFFFFFFFFFFFFFFFFFFFFFFFFFFFFFFFFFFFFFFFFFFFFFFF
310
FFFFFFFFFFFFFFFFFFFFFFFFFFFFFFFFFFFFFFFFFFFFFFFFF000FFFFFFFFFFFF
310
FFFFFFFFFFFFFFFFFFFFFFFFFFFFFFFFFFFFFFFFFFFFFFFFFFFFFFFFFFFFFFFF
310
FFFFFFFFFFFFFFFFFFFFFFFFFFFFFFFFFFFFFFFFFFFFFFFFFFFFFFFFFFFFFFFF
310
FFFFFFFFFFFFFFFFFFFFFFFFFFFFFFFFF000FFFFFFFFFFFFFFFFFFFFFFFFFFFF
310
FFFFFFFFFFFFFFFFFFFFFFFFFFFFFFFFFFFFFFFFFFFFFFFFFFFFFFFFFFFFFFFF
310
FFFFFFFFFFFFFFFFFFFFFFFFFFFFFFFFFFFFFFFFFFFFFFFFFFFFFFFFFFFFFFFF
310
FFFFFFFFFFFFFFFFF000FFFFFFFFFFFFFFFFFFFFFFFFFFFFFFFFFFFFFFFFFFFF
310
FFFFFFFFFFFFFFFFFFFFFFFFFFFFFFFFFFFFFFFFFFFFFFFFFFFFFFFFFFFFFFFF
310
FFFFFFFFFFFFFFFFFFFFFFFFFFFFFFFFFFFFFFFFFFFFFFFFFFFFFFFFFFFFFFFF
310
F000FFFFFFFFFFFFFFFFFFFFFFFFFFFFFFFFFFFFFFFFFFFFFFFFFFFFFFFFFFFF
310
FFFFFFFFFFFFFFFFFFFFFFFFFFFFFFFFFFFFFFFFFFFFFFFFFFFFFFFFFFFFFFFF
310
FFFFFFFFFFFFFFFFFFFFFFFFFFFFFFFFFFFFFFFFFFFFFFFFF000FFFFFFFFFFFF
310
FFFFFFFFFFFFFFFFFFFFFFFFFFFFFFFFFFFFFFFFFFFFFFFFFFFFFFFFFFFFFFFF
310
FFFFFFFFFFFFFFFFFFFFFFFFFFFFFFFFFFFFFFFFFFFFFFFFFFFFFFFFFFFFFFFF
310
FFFFFFFFFFFFFFFFFFFFFFFFFFFFFFFFF0000000000000000000000000000000
310
0000000000000000000000000000000000000000000000000000000000000000
310
0000000000000000000000000000000000000000000000000000000000000000
310
0000000000000000000000000000000000000000000000000000000000000000
310
0000000000000000000000000000000000000000000000000000000000000000
310
0000000000000000000000000000000000000000000000000000000000000000
310
0000000000000000000000000000000000000000000000000000000000000000
310
0000000000000000000000000000000000000000000000000000000000000000
310
0000000000000000000000000000000000000000000000000000000000000000
310
0000000000000000000000000000000000000000000000000000000000000000
310
0000000000000000000000000000000000000000000000000000000000000000
310
0000000000000000000000000000000000000000000000000000000000000000
310
0000000000000000000000000000000000000000000000000000000000000000
310
0000000000000000000000000000000000000000000000000000000000000000
310
0000000000000000000000000000000000000000000000000000000000000000
310
0000000000000000000000000000000000000000000000000000000000000000
  1
OLE
  0
ENDSEC
  0
SECTION
  2
OBJECTS
  0
DICTIONARY
  5
C
330
0
100
AcDbDictionary
281
     1
  3
ACAD_GROUP
350
D
  3
ACAD_LAYOUT
350
1A
  3
ACAD_MLINESTYLE
350
17
  3
ACAD_PLOTSETTINGS
350
19
  3
ACAD_PLOTSTYLENAME
350
E
  0
DICTIONARY
  5
D
102
{ACAD_REACTORS
330
C
102
}
330
C
100
AcDbDictionary
281
     1
  0
DICTIONARY
  5
1A
102
{ACAD_REACTORS
330
C
102
}
330
C
100
AcDbDictionary
281
     1
  3
Layout1
350
1E
  3
Layout2
350
26
  3
Model
350
22
  0
DICTIONARY
  5
17
102
{ACAD_REACTORS
330
C
102
}
330
C
100
AcDbDictionary
281
     1
  3
Standard
350
18
  0
DICTIONARY
  5
19
102
{ACAD_REACTORS
330
C
102
}
330
C
100
AcDbDictionary
281
     1
  0
ACDBDICTIONARYWDFLT
  5
E
102
{ACAD_REACTORS
330
C
102
}
330
C
100
AcDbDictionary
281
     1
  3
Normal
350
F
100
AcDbDictionaryWithDefault
340
F
  0
LAYOUT
  5
1E
102
{ACAD_REACTORS
330
1A
102
}
330
1A
100
AcDbPlotSettings
  1

  2
none_device
  4

  6

 40
0.0
 41
0.0
 42
0.0
 43
0.0
 44
0.0
 45
0.0
 46
0.0
 47
0.0
 48
0.0
 49
0.0
140
0.0
141
0.0
142
1.0
143
1.0
 70
   688
 72
     0
 73
     0
 74
     5
  7

 75
    16
147
1.0
148
0.0
149
0.0
100
AcDbLayout
  1
Layout1
 70
     1
 71
     1
 10
0.0
 20
0.0
 11
420.0
 21
297.0
 12
0.0
 22
0.0
 32
0.0
 14
1.0000000000E+20
 24
1.0000000000E+20
 34
1.0000000000E+20
 15
-1.0000000000E+20
 25
-1.0000000000E+20
 35
-1.0000000000E+20
146
0.0
 13
0.0
 23
0.0
 33
0.0
 16
1.0
 26
0.0
 36
0.0
 17
0.0
 27
1.0
 37
0.0
 76
     0
330
1B
  0
LAYOUT
  5
26
102
{ACAD_REACTORS
330
1A
102
}
330
1A
100
AcDbPlotSettings
  1

  2
none_device
  4

  6

 40
0.0
 41
0.0
 42
0.0
 43
0.0
 44
0.0
 45
0.0
 46
0.0
 47
0.0
 48
0.0
 49
0.0
140
0.0
141
0.0
142
1.0
143
1.0
 70
   688
 72
     0
 73
     0
 74
     5
  7

 75
    16
147
1.0
148
0.0
149
0.0
100
AcDbLayout
  1
Layout2
 70
     1
 71
     2
 10
0.0
 20
0.0
 11
0.0
 21
0.0
 12
0.0
 22
0.0
 32
0.0
 14
0.0
 24
0.0
 34
0.0
 15
0.0
 25
0.0
 35
0.0
146
0.0
 13
0.0
 23
0.0
 33
0.0
 16
1.0
 26
0.0
 36
0.0
 17
0.0
 27
1.0
 37
0.0
 76
     0
330
23
  0
LAYOUT
  5
22
102
{ACAD_REACTORS
330
1A
102
}
330
1A
100
AcDbPlotSettings
  1

  2
none_device
  4

  6

 40
0.0
 41
0.0
 42
0.0
 43
0.0
 44
0.0
 45
0.0
 46
0.0
 47
0.0
 48
0.0
 49
0.0
140
0.0
141
0.0
142
1.0
143
1.0
 70
  1712
 72
     0
 73
     0
 74
     0
  7

 75
     0
147
1.0
148
0.0
149
0.0
100
AcDbLayout
  1
Model
 70
     1
 71
     0
 10
0.0
 20
0.0
 11
297.0
 21
210.0
 12
0.0
 22
0.0
 32
0.0
 14
0.0
 24
0.0
 34
0.0
 15
297.0
 25
210.0
 35
0.0
146
0.0
 13
0.0
 23
0.0
 33
0.0
 16
1.0
 26
0.0
 36
0.0
 17
0.0
 27
1.0
 37
0.0
 76
     0
330
1F
331
29
  0
MLINESTYLE
  5
18
102
{ACAD_REACTORS
330
17
102
}
330
17
100
AcDbMlineStyle
  2
Standard
 70
     0
  3

 62
   256
 51
90.0
 52
90.0
 71
     2
 49
0.5
 62
   256
  6
BYLAYER
 49
-0.5
 62
   256
  6
BYLAYER
  0
ACDBPLACEHOLDER
  5
F
102
{ACAD_REACTORS
330
E
102
}
330
E
  0
ENDSEC
  0
EOF
