  0
SECTION
  2
HEADER
  9
$ACADVER
  1
AC1015
  9
$ACADMAINTVER
 70
     6
  9
$DWGCODEPAGE
  3
ANSI_1252
  9
$INSBASE
 10
0.0
 20
0.0
 30
0.0
  9
$EXTMIN
 10
0.0
 20
0.0
 30
0.0
  9
$EXTMAX
 10
297.0
 20
210.0
 30
0.0
  9
$LIMMIN
 10
0.0
 20
0.0
  9
$LIMMAX
 10
297.0
 20
210.0
  9
$ORTHOMODE
 70
     0
  9
$REGENMODE
 70
     1
  9
$FILLMODE
 70
     1
  9
$QTEXTMODE
 70
     0
  9
$MIRRTEXT
 70
     1
  9
$LTSCALE
 40
1.0
  9
$ATTMODE
 70
     1
  9
$TEXTSIZE
 40
2.0
  9
$TRACEWID
 40
1.0
  9
$TEXTSTYLE
  7
Standard
  9
$CLAYER
  8
0
  9
$CELTYPE
  6
ByLayer
  9
$CECOLOR
 62
   256
  9
$CELTSCALE
 40
1.0
  9
$DISPSILH
 70
     0
  9
$DIMSCALE
 40
1.0
  9
$DIMASZ
 40
3.0
  9
$DIMEXO
 40
0.0
  9
$DIMDLI
 40
3.75
  9
$DIMRND
 40
0.0
  9
$DIMDLE
 40
0.0
  9
$DIMEXE
 40
1.0
  9
$DIMTP
 40
0.0
  9
$DIMTM
 40
0.0
  9
$DIMTXT
 40
2.0
  9
$DIMCEN
 40
2.5
  9
$DIMTSZ
 40
0.0
  9
$DIMTOL
 70
     0
  9
$DIMLIM
 70
     0
  9
$DIMTIH
 70
     1
  9
$DIMTOH
 70
     1
  9
$DIMSE1
 70
     0
  9
$DIMSE2
 70
     0
  9
$DIMTAD
 70
     1
  9
$DIMZIN
 70
     0
  9
$DIMBLK
  1

  9
$DIMASO
 70
     1
  9
$DIMSHO
 70
     1
  9
$DIMPOST
  1

  9
$DIMAPOST
  1

  9
$DIMALT
 70
     0
  9
$DIMALTD
 70
     3
  9
$DIMALTF
 40
0.0393700787
  9
$DIMLFAC
 40
1.0
  9
$DIMTOFL
 70
     1
  9
$DIMTVP
 40
0.0
  9
$DIMTIX
 70
     0
  9
$DIMSOXD
 70
     0
  9
$DIMSAH
 70
     0
  9
$DIMBLK1
  1

  9
$DIMBLK2
  1

  9
$DIMSTYLE
  2
ISO-25
  9
$DIMCLRD
 70
     0
  9
$DIMCLRE
 70
     0
  9
$DIMCLRT
 70
     0
  9
$DIMTFAC
 40
1.0
  9
$DIMGAP
 40
1.524
  9
$DIMJUST
 70
     0
  9
$DIMSD1
 70
     0
  9
$DIMSD2
 70
     0
  9
$DIMTOLJ
 70
     0
  9
$DIMTZIN
 70
     0
  9
$DIMALTZ
 70
     0
  9
$DIMALTTZ
 70
     0
  9
$DIMUPT
 70
     0
  9
$DIMDEC
 70
     2
  9
$DIMTDEC
 70
     3
  9
$DIMALTU
 70
     2
  9
$DIMALTTD
 70
     3
  9
$DIMTXSTY
  7
Standard
  9
$DIMAUNIT
 70
     0
  9
$DIMADEC
 70
     2
  9
$DIMALTRND
 40
0.0
  9
$DIMAZIN
 70
     0
  9
$DIMDSEP
 70
    44
  9
$DIMATFIT
 70
     3
  9
$DIMFRAC
 70
     0
  9
$DIMLDRBLK
  1

  9
$DIMLUNIT
 70
     2
  9
$DIMLWD
 70
    -2
  9
$DIMLWE
 70
    -2
  9
$DIMTMOVE
 70
     0
  9
$LUNITS
 70
     2
  9
$LUPREC
 70
     2
  9
$SKETCHINC
 40
1.0
  9
$FILLETRAD
 40
10.0
  9
$AUNITS
 70
     0
  9
$AUPREC
 70
     2
  9
$MENU
  1
.
  9
$ELEVATION
 40
0.0
  9
$PELEVATION
 40
0.0
  9
$THICKNESS
 40
0.0
  9
$LIMCHECK
 70
     0
  9
$CHAMFERA
 40
10.0
  9
$CHAMFERB
 40
10.0
  9
$CHAMFERC
 40
20.0
  9
$CHAMFERD
 40
0.0
  9
$SKPOLY
 70
     0
  9
$TDCREATE
 40
2456043.713558588
  9
$TDUCREATE
 40
2456043.630225255
  9
$TDUPDATE
 40
2456043.713560752
  9
$TDUUPDATE
 40
2456043.630227419
  9
$TDINDWG
 40
0.0000000116
  9
$TDUSRTIMER
 40
0.0000000116
  9
$USRTIMER
 70
     1
  9
$ANGBASE
 50
0.0
  9
$ANGDIR
 70
     0
  9
$PDMODE
 70
     0
  9
$PDSIZE
 40
-1.0
  9
$PLINEWID
 40
0.0
  9
$SPLFRAME
 70
     0
  9
$SPLINETYPE
 70
     6
  9
$SPLINESEGS
 70
     8
  9
$HANDSEED
  5
2D9
  9
$SURFTAB1
 70
     6
  9
$SURFTAB2
 70
     6
  9
$SURFTYPE
 70
     6
  9
$SURFU
 70
     6
  9
$SURFV
 70
     6
  9
$UCSBASE
  2

  9
$UCSNAME
  2

  9
$UCSORG
 10
0.0
 20
0.0
 30
0.0
  9
$UCSXDIR
 10
1.0
 20
0.0
 30
0.0
  9
$UCSYDIR
 10
0.0
 20
1.0
 30
0.0
  9
$UCSORTHOREF
  2

  9
$UCSORTHOVIEW
 70
     0
  9
$UCSORGTOP
 10
0.0
 20
0.0
 30
0.0
  9
$UCSORGBOTTOM
 10
0.0
 20
0.0
 30
0.0
  9
$UCSORGLEFT
 10
0.0
 20
0.0
 30
0.0
  9
$UCSORGRIGHT
 10
0.0
 20
0.0
 30
0.0
  9
$UCSORGFRONT
 10
0.0
 20
0.0
 30
0.0
  9
$UCSORGBACK
 10
0.0
 20
0.0
 30
0.0
  9
$PUCSBASE
  2

  9
$PUCSNAME
  2

  9
$PUCSORG
 10
0.0
 20
0.0
 30
0.0
  9
$PUCSXDIR
 10
1.0
 20
0.0
 30
0.0
  9
$PUCSYDIR
 10
0.0
 20
1.0
 30
0.0
  9
$PUCSORTHOREF
  2

  9
$PUCSORTHOVIEW
 70
     0
  9
$PUCSORGTOP
 10
0.0
 20
0.0
 30
0.0
  9
$PUCSORGBOTTOM
 10
0.0
 20
0.0
 30
0.0
  9
$PUCSORGLEFT
 10
0.0
 20
0.0
 30
0.0
  9
$PUCSORGRIGHT
 10
0.0
 20
0.0
 30
0.0
  9
$PUCSORGFRONT
 10
0.0
 20
0.0
 30
0.0
  9
$PUCSORGBACK
 10
0.0
 20
0.0
 30
0.0
  9
$USERI1
 70
     0
  9
$USERI2
 70
     0
  9
$USERI3
 70
     0
  9
$USERI4
 70
     0
  9
$USERI5
 70
     0
  9
$USERR1
 40
0.0
  9
$USERR2
 40
0.0
  9
$USERR3
 40
0.0
  9
$USERR4
 40
0.0
  9
$USERR5
 40
0.0
  9
$WORLDVIEW
 70
     1
  9
$SHADEDGE
 70
     3
  9
$SHADEDIF
 70
    70
  9
$TILEMODE
 70
     1
  9
$MAXACTVP
 70
    64
  9
$PINSBASE
 10
0.0
 20
0.0
 30
0.0
  9
$PLIMCHECK
 70
     0
  9
$PEXTMIN
 10
1.0000000000E+20
 20
1.0000000000E+20
 30
1.0000000000E+20
  9
$PEXTMAX
 10
-1.0000000000E+20
 20
-1.0000000000E+20
 30
-1.0000000000E+20
  9
$PLIMMIN
 10
0.0
 20
0.0
  9
$PLIMMAX
 10
420.0
 20
297.0
  9
$UNITMODE
 70
     0
  9
$VISRETAIN
 70
     1
  9
$PLINEGEN
 70
     0
  9
$PSLTSCALE
 70
     1
  9
$TREEDEPTH
 70
  3020
  9
$CMLSTYLE
  2
Standard
  9
$CMLJUST
 70
     0
  9
$CMLSCALE
 40
20.0
  9
$PROXYGRAPHICS
 70
     1
  9
$MEASUREMENT
 70
     1
  9
$CELWEIGHT
370
    -1
  9
$ENDCAPS
280
     0
  9
$JOINSTYLE
280
     0
  9
$LWDISPLAY
290
     1
  9
$INSUNITS
 70
     4
  9
$HYPERLINKBASE
  1

  9
$STYLESHEET
  1

  9
$XEDIT
290
     1
  9
$CEPSNTYPE
380
     0
  9
$PSTYLEMODE
290
     1
  9
$FINGERPRINTGUID
  2
{5D39A165-2150-4DDC-B3F5-468EE3E6BCA6}
  9
$VERSIONGUID
  2
{FAEB1C32-E019-11D5-929B-00C0DF256EC4}
  9
$EXTNAMES
290
     1
  9
$PSVPSCALE
 40
0.0
  9
$OLESTARTUP
290
     0
  0
ENDSEC
  0
SECTION
  2
CLASSES
  0
CLASS
  1
ACDBDICTIONARYWDFLT
  2
AcDbDictionaryWithDefault
  3
ObjectDBX Classes
 90
        0
280
     0
281
     0
  0
CLASS
  1
VISUALSTYLE
  2
AcDbVisualStyle
  3
ObjectDBX Classes
 90
     4095
280
     0
281
     0
  0
CLASS
  1
MATERIAL
  2
AcDbMaterial
  3
ObjectDBX Classes
 90
     1153
280
     0
281
     0
  0
CLASS
  1
ACDBPLACEHOLDER
  2
AcDbPlaceHolder
  3
ObjectDBX Classes
 90
        0
280
     0
281
     0
  0
CLASS
  1
LAYOUT
  2
AcDbLayout
  3
ObjectDBX Classes
 90
        0
280
     0
281
     0
  0
ENDSEC
  0
SECTION
  2
TABLES
  0
TABLE
  2
VPORT
  5
8
330
0
100
AcDbSymbolTable
 70
     1
  0
VPORT
  5
29
330
8
100
AcDbSymbolTableRecord
100
AcDbViewportTableRecord
  2
*Active
 70
     0
 10
0.0
 20
0.0
 11
1.0
 21
1.0
 12
148.5
 22
105.0
 13
0.0
 23
0.0
 14
10.0
 24
10.0
 15
10.0
 25
10.0
 16
0.0
 26
0.0
 36
1.0
 17
0.0
 27
0.0
 37
0.0
 40
210.0
 41
1.4142857143
 42
50.0
 43
0.0
 44
0.0
 50
0.0
 51
0.0
 71
     0
 72
  2000
 73
     1
 74
     3
 75
     0
 76
     0
 77
     0
 78
     0
281
     0
 65
     1
110
0.0
120
0.0
130
0.0
111
1.0
121
0.0
131
0.0
112
0.0
122
1.0
132
0.0
 79
     0
146
0.0
  0
ENDTAB
  0
TABLE
  2
LTYPE
  5
5
330
0
100
AcDbSymbolTable
 70
     6
  0
LTYPE
  5
14
330
5
100
AcDbSymbolTableRecord
100
AcDbLinetypeTableRecord
  2
ByBlock
 70
     0
  3

 72
    65
 73
     0
 40
0.0
  0
LTYPE
  5
15
330
5
100
AcDbSymbolTableRecord
100
AcDbLinetypeTableRecord
  2
ByLayer
 70
     0
  3

 72
    65
 73
     0
 40
0.0
  0
LTYPE
  5
16
330
5
100
AcDbSymbolTableRecord
100
AcDbLinetypeTableRecord
  2
Continuous
 70
     0
  3
Solid line
 72
    65
 73
     0
 40
0.0
  0
LTYPE
  5
3F
330
5
100
AcDbSymbolTableRecord
100
AcDbLinetypeTableRecord
  2
HIDDEN
 70
     0
  3
Hidden __ __ __ __ __ __ __ __ __ __ __ __ __ __
 72
    65
 73
     2
 40
1.905
 49
1.27
 74
     0
 49
-0.635
 74
     0
  0
LTYPE
  5
40
330
5
100
AcDbSymbolTableRecord
100
AcDbLinetypeTableRecord
  2
PHANTOM
 70
     0
  3
Phantom ______  __  __  ______  __  __  ______
 72
    65
 73
     6
 40
12.7
 49
6.35
 74
     0
 49
-1.27
 74
     0
 49
1.27
 74
     0
 49
-1.27
 74
     0
 49
1.27
 74
     0
 49
-1.27
 74
     0
  0
LTYPE
  5
41
330
5
100
AcDbSymbolTableRecord
100
AcDbLinetypeTableRecord
  2
CENTER
 70
     0
  3
Center ____ _ ____ _ ____ _ ____ _ ____ _ ____
 72
    65
 73
     4
 40
10.16
 49
6.35
 74
     0
 49
-1.27
 74
     0
 49
1.27
 74
     0
 49
-1.27
 74
     0
  0
LTYPE
  5
42
330
5
100
AcDbSymbolTableRecord
100
AcDbLinetypeTableRecord
  2
CENTERX2
 70
     0
  3
Center (2x) ________  __  ________  __  _____
 72
    65
 73
     4
 40
20.32
 49
12.7
 74
     0
 49
-2.54
 74
     0
 49
2.54
 74
     0
 49
-2.54
 74
     0
  0
LTYPE
  5
43
330
5
100
AcDbSymbolTableRecord
100
AcDbLinetypeTableRecord
  2
DOT2
 70
     0
  3
Dot (.5x) ........................................
 72
    65
 73
     2
 40
0.635
 49
0.0
 74
     0
 49
-0.635
 74
     0
  0
ENDTAB
  0
TABLE
  2
LAYER
  5
2
330
0
100
AcDbSymbolTable
 70
     5
  0
LAYER
  5
10
330
2
100
AcDbSymbolTableRecord
100
AcDbLayerTableRecord
  2
0
 70
     0
 62
     7
  6
Continuous
370
    -3
390
F
  0
LAYER
  5
44
330
2
100
AcDbSymbolTableRecord
100
AcDbLayerTableRecord
  2
FORMAT
 70
     0
 62
     7
  6
Continuous
370
    -3
390
F
  0
LAYER
  5
45
330
2
100
AcDbSymbolTableRecord
100
AcDbLayerTableRecord
  2
VERMASSUNG
 70
     0
 62
     7
  6
Continuous
370
    -3
390
F
  0
LAYER
  5
46
330
2
100
AcDbSymbolTableRecord
100
AcDbLayerTableRecord
  2
KOPF_DÜNN
 70
     0
 62
     7
  6
Continuous
370
    -3
390
F
  0
LAYER
  5
47
330
2
100
AcDbSymbolTableRecord
100
AcDbLayerTableRecord
  2
KOPF_DICK
 70
     0
 62
     7
  6
Continuous
370
    15
390
F
  0
ENDTAB
  0
TABLE
  2
STYLE
  5
3
330
0
100
AcDbSymbolTable
 70
     3
  0
STYLE
  5
11
330
3
100
AcDbSymbolTableRecord
100
AcDbTextStyleTableRecord
  2
Standard
 70
     0
 40
0.0
 41
1.0
 50
0.0
 71
     0
 42
2.0
  3
txt
  4

  0
STYLE
  5
48
330
3
100
AcDbSymbolTableRecord
100
AcDbTextStyleTableRecord
  2
SLDTEXTSTYLE0
 70
     0
 40
0.0
 41
0.7
 50
0.0
 71
     0
 42
0.2
  3
TXT
  4

  0
STYLE
  5
4C
330
3
100
AcDbSymbolTableRecord
100
AcDbTextStyleTableRecord
  2
SLDTEXTSTYLE1
 70
     0
 40
0.0
 41
0.6526315789
 50
0.0
 71
     0
 42
0.2
  3
TXT
  4

  0
ENDTAB
  0
TABLE
  2
VIEW
  5
6
330
0
100
AcDbSymbolTable
 70
     0
  0
ENDTAB
  0
TABLE
  2
UCS
  5
7
330
0
100
AcDbSymbolTable
 70
     0
  0
ENDTAB
  0
TABLE
  2
APPID
  5
9
330
0
100
AcDbSymbolTable
 70
     1
  0
APPID
  5
12
330
9
100
AcDbSymbolTableRecord
100
AcDbRegAppTableRecord
  2
ACAD
 70
     0
  0
ENDTAB
  0
TABLE
  2
DIMSTYLE
  5
A
330
0
100
AcDbSymbolTable
 70
     3
100
AcDbDimStyleTable
  0
DIMSTYLE
105
27
330
A
100
AcDbSymbolTableRecord
100
AcDbDimStyleTableRecord
  2
ISO-25
 70
     0
 41
2.5
 42
0.625
 43
3.75
 44
1.25
 73
     0
 74
     0
 77
     1
 78
     8
140
2.5
141
2.5
143
0.0393700787
147
0.625
171
     3
172
     1
178
     0
271
     2
272
     2
274
     3
278
    44
283
     0
284
     8
340
11
  0
DIMSTYLE
105
222
102
{ACAD_REACTORS
330
221
330
22C
330
236
330
240
330
2C1
102
}
330
A
100
AcDbSymbolTableRecord
100
AcDbDimStyleTableRecord
  2
SLDDIMSTYLE0
 70
     0
 41
3.0
 44
0.0
 45
0.000000001
 73
     0
 74
     0
 77
     1
 78
    12
 79
     3
140
2.0
147
0.5
173
     1
178
     0
271
     2
272
     3
276
     2
284
    12
340
48
  0
DIMSTYLE
105
24D
102
{ACAD_REACTORS
330
24C
102
}
330
A
100
AcDbSymbolTableRecord
100
AcDbDimStyleTableRecord
  2
SLDDIMSTYLE1
 70
     0
 41
3.0
 44
0.0
 73
     0
 74
     0
 77
     1
 78
    12
 79
     3
140
2.0
147
0.5
173
     1
178
     0
179
     1
272
     3
276
     2
284
    12
340
48
  0
ENDTAB
  0
TABLE
  2
BLOCK_RECORD
  5
1
330
0
100
AcDbSymbolTable
 70
     8
  0
BLOCK_RECORD
  5
1F
330
1
100
AcDbSymbolTableRecord
100
AcDbBlockTableRecord
  2
*Model_Space
340
22
  0
BLOCK_RECORD
  5
1B
330
1
100
AcDbSymbolTableRecord
100
AcDbBlockTableRecord
  2
*Paper_Space
340
1E
  0
BLOCK_RECORD
  5
23
330
1
100
AcDbSymbolTableRecord
100
AcDbBlockTableRecord
  2
*Paper_Space0
340
26
  0
BLOCK_RECORD
  5
223
330
1
100
AcDbSymbolTableRecord
100
AcDbBlockTableRecord
  2
_D
340
0
  0
BLOCK_RECORD
  5
22D
330
1
100
AcDbSymbolTableRecord
100
AcDbBlockTableRecord
  2
_D_1
340
0
  0
BLOCK_RECORD
  5
237
330
1
100
AcDbSymbolTableRecord
100
AcDbBlockTableRecord
  2
_D_2
340
0
  0
BLOCK_RECORD
  5
241
330
1
100
AcDbSymbolTableRecord
100
AcDbBlockTableRecord
  2
_D_3
340
0
  0
BLOCK_RECORD
  5
24E
330
1
100
AcDbSymbolTableRecord
100
AcDbBlockTableRecord
  2
_D_4
340
0
  0
BLOCK_RECORD
  5
2C2
330
1
100
AcDbSymbolTableRecord
100
AcDbBlockTableRecord
  2
_D_5
340
0
  0
BLOCK_RECORD
  5
2CC
330
1
100
AcDbSymbolTableRecord
100
AcDbBlockTableRecord
  2
SW_CENTERMARKSYMBOL_0
340
0
102
{BLKREFS
331
2D7
102
}
  0
ENDTAB
  0
ENDSEC
  0
SECTION
  2
BLOCKS
  0
BLOCK
  5
20
330
1F
100
AcDbEntity
  8
0
100
AcDbBlockBegin
  2
*Model_Space
 70
     0
 10
0.0
 20
0.0
 30
0.0
  3
*Model_Space
  1

  0
ENDBLK
  5
21
330
1F
100
AcDbEntity
  8
0
100
AcDbBlockEnd
  0
BLOCK
  5
1C
330
1B
100
AcDbEntity
 67
     1
  8
0
100
AcDbBlockBegin
  2
*Paper_Space
 70
     0
 10
0.0
 20
0.0
 30
0.0
  3
*Paper_Space
  1

  0
ENDBLK
  5
1D
330
1B
100
AcDbEntity
 67
     1
  8
0
100
AcDbBlockEnd
  0
BLOCK
  5
24
330
23
100
AcDbEntity
  8
0
100
AcDbBlockBegin
  2
*Paper_Space0
 70
     0
 10
0.0
 20
0.0
 30
0.0
  3
*Paper_Space0
  1

  0
ENDBLK
  5
25
330
23
100
AcDbEntity
  8
0
100
AcDbBlockEnd
  0
BLOCK
  5
224
330
223
100
AcDbEntity
  8
0
100
AcDbBlockBegin
  2
_D
 70
     0
 10
0.0
 20
0.0
 30
0.0
  3
_D
  1

  0
SOLID
  5
226
330
223
100
AcDbEntity
  8
VERMASSUNG
100
AcDbTrace
 10
230.0691245823
 20
143.1203552741
 30
0.0
 11
227.0691245823
 21
143.5703552741
 31
0.0
 12
227.0691245823
 22
142.6703552741
 32
0.0
 13
227.0691245823
 23
142.6703552741
 33
0.0
  0
SOLID
  5
227
330
223
100
AcDbEntity
  8
VERMASSUNG
100
AcDbTrace
 10
155.1691245823
 20
143.1203552741
 30
0.0
 11
158.1691245823
 21
142.6703552741
 31
0.0
 12
158.1691245823
 22
143.5703552741
 32
0.0
 13
158.1691245823
 23
143.5703552741
 33
0.0
  0
LINE
  5
228
330
223
100
AcDbEntity
  8
VERMASSUNG
100
AcDbLine
 10
230.0691245823
 20
86.1203552741
 30
0.0
 11
230.0691245823
 21
144.1203552741
 31
0.0
  0
LINE
  5
229
330
223
100
AcDbEntity
  8
VERMASSUNG
100
AcDbLine
 10
155.1691245823
 20
125.0503552741
 30
0.0
 11
155.1691245823
 21
144.1203552741
 31
0.0
  0
LINE
  5
22A
330
223
100
AcDbEntity
  8
VERMASSUNG
100
AcDbLine
 10
230.0691245823
 20
143.1203552741
 30
0.0
 11
155.1691245823
 21
143.1203552741
 31
0.0
  0
MTEXT
  5
22B
330
223
100
AcDbEntity
  8
VERMASSUNG
100
AcDbMText
 10
190.1198300945
 20
145.6984906373
 30
0.0
 40
2.0
 41
0.0
 71
     1
 72
     1
  1
74.9
  7
SLDTEXTSTYLE0
 73
     1
 44
1.0
  0
ENDBLK
  5
225
330
223
100
AcDbEntity
  8
0
100
AcDbBlockEnd
  0
BLOCK
  5
22E
330
22D
100
AcDbEntity
  8
0
100
AcDbBlockBegin
  2
_D_1
 70
     0
 10
0.0
 20
0.0
 30
0.0
  3
_D_1
  1

  0
SOLID
  5
230
330
22D
100
AcDbEntity
  8
VERMASSUNG
100
AcDbTrace
 10
175.0691245823
 20
137.1203552741
 30
0.0
 11
178.0691245823
 21
136.6703552741
 31
0.0
 12
178.0691245823
 22
137.5703552741
 32
0.0
 13
178.0691245823
 23
137.5703552741
 33
0.0
  0
SOLID
  5
231
330
22D
100
AcDbEntity
  8
VERMASSUNG
100
AcDbTrace
 10
230.0691245823
 20
137.1203552741
 30
0.0
 11
227.0691245823
 21
137.5703552741
 31
0.0
 12
227.0691245823
 22
136.6703552741
 32
0.0
 13
227.0691245823
 23
136.6703552741
 33
0.0
  0
LINE
  5
232
330
22D
100
AcDbEntity
  8
VERMASSUNG
100
AcDbLine
 10
175.0691245823
 20
132.8203552741
 30
0.0
 11
175.0691245823
 21
138.1203552741
 31
0.0
  0
LINE
  5
233
330
22D
100
AcDbEntity
  8
VERMASSUNG
100
AcDbLine
 10
230.0691245823
 20
86.1203552741
 30
0.0
 11
230.0691245823
 21
138.1203552741
 31
0.0
  0
LINE
  5
234
330
22D
100
AcDbEntity
  8
VERMASSUNG
100
AcDbLine
 10
175.0691245823
 20
137.1203552741
 30
0.0
 11
230.0691245823
 21
137.1203552741
 31
0.0
  0
MTEXT
  5
235
330
22D
100
AcDbEntity
  8
VERMASSUNG
100
AcDbMText
 10
201.1703839785
 20
139.6984906373
 30
0.0
 40
2.0
 41
0.0
 71
     1
 72
     1
  1
55
  7
SLDTEXTSTYLE0
 73
     1
 44
1.0
  0
ENDBLK
  5
22F
330
22D
100
AcDbEntity
  8
0
100
AcDbBlockEnd
  0
BLOCK
  5
238
330
237
100
AcDbEntity
  8
0
100
AcDbBlockBegin
  2
_D_2
 70
     0
 10
0.0
 20
0.0
 30
0.0
  3
_D_2
  1

  0
SOLID
  5
23A
330
237
100
AcDbEntity
  8
VERMASSUNG
100
AcDbTrace
 10
237.6767332147
 20
113.1203552741
 30
0.0
 11
237.2267332147
 21
110.1203552741
 31
0.0
 12
238.1267332147
 22
110.1203552741
 32
0.0
 13
238.1267332147
 23
110.1203552741
 33
0.0
  0
SOLID
  5
23B
330
237
100
AcDbEntity
  8
VERMASSUNG
100
AcDbTrace
 10
237.6767332147
 20
86.1203552741
 30
0.0
 11
238.1267332147
 21
89.1203552741
 31
0.0
 12
237.2267332147
 22
89.1203552741
 32
0.0
 13
237.2267332147
 23
89.1203552741
 33
0.0
  0
LINE
  5
23C
330
237
100
AcDbEntity
  8
VERMASSUNG
100
AcDbLine
 10
222.9326007653
 20
113.1203552741
 30
0.0
 11
238.6767332147
 21
113.1203552741
 31
0.0
  0
LINE
  5
23D
330
237
100
AcDbEntity
  8
VERMASSUNG
100
AcDbLine
 10
230.0691245823
 20
86.1203552741
 30
0.0
 11
238.6767332147
 21
86.1203552741
 31
0.0
  0
LINE
  5
23E
330
237
100
AcDbEntity
  8
VERMASSUNG
100
AcDbLine
 10
237.6767332147
 20
113.1203552741
 30
0.0
 11
237.6767332147
 21
86.1203552741
 31
0.0
  0
MTEXT
  5
23F
330
237
100
AcDbEntity
  8
VERMASSUNG
100
AcDbMText
 10
235.0985978515
 20
98.2216146703
 30
0.0
 40
2.0
 41
0.0
 71
     1
 72
     1
  1
27
  7
SLDTEXTSTYLE0
 11
-7.044195017643634E-15
 21
1.0
 31
0.0
 73
     1
 44
1.0
  0
ENDBLK
  5
239
330
237
100
AcDbEntity
  8
0
100
AcDbBlockEnd
  0
BLOCK
  5
242
330
241
100
AcDbEntity
  8
0
100
AcDbBlockBegin
  2
_D_3
 70
     0
 10
0.0
 20
0.0
 30
0.0
  3
_D_3
  1

  0
SOLID
  5
244
330
241
100
AcDbEntity
  8
VERMASSUNG
100
AcDbTrace
 10
152.1156498774
 20
133.1203552741
 30
0.0
 11
151.6656498774
 21
130.1203552741
 31
0.0
 12
152.5656498774
 22
130.1203552741
 32
0.0
 13
152.5656498774
 23
130.1203552741
 33
0.0
  0
SOLID
  5
245
330
241
100
AcDbEntity
  8
VERMASSUNG
100
AcDbTrace
 10
152.1156498774
 20
93.1203552741
 30
0.0
 11
152.5656498774
 21
96.1203552741
 31
0.0
 12
151.6656498774
 22
96.1203552741
 32
0.0
 13
151.6656498774
 23
96.1203552741
 33
0.0
  0
LINE
  5
246
330
241
100
AcDbEntity
  8
VERMASSUNG
100
AcDbLine
 10
175.3691245823
 20
133.1203552741
 30
0.0
 11
151.1156498774
 21
133.1203552741
 31
0.0
  0
LINE
  5
247
330
241
100
AcDbEntity
  8
VERMASSUNG
100
AcDbLine
 10
175.3691245823
 20
93.1203552741
 30
0.0
 11
151.1156498774
 21
93.1203552741
 31
0.0
  0
LINE
  5
248
330
241
100
AcDbEntity
  8
VERMASSUNG
100
AcDbLine
 10
152.1156498774
 20
133.1203552741
 30
0.0
 11
152.1156498774
 21
93.1203552741
 31
0.0
  0
MTEXT
  5
249
330
241
100
AcDbEntity
  8
VERMASSUNG
100
AcDbMText
 10
149.3375143884
 20
106.8166592057
 30
0.0
 40
2.0
 41
0.0
 71
     1
 72
     1
  1
HSK
  7
SLDTEXTSTYLE0
 11
-7.044195017643634E-15
 21
1.0
 31
0.0
 73
     1
 44
1.0
  0
MTEXT
  5
24A
330
241
100
AcDbEntity
  8
VERMASSUNG
100
AcDbMText
 10
149.5375143979
 20
112.8166592578
 30
0.0
 40
2.0
 41
0.0
 71
     1
 72
     1
  1
%%c
  7
SLDTEXTSTYLE0
 11
-7.044195017643634E-15
 21
1.0
 31
0.0
 73
     1
 44
1.0
  0
MTEXT
  5
24B
330
241
100
AcDbEntity
  8
VERMASSUNG
100
AcDbMText
 10
149.5375145143
 20
116.4248979572
 30
0.0
 40
2.0
 41
0.0
 71
     1
 72
     1
  1
40
  7
SLDTEXTSTYLE0
 11
-7.044195017643634E-15
 21
1.0
 31
0.0
 73
     1
 44
1.0
  0
ENDBLK
  5
243
330
241
100
AcDbEntity
  8
0
100
AcDbBlockEnd
  0
BLOCK
  5
24F
330
24E
100
AcDbEntity
  8
0
100
AcDbBlockBegin
  2
_D_4
 70
     0
 10
0.0
 20
0.0
 30
0.0
  3
_D_4
  1

  0
ARC
  5
251
330
24E
100
AcDbEntity
  8
VERMASSUNG
100
AcDbCircle
 10
230.0691245823
 20
84.223645106
 30
0.0
 40
38.08429971203843
100
AcDbArc
 50
90.0
 51
107.5142214509
  0
SOLID
  5
252
330
24E
100
AcDbEntity
  8
VERMASSUNG
100
AcDbTrace
 10
230.0691245823
 20
122.3079448181
 30
0.0
 11
227.0537588641
 21
122.6397121842
 31
0.0
 12
227.0891243873
 22
121.7404072972
 32
0.0
 13
227.0891243873
 23
121.7404072972
 33
0.0
  0
SOLID
  5
253
330
24E
100
AcDbEntity
  8
VERMASSUNG
100
AcDbTrace
 10
218.6079397054
 20
120.5424436238
 30
0.0
 11
221.6205900623
 21
120.8980245954
 31
0.0
 12
221.3836770475
 22
121.7662827503
 32
0.0
 13
221.3836770475
 23
121.7662827503
 33
0.0
  0
LINE
  5
254
330
24E
100
AcDbEntity
  8
VERMASSUNG
100
AcDbLine
 10
230.0691245823
 20
113.1203552741
 30
0.0
 11
230.0691245823
 21
123.3079448181
 31
0.0
  0
MTEXT
  5
255
330
24E
100
AcDbEntity
  8
VERMASSUNG
100
AcDbMText
 10
221.1121359748
 20
123.9859381
 30
0.0
 40
2.0
 41
0.0
 71
     1
 72
     1
  1
17.5°
  7
SLDTEXTSTYLE0
 11
0.9883426234966047
 21
0.1522460461879016
 31
0.0
 73
     1
 44
1.0
  0
ENDBLK
  5
250
330
24E
100
AcDbEntity
  8
0
100
AcDbBlockEnd
  0
BLOCK
  5
2C3
330
2C2
100
AcDbEntity
  8
0
100
AcDbBlockBegin
  2
_D_5
 70
     0
 10
0.0
 20
0.0
 30
0.0
  3
_D_5
  1

  0
SOLID
  5
2C5
330
2C2
100
AcDbEntity
  8
VERMASSUNG
100
AcDbTrace
 10
49.5084874864
 20
86.1185054309
 30
0.0
 11
49.9584874864
 21
89.1185054309
 31
0.0
 12
49.0584874864
 22
89.1185054309
 32
0.0
 13
49.0584874864
 23
89.1185054309
 33
0.0
  0
SOLID
  5
2C6
330
2C2
100
AcDbEntity
  8
VERMASSUNG
100
AcDbTrace
 10
49.5084874864
 20
136.1185054309
 30
0.0
 11
49.0584874864
 21
133.1185054309
 31
0.0
 12
49.9584874864
 22
133.1185054309
 32
0.0
 13
49.9584874864
 23
133.1185054309
 33
0.0
  0
LINE
  5
2C7
330
2C2
100
AcDbEntity
  8
VERMASSUNG
100
AcDbLine
 10
79.5084874864
 20
86.1185054309
 30
0.0
 11
48.5084874864
 21
86.1185054309
 31
0.0
  0
LINE
  5
2C8
330
2C2
100
AcDbEntity
  8
VERMASSUNG
100
AcDbLine
 10
79.5084874864
 20
136.1185054309
 30
0.0
 11
48.5084874864
 21
136.1185054309
 31
0.0
  0
LINE
  5
2C9
330
2C2
100
AcDbEntity
  8
VERMASSUNG
100
AcDbLine
 10
49.5084874864
 20
86.1185054309
 30
0.0
 11
49.5084874864
 21
136.1185054309
 31
0.0
  0
MTEXT
  5
2CA
330
2C2
100
AcDbEntity
  8
VERMASSUNG
100
AcDbMText
 10
46.9303520069
 20
107.9147988367
 30
0.0
 40
2.0
 41
0.0
 71
     1
 72
     1
  1
%%c
  7
SLDTEXTSTYLE0
 11
6.123233995736766E-17
 21
1.0
 31
0.0
 73
     1
 44
1.0
  0
MTEXT
  5
2CB
330
2C2
100
AcDbEntity
  8
VERMASSUNG
100
AcDbMText
 10
46.9303521233
 20
111.5247308174
 30
0.0
 40
2.0
 41
0.0
 71
     1
 72
     1
  1
50
  7
SLDTEXTSTYLE0
 11
6.123233995736766E-17
 21
1.0
 31
0.0
 73
     1
 44
1.0
  0
ENDBLK
  5
2C4
330
2C2
100
AcDbEntity
  8
0
100
AcDbBlockEnd
  0
BLOCK
  5
2CD
330
2CC
100
AcDbEntity
  8
0
100
AcDbBlockBegin
  2
SW_CENTERMARKSYMBOL_0
 70
     0
 10
0.0
 20
0.0
 30
0.0
  3
SW_CENTERMARKSYMBOL_0
  1

  0
LINE
  5
2CF
330
2CC
100
AcDbEntity
  8
VERMASSUNG
 62
     0
100
AcDbLine
 10
0.0
 20
0.0
 30
0.0
 11
0.0
 21
2.5
 31
0.0
  0
LINE
  5
2D0
330
2CC
100
AcDbEntity
  8
VERMASSUNG
 62
     0
100
AcDbLine
 10
0.0
 20
0.0
 30
0.0
 11
-2.5
 21
0.0
 31
0.0
  0
LINE
  5
2D1
330
2CC
100
AcDbEntity
  8
VERMASSUNG
 62
     0
100
AcDbLine
 10
0.0
 20
0.0
 30
0.0
 11
0.0
 21
-2.5
 31
0.0
  0
LINE
  5
2D2
330
2CC
100
AcDbEntity
  8
VERMASSUNG
 62
     0
100
AcDbLine
 10
0.0
 20
0.0
 30
0.0
 11
2.5
 21
0.0
 31
0.0
  0
LINE
  5
2D3
330
2CC
100
AcDbEntity
  8
VERMASSUNG
 62
     0
100
AcDbLine
 10
0.0
 20
5.0
 30
0.0
 11
0.0
 21
22.5
 31
0.0
  0
LINE
  5
2D4
330
2CC
100
AcDbEntity
  8
VERMASSUNG
 62
     0
100
AcDbLine
 10
-5.0
 20
0.0
 30
0.0
 11
-22.5
 21
0.0
 31
0.0
  0
LINE
  5
2D5
330
2CC
100
AcDbEntity
  8
VERMASSUNG
 62
     0
100
AcDbLine
 10
0.0
 20
-5.0
 30
0.0
 11
0.0
 21
-28.747885198
 31
0.0
  0
LINE
  5
2D6
330
2CC
100
AcDbEntity
  8
VERMASSUNG
 62
     0
100
AcDbLine
 10
5.0
 20
0.0
 30
0.0
 11
22.5
 21
0.0
 31
0.0
  0
ENDBLK
  5
2CE
330
2CC
100
AcDbEntity
  8
0
100
AcDbBlockEnd
  0
ENDSEC
  0
SECTION
  2
ENTITIES
  0
MTEXT
  5
49
330
1F
100
AcDbEntity
  8
KOPF_DÜNN
100
AcDbMText
 10
13.8892156294
 20
23.8442973028
 30
0.0
 40
3.0
 41
0.0
 71
     1
 72
     1
  1
HA4.KDB.LHA.055
  7
SLDTEXTSTYLE0
 73
     1
 44
1.0
  0
MTEXT
  5
4A
330
1F
100
AcDbEntity
  8
VERMASSUNG
100
AcDbMText
 10
13.9329988022
 20
28.8834360957
 30
0.0
 40
3.0
 41
0.0
 71
     1
 72
     1
  1
Klemmhalter links_Turning tool left 107.5° /55° /107.5°
  7
SLDTEXTSTYLE0
 73
     1
 44
1.0
  0
MTEXT
  5
4B
330
1F
100
AcDbEntity
  8
VERMASSUNG
100
AcDbMText
 10
98.8601118557
 20
13.8365368179
 30
0.0
 40
2.0
 41
0.0
 71
     1
 72
     1
  1
Datum: 20.11.2008
  7
SLDTEXTSTYLE0
 73
     1
 44
1.0
  0
MTEXT
  5
4D
330
1F
100
AcDbEntity
  8
VERMASSUNG
100
AcDbMText
 10
13.933048693
 20
18.0482802738
 30
0.0
 40
2.0
 41
0.0
 71
     1
 72
     1
  1
DIN 69893 HSK 40 A ICTM / DC.. 11 T3..
  7
SLDTEXTSTYLE1
 73
     1
 44
1.0
  0
MTEXT
  5
4E
330
1F
100
AcDbEntity
  8
VERMASSUNG
100
AcDbMText
 10
13.9808475933
 20
13.9090973692
 30
0.0
 40
2.0
 41
0.0
 71
     1
 72
     1
  1
Gewicht: 328g
  7
SLDTEXTSTYLE0
 73
     1
 44
1.0
  0
LINE
  5
4F
330
1F
100
AcDbEntity
  8
0
  6
Continuous
 62
     7
370
    15
100
AcDbLine
 10
222.7837901144
 20
94.6750665117
 30
0.0
 11
222.8540155618
 21
94.6049360592
 31
0.0
  0
LINE
  5
50
330
1F
100
AcDbEntity
  8
0
  6
Continuous
 62
     7
370
    15
100
AcDbLine
 10
221.6147493153
 20
93.1164385784
 30
0.0
 11
221.5449261992
 21
93.1861629743
 31
0.0
  0
LINE
  5
51
330
1F
100
AcDbEntity
  8
0
  6
Continuous
 62
     7
370
    15
100
AcDbLine
 10
224.7481394141
 20
95.1350858468
 30
0.0
 11
224.7102159589
 21
95.1729552854
 31
0.0
  0
LINE
  5
52
330
1F
100
AcDbEntity
  8
0
  6
Continuous
 62
     7
370
    15
100
AcDbLine
 10
221.0004526704
 20
91.458099525
 30
0.0
 11
221.0383724003
 21
91.4202319491
 31
0.0
  0
LINE
  5
53
330
1F
100
AcDbEntity
  8
0
  6
Continuous
 62
     7
370
    15
100
AcDbLine
 10
224.1191353231
 20
93.4851305593
 30
0.0
 11
224.1889100104
 21
93.4154490042
 31
0.0
  0
LINE
  5
54
330
1F
100
AcDbEntity
  8
0
  6
Continuous
 62
     7
370
    15
100
AcDbLine
 10
222.9505117564
 20
91.9260835308
 30
0.0
 11
222.8802714079
 21
91.9962270219
 31
0.0
  0
LINE
  5
55
330
1F
100
AcDbEntity
  8
0
  6
Continuous
 62
     7
370
    15
100
AcDbLine
 10
175.3691245966
 20
93.1203557212
 30
0.0
 11
183.0191250472
 21
93.1203557212
 31
0.0
  0
LINE
  5
56
330
1F
100
AcDbEntity
  8
0
  6
Continuous
 62
     7
370
    15
100
AcDbLine
 10
183.0346520572
 20
133.1203548271
 30
0.0
 11
175.3691245966
 21
133.1203548271
 31
0.0
  0
ARC
  5
57
330
1F
100
AcDbEntity
  8
0
  6
Continuous
 62
     7
370
    15
100
AcDbCircle
 10
175.3691245823
 20
93.4203552741
 30
0.0
 40
0.2999999999999972
100
AcDbArc
 50
180.0
 51
270.0
  0
ARC
  5
58
330
1F
100
AcDbEntity
  8
0
  6
Continuous
 62
     7
370
    15
100
AcDbCircle
 10
175.3691245823
 20
132.8203552741
 30
0.0
 40
0.2999999999999829
100
AcDbArc
 50
90.0
 51
180.0
  0
ARC
  5
59
330
1F
100
AcDbEntity
  8
0
  6
Continuous
 62
     7
370
    15
100
AcDbCircle
 10
196.0191245823
 20
95.6203552741
 30
0.0
 40
1.0
100
AcDbArc
 50
90.0
 51
143.1137328946
  0
ARC
  5
5A
330
1F
100
AcDbEntity
  8
0
  6
Continuous
 62
     7
370
    15
100
AcDbCircle
 10
196.0191245823
 20
130.6203552741
 30
0.0
 40
1.0
100
AcDbArc
 50
216.8998129703
 51
270.0
  0
LINE
  5
5B
330
1F
100
AcDbEntity
  8
0
  6
Continuous
 62
     7
370
    15
100
AcDbLine
 10
196.0191253154
 20
96.6203553635
 30
0.0
 11
209.3017968862
 21
96.6203553635
 31
0.0
  0
LINE
  5
5C
330
1F
100
AcDbEntity
  8
0
  6
Continuous
 62
     7
370
    15
100
AcDbLine
 10
209.3017968862
 20
129.6203551847
 30
0.0
 11
196.0191253154
 21
129.6203551847
 31
0.0
  0
ARC
  5
5D
330
1F
100
AcDbEntity
  8
0
  6
Continuous
 62
     7
370
    15
100
AcDbCircle
 10
174.5691178296
 20
97.6666481207
 30
0.0
 40
0.60000675266771
100
AcDbArc
 50
33.5571153394
 51
90.0
  0
ARC
  5
5E
330
1F
100
AcDbEntity
  8
0
  6
Continuous
 62
     7
370
    15
100
AcDbCircle
 10
174.5691178296
 20
128.5740624276
 30
0.0
 40
0.60000675266771
100
AcDbArc
 50
270.0
 51
326.4428846606
  0
LINE
  5
5F
330
1F
100
AcDbEntity
  8
0
  6
Continuous
 62
     7
370
    15
100
AcDbLine
 10
173.0691244873
 20
98.0166547034
 30
0.0
 11
173.9258364822
 21
98.2462098855
 31
0.0
  0
LINE
  5
60
330
1F
100
AcDbEntity
  8
0
  6
Continuous
 62
     7
370
    15
100
AcDbLine
 10
173.9258364822
 20
127.9945006627
 30
0.0
 11
173.0691244873
 21
128.2240558449
 31
0.0
  0
LINE
  5
61
330
1F
100
AcDbEntity
  8
0
  6
Continuous
 62
     7
370
    15
100
AcDbLine
 10
166.2531915634
 20
127.8825761784
 30
0.0
 11
158.769124332
 21
127.5076229158
 31
0.0
  0
LINE
  5
62
330
1F
100
AcDbEntity
  8
0
  6
Continuous
 62
     7
370
    15
100
AcDbLine
 10
173.0691244873
 20
128.2240558449
 30
0.0
 11
171.8343919191
 21
128.1621955368
 31
0.0
  0
LINE
  5
63
330
1F
100
AcDbEntity
  8
0
  6
Continuous
 62
     7
370
    15
100
AcDbLine
 10
171.8353879685
 20
98.0784656513
 30
0.0
 11
173.0691244873
 21
98.0166547034
 31
0.0
  0
LINE
  5
64
330
1F
100
AcDbEntity
  8
0
  6
Continuous
 62
     7
370
    15
100
AcDbLine
 10
161.2691247418
 20
98.6078368533
 30
0.0
 11
166.2536544307
 21
98.3581110868
 31
0.0
  0
ARC
  5
65
330
1F
100
AcDbEntity
  8
0
  6
Continuous
 62
     7
370
    15
100
AcDbCircle
 10
174.0811296718
 20
97.6666481207
 30
0.0
 40
0.6000067526677096
100
AcDbArc
 50
90.0
 51
105.0
  0
ARC
  5
66
330
1F
100
AcDbEntity
  8
0
  6
Continuous
 62
     7
370
    15
100
AcDbCircle
 10
174.0811296718
 20
128.5740624276
 30
0.0
 40
0.60000675266771
100
AcDbArc
 50
255.0
 51
270.0
  0
LINE
  5
67
330
1F
100
AcDbEntity
  8
0
  6
Continuous
 62
     7
370
    15
100
AcDbLine
 10
174.081129632
 20
98.26665521
 30
0.0
 11
174.5691178065
 21
98.26665521
 31
0.0
  0
LINE
  5
68
330
1F
100
AcDbEntity
  8
0
  6
Continuous
 62
     7
370
    15
100
AcDbLine
 10
174.5691178065
 20
127.9740553382
 30
0.0
 11
174.081129632
 21
127.9740553382
 31
0.0
  0
ARC
  5
69
330
1F
100
AcDbEntity
  8
0
  6
Continuous
 62
     7
370
    15
100
AcDbCircle
 10
157.8691245823
 20
126.9003552741
 30
0.0
 40
0.9000000000000057
100
AcDbArc
 50
270.0
 51
311.1792132368
  0
ARC
  5
6A
330
1F
100
AcDbEntity
  8
0
  6
Continuous
 62
     7
370
    15
100
AcDbCircle
 10
160.3691245823
 20
99.3993552741
 30
0.0
 40
0.8999999999999915
100
AcDbArc
 50
29.8499024808
 51
90.0
  0
LINE
  5
6B
330
1F
100
AcDbEntity
  8
0
  6
Continuous
 62
     7
370
    15
100
AcDbLine
 10
156.119124177
 20
126.0003555599
 30
0.0
 11
155.1691248595
 21
125.0503553111
 31
0.0
  0
LINE
  5
6C
330
1F
100
AcDbEntity
  8
0
  6
Continuous
 62
     7
370
    15
100
AcDbLine
 10
157.8691239982
 20
126.0003555599
 30
0.0
 11
156.119124177
 21
126.0003555599
 31
0.0
  0
LINE
  5
6D
330
1F
100
AcDbEntity
  8
0
  6
Continuous
 62
     7
370
    15
100
AcDbLine
 10
156.119124177
 20
100.2993552047
 30
0.0
 11
160.369124408
 21
100.2993552047
 31
0.0
  0
LINE
  5
6E
330
1F
100
AcDbEntity
  8
0
  6
Continuous
 62
     7
370
    15
100
AcDbLine
 10
155.1691248595
 20
101.2493554536
 30
0.0
 11
156.119124177
 21
100.2993552047
 31
0.0
  0
ARC
  5
6F
330
1F
100
AcDbEntity
  8
0
  6
Continuous
 62
     7
370
    15
100
AcDbCircle
 10
209.3017975943
 20
130.6203552741
 30
0.0
 40
1.0
100
AcDbArc
 50
270.0
 51
345.0
  0
ARC
  5
70
330
1F
100
AcDbEntity
  8
0
  6
Continuous
 62
     7
370
    15
100
AcDbCircle
 10
209.3017975943
 20
95.6203552741
 30
0.0
 40
1.000000000000014
100
AcDbArc
 50
15.0
 51
90.0
  0
LINE
  5
71
330
1F
100
AcDbEntity
  8
0
  6
Continuous
 62
     7
370
    15
100
AcDbLine
 10
215.1683542459
 20
131.1203544993
 30
0.0
 11
210.4710500269
 21
131.1203544993
 31
0.0
  0
LINE
  5
72
330
1F
100
AcDbEntity
  8
0
  6
Continuous
 62
     7
370
    15
100
AcDbLine
 10
210.4710500269
 20
131.1203544993
 30
0.0
 11
210.2677236824
 21
130.3615370799
 31
0.0
  0
LINE
  5
73
330
1F
100
AcDbEntity
  8
0
  6
Continuous
 62
     7
370
    15
100
AcDbLine
 10
210.2677236824
 20
95.8791734684
 30
0.0
 11
211.1638087361
 21
92.534935664
 31
0.0
  0
LINE
  5
74
330
1F
100
AcDbEntity
  8
0
  6
Continuous
 62
     7
370
    15
100
AcDbLine
 10
211.1743736594
 20
92.5039859522
 30
0.0
 11
218.9890417783
 21
90.0614639777
 31
0.0
  0
LINE
  5
75
330
1F
100
AcDbEntity
  8
0
  6
Continuous
 62
     7
370
    15
100
AcDbLine
 10
215.964888367
 20
99.7109772671
 30
0.0
 11
219.1633928149
 21
89.575386237
 31
0.0
  0
LINE
  5
76
330
1F
100
AcDbEntity
  8
0
  6
Continuous
 62
     7
370
    15
100
AcDbLine
 10
217.7048522561
 20
98.4518645364
 30
0.0
 11
216.3153227
 21
99.8375477303
 31
0.0
  0
LINE
  5
77
330
1F
100
AcDbEntity
  8
0
  6
Continuous
 62
     7
370
    15
100
AcDbLine
 10
219.6826833813
 20
89.8846114088
 30
0.0
 11
219.513827148
 21
89.7019567001
 31
0.0
  0
SPLINE
  5
78
330
1F
100
AcDbEntity
  8
0
  6
Continuous
 62
     7
370
    15
100
AcDbSpline
210
0.0
220
0.0
230
1.0
 70
     8
 71
     3
 72
    10
 73
     6
 74
     0
 42
0.00000001
 43
0.00000001
 12
1.0
 22
0.0
 32
0.0
 13
1.0
 23
0.0
 33
0.0
 40
0.0
 40
0.0
 40
0.0
 40
0.0
 40
0.3518056060147448
 40
0.7034232925185816
 40
1.0
 40
1.0
 40
1.0
 40
1.0
 10
226.8516618340234
 20
96.77804317657683
 30
0.0
 10
226.8340164012849
 20
96.81911260911714
 30
0.0
 10
226.7987349612437
 20
96.90122953666314
 30
0.0
 10
226.7035439284449
 20
96.99091064225169
 30
0.0
 10
226.6275428219642
 20
97.02200363312633
 30
0.0
 10
226.5927690594415
 20
97.03623000864718
 30
0.0
  0
LINE
  5
79
330
1F
100
AcDbEntity
  8
0
  6
Continuous
 62
     7
370
    15
100
AcDbLine
 10
230.053247097
 20
86.6327011991
 30
0.0
 11
226.851661834
 21
96.7780431766
 31
0.0
  0
SPLINE
  5
7A
330
1F
100
AcDbEntity
  8
0
  6
Continuous
 62
     7
370
    15
100
AcDbSpline
210
0.0
220
0.0
230
1.0
 70
     8
 71
     3
 72
    14
 73
    10
 74
     0
 42
0.00000001
 43
0.00000001
 12
1.0
 22
0.0
 32
0.0
 13
1.0
 23
0.0
 33
0.0
 40
0.0
 40
0.0
 40
0.0
 40
0.0
 40
0.1588530726168395
 40
0.3173324293471759
 40
0.4720145773450825
 40
0.6236452805507974
 40
0.7746621382095092
 40
0.9277407726526468
 40
0.9999999999999999
 40
0.9999999999999999
 40
0.9999999999999999
 40
0.9999999999999999
 10
229.5578319161157
 20
86.13592814986441
 30
0.0
 10
229.6028673943384
 20
86.12653347185056
 30
0.0
 10
229.6928324008428
 20
86.10776621763284
 30
0.0
 10
229.8289864387277
 20
86.138595014473
 30
0.0
 10
229.9447598795394
 20
86.20937934133057
 30
0.0
 10
230.0288106481622
 20
86.31406320518632
 30
0.0
 10
230.0729520467319
 20
86.43953221762487
 30
0.0
 10
230.0751962852762
 20
86.55008985497948
 30
0.0
 10
230.0585765556944
 20
86.61264242798222
 30
0.0
 10
230.0532470970372
 20
86.63270119909976
 30
0.0
  0
LINE
  5
7B
330
1F
100
AcDbEntity
  8
0
  6
Continuous
 62
     7
370
    15
100
AcDbLine
 10
219.4037075668
 20
89.3096594173
 30
0.0
 11
229.5578319161
 21
86.1359281499
 31
0.0
  0
SPLINE
  5
7C
330
1F
100
AcDbEntity
  8
0
  6
Continuous
 62
     7
370
    15
100
AcDbSpline
210
0.0
220
0.0
230
1.0
 70
     8
 71
     3
 72
    10
 73
     6
 74
     0
 42
0.00000001
 43
0.00000001
 12
1.0
 22
0.0
 32
0.0
 13
1.0
 23
0.0
 33
0.0
 40
0.0
 40
0.0
 40
0.0
 40
0.0
 40
0.3518030958629972
 40
0.7034253995027543
 40
1.0
 40
1.0
 40
1.0
 40
1.0
 10
219.1448110668878
 20
89.567846249387
 30
0.0
 10
219.1624563270534
 20
89.5267766277244
 30
0.0
 10
219.1977377794548
 20
89.44465849014927
 30
0.0
 10
219.2929323996062
 20
89.35497970585807
 30
0.0
 10
219.3689339725285
 20
89.32388597516969
 30
0.0
 10
219.40370756676
 20
89.30965941731665
 30
0.0
  0
LINE
  5
7D
330
1F
100
AcDbEntity
  8
0
  6
Continuous
 62
     7
370
    15
100
AcDbLine
 10
215.9432295292
 20
99.7131891582
 30
0.0
 11
219.1448110669
 21
89.5678462494
 31
0.0
  0
LINE
  5
7E
330
1F
100
AcDbEntity
  8
0
  6
Continuous
 62
     7
370
    15
100
AcDbLine
 10
226.5927690594
 20
97.0362300086
 30
0.0
 11
216.4386447101
 21
100.2099622074
 31
0.0
  0
ARC
  5
7F
330
1F
100
AcDbEntity
  8
0
  6
Continuous
 62
     7
370
    15
100
AcDbCircle
 10
229.6686640292
 20
86.5208144971
 30
0.0
 40
0.3804369503539706
100
AcDbArc
 50
252.704393053
 51
17.45232642
  0
LINE
  5
80
330
1F
100
AcDbEntity
  8
0
  6
Continuous
 62
     7
370
    15
100
AcDbLine
 10
230.0315882592
 20
86.6349121589
 30
0.0
 11
226.8330838113
 21
96.770503189
 31
0.0
  0
ARC
  5
81
330
1F
100
AcDbEntity
  8
0
  6
Continuous
 62
     7
370
    15
100
AcDbCircle
 10
226.4725453163
 20
96.6567773486
 30
0.0
 40
0.3780496966712069
100
AcDbArc
 50
17.5070087769
 51
72.6508319243
  0
LINE
  5
82
330
1F
100
AcDbEntity
  8
0
  6
Continuous
 62
     7
370
    15
100
AcDbLine
 10
226.5852775007
 20
97.0176277715
 30
0.0
 11
216.4409134119
 21
100.1883098889
 31
0.0
  0
ARC
  5
83
330
1F
100
AcDbEntity
  8
0
  6
Continuous
 62
     7
370
    15
100
AcDbCircle
 10
216.3278086408
 20
99.8250779915
 30
0.0
 40
0.3804340948274439
100
AcDbArc
 50
72.7042227179
 51
197.4529451386
  0
ARC
  5
84
330
1F
100
AcDbEntity
  8
0
  6
Continuous
 62
     7
370
    15
100
AcDbCircle
 10
219.5239408227
 20
89.689119917
 30
0.0
 40
0.3780611272363791
100
AcDbArc
 50
197.5077081478
 51
252.6492712186
  0
LINE
  5
85
330
1F
100
AcDbEntity
  8
0
  6
Continuous
 62
     7
370
    15
100
AcDbLine
 10
219.4111954003
 20
89.3282616544
 30
0.0
 11
229.555559489
 21
86.1575795371
 31
0.0
  0
SPLINE
  5
86
330
1F
100
AcDbEntity
  8
0
  6
Continuous
 62
     7
370
    15
100
AcDbSpline
210
0.0
220
0.0
230
1.0
 70
     8
 71
     3
 72
    14
 73
    10
 74
     0
 42
0.00000001
 43
0.00000001
 12
1.0
 22
0.0
 32
0.0
 13
1.0
 23
0.0
 33
0.0
 40
0.0
 40
0.0
 40
0.0
 40
0.0
 40
0.1588525246033225
 40
0.3173313390690645
 40
0.4720166349908963
 40
0.6236441133718578
 40
0.7746619003054811
 40
0.9277410877492944
 40
1.0
 40
1.0
 40
1.0
 40
1.0
 10
216.4386447100858
 20
100.209962207422
 30
0.0
 10
216.3936091666872
 20
100.2193569669541
 30
0.0
 10
216.3036440287201
 20
100.2381243842805
 30
0.0
 10
216.1674898945137
 20
100.2072941364551
 30
0.0
 10
216.0517128807139
 20
100.1365136503278
 30
0.0
 10
215.9676673255231
 20
100.0318248269612
 30
0.0
 10
215.9235201249696
 20
99.90635908960323
 30
0.0
 10
215.9212744010397
 20
99.79579928571157
 30
0.0
 10
215.9378986501133
 20
99.73324755163901
 30
0.0
 10
215.9432295291642
 20
99.71318915818665
 30
0.0
  0
LINE
  5
87
330
1F
100
AcDbEntity
  8
0
  6
Continuous
 62
     7
370
    15
100
AcDbLine
 10
226.2775014668
 20
96.4975176412
 30
0.0
 11
226.4596867888
 21
96.6668656129
 31
0.0
  0
SPLINE
  5
88
330
1F
100
AcDbEntity
  8
0
  6
Continuous
 62
     7
370
    15
100
AcDbSpline
210
0.0
220
0.0
230
1.0
 70
     8
 71
     3
 72
    11
 73
     7
 74
     0
 42
0.00000001
 43
0.00000001
 12
1.0
 22
0.0
 32
0.0
 13
1.0
 23
0.0
 33
0.0
 40
0.0
 40
0.0
 40
0.0
 40
0.0
 40
0.4125719124443376
 40
0.8731546502832976
 40
0.9927003772482708
 40
1.0
 40
1.0
 40
1.0
 40
1.0
 10
217.7048522560815
 20
98.45186453644965
 30
0.0
 10
217.7732082422467
 20
98.383695944413
 30
0.0
 10
217.917874772843
 20
98.23942600905208
 30
0.0
 10
218.0854114172815
 20
98.07236568460841
 30
0.0
 10
218.175922858555
 20
97.98207296472626
 30
0.0
 10
218.1951207101781
 20
97.96293468970336
 30
0.0
 10
218.1962254970292
 20
97.96183333133195
 30
0.0
  0
ARC
  5
89
330
1F
100
AcDbEntity
  8
0
  6
Continuous
 62
     7
370
    15
100
AcDbCircle
 10
219.7244293118
 20
96.4377702543
 30
0.0
 40
1.001147332555571
100
AcDbArc
 50
72.7043843995
 51
197.4524965402
  0
LINE
  5
8A
330
1F
100
AcDbEntity
  8
0
  6
Continuous
 62
     7
370
    15
100
AcDbLine
 10
218.76936886
 20
96.1375111747
 30
0.0
 11
220.3402120202
 21
91.1597447503
 31
0.0
  0
LINE
  5
8B
330
1F
100
AcDbEntity
  8
0
  6
Continuous
 62
     7
370
    15
100
AcDbLine
 10
225.004148814
 20
95.8364723284
 30
0.0
 11
220.0220722287
 21
97.393649261
 31
0.0
  0
ARC
  5
8C
330
1F
100
AcDbEntity
  8
0
  6
Continuous
 62
     7
370
    15
100
AcDbCircle
 10
224.7074667229
 20
94.8868562305
 30
0.0
 40
0.9948824033477894
100
AcDbArc
 50
17.5073391777
 51
72.6499847715
  0
LINE
  5
8D
330
1F
100
AcDbEntity
  8
0
  6
Continuous
 62
     7
370
    15
100
AcDbLine
 10
227.2271077662
 20
90.2083801139
 30
0.0
 11
225.656264606
 21
95.1861446757
 31
0.0
  0
ARC
  5
8E
330
1F
100
AcDbEntity
  8
0
  6
Continuous
 62
     7
370
    15
100
AcDbCircle
 10
226.2720445633
 20
89.9081214777
 30
0.0
 40
1.001149823961895
100
AcDbArc
 50
252.7043703994
 51
17.4524251148
  0
LINE
  5
8F
330
1F
100
AcDbEntity
  8
0
  6
Continuous
 62
     7
370
    15
100
AcDbLine
 10
220.9923278122
 20
90.5094170976
 30
0.0
 11
225.9744006722
 21
88.9522401649
 31
0.0
  0
ARC
  5
90
330
1F
100
AcDbEntity
  8
0
  6
Continuous
 62
     7
370
    15
100
AcDbCircle
 10
221.2890064838
 20
91.4590297666
 30
0.0
 40
0.9948781107355125
100
AcDbArc
 50
197.5072100944
 51
252.6501138548
  0
CIRCLE
  5
91
330
1F
100
AcDbEntity
  8
0
  6
Continuous
 62
     7
370
    15
100
AcDbCircle
 10
222.9911336252
 20
93.1710854059
 30
0.0
 40
3.044314189566011
  0
ARC
  5
92
330
1F
100
AcDbEntity
  8
0
  6
Continuous
 62
     7
370
    15
100
AcDbCircle
 10
222.9401652784
 20
93.2297301165
 30
0.0
 40
3.050863174467024
100
AcDbArc
 50
252.6442605029
 51
44.9010430523
  0
ARC
  5
93
330
1F
100
AcDbEntity
  8
0
  6
Continuous
 62
     7
370
    15
100
AcDbCircle
 10
222.9351861578
 20
93.2145400905
 30
0.0
 40
3.034879453064911
100
AcDbArc
 50
225.0421647547
 51
252.6484363257
  0
SPLINE
  5
94
330
1F
100
AcDbEntity
  8
0
  6
Continuous
 62
     7
370
    15
100
AcDbSpline
210
0.0
220
0.0
230
1.0
 70
     8
 71
     3
 72
    11
 73
     7
 74
     0
 42
0.00000001
 43
0.00000001
 12
1.0
 22
0.0
 32
0.0
 13
1.0
 23
0.0
 33
0.0
 40
0.0
 40
0.0
 40
0.0
 40
0.0
 40
0.0092168595818184
 40
0.3448495768116105
 40
0.6722296565784074
 40
1.0
 40
1.0
 40
1.0
 40
1.0
 10
220.1757628052453
 20
90.37645776157115
 30
0.0
 10
220.1743432679116
 20
90.3751509248473
 30
0.0
 10
220.1212311591221
 20
90.32625551885992
 30
0.0
 10
220.0091831912635
 20
90.21979929503149
 30
0.0
 10
219.8355254061488
 20
90.04699451905148
 30
0.0
 10
219.7336509513245
 20
89.93876060331485
 30
0.0
 10
219.6826833813409
 20
89.88461140875552
 30
0.0
  0
SPLINE
  5
95
330
1F
100
AcDbEntity
  8
0
  6
Continuous
 62
     7
370
    15
100
AcDbSpline
210
0.0
220
0.0
230
1.0
 70
     8
 71
     3
 72
    11
 73
     7
 74
     0
 42
0.00000001
 43
0.00000001
 12
1.0
 22
0.0
 32
0.0
 13
1.0
 23
0.0
 33
0.0
 40
0.0
 40
0.0
 40
0.0
 40
0.0
 40
0.3277671825775631
 40
0.6551511857589013
 40
0.9907858830188304
 40
0.9999999999999999
 40
0.9999999999999999
 40
0.9999999999999999
 40
0.9999999999999999
 10
226.2775014667729
 20
96.49751764123175
 30
0.0
 10
226.2234949863469
 20
96.44640435278536
 30
0.0
 10
226.1155451622931
 20
96.34423753037701
 30
0.0
 10
225.9432161686196
 20
96.17011096545433
 30
0.0
 10
225.8370571499529
 20
96.05775982483003
 30
0.0
 10
225.7883098868094
 20
96.00451602430914
 30
0.0
 10
225.7870073943357
 20
96.00309338752959
 30
0.0
  0
LINE
  5
96
330
1F
100
AcDbEntity
  8
0
  6
Continuous
 62
     7
370
    15
100
AcDbLine
 10
228.2126407652
 20
87.9728985984
 30
0.0
 11
229.6581912368
 21
86.5312745828
 31
0.0
  0
SPLINE
  5
97
330
1F
100
AcDbEntity
  8
0
  6
Continuous
 62
     7
370
    15
100
AcDbSpline
210
0.0
220
0.0
230
1.0
 70
     8
 71
     3
 72
    11
 73
     7
 74
     0
 42
0.00000001
 43
0.00000001
 12
1.0
 22
0.0
 32
0.0
 13
1.0
 23
0.0
 33
0.0
 40
0.0
 40
0.0
 40
0.0
 40
0.0
 40
0.0072977797365175
 40
0.1268449321986671
 40
0.5874306663806753
 40
1.0
 40
1.0
 40
1.0
 40
1.0
 10
227.7330021887044
 20
88.45121283416482
 30
0.0
 10
227.7340161818906
 20
88.45020195316417
 30
0.0
 10
227.7516407062796
 20
88.43263152261937
 30
0.0
 10
227.835475750614
 20
88.34901434982895
 30
0.0
 10
227.9950957214561
 20
88.18985460367651
 30
0.0
 10
228.1428338815319
 20
88.0425164685955
 30
0.0
 10
228.212640765212
 20
87.97289859835837
 30
0.0
  0
CIRCLE
  5
98
330
1F
100
AcDbEntity
  8
0
  6
Continuous
 62
     7
370
    15
100
AcDbCircle
 10
222.8867866605
 20
93.276635723
 30
0.0
 40
2.620525778240436
  0
CIRCLE
  5
99
330
1F
100
AcDbEntity
  8
0
  6
Continuous
 62
     7
370
    15
100
AcDbCircle
 10
222.9032358464
 20
93.2622953911
 30
0.0
 40
1.796670995907692
  0
ARC
  5
9A
330
1F
100
AcDbEntity
  8
0
  6
Continuous
 62
     7
370
    15
100
AcDbCircle
 10
222.9016765846
 20
93.2692088109
 30
0.0
 40
1.678871924919964
100
AcDbArc
 50
289.6971362072
 51
348.1479825445
  0
ARC
  5
9B
330
1F
100
AcDbEntity
  8
0
  6
Continuous
 62
     7
370
    15
100
AcDbCircle
 10
222.9114222126
 20
93.2678601886
 30
0.0
 40
1.669057213734995
100
AcDbArc
 50
348.1245799277
 51
48.3222428399
  0
ARC
  5
9C
330
1F
100
AcDbEntity
  8
0
  6
Continuous
 62
     7
370
    15
100
AcDbCircle
 10
222.9119789375
 20
93.2659614451
 30
0.0
 40
1.670106032694898
100
AcDbArc
 50
48.3798220412
 51
107.0428514326
  0
LINE
  5
9D
330
1F
100
AcDbEntity
  8
0
  6
Continuous
 62
     7
370
    15
100
AcDbLine
 10
222.3419408827
 20
94.8358425904
 30
0.0
 11
222.4224928348
 21
94.8627261478
 31
0.0
  0
ARC
  5
9E
330
1F
100
AcDbEntity
  8
0
  6
Continuous
 62
     7
370
    15
100
AcDbCircle
 10
222.9137092612
 20
93.2572642382
 30
0.0
 40
1.678936774462753
100
AcDbArc
 50
109.9106210458
 51
166.2096645288
  0
LINE
  5
9F
330
1F
100
AcDbEntity
  8
0
  6
Continuous
 62
     7
370
    15
100
AcDbLine
 10
221.2588276296
 20
93.540262993
 30
0.0
 11
221.2831686764
 21
93.6574718017
 31
0.0
  0
ARC
  5
A0
330
1F
100
AcDbEntity
  8
0
  6
Continuous
 62
     7
370
    15
100
AcDbCircle
 10
222.9038735848
 20
93.2585775186
 30
0.0
 40
1.668988586275257
100
AcDbArc
 50
170.2833303162
 51
226.1633737329
  0
LINE
  5
A1
330
1F
100
AcDbEntity
  8
0
  6
Continuous
 62
     7
370
    15
100
AcDbLine
 10
221.8370522886
 20
91.9751344282
 30
0.0
 11
221.7479247182
 21
92.054706629
 31
0.0
  0
ARC
  5
A2
330
1F
100
AcDbEntity
  8
0
  6
Continuous
 62
     7
370
    15
100
AcDbCircle
 10
222.9033644387
 20
93.2607416268
 30
0.0
 40
1.670271675701253
100
AcDbArc
 50
230.3269078463
 51
286.8273234178
  0
LINE
  5
A3
330
1F
100
AcDbEntity
  8
0
  6
Continuous
 62
     7
370
    15
100
AcDbLine
 10
223.4675373464
 20
91.6885720599
 30
0.0
 11
223.3868885367
 21
91.6619883883
 31
0.0
  0
SPLINE
  5
A4
330
1F
100
AcDbEntity
  8
0
  6
Continuous
 62
     7
370
    15
100
AcDbSpline
210
0.0
220
0.0
230
1.0
 70
     8
 71
     3
 72
    11
 73
     7
 74
     0
 42
0.00000001
 43
0.00000001
 12
1.0
 22
0.0
 32
0.0
 13
1.0
 23
0.0
 33
0.0
 40
0.0
 40
0.0
 40
0.0
 40
0.0
 40
0.2431115408284754
 40
0.5182780786249896
 40
0.7947816599529892
 40
0.9999999999999999
 40
0.9999999999999999
 40
0.9999999999999999
 40
0.9999999999999999
 10
222.3419408827046
 20
94.83584259037706
 30
0.0
 10
222.3133689196438
 20
94.81899127218507
 30
0.0
 10
222.2524576931866
 20
94.78306673818277
 30
0.0
 10
222.1862643608472
 20
94.69550854366233
 30
0.0
 10
222.1505955070118
 20
94.59823924531744
 30
0.0
 10
222.1510131837911
 20
94.53404025187373
 30
0.0
 10
222.1511911182622
 20
94.50669084076617
 30
0.0
  0
SPLINE
  5
A5
330
1F
100
AcDbEntity
  8
0
  6
Continuous
 62
     7
370
    15
100
AcDbSpline
210
0.0
220
0.0
230
1.0
 70
     8
 71
     3
 72
    12
 73
     8
 74
     0
 42
0.00000001
 43
0.00000001
 12
1.0
 22
0.0
 32
0.0
 13
1.0
 23
0.0
 33
0.0
 40
0.0
 40
0.0
 40
0.0
 40
0.0
 40
0.2058181908744016
 40
0.4120217135274112
 40
0.6140771207999451
 40
0.8132145713756134
 40
0.9999999999999999
 40
0.9999999999999999
 40
0.9999999999999999
 40
0.9999999999999999
 10
222.1511911182622
 20
94.50669084076617
 30
0.0
 10
222.1500276264349
 20
94.44172729902795
 30
0.0
 10
222.1476984644967
 20
94.31167859113641
 30
0.0
 10
222.0628570541087
 20
94.12954773416058
 30
0.0
 10
221.9291395780161
 20
93.98582899573123
 30
0.0
 10
221.7620278627959
 20
93.89166148239343
 30
0.0
 10
221.6412423822079
 20
93.87652478736337
 30
0.0
 10
221.5827825992326
 20
93.86919867579671
 30
0.0
  0
SPLINE
  5
A6
330
1F
100
AcDbEntity
  8
0
  6
Continuous
 62
     7
370
    15
100
AcDbSpline
210
0.0
220
0.0
230
1.0
 70
     8
 71
     3
 72
    11
 73
     7
 74
     0
 42
0.00000001
 43
0.00000001
 12
1.0
 22
0.0
 32
0.0
 13
1.0
 23
0.0
 33
0.0
 40
0.0
 40
0.0
 40
0.0
 40
0.0
 40
0.2908623526887382
 40
0.5839558412343241
 40
0.8746027428020576
 40
1.0
 40
1.0
 40
1.0
 40
1.0
 10
221.5827825992326
 20
93.86919867579672
 30
0.0
 10
221.5457139313596
 20
93.86420087008423
 30
0.0
 10
221.471292250688
 20
93.85416692168157
 30
0.0
 10
221.3732472476769
 20
93.7928281106371
 30
0.0
 10
221.3122652694879
 20
93.7215814697695
 30
0.0
 10
221.2899074164718
 20
93.67231953276001
 30
0.0
 10
221.2831686763982
 20
93.65747180168364
 30
0.0
  0
SPLINE
  5
A7
330
1F
100
AcDbEntity
  8
0
  6
Continuous
 62
     7
370
    15
100
AcDbSpline
210
0.0
220
0.0
230
1.0
 70
     8
 71
     3
 72
    11
 73
     7
 74
     0
 42
0.00000001
 43
0.00000001
 12
1.0
 22
0.0
 32
0.0
 13
1.0
 23
0.0
 33
0.0
 40
0.0
 40
0.0
 40
0.0
 40
0.0
 40
0.2669007340560403
 40
0.5546137288554235
 40
0.8439057136374922
 40
1.0
 40
1.0
 40
1.0
 40
1.0
 10
221.258827629588
 20
93.54026299302313
 30
0.0
 10
221.2610343991959
 20
93.50558756678438
 30
0.0
 10
221.265620016861
 20
93.43353281012011
 30
0.0
 10
221.3157950691048
 20
93.33483059457559
 30
0.0
 10
221.3822469744785
 20
93.26681606418671
 30
0.0
 10
221.4321895355667
 20
93.24050631621347
 30
0.0
 10
221.4496928780297
 20
93.23128555302355
 30
0.0
  0
SPLINE
  5
A8
330
1F
100
AcDbEntity
  8
0
  6
Continuous
 62
     7
370
    15
100
AcDbSpline
210
0.0
220
0.0
230
1.0
 70
     8
 71
     3
 72
    11
 73
     7
 74
     0
 42
0.00000001
 43
0.00000001
 12
1.0
 22
0.0
 32
0.0
 13
1.0
 23
0.0
 33
0.0
 40
0.0
 40
0.0
 40
0.0
 40
0.0
 40
0.2794098112461734
 40
0.5596251908930846
 40
0.8374990131540679
 40
0.9999999999999999
 40
0.9999999999999999
 40
0.9999999999999999
 40
0.9999999999999999
 10
222.7698575287084
 20
94.71190404479239
 30
0.0
 10
222.7473665792678
 20
94.74174337289223
 30
0.0
 10
222.7023198365714
 20
94.80150805906959
 30
0.0
 10
222.601070702116
 20
94.85569492270955
 30
0.0
 10
222.5036400090013
 20
94.87398955588154
 30
0.0
 10
222.4443654924659
 20
94.86576212129205
 30
0.0
 10
222.4224928348283
 20
94.86272614781592
 30
0.0
  0
SPLINE
  5
A9
330
1F
100
AcDbEntity
  8
0
  6
Continuous
 62
     7
370
    15
100
AcDbSpline
210
0.0
220
0.0
230
1.0
 70
     8
 71
     3
 72
    12
 73
     8
 74
     0
 42
0.00000001
 43
0.00000001
 12
1.0
 22
0.0
 32
0.0
 13
1.0
 23
0.0
 33
0.0
 40
0.0
 40
0.0
 40
0.0
 40
0.0
 40
0.2058406863073587
 40
0.4120619362689583
 40
0.6141394289831732
 40
0.813277691633796
 40
1.0
 40
1.0
 40
1.0
 40
1.0
 10
221.4496928780297
 20
93.23128555302355
 30
0.0
 10
221.5055605731513
 20
93.19864622404327
 30
0.0
 10
221.617399253053
 20
93.13330722163609
 30
0.0
 10
221.7328070014098
 20
92.970303209656
 30
0.0
 10
221.7900580594301
 20
92.78288023359494
 30
0.0
 10
221.78731584703
 20
92.59011832412487
 30
0.0
 10
221.739396373505
 20
92.47668353065336
 30
0.0
 10
221.7162075965623
 20
92.42179114703866
 30
0.0
  0
SPLINE
  5
AA
330
1F
100
AcDbEntity
  8
0
  6
Continuous
 62
     7
370
    15
100
AcDbSpline
210
0.0
220
0.0
230
1.0
 70
     8
 71
     3
 72
    11
 73
     7
 74
     0
 42
0.00000001
 43
0.00000001
 12
1.0
 22
0.0
 32
0.0
 13
1.0
 23
0.0
 33
0.0
 40
0.0
 40
0.0
 40
0.0
 40
0.0
 40
0.2929011590469653
 40
0.5864345362369928
 40
0.8775141543474639
 40
1.0
 40
1.0
 40
1.0
 40
1.0
 10
221.7162075965623
 20
92.42179114703868
 30
0.0
 10
221.7017417051953
 20
92.38659515273703
 30
0.0
 10
221.6727786982796
 20
92.31612719466257
 30
0.0
 10
221.6766218814164
 20
92.19960002130146
 30
0.0
 10
221.7075882813525
 20
92.11133163224663
 30
0.0
 10
221.7387079837079
 20
92.06764524377604
 30
0.0
 10
221.7479247181634
 20
92.05470662896369
 30
0.0
  0
SPLINE
  5
AB
330
1F
100
AcDbEntity
  8
0
  6
Continuous
 62
     7
370
    15
100
AcDbSpline
210
0.0
220
0.0
230
1.0
 70
     8
 71
     3
 72
    12
 73
     8
 74
     0
 42
0.00000001
 43
0.00000001
 12
1.0
 22
0.0
 32
0.0
 13
1.0
 23
0.0
 33
0.0
 40
0.0
 40
0.0
 40
0.0
 40
0.0
 40
0.0091748015735303
 40
0.2576789797121218
 40
0.5061879810861983
 40
0.7560374209591131
 40
1.0
 40
1.0
 40
1.0
 40
1.0
 10
224.0212458698968
 20
94.51447297219966
 30
0.0
 10
224.0202197354767
 20
94.51537780467952
 30
0.0
 10
223.9914002271429
 20
94.54079048618047
 30
0.0
 10
223.9252772294965
 20
94.58108680920695
 30
0.0
 10
223.814530769952
 20
94.60486222891006
 30
0.0
 10
223.7012065160222
 20
94.59353055092184
 30
0.0
 10
223.6366637222133
 20
94.55763416770478
 30
0.0
 10
223.6047770409803
 20
94.53989994113181
 30
0.0
  0
SPLINE
  5
AC
330
1F
100
AcDbEntity
  8
0
  6
Continuous
 62
     7
370
    15
100
AcDbSpline
210
0.0
220
0.0
230
1.0
 70
     8
 71
     3
 72
    12
 73
     8
 74
     0
 42
0.00000001
 43
0.00000001
 12
1.0
 22
0.0
 32
0.0
 13
1.0
 23
0.0
 33
0.0
 40
0.0
 40
0.0
 40
0.0
 40
0.0
 40
0.2057539109965488
 40
0.4119579430841182
 40
0.6140161337431321
 40
0.8131411490597656
 40
1.0
 40
1.0
 40
1.0
 40
1.0
 10
223.6047770409803
 20
94.53989994113181
 30
0.0
 10
223.5472596803884
 20
94.50809158702778
 30
0.0
 10
223.4320991303589
 20
94.44440529272543
 30
0.0
 10
223.2310529659918
 20
94.42606180740107
 30
0.0
 10
223.0401328413767
 20
94.46966988240544
 30
0.0
 10
222.8765828207037
 20
94.56739767278782
 30
0.0
 10
222.8046708637301
 20
94.66476668262352
 30
0.0
 10
222.7698575287084
 20
94.71190404479239
 30
0.0
  0
LWPOLYLINE
  5
AD
330
1F
100
AcDbEntity
  8
0
  6
Continuous
 62
     7
370
    15
100
AcDbPolyline
 90
        3
 70
   128
 43
0.0
 10
221.5449261992
 20
93.1861629743
 10
221.4807506232
 20
93.2415431399
 10
221.378420624
 20
93.3024590868
  0
ARC
  5
AE
330
1F
100
AcDbEntity
  8
0
  6
Continuous
 62
     7
370
    15
100
AcDbCircle
 10
221.9380360401
 20
92.333892411
 30
0.0
 40
0.3345498315322855
100
AcDbArc
 50
238.259033872
 51
305.1234077432
  0
SPLINE
  5
AF
330
1F
100
AcDbEntity
  8
0
  6
Continuous
 62
     7
370
    15
100
AcDbSpline
210
0.0
220
0.0
230
1.0
 70
     8
 71
     3
 72
    11
 73
     7
 74
     0
 42
0.00000001
 43
0.00000001
 12
1.0
 22
0.0
 32
0.0
 13
1.0
 23
0.0
 33
0.0
 40
0.0
 40
0.0
 40
0.0
 40
0.0
 40
0.2657641212429032
 40
0.5530074430726587
 40
0.8418232985847043
 40
0.9999999999999999
 40
0.9999999999999999
 40
0.9999999999999999
 40
0.9999999999999999
 10
221.8370522885541
 20
91.97513442818854
 30
0.0
 10
221.8681002538258
 20
91.95986026340539
 30
0.0
 10
221.9327054977811
 20
91.92807746754755
 30
0.0
 10
222.0434729245124
 20
91.92284613533879
 30
0.0
 10
222.1363586423907
 20
91.94723254063467
 30
0.0
 10
222.1846808432601
 20
91.9781503732369
 30
0.0
 10
222.2017805605153
 20
91.98909122829173
 30
0.0
  0
ARC
  5
B0
330
1F
100
AcDbEntity
  8
0
  6
Continuous
 62
     7
370
    15
100
AcDbCircle
 10
223.7255012046
 20
94.3381904065
 30
0.0
 40
0.3343213227612556
100
AcDbArc
 50
331.4345839484
 51
35.5553537333
  0
SPLINE
  5
B1
330
1F
100
AcDbEntity
  8
0
  6
Continuous
 62
     7
370
    15
100
AcDbSpline
210
0.0
220
0.0
230
1.0
 70
     8
 71
     3
 72
    11
 73
     7
 74
     0
 42
0.00000001
 43
0.00000001
 12
1.0
 22
0.0
 32
0.0
 13
1.0
 23
0.0
 33
0.0
 40
0.0
 40
0.0
 40
0.0
 40
0.0
 40
0.2535089051520877
 40
0.5075677468593468
 40
0.7595045083983992
 40
1.0
 40
1.0
 40
1.0
 40
1.0
 10
224.0903537302236
 20
94.10720188503001
 30
0.0
 10
224.1054252895915
 20
94.14181385768727
 30
0.0
 10
224.1356011030424
 20
94.21111288671142
 30
0.0
 10
224.1329297833619
 20
94.32616672915148
 30
0.0
 10
224.0964501096586
 20
94.43366354804301
 30
0.0
 10
224.0459226279289
 20
94.48795698569482
 30
0.0
 10
224.0212458698968
 20
94.51447297219966
 30
0.0
  0
SPLINE
  5
B2
330
1F
100
AcDbEntity
  8
0
  6
Continuous
 62
     7
370
    15
100
AcDbSpline
210
0.0
220
0.0
230
1.0
 70
     8
 71
     3
 72
    12
 73
     8
 74
     0
 42
0.00000001
 43
0.00000001
 12
1.0
 22
0.0
 32
0.0
 13
1.0
 23
0.0
 33
0.0
 40
0.0
 40
0.0
 40
0.0
 40
0.0
 40
0.2057903712569233
 40
0.4120349179701818
 40
0.6141298261518441
 40
0.8132655622362027
 40
1.0
 40
1.0
 40
1.0
 40
1.0
 10
222.2017805605153
 20
91.98909122829173
 30
0.0
 10
222.2582842344401
 20
92.02192422680365
 30
0.0
 10
222.3714162848292
 20
92.08766268563411
 30
0.0
 10
222.5708488592536
 20
92.10763540328324
 30
0.0
 10
222.7619127346908
 20
92.0638767686379
 30
0.0
 10
222.9271693701866
 20
91.964396911311
 30
0.0
 10
223.0009805662495
 20
91.86512817839517
 30
0.0
 10
223.0367000727872
 20
91.81708898727629
 30
0.0
  0
SPLINE
  5
B3
330
1F
100
AcDbEntity
  8
0
  6
Continuous
 62
     7
370
    15
100
AcDbSpline
210
0.0
220
0.0
230
1.0
 70
     8
 71
     3
 72
    11
 73
     7
 74
     0
 42
0.00000001
 43
0.00000001
 12
1.0
 22
0.0
 32
0.0
 13
1.0
 23
0.0
 33
0.0
 40
0.0
 40
0.0
 40
0.0
 40
0.0
 40
0.2802365440698326
 40
0.561288594172156
 40
0.8399843837102902
 40
1.0
 40
1.0
 40
1.0
 40
1.0
 10
223.0367000727872
 20
91.81708898727629
 30
0.0
 10
223.0597857688112
 20
91.78665555697118
 30
0.0
 10
223.1060243416918
 20
91.72570013315777
 30
0.0
 10
223.208566533461
 20
91.67021187871833
 30
0.0
 10
223.3063079003565
 20
91.65127657589127
 30
0.0
 10
223.365352578403
 20
91.65912555234787
 30
0.0
 10
223.3868885367135
 20
91.66198838834498
 30
0.0
  0
SPLINE
  5
B4
330
1F
100
AcDbEntity
  8
0
  6
Continuous
 62
     7
370
    15
100
AcDbSpline
210
0.0
220
0.0
230
1.0
 70
     8
 71
     3
 72
    12
 73
     8
 74
     0
 42
0.00000001
 43
0.00000001
 12
1.0
 22
0.0
 32
0.0
 13
1.0
 23
0.0
 33
0.0
 40
0.0
 40
0.0
 40
0.0
 40
0.0
 40
0.0091678696680024
 40
0.2573268286363361
 40
0.5054943040194977
 40
0.7549880360946336
 40
1.0
 40
1.0
 40
1.0
 40
1.0
 10
224.5447571902494
 20
92.92439427559111
 30
0.0
 10
224.5450332295596
 20
92.92573775273277
 30
0.0
 10
224.5527811931395
 20
92.96344691797285
 30
0.0
 10
224.5547628908521
 20
93.04092054632613
 30
0.0
 10
224.51986866378
 20
93.14867898717785
 30
0.0
 10
224.452823519995
 20
93.24119329230953
 30
0.0
 10
224.3886571396135
 20
93.27898358287375
 30
0.0
 10
224.3568647234658
 20
93.29770747904512
 30
0.0
  0
SPLINE
  5
B5
330
1F
100
AcDbEntity
  8
0
  6
Continuous
 62
     7
370
    15
100
AcDbSpline
210
0.0
220
0.0
230
1.0
 70
     8
 71
     3
 72
    12
 73
     8
 74
     0
 42
0.00000001
 43
0.00000001
 12
1.0
 22
0.0
 32
0.0
 13
1.0
 23
0.0
 33
0.0
 40
0.0
 40
0.0
 40
0.0
 40
0.0
 40
0.2058419908556162
 40
0.412067612730791
 40
0.6141389491386191
 40
0.8132587397872527
 40
1.0
 40
1.0
 40
1.0
 40
1.0
 10
224.3568647234658
 20
93.29770747904512
 30
0.0
 10
224.2999748594432
 20
93.33136761048374
 30
0.0
 10
224.186089104846
 20
93.39875060628778
 30
0.0
 10
224.0690381537677
 20
93.5633965088062
 30
0.0
 10
224.0119098698648
 20
93.75069437971926
 30
0.0
 10
224.0163869437214
 20
93.94172061075926
 30
0.0
 10
224.0662311399752
 20
94.05323391965284
 30
0.0
 10
224.0903537302236
 20
94.10720188503001
 30
0.0
  0
ARC
  5
B6
330
1F
100
AcDbEntity
  8
0
  6
Continuous
 62
     7
370
    15
100
AcDbCircle
 10
222.8591503771
 20
93.3117165739
 30
0.0
 40
2.625005395987698
100
AcDbArc
 50
45.1570118954
 51
224.9215852949
  0
ARC
  5
B7
330
1F
100
AcDbEntity
  8
0
  6
Continuous
 62
     7
370
    15
100
AcDbCircle
 10
224.5325281373
 20
93.8985857515
 30
0.0
 40
0.5846698340812876
100
AcDbArc
 50
151.4147016039
 51
225.0043224329
  0
ARC
  5
B8
330
1F
100
AcDbEntity
  8
0
  6
Continuous
 62
     7
370
    15
100
AcDbCircle
 10
222.4672521851
 20
91.5816435823
 30
0.0
 40
0.5852044999386714
100
AcDbArc
 50
45.1082922045
 51
125.1288174786
  0
SPLINE
  5
B9
330
1F
100
AcDbEntity
  8
0
  6
Continuous
 62
     7
370
    15
100
AcDbSpline
210
0.0
220
0.0
230
1.0
 70
     8
 71
     3
 72
    12
 73
     8
 74
     0
 42
0.00000001
 43
0.00000001
 12
1.0
 22
0.0
 32
0.0
 13
1.0
 23
0.0
 33
0.0
 40
0.0
 40
0.0
 40
0.0
 40
0.0
 40
0.2058587698025135
 40
0.4121027073258272
 40
0.6141930802695811
 40
0.8133172614894455
 40
1.0
 40
1.0
 40
1.0
 40
1.0
 10
223.6553664832334
 20
92.0223021913025
 30
0.0
 10
223.6555087895101
 20
92.08829640424821
 30
0.0
 10
223.6557936683229
 20
92.22040830722348
 30
0.0
 10
223.7390197280506
 20
92.40419971402711
 30
0.0
 10
223.8728922629346
 20
92.5477972497972
 30
0.0
 10
224.0417384877447
 20
92.64019598620868
 30
0.0
 10
224.1644148469309
 20
92.6534035379557
 30
0.0
 10
224.223775002263
 20
92.65979435627196
 30
0.0
  0
SPLINE
  5
BA
330
1F
100
AcDbEntity
  8
0
  6
Continuous
 62
     7
370
    15
100
AcDbSpline
210
0.0
220
0.0
230
1.0
 70
     8
 71
     3
 72
    11
 73
     7
 74
     0
 42
0.00000001
 43
0.00000001
 12
1.0
 22
0.0
 32
0.0
 13
1.0
 23
0.0
 33
0.0
 40
0.0
 40
0.0
 40
0.0
 40
0.0
 40
0.2524771512462918
 40
0.5068876429313718
 40
0.759177180264206
 40
1.0
 40
1.0
 40
1.0
 40
1.0
 10
224.223775002263
 20
92.65979435627196
 30
0.0
 10
224.2614508893067
 20
92.66419582174338
 30
0.0
 10
224.3370911659998
 20
92.6730324568497
 30
0.0
 10
224.4362195228547
 20
92.73308882270703
 30
0.0
 10
224.5118952645959
 20
92.81870267841128
 30
0.0
 10
224.5339743556777
 20
92.88971417132625
 30
0.0
 10
224.5447571902494
 20
92.92439427559111
 30
0.0
  0
SPLINE
  5
BB
330
1F
100
AcDbEntity
  8
0
  6
Continuous
 62
     7
370
    15
100
AcDbSpline
210
0.0
220
0.0
230
1.0
 70
     8
 71
     3
 72
    11
 73
     7
 74
     0
 42
0.00000001
 43
0.00000001
 12
1.0
 22
0.0
 32
0.0
 13
1.0
 23
0.0
 33
0.0
 40
0.0
 40
0.0
 40
0.0
 40
0.0
 40
0.2423542653232099
 40
0.516680334572731
 40
0.7923315442946379
 40
1.0
 40
1.0
 40
1.0
 40
1.0
 10
223.4675373463849
 20
91.68857205991479
 30
0.0
 10
223.4960669903075
 20
91.70542058817048
 30
0.0
 10
223.5568899593092
 20
91.74134033237054
 30
0.0
 10
223.622454936039
 20
91.82960073949316
 30
0.0
 10
223.6573663262401
 20
91.92842653719302
 30
0.0
 10
223.6559675128259
 20
91.99408895359115
 30
0.0
 10
223.6553664832334
 20
92.02230219130251
 30
0.0
  0
ARC
  5
BC
330
1F
100
AcDbEntity
  8
0
  6
Continuous
 62
     7
370
    15
100
AcDbCircle
 10
223.2502344157
 20
92.0642666531
 30
0.0
 40
0.3351623696544875
100
AcDbArc
 50
232.9296251834
 51
4.9948188383
  0
ARC
  5
BD
330
1F
100
AcDbEntity
  8
0
  6
Continuous
 62
     7
370
    15
100
AcDbCircle
 10
224.1432864965
 20
93.0660099085
 30
0.0
 40
0.3352108454815612
100
AcDbArc
 50
271.582489522
 51
36.3166180392
  0
ARC
  5
BE
330
1F
100
AcDbEntity
  8
0
  6
Continuous
 62
     7
370
    15
100
AcDbCircle
 10
224.1692362881
 20
92.1438823195
 30
0.0
 40
0.5872818701561351
100
AcDbArc
 50
91.6287616011
 51
184.9265094761
  0
LINE
  5
BF
330
1F
100
AcDbEntity
  8
0
  6
Continuous
 62
     7
370
    15
100
AcDbLine
 10
195.0191251515
 20
94.5163225788
 30
0.0
 11
195.0191251515
 21
124.9703556332
 31
0.0
  0
SPLINE
  5
C0
330
1F
100
AcDbEntity
  8
0
  6
Continuous
 62
     7
370
    15
100
AcDbSpline
210
0.0
220
0.0
230
1.0
 70
     8
 71
     3
 72
    10
 73
     6
 74
     0
 42
0.00000001
 43
0.00000001
 12
1.0
 22
0.0
 32
0.0
 13
1.0
 23
0.0
 33
0.0
 40
0.0
 40
0.0
 40
0.0
 40
0.0
 40
0.5
 40
0.5
 40
1.0
 40
1.0
 40
1.0
 40
1.0
 10
195.0191245823125
 20
94.51632345303975
 30
0.0
 10
195.0191245823125
 20
94.3566912841365
 30
0.0
 10
194.9574880686072
 20
94.19564165037245
 30
0.0
 10
194.7384617023643
 20
93.96265076669586
 30
0.0
 10
194.5808448143169
 20
93.89147075109686
 30
0.0
 10
194.4191245823125
 20
93.89147075109686
 30
0.0
  0
SPLINE
  5
C1
330
1F
100
AcDbEntity
  8
0
  6
Continuous
 62
     7
370
    15
100
AcDbSpline
210
0.0
220
0.0
230
1.0
 70
    24
 71
     3
 72
    12
 73
     8
 74
     0
 42
0.00000001
 43
0.00000001
 12
1.0
 22
0.0
 32
0.0
 13
1.0
 23
0.0
 33
0.0
 40
0.0
 40
0.0
 40
0.0
 40
0.0
 40
0.2500000000000014
 40
0.2500000000000014
 40
0.5000000000000029
 40
0.5000000000000029
 40
1.0
 40
1.0
 40
1.0
 40
1.0
 10
194.4191245823125
 20
124.9703552741262
 30
0.0
 10
194.5073114476814
 20
124.9703552741262
 30
0.0
 10
194.5959988409826
 20
124.9703552741262
 30
0.0
 10
194.7502513341015
 20
124.9703552741262
 30
0.0
 10
194.8155973151775
 20
124.9703552741262
 30
0.0
 10
194.9700071851286
 20
124.9703552741262
 30
0.0
 10
195.0191245823125
 20
124.9703552741262
 30
0.0
 10
195.0191245823125
 20
124.9703552741262
 30
0.0
  0
LINE
  5
C2
330
1F
100
AcDbEntity
  8
0
  6
Continuous
 62
     7
370
    15
100
AcDbLine
 10
194.4191243081
 20
93.8914703238
 30
0.0
 11
193.1042849599
 21
93.8914703238
 31
0.0
  0
LINE
  5
C3
330
1F
100
AcDbEntity
  8
0
  6
Continuous
 62
     7
370
    15
100
AcDbLine
 10
193.1042849599
 20
93.8914703238
 30
0.0
 11
193.1042849599
 21
124.9703556332
 31
0.0
  0
LINE
  5
C4
330
1F
100
AcDbEntity
  8
0
  6
Continuous
 62
     7
370
    15
100
AcDbLine
 10
193.1042849599
 20
124.9703556332
 30
0.0
 11
194.4191243081
 21
124.9703556332
 31
0.0
  0
SPLINE
  5
C5
330
1F
100
AcDbEntity
  8
0
  6
Continuous
 62
     7
370
    15
100
AcDbSpline
210
0.0
220
0.0
230
1.0
 70
     8
 71
     3
 72
     8
 73
     4
 74
     0
 42
0.00000001
 43
0.00000001
 12
1.0
 22
0.0
 32
0.0
 13
1.0
 23
0.0
 33
0.0
 40
0.0
 40
0.0
 40
0.0
 40
0.0
 40
1.0
 40
1.0
 40
1.0
 40
1.0
 10
193.1042842812059
 20
93.89147075109686
 30
0.0
 10
192.7715790095006
 20
94.49084242432052
 30
0.0
 10
192.4397632089271
 20
95.09071153502555
 30
0.0
 10
192.1091245823125
 20
95.69123188613653
 30
0.0
  0
LINE
  5
C6
330
1F
100
AcDbEntity
  8
0
  6
Continuous
 62
     7
370
    15
100
AcDbLine
 10
192.1091239481
 20
95.6912325728
 30
0.0
 11
192.1091239481
 21
124.9703556332
 31
0.0
  0
SPLINE
  5
C7
330
1F
100
AcDbEntity
  8
0
  6
Continuous
 62
     7
370
    15
100
AcDbSpline
210
0.0
220
0.0
230
1.0
 70
    24
 71
     3
 72
     8
 73
     4
 74
     0
 42
0.00000001
 43
0.00000001
 12
1.0
 22
0.0
 32
0.0
 13
1.0
 23
0.0
 33
0.0
 40
0.0
 40
0.0
 40
0.0
 40
0.0
 40
1.0
 40
1.0
 40
1.0
 40
1.0
 10
192.1091245823125
 20
124.9703552741262
 30
0.0
 10
192.4327612379347
 20
124.9703552741262
 30
0.0
 10
192.7652514594513
 20
124.9703552741262
 30
0.0
 10
193.104284281206
 20
124.9703552741262
 30
0.0
  0
LINE
  5
C8
330
1F
100
AcDbEntity
  8
0
  6
Continuous
 62
     7
370
    15
100
AcDbLine
 10
183.0191250472
 20
124.9703556332
 30
0.0
 11
189.0339647933
 21
124.9703556332
 31
0.0
  0
LINE
  5
C9
330
1F
100
AcDbEntity
  8
0
  6
Continuous
 62
     7
370
    15
100
AcDbLine
 10
189.0339647933
 20
93.8914703238
 30
0.0
 11
189.0339647933
 21
124.9703556332
 31
0.0
  0
LINE
  5
CA
330
1F
100
AcDbEntity
  8
0
  6
Continuous
 62
     7
370
    15
100
AcDbLine
 10
189.0339647933
 20
93.8914703238
 30
0.0
 11
187.5191248535
 21
93.8914703238
 31
0.0
  0
SPLINE
  5
CB
330
1F
100
AcDbEntity
  8
0
  6
Continuous
 62
     7
370
    15
100
AcDbSpline
210
0.0
220
0.0
230
1.0
 70
     8
 71
     3
 72
    22
 73
    18
 74
     0
 42
0.00000001
 43
0.00000001
 12
1.0
 22
0.0
 32
0.0
 13
1.0
 23
0.0
 33
0.0
 40
0.0
 40
0.0
 40
0.0
 40
0.0
 40
0.125
 40
0.125
 40
0.25
 40
0.25
 40
0.375
 40
0.375
 40
0.5
 40
0.5
 40
0.625
 40
0.625
 40
0.75
 40
0.75
 40
0.875
 40
0.875
 40
1.0
 40
1.0
 40
1.0
 40
1.0
 10
187.5191245823125
 20
93.89147075109686
 30
0.0
 10
187.2200001532719
 20
93.89147075109686
 30
0.0
 10
186.9261777050231
 20
93.88295665003047
 30
0.0
 10
186.3486134287767
 20
93.85051288114857
 30
0.0
 10
186.0617957509628
 20
93.82617899244653
 30
0.0
 10
185.5173332220635
 20
93.76571896768971
 30
0.0
 10
185.2593779514422
 20
93.72980554691121
 30
0.0
 10
184.7713200080822
 20
93.65009552084206
 30
0.0
 10
184.5416217094185
 20
93.60621721965273
 30
0.0
 10
184.1292027264658
 20
93.51797359728256
 30
0.0
 10
183.9436757836058
 20
93.47316525582158
 30
0.0
 10
183.615155738705
 20
93.3858442479024
 30
0.0
 10
183.4767418518055
 20
93.34455345932675
 30
0.0
 10
183.2521497051896
 20
93.27021523603293
 30
0.0
 10
183.1650708930653
 20
93.23680511029825
 30
0.0
 10
183.0485690851102
 20
93.18178570877211
 30
0.0
 10
183.0191245823125
 20
93.1603239423059
 30
0.0
 10
183.0191245823125
 20
93.14537091868809
 30
0.0
  0
LINE
  5
CC
330
1F
100
AcDbEntity
  8
0
  6
Continuous
 62
     7
370
    15
100
AcDbLine
 10
183.0191250472
 20
93.1453710455
 30
0.0
 11
183.0191250472
 21
93.1203557212
 31
0.0
  0
SPLINE
  5
CD
330
1F
100
AcDbEntity
  8
0
  6
Continuous
 62
     7
370
    15
100
AcDbSpline
210
0.0
220
0.0
230
1.0
 70
     8
 71
     3
 72
    17
 73
    13
 74
     0
 42
0.00000001
 43
0.00000001
 12
1.0
 22
0.0
 32
0.0
 13
1.0
 23
0.0
 33
0.0
 40
0.0
 40
0.0
 40
0.0
 40
0.0
 40
0.1039928149931941
 40
0.211050797947968
 40
0.315030024669631
 40
0.4219351868122974
 40
0.5275775927633417
 40
0.6362134531400181
 40
0.7429488821168505
 40
0.8528788227495517
 40
0.9578277247781112
 40
1.0
 40
1.0
 40
1.0
 40
1.0
 10
187.5191248535136
 20
132.6075313646052
 30
0.0
 10
187.2733077692886
 20
132.6102471991982
 30
0.0
 10
186.7744281901722
 20
132.6157589170798
 30
0.0
 10
186.0509446466475
 20
132.6588426758554
 30
0.0
 10
185.3631492904397
 20
132.7227092880369
 30
0.0
 10
184.7384039183055
 20
132.8020448040618
 30
0.0
 10
184.1824531152432
 20
132.8889835958301
 30
0.0
 10
183.720466608676
 20
132.972943187149
 30
0.0
 10
183.3582014774042
 20
133.0461060562401
 30
0.0
 10
183.1264225066505
 20
133.0962430965317
 30
0.0
 10
183.0168565623674
 20
133.1208631939141
 30
0.0
 10
183.0306874377319
 20
133.1177580458489
 30
0.0
 10
183.0346520571927
 20
133.1168679553721
 30
0.0
  0
LINE
  5
CE
330
1F
100
AcDbEntity
  8
0
  6
Continuous
 62
     7
370
    15
100
AcDbLine
 10
189.0339647933
 20
132.6075313646
 30
0.0
 11
187.5191248535
 21
132.6075313646
 31
0.0
  0
LINE
  5
CF
330
1F
100
AcDbEntity
  8
0
  6
Continuous
 62
     7
370
    15
100
AcDbLine
 10
189.0339647933
 20
129.2317645658
 30
0.0
 11
189.0339647933
 21
132.6075313646
 31
0.0
  0
LINE
  5
D0
330
1F
100
AcDbEntity
  8
0
  6
Continuous
 62
     7
370
    15
100
AcDbLine
 10
187.512794654
 20
129.2317645658
 30
0.0
 11
189.0339647933
 21
129.2317645658
 31
0.0
  0
SPLINE
  5
D1
330
1F
100
AcDbEntity
  8
0
  6
Continuous
 62
     7
370
    15
100
AcDbSpline
210
0.0
220
0.0
230
1.0
 70
     8
 71
     3
 72
    22
 73
    18
 74
     0
 42
0.00000001
 43
0.00000001
 12
1.0
 22
0.0
 32
0.0
 13
1.0
 23
0.0
 33
0.0
 40
0.0
 40
0.0
 40
0.0
 40
0.0
 40
0.2500000000000001
 40
0.2500000000000001
 40
0.3750000000000002
 40
0.3750000000000002
 40
0.5000000000000003
 40
0.5000000000000003
 40
0.6250000000000006
 40
0.6250000000000006
 40
0.7500000000000006
 40
0.7500000000000006
 40
0.8750000000000007
 40
0.8750000000000007
 40
0.9375000000000003
 40
0.9375000000000003
 40
1.0
 40
1.0
 40
1.0
 40
1.0
 10
183.0191245823125
 20
124.9703552741262
 30
0.0
 10
183.0411056002991
 20
125.5332279160243
 30
0.0
 10
183.1200824836539
 20
126.0638527997538
 30
0.0
 10
183.3664803766862
 20
126.8095637906754
 30
0.0
 10
183.4710049917772
 20
127.0511840170741
 30
0.0
 10
183.7328515870837
 20
127.5100427924
 30
0.0
 10
183.8880682092495
 20
127.7242214648698
 30
0.0
 10
184.2566599623134
 20
128.1214500240154
 30
0.0
 10
184.4727936547784
 20
128.3058948590352
 30
0.0
 10
184.9566881497653
 20
128.6269747069188
 30
0.0
 10
185.227153694773
 20
128.7663255370248
 30
0.0
 10
185.8233802602832
 20
128.9956310714504
 30
0.0
 10
186.1388735270031
 20
129.0821670809267
 30
0.0
 10
186.6395901750217
 20
129.171056685258
 30
0.0
 10
186.8123866096368
 20
129.1938651911196
 30
0.0
 10
187.1607553824188
 20
129.2241563538159
 30
0.0
 10
187.3361564113293
 20
129.2317642752037
 30
0.0
 10
187.5127950570172
 20
129.2317642752037
 30
0.0
  0
LINE
  5
D2
330
1F
100
AcDbEntity
  8
0
  6
Continuous
 62
     7
370
    15
100
AcDbLine
 10
190.0291248738
 20
95.6912325728
 30
0.0
 11
190.0291248738
 21
124.9703556332
 31
0.0
  0
SPLINE
  5
D3
330
1F
100
AcDbEntity
  8
0
  6
Continuous
 62
     7
370
    15
100
AcDbSpline
210
0.0
220
0.0
230
1.0
 70
     8
 71
     3
 72
     8
 73
     4
 74
     0
 42
0.00000001
 43
0.00000001
 12
1.0
 22
0.0
 32
0.0
 13
1.0
 23
0.0
 33
0.0
 40
0.0
 40
0.0
 40
0.0
 40
0.0
 40
1.0
 40
1.0
 40
1.0
 40
1.0
 10
190.0291245823125
 20
95.69123188613653
 30
0.0
 10
189.6984859556979
 20
95.09071153502555
 30
0.0
 10
189.3666701551244
 20
94.49084242432052
 30
0.0
 10
189.0339648834191
 20
93.89147075109686
 30
0.0
  0
SPLINE
  5
D4
330
1F
100
AcDbEntity
  8
0
  6
Continuous
 62
     7
370
    15
100
AcDbSpline
210
0.0
220
0.0
230
1.0
 70
    24
 71
     3
 72
     8
 73
     4
 74
     0
 42
0.00000001
 43
0.00000001
 12
1.0
 22
0.0
 32
0.0
 13
1.0
 23
0.0
 33
0.0
 40
0.0
 40
0.0
 40
0.0
 40
0.0
 40
1.0
 40
1.0
 40
1.0
 40
1.0
 10
189.0339648834191
 20
124.9703552741262
 30
0.0
 10
189.3729977051736
 20
124.9703552741262
 30
0.0
 10
189.7054879266903
 20
124.9703552741262
 30
0.0
 10
190.0291245823125
 20
124.9703552741262
 30
0.0
  0
LINE
  5
D5
330
1F
100
AcDbEntity
  8
0
  6
Continuous
 62
     7
370
    15
100
AcDbLine
 10
175.0691245823
 20
93.4203552115
 30
0.0
 11
175.0691245823
 21
132.8203553367
 31
0.0
  0
SPLINE
  5
D6
330
1F
100
AcDbEntity
  8
0
  6
Continuous
 62
     7
370
    15
100
AcDbSpline
210
0.0
220
0.0
230
1.0
 70
    24
 71
     3
 72
    16
 73
    12
 74
     0
 42
0.00000001
 43
0.00000001
 12
1.0
 22
0.0
 32
0.0
 13
1.0
 23
0.0
 33
0.0
 40
0.0
 40
0.0
 40
0.0
 40
0.0
 40
0.0625000000000008
 40
0.0625000000000008
 40
0.1250000000000015
 40
0.1250000000000015
 40
0.2500000000000011
 40
0.2500000000000011
 40
0.5000000000000002
 40
0.5000000000000002
 40
1.0
 40
1.0
 40
1.0
 40
1.0
 10
190.6291245822859
 20
96.22035527412628
 30
0.0
 10
190.5946459151007
 20
96.22035527412628
 30
0.0
 10
190.5608257382638
 20
96.22035527412628
 30
0.0
 10
190.5043036710802
 20
96.22035527412628
 30
0.0
 10
190.4799775915539
 20
96.22035527412628
 30
0.0
 10
190.4155246920027
 20
96.22035527412629
 30
0.0
 10
190.3818964166441
 20
96.22035527412628
 30
0.0
 10
190.2938191011192
 20
96.22035527412628
 30
0.0
 10
190.2509996478516
 20
96.22035527412628
 30
0.0
 10
190.1403430136545
 20
96.22035527412628
 30
0.0
 10
190.0941104277105
 20
96.22035527412629
 30
0.0
 10
190.0643469828939
 20
96.22035527412628
 30
0.0
  0
SPLINE
  5
D7
330
1F
100
AcDbEntity
  8
0
  6
Continuous
 62
     7
370
    15
100
AcDbSpline
210
0.0
220
0.0
230
1.0
 70
    24
 71
     3
 72
    12
 73
     8
 74
     0
 42
0.00000001
 43
0.00000001
 12
1.0
 22
0.0
 32
0.0
 13
1.0
 23
0.0
 33
0.0
 40
0.0
 40
0.0
 40
0.0
 40
0.0
 40
0.5000000000000013
 40
0.5000000000000013
 40
0.7500000000000007
 40
0.7500000000000007
 40
1.0
 40
1.0
 40
1.0
 40
1.0
 10
190.0291245823125
 20
124.9703552741262
 30
0.0
 10
190.0291245823125
 20
124.9703552741262
 30
0.0
 10
190.0761206798208
 20
124.9703552741263
 30
0.0
 10
190.2256266178211
 20
124.9703552741263
 30
0.0
 10
190.2901452403795
 20
124.9703552741262
 30
0.0
 10
190.4445849331085
 20
124.9703552741262
 30
0.0
 10
190.5355233211114
 20
124.9703552741262
 30
0.0
 10
190.6291245823125
 20
124.9703552741262
 30
0.0
  0
SPLINE
  5
D8
330
1F
100
AcDbEntity
  8
0
  6
Continuous
 62
     7
370
    15
100
AcDbSpline
210
0.0
220
0.0
230
1.0
 70
    24
 71
     3
 72
    16
 73
    12
 74
     0
 42
0.00000001
 43
0.00000001
 12
1.0
 22
0.0
 32
0.0
 13
1.0
 23
0.0
 33
0.0
 40
0.0
 40
0.0
 40
0.0
 40
0.0
 40
0.5000000000000027
 40
0.5000000000000027
 40
0.750000000000004
 40
0.750000000000004
 40
0.8750000000000033
 40
0.8750000000000033
 40
0.9375000000000017
 40
0.9375000000000017
 40
1.0
 40
1.0
 40
1.0
 40
1.0
 10
192.0739021817312
 20
96.22035527412628
 30
0.0
 10
192.0438657622046
 20
96.22035527412628
 30
0.0
 10
191.9972316649998
 20
96.22035527412629
 30
0.0
 10
191.8868472534211
 20
96.22035527412628
 30
0.0
 10
191.8435096049005
 20
96.22035527412628
 30
0.0
 10
191.7550279705159
 20
96.22035527412629
 30
0.0
 10
191.7216524658992
 20
96.22035527412628
 30
0.0
 10
191.6571602564486
 20
96.22035527412628
 30
0.0
 10
191.6329559192621
 20
96.22035527412628
 30
0.0
 10
191.5772021094516
 20
96.22035527412628
 30
0.0
 10
191.5436180833835
 20
96.22035527412628
 30
0.0
 10
191.5091245823125
 20
96.22035527412628
 30
0.0
  0
SPLINE
  5
D9
330
1F
100
AcDbEntity
  8
0
  6
Continuous
 62
     7
370
    15
100
AcDbSpline
210
0.0
220
0.0
230
1.0
 70
    24
 71
     3
 72
    12
 73
     8
 74
     0
 42
0.00000001
 43
0.00000001
 12
1.0
 22
0.0
 32
0.0
 13
1.0
 23
0.0
 33
0.0
 40
0.0
 40
0.0
 40
0.0
 40
0.0
 40
0.249999999999999
 40
0.249999999999999
 40
0.499999999999998
 40
0.499999999999998
 40
1.0
 40
1.0
 40
1.0
 40
1.0
 10
191.5091245823125
 20
124.9703552741262
 30
0.0
 10
191.6017826718187
 20
124.9703552741262
 30
0.0
 10
191.6938460813764
 20
124.9703552741262
 30
0.0
 10
191.8480036318672
 20
124.9703552741262
 30
0.0
 10
191.9124925652319
 20
124.9703552741262
 30
0.0
 10
192.0625441141814
 20
124.9703552741262
 30
0.0
 10
192.1091245823125
 20
124.9703552741262
 30
0.0
 10
192.1091245823125
 20
124.9703552741262
 30
0.0
  0
SPLINE
  5
DA
330
1F
100
AcDbEntity
  8
0
  6
Continuous
 62
     7
370
    15
100
AcDbSpline
210
0.0
220
0.0
230
1.0
 70
    24
 71
     3
 72
    14
 73
    10
 74
     0
 42
0.00000001
 43
0.00000001
 12
1.0
 22
0.0
 32
0.0
 13
1.0
 23
0.0
 33
0.0
 40
0.0
 40
0.0
 40
0.0
 40
0.0
 40
0.125
 40
0.125
 40
0.25
 40
0.25
 40
0.5
 40
0.5
 40
1.0
 40
1.0
 40
1.0
 40
1.0
 10
195.2191245822977
 20
130.0203552741262
 30
0.0
 10
195.2191247951457
 20
130.0203552741262
 30
0.0
 10
195.2167484258265
 20
130.0203552741262
 30
0.0
 10
195.2076005187087
 20
130.0203552741262
 30
0.0
 10
195.2008346165868
 20
130.0203552741262
 30
0.0
 10
195.1753951938539
 20
130.0203552741262
 30
0.0
 10
195.1515021589911
 20
130.0203552741262
 30
0.0
 10
195.0765679518653
 20
130.0203552741262
 30
0.0
 10
195.0213414704318
 20
130.0203552741262
 30
0.0
 10
195.0191867054358
 20
130.0203552741262
 30
0.0
  0
SPLINE
  5
DB
330
1F
100
AcDbEntity
  8
0
  6
Continuous
 62
     7
370
    15
100
AcDbSpline
210
0.0
220
0.0
230
1.0
 70
    24
 71
     3
 72
    14
 73
    10
 74
     0
 42
0.00000001
 43
0.00000001
 12
1.0
 22
0.0
 32
0.0
 13
1.0
 23
0.0
 33
0.0
 40
0.0
 40
0.0
 40
0.0
 40
0.0
 40
0.1249999999999999
 40
0.1249999999999999
 40
0.2499999999999999
 40
0.2499999999999999
 40
0.5
 40
0.5
 40
1.0
 40
1.0
 40
1.0
 40
1.0
 10
195.2191245822983
 20
96.22035527412628
 30
0.0
 10
195.21912479324
 20
96.22035527412628
 30
0.0
 10
195.2167021903626
 20
96.22035527412628
 30
0.0
 10
195.2073829838486
 20
96.22035527412629
 30
0.0
 10
195.2004923240501
 20
96.22035527412629
 30
0.0
 10
195.1746138624058
 20
96.22035527412628
 30
0.0
 10
195.1503413367982
 20
96.22035527412628
 30
0.0
 10
195.0745850425291
 20
96.22035527412628
 30
0.0
 10
195.0191245823125
 20
96.22035527412628
 30
0.0
 10
195.0191245823125
 20
96.22035527412628
 30
0.0
  0
SPLINE
  5
DC
330
1F
100
AcDbEntity
  8
0
  6
Continuous
 62
     7
370
    15
100
AcDbSpline
210
0.0
220
0.0
230
1.0
 70
    24
 71
     3
 72
    12
 73
     8
 74
     0
 42
0.00000001
 43
0.00000001
 12
1.0
 22
0.0
 32
0.0
 13
1.0
 23
0.0
 33
0.0
 40
0.0
 40
0.0
 40
0.0
 40
0.0
 40
0.5
 40
0.5
 40
0.75
 40
0.75
 40
1.0
 40
1.0
 40
1.0
 40
1.0
 10
195.0191245823125
 20
124.9703552741262
 30
0.0
 10
195.0191245823125
 20
124.9703552741262
 30
0.0
 10
195.0463453304401
 20
124.9703552741262
 30
0.0
 10
195.1267917762131
 20
124.9703552741262
 30
0.0
 10
195.1602390046911
 20
124.9703552741262
 30
0.0
 10
195.2426485744654
 20
124.9703552741262
 30
0.0
 10
195.291931671349
 20
124.9703552741262
 30
0.0
 10
195.3482482939856
 20
124.9703552741262
 30
0.0
  0
SPLINE
  5
DD
330
1F
100
AcDbEntity
  8
0
  6
Continuous
 62
     7
370
    15
100
AcDbSpline
210
0.0
220
0.0
230
1.0
 70
     8
 71
     3
 72
    10
 73
     6
 74
     0
 42
0.00000001
 43
0.00000001
 12
1.0
 22
0.0
 32
0.0
 13
1.0
 23
0.0
 33
0.0
 40
0.0
 40
0.0
 40
0.0
 40
0.0
 40
0.5
 40
0.5
 40
1.0
 40
1.0
 40
1.0
 40
1.0
 10
195.0191245823125
 20
125.9977579625569
 30
0.0
 10
195.0191245823125
 20
125.8150492504219
 30
0.0
 10
195.0460979160206
 20
125.6315409606611
 30
0.0
 10
195.1536882838063
 20
125.2832369823405
 30
0.0
 10
195.2351528281495
 20
125.1150493997976
 30
0.0
 10
195.3482482939853
 20
124.9703552741248
 30
0.0
  0
LINE
  5
DE
330
1F
100
AcDbEntity
  8
0
  6
Continuous
 62
     7
370
    15
100
AcDbLine
 10
191.5091249674
 20
96.220356043
 30
0.0
 11
190.6291247859
 21
96.220356043
 31
0.0
  0
LINE
  5
DF
330
1F
100
AcDbEntity
  8
0
  6
Continuous
 62
     7
370
    15
100
AcDbLine
 10
190.6291247859
 20
124.9703556332
 30
0.0
 11
191.5091249674
 21
124.9703556332
 31
0.0
  0
ELLIPSE
  5
E0
330
1F
100
AcDbEntity
  8
0
  6
Continuous
 62
     7
370
    15
100
AcDbEllipse
 10
204.7323688691
 20
113.1203552741
 30
0.0
 11
0.2492245631851233
 21
16.49986529017434
 31
0.0
210
0.0
220
0.0
230
1.0
 40
0.2675253107
 41
0.3822841413395157
 42
2.872109971629466
  0
SPLINE
  5
E1
330
1F
100
AcDbEntity
  8
0
  6
Continuous
 62
     7
370
    15
100
AcDbSpline
210
0.0
220
0.0
230
1.0
 70
     8
 71
     3
 72
    18
 73
    14
 74
     0
 42
0.00000001
 43
0.00000001
 12
1.0
 22
0.0
 32
0.0
 13
1.0
 23
0.0
 33
0.0
 40
0.0
 40
0.0
 40
0.0
 40
0.0
 40
0.2499999999999999
 40
0.2499999999999999
 40
0.4999999999999998
 40
0.4999999999999998
 40
0.6249999999999998
 40
0.6249999999999998
 40
0.7499999999999999
 40
0.7499999999999999
 40
0.8749999999999999
 40
0.8749999999999999
 40
1.0
 40
1.0
 40
1.0
 40
1.0
 10
206.9713118891981
 20
96.68552459095065
 30
0.0
 10
206.5434232194549
 20
96.68753571970653
 30
0.0
 10
206.1306216963774
 20
96.69514296343692
 30
0.0
 10
205.3350362635189
 20
96.72798579370176
 30
0.0
 10
204.9700747781473
 20
96.75270335873495
 30
0.0
 10
204.4794944023891
 20
96.81178204750171
 30
0.0
 10
204.3268934403006
 20
96.8351371004069
 30
0.0
 10
204.0503013587226
 20
96.88970069468716
 30
0.0
 10
203.9250589133468
 20
96.92104631480713
 30
0.0
 10
203.7007165970202
 20
96.99379141660674
 30
0.0
 10
203.6022192972908
 20
97.03518721360018
 30
0.0
 10
203.4371534927574
 20
97.12699117418491
 30
0.0
 10
203.3696453612174
 20
97.17766935054131
 30
0.0
 10
203.3169524090136
 20
97.23374148287009
 30
0.0
  0
ELLIPSE
  5
E2
330
1F
100
AcDbEntity
  8
0
  6
Continuous
 62
     7
370
    15
100
AcDbEllipse
 10
251.2999252379
 20
113.1203552741
 30
0.0
 11
314.8387520859912
 21
0.8659150377603594
 31
0.0
210
0.0
220
0.0
230
1.0
 40
0.0523355614
 41
4.570977813933913
 42
4.578450548628178
  0
ELLIPSE
  5
E3
330
1F
100
AcDbEntity
  8
0
  6
Continuous
 62
     7
370
    15
100
AcDbEllipse
 10
251.2999252379
 20
113.1203552741
 30
0.0
 11
314.8387520859912
 21
0.8659150377603594
 31
0.0
210
0.0
220
0.0
230
1.0
 40
0.0523355614
 41
1.704446876903761
 42
1.711919611598025
  0
SPLINE
  5
E4
330
1F
100
AcDbEntity
  8
0
  6
Continuous
 62
     7
370
    15
100
AcDbSpline
210
0.0
220
0.0
230
1.0
 70
     8
 71
     3
 72
    20
 73
    16
 74
     0
 42
0.00000001
 43
0.00000001
 12
1.0
 22
0.0
 32
0.0
 13
1.0
 23
0.0
 33
0.0
 40
0.0
 40
0.0
 40
0.0
 40
0.0
 40
0.2500000000000012
 40
0.2500000000000012
 40
0.3750000000000013
 40
0.3750000000000013
 40
0.5000000000000016
 40
0.5000000000000016
 40
0.6250000000000017
 40
0.6250000000000017
 40
0.7500000000000018
 40
0.7500000000000018
 40
0.875000000000002
 40
0.875000000000002
 40
1.0
 40
1.0
 40
1.0
 40
1.0
 10
203.3169524090136
 20
128.4540495118769
 30
0.0
 10
203.4223324200302
 20
128.6073532470762
 30
0.0
 10
203.5855045107002
 20
128.7366269515042
 30
0.0
 10
203.922352455413
 20
128.9014989908721
 30
0.0
 10
204.0488522609514
 20
128.9507551546501
 30
0.0
 10
204.3250184276895
 20
129.0379627318569
 30
0.0
 10
204.4753538834118
 20
129.0762480369162
 30
0.0
 10
204.8013298722449
 20
129.1437813743218
 30
0.0
 10
204.9766932747847
 20
129.1728287801356
 30
0.0
 10
205.3402377567863
 20
129.2215033722102
 30
0.0
 10
205.5298805922126
 20
129.2414547232863
 30
0.0
 10
205.9251166622751
 20
129.2739913430115
 30
0.0
 10
206.1312389288104
 20
129.2865293141801
 30
0.0
 10
206.5465658546954
 20
129.3043746217235
 30
0.0
 10
206.7573441775502
 20
129.3098364987702
 30
0.0
 10
206.9713118891981
 20
129.3120159191123
 30
0.0
  0
ELLIPSE
  5
E5
330
1F
100
AcDbEntity
  8
0
  6
Continuous
 62
     7
370
    15
100
AcDbEllipse
 10
202.7404146606
 20
105.472065654
 30
0.0
 11
-0.1575306644388945
 21
2.644315303131037
 31
0.0
210
0.0
220
0.0
230
1.0
 40
0.2237730847
 41
4.795834107050122
 42
10.39175467261812
  0
LINE
  5
E6
330
1F
100
AcDbEntity
  8
0
  6
Continuous
 62
     7
370
    15
100
AcDbLine
 10
173.0691244873
 20
98.0166547034
 30
0.0
 11
173.0691244873
 21
128.2240558449
 31
0.0
  0
LINE
  5
E7
330
1F
100
AcDbEntity
  8
0
  6
Continuous
 62
     7
370
    15
100
AcDbLine
 10
161.2691247418
 20
98.6078368533
 30
0.0
 11
161.2691247418
 21
99.5167788151
 31
0.0
  0
SPLINE
  5
E8
330
1F
100
AcDbEntity
  8
0
  6
Continuous
 62
     7
370
    15
100
AcDbSpline
210
0.0
220
0.0
230
1.0
 70
     8
 71
     3
 72
    10
 73
     6
 74
     0
 42
0.00000001
 43
0.00000001
 12
1.0
 22
0.0
 32
0.0
 13
1.0
 23
0.0
 33
0.0
 40
0.0
 40
0.0
 40
0.0
 40
0.0
 40
0.5
 40
0.5
 40
1.0
 40
1.0
 40
1.0
 40
1.0
 10
160.9778893798272
 20
100.1863519269183
 30
0.0
 10
161.0157637827719
 20
100.0601898188657
 30
0.0
 10
161.0965548300978
 20
99.9422307778838
 30
0.0
 10
161.2216847726891
 20
99.71918479529481
 30
0.0
 10
161.2691245823125
 20
99.61438972179945
 30
0.0
 10
161.2691245823125
 20
99.51677908840205
 30
0.0
  0
SPLINE
  5
E9
330
1F
100
AcDbEntity
  8
0
  6
Continuous
 62
     7
370
    15
100
AcDbSpline
210
0.0
220
0.0
230
1.0
 70
     8
 71
     3
 72
    16
 73
    12
 74
     0
 42
0.00000001
 43
0.00000001
 12
1.0
 22
0.0
 32
0.0
 13
1.0
 23
0.0
 33
0.0
 40
0.0
 40
0.0
 40
0.0
 40
0.0
 40
0.0625
 40
0.0625
 40
0.125
 40
0.125
 40
0.25
 40
0.25
 40
0.5
 40
0.5
 40
1.0
 40
1.0
 40
1.0
 40
1.0
 10
160.3691245823127
 20
100.8364819755734
 30
0.0
 10
160.40044038164
 20
100.8390865974655
 30
0.0
 10
160.4331547200656
 20
100.8373176970055
 30
0.0
 10
160.4944612735424
 20
100.8257828025555
 30
0.0
 10
160.5229721637604
 20
100.8162558252092
 30
0.0
 10
160.5988661371166
 20
100.7827422250843
 30
0.0
 10
160.6382057221497
 20
100.7543547107644
 30
0.0
 10
160.739641503131
 20
100.6663337605566
 30
0.0
 10
160.784466862737
 20
100.6047011083494
 30
0.0
 10
160.8987492177022
 20
100.4213129146743
 30
0.0
 10
160.9435631255449
 20
100.3006949202094
 30
0.0
 10
160.9778893798273
 20
100.1863519269183
 30
0.0
  0
SPLINE
  5
EA
330
1F
100
AcDbEntity
  8
0
  6
Continuous
 62
     7
370
    15
100
AcDbSpline
210
0.0
220
0.0
230
1.0
 70
     8
 71
     3
 72
    10
 73
     6
 74
     0
 42
0.00000001
 43
0.00000001
 12
1.0
 22
0.0
 32
0.0
 13
1.0
 23
0.0
 33
0.0
 40
0.0
 40
0.0
 40
0.0
 40
0.0
 40
0.5
 40
0.5
 40
1.0
 40
1.0
 40
1.0
 40
1.0
 10
156.2793331475969
 20
100.4091750116751
 30
0.0
 10
156.9375911584993
 20
100.5020997169921
 30
0.0
 10
157.6149334670365
 20
100.5780348341147
 30
0.0
 10
158.9842794807176
 20
100.7168529196524
 30
0.0
 10
159.6755995615901
 20
100.7787995759388
 30
0.0
 10
160.3691245823132
 20
100.8364819755734
 30
0.0
  0
SPLINE
  5
EB
330
1F
100
AcDbEntity
  8
0
  6
Continuous
 62
     7
370
    15
100
AcDbSpline
210
0.0
220
0.0
230
1.0
 70
     8
 71
     3
 72
     8
 73
     4
 74
     0
 42
0.00000001
 43
0.00000001
 12
1.0
 22
0.0
 32
0.0
 13
1.0
 23
0.0
 33
0.0
 40
0.0000002108190109
 40
0.0000002108190109
 40
0.0000002108190109
 40
0.0000002108190109
 40
0.0001710235456397
 40
0.0001710235456397
 40
0.0001710235456397
 40
0.0001710235456397
 10
156.1191245823125
 20
100.3898197231669
 30
0.0
 10
156.1731127684023
 20
100.3954498657704
 30
0.0
 10
156.2267024284782
 20
100.401745259232
 30
0.0
 10
156.2793331475969
 20
100.4091750116751
 30
0.0
  0
SPLINE
  5
EC
330
1F
100
AcDbEntity
  8
0
  6
Continuous
 62
     7
370
    15
100
AcDbSpline
210
0.0
220
0.0
230
1.0
 70
     8
 71
     3
 72
     8
 73
     4
 74
     0
 42
0.00000001
 43
0.00000001
 12
1.0
 22
0.0
 32
0.0
 13
1.0
 23
0.0
 33
0.0
 40
0.000003532078448
 40
0.000003532078448
 40
0.000003532078448
 40
0.000003532078448
 40
0.0000638548434643
 40
0.0000638548434643
 40
0.0000638548434643
 40
0.0000638548434643
 10
156.1106084327434
 20
100.4171775745827
 30
0.0
 10
156.1131576038656
 20
100.408016371244
 30
0.0
 10
156.1159995266473
 20
100.3988953679352
 30
0.0
 10
156.1191245823125
 20
100.3898197231669
 30
0.0
  0
ELLIPSE
  5
ED
330
1F
100
AcDbEntity
  8
0
  6
Continuous
 62
     7
370
    15
100
AcDbEllipse
 10
142.6423823745
 20
112.4810575963
 30
0.0
 11
13.37355272666625
 21
-13.37146352987014
 31
0.0
210
0.0
220
0.0
230
1.0
 40
0.1761188775
 41
0.3023035477142499
 42
0.3822730435340378
  0
ELLIPSE
  5
EE
330
1F
100
AcDbEntity
  8
0
  6
Continuous
 62
     7
370
    15
100
AcDbEllipse
 10
142.5630039438
 20
113.7594657254
 30
0.0
 11
13.36963611134306
 21
13.36754752639486
 31
0.0
210
0.0
220
0.0
230
1.0
 40
0.1761188775
 41
5.933076931846594
 42
5.976720052691201
  0
SPLINE
  5
EF
330
1F
100
AcDbEntity
  8
0
  6
Continuous
 62
     7
370
    15
100
AcDbSpline
210
0.0
220
0.0
230
1.0
 70
     8
 71
     3
 72
     8
 73
     4
 74
     0
 42
0.00000001
 43
0.00000001
 12
1.0
 22
0.0
 32
0.0
 13
1.0
 23
0.0
 33
0.0
 40
0.0
 40
0.0
 40
0.0
 40
0.0
 40
1.0
 40
1.0
 40
1.0
 40
1.0
 10
156.1191245823125
 20
125.9859358211046
 30
0.0
 10
156.0733596746232
 20
125.9244154419458
 30
0.0
 10
156.0389725529932
 20
125.8605205821963
 30
0.0
 10
156.0199572993203
 20
125.7937906371526
 30
0.0
  0
SPLINE
  5
F0
330
1F
100
AcDbEntity
  8
0
  6
Continuous
 62
     7
370
    15
100
AcDbSpline
210
0.0
220
0.0
230
1.0
 70
     8
 71
     3
 72
    12
 73
     8
 74
     0
 42
0.00000001
 43
0.00000001
 12
1.0
 22
0.0
 32
0.0
 13
1.0
 23
0.0
 33
0.0
 40
0.0
 40
0.0
 40
0.0
 40
0.0
 40
0.2500000000000014
 40
0.2500000000000014
 40
0.5000000000000028
 40
0.5000000000000028
 40
1.0
 40
1.0
 40
1.0
 40
1.0
 10
157.8691245823126
 20
125.9011491327854
 30
0.0
 10
157.7270821791233
 20
125.9169748609616
 30
0.0
 10
157.5829640726192
 20
125.927995994737
 30
0.0
 10
157.2932095589466
 20
125.9465323566041
 30
0.0
 10
157.1474676555879
 20
125.9538030623399
 30
0.0
 10
156.7087874164081
 20
125.9722639126679
 30
0.0
 10
156.4144118003369
 20
125.9801427794915
 30
0.0
 10
156.1191245823125
 20
125.9859358211046
 30
0.0
  0
SPLINE
  5
F1
330
1F
100
AcDbEntity
  8
0
  6
Continuous
 62
     7
370
    15
100
AcDbSpline
210
0.0
220
0.0
230
1.0
 70
     8
 71
     3
 72
    20
 73
    16
 74
     0
 42
0.00000001
 43
0.00000001
 12
1.0
 22
0.0
 32
0.0
 13
1.0
 23
0.0
 33
0.0
 40
0.0
 40
0.0
 40
0.0
 40
0.0
 40
0.2500000000000013
 40
0.2500000000000013
 40
0.5000000000000027
 40
0.5000000000000027
 40
0.750000000000004
 40
0.750000000000004
 40
0.875000000000006
 40
0.875000000000006
 40
0.9375000000000053
 40
0.9375000000000053
 40
0.9687500000000027
 40
0.9687500000000027
 40
1.0
 40
1.0
 40
1.0
 40
1.0
 10
158.7691245823134
 20
126.6778793958741
 30
0.0
 10
158.7691245823135
 20
126.6172699961767
 30
0.0
 10
158.7437295627365
 20
126.5514440307732
 30
0.0
 10
158.6574363769546
 20
126.4173962614266
 30
0.0
 10
158.5968003982713
 20
126.3487009032848
 30
0.0
 10
158.4486986040501
 20
126.2083023516304
 30
0.0
 10
158.3619289972714
 20
126.136598847049
 30
0.0
 10
158.2132912019422
 20
126.0304354453001
 30
0.0
 10
158.161001985056
 20
125.9949070966686
 30
0.0
 10
158.0702381567461
 20
125.9452031661531
 30
0.0
 10
158.0378721642941
 20
125.928942168138
 30
0.0
 10
157.9801830086279
 20
125.909829599792
 30
0.0
 10
157.9591959807404
 20
125.9044384577105
 30
0.0
 10
157.91390700175
 20
125.898701089318
 30
0.0
 10
157.8908927329115
 20
125.8987238229714
 30
0.0
 10
157.8691245823119
 20
125.9011491327843
 30
0.0
  0
LINE
  5
F2
330
1F
100
AcDbEntity
  8
0
  6
Continuous
 62
     7
370
    15
100
AcDbLine
 10
158.769124332
 20
126.6778796944
 30
0.0
 11
158.769124332
 21
127.5076229158
 31
0.0
  0
SPLINE
  5
F3
330
1F
100
AcDbEntity
  8
0
  6
Continuous
 62
     7
370
    15
100
AcDbSpline
210
0.0
220
0.0
230
1.0
 70
     8
 71
     3
 72
    24
 73
    20
 74
     0
 42
0.00000001
 43
0.00000001
 12
1.0
 22
0.0
 32
0.0
 13
1.0
 23
0.0
 33
0.0
 40
0.0
 40
0.0
 40
0.0
 40
0.0
 40
0.0016643193296813
 40
0.0648792890554526
 40
0.127882629835479
 40
0.1913652263153964
 40
0.2543782098387403
 40
0.3163193264594876
 40
0.3777469775702122
 40
0.4397082275190884
 40
0.5014189034197821
 40
0.562536076452263
 40
0.6237133677268287
 40
0.6863020174790898
 40
0.7490598999921412
 40
0.811592469235191
 40
0.8743360189604256
 40
0.9379727054607176
 40
1.0
 40
1.0
 40
1.0
 40
1.0
 10
166.2536674692253
 20
98.35838862095807
 30
0.0
 10
166.2531900783998
 20
98.3583202101231
 30
0.0
 10
166.2345802017918
 20
98.35565338636091
 30
0.0
 10
166.2977207386009
 20
98.365367949199
 30
0.0
 10
166.4497634956834
 20
98.38757265540697
 30
0.0
 10
166.7176890109484
 20
98.42200840694038
 30
0.0
 10
167.0670027881351
 20
98.46047141760961
 30
0.0
 10
167.4940538500592
 20
98.49469947055698
 30
0.0
 10
167.9814934784742
 20
98.51715203039711
 30
0.0
 10
168.5131438434155
 20
98.52074601812814
 30
0.0
 10
169.0642644459164
 20
98.5037323888749
 30
0.0
 10
169.6117224367031
 20
98.46378662343174
 30
0.0
 10
170.1363566664587
 20
98.4046790107751
 30
0.0
 10
170.6181450648587
 20
98.33231457335394
 30
0.0
 10
171.0430936568683
 20
98.2559939018758
 30
0.0
 10
171.3893099703292
 20
98.18400995588472
 30
0.0
 10
171.6443882824603
 20
98.12562292972103
 30
0.0
 10
171.8045836745978
 20
98.08596327341448
 30
0.0
 10
171.8252177369944
 20
98.08113859795075
 30
0.0
 10
171.8354026368777
 20
98.07875715528462
 30
0.0
  0
SPLINE
  5
F4
330
1F
100
AcDbEntity
  8
0
  6
Continuous
 62
     7
370
    15
100
AcDbSpline
210
0.0
220
0.0
230
1.0
 70
     8
 71
     3
 72
    24
 73
    20
 74
     0
 42
0.00000001
 43
0.00000001
 12
1.0
 22
0.0
 32
0.0
 13
1.0
 23
0.0
 33
0.0
 40
0.0
 40
0.0
 40
0.0
 40
0.0
 40
0.0629034706215385
 40
0.1256338688179741
 40
0.1890239793713884
 40
0.2513957684939822
 40
0.3139906836130308
 40
0.3762905044722344
 40
0.4374458894592898
 40
0.498543195540241
 40
0.5603281747675228
 40
0.6223344559749604
 40
0.6838864964282686
 40
0.7458035579052691
 40
0.8089499376965126
 40
0.8723245876864573
 40
0.9353799443000518
 40
0.9988635323362688
 40
1.0
 40
1.0
 40
1.0
 40
1.0
 10
171.8344037934164
 20
128.1619543242905
 30
0.0
 10
171.8249331671415
 20
128.1595315350219
 30
0.0
 10
171.8060179720451
 20
128.15469262254
 30
0.0
 10
171.6439666756409
 20
128.1147210313625
 30
0.0
 10
171.3874414348953
 20
128.0563770357902
 30
0.0
 10
171.041385298602
 20
127.9841419378019
 30
0.0
 10
170.6174859057086
 20
127.9079926862898
 30
0.0
 10
170.1365029448707
 20
127.8358733847773
 30
0.0
 10
169.6125193878906
 20
127.7769858714695
 30
0.0
 10
169.0649215026836
 20
127.7370743488652
 30
0.0
 10
168.5134451866275
 20
127.7200386012501
 30
0.0
 10
167.9810039068462
 20
127.7236020723417
 30
0.0
 10
167.4930216951601
 20
127.7460353373087
 30
0.0
 10
167.0655095415277
 20
127.7803253521857
 30
0.0
 10
166.7166079867553
 20
127.8188291469724
 30
0.0
 10
166.4493533662646
 20
127.853285174927
 30
0.0
 10
166.2964190617438
 20
127.8753679622651
 30
0.0
 10
166.2353094105803
 20
127.8851966740158
 30
0.0
 10
166.2528925742683
 20
127.8824329316197
 30
0.0
 10
166.253201807938
 20
127.882384325907
 30
0.0
  0
SPLINE
  5
F5
330
1F
100
AcDbEntity
  8
0
  6
Continuous
 62
     7
370
    15
100
AcDbSpline
210
0.0
220
0.0
230
1.0
 70
     8
 71
     3
 72
    26
 73
    22
 74
     0
 42
0.00000001
 43
0.00000001
 12
1.0
 22
0.0
 32
0.0
 13
1.0
 23
0.0
 33
0.0
 40
0.0
 40
0.0
 40
0.0
 40
0.0
 40
0.249999999999998
 40
0.249999999999998
 40
0.3749999999999978
 40
0.3749999999999978
 40
0.4374999999999977
 40
0.4374999999999977
 40
0.4687499999999986
 40
0.4687499999999986
 40
0.4999999999999996
 40
0.4999999999999996
 40
0.5312500000000006
 40
0.5312500000000006
 40
0.5625000000000014
 40
0.5625000000000014
 40
0.6250000000000018
 40
0.6250000000000018
 40
0.750000000000001
 40
0.750000000000001
 40
1.0
 40
1.0
 40
1.0
 40
1.0
 10
155.9290946287004
 20
125.5084358537392
 30
0.0
 10
155.8817065192719
 20
125.3727801117161
 30
0.0
 10
155.8240652173675
 20
125.2288187133869
 30
0.0
 10
155.7020174048242
 20
124.9860461401324
 30
0.0
 10
155.6559683970476
 20
124.901006499683
 30
0.0
 10
155.565315112882
 20
124.7606305266427
 30
0.0
 10
155.5309626125964
 20
124.7107191493039
 30
0.0
 10
155.4685274402059
 20
124.6341838844496
 30
0.0
 10
155.4452334214079
 20
124.6077794054627
 30
0.0
 10
155.3961808842813
 20
124.5601846402017
 30
0.0
 10
155.3717494346245
 20
124.5407420263499
 30
0.0
 10
155.3311198390047
 20
124.5158342486818
 30
0.0
 10
155.3149575571535
 20
124.5097644173708
 30
0.0
 10
155.2879755130504
 20
124.504075545777
 30
0.0
 10
155.2772259902275
 20
124.5044660538578
 30
0.0
 10
155.2491900160705
 20
124.5106084006462
 30
0.0
 10
155.2363287840378
 20
124.5212724070642
 30
0.0
 10
155.2053259228775
 20
124.5602851974244
 30
0.0
 10
155.1944664408083
 20
124.5963371878287
 30
0.0
 10
155.1711891848703
 20
124.7140165853278
 30
0.0
 10
155.1691245823124
 20
124.8053464856608
 30
0.0
 10
155.1691245823124
 20
124.8985867385671
 30
0.0
  0
SPLINE
  5
F6
330
1F
100
AcDbEntity
  8
0
  6
Continuous
 62
     7
370
    15
100
AcDbSpline
210
0.0
220
0.0
230
1.0
 70
     8
 71
     3
 72
    24
 73
    20
 74
     0
 42
0.00000001
 43
0.00000001
 12
1.0
 22
0.0
 32
0.0
 13
1.0
 23
0.0
 33
0.0
 40
0.0
 40
0.0
 40
0.0
 40
0.0
 40
0.2499999999999967
 40
0.2499999999999967
 40
0.374999999999995
 40
0.374999999999995
 40
0.4374999999999933
 40
0.4374999999999933
 40
0.4999999999999917
 40
0.4999999999999917
 40
0.5312499999999918
 40
0.5312499999999918
 40
0.5624999999999919
 40
0.5624999999999919
 40
0.6249999999999933
 40
0.6249999999999933
 40
0.7499999999999956
 40
0.7499999999999956
 40
1.0
 40
1.0
 40
1.0
 40
1.0
 10
155.1691245823125
 20
101.5728420729049
 30
0.0
 10
155.1691245823125
 20
101.6577510265745
 30
0.0
 10
155.1718492107449
 20
101.7400807226214
 30
0.0
 10
155.1982065318628
 20
101.8424931100404
 30
0.0
 10
155.210420250135
 20
101.8733102064248
 30
0.0
 10
155.2450309002674
 20
101.9024077225017
 30
0.0
 10
155.2594176106348
 20
101.9093653631403
 30
0.0
 10
155.3006660937372
 20
101.9082556218634
 30
0.0
 10
155.3292056436681
 20
101.8999622162547
 30
0.0
 10
155.3901283091794
 20
101.8553787823934
 30
0.0
 10
155.4131942793193
 20
101.8349170691361
 30
0.0
 10
155.4570901593255
 20
101.7903044508558
 30
0.0
 10
155.4779701948857
 20
101.7664283726494
 30
0.0
 10
155.5351804581788
 20
101.6965312754874
 30
0.0
 10
155.5675270819551
 20
101.6509536867029
 30
0.0
 10
155.653693025447
 20
101.522070199084
 30
0.0
 10
155.699357045487
 20
101.442237021952
 30
0.0
 10
155.8199046089382
 20
101.2164562128397
 30
0.0
 10
155.8789646976394
 20
101.0816248278684
 30
0.0
 10
155.9290946287004
 20
100.9533696892009
 30
0.0
  0
LINE
  5
F7
330
1F
100
AcDbEntity
  8
0
  6
Continuous
 62
     7
370
    15
100
AcDbLine
 10
155.1691248595
 20
101.572841968
 30
0.0
 11
155.1691248595
 21
124.8985869843
 31
0.0
  0
SPLINE
  5
F8
330
1F
100
AcDbEntity
  8
0
  6
Continuous
 62
     7
370
    15
100
AcDbSpline
210
0.0
220
0.0
230
1.0
 70
    24
 71
     3
 72
    12
 73
     8
 74
     0
 42
0.00000001
 43
0.00000001
 12
1.0
 22
0.0
 32
0.0
 13
1.0
 23
0.0
 33
0.0
 40
0.0
 40
0.0
 40
0.0
 40
0.0
 40
0.5
 40
0.5
 40
0.75
 40
0.75
 40
1.0
 40
1.0
 40
1.0
 40
1.0
 10
191.8607801965625
 20
130.0203552741262
 30
0.0
 10
191.8266344482715
 20
130.0203552741262
 30
0.0
 10
191.7874412898665
 20
130.0203552741262
 30
0.0
 10
191.7095936312128
 20
130.0203552741262
 30
0.0
 10
191.6801891724275
 20
130.0203552741262
 30
0.0
 10
191.6071816511216
 20
130.0203552741262
 30
0.0
 10
191.5602763333137
 20
130.0203552741262
 30
0.0
 10
191.5091245823125
 20
130.0203552741262
 30
0.0
  0
SPLINE
  5
F9
330
1F
100
AcDbEntity
  8
0
  6
Continuous
 62
     7
370
    15
100
AcDbSpline
210
0.0
220
0.0
230
1.0
 70
     8
 71
     3
 72
    10
 73
     6
 74
     0
 42
0.00000001
 43
0.00000001
 12
1.0
 22
0.0
 32
0.0
 13
1.0
 23
0.0
 33
0.0
 40
0.0
 40
0.0
 40
0.0
 40
0.0
 40
0.5
 40
0.5
 40
1.0
 40
1.0
 40
1.0
 40
1.0
 10
192.1091245823125
 20
130.522959245945
 30
0.0
 10
192.1091245823123
 20
130.4264166984685
 30
0.0
 10
192.0871839597309
 20
130.3299554981983
 30
0.0
 10
192.001053774339
 20
130.1545529039541
 30
0.0
 10
191.9379714671954
 20
130.078137371587
 30
0.0
 10
191.8607801965625
 20
130.0203552741263
 30
0.0
  0
SPLINE
  5
FA
330
1F
100
AcDbEntity
  8
0
  6
Continuous
 62
     7
370
    15
100
AcDbSpline
210
0.0
220
0.0
230
1.0
 70
     8
 71
     3
 72
    12
 73
     8
 74
     0
 42
0.00000001
 43
0.00000001
 12
1.0
 22
0.0
 32
0.0
 13
1.0
 23
0.0
 33
0.0
 40
0.0
 40
0.0
 40
0.0
 40
0.0
 40
0.250000000000001
 40
0.250000000000001
 40
0.500000000000002
 40
0.500000000000002
 40
1.0
 40
1.0
 40
1.0
 40
1.0
 10
191.5091245823125
 20
125.8273661342775
 30
0.0
 10
191.6016665490343
 20
125.8273661342775
 30
0.0
 10
191.6938759261787
 20
125.8583994811938
 30
0.0
 10
191.8490128865556
 20
125.9612103470186
 30
0.0
 10
191.9128227840166
 20
126.0313831613642
 30
0.0
 10
192.0619492198177
 20
126.2642956448922
 30
0.0
 10
192.1091245823125
 20
126.4510910069621
 30
0.0
 10
192.1091245823125
 20
126.636202454381
 30
0.0
  0
LINE
  5
FB
330
1F
100
AcDbEntity
  8
0
  6
Continuous
 62
     7
370
    15
100
AcDbLine
 10
194.4191243081
 20
132.6075313646
 30
0.0
 11
193.1042849599
 21
132.6075313646
 31
0.0
  0
LINE
  5
FC
330
1F
100
AcDbEntity
  8
0
  6
Continuous
 62
     7
370
    15
100
AcDbLine
 10
193.1042849599
 20
129.2317645658
 30
0.0
 11
194.4191243081
 21
129.2317645658
 31
0.0
  0
LINE
  5
FD
330
1F
100
AcDbEntity
  8
0
  6
Continuous
 62
     7
370
    15
100
AcDbLine
 10
193.1042849599
 20
129.2317645658
 30
0.0
 11
193.1042849599
 21
132.6075313646
 31
0.0
  0
SPLINE
  5
FE
330
1F
100
AcDbEntity
  8
0
  6
Continuous
 62
     7
370
    15
100
AcDbSpline
210
0.0
220
0.0
230
1.0
 70
     8
 71
     3
 72
     8
 73
     4
 74
     0
 42
0.00000001
 43
0.00000001
 12
1.0
 22
0.0
 32
0.0
 13
1.0
 23
0.0
 33
0.0
 40
0.0
 40
0.0
 40
0.0
 40
0.0
 40
1.0
 40
1.0
 40
1.0
 40
1.0
 10
193.1042842812059
 20
132.6075305440314
 30
0.0
 10
192.7719261848163
 20
132.0167203303594
 30
0.0
 10
192.4401449133322
 20
131.4255876661142
 30
0.0
 10
192.1091245823125
 20
130.8340319696565
 30
0.0
  0
SPLINE
  5
FF
330
1F
100
AcDbEntity
  8
0
  6
Continuous
 62
     7
370
    15
100
AcDbSpline
210
0.0
220
0.0
230
1.0
 70
     8
 71
     3
 72
     8
 73
     4
 74
     0
 42
0.00000001
 43
0.00000001
 12
1.0
 22
0.0
 32
0.0
 13
1.0
 23
0.0
 33
0.0
 40
0.0
 40
0.0
 40
0.0
 40
0.0
 40
1.0
 40
1.0
 40
1.0
 40
1.0
 10
192.1091245823125
 20
127.0344431735816
 30
0.0
 10
192.4326821405674
 20
127.7705595722042
 30
0.0
 10
192.7651764607844
 20
128.5026511676228
 30
0.0
 10
193.1042842812059
 20
129.2317642752037
 30
0.0
  0
LINE
  5
100
330
1F
100
AcDbEntity
  8
0
  6
Continuous
 62
     7
370
    15
100
AcDbLine
 10
192.1091239481
 20
127.0344430614
 30
0.0
 11
192.1091239481
 21
130.8340324122
 31
0.0
  0
SPLINE
  5
101
330
1F
100
AcDbEntity
  8
0
  6
Continuous
 62
     7
370
    15
100
AcDbSpline
210
0.0
220
0.0
230
1.0
 70
     8
 71
     3
 72
     8
 73
     4
 74
     0
 42
0.00000001
 43
0.00000001
 12
1.0
 22
0.0
 32
0.0
 13
1.0
 23
0.0
 33
0.0
 40
0.0
 40
0.0
 40
0.0
 40
0.0
 40
1.0
 40
1.0
 40
1.0
 40
1.0
 10
190.0291245823125
 20
130.8340319696565
 30
0.0
 10
189.6981042512928
 20
131.4255876661142
 30
0.0
 10
189.3663229798087
 20
132.0167203303594
 30
0.0
 10
189.0339648834191
 20
132.6075305440314
 30
0.0
  0
LINE
  5
102
330
1F
100
AcDbEntity
  8
0
  6
Continuous
 62
     7
370
    15
100
AcDbLine
 10
190.0291248738
 20
127.0344430614
 30
0.0
 11
190.0291248738
 21
130.8340324122
 31
0.0
  0
SPLINE
  5
103
330
1F
100
AcDbEntity
  8
0
  6
Continuous
 62
     7
370
    15
100
AcDbSpline
210
0.0
220
0.0
230
1.0
 70
     8
 71
     3
 72
     8
 73
     4
 74
     0
 42
0.00000001
 43
0.00000001
 12
1.0
 22
0.0
 32
0.0
 13
1.0
 23
0.0
 33
0.0
 40
0.0
 40
0.0
 40
0.0
 40
0.0
 40
1.0
 40
1.0
 40
1.0
 40
1.0
 10
189.0339648834191
 20
129.2317642752037
 30
0.0
 10
189.3733879247007
 20
128.5019734136844
 30
0.0
 10
189.7058986681957
 20
127.7698050582627
 30
0.0
 10
190.0291245823124
 20
127.0344431735817
 30
0.0
  0
LINE
  5
104
330
1F
100
AcDbEntity
  8
0
  6
Continuous
 62
     7
370
    15
100
AcDbLine
 10
190.0291248738
 20
127.0344430614
 30
0.0
 11
190.0291248738
 21
126.6362020779
 31
0.0
  0
SPLINE
  5
105
330
1F
100
AcDbEntity
  8
0
  6
Continuous
 62
     7
370
    15
100
AcDbSpline
210
0.0
220
0.0
230
1.0
 70
     8
 71
     3
 72
    12
 73
     8
 74
     0
 42
0.00000001
 43
0.00000001
 12
1.0
 22
0.0
 32
0.0
 13
1.0
 23
0.0
 33
0.0
 40
0.0
 40
0.0
 40
0.0
 40
0.0
 40
0.500000000000002
 40
0.500000000000002
 40
0.750000000000001
 40
0.750000000000001
 40
1.0
 40
1.0
 40
1.0
 40
1.0
 10
190.0291245823125
 20
126.636202454381
 30
0.0
 10
190.0291245823125
 20
126.4504363778029
 30
0.0
 10
190.0756703275691
 20
126.2652630658126
 30
0.0
 10
190.2257712759588
 20
126.0308524624691
 30
0.0
 10
190.2897080922529
 20
125.960756565057
 30
0.0
 10
190.4450758239825
 20
125.8580760472529
 30
0.0
 10
190.5363191069004
 20
125.8273661342774
 30
0.0
 10
190.6291245823125
 20
125.8273661342774
 30
0.0
  0
LINE
  5
106
330
1F
100
AcDbEntity
  8
0
  6
Continuous
 62
     7
370
    15
100
AcDbLine
 10
190.6291247859
 20
125.827366117
 30
0.0
 11
191.5091249674
 21
125.827366117
 31
0.0
  0
LINE
  5
107
330
1F
100
AcDbEntity
  8
0
  6
Continuous
 62
     7
370
    15
100
AcDbLine
 10
192.1091239481
 20
126.6362020779
 30
0.0
 11
192.1091239481
 21
127.0344430614
 31
0.0
  0
SPLINE
  5
108
330
1F
100
AcDbEntity
  8
0
  6
Continuous
 62
     7
370
    15
100
AcDbSpline
210
0.0
220
0.0
230
1.0
 70
     8
 71
     3
 72
    12
 73
     8
 74
     0
 42
0.00000001
 43
0.00000001
 12
1.0
 22
0.0
 32
0.0
 13
1.0
 23
0.0
 33
0.0
 40
0.0
 40
0.0
 40
0.0
 40
0.0
 40
0.25
 40
0.25
 40
0.5
 40
0.5
 40
1.0
 40
1.0
 40
1.0
 40
1.0
 10
194.4191245823125
 20
129.2317642752037
 30
0.0
 10
194.5084129413563
 20
129.2317642752037
 30
0.0
 10
194.5964717722585
 20
129.206139642599
 30
0.0
 10
194.7491254855076
 20
129.1175962696672
 30
0.0
 10
194.8149189788496
 20
129.0547137865525
 30
0.0
 10
194.9703596255656
 20
128.8373525986189
 30
0.0
 10
195.0191245823125
 20
128.6587055886076
 30
0.0
 10
195.0191245823125
 20
128.4806124334319
 30
0.0
  0
LINE
  5
109
330
1F
100
AcDbEntity
  8
0
  6
Continuous
 62
     7
370
    15
100
AcDbLine
 10
195.0191251515
 20
128.4806128625
 30
0.0
 11
195.0191251515
 21
125.9977581013
 31
0.0
  0
SPLINE
  5
10A
330
1F
100
AcDbEntity
  8
0
  6
Continuous
 62
     7
370
    15
100
AcDbSpline
210
0.0
220
0.0
230
1.0
 70
     8
 71
     3
 72
    10
 73
     6
 74
     0
 42
0.00000001
 43
0.00000001
 12
1.0
 22
0.0
 32
0.0
 13
1.0
 23
0.0
 33
0.0
 40
0.0
 40
0.0
 40
0.0
 40
0.0
 40
0.5
 40
0.5
 40
1.0
 40
1.0
 40
1.0
 40
1.0
 10
195.0191245823125
 20
131.9912323072692
 30
0.0
 10
195.0191245823125
 20
132.149666750157
 30
0.0
 10
194.9569633658296
 20
132.308687444959
 30
0.0
 10
194.7364540251579
 20
132.5386952692146
 30
0.0
 10
194.5775389222128
 20
132.6075305440314
 30
0.0
 10
194.4191245823125
 20
132.6075305440314
 30
0.0
  0
LINE
  5
10B
330
1F
100
AcDbEntity
  8
0
  6
Continuous
 62
     7
370
    15
100
AcDbLine
 10
195.0191251515
 20
128.4806128625
 30
0.0
 11
195.0191251515
 21
131.9912323761
 31
0.0
  0
SPLINE
  5
10C
330
1F
100
AcDbEntity
  8
0
  6
Continuous
 62
     7
370
    15
100
AcDbSpline
210
0.0
220
0.0
230
1.0
 70
     8
 71
     3
 72
    10
 73
     6
 74
     0
 42
0.00000001
 43
0.00000001
 12
1.0
 22
0.0
 32
0.0
 13
1.0
 23
0.0
 33
0.0
 40
0.0
 40
0.0
 40
0.0
 40
0.0
 40
0.5
 40
0.5
 40
1.0
 40
1.0
 40
1.0
 40
1.0
 10
190.2774689680625
 20
130.0203552741262
 30
0.0
 10
190.2001442361882
 20
130.0782372749879
 30
0.0
 10
190.1367644106517
 20
130.1553106196218
 30
0.0
 10
190.0511939618787
 20
130.3298136778157
 30
0.0
 10
190.0291245823125
 20
130.4266188812961
 30
0.0
 10
190.0291245823125
 20
130.5229592459461
 30
0.0
  0
SPLINE
  5
10D
330
1F
100
AcDbEntity
  8
0
  6
Continuous
 62
     7
370
    15
100
AcDbSpline
210
0.0
220
0.0
230
1.0
 70
    24
 71
     3
 72
    12
 73
     8
 74
     0
 42
0.00000001
 43
0.00000001
 12
1.0
 22
0.0
 32
0.0
 13
1.0
 23
0.0
 33
0.0
 40
0.0
 40
0.0
 40
0.0
 40
0.0
 40
0.2499999999999989
 40
0.2499999999999989
 40
0.4999999999999978
 40
0.4999999999999978
 40
1.0
 40
1.0
 40
1.0
 40
1.0
 10
190.6291245823125
 20
130.0203552741262
 30
0.0
 10
190.5775323820379
 20
130.0203552741262
 30
0.0
 10
190.5306273732434
 20
130.0203552741262
 30
0.0
 10
190.4572936473669
 20
130.0203552741262
 30
0.0
 10
190.4280638179179
 20
130.0203552741262
 30
0.0
 10
190.3498310378549
 20
130.0203552741262
 30
0.0
 10
190.3113968799473
 20
130.0203552741262
 30
0.0
 10
190.2774689680625
 20
130.0203552741262
 30
0.0
  0
LINE
  5
10E
330
1F
100
AcDbEntity
  8
0
  6
Continuous
 62
     7
370
    15
100
AcDbLine
 10
191.5091249674
 20
130.0203545052
 30
0.0
 11
190.6291247859
 21
130.0203545052
 31
0.0
  0
SPLINE
  5
10F
330
1F
100
AcDbEntity
  8
0
  6
Continuous
 62
     7
370
    15
100
AcDbSpline
210
0.0
220
0.0
230
1.0
 70
     8
 71
     3
 72
    12
 73
     8
 74
     0
 42
0.00000001
 43
0.00000001
 12
1.0
 22
0.0
 32
0.0
 13
1.0
 23
0.0
 33
0.0
 40
0.0
 40
0.0
 40
0.0
 40
0.0
 40
0.4999999999999984
 40
0.4999999999999984
 40
0.7499999999999992
 40
0.7499999999999992
 40
1.0
 40
1.0
 40
1.0
 40
1.0
 10
203.3169524090136
 20
105.7275933603988
 30
0.0
 10
203.3387644643808
 20
105.4492965566235
 30
0.0
 10
203.3538025984674
 20
105.1647901316391
 30
0.0
 10
203.3560590549063
 20
104.7260901886799
 30
0.0
 10
203.3533161118256
 20
104.5769861920093
 30
0.0
 10
203.3404014773153
 20
104.285171324978
 30
0.0
 10
203.3302502468157
 20
104.1412634948241
 30
0.0
 10
203.3169524090136
 20
103.9996654915713
 30
0.0
  0
LINE
  5
110
330
1F
100
AcDbEntity
  8
0
  6
Continuous
 62
     7
370
    15
100
AcDbLine
 10
155.1691248595
 20
101.3018829781
 30
0.0
 11
155.1691248595
 21
101.572841968
 31
0.0
  0
LINE
  5
111
330
1F
100
AcDbEntity
  8
0
  6
Continuous
 62
     7
370
    15
100
AcDbLine
 10
155.1691248595
 20
124.994269203
 30
0.0
 11
155.1691248595
 21
124.8985869843
 31
0.0
  0
LINE
  5
112
330
1F
100
AcDbEntity
  8
0
  6
Continuous
 62
     7
370
    15
100
AcDbLine
 10
156.119124177
 20
126.0003555599
 30
0.0
 11
156.119124177
 21
125.9859358925
 31
0.0
  0
LINE
  5
113
330
1F
100
AcDbEntity
  8
0
  6
Continuous
 62
     7
370
    15
100
AcDbLine
 10
155.1691248595
 20
125.0503553111
 30
0.0
 11
155.1691248595
 21
124.994269203
 31
0.0
  0
LINE
  5
114
330
1F
100
AcDbEntity
  8
0
  6
Continuous
 62
     7
370
    15
100
AcDbLine
 10
156.119124177
 20
100.2993552047
 30
0.0
 11
156.119124177
 21
100.3898201544
 31
0.0
  0
LINE
  5
115
330
1F
100
AcDbEntity
  8
0
  6
Continuous
 62
     7
370
    15
100
AcDbLine
 10
155.1691248595
 20
101.2493554536
 30
0.0
 11
155.1691248595
 21
101.3018829781
 31
0.0
  0
SPLINE
  5
116
330
1F
100
AcDbEntity
  8
0
  6
Continuous
 62
     7
370
    15
100
AcDbSpline
210
0.0
220
0.0
230
1.0
 70
     8
 71
     3
 72
    10
 73
     6
 74
     0
 42
0.00000001
 43
0.00000001
 12
1.0
 22
0.0
 32
0.0
 13
1.0
 23
0.0
 33
0.0
 40
0.0
 40
0.0
 40
0.0
 40
0.0
 40
0.5
 40
0.5
 40
1.0
 40
1.0
 40
1.0
 40
1.0
 10
210.2677234206226
 20
95.924705056404
 30
0.0
 10
210.2108959234024
 20
96.13838233975098
 30
0.0
 10
210.085680558404
 20
96.32766658759878
 30
0.0
 10
209.7387200799138
 20
96.59838014282614
 30
0.0
 10
209.5231175048371
 20
96.67408369962308
 30
0.0
 10
209.3017975943349
 20
96.67503571500063
 30
0.0
  0
SPLINE
  5
117
330
1F
100
AcDbEntity
  8
0
  6
Continuous
 62
     7
370
    15
100
AcDbSpline
210
0.0
220
0.0
230
1.0
 70
     8
 71
     3
 72
    10
 73
     6
 74
     0
 42
0.00000001
 43
0.00000001
 12
1.0
 22
0.0
 32
0.0
 13
1.0
 23
0.0
 33
0.0
 40
0.0
 40
0.0
 40
0.0
 40
0.0
 40
0.5
 40
0.5
 40
1.0
 40
1.0
 40
1.0
 40
1.0
 10
209.3017975943336
 20
129.33528895986
 30
0.0
 10
209.5231077038495
 20
129.3374549567913
 30
0.0
 10
209.7374938881361
 20
129.4136613841367
 30
0.0
 10
210.085298545948
 20
129.6863758089648
 30
0.0
 10
210.2108982938835
 20
129.8769382315958
 30
0.0
 10
210.2677234206226
 20
130.0909183228812
 30
0.0
  0
LINE
  5
118
330
1F
100
AcDbEntity
  8
0
  6
Continuous
 62
     7
370
    15
100
AcDbLine
 10
210.4710500269
 20
130.856242593
 30
0.0
 11
210.2677236824
 21
130.0909189541
 31
0.0
  0
ELLIPSE
  5
119
330
1F
100
AcDbEntity
  8
0
  6
Continuous
 62
     7
370
    15
100
AcDbEllipse
 10
251.2999252379
 20
113.1203552741
 30
0.0
 11
343.4604568210816
 21
0.9446345866476662
 31
0.0
210
0.0
220
0.0
230
1.0
 40
0.0523355614
 41
1.675543683152977
 42
1.689809200104943
  0
LINE
  5
11A
330
1F
100
AcDbEntity
  8
0
  6
Continuous
 62
     7
370
    15
100
AcDbLine
 10
225.963798496
 20
97.232817303
 30
0.0
 11
215.3399373918
 21
130.8982620049
 31
0.0
  0
LINE
  5
11B
330
1F
100
AcDbEntity
  8
0
  6
Continuous
 62
     7
370
    15
100
AcDbLine
 10
215.5311043887
 20
100.4658207331
 30
0.0
 11
216.2960107951
 21
100.2267446402
 31
0.0
  0
ARC
  5
11C
330
1F
100
AcDbEntity
  8
0
  6
Continuous
 62
     7
370
    15
100
AcDbCircle
 10
215.0775513907
 20
99.0197214106
 30
0.0
 40
1.515557182148899
100
AcDbArc
 50
72.5865461218
 51
252.4417543265
  0
LINE
  5
11D
330
1F
100
AcDbEntity
  8
0
  6
Continuous
 62
     7
370
    15
100
AcDbLine
 10
216.8366547256
 20
96.8820532817
 30
0.0
 11
214.6203454166
 21
97.5747728754
 31
0.0
  0
LINE
  5
11E
330
1F
100
AcDbEntity
  8
0
  6
Continuous
 62
     7
370
    15
100
AcDbLine
 10
211.1789967447
 20
92.5037195939
 30
0.0
 11
218.9886282711
 21
90.0627734173
 31
0.0
  0
SPLINE
  5
11F
330
1F
100
AcDbEntity
  8
0
  6
Continuous
 62
     7
370
    15
100
AcDbSpline
210
0.0
220
0.0
230
1.0
 70
     8
 71
     3
 72
     8
 73
     4
 74
     0
 42
0.00000001
 43
0.00000001
 12
1.0
 22
0.0
 32
0.0
 13
1.0
 23
0.0
 33
0.0
 40
0.0000007797602128
 40
0.0000007797602128
 40
0.0000007797602128
 40
0.0000007797602128
 40
0.0035483328763706
 40
0.0035483328763706
 40
0.0035483328763706
 40
0.0035483328763706
 10
210.2677234206226
 20
95.924705056404
 30
0.0
 10
210.5710263680196
 20
94.78425451747238
 30
0.0
 10
210.8748593856775
 20
93.64394626610796
 30
0.0
 10
211.1789975636663
 20
92.50372031308468
 30
0.0
  0
LINE
  5
120
330
1F
100
AcDbEntity
  8
0
  6
Continuous
 62
     7
370
    15
100
AcDbLine
 10
210.4710500269
 20
130.856242593
 30
0.0
 11
210.4710500269
 21
131.1203544993
 31
0.0
  0
ELLIPSE
  5
121
330
1F
100
AcDbEntity
  8
0
  6
Continuous
 62
     7
370
    15
100
AcDbEllipse
 10
220.8931014866
 20
113.1203552741
 30
0.0
 11
-5.731116147359133
 21
17.99903516144769
 31
0.0
210
0.0
220
0.0
230
1.0
 40
0.0325187276
 41
6.115580136044299
 42
6.272831310786007
  0
LINE
  5
122
330
1F
100
AcDbEntity
  8
0
  6
Continuous
 62
     7
370
    15
100
AcDbLine
 10
211.1789967447
 20
92.5037195939
 30
0.0
 11
211.1766647129
 21
92.5112633068
 31
0.0
  0
ARC
  5
123
330
1F
100
AcDbEntity
  8
0
  6
Continuous
 62
     7
370
    15
100
AcDbCircle
 10
214.9638756724
 20
99.1331686367
 30
0.0
 40
1.249270404686342
100
AcDbArc
 50
72.5968797552
 51
252.4314689854
  0
LINE
  5
124
330
1F
100
AcDbEntity
  8
0
  6
Continuous
 62
     7
370
    15
100
AcDbLine
 10
216.0371738999
 20
100.1065714318
 30
0.0
 11
215.3375234037
 21
100.3252524916
 31
0.0
  0
LINE
  5
125
330
1F
100
AcDbEntity
  8
0
  6
Continuous
 62
     7
370
    15
100
AcDbLine
 10
216.7117010384
 20
97.2780143875
 30
0.0
 11
214.5867880016
 21
97.9421684552
 31
0.0
  0
LWPOLYLINE
  5
126
330
1F
100
AcDbEntity
  8
0
  6
Continuous
 62
     7
370
    15
100
AcDbPolyline
 90
        3
 70
   128
 43
0.0
 10
214.0405002563
 20
98.2892956618
 10
214.1880850821
 20
98.1736635823
 10
214.5082849591
 20
98.0205643955
  0
LINE
  5
127
330
1F
100
AcDbEntity
  8
0
  6
Continuous
 62
     7
370
    15
100
AcDbLine
 10
214.5082849591
 20
98.0205643955
 30
0.0
 11
216.6928436189
 21
97.3377680439
 31
0.0
  0
LINE
  5
128
330
1F
100
AcDbEntity
  8
0
  6
HIDDEN
 62
     7
370
     0
100
AcDbLine
 10
183.0191250472
 20
93.1203557212
 30
0.0
 11
183.0191250472
 21
93.1453710455
 31
0.0
  0
SPLINE
  5
129
330
1F
100
AcDbEntity
  8
0
  6
HIDDEN
 62
     7
370
     0
100
AcDbSpline
210
0.0
220
0.0
230
1.0
 70
     8
 71
     3
 72
    22
 73
    18
 74
     0
 42
0.00000001
 43
0.00000001
 12
1.0
 22
0.0
 32
0.0
 13
1.0
 23
0.0
 33
0.0
 40
0.0
 40
0.0
 40
0.0
 40
0.0
 40
0.125
 40
0.125
 40
0.25
 40
0.25
 40
0.375
 40
0.375
 40
0.5
 40
0.5
 40
0.625
 40
0.625
 40
0.75
 40
0.75
 40
0.875
 40
0.875
 40
1.0
 40
1.0
 40
1.0
 40
1.0
 10
183.0191245823125
 20
93.14537091868809
 30
0.0
 10
183.0191245823125
 20
93.16032651129743
 30
0.0
 10
183.0485730034427
 20
93.18171470794378
 30
0.0
 10
183.1634108696665
 20
93.2360929545591
 30
0.0
 10
183.2502237082043
 20
93.26953911816746
 30
0.0
 10
183.4758710805003
 20
93.34430339356521
 30
0.0
 10
183.6137082221644
 20
93.38540188252614
 30
0.0
 10
183.9389091820688
 20
93.47195481148991
 30
0.0
 10
184.1276114619768
 20
93.5176057105878
 30
0.0
 10
184.539943182209
 20
93.60588526575266
 30
0.0
 10
184.7650901085609
 20
93.64898661575991
 30
0.0
 10
185.2550659599182
 20
93.72919079561517
 30
0.0
 10
185.5157736020401
 20
93.76548564300472
 30
0.0
 10
186.0566309827557
 20
93.82566486215444
 30
0.0
 10
186.3403216088097
 20
93.84995219958553
 30
0.0
 10
186.9244039797392
 20
93.8829502938969
 30
0.0
 10
187.2199715347311
 20
93.89147075109686
 30
0.0
 10
187.5191245823125
 20
93.89147075109686
 30
0.0
  0
LINE
  5
12A
330
1F
100
AcDbEntity
  8
0
  6
HIDDEN
 62
     7
370
     0
100
AcDbLine
 10
187.5191248535
 20
93.8914703238
 30
0.0
 11
189.0339647933
 21
93.8914703238
 31
0.0
  0
LINE
  5
12B
330
1F
100
AcDbEntity
  8
0
  6
HIDDEN
 62
     7
370
     0
100
AcDbLine
 10
189.0339647933
 20
132.6075313646
 30
0.0
 11
189.0339647933
 21
93.8914703238
 31
0.0
  0
LINE
  5
12C
330
1F
100
AcDbEntity
  8
0
  6
HIDDEN
 62
     7
370
     0
100
AcDbLine
 10
187.5191248535
 20
132.6075313646
 30
0.0
 11
189.0339647933
 21
132.6075313646
 31
0.0
  0
SPLINE
  5
12D
330
1F
100
AcDbEntity
  8
0
  6
HIDDEN
 62
     7
370
     0
100
AcDbSpline
210
0.0
220
0.0
230
1.0
 70
     8
 71
     3
 72
    17
 73
    13
 74
     0
 42
0.00000001
 43
0.00000001
 12
1.0
 22
0.0
 32
0.0
 13
1.0
 23
0.0
 33
0.0
 40
0.0
 40
0.0
 40
0.0
 40
0.0
 40
0.0659340435969183
 40
0.1690661462905225
 40
0.2751488405985667
 40
0.379123145219446
 40
0.485986792297652
 40
0.5922065347858924
 40
0.7014821075588975
 40
0.8079660909051144
 40
0.9176704333646215
 40
1.0
 40
1.0
 40
1.0
 40
1.0
 10
183.0346520571927
 20
133.1168679553721
 30
0.0
 10
183.033215511959
 20
133.1171873245967
 30
0.0
 10
183.0295319646837
 20
133.1180062418222
 30
0.0
 10
183.1634091854654
 20
133.0880791857965
 30
0.0
 10
183.4131272635425
 20
133.034651706295
 30
0.0
 10
183.7825207594608
 20
132.9611244194073
 30
0.0
 10
184.252106071178
 20
132.8772718277307
 30
0.0
 10
184.8211535662409
 20
132.7903323715523
 30
0.0
 10
185.4667915941706
 20
132.7113073814539
 30
0.0
 10
186.1796044462022
 20
132.6492542863686
 30
0.0
 10
186.8709478763212
 20
132.6132716709886
 30
0.0
 10
187.3246232731074
 20
132.6092538859271
 30
0.0
 10
187.5191248535136
 20
132.6075313646052
 30
0.0
  0
SPLINE
  5
12E
330
1F
100
AcDbEntity
  8
0
  6
HIDDEN
 62
     7
370
     0
100
AcDbSpline
210
0.0
220
0.0
230
1.0
 70
     8
 71
     3
 72
    76
 73
    72
 74
     0
 42
0.00000001
 43
0.00000001
 12
1.0
 22
0.0
 32
0.0
 13
1.0
 23
0.0
 33
0.0
 40
-0.03125
 40
-0.03125
 40
0.0
 40
0.0
 40
0.03125
 40
0.03125
 40
0.0624999999999999
 40
0.0624999999999999
 40
0.0937499999999999
 40
0.0937499999999999
 40
0.1249999999999998
 40
0.1249999999999998
 40
0.1562499999999998
 40
0.1562499999999998
 40
0.1874999999999997
 40
0.1874999999999997
 40
0.2031249999999997
 40
0.2031249999999997
 40
0.2187499999999997
 40
0.2187499999999997
 40
0.2499999999999997
 40
0.2499999999999997
 40
0.2812499999999996
 40
0.2812499999999996
 40
0.3124999999999997
 40
0.3124999999999997
 40
0.3437499999999997
 40
0.3437499999999997
 40
0.3749999999999998
 40
0.3749999999999998
 40
0.4062499999999999
 40
0.4062499999999999
 40
0.4374999999999999
 40
0.4374999999999999
 40
0.46875
 40
0.46875
 40
0.484375
 40
0.484375
 40
0.5
 40
0.5
 40
0.5312500000000001
 40
0.5312500000000001
 40
0.5625000000000001
 40
0.5625000000000001
 40
0.5937500000000002
 40
0.5937500000000002
 40
0.6250000000000002
 40
0.6250000000000002
 40
0.6562500000000003
 40
0.6562500000000003
 40
0.6875000000000003
 40
0.6875000000000003
 40
0.7187500000000004
 40
0.7187500000000004
 40
0.7343750000000004
 40
0.7343750000000004
 40
0.7500000000000003
 40
0.7500000000000003
 40
0.7812500000000003
 40
0.7812500000000003
 40
0.8125000000000003
 40
0.8125000000000003
 40
0.8437500000000002
 40
0.8437500000000002
 40
0.8750000000000002
 40
0.8750000000000002
 40
0.9062500000000001
 40
0.9062500000000001
 40
0.9375000000000001
 40
0.9375000000000001
 40
0.96875
 40
0.96875
 40
1.0
 40
1.0
 40
1.03125
 40
1.03125
 10
177.0691245823125
 20
113.452089918172
 30
0.0
 10
177.0691245823125
 20
112.7886206300805
 30
0.0
 10
177.1018095180305
 20
112.4626861675678
 30
0.0
 10
177.2296337600413
 20
111.821865311625
 30
0.0
 10
177.3264120332969
 20
111.5035798695826
 30
0.0
 10
177.5778647072814
 20
110.8986735313326
 30
0.0
 10
177.7315448879762
 20
110.6119902146087
 30
0.0
 10
178.0943774112903
 20
110.0694737944588
 30
0.0
 10
178.3046403684473
 20
109.8136807058647
 30
0.0
 10
178.7639440488697
 20
109.3545592443103
 30
0.0
 10
179.0147849082454
 20
109.1480831866813
 30
0.0
 10
179.5608163007111
 20
108.7825763556329
 30
0.0
 10
179.8496874134105
 20
108.6281401510144
 30
0.0
 10
180.3004368695601
 20
108.4408020593938
 30
0.0
 10
180.453923185233
 20
108.385590039033
 30
0.0
 10
180.7675520887976
 20
108.2899529690691
 30
0.0
 10
180.9286562729307
 20
108.2493745040806
 30
0.0
 10
181.4131531409329
 20
108.1526407115202
 30
0.0
 10
181.7384342105487
 20
108.1205629892816
 30
0.0
 10
182.3935035834749
 20
108.1201495506411
 30
0.0
 10
182.7263249161091
 20
108.1529279769186
 30
0.0
 10
183.3686335128348
 20
108.2810864480247
 30
0.0
 10
183.6809549942811
 20
108.3758902423697
 30
0.0
 10
184.2879343088342
 20
108.6276023194224
 30
0.0
 10
184.5784943273365
 20
108.7834624445309
 30
0.0
 10
185.1186838615433
 20
109.1447088945932
 30
0.0
 10
185.3726886114908
 20
109.3528984086102
 30
0.0
 10
185.8359126233674
 20
109.8160286585855
 30
0.0
 10
186.0418793042344
 20
110.0669988757547
 30
0.0
 10
186.4039332109301
 20
110.6073491998615
 30
0.0
 10
186.5610791373909
 20
110.9001957378017
 30
0.0
 10
186.8118148513115
 20
111.5036756200312
 30
0.0
 10
186.9069847422225
 20
111.8153965040015
 30
0.0
 10
187.0038152248939
 20
112.2982966742308
 30
0.0
 10
187.0284404720842
 20
112.462810742057
 30
0.0
 10
187.0609831762712
 20
112.7909213898394
 30
0.0
 10
187.0690549441493
 20
112.9547105487623
 30
0.0
 10
187.0692625159822
 20
113.445298095728
 30
0.0
 10
187.037627197193
 20
113.771323813863
 30
0.0
 10
186.9082868029586
 20
114.4212346982366
 30
0.0
 10
186.8127869492654
 20
114.7340397091163
 30
0.0
 10
186.5630467913499
 20
115.336426862883
 30
0.0
 10
186.406586294923
 20
115.6289502634783
 30
0.0
 10
186.0434827909473
 20
116.1717647449154
 30
0.0
 10
185.8375567407178
 20
116.4226576371966
 30
0.0
 10
185.3768420569638
 20
116.8840352469094
 30
0.0
 10
185.1210585783755
 20
117.0941789556079
 30
0.0
 10
184.5810854089183
 20
117.4557478253755
 30
0.0
 10
184.2945046963117
 20
117.6099163553766
 30
0.0
 10
183.6863660115891
 20
117.8630344234566
 30
0.0
 10
183.371625976851
 20
117.9587425870771
 30
0.0
 10
182.8916511695174
 20
118.0549348338826
 30
0.0
 10
182.7299265210041
 20
118.0792200492486
 30
0.0
 10
182.4029282056286
 20
118.1119055544689
 30
0.0
 10
182.2366764046971
 20
118.1202679069403
 30
0.0
 10
181.7419042621864
 20
118.1205279369378
 30
0.0
 10
181.4164646216328
 20
118.0883764841271
 30
0.0
 10
180.7741765538481
 20
117.9608417549326
 30
0.0
 10
180.4550099939031
 20
117.863902324397
 30
0.0
 10
179.8518339505323
 20
117.6137088966301
 30
0.0
 10
179.5647014393039
 20
117.460330302208
 30
0.0
 10
179.0193571487063
 20
117.0960862917537
 30
0.0
 10
178.7655737052984
 20
116.8875609411681
 30
0.0
 10
178.3063808665207
 20
116.4289874180918
 30
0.0
 10
178.0975209390884
 20
116.175498988586
 30
0.0
 10
177.7325088165746
 20
115.6305947677258
 30
0.0
 10
177.5788817878213
 20
115.3438621654357
 30
0.0
 10
177.3281912739538
 20
114.7420255904592
 30
0.0
 10
177.2307453633003
 20
114.4234528166401
 30
0.0
 10
177.1018186537014
 20
113.7790270314227
 30
0.0
 10
177.0691245823125
 20
113.452089918172
 30
0.0
 10
177.0691245823125
 20
112.7886206300805
 30
0.0
  0
LINE
  5
12F
330
1F
100
AcDbEntity
  8
0
  6
HIDDEN
 62
     7
370
     0
100
AcDbLine
 10
175.0691245823
 20
93.4203552115
 30
0.0
 11
175.0691245823
 21
132.8203553367
 31
0.0
  0
SPLINE
  5
130
330
1F
100
AcDbEntity
  8
0
  6
HIDDEN
 62
     7
370
     0
100
AcDbSpline
210
0.0
220
0.0
230
1.0
 70
     8
 71
     3
 72
    10
 73
     6
 74
     0
 42
0.00000001
 43
0.00000001
 12
1.0
 22
0.0
 32
0.0
 13
1.0
 23
0.0
 33
0.0
 40
0.0
 40
0.0
 40
0.0
 40
0.0
 40
0.5
 40
0.5
 40
1.0
 40
1.0
 40
1.0
 40
1.0
 10
190.0643469828939
 20
96.22035527412628
 30
0.0
 10
190.0526348659307
 20
96.1860119369323
 30
0.0
 10
190.0438367960587
 20
96.15091939919408
 30
0.0
 10
190.0320232382865
 20
96.07924762380335
 30
0.0
 10
190.0291245823125
 20
96.04330396943809
 30
0.0
 10
190.0291245823125
 20
96.00747635209798
 30
0.0
  0
LINE
  5
131
330
1F
100
AcDbEntity
  8
0
  6
HIDDEN
 62
     7
370
     0
100
AcDbLine
 10
190.0291248738
 20
96.0074761916
 30
0.0
 11
190.0291248738
 21
124.9703556332
 31
0.0
  0
SPLINE
  5
132
330
1F
100
AcDbEntity
  8
0
  6
HIDDEN
 62
     7
370
     0
100
AcDbSpline
210
0.0
220
0.0
230
1.0
 70
     8
 71
     3
 72
    10
 73
     6
 74
     0
 42
0.00000001
 43
0.00000001
 12
1.0
 22
0.0
 32
0.0
 13
1.0
 23
0.0
 33
0.0
 40
0.0
 40
0.0
 40
0.0
 40
0.0
 40
0.5
 40
0.5
 40
1.0
 40
1.0
 40
1.0
 40
1.0
 10
192.1091245823125
 20
96.00747635209797
 30
0.0
 10
192.1091245823125
 20
96.0436988415386
 30
0.0
 10
192.1061548530151
 20
96.07989203879707
 30
0.0
 10
192.0942758706672
 20
96.1515305302117
 30
0.0
 10
192.0854806428266
 20
96.1864038548533
 30
0.0
 10
192.0739021817314
 20
96.22035527412562
 30
0.0
  0
LINE
  5
133
330
1F
100
AcDbEntity
  8
0
  6
HIDDEN
 62
     7
370
     0
100
AcDbLine
 10
192.1091239481
 20
96.0074761916
 30
0.0
 11
192.1091239481
 21
124.9703556332
 31
0.0
  0
SPLINE
  5
134
330
1F
100
AcDbEntity
  8
0
  6
HIDDEN
 62
     7
370
     0
100
AcDbSpline
210
0.0
220
0.0
230
1.0
 70
     8
 71
     3
 72
     9
 73
     5
 74
     0
 42
0.00000001
 43
0.00000001
 12
1.0
 22
0.0
 32
0.0
 13
1.0
 23
0.0
 33
0.0
 40
0.0
 40
0.0
 40
0.0
 40
0.0
 40
0.5
 40
1.0
 40
1.0
 40
1.0
 40
1.0
 10
195.0191867054358
 20
130.0203552741262
 30
0.0
 10
195.0191659927325
 20
130.0222781424602
 30
0.0
 10
195.0191349314141
 20
130.0261234314491
 30
0.0
 10
195.0191245823125
 20
130.0299678257695
 30
0.0
 10
195.0191245823125
 20
130.031889799414
 30
0.0
  0
SPLINE
  5
135
330
1F
100
AcDbEntity
  8
0
  6
HIDDEN
 62
     7
370
     0
100
AcDbSpline
210
0.0
220
0.0
230
1.0
 70
    24
 71
     3
 72
    10
 73
     6
 74
     0
 42
0.00000001
 43
0.00000001
 12
1.0
 22
0.0
 32
0.0
 13
1.0
 23
0.0
 33
0.0
 40
0.0
 40
0.0
 40
0.0
 40
0.0
 40
0.5
 40
0.5
 40
1.0
 40
1.0
 40
1.0
 40
1.0
 10
195.0191867054358
 20
130.0203552741262
 30
0.0
 10
195.0213400259232
 20
130.0203552741262
 30
0.0
 10
195.0765568840354
 20
130.0203552741262
 30
0.0
 10
195.1765019077179
 20
130.0203552741262
 30
0.0
 10
195.2191237228314
 20
130.0203552741262
 30
0.0
 10
195.2191245822977
 20
130.0203552741262
 30
0.0
  0
SPLINE
  5
136
330
1F
100
AcDbEntity
  8
0
  6
HIDDEN
 62
     7
370
     0
100
AcDbSpline
210
0.0
220
0.0
230
1.0
 70
     8
 71
     3
 72
     9
 73
     5
 74
     0
 42
0.00000001
 43
0.00000001
 12
1.0
 22
0.0
 32
0.0
 13
1.0
 23
0.0
 33
0.0
 40
0.0
 40
0.0
 40
0.0
 40
0.0
 40
0.5
 40
1.0
 40
1.0
 40
1.0
 40
1.0
 10
195.0191245823125
 20
130.031889799414
 30
0.0
 10
195.0191245823125
 20
130.029966674931
 30
0.0
 10
195.0191349438101
 20
130.0261211300861
 30
0.0
 10
195.019166005126
 20
130.0222769919085
 30
0.0
 10
195.0191867054358
 20
130.0203552741262
 30
0.0
  0
LINE
  5
137
330
1F
100
AcDbEntity
  8
0
  6
HIDDEN
 62
     7
370
     0
100
AcDbLine
 10
195.0191251515
 20
130.0318898666
 30
0.0
 11
195.0191251515
 21
96.220356043
 31
0.0
  0
SPLINE
  5
138
330
1F
100
AcDbEntity
  8
0
  6
HIDDEN
 62
     7
370
     0
100
AcDbSpline
210
0.0
220
0.0
230
1.0
 70
    24
 71
     3
 72
    10
 73
     6
 74
     0
 42
0.00000001
 43
0.00000001
 12
1.0
 22
0.0
 32
0.0
 13
1.0
 23
0.0
 33
0.0
 40
0.0
 40
0.0
 40
0.0
 40
0.0
 40
0.5
 40
0.5
 40
1.0
 40
1.0
 40
1.0
 40
1.0
 10
195.0191245823125
 20
96.22035527412628
 30
0.0
 10
195.0191245823125
 20
96.22035527412628
 30
0.0
 10
195.0745718409274
 20
96.22035527412628
 30
0.0
 10
195.1756143756472
 20
96.22035527412629
 30
0.0
 10
195.2191237305234
 20
96.22035527412628
 30
0.0
 10
195.2191245822983
 20
96.22035527412628
 30
0.0
  0
LINE
  5
139
330
1F
100
AcDbEntity
  8
0
  6
HIDDEN
 62
     7
370
     0
100
AcDbLine
 10
195.0191251515
 20
125.9977581013
 30
0.0
 11
195.0191251515
 21
130.0318898666
 31
0.0
  0
LINE
  5
13A
330
1F
100
AcDbEntity
  8
0
  6
HIDDEN
 62
     7
370
     0
100
AcDbLine
 10
195.0191251515
 20
96.220356043
 30
0.0
 11
195.0191251515
 21
124.9703556332
 31
0.0
  0
LINE
  5
13B
330
1F
100
AcDbEntity
  8
0
  6
HIDDEN
 62
     7
370
     0
100
AcDbLine
 10
183.0191250472
 20
124.9703556332
 30
0.0
 11
187.512794654
 21
124.9703556332
 31
0.0
  0
SPLINE
  5
13C
330
1F
100
AcDbEntity
  8
0
  6
HIDDEN
 62
     7
370
     0
100
AcDbSpline
210
0.0
220
0.0
230
1.0
 70
    11
 71
     3
 72
    30
 73
    26
 74
     0
 42
0.00000001
 43
0.00000001
 12
1.0
 22
0.0
 32
0.0
 13
1.0
 23
0.0
 33
0.0
 40
0.0
 40
0.0
 40
0.0
 40
0.0
 40
0.023809759820345
 40
0.077191512575363
 40
0.1305976903585666
 40
0.1835268511933761
 40
0.2364815313346731
 40
0.28960883102185
 40
0.3416115340672014
 40
0.3427921193844701
 40
0.3454169115365471
 40
0.3959558466163915
 40
0.4489879305512358
 40
0.501868120913255
 40
0.5550945659425506
 40
0.6094844512898588
 40
0.6650740027754635
 40
0.7203263718799305
 40
0.7733544607513223
 40
0.824274626742031
 40
0.8751504821217525
 40
0.9279373378185131
 40
0.9511401987424535
 40
0.9829378371522972
 40
1.0
 40
1.0
 40
1.0
 40
1.0
 10
200.4082474439363
 20
114.97367776797
 30
0.0
 10
200.2842851167165
 20
114.9533151818418
 30
0.0
 10
199.8823978397068
 20
114.8872994456462
 30
0.0
 10
199.1877951473035
 20
115.0274388354174
 30
0.0
 10
198.4405665988062
 20
115.4309775382624
 30
0.0
 10
197.8710891519448
 20
116.065046035109
 30
0.0
 10
197.555449074079
 20
116.8328549806191
 30
0.0
 10
197.4719002718022
 20
117.6656014961813
 30
0.0
 10
197.7088172338779
 20
118.1556259466328
 30
0.0
 10
197.7741210691344
 20
118.4323108996268
 30
0.0
 10
197.9695693479092
 20
118.6367446689012
 30
0.0
 10
198.1991099848076
 20
119.1290800322876
 30
0.0
 10
198.9208435228327
 20
119.5582718956039
 30
0.0
 10
199.7282223056438
 20
119.7843790783405
 30
0.0
 10
200.5897908990601
 20
119.7448824295532
 30
0.0
 10
201.4016144163837
 20
119.4502559023723
 30
0.0
 10
202.0745975748581
 20
118.9153763738857
 30
0.0
 10
202.511985810791
 20
118.1947957421082
 30
0.0
 10
202.6551689405514
 20
117.3875351425329
 30
0.0
 10
202.5114926717717
 20
116.5889911745966
 30
0.0
 10
202.1042085896638
 20
115.8922822741143
 30
0.0
 10
201.6246013968708
 20
115.3924610602291
 30
0.0
 10
201.0868015141934
 20
115.2058969182485
 30
0.0
 10
200.7579003127065
 20
114.997587226405
 30
0.0
 10
200.4987458729211
 20
114.9798661010841
 30
0.0
 10
200.4082474439363
 20
114.97367776797
 30
0.0
  0
LINE
  5
13D
330
1F
100
AcDbEntity
  8
0
  6
HIDDEN
 62
     7
370
     0
100
AcDbLine
 10
175.0691245823
 20
96.9131538678
 30
0.0
 11
175.0691245823
 21
129.3275566805
 31
0.0
  0
LINE
  5
13E
330
1F
100
AcDbEntity
  8
0
  6
HIDDEN
 62
     7
370
     0
100
AcDbLine
 10
173.0691244873
 20
128.2240558449
 30
0.0
 11
173.0691244873
 21
98.0166547034
 31
0.0
  0
SPLINE
  5
13F
330
1F
100
AcDbEntity
  8
0
  6
HIDDEN
 62
     7
370
     0
100
AcDbSpline
210
0.0
220
0.0
230
1.0
 70
     8
 71
     3
 72
     8
 73
     4
 74
     0
 42
0.00000001
 43
0.00000001
 12
1.0
 22
0.0
 32
0.0
 13
1.0
 23
0.0
 33
0.0
 40
0.000003532078448
 40
0.000003532078448
 40
0.000003532078448
 40
0.000003532078448
 40
0.0000638548434643
 40
0.0000638548434643
 40
0.0000638548434643
 40
0.0000638548434643
 10
156.1106084327434
 20
100.4171775745827
 30
0.0
 10
156.1131576038656
 20
100.408016371244
 30
0.0
 10
156.1159995266473
 20
100.3988953679352
 30
0.0
 10
156.1191245823125
 20
100.3898197231669
 30
0.0
  0
SPLINE
  5
140
330
1F
100
AcDbEntity
  8
0
  6
HIDDEN
 62
     7
370
     0
100
AcDbSpline
210
0.0
220
0.0
230
1.0
 70
     8
 71
     3
 72
     8
 73
     4
 74
     0
 42
0.00000001
 43
0.00000001
 12
1.0
 22
0.0
 32
0.0
 13
1.0
 23
0.0
 33
0.0
 40
0.0000002108190109
 40
0.0000002108190109
 40
0.0000002108190109
 40
0.0000002108190109
 40
0.0001710235456397
 40
0.0001710235456397
 40
0.0001710235456397
 40
0.0001710235456397
 10
156.1191245823125
 20
100.3898197231669
 30
0.0
 10
156.1731127684023
 20
100.3954498657704
 30
0.0
 10
156.2267024284782
 20
100.401745259232
 30
0.0
 10
156.2793331475969
 20
100.4091750116751
 30
0.0
  0
SPLINE
  5
141
330
1F
100
AcDbEntity
  8
0
  6
HIDDEN
 62
     7
370
     0
100
AcDbSpline
210
0.0
220
0.0
230
1.0
 70
     8
 71
     3
 72
    10
 73
     6
 74
     0
 42
0.00000001
 43
0.00000001
 12
1.0
 22
0.0
 32
0.0
 13
1.0
 23
0.0
 33
0.0
 40
0.0
 40
0.0
 40
0.0
 40
0.0
 40
0.5
 40
0.5
 40
1.0
 40
1.0
 40
1.0
 40
1.0
 10
156.2793331475969
 20
100.4091750116751
 30
0.0
 10
156.9375911584992
 20
100.5020997169921
 30
0.0
 10
157.6149334670362
 20
100.5780348341147
 30
0.0
 10
158.9842794807172
 20
100.7168529196523
 30
0.0
 10
159.6755995615896
 20
100.7787995759388
 30
0.0
 10
160.3691245823125
 20
100.8364819755734
 30
0.0
  0
SPLINE
  5
142
330
1F
100
AcDbEntity
  8
0
  6
HIDDEN
 62
     7
370
     0
100
AcDbSpline
210
0.0
220
0.0
230
1.0
 70
     8
 71
     3
 72
    16
 73
    12
 74
     0
 42
0.00000001
 43
0.00000001
 12
1.0
 22
0.0
 32
0.0
 13
1.0
 23
0.0
 33
0.0
 40
0.0
 40
0.0
 40
0.0
 40
0.0
 40
0.0624999999999993
 40
0.0624999999999993
 40
0.1249999999999985
 40
0.1249999999999985
 40
0.2499999999999985
 40
0.2499999999999985
 40
0.4999999999999984
 40
0.4999999999999984
 40
1.0
 40
1.0
 40
1.0
 40
1.0
 10
160.3691245823125
 20
100.8364819755734
 30
0.0
 10
160.4004403816397
 20
100.8390865974655
 30
0.0
 10
160.4331547200654
 20
100.8373176970055
 30
0.0
 10
160.4944612735422
 20
100.8257828025555
 30
0.0
 10
160.5229721637602
 20
100.8162558252093
 30
0.0
 10
160.5988661371165
 20
100.7827422250844
 30
0.0
 10
160.6382057221496
 20
100.7543547107645
 30
0.0
 10
160.739641503131
 20
100.6663337605566
 30
0.0
 10
160.784466862737
 20
100.6047011083495
 30
0.0
 10
160.8987492177022
 20
100.4213129146743
 30
0.0
 10
160.9435631255449
 20
100.3006949202094
 30
0.0
 10
160.9778893798273
 20
100.1863519269183
 30
0.0
  0
SPLINE
  5
143
330
1F
100
AcDbEntity
  8
0
  6
HIDDEN
 62
     7
370
     0
100
AcDbSpline
210
0.0
220
0.0
230
1.0
 70
     8
 71
     3
 72
    10
 73
     6
 74
     0
 42
0.00000001
 43
0.00000001
 12
1.0
 22
0.0
 32
0.0
 13
1.0
 23
0.0
 33
0.0
 40
0.0
 40
0.0
 40
0.0
 40
0.0
 40
0.5
 40
0.5
 40
1.0
 40
1.0
 40
1.0
 40
1.0
 10
160.9778893798272
 20
100.1863519269183
 30
0.0
 10
161.0157637827719
 20
100.0601898188657
 30
0.0
 10
161.0965548300978
 20
99.9422307778838
 30
0.0
 10
161.2216847726891
 20
99.71918479529481
 30
0.0
 10
161.2691245823125
 20
99.61438972179945
 30
0.0
 10
161.2691245823125
 20
99.51677908840203
 30
0.0
  0
LINE
  5
144
330
1F
100
AcDbEntity
  8
0
  6
HIDDEN
 62
     7
370
     0
100
AcDbLine
 10
161.2691247418
 20
99.5167788151
 30
0.0
 11
161.2691247418
 21
98.6078368533
 31
0.0
  0
LINE
  5
145
330
1F
100
AcDbEntity
  8
0
  6
HIDDEN
 62
     7
370
     0
100
AcDbLine
 10
158.769124332
 20
127.5076229158
 30
0.0
 11
158.769124332
 21
126.6778796944
 31
0.0
  0
SPLINE
  5
146
330
1F
100
AcDbEntity
  8
0
  6
HIDDEN
 62
     7
370
     0
100
AcDbSpline
210
0.0
220
0.0
230
1.0
 70
     8
 71
     3
 72
    20
 73
    16
 74
     0
 42
0.00000001
 43
0.00000001
 12
1.0
 22
0.0
 32
0.0
 13
1.0
 23
0.0
 33
0.0
 40
0.0
 40
0.0
 40
0.0
 40
0.0
 40
0.2500000000000001
 40
0.2500000000000001
 40
0.5000000000000001
 40
0.5000000000000001
 40
0.7500000000000002
 40
0.7500000000000002
 40
0.8749999999999993
 40
0.8749999999999993
 40
0.9374999999999977
 40
0.9374999999999977
 40
0.9687499999999989
 40
0.9687499999999989
 40
1.0
 40
1.0
 40
1.0
 40
1.0
 10
158.7691245823134
 20
126.6778793958741
 30
0.0
 10
158.7691245823135
 20
126.6172699961768
 30
0.0
 10
158.7437295627365
 20
126.5514440307732
 30
0.0
 10
158.6574363769546
 20
126.4173962614266
 30
0.0
 10
158.5968003982713
 20
126.3487009032848
 30
0.0
 10
158.4486986040501
 20
126.2083023516304
 30
0.0
 10
158.3619289972714
 20
126.136598847049
 30
0.0
 10
158.2132912019422
 20
126.0304354453001
 30
0.0
 10
158.161001985056
 20
125.9949070966686
 30
0.0
 10
158.0702381567461
 20
125.9452031661531
 30
0.0
 10
158.0378721642941
 20
125.928942168138
 30
0.0
 10
157.9801830086279
 20
125.909829599792
 30
0.0
 10
157.9591959807404
 20
125.9044384577105
 30
0.0
 10
157.9139070017499
 20
125.898701089318
 30
0.0
 10
157.8908927329115
 20
125.8987238229714
 30
0.0
 10
157.8691245823119
 20
125.9011491327843
 30
0.0
  0
SPLINE
  5
147
330
1F
100
AcDbEntity
  8
0
  6
HIDDEN
 62
     7
370
     0
100
AcDbSpline
210
0.0
220
0.0
230
1.0
 70
     8
 71
     3
 72
    12
 73
     8
 74
     0
 42
0.00000001
 43
0.00000001
 12
1.0
 22
0.0
 32
0.0
 13
1.0
 23
0.0
 33
0.0
 40
0.0
 40
0.0
 40
0.0
 40
0.0
 40
0.2500000000000014
 40
0.2500000000000014
 40
0.5000000000000028
 40
0.5000000000000028
 40
1.0
 40
1.0
 40
1.0
 40
1.0
 10
157.8691245823125
 20
125.9011491327854
 30
0.0
 10
157.7270821791233
 20
125.9169748609616
 30
0.0
 10
157.5829640726192
 20
125.927995994737
 30
0.0
 10
157.2932095589466
 20
125.9465323566041
 30
0.0
 10
157.1474676555879
 20
125.9538030623399
 30
0.0
 10
156.708787416408
 20
125.9722639126679
 30
0.0
 10
156.4144118003368
 20
125.9801427794915
 30
0.0
 10
156.1191245823125
 20
125.9859358211046
 30
0.0
  0
SPLINE
  5
148
330
1F
100
AcDbEntity
  8
0
  6
HIDDEN
 62
     7
370
     0
100
AcDbSpline
210
0.0
220
0.0
230
1.0
 70
     8
 71
     3
 72
     8
 73
     4
 74
     0
 42
0.00000001
 43
0.00000001
 12
1.0
 22
0.0
 32
0.0
 13
1.0
 23
0.0
 33
0.0
 40
0.0
 40
0.0
 40
0.0
 40
0.0
 40
1.0
 40
1.0
 40
1.0
 40
1.0
 10
156.1191245823125
 20
125.9859358211046
 30
0.0
 10
156.0733596746232
 20
125.9244154419458
 30
0.0
 10
156.0389725529932
 20
125.8605205821963
 30
0.0
 10
156.0199572993203
 20
125.7937906371526
 30
0.0
  0
ELLIPSE
  5
149
330
1F
100
AcDbEntity
  8
0
  6
HIDDEN
 62
     7
370
     0
100
AcDbEllipse
 10
142.5630039438
 20
113.7594657254
 30
0.0
 11
13.36963611134306
 21
13.36754752639486
 31
0.0
210
0.0
220
0.0
230
1.0
 40
0.1761188775
 41
5.9330769318466
 42
5.976720052691197
  0
ELLIPSE
  5
14A
330
1F
100
AcDbEntity
  8
0
  6
HIDDEN
 62
     7
370
     0
100
AcDbEllipse
 10
142.6423823745
 20
112.4810575963
 30
0.0
 11
13.37355272666628
 21
-13.37146352987014
 31
0.0
210
0.0
220
0.0
230
1.0
 40
0.1761188775
 41
0.3023035477142535
 42
0.3822730435340352
  0
SPLINE
  5
14B
330
1F
100
AcDbEntity
  8
0
  6
HIDDEN
 62
     7
370
     0
100
AcDbSpline
210
0.0
220
0.0
230
1.0
 70
     8
 71
     3
 72
    11
 73
     7
 74
     0
 42
0.00000001
 43
0.00000001
 12
1.0
 22
0.0
 32
0.0
 13
1.0
 23
0.0
 33
0.0
 40
0.0
 40
0.0
 40
0.0
 40
0.0
 40
0.25946967059813
 40
0.3326084702733429
 40
0.6701731790694504
 40
1.0
 40
1.0
 40
1.0
 40
1.0
 10
166.7181161745409
 20
98.42160027806494
 30
0.0
 10
166.6525558787548
 20
98.41310886220914
 30
0.0
 10
166.5685155759255
 20
98.40222390277728
 30
0.0
 10
166.3916419024876
 20
98.37961576968499
 30
0.0
 10
166.2897582493535
 20
98.36302028966155
 30
0.0
 10
166.2656043808022
 20
98.35992053075802
 30
0.0
 10
166.2536674692253
 20
98.35838862095807
 30
0.0
  0
SPLINE
  5
14C
330
1F
100
AcDbEntity
  8
0
  6
HIDDEN
 62
     7
370
     0
100
AcDbSpline
210
0.0
220
0.0
230
1.0
 70
     8
 71
     3
 72
    22
 73
    18
 74
     0
 42
0.00000001
 43
0.00000001
 12
1.0
 22
0.0
 32
0.0
 13
1.0
 23
0.0
 33
0.0
 40
0.0
 40
0.0
 40
0.0
 40
0.0
 40
0.0022119868471047
 40
0.0799684029100432
 40
0.1575272209552896
 40
0.2358577835459358
 40
0.3136122147965963
 40
0.3900719927085506
 40
0.4660893518218608
 40
0.5423589988219177
 40
0.6186534337227994
 40
0.6937723094550358
 40
0.7691592430128827
 40
0.8459429920566703
 40
0.9207581226786524
 40
0.9231032778326366
 40
1.0
 40
1.0
 40
1.0
 40
1.0
 10
171.8354026368777
 20
98.07875715528462
 30
0.0
 10
171.835912751679
 20
98.07863445897407
 30
0.0
 10
171.854354572894
 20
98.07419870565529
 30
0.0
 10
171.7907076514794
 20
98.089996079766
 30
0.0
 10
171.638275553533
 20
98.12684262322426
 30
0.0
 10
171.3716912139665
 20
98.18713223471705
 30
0.0
 10
171.0248624879786
 20
98.2595978778725
 30
0.0
 10
170.6010654299554
 20
98.3359728609337
 30
0.0
 10
170.117752625389
 20
98.4072665516253
 30
0.0
 10
169.589003177707
 20
98.46514605746067
 30
0.0
 10
169.0398113535855
 20
98.5048950721221
 30
0.0
 10
168.4903280770614
 20
98.52172951714819
 30
0.0
 10
167.9648041339817
 20
98.51647624899987
 30
0.0
 10
167.4765717275272
 20
98.49374561584204
 30
0.0
 10
167.209397085783
 20
98.46960049616213
 30
0.0
 10
166.9250480341216
 20
98.44763463851577
 30
0.0
 10
166.8200280769523
 20
98.43442194412924
 30
0.0
 10
166.7181161745409
 20
98.42160027806494
 30
0.0
  0
SPLINE
  5
14D
330
1F
100
AcDbEntity
  8
0
  6
HIDDEN
 62
     7
370
     0
100
AcDbSpline
210
0.0
220
0.0
230
1.0
 70
     8
 71
     3
 72
    22
 73
    18
 74
     0
 42
0.00000001
 43
0.00000001
 12
1.0
 22
0.0
 32
0.0
 13
1.0
 23
0.0
 33
0.0
 40
0.0
 40
0.0
 40
0.0
 40
0.0
 40
0.0769496979898115
 40
0.0780938880527605
 40
0.1541394023339273
 40
0.230948519945297
 40
0.3064555519845071
 40
0.3815281636167389
 40
0.4579812553650078
 40
0.5341646018648127
 40
0.6102700516631084
 40
0.6865845638039152
 40
0.7642917144352694
 40
0.8424373723746879
 40
0.9199456372638479
 40
0.9982050360904
 40
0.9999999999999999
 40
0.9999999999999999
 40
0.9999999999999999
 40
0.9999999999999999
 10
166.7179978965739
 20
127.8190953690264
 30
0.0
 10
166.8201051914303
 20
127.8063060885471
 30
0.0
 10
166.9237307528319
 20
127.7933266401007
 30
0.0
 10
167.2077883720645
 20
127.7713152011171
 30
0.0
 10
167.4751964450372
 20
127.7471784622816
 30
0.0
 10
167.9660960270554
 20
127.7242749842553
 30
0.0
 10
168.491822962722
 20
127.7189587452759
 30
0.0
 10
169.0418896292834
 20
127.7358198876107
 30
0.0
 10
169.5911066592147
 20
127.7757116525281
 30
0.0
 10
170.1199721844547
 20
127.8337373074446
 30
0.0
 10
170.6028013837354
 20
127.9050073098923
 30
0.0
 10
171.0263248341114
 20
127.9813193029765
 30
0.0
 10
171.3725839740734
 20
128.0536545137873
 30
0.0
 10
171.6384321564765
 20
128.1138622853997
 30
0.0
 10
171.7918451775661
 20
128.1507737345855
 30
0.0
 10
171.8526051174294
 20
128.1665372064832
 30
0.0
 10
171.8348029502702
 20
128.1620548273548
 30
0.0
 10
171.8344037934164
 20
128.1619543242905
 30
0.0
  0
SPLINE
  5
14E
330
1F
100
AcDbEntity
  8
0
  6
HIDDEN
 62
     7
370
     0
100
AcDbSpline
210
0.0
220
0.0
230
1.0
 70
     8
 71
     3
 72
    10
 73
     6
 74
     0
 42
0.00000001
 43
0.00000001
 12
1.0
 22
0.0
 32
0.0
 13
1.0
 23
0.0
 33
0.0
 40
0.0
 40
0.0
 40
0.0
 40
0.0
 40
0.3343825542418548
 40
0.6655473131622539
 40
0.9999999999999999
 40
0.9999999999999999
 40
0.9999999999999999
 40
0.9999999999999999
 10
166.253201807938
 20
127.882384325907
 30
0.0
 10
166.2629084854434
 20
127.8808104738244
 30
0.0
 10
166.2822284321675
 20
127.8776779149885
 30
0.0
 10
166.439799876382
 20
127.8536225285319
 30
0.0
 10
166.6249603462127
 20
127.8306422604784
 30
0.0
 10
166.7179978965739
 20
127.8190953690264
 30
0.0
  0
SPLINE
  5
14F
330
1F
100
AcDbEntity
  8
0
  6
HIDDEN
 62
     7
370
     0
100
AcDbSpline
210
0.0
220
0.0
230
1.0
 70
    11
 71
     3
 72
    50
 73
    46
 74
     0
 42
0.00000001
 43
0.00000001
 12
1.0
 22
0.0
 32
0.0
 13
1.0
 23
0.0
 33
0.0
 40
0.0
 40
0.0
 40
0.0
 40
0.0
 40
0.0625000000000002
 40
0.0625000000000002
 40
0.1250000000000004
 40
0.1250000000000004
 40
0.1562500000000005
 40
0.1562500000000005
 40
0.1875000000000006
 40
0.1875000000000006
 40
0.2187500000000007
 40
0.2187500000000007
 40
0.2500000000000008
 40
0.2500000000000008
 40
0.2812500000000009
 40
0.2812500000000009
 40
0.3125000000000011
 40
0.3125000000000011
 40
0.3750000000000011
 40
0.3750000000000011
 40
0.4375000000000011
 40
0.4375000000000011
 40
0.5000000000000011
 40
0.5000000000000011
 40
0.5312500000000012
 40
0.5312500000000012
 40
0.5625000000000012
 40
0.5625000000000012
 40
0.5937500000000012
 40
0.5937500000000012
 40
0.6250000000000012
 40
0.6250000000000012
 40
0.6562500000000012
 40
0.6562500000000012
 40
0.6875000000000012
 40
0.6875000000000012
 40
0.7500000000000009
 40
0.7500000000000009
 40
0.8125000000000007
 40
0.8125000000000007
 40
0.8750000000000004
 40
0.8750000000000004
 40
0.9375000000000002
 40
0.9375000000000002
 40
1.0
 40
1.0
 40
1.0
 40
1.0
 10
170.89330131019
 20
100.4475449806464
 30
0.0
 10
170.7470464753884
 20
100.4685975064718
 30
0.0
 10
170.57557783843
 20
100.4908787311539
 30
0.0
 10
170.18243323292
 20
100.5317202215028
 30
0.0
 10
169.9671890473548
 20
100.5494778564237
 30
0.0
 10
169.6244492608051
 20
100.5677511492673
 30
0.0
 10
169.5062028777496
 20
100.5724610882813
 30
0.0
 10
169.2704238755713
 20
100.5784601833401
 30
0.0
 10
169.1518575658654
 20
100.579816015736
 30
0.0
 10
168.9133624850648
 20
100.5791216037253
 30
0.0
 10
168.792570091543
 20
100.5770231007339
 30
0.0
 10
168.5575041260778
 20
100.5696399512081
 30
0.0
 10
168.4424486135778
 20
100.5643771879372
 30
0.0
 10
168.2172288588349
 20
100.5511234258887
 30
0.0
 10
168.1061466892326
 20
100.5430443512112
 30
0.0
 10
167.8948952422969
 20
100.5251086242162
 30
0.0
 10
167.7945370077962
 20
100.5152723890027
 30
0.0
 10
167.5088930507728
 20
100.4842567205813
 30
0.0
 10
167.3386143071769
 20
100.4614250263626
 30
0.0
 10
167.0624631772567
 20
100.4207277520319
 30
0.0
 10
166.9527639908719
 20
100.4024017024597
 30
0.0
 10
166.8072209097079
 20
100.3773741032148
 30
0.0
 10
166.7692142742507
 20
100.3703714538473
 30
0.0
 10
166.7690799808928
 20
100.3703472283805
 30
0.0
 10
166.7781977361351
 20
100.3720018156367
 30
0.0
 10
166.8151162816487
 20
100.3785844589095
 30
0.0
 10
166.8430899366734
 20
100.3835407004322
 30
0.0
 10
166.9158615161257
 20
100.3960573731305
 30
0.0
 10
166.9607867542874
 20
100.403641912444
 30
0.0
 10
167.0678300692429
 20
100.4209501678172
 30
0.0
 10
167.1303981102093
 20
100.4307344596099
 30
0.0
 10
167.2687890129488
 20
100.451139661276
 30
0.0
 10
167.3449724687232
 20
100.461824616199
 30
0.0
 10
167.5113282025343
 20
100.4834083537764
 30
0.0
 10
167.602356504979
 20
100.4943944627776
 30
0.0
 10
167.8890103216519
 20
100.5255515465437
 30
0.0
 10
168.1010623797696
 20
100.5442477335799
 30
0.0
 10
168.5542396557241
 20
100.5709950142953
 30
0.0
 10
168.788869304464
 20
100.5787006209971
 30
0.0
 10
169.2702928539227
 20
100.5802186284953
 30
0.0
 10
169.5055982241911
 20
100.574029940263
 30
0.0
 10
169.9655058758667
 20
100.5496246045701
 30
0.0
 10
170.1799343878258
 20
100.5319414506448
 30
0.0
 10
170.5731335725912
 20
100.4911705336122
 30
0.0
 10
170.7470426442563
 20
100.4685980579408
 30
0.0
 10
170.89330131019
 20
100.4475449806464
 30
0.0
  0
SPLINE
  5
150
330
1F
100
AcDbEntity
  8
0
  6
HIDDEN
 62
     7
370
     0
100
AcDbSpline
210
0.0
220
0.0
230
1.0
 70
    11
 71
     3
 72
    50
 73
    46
 74
     0
 42
0.00000001
 43
0.00000001
 12
1.0
 22
0.0
 32
0.0
 13
1.0
 23
0.0
 33
0.0
 40
0.0
 40
0.0
 40
0.0
 40
0.0
 40
0.0625000000000002
 40
0.0625000000000002
 40
0.1250000000000003
 40
0.1250000000000003
 40
0.1562500000000003
 40
0.1562500000000003
 40
0.1875000000000004
 40
0.1875000000000004
 40
0.2187500000000004
 40
0.2187500000000004
 40
0.2500000000000004
 40
0.2500000000000004
 40
0.2812500000000005
 40
0.2812500000000005
 40
0.3125000000000006
 40
0.3125000000000006
 40
0.3750000000000006
 40
0.3750000000000006
 40
0.4375000000000006
 40
0.4375000000000006
 40
0.5000000000000007
 40
0.5000000000000007
 40
0.5312500000000007
 40
0.5312500000000007
 40
0.5625000000000006
 40
0.5625000000000006
 40
0.5937500000000006
 40
0.5937500000000006
 40
0.6250000000000007
 40
0.6250000000000007
 40
0.6562500000000007
 40
0.6562500000000007
 40
0.6875000000000008
 40
0.6875000000000008
 40
0.7500000000000007
 40
0.7500000000000007
 40
0.8125000000000006
 40
0.8125000000000006
 40
0.8750000000000003
 40
0.8750000000000003
 40
0.9375000000000002
 40
0.9375000000000002
 40
1.0
 40
1.0
 40
1.0
 40
1.0
 10
170.89330131019
 20
125.7931655676061
 30
0.0
 10
170.7470464753884
 20
125.7721130417807
 30
0.0
 10
170.57557783843
 20
125.7498318170987
 30
0.0
 10
170.18243323292
 20
125.7089903267498
 30
0.0
 10
169.9671890473548
 20
125.6912326918288
 30
0.0
 10
169.6244492608051
 20
125.6729593989852
 30
0.0
 10
169.5062028777496
 20
125.6682494599712
 30
0.0
 10
169.2704238755713
 20
125.6622503649124
 30
0.0
 10
169.1518575658654
 20
125.6608945325166
 30
0.0
 10
168.9133624850648
 20
125.6615889445273
 30
0.0
 10
168.792570091543
 20
125.6636874475186
 30
0.0
 10
168.5575041260778
 20
125.6710705970444
 30
0.0
 10
168.4424486135778
 20
125.6763333603153
 30
0.0
 10
168.2172288588349
 20
125.6895871223638
 30
0.0
 10
168.1061466892326
 20
125.6976661970413
 30
0.0
 10
167.8948952422969
 20
125.7156019240363
 30
0.0
 10
167.7945370077962
 20
125.7254381592498
 30
0.0
 10
167.5088930507728
 20
125.7564538276712
 30
0.0
 10
167.338614307177
 20
125.7792855218899
 30
0.0
 10
167.0624631772567
 20
125.8199827962206
 30
0.0
 10
166.9527639908719
 20
125.8383088457928
 30
0.0
 10
166.807220909708
 20
125.8633364450377
 30
0.0
 10
166.7692142742507
 20
125.8703390944052
 30
0.0
 10
166.7690799808928
 20
125.870363319872
 30
0.0
 10
166.7781977361351
 20
125.8687087326159
 30
0.0
 10
166.8151162816487
 20
125.862126089343
 30
0.0
 10
166.8430899366734
 20
125.8571698478203
 30
0.0
 10
166.9158615161257
 20
125.844653175122
 30
0.0
 10
166.9607867542874
 20
125.8370686358085
 30
0.0
 10
167.0678300692429
 20
125.8197603804354
 30
0.0
 10
167.1303981102093
 20
125.8099760886426
 30
0.0
 10
167.2687890129488
 20
125.7895708869766
 30
0.0
 10
167.3449724687232
 20
125.7788859320535
 30
0.0
 10
167.5113282025343
 20
125.7573021944761
 30
0.0
 10
167.602356504979
 20
125.746316085475
 30
0.0
 10
167.8890103216519
 20
125.7151590017089
 30
0.0
 10
168.1010623797696
 20
125.6964628146727
 30
0.0
 10
168.5542396557241
 20
125.6697155339572
 30
0.0
 10
168.788869304464
 20
125.6620099272554
 30
0.0
 10
169.2702928539227
 20
125.6604919197572
 30
0.0
 10
169.5055982241911
 20
125.6666806079895
 30
0.0
 10
169.9655058758667
 20
125.6910859436824
 30
0.0
 10
170.1799343878258
 20
125.7087690976077
 30
0.0
 10
170.5731335725912
 20
125.7495400146403
 30
0.0
 10
170.7470426442563
 20
125.7721124903117
 30
0.0
 10
170.89330131019
 20
125.7931655676061
 30
0.0
  0
SPLINE
  5
151
330
1F
100
AcDbEntity
  8
0
  6
HIDDEN
 62
     7
370
     0
100
AcDbSpline
210
0.0
220
0.0
230
1.0
 70
    11
 71
     3
 72
    14
 73
    10
 74
     0
 42
0.00000001
 43
0.00000001
 12
1.0
 22
0.0
 32
0.0
 13
1.0
 23
0.0
 33
0.0
 40
0.0
 40
0.0
 40
0.0
 40
0.0
 40
0.2499999999999998
 40
0.2499999999999998
 40
0.4999999999999997
 40
0.4999999999999997
 40
0.7499999999999998
 40
0.7499999999999998
 40
1.0
 40
1.0
 40
1.0
 40
1.0
 10
170.89330131019
 20
125.7931655676062
 30
0.0
 10
171.0471772058928
 20
125.8153151004581
 30
0.0
 10
171.1650577735219
 20
125.8281271675318
 30
0.0
 10
171.3281215634345
 20
125.8444798763622
 30
0.0
 10
171.3690380820582
 20
125.8476556390801
 30
0.0
 10
171.3692108145744
 20
125.8476703412568
 30
0.0
 10
171.3282830563406
 20
125.8444907902634
 30
0.0
 10
171.165945690875
 20
125.8282214587859
 30
0.0
 10
171.0471754227689
 20
125.8153148437879
 30
0.0
 10
170.89330131019
 20
125.7931655676062
 30
0.0
  0
SPLINE
  5
152
330
1F
100
AcDbEntity
  8
0
  6
HIDDEN
 62
     7
370
     0
100
AcDbSpline
210
0.0
220
0.0
230
1.0
 70
    11
 71
     3
 72
    14
 73
    10
 74
     0
 42
0.00000001
 43
0.00000001
 12
1.0
 22
0.0
 32
0.0
 13
1.0
 23
0.0
 33
0.0
 40
0.0
 40
0.0
 40
0.0
 40
0.0
 40
0.25
 40
0.25
 40
0.5
 40
0.5
 40
0.75
 40
0.75
 40
1.0
 40
1.0
 40
1.0
 40
1.0
 10
170.89330131019
 20
100.4475449806464
 30
0.0
 10
171.0471772058928
 20
100.4253954477944
 30
0.0
 10
171.1650577735219
 20
100.4125833807208
 30
0.0
 10
171.3281215634345
 20
100.3962306718903
 30
0.0
 10
171.3690380820582
 20
100.3930549091724
 30
0.0
 10
171.3692108145744
 20
100.3930402069957
 30
0.0
 10
171.3282830563406
 20
100.3962197579891
 30
0.0
 10
171.165945690875
 20
100.4124890894666
 30
0.0
 10
171.0471754227689
 20
100.4253957044646
 30
0.0
 10
170.89330131019
 20
100.4475449806464
 30
0.0
  0
LINE
  5
153
330
1F
100
AcDbEntity
  8
0
  6
HIDDEN
 62
     7
370
     0
100
AcDbLine
 10
175.0691245823
 20
102.6203554157
 30
0.0
 11
175.0691245823
 21
123.6203551326
 31
0.0
  0
LINE
  5
154
330
1F
100
AcDbEntity
  8
0
  6
HIDDEN
 62
     7
370
     0
100
AcDbLine
 10
163.0717740907
 20
123.6203551326
 30
0.0
 11
163.0717740907
 21
102.6203554157
 31
0.0
  0
LINE
  5
155
330
1F
100
AcDbEntity
  8
0
  6
HIDDEN
 62
     7
370
     0
100
AcDbLine
 10
192.1091239481
 20
126.6362020779
 30
0.0
 11
192.1091239481
 21
130.5229594964
 31
0.0
  0
LINE
  5
156
330
1F
100
AcDbEntity
  8
0
  6
HIDDEN
 62
     7
370
     0
100
AcDbLine
 10
187.512794654
 20
124.9703556332
 30
0.0
 11
195.3482489615
 21
124.9703556332
 31
0.0
  0
LINE
  5
157
330
1F
100
AcDbEntity
  8
0
  6
HIDDEN
 62
     7
370
     0
100
AcDbLine
 10
190.0291248738
 20
126.6362020779
 30
0.0
 11
190.0291248738
 21
130.5229594964
 31
0.0
  0
SPLINE
  5
158
330
1F
100
AcDbEntity
  8
0
  6
HIDDEN
 62
     7
370
     0
100
AcDbSpline
210
0.0
220
0.0
230
1.0
 70
     8
 71
     3
 72
    14
 73
    10
 74
     0
 42
0.00000001
 43
0.00000001
 12
1.0
 22
0.0
 32
0.0
 13
1.0
 23
0.0
 33
0.0
 40
0.0
 40
0.0
 40
0.0
 40
0.0
 40
0.25
 40
0.25
 40
0.5
 40
0.5
 40
0.75
 40
0.75
 40
1.0
 40
1.0
 40
1.0
 40
1.0
 10
193.3012968504021
 20
109.9927275711437
 30
0.0
 10
193.3671490142599
 20
110.1058856097328
 30
0.0
 10
193.4415483579616
 20
110.2146833951296
 30
0.0
 10
193.6113226514653
 20
110.4214198165125
 30
0.0
 10
193.7074563510797
 20
110.5190776311076
 30
0.0
 10
193.915374033497
 20
110.7131535608134
 30
0.0
 10
194.025891908881
 20
110.810148632838
 30
0.0
 10
194.2476955902044
 20
111.0357569421368
 30
0.0
 10
194.3573915582876
 20
111.1649048668311
 30
0.0
 10
194.4664346188059
 20
111.2952805650533
 30
0.0
  0
ARC
  5
159
330
1F
100
AcDbEntity
  8
0
  6
HIDDEN
 62
     7
370
     0
100
AcDbCircle
 10
189.1456439543
 20
114.8823613378
 30
0.0
 40
6.417006371748497
100
AcDbArc
 50
310.3608915888
 51
326.0136089197
  0
SPLINE
  5
15A
330
1F
100
AcDbEntity
  8
0
  6
HIDDEN
 62
     7
370
     0
100
AcDbSpline
210
0.0
220
0.0
230
1.0
 70
     8
 71
     3
 72
    14
 73
    10
 74
     0
 42
0.00000001
 43
0.00000001
 12
1.0
 22
0.0
 32
0.0
 13
1.0
 23
0.0
 33
0.0
 40
0.0
 40
0.0
 40
0.0
 40
0.0
 40
0.25
 40
0.25
 40
0.5
 40
0.5
 40
0.75
 40
0.75
 40
1.0
 40
1.0
 40
1.0
 40
1.0
 10
194.4664346188059
 20
111.2952805650533
 30
0.0
 10
194.3737547113995
 20
111.147110657043
 30
0.0
 10
194.2744061495518
 20
111.0078109868776
 30
0.0
 10
194.0835283608005
 20
110.7334494178778
 30
0.0
 10
193.9925018090701
 20
110.5985774889085
 30
0.0
 10
193.8185963757304
 20
110.353824658125
 30
0.0
 10
193.732083923325
 20
110.2406735308948
 30
0.0
 10
193.5365690749451
 20
110.0699337471289
 30
0.0
 10
193.4237959009529
 20
110.0133729558581
 30
0.0
 10
193.3012968504021
 20
109.9927275711436
 30
0.0
  0
SPLINE
  5
15B
330
1F
100
AcDbEntity
  8
0
  6
HIDDEN
 62
     7
370
     0
100
AcDbSpline
210
0.0
220
0.0
230
1.0
 70
     8
 71
     3
 72
    64
 73
    60
 74
     0
 42
0.00000001
 43
0.00000001
 12
1.0
 22
0.0
 32
0.0
 13
1.0
 23
0.0
 33
0.0
 40
-0.03125
 40
-0.03125
 40
0.0
 40
0.0
 40
0.0624999999999998
 40
0.0624999999999998
 40
0.1249999999999995
 40
0.1249999999999995
 40
0.1874999999999993
 40
0.1874999999999993
 40
0.2187499999999993
 40
0.2187499999999993
 40
0.2499999999999993
 40
0.2499999999999993
 40
0.2812499999999994
 40
0.2812499999999994
 40
0.3124999999999994
 40
0.3124999999999994
 40
0.3437499999999995
 40
0.3437499999999995
 40
0.3749999999999995
 40
0.3749999999999995
 40
0.4062499999999996
 40
0.4062499999999996
 40
0.4374999999999996
 40
0.4374999999999996
 40
0.4687499999999997
 40
0.4687499999999997
 40
0.4999999999999997
 40
0.4999999999999997
 40
0.5312499999999997
 40
0.5312499999999997
 40
0.5624999999999997
 40
0.5624999999999997
 40
0.5937499999999997
 40
0.5937499999999997
 40
0.6249999999999997
 40
0.6249999999999997
 40
0.6562499999999997
 40
0.6562499999999997
 40
0.6874999999999997
 40
0.6874999999999997
 40
0.7187499999999997
 40
0.7187499999999997
 40
0.7499999999999996
 40
0.7499999999999996
 40
0.7812499999999996
 40
0.7812499999999996
 40
0.8124999999999996
 40
0.8124999999999996
 40
0.8437499999999996
 40
0.8437499999999996
 40
0.8749999999999997
 40
0.8749999999999997
 40
0.9062499999999998
 40
0.9062499999999998
 40
0.9374999999999999
 40
0.9374999999999999
 40
0.96875
 40
0.96875
 40
1.0
 40
1.0
 40
1.0625
 40
1.0625
 10
197.0707147179175
 20
110.7408318049587
 30
0.0
 10
196.6202141051781
 20
110.7408318049587
 30
0.0
 10
196.336800696193
 20
110.7740472152112
 30
0.0
 10
195.8279968661075
 20
110.8944450515989
 30
0.0
 10
195.5946010965982
 20
110.9838899797359
 30
0.0
 10
195.1797364154484
 20
111.2325689313708
 30
0.0
 10
194.9947265032137
 20
111.3942037342508
 30
0.0
 10
194.7819688460062
 20
111.7034629716246
 30
0.0
 10
194.7216325159164
 20
111.8188623686892
 30
0.0
 10
194.6324723668569
 20
112.066934315696
 30
0.0
 10
194.6027121656058
 20
112.2033272144007
 30
0.0
 10
194.580569226668
 20
112.4825876376991
 30
0.0
 10
194.5876371124808
 20
112.6282121362177
 30
0.0
 10
194.6374106836901
 20
112.9185061382382
 30
0.0
 10
194.679300900867
 20
113.0608498271245
 30
0.0
 10
194.7918058809329
 20
113.3369899339156
 30
0.0
 10
194.8604646902924
 20
113.4664844201814
 30
0.0
 10
195.0179726452828
 20
113.7117706056171
 30
0.0
 10
195.1075436619127
 20
113.8279731401957
 30
0.0
 10
195.2983282292193
 20
114.0403222334768
 30
0.0
 10
195.400216360717
 20
114.1376970181204
 30
0.0
 10
195.6168350398012
 20
114.3167814218213
 30
0.0
 10
195.7324621016957
 20
114.3989559180106
 30
0.0
 10
195.9723510089543
 20
114.5431420368257
 30
0.0
 10
196.0969023705489
 20
114.6056992498055
 30
0.0
 10
196.3592554559541
 20
114.7090425035086
 30
0.0
 10
196.4994712465481
 20
114.7504472550285
 30
0.0
 10
196.7901940574984
 20
114.7985940295769
 30
0.0
 10
196.9421966684365
 20
114.8046925316711
 30
0.0
 10
197.2358247091024
 20
114.7724466403025
 30
0.0
 10
197.3787505869862
 20
114.7341134734832
 30
0.0
 10
197.6406036888424
 20
114.6247356974341
 30
0.0
 10
197.7612874310937
 20
114.5540716734532
 30
0.0
 10
197.9855210199229
 20
114.388507049807
 30
0.0
 10
198.0871136362462
 20
114.2952150175008
 30
0.0
 10
198.2748129696532
 20
114.0892388941593
 30
0.0
 10
198.3616320743617
 20
113.9751304318876
 30
0.0
 10
198.5157062795687
 20
113.7329514256001
 30
0.0
 10
198.583000129731
 20
113.6053600093591
 30
0.0
 10
198.698055245781
 20
113.3362982541967
 30
0.0
 10
198.7460707507759
 20
113.1929541842161
 30
0.0
 10
198.8157668588882
 20
112.9050934979477
 30
0.0
 10
198.8382873653925
 20
112.7583780406389
 30
0.0
 10
198.8558993229809
 20
112.4661651801191
 30
0.0
 10
198.850941572026
 20
112.3247770080281
 30
0.0
 10
198.8142332502168
 20
112.0511192709003
 30
0.0
 10
198.7821647507826
 20
111.9197999747645
 30
0.0
 10
198.695167920932
 20
111.6792048546225
 30
0.0
 10
198.6392610299471
 20
111.5670867804774
 30
0.0
 10
198.5087137731813
 20
111.3668844976038
 30
0.0
 10
198.4341130372675
 20
111.278021518555
 30
0.0
 10
198.265575229034
 20
111.1198672797789
 30
0.0
 10
198.1736114427932
 20
111.0524589230988
 30
0.0
 10
197.9730775850605
 20
110.9377904014367
 30
0.0
 10
197.8632208561805
 20
110.8900593681435
 30
0.0
 10
197.6253958463731
 20
110.8146719904335
 30
0.0
 10
197.4967213314396
 20
110.7867183787927
 30
0.0
 10
197.2185020178963
 20
110.7496533809866
 30
0.0
 10
197.0707147179175
 20
110.7408318049587
 30
0.0
 10
196.6202141051781
 20
110.7408318049587
 30
0.0
  0
SPLINE
  5
15C
330
1F
100
AcDbEntity
  8
0
  6
HIDDEN
 62
     7
370
     0
100
AcDbSpline
210
0.0
220
0.0
230
1.0
 70
     8
 71
     3
 72
    24
 73
    20
 74
     0
 42
0.00000001
 43
0.00000001
 12
1.0
 22
0.0
 32
0.0
 13
1.0
 23
0.0
 33
0.0
 40
0.0
 40
0.0
 40
0.0
 40
0.0
 40
0.1249999999999958
 40
0.1249999999999958
 40
0.1874999999999949
 40
0.1874999999999949
 40
0.2499999999999941
 40
0.2499999999999941
 40
0.3749999999999949
 40
0.3749999999999949
 40
0.4999999999999959
 40
0.4999999999999959
 40
0.6249999999999968
 40
0.6249999999999968
 40
0.7499999999999979
 40
0.7499999999999979
 40
0.8749999999999989
 40
0.8749999999999989
 40
1.0
 40
1.0
 40
1.0
 40
1.0
 10
195.1217229669611
 20
112.3592499831151
 30
0.0
 10
195.010511748383
 20
112.3790075110165
 30
0.0
 10
194.8850154511038
 20
112.3836822087936
 30
0.0
 10
194.6838877598051
 20
112.3539577131201
 30
0.0
 10
194.6136110211728
 20
112.3377313036006
 30
0.0
 10
194.4731173059323
 20
112.2930104950972
 30
0.0
 10
194.403291263492
 20
112.2648186381581
 30
0.0
 10
194.1963767866342
 20
112.164426628204
 30
0.0
 10
194.0646665607911
 20
112.077800083635
 30
0.0
 10
193.8256190319607
 20
111.8813435420304
 30
0.0
 10
193.7154225689746
 20
111.7688007029861
 30
0.0
 10
193.5282500889794
 20
111.5297894177902
 30
0.0
 10
193.450476417359
 20
111.4031907916076
 30
0.0
 10
193.3249408851233
 20
111.131420668459
 30
0.0
 10
193.2786785604777
 20
110.9888877447807
 30
0.0
 10
193.2142831623255
 20
110.6906289072132
 30
0.0
 10
193.1958814863652
 20
110.53049639197
 30
0.0
 10
193.1827827182537
 20
110.2214846418251
 30
0.0
 10
193.1872400152309
 20
110.0687027406786
 30
0.0
 10
193.1994119883086
 20
109.9220436421337
 30
0.0
  0
SPLINE
  5
15D
330
1F
100
AcDbEntity
  8
0
  6
HIDDEN
 62
     7
370
     0
100
AcDbSpline
210
0.0
220
0.0
230
1.0
 70
     8
 71
     3
 72
    92
 73
    88
 74
     0
 42
0.00000001
 43
0.00000001
 12
1.0
 22
0.0
 32
0.0
 13
1.0
 23
0.0
 33
0.0
 40
0.0
 40
0.0
 40
0.0
 40
0.0
 40
0.0312499999999996
 40
0.0312499999999996
 40
0.0624999999999992
 40
0.0624999999999992
 40
0.078124999999999
 40
0.078124999999999
 40
0.0937499999999989
 40
0.0937499999999989
 40
0.1093749999999988
 40
0.1093749999999988
 40
0.1249999999999986
 40
0.1249999999999986
 40
0.1562499999999986
 40
0.1562499999999986
 40
0.1874999999999987
 40
0.1874999999999987
 40
0.2187499999999987
 40
0.2187499999999987
 40
0.2343749999999986
 40
0.2343749999999986
 40
0.2499999999999984
 40
0.2499999999999984
 40
0.2656249999999983
 40
0.2656249999999983
 40
0.2812499999999981
 40
0.2812499999999981
 40
0.296874999999998
 40
0.296874999999998
 40
0.3124999999999979
 40
0.3124999999999979
 40
0.3437499999999978
 40
0.3437499999999978
 40
0.3749999999999977
 40
0.3749999999999977
 40
0.4062499999999976
 40
0.4062499999999976
 40
0.4218749999999977
 40
0.4218749999999977
 40
0.4374999999999977
 40
0.4374999999999977
 40
0.4531249999999977
 40
0.4531249999999977
 40
0.4687499999999977
 40
0.4687499999999977
 40
0.4843749999999977
 40
0.4843749999999977
 40
0.4999999999999977
 40
0.4999999999999977
 40
0.5312499999999977
 40
0.5312499999999977
 40
0.5624999999999977
 40
0.5624999999999977
 40
0.5937499999999978
 40
0.5937499999999978
 40
0.6249999999999978
 40
0.6249999999999978
 40
0.6406249999999978
 40
0.6406249999999978
 40
0.6562499999999978
 40
0.6562499999999978
 40
0.6874999999999979
 40
0.6874999999999979
 40
0.7187499999999981
 40
0.7187499999999981
 40
0.7499999999999982
 40
0.7499999999999982
 40
0.7812499999999983
 40
0.7812499999999983
 40
0.8124999999999984
 40
0.8124999999999984
 40
0.8281249999999986
 40
0.8281249999999986
 40
0.8437499999999986
 40
0.8437499999999986
 40
0.8593749999999986
 40
0.8593749999999986
 40
0.8749999999999986
 40
0.8749999999999986
 40
0.9062499999999989
 40
0.9062499999999989
 40
0.9374999999999992
 40
0.9374999999999992
 40
0.9687499999999997
 40
0.9687499999999997
 40
1.0
 40
1.0
 40
1.0
 40
1.0
 10
193.1994119883087
 20
109.9220436421337
 30
0.0
 10
193.2550659175531
 20
109.8048458472388
 30
0.0
 10
193.3264359919352
 20
109.698033103525
 30
0.0
 10
193.4974763905407
 20
109.4958722719146
 30
0.0
 10
193.5975316079702
 20
109.4005342946196
 30
0.0
 10
193.7739504651847
 20
109.2563053270418
 30
0.0
 10
193.8371800363647
 20
109.2079569199075
 30
0.0
 10
193.9762347390316
 20
109.1056854254583
 30
0.0
 10
194.0514941275782
 20
109.0520574229042
 30
0.0
 10
194.2124213499436
 20
108.9380531275395
 30
0.0
 10
194.2950187663086
 20
108.8797334253687
 30
0.0
 10
194.459096686373
 20
108.7679200991543
 30
0.0
 10
194.53802342489
 20
108.7164137657622
 30
0.0
 10
194.7746255926419
 20
108.5749488323941
 30
0.0
 10
194.9261715603342
 20
108.5016649741366
 30
0.0
 10
195.2382123733417
 20
108.3953585265086
 30
0.0
 10
195.3976741879358
 20
108.3631364857625
 30
0.0
 10
195.717816979799
 20
108.3477790704104
 30
0.0
 10
195.8827151040799
 20
108.3647958211068
 30
0.0
 10
196.1242377670285
 20
108.4334405840118
 30
0.0
 10
196.2037680380251
 20
108.4633403250236
 30
0.0
 10
196.3609057828439
 20
108.5385929044627
 30
0.0
 10
196.4388424629961
 20
108.5843587153621
 30
0.0
 10
196.5865073565731
 20
108.6889208361996
 30
0.0
 10
196.6570159459517
 20
108.7479989833019
 30
0.0
 10
196.7912741160574
 20
108.8802611295167
 30
0.0
 10
196.8555621014926
 20
108.954330492206
 30
0.0
 10
196.9721470449086
 20
109.1110853164207
 30
0.0
 10
197.0249997423142
 20
109.1941100561561
 30
0.0
 10
197.1203965629669
 20
109.3690437492261
 30
0.0
 10
197.1629852798724
 20
109.4613999324714
 30
0.0
 10
197.2718625279208
 20
109.7413368722582
 30
0.0
 10
197.3216332032131
 20
109.9374566848448
 30
0.0
 10
197.3802295411501
 20
110.3238382230251
 30
0.0
 10
197.3896070598157
 20
110.5168616449722
 30
0.0
 10
197.378869202932
 20
110.8854946336018
 30
0.0
 10
197.3585754598137
 20
111.0619193411908
 30
0.0
 10
197.3190383142057
 20
111.3091880041011
 30
0.0
 10
197.3045293606921
 20
111.3877440176935
 30
0.0
 10
197.2785974617568
 20
111.534226249875
 30
0.0
 10
197.2671370659684
 20
111.60204152132
 30
0.0
 10
197.2602007725448
 20
111.7140515615132
 30
0.0
 10
197.2659052538849
 20
111.7574263067502
 30
0.0
 10
197.302278248615
 20
111.8067304791804
 30
0.0
 10
197.3316440348493
 20
111.8132398677076
 30
0.0
 10
197.3991779006493
 20
111.8044083854938
 30
0.0
 10
197.4369552748987
 20
111.7894358148216
 30
0.0
 10
197.512085136793
 20
111.7484860853977
 30
0.0
 10
197.549868003278
 20
111.7222382180026
 30
0.0
 10
197.6595713850778
 20
111.6313372514939
 30
0.0
 10
197.7280408760587
 20
111.5541649856472
 30
0.0
 10
197.8401375190092
 20
111.3788989804831
 30
0.0
 10
197.8846899172772
 20
111.2802588576866
 30
0.0
 10
197.9407713177306
 20
111.0589013236073
 30
0.0
 10
197.9519936455193
 20
110.9351574765363
 30
0.0
 10
197.9244697425453
 20
110.6699543873685
 30
0.0
 10
197.8850161826194
 20
110.5254964136969
 30
0.0
 10
197.7774951886467
 20
110.304938086533
 30
0.0
 10
197.7327956012657
 20
110.2293767560295
 30
0.0
 10
197.6291052148858
 20
110.0827888428025
 30
0.0
 10
197.5700425268882
 20
110.0112238849031
 30
0.0
 10
197.3704681982125
 20
109.8020802051384
 30
0.0
 10
197.2105309756052
 20
109.6746596997478
 30
0.0
 10
196.8708803690464
 20
109.4610449479792
 30
0.0
 10
196.6942556721272
 20
109.3753274342183
 30
0.0
 10
196.3361111574471
 20
109.2380499598119
 30
0.0
 10
196.1599098338941
 20
109.1883594983957
 30
0.0
 10
195.8102595475033
 20
109.1182432595294
 30
0.0
 10
195.6363885656912
 20
109.0981395761677
 30
0.0
 10
195.2996443488521
 20
109.0876129726815
 30
0.0
 10
195.1354461161023
 20
109.0962319569769
 30
0.0
 10
194.8883197174309
 20
109.1388618063953
 30
0.0
 10
194.8051481601609
 20
109.1582928165446
 30
0.0
 10
194.6380473749883
 20
109.2130998458384
 30
0.0
 10
194.5551279875799
 20
109.2479256118228
 30
0.0
 10
194.3885426685147
 20
109.3445777769065
 30
0.0
 10
194.3083112851257
 20
109.4056811528479
 30
0.0
 10
194.1647517749737
 20
109.5487771093715
 30
0.0
 10
194.1029045814313
 20
109.6284188205166
 30
0.0
 10
193.9434362659819
 20
109.8760187407617
 30
0.0
 10
193.8687076822589
 20
110.0532916450915
 30
0.0
 10
193.758907465646
 20
110.4195755946366
 30
0.0
 10
193.7248939589367
 20
110.6078148006135
 30
0.0
 10
193.6964153546881
 20
110.9979997113443
 30
0.0
 10
193.7028904511257
 20
111.198461295428
 30
0.0
 10
193.7613795707277
 20
111.59309179386
 30
0.0
 10
193.8141905045586
 20
111.7908393654765
 30
0.0
 10
193.8915495622742
 20
111.9760833218205
 30
0.0
  0
SPLINE
  5
15E
330
1F
100
AcDbEntity
  8
0
  6
HIDDEN
 62
     7
370
     0
100
AcDbSpline
210
0.0
220
0.0
230
1.0
 70
     8
 71
     3
 72
    12
 73
     8
 74
     0
 42
0.00000001
 43
0.00000001
 12
1.0
 22
0.0
 32
0.0
 13
1.0
 23
0.0
 33
0.0
 40
0.0
 40
0.0
 40
0.0
 40
0.0
 40
0.2499999999999997
 40
0.2499999999999997
 40
0.4999999999999997
 40
0.4999999999999997
 40
1.0
 40
1.0
 40
1.0
 40
1.0
 10
193.8915495622742
 20
111.9760833218205
 30
0.0
 10
193.9187848446526
 20
112.0513326774869
 30
0.0
 10
193.9551046029467
 20
112.1288714833594
 30
0.0
 10
194.0468871111301
 20
112.2854126689356
 30
0.0
 10
194.1029381810626
 20
112.3648792235248
 30
0.0
 10
194.2933579797249
 20
112.5919867332622
 30
0.0
 10
194.4561846703754
 20
112.7336965896588
 30
0.0
 10
194.6343773602312
 20
112.8558097413806
 30
0.0
  0
SPLINE
  5
15F
330
1F
100
AcDbEntity
  8
0
  6
HIDDEN
 62
     7
370
     0
100
AcDbSpline
210
0.0
220
0.0
230
1.0
 70
     8
 71
     3
 72
    26
 73
    22
 74
     0
 42
0.00000001
 43
0.00000001
 12
1.0
 22
0.0
 32
0.0
 13
1.0
 23
0.0
 33
0.0
 40
0.0
 40
0.0
 40
0.0
 40
0.0
 40
0.1250000000000007
 40
0.1250000000000007
 40
0.2500000000000014
 40
0.2500000000000014
 40
0.3750000000000021
 40
0.3750000000000021
 40
0.5000000000000028
 40
0.5000000000000028
 40
0.5625000000000027
 40
0.5625000000000027
 40
0.6250000000000026
 40
0.6250000000000026
 40
0.6875000000000024
 40
0.6875000000000024
 40
0.7500000000000023
 40
0.7500000000000023
 40
0.8750000000000012
 40
0.8750000000000012
 40
1.0
 40
1.0
 40
1.0
 40
1.0
 10
194.6343773602314
 20
112.8558097413803
 30
0.0
 10
194.7664399799936
 20
112.9303438807457
 30
0.0
 10
194.8996989149528
 20
112.978542804769
 30
0.0
 10
195.1666090763346
 20
113.0327756258067
 30
0.0
 10
195.3001361563505
 20
113.0379898803664
 30
0.0
 10
195.5523226715746
 20
113.0120537692653
 30
0.0
 10
195.6741007459883
 20
112.9806330464509
 30
0.0
 10
195.8929841526531
 20
112.8907105677178
 30
0.0
 10
195.9917768293015
 20
112.8321236254529
 30
0.0
 10
196.1020476728741
 20
112.7336354081789
 30
0.0
 10
196.1321380168849
 20
112.6987305213775
 30
0.0
 10
196.1639509548864
 20
112.634210113791
 30
0.0
 10
196.164900139551
 20
112.6041626768609
 30
0.0
 10
196.1324490726149
 20
112.5582235364635
 30
0.0
 10
196.0994501721714
 20
112.5412745772942
 30
0.0
 10
196.0159102972126
 20
112.5154447937921
 30
0.0
 10
195.9656662652715
 20
112.5060277481555
 30
0.0
 10
195.800483224746
 20
112.4797254477262
 30
0.0
 10
195.6745611025555
 20
112.4647535471014
 30
0.0
 10
195.4091581011712
 20
112.4224684296746
 30
0.0
 10
195.2681759531134
 20
112.3956488852168
 30
0.0
 10
195.1217229669611
 20
112.3592499831151
 30
0.0
  0
LWPOLYLINE
  5
160
330
1F
100
AcDbEntity
  8
0
  6
HIDDEN
 62
     7
370
     0
100
AcDbPolyline
 90
       29
 70
   128
 43
0.0
 10
195.2069747775
 20
108.2255892489
 10
195.6671710639
 20
108.2554446567
 10
196.104289177
 20
108.385517824
 10
196.4964132338
 20
108.6092862334
 10
196.8238792895
 20
108.9155288446
 10
197.0702662646
 20
109.2888900112
 10
197.2232210963
 20
109.7106471225
 10
197.2750715493
 20
110.1596521713
 10
197.2232210963
 20
110.6133897356
 10
197.0702662646
 20
111.049107838
 10
196.8238792895
 20
111.4449575344
 10
196.4964132338
 20
111.7810893139
 10
196.104289177
 20
112.0406481005
 10
195.6671710639
 20
112.2106185449
 10
195.2069747775
 20
112.2824777067
 10
194.7467803537
 20
112.2526221825
 10
194.3096622406
 20
112.1225490734
 10
193.9175381838
 20
111.8987807804
 10
193.5900721281
 20
111.5925379364
 10
193.343685153
 20
111.2191770026
 10
193.1907303213
 20
110.7974197749
 10
193.1388798683
 20
110.3484147262
 10
193.1907303213
 20
109.8946771618
 10
193.343685153
 20
109.4589590594
 10
193.5900721281
 20
109.0631094794
 10
193.9175381838
 20
108.7269774671
 10
194.3096622406
 20
108.4674187969
 10
194.7467803537
 20
108.2974482361
 10
195.2069747775
 20
108.2255892489
  0
LWPOLYLINE
  5
161
330
1F
100
AcDbEntity
  8
0
  6
HIDDEN
 62
     7
370
     0
100
AcDbPolyline
 90
        9
 70
   128
 43
0.0
 10
194.6343771695
 20
112.8558097499
 10
194.8840703397
 20
113.0850920254
 10
195.0945064007
 20
113.2353804515
 10
195.2547218232
 20
113.2988454429
 10
195.3563700943
 20
113.272180688
 10
195.3941557138
 20
113.1567753237
 10
195.3661098658
 20
112.9586416155
 10
195.2736947267
 20
112.6881017499
 10
195.1217233716
 20
112.3592500026
  0
LWPOLYLINE
  5
162
330
1F
100
AcDbEntity
  8
0
  6
HIDDEN
 62
     7
370
     0
100
AcDbPolyline
 90
       10
 70
   128
 43
0.0
 10
193.1994121104
 20
109.92204361
 10
193.0254764437
 20
109.8422707092
 10
192.9127528845
 20
109.8581327624
 10
192.8674812942
 20
109.9687515326
 10
192.8921725183
 20
110.1679993827
 10
192.9854593753
 20
110.4448396746
 10
193.1421711623
 20
110.7839379493
 10
193.3536298155
 20
111.1665112931
 10
193.6081211596
 20
111.5713682757
 10
193.8915486961
 20
111.9760833481
  0
LINE
  5
163
330
1F
100
AcDbEntity
  8
0
  6
HIDDEN
 62
     7
370
     0
100
AcDbLine
 10
155.1691248595
 20
103.2553488422
 30
0.0
 11
155.1691248595
 21
122.9853617061
 31
0.0
  0
LINE
  5
164
330
1F
100
AcDbEntity
  8
0
  6
HIDDEN
 62
     7
370
     0
100
AcDbLine
 10
181.2384996145
 20
123.6203551326
 30
0.0
 11
181.2384996145
 21
102.6203554157
 31
0.0
  0
LINE
  5
165
330
1F
100
AcDbEntity
  8
0
  6
HIDDEN
 62
     7
370
     0
100
AcDbLine
 10
183.0191250472
 20
122.9953557286
 30
0.0
 11
183.0191250472
 21
103.2453548196
 31
0.0
  0
LINE
  5
166
330
1F
100
AcDbEntity
  8
0
  6
HIDDEN
 62
     7
370
     0
100
AcDbLine
 10
156.119124177
 20
103.4224495325
 30
0.0
 11
160.369124408
 21
103.4224495325
 31
0.0
  0
LINE
  5
167
330
1F
100
AcDbEntity
  8
0
  6
HIDDEN
 62
     7
370
     0
100
AcDbLine
 10
156.119124177
 20
122.8182610158
 30
0.0
 11
156.119124177
 21
103.4224495325
 31
0.0
  0
LINE
  5
168
330
1F
100
AcDbEntity
  8
0
  6
HIDDEN
 62
     7
370
     0
100
AcDbLine
 10
157.8691239982
 20
122.8182610158
 30
0.0
 11
156.119124177
 21
122.8182610158
 31
0.0
  0
SPLINE
  5
169
330
1F
100
AcDbEntity
  8
0
  6
HIDDEN
 62
     7
370
     0
100
AcDbSpline
210
0.0
220
0.0
230
1.0
 70
     8
 71
     3
 72
    14
 73
    10
 74
     0
 42
0.00000001
 43
0.00000001
 12
1.0
 22
0.0
 32
0.0
 13
1.0
 23
0.0
 33
0.0
 40
0.0
 40
0.0
 40
0.0
 40
0.0
 40
0.2500000000000002
 40
0.2500000000000002
 40
0.5000000000000004
 40
0.5000000000000004
 40
0.7500000000000001
 40
0.7500000000000001
 40
1.0
 40
1.0
 40
1.0
 40
1.0
 10
158.7691245823125
 20
123.1445447675467
 30
0.0
 10
158.7691245823125
 20
123.1080729030129
 30
0.0
 10
158.7467539505085
 20
123.0703371505004
 30
0.0
 10
158.6595384192602
 20
122.9952014288009
 30
0.0
 10
158.5955172131835
 20
122.9588291425788
 30
0.0
 10
158.4320319154423
 20
122.8946056034167
 30
0.0
 10
158.3327170412691
 20
122.8670826407943
 30
0.0
 10
158.112890770564
 20
122.8289104739071
 30
0.0
 10
157.9918872082548
 20
122.8182609758745
 30
0.0
 10
157.8691245823125
 20
122.8182609758745
 30
0.0
  0
LINE
  5
16A
330
1F
100
AcDbEntity
  8
0
  6
HIDDEN
 62
     7
370
     0
100
AcDbLine
 10
158.769124332
 20
123.1445452232
 30
0.0
 11
158.769124332
 21
123.6203551326
 31
0.0
  0
SPLINE
  5
16B
330
1F
100
AcDbEntity
  8
0
  6
HIDDEN
 62
     7
370
     0
100
AcDbSpline
210
0.0
220
0.0
230
1.0
 70
     8
 71
     3
 72
    14
 73
    10
 74
     0
 42
0.00000001
 43
0.00000001
 12
1.0
 22
0.0
 32
0.0
 13
1.0
 23
0.0
 33
0.0
 40
0.0
 40
0.0
 40
0.0
 40
0.0
 40
0.2499999999999997
 40
0.2499999999999997
 40
0.4999999999999993
 40
0.4999999999999993
 40
0.7499999999999997
 40
0.7499999999999997
 40
1.0
 40
1.0
 40
1.0
 40
1.0
 10
158.7691245823125
 20
123.1445447675467
 30
0.0
 10
158.7691245823125
 20
123.1080729030129
 30
0.0
 10
158.7467539505084
 20
123.0703371505004
 30
0.0
 10
158.6595384192602
 20
122.9952014288009
 30
0.0
 10
158.5955172131835
 20
122.9588291425788
 30
0.0
 10
158.4320319154423
 20
122.8946056034167
 30
0.0
 10
158.3327170412691
 20
122.8670826407943
 30
0.0
 10
158.112890770564
 20
122.8289104739072
 30
0.0
 10
157.9918872082548
 20
122.8182609758745
 30
0.0
 10
157.8691245823125
 20
122.8182609758745
 30
0.0
  0
SPLINE
  5
16C
330
1F
100
AcDbEntity
  8
0
  6
HIDDEN
 62
     7
370
     0
100
AcDbSpline
210
0.0
220
0.0
230
1.0
 70
     8
 71
     3
 72
    14
 73
    10
 74
     0
 42
0.00000001
 43
0.00000001
 12
1.0
 22
0.0
 32
0.0
 13
1.0
 23
0.0
 33
0.0
 40
0.0
 40
0.0
 40
0.0
 40
0.0
 40
0.2499999999999998
 40
0.2499999999999998
 40
0.4999999999999999
 40
0.4999999999999999
 40
0.75
 40
0.75
 40
1.0
 40
1.0
 40
1.0
 40
1.0
 10
160.3691245823125
 20
103.4224495723781
 30
0.0
 10
160.491730005699
 20
103.4224495723781
 30
0.0
 10
160.6120731077917
 20
103.4119062304681
 30
0.0
 10
160.8323731119707
 20
103.3737232698434
 30
0.0
 10
160.9320168582582
 20
103.3460820017027
 30
0.0
 10
161.0949049433192
 20
103.2821506769153
 30
0.0
 10
161.1595496001219
 20
103.2454319379514
 30
0.0
 10
161.2462725650178
 20
103.1708552925058
 30
0.0
 10
161.2691245823125
 20
103.1325995586321
 30
0.0
 10
161.2691245823125
 20
103.0961657807059
 30
0.0
  0
LINE
  5
16D
330
1F
100
AcDbEntity
  8
0
  6
HIDDEN
 62
     7
370
     0
100
AcDbLine
 10
161.2691247418
 20
103.0961653251
 30
0.0
 11
161.2691247418
 21
102.6203554157
 31
0.0
  0
SPLINE
  5
16E
330
1F
100
AcDbEntity
  8
0
  6
HIDDEN
 62
     7
370
     0
100
AcDbSpline
210
0.0
220
0.0
230
1.0
 70
     8
 71
     3
 72
    14
 73
    10
 74
     0
 42
0.00000001
 43
0.00000001
 12
1.0
 22
0.0
 32
0.0
 13
1.0
 23
0.0
 33
0.0
 40
0.0
 40
0.0
 40
0.0
 40
0.0
 40
0.2500000000000003
 40
0.2500000000000003
 40
0.5000000000000002
 40
0.5000000000000002
 40
0.7500000000000001
 40
0.7500000000000001
 40
1.0
 40
1.0
 40
1.0
 40
1.0
 10
160.3691245823125
 20
103.4224495723781
 30
0.0
 10
160.491730005699
 20
103.4224495723781
 30
0.0
 10
160.6120731077917
 20
103.4119062304681
 30
0.0
 10
160.8323731119707
 20
103.3737232698434
 30
0.0
 10
160.9320168582582
 20
103.3460820017027
 30
0.0
 10
161.0949049433192
 20
103.2821506769153
 30
0.0
 10
161.1595496001219
 20
103.2454319379514
 30
0.0
 10
161.2462725650178
 20
103.1708552925058
 30
0.0
 10
161.2691245823125
 20
103.1325995586321
 30
0.0
 10
161.2691245823125
 20
103.0961657807059
 30
0.0
  0
LINE
  5
16F
330
1F
100
AcDbEntity
  8
0
  6
HIDDEN
 62
     7
370
     0
100
AcDbLine
 10
156.119124177
 20
103.4224495325
 30
0.0
 11
156.119124177
 21
122.8182610158
 31
0.0
  0
LINE
  5
170
330
1F
100
AcDbEntity
  8
0
  6
HIDDEN
 62
     7
370
     0
100
AcDbLine
 10
158.769124332
 20
124.1203552145
 30
0.0
 11
158.769124332
 21
126.6778796944
 31
0.0
  0
LINE
  5
171
330
1F
100
AcDbEntity
  8
0
  6
HIDDEN
 62
     7
370
     0
100
AcDbLine
 10
161.2691247418
 20
102.1203553337
 30
0.0
 11
161.2691247418
 21
99.5167788151
 31
0.0
  0
LINE
  5
172
330
1F
100
AcDbEntity
  8
0
  6
HIDDEN
 62
     7
370
     0
100
AcDbLine
 10
156.119124177
 20
124.1203552145
 30
0.0
 11
156.119124177
 21
126.0003555599
 31
0.0
  0
LINE
  5
173
330
1F
100
AcDbEntity
  8
0
  6
HIDDEN
 62
     7
370
     0
100
AcDbLine
 10
155.1691248595
 20
124.1203552145
 30
0.0
 11
155.1691248595
 21
125.0503553111
 31
0.0
  0
LINE
  5
174
330
1F
100
AcDbEntity
  8
0
  6
HIDDEN
 62
     7
370
     0
100
AcDbLine
 10
156.119124177
 20
102.1203553337
 30
0.0
 11
156.119124177
 21
100.2993552047
 31
0.0
  0
LINE
  5
175
330
1F
100
AcDbEntity
  8
0
  6
HIDDEN
 62
     7
370
     0
100
AcDbLine
 10
155.1691248595
 20
102.1203553337
 30
0.0
 11
155.1691248595
 21
101.2493554536
 31
0.0
  0
LINE
  5
176
330
1F
100
AcDbEntity
  8
0
  6
HIDDEN
 62
     7
370
     0
100
AcDbLine
 10
188.3691243409
 20
119.3703553673
 30
0.0
 11
188.3691243409
 21
106.870355181
 31
0.0
  0
LINE
  5
177
330
1F
100
AcDbEntity
  8
0
  6
HIDDEN
 62
     7
370
     0
100
AcDbLine
 10
190.8691238194
 20
119.3703553673
 30
0.0
 11
190.8691238194
 21
106.870355181
 31
0.0
  0
LINE
  5
178
330
1F
100
AcDbEntity
  8
0
  6
HIDDEN
 62
     7
370
     0
100
AcDbLine
 10
183.5191241979
 20
118.6203552443
 30
0.0
 11
183.5191241979
 21
107.6203553039
 31
0.0
  0
LINE
  5
179
330
1F
100
AcDbEntity
  8
0
  6
HIDDEN
 62
     7
370
     0
100
AcDbLine
 10
183.0191250472
 20
107.120355222
 30
0.0
 11
183.0191250472
 21
119.1203553263
 31
0.0
  0
LINE
  5
17A
330
1F
100
AcDbEntity
  8
0
  6
HIDDEN
 62
     7
370
     0
100
AcDbLine
 10
195.0191251515
 20
96.220356043
 30
0.0
 11
192.0739013283
 21
96.220356043
 31
0.0
  0
LINE
  5
17B
330
1F
100
AcDbEntity
  8
0
  6
HIDDEN
 62
     7
370
     0
100
AcDbLine
 10
192.1091239481
 20
95.6912325728
 30
0.0
 11
192.1091239481
 21
96.0074761916
 31
0.0
  0
LINE
  5
17C
330
1F
100
AcDbEntity
  8
0
  6
HIDDEN
 62
     7
370
     0
100
AcDbLine
 10
195.0191251515
 20
96.220356043
 30
0.0
 11
195.0191251515
 21
94.5163225788
 31
0.0
  0
LINE
  5
17D
330
1F
100
AcDbEntity
  8
0
  6
HIDDEN
 62
     7
370
     0
100
AcDbLine
 10
190.0643465622
 20
96.220356043
 30
0.0
 11
187.5191248535
 21
96.220356043
 31
0.0
  0
LINE
  5
17E
330
1F
100
AcDbEntity
  8
0
  6
HIDDEN
 62
     7
370
     0
100
AcDbLine
 10
190.0291248738
 20
96.0074761916
 30
0.0
 11
190.0291248738
 21
95.6912325728
 31
0.0
  0
LINE
  5
17F
330
1F
100
AcDbEntity
  8
0
  6
HIDDEN
 62
     7
370
     0
100
AcDbLine
 10
183.0191250472
 20
93.1453710455
 30
0.0
 11
183.0191250472
 21
96.220356043
 31
0.0
  0
LINE
  5
180
330
1F
100
AcDbEntity
  8
0
  6
HIDDEN
 62
     7
370
     0
100
AcDbLine
 10
187.5191248535
 20
96.220356043
 30
0.0
 11
183.0191250472
 21
96.220356043
 31
0.0
  0
LINE
  5
181
330
1F
100
AcDbEntity
  8
0
  6
HIDDEN
 62
     7
370
     0
100
AcDbLine
 10
188.3691243409
 20
107.6203553039
 30
0.0
 11
188.3691243409
 21
118.6203552443
 31
0.0
  0
ELLIPSE
  5
182
330
1F
100
AcDbEntity
  8
0
  6
HIDDEN
 62
     7
370
     0
100
AcDbEllipse
 10
153.0633578426
 20
113.1203552741
 30
0.0
 11
12.26424774976738
 21
0.0
 31
0.0
210
0.0
220
0.0
230
1.0
 40
0.8164965809
 41
4.884943637108984
 42
4.964202354313276
  0
LINE
  5
183
330
1F
100
AcDbEntity
  8
0
  6
HIDDEN
 62
     7
370
     0
100
AcDbLine
 10
155.1691248595
 20
102.1203553337
 30
0.0
 11
155.1691248595
 21
103.2553488422
 31
0.0
  0
ELLIPSE
  5
184
330
1F
100
AcDbEntity
  8
0
  6
HIDDEN
 62
     7
370
     0
100
AcDbEllipse
 10
153.0633578426
 20
113.1203552741
 30
0.0
 11
12.26424774976738
 21
-1.421085471520200E-14
 31
0.0
210
0.0
220
0.0
230
1.0
 40
0.8164965809
 41
1.318982952866323
 42
1.398241670070615
  0
LINE
  5
185
330
1F
100
AcDbEntity
  8
0
  6
HIDDEN
 62
     7
370
     0
100
AcDbLine
 10
155.1691248595
 20
124.1203552145
 30
0.0
 11
155.1691248595
 21
122.9853617061
 31
0.0
  0
LINE
  5
186
330
1F
100
AcDbEntity
  8
0
  6
HIDDEN
 62
     7
370
     0
100
AcDbLine
 10
195.0191866188
 20
130.0203545052
 30
0.0
 11
191.860779333
 21
130.0203545052
 31
0.0
  0
LINE
  5
187
330
1F
100
AcDbEntity
  8
0
  6
HIDDEN
 62
     7
370
     0
100
AcDbLine
 10
192.1091239481
 20
130.8340324122
 30
0.0
 11
192.1091239481
 21
130.5229594964
 31
0.0
  0
LINE
  5
188
330
1F
100
AcDbEntity
  8
0
  6
HIDDEN
 62
     7
370
     0
100
AcDbLine
 10
195.0191251515
 20
130.0318898666
 30
0.0
 11
195.0191251515
 21
131.9912323761
 31
0.0
  0
LINE
  5
189
330
1F
100
AcDbEntity
  8
0
  6
HIDDEN
 62
     7
370
     0
100
AcDbLine
 10
190.2774685576
 20
130.0203545052
 30
0.0
 11
187.5191248535
 21
130.0203545052
 31
0.0
  0
LINE
  5
18A
330
1F
100
AcDbEntity
  8
0
  6
HIDDEN
 62
     7
370
     0
100
AcDbLine
 10
190.0291248738
 20
130.5229594964
 30
0.0
 11
190.0291248738
 21
130.8340324122
 31
0.0
  0
LINE
  5
18B
330
1F
100
AcDbEntity
  8
0
  6
HIDDEN
 62
     7
370
     0
100
AcDbLine
 10
187.5191248535
 20
130.0203545052
 30
0.0
 11
183.0191250472
 21
130.0203545052
 31
0.0
  0
LINE
  5
18C
330
1F
100
AcDbEntity
  8
0
  6
HIDDEN
 62
     7
370
     0
100
AcDbLine
 10
156.119124177
 20
102.1203553337
 30
0.0
 11
156.119124177
 21
103.4224495325
 31
0.0
  0
LINE
  5
18D
330
1F
100
AcDbEntity
  8
0
  6
HIDDEN
 62
     7
370
     0
100
AcDbLine
 10
156.119124177
 20
124.1203552145
 30
0.0
 11
156.119124177
 21
122.8182610158
 31
0.0
  0
LINE
  5
18E
330
1F
100
AcDbEntity
  8
0
  6
HIDDEN
 62
     7
370
     0
100
AcDbLine
 10
161.2691247418
 20
102.1203553337
 30
0.0
 11
161.2691247418
 21
103.0961653251
 31
0.0
  0
LINE
  5
18F
330
1F
100
AcDbEntity
  8
0
  6
HIDDEN
 62
     7
370
     0
100
AcDbLine
 10
158.769124332
 20
124.1203552145
 30
0.0
 11
158.769124332
 21
123.1445452232
 31
0.0
  0
LINE
  5
190
330
1F
100
AcDbEntity
  8
0
  6
HIDDEN
 62
     7
370
     0
100
AcDbLine
 10
225.9735289543
 20
97.2019774873
 30
0.0
 11
225.963798496
 21
97.232817303
 31
0.0
  0
LINE
  5
191
330
1F
100
AcDbEntity
  8
0
  6
HIDDEN
 62
     7
370
     0
100
AcDbLine
 10
216.2960107951
 20
100.2267446402
 30
0.0
 11
225.9735289543
 21
97.2019774873
 31
0.0
  0
LINE
  5
192
330
1F
100
AcDbEntity
  8
0
  6
HIDDEN
 62
     7
370
     0
100
AcDbLine
 10
216.8675522833
 20
96.8723954666
 30
0.0
 11
216.8366547256
 21
96.8820532817
 31
0.0
  0
LINE
  5
193
330
1F
100
AcDbEntity
  8
0
  6
HIDDEN
 62
     7
370
     0
100
AcDbLine
 10
219.0195258289
 20
90.0531156022
 30
0.0
 11
216.8675522833
 21
96.8723954666
 31
0.0
  0
LINE
  5
194
330
1F
100
AcDbEntity
  8
0
  6
HIDDEN
 62
     7
370
     0
100
AcDbLine
 10
218.9886282711
 20
90.0627734173
 30
0.0
 11
219.0195258289
 21
90.0531156022
 31
0.0
  0
LINE
  5
195
330
1F
100
AcDbEntity
  8
0
  6
HIDDEN
 62
     7
370
     0
100
AcDbLine
 10
210.4710500269
 20
131.1203544993
 30
0.0
 11
210.4710500269
 21
113.1203552741
 31
0.0
  0
ELLIPSE
  5
196
330
1F
100
AcDbEntity
  8
0
  6
HIDDEN
 62
     7
370
     0
100
AcDbEllipse
 10
220.8931014866
 20
113.1203552741
 30
0.0
 11
-5.731116147359133
 21
17.99903516144769
 31
0.0
210
0.0
220
0.0
230
1.0
 40
0.0325187276
 41
6.272831310786007
 42
7.843627637580516
  0
SPLINE
  5
197
330
1F
100
AcDbEntity
  8
0
  6
HIDDEN
 62
     7
370
     0
100
AcDbSpline
210
0.0
220
0.0
230
1.0
 70
     8
 71
     3
 72
    10
 73
     6
 74
     0
 42
0.00000001
 43
0.00000001
 12
1.0
 22
0.0
 32
0.0
 13
1.0
 23
0.0
 33
0.0
 40
0.0
 40
0.0
 40
0.0
 40
0.0
 40
0.5
 40
0.5
 40
1.0
 40
1.0
 40
1.0
 40
1.0
 10
210.4710483709592
 20
113.1203552741263
 30
0.0
 10
210.4710483709592
 20
111.1788253591315
 30
0.0
 10
210.5578366446672
 20
109.2256684079495
 30
0.0
 10
210.8782623314569
 20
105.3470861401967
 30
0.0
 10
211.1099624606383
 20
103.4181250001608
 30
0.0
 10
211.3893602696274
 20
101.4960562289316
 30
0.0
  0
SPLINE
  5
198
330
1F
100
AcDbEntity
  8
0
  6
HIDDEN
 62
     7
370
     0
100
AcDbSpline
210
0.0
220
0.0
230
1.0
 70
     8
 71
     3
 72
    17
 73
    13
 74
     0
 42
0.00000001
 43
0.00000001
 12
1.0
 22
0.0
 32
0.0
 13
1.0
 23
0.0
 33
0.0
 40
0.0
 40
0.0
 40
0.0
 40
0.0
 40
0.0746991111513266
 40
0.1604348295107442
 40
0.2482522751078571
 40
0.3360697669629217
 40
0.4295012656736732
 40
0.5229333996402945
 40
0.6190525935809723
 40
0.7151730242161194
 40
0.8564954266223929
 40
1.0
 40
1.0
 40
1.0
 40
1.0
 10
211.1766647129277
 20
92.51126330678198
 30
0.0
 10
211.1710192732868
 20
92.52025069351674
 30
0.0
 10
211.1588942943902
 20
92.53955333094197
 30
0.0
 10
211.1482772437188
 20
92.7414042610108
 30
0.0
 10
211.1433822390901
 20
93.08407254923553
 30
0.0
 10
211.1456982107152
 20
93.58716921694501
 30
0.0
 10
211.1556735982089
 20
94.25218988673345
 30
0.0
 10
211.1740013158675
 20
95.09298224602216
 30
0.0
 10
211.2007219077691
 20
96.09522890627059
 30
0.0
 10
211.2417013566584
 20
97.43959949723421
 30
0.0
 10
211.3008860536646
 20
99.18948531393438
 30
0.0
 10
211.3597185466466
 20
100.7232822878474
 30
0.0
 10
211.3893601625184
 20
101.4960562843535
 30
0.0
  0
SPLINE
  5
199
330
1F
100
AcDbEntity
  8
0
  6
HIDDEN
 62
     7
370
     0
100
AcDbSpline
210
0.0
220
0.0
230
1.0
 70
     8
 71
     3
 72
    35
 73
    31
 74
     0
 42
0.00000001
 43
0.00000001
 12
1.0
 22
0.0
 32
0.0
 13
1.0
 23
0.0
 33
0.0
 40
-0.0968719547595007
 40
-0.0666583833390638
 40
-0.0343746550663528
 40
0.0
 40
0.0402441098602218
 40
0.0744787394150458
 40
0.102701076922835
 40
0.1249180007539462
 40
0.1620538085088403
 40
0.2036866663220331
 40
0.2499064830388325
 40
0.2843401434852736
 40
0.3106265384480305
 40
0.3287516969918894
 40
0.3698185885315885
 40
0.4071583744141672
 40
0.4519491139953025
 40
0.5000414814625185
 40
0.5203027018300286
 40
0.5628788417857505
 40
0.5977565761193748
 40
0.6256573786661429
 40
0.6860513512461621
 40
0.7499481278641023
 40
0.7710338013047724
 40
0.8124324456481479
 40
0.8472054201757163
 40
0.8749589023494395
 40
0.9031280452404993
 40
0.9333416166609362
 40
0.9656253449336472
 40
1.0
 40
1.040244109860222
 40
1.074478739415046
 40
1.102701076922835
 10
166.9129178761321
 20
98.87950590843222
 30
0.0
 10
167.151560523171
 20
98.9160764262334
 30
0.0
 10
167.4979469930672
 20
98.95649068665689
 30
0.0
 10
167.9026697008533
 20
98.9858647527353
 30
0.0
 10
168.2762878257508
 20
99.00307083124598
 30
0.0
 10
168.6849552186746
 20
99.00826119467821
 30
0.0
 10
169.1750514706443
 20
98.98333368705333
 30
0.0
 10
169.7734418228841
 20
98.92251596886342
 30
0.0
 10
170.308568012475
 20
98.83500343086261
 30
0.0
 10
170.7028243214666
 20
98.75124655941293
 30
0.0
 10
170.9427533466495
 20
98.69336399952616
 30
0.0
 10
171.1565350953222
 20
98.63535113783504
 30
0.0
 10
171.3243029115867
 20
98.58881694336122
 30
0.0
 10
171.3947665326163
 20
98.56675600640109
 30
0.0
 10
171.3052413402727
 20
98.5955327423999
 30
0.0
 10
171.0724048460073
 20
98.65709493168252
 30
0.0
 10
170.7529706935462
 20
98.74103560141796
 30
0.0
 10
170.4008791489485
 20
98.81602825101851
 30
0.0
 10
169.9531785906844
 20
98.89380294478373
 30
0.0
 10
169.3863050555093
 20
98.9706873354052
 30
0.0
 10
168.6334548435649
 20
99.01597654415077
 30
0.0
 10
167.9622833962605
 20
98.99850304682647
 30
0.0
 10
167.4774903064124
 20
98.953733922801
 30
0.0
 10
167.1631336010734
 20
98.91818475451764
 30
0.0
 10
166.9282996493201
 20
98.88249878729195
 30
0.0
 10
166.8033557549994
 20
98.8597163555328
 30
0.0
 10
166.7565337250176
 20
98.85273619356252
 30
0.0
 10
166.7880618681052
 20
98.8596934465383
 30
0.0
 10
166.9129178761321
 20
98.87950590843222
 30
0.0
 10
167.151560523171
 20
98.9160764262334
 30
0.0
 10
167.4979469930672
 20
98.95649068665689
 30
0.0
  0
SPLINE
  5
19A
330
1F
100
AcDbEntity
  8
0
  6
HIDDEN
 62
     7
370
     0
100
AcDbSpline
210
0.0
220
0.0
230
1.0
 70
     8
 71
     3
 72
    35
 73
    31
 74
     0
 42
0.00000001
 43
0.00000001
 12
1.0
 22
0.0
 32
0.0
 13
1.0
 23
0.0
 33
0.0
 40
-0.1243197192419421
 40
-0.1014876450686309
 40
-0.0608470324374216
 40
0.0
 40
0.0343752282034999
 40
0.06664410493777
 40
0.0968273219162002
 40
0.1249505624682888
 40
0.152666254694978
 40
0.1874715331004942
 40
0.2288808119705798
 40
0.2500285047284304
 40
0.3139875933197626
 40
0.3744837005593568
 40
0.4023317688239968
 40
0.4371113644499155
 40
0.4795885530026774
 40
0.4997904011186911
 40
0.5479907717246939
 40
0.5929884907782013
 40
0.6398024291144516
 40
0.6945156081854151
 40
0.728510232295924
 40
0.7625225324122132
 40
0.7965529092023899
 40
0.8145533850530492
 40
0.8337229244351139
 40
0.8540905233807927
 40
0.8756802807580578
 40
0.8985123549313689
 40
0.9391529675625783
 40
0.9999999999999999
 40
1.0343752282035
 40
1.06664410493777
 40
1.0968273219162
 10
167.6684830755144
 20
127.2665411621043
 30
0.0
 10
167.1970218427224
 20
127.3174248649788
 30
0.0
 10
166.9131000839197
 20
127.3611392278614
 30
0.0
 10
166.7881570383533
 20
127.3809447912484
 30
0.0
 10
166.7565595750252
 20
127.3879312612478
 30
0.0
 10
166.8030486920212
 20
127.3809899488743
 30
0.0
 10
166.9275037723942
 20
127.3582072715996
 30
0.0
 10
167.1618534924026
 20
127.3225359283308
 30
0.0
 10
167.4761467077302
 20
127.2869858415873
 30
0.0
 10
167.9610723896435
 20
127.2422148726232
 30
0.0
 10
168.6330268736259
 20
127.2247294315586
 30
0.0
 10
169.3863042164187
 20
127.2699671489732
 30
0.0
 10
169.9527882634289
 20
127.346698809948
 30
0.0
 10
170.3993817504806
 20
127.4243107309371
 30
0.0
 10
170.7507695732463
 20
127.4991348973002
 30
0.0
 10
171.0706615006747
 20
127.583092279504
 30
0.0
 10
171.3047309631005
 20
127.6446801791815
 30
0.0
 10
171.4014954445938
 20
127.6760821556115
 30
0.0
 10
171.2960294217073
 20
127.6420607929953
 30
0.0
 10
170.9965958847659
 20
127.5593056089616
 30
0.0
 10
170.5971500622908
 20
127.4695151446804
 30
0.0
 10
170.1963846983002
 20
127.3963619259645
 30
0.0
 10
169.8164360291937
 20
127.3291263494129
 30
0.0
 10
169.4854503456361
 20
127.2813875055037
 30
0.0
 10
169.2103663891803
 20
127.2566143661366
 30
0.0
 10
168.9151317199466
 20
127.2403043544728
 30
0.0
 10
168.6043971390661
 20
127.2335429321602
 30
0.0
 10
168.2078628204877
 20
127.2355654507563
 30
0.0
 10
167.6684830755144
 20
127.2665411621043
 30
0.0
 10
167.1970218427224
 20
127.3174248649788
 30
0.0
 10
166.9131000839197
 20
127.3611392278614
 30
0.0
  0
SPLINE
  5
19B
330
1F
100
AcDbEntity
  8
0
  6
HIDDEN
 62
     7
370
     0
100
AcDbSpline
210
0.0
220
0.0
230
1.0
 70
     8
 71
     3
 72
    64
 73
    60
 74
     0
 42
0.00000001
 43
0.00000001
 12
1.0
 22
0.0
 32
0.0
 13
1.0
 23
0.0
 33
0.0
 40
-0.0312499999999999
 40
-0.0312499999999999
 40
0.0
 40
0.0
 40
0.0624999999999997
 40
0.0624999999999997
 40
0.1249999999999993
 40
0.1249999999999993
 40
0.1874999999999989
 40
0.1874999999999989
 40
0.2187499999999989
 40
0.2187499999999989
 40
0.2499999999999989
 40
0.2499999999999989
 40
0.281249999999999
 40
0.281249999999999
 40
0.3124999999999991
 40
0.3124999999999991
 40
0.3437499999999991
 40
0.3437499999999991
 40
0.3749999999999991
 40
0.3749999999999991
 40
0.4062499999999992
 40
0.4062499999999992
 40
0.4374999999999992
 40
0.4374999999999992
 40
0.4687499999999993
 40
0.4687499999999993
 40
0.4999999999999993
 40
0.4999999999999993
 40
0.5312499999999993
 40
0.5312499999999993
 40
0.5624999999999994
 40
0.5624999999999994
 40
0.5937499999999994
 40
0.5937499999999994
 40
0.6249999999999996
 40
0.6249999999999996
 40
0.6562499999999996
 40
0.6562499999999996
 40
0.6874999999999997
 40
0.6874999999999997
 40
0.7187499999999997
 40
0.7187499999999997
 40
0.7499999999999997
 40
0.7499999999999997
 40
0.7812499999999998
 40
0.7812499999999998
 40
0.8124999999999998
 40
0.8124999999999998
 40
0.8437499999999999
 40
0.8437499999999999
 40
0.8749999999999999
 40
0.8749999999999999
 40
0.90625
 40
0.90625
 40
0.9375
 40
0.9375
 40
0.9687500000000001
 40
0.9687500000000001
 40
1.0
 40
1.0
 40
1.0625
 40
1.0625
 10
197.2487440833284
 20
111.4429902728797
 30
0.0
 10
197.6992446960677
 20
111.4429902728797
 30
0.0
 10
197.9826581050529
 20
111.5262751391353
 30
0.0
 10
198.4914619351384
 20
111.7665613036337
 30
0.0
 10
198.7248577046477
 20
111.927657308417
 30
0.0
 10
199.1397223857974
 20
112.311643698989
 30
0.0
 10
199.3247322980322
 20
112.5389514075119
 30
0.0
 10
199.5374899552397
 20
112.925191084141
 30
0.0
 10
199.5978262853295
 20
113.0627954738808
 30
0.0
 10
199.6869864343889
 20
113.3438558641964
 30
0.0
 10
199.7167466356401
 20
113.4913726994896
 30
0.0
 10
199.7388895745779
 20
113.7789034815709
 30
0.0
 10
199.7318216887651
 20
113.9218760826944
 30
0.0
 10
199.6820481175558
 20
114.1936211503347
 30
0.0
 10
199.6401579003789
 20
114.3203752090996
 30
0.0
 10
199.527652920313
 20
114.5551784446896
 30
0.0
 10
199.4589941109535
 20
114.659646503823
 30
0.0
 10
199.3014861559631
 20
114.8486586411098
 30
0.0
 10
199.2119151393332
 20
114.9333667716325
 30
0.0
 10
199.0211305720266
 20
115.0807140821579
 30
0.0
 10
198.9192424405288
 20
115.1443107618149
 30
0.0
 10
198.7026237614446
 20
115.2551873543674
 30
0.0
 10
198.5869966995502
 20
115.3026582767076
 30
0.0
 10
198.3471077922915
 20
115.3812397009896
 30
0.0
 10
198.222556430697
 20
115.4126886783245
 30
0.0
 10
197.9602033452918
 20
115.4619064583671
 30
0.0
 10
197.8199875546978
 20
115.4799264471432
 30
0.0
 10
197.5292647437475
 20
115.5003790112215
 30
0.0
 10
197.3772621328094
 20
115.5028139456599
 30
0.0
 10
197.0836340921434
 20
115.4893331162327
 30
0.0
 10
196.9407082142596
 20
115.4732483517568
 30
0.0
 10
196.6788551124035
 20
115.4221531384963
 30
0.0
 10
196.5581713701521
 20
115.3871896624181
 30
0.0
 10
196.3339377813229
 20
115.2969703146391
 30
0.0
 10
196.2323451649997
 20
115.2426552770742
 30
0.0
 10
196.0446458315926
 20
115.1131510014406
 30
0.0
 10
195.9578267268842
 20
115.0369842368181
 30
0.0
 10
195.8037525216772
 20
114.8644245799646
 30
0.0
 10
195.7364586715148
 20
114.7685135888867
 30
0.0
 10
195.6214035554649
 20
114.5545472002578
 30
0.0
 10
195.5733880504699
 20
114.4347730414791
 30
0.0
 10
195.5036919423577
 20
114.1813699986954
 30
0.0
 10
195.4811714358534
 20
114.045949990084
 30
0.0
 10
195.463559478265
 20
113.7625596060928
 30
0.0
 10
195.4685172292199
 20
113.6186724195737
 30
0.0
 10
195.505225551029
 20
113.3266772850732
 30
0.0
 10
195.5372940504632
 20
113.1793638716585
 30
0.0
 10
195.6242908803139
 20
112.896142854606
 30
0.0
 10
195.6801977712988
 20
112.7569142561738
 30
0.0
 10
195.8107450280646
 20
112.4952744298679
 30
0.0
 10
195.8853457639783
 20
112.372061074361
 30
0.0
 10
196.0538835722119
 20
112.1400994431484
 30
0.0
 10
196.1458473584527
 20
112.0340712495344
 30
0.0
 10
196.3463812161854
 20
111.8422164394516
 30
0.0
 10
196.4562379450654
 20
111.7553885227232
 30
0.0
 10
196.6940629548728
 20
111.608820273208
 30
0.0
 10
196.8227374698062
 20
111.5485689089019
 30
0.0
 10
197.1009567833496
 20
111.4649998861031
 30
0.0
 10
197.2487440833284
 20
111.4429902728797
 30
0.0
 10
197.6992446960677
 20
111.4429902728797
 30
0.0
  0
LINE
  5
19C
330
1F
100
AcDbEntity
  8
0
  6
HIDDEN
 62
     7
370
     0
100
AcDbLine
 10
200.169124785
 20
115.6203552182
 30
0.0
 11
200.169124785
 21
110.62035533
 31
0.0
  0
LINE
  5
19D
330
1F
100
AcDbEntity
  8
0
  6
HIDDEN
 62
     7
370
     0
100
AcDbLine
 10
190.8691238194
 20
110.62035533
 30
0.0
 11
190.8691238194
 21
115.6075285781
 31
0.0
  0
LINE
  5
19E
330
1F
100
AcDbEntity
  8
0
  6
HIDDEN
 62
     7
370
     0
100
AcDbLine
 10
225.9576368659
 20
97.005872618
 30
0.0
 11
216.0371738999
 21
100.1065714318
 31
0.0
  0
LINE
  5
19F
330
1F
100
AcDbEntity
  8
0
  6
HIDDEN
 62
     7
370
     0
100
AcDbLine
 10
225.9576368659
 20
97.005872618
 30
0.0
 11
225.9735289543
 21
97.2019774873
 31
0.0
  0
LINE
  5
1A0
330
1F
100
AcDbEntity
  8
0
  6
HIDDEN
 62
     7
370
     0
100
AcDbLine
 10
216.9660973876
 20
97.1985017914
 30
0.0
 11
216.7117010384
 21
97.2780143875
 31
0.0
  0
LINE
  5
1A1
330
1F
100
AcDbEntity
  8
0
  6
HIDDEN
 62
     7
370
     0
100
AcDbLine
 10
216.9660973876
 20
97.1985017914
 30
0.0
 11
216.8675522833
 21
96.8723954666
 31
0.0
  0
SPLINE
  5
1A2
330
1F
100
AcDbEntity
  8
0
  6
HIDDEN
 62
     7
370
     0
100
AcDbSpline
210
0.0
220
0.0
230
1.0
 70
     8
 71
     3
 72
    18
 73
    14
 74
     0
 42
0.00000001
 43
0.00000001
 12
1.0
 22
0.0
 32
0.0
 13
1.0
 23
0.0
 33
0.0
 40
0.0
 40
0.0
 40
0.0
 40
0.0
 40
0.2500000000000014
 40
0.2500000000000014
 40
0.3750000000000017
 40
0.3750000000000017
 40
0.5000000000000019
 40
0.5000000000000019
 40
0.625000000000002
 40
0.625000000000002
 40
0.7500000000000023
 40
0.7500000000000023
 40
1.0
 40
1.0
 40
1.0
 40
1.0
 10
220.7307910894378
 20
93.22261096660287
 30
0.0
 10
220.9175385358953
 20
93.22742197275973
 30
0.0
 10
221.1062501840775
 20
93.23146414775643
 30
0.0
 10
221.3978726387195
 20
93.22270823514594
 30
0.0
 10
221.4965065593687
 20
93.21725298243788
 30
0.0
 10
221.7011667862051
 20
93.1921418714656
 30
0.0
 10
221.8064355923829
 20
93.17177562208985
 30
0.0
 10
222.0139314085681
 20
93.10698316322045
 30
0.0
 10
222.1156574532829
 20
93.06252625265061
 30
0.0
 10
222.3055449752012
 20
92.964301887704
 30
0.0
 10
222.3959245835334
 20
92.91029101614582
 30
0.0
 10
222.6567317677016
 20
92.74622726800878
 30
0.0
 10
222.8207685625822
 20
92.63234448645515
 30
0.0
 10
222.9836293575621
 20
92.5184728992543
 30
0.0
  0
SPLINE
  5
1A3
330
1F
100
AcDbEntity
  8
0
  6
HIDDEN
 62
     7
370
     0
100
AcDbSpline
210
0.0
220
0.0
230
1.0
 70
     8
 71
     3
 72
    18
 73
    14
 74
     0
 42
0.00000001
 43
0.00000001
 12
1.0
 22
0.0
 32
0.0
 13
1.0
 23
0.0
 33
0.0
 40
0.0
 40
0.0
 40
0.0
 40
0.0
 40
0.2500000000000039
 40
0.2500000000000039
 40
0.3750000000000034
 40
0.3750000000000034
 40
0.5000000000000029
 40
0.5000000000000029
 40
0.6250000000000023
 40
0.6250000000000023
 40
0.7500000000000018
 40
0.7500000000000018
 40
1.0
 40
1.0
 40
1.0
 40
1.0
 10
222.9836293575621
 20
92.51847289925428
 30
0.0
 10
222.8447611555311
 20
92.4254312188243
 30
0.0
 10
222.6870828985626
 20
92.34968612750382
 30
0.0
 10
222.3841444536028
 20
92.28568084841672
 30
0.0
 10
222.2726907541782
 20
92.2736485462599
 30
0.0
 10
222.0280745589535
 20
92.28136830294103
 30
0.0
 10
221.8924439507655
 20
92.30246913171734
 30
0.0
 10
221.6250785018763
 20
92.38570679711368
 30
0.0
 10
221.4950901902586
 20
92.44761813681235
 30
0.0
 10
221.2739167628057
 20
92.58544623848832
 30
0.0
 10
221.1790297129488
 20
92.6619639787644
 30
0.0
 10
220.9344809404257
 20
92.89535134431863
 30
0.0
 10
220.8193993195808
 20
93.05824693440475
 30
0.0
 10
220.7307910894379
 20
93.22261096660282
 30
0.0
  0
ELLIPSE
  5
1A4
330
1F
100
AcDbEntity
  8
0
  6
HIDDEN
 62
     7
370
     0
100
AcDbEllipse
 10
209.9624460999
 20
119.0754708875
 30
0.0
 11
-9.200696528008708
 21
29.03474216527687
 31
0.0
210
0.0
220
0.0
230
1.0
 40
0.072657961
 41
3.081381774237371
 42
3.168209051736544
  0
ELLIPSE
  5
1A5
330
1F
100
AcDbEntity
  8
0
  6
HIDDEN
 62
     7
370
     0
100
AcDbEllipse
 10
210.116065912
 20
119.0274560969
 30
0.0
 11
-9.221899462990137
 21
29.07004084584667
 31
0.0
210
0.0
220
0.0
230
1.0
 40
0.0279789545
 41
2.984530541648104
 42
3.04470046644339
  0
LINE
  5
1A6
330
1F
100
AcDbEntity
  8
0
  6
HIDDEN
 62
     7
370
     0
100
AcDbLine
 10
219.0972316592
 20
90.2748765457
 30
0.0
 11
228.4925441771
 21
87.3383158851
 31
0.0
  0
SPLINE
  5
1A7
330
1F
100
AcDbEntity
  8
0
  6
HIDDEN
 62
     7
370
     0
100
AcDbSpline
210
0.0
220
0.0
230
1.0
 70
     8
 71
     3
 72
    42
 73
    38
 74
     0
 42
0.00000001
 43
0.00000001
 12
1.0
 22
0.0
 32
0.0
 13
1.0
 23
0.0
 33
0.0
 40
0.0
 40
0.0
 40
0.0
 40
0.0
 40
0.0317792868016415
 40
0.0633384004276688
 40
0.094679760967953
 40
0.1258058393043388
 40
0.1567191579410737
 40
0.1874222918223409
 40
0.2179178691345148
 40
0.2482085720904668
 40
0.2782971376932946
 40
0.3081863584764986
 40
0.3378790832176722
 40
0.3673782176225053
 40
0.3966867249758309
 40
0.4258076267562796
 40
0.4547440032109824
 40
0.4834989938867088
 40
0.5120757981135343
 40
0.5404776754373214
 40
0.5687079459968931
 40
0.5967699908419555
 40
0.6246672521876365
 40
0.6524032336014928
 40
0.6799815001188415
 40
0.7074056782822893
 40
0.7346794561012775
 40
0.7618065829276347
 40
0.788790869243118
 40
0.8156361863550826
 40
0.8423464659965427
 40
0.8689256998271006
 40
0.8953779388313702
 40
0.9217072926118574
 40
0.947917928573435
 40
0.9740140709969766
 40
1.0
 40
1.0
 40
1.0
 40
1.0
 10
225.2634679389605
 20
96.045482696868
 30
0.0
 10
225.3108340806478
 20
95.90684958469319
 30
0.0
 10
225.4052382020375
 20
95.63054383792577
 30
0.0
 10
225.5439355483836
 20
95.22561188269444
 30
0.0
 10
225.6798802094052
 20
94.82961599347854
 30
0.0
 10
225.812910438298
 20
94.44318860063389
 30
0.0
 10
225.9430784095547
 20
94.0662471345739
 30
0.0
 10
226.0703777518002
 20
93.6988927851221
 30
0.0
 10
226.1948158300931
 20
93.34117221755092
 30
0.0
 10
226.316394604261
 20
92.99314082511245
 30
0.0
 10
226.4351157338521
 20
92.65484601509735
 30
0.0
 10
226.5509792529411
 20
92.3263317058586
 30
0.0
 10
226.6639839509207
 20
92.00763720017164
 30
0.0
 10
226.7741273012358
 20
91.698797552405
 30
0.0
 10
226.8814055104606
 20
91.39984354145572
 30
0.0
 10
226.9858135358461
 20
91.1108017502024
 30
0.0
 10
227.0873451115987
 20
90.83169461853291
 30
0.0
 10
227.1859927731776
 20
90.56254050512506
 30
0.0
 10
227.2817478824265
 20
90.30335374855184
 30
0.0
 10
227.3746006527624
 20
90.05414473012003
 30
0.0
 10
227.4645401745989
 20
89.81491993771678
 30
0.0
 10
227.5515544409372
 20
89.58568203074516
 30
0.0
 10
227.6356303730874
 20
89.36642990612067
 30
0.0
 10
227.7167538466066
 20
89.15715876494056
 30
0.0
 10
227.7949097170246
 20
88.9578601809871
 30
0.0
 10
227.8700818468576
 20
88.768522166434
 30
0.0
 10
227.9422531282579
 20
88.58912925158911
 30
0.0
 10
228.0114055221347
 20
88.41966251605754
 30
0.0
 10
228.0775200365239
 20
88.26009980282545
 30
0.0
 10
228.1405769300385
 20
88.11041525783178
 30
0.0
 10
228.200555081833
 20
87.97058136995757
 30
0.0
 10
228.2574344487553
 20
87.840561751741
 30
0.0
 10
228.3111870853834
 20
87.72033822456332
 30
0.0
 10
228.3618105427826
 20
87.60981079425513
 30
0.0
 10
228.4092042062144
 20
87.50916871195572
 30
0.0
 10
228.4536278400605
 20
87.41751527632275
 30
0.0
 10
228.4805991910098
 20
87.36437371404985
 30
0.0
 10
228.4940563287865
 20
87.33785916064384
 30
0.0
  0
ELLIPSE
  5
1A8
330
1F
100
AcDbEntity
  8
0
  6
HIDDEN
 62
     7
370
     0
100
AcDbEllipse
 10
491.4688175498
 20
31.0889717483
 30
0.0
 11
-363.8384306937227
 21
113.7198764068914
 31
0.0
210
0.0
220
0.0
230
1.0
 40
0.0655830092
 41
0.7130318155401424
 42
0.7707613456392733
  0
LINE
  5
1A9
330
1F
100
AcDbEntity
  8
0
  6
HIDDEN
 62
     7
370
     0
100
AcDbLine
 10
216.9660973876
 20
97.1985017914
 30
0.0
 11
219.2160274415
 21
90.0688046623
 31
0.0
  0
LWPOLYLINE
  5
1AA
330
1F
100
AcDbEntity
  8
0
  6
HIDDEN
 62
     7
370
     0
100
AcDbPolyline
 90
       29
 70
   128
 43
0.0
 10
198.9854994743
 20
113.7718426563
 10
199.4456957607
 20
113.8016981804
 10
199.8828138738
 20
113.9317712896
 10
200.2749379306
 20
114.1555395243
 10
200.6024021237
 20
114.4617823684
 10
200.8487909614
 20
114.8351433022
 10
201.0017457931
 20
115.2569007627
 10
201.0535962461
 20
115.7059055786
 10
201.0017457931
 20
116.1596433758
 10
200.8487909614
 20
116.5953612454
 10
200.6024021237
 20
116.9912108253
 10
200.2749379306
 20
117.3273428376
 10
199.8828138738
 20
117.5869015079
 10
199.4456957607
 20
117.7568720687
 10
198.9854994743
 20
117.8287310559
 10
198.5253050505
 20
117.7988756481
 10
198.0881869375
 20
117.6688024807
 10
197.6960628807
 20
117.4450340714
 10
197.3685968249
 20
117.1387914601
 10
197.1222098499
 20
116.7654305264
 10
196.9692550181
 20
116.3436731822
 10
196.9174045651
 20
115.8946681335
 10
196.9692550181
 20
115.4409305691
 10
197.1222098499
 20
115.0052124668
 10
197.3685968249
 20
114.6093627704
 10
197.6960628807
 20
114.2732311073
 10
198.0881869375
 20
114.0136722625
 10
198.5253050505
 20
113.8437017599
 10
198.9854994743
 20
113.7718426563
  0
LINE
  5
1AB
330
1F
100
AcDbEntity
  8
0
  6
HIDDEN
 62
     7
370
     0
100
AcDbLine
 10
183.0191250472
 20
96.220356043
 30
0.0
 11
187.5191248535
 21
96.220356043
 31
0.0
  0
ARC
  5
1AC
330
1F
100
AcDbEntity
  8
0
  6
HIDDEN
 62
     7
370
     0
100
AcDbCircle
 10
214.8859090791
 20
99.2103774327
 30
0.0
 40
1.250243058919887
100
AcDbArc
 50
72.6366105039
 51
227.4529376611
  0
LINE
  5
1AD
330
1F
100
AcDbEntity
  8
0
  6
HIDDEN
 62
     7
370
     0
100
AcDbLine
 10
225.8791338234
 20
97.0842694897
 30
0.0
 11
225.9576368659
 21
97.005872618
 31
0.0
  0
LINE
  5
1AE
330
1F
100
AcDbEntity
  8
0
  6
HIDDEN
 62
     7
370
     0
100
AcDbLine
 10
216.6928436189
 20
97.3377680439
 30
0.0
 11
216.8875906198
 21
97.2768986631
 31
0.0
  0
LINE
  5
1AF
330
1F
100
AcDbEntity
  8
0
  6
HIDDEN
 62
     7
370
     0
100
AcDbLine
 10
216.9660973876
 20
97.1985017914
 30
0.0
 11
216.8875906198
 21
97.2768986631
 31
0.0
  0
LINE
  5
1B0
330
1F
100
AcDbEntity
  8
0
  6
HIDDEN
 62
     7
370
     0
100
AcDbLine
 10
228.4933972686
 20
87.3356280882
 30
0.0
 11
228.8436006336
 21
87.6903651315
 31
0.0
  0
CIRCLE
  5
1B1
330
1F
100
AcDbEntity
  8
0
  6
HIDDEN
 62
     7
370
     0
100
AcDbCircle
 10
222.7004208879
 20
93.4642867881
 30
0.0
 40
2.39723207246593
  0
LINE
  5
1B2
330
1F
100
AcDbEntity
  8
0
  6
HIDDEN
 62
     7
370
     0
100
AcDbLine
 10
216.8875906198
 20
97.2768986631
 30
0.0
 11
219.0972316592
 21
90.2748765457
 31
0.0
  0
LINE
  5
1B3
330
1F
100
AcDbEntity
  8
0
  6
HIDDEN
 62
     7
370
     0
100
AcDbLine
 10
225.8791338234
 20
97.0842694897
 30
0.0
 11
215.2590203612
 21
100.4036484319
 31
0.0
  0
LINE
  5
1B4
330
1F
100
AcDbEntity
  8
0
  6
HIDDEN
 62
     7
370
     0
100
AcDbLine
 10
228.8435745566
 20
87.6903930712
 30
0.0
 11
225.8791338234
 21
97.0842694897
 31
0.0
  0
CIRCLE
  5
1B5
330
1F
100
AcDbEntity
  8
0
  6
HIDDEN
 62
     7
370
     0
100
AcDbCircle
 10
222.661266945
 20
93.5062084455
 30
0.0
 40
1.648179682787958
  0
LINE
  5
1B6
330
1F
100
AcDbEntity
  8
0
  6
HIDDEN
 62
     7
370
     0
100
AcDbLine
 10
161.2691247418
 20
102.1203553337
 30
0.0
 11
161.2691247418
 21
99.5167788151
 31
0.0
  0
LINE
  5
1B7
330
1F
100
AcDbEntity
  8
0
  6
HIDDEN
 62
     7
370
     0
100
AcDbLine
 10
158.769124332
 20
124.1203552145
 30
0.0
 11
158.769124332
 21
126.6778796944
 31
0.0
  0
SPLINE
  5
1B8
330
1F
100
AcDbEntity
  8
0
  6
HIDDEN
 62
     7
370
     0
100
AcDbSpline
210
0.0
220
0.0
230
1.0
 70
     8
 71
     3
 72
    34
 73
    30
 74
     0
 42
0.00000001
 43
0.00000001
 12
1.0
 22
0.0
 32
0.0
 13
1.0
 23
0.0
 33
0.0
 40
0.0
 40
0.0
 40
0.0
 40
0.0
 40
0.0265621010976147
 40
0.0531038653787512
 40
0.0796391403999007
 40
0.106181783874091
 40
0.1327456419825252
 40
0.1593445277762807
 40
0.1859921998357817
 40
0.2127023413511183
 40
0.2394885397787622
 40
0.2663642672200456
 40
0.2933428616543063
 40
0.3204375091451983
 40
0.3476612271227318
 40
0.3750268488266504
 40
0.402547008979181
 40
0.4302341307374479
 40
0.4581004139584018
 40
0.4861578247922781
 40
0.5424295085197663
 40
0.5986923238128095
 40
0.6550394066063621
 40
0.7115634762887498
 40
0.7683563854152177
 40
0.8255086903565457
 40
0.8831092524426719
 40
0.9412448775329769
 40
1.0
 40
1.0
 40
1.0
 40
1.0
 10
228.8435552194093
 20
87.69041150631551
 30
0.0
 10
228.8294484150841
 20
87.71772040828876
 30
0.0
 10
228.8012456070661
 20
87.7723173036435
 30
0.0
 10
228.7550672004472
 20
87.86671739853072
 30
0.0
 10
228.7060827769042
 20
87.9702156083111
 30
0.0
 10
228.6540127245819
 20
88.08371162492548
 30
0.0
 10
228.598932017731
 20
88.20696426342865
 30
0.0
 10
228.5408206260423
 20
88.34003801394618
 30
0.0
 10
228.4796840077157
 20
88.48291535628167
 30
0.0
 10
228.4155207900802
 20
88.63560074671872
 30
0.0
 10
228.348331443803
 20
88.798092708479
 30
0.0
 10
228.2781159515569
 20
88.97039133246903
 30
0.0
 10
228.2048744330716
 20
89.15249626576026
 30
0.0
 10
228.1286069770522
 20
89.34440725270487
 30
0.0
 10
228.0493136796369
 20
89.54612400898934
 30
0.0
 10
227.9669946530787
 20
89.75764620124129
 30
0.0
 10
227.8816499453604
 20
89.97897367678965
 30
0.0
 10
227.7932798494908
 20
90.21010557695786
 30
0.0
 10
227.7018837308516
 20
90.45104370155396
 30
0.0
 10
227.5760473109506
 20
90.78520993815917
 30
0.0
 10
227.4125242759324
 20
91.22385468917626
 30
0.0
 10
227.2070609497567
 20
91.78182778360949
 30
0.0
 10
226.9925870814252
 20
92.3707957116844
 30
0.0
 10
226.7691088327789
 20
92.99073924980486
 30
0.0
 10
226.5366185013922
 20
93.64168848477033
 30
0.0
 10
226.2951540554749
 20
94.32350300656773
 30
0.0
 10
226.0445835352348
 20
95.03667878808501
 30
0.0
 10
225.7854167551315
 20
95.77930703575261
 30
0.0
 10
225.6066580136909
 20
96.29584887870134
 30
0.0
 10
225.5168049503401
 20
96.55548858394755
 30
0.0
  0
ARC
  5
1B9
330
1F
100
AcDbEntity
  8
0
  6
HIDDEN
 62
     7
370
     0
100
AcDbCircle
 10
222.2000498144
 20
93.9674351794
 30
0.0
 40
1.647266493674886
100
AcDbArc
 50
298.4039522001
 51
206.8821939373
  0
LINE
  5
1BA
330
1F
100
AcDbEntity
  8
0
  6
HIDDEN
 62
     7
370
     0
100
AcDbLine
 10
192.1091239481
 20
130.5229594964
 30
0.0
 11
192.1091239481
 21
96.0074761916
 31
0.0
  0
SPLINE
  5
1BB
330
1F
100
AcDbEntity
  8
0
  6
HIDDEN
 62
     7
370
     0
100
AcDbSpline
210
0.0
220
0.0
230
1.0
 70
     8
 71
     3
 72
    10
 73
     6
 74
     0
 42
0.00000001
 43
0.00000001
 12
1.0
 22
0.0
 32
0.0
 13
1.0
 23
0.0
 33
0.0
 40
0.0
 40
0.0
 40
0.0
 40
0.0
 40
0.5
 40
0.5
 40
1.0
 40
1.0
 40
1.0
 40
1.0
 10
191.8607801965625
 20
130.0203552741262
 30
0.0
 10
191.9382082011111
 20
130.0783145805133
 30
0.0
 10
192.0013878179976
 20
130.1552992356314
 30
0.0
 10
192.0866829972588
 20
130.3288693685038
 30
0.0
 10
192.1091245823125
 20
130.4257706309855
 30
0.0
 10
192.1091245823125
 20
130.5229592459461
 30
0.0
  0
SPLINE
  5
1BC
330
1F
100
AcDbEntity
  8
0
  6
HIDDEN
 62
     7
370
     0
100
AcDbSpline
210
0.0
220
0.0
230
1.0
 70
     8
 71
     3
 72
    10
 73
     6
 74
     0
 42
0.00000001
 43
0.00000001
 12
1.0
 22
0.0
 32
0.0
 13
1.0
 23
0.0
 33
0.0
 40
0.0
 40
0.0
 40
0.0
 40
0.0
 40
0.5
 40
0.5
 40
1.0
 40
1.0
 40
1.0
 40
1.0
 10
192.0739021817311
 20
96.22035527412629
 30
0.0
 10
192.0856142986943
 20
96.1860119369323
 30
0.0
 10
192.0944123685663
 20
96.15091939919408
 30
0.0
 10
192.1062259263384
 20
96.07924762380335
 30
0.0
 10
192.1091245823125
 20
96.04330396943809
 30
0.0
 10
192.1091245823125
 20
96.00747635209798
 30
0.0
  0
SPLINE
  5
1BD
330
1F
100
AcDbEntity
  8
0
  6
HIDDEN
 62
     7
370
     0
100
AcDbSpline
210
0.0
220
0.0
230
1.0
 70
    24
 71
     3
 72
    14
 73
    10
 74
     0
 42
0.00000001
 43
0.00000001
 12
1.0
 22
0.0
 32
0.0
 13
1.0
 23
0.0
 33
0.0
 40
0.0
 40
0.0
 40
0.0
 40
0.0
 40
0.1249999999999984
 40
0.1249999999999984
 40
0.2499999999999969
 40
0.2499999999999969
 40
0.4999999999999967
 40
0.4999999999999967
 40
1.0
 40
1.0
 40
1.0
 40
1.0
 10
191.5091245823125
 20
130.0203552741262
 30
0.0
 10
191.534565813397
 20
130.0203552741262
 30
0.0
 10
191.5601801160244
 20
130.0203552741262
 30
0.0
 10
191.6056565565515
 20
130.0203552741262
 30
0.0
 10
191.625659758291
 20
130.0203552741262
 30
0.0
 10
191.6808049502638
 20
130.0203552741262
 30
0.0
 10
191.7102391687859
 20
130.0203552741262
 30
0.0
 10
191.7881521813646
 20
130.0203552741262
 30
0.0
 10
191.8267282818853
 20
130.0203552741262
 30
0.0
 10
191.8607801965632
 20
130.0203552741262
 30
0.0
  0
SPLINE
  5
1BE
330
1F
100
AcDbEntity
  8
0
  6
HIDDEN
 62
     7
370
     0
100
AcDbSpline
210
0.0
220
0.0
230
1.0
 70
    24
 71
     3
 72
    16
 73
    12
 74
     0
 42
0.00000001
 43
0.00000001
 12
1.0
 22
0.0
 32
0.0
 13
1.0
 23
0.0
 33
0.0
 40
0.0
 40
0.0
 40
0.0
 40
0.0
 40
0.0625000000000012
 40
0.0625000000000012
 40
0.1250000000000023
 40
0.1250000000000023
 40
0.2500000000000034
 40
0.2500000000000034
 40
0.5000000000000028
 40
0.5000000000000028
 40
1.0
 40
1.0
 40
1.0
 40
1.0
 10
191.5091245823125
 20
96.22035527412628
 30
0.0
 10
191.5434124057726
 20
96.22035527412628
 30
0.0
 10
191.5772963150941
 20
96.22035527412628
 30
0.0
 10
191.6336325079109
 20
96.22035527412628
 30
0.0
 10
191.6578943640779
 20
96.22035527412628
 30
0.0
 10
191.722187482125
 20
96.22035527412628
 30
0.0
 10
191.7557512715518
 20
96.22035527412628
 30
0.0
 10
191.8436676437743
 20
96.22035527412628
 30
0.0
 10
191.8864241864909
 20
96.22035527412629
 30
0.0
 10
191.9969689281412
 20
96.22035527412628
 30
0.0
 10
192.0439483419033
 20
96.22035527412628
 30
0.0
 10
192.0739021817311
 20
96.22035527412628
 30
0.0
  0
SPLINE
  5
1BF
330
1F
100
AcDbEntity
  8
0
  6
HIDDEN
 62
     7
370
     0
100
AcDbSpline
210
0.0
220
0.0
230
1.0
 70
     8
 71
     3
 72
    10
 73
     6
 74
     0
 42
0.00000001
 43
0.00000001
 12
1.0
 22
0.0
 32
0.0
 13
1.0
 23
0.0
 33
0.0
 40
0.0
 40
0.0
 40
0.0
 40
0.0
 40
0.5
 40
0.5
 40
1.0
 40
1.0
 40
1.0
 40
1.0
 10
190.0291245823125
 20
130.5229592459461
 30
0.0
 10
190.0291245823125
 20
130.4260241807144
 30
0.0
 10
190.051574218158
 20
130.3289649019752
 30
0.0
 10
190.136569876426
 20
130.1557808145682
 30
0.0
 10
190.1994259603565
 20
130.0787749456827
 30
0.0
 10
190.2774689680624
 20
130.0203552741263
 30
0.0
  0
LINE
  5
1C0
330
1F
100
AcDbEntity
  8
0
  6
HIDDEN
 62
     7
370
     0
100
AcDbLine
 10
190.0291248738
 20
130.5229594964
 30
0.0
 11
190.0291248738
 21
96.0074761916
 31
0.0
  0
SPLINE
  5
1C1
330
1F
100
AcDbEntity
  8
0
  6
HIDDEN
 62
     7
370
     0
100
AcDbSpline
210
0.0
220
0.0
230
1.0
 70
     8
 71
     3
 72
    10
 73
     6
 74
     0
 42
0.00000001
 43
0.00000001
 12
1.0
 22
0.0
 32
0.0
 13
1.0
 23
0.0
 33
0.0
 40
0.0
 40
0.0
 40
0.0
 40
0.0
 40
0.5
 40
0.5
 40
1.0
 40
1.0
 40
1.0
 40
1.0
 10
190.0291245823125
 20
96.00747635209797
 30
0.0
 10
190.0291245823125
 20
96.04369884153873
 30
0.0
 10
190.0320943116099
 20
96.07989203879728
 30
0.0
 10
190.0439732939579
 20
96.15153053021217
 30
0.0
 10
190.0527685217986
 20
96.18640385485388
 30
0.0
 10
190.0643469828939
 20
96.22035527412628
 30
0.0
  0
SPLINE
  5
1C2
330
1F
100
AcDbEntity
  8
0
  6
HIDDEN
 62
     7
370
     0
100
AcDbSpline
210
0.0
220
0.0
230
1.0
 70
    24
 71
     3
 72
    12
 73
     8
 74
     0
 42
0.00000001
 43
0.00000001
 12
1.0
 22
0.0
 32
0.0
 13
1.0
 23
0.0
 33
0.0
 40
0.0
 40
0.0
 40
0.0
 40
0.0
 40
0.5000000000000022
 40
0.5000000000000022
 40
0.7500000000000011
 40
0.7500000000000011
 40
1.0
 40
1.0
 40
1.0
 40
1.0
 10
190.2774689680625
 20
130.0203552741262
 30
0.0
 10
190.3114202935382
 20
130.0203552741262
 30
0.0
 10
190.3501661517405
 20
130.0203552741262
 30
0.0
 10
190.4283614987482
 20
130.0203552741262
 30
0.0
 10
190.457870190433
 20
130.0203552741262
 30
0.0
 10
190.5307453518386
 20
130.0203552741262
 30
0.0
 10
190.577541985973
 20
130.0203552741262
 30
0.0
 10
190.6291245823125
 20
130.0203552741262
 30
0.0
  0
SPLINE
  5
1C3
330
1F
100
AcDbEntity
  8
0
  6
HIDDEN
 62
     7
370
     0
100
AcDbSpline
210
0.0
220
0.0
230
1.0
 70
    24
 71
     3
 72
    16
 73
    12
 74
     0
 42
0.00000001
 43
0.00000001
 12
1.0
 22
0.0
 32
0.0
 13
1.0
 23
0.0
 33
0.0
 40
0.0
 40
0.0
 40
0.0
 40
0.0
 40
0.5000000000000017
 40
0.5000000000000017
 40
0.7500000000000033
 40
0.7500000000000033
 40
0.8750000000000027
 40
0.8750000000000027
 40
0.9375000000000013
 40
0.9375000000000013
 40
1.0
 40
1.0
 40
1.0
 40
1.0
 10
190.0643469828939
 20
96.22035527412628
 30
0.0
 10
190.094124388584
 20
96.22035527412628
 30
0.0
 10
190.1410976344479
 20
96.22035527412628
 30
0.0
 10
190.2514150938031
 20
96.22035527412628
 30
0.0
 10
190.2945595642645
 20
96.22035527412628
 30
0.0
 10
190.3832213639345
 20
96.22035527412628
 30
0.0
 10
190.416272571064
 20
96.22035527412628
 30
0.0
 10
190.4806181555497
 20
96.22035527412628
 30
0.0
 10
190.5047632689833
 20
96.22035527412628
 30
0.0
 10
190.5613821896087
 20
96.22035527412628
 30
0.0
 10
190.5949847364869
 20
96.22035527412628
 30
0.0
 10
190.6291245823126
 20
96.22035527412628
 30
0.0
  0
LINE
  5
1C4
330
1F
100
AcDbEntity
  8
0
  6
HIDDEN
 62
     7
370
     0
100
AcDbLine
 10
156.119124177
 20
102.1203553337
 30
0.0
 11
156.119124177
 21
100.3052691031
 31
0.0
  0
LINE
  5
1C5
330
1F
100
AcDbEntity
  8
0
  6
HIDDEN
 62
     7
370
     0
100
AcDbLine
 10
155.1691248595
 20
102.1203553337
 30
0.0
 11
155.1691248595
 21
101.2545317445
 31
0.0
  0
LINE
  5
1C6
330
1F
100
AcDbEntity
  8
0
  6
HIDDEN
 62
     7
370
     0
100
AcDbLine
 10
156.119124177
 20
124.1203552145
 30
0.0
 11
156.119124177
 21
125.9930959005
 31
0.0
  0
LINE
  5
1C7
330
1F
100
AcDbEntity
  8
0
  6
HIDDEN
 62
     7
370
     0
100
AcDbLine
 10
155.1691248595
 20
122.9853617061
 30
0.0
 11
155.1691248595
 21
103.2553488422
 31
0.0
  0
LINE
  5
1C8
330
1F
100
AcDbEntity
  8
0
  6
HIDDEN
 62
     7
370
     0
100
AcDbLine
 10
155.1691248595
 20
124.1203552145
 30
0.0
 11
155.1691248595
 21
125.0448279116
 31
0.0
  0
LINE
  5
1C9
330
1F
100
AcDbEntity
  8
0
  6
HIDDEN
 62
     7
370
     0
100
AcDbLine
 10
190.6291247859
 20
130.0203545052
 30
0.0
 11
191.5091249674
 21
130.0203545052
 31
0.0
  0
LINE
  5
1CA
330
1F
100
AcDbEntity
  8
0
  6
HIDDEN
 62
     7
370
     0
100
AcDbLine
 10
190.6291247859
 20
96.220356043
 30
0.0
 11
191.5091249674
 21
96.220356043
 31
0.0
  0
SPLINE
  5
1CB
330
1F
100
AcDbEntity
  8
0
  6
HIDDEN
 62
     7
370
     0
100
AcDbSpline
210
0.0
220
0.0
230
1.0
 70
     8
 71
     3
 72
     8
 73
     4
 74
     0
 42
0.00000001
 43
0.00000001
 12
1.0
 22
0.0
 32
0.0
 13
1.0
 23
0.0
 33
0.0
 40
0.0
 40
0.0
 40
0.0
 40
0.0
 40
1.0
 40
1.0
 40
1.0
 40
1.0
 10
189.0339648834191
 20
132.6075305440314
 30
0.0
 10
189.3663229798087
 20
132.0167203303594
 30
0.0
 10
189.6981042512928
 20
131.4255876661142
 30
0.0
 10
190.0291245823125
 20
130.8340319696565
 30
0.0
  0
LINE
  5
1CC
330
1F
100
AcDbEntity
  8
0
  6
HIDDEN
 62
     7
370
     0
100
AcDbLine
 10
195.0191251515
 20
131.9912323761
 30
0.0
 11
195.0191251515
 21
94.5163225788
 31
0.0
  0
SPLINE
  5
1CD
330
1F
100
AcDbEntity
  8
0
  6
HIDDEN
 62
     7
370
     0
100
AcDbSpline
210
0.0
220
0.0
230
1.0
 70
     8
 71
     3
 72
    10
 73
     6
 74
     0
 42
0.00000001
 43
0.00000001
 12
1.0
 22
0.0
 32
0.0
 13
1.0
 23
0.0
 33
0.0
 40
0.0
 40
0.0
 40
0.0
 40
0.0
 40
0.5
 40
0.5
 40
1.0
 40
1.0
 40
1.0
 40
1.0
 10
194.4191245823125
 20
132.6075305440314
 30
0.0
 10
194.5795468069119
 20
132.6075305440314
 30
0.0
 10
194.7360296075792
 20
132.5389451415255
 30
0.0
 10
194.9566832181465
 20
132.3091718722059
 30
0.0
 10
195.0191245823125
 20
132.1506736705382
 30
0.0
 10
195.0191245823125
 20
131.9912323072692
 30
0.0
  0
SPLINE
  5
1CE
330
1F
100
AcDbEntity
  8
0
  6
HIDDEN
 62
     7
370
     0
100
AcDbSpline
210
0.0
220
0.0
230
1.0
 70
     8
 71
     3
 72
    12
 73
     8
 74
     0
 42
0.00000001
 43
0.00000001
 12
1.0
 22
0.0
 32
0.0
 13
1.0
 23
0.0
 33
0.0
 40
0.0
 40
0.0
 40
0.0
 40
0.0
 40
0.2500000000000001
 40
0.2500000000000001
 40
0.5000000000000002
 40
0.5000000000000002
 40
1.0
 40
1.0
 40
1.0
 40
1.0
 10
194.4191245823125
 20
93.89147075109686
 30
0.0
 10
194.4988900627827
 20
93.89147075109686
 30
0.0
 10
194.5793113464398
 20
93.90844634745496
 30
0.0
 10
194.7259932631024
 20
93.97292184491415
 30
0.0
 10
194.7923470726663
 20
94.02003547670876
 30
0.0
 10
194.9585511533929
 20
94.19664539069625
 30
0.0
 10
195.0191245823124
 20
94.3564942665044
 30
0.0
 10
195.0191245823125
 20
94.51632345303942
 30
0.0
  0
SPLINE
  5
1CF
330
1F
100
AcDbEntity
  8
0
  6
HIDDEN
 62
     7
370
     0
100
AcDbSpline
210
0.0
220
0.0
230
1.0
 70
     8
 71
     3
 72
     8
 73
     4
 74
     0
 42
0.00000001
 43
0.00000001
 12
1.0
 22
0.0
 32
0.0
 13
1.0
 23
0.0
 33
0.0
 40
0.0
 40
0.0
 40
0.0
 40
0.0
 40
1.0
 40
1.0
 40
1.0
 40
1.0
 10
192.1091245823125
 20
130.8340319696565
 30
0.0
 10
192.4401449133321
 20
131.4255876661142
 30
0.0
 10
192.7719261848163
 20
132.0167203303594
 30
0.0
 10
193.1042842812059
 20
132.6075305440314
 30
0.0
  0
LINE
  5
1D0
330
1F
100
AcDbEntity
  8
0
  6
HIDDEN
 62
     7
370
     0
100
AcDbLine
 10
193.1042849599
 20
132.6075313646
 30
0.0
 11
194.4191243081
 21
132.6075313646
 31
0.0
  0
LINE
  5
1D1
330
1F
100
AcDbEntity
  8
0
  6
HIDDEN
 62
     7
370
     0
100
AcDbLine
 10
193.1042849599
 20
132.6075313646
 30
0.0
 11
193.1042849599
 21
93.8914703238
 31
0.0
  0
LINE
  5
1D2
330
1F
100
AcDbEntity
  8
0
  6
HIDDEN
 62
     7
370
     0
100
AcDbLine
 10
190.0291248738
 20
130.8340324122
 30
0.0
 11
190.0291248738
 21
95.6912325728
 31
0.0
  0
LINE
  5
1D3
330
1F
100
AcDbEntity
  8
0
  6
HIDDEN
 62
     7
370
     0
100
AcDbLine
 10
192.1091239481
 20
130.8340324122
 30
0.0
 11
192.1091239481
 21
95.6912325728
 31
0.0
  0
SPLINE
  5
1D4
330
1F
100
AcDbEntity
  8
0
  6
HIDDEN
 62
     7
370
     0
100
AcDbSpline
210
0.0
220
0.0
230
1.0
 70
     8
 71
     3
 72
     8
 73
     4
 74
     0
 42
0.00000001
 43
0.00000001
 12
1.0
 22
0.0
 32
0.0
 13
1.0
 23
0.0
 33
0.0
 40
0.0
 40
0.0
 40
0.0
 40
0.0
 40
1.0
 40
1.0
 40
1.0
 40
1.0
 10
189.0339648834191
 20
93.89147075109686
 30
0.0
 10
189.3666701551244
 20
94.49084242432052
 30
0.0
 10
189.6984859556979
 20
95.09071153502555
 30
0.0
 10
190.0291245823125
 20
95.69123188613653
 30
0.0
  0
SPLINE
  5
1D5
330
1F
100
AcDbEntity
  8
0
  6
HIDDEN
 62
     7
370
     0
100
AcDbSpline
210
0.0
220
0.0
230
1.0
 70
     8
 71
     3
 72
     8
 73
     4
 74
     0
 42
0.00000001
 43
0.00000001
 12
1.0
 22
0.0
 32
0.0
 13
1.0
 23
0.0
 33
0.0
 40
0.0
 40
0.0
 40
0.0
 40
0.0
 40
1.0
 40
1.0
 40
1.0
 40
1.0
 10
192.1091245823125
 20
95.69123188613653
 30
0.0
 10
192.4397632089271
 20
95.09071153502555
 30
0.0
 10
192.7715790095006
 20
94.49084242432052
 30
0.0
 10
193.1042842812059
 20
93.89147075109686
 30
0.0
  0
LINE
  5
1D6
330
1F
100
AcDbEntity
  8
0
  6
HIDDEN
 62
     7
370
     0
100
AcDbLine
 10
193.1042849599
 20
93.8914703238
 30
0.0
 11
194.4191243081
 21
93.8914703238
 31
0.0
  0
LINE
  5
1D7
330
1F
100
AcDbEntity
  8
0
  6
HIDDEN
 62
     7
370
     0
100
AcDbLine
 10
155.1691248595
 20
101.3018829781
 30
0.0
 11
155.1691248595
 21
101.572841968
 31
0.0
  0
LINE
  5
1D8
330
1F
100
AcDbEntity
  8
0
  6
HIDDEN
 62
     7
370
     0
100
AcDbLine
 10
155.1691248595
 20
124.994269203
 30
0.0
 11
155.1691248595
 21
124.8985869843
 31
0.0
  0
SPLINE
  5
1D9
330
1F
100
AcDbEntity
  8
0
  6
HIDDEN
 62
     7
370
     0
100
AcDbSpline
210
0.0
220
0.0
230
1.0
 70
     8
 71
     3
 72
    26
 73
    22
 74
     0
 42
0.00000001
 43
0.00000001
 12
1.0
 22
0.0
 32
0.0
 13
1.0
 23
0.0
 33
0.0
 40
0.0
 40
0.0
 40
0.0
 40
0.0
 40
0.2500000000000048
 40
0.2500000000000048
 40
0.3750000000000075
 40
0.3750000000000075
 40
0.4375000000000081
 40
0.4375000000000081
 40
0.4687500000000084
 40
0.4687500000000084
 40
0.5000000000000088
 40
0.5000000000000088
 40
0.5312500000000091
 40
0.5312500000000091
 40
0.5625000000000095
 40
0.5625000000000095
 40
0.6250000000000084
 40
0.6250000000000084
 40
0.7500000000000053
 40
0.7500000000000053
 40
1.0
 40
1.0
 40
1.0
 40
1.0
 10
155.9290946287004
 20
125.5084358537392
 30
0.0
 10
155.8817065192719
 20
125.3727801117161
 30
0.0
 10
155.8240652173675
 20
125.2288187133869
 30
0.0
 10
155.7020174048242
 20
124.9860461401324
 30
0.0
 10
155.6559683970476
 20
124.9010064996831
 30
0.0
 10
155.565315112882
 20
124.7606305266427
 30
0.0
 10
155.5309626125964
 20
124.7107191493039
 30
0.0
 10
155.4685274402059
 20
124.6341838844496
 30
0.0
 10
155.4452334214079
 20
124.6077794054628
 30
0.0
 10
155.3961808842814
 20
124.5601846402017
 30
0.0
 10
155.3717494346245
 20
124.5407420263499
 30
0.0
 10
155.3311198390047
 20
124.5158342486818
 30
0.0
 10
155.3149575571535
 20
124.5097644173708
 30
0.0
 10
155.2879755130504
 20
124.504075545777
 30
0.0
 10
155.2772259902276
 20
124.5044660538578
 30
0.0
 10
155.2491900160705
 20
124.5106084006462
 30
0.0
 10
155.2363287840378
 20
124.5212724070642
 30
0.0
 10
155.2053259228775
 20
124.5602851974244
 30
0.0
 10
155.1944664408084
 20
124.5963371878287
 30
0.0
 10
155.1711891848703
 20
124.7140165853278
 30
0.0
 10
155.1691245823124
 20
124.8053464856608
 30
0.0
 10
155.1691245823124
 20
124.8985867385671
 30
0.0
  0
SPLINE
  5
1DA
330
1F
100
AcDbEntity
  8
0
  6
HIDDEN
 62
     7
370
     0
100
AcDbSpline
210
0.0
220
0.0
230
1.0
 70
     8
 71
     3
 72
    24
 73
    20
 74
     0
 42
0.00000001
 43
0.00000001
 12
1.0
 22
0.0
 32
0.0
 13
1.0
 23
0.0
 33
0.0
 40
0.0
 40
0.0
 40
0.0
 40
0.0
 40
0.2500000000000018
 40
0.2500000000000018
 40
0.3750000000000031
 40
0.3750000000000031
 40
0.437500000000003
 40
0.437500000000003
 40
0.5000000000000029
 40
0.5000000000000029
 40
0.5312500000000041
 40
0.5312500000000041
 40
0.5625000000000053
 40
0.5625000000000053
 40
0.625000000000006
 40
0.625000000000006
 40
0.7500000000000044
 40
0.7500000000000044
 40
1.0
 40
1.0
 40
1.0
 40
1.0
 10
155.1691245823125
 20
101.5728420729049
 30
0.0
 10
155.1691245823125
 20
101.6577510265745
 30
0.0
 10
155.1718492107449
 20
101.7400807226213
 30
0.0
 10
155.1982065318628
 20
101.8424931100404
 30
0.0
 10
155.210420250135
 20
101.8733102064248
 30
0.0
 10
155.2450309002674
 20
101.9024077225017
 30
0.0
 10
155.2594176106348
 20
101.9093653631403
 30
0.0
 10
155.3006660937372
 20
101.9082556218635
 30
0.0
 10
155.329205643668
 20
101.8999622162547
 30
0.0
 10
155.3901283091794
 20
101.8553787823935
 30
0.0
 10
155.4131942793192
 20
101.8349170691362
 30
0.0
 10
155.4570901593255
 20
101.7903044508558
 30
0.0
 10
155.4779701948856
 20
101.7664283726495
 30
0.0
 10
155.5351804581787
 20
101.6965312754875
 30
0.0
 10
155.5675270819551
 20
101.650953686703
 30
0.0
 10
155.653693025447
 20
101.5220701990841
 30
0.0
 10
155.699357045487
 20
101.442237021952
 30
0.0
 10
155.8199046089382
 20
101.2164562128397
 30
0.0
 10
155.8789646976394
 20
101.0816248278684
 30
0.0
 10
155.9290946287004
 20
100.9533696892009
 30
0.0
  0
LINE
  5
1DB
330
1F
100
AcDbEntity
  8
0
  6
HIDDEN
 62
     7
370
     0
100
AcDbLine
 10
155.1691248595
 20
124.8985869843
 30
0.0
 11
155.1691248595
 21
101.572841968
 31
0.0
  0
LWPOLYLINE
  5
1DC
330
1F
100
AcDbEntity
  8
0
  6
HIDDEN
 62
     7
370
     0
100
AcDbPolyline
 90
       32
 70
   128
 43
0.0
 10
199.0272357642
 20
113.4467329339
 10
199.5228372096
 20
113.4735467004
 10
199.9981469988
 20
113.5981255011
 10
200.4337098031
 20
113.8153690645
 10
200.8116889327
 20
114.1163834637
 10
201.1166132568
 20
114.4888449726
 10
201.3359993278
 20
114.9175051633
 10
201.460863608
 20
115.3848146587
 10
201.4860949992
 20
115.8716414157
 10
201.4106597333
 20
116.3580551311
 10
201.2376479386
 20
116.8241415672
 10
200.974141392
 20
117.2508193213
 10
200.6309266715
 20
117.6206205073
 10
200.2220574348
 20
117.9184043813
 10
199.7642732738
 20
118.1319808621
 10
199.2763142615
 20
118.2526052963
 10
198.7781572669
 20
118.275339346
 10
198.2901982545
 20
118.1992530856
 10
197.8324122309
 20
118.0274603922
 10
197.4235429942
 20
117.7669950794
 10
197.0803301363
 20
117.4285203252
 10
196.8168235897
 20
117.0258937437
 10
196.643811795
 20
116.5755988132
 10
196.5683765291
 20
116.0960703656
 10
196.5936079203
 20
115.6069404479
 10
196.7184722005
 20
115.1282343581
 10
196.9378564089
 20
114.6795500336
 10
197.242780733
 20
114.2792568808
 10
197.6207617252
 20
113.9437429174
 10
198.0563245296
 20
113.6867441037
 10
198.5316343187
 20
113.5187819692
 10
199.0272357642
 20
113.4467329339
  0
CIRCLE
  5
1DD
330
1F
100
AcDbEntity
  8
0
  6
HIDDEN
 62
     7
370
     0
100
AcDbCircle
 10
182.0691245823
 20
113.1203552741
 30
0.0
 40
4.999999999999986
  0
LINE
  5
1DE
330
1F
100
AcDbEntity
  8
0
  6
HIDDEN
 62
     7
370
     0
100
AcDbLine
 10
225.5176428287
 20
96.5572284568
 30
0.0
 11
225.2648334532
 21
96.0426727343
 31
0.0
  0
LINE
  5
1DF
330
1F
100
AcDbEntity
  8
0
  6
HIDDEN
 62
     7
370
     0
100
AcDbLine
 10
225.5168046384
 20
96.5554887462
 30
0.0
 11
220.2484879225
 21
113.1203552741
 31
0.0
  0
LINE
  5
1E0
330
1F
100
AcDbEntity
  8
0
  6
HIDDEN
 62
     7
370
     0
100
AcDbLine
 10
175.0691245823
 20
96.9131538678
 30
0.0
 11
175.1632853546
 21
97.5831436027
 31
0.0
  0
LINE
  5
1E1
330
1F
100
AcDbEntity
  8
0
  6
HIDDEN
 62
     7
370
     0
100
AcDbLine
 10
175.1632853546
 20
128.6575669456
 30
0.0
 11
175.0691245823
 21
129.3275566805
 31
0.0
  0
ARC
  5
1E2
330
1F
100
AcDbEntity
  8
0
  6
HIDDEN
 62
     7
370
     0
100
AcDbCircle
 10
174.5691178296
 20
97.6666481207
 30
0.0
 40
0.6000067526677042
100
AcDbArc
 50
352.0
 51
0.0
  0
ARC
  5
1E3
330
1F
100
AcDbEntity
  8
0
  6
HIDDEN
 62
     7
370
     0
100
AcDbCircle
 10
174.5691178296
 20
97.6666481207
 30
0.0
 40
0.6000067526677045
100
AcDbArc
 50
0.0
 51
33.5571153394
  0
ARC
  5
1E4
330
1F
100
AcDbEntity
  8
0
  6
HIDDEN
 62
     7
370
     0
100
AcDbCircle
 10
174.5691178296
 20
128.5740624276
 30
0.0
 40
0.6000067526677081
100
AcDbArc
 50
348.75
 51
8.0
  0
LWPOLYLINE
  5
1E5
330
1F
100
AcDbEntity
  8
0
  6
HIDDEN
 62
     7
370
     0
100
AcDbPolyline
 90
        3
 70
   128
 43
0.0
 10
175.1575956212
 20
128.4570066292
 10
175.1234517895
 20
128.3444497768
 10
175.0691245823
 20
128.242398243
  0
LINE
  5
1E6
330
1F
100
AcDbEntity
  8
0
  6
HIDDEN
 62
     7
370
     0
100
AcDbLine
 10
175.1691245798
 20
97.6666478473
 30
0.0
 11
175.1691245798
 21
128.5740627009
 31
0.0
  0
LINE
  5
1E7
330
1F
100
AcDbEntity
  8
0
  6
HIDDEN
 62
     7
370
     0
100
AcDbLine
 10
175.1691245798
 20
97.6666478473
 30
0.0
 11
175.1691245798
 21
128.5740627009
 31
0.0
  0
ARC
  5
1E8
330
1F
100
AcDbEntity
  8
0
  6
HIDDEN
 62
     7
370
     0
100
AcDbCircle
 10
164.6017525265
 20
100.7703552741
 30
0.0
 40
0.4000000000000244
100
AcDbArc
 50
210.0
 51
270.0
  0
ARC
  5
1E9
330
1F
100
AcDbEntity
  8
0
  6
HIDDEN
 62
     7
370
     0
100
AcDbCircle
 10
164.6017525265
 20
125.4703552741
 30
0.0
 40
0.4000000000000315
100
AcDbArc
 50
90.0
 51
150.0
  0
LINE
  5
1EA
330
1F
100
AcDbEntity
  8
0
  6
HIDDEN
 62
     7
370
     0
100
AcDbLine
 10
164.601752679
 20
100.3703555125
 30
0.0
 11
166.7998993351
 21
100.3703555125
 31
0.0
  0
LINE
  5
1EB
330
1F
100
AcDbEntity
  8
0
  6
HIDDEN
 62
     7
370
     0
100
AcDbLine
 10
166.7998993351
 20
125.8703550357
 30
0.0
 11
164.601752679
 21
125.8703550357
 31
0.0
  0
ARC
  5
1EC
330
1F
100
AcDbEntity
  8
0
  6
HIDDEN
 62
     7
370
     0
100
AcDbCircle
 10
170.8933013102
 20
105.3703552741
 30
0.0
 40
5.00000000000001
100
AcDbArc
 50
275.4100105242
 51
326.6329870308
  0
ARC
  5
1ED
330
1F
100
AcDbEntity
  8
0
  6
HIDDEN
 62
     7
370
     0
100
AcDbCircle
 10
170.8933013102
 20
120.8703552741
 30
0.0
 40
5.00000000000001
100
AcDbArc
 50
33.3670129692
 51
84.5877875248
  0
LINE
  5
1EE
330
1F
100
AcDbEntity
  8
0
  6
HIDDEN
 62
     7
370
     0
100
AcDbLine
 10
164.2553425907
 20
125.6703553755
 30
0.0
 11
163.0717740907
 21
123.6203551326
 31
0.0
  0
LINE
  5
1EF
330
1F
100
AcDbEntity
  8
0
  6
HIDDEN
 62
     7
370
     0
100
AcDbLine
 10
163.0717740907
 20
102.6203554157
 30
0.0
 11
164.2553425907
 21
100.5703551728
 31
0.0
  0
LINE
  5
1F0
330
1F
100
AcDbEntity
  8
0
  6
HIDDEN
 62
     7
370
     0
100
AcDbLine
 10
197.6962063043
 20
110.1779987603
 30
0.0
 11
198.5583725898
 21
111.4435166619
 31
0.0
  0
LINE
  5
1F1
330
1F
100
AcDbEntity
  8
0
  6
HIDDEN
 62
     7
370
     0
100
AcDbLine
 10
196.94249067
 20
109.0716697309
 30
0.0
 11
196.9651031821
 21
109.1048592735
 31
0.0
  0
LINE
  5
1F2
330
1F
100
AcDbEntity
  8
0
  6
HIDDEN
 62
     7
370
     0
100
AcDbLine
 10
193.5459740042
 20
111.5457718061
 30
0.0
 11
193.471458885
 21
111.4363972829
 31
0.0
  0
LINE
  5
1F3
330
1F
100
AcDbEntity
  8
0
  6
HIDDEN
 62
     7
370
     0
100
AcDbLine
 10
194.9799928396
 20
113.650675552
 30
0.0
 11
194.0601478844
 21
112.3004937345
 31
0.0
  0
LINE
  5
1F4
330
1F
100
AcDbEntity
  8
0
  6
HIDDEN
 62
     7
370
     0
100
AcDbLine
 10
195.9921095102
 20
112.8237831963
 30
0.0
 11
195.3441064387
 21
113.282639004
 31
0.0
  0
LINE
  5
1F5
330
1F
100
AcDbEntity
  8
0
  6
HIDDEN
 62
     7
370
     0
100
AcDbLine
 10
195.1438329696
 20
113.2616436317
 30
0.0
 11
193.122803378
 21
112.2823850983
 31
0.0
  0
LINE
  5
1F6
330
1F
100
AcDbEntity
  8
0
  6
HIDDEN
 62
     7
370
     0
100
AcDbLine
 10
193.122803378
 20
112.2823850983
 30
0.0
 11
192.8702435969
 21
110.0508550681
 31
0.0
  0
ARC
  5
1F7
330
1F
100
AcDbEntity
  8
0
  6
HIDDEN
 62
     7
370
     0
100
AcDbCircle
 10
182.0191245823
 20
103.2453552741
 30
0.0
 40
1.00000000000001
100
AcDbArc
 50
218.6821874535
 51
0.0
  0
ARC
  5
1F8
330
1F
100
AcDbEntity
  8
0
  6
HIDDEN
 62
     7
370
     0
100
AcDbCircle
 10
182.0191245823
 20
122.9953552741
 30
0.0
 40
1.00000000000001
100
AcDbArc
 50
0.0
 51
141.3178125465
  0
LINE
  5
1F9
330
1F
100
AcDbEntity
  8
0
  6
HIDDEN
 62
     7
370
     0
100
AcDbLine
 10
202.689818251
 20
108.081073131
 30
0.0
 11
197.538373205
 21
111.7288587648
 31
0.0
  0
LINE
  5
1FA
330
1F
100
AcDbEntity
  8
0
  6
HIDDEN
 62
     7
370
     0
100
AcDbLine
 10
194.1085915594
 20
109.0111584436
 30
0.0
 11
202.7910101741
 21
102.8630580786
 31
0.0
  0
LINE
  5
1FB
330
1F
100
AcDbEntity
  8
0
  6
HIDDEN
 62
     7
370
     0
100
AcDbLine
 10
192.9169456988
 20
109.8549737163
 30
0.0
 11
194.1085915594
 21
109.0111584436
 31
0.0
  0
LINE
  5
1FC
330
1F
100
AcDbEntity
  8
0
  6
HIDDEN
 62
     7
370
     0
100
AcDbLine
 10
175.0691245823
 20
102.6203554157
 30
0.0
 11
181.2384996145
 21
102.6203554157
 31
0.0
  0
LINE
  5
1FD
330
1F
100
AcDbEntity
  8
0
  6
HIDDEN
 62
     7
370
     0
100
AcDbLine
 10
181.2384996145
 20
123.6203551326
 30
0.0
 11
175.0691245823
 21
123.6203551326
 31
0.0
  0
LINE
  5
1FE
330
1F
100
AcDbEntity
  8
0
  6
HIDDEN
 62
     7
370
     0
100
AcDbLine
 10
161.2691247418
 20
102.6203554157
 30
0.0
 11
163.0717740907
 21
102.6203554157
 31
0.0
  0
LINE
  5
1FF
330
1F
100
AcDbEntity
  8
0
  6
HIDDEN
 62
     7
370
     0
100
AcDbLine
 10
163.0717740907
 20
123.6203551326
 30
0.0
 11
158.769124332
 21
123.6203551326
 31
0.0
  0
LINE
  5
200
330
1F
100
AcDbEntity
  8
0
  6
HIDDEN
 62
     7
370
     0
100
AcDbLine
 10
188.3691243409
 20
106.870355181
 30
0.0
 11
190.8691238194
 21
106.870355181
 31
0.0
  0
LINE
  5
201
330
1F
100
AcDbEntity
  8
0
  6
HIDDEN
 62
     7
370
     0
100
AcDbLine
 10
190.8691238194
 20
119.3703553673
 30
0.0
 11
188.3691243409
 21
119.3703553673
 31
0.0
  0
LINE
  5
202
330
1F
100
AcDbEntity
  8
0
  6
HIDDEN
 62
     7
370
     0
100
AcDbLine
 10
183.0191250472
 20
107.120355222
 30
0.0
 11
183.5191241979
 21
107.6203553039
 31
0.0
  0
LINE
  5
203
330
1F
100
AcDbEntity
  8
0
  6
HIDDEN
 62
     7
370
     0
100
AcDbLine
 10
183.5191241979
 20
118.6203552443
 30
0.0
 11
183.0191250472
 21
119.1203553263
 31
0.0
  0
LINE
  5
204
330
1F
100
AcDbEntity
  8
0
  6
HIDDEN
 62
     7
370
     0
100
AcDbLine
 10
183.5191241979
 20
107.6203553039
 30
0.0
 11
188.3691243409
 21
107.6203553039
 31
0.0
  0
LINE
  5
205
330
1F
100
AcDbEntity
  8
0
  6
HIDDEN
 62
     7
370
     0
100
AcDbLine
 10
188.3691243409
 20
118.6203552443
 30
0.0
 11
183.5191241979
 21
118.6203552443
 31
0.0
  0
LINE
  5
206
330
1F
100
AcDbEntity
  8
0
  6
HIDDEN
 62
     7
370
     0
100
AcDbLine
 10
183.0191250472
 20
133.1203548271
 30
0.0
 11
183.0191250472
 21
130.0203545052
 31
0.0
  0
LINE
  5
207
330
1F
100
AcDbEntity
  8
0
  6
HIDDEN
 62
     7
370
     0
100
AcDbLine
 10
171.8363039243
 20
98.0790505219
 30
0.0
 11
171.3683753322
 21
98.5748875919
 31
0.0
  0
LINE
  5
208
330
1F
100
AcDbEntity
  8
0
  6
HIDDEN
 62
     7
370
     0
100
AcDbLine
 10
166.7704704731
 20
98.8547407124
 30
0.0
 11
166.252996917
 21
98.3589157495
 31
0.0
  0
LINE
  5
209
330
1F
100
AcDbEntity
  8
0
  6
HIDDEN
 62
     7
370
     0
100
AcDbLine
 10
166.2523626863
 20
127.8818450901
 30
0.0
 11
166.7700485839
 21
127.3859577287
 31
0.0
  0
LINE
  5
20A
330
1F
100
AcDbEntity
  8
0
  6
HIDDEN
 62
     7
370
     0
100
AcDbLine
 10
171.3676894131
 20
127.6656050268
 30
0.0
 11
171.8355933252
 21
128.1614989076
 31
0.0
  0
LINE
  5
20B
330
1F
100
AcDbEntity
  8
0
  6
HIDDEN
 62
     7
370
     0
100
AcDbLine
 10
190.8691238194
 20
110.62035533
 30
0.0
 11
200.169124785
 21
110.62035533
 31
0.0
  0
LINE
  5
20C
330
1F
100
AcDbEntity
  8
0
  6
HIDDEN
 62
     7
370
     0
100
AcDbLine
 10
200.169124785
 20
115.6203552182
 30
0.0
 11
190.8691238194
 21
115.6203552182
 31
0.0
  0
LINE
  5
20D
330
1F
100
AcDbEntity
  8
0
  6
HIDDEN
 62
     7
370
     0
100
AcDbLine
 10
200.169124785
 20
110.62035533
 30
0.0
 11
201.6712754547
 21
113.1203552741
 31
0.0
  0
LINE
  5
20E
330
1F
100
AcDbEntity
  8
0
  6
HIDDEN
 62
     7
370
     0
100
AcDbLine
 10
201.6712754547
 20
113.1203552741
 30
0.0
 11
200.169124785
 21
115.6203552182
 31
0.0
  0
LINE
  5
20F
330
1F
100
AcDbEntity
  8
0
  6
HIDDEN
 62
     7
370
     0
100
AcDbLine
 10
171.3691245812
 20
125.8472098071
 30
0.0
 11
171.3691245812
 21
127.6653945479
 31
0.0
  0
LINE
  5
210
330
1F
100
AcDbEntity
  8
0
  6
HIDDEN
 62
     7
370
     0
100
AcDbLine
 10
166.769124712
 20
127.3848522488
 30
0.0
 11
166.769124712
 21
125.8648527819
 31
0.0
  0
LINE
  5
211
330
1F
100
AcDbEntity
  8
0
  6
HIDDEN
 62
     7
370
     0
100
AcDbLine
 10
171.3691245812
 20
98.5751315985
 30
0.0
 11
171.3691245812
 21
100.3935007412
 31
0.0
  0
LINE
  5
212
330
1F
100
AcDbEntity
  8
0
  6
HIDDEN
 62
     7
370
     0
100
AcDbLine
 10
166.769124712
 20
100.3758577663
 30
0.0
 11
166.769124712
 21
98.8617470521
 31
0.0
  0
LINE
  5
213
330
1F
100
AcDbEntity
  8
0
  6
HIDDEN
 62
     7
370
     0
100
AcDbLine
 10
218.9890417783
 20
90.0614639777
 30
0.0
 11
219.0443623393
 21
90.0441730428
 31
0.0
  0
LINE
  5
214
330
1F
100
AcDbEntity
  8
0
  6
HIDDEN
 62
     7
370
     0
100
AcDbLine
 10
199.3385564118
 20
112.5886984319
 30
0.0
 11
200.7210153668
 21
114.6179230218
 31
0.0
  0
LINE
  5
215
330
1F
100
AcDbEntity
  8
0
  6
HIDDEN
 62
     7
370
     0
100
AcDbLine
 10
197.2499835818
 20
116.9826508067
 30
0.0
 11
195.7597761928
 21
114.7952694246
 31
0.0
  0
LINE
  5
216
330
1F
100
AcDbEntity
  8
0
  6
HIDDEN
 62
     7
370
     0
100
AcDbLine
 10
214.0003751545
 20
98.3276177231
 30
0.0
 11
214.078878197
 21
98.2492208514
 31
0.0
  0
ARC
  5
217
330
1F
100
AcDbEntity
  8
0
  6
HIDDEN
 62
     7
370
     0
100
AcDbCircle
 10
160.3691245823
 20
99.3993552741
 30
0.0
 40
0.8999999999999915
100
AcDbArc
 50
29.8499024808
 51
90.0
  0
ARC
  5
218
330
1F
100
AcDbEntity
  8
0
  6
HIDDEN
 62
     7
370
     0
100
AcDbCircle
 10
157.8691245823
 20
126.9003552741
 30
0.0
 40
0.9000000000000057
100
AcDbArc
 50
270.0
 51
311.1792132368
  0
LINE
  5
219
330
1F
100
AcDbEntity
  8
0
  6
HIDDEN
 62
     7
370
     0
100
AcDbLine
 10
223.8265733748
 20
94.6774767745
 30
0.0
 11
223.368630889
 21
95.1347878236
 31
0.0
  0
LINE
  5
21A
330
1F
100
AcDbEntity
  8
0
  6
HIDDEN
 62
     7
370
     0
100
AcDbLine
 10
221.0662785499
 20
92.7702790159
 30
0.0
 11
221.4947204619
 21
92.3424238372
 31
0.0
  0
LINE
  5
21B
330
1F
100
AcDbEntity
  8
0
  6
HIDDEN
 62
     7
370
     0
100
AcDbLine
 10
156.119124177
 20
100.2993552047
 30
0.0
 11
160.369124408
 21
100.2993552047
 31
0.0
  0
LINE
  5
21C
330
1F
100
AcDbEntity
  8
0
  6
HIDDEN
 62
     7
370
     0
100
AcDbLine
 10
155.1691248595
 20
101.2493554536
 30
0.0
 11
156.119124177
 21
100.2993552047
 31
0.0
  0
LINE
  5
21D
330
1F
100
AcDbEntity
  8
0
  6
HIDDEN
 62
     7
370
     0
100
AcDbLine
 10
157.8691239982
 20
126.0003555599
 30
0.0
 11
156.119124177
 21
126.0003555599
 31
0.0
  0
LINE
  5
21E
330
1F
100
AcDbEntity
  8
0
  6
HIDDEN
 62
     7
370
     0
100
AcDbLine
 10
156.119124177
 20
126.0003555599
 30
0.0
 11
155.1691248595
 21
125.0503553111
 31
0.0
  0
LINE
  5
21F
330
1F
100
AcDbEntity
  8
0
  6
HIDDEN
 62
     7
370
     0
100
AcDbLine
 10
201.0933264672
 20
114.4539714824
 30
0.0
 11
202.1886381834
 21
116.0617087535
 31
0.0
  0
LINE
  5
220
330
1F
100
AcDbEntity
  8
0
  6
HIDDEN
 62
     7
370
     0
100
AcDbLine
 10
197.9294206529
 20
118.6903916333
 30
0.0
 11
196.9611450612
 21
117.2691235352
 31
0.0
  0
DIMENSION
  5
221
330
1F
100
AcDbEntity
  8
VERMASSUNG
100
AcDbDimension
  2
_D
 10
155.1691245823
 20
143.1203552741
 30
0.0
 11
192.6191245823
 21
143.1203552741
 31
0.0
 70
   160
  1
<>
 71
     2
 42
-1.0
  3
SLDDIMSTYLE0
100
AcDbAlignedDimension
 13
230.0691245823
 23
86.1203552741
 33
0.0
 14
155.1691245823
 24
125.0503552741
 34
0.0
 50
0.0
100
AcDbRotatedDimension
  0
DIMENSION
  5
22C
330
1F
100
AcDbEntity
  8
VERMASSUNG
100
AcDbDimension
  2
_D_1
 10
230.0691245823
 20
137.1203552741
 30
0.0
 11
202.5691245823
 21
137.1203552741
 31
0.0
 70
   160
  1
<>
 71
     2
 42
-1.0
  3
SLDDIMSTYLE0
100
AcDbAlignedDimension
 13
175.0691245823
 23
132.8203552741
 33
0.0
 14
230.0691245823
 24
86.1203552741
 34
0.0
100
AcDbRotatedDimension
  0
DIMENSION
  5
236
330
1F
100
AcDbEntity
  8
VERMASSUNG
100
AcDbDimension
  2
_D_2
 10
237.6767332147
 20
86.1203552741
 30
0.0
 11
237.6767332147
 21
99.6203552741
 31
0.0
 70
   160
  1
<>
 71
     2
 42
-1.0
  3
SLDDIMSTYLE0
100
AcDbAlignedDimension
 13
222.9326007653
 23
113.1203552741
 33
0.0
 14
230.0691245823
 24
86.1203552741
 34
0.0
 50
90.0
100
AcDbRotatedDimension
  0
DIMENSION
  5
240
330
1F
100
AcDbEntity
  8
VERMASSUNG
100
AcDbDimension
  2
_D_3
 10
152.1156498774
 20
93.1203552741
 30
0.0
 11
152.1156498774
 21
113.1203552741
 31
0.0
 70
   160
  1
HSK %%c<>
 71
     2
 42
-1.0
  3
SLDDIMSTYLE0
100
AcDbAlignedDimension
 13
175.3691245823
 23
133.1203552741
 33
0.0
 14
175.3691245823
 24
93.1203552741
 34
0.0
 50
90.0
100
AcDbRotatedDimension
  0
DIMENSION
  5
24C
330
1F
100
AcDbEntity
  8
VERMASSUNG
100
AcDbDimension
  2
_D_4
 10
230.0691245823
 20
86.1203552741
 30
0.0
 11
224.2709405293
 21
121.8639817974
 31
0.0
 70
   162
  1
<>
 71
     1
 42
-1.0
  3
SLDDIMSTYLE1
100
AcDb2LineAngularDimension
 13
215.3399364926
 23
130.8982621116
 33
0.0
 14
225.9735301
 24
97.2019778362
 34
0.0
 15
230.0691245823
 25
113.1203552741
 35
0.0
 16
224.2709405293
 26
121.8639817974
 36
0.0
  0
LINE
  5
256
330
1F
100
AcDbEntity
  8
VERMASSUNG
  6
CENTERX2
370
     0
100
AcDbLine
 10
154.6464252769
 20
113.1203552741
 30
0.0
 11
222.9326007653
 21
113.1203552741
 31
0.0
  0
SPLINE
  5
257
330
1F
100
AcDbEntity
  8
0
  6
Continuous
 62
     7
370
    15
100
AcDbSpline
210
0.0
220
0.0
230
1.0
 70
     8
 71
     3
 72
    10
 73
     6
 74
     0
 42
0.00000001
 43
0.00000001
 12
1.0
 22
0.0
 32
0.0
 13
1.0
 23
0.0
 33
0.0
 40
0.0
 40
0.0
 40
0.0
 40
0.0
 40
0.3326292191074363
 40
0.6678379993482558
 40
1.0
 40
1.0
 40
1.0
 40
1.0
 10
79.44317171693689
 20
86.10757682804795
 30
0.0
 10
79.88251515402425
 20
86.20317935067808
 30
0.0
 10
80.76460916500301
 20
86.39512579969202
 30
0.0
 10
82.11736372530366
 20
86.62466579662333
 30
0.0
 10
82.99496449088322
 20
86.82216331261391
 30
0.0
 10
83.43176159740102
 20
86.92046124820445
 30
0.0
  0
LINE
  5
258
330
1F
100
AcDbEntity
  8
0
  6
Continuous
 62
     7
370
    15
100
AcDbLine
 10
79.1583631091
 20
88.9107180793
 30
0.0
 11
79.3422192675
 21
88.6261226643
 31
0.0
  0
LINE
  5
259
330
1F
100
AcDbEntity
  8
0
  6
Continuous
 62
     7
370
    15
100
AcDbLine
 10
78.5732784445
 20
97.8404400903
 30
0.0
 11
78.3677463207
 21
97.4346740205
 31
0.0
  0
LINE
  5
25A
330
1F
100
AcDbEntity
  8
0
  6
Continuous
 62
     7
370
    15
100
AcDbLine
 10
78.3535849788
 20
100.1978447694
 30
0.0
 11
77.9969502493
 21
100.2337370101
 31
0.0
  0
ARC
  5
25B
330
1F
100
AcDbEntity
  8
0
  6
Continuous
 62
     7
370
    15
100
AcDbCircle
 10
85.5043978063
 20
93.6168104389
 30
0.0
 40
6.999999999999999
100
AcDbArc
 50
197.6021752016
 51
201.5424001997
  0
ARC
  5
25C
330
1F
100
AcDbEntity
  8
0
  6
Continuous
 62
     7
370
    15
100
AcDbCircle
 10
85.5043978063
 20
93.6168104389
 30
0.0
 40
7.000000000000004
100
AcDbArc
 50
164.6802162725
 51
168.3978247984
  0
LINE
  5
25D
330
1F
100
AcDbEntity
  8
0
  6
Continuous
 62
     7
370
    15
100
AcDbLine
 10
78.8821916232
 20
92.0979702878
 30
0.0
 11
78.8779304732
 21
92.0977467704
 31
0.0
  0
SPLINE
  5
25E
330
1F
100
AcDbEntity
  8
0
  6
Continuous
 62
     7
370
    15
100
AcDbSpline
210
0.0
220
0.0
230
1.0
 70
     8
 71
     3
 72
    10
 73
     6
 74
     0
 42
0.00000001
 43
0.00000001
 12
1.0
 22
0.0
 32
0.0
 13
1.0
 23
0.0
 33
0.0
 40
0.0
 40
0.0
 40
0.0
 40
0.0
 40
0.3518056060147448
 40
0.7034232925185816
 40
1.0
 40
1.0
 40
1.0
 40
1.0
 10
78.78109032951903
 20
96.77804317657683
 30
0.0
 10
78.77801196936485
 20
96.81911260911714
 30
0.0
 10
78.77185689338489
 20
96.90122953666314
 30
0.0
 10
78.76216106303525
 20
96.99091064225169
 30
0.0
 10
78.75654303361836
 20
97.02200363312633
 30
0.0
 10
78.75397254445267
 20
97.03623000864718
 30
0.0
  0
LINE
  5
25F
330
1F
100
AcDbEntity
  8
0
  6
Continuous
 62
     7
370
    15
100
AcDbLine
 10
79.4808033372
 20
86.6327011991
 30
0.0
 11
78.7810903295
 21
96.7780431766
 31
0.0
  0
SPLINE
  5
260
330
1F
100
AcDbEntity
  8
0
  6
Continuous
 62
     7
370
    15
100
AcDbSpline
210
0.0
220
0.0
230
1.0
 70
     8
 71
     3
 72
    14
 73
    10
 74
     0
 42
0.00000001
 43
0.00000001
 12
1.0
 22
0.0
 32
0.0
 13
1.0
 23
0.0
 33
0.0
 40
0.0
 40
0.0
 40
0.0
 40
0.0
 40
0.1588530726168395
 40
0.3173324293471759
 40
0.4720145773450825
 40
0.6236452805507974
 40
0.7746621382095092
 40
0.9277407726526468
 40
0.9999999999999999
 40
0.9999999999999999
 40
0.9999999999999999
 40
0.9999999999999999
 10
79.48083891840503
 20
86.13592814986441
 30
0.0
 10
79.48369465808736
 20
86.12653347185056
 30
0.0
 10
79.48939941907214
 20
86.10776621763284
 30
0.0
 10
79.49492926931582
 20
86.138595014473
 30
0.0
 10
79.4972954960946
 20
86.20937934133057
 30
0.0
 10
79.4962199147394
 20
86.31406320518632
 30
0.0
 10
79.49196115068861
 20
86.43953221762487
 30
0.0
 10
79.4862847465284
 20
86.55008985497948
 30
0.0
 10
79.48213427223524
 20
86.61264242798222
 30
0.0
 10
79.4808033371533
 20
86.63270119909976
 30
0.0
  0
LINE
  5
261
330
1F
100
AcDbEntity
  8
0
  6
Continuous
 62
     7
370
    15
100
AcDbLine
 10
78.7816252579
 20
89.3096594173
 30
0.0
 11
79.4808389184
 21
86.1359281499
 31
0.0
  0
SPLINE
  5
262
330
1F
100
AcDbEntity
  8
0
  6
Continuous
 62
     7
370
    15
100
AcDbSpline
210
0.0
220
0.0
230
1.0
 70
     8
 71
     3
 72
    10
 73
     6
 74
     0
 42
0.00000001
 43
0.00000001
 12
1.0
 22
0.0
 32
0.0
 13
1.0
 23
0.0
 33
0.0
 40
0.0
 40
0.0
 40
0.0
 40
0.0
 40
0.3518030958629972
 40
0.7034253995027543
 40
1.0
 40
1.0
 40
1.0
 40
1.0
 10
78.75450753106412
 20
89.567846249387
 30
0.0
 10
78.75758588970035
 20
89.5267766277244
 30
0.0
 10
78.76374102499892
 20
89.44465849014927
 30
0.0
 10
78.77343662485103
 20
89.35497970585807
 30
0.0
 10
78.77905475217622
 20
89.32388597516969
 30
0.0
 10
78.78162525792283
 20
89.30965941731665
 30
0.0
  0
LINE
  5
263
330
1F
100
AcDbEntity
  8
0
  6
Continuous
 62
     7
370
    15
100
AcDbLine
 10
78.0547944616
 20
99.7131891582
 30
0.0
 11
78.7545075311
 21
89.5678462494
 31
0.0
  0
SPLINE
  5
264
330
1F
100
AcDbEntity
  8
0
  6
Continuous
 62
     7
370
    15
100
AcDbSpline
210
0.0
220
0.0
230
1.0
 70
     8
 71
     3
 72
    14
 73
    10
 74
     0
 42
0.00000001
 43
0.00000001
 12
1.0
 22
0.0
 32
0.0
 13
1.0
 23
0.0
 33
0.0
 40
0.0
 40
0.0
 40
0.0
 40
0.0
 40
0.1588525246033225
 40
0.3173313390690645
 40
0.4720166349908963
 40
0.6236441133718578
 40
0.7746619003054811
 40
0.9277410877492944
 40
1.0
 40
1.0
 40
1.0
 40
1.0
 10
78.05475883849573
 20
100.209962207422
 30
0.0
 10
78.05190312655911
 20
100.2193569669541
 30
0.0
 10
78.04619842092033
 20
100.2381243842805
 30
0.0
 10
78.04066851539393
 20
100.2072941364551
 30
0.0
 10
78.03830230335633
 20
100.1365136503278
 30
0.0
 10
78.03937800261821
 20
100.0318248269612
 30
0.0
 10
78.04363666162325
 20
99.90635908960323
 30
0.0
 10
78.04931299753659
 20
99.79579928571157
 30
0.0
 10
78.05346351868585
 20
99.73324755163901
 30
0.0
 10
78.05479446158421
 20
99.71318915818665
 30
0.0
  0
LINE
  5
265
330
1F
100
AcDbEntity
  8
0
  6
Continuous
 62
     7
370
    15
100
AcDbLine
 10
78.7539725445
 20
97.0362300086
 30
0.0
 11
78.0547588385
 21
100.2099622074
 31
0.0
  0
LWPOLYLINE
  5
266
330
1F
100
AcDbEntity
  8
0
  6
Continuous
 62
     7
370
    15
100
AcDbPolyline
 90
        9
 70
   128
 43
0.0
 10
79.4795849744
 20
86.1575795371
 10
79.4858171141
 20
86.1404990811
 10
79.4906281755
 20
86.1514514345
 10
79.4936625763
 20
86.1896300722
 10
79.4946960443
 20
86.2522130865
 10
79.4936521954
 20
86.3345718044
 10
79.4906081793
 20
86.4306228269
 10
79.4857889816
 20
86.5332657505
 10
79.4795507847
 20
86.6349121589
  0
LINE
  5
267
330
1F
100
AcDbEntity
  8
0
  6
Continuous
 62
     7
370
    15
100
AcDbLine
 10
79.4795507847
 20
86.6349121589
 30
0.0
 11
78.7805103484
 21
96.770503189
 31
0.0
  0
ARC
  5
268
330
1F
100
AcDbEntity
  8
0
  6
Continuous
 62
     7
370
    15
100
AcDbCircle
 10
76.4937251408
 20
96.6552432264
 30
0.0
 40
2.289688067100731
100
AcDbArc
 50
2.8854155825
 51
9.106383947
  0
LINE
  5
269
330
1F
100
AcDbEntity
  8
0
  6
Continuous
 62
     7
370
    15
100
AcDbLine
 10
78.7545543882
 20
97.0176277715
 30
0.0
 11
78.0560128643
 21
100.1883098889
 31
0.0
  0
LWPOLYLINE
  5
26A
330
1F
100
AcDbEntity
  8
0
  6
Continuous
 62
     7
370
    15
100
AcDbPolyline
 90
        9
 70
   128
 43
0.0
 10
78.0560128643
 20
100.1883098889
 10
78.0497806865
 20
100.2053912762
 10
78.0449695905
 20
100.1944379914
 10
78.0419352251
 20
100.1562593538
 10
78.0409018063
 20
100.0936772708
 10
78.0419455861
 20
100.0113176215
 10
78.0449896139
 20
99.9152675304
 10
78.049808859
 20
99.8126246068
 10
78.056046974
 20
99.7109772671
  0
LINE
  5
26B
330
1F
100
AcDbEntity
  8
0
  6
Continuous
 62
     7
370
    15
100
AcDbLine
 10
78.056046974
 20
99.7109772671
 30
0.0
 11
78.755087454
 21
89.575386237
 31
0.0
  0
ARC
  5
26C
330
1F
100
AcDbEntity
  8
0
  6
Continuous
 62
     7
370
    15
100
AcDbCircle
 10
81.0419408236
 20
89.6906533588
 30
0.0
 40
2.289756503088924
100
AcDbArc
 50
182.8855086397
 51
189.1062908898
  0
LINE
  5
26D
330
1F
100
AcDbEntity
  8
0
  6
Continuous
 62
     7
370
    15
100
AcDbLine
 10
78.7810434141
 20
89.3282616544
 30
0.0
 11
79.4795849744
 21
86.1575795371
 31
0.0
  0
LINE
  5
26E
330
1F
100
AcDbEntity
  8
0
  6
Continuous
 62
     7
370
    15
100
AcDbLine
 10
83.3991939455
 20
87.0421087403
 30
0.0
 11
82.7300715047
 21
96.7439083416
 31
0.0
  0
SPLINE
  5
26F
330
1F
100
AcDbEntity
  8
0
  6
Continuous
 62
     7
370
    15
100
AcDbSpline
210
0.0
220
0.0
230
1.0
 70
     8
 71
     3
 72
    14
 73
    10
 74
     0
 42
0.00000001
 43
0.00000001
 12
1.0
 22
0.0
 32
0.0
 13
1.0
 23
0.0
 33
0.0
 40
0.0
 40
0.0
 40
0.0
 40
0.0
 40
0.1583249767109932
 40
0.3168034616515092
 40
0.4713789899306872
 40
0.6221295639103126
 40
0.77212228321628
 40
0.924587342834723
 40
1.0
 40
1.0
 40
1.0
 40
1.0
 10
83.39919394545865
 20
87.04210874025557
 30
0.0
 10
83.39991041728912
 20
87.03084156217702
 30
0.0
 10
83.40134405562459
 20
87.00829628162504
 30
0.0
 10
83.40274527903314
 20
86.97407442863671
 30
0.0
 10
83.4033490902651
 20
86.94493337972256
 30
0.0
 10
83.40308759253335
 20
86.92378869307302
 30
0.0
 10
83.40202964741286
 20
86.91262293081223
 30
0.0
 10
83.4006046256556
 20
86.91189051971102
 30
0.0
 10
83.3995513564224
 20
86.91605316164396
 30
0.0
 10
83.39920279302311
 20
86.91743072454665
 30
0.0
  0
LINE
  5
270
330
1F
100
AcDbEntity
  8
0
  6
Continuous
 62
     7
370
    15
100
AcDbLine
 10
79.1450949347
 20
90.2083801139
 30
0.0
 11
78.8017839679
 21
95.1861446757
 31
0.0
  0
LINE
  5
271
330
1F
100
AcDbEntity
  8
0
  6
Continuous
 62
     7
370
    15
100
AcDbLine
 10
78.3905028385
 20
96.1375111747
 30
0.0
 11
78.7338138345
 21
91.1597447503
 31
0.0
  0
LWPOLYLINE
  5
272
330
1F
100
AcDbEntity
  8
0
  6
Continuous
 62
     7
370
    15
100
AcDbPolyline
 90
        9
 70
   128
 43
0.0
 10
78.3904128495
 20
97.393649261
 10
78.3740124918
 20
97.4386004764
 10
78.3613518599
 20
97.4097760427
 10
78.3533665837
 20
97.309306826
 10
78.350646889
 20
97.1446173299
 10
78.3533939413
 20
96.927881803
 10
78.3614044796
 20
96.6751152683
 10
78.3740865319
 20
96.405003782
 10
78.3905028385
 20
96.1375111747
  0
LINE
  5
273
330
1F
100
AcDbEntity
  8
0
  6
Continuous
 62
     7
370
    15
100
AcDbLine
 10
78.7334788494
 20
95.8364723284
 30
0.0
 11
78.3904128495
 21
97.393649261
 31
0.0
  0
ARC
  5
274
330
1F
100
AcDbEntity
  8
0
  6
Continuous
 62
     7
370
    15
100
AcDbCircle
 10
72.7838624084
 20
94.8828221555
 30
0.0
 40
6.025560923880936
100
AcDbArc
 50
2.8854489639
 51
9.1063472137
  0
LWPOLYLINE
  5
275
330
1F
100
AcDbEntity
  8
0
  6
Continuous
 62
     7
370
    15
100
AcDbPolyline
 90
        9
 70
   128
 43
0.0
 10
79.1451849238
 20
88.9522401649
 10
79.1615852815
 20
88.9072889495
 10
79.1742459716
 20
88.9361133832
 10
79.1822312478
 20
89.0365825999
 10
79.1849508843
 20
89.2012720961
 10
79.1822039193
 20
89.4180094856
 10
79.1741933519
 20
89.6707741577
 10
79.1615112413
 20
89.940885644
 10
79.1450949347
 20
90.2083801139
  0
LINE
  5
276
330
1F
100
AcDbEntity
  8
0
  6
Continuous
 62
     7
370
    15
100
AcDbLine
 10
78.802118953
 20
90.5094170976
 30
0.0
 11
79.1451849238
 21
88.9522401649
 31
0.0
  0
ARC
  5
277
330
1F
100
AcDbEntity
  8
0
  6
Continuous
 62
     7
370
    15
100
AcDbCircle
 10
84.7518930157
 20
91.4630838258
 30
0.0
 40
6.025719179174962
100
AcDbArc
 50
182.8855307349
 51
189.1062654427
  0
LWPOLYLINE
  5
278
330
1F
100
AcDbEntity
  8
0
  6
Continuous
 62
     7
370
    15
100
AcDbPolyline
 90
       35
 70
   128
 43
0.0
 10
78.8721013834
 20
90.2655819464
 10
78.9070805205
 20
90.1482539285
 10
78.9373165482
 20
90.1339283246
 10
78.9617799475
 20
90.2230931479
 10
78.9796374758
 20
90.4127104241
 10
78.9902810958
 20
90.6963260878
 10
78.9933484067
 20
91.0642785985
 10
78.9887348675
 20
91.5040379423
 10
78.9765976389
 20
92.0006321776
 10
78.9573499953
 20
92.5371466238
 10
78.9316474131
 20
93.0953143198
 10
78.9003651609
 20
93.6561232466
 10
78.8645685554
 20
94.2004794288
 10
78.8254765813
 20
94.7098439593
 10
78.784420448
 20
95.1668718863
 10
78.7427982452
 20
95.5559989471
 10
78.7020274458
 20
95.8639724213
 10
78.663496419
 20
96.0803074795
 10
78.6285172818
 20
96.1976354975
 10
78.5982812542
 20
96.2119611013
 10
78.5738179131
 20
96.122796278
 10
78.5559603266
 20
95.9331790019
 10
78.5453167065
 20
95.6495652009
 10
78.5422493956
 20
95.2816126901
 10
78.5468629348
 20
94.8418514836
 10
78.5590002217
 20
94.3452572483
 10
78.5782478071
 20
93.8087428022
 10
78.6039503893
 20
93.2505769688
 10
78.6352326415
 20
92.6897661794
 10
78.671029247
 20
92.1454099972
 10
78.710121221
 20
91.6360454667
 10
78.7511774126
 20
91.1790175397
 10
78.7927995572
 20
90.7898923415
 10
78.8335703566
 20
90.4819170046
 10
78.8721013834
 20
90.2655819464
  0
SPLINE
  5
279
330
1F
100
AcDbEntity
  8
0
  6
Continuous
 62
     7
370
    15
100
AcDbSpline
210
0.0
220
0.0
230
1.0
 70
     8
 71
     3
 72
    10
 73
     6
 74
     0
 42
0.00000001
 43
0.00000001
 12
1.0
 22
0.0
 32
0.0
 13
1.0
 23
0.0
 33
0.0
 40
0.0
 40
0.0
 40
0.0
 40
0.0
 40
0.2657014204708559
 40
0.6165144290349172
 40
0.9999999999999999
 40
0.9999999999999999
 40
0.9999999999999999
 40
0.9999999999999999
 10
82.72329194203627
 20
96.80845644657347
 30
0.0
 10
82.7238647052356
 20
96.80533962690741
 30
0.0
 10
82.72519370368877
 20
96.79810758315908
 30
0.0
 10
82.72761369876268
 20
96.77647077245835
 30
0.0
 10
82.72922828904032
 20
96.75507974921359
 30
0.0
 10
82.73007150471818
 20
96.74390834157201
 30
0.0
  0
LINE
  5
27A
330
1F
100
AcDbEntity
  8
0
  6
Continuous
 62
     7
370
    15
100
AcDbLine
 10
82.723291942
 20
96.8084564466
 30
0.0
 11
82.6628966044
 21
97.0825912464
 31
0.0
  0
LWPOLYLINE
  5
27B
330
1F
100
AcDbEntity
  8
0
  6
Continuous
 62
     7
370
    15
100
AcDbPolyline
 90
       27
 70
   128
 43
0.0
 10
78.8312001989
 20
91.5029967237
 10
78.8557443322
 20
91.4669973809
 10
78.8746260825
 20
91.5353918481
 10
78.8867481189
 20
91.704203378
 10
78.8914060124
 20
91.9636214185
 10
78.8883289226
 20
92.2985715825
 10
78.8776957799
 20
92.6895836401
 10
78.8601245751
 20
93.113937046
 10
78.8366363287
 20
93.5469685156
 10
78.8085963015
 20
93.9635137129
 10
78.7776339004
 20
94.3393601138
 10
78.7455486153
 20
94.6526700664
 10
78.7142051869
 20
94.8852306265
 10
78.6854250493
 20
95.0235301662
 10
78.6608809159
 20
95.0595276463
 10
78.6419991656
 20
94.9911350418
 10
78.6298771292
 20
94.8223235119
 10
78.6252192358
 20
94.5629036087
 10
78.6282963256
 20
94.2279553074
 10
78.6389294682
 20
93.8369413871
 10
78.6565007312
 20
93.4125879813
 10
78.6799889194
 20
92.9795565117
 10
78.7080290049
 20
92.563013177
 10
78.7389913477
 20
92.1871649135
 10
78.7710766328
 20
91.8738568235
 10
78.8024200612
 20
91.6412944007
 10
78.8312001989
 20
91.5029967237
  0
ARC
  5
27C
330
1F
100
AcDbEntity
  8
0
  6
Continuous
 62
     7
370
    15
100
AcDbCircle
 10
66.7389181872
 20
92.2256774005
 30
0.0
 40
12.14318621110065
100
AcDbArc
 50
357.4649229847
 51
3.2986113373
  0
ARC
  5
27D
330
1F
100
AcDbEntity
  8
0
  6
Continuous
 62
     7
370
    15
100
AcDbCircle
 10
53.7490956367
 20
91.9732779849
 30
0.0
 40
25.13089472882982
100
AcDbArc
 50
2.1689624517
 51
5.8035745373
  0
LWPOLYLINE
  5
27E
330
1F
100
AcDbEntity
  8
0
  6
Continuous
 62
     7
370
    15
100
AcDbPolyline
 90
        9
 70
   128
 43
0.0
 10
78.7511795081
 20
94.5144729722
 10
78.7354684455
 20
94.6458024937
 10
78.7201302612
 20
94.7545679319
 10
78.7054152481
 20
94.8389904607
 10
78.6915636292
 20
94.8976935852
 10
78.6788015413
 20
94.9297199059
 10
78.6673372515
 20
94.9345441568
 10
78.6573578391
 20
94.9120918322
 10
78.6490262273
 20
94.8627261478
  0
LINE
  5
27F
330
1F
100
AcDbEntity
  8
0
  6
Continuous
 62
     7
370
    15
100
AcDbLine
 10
78.6462078706
 20
94.8358425904
 30
0.0
 11
78.6490262273
 21
94.8627261478
 31
0.0
  0
ARC
  5
280
330
1F
100
AcDbEntity
  8
0
  6
Continuous
 62
     7
370
    15
100
AcDbCircle
 10
90.3779772008
 20
94.3082858332
 30
0.0
 40
11.74362498333202
100
AcDbArc
 50
177.4252454844
 51
183.176873473
  0
LINE
  5
281
330
1F
100
AcDbEntity
  8
0
  6
Continuous
 62
     7
370
    15
100
AcDbLine
 10
78.6572648814
 20
93.540262993
 30
0.0
 11
78.6523996523
 21
93.6574718017
 31
0.0
  0
ARC
  5
282
330
1F
100
AcDbEntity
  8
0
  6
Continuous
 62
     7
370
    15
100
AcDbCircle
 10
104.0821033745
 20
94.5656304159
 30
0.0
 40
25.44550629779904
100
AcDbArc
 50
182.3094504932
 51
185.6630763437
  0
LINE
  5
283
330
1F
100
AcDbEntity
  8
0
  6
Continuous
 62
     7
370
    15
100
AcDbLine
 10
78.7696348872
 20
91.9751344282
 30
0.0
 11
78.7607872064
 21
92.054706629
 31
0.0
  0
LWPOLYLINE
  5
284
330
1F
100
AcDbEntity
  8
0
  6
Continuous
 62
     7
370
    15
100
AcDbPolyline
 90
        9
 70
   128
 43
0.0
 10
78.7696348872
 20
91.9751344282
 10
78.7847027552
 20
91.853818487
 10
78.7993709693
 20
91.7538465965
 10
78.813417351
 20
91.67673495
 10
78.8266292095
 20
91.6236495632
 10
78.8388064267
 20
91.595395099
 10
78.849764601
 20
91.5924018282
 10
78.8593377821
 20
91.6147107292
 10
78.8673809749
 20
91.6619883883
  0
LINE
  5
285
330
1F
100
AcDbEntity
  8
0
  6
Continuous
 62
     7
370
    15
100
AcDbLine
 10
78.8702202282
 20
91.6885720599
 30
0.0
 11
78.8673809749
 21
91.6619883883
 31
0.0
  0
SPLINE
  5
286
330
1F
100
AcDbEntity
  8
0
  6
Continuous
 62
     7
370
    15
100
AcDbSpline
210
0.0
220
0.0
230
1.0
 70
     8
 71
     3
 72
    11
 73
     7
 74
     0
 42
0.00000001
 43
0.00000001
 12
1.0
 22
0.0
 32
0.0
 13
1.0
 23
0.0
 33
0.0
 40
0.0
 40
0.0
 40
0.0
 40
0.0
 40
0.2794098112461734
 40
0.5596251908930846
 40
0.8374990131540679
 40
0.9999999999999999
 40
0.9999999999999999
 40
0.9999999999999999
 40
0.9999999999999999
 10
78.71399843332034
 20
94.71190404479239
 30
0.0
 10
78.70552644058156
 20
94.74174337289223
 30
0.0
 10
78.68855802944192
 20
94.80150805906959
 30
0.0
 10
78.66792509554794
 20
94.85569492270955
 30
0.0
 10
78.65484417113936
 20
94.87398955588154
 30
0.0
 10
78.65059441368649
 20
94.86576212129205
 30
0.0
 10
78.64902622730148
 20
94.86272614781592
 30
0.0
  0
SPLINE
  5
287
330
1F
100
AcDbEntity
  8
0
  6
Continuous
 62
     7
370
    15
100
AcDbSpline
210
0.0
220
0.0
230
1.0
 70
     8
 71
     3
 72
    11
 73
     7
 74
     0
 42
0.00000001
 43
0.00000001
 12
1.0
 22
0.0
 32
0.0
 13
1.0
 23
0.0
 33
0.0
 40
0.0
 40
0.0
 40
0.0
 40
0.0
 40
0.2802365440698326
 40
0.561288594172156
 40
0.8399843837102902
 40
1.0
 40
1.0
 40
1.0
 40
1.0
 10
78.87951529317212
 20
91.81708898727629
 30
0.0
 10
78.87660573414041
 20
91.78665555697118
 30
0.0
 10
78.87077814907656
 20
91.72570013315777
 30
0.0
 10
78.86663815895525
 20
91.67021187871833
 30
0.0
 10
78.86583005583614
 20
91.65127657589127
 30
0.0
 10
78.86696647672879
 20
91.65912555234787
 30
0.0
 10
78.86738097493213
 20
91.66198838834498
 30
0.0
  0
SPLINE
  5
288
330
1F
100
AcDbEntity
  8
0
  6
Continuous
 62
     7
370
    15
100
AcDbSpline
210
0.0
220
0.0
230
1.0
 70
     8
 71
     3
 72
    11
 73
     7
 74
     0
 42
0.00000001
 43
0.00000001
 12
1.0
 22
0.0
 32
0.0
 13
1.0
 23
0.0
 33
0.0
 40
0.0
 40
0.0
 40
0.0
 40
0.0
 40
0.2657641212429032
 40
0.5530074430726587
 40
0.8418232985847043
 40
0.9999999999999999
 40
0.9999999999999999
 40
0.9999999999999999
 40
0.9999999999999999
 10
78.76963488722828
 20
91.97513442818854
 30
0.0
 10
78.7733811118681
 20
91.95986026340539
 30
0.0
 10
78.78117633305733
 20
91.92807746754755
 30
0.0
 10
78.79743672293176
 20
91.92284613533879
 30
0.0
 10
78.81317327670696
 20
91.94723254063467
 30
0.0
 10
78.82298738462728
 20
91.9781503732369
 30
0.0
 10
78.82646029081803
 20
91.98909122829173
 30
0.0
  0
SPLINE
  5
289
330
1F
100
AcDbEntity
  8
0
  6
Continuous
 62
     7
370
    15
100
AcDbSpline
210
0.0
220
0.0
230
1.0
 70
     8
 71
     3
 72
     9
 73
     5
 74
     0
 42
0.00000001
 43
0.00000001
 12
1.0
 22
0.0
 32
0.0
 13
1.0
 23
0.0
 33
0.0
 40
0.0
 40
0.0
 40
0.0
 40
0.0
 40
0.5494439342444917
 40
1.0
 40
1.0
 40
1.0
 40
1.0
 10
78.82646029081803
 20
91.98909122829173
 30
0.0
 10
78.83776007668517
 20
92.02335511108342
 30
0.0
 10
78.85832593456959
 20
92.08571612857068
 30
0.0
 10
78.87203839143318
 20
92.09061095498511
 30
0.0
 10
78.87821662204948
 20
92.09281634871694
 30
0.0
  0
SPLINE
  5
28A
330
1F
100
AcDbEntity
  8
0
  6
Continuous
 62
     7
370
    15
100
AcDbSpline
210
0.0
220
0.0
230
1.0
 70
     8
 71
     3
 72
    11
 73
     7
 74
     0
 42
0.00000001
 43
0.00000001
 12
1.0
 22
0.0
 32
0.0
 13
1.0
 23
0.0
 33
0.0
 40
0.0
 40
0.0
 40
0.0
 40
0.0
 40
0.2431115408284754
 40
0.5182780786249896
 40
0.7947816599529892
 40
0.9999999999999999
 40
0.9999999999999999
 40
0.9999999999999999
 40
0.9999999999999999
 10
78.64620787056771
 20
94.83584259037706
 30
0.0
 10
78.64658493545657
 20
94.81899127218507
 30
0.0
 10
78.64738878238813
 20
94.78306673818277
 30
0.0
 10
78.65759959876536
 20
94.69550854366233
 30
0.0
 10
78.67311683876817
 20
94.59823924531744
 30
0.0
 10
78.68642043920862
 20
94.53404025187373
 30
0.0
 10
78.6920879055993
 20
94.50669084076617
 30
0.0
  0
SPLINE
  5
28B
330
1F
100
AcDbEntity
  8
0
  6
Continuous
 62
     7
370
    15
100
AcDbSpline
210
0.0
220
0.0
230
1.0
 70
     8
 71
     3
 72
    12
 73
     8
 74
     0
 42
0.00000001
 43
0.00000001
 12
1.0
 22
0.0
 32
0.0
 13
1.0
 23
0.0
 33
0.0
 40
0.0
 40
0.0
 40
0.0
 40
0.0
 40
0.2058181908744016
 40
0.4120217135274112
 40
0.6140771207999451
 40
0.8132145713756134
 40
0.9999999999999999
 40
0.9999999999999999
 40
0.9999999999999999
 40
0.9999999999999999
 10
78.6920879055993
 20
94.50669084076617
 30
0.0
 10
78.70521172052965
 20
94.44172729902795
 30
0.0
 10
78.73148392073047
 20
94.31167859113641
 30
0.0
 10
78.75225908750835
 20
94.12954773416058
 30
0.0
 10
78.75154919394042
 20
93.98582899573123
 30
0.0
 10
78.7310420863394
 20
93.89166148239343
 30
0.0
 10
78.70705362440636
 20
93.87652478736337
 30
0.0
 10
78.69544328621265
 20
93.86919867579671
 30
0.0
  0
SPLINE
  5
28C
330
1F
100
AcDbEntity
  8
0
  6
Continuous
 62
     7
370
    15
100
AcDbSpline
210
0.0
220
0.0
230
1.0
 70
     8
 71
     3
 72
    11
 73
     7
 74
     0
 42
0.00000001
 43
0.00000001
 12
1.0
 22
0.0
 32
0.0
 13
1.0
 23
0.0
 33
0.0
 40
0.0
 40
0.0
 40
0.0
 40
0.0
 40
0.2908623526887382
 40
0.5839558412343241
 40
0.8746027428020576
 40
1.0
 40
1.0
 40
1.0
 40
1.0
 10
78.69544328621265
 20
93.86919867579672
 30
0.0
 10
78.68806032344477
 20
93.86420087008423
 30
0.0
 10
78.67323776495941
 20
93.85416692168157
 30
0.0
 10
78.65882463390834
 20
93.7928281106371
 30
0.0
 10
78.65278411089582
 20
93.7215814697695
 30
0.0
 10
78.65248869249479
 20
93.67231953276001
 30
0.0
 10
78.65239965228972
 20
93.65747180168364
 30
0.0
  0
SPLINE
  5
28D
330
1F
100
AcDbEntity
  8
0
  6
Continuous
 62
     7
370
    15
100
AcDbSpline
210
0.0
220
0.0
230
1.0
 70
     8
 71
     3
 72
    11
 73
     7
 74
     0
 42
0.00000001
 43
0.00000001
 12
1.0
 22
0.0
 32
0.0
 13
1.0
 23
0.0
 33
0.0
 40
0.0
 40
0.0
 40
0.0
 40
0.0
 40
0.2929011590469653
 40
0.5864345362369928
 40
0.8775141543474639
 40
1.0
 40
1.0
 40
1.0
 40
1.0
 10
78.77820189076152
 20
92.42179114703868
 30
0.0
 10
78.77356384084447
 20
92.38659515273703
 30
0.0
 10
78.76427772992227
 20
92.31612719466257
 30
0.0
 10
78.75813083757042
 20
92.19960002130146
 30
0.0
 10
78.7578842102642
 20
92.11133163224663
 30
0.0
 10
78.76012388192089
 20
92.06764524377604
 30
0.0
 10
78.76078720635411
 20
92.05470662896369
 30
0.0
  0
SPLINE
  5
28E
330
1F
100
AcDbEntity
  8
0
  6
Continuous
 62
     7
370
    15
100
AcDbSpline
210
0.0
220
0.0
230
1.0
 70
     8
 71
     3
 72
    11
 73
     7
 74
     0
 42
0.00000001
 43
0.00000001
 12
1.0
 22
0.0
 32
0.0
 13
1.0
 23
0.0
 33
0.0
 40
0.0
 40
0.0
 40
0.0
 40
0.0
 40
0.2669007340560403
 40
0.5546137288554235
 40
0.8439057136374922
 40
1.0
 40
1.0
 40
1.0
 40
1.0
 10
78.65726488141951
 20
93.54026299302313
 30
0.0
 10
78.66051900244655
 20
93.50558756678438
 30
0.0
 10
78.66728099282976
 20
93.43353281012011
 30
0.0
 10
78.6852804634557
 20
93.33483059457559
 30
0.0
 10
78.7044429167942
 20
93.26681606418671
 30
0.0
 10
78.71728921454019
 20
93.24050631621347
 30
0.0
 10
78.72179144958642
 20
93.23128555302355
 30
0.0
  0
SPLINE
  5
28F
330
1F
100
AcDbEntity
  8
0
  6
Continuous
 62
     7
370
    15
100
AcDbSpline
210
0.0
220
0.0
230
1.0
 70
     8
 71
     3
 72
    12
 73
     8
 74
     0
 42
0.00000001
 43
0.00000001
 12
1.0
 22
0.0
 32
0.0
 13
1.0
 23
0.0
 33
0.0
 40
0.0
 40
0.0
 40
0.0
 40
0.0
 40
0.2058406863073587
 40
0.4120619362689583
 40
0.6141394289831732
 40
0.813277691633796
 40
1.0
 40
1.0
 40
1.0
 40
1.0
 10
78.72179144958642
 20
93.23128555302355
 30
0.0
 10
78.736222591785
 20
93.19864622404327
 30
0.0
 10
78.76511155685594
 20
93.13330722163609
 30
0.0
 10
78.79544390463373
 20
92.970303209656
 30
0.0
 10
78.80710756491877
 20
92.78288023359494
 30
0.0
 10
78.80044670108947
 20
92.59011832412487
 30
0.0
 10
78.78545604117915
 20
92.47668353065336
 30
0.0
 10
78.77820189076152
 20
92.42179114703866
 30
0.0
  0
SPLINE
  5
290
330
1F
100
AcDbEntity
  8
0
  6
Continuous
 62
     7
370
    15
100
AcDbSpline
210
0.0
220
0.0
230
1.0
 70
     8
 71
     3
 72
    34
 73
    30
 74
     0
 42
0.00000001
 43
0.00000001
 12
1.0
 22
0.0
 32
0.0
 13
1.0
 23
0.0
 33
0.0
 40
0.0
 40
0.0
 40
0.0
 40
0.0
 40
0.0265621010976147
 40
0.0531038653787512
 40
0.0796391403999007
 40
0.106181783874091
 40
0.1327456419825252
 40
0.1593445277762807
 40
0.1859921998357817
 40
0.2127023413511183
 40
0.2394885397787622
 40
0.2663642672200456
 40
0.2933428616543063
 40
0.3204375091451983
 40
0.3476612271227318
 40
0.3750268488266504
 40
0.402547008979181
 40
0.4302341307374479
 40
0.4581004139584018
 40
0.4861578247922781
 40
0.5424295085197663
 40
0.5986923238128095
 40
0.6550394066063621
 40
0.7115634762887498
 40
0.7683563854152177
 40
0.8255086903565457
 40
0.8831092524426719
 40
0.9412448775329769
 40
1.0
 40
1.0
 40
1.0
 40
1.0
 10
83.34314796870356
 20
87.69041150631551
 30
0.0
 10
83.49453467205083
 20
87.71772040828876
 30
0.0
 10
83.79719217211611
 20
87.7723173036435
 30
0.0
 10
84.24830683903515
 20
87.86671739853072
 30
0.0
 10
84.69697644650716
 20
87.9702156083111
 30
0.0
 10
85.1430187193928
 20
88.08371162492548
 30
0.0
 10
85.58648203820194
 20
88.20696426342865
 30
0.0
 10
86.02735299302171
 20
88.34003801394618
 30
0.0
 10
86.46563476580033
 20
88.48291535628167
 30
0.0
 10
86.90132611079216
 20
88.63560074671872
 30
0.0
 10
87.33442700034178
 20
88.798092708479
 30
0.0
 10
87.76493711096094
 20
88.97039133246903
 30
0.0
 10
88.19285623367415
 20
89.15249626576026
 30
0.0
 10
88.61818416188513
 20
89.34440725270487
 30
0.0
 10
89.04092073602209
 20
89.54612400898934
 30
0.0
 10
89.46106578221244
 20
89.75764620124129
 30
0.0
 10
89.87861931645699
 20
89.97897367678965
 30
0.0
 10
90.2935807826811
 20
90.21010557695786
 30
0.0
 10
90.70595191786678
 20
90.45104370155396
 30
0.0
 10
91.25207441623733
 20
90.78520993815917
 30
0.0
 10
91.922683686453
 20
91.22385468917626
 30
0.0
 10
92.70467827247793
 20
91.78182778360949
 30
0.0
 10
93.4630185540134
 20
92.3707957116844
 30
0.0
 10
94.19770319245454
 20
92.99073924980486
 30
0.0
 10
94.90868007018787
 20
93.64168848477033
 30
0.0
 10
95.59613594148335
 20
94.32350300656773
 30
0.0
 10
96.25935092671851
 20
95.03667878808501
 30
0.0
 10
96.90104092328974
 20
95.77930703575261
 30
0.0
 10
97.30529114854474
 20
96.29584887870134
 30
0.0
 10
97.50848748348587
 20
96.55548858394755
 30
0.0
  0
LINE
  5
291
330
1F
100
AcDbEntity
  8
0
  6
Continuous
 62
     7
370
    15
100
AcDbLine
 10
97.5084867115
 20
96.5572284568
 30
0.0
 11
97.5084867115
 21
96.0426727343
 31
0.0
  0
SPLINE
  5
292
330
1F
100
AcDbEntity
  8
0
  6
Continuous
 62
     7
370
    15
100
AcDbSpline
210
0.0
220
0.0
230
1.0
 70
     8
 71
     3
 72
    42
 73
    38
 74
     0
 42
0.00000001
 43
0.00000001
 12
1.0
 22
0.0
 32
0.0
 13
1.0
 23
0.0
 33
0.0
 40
0.0
 40
0.0
 40
0.0
 40
0.0
 40
0.0317792868016415
 40
0.0633384004276688
 40
0.094679760967953
 40
0.1258058393043388
 40
0.1567191579410737
 40
0.1874222918223409
 40
0.2179178691345148
 40
0.2482085720904668
 40
0.2782971376932946
 40
0.3081863584764986
 40
0.3378790832176722
 40
0.3673782176225053
 40
0.3966867249758309
 40
0.4258076267562796
 40
0.4547440032109824
 40
0.4834989938867088
 40
0.5120757981135343
 40
0.5404776754373214
 40
0.5687079459968931
 40
0.5967699908419555
 40
0.6246672521876365
 40
0.6524032336014928
 40
0.6799815001188415
 40
0.7074056782822893
 40
0.7346794561012775
 40
0.7618065829276347
 40
0.788790869243118
 40
0.8156361863550826
 40
0.8423464659965427
 40
0.8689256998271006
 40
0.8953779388313702
 40
0.9217072926118574
 40
0.947917928573435
 40
0.9740140709969766
 40
1.0
 40
1.0
 40
1.0
 40
1.0
 10
97.50893331665603
 20
96.045482696868
 30
0.0
 10
97.39827603676486
 20
95.90684958469319
 30
0.0
 10
97.1777281324733
 20
95.63054383792577
 30
0.0
 10
96.83709719761517
 20
95.22561188269444
 30
0.0
 10
96.49097696996753
 20
94.82961599347854
 30
0.0
 10
96.13878050981513
 20
94.44318860063389
 30
0.0
 10
95.78091484104837
 20
94.0662471345739
 30
0.0
 10
95.41752322451457
 20
93.6988927851221
 30
0.0
 10
95.04881855540592
 20
93.34117221755092
 30
0.0
 10
94.67499481140197
 20
92.99314082511245
 30
0.0
 10
94.29625040673346
 20
92.65484601509735
 30
0.0
 10
93.9127818696733
 20
92.3263317058586
 30
0.0
 10
93.52478539433477
 20
92.00763720017164
 30
0.0
 10
93.1324563068626
 20
91.698797552405
 30
0.0
 10
92.73598908795256
 20
91.39984354145572
 30
0.0
 10
92.33557725087705
 20
91.1108017502024
 30
0.0
 10
91.9314132609494
 20
90.83169461853291
 30
0.0
 10
91.52368844710338
 20
90.56254050512506
 30
0.0
 10
91.11259291867988
 20
90.30335374855184
 30
0.0
 10
90.69831548394835
 20
90.05414473012003
 30
0.0
 10
90.28104357128284
 20
89.81491993771678
 30
0.0
 10
89.86096315274936
 20
89.58568203074516
 30
0.0
 10
89.43825867014695
 20
89.36642990612067
 30
0.0
 10
89.01311296354564
 20
89.15715876494056
 30
0.0
 10
88.58570720206662
 20
88.9578601809871
 30
0.0
 10
88.15622081782274
 20
88.768522166434
 30
0.0
 10
87.72483143956563
 20
88.58912925158911
 30
0.0
 10
87.29171483876739
 20
88.41966251605754
 30
0.0
 10
86.85704484095196
 20
88.26009980282545
 30
0.0
 10
86.42099337690846
 20
88.11041525783178
 30
0.0
 10
85.98373002701256
 20
87.97058136995757
 30
0.0
 10
85.54542345411345
 20
87.840561751741
 30
0.0
 10
85.1062358508708
 20
87.72033822456332
 30
0.0
 10
84.66634328209982
 20
87.60981079425513
 30
0.0
 10
84.22586006776699
 20
87.50916871195572
 30
0.0
 10
83.7851188871002
 20
87.41751527632275
 30
0.0
 10
83.49018653681686
 20
87.36437371404985
 30
0.0
 10
83.3430324220662
 20
87.33785916064384
 30
0.0
  0
LINE
  5
293
330
1F
100
AcDbEntity
  8
0
  6
Continuous
 62
     7
370
    15
100
AcDbLine
 10
82.6949075583
 20
97.0842694897
 30
0.0
 11
81.1990160748
 21
97.005872618
 31
0.0
  0
LINE
  5
294
330
1F
100
AcDbEntity
  8
0
  6
Continuous
 62
     7
370
    15
100
AcDbLine
 10
81.1990160748
 20
97.005872618
 30
0.0
 11
79.0136126472
 21
97.2019774873
 31
0.0
  0
LINE
  5
295
330
1F
100
AcDbEntity
  8
0
  6
Continuous
 62
     7
370
    15
100
AcDbLine
 10
79.0136126472
 20
97.2019774873
 30
0.0
 11
76.6896173611
 21
130.8982620049
 31
0.0
  0
ARC
  5
296
330
1F
100
AcDbEntity
  8
0
  6
Continuous
 62
     7
370
    15
100
AcDbCircle
 10
79.5084874864
 20
113.1203552741
 30
0.0
 40
18.0
100
AcDbArc
 50
0.0
 51
99.0098286362
  0
LINE
  5
297
330
1F
100
AcDbEntity
  8
0
  6
Continuous
 62
     7
370
    15
100
AcDbLine
 10
97.5084867115
 20
96.5554887462
 30
0.0
 11
97.5084867115
 21
113.1203552741
 31
0.0
  0
LINE
  5
298
330
1F
100
AcDbEntity
  8
0
  6
Continuous
 62
     7
370
    15
100
AcDbLine
 10
82.7184371903
 20
96.7431074042
 30
0.0
 11
82.7143710359
 21
96.8020619858
 31
0.0
  0
LINE
  5
299
330
1F
100
AcDbEntity
  8
0
  6
Continuous
 62
     7
370
    15
100
AcDbLine
 10
82.709663666
 20
96.870314892
 30
0.0
 11
82.6949075583
 21
97.0842694897
 31
0.0
  0
SPLINE
  5
29A
330
1F
100
AcDbEntity
  8
0
  6
Continuous
 62
     7
370
    15
100
AcDbSpline
210
0.0
220
0.0
230
1.0
 70
     8
 71
     3
 72
    10
 73
     6
 74
     0
 42
0.00000001
 43
0.00000001
 12
1.0
 22
0.0
 32
0.0
 13
1.0
 23
0.0
 33
0.0
 40
0.0
 40
0.0
 40
0.0
 40
0.0
 40
0.5
 40
0.5
 40
1.0
 40
1.0
 40
1.0
 40
1.0
 10
78.25631564944139
 20
95.924705056404
 30
0.0
 10
78.24213500748155
 20
96.13838233975098
 30
0.0
 10
78.22564377549674
 20
96.32766658759878
 30
0.0
 10
78.19324789711392
 20
96.59838014282614
 30
0.0
 10
78.1779656831674
 20
96.67408369962308
 30
0.0
 10
78.16630098745165
 20
96.67503571500063
 30
0.0
  0
ARC
  5
29B
330
1F
100
AcDbEntity
  8
0
  6
Continuous
 62
     7
370
    15
100
AcDbCircle
 10
79.5084874864
 20
113.1203552741
 30
0.0
 40
16.5
100
AcDbArc
 50
264.9059841881
 51
265.3341403475
  0
ARC
  5
29C
330
1F
100
AcDbEntity
  8
0
  6
Continuous
 62
     7
370
    15
100
AcDbCircle
 10
79.5084874864
 20
113.1203552741
 30
0.0
 40
16.50000000000001
100
AcDbArc
 50
100.6658596525
 51
101.0940158119
  0
SPLINE
  5
29D
330
1F
100
AcDbEntity
  8
0
  6
Continuous
 62
     7
370
    15
100
AcDbSpline
210
0.0
220
0.0
230
1.0
 70
     8
 71
     3
 72
    10
 73
     6
 74
     0
 42
0.00000001
 43
0.00000001
 12
1.0
 22
0.0
 32
0.0
 13
1.0
 23
0.0
 33
0.0
 40
0.0
 40
0.0
 40
0.0
 40
0.0
 40
0.5
 40
0.5
 40
1.0
 40
1.0
 40
1.0
 40
1.0
 10
76.45464964406675
 20
129.33528895986
 30
0.0
 10
76.46615041732879
 20
129.3374549567913
 30
0.0
 10
76.47340753053066
 20
129.4136613841367
 30
0.0
 10
76.47736785755681
 20
129.6863758089648
 30
0.0
 10
76.47397234137533
 20
129.8769382315958
 30
0.0
 10
76.46574028563455
 20
130.0909183228812
 30
0.0
  0
LINE
  5
29E
330
1F
100
AcDbEntity
  8
0
  6
Continuous
 62
     7
370
    15
100
AcDbLine
 10
76.4363018117
 20
130.856242593
 30
0.0
 11
76.4657402198
 21
130.0909189541
 31
0.0
  0
ARC
  5
29F
330
1F
100
AcDbEntity
  8
0
  6
Continuous
 62
     7
370
    15
100
AcDbCircle
 10
79.5084874864
 20
113.1203552741
 30
0.0
 40
18.0
100
AcDbArc
 50
99.0098286362
 51
99.8271825501
  0
LWPOLYLINE
  5
2A0
330
1F
100
AcDbEntity
  8
0
  6
Continuous
 62
     7
370
    15
100
AcDbPolyline
 90
        5
 70
   128
 43
0.0
 10
78.235440191
 20
100.2338329363
 10
78.2394116997
 20
100.3616364706
 10
78.2517676727
 20
100.4978656802
 10
78.270573171
 20
100.5334012244
 10
78.2945464618
 20
100.4658207331
  0
SPLINE
  5
2A1
330
1F
100
AcDbEntity
  8
0
  6
Continuous
 62
     7
370
    15
100
AcDbSpline
210
0.0
220
0.0
230
1.0
 70
     8
 71
     3
 72
     8
 73
     4
 74
     0
 42
0.00000001
 43
0.00000001
 12
1.0
 22
0.0
 32
0.0
 13
1.0
 23
0.0
 33
0.0
 40
0.0000007797602128
 40
0.0000007797602128
 40
0.0000007797602128
 40
0.0000007797602128
 40
0.0035483328763706
 40
0.0035483328763706
 40
0.0035483328763706
 40
0.0035483328763706
 10
78.25631564944139
 20
95.924705056404
 30
0.0
 10
78.33200137752715
 20
94.78425451747238
 30
0.0
 10
78.40770746656624
 20
93.64394626610796
 30
0.0
 10
78.48342525725491
 20
92.50372031308468
 30
0.0
  0
LINE
  5
2A2
330
1F
100
AcDbEntity
  8
0
  6
Continuous
 62
     7
370
    15
100
AcDbLine
 10
78.2945464618
 20
100.4658207331
 30
0.0
 11
79.0136126472
 21
97.2019774873
 31
0.0
  0
LINE
  5
2A3
330
1F
100
AcDbEntity
  8
0
  6
Continuous
 62
     7
370
    15
100
AcDbLine
 10
78.4834251992
 20
92.5037195939
 30
0.0
 11
78.5832844578
 21
92.050459798
 31
0.0
  0
SPLINE
  5
2A4
330
1F
100
AcDbEntity
  8
0
  6
Continuous
 62
     7
370
    15
100
AcDbSpline
210
0.0
220
0.0
230
1.0
 70
     8
 71
     3
 72
    12
 73
     8
 74
     0
 42
0.00000001
 43
0.00000001
 12
1.0
 22
0.0
 32
0.0
 13
1.0
 23
0.0
 33
0.0
 40
0.0
 40
0.0
 40
0.0
 40
0.0
 40
0.4999999999999984
 40
0.4999999999999984
 40
0.7499999999999992
 40
0.7499999999999992
 40
1.0
 40
1.0
 40
1.0
 40
1.0
 10
74.6062702892255
 20
105.7275933603988
 30
0.0
 10
74.70237061958102
 20
105.4492965566235
 30
0.0
 10
74.76480612876404
 20
105.1647901316391
 30
0.0
 10
74.79519101876944
 20
104.7260901886799
 30
0.0
 10
74.79421826774997
 20
104.5769861920093
 30
0.0
 10
74.7660605015219
 20
104.285171324978
 30
0.0
 10
74.7391026280692
 20
104.1412634948241
 30
0.0
 10
74.69682715159202
 20
103.9996654915713
 30
0.0
  0
SPLINE
  5
2A5
330
1F
100
AcDbEntity
  8
0
  6
Continuous
 62
     7
370
    15
100
AcDbSpline
210
0.0
220
0.0
230
1.0
 70
     8
 71
     3
 72
    18
 73
    14
 74
     0
 42
0.00000001
 43
0.00000001
 12
1.0
 22
0.0
 32
0.0
 13
1.0
 23
0.0
 33
0.0
 40
0.0
 40
0.0
 40
0.0
 40
0.0
 40
0.2499999999999999
 40
0.2499999999999999
 40
0.4999999999999998
 40
0.4999999999999998
 40
0.6249999999999998
 40
0.6249999999999998
 40
0.7499999999999999
 40
0.7499999999999999
 40
0.8749999999999999
 40
0.8749999999999999
 40
1.0
 40
1.0
 40
1.0
 40
1.0
 10
78.0434480960238
 20
96.68552459095065
 30
0.0
 10
78.02088722782986
 20
96.68753571970653
 30
0.0
 10
77.93150950241711
 20
96.69514296343692
 30
0.0
 10
77.62045098504846
 20
96.72798579370176
 30
0.0
 10
77.40494729088056
 20
96.75270335873495
 30
0.0
 10
76.99867335857574
 20
96.81178204750171
 30
0.0
 10
76.8500624720186
 20
96.8351371004069
 30
0.0
 10
76.53503722690989
 20
96.88970069468716
 30
0.0
 10
76.36761112030108
 20
96.92104631480713
 30
0.0
 10
76.01325455339787
 20
96.99379141660674
 30
0.0
 10
75.8266902464358
 20
97.03518721360018
 30
0.0
 10
75.44639846493776
 20
97.12699117418491
 30
0.0
 10
75.25127547009467
 20
97.17766935054131
 30
0.0
 10
75.05141420368588
 20
97.23374148287009
 30
0.0
  0
SPLINE
  5
2A6
330
1F
100
AcDbEntity
  8
0
  6
Continuous
 62
     7
370
    15
100
AcDbSpline
210
0.0
220
0.0
230
1.0
 70
     8
 71
     3
 72
    20
 73
    16
 74
     0
 42
0.00000001
 43
0.00000001
 12
1.0
 22
0.0
 32
0.0
 13
1.0
 23
0.0
 33
0.0
 40
0.0
 40
0.0
 40
0.0
 40
0.0
 40
0.2500000000000012
 40
0.2500000000000012
 40
0.3750000000000013
 40
0.3750000000000013
 40
0.5000000000000016
 40
0.5000000000000016
 40
0.6250000000000017
 40
0.6250000000000017
 40
0.7500000000000018
 40
0.7500000000000018
 40
0.875000000000002
 40
0.875000000000002
 40
1.0
 40
1.0
 40
1.0
 40
1.0
 10
73.41522719135314
 20
128.4540495118769
 30
0.0
 10
73.8010161593647
 20
128.6073532470762
 30
0.0
 10
74.16864145394939
 20
128.7366269515042
 30
0.0
 10
74.68785711481853
 20
128.9014989908721
 30
0.0
 10
74.85295516182897
 20
128.9507551546501
 30
0.0
 10
75.16046328867378
 20
129.0379627318569
 30
0.0
 10
75.30394142593288
 20
129.0762480369162
 30
0.0
 10
75.5691299951569
 20
129.1437813743218
 30
0.0
 10
75.69013820932169
 20
129.1728287801356
 30
0.0
 10
75.90089455115009
 20
129.2215033722102
 30
0.0
 10
75.99192090771487
 20
129.2414547232863
 30
0.0
 10
76.14454193005648
 20
129.2739913430115
 30
0.0
 10
76.20593414482727
 20
129.2865293141801
 30
0.0
 10
76.2945242906178
 20
129.3043746217235
 30
0.0
 10
76.32245139679047
 20
129.3098364987702
 30
0.0
 10
76.33356613971745
 20
129.3120159191123
 30
0.0
  0
ELLIPSE
  5
2A7
330
1F
100
AcDbEntity
  8
0
  6
Continuous
 62
     7
370
    15
100
AcDbEllipse
 10
72.465040926
 20
105.472065654
 30
0.0
 11
-1.577092900022009
 21
2.392268409819053
 31
0.0
210
0.0
220
0.0
230
1.0
 40
0.7147659951
 41
4.368815607865379
 42
9.964736173433362
  0
ARC
  5
2A8
330
1F
100
AcDbEntity
  8
0
  6
Continuous
 62
     7
370
    15
100
AcDbCircle
 10
79.5084874864
 20
113.1203552741
 30
0.0
 40
16.5
100
AcDbArc
 50
111.6717441009
 51
254.3282558991
  0
SPLINE
  5
2A9
330
1F
100
AcDbEntity
  8
0
  6
Continuous
 62
     7
370
    15
100
AcDbSpline
210
0.0
220
0.0
230
1.0
 70
    24
 71
     3
 72
     9
 73
     5
 74
     0
 42
0.00000001
 43
0.00000001
 12
1.0
 22
0.0
 32
0.0
 13
1.0
 23
0.0
 33
0.0
 40
0.0
 40
0.0
 40
0.0
 40
0.0
 40
0.5
 40
1.0
 40
1.0
 40
1.0
 40
1.0
 10
75.00848748639834
 20
130.0203552741262
 30
0.0
 10
75.00848748639834
 20
130.0222781424602
 30
0.0
 10
75.00848748639834
 20
130.0261234314491
 30
0.0
 10
75.00848748639834
 20
130.0299678257695
 30
0.0
 10
75.00848748639834
 20
130.031889799414
 30
0.0
  0
LINE
  5
2AA
330
1F
100
AcDbEntity
  8
0
  6
Continuous
 62
     7
370
    15
100
AcDbLine
 10
76.4678394209
 20
130.0203545052
 30
0.0
 11
75.0084876801
 21
130.0203545052
 31
0.0
  0
SPLINE
  5
2AB
330
1F
100
AcDbEntity
  8
0
  6
Continuous
 62
     7
370
    15
100
AcDbSpline
210
0.0
220
0.0
230
1.0
 70
    24
 71
     3
 72
    10
 73
     6
 74
     0
 42
0.00000001
 43
0.00000001
 12
1.0
 22
0.0
 32
0.0
 13
1.0
 23
0.0
 33
0.0
 40
0.0
 40
0.0
 40
0.0
 40
0.0
 40
0.2217964846455606
 40
0.6110011205450011
 40
0.9999999999999999
 40
0.9999999999999999
 40
0.9999999999999999
 40
0.9999999999999999
 10
78.23373459011924
 20
96.22035604302619
 30
0.0
 10
77.991901190923
 20
96.22035604302619
 30
0.0
 10
77.3257027246568
 20
96.22035604302619
 30
0.0
 10
76.23850586190497
 20
96.22035604302619
 30
0.0
 10
75.38966776034287
 20
96.22035604302617
 30
0.0
 10
74.96536092565071
 20
96.22035604302617
 30
0.0
  0
SPLINE
  5
2AC
330
1F
100
AcDbEntity
  8
0
  6
Continuous
 62
     7
370
    15
100
AcDbSpline
210
0.0
220
0.0
230
1.0
 70
    24
 71
     3
 72
    12
 73
     8
 74
     0
 42
0.00000001
 43
0.00000001
 12
1.0
 22
0.0
 32
0.0
 13
1.0
 23
0.0
 33
0.0
 40
0.0
 40
0.0
 40
0.0
 40
0.0
 40
0.5
 40
0.5
 40
0.75
 40
0.75
 40
1.0
 40
1.0
 40
1.0
 40
1.0
 10
66.63108479796773
 20
124.9703552741262
 30
0.0
 10
66.81361150151542
 20
124.9703552741262
 30
0.0
 10
66.9982021568506
 20
124.9703552741262
 30
0.0
 10
67.2584834790251
 20
124.9703552741262
 30
0.0
 10
67.3430379318362
 20
124.9703552741262
 30
0.0
 10
67.5069858815804
 20
124.9703552741262
 30
0.0
 10
67.58643610562179
 20
124.9703552741262
 30
0.0
 10
67.65848748640013
 20
124.9703552741262
 30
0.0
  0
SPLINE
  5
2AD
330
1F
100
AcDbEntity
  8
0
  6
Continuous
 62
     7
370
    15
100
AcDbSpline
210
0.0
220
0.0
230
1.0
 70
    24
 71
     3
 72
    10
 73
     6
 74
     0
 42
0.00000001
 43
0.00000001
 12
1.0
 22
0.0
 32
0.0
 13
1.0
 23
0.0
 33
0.0
 40
0.0
 40
0.0
 40
0.0
 40
0.0
 40
0.5
 40
0.5
 40
1.0
 40
1.0
 40
1.0
 40
1.0
 10
67.65848748639833
 20
125.9977579625569
 30
0.0
 10
67.65848748639833
 20
125.8150492504219
 30
0.0
 10
67.65848748639833
 20
125.6315409606611
 30
0.0
 10
67.65848748639833
 20
125.2832369823405
 30
0.0
 10
67.65848748639833
 20
125.1150493997976
 30
0.0
 10
67.65848748639833
 20
124.9703552741248
 30
0.0
  0
SPLINE
  5
2AE
330
1F
100
AcDbEntity
  8
0
  6
Continuous
 62
     7
370
    15
100
AcDbSpline
210
0.0
220
0.0
230
1.0
 70
    24
 71
     3
 72
    10
 73
     6
 74
     0
 42
0.00000001
 43
0.00000001
 12
1.0
 22
0.0
 32
0.0
 13
1.0
 23
0.0
 33
0.0
 40
0.0
 40
0.0
 40
0.0
 40
0.0
 40
0.5
 40
0.5
 40
1.0
 40
1.0
 40
1.0
 40
1.0
 10
75.00848748639834
 20
131.9912323072692
 30
0.0
 10
75.00848748639834
 20
132.149666750157
 30
0.0
 10
75.00848748639834
 20
132.308687444959
 30
0.0
 10
75.00848748639834
 20
132.5386952692146
 30
0.0
 10
75.00848748639834
 20
132.6075305440314
 30
0.0
 10
75.00848748639834
 20
132.6075305440314
 30
0.0
  0
ARC
  5
2AF
330
1F
100
AcDbEntity
  8
0
  6
Continuous
 62
     7
370
    15
100
AcDbCircle
 10
79.5084874864
 20
113.1203552741
 30
0.0
 40
20.00000000000001
100
AcDbArc
 50
103.0028781629
 51
126.3346172154
  0
SPLINE
  5
2B0
330
1F
100
AcDbEntity
  8
0
  6
Continuous
 62
     7
370
    15
100
AcDbSpline
210
0.0
220
0.0
230
1.0
 70
    24
 71
     3
 72
    12
 73
     8
 74
     0
 42
0.00000001
 43
0.00000001
 12
1.0
 22
0.0
 32
0.0
 13
1.0
 23
0.0
 33
0.0
 40
0.0
 40
0.0
 40
0.0
 40
0.0
 40
0.25
 40
0.25
 40
0.5
 40
0.5
 40
1.0
 40
1.0
 40
1.0
 40
1.0
 10
67.65848748639833
 20
129.2317642752037
 30
0.0
 10
67.65848748639833
 20
129.2317642752037
 30
0.0
 10
67.65848748639833
 20
129.206139642599
 30
0.0
 10
67.65848748639833
 20
129.1175962696672
 30
0.0
 10
67.65848748639833
 20
129.0547137865525
 30
0.0
 10
67.65848748639833
 20
128.8373525986189
 30
0.0
 10
67.65848748639833
 20
128.6587055886076
 30
0.0
 10
67.65848748639833
 20
128.4806124334319
 30
0.0
  0
SPLINE
  5
2B1
330
1F
100
AcDbEntity
  8
0
  6
Continuous
 62
     7
370
    15
100
AcDbSpline
210
0.0
220
0.0
230
1.0
 70
    24
 71
     3
 72
    10
 73
     6
 74
     0
 42
0.00000001
 43
0.00000001
 12
1.0
 22
0.0
 32
0.0
 13
1.0
 23
0.0
 33
0.0
 40
0.0
 40
0.0
 40
0.0
 40
0.0
 40
0.5
 40
0.5
 40
1.0
 40
1.0
 40
1.0
 40
1.0
 10
74.00848748639834
 20
94.51632345303975
 30
0.0
 10
74.00848748639834
 20
94.3566912841365
 30
0.0
 10
74.00848748639834
 20
94.19564165037245
 30
0.0
 10
74.00848748639834
 20
93.96265076669586
 30
0.0
 10
74.00848748639834
 20
93.89147075109686
 30
0.0
 10
74.00848748639834
 20
93.89147075109686
 30
0.0
  0
ARC
  5
2B2
330
1F
100
AcDbEntity
  8
0
  6
Continuous
 62
     7
370
    15
100
AcDbCircle
 10
79.5084874864
 20
113.1203552741
 30
0.0
 40
20.00000000000001
100
AcDbArc
 50
143.6653827846
 51
254.0379858372
  0
SPLINE
  5
2B3
330
1F
100
AcDbEntity
  8
0
  6
Continuous
 62
     7
370
    15
100
AcDbSpline
210
0.0
220
0.0
230
1.0
 70
    24
 71
     3
 72
    12
 73
     8
 74
     0
 42
0.00000001
 43
0.00000001
 12
1.0
 22
0.0
 32
0.0
 13
1.0
 23
0.0
 33
0.0
 40
0.0
 40
0.0
 40
0.0
 40
0.0
 40
0.2500000000000014
 40
0.2500000000000014
 40
0.5000000000000029
 40
0.5000000000000029
 40
1.0
 40
1.0
 40
1.0
 40
1.0
 10
63.39707848532086
 20
124.9703552741262
 30
0.0
 10
63.39707848532086
 20
124.9703552741262
 30
0.0
 10
63.42235863548533
 20
124.9703552741262
 30
0.0
 10
63.51196998098707
 20
124.9703552741262
 30
0.0
 10
63.57495561791308
 20
124.9703552741262
 30
0.0
 10
63.79124233967065
 20
124.9703552741262
 30
0.0
 10
63.97122209709102
 20
124.9703552741262
 30
0.0
 10
64.14823032709273
 20
124.9703552741262
 30
0.0
  0
SPLINE
  5
2B4
330
1F
100
AcDbEntity
  8
0
  6
Continuous
 62
     7
370
    15
100
AcDbSpline
210
0.0
220
0.0
230
1.0
 70
    24
 71
     3
 72
    10
 73
     6
 74
     0
 42
0.00000001
 43
0.00000001
 12
1.0
 22
0.0
 32
0.0
 13
1.0
 23
0.0
 33
0.0
 40
0.0
 40
0.0
 40
0.0
 40
0.0
 40
0.5
 40
0.5
 40
1.0
 40
1.0
 40
1.0
 40
1.0
 10
84.00848748639834
 20
132.6075305440314
 30
0.0
 10
84.00848748639834
 20
132.6075305440314
 30
0.0
 10
84.00848748639834
 20
132.5389451415255
 30
0.0
 10
84.00848748639834
 20
132.3091718722059
 30
0.0
 10
84.00848748639834
 20
132.1506736705382
 30
0.0
 10
84.00848748639834
 20
131.9912323072692
 30
0.0
  0
ARC
  5
2B5
330
1F
100
AcDbEntity
  8
0
  6
Continuous
 62
     7
370
    15
100
AcDbCircle
 10
79.5084874864
 20
113.1203552741
 30
0.0
 40
20.00000000000002
100
AcDbArc
 50
334.1580672368
 51
76.9971218371
  0
LINE
  5
2B6
330
1F
100
AcDbEntity
  8
0
  6
Continuous
 62
     7
370
    15
100
AcDbLine
 10
84.0084872927
 20
131.9912323761
 30
0.0
 11
84.0084872927
 21
130.5487794835
 31
0.0
  0
LINE
  5
2B7
330
1F
100
AcDbEntity
  8
0
  6
Continuous
 62
     7
370
    15
100
AcDbLine
 10
74.0084875162
 20
96.220356043
 30
0.0
 11
74.0084875162
 21
94.5163225788
 31
0.0
  0
LINE
  5
2B8
330
1F
100
AcDbEntity
  8
0
  6
Continuous
 62
     7
370
    15
100
AcDbLine
 10
74.9653609257
 20
96.220356043
 30
0.0
 11
74.0084875162
 21
96.220356043
 31
0.0
  0
LINE
  5
2B9
330
1F
100
AcDbEntity
  8
0
  6
Continuous
 62
     7
370
    15
100
AcDbLine
 10
64.1482298981
 20
124.9703556332
 30
0.0
 11
66.6310846593
 21
124.9703556332
 31
0.0
  0
LINE
  5
2BA
330
1F
100
AcDbEntity
  8
0
  6
Continuous
 62
     7
370
    15
100
AcDbLine
 10
75.0084876801
 20
130.0318898666
 30
0.0
 11
75.0084876801
 21
131.9912323761
 31
0.0
  0
LINE
  5
2BB
330
1F
100
AcDbEntity
  8
0
  6
Continuous
 62
     7
370
    15
100
AcDbLine
 10
67.6584871273
 20
128.4806128625
 30
0.0
 11
67.6584871273
 21
125.9977581013
 31
0.0
  0
SPLINE
  5
2BC
330
1F
100
AcDbEntity
  8
0
  6
Continuous
 62
     7
370
    15
100
AcDbSpline
210
0.0
220
0.0
230
1.0
 70
     8
 71
     3
 72
    22
 73
    18
 74
     0
 42
0.00000001
 43
0.00000001
 12
1.0
 22
0.0
 32
0.0
 13
1.0
 23
0.0
 33
0.0
 40
0.0
 40
0.0
 40
0.0
 40
0.0
 40
0.2500000000000001
 40
0.2500000000000001
 40
0.3750000000000002
 40
0.3750000000000002
 40
0.5000000000000003
 40
0.5000000000000003
 40
0.6250000000000006
 40
0.6250000000000006
 40
0.7500000000000006
 40
0.7500000000000006
 40
0.8750000000000007
 40
0.8750000000000007
 40
0.9375000000000003
 40
0.9375000000000003
 40
1.0
 40
1.0
 40
1.0
 40
1.0
 10
63.39707848532088
 20
124.9703552741262
 30
0.0
 10
63.81107336348736
 20
125.5332279160243
 30
0.0
 10
64.24688316479627
 20
126.0638527997538
 30
0.0
 10
64.92362396778061
 20
126.8095637906754
 30
0.0
 10
65.1544790949553
 20
127.0511840170741
 30
0.0
 10
65.61451615011742
 20
127.5100427924
 30
0.0
 10
65.84048382689595
 20
127.7242214648698
 30
0.0
 10
66.27767541539666
 20
128.1214500240154
 30
0.0
 10
66.49072813968922
 20
128.3058948590352
 30
0.0
 10
66.87490427892276
 20
128.6269747069188
 30
0.0
 10
67.04902128771423
 20
128.7663255370248
 30
0.0
 10
67.34253903251475
 20
128.9956310714504
 30
0.0
 10
67.45733133711217
 20
129.0821670809267
 30
0.0
 10
67.57628591320814
 20
129.171056685258
 30
0.0
 10
67.60710399619472
 20
129.1938651911196
 30
0.0
 10
67.64812320791334
 20
129.2241563538159
 30
0.0
 10
67.65848748639834
 20
129.2317642752037
 30
0.0
 10
67.65848748639834
 20
129.2317642752037
 30
0.0
  0
SPLINE
  5
2BD
330
1F
100
AcDbEntity
  8
0
  6
Continuous
 62
     7
370
    15
100
AcDbSpline
210
0.0
220
0.0
230
1.0
 70
     8
 71
     3
 72
    16
 73
    12
 74
     0
 42
0.00000001
 43
0.00000001
 12
1.0
 22
0.0
 32
0.0
 13
1.0
 23
0.0
 33
0.0
 40
0.0
 40
0.0
 40
0.0
 40
0.0
 40
0.105344848811859
 40
0.2107007312089645
 40
0.3159254857634773
 40
0.4211668747258474
 40
0.5288500818694538
 40
0.6365348647807832
 40
0.7466774931658839
 40
0.8568052991250568
 40
1.0
 40
1.0
 40
1.0
 40
1.0
 10
74.00848751620066
 20
93.89147032384608
 30
0.0
 10
74.02055707644776
 20
93.88794988847373
 30
0.0
 10
74.04469746108083
 20
93.88090864900644
 30
0.0
 10
74.23234507338
 20
93.82835383538402
 30
0.0
 10
74.52748606053306
 20
93.74941242634569
 30
0.0
 10
74.93091952638699
 20
93.64936017825515
 30
0.0
 10
75.43518193151037
 20
93.53701512150487
 30
0.0
 10
76.03121265487752
 20
93.42118903165363
 30
0.0
 10
76.70510016799577
 20
93.31429050113779
 30
0.0
 10
77.51012806226042
 20
93.21186699676086
 30
0.0
 10
78.10450144832154
 20
93.17272509324543
 30
0.0
 10
78.44048075110328
 20
93.15059949044917
 30
0.0
  0
SPLINE
  5
2BE
330
1F
100
AcDbEntity
  8
0
  6
Continuous
 62
     7
370
    15
100
AcDbSpline
210
0.0
220
0.0
230
1.0
 70
     8
 71
     3
 72
    38
 73
    34
 74
     0
 42
0.00000001
 43
0.00000001
 12
1.0
 22
0.0
 32
0.0
 13
1.0
 23
0.0
 33
0.0
 40
0.0
 40
0.0
 40
0.0
 40
0.0
 40
0.0625
 40
0.0625
 40
0.125
 40
0.125
 40
0.1875000000000001
 40
0.1875000000000001
 40
0.2500000000000001
 40
0.2500000000000001
 40
0.3125000000000001
 40
0.3125000000000001
 40
0.3750000000000001
 40
0.3750000000000001
 40
0.4375000000000001
 40
0.4375000000000001
 40
0.5
 40
0.5
 40
0.5625
 40
0.5625
 40
0.625
 40
0.625
 40
0.6875
 40
0.6875
 40
0.75
 40
0.75
 40
0.8125000000000001
 40
0.8125000000000001
 40
0.8750000000000001
 40
0.8750000000000001
 40
0.9375000000000001
 40
0.9375000000000001
 40
1.0
 40
1.0
 40
1.0
 40
1.0
 10
75.00848748639834
 20
132.6075305440314
 30
0.0
 10
75.00848748639834
 20
132.6075305440314
 30
0.0
 10
75.03784790896984
 20
132.6143761112875
 30
0.0
 10
75.15270149947715
 20
132.6403602707211
 30
0.0
 10
75.23965358222168
 20
132.6598131895441
 30
0.0
 10
75.46576646610632
 20
132.7078452940834
 30
0.0
 10
75.60399179058001
 20
132.7362293110627
 30
0.0
 10
75.93039662581727
 20
132.7983853245415
 30
0.0
 10
76.11971840014255
 20
132.8322835002182
 30
0.0
 10
76.53328745365927
 20
132.898930932544
 30
0.0
 10
76.75913354358296
 20
132.932028349957
 30
0.0
 10
77.25056403254571
 20
132.9940343206192
 30
0.0
 10
77.51092148769601
 20
133.0222002898669
 30
0.0
 10
78.05186629925417
 20
133.0690885588963
 30
0.0
 10
78.3364101411665
 20
133.0881005462163
 30
0.0
 10
78.91762331579385
 20
133.1137415827578
 30
0.0
 10
79.21018492365482
 20
133.1202986989632
 30
0.0
 10
79.79915491426453
 20
133.1204111205982
 30
0.0
 10
80.09838604760881
 20
133.1137455973662
 30
0.0
 10
80.676228389069
 20
133.0883300866648
 30
0.0
 10
80.95719862220997
 20
133.0696991932631
 30
0.0
 10
81.50320342180828
 20
133.0225208622236
 30
0.0
 10
81.76521572153167
 20
132.9941392089701
 30
0.0
 10
82.25171755972423
 20
132.9328462578694
 30
0.0
 10
82.48008715095723
 20
132.8994946746076
 30
0.0
 10
82.89783384984723
 20
132.8322068162482
 30
0.0
 10
83.08338549081736
 20
132.7989635200987
 30
0.0
 10
83.40931220230541
 20
132.7369575481243
 30
0.0
 10
83.55073408371598
 20
132.7079424906536
 30
0.0
 10
83.77661122991977
 20
132.6599676098043
 30
0.0
 10
83.86225199837733
 20
132.6408133724638
 30
0.0
 10
83.9784768815633
 20
132.6145273417426
 30
0.0
 10
84.00848748639834
 20
132.6075305440314
 30
0.0
 10
84.00848748639834
 20
132.6075305440314
 30
0.0
  0
CIRCLE
  5
2BF
330
1F
100
AcDbEntity
  8
VERMASSUNG
  6
CENTERX2
100
AcDbCircle
 10
79.5084874864
 20
111.1185054309
 30
0.0
 40
25.00000000000002
  0
POINT
  5
2C0
330
1F
100
AcDbEntity
  8
VERMASSUNG
100
AcDbPoint
 10
79.4896884431
 20
86.118512499
 30
0.0
  0
DIMENSION
  5
2C1
330
1F
100
AcDbEntity
  8
VERMASSUNG
100
AcDbDimension
  2
_D_5
 10
49.5084874864
 20
136.1185054309
 30
0.0
 11
49.5084874864
 21
111.1185054309
 31
0.0
 70
   160
  1
%%c<>
 71
     2
 42
-1.0
  3
SLDDIMSTYLE0
100
AcDbAlignedDimension
 13
79.5084874864
 23
86.1185054309
 33
0.0
 14
79.5084874864
 24
136.1185054309
 34
0.0
 50
90.0
100
AcDbRotatedDimension
  0
INSERT
  5
2D7
330
1F
100
AcDbEntity
  8
VERMASSUNG
100
AcDbBlockReference
  2
SW_CENTERMARKSYMBOL_0
 10
79.5084874864
 20
113.1203552741
 30
0.0
  0
OLE2FRAME
  5
2D8
330
1F
100
AcDbEntity
  8
0
100
AcDbOle2Frame
 70
     2
  3
Paintbrush-Bild
 10
13.8511154363
 20
38.264191557
 30
0.0
 11
51.6290888628
 21
31.9806341108
 31
0.0
 71
     2
 72
     0
 73
     1
 90
    12928
310
80552BED0767C5B32B40DDAF6807D121434000000000000000006FFBDDFB85D0
310
4940DDAF6807D121434000000000000000006FFBDDFB85D04940416F4BD60AFB
310
3F4000000000000000002BED0767C5B32B40416F4BD60AFB3F40000000000000
310
0000000000000100000000010000010000000100000000000100000000320000
310
D0CF11E0A1B11AE1000000000000000000000000000000003E000300FEFF0900
310
0600000000000000000000000100000001000000000000000010000002000000
310
01000000FEFFFFFF0000000000000000FFFFFFFFFFFFFFFFFFFFFFFFFFFFFFFF
310
FFFFFFFFFFFFFFFFFFFFFFFFFFFFFFFFFFFFFFFFFFFFFFFFFFFFFFFFFFFFFFFF
310
FFFFFFFFFFFFFFFFFFFFFFFFFFFFFFFFFFFFFFFFFFFFFFFFFFFFFFFFFFFFFFFF
310
FFFFFFFFFFFFFFFFFFFFFFFFFFFFFFFFFFFFFFFFFFFFFFFFFFFFFFFFFFFFFFFF
310
FFFFFFFFFFFFFFFFFFFFFFFFFFFFFFFFFFFFFFFFFFFFFFFFFFFFFFFFFFFFFFFF
310
FFFFFFFFFFFFFFFFFFFFFFFFFFFFFFFFFFFFFFFFFFFFFFFFFFFFFFFFFFFFFFFF
310
FFFFFFFFFFFFFFFFFFFFFFFFFFFFFFFFFFFFFFFFFFFFFFFFFFFFFFFFFFFFFFFF
310
FFFFFFFFFFFFFFFFFFFFFFFFFFFFFFFFFFFFFFFFFFFFFFFFFFFFFFFFFFFFFFFF
310
FFFFFFFFFFFFFFFFFFFFFFFFFFFFFFFFFFFFFFFFFFFFFFFFFFFFFFFFFFFFFFFF
310
FFFFFFFFFFFFFFFFFFFFFFFFFFFFFFFFFFFFFFFFFFFFFFFFFFFFFFFFFFFFFFFF
310
FFFFFFFFFFFFFFFFFFFFFFFFFFFFFFFFFFFFFFFFFFFFFFFFFFFFFFFFFFFFFFFF
310
FFFFFFFFFFFFFFFFFFFFFFFFFFFFFFFFFFFFFFFFFFFFFFFFFFFFFFFFFFFFFFFF
310
FFFFFFFFFFFFFFFFFFFFFFFFFFFFFFFFFFFFFFFFFFFFFFFFFFFFFFFFFFFFFFFF
310
FFFFFFFFFFFFFFFFFFFFFFFFFFFFFFFFFFFFFFFFFFFFFFFFFFFFFFFFFFFFFFFF
310
FDFFFFFFFEFFFFFFFEFFFFFFFEFFFFFF05000000060000000700000008000000
310
090000000A0000000B0000000C0000000D0000000E0000000F00000010000000
310
11000000120000001300000014000000150000001600000017000000FEFFFFFF
310
FFFFFFFFFFFFFFFFFFFFFFFFFFFFFFFFFFFFFFFFFFFFFFFFFFFFFFFFFFFFFFFF
310
FFFFFFFFFFFFFFFFFFFFFFFFFFFFFFFFFFFFFFFFFFFFFFFFFFFFFFFFFFFFFFFF
310
FFFFFFFFFFFFFFFFFFFFFFFFFFFFFFFFFFFFFFFFFFFFFFFFFFFFFFFFFFFFFFFF
310
FFFFFFFFFFFFFFFFFFFFFFFFFFFFFFFFFFFFFFFFFFFFFFFFFFFFFFFFFFFFFFFF
310
FFFFFFFFFFFFFFFFFFFFFFFFFFFFFFFFFFFFFFFFFFFFFFFFFFFFFFFFFFFFFFFF
310
FFFFFFFFFFFFFFFFFFFFFFFFFFFFFFFFFFFFFFFFFFFFFFFFFFFFFFFFFFFFFFFF
310
FFFFFFFFFFFFFFFFFFFFFFFFFFFFFFFFFFFFFFFFFFFFFFFFFFFFFFFFFFFFFFFF
310
FFFFFFFFFFFFFFFFFFFFFFFFFFFFFFFFFFFFFFFFFFFFFFFFFFFFFFFFFFFFFFFF
310
FFFFFFFFFFFFFFFFFFFFFFFFFFFFFFFFFFFFFFFFFFFFFFFFFFFFFFFFFFFFFFFF
310
FFFFFFFFFFFFFFFFFFFFFFFFFFFFFFFFFFFFFFFFFFFFFFFFFFFFFFFFFFFFFFFF
310
FFFFFFFFFFFFFFFFFFFFFFFFFFFFFFFFFFFFFFFFFFFFFFFFFFFFFFFFFFFFFFFF
310
FFFFFFFFFFFFFFFFFFFFFFFFFFFFFFFFFFFFFFFFFFFFFFFFFFFFFFFFFFFFFFFF
310
FFFFFFFFFFFFFFFFFFFFFFFFFFFFFFFFFFFFFFFFFFFFFFFFFFFFFFFFFFFFFFFF
310
52006F006F007400200045006E00740072007900000000000000000000000000
310
0000000000000000000000000000000000000000000000000000000000000000
310
16000500FFFFFFFFFFFFFFFF020000000A00030000000000C000000000000046
310
00000000000000000000000010033323F522CD0103000000C000000000000000
310
01004F006C006500000000000000000000000000000000000000000000000000
310
0000000000000000000000000000000000000000000000000000000000000000
310
0A000200FFFFFFFFFFFFFFFFFFFFFFFF00000000000000000000000000000000
310
0000000000000000000000000000000000000000000000001400000000000000
310
010043006F006D0070004F0062006A0000000000000000000000000000000000
310
0000000000000000000000000000000000000000000000000000000000000000
310
120002010100000003000000FFFFFFFF00000000000000000000000000000000
310
0000000000000000000000000000000000000000010000004D00000000000000
310
01004F006C006500310030004E00610074006900760065000000000000000000
310
0000000000000000000000000000000000000000000000000000000000000000
310
1A000200FFFFFFFFFFFFFFFFFFFFFFFF00000000000000000000000000000000
310
0000000000000000000000000000000000000000040000002426000000000000
310
FEFFFFFF02000000FEFFFFFFFFFFFFFFFFFFFFFFFFFFFFFFFFFFFFFFFFFFFFFF
310
FFFFFFFFFFFFFFFFFFFFFFFFFFFFFFFFFFFFFFFFFFFFFFFFFFFFFFFFFFFFFFFF
310
FFFFFFFFFFFFFFFFFFFFFFFFFFFFFFFFFFFFFFFFFFFFFFFFFFFFFFFFFFFFFFFF
310
FFFFFFFFFFFFFFFFFFFFFFFFFFFFFFFFFFFFFFFFFFFFFFFFFFFFFFFFFFFFFFFF
310
FFFFFFFFFFFFFFFFFFFFFFFFFFFFFFFFFFFFFFFFFFFFFFFFFFFFFFFFFFFFFFFF
310
FFFFFFFFFFFFFFFFFFFFFFFFFFFFFFFFFFFFFFFFFFFFFFFFFFFFFFFFFFFFFFFF
310
FFFFFFFFFFFFFFFFFFFFFFFFFFFFFFFFFFFFFFFFFFFFFFFFFFFFFFFFFFFFFFFF
310
FFFFFFFFFFFFFFFFFFFFFFFFFFFFFFFFFFFFFFFFFFFFFFFFFFFFFFFFFFFFFFFF
310
FFFFFFFFFFFFFFFFFFFFFFFFFFFFFFFFFFFFFFFFFFFFFFFFFFFFFFFFFFFFFFFF
310
FFFFFFFFFFFFFFFFFFFFFFFFFFFFFFFFFFFFFFFFFFFFFFFFFFFFFFFFFFFFFFFF
310
FFFFFFFFFFFFFFFFFFFFFFFFFFFFFFFFFFFFFFFFFFFFFFFFFFFFFFFFFFFFFFFF
310
FFFFFFFFFFFFFFFFFFFFFFFFFFFFFFFFFFFFFFFFFFFFFFFFFFFFFFFFFFFFFFFF
310
FFFFFFFFFFFFFFFFFFFFFFFFFFFFFFFFFFFFFFFFFFFFFFFFFFFFFFFFFFFFFFFF
310
FFFFFFFFFFFFFFFFFFFFFFFFFFFFFFFFFFFFFFFFFFFFFFFFFFFFFFFFFFFFFFFF
310
FFFFFFFFFFFFFFFFFFFFFFFFFFFFFFFFFFFFFFFFFFFFFFFFFFFFFFFFFFFFFFFF
310
FFFFFFFFFFFFFFFFFFFFFFFFFFFFFFFFFFFFFFFFFFFFFFFFFFFFFFFFFFFFFFFF
310
0100000200000000000000000000000000000000000000000000000000000000
310
0000000000000000000000000000000000000000000000000000000000000000
310
0100FEFF030A0000FFFFFFFF0A00030000000000C00000000000004607000000
310
5042727573680007000000504272757368000700000050427275736800F439B2
310
7100000000000000000000000000000000000000000000000000000000000000
310
0000000000000000000000000000000000000000000000000000000000000000
310
0000000000000000000000000000000000000000000000000000000000000000
310
0000000000000000000000000000000000000000000000000000000000000000
310
0000000000000000000000000000000000000000000000000000000000000000
310
0000000000000000000000000000000000000000000000000000000000000000
310
0000000000000000000000000000000000000000000000000000000000000000
310
0000000000000000000000000000000000000000000000000000000000000000
310
0000000000000000000000000000000000000000000000000000000000000000
310
0000000000000000000000000000000000000000000000000000000000000000
310
0000000000000000000000000000000000000000000000000000000000000000
310
0000000000000000000000000000000000000000000000000000000000000000
310
20260000424D0E260000000000003E00000028000000B40200006E0000000100
310
01000000000000000000130B0000130B00000200000002000000000000FFFFFF
310
FFFFFFFFFFFFFFFFFFFFFFFFFFFFFFFFFFFFFFFFFFFFFFFFFFFFFFFFFFFFFFFF
310
FFFFFFFFFFFFFFFFFFFFFFFFFFFFFFFFFFFFFFFFFFFFFFFFFFFFFFFFFFFFFFFF
310
FFFFFFFFFFFFFFFFFFFFFFFFFFFFFFFFFFFFFFFFFFFFFFFFF000FFFFFFFFFFFF
310
FFFFFFFFFFFFFFFFFFFFFFFFFFFFFFFFFFFFFFFFFFFFFFFFFFFFFFFFFFFFFFFF
310
FFFFFFFFFFFFFFFFFFFFFFFFFFFFFFFFFFFFFFFFFFFFFFFFFFFFFFFFFFFFFFFF
310
FFFFFFFFFFFFFFFFFFFFFFFFFFFFFFFFF000FFFFFFFFFFFFFFFFFFFFFFFFFFFF
310
FFFFFFFFFFFFFFFFFFFFFFFFFFFFFFFFFFFFFFFFFFFFFFFFFFFFFFFFFFFFFFFF
310
FFFFFFFFFFFFFFFFFFFFFFFFFFFFFFFFFFFFFFFFFFFFFFFFFFFFFFFFFFFFFFFF
310
FFFFFFFFFFFFFFFFF000FFFFFFFFFFFFFFFFFFFFFFFFFFFFFFFFFFFFFFFFFFFF
310
FFFFFFFFFFFFFFFFFFFFFFFFFFFFFFFFFFFFFFFFFFFFFFFFFFFFFFFFFFFFFFFF
310
FFFFFFFFFFFFFFFFFFFFFFFFFFFFFFFFFFFFFFFFFFFFFFFFFFFFFFFFFFFFFFFF
310
F000FFFFFFFFFFFFFFFFFFFFFFFFFFFFFFFFFFFFFFFFFFFFFFFFFFFFFFFFFFFF
310
FFFFFFFFFFFFFFFFFFFFFFFFFFFFFFFFFFFFFFFFFFFFFFFFFFFFFFFFFFFFFFFF
310
FFFFFFFFFFFFFFFFFFFFFFFFFFFFFFFFFFFFFFFFFFFFFFFFF000FFFFFFFFFFFF
310
FFFFFFFFFFFFFFFFFFFFFFFFFFFFFFFFFFFFFFFFFFFFFFFFFFFFFFFFFFFFFFFF
310
FFFFFFFFFFFFFFFFFFFFFFFFFFFFFFFFFFFFFFFFFFFFFFFFFFFFFFFFFFFFFFFF
310
FFFFFFFFFFFFFFFFFFFFFFFFFFFFFFFFF000FFFFFFFFFFFFFFFFFFFFFFFFFFFF
310
FFFFFFFFFFFFFFFFFFFFFFFFFFFFFFFFFFFFFFFFFFFFFFFFFFFFFFFFFFFFFFFF
310
FFFFFFFFFFFFFFFFFFFFFFFFFFFFFFFFFFFFFFFFFFFFFFFFFFFFFFFFFFFFFFFF
310
FFFFFFFFFFFFFFFFF000FFFFFFFFFFFFFFFFFFFFFFFFFFFFFFFFFFFFFFFFFFFF
310
FFFFFFFFFFFFFFFFFFFFFFFFFFFFFFFFFFFFFFFFFFFFFFFFFFFFFFFFFFFFFFFF
310
FFFFFFFFFFFFFFFFFFFFFFFFFFFFFFFFFFFFFFFFFFFFFFFFFFFFFFFFFFFFFFFF
310
F000FFFFFFFFFFFFFFFFFFFFFFFFFFFFFFFFFFFFFFFFFFFFFFFFFFFFFFFFFFFF
310
FFFFFFFFFFFFFFFFFFFFFFFFFFFFFFFFFFFFFFFFFFFFFFFFFFFFFFFFFFFFFFFF
310
FFFFFFFFFFFFFFFFFFFFFFFFFFFFFFFFFFFFFFFFFFFFFFFFF000FFFFFFFFFFFF
310
FFFFFFFFFFFFFFFFFFFFFFFFFFFFFFFFFFFFFFFFFFFFFFFFFFFFFFFFFFFFFFFF
310
FFFFFFFFFFFFFFFFFFFFFFFFFFFFFFFFFFFFFFFFFFFFFFFFFFFFFFFFFFFFFFFF
310
FFFFFFFFFFFFFFFFFFFFFFFFFFFFFFFFF000FFFFFFFFFFFFFFFFFFFFFFFFFFFF
310
FFFFFFFFFFFFFFFFFFFFFFFFFFFFFFFFFFFFFFFFFFFFFFFFFFFFFFFFFFFFFFFF
310
FFFFFFFFFFFFFFFFFFFFFFFFFFFFFFFFFFFFFFFFFFFFFFFFFFFFFFFFFFFFFFFF
310
FFFFFFFFFFFFFFFFF000FFFFFFFFFFFFFFFFFFFFFFFFFFFFFFFFFFFFFFFFFFFF
310
FFFFFFFFFFFFFFFFFFFFFFFFFFFFFFFFFFFFFFFFFFFFFFFFFFFFFFFFFFFFFFFF
310
FFFFFFFFFFFFFFFFFFFFFFFFFFFFFFFFFFFFFFFFFFFFFFFFFFFFFFFFFFFFFFFF
310
F000FFFFFFFFFFFFFFFFFFFFFFFFFFFFFFFFFFFFFFFFFFFFFFFFFFFFFFFFFFFF
310
FFFFFFFFFFFFFFFFFFFFFFFFFFFFFFFFFFFFFFFFFFFFFFFFFFFFFFFFFFFFFFFF
310
FFFFFFFFFFFFFFFFFFFFFFFFFFFFFFFFFFFFFFFFFFFFFFFFF000FFFFFFFFFFFF
310
FFFFFFFFFFFFFFFFFFFFFFFFFFFFFFFFFFFFFFFFFFFFFFFFFFFFFFFFFFFFFFFF
310
FFFFFFFFFFFFFFFFFFFFFFFFFFFFFFFFFFFFFFFFFFFFFFFFFFFFFFFFFFFFFFFF
310
FFFFFFFFFFFFFFFFFFFFFFFFFFFFFFFFF000FFFFFFFFFFFFFFFFFFFFFFFFFFFF
310
FFFFFFFFFFFFFFFFFFFFFFFFFFFFFFFFFFFFFFFFFFFFFFFFFFFFFFFFFFFFFFFF
310
FFFFFFFFFFFFFFFFFFFFFFFFFFFFFFFFFFFFFFFFFFFFFFFFFFFFFFFFFFFFFFFF
310
FFFFFFFFFFFFFFFFF000FFFFFFFFFFFFFFFFFFFFFFFFFFFFFFFFFFFFFFFFFFFF
310
FFFFFFFFFFFFFFFFFFFFFFFFFFFFFFFFFFFFFFFFFFFFFFFFFFFFFFFFFFFFFFFF
310
FFFFFFFFFFFFFFFFFFFFFFFFFFFFFFFFFFFFFFFFFFFFFFFFFFFFFFFFFFFFFFFF
310
F000FFFFFFFFFFFFFFFFFFFFFFFFFFFFFFFFFFFFFFFFFFFFFFFFFFFFFFFFFFFF
310
FFFFFFFFFFFFFFFFFFFFFFFFFFFFFFFFFFFFFFFFFFFFFFFFFFFFFFFFFFFFFFFF
310
FFFFFFFFFFFFFFFFFFFFFFFFFFFFFFFFFFFFFFFFFFFFFFFFF000FFFFFFFFFFFF
310
FFFFFFFFFFFFFFFFFFFFFFFFFFFFFFFFFFFFFFFFFFFFFFFFFFFFFFFFFFFFFFFF
310
FFFFFFFFFFFFFFFFFFFFFFFFFFFFFFFFFFFFFFFFFFFFFFFFFFFFFFFFFFFFFFFF
310
FFFFFFFFFFFFFFFFFFFFFFFFFFFFFFFFF000FFFFFFFFFFFFFFFFFFFFFFFFFFFF
310
FFFFFFFFFFFFFFFFFFFFFFFFFFFFFFFFFFFFFFFFFFFFFFFFFFFFFFFFFFFFFFFF
310
FFFFFFFFFFFFFFFFFFFFFFFFFFFFFFFFFFFFFFFFFFFFFFFFFFFFFFFFFFFFFFFF
310
FFFFFFFFFFFFFFFFF000FFFFF80003FFFFFFFFFFFFFFFFFFFFFFFFFFFFFFFFFF
310
FFFFF00007FFFFFFFFFF00007FFFFFF800000000000000007FFFFFFFFFFFFFFF
310
FFFFFFFC001FFFFFFFFFFFFFFC001FFFFFFFFFFFFFFFFFFFFFFFFFFE0007FFFF
310
F000FFFF8000007FFFFFFFF8000FFFFFC0007FFFFF80007FFFFF0000007FFFFF
310
FFF8000007FFFFF800000000000000007FFFFFF0001FFFFFFFFFFFC00001FFFF
310
FFFFFFFFC00001FFFFFFFF000000000003FFFFE000007FFFF000FFFE0000000F
310
FFFFFFF0000FFFFF80007FFFFF80007FFFFC0000001FFFFFFFC0000001FFFFF8
310
00000000000000007FFFFFF0001FFFFFFFFFFE0000003FFFFFFFFFFE0000003F
310
FFFFFF000000000003FFFF0000000FFFF000FFF800000003FFFFFFF00007FFFF
310
80007FFFFF80007FFFF000000007FFFFFF000000003FFFF80000000000000000
310
7FFFFFF0001FFFFFFFFFF80000000FFFFFFFFFF80000000FFFFFFF0000000000
310
03FFFC00000003FFF000FFE000000000FFFFFFF00007FFFF80003FFFFF80007F
310
FFC000000001FFFFFC000000001FFFF800000000000000007FFFFFF0001FFFFF
310
FFFFE000000003FFFFFFFFE000000003FFFFFF000000000003FFF000000000FF
310
F000FF80000000007FFFFFF00007FFFF80003FFFFF80007FFF8000000000FFFF
310
F80000000007FFF800000000000000007FFFFFF0001FFFFFFFFFC000000001FF
310
FFFFFFC000000001FFFFFF000000000003FFC0000000007FF000FF0000000000
310
3FFFFFE00007FFFF00003FFFFF80007FFE00000000003FFFF00000000003FFF8
310
00000000000000007FFFFFF0001FFFFFFFFF8000000000FFFFFFFF8000000000
310
FFFFFF000000000003FF80000000003FF000FE00000000001FFFFFE00003FFFF
310
00003FFFFF80007FFC00000000001FFFE00000000001FFF8000001FFFE000000
310
7FFFFFF0001FFFFFFFFE00000000003FFFFFFE00000000003FFFFF0000000000
310
03FF00000000001FF000FC00000000000FFFFFE00003FFFF00001FFFFF80007F
310
F800000000001FFFC00000000000FFF8000001FFFE0000007FFFFFF0001FFFFF
310
FFFC00000000001FFFFFFC00000000001FFFFF000000000003FE00000000000F
310
F000F8000000000007FFFFE00003FFFF00001FFFFF80007FF800000000000FFF
310
800000000000FFF8000001FFFE0000007FFFFFF0001FFFFFFFF800000000000F
310
FFFFF800000000000FFFFF000000000003FC000000000007F000F80000000000
310
03FFFFC00003FFFE00001FFFFF80007FF0000000000007FF0000000000007FF8
310
000001FFFE0000007FFFFFF0001FFFFFFFF0000000000007FFFFF00000000000
310
07FFFF000000000003F8000000000003F000F0000000000003FFFFC00001FFFE
310
00001FFFFF80007FE0000000000007FE0000000000003FF8000001FFFE000000
310
7FFFFFF0001FFFFFFFF0000000000007FFFFF0000000000007FFFF0000000000
310
03F800001F800003F000E00001FFF00001FFFFC00001FFFE00000FFFFF80007F
310
E00001FFE00003FE00001FFF00003FF8000001FFFE0000007FFFFFF0001FFFFF
310
FFE000003E000003FFFFE000003E000003FFFF000000000003F00001FFF80001
310
F000E00007FFFC0001FFFFC00001FFFE00000FFFFF80007FC0000FFFFC0003FC
310
0000FFFFC0001FF8000001FFFE0000007FFFFFF0001FFFFFFFC00003FFE00001
310
FFFFC00003FFE00001FFFF0001FFFFFFFFF00007FFFE0001F000E0000FFFFF00
310
00FFFF800001FFFC00000FFFFF80007FC0001FFFFE0001FC0001FFFFE0001FF8
310
000001FFFE0000007FFFFFF0001FFFFFFF80000FFFF80000FFFF80000FFFF800
310
00FFFF0003FFFFFFFFE0000FFFFF8000F000C0003FFFFF8000FFFF800000FFFC
310
000007FFFF80007F80003FFFFF0001FC0003FFFFF0001FF8000001FFFE000000
310
7FFFFFF0001FFFFFFF80003FFFFE0000FFFF80003FFFFE0000FFFF0003FFFFFF
310
FFE0003FFFFF8000F000C0003FFFFF8000FFFF800000FFFC000007FFFF80007F
310
80007FFFFF8001F80007FFFFF8000FF8000001FFFE0000007FFFFFF0001FFFFF
310
FF00007FFFFF00007FFF00007FFFFF00007FFF0003FFFFFFFFE0003FFFFFC000
310
F000C0007FFFFFC000FFFF000000FFFC000007FFFF80007F8000FFFFFF8000F8
310
000FFFFFF8000FF8000001FFFE0000007FFFFFF0001FFFFFFF0000FFFFFF8000
310
7FFF0000FFFFFF80007FFF0003FFFFFFFFC0007FFFFFC00070008000FFFFFFC0
310
00FFFF000000FFF8000007FFFF80007F8000FFFFFF8000F8000FFFFFF8000FF8
310
000001FFFE0000007FFFFFF0001FFFFFFE0001FFFFFFC0003FFE0001FFFFFFC0
310
003FFF0003FFFFFFFFC0007FFFFFE00070008000FFFFFFC0007FFF0000007FF8
310
000003FFFF80007F0001FFFFFF8000F8000FFFFFF8000FF8000001FFFE000000
310
7FFFFFF0001FFFFFFE0001FFFFFFC0003FFE0001FFFFFFC0003FFF0003FFFFFF
310
FFC000FFFFFFE00070008000FFFFFFC0007FFF0000007FF8000003FFFF80007F
310
0001FFFFFF8000F8001FFFFFF8000FF8000001FFFE0000007FFFFFF0001FFFFF
310
FE0003FFFFFFE0003FFE0003FFFFFFE0003FFF0003FFFFFFFFC000FFFFFFE000
310
70008000FFFFFFC0007FFE0000007FF8000003FFFF80007F0001FFFFFF8000F0
310
001FFFFFF8000FF8000001FFFE0000007FFFFFF0001FFFFFFC0003FFFFFFE000
310
1FFC0003FFFFFFE0001FFF0003FFFFFFFFC000FFFFFFC00070008000FFFFFF80
310
007FFE0000007FF0000003FFFF80007F0001FFFFFF0000F0001FFFFFF8000FF8
310
000001FFFE0000007FFFFFF0001FFFFFFC0007FFFFFFF0001FFC0007FFFFFFF0
310
001FFF0003FFFFFFFFC000FFFFFFC00070008001FFFFFF0000FFFE0000003FF0
310
000001FFFF80007F0001FFFFFF0000F8001FFFFFF0000FF8000001FFFE000000
310
7FFFFFF0001FFFFFFC0007FFFFFFF0001FFC0007FFFFFFF0001FFF0003FFFFFF
310
FFC001FFFFFF80007000FFFFFFFFFE0000FFFE0008003FF0008001FFFF80007F
310
FFFFFFFFFC0000FFFFFFFFFFE0000FF8000001FFFE0000007FFFFFF0001FFFFF
310
F8000FFFFFFFF8000FF8000FFFFFFFF8000FFF0003FFFFFFFFFFFFFFFFFF0000
310
7000FFFFFFFFFC0000FFFC0008003FF0008001FFFF80007FFFFFFFFFF80001FF
310
FFFFFFFF80000FF8000001FFFE0000007FFFFFF0001FFFFFF8000FFFFFFFF800
310
0FF8000FFFFFFFF8000FFF0003FFFFFFFFFFFFFFFFFE0000F000FFFFFFFFE000
310
00FFFC000C003FE000C001FFFF80007FFFFFFFFFC00001FFFFFFFFFE00001FF8
310
000001FFFE0000007FFFFFF0001FFFFFF8000FFFFFFFF8000FF8000FFFFFFFF8
310
000FFF0003FFFFFFFFFFFFFFFFF00000F000FFFFFFFE000001FFFC000C001FE0
310
00C000FFFF80007FFFFFFFFE000001FFFFFFFFE000001FF80FFFFFFFFFFFFFC0
310
7FFFFFF0001FFFFFF8000FFFFFFFF8000FF8000FFFFFFFF8000FFF0003FFFFFF
310
FFFFFFFFFF800000F000FFFFFFC0000001FFFC001C001FE001C000FFFF80007F
310
FFFFFF80000003FFFFFFF80000001FF80FFFFFFFFFFFFFC07FFFFFF0001FFFFF
310
F8001FFFFFFFFC000FF8001FFFFFFFFC000FFF0003FFFFFFFFFFFFFFF0000001
310
F000FFFFF800000001FFF8001C001FE001C000FFFF80007FFFFFF800000003FF
310
FFFF800000003FF80FFFFFFFFFFFFFC07FFFFFF0001FFFFFF8001FFFFFFFFC00
310
0FF8001FFFFFFFFC000FFF0003FFFFFFFFFFFFFE00000001F000FFFFC0000000
310
03FFF8001E001FC001E000FFFF80007FFFFF8000000007FFFFFC000000003FF8
310
0FFFFFFFFFFFFFC07FFFFFF0001FFFFFF8001FFFFFFFFC000FF8001FFFFFFFFC
310
000FFF0003FFFFFFFFFFFFE000000003F000FFFE0000000007FFF8001E000FC0
310
01E0007FFF80007FFFFE0000000007FFFFE0000000007FF80FFFFFFFFFFFFFC0
310
7FFFFFF0001FFFFFF0001FFFFFFFFC0007F0001FFFFFFFFC0007FF0003FFFFFF
310
FFFFFF0000000003F000FFF80000000007FFF8001E000FC003E0007FFF80007F
310
FFF0000000000FFFFF8000000000FFF80FFFFFFFFFFFFFC07FFFFFF0001FFFFF
310
F0001FFFFFFFFC0007F0001FFFFFFFFC0007FF0003FFFFFFFFFFFC0000000007
310
F000FFE0000000000FFFF0003E000FC003E0007FFF80007FFFC0000000001FFF
310
FE0000000001FFF80FFFFFFFFFFFFFC07FFFFFF0001FFFFFF0001FFFFFFFFC00
310
07F0001FFFFFFFFC0007FF0003FFFFFFFFFFF0000000000FF000FFC000000000
310
1FFFF0003F000F8003F0003FFF80007FFF80000000003FFFF80000000003FFF8
310
0FFFFFFFFFFFFFC07FFFFFF0001FFFFFF0001FFFFFFFFC0007F0001FFFFFFFFC
310
0007FF0003FFFFFFFFFFE0000000001FF000FF00000000007FFFF0003F000780
310
03F0003FFF80007FFF00000000007FFFF00000000007FFF80FFFFFFFFFFFFFC0
310
7FFFFFF0001FFFFFF0001FFFFFFFFC0007F0001FFFFFFFFC0007FF0003FFFFFF
310
FFFF80000000007FF000FE0000000000FFFFE0003F00078007F0003FFF80007F
310
FE0000000001FFFFE0000000001FFFF80FFFFFFFFFFFFFC07FFFFFF0001FFFFF
310
F0001FFFFFFFFC0007F0001FFFFFFFFC0007FF0003FFFFFFFFFF0000000000FF
310
F000FC0000000003FFFFE0007F00078007F0003FFF80007FFC0000000007FFFF
310
C0000000007FFFF80FFFFFFFFFFFFFC07FFFFFF0001FFFFFF8001FFFFFFFFC00
310
0FF8001FFFFFFFFC000FFF0003FFFFFFFFFE0000000003FFF000FC000000000F
310
FFFFE0007F80070007F8001FFF80007FF8000000001FFFFF8000000001FFFFF8
310
0FFFFFFFFFFFFFC07FFFFFF0001FFFFFF8001FFFFFFFFC000FF8001FFFFFFFFC
310
000FFF0003FFFFFFFFFC000000000FFFF000F8000000007FFFFFE0007F800700
310
07F8001FFF80007FF000000000FFFFFF800000000FFFFFF80FFFFFFFFFFFFFC0
310
7FFFFFF0001FFFFFF8000FFFFFFFF8000FF8000FFFFFFFF8000FFF0003FFFFFF
310
FFFC000000007FFFF000F800000007FFFFFFC0007F8003000FF8001FFF80007F
310
F000000007FFFFFF000000007FFFFFF80FFFFFFFFFFFFFC07FFFFFF0001FFFFF
310
F8000FFFFFFFF8000FF8000FFFFFFFF8000FFF0003FFFFFFFFF80000000FFFFF
310
F000F0000000FFFFFFFFC000FF8003000FF8001FFF80007FE0000000FFFFFFFF
310
0000000FFFFFFFF8000001FFFE0000007FFFFFF0001FFFFFF8000FFFFFFFF800
310
0FF8000FFFFFFFF8000FFF0003FFFFFFFFF8000000FFFFFFF000F000000FFFFF
310
FFFFC000FFC002000FF8000FFF80007FE000001FFFFFFFFE000001FFFFFFFFF8
310
000001FFFE0000007FFFFFF0001FFFFFF8000FFFFFFFF8000FF8000FFFFFFFF8
310
000FFF0003FFFFFFFFF000001FFFFFFFF000E00000FFFFFFFFFFC000FFC00200
310
0FFC000FFF80007FE00001FFFFFFFFFE00001FFFFFFFFFF8000001FFFE000000
310
7FFFFFF0001FFFFFFC000FFFFFFFF8001FFC000FFFFFFFF8001FFF0003FFFFFF
310
FFF00001FFFFFFFFF000E00007FFFFFFFFFF8000FFC000001FFC000FFF80007F
310
C0000FFFFFFFFFFE0000FFFFFFFFFFF8000001FFFE0000007FFFFFF0001FFFFF
310
FC0007FFFFFFF0001FFC0007FFFFFFF0001FFF0003FFFFFFFFF00007FFFFFFFF
310
F000E0001FFFFFFFFFFF8000FFC000001FFC000FFF80007FC0003FFFFFFFFFFE
310
0001FFFFFFFFFFF8000001FFFE0000007FFFFFF0001FFFFFFC0007FFFFFFF000
310
1FFC0007FFFFFFF0001FFF0003FFFFFFFFF0001FFFFFFFFFF000E0003FFFFF00
310
03FF8001FFE000001FFC0007FF80007FC0007FFFFF0007FC0003FFFFF0003FF8
310
000001FFFE0000007FFFFFF0001FFFFFFC0003FFFFFFE0001FFC0003FFFFFFE0
310
001FFF0003FFFFFFFFF0003FFFFFFFFFF000E0003FFFFF0001FF8001FFE00000
310
1FFE0007FF80007FC0007FFFFE0003FC0007FFFFE0003FF8000001FFFE000000
310
7FFFFFF0001FFFFFFE0003FFFFFFE0003FFE0003FFFFFFE0003FFF0003FFFFFF
310
FFF0003FFFFF8001F000E0003FFFFF0001FF0001FFE000001FFE0007FF80007F
310
C0007FFFFE0003FC0007FFFFE0003FF8000001FFFE0000007FFFFFF0001FFFFF
310
FE0001FFFFFFC0003FFE0001FFFFFFC0003FFF0003FFFFFFFFF0003FFFFF0001
310
F000E0003FFFFF0003FF0001FFE000003FFE0007FF80007FC0007FFFFE0003FC
310
0007FFFFE0003FF8000001FFFE0000007FFFFFF0001FFFFFFF0001FFFFFFC000
310
7FFF0001FFFFFFC0007FFF0003FFFFFFFFF0003FFFFF0001F000E0003FFFFE00
310
03FF0003FFF000003FFE0003FF80007FC0007FFFFC0003FE0007FFFFE0003FF8
310
000001FFFE0000007FFFFFF0001FFFFFFF0000FFFFFF80007FFF0000FFFFFF80
310
007FFF0003FFFFFFFFF0003FFFFF0001F000E0003FFFFE0003FF0003FFF00000
310
3FFF0003FF80007FC0007FFFFC0007FE0007FFFFC0003FF8000001FFFE000000
310
7FFFFFF0001FFFFFFF80007FFFFF0000FFFF80007FFFFF0000FFFF0003FFFFFF
310
FFF0003FFFFF0003F000E0003FFFFC0003FE0003FFF000003FFF0003FF80007F
310
E0003FFFF80007FE0003FFFFC0007FF8000001FFFE0000007FFFFFF0001FFFFF
310
FF80003FFFFE0000FFFF80003FFFFE0000FFFF0003FFFFFFFFF0001FFFFE0003
310
F000F0001FFFF80003FE0003FFF000007FFF0001FF80007FE0003FFFF00007FE
310
0001FFFF80007FF8000001FFFE0000007FFFFFF0001FFFFFFFC0000FFFF80001
310
FFFFC0000FFFF80001FFFF0003FFFFFFFFF0001FFFFC0003F000F0000FFFF000
310
07FE0007FFF800007FFF0001FF80007FE0001FFFE00007FF0000FFFE00007FF8
310
000001FFFE0000007FFFFFF0001FFFFFFFC00003FFE00001FFFFC00003FFE000
310
01FFFF0003FFFFFFFFF8000FFFF80003F000F00003FFC00007FC0007FFF80000
310
7FFF8001FF80007FF00007FF80000FFF00007FF80000FFF8000001FFFE000000
310
7F80000000000001FFE000003E000003FFFFE000003E000003FFFF0003FFFFFF
310
FFF80003FFE00007F000F800000000000FFC0007FFF800007FFF8001FF80007F
310
F000000000000FFF000000000000FFF8000001FFFE0000007F80000000000001
310
FFF0000000000007FFFFF0000000000007FFFF0003FFFFFFFFFC00007E000007
310
F000F800000000000FFC0007FFF80000FFFF8000FF80007FF800000000001FFF
310
800000000001FFF8000001FFFE0000007F80000000000001FFF800000000000F
310
FFFFF800000000000FFFFF0003FFFFFFFFFC00000000000FF000FC0000000000
310
1FFC0007FFFC0000FFFF8000FF80007FF800000000003FFFC00000000001FFF8
310
000001FFFE0000007F80000000000001FFF800000000000FFFFFF80000000000
310
0FFFFF0003FFFFFFFFFE00000000001FF000FE00000000003FF8000FFFFC0000
310
FFFF8000FF80007FFC00000000003FFFC00000000003FFF8000001FFFE000000
310
7F80000000000001FFFC00000000001FFFFFFC00000000001FFFFF0003FFFFFF
310
FFFF00000000001FF000FF00000000003FF8000FFFFC0000FFFFC000FF80007F
310
FE00000000007FFFE00000000007FFF8000001FFFE0000007F80000000000001
310
FFFE00000000003FFFFFFE00000000003FFFFF0003FFFFFFFFFF80000000003F
310
F000FF80000000007FF8000FFFFC0001FFFFC0007F80007FFF0000000000FFFF
310
F0000000000FFFF800000000000000007F80000000000001FFFF8000000000FF
310
FFFFFF8000000000FFFFFF0003FFFFFFFFFFC0000000007FF000FFC000000000
310
FFF8000FFFFE0001FFFFC0007F80007FFF8000000001FFFFF8000000001FFFF8
310
00000000000000007F80000000000001FFFFC000000001FFFFFFFFC000000001
310
FFFFFF0003FFFFFFFFFFE000000000FFF000FFE000000003FFF0001FFFFE0001
310
FFFFC0007F80007FFFC000000007FFFFFE000000003FFFF80000000000000000
310
7F80000000000001FFFFE000000003FFFFFFFFE000000003FFFFFF0003FFFFFF
310
FFFFF000000003FFF000FFF80000000FFFF0001FFFFE0001FFFFE0007F80007F
310
FFF00000000FFFFFFF00000000FFFFF800000000000000007F80000000000001
310
FFFFF80000000FFFFFFFFFF80000000FFFFFFF0003FFFFFFFFFFFC0000000FFF
310
F000FFFE0000003FFFF0001FFFFE0003FFFFE0003F80007FFFFC0000003FFFFF
310
FFC0000003FFFFF800000000000000007F80000000000001FFFFFE0000003FFF
310
FFFFFFFE0000003FFFFFFF0003FFFFFFFFFFFF0000003FFFF000FFFF800000FF
310
FFF0001FFFFF0003FFFFE0003F80007FFFFF000001FFFFFFFFF800001FFFFFF8
310
00000000000000007F80000000000001FFFFFFC00001FFFFFFFFFFFFC00001FF
310
FFFFFF0003FFFFFFFFFFFFC00000FFFFF000FFFFF8000FFFFFFFFFFFFFFFFFFF
310
FFFFFFFFFFFFFFFFFFFFF0001FFFFFFFFFFF0000FFFFFFF80000000000000000
310
7FFFFFFFFFFFFFFFFFFFFFFC001FFFFFFFFFFFFFFC001FFFFFFFFFFFFFFFFFFF
310
FFFFFFFC001FFFFFF000FFFFFFFFFFFFFFFFFFFFFFFFFFFFFFFFFFFFFFFFFFFF
310
FFFFFFFFFFFFFFFFFFFFFFFFFFFFFFFFFFFFFFFFFFFFFFFFFFFFFFFFFFFFFFFF
310
FFFFFFFFFFFFFFFFFFFFFFFFFFFFFFFFFFFFFFFFFFFFFFFFFFFFFFFFFFFFFFFF
310
F000FFFFFFFFFFFFFFFFFFFFFFFFFFFFFFFFFFFFFFFFFFFFFFFFFFFFFFFFFFFF
310
FFFFFFFFFFFFFFFFFFFFFFFFFFFFFFFFFFFFFFFFFFFFFFFFFFFFFFFFFFFFFFFF
310
FFFFFFFFFFFFFFFFFFFFFFFFFFFFFFFFFFFFFFFFFFFFFFFFF000FFFFFFFFFFFF
310
FFFFFFFFFFFFFFFFFFFFFFFFFFFFFFFFFFFFFFFFFFFFFFFFFFFFFFFFFFFFFFFF
310
FFFFFFFFFFFFFFFFFFFFFFFFFFFFFFFFFFFFFFFFFFFFFFFFFFFFFFFFFFFFFFFF
310
FFFFFFFFFFFFFFFFFFFFFFFFFFFFFFFFF000FFFFFFFFFFFFFFFFFFFFFFFFFFFF
310
FFFFFFFFFFFFFFFFFFFFFFFFFFFFFFFFFFFFFFFFFFFFFFFFFFFFFFFFFFFFFFFF
310
FFFFFFFFFFFFFFFFFFFFFFFFFFFFFFFFFFFFFFFFFFFFFFFFFFFFFFFFFFFFFFFF
310
FFFFFFFFFFFFFFFFF000FFFFFFFFFFFFFFFFFFFFFFFFFFFFFFFFFFFFFFFFFFFF
310
FFFFFFFFFFFFFFFFFFFFFFFFFFFFFFFFFFFFFFFFFFFFFFFFFFFFFFFFFFFFFFFF
310
FFFFFFFFFFFFFFFFFFFFFFFFFFFFFFFFFFFFFFFFFFFFFFFFFFFFFFFFFFFFFFFF
310
F000FFFFFFFFFFFFFFFFFFFFFFFFFFFFFFFFFFFFFFFFFFFFFFFFFFFFFFFFFFFF
310
FFFFFFFFFFFFFFFFFFFFFFFFFFFFFFFFFFFFFFFFFFFFFFFFFFFFFFFFFFFFFFFF
310
FFFFFFFFFFFFFFFFFFFFFFFFFFFFFFFFFFFFFFFFFFFFFFFFF000FFFFFFFFFFFF
310
FFFFFFFFFFFFFFFFFFFFFFFFFFFFFFFFFFFFFFFFFFFFFFFFFFFFFFFFFFFFFFFF
310
FFFFFFFFFFFFFFFFFFFFFFFFFFFFFFFFFFFFFFFFFFFFFFFFFFFFFFFFFFFFFFFF
310
FFFFFFFFFFFFFFFFFFFFFFFFFFFFFFFFF000FFFFFFFFFFFFFFFFFFFFFFFFFFFF
310
FFFFFFFFFFFFFFFFFFFFFFFFFFFFFFFFFFFFFFFFFFFFFFFFFFFFFFFFFFFFFFFF
310
FFFFFFFFFFFFFFFFFFFFFFFFFFFFFFFFFFFFFFFFFFFFFFFFFFFFFFFFFFFFFFFF
310
FFFFFFFFFFFFFFFFF000FFFFFFFFFFFFFFFFFFFFFFFFFFFFFFFFFFFFFFFFFFFF
310
FFFFFFFFFFFFFFFFFFFFFFFFFFFFFFFFFFFFFFFFFFFFFFFFFFFFFFFFFFFFFFFF
310
FFFFFFFFFFFFFFFFFFFFFFFFFFFFFFFFFFFFFFFFFFFFFFFFFFFFFFFFFFFFFFFF
310
F000FFFFFFFFFFFFFFFFFFFFFFFFFFFFFFFFFFFFFFFFFFFFFFFFFFFFFFFFFFFF
310
FFFFFFFFFFFFFFFFFFFFFFFFFFFFFFFFFFFFFFFFFFFFFFFFFFFFFFFFFFFFFFFF
310
FFFFFFFFFFFFFFFFFFFFFFFFFFFFFFFFFFFFFFFFFFFFFFFFF000FFFFFFFFFFFF
310
FFFFFFFFFFFFFFFFFFFFFFFFFFFFFFFFFFFFFFFFFFFFFFFFFFFFFFFFFFFFFFFF
310
FFFFFFFFFFFFFFFFFFFFFFFFFFFFFFFFFFFFFFFFFFFFFFFFFFFFFFFFFFFFFFFF
310
FFFFFFFFFFFFFFFFFFFFFFFFFFFFFFFFF000FFFFFFFFFFFFFFFFFFFFFFFFFFFF
310
FFFFFFFFFFFFFFFFFFFFFFFFFFFFFFFFFFFFFFFFFFFFFFFFFFFFFFFFFFFFFFFF
310
FFFFFFFFFFFFFFFFFFFFFFFFFFFFFFFFFFFFFFFFFFFFFFFFFFFFFFFFFFFFFFFF
310
FFFFFFFFFFFFFFFFF000FFFFFFFFFFFFFFFFFFFFFFFFFFFFFFFFFFFFFFFFFFFF
310
FFFFFFFFFFFFFFFFFFFFFFFFFFFFFFFFFFFFFFFFFFFFFFFFFFFFFFFFFFFFFFFF
310
FFFFFFFFFFFFFFFFFFFFFFFFFFFFFFFFFFFFFFFFFFFFFFFFFFFFFFFFFFFFFFFF
310
F000FFFFFFFFFFFFFFFFFFFFFFFFFFFFFFFFFFFFFFFFFFFFFFFFFFFFFFFFFFFF
310
FFFFFFFFFFFFFFFFFFFFFFFFFFFFFFFFFFFFFFFFFFFFFFFFFFFFFFFFFFFFFFFF
310
FFFFFFFFFFFFFFFFFFFFFFFFFFFFFFFFFFFFFFFFFFFFFFFFF000FFFFFFFFFFFF
310
FFFFFFFFFFFFFFFFFFFFFFFFFFFFFFFFFFFFFFFFFFFFFFFFFFFFFFFFFFFFFFFF
310
FFFFFFFFFFFFFFFFFFFFFFFFFFFFFFFFFFFFFFFFFFFFFFFFFFFFFFFFFFFFFFFF
310
FFFFFFFFFFFFFFFFFFFFFFFFFFFFFFFFF000FFFFFFFFFFFFFFFFFFFFFFFFFFFF
310
FFFFFFFFFFFFFFFFFFFFFFFFFFFFFFFFFFFFFFFFFFFFFFFFFFFFFFFFFFFFFFFF
310
FFFFFFFFFFFFFFFFFFFFFFFFFFFFFFFFFFFFFFFFFFFFFFFFFFFFFFFFFFFFFFFF
310
FFFFFFFFFFFFFFFFF000FFFFFFFFFFFFFFFFFFFFFFFFFFFFFFFFFFFFFFFFFFFF
310
FFFFFFFFFFFFFFFFFFFFFFFFFFFFFFFFFFFFFFFFFFFFFFFFFFFFFFFFFFFFFFFF
310
FFFFFFFFFFFFFFFFFFFFFFFFFFFFFFFFFFFFFFFFFFFFFFFFFFFFFFFFFFFFFFFF
310
F000FFFFFFFFFFFFFFFFFFFFFFFFFFFFFFFFFFFFFFFFFFFFFFFFFFFFFFFFFFFF
310
FFFFFFFFFFFFFFFFFFFFFFFFFFFFFFFFFFFFFFFFFFFFFFFFFFFFFFFFFFFFFFFF
310
FFFFFFFFFFFFFFFFFFFFFFFFFFFFFFFFFFFFFFFFFFFFFFFFF000FFFFFFFFFFFF
310
FFFFFFFFFFFFFFFFFFFFFFFFFFFFFFFFFFFFFFFFFFFFFFFFFFFFFFFFFFFFFFFF
310
FFFFFFFFFFFFFFFFFFFFFFFFFFFFFFFFFFFFFFFFFFFFFFFFFFFFFFFFFFFFFFFF
310
FFFFFFFFFFFFFFFFFFFFFFFFFFFFFFFFF000FFFFFFFFFFFFFFFFFFFFFFFFFFFF
310
FFFFFFFFFFFFFFFFFFFFFFFFFFFFFFFFFFFFFFFFFFFFFFFFFFFFFFFFFFFFFFFF
310
FFFFFFFFFFFFFFFFFFFFFFFFFFFFFFFFFFFFFFFFFFFFFFFFFFFFFFFFFFFFFFFF
310
FFFFFFFFFFFFFFFFF000FFFFFFFFFFFFFFFFFFFFFFFFFFFFFFFFFFFFFFFFFFFF
310
FFFFFFFFFFFFFFFFFFFFFFFFFFFFFFFFFFFFFFFFFFFFFFFFFFFFFFFFFFFFFFFF
310
FFFFFFFFFFFFFFFFFFFFFFFFFFFFFFFFFFFFFFFFFFFFFFFFFFFFFFFFFFFFFFFF
310
F000FFFFFFFFFFFFFFFFFFFFFFFFFFFFFFFFFFFFFFFFFFFFFFFFFFFFFFFFFFFF
310
FFFFFFFFFFFFFFFFFFFFFFFFFFFFFFFFFFFFFFFFFFFFFFFFFFFFFFFFFFFFFFFF
310
FFFFFFFFFFFFFFFFFFFFFFFFFFFFFFFFFFFFFFFFFFFFFFFFF000FFFFFFFFFFFF
310
FFFFFFFFFFFFFFFFFFFFFFFFFFFFFFFFFFFFFFFFFFFFFFFFFFFFFFFFFFFFFFFF
310
FFFFFFFFFFFFFFFFFFFFFFFFFFFFFFFFFFFFFFFFFFFFFFFFFFFFFFFFFFFFFFFF
310
FFFFFFFFFFFFFFFFFFFFFFFFFFFFFFFFF0000000000000000000000000000000
310
0000000000000000000000000000000000000000000000000000000000000000
310
0000000000000000000000000000000000000000000000000000000000000000
310
0000000000000000000000000000000000000000000000000000000000000000
310
0000000000000000000000000000000000000000000000000000000000000000
310
0000000000000000000000000000000000000000000000000000000000000000
310
0000000000000000000000000000000000000000000000000000000000000000
310
0000000000000000000000000000000000000000000000000000000000000000
310
0000000000000000000000000000000000000000000000000000000000000000
310
0000000000000000000000000000000000000000000000000000000000000000
310
0000000000000000000000000000000000000000000000000000000000000000
310
0000000000000000000000000000000000000000000000000000000000000000
310
0000000000000000000000000000000000000000000000000000000000000000
310
0000000000000000000000000000000000000000000000000000000000000000
310
0000000000000000000000000000000000000000000000000000000000000000
310
0000000000000000000000000000000000000000000000000000000000000000
  1
OLE
  0
ENDSEC
  0
SECTION
  2
OBJECTS
  0
DICTIONARY
  5
C
330
0
100
AcDbDictionary
281
     1
  3
ACAD_GROUP
350
D
  3
ACAD_LAYOUT
350
1A
  3
ACAD_MLINESTYLE
350
17
  3
ACAD_PLOTSETTINGS
350
19
  3
ACAD_PLOTSTYLENAME
350
E
  0
DICTIONARY
  5
D
102
{ACAD_REACTORS
330
C
102
}
330
C
100
AcDbDictionary
281
     1
  0
DICTIONARY
  5
1A
102
{ACAD_REACTORS
330
C
102
}
330
C
100
AcDbDictionary
281
     1
  3
Layout1
350
1E
  3
Layout2
350
26
  3
Model
350
22
  0
DICTIONARY
  5
17
102
{ACAD_REACTORS
330
C
102
}
330
C
100
AcDbDictionary
281
     1
  3
Standard
350
18
  0
DICTIONARY
  5
19
102
{ACAD_REACTORS
330
C
102
}
330
C
100
AcDbDictionary
281
     1
  0
ACDBDICTIONARYWDFLT
  5
E
102
{ACAD_REACTORS
330
C
102
}
330
C
100
AcDbDictionary
281
     1
  3
Normal
350
F
100
AcDbDictionaryWithDefault
340
F
  0
LAYOUT
  5
1E
102
{ACAD_REACTORS
330
1A
102
}
330
1A
100
AcDbPlotSettings
  1

  2
none_device
  4

  6

 40
0.0
 41
0.0
 42
0.0
 43
0.0
 44
0.0
 45
0.0
 46
0.0
 47
0.0
 48
0.0
 49
0.0
140
0.0
141
0.0
142
1.0
143
1.0
 70
   688
 72
     0
 73
     0
 74
     5
  7

 75
    16
147
1.0
148
0.0
149
0.0
100
AcDbLayout
  1
Layout1
 70
     1
 71
     1
 10
0.0
 20
0.0
 11
420.0
 21
297.0
 12
0.0
 22
0.0
 32
0.0
 14
1.0000000000E+20
 24
1.0000000000E+20
 34
1.0000000000E+20
 15
-1.0000000000E+20
 25
-1.0000000000E+20
 35
-1.0000000000E+20
146
0.0
 13
0.0
 23
0.0
 33
0.0
 16
1.0
 26
0.0
 36
0.0
 17
0.0
 27
1.0
 37
0.0
 76
     0
330
1B
  0
LAYOUT
  5
26
102
{ACAD_REACTORS
330
1A
102
}
330
1A
100
AcDbPlotSettings
  1

  2
none_device
  4

  6

 40
0.0
 41
0.0
 42
0.0
 43
0.0
 44
0.0
 45
0.0
 46
0.0
 47
0.0
 48
0.0
 49
0.0
140
0.0
141
0.0
142
1.0
143
1.0
 70
   688
 72
     0
 73
     0
 74
     5
  7

 75
    16
147
1.0
148
0.0
149
0.0
100
AcDbLayout
  1
Layout2
 70
     1
 71
     2
 10
0.0
 20
0.0
 11
0.0
 21
0.0
 12
0.0
 22
0.0
 32
0.0
 14
0.0
 24
0.0
 34
0.0
 15
0.0
 25
0.0
 35
0.0
146
0.0
 13
0.0
 23
0.0
 33
0.0
 16
1.0
 26
0.0
 36
0.0
 17
0.0
 27
1.0
 37
0.0
 76
     0
330
23
  0
LAYOUT
  5
22
102
{ACAD_REACTORS
330
1A
102
}
330
1A
100
AcDbPlotSettings
  1

  2
none_device
  4

  6

 40
0.0
 41
0.0
 42
0.0
 43
0.0
 44
0.0
 45
0.0
 46
0.0
 47
0.0
 48
0.0
 49
0.0
140
0.0
141
0.0
142
1.0
143
1.0
 70
  1712
 72
     0
 73
     0
 74
     0
  7

 75
     0
147
1.0
148
0.0
149
0.0
100
AcDbLayout
  1
Model
 70
     1
 71
     0
 10
0.0
 20
0.0
 11
297.0
 21
210.0
 12
0.0
 22
0.0
 32
0.0
 14
0.0
 24
0.0
 34
0.0
 15
297.0
 25
210.0
 35
0.0
146
0.0
 13
0.0
 23
0.0
 33
0.0
 16
1.0
 26
0.0
 36
0.0
 17
0.0
 27
1.0
 37
0.0
 76
     0
330
1F
331
29
  0
MLINESTYLE
  5
18
102
{ACAD_REACTORS
330
17
102
}
330
17
100
AcDbMlineStyle
  2
Standard
 70
     0
  3

 62
   256
 51
90.0
 52
90.0
 71
     2
 49
0.5
 62
   256
  6
BYLAYER
 49
-0.5
 62
   256
  6
BYLAYER
  0
ACDBPLACEHOLDER
  5
F
102
{ACAD_REACTORS
330
E
102
}
330
E
  0
ENDSEC
  0
EOF
