  0
SECTION
  2
HEADER
  9
$ACADVER
  1
AC1015
  9
$ACADMAINTVER
 70
     6
  9
$DWGCODEPAGE
  3
ANSI_1252
  9
$INSBASE
 10
0.0
 20
0.0
 30
0.0
  9
$EXTMIN
 10
0.0
 20
0.0
 30
0.0
  9
$EXTMAX
 10
297.0
 20
210.0
 30
0.0
  9
$LIMMIN
 10
0.0
 20
0.0
  9
$LIMMAX
 10
297.0
 20
210.0
  9
$ORTHOMODE
 70
     0
  9
$REGENMODE
 70
     1
  9
$FILLMODE
 70
     1
  9
$QTEXTMODE
 70
     0
  9
$MIRRTEXT
 70
     1
  9
$LTSCALE
 40
1.0
  9
$ATTMODE
 70
     1
  9
$TEXTSIZE
 40
2.0
  9
$TRACEWID
 40
1.0
  9
$TEXTSTYLE
  7
STANDARD
  9
$CLAYER
  8
0
  9
$CELTYPE
  6
ByLayer
  9
$CECOLOR
 62
   256
  9
$CELTSCALE
 40
1.0
  9
$DISPSILH
 70
     0
  9
$DIMSCALE
 40
1.0
  9
$DIMASZ
 40
3.0
  9
$DIMEXO
 40
0.0
  9
$DIMDLI
 40
3.75
  9
$DIMRND
 40
0.0
  9
$DIMDLE
 40
0.0
  9
$DIMEXE
 40
1.0
  9
$DIMTP
 40
0.0
  9
$DIMTM
 40
0.0
  9
$DIMTXT
 40
2.0
  9
$DIMCEN
 40
2.5
  9
$DIMTSZ
 40
0.0
  9
$DIMTOL
 70
     0
  9
$DIMLIM
 70
     0
  9
$DIMTIH
 70
     1
  9
$DIMTOH
 70
     1
  9
$DIMSE1
 70
     0
  9
$DIMSE2
 70
     0
  9
$DIMTAD
 70
     1
  9
$DIMZIN
 70
     0
  9
$DIMBLK
  1

  9
$DIMASO
 70
     1
  9
$DIMSHO
 70
     1
  9
$DIMPOST
  1

  9
$DIMAPOST
  1

  9
$DIMALT
 70
     0
  9
$DIMALTD
 70
     3
  9
$DIMALTF
 40
0.0393700787
  9
$DIMLFAC
 40
1.0
  9
$DIMTOFL
 70
     1
  9
$DIMTVP
 40
0.0
  9
$DIMTIX
 70
     0
  9
$DIMSOXD
 70
     0
  9
$DIMSAH
 70
     0
  9
$DIMBLK1
  1

  9
$DIMBLK2
  1

  9
$DIMSTYLE
  2
ISO-25
  9
$DIMCLRD
 70
     0
  9
$DIMCLRE
 70
     0
  9
$DIMCLRT
 70
     0
  9
$DIMTFAC
 40
1.0
  9
$DIMGAP
 40
1.524
  9
$DIMJUST
 70
     0
  9
$DIMSD1
 70
     0
  9
$DIMSD2
 70
     0
  9
$DIMTOLJ
 70
     0
  9
$DIMTZIN
 70
     0
  9
$DIMALTZ
 70
     0
  9
$DIMALTTZ
 70
     0
  9
$DIMUPT
 70
     0
  9
$DIMDEC
 70
     2
  9
$DIMTDEC
 70
     2
  9
$DIMALTU
 70
     2
  9
$DIMALTTD
 70
     3
  9
$DIMTXSTY
  7
STANDARD
  9
$DIMAUNIT
 70
     0
  9
$DIMADEC
 70
     0
  9
$DIMALTRND
 40
0.0
  9
$DIMAZIN
 70
     0
  9
$DIMDSEP
 70
    44
  9
$DIMATFIT
 70
     3
  9
$DIMFRAC
 70
     0
  9
$DIMLDRBLK
  1

  9
$DIMLUNIT
 70
     2
  9
$DIMLWD
 70
    -2
  9
$DIMLWE
 70
    -2
  9
$DIMTMOVE
 70
     0
  9
$LUNITS
 70
     2
  9
$LUPREC
 70
     2
  9
$SKETCHINC
 40
1.0
  9
$FILLETRAD
 40
10.0
  9
$AUNITS
 70
     0
  9
$AUPREC
 70
     0
  9
$MENU
  1
.
  9
$ELEVATION
 40
0.0
  9
$PELEVATION
 40
0.0
  9
$THICKNESS
 40
0.0
  9
$LIMCHECK
 70
     0
  9
$CHAMFERA
 40
10.0
  9
$CHAMFERB
 40
10.0
  9
$CHAMFERC
 40
20.0
  9
$CHAMFERD
 40
0.0
  9
$SKPOLY
 70
     0
  9
$TDCREATE
 40
2454910.399876736
  9
$TDUCREATE
 40
2454910.35821007
  9
$TDUPDATE
 40
2454910.399876748
  9
$TDUUPDATE
 40
2454910.358210081
  9
$TDINDWG
 40
0.0000000116
  9
$TDUSRTIMER
 40
0.0000000116
  9
$USRTIMER
 70
     1
  9
$ANGBASE
 50
0.0
  9
$ANGDIR
 70
     0
  9
$PDMODE
 70
     0
  9
$PDSIZE
 40
-1.0
  9
$PLINEWID
 40
0.0
  9
$SPLFRAME
 70
     0
  9
$SPLINETYPE
 70
     6
  9
$SPLINESEGS
 70
     8
  9
$HANDSEED
  5
267
  9
$SURFTAB1
 70
     6
  9
$SURFTAB2
 70
     6
  9
$SURFTYPE
 70
     6
  9
$SURFU
 70
     6
  9
$SURFV
 70
     6
  9
$UCSBASE
  2

  9
$UCSNAME
  2

  9
$UCSORG
 10
0.0
 20
0.0
 30
0.0
  9
$UCSXDIR
 10
1.0
 20
0.0
 30
0.0
  9
$UCSYDIR
 10
0.0
 20
1.0
 30
0.0
  9
$UCSORTHOREF
  2

  9
$UCSORTHOVIEW
 70
     0
  9
$UCSORGTOP
 10
0.0
 20
0.0
 30
0.0
  9
$UCSORGBOTTOM
 10
0.0
 20
0.0
 30
0.0
  9
$UCSORGLEFT
 10
0.0
 20
0.0
 30
0.0
  9
$UCSORGRIGHT
 10
0.0
 20
0.0
 30
0.0
  9
$UCSORGFRONT
 10
0.0
 20
0.0
 30
0.0
  9
$UCSORGBACK
 10
0.0
 20
0.0
 30
0.0
  9
$PUCSBASE
  2

  9
$PUCSNAME
  2

  9
$PUCSORG
 10
0.0
 20
0.0
 30
0.0
  9
$PUCSXDIR
 10
1.0
 20
0.0
 30
0.0
  9
$PUCSYDIR
 10
0.0
 20
1.0
 30
0.0
  9
$PUCSORTHOREF
  2

  9
$PUCSORTHOVIEW
 70
     0
  9
$PUCSORGTOP
 10
0.0
 20
0.0
 30
0.0
  9
$PUCSORGBOTTOM
 10
0.0
 20
0.0
 30
0.0
  9
$PUCSORGLEFT
 10
0.0
 20
0.0
 30
0.0
  9
$PUCSORGRIGHT
 10
0.0
 20
0.0
 30
0.0
  9
$PUCSORGFRONT
 10
0.0
 20
0.0
 30
0.0
  9
$PUCSORGBACK
 10
0.0
 20
0.0
 30
0.0
  9
$USERI1
 70
     0
  9
$USERI2
 70
     0
  9
$USERI3
 70
     0
  9
$USERI4
 70
     0
  9
$USERI5
 70
     0
  9
$USERR1
 40
0.0
  9
$USERR2
 40
0.0
  9
$USERR3
 40
0.0
  9
$USERR4
 40
0.0
  9
$USERR5
 40
0.0
  9
$WORLDVIEW
 70
     1
  9
$SHADEDGE
 70
     3
  9
$SHADEDIF
 70
    70
  9
$TILEMODE
 70
     1
  9
$MAXACTVP
 70
    64
  9
$PINSBASE
 10
0.0
 20
0.0
 30
0.0
  9
$PLIMCHECK
 70
     0
  9
$PEXTMIN
 10
1.0000000000E+20
 20
1.0000000000E+20
 30
1.0000000000E+20
  9
$PEXTMAX
 10
-1.0000000000E+20
 20
-1.0000000000E+20
 30
-1.0000000000E+20
  9
$PLIMMIN
 10
0.0
 20
0.0
  9
$PLIMMAX
 10
420.0
 20
297.0
  9
$UNITMODE
 70
     0
  9
$VISRETAIN
 70
     1
  9
$PLINEGEN
 70
     0
  9
$PSLTSCALE
 70
     1
  9
$TREEDEPTH
 70
  3020
  9
$CMLSTYLE
  2
Standard
  9
$CMLJUST
 70
     0
  9
$CMLSCALE
 40
20.0
  9
$PROXYGRAPHICS
 70
     1
  9
$MEASUREMENT
 70
     1
  9
$CELWEIGHT
370
    -1
  9
$ENDCAPS
280
     0
  9
$JOINSTYLE
280
     0
  9
$LWDISPLAY
290
     1
  9
$INSUNITS
 70
     4
  9
$HYPERLINKBASE
  1

  9
$STYLESHEET
  1

  9
$XEDIT
290
     1
  9
$CEPSNTYPE
380
     0
  9
$PSTYLEMODE
290
     1
  9
$FINGERPRINTGUID
  2
{2669904A-850B-4D93-8638-B9E25F15B116}
  9
$VERSIONGUID
  2
{FAEB1C32-E019-11D5-929B-00C0DF256EC4}
  9
$EXTNAMES
290
     1
  9
$PSVPSCALE
 40
0.0
  9
$OLESTARTUP
290
     0
  0
ENDSEC
  0
SECTION
  2
CLASSES
  0
CLASS
  1
ACDBDICTIONARYWDFLT
  2
AcDbDictionaryWithDefault
  3
ObjectDBX Classes
 90
        0
280
     0
281
     0
  0
CLASS
  1
VISUALSTYLE
  2
AcDbVisualStyle
  3
ObjectDBX Classes
 90
     4095
280
     0
281
     0
  0
CLASS
  1
SCALE
  2
AcDbScale
  3
ObjectDBX Classes
 90
     1153
280
     0
281
     0
  0
CLASS
  1
DICTIONARYVAR
  2
AcDbDictionaryVar
  3
ObjectDBX Classes
 90
        0
280
     0
281
     0
  0
CLASS
  1
ACDBPLACEHOLDER
  2
AcDbPlaceHolder
  3
ObjectDBX Classes
 90
        0
280
     0
281
     0
  0
CLASS
  1
LAYOUT
  2
AcDbLayout
  3
ObjectDBX Classes
 90
        0
280
     0
281
     0
  0
ENDSEC
  0
SECTION
  2
TABLES
  0
TABLE
  2
VPORT
  5
8
330
0
100
AcDbSymbolTable
 70
     1
  0
VPORT
  5
29
330
8
100
AcDbSymbolTableRecord
100
AcDbViewportTableRecord
  2
*Active
 70
     0
 10
0.0
 20
0.0
 11
1.0
 21
1.0
 12
148.5
 22
105.0
 13
0.0
 23
0.0
 14
10.0
 24
10.0
 15
10.0
 25
10.0
 16
0.0
 26
0.0
 36
1.0
 17
0.0
 27
0.0
 37
0.0
 40
210.0
 41
1.4142857143
 42
50.0
 43
0.0
 44
0.0
 50
0.0
 51
0.0
 71
     0
 72
  2000
 73
     1
 74
     3
 75
     0
 76
     0
 77
     0
 78
     0
281
     0
 65
     1
110
0.0
120
0.0
130
0.0
111
1.0
121
0.0
131
0.0
112
0.0
122
1.0
132
0.0
 79
     0
146
0.0
  0
ENDTAB
  0
TABLE
  2
LTYPE
  5
5
330
0
100
AcDbSymbolTable
 70
     8
  0
LTYPE
  5
14
330
5
100
AcDbSymbolTableRecord
100
AcDbLinetypeTableRecord
  2
ByBlock
 70
     0
  3

 72
    65
 73
     0
 40
0.0
  0
LTYPE
  5
15
330
5
100
AcDbSymbolTableRecord
100
AcDbLinetypeTableRecord
  2
ByLayer
 70
     0
  3

 72
    65
 73
     0
 40
0.0
  0
LTYPE
  5
16
330
5
100
AcDbSymbolTableRecord
100
AcDbLinetypeTableRecord
  2
Continuous
 70
     0
  3
Solid line
 72
    65
 73
     0
 40
0.0
  0
LTYPE
  5
5D
330
5
100
AcDbSymbolTableRecord
100
AcDbLinetypeTableRecord
  2
SLD-Durchgehend
 70
     0
  3
SolidWorks Line Style
 72
    65
 73
     0
 40
0.0
  0
LTYPE
  5
5E
330
5
100
AcDbSymbolTableRecord
100
AcDbLinetypeTableRecord
  2
SLD-Gestrichelt
 70
     0
  3
SolidWorks Line Style
 72
    65
 73
     2
 40
1.905
 49
1.27
 74
     0
 49
-0.635
 74
     0
  0
LTYPE
  5
5F
330
5
100
AcDbSymbolTableRecord
100
AcDbLinetypeTableRecord
  2
SLD-Phantom
 70
     0
  3
SolidWorks Line Style
 72
    65
 73
     6
 40
12.7
 49
6.35
 74
     0
 49
-1.27
 74
     0
 49
1.27
 74
     0
 49
-1.27
 74
     0
 49
1.27
 74
     0
 49
-1.27
 74
     0
  0
LTYPE
  5
60
330
5
100
AcDbSymbolTableRecord
100
AcDbLinetypeTableRecord
  2
SLD-Kette
 70
     0
  3
SolidWorks Line Style
 72
    65
 73
     4
 40
10.16
 49
6.35
 74
     0
 49
-1.27
 74
     0
 49
1.27
 74
     0
 49
-1.27
 74
     0
  0
LTYPE
  5
61
330
5
100
AcDbSymbolTableRecord
100
AcDbLinetypeTableRecord
  2
SLD-Punktstrich
 70
     0
  3
SolidWorks Line Style
 72
    65
 73
     4
 40
19.05
 49
15.24
 74
     0
 49
-1.27
 74
     0
 49
1.27
 74
     0
 49
-1.27
 74
     0
  0
LTYPE
  5
62
330
5
100
AcDbSymbolTableRecord
100
AcDbLinetypeTableRecord
  2
SLD-Naht
 70
     0
  3
SolidWorks Line Style
 72
    65
 73
     2
 40
0.635
 49
0.0
 74
     0
 49
-0.635
 74
     0
  0
LTYPE
  5
63
330
5
100
AcDbSymbolTableRecord
100
AcDbLinetypeTableRecord
  2
SLD-Dicke-Dünne-Kette
 70
     0
  3
SolidWorks Line Style
 72
    65
 73
     4
 40
10.16
 49
6.35
 74
     0
 49
-1.27
 74
     0
 49
1.27
 74
     0
 49
-1.27
 74
     0
  0
ENDTAB
  0
TABLE
  2
LAYER
  5
2
330
0
100
AcDbSymbolTable
 70
     5
  0
LAYER
  5
10
330
2
100
AcDbSymbolTableRecord
100
AcDbLayerTableRecord
  2
0
 70
     0
 62
     7
  6
Continuous
370
    -3
390
F
  0
LAYER
  5
64
330
2
100
AcDbSymbolTableRecord
100
AcDbLayerTableRecord
  2
FORMAT
 70
     0
 62
     7
  6
SLD-Durchgehend
370
    -3
390
F
  0
LAYER
  5
65
330
2
100
AcDbSymbolTableRecord
100
AcDbLayerTableRecord
  2
VERMASSUNG
 70
     0
 62
     7
  6
SLD-Durchgehend
370
    -3
390
F
  0
LAYER
  5
66
330
2
100
AcDbSymbolTableRecord
100
AcDbLayerTableRecord
  2
KOPF_DÜNN
 70
     0
 62
     7
  6
SLD-Durchgehend
370
    -3
390
F
  0
LAYER
  5
67
330
2
100
AcDbSymbolTableRecord
100
AcDbLayerTableRecord
  2
KOPF_DICK
 70
     0
 62
     7
  6
SLD-Durchgehend
370
    15
390
F
  0
ENDTAB
  0
TABLE
  2
STYLE
  5
3
330
0
100
AcDbSymbolTable
 70
     2
  0
STYLE
  5
11
330
3
100
AcDbSymbolTableRecord
100
AcDbTextStyleTableRecord
  2
STANDARD
 70
     0
 40
0.0
 41
1.0
 50
0.0
 71
     0
 42
2.5
  3
ISOCPEUR.TTF
  4

1001
ACAD
1000
ISOCPEUR
1071
       34
  0
STYLE
  5
68
330
3
100
AcDbSymbolTableRecord
100
AcDbTextStyleTableRecord
  2
SLDTEXTSTYLE0
 70
     0
 40
0.0
 41
1.0
 50
0.0
 71
     0
 42
0.2
  3
ISOCPEUR.TTF
  4

1001
ACAD
1000
ISOCPEUR
1071
      290
  0
ENDTAB
  0
TABLE
  2
VIEW
  5
6
330
0
100
AcDbSymbolTable
 70
     0
  0
ENDTAB
  0
TABLE
  2
UCS
  5
7
330
0
100
AcDbSymbolTable
 70
     0
  0
ENDTAB
  0
TABLE
  2
APPID
  5
9
330
0
100
AcDbSymbolTable
 70
     1
  0
APPID
  5
12
330
9
100
AcDbSymbolTableRecord
100
AcDbRegAppTableRecord
  2
ACAD
 70
     0
  0
ENDTAB
  0
TABLE
  2
DIMSTYLE
  5
A
330
0
100
AcDbSymbolTable
 70
     4
100
AcDbDimStyleTable
  0
DIMSTYLE
105
27
330
A
100
AcDbSymbolTableRecord
100
AcDbDimStyleTableRecord
  2
ISO-25
 70
     0
 41
2.5
 42
0.625
 43
3.75
 44
1.25
 73
     0
 74
     0
 77
     1
 78
     8
140
2.5
141
2.5
143
0.0393700787
147
0.625
171
     3
172
     1
271
     2
272
     2
274
     3
278
    44
283
     0
284
     8
340
11
  0
DIMSTYLE
105
1D7
102
{ACAD_REACTORS
330
1D6
330
1E3
330
1ED
330
1F7
102
}
330
A
100
AcDbSymbolTableRecord
100
AcDbDimStyleTableRecord
  2
SLDDIMSTYLE0
 70
     0
 41
3.0
 44
0.0
 45
0.000000001
 73
     0
 74
     0
 77
     1
 78
    12
140
2.0
147
0.5
173
     1
271
     2
272
     3
284
    12
340
68
  0
DIMSTYLE
105
202
102
{ACAD_REACTORS
330
201
102
}
330
A
100
AcDbSymbolTableRecord
100
AcDbDimStyleTableRecord
  2
SLDDIMSTYLE1
 70
     0
 41
3.0
 44
0.0
 73
     0
 74
     0
 77
     1
 78
    12
140
2.0
147
0.5
173
     1
179
     2
272
     3
284
    12
340
68
  0
DIMSTYLE
105
249
102
{ACAD_REACTORS
330
248
102
}
330
A
100
AcDbSymbolTableRecord
100
AcDbDimStyleTableRecord
  2
SLDDIMSTYLE2
 70
     0
 41
3.0
 44
0.0
 45
0.000000001
 73
     0
 74
     0
 77
     1
 78
    12
140
2.0
147
0.5
173
     1
271
     2
272
     3
284
    12
340
68
  0
ENDTAB
  0
TABLE
  2
BLOCK_RECORD
  5
1
330
0
100
AcDbSymbolTable
 70
     8
  0
BLOCK_RECORD
  5
1F
330
1
100
AcDbSymbolTableRecord
100
AcDbBlockTableRecord
  2
*Model_Space
340
22
  0
BLOCK_RECORD
  5
1B
330
1
100
AcDbSymbolTableRecord
100
AcDbBlockTableRecord
  2
*Paper_Space
340
1E
  0
BLOCK_RECORD
  5
23
330
1
100
AcDbSymbolTableRecord
100
AcDbBlockTableRecord
  2
*Paper_Space0
340
26
  0
BLOCK_RECORD
  5
1D8
330
1
100
AcDbSymbolTableRecord
100
AcDbBlockTableRecord
  2
*D1
340
0
  0
BLOCK_RECORD
  5
1E4
330
1
100
AcDbSymbolTableRecord
100
AcDbBlockTableRecord
  2
*D2
340
0
  0
BLOCK_RECORD
  5
1EE
330
1
100
AcDbSymbolTableRecord
100
AcDbBlockTableRecord
  2
*D3
340
0
  0
BLOCK_RECORD
  5
1F8
330
1
100
AcDbSymbolTableRecord
100
AcDbBlockTableRecord
  2
*D4
340
0
  0
BLOCK_RECORD
  5
203
330
1
100
AcDbSymbolTableRecord
100
AcDbBlockTableRecord
  2
*D5
340
0
  0
BLOCK_RECORD
  5
24A
330
1
100
AcDbSymbolTableRecord
100
AcDbBlockTableRecord
  2
*D6
340
0
  0
BLOCK_RECORD
  5
254
330
1
100
AcDbSymbolTableRecord
100
AcDbBlockTableRecord
  2
SW_CENTERMARKSYMBOL_0
340
0
102
{BLKREFS
331
25F
102
}
  0
ENDTAB
  0
ENDSEC
  0
SECTION
  2
BLOCKS
  0
BLOCK
  5
20
330
1F
100
AcDbEntity
  8
0
100
AcDbBlockBegin
  2
*Model_Space
 70
     0
 10
0.0
 20
0.0
 30
0.0
  3
*Model_Space
  1

  0
ENDBLK
  5
21
330
1F
100
AcDbEntity
  8
0
100
AcDbBlockEnd
  0
BLOCK
  5
1C
330
1B
100
AcDbEntity
 67
     1
  8
0
100
AcDbBlockBegin
  2
*Paper_Space
 70
     0
 10
0.0
 20
0.0
 30
0.0
  3
*Paper_Space
  1

  0
ENDBLK
  5
1D
330
1B
100
AcDbEntity
 67
     1
  8
0
100
AcDbBlockEnd
  0
BLOCK
  5
24
330
23
100
AcDbEntity
  8
0
100
AcDbBlockBegin
  2
*Paper_Space0
 70
     0
 10
0.0
 20
0.0
 30
0.0
  3
*Paper_Space0
  1

  0
ENDBLK
  5
25
330
23
100
AcDbEntity
  8
0
100
AcDbBlockEnd
  0
BLOCK
  5
1D9
330
1D8
100
AcDbEntity
  8
0
100
AcDbBlockBegin
  2
*D1
 70
     1
 10
0.0
 20
0.0
 30
0.0
  3
*D1
  1

  0
SOLID
  5
1DB
330
1D8
100
AcDbEntity
  8
VERMASSUNG
100
AcDbTrace
 10
155.4010922867
 20
123.4813074845
 30
0.0
 11
154.9510922867
 21
120.4813074845
 31
0.0
 12
155.8510922867
 22
120.4813074845
 32
0.0
 13
155.8510922867
 23
120.4813074845
 33
0.0
  0
SOLID
  5
1DC
330
1D8
100
AcDbEntity
  8
VERMASSUNG
100
AcDbTrace
 10
155.4010922867
 20
83.4813074845
 30
0.0
 11
155.8510922867
 21
86.4813074845
 31
0.0
 12
154.9510922867
 22
86.4813074845
 32
0.0
 13
154.9510922867
 23
86.4813074845
 33
0.0
  0
LINE
  5
1DD
330
1D8
100
AcDbEntity
  8
VERMASSUNG
100
AcDbLine
 10
181.3051486253
 20
123.4813074845
 30
0.0
 11
154.4010922867
 21
123.4813074845
 31
0.0
  0
LINE
  5
1DE
330
1D8
100
AcDbEntity
  8
VERMASSUNG
100
AcDbLine
 10
181.3051486253
 20
83.4813074845
 30
0.0
 11
154.4010922867
 21
83.4813074845
 31
0.0
  0
LINE
  5
1DF
330
1D8
100
AcDbEntity
  8
VERMASSUNG
100
AcDbLine
 10
155.4010922867
 20
123.4813074845
 30
0.0
 11
155.4010922867
 21
83.4813074845
 31
0.0
  0
MTEXT
  5
1E0
330
1D8
100
AcDbEntity
  8
VERMASSUNG
100
AcDbMText
 10
152.60109251
 20
97.1780056606
 30
0.0
 40
2.0
 41
0.0
 71
     1
 72
     1
  1
HSK 
  7
SLDTEXTSTYLE0
 11
-7.044195017643634E-15
 21
1.0
 31
0.0
 73
     1
 44
1.0
  0
MTEXT
  5
1E1
330
1D8
100
AcDbEntity
  8
VERMASSUNG
100
AcDbMText
 10
152.8010924613
 20
103.1780057128
 30
0.0
 40
2.0
 41
0.0
 71
     1
 72
     1
  1
%%c
  7
SLDTEXTSTYLE0
 11
-7.044195017643634E-15
 21
1.0
 31
0.0
 73
     1
 44
1.0
  0
MTEXT
  5
1E2
330
1D8
100
AcDbEntity
  8
VERMASSUNG
100
AcDbMText
 10
152.8010921702
 20
106.7855355819
 30
0.0
 40
2.0
 41
0.0
 71
     1
 72
     1
  1
40
  7
SLDTEXTSTYLE0
 11
-7.044195017643634E-15
 21
1.0
 31
0.0
 73
     1
 44
1.0
  0
ENDBLK
  5
1DA
330
1D8
100
AcDbEntity
  8
0
100
AcDbBlockEnd
  0
BLOCK
  5
1E5
330
1E4
100
AcDbEntity
  8
0
100
AcDbBlockBegin
  2
*D2
 70
     1
 10
0.0
 20
0.0
 30
0.0
  3
*D2
  1

  0
SOLID
  5
1E7
330
1E4
100
AcDbEntity
  8
VERMASSUNG
100
AcDbTrace
 10
236.0051486253
 20
145.6977983418
 30
0.0
 11
233.0051486253
 21
146.1477983418
 31
0.0
 12
233.0051486253
 22
145.2477983418
 32
0.0
 13
233.0051486253
 23
145.2477983418
 33
0.0
  0
SOLID
  5
1E8
330
1E4
100
AcDbEntity
  8
VERMASSUNG
100
AcDbTrace
 10
161.1051486253
 20
145.6977983418
 30
0.0
 11
164.1051486253
 21
145.2477983418
 31
0.0
 12
164.1051486253
 22
146.1477983418
 32
0.0
 13
164.1051486253
 23
146.1477983418
 33
0.0
  0
LINE
  5
1E9
330
1E4
100
AcDbEntity
  8
VERMASSUNG
100
AcDbLine
 10
236.0051486253
 20
130.4813074845
 30
0.0
 11
236.0051486253
 21
146.6977983418
 31
0.0
  0
LINE
  5
1EA
330
1E4
100
AcDbEntity
  8
VERMASSUNG
100
AcDbLine
 10
161.1051486253
 20
115.4113074845
 30
0.0
 11
161.1051486253
 21
146.6977983418
 31
0.0
  0
LINE
  5
1EB
330
1E4
100
AcDbEntity
  8
VERMASSUNG
100
AcDbLine
 10
236.0051486253
 20
145.6977983418
 30
0.0
 11
161.1051486253
 21
145.6977983418
 31
0.0
  0
MTEXT
  5
1EC
330
1E4
100
AcDbEntity
  8
VERMASSUNG
100
AcDbMText
 10
196.0559205199
 20
148.2977984582
 30
0.0
 40
2.0
 41
0.0
 71
     1
 72
     1
  1
74.9
  7
SLDTEXTSTYLE0
 73
     1
 44
1.0
  0
ENDBLK
  5
1E6
330
1E4
100
AcDbEntity
  8
0
100
AcDbBlockEnd
  0
BLOCK
  5
1EF
330
1EE
100
AcDbEntity
  8
0
100
AcDbBlockBegin
  2
*D3
 70
     1
 10
0.0
 20
0.0
 30
0.0
  3
*D3
  1

  0
SOLID
  5
1F1
330
1EE
100
AcDbEntity
  8
VERMASSUNG
100
AcDbTrace
 10
181.0051486253
 20
139.6977983418
 30
0.0
 11
184.0051486253
 21
139.2477983418
 31
0.0
 12
184.0051486253
 22
140.1477983418
 32
0.0
 13
184.0051486253
 23
140.1477983418
 33
0.0
  0
SOLID
  5
1F2
330
1EE
100
AcDbEntity
  8
VERMASSUNG
100
AcDbTrace
 10
236.0051486253
 20
139.6977983418
 30
0.0
 11
233.0051486253
 21
140.1477983418
 31
0.0
 12
233.0051486253
 22
139.2477983418
 32
0.0
 13
233.0051486253
 23
139.2477983418
 33
0.0
  0
LINE
  5
1F3
330
1EE
100
AcDbEntity
  8
VERMASSUNG
100
AcDbLine
 10
181.0051486253
 20
123.1813074845
 30
0.0
 11
181.0051486253
 21
140.6977983418
 31
0.0
  0
LINE
  5
1F4
330
1EE
100
AcDbEntity
  8
VERMASSUNG
100
AcDbLine
 10
236.0051486253
 20
130.4813074845
 30
0.0
 11
236.0051486253
 21
140.6977983418
 31
0.0
  0
LINE
  5
1F5
330
1EE
100
AcDbEntity
  8
VERMASSUNG
100
AcDbLine
 10
181.0051486253
 20
139.6977983418
 30
0.0
 11
236.0051486253
 21
139.6977983418
 31
0.0
  0
MTEXT
  5
1F6
330
1EE
100
AcDbEntity
  8
VERMASSUNG
100
AcDbMText
 10
207.1064093597
 20
142.2977984582
 30
0.0
 40
2.0
 41
0.0
 71
     1
 72
     1
  1
55
  7
SLDTEXTSTYLE0
 73
     1
 44
1.0
  0
ENDBLK
  5
1F0
330
1EE
100
AcDbEntity
  8
0
100
AcDbBlockEnd
  0
BLOCK
  5
1F9
330
1F8
100
AcDbEntity
  8
0
100
AcDbBlockBegin
  2
*D4
 70
     1
 10
0.0
 20
0.0
 30
0.0
  3
*D4
  1

  0
SOLID
  5
1FB
330
1F8
100
AcDbEntity
  8
VERMASSUNG
100
AcDbTrace
 10
238.0167790636
 20
130.4813074845
 30
0.0
 11
237.5667790636
 21
127.4813074845
 31
0.0
 12
238.4667790636
 22
127.4813074845
 32
0.0
 13
238.4667790636
 23
127.4813074845
 33
0.0
  0
SOLID
  5
1FC
330
1F8
100
AcDbEntity
  8
VERMASSUNG
100
AcDbTrace
 10
238.0167790636
 20
103.4813074845
 30
0.0
 11
238.4667790636
 21
106.4813074845
 31
0.0
 12
237.5667790636
 22
106.4813074845
 32
0.0
 13
237.5667790636
 23
106.4813074845
 33
0.0
  0
LINE
  5
1FD
330
1F8
100
AcDbEntity
  8
VERMASSUNG
100
AcDbLine
 10
236.0051486253
 20
130.4813074845
 30
0.0
 11
239.0167790636
 21
130.4813074845
 31
0.0
  0
LINE
  5
1FE
330
1F8
100
AcDbEntity
  8
VERMASSUNG
100
AcDbLine
 10
229.2953535465
 20
103.4813074845
 30
0.0
 11
239.0167790636
 21
103.4813074845
 31
0.0
  0
LINE
  5
1FF
330
1F8
100
AcDbEntity
  8
VERMASSUNG
100
AcDbLine
 10
238.0167790636
 20
130.4813074845
 30
0.0
 11
238.0167790636
 21
103.4813074845
 31
0.0
  0
MTEXT
  5
200
330
1F8
100
AcDbEntity
  8
VERMASSUNG
100
AcDbMText
 10
235.4167789472
 20
115.5825682189
 30
0.0
 40
2.0
 41
0.0
 71
     1
 72
     1
  1
27
  7
SLDTEXTSTYLE0
 11
-7.044195017643634E-15
 21
1.0
 31
0.0
 73
     1
 44
1.0
  0
ENDBLK
  5
1FA
330
1F8
100
AcDbEntity
  8
0
100
AcDbBlockEnd
  0
BLOCK
  5
204
330
203
100
AcDbEntity
  8
0
100
AcDbBlockBegin
  2
*D5
 70
     1
 10
0.0
 20
0.0
 30
0.0
  3
*D5
  1

  0
ARC
  5
206
330
203
100
AcDbEntity
  8
VERMASSUNG
100
AcDbCircle
 10
241.3612654584
 20
130.4813074845
 30
0.0
 40
21.87861347135021
100
AcDbArc
 50
180.0
 51
183.0
  0
ARC
  5
207
330
203
100
AcDbEntity
  8
VERMASSUNG
100
AcDbCircle
 10
241.3612654584
 20
130.4813074845
 30
0.0
 40
21.87861347135021
100
AcDbArc
 50
160.8105697164
 51
180.0
  0
ARC
  5
208
330
203
100
AcDbEntity
  8
VERMASSUNG
100
AcDbCircle
 10
241.3612654584
 20
130.4813074845
 30
0.0
 40
21.8786134713502
100
AcDbArc
 50
183.0
 51
198.5789880157
  0
SOLID
  5
209
330
203
100
AcDbEntity
  8
VERMASSUNG
100
AcDbTrace
 10
219.4826519871
 20
130.4813074845
 30
0.0
 11
220.1358553269
 21
133.4437094486
 31
0.0
 12
219.2379436012
 22
133.5049836917
 32
0.0
 13
219.2379436012
 23
133.5049836917
 33
0.0
  0
SOLID
  5
20A
330
203
100
AcDbEntity
  8
VERMASSUNG
100
AcDbTrace
 10
219.5126358664
 20
129.3362693272
 30
0.0
 11
219.4265098306
 21
126.3039299158
 31
0.0
 12
220.3199841534
 22
126.4121132535
 32
0.0
 13
220.3199841534
 23
126.4121132535
 33
0.0
  0
MTEXT
  5
20B
330
203
100
AcDbEntity
  8
VERMASSUNG
100
AcDbMText
 10
217.1260148148
 20
134.1614417574
 30
0.0
 40
2.0
 41
0.0
 71
     1
 72
     1
  1
3°
  7
SLDTEXTSTYLE0
 11
0.202322947719912
 21
0.9793188575872139
 31
0.0
 73
     1
 44
1.0
  0
ENDBLK
  5
205
330
203
100
AcDbEntity
  8
0
100
AcDbBlockEnd
  0
BLOCK
  5
24B
330
24A
100
AcDbEntity
  8
0
100
AcDbBlockBegin
  2
*D6
 70
     1
 10
0.0
 20
0.0
 30
0.0
  3
*D6
  1

  0
SOLID
  5
24D
330
24A
100
AcDbEntity
  8
VERMASSUNG
100
AcDbTrace
 10
59.6211644377
 20
80.4812141593
 30
0.0
 11
60.0711644377
 21
83.4812141593
 31
0.0
 12
59.1711644377
 22
83.4812141593
 32
0.0
 13
59.1711644377
 23
83.4812141593
 33
0.0
  0
SOLID
  5
24E
330
24A
100
AcDbEntity
  8
VERMASSUNG
100
AcDbTrace
 10
59.6211644377
 20
130.4812141593
 30
0.0
 11
59.1711644377
 21
127.4812141593
 31
0.0
 12
60.0711644377
 22
127.4812141593
 32
0.0
 13
60.0711644377
 23
127.4812141593
 33
0.0
  0
LINE
  5
24F
330
24A
100
AcDbEntity
  8
VERMASSUNG
100
AcDbLine
 10
87.725
 20
80.4812141593
 30
0.0
 11
58.6211644377
 21
80.4812141593
 31
0.0
  0
LINE
  5
250
330
24A
100
AcDbEntity
  8
VERMASSUNG
100
AcDbLine
 10
87.725
 20
130.4812141593
 30
0.0
 11
58.6211644377
 21
130.4812141593
 31
0.0
  0
LINE
  5
251
330
24A
100
AcDbEntity
  8
VERMASSUNG
100
AcDbLine
 10
59.6211644377
 20
80.4812141593
 30
0.0
 11
59.6211644377
 21
130.4812141593
 31
0.0
  0
MTEXT
  5
252
330
24A
100
AcDbEntity
  8
VERMASSUNG
100
AcDbMText
 10
57.0211643795
 20
102.2777836596
 30
0.0
 40
2.0
 41
0.0
 71
     1
 72
     1
  1
%%c
  7
SLDTEXTSTYLE0
 11
6.123233995736766E-17
 21
1.0
 31
0.0
 73
     1
 44
1.0
  0
MTEXT
  5
253
330
24A
100
AcDbEntity
  8
VERMASSUNG
100
AcDbMText
 10
57.0211643213
 20
105.8871661278
 30
0.0
 40
2.0
 41
0.0
 71
     1
 72
     1
  1
50
  7
SLDTEXTSTYLE0
 11
6.123233995736766E-17
 21
1.0
 31
0.0
 73
     1
 44
1.0
  0
ENDBLK
  5
24C
330
24A
100
AcDbEntity
  8
0
100
AcDbBlockEnd
  0
BLOCK
  5
255
330
254
100
AcDbEntity
  8
0
100
AcDbBlockBegin
  2
SW_CENTERMARKSYMBOL_0
 70
     0
 10
0.0
 20
0.0
 30
0.0
  3
SW_CENTERMARKSYMBOL_0
  1

  0
LINE
  5
257
330
254
100
AcDbEntity
  8
VERMASSUNG
 62
     0
100
AcDbLine
 10
0.0
 20
0.0
 30
0.0
 11
0.0
 21
2.5
 31
0.0
  0
LINE
  5
258
330
254
100
AcDbEntity
  8
VERMASSUNG
 62
     0
100
AcDbLine
 10
0.0
 20
0.0
 30
0.0
 11
-2.5
 21
0.0
 31
0.0
  0
LINE
  5
259
330
254
100
AcDbEntity
  8
VERMASSUNG
 62
     0
100
AcDbLine
 10
0.0
 20
0.0
 30
0.0
 11
0.0
 21
-2.5
 31
0.0
  0
LINE
  5
25A
330
254
100
AcDbEntity
  8
VERMASSUNG
 62
     0
100
AcDbLine
 10
0.0
 20
0.0
 30
0.0
 11
2.5
 21
0.0
 31
0.0
  0
LINE
  5
25B
330
254
100
AcDbEntity
  8
VERMASSUNG
 62
     0
100
AcDbLine
 10
0.0
 20
5.0
 30
0.0
 11
0.0
 21
29.8953572411
 31
0.0
  0
LINE
  5
25C
330
254
100
AcDbEntity
  8
VERMASSUNG
 62
     0
100
AcDbLine
 10
-5.0
 20
0.0
 30
0.0
 11
-22.5
 21
0.0
 31
0.0
  0
LINE
  5
25D
330
254
100
AcDbEntity
  8
VERMASSUNG
 62
     0
100
AcDbLine
 10
0.0
 20
-5.0
 30
0.0
 11
0.0
 21
-22.5
 31
0.0
  0
LINE
  5
25E
330
254
100
AcDbEntity
  8
VERMASSUNG
 62
     0
100
AcDbLine
 10
5.0
 20
0.0
 30
0.0
 11
22.5
 21
0.0
 31
0.0
  0
ENDBLK
  5
256
330
254
100
AcDbEntity
  8
0
100
AcDbBlockEnd
  0
ENDSEC
  0
SECTION
  2
ENTITIES
  0
MTEXT
  5
69
330
1F
100
AcDbEntity
  8
KOPF_DÜNN
100
AcDbMText
 10
13.8892156294
 20
23.8770940835
 30
0.0
 40
3.0
 41
0.0
 71
     1
 72
     1
  1
HA4.KDB.RJA.055
  7
SLDTEXTSTYLE0
 73
     1
 44
1.0
  0
MTEXT
  5
6A
330
1F
100
AcDbEntity
  8
VERMASSUNG
100
AcDbMText
 10
13.9329988022
 20
28.9162328764
 30
0.0
 40
3.0
 41
0.0
 71
     1
 72
     1
  1
Klemmhalter rechts_Turning tool right 93° /55°
  7
SLDTEXTSTYLE0
 73
     1
 44
1.0
  0
MTEXT
  5
6B
330
1F
100
AcDbEntity
  8
VERMASSUNG
100
AcDbMText
 10
98.8601118557
 20
13.8584013966
 30
0.0
 40
2.0
 41
0.0
 71
     1
 72
     1
  1
Datum: 02.02.2009
  7
SLDTEXTSTYLE0
 73
     1
 44
1.0
  0
MTEXT
  5
6C
330
1F
100
AcDbEntity
  8
VERMASSUNG
100
AcDbMText
 10
13.933048693
 20
18.0701447943
 30
0.0
 40
2.0
 41
0.0
 71
     1
 72
     1
  1
DIN 69893 HSK 40 A ICTM / DC.. 11 T3..
  7
SLDTEXTSTYLE0
 73
     1
 44
1.0
  0
MTEXT
  5
6D
330
1F
100
AcDbEntity
  8
VERMASSUNG
100
AcDbMText
 10
13.9808475933
 20
13.9309619479
 30
0.0
 40
2.0
 41
0.0
 71
     1
 72
     1
  1
Gewicht: 318g
  7
SLDTEXTSTYLE0
 73
     1
 44
1.0
  0
LINE
  5
6E
330
1F
100
AcDbEntity
  8
0
  6
SLD-Durchgehend
 62
     7
370
    15
100
AcDbLine
 10
181.3051486395
 20
83.4813079315
 30
0.0
 11
188.9551490902
 21
83.4813079315
 31
0.0
  0
LINE
  5
6F
330
1F
100
AcDbEntity
  8
0
  6
SLD-Durchgehend
 62
     7
370
    15
100
AcDbLine
 10
188.9706761002
 20
123.4813070375
 30
0.0
 11
181.3051486395
 21
123.4813070375
 31
0.0
  0
ARC
  5
70
330
1F
100
AcDbEntity
  8
0
  6
SLD-Durchgehend
 62
     7
370
    15
100
AcDbCircle
 10
181.3051486253
 20
83.7813074845
 30
0.0
 40
0.2999999999999829
100
AcDbArc
 50
180.0
 51
270.0
  0
ARC
  5
71
330
1F
100
AcDbEntity
  8
0
  6
SLD-Durchgehend
 62
     7
370
    15
100
AcDbCircle
 10
181.3051486253
 20
123.1813074845
 30
0.0
 40
0.3000000000000114
100
AcDbArc
 50
90.0
 51
180.0
  0
ARC
  5
72
330
1F
100
AcDbEntity
  8
0
  6
SLD-Durchgehend
 62
     7
370
    15
100
AcDbCircle
 10
201.9551486253
 20
85.9813074845
 30
0.0
 40
1.000000000000006
100
AcDbArc
 50
90.0
 51
143.1137328946
  0
ARC
  5
73
330
1F
100
AcDbEntity
  8
0
  6
SLD-Durchgehend
 62
     7
370
    15
100
AcDbCircle
 10
201.9551486253
 20
120.9813074845
 30
0.0
 40
1.0
100
AcDbArc
 50
216.8998129703
 51
270.0
  0
LINE
  5
74
330
1F
100
AcDbEntity
  8
0
  6
SLD-Durchgehend
 62
     7
370
    15
100
AcDbLine
 10
201.9551493584
 20
86.9813075739
 30
0.0
 11
213.5909445941
 21
86.9813075739
 31
0.0
  0
LINE
  5
75
330
1F
100
AcDbEntity
  8
0
  6
SLD-Durchgehend
 62
     7
370
    15
100
AcDbLine
 10
213.583821839
 20
119.9813073951
 30
0.0
 11
201.9551493584
 21
119.9813073951
 31
0.0
  0
ARC
  5
76
330
1F
100
AcDbEntity
  8
0
  6
SLD-Durchgehend
 62
     7
370
    15
100
AcDbCircle
 10
180.5051418726
 20
88.027600331
 30
0.0
 40
0.6000067526677361
100
AcDbArc
 50
33.5571153394
 51
90.0
  0
ARC
  5
77
330
1F
100
AcDbEntity
  8
0
  6
SLD-Durchgehend
 62
     7
370
    15
100
AcDbCircle
 10
180.5051418726
 20
118.935014638
 30
0.0
 40
0.6000067526677203
100
AcDbArc
 50
270.0
 51
326.4428846606
  0
LINE
  5
78
330
1F
100
AcDbEntity
  8
0
  6
SLD-Durchgehend
 62
     7
370
    15
100
AcDbLine
 10
179.0051485303
 20
88.3776069137
 30
0.0
 11
179.8618605252
 21
88.6071620959
 31
0.0
  0
LINE
  5
79
330
1F
100
AcDbEntity
  8
0
  6
SLD-Durchgehend
 62
     7
370
    15
100
AcDbLine
 10
179.8618605252
 20
118.3554528731
 30
0.0
 11
179.0051485303
 21
118.5850080553
 31
0.0
  0
LINE
  5
7A
330
1F
100
AcDbEntity
  8
0
  6
SLD-Durchgehend
 62
     7
370
    15
100
AcDbLine
 10
172.1892156064
 20
118.2435283887
 30
0.0
 11
164.705148375
 21
117.8685751262
 31
0.0
  0
LINE
  5
7B
330
1F
100
AcDbEntity
  8
0
  6
SLD-Durchgehend
 62
     7
370
    15
100
AcDbLine
 10
179.0051485303
 20
118.5850080553
 30
0.0
 11
177.770415962
 21
118.5231477472
 31
0.0
  0
LINE
  5
7C
330
1F
100
AcDbEntity
  8
0
  6
SLD-Durchgehend
 62
     7
370
    15
100
AcDbLine
 10
177.7714120115
 20
88.4394178617
 30
0.0
 11
179.0051485303
 21
88.3776069137
 31
0.0
  0
LINE
  5
7D
330
1F
100
AcDbEntity
  8
0
  6
SLD-Durchgehend
 62
     7
370
    15
100
AcDbLine
 10
167.2051487847
 20
88.9687890637
 30
0.0
 11
172.1896784737
 21
88.7190632972
 31
0.0
  0
ARC
  5
7E
330
1F
100
AcDbEntity
  8
0
  6
SLD-Durchgehend
 62
     7
370
    15
100
AcDbCircle
 10
180.0171537147
 20
88.027600331
 30
0.0
 40
0.6000067526677242
100
AcDbArc
 50
90.0
 51
105.0
  0
ARC
  5
7F
330
1F
100
AcDbEntity
  8
0
  6
SLD-Durchgehend
 62
     7
370
    15
100
AcDbCircle
 10
180.0171537147
 20
118.935014638
 30
0.0
 40
0.600006752667717
100
AcDbArc
 50
255.0
 51
270.0
  0
LINE
  5
80
330
1F
100
AcDbEntity
  8
0
  6
SLD-Durchgehend
 62
     7
370
    15
100
AcDbLine
 10
180.017153675
 20
88.6276074204
 30
0.0
 11
180.5051418495
 21
88.6276074204
 31
0.0
  0
LINE
  5
81
330
1F
100
AcDbEntity
  8
0
  6
SLD-Durchgehend
 62
     7
370
    15
100
AcDbLine
 10
180.5051418495
 20
118.3350075486
 30
0.0
 11
180.017153675
 21
118.3350075486
 31
0.0
  0
ARC
  5
82
330
1F
100
AcDbEntity
  8
0
  6
SLD-Durchgehend
 62
     7
370
    15
100
AcDbCircle
 10
163.8051486253
 20
117.2613074845
 30
0.0
 40
0.9000000000000057
100
AcDbArc
 50
270.0
 51
311.1792132368
  0
ARC
  5
83
330
1F
100
AcDbEntity
  8
0
  6
SLD-Durchgehend
 62
     7
370
    15
100
AcDbCircle
 10
166.3051486253
 20
89.7603074845
 30
0.0
 40
0.9000000000000057
100
AcDbArc
 50
29.8499024808
 51
90.0
  0
LINE
  5
84
330
1F
100
AcDbEntity
  8
0
  6
SLD-Durchgehend
 62
     7
370
    15
100
AcDbLine
 10
162.05514822
 20
116.3613077703
 30
0.0
 11
161.1051489025
 21
115.4113075214
 31
0.0
  0
LINE
  5
85
330
1F
100
AcDbEntity
  8
0
  6
SLD-Durchgehend
 62
     7
370
    15
100
AcDbLine
 10
163.8051480412
 20
116.3613077703
 30
0.0
 11
162.05514822
 21
116.3613077703
 31
0.0
  0
LINE
  5
86
330
1F
100
AcDbEntity
  8
0
  6
SLD-Durchgehend
 62
     7
370
    15
100
AcDbLine
 10
162.05514822
 20
90.6603074151
 30
0.0
 11
166.305148451
 21
90.6603074151
 31
0.0
  0
LINE
  5
87
330
1F
100
AcDbEntity
  8
0
  6
SLD-Durchgehend
 62
     7
370
    15
100
AcDbLine
 10
161.1051489025
 20
91.610307664
 30
0.0
 11
162.05514822
 21
90.6603074151
 31
0.0
  0
LINE
  5
88
330
1F
100
AcDbEntity
  8
0
  6
SLD-Durchgehend
 62
     7
370
    15
100
AcDbLine
 10
235.5852596819
 20
130.4607874232
 30
0.0
 11
224.9485984802
 21
129.9033424336
 31
0.0
  0
LINE
  5
89
330
1F
100
AcDbEntity
  8
0
  6
SLD-Durchgehend
 62
     7
370
    15
100
AcDbLine
 10
233.8754631936
 20
129.062445693
 30
0.0
 11
235.6051490068
 21
130.0813070017
 31
0.0
  0
LINE
  5
8A
330
1F
100
AcDbEntity
  8
0
  6
SLD-Durchgehend
 62
     7
370
    15
100
AcDbLine
 10
225.0946410357
 20
129.3096950728
 30
0.0
 11
224.9684878051
 21
129.5238638747
 31
0.0
  0
LINE
  5
8B
330
1F
100
AcDbEntity
  8
0
  6
SLD-Durchgehend
 62
     7
370
    15
100
AcDbLine
 10
219.3440668642
 20
120.1116050112
 30
0.0
 11
229.9807280659
 21
120.6690481382
 31
0.0
  0
LINE
  5
8C
330
1F
100
AcDbEntity
  8
0
  6
SLD-Durchgehend
 62
     7
370
    15
100
AcDbLine
 10
221.0538633525
 20
121.5099467414
 30
0.0
 11
219.3241812646
 21
120.4910835701
 31
0.0
  0
LINE
  5
8D
330
1F
100
AcDbEntity
  8
0
  6
SLD-Durchgehend
 62
     7
370
    15
100
AcDbLine
 10
229.8346855103
 20
121.2626973617
 30
0.0
 11
229.9608424663
 21
121.0485285598
 31
0.0
  0
LWPOLYLINE
  5
8E
330
1F
100
AcDbEntity
  8
0
  6
SLD-Durchgehend
 62
     7
370
    15
100
AcDbPolyline
 90
        5
 70
   128
 43
0.0
 10
229.4812150656
 20
121.8627745735
 10
229.4841505944
 20
121.8577901351
 10
229.5996792971
 20
121.6616573262
 10
229.7198050081
 20
121.4577274847
 10
229.8346855103
 20
121.2626973617
  0
LWPOLYLINE
  5
8F
330
1F
100
AcDbEntity
  8
0
  6
SLD-Durchgehend
 62
     7
370
    15
100
AcDbPolyline
 90
        5
 70
   128
 43
0.0
 10
225.0946410357
 20
129.3096950728
 10
225.2095252632
 20
129.1146649498
 10
225.3296472489
 20
128.9107351082
 10
225.4451796769
 20
128.7146022993
 10
225.4481152057
 20
128.7096159983
  0
LINE
  5
90
330
1F
100
AcDbEntity
  8
0
  6
SLD-Durchgehend
 62
     7
370
    15
100
AcDbLine
 10
235.5928928017
 20
130.4812150526
 30
0.0
 11
224.9459982275
 21
129.9232336211
 31
0.0
  0
LINE
  5
91
330
1F
100
AcDbEntity
  8
0
  6
SLD-Durchgehend
 62
     7
370
    15
100
AcDbLine
 10
230.2992366611
 20
120.835240789
 30
0.0
 11
235.9489746749
 21
129.8767103332
 31
0.0
  0
LINE
  5
92
330
1F
100
AcDbEntity
  8
0
  6
SLD-Durchgehend
 62
     7
370
    15
100
AcDbLine
 10
219.3364374696
 20
120.0911773819
 30
0.0
 11
229.9833320438
 21
120.6491569507
 31
0.0
  0
LINE
  5
93
330
1F
100
AcDbEntity
  8
0
  6
SLD-Durchgehend
 62
     7
370
    15
100
AcDbLine
 10
224.6300936102
 20
129.7371516454
 30
0.0
 11
218.9803555965
 21
120.6956821012
 31
0.0
  0
ARC
  5
94
330
1F
100
AcDbEntity
  8
0
  6
SLD-Durchgehend
 62
     7
370
    15
100
AcDbCircle
 10
235.6051486253
 20
130.0813074845
 30
0.0
 40
0.3800000000000279
100
AcDbArc
 50
328.0
 51
93.0
  0
ARC
  5
95
330
1F
100
AcDbEntity
  8
0
  6
SLD-Durchgehend
 62
     7
370
    15
100
AcDbCircle
 10
224.9684875177
 20
129.5238636969
 30
0.0
 40
0.3800000000000128
100
AcDbArc
 50
93.0
 51
148.0
  0
LINE
  5
96
330
1F
100
AcDbEntity
  8
0
  6
SLD-Durchgehend
 62
     7
370
    15
100
AcDbLine
 10
224.6462278425
 20
129.7252325791
 30
0.0
 11
219.001921302
 21
120.6924541372
 31
0.0
  0
ARC
  5
97
330
1F
100
AcDbEntity
  8
0
  6
SLD-Durchgehend
 62
     7
370
    15
100
AcDbCircle
 10
219.3241805631
 20
120.4910843849
 30
0.0
 40
0.3800000000000038
100
AcDbArc
 50
148.0
 51
273.0
  0
ARC
  5
98
330
1F
100
AcDbEntity
  8
0
  6
SLD-Durchgehend
 62
     7
370
    15
100
AcDbCircle
 10
229.9608416707
 20
121.0485281726
 30
0.0
 40
0.3799999999999898
100
AcDbArc
 50
273.0
 51
328.0
  0
LINE
  5
99
330
1F
100
AcDbEntity
  8
0
  6
SLD-Durchgehend
 62
     7
370
    15
100
AcDbLine
 10
230.2830987035
 20
120.8471579927
 30
0.0
 11
235.927405244
 21
129.8799382973
 31
0.0
  0
ARC
  5
9A
330
1F
100
AcDbEntity
  8
0
  6
SLD-Durchgehend
 62
     7
370
    15
100
AcDbCircle
 10
224.9665927732
 20
129.527080118
 30
0.0
 40
0.3966884587375187
100
AcDbArc
 50
92.9759153078
 51
148.0240672437
  0
ARC
  5
9B
330
1F
100
AcDbEntity
  8
0
  6
SLD-Durchgehend
 62
     7
370
    15
100
AcDbCircle
 10
229.9627350697
 20
121.0453124737
 30
0.0
 40
0.3966906020246858
100
AcDbArc
 50
272.9762504422
 51
328.0242337197
  0
ARC
  5
9C
330
1F
100
AcDbEntity
  8
0
  6
SLD-Durchgehend
 62
     7
370
    15
100
AcDbCircle
 10
219.3126050085
 20
120.4842658277
 30
0.0
 40
0.3938102493449473
100
AcDbArc
 50
147.5306698146
 51
273.4695245122
  0
ARC
  5
9D
330
1F
100
AcDbEntity
  8
0
  6
SLD-Durchgehend
 62
     7
370
    15
100
AcDbCircle
 10
235.6167198417
 20
130.0881234134
 30
0.0
 40
0.3938131087509747
100
AcDbArc
 50
327.5314852014
 51
93.4687091253
  0
ARC
  5
9E
330
1F
100
AcDbEntity
  8
0
  6
SLD-Durchgehend
 62
     7
370
    15
100
AcDbCircle
 10
231.4625985854
 20
127.6411590282
 30
0.0
 40
1.000000000295377
100
AcDbArc
 50
328.0
 51
93.0
  0
LINE
  5
9F
330
1F
100
AcDbEntity
  8
0
  6
SLD-Durchgehend
 62
     7
370
    15
100
AcDbLine
 10
223.5190667569
 20
121.9326032775
 30
0.0
 11
228.7429184078
 21
122.2063729989
 31
0.0
  0
ARC
  5
A0
330
1F
100
AcDbEntity
  8
0
  6
SLD-Durchgehend
 62
     7
370
    15
100
AcDbCircle
 10
223.466730603
 20
122.9312328412
 30
0.0
 40
1.000000000000012
100
AcDbArc
 50
148.0
 51
273.0
  0
LINE
  5
A1
330
1F
100
AcDbEntity
  8
0
  6
SLD-Durchgehend
 62
     7
370
    15
100
AcDbLine
 10
225.3907010316
 20
127.8973071354
 30
0.0
 11
222.6186827182
 21
123.4611513543
 31
0.0
  0
ARC
  5
A2
330
1F
100
AcDbEntity
  8
0
  6
SLD-Durchgehend
 62
     7
370
    15
100
AcDbCircle
 10
226.2387484024
 20
127.3673886408
 30
0.0
 40
1.00000000000001
100
AcDbArc
 50
93.0
 51
148.0
  0
LINE
  5
A3
330
1F
100
AcDbEntity
  8
0
  6
SLD-Durchgehend
 62
     7
370
    15
100
AcDbLine
 10
231.4102635144
 20
128.6397891569
 30
0.0
 11
226.1864118635
 21
128.3660175729
 31
0.0
  0
LINE
  5
A4
330
1F
100
AcDbEntity
  8
0
  6
SLD-Durchgehend
 62
     7
370
    15
100
AcDbLine
 10
229.5386292397
 20
122.6750834364
 30
0.0
 11
232.3106475531
 21
127.1112392175
 31
0.0
  0
ARC
  5
A5
330
1F
100
AcDbEntity
  8
0
  6
SLD-Durchgehend
 62
     7
370
    15
100
AcDbCircle
 10
228.6905807859
 20
123.2050032286
 30
0.0
 40
1.000000000000012
100
AcDbArc
 50
273.0
 51
328.0
  0
CIRCLE
  5
A6
330
1F
100
AcDbEntity
  8
0
  6
SLD-Durchgehend
 62
     7
370
    15
100
AcDbCircle
 10
227.4646645942
 20
125.2861959347
 30
0.0
 40
3.050000000000012
  0
LWPOLYLINE
  5
A7
330
1F
100
AcDbEntity
  8
0
  6
SLD-Durchgehend
 62
     7
370
    15
100
AcDbPolyline
 90
        5
 70
   128
 43
0.0
 10
233.2830526292
 20
128.7134884375
 10
233.2869306564
 20
128.7157720405
 10
233.3519183456
 20
128.7540531236
 10
233.6232200622
 20
128.9138624894
 10
233.8754631936
 20
129.062445693
  0
LWPOLYLINE
  5
A8
330
1F
100
AcDbEntity
  8
0
  6
SLD-Durchgehend
 62
     7
370
    15
100
AcDbPolyline
 90
        5
 70
   128
 43
0.0
 10
221.0538633525
 20
121.5099467414
 10
221.3061102092
 20
121.658529945
 10
221.5774119257
 20
121.8183374482
 10
221.642399615
 20
121.8566185313
 10
221.6462776422
 20
121.8589039969
  0
ARC
  5
A9
330
1F
100
AcDbEntity
  8
0
  6
SLD-Durchgehend
 62
     7
370
    15
100
AcDbCircle
 10
227.3541552897
 20
125.2211009796
 30
0.0
 40
1.674999999999999
100
AcDbArc
 50
150.2895332104
 51
208.8894663376
  0
ARC
  5
AA
330
1F
100
AcDbEntity
  8
0
  6
SLD-Durchgehend
 62
     7
370
    15
100
AcDbCircle
 10
227.3541552897
 20
125.2211009796
 30
0.0
 40
1.675000000000019
100
AcDbArc
 50
208.8894663376
 51
268.9963080724
  0
ARC
  5
AB
330
1F
100
AcDbEntity
  8
0
  6
SLD-Durchgehend
 62
     7
370
    15
100
AcDbCircle
 10
227.3541552897
 20
125.2211009796
 30
0.0
 40
1.675000000000019
100
AcDbArc
 50
268.9963080724
 51
327.5962411996
  0
LINE
  5
AC
330
1F
100
AcDbEntity
  8
0
  6
SLD-Durchgehend
 62
     7
370
    15
100
AcDbLine
 10
228.8120411693
 20
124.3963649946
 30
0.0
 11
228.7683472394
 21
124.3234983164
 31
0.0
  0
ARC
  5
AD
330
1F
100
AcDbEntity
  8
0
  6
SLD-Durchgehend
 62
     7
370
    15
100
AcDbCircle
 10
227.3541552897
 20
125.2211009796
 30
0.0
 40
1.674999999999999
100
AcDbArc
 50
330.5028719715
 51
26.9465901378
  0
LINE
  5
AE
330
1F
100
AcDbEntity
  8
0
  6
SLD-Durchgehend
 62
     7
370
    15
100
AcDbLine
 10
228.7892237663
 20
126.0849347788
 30
0.0
 11
228.847301042
 21
125.9801442253
 31
0.0
  0
ARC
  5
AF
330
1F
100
AcDbEntity
  8
0
  6
SLD-Durchgehend
 62
     7
370
    15
100
AcDbCircle
 10
227.3541552897
 20
125.2211009796
 30
0.0
 40
1.674999999999976
100
AcDbArc
 50
31.045682038
 51
86.840092372
  0
LINE
  5
B0
330
1F
100
AcDbEntity
  8
0
  6
SLD-Durchgehend
 62
     7
370
    15
100
AcDbLine
 10
227.3267008721
 20
126.8958764601
 30
0.0
 11
227.4464875817
 21
126.8935537416
 31
0.0
  0
ARC
  5
B1
330
1F
100
AcDbEntity
  8
0
  6
SLD-Durchgehend
 62
     7
370
    15
100
AcDbCircle
 10
227.3541552897
 20
125.2211009796
 30
0.0
 40
1.675000000000006
100
AcDbArc
 50
90.9391842723
 51
147.3829024386
  0
LINE
  5
B2
330
1F
100
AcDbEntity
  8
0
  6
SLD-Durchgehend
 62
     7
370
    15
100
AcDbLine
 10
225.8993484437
 20
126.0512600171
 30
0.0
 11
225.9433180451
 21
126.1239627826
 31
0.0
  0
CIRCLE
  5
B3
330
1F
100
AcDbEntity
  8
0
  6
SLD-Durchgehend
 62
     7
370
    15
100
AcDbCircle
 10
227.3541552897
 20
125.2211009796
 30
0.0
 40
1.799999999999985
  0
ARC
  5
B4
330
1F
100
AcDbEntity
  8
0
  6
SLD-Durchgehend
 62
     7
370
    15
100
AcDbCircle
 10
226.4875051664
 20
126.7927313423
 30
0.0
 40
0.5862457599025893
100
AcDbArc
 50
252.1861919532
 51
345.6995607332
  0
ARC
  5
B5
330
1F
100
AcDbEntity
  8
0
  6
SLD-Durchgehend
 62
     7
370
    15
100
AcDbCircle
 10
226.2056769426
 20
125.9156519899
 30
0.0
 40
0.3350008618782699
100
AcDbArc
 50
72.1868967958
 51
141.5507157423
  0
ARC
  5
B6
330
1F
100
AcDbEntity
  8
0
  6
SLD-Durchgehend
 62
     7
370
    15
100
AcDbCircle
 10
227.3802111288
 20
126.5651697825
 30
0.0
 40
0.3350078418943847
100
AcDbArc
 50
99.1911302307
 51
165.6985042997
  0
ARC
  5
B7
330
1F
100
AcDbEntity
  8
0
  6
SLD-Durchgehend
 62
     7
370
    15
100
AcDbCircle
 10
228.5299730547
 20
125.8727552036
 30
0.0
 40
0.3350091096853768
100
AcDbArc
 50
39.2980579828
 51
105.6981950129
  0
ARC
  5
B8
330
1F
100
AcDbEntity
  8
0
  6
SLD-Durchgehend
 62
     7
370
    15
100
AcDbCircle
 10
228.2806944718
 20
126.7596460696
 30
0.0
 40
0.5862483028599428
100
AcDbArc
 50
192.1863243906
 51
285.6996016569
  0
ARC
  5
B9
330
1F
100
AcDbEntity
  8
0
  6
SLD-Durchgehend
 62
     7
370
    15
100
AcDbCircle
 10
227.3802074768
 20
126.5651781038
 30
0.0
 40
0.3349979280401924
100
AcDbArc
 50
12.1864504329
 51
78.5886055909
  0
ARC
  5
BA
330
1F
100
AcDbEntity
  8
0
  6
SLD-Durchgehend
 62
     7
370
    15
100
AcDbCircle
 10
228.5052233773
 20
124.5308327678
 30
0.0
 40
0.3349906558608923
100
AcDbArc
 50
336.3338002217
 51
45.7000728655
  0
ARC
  5
BB
330
1F
100
AcDbEntity
  8
0
  6
SLD-Durchgehend
 62
     7
370
    15
100
AcDbCircle
 10
229.1486376107
 20
125.1901530174
 30
0.0
 40
0.586250391464661
100
AcDbArc
 50
132.1864798318
 51
225.6992203564
  0
ARC
  5
BC
330
1F
100
AcDbEntity
  8
0
  6
SLD-Durchgehend
 62
     7
370
    15
100
AcDbCircle
 10
228.5299558874
 20
125.8727713983
 30
0.0
 40
0.3350177176215049
100
AcDbArc
 50
312.1883330624
 51
18.6931020036
  0
ARC
  5
BD
330
1F
100
AcDbEntity
  8
0
  6
SLD-Durchgehend
 62
     7
370
    15
100
AcDbCircle
 10
225.5622448067
 20
125.2563303406
 30
0.0
 40
0.586255877800991
100
AcDbArc
 50
312.1870499414
 51
45.6986502468
  0
ARC
  5
BE
330
1F
100
AcDbEntity
  8
0
  6
SLD-Durchgehend
 62
     7
370
    15
100
AcDbCircle
 10
226.1809092973
 20
124.5737179321
 30
0.0
 40
0.3349962333480563
100
AcDbArc
 50
132.1858375328
 51
208.889602458
  0
ARC
  5
BF
330
1F
100
AcDbEntity
  8
0
  6
SLD-Durchgehend
 62
     7
370
    15
100
AcDbCircle
 10
226.2056782817
 20
125.915655677
 30
0.0
 40
0.3350022488858601
100
AcDbArc
 50
156.1222600925
 51
225.6993229071
  0
ARC
  5
C0
330
1F
100
AcDbEntity
  8
0
  6
SLD-Durchgehend
 62
     7
370
    15
100
AcDbCircle
 10
227.3306773181
 20
123.8813127577
 30
0.0
 40
0.3350059824314086
100
AcDbArc
 50
268.9974714014
 51
345.6985414941
  0
ARC
  5
C1
330
1F
100
AcDbEntity
  8
0
  6
SLD-Durchgehend
 62
     7
370
    15
100
AcDbCircle
 10
228.2233846733
 20
123.6537461884
 30
0.0
 40
0.5862502063418743
100
AcDbArc
 50
72.1866540125
 51
165.6990986739
  0
ARC
  5
C2
330
1F
100
AcDbEntity
  8
0
  6
SLD-Durchgehend
 62
     7
370
    15
100
AcDbCircle
 10
228.5052129181
 20
124.5308329167
 30
0.0
 40
0.3350034441227604
100
AcDbArc
 50
252.1864707071
 51
321.7639379911
  0
CIRCLE
  5
C3
330
1F
100
AcDbEntity
  8
0
  6
SLD-Durchgehend
 62
     7
370
    15
100
AcDbCircle
 10
227.3541552897
 20
125.2211009796
 30
0.0
 40
2.624999999999998
  0
ARC
  5
C4
330
1F
100
AcDbEntity
  8
0
  6
SLD-Durchgehend
 62
     7
370
    15
100
AcDbCircle
 10
226.180900876
 20
124.5736866257
 30
0.0
 40
0.3349737360102454
100
AcDbArc
 50
208.8856099496
 51
285.7028260215
  0
ARC
  5
C5
330
1F
100
AcDbEntity
  8
0
  6
SLD-Durchgehend
 62
     7
370
    15
100
AcDbCircle
 10
226.4301946727
 20
123.6868398606
 30
0.0
 40
0.5862453381113141
100
AcDbArc
 50
12.186115005
 51
105.6995531962
  0
ARC
  5
C6
330
1F
100
AcDbEntity
  8
0
  6
SLD-Durchgehend
 62
     7
370
    15
100
AcDbCircle
 10
227.3306833537
 20
123.8813095801
 30
0.0
 40
0.3350029109422815
100
AcDbArc
 50
192.1870491371
 51
268.9964297908
  0
LINE
  5
C7
330
1F
100
AcDbEntity
  8
0
  6
SLD-Durchgehend
 62
     7
370
    15
100
AcDbLine
 10
199.0403090029
 20
84.2524225342
 30
0.0
 11
199.0403090029
 21
115.3313078436
 31
0.0
  0
LWPOLYLINE
  5
C8
330
1F
100
AcDbEntity
  8
0
  6
SLD-Durchgehend
 62
     7
370
    15
100
AcDbPolyline
 90
        3
 70
   128
 43
0.0
 10
199.0403090029
 20
84.2524225342
 10
198.1009975433
 20
85.9507767933
 10
198.0451479911
 20
86.0521847832
  0
LINE
  5
C9
330
1F
100
AcDbEntity
  8
0
  6
SLD-Durchgehend
 62
     7
370
    15
100
AcDbLine
 10
198.0451479911
 20
86.0521847832
 30
0.0
 11
198.0451479911
 21
115.3313078436
 31
0.0
  0
LINE
  5
CA
330
1F
100
AcDbEntity
  8
0
  6
SLD-Durchgehend
 62
     7
370
    15
100
AcDbLine
 10
198.0451479911
 20
115.3313078436
 30
0.0
 11
199.0403090029
 21
115.3313078436
 31
0.0
  0
LINE
  5
CB
330
1F
100
AcDbEntity
  8
0
  6
SLD-Durchgehend
 62
     7
370
    15
100
AcDbLine
 10
188.9551490902
 20
115.3313078436
 30
0.0
 11
194.9699888363
 21
115.3313078436
 31
0.0
  0
LINE
  5
CC
330
1F
100
AcDbEntity
  8
0
  6
SLD-Durchgehend
 62
     7
370
    15
100
AcDbLine
 10
194.9699888363
 20
84.2524225342
 30
0.0
 11
194.9699888363
 21
115.3313078436
 31
0.0
  0
LINE
  5
CD
330
1F
100
AcDbEntity
  8
0
  6
SLD-Durchgehend
 62
     7
370
    15
100
AcDbLine
 10
194.9699888363
 20
84.2524225342
 30
0.0
 11
193.4551488965
 21
84.2524225342
 31
0.0
  0
ARC
  5
CE
330
1F
100
AcDbEntity
  8
0
  6
SLD-Durchgehend
 62
     7
370
    15
100
AcDbCircle
 10
192.9207992786
 20
73.5316535291
 30
0.0
 40
10.73407739745367
100
AcDbArc
 50
87.1465980851
 51
111.6813871243
  0
LINE
  5
CF
330
1F
100
AcDbEntity
  8
0
  6
SLD-Durchgehend
 62
     7
370
    15
100
AcDbLine
 10
188.9551490902
 20
83.5063232559
 30
0.0
 11
188.9551490902
 21
83.4813079315
 31
0.0
  0
LWPOLYLINE
  5
D0
330
1F
100
AcDbEntity
  8
0
  6
SLD-Durchgehend
 62
     7
370
    15
100
AcDbPolyline
 90
       11
 70
   128
 43
0.0
 10
193.4551488965
 20
122.968483575
 10
192.7211428418
 20
122.9823006767
 10
191.9871367871
 20
123.0236979651
 10
191.3152192145
 20
123.0856253284
 10
190.6849913656
 20
123.1643910038
 10
190.1388563573
 20
123.2486496198
 10
189.6715931951
 20
123.3323848325
 10
189.3184449881
 20
123.4027108627
 10
189.0754154309
 20
123.4545911181
 10
188.9650714009
 20
123.4790774512
 10
188.9706761002
 20
123.4778201657
  0
LINE
  5
D1
330
1F
100
AcDbEntity
  8
0
  6
SLD-Durchgehend
 62
     7
370
    15
100
AcDbLine
 10
194.9699888363
 20
122.968483575
 30
0.0
 11
193.4551488965
 21
122.968483575
 31
0.0
  0
LINE
  5
D2
330
1F
100
AcDbEntity
  8
0
  6
SLD-Durchgehend
 62
     7
370
    15
100
AcDbLine
 10
194.9699888363
 20
119.5927167761
 30
0.0
 11
194.9699888363
 21
122.968483575
 31
0.0
  0
LINE
  5
D3
330
1F
100
AcDbEntity
  8
0
  6
SLD-Durchgehend
 62
     7
370
    15
100
AcDbLine
 10
193.448818697
 20
119.5927167761
 30
0.0
 11
194.9699888363
 21
119.5927167761
 31
0.0
  0
ARC
  5
D4
330
1F
100
AcDbEntity
  8
0
  6
SLD-Durchgehend
 62
     7
370
    15
100
AcDbCircle
 10
193.1249061861
 20
115.4342844858
 30
0.0
 40
4.171028461616025
100
AcDbArc
 50
85.5460566573
 51
181.4146934227
  0
LINE
  5
D5
330
1F
100
AcDbEntity
  8
0
  6
SLD-Durchgehend
 62
     7
370
    15
100
AcDbLine
 10
200.3551483511
 20
84.2524225342
 30
0.0
 11
199.0403090029
 21
84.2524225342
 31
0.0
  0
LINE
  5
D6
330
1F
100
AcDbEntity
  8
0
  6
SLD-Durchgehend
 62
     7
370
    15
100
AcDbLine
 10
199.0403090029
 20
115.3313078436
 30
0.0
 11
200.3551483511
 21
115.3313078436
 31
0.0
  0
LINE
  5
D7
330
1F
100
AcDbEntity
  8
0
  6
SLD-Durchgehend
 62
     7
370
    15
100
AcDbLine
 10
195.9651489168
 20
86.0521847832
 30
0.0
 11
195.9651489168
 21
115.3313078436
 31
0.0
  0
LWPOLYLINE
  5
D8
330
1F
100
AcDbEntity
  8
0
  6
SLD-Durchgehend
 62
     7
370
    15
100
AcDbPolyline
 90
        3
 70
   128
 43
0.0
 10
195.9651489168
 20
86.0521847832
 10
195.9093002959
 20
85.9507767933
 10
194.9699888363
 20
84.2524225342
  0
LINE
  5
D9
330
1F
100
AcDbEntity
  8
0
  6
SLD-Durchgehend
 62
     7
370
    15
100
AcDbLine
 10
194.9699888363
 20
115.3313078436
 30
0.0
 11
195.9651489168
 21
115.3313078436
 31
0.0
  0
LINE
  5
DA
330
1F
100
AcDbEntity
  8
0
  6
SLD-Durchgehend
 62
     7
370
    15
100
AcDbLine
 10
200.9551491945
 20
84.8772747892
 30
0.0
 11
200.9551491945
 21
115.3313078436
 31
0.0
  0
ARC
  5
DB
330
1F
100
AcDbEntity
  8
0
  6
SLD-Durchgehend
 62
     7
370
    15
100
AcDbCircle
 10
200.3438884893
 20
84.8637296069
 30
0.0
 40
0.6114107634496497
100
AcDbArc
 50
271.0552300829
 51
1.2694334473
  0
LINE
  5
DC
330
1F
100
AcDbEntity
  8
0
  6
SLD-Durchgehend
 62
     7
370
    15
100
AcDbLine
 10
200.3551483511
 20
115.3313078436
 30
0.0
 11
200.9551491945
 21
115.3313078436
 31
0.0
  0
LINE
  5
DD
330
1F
100
AcDbEntity
  8
0
  6
SLD-Durchgehend
 62
     7
370
    15
100
AcDbLine
 10
181.0051486253
 20
83.7813074219
 30
0.0
 11
181.0051486253
 21
123.1813075471
 31
0.0
  0
LINE
  5
DE
330
1F
100
AcDbEntity
  8
0
  6
SLD-Durchgehend
 62
     7
370
    15
100
AcDbLine
 10
198.0099253713
 20
86.5813082534
 30
0.0
 11
197.4451490103
 21
86.5813082534
 31
0.0
  0
LINE
  5
DF
330
1F
100
AcDbEntity
  8
0
  6
SLD-Durchgehend
 62
     7
370
    15
100
AcDbLine
 10
197.4451490103
 20
115.3313078436
 30
0.0
 11
198.0451479911
 21
115.3313078436
 31
0.0
  0
LINE
  5
E0
330
1F
100
AcDbEntity
  8
0
  6
SLD-Durchgehend
 62
     7
370
    15
100
AcDbLine
 10
196.5651488288
 20
86.5813082534
 30
0.0
 11
196.0003706052
 21
86.5813082534
 31
0.0
  0
LINE
  5
E1
330
1F
100
AcDbEntity
  8
0
  6
SLD-Durchgehend
 62
     7
370
    15
100
AcDbLine
 10
195.9651489168
 20
115.3313078436
 30
0.0
 11
196.5651488288
 21
115.3313078436
 31
0.0
  0
LINE
  5
E2
330
1F
100
AcDbEntity
  8
0
  6
SLD-Durchgehend
 62
     7
370
    15
100
AcDbLine
 10
200.9552106618
 20
120.3813067156
 30
0.0
 11
201.1551488548
 21
120.3813067156
 31
0.0
  0
LINE
  5
E3
330
1F
100
AcDbEntity
  8
0
  6
SLD-Durchgehend
 62
     7
370
    15
100
AcDbLine
 10
200.9551491945
 20
86.5813082534
 30
0.0
 11
201.1551488548
 21
86.5813082534
 31
0.0
  0
LINE
  5
E4
330
1F
100
AcDbEntity
  8
0
  6
SLD-Durchgehend
 62
     7
370
    15
100
AcDbLine
 10
200.9551491945
 20
115.3313078436
 30
0.0
 11
201.2842730045
 21
115.3313078436
 31
0.0
  0
ARC
  5
E5
330
1F
100
AcDbEntity
  8
0
  6
SLD-Durchgehend
 62
     7
370
    15
100
AcDbCircle
 10
202.6627934655
 20
116.3393286487
 30
0.0
 40
1.707754257787371
100
AcDbArc
 50
179.3497241651
 51
216.175534614
  0
LINE
  5
E6
330
1F
100
AcDbEntity
  8
0
  6
SLD-Durchgehend
 62
     7
370
    15
100
AcDbLine
 10
197.4451490103
 20
86.5813082534
 30
0.0
 11
196.5651488288
 21
86.5813082534
 31
0.0
  0
LINE
  5
E7
330
1F
100
AcDbEntity
  8
0
  6
SLD-Durchgehend
 62
     7
370
    15
100
AcDbLine
 10
196.5651488288
 20
115.3313078436
 30
0.0
 11
197.4451490103
 21
115.3313078436
 31
0.0
  0
LINE
  5
E8
330
1F
100
AcDbEntity
  8
0
  6
SLD-Durchgehend
 62
     7
370
    15
100
AcDbLine
 10
215.1583567619
 20
119.9785804826
 30
0.0
 11
215.2378209292
 21
119.9758777845
 31
0.0
  0
LINE
  5
E9
330
1F
100
AcDbEntity
  8
0
  6
SLD-Durchgehend
 62
     7
370
    15
100
AcDbLine
 10
215.1583567619
 20
119.9785804826
 30
0.0
 11
215.0744557738
 21
119.9785804826
 31
0.0
  0
ARC
  5
EA
330
1F
100
AcDbEntity
  8
0
  6
SLD-Durchgehend
 62
     7
370
    15
100
AcDbCircle
 10
213.9219106796
 20
105.7929068141
 30
0.0
 40
14.23241713916564
100
AcDbArc
 50
85.355085651
 51
100.9814772149
  0
ELLIPSE
  5
EB
330
1F
100
AcDbEntity
  8
0
  6
SLD-Durchgehend
 62
     7
370
    15
100
AcDbEllipse
 10
211.9247638676
 20
103.4813074845
 30
0.0
 11
0.0
 21
16.5
 31
0.0
210
0.0
220
0.0
230
1.0
 40
0.2679491924
 41
0.1622088096104346
 42
2.97938384397936
  0
ARC
  5
EC
330
1F
100
AcDbEntity
  8
0
  6
SLD-Durchgehend
 62
     7
370
    15
100
AcDbCircle
 10
213.4130033334
 20
97.6479940948
 30
0.0
 40
10.67962063122667
100
AcDbArc
 50
258.0996343854
 51
272.8830195747
  0
ELLIPSE
  5
ED
330
1F
100
AcDbEntity
  8
0
  6
SLD-Durchgehend
 62
     7
370
    15
100
AcDbEllipse
 10
209.77019456
 20
112.421010856
 30
0.0
 11
0.2199441409949827
 21
2.658240935926187
 31
0.0
210
0.0
220
0.0
230
1.0
 40
0.2265727024
 41
0.0
 42
6.283185307179586
  0
LINE
  5
EE
330
1F
100
AcDbEntity
  8
0
  6
SLD-Durchgehend
 62
     7
370
    15
100
AcDbLine
 10
179.0051485303
 20
88.3776069137
 30
0.0
 11
179.0051485303
 21
118.5850080553
 31
0.0
  0
LINE
  5
EF
330
1F
100
AcDbEntity
  8
0
  6
SLD-Durchgehend
 62
     7
370
    15
100
AcDbLine
 10
167.2051487847
 20
88.9687890637
 30
0.0
 11
167.2051487847
 21
89.8777310255
 31
0.0
  0
ARC
  5
F0
330
1F
100
AcDbEntity
  8
0
  6
SLD-Durchgehend
 62
     7
370
    15
100
AcDbCircle
 10
164.0666081795
 20
88.9107246338
 30
0.0
 40
3.284134359664609
100
AcDbArc
 50
17.1244326527
 51
29.8895177058
  0
LWPOLYLINE
  5
F1
330
1F
100
AcDbEntity
  8
0
  6
SLD-Durchgehend
 62
     7
370
    15
100
AcDbPolyline
 90
        7
 70
   128
 43
0.0
 10
166.305148451
 20
91.1974337402
 10
166.3684634849
 20
91.1969811174
 10
166.4298376425
 20
91.1855407509
 10
166.507240793
 20
91.1550734642
 10
166.6126041099
 20
91.0819665047
 10
166.8006772532
 20
90.8308847326
 10
166.9139130398
 20
90.5473044592
  0
ARC
  5
F2
330
1F
100
AcDbEntity
  8
0
  6
SLD-Durchgehend
 62
     7
370
    15
100
AcDbCircle
 10
172.0602887335
 20
16.3289354451
 30
0.0
 40
75.08937126268323
100
AcDbArc
 50
94.395681249
 51
97.5337113535
  0
LINE
  5
F3
330
1F
100
AcDbEntity
  8
0
  6
SLD-Durchgehend
 62
     7
370
    15
100
AcDbLine
 10
162.05514822
 20
90.7507723647
 30
0.0
 11
162.2153580546
 21
90.7701271105
 31
0.0
  0
LINE
  5
F4
330
1F
100
AcDbEntity
  8
0
  6
SLD-Durchgehend
 62
     7
370
    15
100
AcDbLine
 10
162.0466322064
 20
90.7781299653
 30
0.0
 11
162.05514822
 21
90.7507723647
 31
0.0
  0
ELLIPSE
  5
F5
330
1F
100
AcDbEntity
  8
0
  6
SLD-Durchgehend
 62
     7
370
    15
100
AcDbEllipse
 10
148.5784064175
 20
102.8420098067
 30
0.0
 11
13.37355272666628
 21
-13.37146352987016
 31
0.0
210
0.0
220
0.0
230
1.0
 40
0.1761188775
 41
0.3023035477142483
 42
0.3822730435340352
  0
ELLIPSE
  5
F6
330
1F
100
AcDbEntity
  8
0
  6
SLD-Durchgehend
 62
     7
370
    15
100
AcDbEllipse
 10
148.4990279868
 20
104.1204179358
 30
0.0
 11
13.36963611134303
 21
13.36754752639483
 31
0.0
210
0.0
220
0.0
230
1.0
 40
0.1761188775
 41
5.933076931846593
 42
5.976720052691191
  0
LINE
  5
F7
330
1F
100
AcDbEntity
  8
0
  6
SLD-Durchgehend
 62
     7
370
    15
100
AcDbLine
 10
162.05514822
 20
116.3468881029
 30
0.0
 11
161.9559809922
 21
116.1547432172
 31
0.0
  0
LWPOLYLINE
  5
F8
330
1F
100
AcDbEntity
  8
0
  6
SLD-Durchgehend
 62
     7
370
    15
100
AcDbPolyline
 90
        3
 70
   128
 43
0.0
 10
163.8051480412
 20
116.262101427
 10
162.9415139913
 20
116.3207300457
 10
162.05514822
 20
116.3468881029
  0
ARC
  5
F9
330
1F
100
AcDbEntity
  8
0
  6
SLD-Durchgehend
 62
     7
370
    15
100
AcDbCircle
 10
163.6501833965
 20
117.3514415188
 30
0.0
 40
1.100307173752291
100
AcDbArc
 50
278.0963186522
 51
343.4942707128
  0
LINE
  5
FA
330
1F
100
AcDbEntity
  8
0
  6
SLD-Durchgehend
 62
     7
370
    15
100
AcDbLine
 10
164.705148375
 20
117.0388319048
 30
0.0
 11
164.705148375
 21
117.8685751262
 31
0.0
  0
LWPOLYLINE
  5
FB
330
1F
100
AcDbEntity
  8
0
  6
SLD-Durchgehend
 62
     7
370
    15
100
AcDbPolyline
 90
       18
 70
   128
 43
0.0
 10
172.1896915122
 20
88.7193408313
 10
172.1882926657
 20
88.719140597
 10
172.2435927375
 20
88.7276370528
 10
172.4046212047
 20
88.7504982281
 10
172.6683913156
 20
88.7837594825
 10
173.0189169183
 20
88.8209918964
 10
173.4417923152
 20
88.8538023907
 10
173.9235184512
 20
88.874928512
 10
174.4533082827
 20
88.8782421577
 10
175.0018353931
 20
88.8607537824
 10
175.543365477
 20
88.8216177451
 10
176.0606746546
 20
88.7640182379
 10
176.5436948634
 20
88.6927618164
 10
176.9664063475
 20
88.6175901148
 10
177.309619671
 20
88.5473451096
 10
177.5636318497
 20
88.4899216223
 10
177.7198672652
 20
88.4521229642
 10
177.7714266799
 20
88.4397093656
  0
LWPOLYLINE
  5
FC
330
1F
100
AcDbEntity
  8
0
  6
SLD-Durchgehend
 62
     7
370
    15
100
AcDbPolyline
 90
       18
 70
   128
 43
0.0
 10
177.7704278364
 20
118.5229065347
 10
177.7197569034
 20
118.5101911875
 10
177.564842569
 20
118.4727529514
 10
177.3068608607
 20
118.4146505299
 10
176.9645460307
 20
118.3444595414
 10
176.5427523649
 20
118.2694210189
 10
176.0615836255
 20
118.1985371265
 10
175.5442101865
 20
118.1410465839
 10
175.002770441
 20
118.1019645634
 10
174.4535220212
 20
118.0844454545
 10
173.9232455737
 20
118.0877283665
 10
173.4404423631
 20
118.1088703203
 10
173.0178170263
 20
118.1416826773
 10
172.6669784992
 20
118.1790231246
 10
172.4041294663
 20
118.2122154611
 10
172.2430516391
 20
118.2350356582
 10
172.1883131548
 20
118.2434799599
 10
172.1892258509
 20
118.2433365363
  0
LWPOLYLINE
  5
FD
330
1F
100
AcDbEntity
  8
0
  6
SLD-Durchgehend
 62
     7
370
    15
100
AcDbPolyline
 90
       13
 70
   128
 43
0.0
 10
161.8651192992
 20
115.869387843
 10
161.7003962754
 20
115.4718202057
 10
161.6179108977
 20
115.3128378543
 10
161.5099463969
 20
115.1355848166
 10
161.4567101359
 20
115.0606710914
 10
161.3922234982
 20
114.9819100725
 10
161.3534245997
 20
114.9417486492
 10
161.3140575945
 20
114.9076752814
 10
161.2825416385
 20
114.8863042223
 10
161.2429753303
 20
114.8691790628
 10
161.1929968356
 20
114.8708740699
 10
161.1216687023
 20
115.002037816
 10
161.1051489025
 20
115.2595391947
  0
LWPOLYLINE
  5
FE
330
1F
100
AcDbEntity
  8
0
  6
SLD-Durchgehend
 62
     7
370
    15
100
AcDbPolyline
 90
       11
 70
   128
 43
0.0
 10
161.1051489025
 20
91.9337941783
 10
161.1301325618
 20
92.1857746768
 10
161.1886792242
 20
92.2651801708
 10
161.2404793858
 20
92.2657929811
 10
161.2742305159
 20
92.2515148747
 10
161.3180455177
 20
92.221884847
 10
161.361532694
 20
92.1831800121
 10
161.4092611133
 20
92.1322897526
 10
161.4777934163
 20
92.0465130809
 10
161.6170019268
 20
91.8329366001
 10
161.8651192992
 20
91.3143221739
  0
LINE
  5
FF
330
1F
100
AcDbEntity
  8
0
  6
SLD-Durchgehend
 62
     7
370
    15
100
AcDbLine
 10
161.1051489025
 20
91.9337941783
 30
0.0
 11
161.1051489025
 21
115.2595391947
 31
0.0
  0
ARC
  5
100
330
1F
100
AcDbEntity
  8
0
  6
SLD-Durchgehend
 62
     7
370
    15
100
AcDbCircle
 10
196.5918526273
 20
120.8809167641
 30
0.0
 40
0.6267108666969959
100
AcDbArc
 50
179.726192355
 51
232.8629641269
  0
LINE
  5
101
330
1F
100
AcDbEntity
  8
0
  6
SLD-Durchgehend
 62
     7
370
    15
100
AcDbLine
 10
196.5651488288
 20
120.3813067156
 30
0.0
 11
196.2134926005
 21
120.3813067156
 31
0.0
  0
LWPOLYLINE
  5
102
330
1F
100
AcDbEntity
  8
0
  6
SLD-Durchgehend
 62
     7
370
    15
100
AcDbPolyline
 90
        6
 70
   128
 43
0.0
 10
195.9651489168
 20
116.9971542883
 10
196.0101634621
 20
116.6923994648
 10
196.1346105098
 20
116.4362065944
 10
196.2817212924
 20
116.2854515466
 10
196.4319268598
 20
116.2087897289
 10
196.5651488288
 20
116.1883183273
  0
LWPOLYLINE
  5
103
330
1F
100
AcDbEntity
  8
0
  6
SLD-Durchgehend
 62
     7
370
    15
100
AcDbPolyline
 90
        3
 70
   128
 43
0.0
 10
195.9651489168
 20
121.1949846226
 10
195.0360726922
 20
122.8509916442
 10
194.9699888363
 20
122.968483575
  0
LINE
  5
104
330
1F
100
AcDbEntity
  8
0
  6
SLD-Durchgehend
 62
     7
370
    15
100
AcDbLine
 10
195.9651489168
 20
117.3953952718
 30
0.0
 11
195.9651489168
 21
121.1949846226
 31
0.0
  0
LINE
  5
105
330
1F
100
AcDbEntity
  8
0
  6
SLD-Durchgehend
 62
     7
370
    15
100
AcDbLine
 10
194.9699888363
 20
119.5927167761
 30
0.0
 11
195.9651489168
 21
117.3953952718
 31
0.0
  0
LINE
  5
106
330
1F
100
AcDbEntity
  8
0
  6
SLD-Durchgehend
 62
     7
370
    15
100
AcDbLine
 10
197.796803376
 20
120.3813067156
 30
0.0
 11
197.4451490103
 21
120.3813067156
 31
0.0
  0
ARC
  5
107
330
1F
100
AcDbEntity
  8
0
  6
SLD-Durchgehend
 62
     7
370
    15
100
AcDbCircle
 10
197.4179583172
 20
120.881157587
 30
0.0
 40
0.6271957208092337
100
AcDbArc
 50
307.1590768283
 51
0.2515960212
  0
ARC
  5
108
330
1F
100
AcDbEntity
  8
0
  6
SLD-Durchgehend
 62
     7
370
    15
100
AcDbCircle
 10
197.3196070171
 20
116.9084053294
 30
0.0
 40
0.730948755117504
100
AcDbArc
 50
279.8897062559
 51
6.9738377009
  0
LWPOLYLINE
  5
109
330
1F
100
AcDbEntity
  8
0
  6
SLD-Durchgehend
 62
     7
370
    15
100
AcDbPolyline
 90
        3
 70
   128
 43
0.0
 10
199.0403090029
 20
122.968483575
 10
198.9742242157
 20
122.8509916442
 10
198.0451479911
 20
121.1949846226
  0
LINE
  5
10A
330
1F
100
AcDbEntity
  8
0
  6
SLD-Durchgehend
 62
     7
370
    15
100
AcDbLine
 10
199.0403090029
 20
119.5927167761
 30
0.0
 11
199.0403090029
 21
122.968483575
 31
0.0
  0
LINE
  5
10B
330
1F
100
AcDbEntity
  8
0
  6
SLD-Durchgehend
 62
     7
370
    15
100
AcDbLine
 10
198.0451479911
 20
117.3953952718
 30
0.0
 11
199.0403090029
 21
119.5927167761
 31
0.0
  0
LINE
  5
10C
330
1F
100
AcDbEntity
  8
0
  6
SLD-Durchgehend
 62
     7
370
    15
100
AcDbLine
 10
198.0451479911
 20
117.3953952718
 30
0.0
 11
198.0451479911
 21
121.1949846226
 31
0.0
  0
LINE
  5
10D
330
1F
100
AcDbEntity
  8
0
  6
SLD-Durchgehend
 62
     7
370
    15
100
AcDbLine
 10
195.9651489168
 20
117.3953952718
 30
0.0
 11
195.9651489168
 21
116.9971542883
 31
0.0
  0
LINE
  5
10E
330
1F
100
AcDbEntity
  8
0
  6
SLD-Durchgehend
 62
     7
370
    15
100
AcDbLine
 10
196.5651488288
 20
116.1883183273
 30
0.0
 11
197.4451490103
 21
116.1883183273
 31
0.0
  0
LINE
  5
10F
330
1F
100
AcDbEntity
  8
0
  6
SLD-Durchgehend
 62
     7
370
    15
100
AcDbLine
 10
198.0451479911
 20
116.9971542883
 30
0.0
 11
198.0451479911
 21
117.3953952718
 31
0.0
  0
LINE
  5
110
330
1F
100
AcDbEntity
  8
0
  6
SLD-Durchgehend
 62
     7
370
    15
100
AcDbLine
 10
199.0403090029
 20
119.5927167761
 30
0.0
 11
200.3551483511
 21
119.5927167761
 31
0.0
  0
ARC
  5
111
330
1F
100
AcDbEntity
  8
0
  6
SLD-Durchgehend
 62
     7
370
    15
100
AcDbCircle
 10
200.2595696458
 20
118.901162396
 30
0.0
 40
0.6981280323795389
100
AcDbArc
 50
355.1028521375
 51
82.1310855252
  0
LINE
  5
112
330
1F
100
AcDbEntity
  8
0
  6
SLD-Durchgehend
 62
     7
370
    15
100
AcDbLine
 10
200.9551491945
 20
118.8415650728
 30
0.0
 11
200.9551491945
 21
116.3587103116
 31
0.0
  0
ARC
  5
113
330
1F
100
AcDbEntity
  8
0
  6
SLD-Durchgehend
 62
     7
370
    15
100
AcDbCircle
 10
200.3470440551
 20
122.3603772514
 30
0.0
 40
0.6081603245705092
100
AcDbArc
 50
359.2281322855
 51
89.2364584066
  0
LINE
  5
114
330
1F
100
AcDbEntity
  8
0
  6
SLD-Durchgehend
 62
     7
370
    15
100
AcDbLine
 10
200.9551491945
 20
118.8415650728
 30
0.0
 11
200.9551491945
 21
122.3521845865
 31
0.0
  0
LINE
  5
115
330
1F
100
AcDbEntity
  8
0
  6
SLD-Durchgehend
 62
     7
370
    15
100
AcDbLine
 10
197.4451490103
 20
120.3813067156
 30
0.0
 11
196.5651488288
 21
120.3813067156
 31
0.0
  0
LINE
  5
116
330
1F
100
AcDbEntity
  8
0
  6
SLD-Durchgehend
 62
     7
370
    15
100
AcDbLine
 10
200.3551483511
 20
122.968483575
 30
0.0
 11
199.0403090029
 21
122.968483575
 31
0.0
  0
LINE
  5
117
330
1F
100
AcDbEntity
  8
0
  6
SLD-Durchgehend
 62
     7
370
    15
100
AcDbLine
 10
161.1051489025
 20
91.6628351885
 30
0.0
 11
161.1051489025
 21
91.9337941783
 31
0.0
  0
LINE
  5
118
330
1F
100
AcDbEntity
  8
0
  6
SLD-Durchgehend
 62
     7
370
    15
100
AcDbLine
 10
161.1051489025
 20
115.3552214134
 30
0.0
 11
161.1051489025
 21
115.2595391947
 31
0.0
  0
LINE
  5
119
330
1F
100
AcDbEntity
  8
0
  6
SLD-Durchgehend
 62
     7
370
    15
100
AcDbLine
 10
162.05514822
 20
116.3613077703
 30
0.0
 11
162.05514822
 21
116.3468881029
 31
0.0
  0
LINE
  5
11A
330
1F
100
AcDbEntity
  8
0
  6
SLD-Durchgehend
 62
     7
370
    15
100
AcDbLine
 10
161.1051489025
 20
115.4113075214
 30
0.0
 11
161.1051489025
 21
115.3552214134
 31
0.0
  0
LINE
  5
11B
330
1F
100
AcDbEntity
  8
0
  6
SLD-Durchgehend
 62
     7
370
    15
100
AcDbLine
 10
162.05514822
 20
90.6603074151
 30
0.0
 11
162.05514822
 21
90.7507723647
 31
0.0
  0
LINE
  5
11C
330
1F
100
AcDbEntity
  8
0
  6
SLD-Durchgehend
 62
     7
370
    15
100
AcDbLine
 10
161.1051489025
 20
91.610307664
 30
0.0
 11
161.1051489025
 21
91.6628351885
 31
0.0
  0
LWPOLYLINE
  5
11D
330
1F
100
AcDbEntity
  8
0
  6
SLD-Durchgehend
 62
     7
370
    15
100
AcDbPolyline
 90
        4
 70
   128
 43
0.0
 10
215.0744557738
 20
88.5875596183
 10
214.6951429903
 20
88.045841873
 10
214.319246298
 20
87.5090061205
 10
213.9501557111
 20
86.9818905818
  0
LINE
  5
11E
330
1F
100
AcDbEntity
  8
0
  6
SLD-Durchgehend
 62
     7
370
    15
100
AcDbLine
 10
220.5636151492
 20
123.2294252592
 30
0.0
 11
216.8235764264
 21
123.0334172475
 31
0.0
  0
LINE
  5
11F
330
1F
100
AcDbEntity
  8
0
  6
SLD-Durchgehend
 62
     7
370
    15
100
AcDbLine
 10
218.4980236351
 20
129.2830965
 30
0.0
 11
224.5443746804
 21
129.5999715555
 31
0.0
  0
LINE
  5
120
330
1F
100
AcDbEntity
  8
0
  6
SLD-Durchgehend
 62
     7
370
    15
100
AcDbLine
 10
216.8235764264
 20
123.0334172475
 30
0.0
 11
218.4980236351
 21
129.2830965
 31
0.0
  0
ARC
  5
121
330
1F
100
AcDbEntity
  8
0
  6
SLD-Durchgehend
 62
     7
370
    15
100
AcDbCircle
 10
215.5354591348
 20
121.4473864703
 30
0.0
 40
1.516442497159263
100
AcDbArc
 50
255.6008836955
 51
273.0
  0
LINE
  5
122
330
1F
100
AcDbEntity
  8
0
  6
SLD-Durchgehend
 62
     7
370
    15
100
AcDbLine
 10
215.6148240327
 20
119.9330220449
 30
0.0
 11
219.174584782
 21
120.1195808577
 31
0.0
  0
LINE
  5
123
330
1F
100
AcDbEntity
  8
0
  6
SLD-Durchgehend
 62
     7
370
    15
100
AcDbLine
 10
229.4582561015
 20
120.6216400939
 30
0.0
 11
229.0051490425
 21
119.8965160626
 31
0.0
  0
LINE
  5
124
330
1F
100
AcDbEntity
  8
0
  6
SLD-Durchgehend
 62
     7
370
    15
100
AcDbLine
 10
229.0051490425
 20
119.8965160626
 30
0.0
 11
229.0051490425
 21
108.4826498742
 31
0.0
  0
LINE
  5
125
330
1F
100
AcDbEntity
  8
0
  6
SLD-Durchgehend
 62
     7
370
    15
100
AcDbLine
 10
229.0051490425
 20
108.4826498742
 30
0.0
 11
215.0744557738
 21
88.5875596183
 31
0.0
  0
ARC
  5
126
330
1F
100
AcDbEntity
  8
0
  6
SLD-Durchgehend
 62
     7
370
    15
100
AcDbCircle
 10
215.1955375899
 20
121.5279349904
 30
0.0
 40
1.562328663864819
100
AcDbArc
 50
285.390683352
 51
303.3493352749
  0
LINE
  5
127
330
1F
100
AcDbEntity
  8
0
  6
SLD-Durchgehend
 62
     7
370
    15
100
AcDbLine
 10
216.0544157385
 20
120.2228682566
 30
0.0
 11
218.9396866023
 21
120.3740796524
 31
0.0
  0
LINE
  5
128
330
1F
100
AcDbEntity
  8
0
  6
SLD-Durchgehend
 62
     7
370
    15
100
AcDbLine
 10
216.7932562887
 20
122.7650193947
 30
0.0
 11
220.3912496924
 21
122.9535824138
 31
0.0
  0
LINE
  5
129
330
1F
100
AcDbEntity
  8
0
  6
SLD-Durchgehend
 62
     7
370
    15
100
AcDbLine
 10
216.8235764264
 20
123.0334172475
 30
0.0
 11
216.7932562887
 21
122.7650193947
 31
0.0
  0
LINE
  5
12A
330
1F
100
AcDbEntity
  8
0
  6
SLD-Durchgehend
 62
     7
370
    15
100
AcDbLine
 10
215.2378209292
 20
119.9758777845
 30
0.0
 11
215.6101785957
 21
120.0216336626
 31
0.0
  0
LWPOLYLINE
  5
12B
330
1F
100
AcDbEntity
  8
0
  6
SLD-Durchgehend
 62
     7
370
    15
100
AcDbPolyline
 90
        3
 70
   128
 43
0.0
 10
216.8603264152
 20
122.7685360688
 10
216.804104334
 20
122.5542555082
 10
216.2037477254
 20
120.2591916996
  0
ARC
  5
12C
330
1F
100
AcDbEntity
  8
0
  6
SLD-Gestrichelt
 62
     7
370
     0
100
AcDbCircle
 10
204.9929881954
 20
100.8753898222
 30
0.0
 40
1.86715941426959
100
AcDbArc
 50
318.146173109
 51
115.5300097744
  0
ARC
  5
12D
330
1F
100
AcDbEntity
  8
0
  6
SLD-Gestrichelt
 62
     7
370
     0
100
AcDbCircle
 10
204.8723267409
 20
100.7680282076
 30
0.0
 40
1.892216147865432
100
AcDbArc
 50
143.6596859338
 51
323.0112309616
  0
LWPOLYLINE
  5
12E
330
1F
100
AcDbEntity
  8
0
  6
SLD-Gestrichelt
 62
     7
370
     0
100
AcDbPolyline
 90
       32
 70
   128
 43
0.0
 10
206.8222113311
 20
99.2416426058
 10
207.1091071128
 20
99.6541756655
 10
207.3081512361
 20
100.1111670381
 10
207.4111946284
 20
100.5939078501
 10
207.4140202611
 20
101.0826345052
 10
207.3165107875
 20
101.5573382362
 10
207.1226597189
 20
101.9985847858
 10
206.8404019236
 20
102.3883095228
 10
206.481293252
 20
102.7105569125
 10
206.0600374251
 20
102.9521341885
 10
205.5938769489
 20
103.1031511708
 10
205.1019020735
 20
103.1574251871
 10
204.6042479932
 20
103.1127342182
 10
204.1212939083
 20
102.9709079636
 10
203.6728099345
 20
102.7377528123
 10
203.2771561652
 20
102.4228140929
 10
202.950532025
 20
102.0389855591
 10
202.7063094436
 20
101.6019810674
 10
202.5544871002
 20
101.1296916737
 10
202.5012806415
 20
100.6414530317
 10
202.5488656371
 20
100.1572535357
 10
202.6952974855
 20
99.6969166196
 10
202.934580332
 20
99.2792885269
 10
203.256916663
 20
98.9214664775
 10
203.6491115003
 20
98.6381004083
 10
204.0951069801
 20
98.4407908733
 10
204.5766454547
 20
98.3376156989
 10
205.0740126877
 20
98.3327998298
 10
205.5668443798
 20
98.4265393096
 10
206.0349662214
 20
98.6149966235
 10
206.4592115938
 20
98.8904571611
 10
206.8222113311
 20
99.2416426058
  0
LWPOLYLINE
  5
12F
330
1F
100
AcDbEntity
  8
0
  6
SLD-Gestrichelt
 62
     7
370
     0
100
AcDbPolyline
 90
       32
 70
   128
 43
0.0
 10
207.1260962992
 20
98.7955903153
 10
207.412992081
 20
99.208123375
 10
207.6120362043
 20
99.6651149805
 10
207.7150795966
 20
100.1478557925
 10
207.7179052293
 20
100.6365822147
 10
207.6203957557
 20
101.1112859457
 10
207.4265428244
 20
101.5525326117
 10
207.1442850291
 20
101.9422572323
 10
206.7851782202
 20
102.264504622
 10
206.3639205306
 20
102.5060819563
 10
205.897761917
 20
102.6570989385
 10
205.4057851791
 20
102.7113729257
 10
204.9081329613
 20
102.6666819568
 10
204.4251788764
 20
102.5248557313
 10
203.9766949027
 20
102.2917005218
 10
203.5810411333
 20
101.9767619188
 10
203.2544169932
 20
101.5929332686
 10
203.0101944118
 20
101.1559288933
 10
202.8583720683
 20
100.6836393832
 10
202.805163747
 20
100.1954007412
 10
202.8527506053
 20
99.7112014781
 10
202.9991824537
 20
99.2508645619
 10
203.2384653001
 20
98.8332362364
 10
203.5608016311
 20
98.475414187
 10
203.9529964685
 20
98.1920481178
 10
204.3989919483
 20
97.9947385828
 10
204.8805304229
 20
97.8915634084
 10
205.3778957932
 20
97.8867475393
 10
205.870729348
 20
97.9804870191
 10
206.3388493269
 20
98.168944333
 10
206.7630946993
 20
98.4444048706
 10
207.1260962992
 20
98.7955903153
  0
LWPOLYLINE
  5
130
330
1F
100
AcDbEntity
  8
0
  6
SLD-Gestrichelt
 62
     7
370
     0
100
AcDbPolyline
 90
       29
 70
   128
 43
0.0
 10
207.3533911615
 20
98.2159244346
 10
207.6034717619
 20
98.5836748484
 10
207.7664383113
 20
98.9930958937
 10
207.8341193854
 20
99.4236584271
 10
207.8031231075
 20
99.8537718303
 10
207.6750029235
 20
100.2618683021
 10
207.4561849593
 20
100.6274845901
 10
207.1576383322
 20
100.932286911
 10
206.7943349838
 20
101.1609910971
 10
206.3844934463
 20
101.3021290752
 10
205.948662421
 20
101.3486237249
 10
205.5087000488
 20
101.2981434803
 10
205.0866637736
 20
101.1532196759
 10
204.7037188321
 20
100.921119422
 10
204.3790672331
 20
100.613480991
 10
204.1289884954
 20
100.245731043
 10
203.966021946
 20
99.8363097648
 10
203.8983408719
 20
99.4057472314
 10
203.9293371498
 20
98.9756340611
 10
204.0574554711
 20
98.5675373564
 10
204.2762752979
 20
98.2019210684
 10
204.5748219251
 20
97.8971187475
 10
204.9381252735
 20
97.6684147942
 10
205.347966811
 20
97.5272765833
 10
205.7837978362
 20
97.4807817007
 10
206.2237602084
 20
97.5312621783
 10
206.6457964837
 20
97.6761857498
 10
207.0287414252
 20
97.9082862365
 10
207.3533911615
 20
98.2159244346
  0
LWPOLYLINE
  5
131
330
1F
100
AcDbEntity
  8
0
  6
SLD-Gestrichelt
 62
     7
370
     0
100
AcDbPolyline
 90
       29
 70
   128
 43
0.0
 10
206.6335682183
 20
99.2725075672
 10
206.883646956
 20
99.6402577481
 10
207.0466135054
 20
100.0496790263
 10
207.1142964422
 20
100.4802413269
 10
207.0833001643
 20
100.91035473
 10
206.9551799803
 20
101.3184514347
 10
206.7363601535
 20
101.6840676063
 10
206.4378135263
 20
101.9888698108
 10
206.0745120405
 20
102.2175739969
 10
205.6646686404
 20
102.3587120914
 10
205.2288394778
 20
102.4052067411
 10
204.788875243
 20
102.3547264964
 10
204.3668408304
 20
102.2098026921
 10
203.9838958889
 20
101.9777023218
 10
203.6592442899
 20
101.6700640072
 10
203.4091655522
 20
101.3023139427
 10
203.2461990028
 20
100.8928926646
 10
203.178516066
 20
100.4623301311
 10
203.2095123439
 20
100.0322169608
 10
203.3376325279
 20
99.6241202562
 10
203.5564523547
 20
99.258504201
 10
203.8549989819
 20
98.9537018801
 10
204.2183004677
 20
98.7249974611
 10
204.6281438678
 20
98.5838592502
 10
205.0639730304
 20
98.5373648333
 10
205.5039372652
 20
98.5878453108
 10
205.9259716778
 20
98.7327688823
 10
206.3089166193
 20
98.9648693691
 10
206.6335682183
 20
99.2725075672
  0
LWPOLYLINE
  5
132
330
1F
100
AcDbEntity
  8
0
  6
SLD-Gestrichelt
 62
     7
370
     0
100
AcDbPolyline
 90
       32
 70
   128
 43
0.0
 10
207.2459128111
 20
98.6197179633
 10
207.5328085928
 20
99.0322514887
 10
207.7318527161
 20
99.4892430942
 10
207.8348961084
 20
99.9719836733
 10
207.8377217411
 20
100.4607103284
 10
207.7402122676
 20
100.9354140594
 10
207.5463611989
 20
101.3766604926
 10
207.2641034036
 20
101.7663852296
 10
206.9049947321
 20
102.0886326193
 10
206.4837389051
 20
102.3302098953
 10
206.0175784289
 20
102.4812268776
 10
205.5256035536
 20
102.5355008648
 10
205.0279494732
 20
102.4908099541
 10
204.5449953883
 20
102.3489837286
 10
204.0965114146
 20
102.115828519
 10
203.7008576452
 20
101.8008899161
 10
203.3742335051
 20
101.4170612658
 10
203.1300109237
 20
100.9800567742
 10
202.9781885802
 20
100.5077674969
 10
202.9249821215
 20
100.0195288549
 10
202.9725671171
 20
99.5353295918
 10
203.1189989655
 20
99.07499221
 10
203.358281812
 20
98.6573638844
 10
203.680618143
 20
98.2995423007
 10
204.0728129803
 20
98.0161757658
 10
204.5188084602
 20
97.8188662308
 10
205.0003469347
 20
97.715691522
 10
205.4977141678
 20
97.7108751873
 10
205.9905458599
 20
97.8046151328
 10
206.4586677014
 20
97.9930724467
 10
206.8829130738
 20
98.2685325186
 10
207.2459128111
 20
98.6197179633
  0
LWPOLYLINE
  5
133
330
1F
100
AcDbEntity
  8
0
  6
SLD-Gestrichelt
 62
     7
370
     0
100
AcDbPolyline
 90
       31
 70
   128
 43
0.0
 10
207.00859133
 20
98.86965514
 10
207.2799917667
 20
99.262632754
 10
207.4647866546
 20
99.6986865981
 10
207.554895839
 20
100.1587587859
 10
207.5463854133
 20
100.6227425284
 10
207.4396241813
 20
101.0703589751
 10
207.2392799317
 20
101.4820452298
 10
206.9541070967
 20
101.8398088387
 10
206.5965704977
 20
102.1280135944
 10
206.1822958647
 20
102.3340638245
 10
205.7293881088
 20
102.4489538728
 10
205.2576415598
 20
102.46766263
 10
204.7876756995
 20
102.3893723947
 10
204.3400280534
 20
102.2175048462
 10
203.9342657088
 20
101.9595714503
 10
203.5881191849
 20
101.6268450518
 10
203.3167187481
 20
101.2338675543
 10
203.1319238602
 20
100.7978137101
 10
203.0418128132
 20
100.3377412896
 10
203.0503251015
 20
99.8737577799
 10
203.1570863336
 20
99.4261413331
 10
203.3574305832
 20
99.0144548456
 10
203.6426034182
 20
98.6566914695
 10
204.0001400172
 20
98.3684867139
 10
204.4144146501
 20
98.1624362509
 10
204.8673224061
 20
98.0475464354
 10
205.3390670925
 20
98.0288375619
 10
205.8090348154
 20
98.1071277971
 10
206.2566805988
 20
98.278995462
 10
206.662444806
 20
98.5369289744
 10
207.00859133
 20
98.86965514
  0
LWPOLYLINE
  5
134
330
1F
100
AcDbEntity
  8
0
  6
SLD-Gestrichelt
 62
     7
370
     0
100
AcDbPolyline
 90
       32
 70
   128
 43
0.0
 10
207.3657311856
 20
98.443846077
 10
207.6526269674
 20
98.8563791367
 10
207.851669228
 20
99.3133707422
 10
207.9547144829
 20
99.7961115542
 10
207.957538253
 20
100.2848382092
 10
207.8600306421
 20
100.7595419402
 10
207.6661777108
 20
101.2007886062
 10
207.3839199155
 20
101.5905132269
 10
207.0248112439
 20
101.9127606166
 10
206.603555417
 20
102.1543378926
 10
206.1373968034
 20
102.3053548749
 10
205.6454200654
 20
102.3596288621
 10
205.1477678477
 20
102.3149379513
 10
204.6648137628
 20
102.1731117259
 10
204.2163279264
 20
101.9399565163
 10
203.8206760197
 20
101.6250177969
 10
203.4940518796
 20
101.2411893795
 10
203.2498292982
 20
100.8041848878
 10
203.0980069547
 20
100.3318953778
 10
203.0447986334
 20
99.8436567358
 10
203.0923854917
 20
99.3594572398
 10
203.2388173401
 20
98.8991203236
 10
203.4780983239
 20
98.4814919981
 10
203.8004365175
 20
98.1236699487
 10
204.1926313549
 20
97.8403038795
 10
204.6386268347
 20
97.6429943445
 10
205.1201653092
 20
97.5398196357
 10
205.6175306796
 20
97.535003301
 10
206.1103623717
 20
97.6287427808
 10
206.5784842133
 20
97.8172005604
 10
207.0027295857
 20
98.0926606323
 10
207.3657311856
 20
98.443846077
  0
LWPOLYLINE
  5
135
330
1F
100
AcDbEntity
  8
0
  6
SLD-Gestrichelt
 62
     7
370
     0
100
AcDbPolyline
 90
       31
 70
   128
 43
0.0
 10
207.1284078418
 20
98.6937832537
 10
207.3998101413
 20
99.0867608677
 10
207.5846031665
 20
99.522814479
 10
207.6747142135
 20
99.9828868995
 10
207.6662019252
 20
100.4468704092
 10
207.5594406932
 20
100.894486856
 10
207.3590964436
 20
101.3061731107
 10
207.0739236086
 20
101.663936836
 10
206.7163870095
 20
101.9521415916
 10
206.3021123766
 20
102.1581917054
 10
205.8492046206
 20
102.2730818701
 10
205.3774599343
 20
102.2917906272
 10
204.907494074
 20
102.213500392
 10
204.459846428
 20
102.0416328435
 10
204.0540822207
 20
101.7836994476
 10
203.7079356968
 20
101.4509730491
 10
203.43653526
 20
101.0579954351
 10
203.2517422348
 20
100.621941591
 10
203.1616311877
 20
100.1618694033
 10
203.1701416134
 20
99.6978856607
 10
203.2769028454
 20
99.2502694468
 10
203.477247095
 20
98.8385829593
 10
203.76241993
 20
98.4808195832
 10
204.1199565291
 20
98.1926143619
 10
204.5342330246
 20
97.9865643646
 10
204.987138918
 20
97.8716745491
 10
205.458885467
 20
97.8529656756
 10
205.9288513272
 20
97.9312559108
 10
206.3764989733
 20
98.1031235757
 10
206.7822613179
 20
98.3610566224
 10
207.1284078418
 20
98.6937832537
  0
LWPOLYLINE
  5
136
330
1F
100
AcDbEntity
  8
0
  6
SLD-Gestrichelt
 62
     7
370
     0
100
AcDbPolyline
 90
       32
 70
   128
 43
0.0
 10
207.4855476975
 20
98.2679741907
 10
207.7724434792
 20
98.6805072504
 10
207.9714876025
 20
99.1374988559
 10
208.0745309948
 20
99.6202396679
 10
208.0773566275
 20
100.1089660901
 10
207.9798471539
 20
100.5836698211
 10
207.7859960853
 20
101.0249164871
 10
207.50373829
 20
101.4146412241
 10
207.1446296185
 20
101.7368884974
 10
206.7233719289
 20
101.9784658899
 10
206.2572133153
 20
102.1294828721
 10
205.7652365773
 20
102.1837568593
 10
205.2675843596
 20
102.1390658322
 10
204.7846302747
 20
101.9972396067
 10
204.336146301
 20
101.7640845136
 10
203.9404925316
 20
101.4491457942
 10
203.6138683914
 20
101.0653172604
 10
203.3696458101
 20
100.6283127687
 10
203.2178234666
 20
100.1560234915
 10
203.1646151453
 20
99.6677846166
 10
203.2122020035
 20
99.1835853535
 10
203.3586338519
 20
98.7232484373
 10
203.5979166984
 20
98.3056201118
 10
203.9202530294
 20
97.9477980624
 10
204.3124478667
 20
97.6644319932
 10
204.7584433465
 20
97.4671224582
 10
205.2399818211
 20
97.3639477494
 10
205.7373490541
 20
97.3591314147
 10
206.2301807462
 20
97.4528708945
 10
206.6983007251
 20
97.6413286741
 10
207.1225479602
 20
97.916788746
 10
207.4855476975
 20
98.2679741907
  0
LWPOLYLINE
  5
137
330
1F
100
AcDbEntity
  8
0
  6
SLD-Gestrichelt
 62
     7
370
     0
100
AcDbPolyline
 90
       31
 70
   128
 43
0.0
 10
207.2482262164
 20
98.5179109017
 10
207.5196266531
 20
98.9108885157
 10
207.7044196784
 20
99.3469425927
 10
207.7945307254
 20
99.8070147804
 10
207.7860202997
 20
100.2709982901
 10
207.6792590677
 20
100.7186147369
 10
207.4789129554
 20
101.1303012243
 10
207.1937419831
 20
101.4880648333
 10
206.8362053841
 20
101.7762695889
 10
206.4219288885
 20
101.9823197027
 10
205.9690229952
 20
102.097209751
 10
205.4972764461
 20
102.1159185081
 10
205.0273105859
 20
102.0376283892
 10
204.5796629398
 20
101.8657608408
 10
204.1738987326
 20
101.6078274448
 10
203.8277540713
 20
101.2751009299
 10
203.5563517719
 20
100.8821235488
 10
203.3715587466
 20
100.4460697046
 10
203.2814476996
 20
99.9859972841
 10
203.2899599879
 20
99.5220135416
 10
203.3967212199
 20
99.0743970948
 10
203.5970654695
 20
98.662711073
 10
203.8822383045
 20
98.3049472312
 10
204.2397749036
 20
98.0167424756
 10
204.6540495365
 20
97.8106924783
 10
205.1069572925
 20
97.6958021971
 10
205.5787019788
 20
97.6770937893
 10
206.0486678391
 20
97.7553835589
 10
206.4963154852
 20
97.9272512238
 10
206.9020796924
 20
98.1851847361
 10
207.2482262164
 20
98.5179109017
  0
LWPOLYLINE
  5
138
330
1F
100
AcDbEntity
  8
0
  6
SLD-Gestrichelt
 62
     7
370
     0
100
AcDbPolyline
 90
       32
 70
   128
 43
0.0
 10
207.605366072
 20
98.0921023044
 10
207.8922599911
 20
98.5046353641
 10
208.0913041144
 20
98.9616269696
 10
208.1943493693
 20
99.4443677816
 10
208.1971731394
 20
99.9330942038
 10
208.0996636658
 20
100.4077979348
 10
207.9058125972
 20
100.849044368
 10
207.6235548019
 20
101.238769105
 10
207.2644461303
 20
101.5610164947
 10
206.8431903034
 20
101.8025937707
 10
206.3770316898
 20
101.953610753
 10
205.8850549518
 20
102.0078847402
 10
205.3874027341
 20
101.9631938295
 10
204.9044467866
 20
101.821367604
 10
204.4559628128
 20
101.5882123944
 10
204.0603109061
 20
101.2732736751
 10
203.733686766
 20
100.8894451412
 10
203.4894641846
 20
100.4524406496
 10
203.3376399785
 20
99.9801513723
 10
203.2844335198
 20
99.4919127303
 10
203.3320185154
 20
99.0077134672
 10
203.4784503638
 20
98.5473760854
 10
203.7177332103
 20
98.1297477598
 10
204.0400695413
 20
97.7719261761
 10
204.4322643786
 20
97.4885596412
 10
204.8782617211
 20
97.2912505719
 10
205.3598001956
 20
97.1880753974
 10
205.857165566
 20
97.1832590627
 10
206.3499972581
 20
97.2769990082
 10
206.8181190997
 20
97.4654563221
 10
207.2423644721
 20
97.7409168596
 10
207.605366072
 20
98.0921023044
  0
LWPOLYLINE
  5
139
330
1F
100
AcDbEntity
  8
0
  6
SLD-Gestrichelt
 62
     7
370
     0
100
AcDbPolyline
 90
       31
 70
   128
 43
0.0
 10
207.3680427282
 20
98.3420390154
 10
207.639443165
 20
98.7350166294
 10
207.8242380529
 20
99.1710702407
 10
207.9143472373
 20
99.6311428941
 10
207.9058368116
 20
100.0951264038
 10
207.7990755796
 20
100.5427428505
 10
207.59873133
 20
100.9544291052
 10
207.313558495
 20
101.3121927141
 10
206.9560218959
 20
101.6003975862
 10
206.541747263
 20
101.8064476999
 10
206.088839507
 20
101.9213377482
 10
205.6170948207
 20
101.9400465054
 10
205.1471270978
 20
101.8617562701
 10
204.6994813143
 20
101.6898887216
 10
204.2937171071
 20
101.4319554421
 10
203.9475705832
 20
101.0992290436
 10
203.6761701464
 20
100.7062514297
 10
203.4913752585
 20
100.2701975855
 10
203.4012660741
 20
99.810125165
 10
203.4097764998
 20
99.3461416553
 10
203.5165377318
 20
98.8985252085
 10
203.7168819814
 20
98.486838721
 10
204.0020548164
 20
98.1290753449
 10
204.3595914155
 20
97.8408705893
 10
204.7738660484
 20
97.6348205919
 10
205.2267738044
 20
97.5199303108
 10
205.6985203534
 20
97.5012214373
 10
206.1684862136
 20
97.5795116725
 10
206.6161338597
 20
97.7513793374
 10
207.0218962043
 20
98.0093128498
 10
207.3680427282
 20
98.3420390154
  0
ARC
  5
13A
330
1F
100
AcDbEntity
  8
0
  6
SLD-Gestrichelt
 62
     7
370
     0
100
AcDbCircle
 10
205.9513627689
 20
99.5249189769
 30
0.0
 40
2.352684586113636
100
AcDbArc
 50
318.0408954645
 51
110.448675572
  0
ARC
  5
13B
330
1F
100
AcDbEntity
  8
0
  6
SLD-Gestrichelt
 62
     7
370
     0
100
AcDbCircle
 10
205.7999779364
 20
99.4019563786
 30
0.0
 40
2.390819630576393
100
AcDbArc
 50
127.6890588497
 51
322.662833484
  0
LWPOLYLINE
  5
13C
330
1F
100
AcDbEntity
  8
0
  6
SLD-Gestrichelt
 62
     7
370
     0
100
AcDbPolyline
 90
       31
 70
   128
 43
0.0
 10
207.6210812091
 20
98.0001444447
 10
207.8995615601
 20
98.4033735919
 10
208.0891769736
 20
98.8508028428
 10
208.1816368162
 20
99.3228772174
 10
208.1729047357
 20
99.7989644281
 10
208.0633588492
 20
100.2582580301
 10
207.8577880173
 20
100.680683831
 10
207.5651757776
 20
101.0477804563
 10
207.1983110517
 20
101.3435037791
 10
206.7732293516
 20
101.5549290211
 10
206.3085068374
 20
101.6728161818
 10
205.8244556545
 20
101.6920130684
 10
205.3422298639
 20
101.6116804427
 10
204.8829034328
 20
101.435329391
 10
204.4665556758
 20
101.1706673059
 10
204.1113790482
 20
100.8292612138
 10
203.8328986972
 20
100.4260320666
 10
203.6432832836
 20
99.9786028157
 10
203.5508215784
 20
99.5065284411
 10
203.5595555215
 20
99.0304409976
 10
203.669101408
 20
98.5711476284
 10
203.8746722399
 20
98.1487215946
 10
204.1672844797
 20
97.781625435
 10
204.5341492056
 20
97.4859021123
 10
204.9592309057
 20
97.274476521
 10
205.4239534198
 20
97.1565892438
 10
205.9080046027
 20
97.1373928229
 10
206.3902303933
 20
97.2177249829
 10
206.8495568245
 20
97.3940760347
 10
207.2659045815
 20
97.6587383526
 10
207.6210812091
 20
98.0001444447
  0
CIRCLE
  5
13D
330
1F
100
AcDbEntity
  8
0
  6
SLD-Gestrichelt
 62
     7
370
     0
100
AcDbCircle
 10
227.4646645942
 20
125.2861959347
 30
0.0
 40
2.199999999999994
  0
LINE
  5
13E
330
1F
100
AcDbEntity
  8
0
  6
SLD-Gestrichelt
 62
     7
370
     0
100
AcDbLine
 10
224.9911487459
 20
129.3950936276
 30
0.0
 11
219.5884086549
 21
120.7489053237
 31
0.0
  0
LINE
  5
13F
330
1F
100
AcDbEntity
  8
0
  6
SLD-Gestrichelt
 62
     7
370
     0
100
AcDbLine
 10
219.6777783691
 20
120.5971910137
 30
0.0
 11
229.8592016458
 21
121.130775519
 31
0.0
  0
LINE
  5
140
330
1F
100
AcDbEntity
  8
0
  6
SLD-Gestrichelt
 62
     7
370
     0
100
AcDbLine
 10
235.2515519022
 20
129.9752014208
 30
0.0
 11
225.0701249003
 21
129.4416150528
 31
0.0
  0
LINE
  5
141
330
1F
100
AcDbEntity
  8
0
  6
SLD-Gestrichelt
 62
     7
370
     0
100
AcDbLine
 10
229.9381815254
 20
121.1772988069
 30
0.0
 11
235.3409178912
 21
129.8234852481
 31
0.0
  0
ARC
  5
142
330
1F
100
AcDbEntity
  8
0
  6
SLD-Gestrichelt
 62
     7
370
     0
100
AcDbCircle
 10
225.075274141
 20
129.3425767025
 30
0.0
 40
0.0991721205869465
100
AcDbArc
 50
92.976264722
 51
148.0247210477
  0
ARC
  5
143
330
1F
100
AcDbEntity
  8
0
  6
SLD-Gestrichelt
 62
     7
370
     0
100
AcDbCircle
 10
229.8540508812
 20
121.22982109
 30
0.0
 40
0.0991794107450253
100
AcDbArc
 50
272.9769272749
 51
328.02370114
  0
ARC
  5
144
330
1F
100
AcDbEntity
  8
0
  6
SLD-Gestrichelt
 62
     7
370
     0
100
AcDbCircle
 10
219.6715314635
 20
120.6956906521
 30
0.0
 40
0.0986975308424877
100
AcDbArc
 50
147.3728974135
 51
273.6288722906
  0
ARC
  5
145
330
1F
100
AcDbEntity
  8
0
  6
SLD-Gestrichelt
 62
     7
370
     0
100
AcDbCircle
 10
235.2578012681
 20
129.8767046192
 30
0.0
 40
0.0986948554468644
100
AcDbArc
 50
327.3686635921
 51
93.6304019489
  0
CIRCLE
  5
146
330
1F
100
AcDbEntity
  8
0
  6
SLD-Gestrichelt
 62
     7
370
     0
100
AcDbCircle
 10
227.3541552897
 20
125.2211009796
 30
0.0
 40
1.999999999999978
  0
CIRCLE
  5
147
330
1F
100
AcDbEntity
  8
0
  6
SLD-Gestrichelt
 62
     7
370
     0
100
AcDbCircle
 10
227.3541552897
 20
125.2211009796
 30
0.0
 40
1.899999999999995
  0
LINE
  5
148
330
1F
100
AcDbEntity
  8
0
  6
SLD-Gestrichelt
 62
     7
370
     0
100
AcDbLine
 10
194.9699888363
 20
119.5927167761
 30
0.0
 11
194.9699888363
 21
115.3313078436
 31
0.0
  0
LINE
  5
149
330
1F
100
AcDbEntity
  8
0
  6
SLD-Gestrichelt
 62
     7
370
     0
100
AcDbLine
 10
200.9551491945
 20
116.3587103116
 30
0.0
 11
200.9551491945
 21
115.3313078436
 31
0.0
  0
LWPOLYLINE
  5
14A
330
1F
100
AcDbEntity
  8
0
  6
SLD-Gestrichelt
 62
     7
370
     0
100
AcDbPolyline
 90
       20
 70
   128
 43
0.0
 10
205.9715599179
 20
96.8452821004
 10
205.1410325228
 20
96.9740272018
 10
204.403954035
 20
97.351346955
 10
203.8492750733
 20
97.935307164
 10
203.5303175806
 20
98.6685420836
 10
203.4813505023
 20
99.4749421704
 10
203.7093438565
 20
100.262944911
 10
204.1902061909
 20
100.9397495988
 10
204.8697904109
 20
101.423221499
 10
205.6702565759
 20
101.6570864928
 10
206.5091994017
 20
101.6182311329
 10
207.3074285298
 20
101.3053914982
 10
207.9728566467
 20
100.7402998845
 10
208.4040515482
 20
99.9961938693
 10
208.5436549395
 20
99.1944203603
 10
208.4040031194
 20
98.435506549
 10
208.0166604727
 20
97.7707918252
 10
207.404451853
 20
97.2443580146
 10
206.6113580375
 20
96.9195797558
 10
205.9715599179
 20
96.8452821004
  0
LINE
  5
14B
330
1F
100
AcDbEntity
  8
0
  6
SLD-Gestrichelt
 62
     7
370
     0
100
AcDbLine
 10
172.6541402175
 20
88.7825524884
 30
0.0
 11
172.4551817759
 21
88.7568740624
 31
0.0
  0
LWPOLYLINE
  5
14C
330
1F
100
AcDbEntity
  8
0
  6
SLD-Gestrichelt
 62
     7
370
     0
100
AcDbPolyline
 90
        3
 70
   128
 43
0.0
 10
173.0116526022
 20
88.8202207613
 10
172.9987109437
 20
88.8192149329
 10
172.6541402175
 20
88.7825524884
  0
LWPOLYLINE
  5
14D
330
1F
100
AcDbEntity
  8
0
  6
SLD-Gestrichelt
 62
     7
370
     0
100
AcDbPolyline
 90
        3
 70
   128
 43
0.0
 10
172.6540219396
 20
118.1800475794
 10
172.999462521
 20
118.1434540528
 10
173.0057778194
 20
118.1429632458
  0
LWPOLYLINE
  5
14E
330
1F
100
AcDbEntity
  8
0
  6
SLD-Gestrichelt
 62
     7
370
     0
100
AcDbPolyline
 90
        3
 70
   128
 43
0.0
 10
172.2399410217
 20
118.235364415
 10
172.3951775938
 20
118.2129288542
 10
172.6540219396
 20
118.1800475794
  0
LWPOLYLINE
  5
14F
330
1F
100
AcDbEntity
  8
0
  6
SLD-Gestrichelt
 62
     7
370
     0
100
AcDbPolyline
 90
        3
 70
   128
 43
0.0
 10
202.8558183818
 20
105.2890224134
 10
202.2280473619
 20
104.8049247808
 10
201.8112060039
 20
104.458476974
  0
LWPOLYLINE
  5
150
330
1F
100
AcDbEntity
  8
0
  6
SLD-Gestrichelt
 62
     7
370
     0
100
AcDbPolyline
 90
       19
 70
   128
 43
0.0
 10
199.3050132304
 20
105.9825249
 10
199.4013753145
 20
106.8102888281
 10
199.6196661501
 20
107.3294497079
 10
199.7848958134
 20
107.5567452687
 10
199.9566503226
 20
107.7143986228
 10
200.1464799403
 20
107.8275724764
 10
200.5107518642
 20
107.9416012841
 10
201.4036052286
 20
107.9462821114
 10
202.1566503107
 20
107.7445148009
 10
202.678403294
 20
107.4793151098
 10
203.0559633284
 20
107.1864288284
 10
203.3477317899
 20
106.8406732271
 10
203.5084370881
 20
106.5164186045
 10
203.5726070761
 20
106.0920428469
 10
203.4135241418
 20
105.5919619727
 10
203.2125894337
 20
105.3623998056
 10
202.9745228945
 20
105.2281412746
 10
202.8851904332
 20
105.2370955919
 10
202.8558183818
 20
105.2890224134
  0
LWPOLYLINE
  5
151
330
1F
100
AcDbEntity
  8
0
  6
SLD-Gestrichelt
 62
     7
370
     0
100
AcDbPolyline
 90
       23
 70
   128
 43
0.0
 10
199.3050132304
 20
105.9825249
 10
199.1025492906
 20
106.3572902682
 10
198.9469234257
 20
106.7021110545
 10
198.8456942498
 20
107.0002341627
 10
198.8037810086
 20
107.2371749657
 10
198.8232195734
 20
107.4014220837
 10
198.903065583
 20
107.4849947806
 10
199.0394410103
 20
107.4838334213
 10
199.2257185637
 20
107.3979938853
 10
199.4528495132
 20
107.2316468677
 10
199.7097958236
 20
106.9928743861
 10
199.9840759098
 20
106.6932774599
 10
200.2623625457
 20
106.3474117297
 10
200.5311366528
 20
105.9720817472
 10
200.7773373633
 20
105.5855230412
 10
200.9890046328
 20
105.2065163136
 10
201.1558547973
 20
104.8534760236
 10
201.2697797626
 20
104.543554921
 10
201.3252456098
 20
104.2918104546
 10
201.3195570915
 20
104.1104739167
 10
201.2529917418
 20
104.0083554441
 10
201.12878125
 20
103.9904166579
 10
200.9529624491
 20
104.0575290432
  0
ARC
  5
152
330
1F
100
AcDbEntity
  8
0
  6
SLD-Gestrichelt
 62
     7
370
     0
100
AcDbCircle
 10
200.9916966863
 20
105.0936416653
 30
0.0
 40
1.036836393423324
100
AcDbArc
 50
267.85904037
 51
322.2223514656
  0
LWPOLYLINE
  5
153
330
1F
100
AcDbEntity
  8
0
  6
SLD-Gestrichelt
 62
     7
370
     0
100
AcDbPolyline
 90
       14
 70
   128
 43
0.0
 10
200.9529624491
 20
104.0575290432
 10
200.822838059
 20
104.1256700743
 10
200.6416157245
 20
104.22369422
 10
200.469106844
 20
104.3181878382
 10
200.377867034
 20
104.366580989
 10
200.2964731663
 20
104.4075219876
 10
200.2124809086
 20
104.4478974406
 10
200.0441201388
 20
104.5330051317
 10
199.573832041
 20
104.9300610072
 10
199.4023625164
 20
105.1892995353
 10
199.2823709159
 20
105.4744439649
 10
199.2394462585
 20
105.7203245333
 10
199.2741287111
 20
105.9232082668
 10
199.3050132304
 20
105.9825249
  0
LWPOLYLINE
  5
154
330
1F
100
AcDbEntity
  8
0
  6
SLD-Gestrichelt
 62
     7
370
     0
100
AcDbPolyline
 90
        9
 70
   128
 43
0.0
 10
176.8293254434
 20
90.8084976005
 10
176.2618705987
 20
90.8776632029
 10
175.5507429487
 20
90.9286112043
 10
174.7825908832
 20
90.9384990561
 10
174.0488516524
 20
90.9040661979
 10
173.4180235661
 20
90.8404428962
 10
172.9562351837
 20
90.7742016467
 10
172.7253556608
 20
90.734937087
 10
172.7359233781
 20
90.7368164959
  0
ARC
  5
155
330
1F
100
AcDbEntity
  8
0
  6
SLD-Gestrichelt
 62
     7
370
     0
100
AcDbCircle
 10
175.0036769633
 20
128.8133261043
 30
0.0
 40
12.79017428301061
100
AcDbArc
 50
259.7872147634
 51
278.2063343813
  0
LWPOLYLINE
  5
156
330
1F
100
AcDbEntity
  8
0
  6
SLD-Gestrichelt
 62
     7
370
     0
100
AcDbPolyline
 90
        3
 70
   128
 43
0.0
 10
176.8293254434
 20
116.1541173684
 10
177.1876960418
 20
116.1977638009
 10
177.3000214606
 20
116.208143391
  0
LWPOLYLINE
  5
157
330
1F
100
AcDbEntity
  8
0
  6
SLD-Gestrichelt
 62
     7
370
     0
100
AcDbPolyline
 90
        4
 70
   128
 43
0.0
 10
177.3000740803
 20
90.7544669214
 10
177.3049374468
 20
90.7540180239
 10
177.1662143882
 20
90.7670202184
 10
176.8293254434
 20
90.8084976005
  0
LINE
  5
158
330
1F
100
AcDbEntity
  8
0
  6
SLD-Gestrichelt
 62
     7
370
     0
100
AcDbLine
 10
169.0077981337
 20
92.9813076261
 30
0.0
 11
169.0077981337
 21
113.9813073429
 31
0.0
  0
LWPOLYLINE
  5
159
330
1F
100
AcDbEntity
  8
0
  6
SLD-Gestrichelt
 62
     7
370
     0
100
AcDbPolyline
 90
       25
 70
   128
 43
0.0
 10
202.8565727531
 20
101.8039424422
 10
202.3658607512
 20
101.8757353055
 10
201.6958430766
 20
102.1888091679
 10
201.0917481392
 20
102.7214339453
 10
200.7216200589
 20
103.2889740206
 10
200.5516052603
 20
103.810955629
 10
200.5370580017
 20
104.3464501605
 10
200.6622147172
 20
104.7788142211
 10
200.9898111581
 20
105.2387553251
 10
201.6357541441
 20
105.6474825352
 10
202.0260099678
 20
105.7692019719
 10
202.474113962
 20
105.8421201057
 10
202.8937232106
 20
105.8606499325
 10
203.3098046093
 20
105.831273923
 10
203.7719827502
 20
105.7175997163
 10
204.3018866687
 20
105.387453547
 10
204.6594195425
 20
104.8427823449
 10
204.7801003217
 20
104.3071047504
 10
204.7502272188
 20
103.7118338324
 10
204.5838408529
 20
103.1480456046
 10
204.2766347884
 20
102.6044069774
 10
203.7785392611
 20
102.108035561
 10
203.3444423585
 20
101.8839691284
 10
202.9504891842
 20
101.8067594602
 10
202.8565727531
 20
101.8039424422
  0
ARC
  5
15A
330
1F
100
AcDbEntity
  8
0
  6
SLD-Gestrichelt
 62
     7
370
     0
100
AcDbCircle
 10
201.0291851641
 20
106.5142573582
 30
0.0
 40
2.199497574976434
100
AcDbArc
 50
290.8268630882
 51
326.1478186994
  0
LINE
  5
15B
330
1F
100
AcDbEntity
  8
0
  6
SLD-Gestrichelt
 62
     7
370
     0
100
AcDbLine
 10
187.1745236575
 20
92.9813076261
 30
0.0
 11
187.1745236575
 21
113.9813073429
 31
0.0
  0
LINE
  5
15C
330
1F
100
AcDbEntity
  8
0
  6
SLD-Gestrichelt
 62
     7
370
     0
100
AcDbLine
 10
188.9551490902
 20
93.60630703
 30
0.0
 11
188.9551490902
 21
113.356307939
 31
0.0
  0
LWPOLYLINE
  5
15D
330
1F
100
AcDbEntity
  8
0
  6
SLD-Gestrichelt
 62
     7
370
     0
100
AcDbPolyline
 90
        6
 70
   128
 43
0.0
 10
164.705148375
 20
113.5054974335
 10
164.6493677407
 20
113.4028787243
 10
164.4882060944
 20
113.3036416474
 10
164.2396919786
 20
113.2248852852
 10
163.9479495942
 20
113.1839368942
 10
163.8051480412
 20
113.1792132261
  0
LINE
  5
15E
330
1F
100
AcDbEntity
  8
0
  6
SLD-Gestrichelt
 62
     7
370
     0
100
AcDbLine
 10
163.8051480412
 20
113.1792132261
 30
0.0
 11
162.05514822
 21
113.1792132261
 31
0.0
  0
LINE
  5
15F
330
1F
100
AcDbEntity
  8
0
  6
SLD-Gestrichelt
 62
     7
370
     0
100
AcDbLine
 10
162.05514822
 20
93.7834017429
 30
0.0
 11
166.305148451
 21
93.7834017429
 31
0.0
  0
LWPOLYLINE
  5
160
330
1F
100
AcDbEntity
  8
0
  6
SLD-Gestrichelt
 62
     7
370
     0
100
AcDbPolyline
 90
        6
 70
   128
 43
0.0
 10
166.305148451
 20
93.7834017429
 10
166.5871790036
 20
93.7647119614
 10
166.8371348067
 20
93.7129788551
 10
167.0379950091
 20
93.6351798925
 10
167.1695582926
 20
93.5387032556
 10
167.2051487847
 20
93.4571175355
  0
LINE
  5
161
330
1F
100
AcDbEntity
  8
0
  6
SLD-Gestrichelt
 62
     7
370
     0
100
AcDbLine
 10
162.05514822
 20
93.7834017429
 30
0.0
 11
162.05514822
 21
113.1792132261
 31
0.0
  0
LINE
  5
162
330
1F
100
AcDbEntity
  8
0
  6
SLD-Gestrichelt
 62
     7
370
     0
100
AcDbLine
 10
164.705148375
 20
114.4813074249
 30
0.0
 11
164.705148375
 21
117.0388319048
 31
0.0
  0
LINE
  5
163
330
1F
100
AcDbEntity
  8
0
  6
SLD-Gestrichelt
 62
     7
370
     0
100
AcDbLine
 10
167.2051487847
 20
92.4813075441
 30
0.0
 11
167.2051487847
 21
89.8777310255
 31
0.0
  0
LINE
  5
164
330
1F
100
AcDbEntity
  8
0
  6
SLD-Gestrichelt
 62
     7
370
     0
100
AcDbLine
 10
162.05514822
 20
114.4813074249
 30
0.0
 11
162.05514822
 21
116.3468881029
 31
0.0
  0
LINE
  5
165
330
1F
100
AcDbEntity
  8
0
  6
SLD-Gestrichelt
 62
     7
370
     0
100
AcDbLine
 10
162.05514822
 20
92.4813075441
 30
0.0
 11
162.05514822
 21
90.7507723647
 31
0.0
  0
LINE
  5
166
330
1F
100
AcDbEntity
  8
0
  6
SLD-Gestrichelt
 62
     7
370
     0
100
AcDbLine
 10
196.8051478624
 20
97.2313073914
 30
0.0
 11
196.8051478624
 21
109.7313075776
 31
0.0
  0
LINE
  5
167
330
1F
100
AcDbEntity
  8
0
  6
SLD-Gestrichelt
 62
     7
370
     0
100
AcDbLine
 10
194.3051483839
 20
97.2313073914
 30
0.0
 11
194.3051483839
 21
109.7313075776
 31
0.0
  0
LINE
  5
168
330
1F
100
AcDbEntity
  8
0
  6
SLD-Gestrichelt
 62
     7
370
     0
100
AcDbLine
 10
189.4551482408
 20
97.9813075143
 30
0.0
 11
189.4551482408
 21
108.9813074547
 31
0.0
  0
LINE
  5
169
330
1F
100
AcDbEntity
  8
0
  6
SLD-Gestrichelt
 62
     7
370
     0
100
AcDbLine
 10
188.9551490902
 20
83.5063232559
 30
0.0
 11
188.9551490902
 21
86.5813082534
 31
0.0
  0
LINE
  5
16A
330
1F
100
AcDbEntity
  8
0
  6
SLD-Gestrichelt
 62
     7
370
     0
100
AcDbLine
 10
193.4551488965
 20
86.5813082534
 30
0.0
 11
188.9551490902
 21
86.5813082534
 31
0.0
  0
LINE
  5
16B
330
1F
100
AcDbEntity
  8
0
  6
SLD-Gestrichelt
 62
     7
370
     0
100
AcDbLine
 10
196.0003706052
 20
86.5813082534
 30
0.0
 11
193.4551488965
 21
86.5813082534
 31
0.0
  0
LINE
  5
16C
330
1F
100
AcDbEntity
  8
0
  6
SLD-Gestrichelt
 62
     7
370
     0
100
AcDbLine
 10
200.9551491945
 20
86.5813082534
 30
0.0
 11
198.0099253713
 21
86.5813082534
 31
0.0
  0
ELLIPSE
  5
16D
330
1F
100
AcDbEntity
  8
0
  6
SLD-Gestrichelt
 62
     7
370
     0
100
AcDbEllipse
 10
158.9993818856
 20
103.4813074845
 30
0.0
 11
12.26424774976738
 21
0.0
 31
0.0
210
0.0
220
0.0
230
1.0
 40
0.8164965809
 41
1.318982952866321
 42
1.39824167007061
  0
ELLIPSE
  5
16E
330
1F
100
AcDbEntity
  8
0
  6
SLD-Gestrichelt
 62
     7
370
     0
100
AcDbEllipse
 10
158.9993818856
 20
103.4813074845
 30
0.0
 11
12.26424774976738
 21
0.0
 31
0.0
210
0.0
220
0.0
230
1.0
 40
0.8164965809
 41
4.884943637108988
 42
4.964202354313278
  0
LINE
  5
16F
330
1F
100
AcDbEntity
  8
0
  6
SLD-Gestrichelt
 62
     7
370
     0
100
AcDbLine
 10
200.9552106618
 20
120.3813067156
 30
0.0
 11
197.796803376
 21
120.3813067156
 31
0.0
  0
LINE
  5
170
330
1F
100
AcDbEntity
  8
0
  6
SLD-Gestrichelt
 62
     7
370
     0
100
AcDbLine
 10
196.2134926005
 20
120.3813067156
 30
0.0
 11
193.4551488965
 21
120.3813067156
 31
0.0
  0
LINE
  5
171
330
1F
100
AcDbEntity
  8
0
  6
SLD-Gestrichelt
 62
     7
370
     0
100
AcDbLine
 10
193.4551488965
 20
120.3813067156
 30
0.0
 11
188.9551490902
 21
120.3813067156
 31
0.0
  0
LINE
  5
172
330
1F
100
AcDbEntity
  8
0
  6
SLD-Gestrichelt
 62
     7
370
     0
100
AcDbLine
 10
162.05514822
 20
114.4813074249
 30
0.0
 11
162.05514822
 21
113.1792132261
 31
0.0
  0
LINE
  5
173
330
1F
100
AcDbEntity
  8
0
  6
SLD-Gestrichelt
 62
     7
370
     0
100
AcDbLine
 10
164.705148375
 20
114.4813074249
 30
0.0
 11
164.705148375
 21
113.5054974335
 31
0.0
  0
LINE
  5
174
330
1F
100
AcDbEntity
  8
0
  6
SLD-Gestrichelt
 62
     7
370
     0
100
AcDbLine
 10
167.2051487847
 20
92.4813075441
 30
0.0
 11
167.2051487847
 21
93.4571175355
 31
0.0
  0
LINE
  5
175
330
1F
100
AcDbEntity
  8
0
  6
SLD-Gestrichelt
 62
     7
370
     0
100
AcDbLine
 10
162.05514822
 20
92.4813075441
 30
0.0
 11
162.05514822
 21
93.7834017429
 31
0.0
  0
ARC
  5
176
330
1F
100
AcDbEntity
  8
0
  6
SLD-Gestrichelt
 62
     7
370
     0
100
AcDbCircle
 10
174.4374949692
 20
79.15127335
 30
0.0
 40
10.21355223330722
100
AcDbArc
 50
91.0920632565
 51
97.5839560477
  0
LWPOLYLINE
  5
177
330
1F
100
AcDbEntity
  8
0
  6
SLD-Gestrichelt
 62
     7
370
     0
100
AcDbPolyline
 90
       40
 70
   128
 43
0.0
 10
176.8641769312
 20
89.0560567829
 10
176.958281955
 20
89.0325651023
 10
177.1321431159
 20
88.985497922
 10
177.2637036055
 20
88.9480345401
 10
177.3051283679
 20
88.9358174506
 10
177.2666465848
 20
88.9477607313
 10
177.1415129195
 20
88.9826164099
 10
177.0442891292
 20
89.0086366314
 10
176.986795327
 20
89.0237939063
 10
176.9558172099
 20
89.0319103825
 10
176.9397700562
 20
89.0361022654
 10
176.9316070139
 20
89.0382322001
 10
176.9274905681
 20
89.0393050837
 10
176.9254234976
 20
89.0398433882
 10
176.9243878669
 20
89.0401134717
 10
176.9238695859
 20
89.0402485135
 10
176.9236102126
 20
89.0403165001
 10
176.9234807587
 20
89.0403500277
 10
176.9234155662
 20
89.0403667915
 10
176.9233834355
 20
89.0403751734
 10
176.9233671374
 20
89.04037983
 10
176.9233592211
 20
89.0403816926
 10
176.9233508392
 20
89.0403835553
 10
176.8634579501
 20
89.056247704
 10
176.7485252938
 20
89.0851727205
 10
176.5643986299
 20
89.1271576735
 10
176.2940398774
 20
89.1822044256
 10
175.8527182399
 20
89.2576965022
 10
175.4688345253
 20
89.3084777969
 10
174.596488884
 20
89.3636260632
 10
174.1560547969
 20
89.3628092933
 10
174.0132280982
 20
89.3583314943
 10
173.8736689448
 20
89.3517498377
 10
173.7381708234
 20
89.3430652547
 10
173.4957298621
 20
89.3218012976
 10
173.3077135294
 20
89.3024232688
 10
173.0996244013
 20
89.2772132981
 10
172.865518777
 20
89.2428232807
 10
172.7514401435
 20
89.223116495
 10
172.7435415968
 20
89.2226955372
  0
LINE
  5
178
330
1F
100
AcDbEntity
  8
0
  6
SLD-Gestrichelt
 62
     7
370
     0
100
AcDbLine
 10
173.0895195513
 20
117.6870612877
 30
0.0
 11
172.8635788321
 21
117.7199909913
 31
0.0
  0
LWPOLYLINE
  5
179
330
1F
100
AcDbEntity
  8
0
  6
SLD-Gestrichelt
 62
     7
370
     0
100
AcDbPolyline
 90
       28
 70
   128
 43
0.0
 10
172.7098100244
 20
117.7457541677
 10
172.7057597025
 20
117.7465765256
 10
172.7510862409
 20
117.7394919547
 10
172.7958847194
 20
117.7314928251
 10
172.8646284326
 20
117.7198121774
 10
172.9634352385
 20
117.7044500115
 10
173.0984555914
 20
117.6854063275
 10
173.3303162626
 20
117.6575886535
 10
173.5338735751
 20
117.6370641666
 10
173.6198486186
 20
117.6292233619
 10
173.6881750993
 20
117.6233839693
 10
173.7371133066
 20
117.6195450577
 10
174.1551230087
 20
117.5997954312
 10
174.5959096014
 20
117.5989758673
 10
175.0398007578
 20
117.6170872974
 10
175.4695115968
 20
117.6541287902
 10
175.6517453476
 20
117.676362254
 10
175.8525631747
 20
117.7047582793
 10
176.0680120795
 20
117.7393168661
 10
176.2926228701
 20
117.7800380143
 10
176.5887569062
 20
117.8406987789
 10
176.779620292
 20
117.8850008625
 10
176.8455583959
 20
117.9016780558
 10
176.8919429167
 20
117.9138672057
 10
176.9210104256
 20
117.9215664494
 10
177.1401138402
 20
117.9794406968
 10
177.2661683507
 20
118.0144453871
 10
177.3043041474
 20
118.0263197499
  0
ARC
  5
17A
330
1F
100
AcDbEntity
  8
0
  6
SLD-Gestrichelt
 62
     7
370
     0
100
AcDbCircle
 10
174.5398894309
 20
128.8685913479
 30
0.0
 40
11.27520231635064
100
AcDbArc
 50
262.6093594996
 51
268.0698675987
  0
LWPOLYLINE
  5
17B
330
1F
100
AcDbEntity
  8
0
  6
SLD-Gestrichelt
 62
     7
370
     0
100
AcDbPolyline
 90
       25
 70
   128
 43
0.0
 10
203.3349354177
 20
101.1017841271
 10
203.825645557
 20
101.1327000785
 10
204.4956650942
 20
101.291988835
 10
205.099758169
 20
101.6323774572
 10
205.4698862492
 20
102.0684465517
 10
205.6399010479
 20
102.5277055784
 10
205.6544483065
 20
103.0577761746
 10
205.529291591
 20
103.5365155337
 10
205.2016951501
 20
104.1142887886
 10
204.5557521641
 20
104.733233548
 10
204.1654963403
 20
104.9588124485
 10
203.7173923462
 20
105.1145635762
 10
203.2977830976
 20
105.1582349216
 10
202.8817016988
 20
105.0899236913
 10
202.4195235579
 20
104.8592006306
 10
201.8896196394
 20
104.3232819399
 10
201.5320867657
 20
103.6120013056
 10
201.4114059865
 20
103.0166321768
 10
201.441280952
 20
102.4362747309
 10
201.6076654553
 20
101.9538503357
 10
201.9148715197
 20
101.5513076897
 10
202.412967047
 20
101.247494899
 10
202.8470639496
 20
101.1363962649
 10
203.241017124
 20
101.1029510743
 10
203.3349354177
 20
101.1017841271
  0
LINE
  5
17C
330
1F
100
AcDbEntity
  8
0
  6
SLD-Gestrichelt
 62
     7
370
     0
100
AcDbLine
 10
206.105148828
 20
100.9813075404
 30
0.0
 11
206.105148828
 21
105.9813074286
 31
0.0
  0
LINE
  5
17D
330
1F
100
AcDbEntity
  8
0
  6
SLD-Gestrichelt
 62
     7
370
     0
100
AcDbLine
 10
224.5892793297
 20
129.6023240763
 30
0.0
 11
220.6085197984
 21
123.23177778
 31
0.0
  0
LINE
  5
17E
330
1F
100
AcDbEntity
  8
0
  6
SLD-Gestrichelt
 62
     7
370
     0
100
AcDbLine
 10
220.6085197984
 20
123.23177778
 30
0.0
 11
220.5636151492
 21
123.2294252592
 31
0.0
  0
LINE
  5
17F
330
1F
100
AcDbEntity
  8
0
  6
SLD-Gestrichelt
 62
     7
370
     0
100
AcDbLine
 10
224.5443746804
 20
129.5999715555
 30
0.0
 11
224.5892793297
 21
129.6023240763
 31
0.0
  0
LINE
  5
180
330
1F
100
AcDbEntity
  8
0
  6
SLD-Gestrichelt
 62
     7
370
     0
100
AcDbLine
 10
219.174584782
 20
120.1195808577
 30
0.0
 11
229.4820867836
 21
120.659774028
 31
0.0
  0
LINE
  5
181
330
1F
100
AcDbEntity
  8
0
  6
SLD-Gestrichelt
 62
     7
370
     0
100
AcDbLine
 10
229.4820867836
 20
120.659774028
 30
0.0
 11
229.4582561015
 21
120.6216400939
 31
0.0
  0
LINE
  5
182
330
1F
100
AcDbEntity
  8
0
  6
SLD-Gestrichelt
 62
     7
370
     0
100
AcDbLine
 10
218.9396866023
 20
120.3740796524
 30
0.0
 11
229.6544522404
 21
120.9356168735
 31
0.0
  0
LINE
  5
183
330
1F
100
AcDbEntity
  8
0
  6
SLD-Gestrichelt
 62
     7
370
     0
100
AcDbLine
 10
229.4820867836
 20
120.659774028
 30
0.0
 11
229.6544522404
 21
120.9356168735
 31
0.0
  0
LINE
  5
184
330
1F
100
AcDbEntity
  8
0
  6
SLD-Gestrichelt
 62
     7
370
     0
100
AcDbLine
 10
220.6085197984
 20
123.23177778
 30
0.0
 11
220.7609773039
 21
122.9729595113
 31
0.0
  0
LINE
  5
185
330
1F
100
AcDbEntity
  8
0
  6
SLD-Gestrichelt
 62
     7
370
     0
100
AcDbLine
 10
220.3912496924
 20
122.9535824138
 30
0.0
 11
220.7609773039
 21
122.9729595113
 31
0.0
  0
ELLIPSE
  5
186
330
1F
100
AcDbEntity
  8
0
  6
SLD-Gestrichelt
 62
     7
370
     0
100
AcDbEllipse
 10
208.3727387942
 20
103.7199459454
 30
0.0
 11
16.39758273769152
 21
25.83055662471866
 31
0.0
210
0.0
220
0.0
230
0.9999999999999998
 40
0.1000778042
 41
6.255246631333647
 42
6.342207791890726
  0
LINE
  5
187
330
1F
100
AcDbEntity
  8
0
  6
SLD-Gestrichelt
 62
     7
370
     0
100
AcDbLine
 10
224.8361356913
 20
129.4945793676
 30
0.0
 11
220.7609773039
 21
122.9729595113
 31
0.0
  0
LWPOLYLINE
  5
188
330
1F
100
AcDbEntity
  8
0
  6
SLD-Gestrichelt
 62
     7
370
     0
100
AcDbPolyline
 90
       10
 70
   128
 43
0.0
 10
218.4312366306
 20
121.6202507245
 10
218.4436343967
 20
123.0567114878
 10
218.4549630045
 20
124.3637631166
 10
218.4654049932
 20
125.5636437315
 10
218.4745245039
 20
126.6080605316
 10
218.4820421397
 20
127.4660414535
 10
218.4881702422
 20
128.1639839041
 10
218.4929684161
 20
128.709439047
 10
218.4961982428
 20
129.0762106407
 10
218.4980236351
 20
129.2830965
  0
LWPOLYLINE
  5
189
330
1F
100
AcDbEntity
  8
0
  6
SLD-Gestrichelt
 62
     7
370
     0
100
AcDbPolyline
 90
       29
 70
   128
 43
0.0
 10
204.9215235173
 20
98.7729317027
 10
205.3817198037
 20
98.8447906899
 10
205.8188379168
 20
99.0147612507
 10
206.2109619736
 20
99.274319921
 10
206.5384261667
 20
99.6104519333
 10
206.7848150044
 20
100.0063015132
 10
206.9377698361
 20
100.4420193828
 10
206.9896202891
 20
100.89575718
 10
206.9377698361
 20
101.3447619959
 10
206.7848150044
 20
101.7665194565
 10
206.5384261667
 20
102.1398803902
 10
206.2109619736
 20
102.4461232343
 10
205.8188379168
 20
102.669891469
 10
205.3817198037
 20
102.7999645782
 10
204.9215235173
 20
102.8298201024
 10
204.4613290935
 20
102.7579609987
 10
204.0242109805
 20
102.5879904961
 10
203.6320869236
 20
102.3284316513
 10
203.3046208679
 20
101.9922999882
 10
203.0582338928
 20
101.5964502919
 10
202.9052790611
 20
101.1607321895
 10
202.8534286081
 20
100.7069946251
 10
202.9052790611
 20
100.2579895764
 10
203.0582338928
 20
99.8362322322
 10
203.3046208679
 20
99.4628712985
 10
203.6320869236
 20
99.1566286872
 10
204.0242109805
 20
98.9328602779
 10
204.4613290935
 20
98.8027871105
 10
204.9215235173
 20
98.7729317027
  0
CIRCLE
  5
18A
330
1F
100
AcDbEntity
  8
0
  6
SLD-Gestrichelt
 62
     7
370
     0
100
AcDbCircle
 10
227.3541552897
 20
125.2211009796
 30
0.0
 40
2.400000000000006
  0
LINE
  5
18B
330
1F
100
AcDbEntity
  8
0
  6
SLD-Gestrichelt
 62
     7
370
     0
100
AcDbLine
 10
234.8706931233
 20
129.2832678634
 30
0.0
 11
234.5681175946
 21
129.8116146105
 31
0.0
  0
LINE
  5
18C
330
1F
100
AcDbEntity
  8
0
  6
SLD-Gestrichelt
 62
     7
370
     0
100
AcDbLine
 10
224.7100457906
 20
129.2927897054
 30
0.0
 11
234.5666796326
 21
129.809355222
 31
0.0
  0
LINE
  5
18D
330
1F
100
AcDbEntity
  8
0
  6
SLD-Gestrichelt
 62
     7
370
     0
100
AcDbLine
 10
234.8706148922
 20
129.2832231599
 30
0.0
 11
229.6544522404
 21
120.9356168735
 31
0.0
  0
LWPOLYLINE
  5
18E
330
1F
100
AcDbEntity
  8
0
  6
SLD-Gestrichelt
 62
     7
370
     0
100
AcDbPolyline
 90
        7
 70
   128
 43
0.0
 10
234.5681585728
 20
129.809407376
 10
234.2270486414
 20
129.2567214447
 10
233.7105222403
 20
128.4238862324
 10
233.0189146458
 20
127.3043843436
 10
232.1523674189
 20
125.8955019045
 10
231.1108060538
 20
124.1988072622
 10
229.893891549
 20
122.2206203717
  0
LINE
  5
18F
330
1F
100
AcDbEntity
  8
0
  6
SLD-Gestrichelt
 62
     7
370
     0
100
AcDbLine
 10
198.0451479911
 20
116.9971542883
 30
0.0
 11
198.0451479911
 21
115.3313078436
 31
0.0
  0
LINE
  5
190
330
1F
100
AcDbEntity
  8
0
  6
SLD-Gestrichelt
 62
     7
370
     0
100
AcDbLine
 10
195.9651489168
 20
116.9971542883
 30
0.0
 11
195.9651489168
 21
115.3313078436
 31
0.0
  0
CIRCLE
  5
191
330
1F
100
AcDbEntity
  8
0
  6
SLD-Gestrichelt
 62
     7
370
     0
100
AcDbCircle
 10
227.3541552897
 20
125.2211009796
 30
0.0
 40
1.65000000000002
  0
LINE
  5
192
330
1F
100
AcDbEntity
  8
0
  6
SLD-Gestrichelt
 62
     7
370
     0
100
AcDbLine
 10
199.0403090029
 20
119.5927167761
 30
0.0
 11
199.0403090029
 21
115.3313078436
 31
0.0
  0
LWPOLYLINE
  5
193
330
1F
100
AcDbEntity
  8
0
  6
SLD-Gestrichelt
 62
     7
370
     0
100
AcDbPolyline
 90
        3
 70
   128
 43
0.0
 10
161.1051489025
 20
91.9337941783
 10
161.1301325618
 20
92.1857746768
 10
161.1886792242
 20
92.2651801708
  0
LWPOLYLINE
  5
194
330
1F
100
AcDbEntity
  8
0
  6
SLD-Gestrichelt
 62
     7
370
     0
100
AcDbPolyline
 90
       32
 70
   128
 43
0.0
 10
204.9632598072
 20
98.3253008205
 10
205.4588612526
 20
98.3973497975
 10
205.9341710418
 20
98.5653119612
 10
206.3697338461
 20
98.8223108913
 10
206.7477129757
 20
99.1578245054
 10
207.0526372998
 20
99.5581176582
 10
207.2720233708
 20
100.0068020991
 10
207.396887651
 20
100.4855081889
 10
207.4221190422
 20
100.9746381066
 10
207.3466837763
 20
101.4541665542
 10
207.1736719816
 20
101.9044616011
 10
206.910165435
 20
102.3070881826
 10
206.5669507145
 20
102.6455627622
 10
206.1580814778
 20
102.906028075
 10
205.7002973168
 20
103.077820652
 10
205.2123383044
 20
103.1539073198
 10
204.7141813099
 20
103.1311730664
 10
204.2262222975
 20
103.0105486031
 10
203.7684362739
 20
102.7969723552
 10
203.3595670372
 20
102.4991881319
 10
203.0163541793
 20
102.1293871787
 10
202.7528476327
 20
101.7027094246
 10
202.579835838
 20
101.2366228721
 10
202.5044005721
 20
100.7502091567
 10
202.5296319633
 20
100.2633823997
 10
202.6544962435
 20
99.7960729043
 10
202.8738804518
 20
99.3674125972
 10
203.178804776
 20
98.9949510883
 10
203.5567857682
 20
98.6939369219
 10
203.9923485725
 20
98.4766933586
 10
204.4676583617
 20
98.3521145287
 10
204.9632598072
 20
98.3253008205
  0
LINE
  5
195
330
1F
100
AcDbEntity
  8
0
  6
SLD-Gestrichelt
 62
     7
370
     0
100
AcDbLine
 10
216.4070740699
 20
90.4907322007
 30
0.0
 11
216.4070740699
 21
103.4813074845
 31
0.0
  0
CIRCLE
  5
196
330
1F
100
AcDbEntity
  8
0
  6
SLD-Gestrichelt
 62
     7
370
     0
100
AcDbCircle
 10
188.0051486253
 20
103.4813074845
 30
0.0
 40
5.0
  0
LINE
  5
197
330
1F
100
AcDbEntity
  8
0
  6
SLD-Gestrichelt
 62
     7
370
     0
100
AcDbLine
 10
229.8956908643
 20
122.2228220182
 30
0.0
 11
230.0301030635
 21
121.5346156138
 31
0.0
  0
LINE
  5
198
330
1F
100
AcDbEntity
  8
0
  6
SLD-Gestrichelt
 62
     7
370
     0
100
AcDbLine
 10
229.8928670942
 20
122.2209295708
 30
0.0
 11
218.4312366306
 21
121.6202507245
 31
0.0
  0
ARC
  5
199
330
1F
100
AcDbEntity
  8
0
  6
SLD-Gestrichelt
 62
     7
370
     0
100
AcDbCircle
 10
315.8103076251
 20
101.5711049249
 30
0.0
 40
99.42158576010166
100
AcDbArc
 50
168.3660761344
 51
178.8990994402
  0
LINE
  5
19A
330
1F
100
AcDbEntity
  8
0
  6
SLD-Gestrichelt
 62
     7
370
     0
100
AcDbLine
 10
202.8971691041
 20
99.3325392234
 30
0.0
 11
203.2010540723
 21
98.8864869329
 31
0.0
  0
LINE
  5
19B
330
1F
100
AcDbEntity
  8
0
  6
SLD-Gestrichelt
 62
     7
370
     0
100
AcDbLine
 10
207.3332336157
 20
101.7016391021
 30
0.0
 11
207.0293505102
 21
102.1476912762
 31
0.0
  0
LINE
  5
19C
330
1F
100
AcDbEntity
  8
0
  6
SLD-Gestrichelt
 62
     7
370
     0
100
AcDbLine
 10
203.4935340642
 20
99.3452247682
 30
0.0
 11
204.2133570074
 21
98.2886421013
 31
0.0
  0
LINE
  5
19D
330
1F
100
AcDbEntity
  8
0
  6
SLD-Gestrichelt
 62
     7
370
     0
100
AcDbLine
 10
207.5191032498
 20
100.5407637901
 30
0.0
 11
206.799278444
 21
101.5973465734
 31
0.0
  0
LINE
  5
19E
330
1F
100
AcDbEntity
  8
0
  6
SLD-Gestrichelt
 62
     7
370
     0
100
AcDbLine
 10
203.6803219824
 20
98.182998922
 30
0.0
 11
203.7758291125
 21
98.0428111258
 31
0.0
  0
LINE
  5
19F
330
1F
100
AcDbEntity
  8
0
  6
SLD-Gestrichelt
 62
     7
370
     0
100
AcDbLine
 10
207.9080105185
 20
100.8579631786
 30
0.0
 11
207.8125033884
 21
100.9981509748
 31
0.0
  0
CIRCLE
  5
1A0
330
1F
100
AcDbEntity
  8
0
  6
SLD-Gestrichelt
 62
     7
370
     0
100
AcDbCircle
 10
205.4494744568
 20
100.0264316475
 30
0.0
 40
2.000000000000027
  0
CIRCLE
  5
1A1
330
1F
100
AcDbEntity
  8
0
  6
SLD-Gestrichelt
 62
     7
370
     0
100
AcDbCircle
 10
227.3541552897
 20
125.2211009796
 30
0.0
 40
1.809570484150204
  0
LINE
  5
1A2
330
1F
100
AcDbEntity
  8
0
  6
SLD-Gestrichelt
 62
     7
370
     0
100
AcDbLine
 10
181.0051486253
 20
87.2741060781
 30
0.0
 11
181.0993093976
 21
87.944095813
 31
0.0
  0
LINE
  5
1A3
330
1F
100
AcDbEntity
  8
0
  6
SLD-Gestrichelt
 62
     7
370
     0
100
AcDbLine
 10
181.0993093976
 20
119.018519156
 30
0.0
 11
181.0051486253
 21
119.6885088908
 31
0.0
  0
ARC
  5
1A4
330
1F
100
AcDbEntity
  8
0
  6
SLD-Gestrichelt
 62
     7
370
     0
100
AcDbCircle
 10
180.5051418726
 20
88.027600331
 30
0.0
 40
0.6000067526677242
100
AcDbArc
 50
352.0
 51
0.0
  0
ARC
  5
1A5
330
1F
100
AcDbEntity
  8
0
  6
SLD-Gestrichelt
 62
     7
370
     0
100
AcDbCircle
 10
180.5051418726
 20
88.027600331
 30
0.0
 40
0.6000067526677361
100
AcDbArc
 50
0.0
 51
33.5571153394
  0
ARC
  5
1A6
330
1F
100
AcDbEntity
  8
0
  6
SLD-Gestrichelt
 62
     7
370
     0
100
AcDbCircle
 10
180.5051418726
 20
118.935014638
 30
0.0
 40
0.6000067526677062
100
AcDbArc
 50
348.75
 51
8.0
  0
LWPOLYLINE
  5
1A7
330
1F
100
AcDbEntity
  8
0
  6
SLD-Gestrichelt
 62
     7
370
     0
100
AcDbPolyline
 90
        3
 70
   128
 43
0.0
 10
181.0936196642
 20
118.8179588395
 10
181.0594758325
 20
118.7054019871
 10
181.0051486253
 20
118.6033504534
  0
LINE
  5
1A8
330
1F
100
AcDbEntity
  8
0
  6
SLD-Gestrichelt
 62
     7
370
     0
100
AcDbLine
 10
181.1051486228
 20
88.0276000577
 30
0.0
 11
181.1051486228
 21
118.9350149113
 31
0.0
  0
LINE
  5
1A9
330
1F
100
AcDbEntity
  8
0
  6
SLD-Gestrichelt
 62
     7
370
     0
100
AcDbLine
 10
209.8767370342
 20
115.0438486117
 30
0.0
 11
198.875775969
 21
107.4707213308
 31
0.0
  0
LINE
  5
1AA
330
1F
100
AcDbEntity
  8
0
  6
SLD-Gestrichelt
 62
     7
370
     0
100
AcDbLine
 10
203.1528469532
 20
105.3160977068
 30
0.0
 11
209.6636504292
 21
109.7981737445
 31
0.0
  0
LINE
  5
1AB
330
1F
100
AcDbEntity
  8
0
  6
SLD-Gestrichelt
 62
     7
370
     0
100
AcDbLine
 10
201.2573242544
 20
104.0112091329
 30
0.0
 11
201.6339045375
 21
104.2704483013
 31
0.0
  0
LINE
  5
1AC
330
1F
100
AcDbEntity
  8
0
  6
SLD-Gestrichelt
 62
     7
370
     0
100
AcDbLine
 10
198.8080837189
 20
107.1881601571
 30
0.0
 11
199.058827421
 21
105.047242109
 31
0.0
  0
LINE
  5
1AD
330
1F
100
AcDbEntity
  8
0
  6
SLD-Gestrichelt
 62
     7
370
     0
100
AcDbLine
 10
199.058827421
 20
105.047242109
 30
0.0
 11
200.0934467077
 21
104.5065277473
 31
0.0
  0
LINE
  5
1AE
330
1F
100
AcDbEntity
  8
0
  6
SLD-Gestrichelt
 62
     7
370
     0
100
AcDbLine
 10
170.5377767219
 20
90.7313077229
 30
0.0
 11
172.7359233781
 21
90.7313077229
 31
0.0
  0
LINE
  5
1AF
330
1F
100
AcDbEntity
  8
0
  6
SLD-Gestrichelt
 62
     7
370
     0
100
AcDbLine
 10
172.7359233781
 20
116.2313072461
 30
0.0
 11
170.5377767219
 21
116.2313072461
 31
0.0
  0
ARC
  5
1B0
330
1F
100
AcDbEntity
  8
0
  6
SLD-Gestrichelt
 62
     7
370
     0
100
AcDbCircle
 10
170.5377765695
 20
91.1313074845
 30
0.0
 40
0.4000000000000199
100
AcDbArc
 50
210.0
 51
270.0
  0
ARC
  5
1B1
330
1F
100
AcDbEntity
  8
0
  6
SLD-Gestrichelt
 62
     7
370
     0
100
AcDbCircle
 10
170.5377765695
 20
115.8313074845
 30
0.0
 40
0.4000000000000057
100
AcDbArc
 50
90.0
 51
150.0
  0
ARC
  5
1B2
330
1F
100
AcDbEntity
  8
0
  6
SLD-Gestrichelt
 62
     7
370
     0
100
AcDbCircle
 10
176.8293253532
 20
95.7313074845
 30
0.0
 40
5.00000000000001
100
AcDbArc
 50
275.4105079567
 51
326.6329870308
  0
ARC
  5
1B3
330
1F
100
AcDbEntity
  8
0
  6
SLD-Gestrichelt
 62
     7
370
     0
100
AcDbCircle
 10
176.8293253532
 20
111.2313074845
 30
0.0
 40
5.000000000000018
100
AcDbArc
 50
33.3670129692
 51
84.5876624254
  0
LINE
  5
1B4
330
1F
100
AcDbEntity
  8
0
  6
SLD-Gestrichelt
 62
     7
370
     0
100
AcDbLine
 10
170.1913666337
 20
116.0313075858
 30
0.0
 11
169.0077981337
 21
113.9813073429
 31
0.0
  0
LINE
  5
1B5
330
1F
100
AcDbEntity
  8
0
  6
SLD-Gestrichelt
 62
     7
370
     0
100
AcDbLine
 10
169.0077981337
 20
92.9813076261
 30
0.0
 11
170.1913666337
 21
90.9313073832
 31
0.0
  0
LINE
  5
1B6
330
1F
100
AcDbEntity
  8
0
  6
SLD-Gestrichelt
 62
     7
370
     0
100
AcDbLine
 10
199.495399779
 20
105.0362185094
 30
0.0
 11
200.9169277161
 21
102.9496506423
 31
0.0
  0
LINE
  5
1B7
330
1F
100
AcDbEntity
  8
0
  6
SLD-Gestrichelt
 62
     7
370
     0
100
AcDbLine
 10
204.495707935
 20
105.156221635
 30
0.0
 11
203.328246659
 21
106.8698613423
 31
0.0
  0
ARC
  5
1B8
330
1F
100
AcDbEntity
  8
0
  6
SLD-Gestrichelt
 62
     7
370
     0
100
AcDbCircle
 10
187.9551486253
 20
93.6063074845
 30
0.0
 40
1.0
100
AcDbArc
 50
218.6821874535
 51
0.0
  0
ARC
  5
1B9
330
1F
100
AcDbEntity
  8
0
  6
SLD-Gestrichelt
 62
     7
370
     0
100
AcDbCircle
 10
187.9551486253
 20
113.3563074845
 30
0.0
 40
1.0
100
AcDbArc
 50
0.0
 51
141.3178125465
  0
LINE
  5
1BA
330
1F
100
AcDbEntity
  8
0
  6
SLD-Gestrichelt
 62
     7
370
     0
100
AcDbLine
 10
167.2051487847
 20
92.9813076261
 30
0.0
 11
169.0077981337
 21
92.9813076261
 31
0.0
  0
LINE
  5
1BB
330
1F
100
AcDbEntity
  8
0
  6
SLD-Gestrichelt
 62
     7
370
     0
100
AcDbLine
 10
169.0077981337
 20
113.9813073429
 30
0.0
 11
164.705148375
 21
113.9813073429
 31
0.0
  0
LINE
  5
1BC
330
1F
100
AcDbEntity
  8
0
  6
SLD-Gestrichelt
 62
     7
370
     0
100
AcDbLine
 10
181.0051486253
 20
92.9813076261
 30
0.0
 11
187.1745236575
 21
92.9813076261
 31
0.0
  0
LINE
  5
1BD
330
1F
100
AcDbEntity
  8
0
  6
SLD-Gestrichelt
 62
     7
370
     0
100
AcDbLine
 10
187.1745236575
 20
113.9813073429
 30
0.0
 11
181.0051486253
 21
113.9813073429
 31
0.0
  0
LINE
  5
1BE
330
1F
100
AcDbEntity
  8
0
  6
SLD-Gestrichelt
 62
     7
370
     0
100
AcDbLine
 10
194.3051483839
 20
97.2313073914
 30
0.0
 11
196.8051478624
 21
97.2313073914
 31
0.0
  0
LINE
  5
1BF
330
1F
100
AcDbEntity
  8
0
  6
SLD-Gestrichelt
 62
     7
370
     0
100
AcDbLine
 10
196.8051478624
 20
109.7313075776
 30
0.0
 11
194.3051483839
 21
109.7313075776
 31
0.0
  0
LINE
  5
1C0
330
1F
100
AcDbEntity
  8
0
  6
SLD-Gestrichelt
 62
     7
370
     0
100
AcDbLine
 10
188.9551490902
 20
97.4813074323
 30
0.0
 11
189.4551482408
 21
97.9813075143
 31
0.0
  0
LINE
  5
1C1
330
1F
100
AcDbEntity
  8
0
  6
SLD-Gestrichelt
 62
     7
370
     0
100
AcDbLine
 10
189.4551482408
 20
108.9813074547
 30
0.0
 11
188.9551490902
 21
109.4813075366
 31
0.0
  0
LINE
  5
1C2
330
1F
100
AcDbEntity
  8
0
  6
SLD-Gestrichelt
 62
     7
370
     0
100
AcDbLine
 10
189.4551482408
 20
97.9813075143
 30
0.0
 11
194.3051483839
 21
97.9813075143
 31
0.0
  0
LINE
  5
1C3
330
1F
100
AcDbEntity
  8
0
  6
SLD-Gestrichelt
 62
     7
370
     0
100
AcDbLine
 10
194.3051483839
 20
108.9813074547
 30
0.0
 11
189.4551482408
 21
108.9813074547
 31
0.0
  0
LINE
  5
1C4
330
1F
100
AcDbEntity
  8
0
  6
SLD-Gestrichelt
 62
     7
370
     0
100
AcDbLine
 10
188.9551490902
 20
123.4813070375
 30
0.0
 11
188.9551490902
 21
120.3813067156
 31
0.0
  0
LINE
  5
1C5
330
1F
100
AcDbEntity
  8
0
  6
SLD-Gestrichelt
 62
     7
370
     0
100
AcDbLine
 10
177.7723279673
 20
88.4400027323
 30
0.0
 11
177.3043993752
 21
88.9358398023
 31
0.0
  0
LINE
  5
1C6
330
1F
100
AcDbEntity
  8
0
  6
SLD-Gestrichelt
 62
     7
370
     0
100
AcDbLine
 10
172.7064945161
 20
89.2156929228
 30
0.0
 11
172.18902096
 21
88.7198679599
 31
0.0
  0
LINE
  5
1C7
330
1F
100
AcDbEntity
  8
0
  6
SLD-Gestrichelt
 62
     7
370
     0
100
AcDbLine
 10
172.1883867293
 20
118.2427973005
 30
0.0
 11
172.7060726269
 21
117.746909939
 31
0.0
  0
LINE
  5
1C8
330
1F
100
AcDbEntity
  8
0
  6
SLD-Gestrichelt
 62
     7
370
     0
100
AcDbLine
 10
177.3037134561
 20
118.0265572372
 30
0.0
 11
177.7716173682
 21
118.5224511179
 31
0.0
  0
LINE
  5
1C9
330
1F
100
AcDbEntity
  8
0
  6
SLD-Gestrichelt
 62
     7
370
     0
100
AcDbLine
 10
196.8051478624
 20
100.9813075404
 30
0.0
 11
206.105148828
 21
100.9813075404
 31
0.0
  0
LINE
  5
1CA
330
1F
100
AcDbEntity
  8
0
  6
SLD-Gestrichelt
 62
     7
370
     0
100
AcDbLine
 10
206.105148828
 20
105.9813074286
 30
0.0
 11
196.8051478624
 21
105.9813074286
 31
0.0
  0
LINE
  5
1CB
330
1F
100
AcDbEntity
  8
0
  6
SLD-Gestrichelt
 62
     7
370
     0
100
AcDbLine
 10
206.105148828
 20
100.9813075404
 30
0.0
 11
207.6072994976
 21
103.4813074845
 31
0.0
  0
LINE
  5
1CC
330
1F
100
AcDbEntity
  8
0
  6
SLD-Gestrichelt
 62
     7
370
     0
100
AcDbLine
 10
207.6072994976
 20
103.4813074845
 30
0.0
 11
206.105148828
 21
105.9813074286
 31
0.0
  0
LINE
  5
1CD
330
1F
100
AcDbEntity
  8
0
  6
SLD-Gestrichelt
 62
     7
370
     0
100
AcDbLine
 10
177.3051486242
 20
88.9360838088
 30
0.0
 11
177.3051486242
 21
90.7544529515
 31
0.0
  0
LINE
  5
1CE
330
1F
100
AcDbEntity
  8
0
  6
SLD-Gestrichelt
 62
     7
370
     0
100
AcDbLine
 10
172.7051487549
 20
90.7368099767
 30
0.0
 11
172.7051487549
 21
89.2226992625
 31
0.0
  0
LINE
  5
1CF
330
1F
100
AcDbEntity
  8
0
  6
SLD-Gestrichelt
 62
     7
370
     0
100
AcDbLine
 10
177.3051486242
 20
116.2081620174
 30
0.0
 11
177.3051486242
 21
118.0263467583
 31
0.0
  0
LINE
  5
1D0
330
1F
100
AcDbEntity
  8
0
  6
SLD-Gestrichelt
 62
     7
370
     0
100
AcDbLine
 10
172.7051487549
 20
117.7458044591
 30
0.0
 11
172.7051487549
 21
116.2258049923
 31
0.0
  0
LINE
  5
1D1
330
1F
100
AcDbEntity
  8
0
  6
SLD-Gestrichelt
 62
     7
370
     0
100
AcDbLine
 10
201.697111538
 20
101.8044688723
 30
0.0
 11
203.1860076248
 21
99.6190119519
 31
0.0
  0
LINE
  5
1D2
330
1F
100
AcDbEntity
  8
0
  6
SLD-Gestrichelt
 62
     7
370
     0
100
AcDbLine
 10
206.6570394098
 20
101.9837397368
 30
0.0
 11
205.2754912882
 21
104.0116277624
 31
0.0
  0
LINE
  5
1D3
330
1F
100
AcDbEntity
  8
0
  6
SLD-Gestrichelt
 62
     7
370
     0
100
AcDbLine
 10
202.8971691041
 20
99.3325392234
 30
0.0
 11
203.8650106996
 21
97.9119072187
 31
0.0
  0
LINE
  5
1D4
330
1F
100
AcDbEntity
  8
0
  6
SLD-Gestrichelt
 62
     7
370
     0
100
AcDbLine
 10
208.1243362635
 20
100.5404313079
 30
0.0
 11
207.0293505102
 21
102.1476912762
 31
0.0
  0
LINE
  5
1D5
330
1F
100
AcDbEntity
  8
VERMASSUNG
100
AcDbLine
 10
236.0051486253
 20
130.4813074845
 30
0.0
 11
218.8426830459
 21
130.4813074845
 31
0.0
  0
DIMENSION
  5
1D6
330
1F
100
AcDbEntity
  8
VERMASSUNG
100
AcDbDimension
  2
*D1
 10
155.4010922867
 20
83.4813074845
 30
0.0
 11
155.4010922867
 21
103.4813074845
 31
0.0
 70
   160
  1
HSK %%c<>
 71
     2
 42
-1.0
  3
SLDDIMSTYLE0
100
AcDbAlignedDimension
 13
181.3051486253
 23
123.4813074845
 33
0.0
 14
181.3051486253
 24
83.4813074845
 34
0.0
 50
90.0
100
AcDbRotatedDimension
  0
DIMENSION
  5
1E3
330
1F
100
AcDbEntity
  8
VERMASSUNG
100
AcDbDimension
  2
*D2
 10
161.1051486253
 20
145.6977983418
 30
0.0
 11
198.5551486253
 21
145.6977983418
 31
0.0
 70
   160
 71
     2
 42
-1.0
  3
SLDDIMSTYLE0
100
AcDbAlignedDimension
 13
236.0051486253
 23
130.4813074845
 33
0.0
 14
161.1051486253
 24
115.4113074845
 34
0.0
 50
0.0
100
AcDbRotatedDimension
  0
DIMENSION
  5
1ED
330
1F
100
AcDbEntity
  8
VERMASSUNG
100
AcDbDimension
  2
*D3
 10
236.0051486253
 20
139.6977983418
 30
0.0
 11
208.5051486253
 21
139.6977983418
 31
0.0
 70
   160
 71
     2
 42
-1.0
  3
SLDDIMSTYLE0
100
AcDbAlignedDimension
 13
181.0051486253
 23
123.1813074845
 33
0.0
 14
236.0051486253
 24
130.4813074845
 34
0.0
100
AcDbRotatedDimension
  0
DIMENSION
  5
1F7
330
1F
100
AcDbEntity
  8
VERMASSUNG
100
AcDbDimension
  2
*D4
 10
238.0167790636
 20
103.4813074845
 30
0.0
 11
238.0167790636
 21
116.9813074845
 31
0.0
 70
   160
 71
     2
 42
-1.0
  3
SLDDIMSTYLE0
100
AcDbAlignedDimension
 13
236.0051486253
 23
130.4813074845
 33
0.0
 14
229.2953535465
 24
103.4813074845
 34
0.0
 50
90.0
100
AcDbRotatedDimension
  0
DIMENSION
  5
201
330
1F
100
AcDbEntity
  8
VERMASSUNG
100
AcDbDimension
  2
*D5
 10
215.671431925
 20
130.4813074845
 30
0.0
 11
219.935126708
 21
134.907853054
 31
0.0
 70
   162
 71
     1
 42
-1.0
  3
SLDDIMSTYLE1
100
AcDb2LineAngularDimension
 13
218.4980225702
 23
129.2830956975
 33
0.0
 14
224.5892796624
 24
129.6023249548
 34
0.0
 15
236.0051486253
 25
130.4813074845
 35
0.0
 16
219.4901492415
 26
129.9085921506
 36
0.0
  0
LINE
  5
20C
330
1F
100
AcDbEntity
  8
VERMASSUNG
  6
SLD-Punktstrich
370
     0
100
AcDbLine
 10
158.0257518396
 20
103.4813074845
 30
0.0
 11
229.2953535465
 21
103.4813074845
 31
0.0
  0
ARC
  5
20D
330
1F
100
AcDbEntity
  8
0
  6
SLD-Durchgehend
 62
     7
370
    15
100
AcDbCircle
 10
126.5323397526
 20
422.2139920613
 30
0.0
 40
294.3102995130318
100
AcDbArc
 50
262.4118841118
 51
263.2076286323
  0
LINE
  5
20E
330
1F
100
AcDbEntity
  8
0
  6
SLD-Durchgehend
 62
     7
370
    15
100
AcDbLine
 10
87.6684314377
 20
120.0914102125
 30
0.0
 11
87.725
 21
120.0986149239
 31
0.0
  0
LINE
  5
20F
330
1F
100
AcDbEntity
  8
0
  6
SLD-Durchgehend
 62
     7
370
    15
100
AcDbLine
 10
87.725
 20
129.8767103332
 30
0.0
 11
87.725
 21
130.467764892
 31
0.0
  0
LINE
  5
210
330
1F
100
AcDbEntity
  8
0
  6
SLD-Durchgehend
 62
     7
370
    15
100
AcDbLine
 10
91.6949999616
 20
129.9752014208
 30
0.0
 11
91.6949999616
 21
129.8234852481
 31
0.0
  0
LINE
  5
211
330
1F
100
AcDbEntity
  8
0
  6
SLD-Durchgehend
 62
     7
370
    15
100
AcDbLine
 10
91.6949999616
 20
121.1772988069
 30
0.0
 11
91.6949999616
 21
129.8234852481
 31
0.0
  0
LINE
  5
212
330
1F
100
AcDbEntity
  8
0
  6
SLD-Durchgehend
 62
     7
370
    15
100
AcDbLine
 10
87.725
 20
120.835240789
 30
0.0
 11
87.725
 21
129.8767103332
 31
0.0
  0
LINE
  5
213
330
1F
100
AcDbEntity
  8
0
  6
SLD-Durchgehend
 62
     7
370
    15
100
AcDbLine
 10
91.6949999616
 20
121.1772988069
 30
0.0
 11
91.6949999616
 21
121.130775519
 31
0.0
  0
LINE
  5
214
330
1F
100
AcDbEntity
  8
0
  6
SLD-Durchgehend
 62
     7
370
    15
100
AcDbLine
 10
87.725
 20
120.6491569507
 30
0.0
 11
87.725
 21
120.835240789
 31
0.0
  0
LINE
  5
215
330
1F
100
AcDbEntity
  8
0
  6
SLD-Durchgehend
 62
     7
370
    15
100
AcDbLine
 10
87.725
 20
120.0911773819
 30
0.0
 11
88.0250000142
 21
120.1298142302
 31
0.0
  0
LINE
  5
216
330
1F
100
AcDbEntity
  8
0
  6
SLD-Durchgehend
 62
     7
370
    15
100
AcDbLine
 10
87.725
 20
120.0911773819
 30
0.0
 11
87.725
 21
120.6491569507
 31
0.0
  0
ARC
  5
217
330
1F
100
AcDbEntity
  8
0
  6
SLD-Durchgehend
 62
     7
370
    15
100
AcDbCircle
 10
87.5719569975
 20
105.2386186398
 30
0.0
 40
24.39563190486461
100
AcDbArc
 50
41.9172583445
 51
80.2686246068
  0
ARC
  5
218
330
1F
100
AcDbEntity
  8
0
  6
SLD-Durchgehend
 62
     7
370
    15
100
AcDbCircle
 10
87.5673786027
 20
105.4140031208
 30
0.0
 40
24.7421560697802
100
AcDbArc
 50
42.7866652689
 51
80.3963407008
  0
LINE
  5
219
330
1F
100
AcDbEntity
  8
0
  6
SLD-Durchgehend
 62
     7
370
    15
100
AcDbLine
 10
105.7249992251
 20
122.2228220182
 30
0.0
 11
105.7249992251
 21
121.5346156138
 31
0.0
  0
LINE
  5
21A
330
1F
100
AcDbEntity
  8
0
  6
SLD-Durchgehend
 62
     7
370
    15
100
AcDbLine
 10
105.7249992251
 20
119.8965160626
 30
0.0
 11
88.0250000142
 21
119.8965160626
 31
0.0
  0
LINE
  5
21B
330
1F
100
AcDbEntity
  8
0
  6
SLD-Durchgehend
 62
     7
370
    15
100
AcDbLine
 10
88.0250000142
 20
120.659774028
 30
0.0
 11
88.0250000142
 21
119.8965160626
 31
0.0
  0
LINE
  5
21C
330
1F
100
AcDbEntity
  8
0
  6
SLD-Durchgehend
 62
     7
370
    15
100
AcDbLine
 10
90.1949999485
 20
120.9356168735
 30
0.0
 11
91.6949999616
 21
120.9356168735
 31
0.0
  0
LINE
  5
21D
330
1F
100
AcDbEntity
  8
0
  6
SLD-Durchgehend
 62
     7
370
    15
100
AcDbLine
 10
91.6949999616
 20
121.110776298
 30
0.0
 11
91.6949999616
 21
120.9356168735
 31
0.0
  0
LINE
  5
21E
330
1F
100
AcDbEntity
  8
0
  6
SLD-Durchgehend
 62
     7
370
    15
100
AcDbLine
 10
105.7249992251
 20
121.5362845439
 30
0.0
 11
105.7249992251
 21
119.8965160626
 31
0.0
  0
ARC
  5
21F
330
1F
100
AcDbEntity
  8
0
  6
SLD-Durchgehend
 62
     7
370
    15
100
AcDbCircle
 10
102.5785269192
 20
75.6865782352
 30
0.0
 40
15.0181003378358
100
AcDbArc
 50
104.8904560603
 51
119.0065764273
  0
ARC
  5
220
330
1F
100
AcDbEntity
  8
0
  6
SLD-Durchgehend
 62
     7
370
    15
100
AcDbCircle
 10
87.725
 20
103.4813074845
 30
0.0
 40
16.50000000000002
100
AcDbArc
 50
270.4817860049
 51
297.3132171503
  0
ELLIPSE
  5
221
330
1F
100
AcDbEntity
  8
0
  6
SLD-Durchgehend
 62
     7
370
    15
100
AcDbEllipse
 10
84.025
 20
88.5875597931
 30
0.0
 11
-8.526512829121201E-14
 21
5.712592026968522
 31
0.0
210
0.0
220
0.0
230
1.0
 40
0.7002075382
 41
4.427474499736425
 42
4.712388980384689
  0
LINE
  5
222
330
1F
100
AcDbEntity
  8
0
  6
SLD-Durchgehend
 62
     7
370
    15
100
AcDbLine
 10
88.0250000142
 20
108.4826498742
 30
0.0
 11
105.7249992251
 21
108.4826498742
 31
0.0
  0
ARC
  5
223
330
1F
100
AcDbEntity
  8
0
  6
SLD-Durchgehend
 62
     7
370
    15
100
AcDbCircle
 10
87.725
 20
103.4813074845
 30
0.0
 40
18.00000000000003
100
AcDbArc
 50
313.8051002464
 51
0.0
  0
LINE
  5
224
330
1F
100
AcDbEntity
  8
0
  6
SLD-Durchgehend
 62
     7
370
    15
100
AcDbLine
 10
98.7192983836
 20
90.2003542039
 30
0.0
 11
100.1847335234
 21
90.4907322007
 31
0.0
  0
LINE
  5
225
330
1F
100
AcDbEntity
  8
0
  6
SLD-Durchgehend
 62
     7
370
    15
100
AcDbLine
 10
88.0250000142
 20
108.4826498742
 30
0.0
 11
88.0250000142
 21
88.5875596183
 31
0.0
  0
LINE
  5
226
330
1F
100
AcDbEntity
  8
0
  6
SLD-Durchgehend
 62
     7
370
    15
100
AcDbLine
 10
105.7249992251
 20
108.4826498742
 30
0.0
 11
105.7249992251
 21
103.4813074845
 31
0.0
  0
LINE
  5
227
330
1F
100
AcDbEntity
  8
0
  6
SLD-Durchgehend
 62
     7
370
    15
100
AcDbLine
 10
88.0250000142
 20
119.8965160626
 30
0.0
 11
88.0250000142
 21
108.4826498742
 31
0.0
  0
LINE
  5
228
330
1F
100
AcDbEntity
  8
0
  6
SLD-Durchgehend
 62
     7
370
    15
100
AcDbLine
 10
105.7249992251
 20
119.8965160626
 30
0.0
 11
105.7249992251
 21
108.4826498742
 31
0.0
  0
ARC
  5
229
330
1F
100
AcDbEntity
  8
0
  6
SLD-Durchgehend
 62
     7
370
    15
100
AcDbCircle
 10
87.7250405762
 20
103.4807787235
 30
0.0
 40
16.50052843236164
100
AcDbArc
 50
88.9583753861
 51
99.2937229637
  0
ARC
  5
22A
330
1F
100
AcDbEntity
  8
0
  6
SLD-Durchgehend
 62
     7
370
    15
100
AcDbCircle
 10
87.7251219981
 20
103.4828775491
 30
0.0
 40
16.50156921671246
100
AcDbArc
 50
260.7065819352
 51
270.4813165865
  0
ELLIPSE
  5
22B
330
1F
100
AcDbEntity
  8
0
  6
SLD-Durchgehend
 62
     7
370
    15
100
AcDbEllipse
 10
79.6840378758
 20
112.421010856
 30
0.0
 11
1.721753363541098
 21
2.368360820935991
 31
0.0
210
0.0
220
0.0
230
0.9999999999999999
 40
0.7016899908
 41
0.0
 42
6.283185307179586
  0
ARC
  5
22C
330
1F
100
AcDbEntity
  8
0
  6
SLD-Durchgehend
 62
     7
370
    15
100
AcDbCircle
 10
87.725
 20
103.4813074845
 30
0.0
 40
16.50000000000001
100
AcDbArc
 50
99.2938801905
 51
260.7061198095
  0
LINE
  5
22D
330
1F
100
AcDbEntity
  8
0
  6
SLD-Durchgehend
 62
     7
370
    15
100
AcDbLine
 10
83.2250001937
 20
120.3813067156
 30
0.0
 11
83.2250001937
 21
120.392842077
 31
0.0
  0
LINE
  5
22E
330
1F
100
AcDbEntity
  8
0
  6
SLD-Durchgehend
 62
     7
370
    15
100
AcDbLine
 10
87.725
 20
120.3813067156
 30
0.0
 11
83.2250001937
 21
120.3813067156
 31
0.0
  0
LINE
  5
22F
330
1F
100
AcDbEntity
  8
0
  6
SLD-Durchgehend
 62
     7
370
    15
100
AcDbLine
 10
92.2681265607
 20
86.5813082534
 30
0.0
 11
83.1818734393
 21
86.5813082534
 31
0.0
  0
LINE
  5
230
330
1F
100
AcDbEntity
  8
0
  6
SLD-Durchgehend
 62
     7
370
    15
100
AcDbLine
 10
74.8475971729
 20
115.3313078436
 30
0.0
 11
75.8749996409
 21
115.3313078436
 31
0.0
  0
LINE
  5
231
330
1F
100
AcDbEntity
  8
0
  6
SLD-Durchgehend
 62
     7
370
    15
100
AcDbLine
 10
75.8749996409
 20
116.3587103116
 30
0.0
 11
75.8749996409
 21
115.3313078436
 31
0.0
  0
LINE
  5
232
330
1F
100
AcDbEntity
  8
0
  6
SLD-Durchgehend
 62
     7
370
    15
100
AcDbLine
 10
83.2250001937
 20
122.3521845865
 30
0.0
 11
83.2250001937
 21
122.968483575
 31
0.0
  0
ARC
  5
233
330
1F
100
AcDbEntity
  8
0
  6
SLD-Durchgehend
 62
     7
370
    15
100
AcDbCircle
 10
87.725
 20
103.4813074845
 30
0.0
 40
20.0
100
AcDbArc
 50
103.0028781629
 51
126.3346172154
  0
LINE
  5
234
330
1F
100
AcDbEntity
  8
0
  6
SLD-Durchgehend
 62
     7
370
    15
100
AcDbLine
 10
75.8749996409
 20
119.5927167761
 30
0.0
 11
75.8749996409
 21
118.8415650728
 31
0.0
  0
LINE
  5
235
330
1F
100
AcDbEntity
  8
0
  6
SLD-Durchgehend
 62
     7
370
    15
100
AcDbLine
 10
82.2250000298
 20
84.8772747892
 30
0.0
 11
82.2250000298
 21
84.2524225342
 31
0.0
  0
ARC
  5
236
330
1F
100
AcDbEntity
  8
0
  6
SLD-Durchgehend
 62
     7
370
    15
100
AcDbCircle
 10
87.725
 20
103.4813074845
 30
0.0
 40
20.00000000000001
100
AcDbArc
 50
143.6653827846
 51
254.0379858372
  0
LINE
  5
237
330
1F
100
AcDbEntity
  8
0
  6
SLD-Durchgehend
 62
     7
370
    15
100
AcDbLine
 10
71.6135907084
 20
115.3313078436
 30
0.0
 11
72.3647424117
 21
115.3313078436
 31
0.0
  0
ARC
  5
238
330
1F
100
AcDbEntity
  8
0
  6
SLD-Durchgehend
 62
     7
370
    15
100
AcDbCircle
 10
87.725
 20
103.4813074845
 30
0.0
 40
20.00000000000001
100
AcDbArc
 50
285.9620141628
 51
25.8419327632
  0
LINE
  5
239
330
1F
100
AcDbEntity
  8
0
  6
SLD-Durchgehend
 62
     7
370
    15
100
AcDbLine
 10
93.2249999702
 20
84.2524225342
 30
0.0
 11
93.2249999702
 21
84.8772747892
 31
0.0
  0
LINE
  5
23A
330
1F
100
AcDbEntity
  8
0
  6
SLD-Durchgehend
 62
     7
370
    15
100
AcDbLine
 10
93.2249999702
 20
84.8772747892
 30
0.0
 11
93.2249999702
 21
86.5813082534
 31
0.0
  0
LINE
  5
23B
330
1F
100
AcDbEntity
  8
0
  6
SLD-Durchgehend
 62
     7
370
    15
100
AcDbLine
 10
93.2249999702
 20
86.5813082534
 30
0.0
 11
92.2681265607
 21
86.5813082534
 31
0.0
  0
LINE
  5
23C
330
1F
100
AcDbEntity
  8
0
  6
SLD-Durchgehend
 62
     7
370
    15
100
AcDbLine
 10
82.2250000298
 20
86.5813082534
 30
0.0
 11
82.2250000298
 21
84.8772747892
 31
0.0
  0
LINE
  5
23D
330
1F
100
AcDbEntity
  8
0
  6
SLD-Durchgehend
 62
     7
370
    15
100
AcDbLine
 10
83.1818734393
 20
86.5813082534
 30
0.0
 11
82.2250000298
 21
86.5813082534
 31
0.0
  0
LINE
  5
23E
330
1F
100
AcDbEntity
  8
0
  6
SLD-Durchgehend
 62
     7
370
    15
100
AcDbLine
 10
72.3647424117
 20
115.3313078436
 30
0.0
 11
74.8475971729
 21
115.3313078436
 31
0.0
  0
LINE
  5
23F
330
1F
100
AcDbEntity
  8
0
  6
SLD-Durchgehend
 62
     7
370
    15
100
AcDbLine
 10
83.2250001937
 20
120.392842077
 30
0.0
 11
83.2250001937
 21
122.3521845865
 31
0.0
  0
LINE
  5
240
330
1F
100
AcDbEntity
  8
0
  6
SLD-Durchgehend
 62
     7
370
    15
100
AcDbLine
 10
75.8749996409
 20
118.8415650728
 30
0.0
 11
75.8749996409
 21
116.3587103116
 31
0.0
  0
ARC
  5
241
330
1F
100
AcDbEntity
  8
0
  6
SLD-Durchgehend
 62
     7
370
    15
100
AcDbCircle
 10
87.721194434
 20
103.4851130504
 30
0.0
 40
19.99468001396032
100
AcDbArc
 50
126.3322940084
 51
143.6677059916
  0
ARC
  5
242
330
1F
100
AcDbEntity
  8
0
  6
SLD-Durchgehend
 62
     7
370
    15
100
AcDbCircle
 10
87.7259860747
 20
103.475374228
 30
0.0
 40
19.99402474853053
100
AcDbArc
 50
272.8640120614
 51
285.9639726697
  0
ARC
  5
243
330
1F
100
AcDbEntity
  8
0
  6
SLD-Durchgehend
 62
     7
370
    15
100
AcDbCircle
 10
87.7270870817
 20
103.4939095676
 30
0.0
 40
20.01269060333597
100
AcDbArc
 50
254.0421632182
 51
267.1298520507
  0
ARC
  5
244
330
1F
100
AcDbEntity
  8
0
  6
SLD-Durchgehend
 62
     7
370
    15
100
AcDbCircle
 10
87.6757636498
 20
103.7796463803
 30
0.0
 40
19.69824277002807
100
AcDbArc
 50
89.8567873272
 51
103.0585851344
  0
ARC
  5
245
330
1F
100
AcDbEntity
  8
0
  6
SLD-Durchgehend
 62
     7
370
    15
100
AcDbCircle
 10
87.725
 20
103.4813074845
 30
0.0
 40
20.0
100
AcDbArc
 50
267.1340160174
 51
272.8659839826
  0
CIRCLE
  5
246
330
1F
100
AcDbEntity
  8
VERMASSUNG
  6
SLD-Punktstrich
100
AcDbCircle
 10
87.725
 20
105.4812141593
 30
0.0
 40
25.00000000000002
  0
POINT
  5
247
330
1F
100
AcDbEntity
  8
VERMASSUNG
100
AcDbPoint
 10
87.725
 20
130.4812141593
 30
0.0
  0
DIMENSION
  5
248
330
1F
100
AcDbEntity
  8
VERMASSUNG
100
AcDbDimension
  2
*D6
 10
59.6211644377
 20
130.4812141593
 30
0.0
 11
59.6211644377
 21
105.4812141593
 31
0.0
 70
   160
  1
%%c<>
 71
     2
 42
-1.0
  3
SLDDIMSTYLE2
100
AcDbAlignedDimension
 13
87.725
 23
80.4812141593
 33
0.0
 14
87.725
 24
130.4812141593
 34
0.0
 50
90.0
100
AcDbRotatedDimension
  0
INSERT
  5
25F
330
1F
100
AcDbEntity
  8
VERMASSUNG
100
AcDbBlockReference
  2
SW_CENTERMARKSYMBOL_0
 10
87.725
 20
103.4813074845
 30
0.0
  0
OLE2FRAME
  5
260
330
1F
100
AcDbEntity
  8
0
100
AcDbOle2Frame
 70
     2
  3
Bitmap
 10
13.8511154363
 20
38.264191557
 30
0.0
 11
51.6290888628
 21
31.9806341108
 31
0.0
 71
     2
 72
     0
 73
     1
 90
    12928
310
80552BED0767C5B32B40DDAF6807D121434000000000000000006FFBDDFB85D0
310
4940DDAF6807D121434000000000000000006FFBDDFB85D04940416F4BD60AFB
310
3F4000000000000000002BED0767C5B32B40416F4BD60AFB3F40000000000000
310
0000000000000100000000010000010000000100000000000100000000320000
310
D0CF11E0A1B11AE1000000000000000000000000000000003E000300FEFF0900
310
0600000000000000000000000100000001000000000000000010000002000000
310
01000000FEFFFFFF0000000000000000FFFFFFFFFFFFFFFFFFFFFFFFFFFFFFFF
310
FFFFFFFFFFFFFFFFFFFFFFFFFFFFFFFFFFFFFFFFFFFFFFFFFFFFFFFFFFFFFFFF
310
FFFFFFFFFFFFFFFFFFFFFFFFFFFFFFFFFFFFFFFFFFFFFFFFFFFFFFFFFFFFFFFF
310
FFFFFFFFFFFFFFFFFFFFFFFFFFFFFFFFFFFFFFFFFFFFFFFFFFFFFFFFFFFFFFFF
310
FFFFFFFFFFFFFFFFFFFFFFFFFFFFFFFFFFFFFFFFFFFFFFFFFFFFFFFFFFFFFFFF
310
FFFFFFFFFFFFFFFFFFFFFFFFFFFFFFFFFFFFFFFFFFFFFFFFFFFFFFFFFFFFFFFF
310
FFFFFFFFFFFFFFFFFFFFFFFFFFFFFFFFFFFFFFFFFFFFFFFFFFFFFFFFFFFFFFFF
310
FFFFFFFFFFFFFFFFFFFFFFFFFFFFFFFFFFFFFFFFFFFFFFFFFFFFFFFFFFFFFFFF
310
FFFFFFFFFFFFFFFFFFFFFFFFFFFFFFFFFFFFFFFFFFFFFFFFFFFFFFFFFFFFFFFF
310
FFFFFFFFFFFFFFFFFFFFFFFFFFFFFFFFFFFFFFFFFFFFFFFFFFFFFFFFFFFFFFFF
310
FFFFFFFFFFFFFFFFFFFFFFFFFFFFFFFFFFFFFFFFFFFFFFFFFFFFFFFFFFFFFFFF
310
FFFFFFFFFFFFFFFFFFFFFFFFFFFFFFFFFFFFFFFFFFFFFFFFFFFFFFFFFFFFFFFF
310
FFFFFFFFFFFFFFFFFFFFFFFFFFFFFFFFFFFFFFFFFFFFFFFFFFFFFFFFFFFFFFFF
310
FFFFFFFFFFFFFFFFFFFFFFFFFFFFFFFFFFFFFFFFFFFFFFFFFFFFFFFFFFFFFFFF
310
FDFFFFFFFEFFFFFFFEFFFFFFFEFFFFFF05000000060000000700000008000000
310
090000000A0000000B0000000C0000000D0000000E0000000F00000010000000
310
11000000120000001300000014000000150000001600000017000000FEFFFFFF
310
FFFFFFFFFFFFFFFFFFFFFFFFFFFFFFFFFFFFFFFFFFFFFFFFFFFFFFFFFFFFFFFF
310
FFFFFFFFFFFFFFFFFFFFFFFFFFFFFFFFFFFFFFFFFFFFFFFFFFFFFFFFFFFFFFFF
310
FFFFFFFFFFFFFFFFFFFFFFFFFFFFFFFFFFFFFFFFFFFFFFFFFFFFFFFFFFFFFFFF
310
FFFFFFFFFFFFFFFFFFFFFFFFFFFFFFFFFFFFFFFFFFFFFFFFFFFFFFFFFFFFFFFF
310
FFFFFFFFFFFFFFFFFFFFFFFFFFFFFFFFFFFFFFFFFFFFFFFFFFFFFFFFFFFFFFFF
310
FFFFFFFFFFFFFFFFFFFFFFFFFFFFFFFFFFFFFFFFFFFFFFFFFFFFFFFFFFFFFFFF
310
FFFFFFFFFFFFFFFFFFFFFFFFFFFFFFFFFFFFFFFFFFFFFFFFFFFFFFFFFFFFFFFF
310
FFFFFFFFFFFFFFFFFFFFFFFFFFFFFFFFFFFFFFFFFFFFFFFFFFFFFFFFFFFFFFFF
310
FFFFFFFFFFFFFFFFFFFFFFFFFFFFFFFFFFFFFFFFFFFFFFFFFFFFFFFFFFFFFFFF
310
FFFFFFFFFFFFFFFFFFFFFFFFFFFFFFFFFFFFFFFFFFFFFFFFFFFFFFFFFFFFFFFF
310
FFFFFFFFFFFFFFFFFFFFFFFFFFFFFFFFFFFFFFFFFFFFFFFFFFFFFFFFFFFFFFFF
310
FFFFFFFFFFFFFFFFFFFFFFFFFFFFFFFFFFFFFFFFFFFFFFFFFFFFFFFFFFFFFFFF
310
FFFFFFFFFFFFFFFFFFFFFFFFFFFFFFFFFFFFFFFFFFFFFFFFFFFFFFFFFFFFFFFF
310
52006F006F007400200045006E00740072007900000000000000000000000000
310
0000000000000000000000000000000000000000000000000000000000000000
310
16000500FFFFFFFFFFFFFFFF020000000A00030000000000C000000000000046
310
0000000000000000000000004060C4B46DA8C90103000000C000000000000000
310
01004F006C006500000000000000000000000000000000000000000000000000
310
0000000000000000000000000000000000000000000000000000000000000000
310
0A000200FFFFFFFFFFFFFFFFFFFFFFFF00000000000000000000000000000000
310
0000000000000000000000000000000000000000000000001400000000000000
310
010043006F006D0070004F0062006A0000000000000000000000000000000000
310
0000000000000000000000000000000000000000000000000000000000000000
310
120002010100000003000000FFFFFFFF00000000000000000000000000000000
310
0000000000000000000000000000000000000000010000004D00000000000000
310
01004F006C006500310030004E00610074006900760065000000000000000000
310
0000000000000000000000000000000000000000000000000000000000000000
310
1A000200FFFFFFFFFFFFFFFFFFFFFFFF00000000000000000000000000000000
310
0000000000000000000000000000000000000000040000002426000000000000
310
FEFFFFFF02000000FEFFFFFFFFFFFFFFFFFFFFFFFFFFFFFFFFFFFFFFFFFFFFFF
310
FFFFFFFFFFFFFFFFFFFFFFFFFFFFFFFFFFFFFFFFFFFFFFFFFFFFFFFFFFFFFFFF
310
FFFFFFFFFFFFFFFFFFFFFFFFFFFFFFFFFFFFFFFFFFFFFFFFFFFFFFFFFFFFFFFF
310
FFFFFFFFFFFFFFFFFFFFFFFFFFFFFFFFFFFFFFFFFFFFFFFFFFFFFFFFFFFFFFFF
310
FFFFFFFFFFFFFFFFFFFFFFFFFFFFFFFFFFFFFFFFFFFFFFFFFFFFFFFFFFFFFFFF
310
FFFFFFFFFFFFFFFFFFFFFFFFFFFFFFFFFFFFFFFFFFFFFFFFFFFFFFFFFFFFFFFF
310
FFFFFFFFFFFFFFFFFFFFFFFFFFFFFFFFFFFFFFFFFFFFFFFFFFFFFFFFFFFFFFFF
310
FFFFFFFFFFFFFFFFFFFFFFFFFFFFFFFFFFFFFFFFFFFFFFFFFFFFFFFFFFFFFFFF
310
FFFFFFFFFFFFFFFFFFFFFFFFFFFFFFFFFFFFFFFFFFFFFFFFFFFFFFFFFFFFFFFF
310
FFFFFFFFFFFFFFFFFFFFFFFFFFFFFFFFFFFFFFFFFFFFFFFFFFFFFFFFFFFFFFFF
310
FFFFFFFFFFFFFFFFFFFFFFFFFFFFFFFFFFFFFFFFFFFFFFFFFFFFFFFFFFFFFFFF
310
FFFFFFFFFFFFFFFFFFFFFFFFFFFFFFFFFFFFFFFFFFFFFFFFFFFFFFFFFFFFFFFF
310
FFFFFFFFFFFFFFFFFFFFFFFFFFFFFFFFFFFFFFFFFFFFFFFFFFFFFFFFFFFFFFFF
310
FFFFFFFFFFFFFFFFFFFFFFFFFFFFFFFFFFFFFFFFFFFFFFFFFFFFFFFFFFFFFFFF
310
FFFFFFFFFFFFFFFFFFFFFFFFFFFFFFFFFFFFFFFFFFFFFFFFFFFFFFFFFFFFFFFF
310
FFFFFFFFFFFFFFFFFFFFFFFFFFFFFFFFFFFFFFFFFFFFFFFFFFFFFFFFFFFFFFFF
310
0100000200000000000000000000000000000000780115000000000000000000
310
0000000000000000000000000000000000000000000000000000000000000000
310
0100FEFF030A0000FFFFFFFF0A00030000000000C00000000000004607000000
310
5042727573680007000000504272757368000700000050427275736800F439B2
310
7100000000000000000000000000000000000000000000000000000000000000
310
0000000000000000000000000000000000000000000000000000000000000000
310
0000000000000000000000000000000000000000000000000000000000000000
310
0000000000000000000000000000000000000000000000000000000000000000
310
0000000000000000000000000000000000000000000000000000000000000000
310
0000000000000000000000000000000000000000000000000000000000000000
310
0000000000000000000000000000000000000000000000000000000000000000
310
0000000000000000000000000000000000000000000000000000000000000000
310
0000000000000000000000000000000000000000000000000000000000000000
310
0000000000000000000000000000000000000000000000000000000000000000
310
0000000000000000000000000000000000000000000000000000000000000000
310
0000000000000000000000000000000000000000000000000000000000000000
310
20260000424D0E260000000000003E00000028000000B40200006E0000000100
310
01000000000000000000130B0000130B00000200000002000000000000FFFFFF
310
FFFFFFFFFFFFFFFFFFFFFFFFFFFFFFFFFFFFFFFFFFFFFFFFFFFFFFFFFFFFFFFF
310
FFFFFFFFFFFFFFFFFFFFFFFFFFFFFFFFFFFFFFFFFFFFFFFFFFFFFFFFFFFFFFFF
310
FFFFFFFFFFFFFFFFFFFFFFFFFFFFFFFFFFFFFFFFFFFFFFFFF000FFFFFFFFFFFF
310
FFFFFFFFFFFFFFFFFFFFFFFFFFFFFFFFFFFFFFFFFFFFFFFFFFFFFFFFFFFFFFFF
310
FFFFFFFFFFFFFFFFFFFFFFFFFFFFFFFFFFFFFFFFFFFFFFFFFFFFFFFFFFFFFFFF
310
FFFFFFFFFFFFFFFFFFFFFFFFFFFFFFFFF000FFFFFFFFFFFFFFFFFFFFFFFFFFFF
310
FFFFFFFFFFFFFFFFFFFFFFFFFFFFFFFFFFFFFFFFFFFFFFFFFFFFFFFFFFFFFFFF
310
FFFFFFFFFFFFFFFFFFFFFFFFFFFFFFFFFFFFFFFFFFFFFFFFFFFFFFFFFFFFFFFF
310
FFFFFFFFFFFFFFFFF000FFFFFFFFFFFFFFFFFFFFFFFFFFFFFFFFFFFFFFFFFFFF
310
FFFFFFFFFFFFFFFFFFFFFFFFFFFFFFFFFFFFFFFFFFFFFFFFFFFFFFFFFFFFFFFF
310
FFFFFFFFFFFFFFFFFFFFFFFFFFFFFFFFFFFFFFFFFFFFFFFFFFFFFFFFFFFFFFFF
310
F000FFFFFFFFFFFFFFFFFFFFFFFFFFFFFFFFFFFFFFFFFFFFFFFFFFFFFFFFFFFF
310
FFFFFFFFFFFFFFFFFFFFFFFFFFFFFFFFFFFFFFFFFFFFFFFFFFFFFFFFFFFFFFFF
310
FFFFFFFFFFFFFFFFFFFFFFFFFFFFFFFFFFFFFFFFFFFFFFFFF000FFFFFFFFFFFF
310
FFFFFFFFFFFFFFFFFFFFFFFFFFFFFFFFFFFFFFFFFFFFFFFFFFFFFFFFFFFFFFFF
310
FFFFFFFFFFFFFFFFFFFFFFFFFFFFFFFFFFFFFFFFFFFFFFFFFFFFFFFFFFFFFFFF
310
FFFFFFFFFFFFFFFFFFFFFFFFFFFFFFFFF000FFFFFFFFFFFFFFFFFFFFFFFFFFFF
310
FFFFFFFFFFFFFFFFFFFFFFFFFFFFFFFFFFFFFFFFFFFFFFFFFFFFFFFFFFFFFFFF
310
FFFFFFFFFFFFFFFFFFFFFFFFFFFFFFFFFFFFFFFFFFFFFFFFFFFFFFFFFFFFFFFF
310
FFFFFFFFFFFFFFFFF000FFFFFFFFFFFFFFFFFFFFFFFFFFFFFFFFFFFFFFFFFFFF
310
FFFFFFFFFFFFFFFFFFFFFFFFFFFFFFFFFFFFFFFFFFFFFFFFFFFFFFFFFFFFFFFF
310
FFFFFFFFFFFFFFFFFFFFFFFFFFFFFFFFFFFFFFFFFFFFFFFFFFFFFFFFFFFFFFFF
310
F000FFFFFFFFFFFFFFFFFFFFFFFFFFFFFFFFFFFFFFFFFFFFFFFFFFFFFFFFFFFF
310
FFFFFFFFFFFFFFFFFFFFFFFFFFFFFFFFFFFFFFFFFFFFFFFFFFFFFFFFFFFFFFFF
310
FFFFFFFFFFFFFFFFFFFFFFFFFFFFFFFFFFFFFFFFFFFFFFFFF000FFFFFFFFFFFF
310
FFFFFFFFFFFFFFFFFFFFFFFFFFFFFFFFFFFFFFFFFFFFFFFFFFFFFFFFFFFFFFFF
310
FFFFFFFFFFFFFFFFFFFFFFFFFFFFFFFFFFFFFFFFFFFFFFFFFFFFFFFFFFFFFFFF
310
FFFFFFFFFFFFFFFFFFFFFFFFFFFFFFFFF000FFFFFFFFFFFFFFFFFFFFFFFFFFFF
310
FFFFFFFFFFFFFFFFFFFFFFFFFFFFFFFFFFFFFFFFFFFFFFFFFFFFFFFFFFFFFFFF
310
FFFFFFFFFFFFFFFFFFFFFFFFFFFFFFFFFFFFFFFFFFFFFFFFFFFFFFFFFFFFFFFF
310
FFFFFFFFFFFFFFFFF000FFFFFFFFFFFFFFFFFFFFFFFFFFFFFFFFFFFFFFFFFFFF
310
FFFFFFFFFFFFFFFFFFFFFFFFFFFFFFFFFFFFFFFFFFFFFFFFFFFFFFFFFFFFFFFF
310
FFFFFFFFFFFFFFFFFFFFFFFFFFFFFFFFFFFFFFFFFFFFFFFFFFFFFFFFFFFFFFFF
310
F000FFFFFFFFFFFFFFFFFFFFFFFFFFFFFFFFFFFFFFFFFFFFFFFFFFFFFFFFFFFF
310
FFFFFFFFFFFFFFFFFFFFFFFFFFFFFFFFFFFFFFFFFFFFFFFFFFFFFFFFFFFFFFFF
310
FFFFFFFFFFFFFFFFFFFFFFFFFFFFFFFFFFFFFFFFFFFFFFFFF000FFFFFFFFFFFF
310
FFFFFFFFFFFFFFFFFFFFFFFFFFFFFFFFFFFFFFFFFFFFFFFFFFFFFFFFFFFFFFFF
310
FFFFFFFFFFFFFFFFFFFFFFFFFFFFFFFFFFFFFFFFFFFFFFFFFFFFFFFFFFFFFFFF
310
FFFFFFFFFFFFFFFFFFFFFFFFFFFFFFFFF000FFFFFFFFFFFFFFFFFFFFFFFFFFFF
310
FFFFFFFFFFFFFFFFFFFFFFFFFFFFFFFFFFFFFFFFFFFFFFFFFFFFFFFFFFFFFFFF
310
FFFFFFFFFFFFFFFFFFFFFFFFFFFFFFFFFFFFFFFFFFFFFFFFFFFFFFFFFFFFFFFF
310
FFFFFFFFFFFFFFFFF000FFFFFFFFFFFFFFFFFFFFFFFFFFFFFFFFFFFFFFFFFFFF
310
FFFFFFFFFFFFFFFFFFFFFFFFFFFFFFFFFFFFFFFFFFFFFFFFFFFFFFFFFFFFFFFF
310
FFFFFFFFFFFFFFFFFFFFFFFFFFFFFFFFFFFFFFFFFFFFFFFFFFFFFFFFFFFFFFFF
310
F000FFFFFFFFFFFFFFFFFFFFFFFFFFFFFFFFFFFFFFFFFFFFFFFFFFFFFFFFFFFF
310
FFFFFFFFFFFFFFFFFFFFFFFFFFFFFFFFFFFFFFFFFFFFFFFFFFFFFFFFFFFFFFFF
310
FFFFFFFFFFFFFFFFFFFFFFFFFFFFFFFFFFFFFFFFFFFFFFFFF000FFFFFFFFFFFF
310
FFFFFFFFFFFFFFFFFFFFFFFFFFFFFFFFFFFFFFFFFFFFFFFFFFFFFFFFFFFFFFFF
310
FFFFFFFFFFFFFFFFFFFFFFFFFFFFFFFFFFFFFFFFFFFFFFFFFFFFFFFFFFFFFFFF
310
FFFFFFFFFFFFFFFFFFFFFFFFFFFFFFFFF000FFFFFFFFFFFFFFFFFFFFFFFFFFFF
310
FFFFFFFFFFFFFFFFFFFFFFFFFFFFFFFFFFFFFFFFFFFFFFFFFFFFFFFFFFFFFFFF
310
FFFFFFFFFFFFFFFFFFFFFFFFFFFFFFFFFFFFFFFFFFFFFFFFFFFFFFFFFFFFFFFF
310
FFFFFFFFFFFFFFFFF000FFFFF80003FFFFFFFFFFFFFFFFFFFFFFFFFFFFFFFFFF
310
FFFFF00007FFFFFFFFFF00007FFFFFF800000000000000007FFFFFFFFFFFFFFF
310
FFFFFFFC001FFFFFFFFFFFFFFC001FFFFFFFFFFFFFFFFFFFFFFFFFFE0007FFFF
310
F000FFFF8000007FFFFFFFF8000FFFFFC0007FFFFF80007FFFFF0000007FFFFF
310
FFF8000007FFFFF800000000000000007FFFFFF0001FFFFFFFFFFFC00001FFFF
310
FFFFFFFFC00001FFFFFFFF000000000003FFFFE000007FFFF000FFFE0000000F
310
FFFFFFF0000FFFFF80007FFFFF80007FFFFC0000001FFFFFFFC0000001FFFFF8
310
00000000000000007FFFFFF0001FFFFFFFFFFE0000003FFFFFFFFFFE0000003F
310
FFFFFF000000000003FFFF0000000FFFF000FFF800000003FFFFFFF00007FFFF
310
80007FFFFF80007FFFF000000007FFFFFF000000003FFFF80000000000000000
310
7FFFFFF0001FFFFFFFFFF80000000FFFFFFFFFF80000000FFFFFFF0000000000
310
03FFFC00000003FFF000FFE000000000FFFFFFF00007FFFF80003FFFFF80007F
310
FFC000000001FFFFFC000000001FFFF800000000000000007FFFFFF0001FFFFF
310
FFFFE000000003FFFFFFFFE000000003FFFFFF000000000003FFF000000000FF
310
F000FF80000000007FFFFFF00007FFFF80003FFFFF80007FFF8000000000FFFF
310
F80000000007FFF800000000000000007FFFFFF0001FFFFFFFFFC000000001FF
310
FFFFFFC000000001FFFFFF000000000003FFC0000000007FF000FF0000000000
310
3FFFFFE00007FFFF00003FFFFF80007FFE00000000003FFFF00000000003FFF8
310
00000000000000007FFFFFF0001FFFFFFFFF8000000000FFFFFFFF8000000000
310
FFFFFF000000000003FF80000000003FF000FE00000000001FFFFFE00003FFFF
310
00003FFFFF80007FFC00000000001FFFE00000000001FFF8000001FFFE000000
310
7FFFFFF0001FFFFFFFFE00000000003FFFFFFE00000000003FFFFF0000000000
310
03FF00000000001FF000FC00000000000FFFFFE00003FFFF00001FFFFF80007F
310
F800000000001FFFC00000000000FFF8000001FFFE0000007FFFFFF0001FFFFF
310
FFFC00000000001FFFFFFC00000000001FFFFF000000000003FE00000000000F
310
F000F8000000000007FFFFE00003FFFF00001FFFFF80007FF800000000000FFF
310
800000000000FFF8000001FFFE0000007FFFFFF0001FFFFFFFF800000000000F
310
FFFFF800000000000FFFFF000000000003FC000000000007F000F80000000000
310
03FFFFC00003FFFE00001FFFFF80007FF0000000000007FF0000000000007FF8
310
000001FFFE0000007FFFFFF0001FFFFFFFF0000000000007FFFFF00000000000
310
07FFFF000000000003F8000000000003F000F0000000000003FFFFC00001FFFE
310
00001FFFFF80007FE0000000000007FE0000000000003FF8000001FFFE000000
310
7FFFFFF0001FFFFFFFF0000000000007FFFFF0000000000007FFFF0000000000
310
03F800001F800003F000E00001FFF00001FFFFC00001FFFE00000FFFFF80007F
310
E00001FFE00003FE00001FFF00003FF8000001FFFE0000007FFFFFF0001FFFFF
310
FFE000003E000003FFFFE000003E000003FFFF000000000003F00001FFF80001
310
F000E00007FFFC0001FFFFC00001FFFE00000FFFFF80007FC0000FFFFC0003FC
310
0000FFFFC0001FF8000001FFFE0000007FFFFFF0001FFFFFFFC00003FFE00001
310
FFFFC00003FFE00001FFFF0001FFFFFFFFF00007FFFE0001F000E0000FFFFF00
310
00FFFF800001FFFC00000FFFFF80007FC0001FFFFE0001FC0001FFFFE0001FF8
310
000001FFFE0000007FFFFFF0001FFFFFFF80000FFFF80000FFFF80000FFFF800
310
00FFFF0003FFFFFFFFE0000FFFFF8000F000C0003FFFFF8000FFFF800000FFFC
310
000007FFFF80007F80003FFFFF0001FC0003FFFFF0001FF8000001FFFE000000
310
7FFFFFF0001FFFFFFF80003FFFFE0000FFFF80003FFFFE0000FFFF0003FFFFFF
310
FFE0003FFFFF8000F000C0003FFFFF8000FFFF800000FFFC000007FFFF80007F
310
80007FFFFF8001F80007FFFFF8000FF8000001FFFE0000007FFFFFF0001FFFFF
310
FF00007FFFFF00007FFF00007FFFFF00007FFF0003FFFFFFFFE0003FFFFFC000
310
F000C0007FFFFFC000FFFF000000FFFC000007FFFF80007F8000FFFFFF8000F8
310
000FFFFFF8000FF8000001FFFE0000007FFFFFF0001FFFFFFF0000FFFFFF8000
310
7FFF0000FFFFFF80007FFF0003FFFFFFFFC0007FFFFFC00070008000FFFFFFC0
310
00FFFF000000FFF8000007FFFF80007F8000FFFFFF8000F8000FFFFFF8000FF8
310
000001FFFE0000007FFFFFF0001FFFFFFE0001FFFFFFC0003FFE0001FFFFFFC0
310
003FFF0003FFFFFFFFC0007FFFFFE00070008000FFFFFFC0007FFF0000007FF8
310
000003FFFF80007F0001FFFFFF8000F8000FFFFFF8000FF8000001FFFE000000
310
7FFFFFF0001FFFFFFE0001FFFFFFC0003FFE0001FFFFFFC0003FFF0003FFFFFF
310
FFC000FFFFFFE00070008000FFFFFFC0007FFF0000007FF8000003FFFF80007F
310
0001FFFFFF8000F8001FFFFFF8000FF8000001FFFE0000007FFFFFF0001FFFFF
310
FE0003FFFFFFE0003FFE0003FFFFFFE0003FFF0003FFFFFFFFC000FFFFFFE000
310
70008000FFFFFFC0007FFE0000007FF8000003FFFF80007F0001FFFFFF8000F0
310
001FFFFFF8000FF8000001FFFE0000007FFFFFF0001FFFFFFC0003FFFFFFE000
310
1FFC0003FFFFFFE0001FFF0003FFFFFFFFC000FFFFFFC00070008000FFFFFF80
310
007FFE0000007FF0000003FFFF80007F0001FFFFFF0000F0001FFFFFF8000FF8
310
000001FFFE0000007FFFFFF0001FFFFFFC0007FFFFFFF0001FFC0007FFFFFFF0
310
001FFF0003FFFFFFFFC000FFFFFFC00070008001FFFFFF0000FFFE0000003FF0
310
000001FFFF80007F0001FFFFFF0000F8001FFFFFF0000FF8000001FFFE000000
310
7FFFFFF0001FFFFFFC0007FFFFFFF0001FFC0007FFFFFFF0001FFF0003FFFFFF
310
FFC001FFFFFF80007000FFFFFFFFFE0000FFFE0008003FF0008001FFFF80007F
310
FFFFFFFFFC0000FFFFFFFFFFE0000FF8000001FFFE0000007FFFFFF0001FFFFF
310
F8000FFFFFFFF8000FF8000FFFFFFFF8000FFF0003FFFFFFFFFFFFFFFFFF0000
310
7000FFFFFFFFFC0000FFFC0008003FF0008001FFFF80007FFFFFFFFFF80001FF
310
FFFFFFFF80000FF8000001FFFE0000007FFFFFF0001FFFFFF8000FFFFFFFF800
310
0FF8000FFFFFFFF8000FFF0003FFFFFFFFFFFFFFFFFE0000F000FFFFFFFFE000
310
00FFFC000C003FE000C001FFFF80007FFFFFFFFFC00001FFFFFFFFFE00001FF8
310
000001FFFE0000007FFFFFF0001FFFFFF8000FFFFFFFF8000FF8000FFFFFFFF8
310
000FFF0003FFFFFFFFFFFFFFFFF00000F000FFFFFFFE000001FFFC000C001FE0
310
00C000FFFF80007FFFFFFFFE000001FFFFFFFFE000001FF80FFFFFFFFFFFFFC0
310
7FFFFFF0001FFFFFF8000FFFFFFFF8000FF8000FFFFFFFF8000FFF0003FFFFFF
310
FFFFFFFFFF800000F000FFFFFFC0000001FFFC001C001FE001C000FFFF80007F
310
FFFFFF80000003FFFFFFF80000001FF80FFFFFFFFFFFFFC07FFFFFF0001FFFFF
310
F8001FFFFFFFFC000FF8001FFFFFFFFC000FFF0003FFFFFFFFFFFFFFF0000001
310
F000FFFFF800000001FFF8001C001FE001C000FFFF80007FFFFFF800000003FF
310
FFFF800000003FF80FFFFFFFFFFFFFC07FFFFFF0001FFFFFF8001FFFFFFFFC00
310
0FF8001FFFFFFFFC000FFF0003FFFFFFFFFFFFFE00000001F000FFFFC0000000
310
03FFF8001E001FC001E000FFFF80007FFFFF8000000007FFFFFC000000003FF8
310
0FFFFFFFFFFFFFC07FFFFFF0001FFFFFF8001FFFFFFFFC000FF8001FFFFFFFFC
310
000FFF0003FFFFFFFFFFFFE000000003F000FFFE0000000007FFF8001E000FC0
310
01E0007FFF80007FFFFE0000000007FFFFE0000000007FF80FFFFFFFFFFFFFC0
310
7FFFFFF0001FFFFFF0001FFFFFFFFC0007F0001FFFFFFFFC0007FF0003FFFFFF
310
FFFFFF0000000003F000FFF80000000007FFF8001E000FC003E0007FFF80007F
310
FFF0000000000FFFFF8000000000FFF80FFFFFFFFFFFFFC07FFFFFF0001FFFFF
310
F0001FFFFFFFFC0007F0001FFFFFFFFC0007FF0003FFFFFFFFFFFC0000000007
310
F000FFE0000000000FFFF0003E000FC003E0007FFF80007FFFC0000000001FFF
310
FE0000000001FFF80FFFFFFFFFFFFFC07FFFFFF0001FFFFFF0001FFFFFFFFC00
310
07F0001FFFFFFFFC0007FF0003FFFFFFFFFFF0000000000FF000FFC000000000
310
1FFFF0003F000F8003F0003FFF80007FFF80000000003FFFF80000000003FFF8
310
0FFFFFFFFFFFFFC07FFFFFF0001FFFFFF0001FFFFFFFFC0007F0001FFFFFFFFC
310
0007FF0003FFFFFFFFFFE0000000001FF000FF00000000007FFFF0003F000780
310
03F0003FFF80007FFF00000000007FFFF00000000007FFF80FFFFFFFFFFFFFC0
310
7FFFFFF0001FFFFFF0001FFFFFFFFC0007F0001FFFFFFFFC0007FF0003FFFFFF
310
FFFF80000000007FF000FE0000000000FFFFE0003F00078007F0003FFF80007F
310
FE0000000001FFFFE0000000001FFFF80FFFFFFFFFFFFFC07FFFFFF0001FFFFF
310
F0001FFFFFFFFC0007F0001FFFFFFFFC0007FF0003FFFFFFFFFF0000000000FF
310
F000FC0000000003FFFFE0007F00078007F0003FFF80007FFC0000000007FFFF
310
C0000000007FFFF80FFFFFFFFFFFFFC07FFFFFF0001FFFFFF8001FFFFFFFFC00
310
0FF8001FFFFFFFFC000FFF0003FFFFFFFFFE0000000003FFF000FC000000000F
310
FFFFE0007F80070007F8001FFF80007FF8000000001FFFFF8000000001FFFFF8
310
0FFFFFFFFFFFFFC07FFFFFF0001FFFFFF8001FFFFFFFFC000FF8001FFFFFFFFC
310
000FFF0003FFFFFFFFFC000000000FFFF000F8000000007FFFFFE0007F800700
310
07F8001FFF80007FF000000000FFFFFF800000000FFFFFF80FFFFFFFFFFFFFC0
310
7FFFFFF0001FFFFFF8000FFFFFFFF8000FF8000FFFFFFFF8000FFF0003FFFFFF
310
FFFC000000007FFFF000F800000007FFFFFFC0007F8003000FF8001FFF80007F
310
F000000007FFFFFF000000007FFFFFF80FFFFFFFFFFFFFC07FFFFFF0001FFFFF
310
F8000FFFFFFFF8000FF8000FFFFFFFF8000FFF0003FFFFFFFFF80000000FFFFF
310
F000F0000000FFFFFFFFC000FF8003000FF8001FFF80007FE0000000FFFFFFFF
310
0000000FFFFFFFF8000001FFFE0000007FFFFFF0001FFFFFF8000FFFFFFFF800
310
0FF8000FFFFFFFF8000FFF0003FFFFFFFFF8000000FFFFFFF000F000000FFFFF
310
FFFFC000FFC002000FF8000FFF80007FE000001FFFFFFFFE000001FFFFFFFFF8
310
000001FFFE0000007FFFFFF0001FFFFFF8000FFFFFFFF8000FF8000FFFFFFFF8
310
000FFF0003FFFFFFFFF000001FFFFFFFF000E00000FFFFFFFFFFC000FFC00200
310
0FFC000FFF80007FE00001FFFFFFFFFE00001FFFFFFFFFF8000001FFFE000000
310
7FFFFFF0001FFFFFFC000FFFFFFFF8001FFC000FFFFFFFF8001FFF0003FFFFFF
310
FFF00001FFFFFFFFF000E00007FFFFFFFFFF8000FFC000001FFC000FFF80007F
310
C0000FFFFFFFFFFE0000FFFFFFFFFFF8000001FFFE0000007FFFFFF0001FFFFF
310
FC0007FFFFFFF0001FFC0007FFFFFFF0001FFF0003FFFFFFFFF00007FFFFFFFF
310
F000E0001FFFFFFFFFFF8000FFC000001FFC000FFF80007FC0003FFFFFFFFFFE
310
0001FFFFFFFFFFF8000001FFFE0000007FFFFFF0001FFFFFFC0007FFFFFFF000
310
1FFC0007FFFFFFF0001FFF0003FFFFFFFFF0001FFFFFFFFFF000E0003FFFFF00
310
03FF8001FFE000001FFC0007FF80007FC0007FFFFF0007FC0003FFFFF0003FF8
310
000001FFFE0000007FFFFFF0001FFFFFFC0003FFFFFFE0001FFC0003FFFFFFE0
310
001FFF0003FFFFFFFFF0003FFFFFFFFFF000E0003FFFFF0001FF8001FFE00000
310
1FFE0007FF80007FC0007FFFFE0003FC0007FFFFE0003FF8000001FFFE000000
310
7FFFFFF0001FFFFFFE0003FFFFFFE0003FFE0003FFFFFFE0003FFF0003FFFFFF
310
FFF0003FFFFF8001F000E0003FFFFF0001FF0001FFE000001FFE0007FF80007F
310
C0007FFFFE0003FC0007FFFFE0003FF8000001FFFE0000007FFFFFF0001FFFFF
310
FE0001FFFFFFC0003FFE0001FFFFFFC0003FFF0003FFFFFFFFF0003FFFFF0001
310
F000E0003FFFFF0003FF0001FFE000003FFE0007FF80007FC0007FFFFE0003FC
310
0007FFFFE0003FF8000001FFFE0000007FFFFFF0001FFFFFFF0001FFFFFFC000
310
7FFF0001FFFFFFC0007FFF0003FFFFFFFFF0003FFFFF0001F000E0003FFFFE00
310
03FF0003FFF000003FFE0003FF80007FC0007FFFFC0003FE0007FFFFE0003FF8
310
000001FFFE0000007FFFFFF0001FFFFFFF0000FFFFFF80007FFF0000FFFFFF80
310
007FFF0003FFFFFFFFF0003FFFFF0001F000E0003FFFFE0003FF0003FFF00000
310
3FFF0003FF80007FC0007FFFFC0007FE0007FFFFC0003FF8000001FFFE000000
310
7FFFFFF0001FFFFFFF80007FFFFF0000FFFF80007FFFFF0000FFFF0003FFFFFF
310
FFF0003FFFFF0003F000E0003FFFFC0003FE0003FFF000003FFF0003FF80007F
310
E0003FFFF80007FE0003FFFFC0007FF8000001FFFE0000007FFFFFF0001FFFFF
310
FF80003FFFFE0000FFFF80003FFFFE0000FFFF0003FFFFFFFFF0001FFFFE0003
310
F000F0001FFFF80003FE0003FFF000007FFF0001FF80007FE0003FFFF00007FE
310
0001FFFF80007FF8000001FFFE0000007FFFFFF0001FFFFFFFC0000FFFF80001
310
FFFFC0000FFFF80001FFFF0003FFFFFFFFF0001FFFFC0003F000F0000FFFF000
310
07FE0007FFF800007FFF0001FF80007FE0001FFFE00007FF0000FFFE00007FF8
310
000001FFFE0000007FFFFFF0001FFFFFFFC00003FFE00001FFFFC00003FFE000
310
01FFFF0003FFFFFFFFF8000FFFF80003F000F00003FFC00007FC0007FFF80000
310
7FFF8001FF80007FF00007FF80000FFF00007FF80000FFF8000001FFFE000000
310
7F80000000000001FFE000003E000003FFFFE000003E000003FFFF0003FFFFFF
310
FFF80003FFE00007F000F800000000000FFC0007FFF800007FFF8001FF80007F
310
F000000000000FFF000000000000FFF8000001FFFE0000007F80000000000001
310
FFF0000000000007FFFFF0000000000007FFFF0003FFFFFFFFFC00007E000007
310
F000F800000000000FFC0007FFF80000FFFF8000FF80007FF800000000001FFF
310
800000000001FFF8000001FFFE0000007F80000000000001FFF800000000000F
310
FFFFF800000000000FFFFF0003FFFFFFFFFC00000000000FF000FC0000000000
310
1FFC0007FFFC0000FFFF8000FF80007FF800000000003FFFC00000000001FFF8
310
000001FFFE0000007F80000000000001FFF800000000000FFFFFF80000000000
310
0FFFFF0003FFFFFFFFFE00000000001FF000FE00000000003FF8000FFFFC0000
310
FFFF8000FF80007FFC00000000003FFFC00000000003FFF8000001FFFE000000
310
7F80000000000001FFFC00000000001FFFFFFC00000000001FFFFF0003FFFFFF
310
FFFF00000000001FF000FF00000000003FF8000FFFFC0000FFFFC000FF80007F
310
FE00000000007FFFE00000000007FFF8000001FFFE0000007F80000000000001
310
FFFE00000000003FFFFFFE00000000003FFFFF0003FFFFFFFFFF80000000003F
310
F000FF80000000007FF8000FFFFC0001FFFFC0007F80007FFF0000000000FFFF
310
F0000000000FFFF800000000000000007F80000000000001FFFF8000000000FF
310
FFFFFF8000000000FFFFFF0003FFFFFFFFFFC0000000007FF000FFC000000000
310
FFF8000FFFFE0001FFFFC0007F80007FFF8000000001FFFFF8000000001FFFF8
310
00000000000000007F80000000000001FFFFC000000001FFFFFFFFC000000001
310
FFFFFF0003FFFFFFFFFFE000000000FFF000FFE000000003FFF0001FFFFE0001
310
FFFFC0007F80007FFFC000000007FFFFFE000000003FFFF80000000000000000
310
7F80000000000001FFFFE000000003FFFFFFFFE000000003FFFFFF0003FFFFFF
310
FFFFF000000003FFF000FFF80000000FFFF0001FFFFE0001FFFFE0007F80007F
310
FFF00000000FFFFFFF00000000FFFFF800000000000000007F80000000000001
310
FFFFF80000000FFFFFFFFFF80000000FFFFFFF0003FFFFFFFFFFFC0000000FFF
310
F000FFFE0000003FFFF0001FFFFE0003FFFFE0003F80007FFFFC0000003FFFFF
310
FFC0000003FFFFF800000000000000007F80000000000001FFFFFE0000003FFF
310
FFFFFFFE0000003FFFFFFF0003FFFFFFFFFFFF0000003FFFF000FFFF800000FF
310
FFF0001FFFFF0003FFFFE0003F80007FFFFF000001FFFFFFFFF800001FFFFFF8
310
00000000000000007F80000000000001FFFFFFC00001FFFFFFFFFFFFC00001FF
310
FFFFFF0003FFFFFFFFFFFFC00000FFFFF000FFFFF8000FFFFFFFFFFFFFFFFFFF
310
FFFFFFFFFFFFFFFFFFFFF0001FFFFFFFFFFF0000FFFFFFF80000000000000000
310
7FFFFFFFFFFFFFFFFFFFFFFC001FFFFFFFFFFFFFFC001FFFFFFFFFFFFFFFFFFF
310
FFFFFFFC001FFFFFF000FFFFFFFFFFFFFFFFFFFFFFFFFFFFFFFFFFFFFFFFFFFF
310
FFFFFFFFFFFFFFFFFFFFFFFFFFFFFFFFFFFFFFFFFFFFFFFFFFFFFFFFFFFFFFFF
310
FFFFFFFFFFFFFFFFFFFFFFFFFFFFFFFFFFFFFFFFFFFFFFFFFFFFFFFFFFFFFFFF
310
F000FFFFFFFFFFFFFFFFFFFFFFFFFFFFFFFFFFFFFFFFFFFFFFFFFFFFFFFFFFFF
310
FFFFFFFFFFFFFFFFFFFFFFFFFFFFFFFFFFFFFFFFFFFFFFFFFFFFFFFFFFFFFFFF
310
FFFFFFFFFFFFFFFFFFFFFFFFFFFFFFFFFFFFFFFFFFFFFFFFF000FFFFFFFFFFFF
310
FFFFFFFFFFFFFFFFFFFFFFFFFFFFFFFFFFFFFFFFFFFFFFFFFFFFFFFFFFFFFFFF
310
FFFFFFFFFFFFFFFFFFFFFFFFFFFFFFFFFFFFFFFFFFFFFFFFFFFFFFFFFFFFFFFF
310
FFFFFFFFFFFFFFFFFFFFFFFFFFFFFFFFF000FFFFFFFFFFFFFFFFFFFFFFFFFFFF
310
FFFFFFFFFFFFFFFFFFFFFFFFFFFFFFFFFFFFFFFFFFFFFFFFFFFFFFFFFFFFFFFF
310
FFFFFFFFFFFFFFFFFFFFFFFFFFFFFFFFFFFFFFFFFFFFFFFFFFFFFFFFFFFFFFFF
310
FFFFFFFFFFFFFFFFF000FFFFFFFFFFFFFFFFFFFFFFFFFFFFFFFFFFFFFFFFFFFF
310
FFFFFFFFFFFFFFFFFFFFFFFFFFFFFFFFFFFFFFFFFFFFFFFFFFFFFFFFFFFFFFFF
310
FFFFFFFFFFFFFFFFFFFFFFFFFFFFFFFFFFFFFFFFFFFFFFFFFFFFFFFFFFFFFFFF
310
F000FFFFFFFFFFFFFFFFFFFFFFFFFFFFFFFFFFFFFFFFFFFFFFFFFFFFFFFFFFFF
310
FFFFFFFFFFFFFFFFFFFFFFFFFFFFFFFFFFFFFFFFFFFFFFFFFFFFFFFFFFFFFFFF
310
FFFFFFFFFFFFFFFFFFFFFFFFFFFFFFFFFFFFFFFFFFFFFFFFF000FFFFFFFFFFFF
310
FFFFFFFFFFFFFFFFFFFFFFFFFFFFFFFFFFFFFFFFFFFFFFFFFFFFFFFFFFFFFFFF
310
FFFFFFFFFFFFFFFFFFFFFFFFFFFFFFFFFFFFFFFFFFFFFFFFFFFFFFFFFFFFFFFF
310
FFFFFFFFFFFFFFFFFFFFFFFFFFFFFFFFF000FFFFFFFFFFFFFFFFFFFFFFFFFFFF
310
FFFFFFFFFFFFFFFFFFFFFFFFFFFFFFFFFFFFFFFFFFFFFFFFFFFFFFFFFFFFFFFF
310
FFFFFFFFFFFFFFFFFFFFFFFFFFFFFFFFFFFFFFFFFFFFFFFFFFFFFFFFFFFFFFFF
310
FFFFFFFFFFFFFFFFF000FFFFFFFFFFFFFFFFFFFFFFFFFFFFFFFFFFFFFFFFFFFF
310
FFFFFFFFFFFFFFFFFFFFFFFFFFFFFFFFFFFFFFFFFFFFFFFFFFFFFFFFFFFFFFFF
310
FFFFFFFFFFFFFFFFFFFFFFFFFFFFFFFFFFFFFFFFFFFFFFFFFFFFFFFFFFFFFFFF
310
F000FFFFFFFFFFFFFFFFFFFFFFFFFFFFFFFFFFFFFFFFFFFFFFFFFFFFFFFFFFFF
310
FFFFFFFFFFFFFFFFFFFFFFFFFFFFFFFFFFFFFFFFFFFFFFFFFFFFFFFFFFFFFFFF
310
FFFFFFFFFFFFFFFFFFFFFFFFFFFFFFFFFFFFFFFFFFFFFFFFF000FFFFFFFFFFFF
310
FFFFFFFFFFFFFFFFFFFFFFFFFFFFFFFFFFFFFFFFFFFFFFFFFFFFFFFFFFFFFFFF
310
FFFFFFFFFFFFFFFFFFFFFFFFFFFFFFFFFFFFFFFFFFFFFFFFFFFFFFFFFFFFFFFF
310
FFFFFFFFFFFFFFFFFFFFFFFFFFFFFFFFF000FFFFFFFFFFFFFFFFFFFFFFFFFFFF
310
FFFFFFFFFFFFFFFFFFFFFFFFFFFFFFFFFFFFFFFFFFFFFFFFFFFFFFFFFFFFFFFF
310
FFFFFFFFFFFFFFFFFFFFFFFFFFFFFFFFFFFFFFFFFFFFFFFFFFFFFFFFFFFFFFFF
310
FFFFFFFFFFFFFFFFF000FFFFFFFFFFFFFFFFFFFFFFFFFFFFFFFFFFFFFFFFFFFF
310
FFFFFFFFFFFFFFFFFFFFFFFFFFFFFFFFFFFFFFFFFFFFFFFFFFFFFFFFFFFFFFFF
310
FFFFFFFFFFFFFFFFFFFFFFFFFFFFFFFFFFFFFFFFFFFFFFFFFFFFFFFFFFFFFFFF
310
F000FFFFFFFFFFFFFFFFFFFFFFFFFFFFFFFFFFFFFFFFFFFFFFFFFFFFFFFFFFFF
310
FFFFFFFFFFFFFFFFFFFFFFFFFFFFFFFFFFFFFFFFFFFFFFFFFFFFFFFFFFFFFFFF
310
FFFFFFFFFFFFFFFFFFFFFFFFFFFFFFFFFFFFFFFFFFFFFFFFF000FFFFFFFFFFFF
310
FFFFFFFFFFFFFFFFFFFFFFFFFFFFFFFFFFFFFFFFFFFFFFFFFFFFFFFFFFFFFFFF
310
FFFFFFFFFFFFFFFFFFFFFFFFFFFFFFFFFFFFFFFFFFFFFFFFFFFFFFFFFFFFFFFF
310
FFFFFFFFFFFFFFFFFFFFFFFFFFFFFFFFF000FFFFFFFFFFFFFFFFFFFFFFFFFFFF
310
FFFFFFFFFFFFFFFFFFFFFFFFFFFFFFFFFFFFFFFFFFFFFFFFFFFFFFFFFFFFFFFF
310
FFFFFFFFFFFFFFFFFFFFFFFFFFFFFFFFFFFFFFFFFFFFFFFFFFFFFFFFFFFFFFFF
310
FFFFFFFFFFFFFFFFF000FFFFFFFFFFFFFFFFFFFFFFFFFFFFFFFFFFFFFFFFFFFF
310
FFFFFFFFFFFFFFFFFFFFFFFFFFFFFFFFFFFFFFFFFFFFFFFFFFFFFFFFFFFFFFFF
310
FFFFFFFFFFFFFFFFFFFFFFFFFFFFFFFFFFFFFFFFFFFFFFFFFFFFFFFFFFFFFFFF
310
F000FFFFFFFFFFFFFFFFFFFFFFFFFFFFFFFFFFFFFFFFFFFFFFFFFFFFFFFFFFFF
310
FFFFFFFFFFFFFFFFFFFFFFFFFFFFFFFFFFFFFFFFFFFFFFFFFFFFFFFFFFFFFFFF
310
FFFFFFFFFFFFFFFFFFFFFFFFFFFFFFFFFFFFFFFFFFFFFFFFF000FFFFFFFFFFFF
310
FFFFFFFFFFFFFFFFFFFFFFFFFFFFFFFFFFFFFFFFFFFFFFFFFFFFFFFFFFFFFFFF
310
FFFFFFFFFFFFFFFFFFFFFFFFFFFFFFFFFFFFFFFFFFFFFFFFFFFFFFFFFFFFFFFF
310
FFFFFFFFFFFFFFFFFFFFFFFFFFFFFFFFF000FFFFFFFFFFFFFFFFFFFFFFFFFFFF
310
FFFFFFFFFFFFFFFFFFFFFFFFFFFFFFFFFFFFFFFFFFFFFFFFFFFFFFFFFFFFFFFF
310
FFFFFFFFFFFFFFFFFFFFFFFFFFFFFFFFFFFFFFFFFFFFFFFFFFFFFFFFFFFFFFFF
310
FFFFFFFFFFFFFFFFF000FFFFFFFFFFFFFFFFFFFFFFFFFFFFFFFFFFFFFFFFFFFF
310
FFFFFFFFFFFFFFFFFFFFFFFFFFFFFFFFFFFFFFFFFFFFFFFFFFFFFFFFFFFFFFFF
310
FFFFFFFFFFFFFFFFFFFFFFFFFFFFFFFFFFFFFFFFFFFFFFFFFFFFFFFFFFFFFFFF
310
F000FFFFFFFFFFFFFFFFFFFFFFFFFFFFFFFFFFFFFFFFFFFFFFFFFFFFFFFFFFFF
310
FFFFFFFFFFFFFFFFFFFFFFFFFFFFFFFFFFFFFFFFFFFFFFFFFFFFFFFFFFFFFFFF
310
FFFFFFFFFFFFFFFFFFFFFFFFFFFFFFFFFFFFFFFFFFFFFFFFF000FFFFFFFFFFFF
310
FFFFFFFFFFFFFFFFFFFFFFFFFFFFFFFFFFFFFFFFFFFFFFFFFFFFFFFFFFFFFFFF
310
FFFFFFFFFFFFFFFFFFFFFFFFFFFFFFFFFFFFFFFFFFFFFFFFFFFFFFFFFFFFFFFF
310
FFFFFFFFFFFFFFFFFFFFFFFFFFFFFFFFF0000000000000000000000000000000
310
0000000000000000000000000000000000000000000000000000000000000000
310
0000000000000000000000000000000000000000000000000000000000000000
310
0000000000000000000000000000000000000000000000000000000000000000
310
0000000000000000000000000000000000000000000000000000000000000000
310
0000000000000000000000000000000000000000000000000000000000000000
310
0000000000000000000000000000000000000000000000000000000000000000
310
0000000000000000000000000000000000000000000000000000000000000000
310
0000000000000000000000000000000000000000000000000000000000000000
310
0000000000000000000000000000000000000000000000000000000000000000
310
0000000000000000000000000000000000000000000000000000000000000000
310
0000000000000000000000000000000000000000000000000000000000000000
310
0000000000000000000000000000000000000000000000000000000000000000
310
0000000000000000000000000000000000000000000000000000000000000000
310
0000000000000000000000000000000000000000000000000000000000000000
310
0000000000000000000000000000000000000000000000000000000000000000
  1
OLE
  0
ENDSEC
  0
SECTION
  2
OBJECTS
  0
DICTIONARY
  5
C
330
0
100
AcDbDictionary
281
     1
  3
ACAD_GROUP
350
D
  3
ACAD_LAYOUT
350
1A
  3
ACAD_MLEADERSTYLE
350
264
  3
ACAD_MLINESTYLE
350
17
  3
ACAD_PLOTSETTINGS
350
19
  3
ACAD_PLOTSTYLENAME
350
E
  3
ACAD_SCALELIST
350
3B
  3
ACAD_TABLESTYLE
350
263
  3
ACAD_VISUALSTYLE
350
2A
  3
AcDbVariableDictionary
350
261
  0
DICTIONARY
  5
D
102
{ACAD_REACTORS
330
C
102
}
330
C
100
AcDbDictionary
281
     1
  0
DICTIONARY
  5
1A
102
{ACAD_REACTORS
330
C
102
}
330
C
100
AcDbDictionary
281
     1
  3
Layout1
350
1E
  3
Layout2
350
26
  3
Model
350
22
  0
DICTIONARY
  5
264
102
{ACAD_REACTORS
330
C
102
}
330
C
100
AcDbDictionary
281
     1
  0
DICTIONARY
  5
17
102
{ACAD_REACTORS
330
C
102
}
330
C
100
AcDbDictionary
281
     1
  3
Standard
350
18
  0
DICTIONARY
  5
19
102
{ACAD_REACTORS
330
C
102
}
330
C
100
AcDbDictionary
281
     1
  0
ACDBDICTIONARYWDFLT
  5
E
102
{ACAD_REACTORS
330
C
102
}
330
C
100
AcDbDictionary
281
     1
  3
Normal
350
F
100
AcDbDictionaryWithDefault
340
F
  0
DICTIONARY
  5
3B
102
{ACAD_REACTORS
330
C
102
}
330
C
100
AcDbDictionary
281
     1
  3
A0
350
3C
  3
A1
350
3D
  3
A2
350
3E
  3
A3
350
3F
  3
A4
350
40
  3
A5
350
41
  3
A6
350
42
  3
A7
350
43
  3
A8
350
44
  3
A9
350
45
  3
B0
350
46
  3
B1
350
47
  3
B2
350
48
  3
B3
350
49
  3
B4
350
4A
  3
B5
350
4B
  3
B6
350
4C
  3
B7
350
4D
  3
B8
350
4E
  3
B9
350
4F
  3
C0
350
50
  3
C1
350
51
  3
C2
350
52
  3
C3
350
53
  3
C4
350
54
  3
C5
350
55
  3
C6
350
56
  3
C7
350
57
  3
C8
350
58
  3
C9
350
59
  3
D0
350
5A
  3
D1
350
5B
  3
D2
350
5C
  0
DICTIONARY
  5
263
102
{ACAD_REACTORS
330
C
102
}
330
C
100
AcDbDictionary
281
     1
  0
DICTIONARY
  5
2A
102
{ACAD_REACTORS
330
C
102
}
330
C
100
AcDbDictionary
281
     1
  3
2dWireframe
350
2F
  3
3D Hidden
350
31
  3
3dWireframe
350
30
  3
Basic
350
32
  3
Brighten
350
36
  3
ColorChange
350
3A
  3
Conceptual
350
34
  3
Dim
350
35
  3
Facepattern
350
39
  3
Flat
350
2B
  3
FlatWithEdges
350
2C
  3
Gouraud
350
2D
  3
GouraudWithEdges
350
2E
  3
Linepattern
350
38
  3
Realistic
350
33
  3
Thicken
350
37
  0
DICTIONARY
  5
261
102
{ACAD_REACTORS
330
C
102
}
330
C
100
AcDbDictionary
281
     1
  3
CANNOSCALE
350
262
  3
PSOLHEIGHT
350
266
  3
PSOLWIDTH
350
265
  0
LAYOUT
  5
1E
102
{ACAD_REACTORS
330
1A
102
}
330
1A
100
AcDbPlotSettings
  1

  2
none_device
  4

  6

 40
0.0
 41
0.0
 42
0.0
 43
0.0
 44
0.0
 45
0.0
 46
0.0
 47
0.0
 48
0.0
 49
0.0
140
0.0
141
0.0
142
1.0
143
1.0
 70
   688
 72
     0
 73
     0
 74
     5
  7

 75
    16
147
1.0
148
0.0
149
0.0
100
AcDbLayout
  1
Layout1
 70
     1
 71
     1
 10
0.0
 20
0.0
 11
420.0
 21
297.0
 12
0.0
 22
0.0
 32
0.0
 14
1.0000000000E+20
 24
1.0000000000E+20
 34
1.0000000000E+20
 15
-1.0000000000E+20
 25
-1.0000000000E+20
 35
-1.0000000000E+20
146
0.0
 13
0.0
 23
0.0
 33
0.0
 16
1.0
 26
0.0
 36
0.0
 17
0.0
 27
1.0
 37
0.0
 76
     0
330
1B
  0
LAYOUT
  5
26
102
{ACAD_REACTORS
330
1A
102
}
330
1A
100
AcDbPlotSettings
  1

  2
none_device
  4

  6

 40
0.0
 41
0.0
 42
0.0
 43
0.0
 44
0.0
 45
0.0
 46
0.0
 47
0.0
 48
0.0
 49
0.0
140
0.0
141
0.0
142
1.0
143
1.0
 70
   688
 72
     0
 73
     0
 74
     5
  7

 75
    16
147
1.0
148
0.0
149
0.0
100
AcDbLayout
  1
Layout2
 70
     1
 71
     2
 10
0.0
 20
0.0
 11
0.0
 21
0.0
 12
0.0
 22
0.0
 32
0.0
 14
0.0
 24
0.0
 34
0.0
 15
0.0
 25
0.0
 35
0.0
146
0.0
 13
0.0
 23
0.0
 33
0.0
 16
1.0
 26
0.0
 36
0.0
 17
0.0
 27
1.0
 37
0.0
 76
     0
330
23
  0
LAYOUT
  5
22
102
{ACAD_REACTORS
330
1A
102
}
330
1A
100
AcDbPlotSettings
  1

  2
none_device
  4

  6

 40
0.0
 41
0.0
 42
0.0
 43
0.0
 44
0.0
 45
0.0
 46
0.0
 47
0.0
 48
0.0
 49
0.0
140
0.0
141
0.0
142
1.0
143
1.0
 70
  1712
 72
     0
 73
     0
 74
     0
  7

 75
     0
147
1.0
148
0.0
149
0.0
100
AcDbLayout
  1
Model
 70
     1
 71
     0
 10
0.0
 20
0.0
 11
297.0
 21
210.0
 12
0.0
 22
0.0
 32
0.0
 14
0.0
 24
0.0
 34
0.0
 15
297.0
 25
210.0
 35
0.0
146
0.0
 13
0.0
 23
0.0
 33
0.0
 16
1.0
 26
0.0
 36
0.0
 17
0.0
 27
1.0
 37
0.0
 76
     0
330
1F
331
29
  0
MLINESTYLE
  5
18
102
{ACAD_REACTORS
330
17
102
}
330
17
100
AcDbMlineStyle
  2
Standard
 70
     0
  3

 62
   256
 51
90.0
 52
90.0
 71
     2
 49
0.5
 62
   256
  6
BYLAYER
 49
-0.5
 62
   256
  6
BYLAYER
  0
ACDBPLACEHOLDER
  5
F
102
{ACAD_REACTORS
330
E
102
}
330
E
  0
SCALE
  5
3C
102
{ACAD_REACTORS
330
3B
102
}
330
3B
100
AcDbScale
 70
     0
300
1:1
140
1.0
141
1.0
290
     1
  0
SCALE
  5
3D
102
{ACAD_REACTORS
330
3B
102
}
330
3B
100
AcDbScale
 70
     0
300
1:2
140
1.0
141
2.0
290
     0
  0
SCALE
  5
3E
102
{ACAD_REACTORS
330
3B
102
}
330
3B
100
AcDbScale
 70
     0
300
1:4
140
1.0
141
4.0
290
     0
  0
SCALE
  5
3F
102
{ACAD_REACTORS
330
3B
102
}
330
3B
100
AcDbScale
 70
     0
300
1:5
140
1.0
141
5.0
290
     0
  0
SCALE
  5
40
102
{ACAD_REACTORS
330
3B
102
}
330
3B
100
AcDbScale
 70
     0
300
1:8
140
1.0
141
8.0
290
     0
  0
SCALE
  5
41
102
{ACAD_REACTORS
330
3B
102
}
330
3B
100
AcDbScale
 70
     0
300
1:10
140
1.0
141
10.0
290
     0
  0
SCALE
  5
42
102
{ACAD_REACTORS
330
3B
102
}
330
3B
100
AcDbScale
 70
     0
300
1:16
140
1.0
141
16.0
290
     0
  0
SCALE
  5
43
102
{ACAD_REACTORS
330
3B
102
}
330
3B
100
AcDbScale
 70
     0
300
1:20
140
1.0
141
20.0
290
     0
  0
SCALE
  5
44
102
{ACAD_REACTORS
330
3B
102
}
330
3B
100
AcDbScale
 70
     0
300
1:30
140
1.0
141
30.0
290
     0
  0
SCALE
  5
45
102
{ACAD_REACTORS
330
3B
102
}
330
3B
100
AcDbScale
 70
     0
300
1:40
140
1.0
141
40.0
290
     0
  0
SCALE
  5
46
102
{ACAD_REACTORS
330
3B
102
}
330
3B
100
AcDbScale
 70
     0
300
1:50
140
1.0
141
50.0
290
     0
  0
SCALE
  5
47
102
{ACAD_REACTORS
330
3B
102
}
330
3B
100
AcDbScale
 70
     0
300
1:100
140
1.0
141
100.0
290
     0
  0
SCALE
  5
48
102
{ACAD_REACTORS
330
3B
102
}
330
3B
100
AcDbScale
 70
     0
300
2:1
140
2.0
141
1.0
290
     0
  0
SCALE
  5
49
102
{ACAD_REACTORS
330
3B
102
}
330
3B
100
AcDbScale
 70
     0
300
4:1
140
4.0
141
1.0
290
     0
  0
SCALE
  5
4A
102
{ACAD_REACTORS
330
3B
102
}
330
3B
100
AcDbScale
 70
     0
300
8:1
140
8.0
141
1.0
290
     0
  0
SCALE
  5
4B
102
{ACAD_REACTORS
330
3B
102
}
330
3B
100
AcDbScale
 70
     0
300
10:1
140
10.0
141
1.0
290
     0
  0
SCALE
  5
4C
102
{ACAD_REACTORS
330
3B
102
}
330
3B
100
AcDbScale
 70
     0
300
100:1
140
100.0
141
1.0
290
     0
  0
SCALE
  5
4D
102
{ACAD_REACTORS
330
3B
102
}
330
3B
100
AcDbScale
 70
     0
300
1/128" = 1'-0"
140
0.0078125
141
12.0
290
     0
  0
SCALE
  5
4E
102
{ACAD_REACTORS
330
3B
102
}
330
3B
100
AcDbScale
 70
     0
300
1/64" = 1'-0"
140
0.015625
141
12.0
290
     0
  0
SCALE
  5
4F
102
{ACAD_REACTORS
330
3B
102
}
330
3B
100
AcDbScale
 70
     0
300
1/32" = 1'-0"
140
0.03125
141
12.0
290
     0
  0
SCALE
  5
50
102
{ACAD_REACTORS
330
3B
102
}
330
3B
100
AcDbScale
 70
     0
300
1/16" = 1'-0"
140
0.0625
141
12.0
290
     0
  0
SCALE
  5
51
102
{ACAD_REACTORS
330
3B
102
}
330
3B
100
AcDbScale
 70
     0
300
3/32" = 1'-0"
140
0.09375
141
12.0
290
     0
  0
SCALE
  5
52
102
{ACAD_REACTORS
330
3B
102
}
330
3B
100
AcDbScale
 70
     0
300
1/8" = 1'-0"
140
0.125
141
12.0
290
     0
  0
SCALE
  5
53
102
{ACAD_REACTORS
330
3B
102
}
330
3B
100
AcDbScale
 70
     0
300
3/16" = 1'-0"
140
0.1875
141
12.0
290
     0
  0
SCALE
  5
54
102
{ACAD_REACTORS
330
3B
102
}
330
3B
100
AcDbScale
 70
     0
300
1/4" = 1'-0"
140
0.25
141
12.0
290
     0
  0
SCALE
  5
55
102
{ACAD_REACTORS
330
3B
102
}
330
3B
100
AcDbScale
 70
     0
300
3/8" = 1'-0"
140
0.375
141
12.0
290
     0
  0
SCALE
  5
56
102
{ACAD_REACTORS
330
3B
102
}
330
3B
100
AcDbScale
 70
     0
300
1/2" = 1'-0"
140
0.5
141
12.0
290
     0
  0
SCALE
  5
57
102
{ACAD_REACTORS
330
3B
102
}
330
3B
100
AcDbScale
 70
     0
300
3/4" = 1'-0"
140
0.75
141
12.0
290
     0
  0
SCALE
  5
58
102
{ACAD_REACTORS
330
3B
102
}
330
3B
100
AcDbScale
 70
     0
300
1" = 1'-0"
140
1.0
141
12.0
290
     0
  0
SCALE
  5
59
102
{ACAD_REACTORS
330
3B
102
}
330
3B
100
AcDbScale
 70
     0
300
1-1/2" = 1'-0"
140
1.5
141
12.0
290
     0
  0
SCALE
  5
5A
102
{ACAD_REACTORS
330
3B
102
}
330
3B
100
AcDbScale
 70
     0
300
3" = 1'-0"
140
3.0
141
12.0
290
     0
  0
SCALE
  5
5B
102
{ACAD_REACTORS
330
3B
102
}
330
3B
100
AcDbScale
 70
     0
300
6" = 1'-0"
140
6.0
141
12.0
290
     0
  0
SCALE
  5
5C
102
{ACAD_REACTORS
330
3B
102
}
330
3B
100
AcDbScale
 70
     0
300
1'-0" = 1'-0"
140
12.0
141
12.0
290
     0
  0
VISUALSTYLE
  5
2F
102
{ACAD_REACTORS
330
2A
102
}
330
2A
100
AcDbVisualStyle
  2
2dWireframe
 70
     4
 71
     0
 72
     2
 73
     0
 90
        0
 40
-0.6
 41
-30.0
 62
     5
 63
     7
 74
     1
 91
        4
 64
     7
 65
   257
 75
     1
175
     1
 42
1.0
 92
        0
 66
   257
 43
1.0
 76
     1
 77
     6
 78
     2
 67
     7
 79
     5
170
     0
171
     0
290
     0
174
     0
 93
        1
 44
0.0
173
     0
291
     0
 45
0.0
1001
ACAD
1000
AcDbSavedByObjectVersion
1070
     0
  0
VISUALSTYLE
  5
31
102
{ACAD_REACTORS
330
2A
102
}
330
2A
100
AcDbVisualStyle
  2
3D Hidden
 70
     6
 71
     1
 72
     2
 73
     2
 90
        0
 40
-0.6
 41
-30.0
 62
     5
 63
     7
 74
     2
 91
        2
 64
     7
 65
   257
 75
     2
175
     1
 42
40.0
 92
        0
 66
   257
 43
1.0
 76
     1
 77
     6
 78
     2
 67
     7
 79
     3
170
     0
171
     0
290
     0
174
     0
 93
        1
 44
0.0
173
     0
291
     0
 45
0.0
1001
ACAD
1000
AcDbSavedByObjectVersion
1070
     0
  0
VISUALSTYLE
  5
30
102
{ACAD_REACTORS
330
2A
102
}
330
2A
100
AcDbVisualStyle
  2
3dWireframe
 70
     5
 71
     0
 72
     2
 73
     0
 90
        0
 40
-0.6
 41
-30.0
 62
     5
 63
     7
 74
     1
 91
        4
 64
     7
 65
   257
 75
     1
175
     1
 42
1.0
 92
        0
 66
   257
 43
1.0
 76
     1
 77
     6
 78
     2
 67
     7
 79
     5
170
     0
171
     0
290
     0
174
     0
 93
        1
 44
0.0
173
     0
291
     0
 45
0.0
1001
ACAD
1000
AcDbSavedByObjectVersion
1070
     0
  0
VISUALSTYLE
  5
32
102
{ACAD_REACTORS
330
2A
102
}
330
2A
100
AcDbVisualStyle
  2
Basic
 70
     7
 71
     1
 72
     0
 73
     1
 90
        0
 40
-0.6
 41
-30.0
 62
     5
 63
     7
 74
     0
 91
        4
 64
     7
 65
   257
 75
     1
175
     1
 42
1.0
 92
        8
 66
     7
 43
1.0
 76
     1
 77
     6
 78
     2
 67
     7
 79
     5
170
     0
171
     0
290
     0
174
     0
 93
        1
 44
0.0
173
     0
291
     1
 45
0.0
1001
ACAD
1000
AcDbSavedByObjectVersion
1070
     0
  0
VISUALSTYLE
  5
36
102
{ACAD_REACTORS
330
2A
102
}
330
2A
100
AcDbVisualStyle
  2
Brighten
 70
    12
 71
     2
 72
     2
 73
     0
 90
        0
 40
-0.6
 41
-30.0
 62
     5
 63
     7
 74
     1
 91
        4
 64
     7
 65
   257
 75
     1
175
     1
 42
1.0
 92
        8
 66
     7
 43
1.0
 76
     1
 77
     6
 78
     2
 67
     7
 79
     5
170
     0
171
     0
290
     0
174
     0
 93
        1
 44
50.0
173
     0
291
     1
 45
0.0
1001
ACAD
1000
AcDbSavedByObjectVersion
1070
     0
  0
VISUALSTYLE
  5
3A
102
{ACAD_REACTORS
330
2A
102
}
330
2A
100
AcDbVisualStyle
  2
ColorChange
 70
    16
 71
     2
 72
     2
 73
     3
 90
        0
 40
-0.6
 41
-30.0
 62
     5
 63
     8
 74
     1
 91
        4
 64
     7
 65
   257
 75
     1
175
     1
 42
1.0
 92
        8
 66
     8
 43
1.0
 76
     1
 77
     6
 78
     2
 67
     7
 79
     5
170
     0
171
     0
290
     0
174
     0
 93
        1
 44
0.0
173
     0
291
     1
 45
0.0
1001
ACAD
1000
AcDbSavedByObjectVersion
1070
     0
  0
VISUALSTYLE
  5
34
102
{ACAD_REACTORS
330
2A
102
}
330
2A
100
AcDbVisualStyle
  2
Conceptual
 70
     9
 71
     3
 72
     2
 73
     0
 90
        0
 40
-0.6
 41
-30.0
 62
     5
 63
     7
 74
     2
 91
        2
 64
     7
 65
   257
 75
     1
175
     1
 42
40.0
 92
        8
 66
     7
 43
1.0
 76
     1
 77
     6
 78
     2
 67
     7
 79
     3
170
     0
171
     0
290
     0
174
     0
 93
        1
 44
0.0
173
     0
291
     0
 45
0.0
1001
ACAD
1000
AcDbSavedByObjectVersion
1070
     0
  0
VISUALSTYLE
  5
35
102
{ACAD_REACTORS
330
2A
102
}
330
2A
100
AcDbVisualStyle
  2
Dim
 70
    11
 71
     2
 72
     2
 73
     0
 90
        0
 40
-0.6
 41
-30.0
 62
     5
 63
     7
 74
     1
 91
        4
 64
     7
 65
   257
 75
     1
175
     1
 42
1.0
 92
        8
 66
     7
 43
1.0
 76
     1
 77
     6
 78
     2
 67
     7
 79
     5
170
     0
171
     0
290
     0
174
     0
 93
        1
 44
-50.0
173
     0
291
     1
 45
0.0
1001
ACAD
1000
AcDbSavedByObjectVersion
1070
     0
  0
VISUALSTYLE
  5
39
102
{ACAD_REACTORS
330
2A
102
}
330
2A
100
AcDbVisualStyle
  2
Facepattern
 70
    15
 71
     2
 72
     2
 73
     0
 90
        0
 40
-0.6
 41
-30.0
 62
     5
 63
     7
 74
     1
 91
        4
 64
     7
 65
   257
 75
     1
175
     1
 42
1.0
 92
        8
 66
     7
 43
1.0
 76
     1
 77
     6
 78
     2
 67
     7
 79
     5
170
     0
171
     0
290
     0
174
     0
 93
        1
 44
0.0
173
     0
291
     1
 45
0.0
1001
ACAD
1000
AcDbSavedByObjectVersion
1070
     0
  0
VISUALSTYLE
  5
2B
102
{ACAD_REACTORS
330
2A
102
}
330
2A
100
AcDbVisualStyle
  2
Flat
 70
     0
 71
     2
 72
     1
 73
     1
 90
        2
 40
-0.6
 41
30.0
 62
     5
 63
     7
 74
     0
 91
        4
 64
     7
 65
   257
 75
     1
175
     1
 42
1.0
 92
        8
 66
     7
 43
1.0
 76
     1
 77
     6
 78
     2
 67
     7
 79
     5
170
     0
171
     0
290
     0
174
     0
 93
       13
 44
0.0
173
     0
291
     1
 45
0.0
1001
ACAD
1000
AcDbSavedByObjectVersion
1070
     0
  0
VISUALSTYLE
  5
2C
102
{ACAD_REACTORS
330
2A
102
}
330
2A
100
AcDbVisualStyle
  2
FlatWithEdges
 70
     1
 71
     2
 72
     1
 73
     1
 90
        2
 40
-0.6
 41
30.0
 62
     5
 63
     7
 74
     1
 91
        4
 64
     7
 65
   257
 75
     1
175
     1
 42
1.0
 92
        0
 66
   257
 43
1.0
 76
     1
 77
     6
 78
     2
 67
     7
 79
     5
170
     0
171
     0
290
     0
174
     0
 93
       13
 44
0.0
173
     0
291
     1
 45
0.0
1001
ACAD
1000
AcDbSavedByObjectVersion
1070
     0
  0
VISUALSTYLE
  5
2D
102
{ACAD_REACTORS
330
2A
102
}
330
2A
100
AcDbVisualStyle
  2
Gouraud
 70
     2
 71
     2
 72
     2
 73
     1
 90
        2
 40
-0.6
 41
30.0
 62
     5
 63
     7
 74
     0
 91
        4
 64
     7
 65
   257
 75
     1
175
     1
 42
1.0
 92
        0
 66
     7
 43
1.0
 76
     1
 77
     6
 78
     2
 67
     7
 79
     5
170
     0
171
     0
290
     0
174
     0
 93
       13
 44
0.0
173
     0
291
     1
 45
0.0
1001
ACAD
1000
AcDbSavedByObjectVersion
1070
     0
  0
VISUALSTYLE
  5
2E
102
{ACAD_REACTORS
330
2A
102
}
330
2A
100
AcDbVisualStyle
  2
GouraudWithEdges
 70
     3
 71
     2
 72
     2
 73
     1
 90
        2
 40
-0.6
 41
30.0
 62
     5
 63
     7
 74
     1
 91
        4
 64
     7
 65
   257
 75
     1
175
     1
 42
1.0
 92
        0
 66
   257
 43
1.0
 76
     1
 77
     6
 78
     2
 67
     7
 79
     5
170
     0
171
     0
290
     0
174
     0
 93
       13
 44
0.0
173
     0
291
     1
 45
0.0
1001
ACAD
1000
AcDbSavedByObjectVersion
1070
     0
  0
VISUALSTYLE
  5
38
102
{ACAD_REACTORS
330
2A
102
}
330
2A
100
AcDbVisualStyle
  2
Linepattern
 70
    14
 71
     2
 72
     2
 73
     0
 90
        0
 40
-0.6
 41
-30.0
 62
     5
 63
     7
 74
     1
 91
        4
 64
     7
 65
   257
 75
     7
175
     7
 42
1.0
 92
        8
 66
     7
 43
1.0
 76
     1
 77
     6
 78
     2
 67
     7
 79
     5
170
     0
171
     0
290
     0
174
     0
 93
        1
 44
0.0
173
     0
291
     1
 45
0.0
1001
ACAD
1000
AcDbSavedByObjectVersion
1070
     0
  0
VISUALSTYLE
  5
33
102
{ACAD_REACTORS
330
2A
102
}
330
2A
100
AcDbVisualStyle
  2
Realistic
 70
     8
 71
     2
 72
     2
 73
     0
 90
        0
 40
-0.6
 41
-30.0
 62
     5
 63
     7
 74
     1
 91
        0
 64
     7
 65
   257
 75
     1
175
     1
 42
1.0
 92
        8
 66
     8
 43
1.0
 76
     1
 77
     6
 78
     2
 67
     7
 79
     5
170
     0
171
     0
290
     0
174
     0
 93
       13
 44
0.0
173
     0
291
     0
 45
0.0
1001
ACAD
1000
AcDbSavedByObjectVersion
1070
     0
  0
VISUALSTYLE
  5
37
102
{ACAD_REACTORS
330
2A
102
}
330
2A
100
AcDbVisualStyle
  2
Thicken
 70
    13
 71
     2
 72
     2
 73
     0
 90
        0
 40
-0.6
 41
-30.0
 62
     5
 63
     7
 74
     1
 91
        4
 64
     7
 65
   257
 75
     1
175
     1
 42
1.0
 92
       12
 66
     7
 43
1.0
 76
     1
 77
     6
 78
     2
 67
     7
 79
     5
170
     0
171
     0
290
     0
174
     0
 93
        1
 44
0.0
173
     0
291
     1
 45
0.0
1001
ACAD
1000
AcDbSavedByObjectVersion
1070
     0
  0
DICTIONARYVAR
  5
262
102
{ACAD_REACTORS
330
261
102
}
330
261
100
DictionaryVariables
280
     0
  1
1:1
  0
DICTIONARYVAR
  5
266
102
{ACAD_REACTORS
330
261
102
}
330
261
100
DictionaryVariables
280
     0
  1
80.000000
  0
DICTIONARYVAR
  5
265
102
{ACAD_REACTORS
330
261
102
}
330
261
100
DictionaryVariables
280
     0
  1
5.000000
  0
ENDSEC
  0
EOF
