  0
SECTION
  2
HEADER
  9
$ACADVER
  1
AC1015
  9
$ACADMAINTVER
 70
     6
  9
$DWGCODEPAGE
  3
ANSI_1252
  9
$INSBASE
 10
0.0
 20
0.0
 30
0.0
  9
$EXTMIN
 10
0.0
 20
0.0
 30
0.0
  9
$EXTMAX
 10
297.0
 20
210.0
 30
0.0
  9
$LIMMIN
 10
0.0
 20
0.0
  9
$LIMMAX
 10
297.0
 20
210.0
  9
$ORTHOMODE
 70
     0
  9
$REGENMODE
 70
     1
  9
$FILLMODE
 70
     1
  9
$QTEXTMODE
 70
     0
  9
$MIRRTEXT
 70
     1
  9
$LTSCALE
 40
1.0
  9
$ATTMODE
 70
     1
  9
$TEXTSIZE
 40
2.0
  9
$TRACEWID
 40
1.0
  9
$TEXTSTYLE
  7
STANDARD
  9
$CLAYER
  8
0
  9
$CELTYPE
  6
ByLayer
  9
$CECOLOR
 62
   256
  9
$CELTSCALE
 40
1.0
  9
$DISPSILH
 70
     0
  9
$DIMSCALE
 40
1.0
  9
$DIMASZ
 40
3.0
  9
$DIMEXO
 40
0.0
  9
$DIMDLI
 40
3.75
  9
$DIMRND
 40
0.0
  9
$DIMDLE
 40
0.0
  9
$DIMEXE
 40
1.0
  9
$DIMTP
 40
0.0
  9
$DIMTM
 40
0.0
  9
$DIMTXT
 40
2.0
  9
$DIMCEN
 40
2.5
  9
$DIMTSZ
 40
0.0
  9
$DIMTOL
 70
     0
  9
$DIMLIM
 70
     0
  9
$DIMTIH
 70
     1
  9
$DIMTOH
 70
     1
  9
$DIMSE1
 70
     0
  9
$DIMSE2
 70
     0
  9
$DIMTAD
 70
     1
  9
$DIMZIN
 70
     0
  9
$DIMBLK
  1

  9
$DIMASO
 70
     1
  9
$DIMSHO
 70
     1
  9
$DIMPOST
  1

  9
$DIMAPOST
  1

  9
$DIMALT
 70
     0
  9
$DIMALTD
 70
     3
  9
$DIMALTF
 40
0.0393700787
  9
$DIMLFAC
 40
1.0
  9
$DIMTOFL
 70
     1
  9
$DIMTVP
 40
0.0
  9
$DIMTIX
 70
     0
  9
$DIMSOXD
 70
     0
  9
$DIMSAH
 70
     0
  9
$DIMBLK1
  1

  9
$DIMBLK2
  1

  9
$DIMSTYLE
  2
ISO-25
  9
$DIMCLRD
 70
     0
  9
$DIMCLRE
 70
     0
  9
$DIMCLRT
 70
     0
  9
$DIMTFAC
 40
1.0
  9
$DIMGAP
 40
1.524
  9
$DIMJUST
 70
     0
  9
$DIMSD1
 70
     0
  9
$DIMSD2
 70
     0
  9
$DIMTOLJ
 70
     0
  9
$DIMTZIN
 70
     0
  9
$DIMALTZ
 70
     0
  9
$DIMALTTZ
 70
     0
  9
$DIMUPT
 70
     0
  9
$DIMDEC
 70
     2
  9
$DIMTDEC
 70
     3
  9
$DIMALTU
 70
     2
  9
$DIMALTTD
 70
     3
  9
$DIMTXSTY
  7
STANDARD
  9
$DIMAUNIT
 70
     0
  9
$DIMADEC
 70
     2
  9
$DIMALTRND
 40
0.0
  9
$DIMAZIN
 70
     0
  9
$DIMDSEP
 70
    44
  9
$DIMATFIT
 70
     3
  9
$DIMFRAC
 70
     0
  9
$DIMLDRBLK
  1

  9
$DIMLUNIT
 70
     2
  9
$DIMLWD
 70
    -2
  9
$DIMLWE
 70
    -2
  9
$DIMTMOVE
 70
     0
  9
$LUNITS
 70
     2
  9
$LUPREC
 70
     2
  9
$SKETCHINC
 40
1.0
  9
$FILLETRAD
 40
10.0
  9
$AUNITS
 70
     0
  9
$AUPREC
 70
     2
  9
$MENU
  1
.
  9
$ELEVATION
 40
0.0
  9
$PELEVATION
 40
0.0
  9
$THICKNESS
 40
0.0
  9
$LIMCHECK
 70
     0
  9
$CHAMFERA
 40
10.0
  9
$CHAMFERB
 40
10.0
  9
$CHAMFERC
 40
20.0
  9
$CHAMFERD
 40
0.0
  9
$SKPOLY
 70
     0
  9
$TDCREATE
 40
2457070.396980278
  9
$TDUCREATE
 40
2457070.355313611
  9
$TDUPDATE
 40
2457070.396980995
  9
$TDUUPDATE
 40
2457070.355314329
  9
$TDINDWG
 40
0.0000000116
  9
$TDUSRTIMER
 40
0.0000000116
  9
$USRTIMER
 70
     1
  9
$ANGBASE
 50
0.0
  9
$ANGDIR
 70
     0
  9
$PDMODE
 70
     0
  9
$PDSIZE
 40
-1.0
  9
$PLINEWID
 40
0.0
  9
$SPLFRAME
 70
     0
  9
$SPLINETYPE
 70
     6
  9
$SPLINESEGS
 70
     8
  9
$HANDSEED
  5
291
  9
$SURFTAB1
 70
     6
  9
$SURFTAB2
 70
     6
  9
$SURFTYPE
 70
     6
  9
$SURFU
 70
     6
  9
$SURFV
 70
     6
  9
$UCSBASE
  2

  9
$UCSNAME
  2

  9
$UCSORG
 10
0.0
 20
0.0
 30
0.0
  9
$UCSXDIR
 10
1.0
 20
0.0
 30
0.0
  9
$UCSYDIR
 10
0.0
 20
1.0
 30
0.0
  9
$UCSORTHOREF
  2

  9
$UCSORTHOVIEW
 70
     0
  9
$UCSORGTOP
 10
0.0
 20
0.0
 30
0.0
  9
$UCSORGBOTTOM
 10
0.0
 20
0.0
 30
0.0
  9
$UCSORGLEFT
 10
0.0
 20
0.0
 30
0.0
  9
$UCSORGRIGHT
 10
0.0
 20
0.0
 30
0.0
  9
$UCSORGFRONT
 10
0.0
 20
0.0
 30
0.0
  9
$UCSORGBACK
 10
0.0
 20
0.0
 30
0.0
  9
$PUCSBASE
  2

  9
$PUCSNAME
  2

  9
$PUCSORG
 10
0.0
 20
0.0
 30
0.0
  9
$PUCSXDIR
 10
1.0
 20
0.0
 30
0.0
  9
$PUCSYDIR
 10
0.0
 20
1.0
 30
0.0
  9
$PUCSORTHOREF
  2

  9
$PUCSORTHOVIEW
 70
     0
  9
$PUCSORGTOP
 10
0.0
 20
0.0
 30
0.0
  9
$PUCSORGBOTTOM
 10
0.0
 20
0.0
 30
0.0
  9
$PUCSORGLEFT
 10
0.0
 20
0.0
 30
0.0
  9
$PUCSORGRIGHT
 10
0.0
 20
0.0
 30
0.0
  9
$PUCSORGFRONT
 10
0.0
 20
0.0
 30
0.0
  9
$PUCSORGBACK
 10
0.0
 20
0.0
 30
0.0
  9
$USERI1
 70
     0
  9
$USERI2
 70
     0
  9
$USERI3
 70
     0
  9
$USERI4
 70
     0
  9
$USERI5
 70
     0
  9
$USERR1
 40
0.0
  9
$USERR2
 40
0.0
  9
$USERR3
 40
0.0
  9
$USERR4
 40
0.0
  9
$USERR5
 40
0.0
  9
$WORLDVIEW
 70
     1
  9
$SHADEDGE
 70
     3
  9
$SHADEDIF
 70
    70
  9
$TILEMODE
 70
     1
  9
$MAXACTVP
 70
    64
  9
$PINSBASE
 10
0.0
 20
0.0
 30
0.0
  9
$PLIMCHECK
 70
     0
  9
$PEXTMIN
 10
1.0000000000E+20
 20
1.0000000000E+20
 30
1.0000000000E+20
  9
$PEXTMAX
 10
-1.0000000000E+20
 20
-1.0000000000E+20
 30
-1.0000000000E+20
  9
$PLIMMIN
 10
0.0
 20
0.0
  9
$PLIMMAX
 10
420.0
 20
297.0
  9
$UNITMODE
 70
     0
  9
$VISRETAIN
 70
     1
  9
$PLINEGEN
 70
     0
  9
$PSLTSCALE
 70
     1
  9
$TREEDEPTH
 70
  3020
  9
$CMLSTYLE
  2
Standard
  9
$CMLJUST
 70
     0
  9
$CMLSCALE
 40
20.0
  9
$PROXYGRAPHICS
 70
     1
  9
$MEASUREMENT
 70
     1
  9
$CELWEIGHT
370
    -1
  9
$ENDCAPS
280
     0
  9
$JOINSTYLE
280
     0
  9
$LWDISPLAY
290
     1
  9
$INSUNITS
 70
     4
  9
$HYPERLINKBASE
  1

  9
$STYLESHEET
  1

  9
$XEDIT
290
     1
  9
$CEPSNTYPE
380
     0
  9
$PSTYLEMODE
290
     1
  9
$FINGERPRINTGUID
  2
{0204AF12-79C1-428A-82D9-A62D66BEB963}
  9
$VERSIONGUID
  2
{FAEB1C32-E019-11D5-929B-00C0DF256EC4}
  9
$EXTNAMES
290
     1
  9
$PSVPSCALE
 40
0.0
  9
$OLESTARTUP
290
     0
  0
ENDSEC
  0
SECTION
  2
CLASSES
  0
CLASS
  1
ACDBDICTIONARYWDFLT
  2
AcDbDictionaryWithDefault
  3
ObjectDBX Classes
 90
        0
280
     0
281
     0
  0
CLASS
  1
VISUALSTYLE
  2
AcDbVisualStyle
  3
ObjectDBX Classes
 90
     4095
280
     0
281
     0
  0
CLASS
  1
MATERIAL
  2
AcDbMaterial
  3
ObjectDBX Classes
 90
     1153
280
     0
281
     0
  0
CLASS
  1
ACDBPLACEHOLDER
  2
AcDbPlaceHolder
  3
ObjectDBX Classes
 90
        0
280
     0
281
     0
  0
CLASS
  1
LAYOUT
  2
AcDbLayout
  3
ObjectDBX Classes
 90
        0
280
     0
281
     0
  0
ENDSEC
  0
SECTION
  2
TABLES
  0
TABLE
  2
VPORT
  5
8
330
0
100
AcDbSymbolTable
 70
     1
  0
VPORT
  5
29
330
8
100
AcDbSymbolTableRecord
100
AcDbViewportTableRecord
  2
*Active
 70
     0
 10
0.0
 20
0.0
 11
1.0
 21
1.0
 12
148.5
 22
105.0
 13
0.0
 23
0.0
 14
10.0
 24
10.0
 15
10.0
 25
10.0
 16
0.0
 26
0.0
 36
1.0
 17
0.0
 27
0.0
 37
0.0
 40
210.0
 41
1.4142857143
 42
50.0
 43
0.0
 44
0.0
 50
0.0
 51
0.0
 71
     0
 72
  2000
 73
     1
 74
     3
 75
     0
 76
     0
 77
     0
 78
     0
281
     0
 65
     1
110
0.0
120
0.0
130
0.0
111
1.0
121
0.0
131
0.0
112
0.0
122
1.0
132
0.0
 79
     0
146
0.0
  0
ENDTAB
  0
TABLE
  2
LTYPE
  5
5
330
0
100
AcDbSymbolTable
 70
     8
  0
LTYPE
  5
14
330
5
100
AcDbSymbolTableRecord
100
AcDbLinetypeTableRecord
  2
ByBlock
 70
     0
  3

 72
    65
 73
     0
 40
0.0
  0
LTYPE
  5
15
330
5
100
AcDbSymbolTableRecord
100
AcDbLinetypeTableRecord
  2
ByLayer
 70
     0
  3

 72
    65
 73
     0
 40
0.0
  0
LTYPE
  5
16
330
5
100
AcDbSymbolTableRecord
100
AcDbLinetypeTableRecord
  2
Continuous
 70
     0
  3
Solid line
 72
    65
 73
     0
 40
0.0
  0
LTYPE
  5
3F
330
5
100
AcDbSymbolTableRecord
100
AcDbLinetypeTableRecord
  2
SLD-Durchgehend
 70
     0
  3
SolidWorks Line Style
 72
    65
 73
     0
 40
0.0
  0
LTYPE
  5
40
330
5
100
AcDbSymbolTableRecord
100
AcDbLinetypeTableRecord
  2
SLD-Gestrichelt
 70
     0
  3
SolidWorks Line Style
 72
    65
 73
     2
 40
1.905
 49
1.27
 74
     0
 49
-0.635
 74
     0
  0
LTYPE
  5
41
330
5
100
AcDbSymbolTableRecord
100
AcDbLinetypeTableRecord
  2
SLD-Phantom
 70
     0
  3
SolidWorks Line Style
 72
    65
 73
     6
 40
12.7
 49
6.35
 74
     0
 49
-1.27
 74
     0
 49
1.27
 74
     0
 49
-1.27
 74
     0
 49
1.27
 74
     0
 49
-1.27
 74
     0
  0
LTYPE
  5
42
330
5
100
AcDbSymbolTableRecord
100
AcDbLinetypeTableRecord
  2
SLD-Kette
 70
     0
  3
SolidWorks Line Style
 72
    65
 73
     4
 40
10.16
 49
6.35
 74
     0
 49
-1.27
 74
     0
 49
1.27
 74
     0
 49
-1.27
 74
     0
  0
LTYPE
  5
43
330
5
100
AcDbSymbolTableRecord
100
AcDbLinetypeTableRecord
  2
SLD-Punktstrich
 70
     0
  3
SolidWorks Line Style
 72
    65
 73
     4
 40
19.05
 49
15.24
 74
     0
 49
-1.27
 74
     0
 49
1.27
 74
     0
 49
-1.27
 74
     0
  0
LTYPE
  5
44
330
5
100
AcDbSymbolTableRecord
100
AcDbLinetypeTableRecord
  2
SLD-Naht
 70
     0
  3
SolidWorks Line Style
 72
    65
 73
     2
 40
0.635
 49
0.0
 74
     0
 49
-0.635
 74
     0
  0
LTYPE
  5
45
330
5
100
AcDbSymbolTableRecord
100
AcDbLinetypeTableRecord
  2
SLD-Dicke-Dünne-Kette
 70
     0
  3
SolidWorks Line Style
 72
    65
 73
     4
 40
10.16
 49
6.35
 74
     0
 49
-1.27
 74
     0
 49
1.27
 74
     0
 49
-1.27
 74
     0
  0
ENDTAB
  0
TABLE
  2
LAYER
  5
2
330
0
100
AcDbSymbolTable
 70
     5
  0
LAYER
  5
10
330
2
100
AcDbSymbolTableRecord
100
AcDbLayerTableRecord
  2
0
 70
     0
 62
     7
  6
Continuous
370
    -3
390
F
  0
LAYER
  5
46
330
2
100
AcDbSymbolTableRecord
100
AcDbLayerTableRecord
  2
FORMAT
 70
     0
 62
     7
  6
SLD-Durchgehend
370
    -3
390
F
  0
LAYER
  5
47
330
2
100
AcDbSymbolTableRecord
100
AcDbLayerTableRecord
  2
VERMASSUNG
 70
     0
 62
     7
  6
SLD-Durchgehend
370
    -3
390
F
  0
LAYER
  5
48
330
2
100
AcDbSymbolTableRecord
100
AcDbLayerTableRecord
  2
KOPF_DÜNN
 70
     0
 62
     7
  6
SLD-Durchgehend
370
    -3
390
F
  0
LAYER
  5
49
330
2
100
AcDbSymbolTableRecord
100
AcDbLayerTableRecord
  2
KOPF_DICK
 70
     0
 62
     7
  6
SLD-Durchgehend
370
    15
390
F
  0
ENDTAB
  0
TABLE
  2
STYLE
  5
3
330
0
100
AcDbSymbolTable
 70
     2
  0
STYLE
  5
11
330
3
100
AcDbSymbolTableRecord
100
AcDbTextStyleTableRecord
  2
STANDARD
 70
     0
 40
0.0
 41
1.0
 50
0.0
 71
     0
 42
2.0
  3
ISOCPEUR.TTF
  4

1001
ACAD
1000
ISOCPEUR
1071
       34
  0
STYLE
  5
4A
330
3
100
AcDbSymbolTableRecord
100
AcDbTextStyleTableRecord
  2
SLDTEXTSTYLE0
 70
     0
 40
0.0
 41
1.0
 50
0.0
 71
     0
 42
0.2
  3
ISOCPEUR.TTF
  4

1001
ACAD
1000
ISOCPEUR
1071
      290
  0
ENDTAB
  0
TABLE
  2
VIEW
  5
6
330
0
100
AcDbSymbolTable
 70
     0
  0
ENDTAB
  0
TABLE
  2
UCS
  5
7
330
0
100
AcDbSymbolTable
 70
     0
  0
ENDTAB
  0
TABLE
  2
APPID
  5
9
330
0
100
AcDbSymbolTable
 70
     1
  0
APPID
  5
12
330
9
100
AcDbSymbolTableRecord
100
AcDbRegAppTableRecord
  2
ACAD
 70
     0
  0
ENDTAB
  0
TABLE
  2
DIMSTYLE
  5
A
330
0
100
AcDbSymbolTable
 70
     3
100
AcDbDimStyleTable
  0
DIMSTYLE
105
27
330
A
100
AcDbSymbolTableRecord
100
AcDbDimStyleTableRecord
  2
ISO-25
 70
     0
 41
2.5
 42
0.625
 43
3.75
 44
1.25
 73
     0
 74
     0
 77
     1
 78
     8
140
2.5
141
2.5
143
0.0393700787
147
0.625
171
     3
172
     1
178
     0
271
     2
272
     2
274
     3
278
    44
283
     0
284
     8
340
11
  0
DIMSTYLE
105
207
102
{ACAD_REACTORS
330
206
330
211
330
21B
330
230
330
279
102
}
330
A
100
AcDbSymbolTableRecord
100
AcDbDimStyleTableRecord
  2
SLDDIMSTYLE0
 70
     0
 41
3.0
 44
0.0
 45
0.000000001
 73
     0
 74
     0
 77
     1
 78
    12
 79
     3
140
2.0
147
0.5
173
     1
178
     0
271
     2
272
     3
276
     2
284
    12
340
4A
  0
DIMSTYLE
105
226
102
{ACAD_REACTORS
330
225
102
}
330
A
100
AcDbSymbolTableRecord
100
AcDbDimStyleTableRecord
  2
SLDDIMSTYLE1
 70
     0
 41
3.0
 44
0.0
 73
     0
 74
     0
 77
     1
 78
    12
 79
     3
140
2.0
147
0.5
173
     1
178
     0
179
     2
272
     3
276
     2
284
    12
340
4A
  0
ENDTAB
  0
TABLE
  2
BLOCK_RECORD
  5
1
330
0
100
AcDbSymbolTable
 70
     8
  0
BLOCK_RECORD
  5
1F
330
1
100
AcDbSymbolTableRecord
100
AcDbBlockTableRecord
  2
*Model_Space
340
22
  0
BLOCK_RECORD
  5
1B
330
1
100
AcDbSymbolTableRecord
100
AcDbBlockTableRecord
  2
*Paper_Space
340
1E
  0
BLOCK_RECORD
  5
23
330
1
100
AcDbSymbolTableRecord
100
AcDbBlockTableRecord
  2
*Paper_Space0
340
26
  0
BLOCK_RECORD
  5
208
330
1
100
AcDbSymbolTableRecord
100
AcDbBlockTableRecord
  2
_D
340
0
  0
BLOCK_RECORD
  5
212
330
1
100
AcDbSymbolTableRecord
100
AcDbBlockTableRecord
  2
_D_1
340
0
  0
BLOCK_RECORD
  5
21C
330
1
100
AcDbSymbolTableRecord
100
AcDbBlockTableRecord
  2
_D_2
340
0
  0
BLOCK_RECORD
  5
227
330
1
100
AcDbSymbolTableRecord
100
AcDbBlockTableRecord
  2
_D_3
340
0
  0
BLOCK_RECORD
  5
231
330
1
100
AcDbSymbolTableRecord
100
AcDbBlockTableRecord
  2
_D_4
340
0
  0
BLOCK_RECORD
  5
27A
330
1
100
AcDbSymbolTableRecord
100
AcDbBlockTableRecord
  2
_D_5
340
0
  0
BLOCK_RECORD
  5
284
330
1
100
AcDbSymbolTableRecord
100
AcDbBlockTableRecord
  2
SW_CENTERMARKSYMBOL_0
340
0
102
{BLKREFS
331
28F
102
}
  0
ENDTAB
  0
ENDSEC
  0
SECTION
  2
BLOCKS
  0
BLOCK
  5
20
330
1F
100
AcDbEntity
  8
0
100
AcDbBlockBegin
  2
*Model_Space
 70
     0
 10
0.0
 20
0.0
 30
0.0
  3
*Model_Space
  1

  0
ENDBLK
  5
21
330
1F
100
AcDbEntity
  8
0
100
AcDbBlockEnd
  0
BLOCK
  5
1C
330
1B
100
AcDbEntity
 67
     1
  8
0
100
AcDbBlockBegin
  2
*Paper_Space
 70
     0
 10
0.0
 20
0.0
 30
0.0
  3
*Paper_Space
  1

  0
ENDBLK
  5
1D
330
1B
100
AcDbEntity
 67
     1
  8
0
100
AcDbBlockEnd
  0
BLOCK
  5
24
330
23
100
AcDbEntity
  8
0
100
AcDbBlockBegin
  2
*Paper_Space0
 70
     0
 10
0.0
 20
0.0
 30
0.0
  3
*Paper_Space0
  1

  0
ENDBLK
  5
25
330
23
100
AcDbEntity
  8
0
100
AcDbBlockEnd
  0
BLOCK
  5
209
330
208
100
AcDbEntity
  8
0
100
AcDbBlockBegin
  2
_D
 70
     0
 10
0.0
 20
0.0
 30
0.0
  3
_D
  1

  0
SOLID
  5
20B
330
208
100
AcDbEntity
  8
VERMASSUNG
100
AcDbTrace
 10
231.9741026703
 20
144.4152168476
 30
0.0
 11
228.9741026703
 21
144.8652168476
 31
0.0
 12
228.9741026703
 22
143.9652168476
 32
0.0
 13
228.9741026703
 23
143.9652168476
 33
0.0
  0
SOLID
  5
20C
330
208
100
AcDbEntity
  8
VERMASSUNG
100
AcDbTrace
 10
157.0741026703
 20
144.4152168476
 30
0.0
 11
160.0741026703
 21
143.9652168476
 31
0.0
 12
160.0741026703
 22
144.8652168476
 32
0.0
 13
160.0741026703
 23
144.8652168476
 33
0.0
  0
LINE
  5
20D
330
208
100
AcDbEntity
  8
VERMASSUNG
100
AcDbLine
 10
231.9741026703
 20
135.5641027567
 30
0.0
 11
231.9741026703
 21
145.4152168476
 31
0.0
  0
LINE
  5
20E
330
208
100
AcDbEntity
  8
VERMASSUNG
100
AcDbLine
 10
157.0741026703
 20
120.4941027567
 30
0.0
 11
157.0741026703
 21
145.4152168476
 31
0.0
  0
LINE
  5
20F
330
208
100
AcDbEntity
  8
VERMASSUNG
100
AcDbLine
 10
231.9741026703
 20
144.4152168476
 30
0.0
 11
157.0741026703
 21
144.4152168476
 31
0.0
  0
MTEXT
  5
210
330
208
100
AcDbEntity
  8
VERMASSUNG
100
AcDbMText
 10
192.0249286135
 20
147.0152167311
 30
0.0
 40
2.0
 41
0.0
 71
     1
 72
     1
  1
74.9
  7
SLDTEXTSTYLE0
 73
     1
 44
1.0
  0
ENDBLK
  5
20A
330
208
100
AcDbEntity
  8
0
100
AcDbBlockEnd
  0
BLOCK
  5
213
330
212
100
AcDbEntity
  8
0
100
AcDbBlockBegin
  2
_D_1
 70
     0
 10
0.0
 20
0.0
 30
0.0
  3
_D_1
  1

  0
SOLID
  5
215
330
212
100
AcDbEntity
  8
VERMASSUNG
100
AcDbTrace
 10
176.9741026703
 20
138.4152168476
 30
0.0
 11
179.9741026703
 21
137.9652168476
 31
0.0
 12
179.9741026703
 22
138.8652168476
 32
0.0
 13
179.9741026703
 23
138.8652168476
 33
0.0
  0
SOLID
  5
216
330
212
100
AcDbEntity
  8
VERMASSUNG
100
AcDbTrace
 10
231.9741026703
 20
138.4152168476
 30
0.0
 11
228.9741026703
 21
138.8652168476
 31
0.0
 12
228.9741026703
 22
137.9652168476
 32
0.0
 13
228.9741026703
 23
137.9652168476
 33
0.0
  0
LINE
  5
217
330
212
100
AcDbEntity
  8
VERMASSUNG
100
AcDbLine
 10
176.9741026703
 20
128.2641027567
 30
0.0
 11
176.9741026703
 21
139.4152168476
 31
0.0
  0
LINE
  5
218
330
212
100
AcDbEntity
  8
VERMASSUNG
100
AcDbLine
 10
231.9741026703
 20
135.5641027567
 30
0.0
 11
231.9741026703
 21
139.4152168476
 31
0.0
  0
LINE
  5
219
330
212
100
AcDbEntity
  8
VERMASSUNG
100
AcDbLine
 10
176.9741026703
 20
138.4152168476
 30
0.0
 11
231.9741026703
 21
138.4152168476
 31
0.0
  0
MTEXT
  5
21A
330
212
100
AcDbEntity
  8
VERMASSUNG
100
AcDbMText
 10
203.0752804272
 20
141.0152167311
 30
0.0
 40
2.0
 41
0.0
 71
     1
 72
     1
  1
55
  7
SLDTEXTSTYLE0
 73
     1
 44
1.0
  0
ENDBLK
  5
214
330
212
100
AcDbEntity
  8
0
100
AcDbBlockEnd
  0
BLOCK
  5
21D
330
21C
100
AcDbEntity
  8
0
100
AcDbBlockBegin
  2
_D_2
 70
     0
 10
0.0
 20
0.0
 30
0.0
  3
_D_2
  1

  0
SOLID
  5
21F
330
21C
100
AcDbEntity
  8
VERMASSUNG
100
AcDbTrace
 10
240.2953285265
 20
135.5641027567
 30
0.0
 11
239.8453285265
 21
132.5641027567
 31
0.0
 12
240.7453285265
 22
132.5641027567
 32
0.0
 13
240.7453285265
 23
132.5641027567
 33
0.0
  0
SOLID
  5
220
330
21C
100
AcDbEntity
  8
VERMASSUNG
100
AcDbTrace
 10
240.2953285265
 20
108.5641027567
 30
0.0
 11
240.7453285265
 21
111.5641027567
 31
0.0
 12
239.8453285265
 22
111.5641027567
 32
0.0
 13
239.8453285265
 23
111.5641027567
 33
0.0
  0
LINE
  5
221
330
21C
100
AcDbEntity
  8
VERMASSUNG
100
AcDbLine
 10
231.9741026703
 20
135.5641027567
 30
0.0
 11
241.2953285265
 21
135.5641027567
 31
0.0
  0
LINE
  5
222
330
21C
100
AcDbEntity
  8
VERMASSUNG
100
AcDbLine
 10
229.3184494951
 20
108.5641027567
 30
0.0
 11
241.2953285265
 21
108.5641027567
 31
0.0
  0
LINE
  5
223
330
21C
100
AcDbEntity
  8
VERMASSUNG
100
AcDbLine
 10
240.2953285265
 20
135.5641027567
 30
0.0
 11
240.2953285265
 21
108.5641027567
 31
0.0
  0
MTEXT
  5
224
330
21C
100
AcDbEntity
  8
VERMASSUNG
100
AcDbMText
 10
237.6953286429
 20
120.6652805135
 30
0.0
 40
2.0
 41
0.0
 71
     1
 72
     1
  1
27
  7
SLDTEXTSTYLE0
 11
-7.044195017643634E-15
 21
1.0
 31
0.0
 73
     1
 44
1.0
  0
ENDBLK
  5
21E
330
21C
100
AcDbEntity
  8
0
100
AcDbBlockEnd
  0
BLOCK
  5
228
330
227
100
AcDbEntity
  8
0
100
AcDbBlockBegin
  2
_D_3
 70
     0
 10
0.0
 20
0.0
 30
0.0
  3
_D_3
  1

  0
ARC
  5
22A
330
227
100
AcDbEntity
  8
VERMASSUNG
100
AcDbCircle
 10
231.9741026703
 20
139.6789181749
 30
0.0
 40
25.18734298749079
100
AcDbArc
 50
267.0
 51
270.0
  0
ARC
  5
22B
330
227
100
AcDbEntity
  8
VERMASSUNG
100
AcDbCircle
 10
231.9741026703
 20
139.6789181749
 30
0.0
 40
25.18734298749079
100
AcDbArc
 50
250.3868018205
 51
267.0
  0
ARC
  5
22C
330
227
100
AcDbEntity
  8
VERMASSUNG
100
AcDbCircle
 10
231.9741026703
 20
139.6789181749
 30
0.0
 40
25.1873429874908
100
AcDbArc
 50
270.0
 51
283.5607419467
  0
SOLID
  5
22D
330
227
100
AcDbEntity
  8
VERMASSUNG
100
AcDbTrace
 10
230.6558989898
 20
114.5260935656
 30
0.0
 11
227.7247041086
 21
115.3075003536
 31
0.0
 12
227.6244417451
 22
114.4131025347
 32
0.0
 13
227.6244417451
 23
114.4131025347
 33
0.0
  0
SOLID
  5
22E
330
227
100
AcDbEntity
  8
VERMASSUNG
100
AcDbTrace
 10
231.9741026703
 20
114.4915751874
 30
0.0
 11
234.9954919146
 21
114.2200847931
 31
0.0
 12
234.9421761223
 22
115.1185041975
 32
0.0
 13
234.9421761223
 23
115.1185041975
 33
0.0
  0
MTEXT
  5
22F
330
227
100
AcDbEntity
  8
VERMASSUNG
100
AcDbMText
 10
225.5986210255
 20
117.9710680317
 30
0.0
 40
2.0
 41
0.0
 71
     1
 72
     1
  1
3°
  7
SLDTEXTSTYLE0
 11
0.9740795928640413
 21
-0.2262055409706477
 31
0.0
 73
     1
 44
1.0
  0
ENDBLK
  5
229
330
227
100
AcDbEntity
  8
0
100
AcDbBlockEnd
  0
BLOCK
  5
232
330
231
100
AcDbEntity
  8
0
100
AcDbBlockBegin
  2
_D_4
 70
     0
 10
0.0
 20
0.0
 30
0.0
  3
_D_4
  1

  0
SOLID
  5
234
330
231
100
AcDbEntity
  8
VERMASSUNG
100
AcDbTrace
 10
152.5922908498
 20
128.5641027567
 30
0.0
 11
152.1422908498
 21
125.5641027567
 31
0.0
 12
153.0422908498
 22
125.5641027567
 32
0.0
 13
153.0422908498
 23
125.5641027567
 33
0.0
  0
SOLID
  5
235
330
231
100
AcDbEntity
  8
VERMASSUNG
100
AcDbTrace
 10
152.5922908498
 20
88.5641027567
 30
0.0
 11
153.0422908498
 21
91.5641027567
 31
0.0
 12
152.1422908498
 22
91.5641027567
 32
0.0
 13
152.1422908498
 23
91.5641027567
 33
0.0
  0
LINE
  5
236
330
231
100
AcDbEntity
  8
VERMASSUNG
100
AcDbLine
 10
177.2741026703
 20
128.5641027567
 30
0.0
 11
151.5922908498
 21
128.5641027567
 31
0.0
  0
LINE
  5
237
330
231
100
AcDbEntity
  8
VERMASSUNG
100
AcDbLine
 10
177.2741026703
 20
88.5641027567
 30
0.0
 11
151.5922908498
 21
88.5641027567
 31
0.0
  0
LINE
  5
238
330
231
100
AcDbEntity
  8
VERMASSUNG
100
AcDbLine
 10
152.5922908498
 20
128.5641027567
 30
0.0
 11
152.5922908498
 21
88.5641027567
 31
0.0
  0
MTEXT
  5
239
330
231
100
AcDbEntity
  8
VERMASSUNG
100
AcDbMText
 10
149.7922908403
 20
102.260462304
 30
0.0
 40
2.0
 41
0.0
 71
     1
 72
     1
  1
HSK 
  7
SLDTEXTSTYLE0
 11
-7.044195017643634E-15
 21
1.0
 31
0.0
 73
     1
 44
1.0
  0
MTEXT
  5
23A
330
231
100
AcDbEntity
  8
VERMASSUNG
100
AcDbMText
 10
149.9922908498
 20
108.2604623562
 30
0.0
 40
2.0
 41
0.0
 71
     1
 72
     1
  1
%%c
  7
SLDTEXTSTYLE0
 11
-7.044195017643634E-15
 21
1.0
 31
0.0
 73
     1
 44
1.0
  0
MTEXT
  5
23B
330
231
100
AcDbEntity
  8
VERMASSUNG
100
AcDbMText
 10
149.9922909662
 20
111.8692845171
 30
0.0
 40
2.0
 41
0.0
 71
     1
 72
     1
  1
40
  7
SLDTEXTSTYLE0
 11
-7.044195017643634E-15
 21
1.0
 31
0.0
 73
     1
 44
1.0
  0
ENDBLK
  5
233
330
231
100
AcDbEntity
  8
0
100
AcDbBlockEnd
  0
BLOCK
  5
27B
330
27A
100
AcDbEntity
  8
0
100
AcDbBlockBegin
  2
_D_5
 70
     0
 10
0.0
 20
0.0
 30
0.0
  3
_D_5
  1

  0
SOLID
  5
27D
330
27A
100
AcDbEntity
  8
VERMASSUNG
100
AcDbTrace
 10
57.1371435343
 20
85.5696190725
 30
0.0
 11
57.5871435343
 21
88.5696190725
 31
0.0
 12
56.6871435343
 22
88.5696190725
 32
0.0
 13
56.6871435343
 23
88.5696190725
 33
0.0
  0
SOLID
  5
27E
330
27A
100
AcDbEntity
  8
VERMASSUNG
100
AcDbTrace
 10
57.1371435343
 20
135.5696190725
 30
0.0
 11
56.6871435343
 21
132.5696190725
 31
0.0
 12
57.5871435343
 22
132.5696190725
 32
0.0
 13
57.5871435343
 23
132.5696190725
 33
0.0
  0
LINE
  5
27F
330
27A
100
AcDbEntity
  8
VERMASSUNG
100
AcDbLine
 10
85.8016322089
 20
85.5696190725
 30
0.0
 11
56.1371435343
 21
85.5696190725
 31
0.0
  0
LINE
  5
280
330
27A
100
AcDbEntity
  8
VERMASSUNG
100
AcDbLine
 10
85.8016322089
 20
135.5696190725
 30
0.0
 11
56.1371435343
 21
135.5696190725
 31
0.0
  0
LINE
  5
281
330
27A
100
AcDbEntity
  8
VERMASSUNG
100
AcDbLine
 10
57.1371435343
 20
85.5696190725
 30
0.0
 11
57.1371435343
 21
135.5696190725
 31
0.0
  0
MTEXT
  5
282
330
27A
100
AcDbEntity
  8
VERMASSUNG
100
AcDbMText
 10
54.5371435343
 20
107.3662198549
 30
0.0
 40
2.0
 41
0.0
 71
     1
 72
     1
  1
%%c
  7
SLDTEXTSTYLE0
 11
6.123233995736766E-17
 21
1.0
 31
0.0
 73
     1
 44
1.0
  0
MTEXT
  5
283
330
27A
100
AcDbEntity
  8
VERMASSUNG
100
AcDbMText
 10
54.5371436507
 20
110.9753738038
 30
0.0
 40
2.0
 41
0.0
 71
     1
 72
     1
  1
50
  7
SLDTEXTSTYLE0
 11
6.123233995736766E-17
 21
1.0
 31
0.0
 73
     1
 44
1.0
  0
ENDBLK
  5
27C
330
27A
100
AcDbEntity
  8
0
100
AcDbBlockEnd
  0
BLOCK
  5
285
330
284
100
AcDbEntity
  8
0
100
AcDbBlockBegin
  2
SW_CENTERMARKSYMBOL_0
 70
     0
 10
0.0
 20
0.0
 30
0.0
  3
SW_CENTERMARKSYMBOL_0
  1

  0
LINE
  5
287
330
284
100
AcDbEntity
  8
VERMASSUNG
 62
     0
100
AcDbLine
 10
0.0
 20
0.0
 30
0.0
 11
0.0
 21
2.5
 31
0.0
  0
LINE
  5
288
330
284
100
AcDbEntity
  8
VERMASSUNG
 62
     0
100
AcDbLine
 10
0.0
 20
0.0
 30
0.0
 11
-2.5
 21
0.0
 31
0.0
  0
LINE
  5
289
330
284
100
AcDbEntity
  8
VERMASSUNG
 62
     0
100
AcDbLine
 10
0.0
 20
0.0
 30
0.0
 11
0.0
 21
-2.5
 31
0.0
  0
LINE
  5
28A
330
284
100
AcDbEntity
  8
VERMASSUNG
 62
     0
100
AcDbLine
 10
0.0
 20
0.0
 30
0.0
 11
2.5
 21
0.0
 31
0.0
  0
LINE
  5
28B
330
284
100
AcDbEntity
  8
VERMASSUNG
 62
     0
100
AcDbLine
 10
0.0
 20
5.0
 30
0.0
 11
0.0
 21
22.5
 31
0.0
  0
LINE
  5
28C
330
284
100
AcDbEntity
  8
VERMASSUNG
 62
     0
100
AcDbLine
 10
-5.0
 20
0.0
 30
0.0
 11
-22.5
 21
0.0
 31
0.0
  0
LINE
  5
28D
330
284
100
AcDbEntity
  8
VERMASSUNG
 62
     0
100
AcDbLine
 10
0.0
 20
-5.0
 30
0.0
 11
0.0
 21
-22.5
 31
0.0
  0
LINE
  5
28E
330
284
100
AcDbEntity
  8
VERMASSUNG
 62
     0
100
AcDbLine
 10
5.0
 20
0.0
 30
0.0
 11
22.5
 21
0.0
 31
0.0
  0
ENDBLK
  5
286
330
284
100
AcDbEntity
  8
0
100
AcDbBlockEnd
  0
ENDSEC
  0
SECTION
  2
ENTITIES
  0
MTEXT
  5
4B
330
1F
100
AcDbEntity
  8
KOPF_DÜNN
100
AcDbMText
 10
13.8892156294
 20
23.8770940835
 30
0.0
 40
3.0
 41
0.0
 71
     1
 72
     1
  1
HA4.KDB.RUA.055
  7
SLDTEXTSTYLE0
 73
     1
 44
1.0
  0
MTEXT
  5
4C
330
1F
100
AcDbEntity
  8
VERMASSUNG
100
AcDbMText
 10
13.9329988022
 20
28.9162328764
 30
0.0
 40
3.0
 41
0.0
 71
     1
 72
     1
  1
Klemmhalter rechts_Turning tool right 93° /55°
  7
SLDTEXTSTYLE0
 73
     1
 44
1.0
  0
MTEXT
  5
4D
330
1F
100
AcDbEntity
  8
VERMASSUNG
100
AcDbMText
 10
98.8601118557
 20
13.8584013384
 30
0.0
 40
2.0
 41
0.0
 71
     1
 72
     1
  1
Datum: 20.11.2008
  7
SLDTEXTSTYLE0
 73
     1
 44
1.0
  0
MTEXT
  5
4E
330
1F
100
AcDbEntity
  8
VERMASSUNG
100
AcDbMText
 10
13.933048693
 20
18.0701447943
 30
0.0
 40
2.0
 41
0.0
 71
     1
 72
     1
  1
DIN 69893 HSK 40 A ICTM / DC.. 11 T3..
  7
SLDTEXTSTYLE0
 73
     1
 44
1.0
  0
MTEXT
  5
4F
330
1F
100
AcDbEntity
  8
VERMASSUNG
100
AcDbMText
 10
13.9808475933
 20
13.9309618897
 30
0.0
 40
2.0
 41
0.0
 71
     1
 72
     1
  1
Gewicht: 326g
  7
SLDTEXTSTYLE0
 73
     1
 44
1.0
  0
LINE
  5
50
330
1F
100
AcDbEntity
  8
0
  6
SLD-Durchgehend
 62
     7
370
    15
100
AcDbLine
 10
177.2741026846
 20
88.5641032037
 30
0.0
 11
184.9241031352
 21
88.5641032037
 31
0.0
  0
LINE
  5
51
330
1F
100
AcDbEntity
  8
0
  6
SLD-Durchgehend
 62
     7
370
    15
100
AcDbLine
 10
184.9396301452
 20
128.5641023097
 30
0.0
 11
177.2741026846
 21
128.5641023097
 31
0.0
  0
ARC
  5
52
330
1F
100
AcDbEntity
  8
0
  6
SLD-Durchgehend
 62
     7
370
    15
100
AcDbCircle
 10
177.2741026703
 20
88.8641027567
 30
0.0
 40
0.2999999999999829
100
AcDbArc
 50
180.0
 51
270.0
  0
ARC
  5
53
330
1F
100
AcDbEntity
  8
0
  6
SLD-Durchgehend
 62
     7
370
    15
100
AcDbCircle
 10
177.2741026703
 20
128.2641027567
 30
0.0
 40
0.3000000000000114
100
AcDbArc
 50
90.0
 51
180.0
  0
ARC
  5
54
330
1F
100
AcDbEntity
  8
0
  6
SLD-Durchgehend
 62
     7
370
    15
100
AcDbCircle
 10
197.9241026703
 20
91.0641027567
 30
0.0
 40
1.000000000000006
100
AcDbArc
 50
90.0
 51
143.1137328946
  0
ARC
  5
55
330
1F
100
AcDbEntity
  8
0
  6
SLD-Durchgehend
 62
     7
370
    15
100
AcDbCircle
 10
197.9241026703
 20
126.0641027567
 30
0.0
 40
1.0
100
AcDbArc
 50
216.8998129703
 51
270.0
  0
LINE
  5
56
330
1F
100
AcDbEntity
  8
0
  6
SLD-Durchgehend
 62
     7
370
    15
100
AcDbLine
 10
197.9241034034
 20
92.0641028461
 30
0.0
 11
209.0587204341
 21
92.0641028461
 31
0.0
  0
LINE
  5
57
330
1F
100
AcDbEntity
  8
0
  6
SLD-Durchgehend
 62
     7
370
    15
100
AcDbLine
 10
209.0469149891
 20
125.0641026673
 30
0.0
 11
197.9241034034
 21
125.0641026673
 31
0.0
  0
ARC
  5
58
330
1F
100
AcDbEntity
  8
0
  6
SLD-Durchgehend
 62
     7
370
    15
100
AcDbCircle
 10
176.4740959176
 20
93.1103956032
 30
0.0
 40
0.6000067526677282
100
AcDbArc
 50
33.5571153394
 51
90.0
  0
ARC
  5
59
330
1F
100
AcDbEntity
  8
0
  6
SLD-Durchgehend
 62
     7
370
    15
100
AcDbCircle
 10
176.4740959176
 20
124.0178099102
 30
0.0
 40
0.6000067526677282
100
AcDbArc
 50
270.0
 51
326.4428846606
  0
LINE
  5
5A
330
1F
100
AcDbEntity
  8
0
  6
SLD-Durchgehend
 62
     7
370
    15
100
AcDbLine
 10
168.1581696514
 20
123.3263236609
 30
0.0
 11
160.67410242
 21
122.9513703984
 31
0.0
  0
LINE
  5
5B
330
1F
100
AcDbEntity
  8
0
  6
SLD-Durchgehend
 62
     7
370
    15
100
AcDbLine
 10
174.9741025753
 20
123.6678033275
 30
0.0
 11
173.7393700071
 21
123.6059430194
 31
0.0
  0
LINE
  5
5C
330
1F
100
AcDbEntity
  8
0
  6
SLD-Durchgehend
 62
     7
370
    15
100
AcDbLine
 10
173.7403660565
 20
93.5222131339
 30
0.0
 11
174.9741025753
 21
93.4604021859
 31
0.0
  0
LINE
  5
5D
330
1F
100
AcDbEntity
  8
0
  6
SLD-Durchgehend
 62
     7
370
    15
100
AcDbLine
 10
163.1741028298
 20
94.0515843359
 30
0.0
 11
168.1586325187
 21
93.8018585694
 31
0.0
  0
LINE
  5
5E
330
1F
100
AcDbEntity
  8
0
  6
SLD-Durchgehend
 62
     7
370
    15
100
AcDbLine
 10
174.9741025753
 20
93.4604021859
 30
0.0
 11
175.8308145702
 21
93.6899573681
 31
0.0
  0
LINE
  5
5F
330
1F
100
AcDbEntity
  8
0
  6
SLD-Durchgehend
 62
     7
370
    15
100
AcDbLine
 10
175.8308145702
 20
123.4382481453
 30
0.0
 11
174.9741025753
 21
123.6678033275
 31
0.0
  0
ARC
  5
60
330
1F
100
AcDbEntity
  8
0
  6
SLD-Durchgehend
 62
     7
370
    15
100
AcDbCircle
 10
175.9861077598
 20
93.1103956032
 30
0.0
 40
0.600006752667717
100
AcDbArc
 50
90.0
 51
105.0
  0
ARC
  5
61
330
1F
100
AcDbEntity
  8
0
  6
SLD-Durchgehend
 62
     7
370
    15
100
AcDbCircle
 10
175.9861077598
 20
124.0178099102
 30
0.0
 40
0.600006752667717
100
AcDbArc
 50
255.0
 51
270.0
  0
LINE
  5
62
330
1F
100
AcDbEntity
  8
0
  6
SLD-Durchgehend
 62
     7
370
    15
100
AcDbLine
 10
175.98610772
 20
93.7104026926
 30
0.0
 11
176.4740958945
 21
93.7104026926
 31
0.0
  0
LINE
  5
63
330
1F
100
AcDbEntity
  8
0
  6
SLD-Durchgehend
 62
     7
370
    15
100
AcDbLine
 10
176.4740958945
 20
123.4178028208
 30
0.0
 11
175.98610772
 21
123.4178028208
 31
0.0
  0
ARC
  5
64
330
1F
100
AcDbEntity
  8
0
  6
SLD-Durchgehend
 62
     7
370
    15
100
AcDbCircle
 10
159.7741026703
 20
122.3441027567
 30
0.0
 40
0.9000000000000057
100
AcDbArc
 50
270.0
 51
311.1792132368
  0
ARC
  5
65
330
1F
100
AcDbEntity
  8
0
  6
SLD-Durchgehend
 62
     7
370
    15
100
AcDbCircle
 10
162.2741026703
 20
94.8431027567
 30
0.0
 40
0.9000000000000057
100
AcDbArc
 50
29.8499024808
 51
90.0
  0
LINE
  5
66
330
1F
100
AcDbEntity
  8
0
  6
SLD-Durchgehend
 62
     7
370
    15
100
AcDbLine
 10
158.024102265
 20
121.4441030425
 30
0.0
 11
157.0741029475
 21
120.4941027937
 31
0.0
  0
LINE
  5
67
330
1F
100
AcDbEntity
  8
0
  6
SLD-Durchgehend
 62
     7
370
    15
100
AcDbLine
 10
159.7741020862
 20
121.4441030425
 30
0.0
 11
158.024102265
 21
121.4441030425
 31
0.0
  0
LINE
  5
68
330
1F
100
AcDbEntity
  8
0
  6
SLD-Durchgehend
 62
     7
370
    15
100
AcDbLine
 10
158.024102265
 20
95.7431026873
 30
0.0
 11
162.274102496
 21
95.7431026873
 31
0.0
  0
LINE
  5
69
330
1F
100
AcDbEntity
  8
0
  6
SLD-Durchgehend
 62
     7
370
    15
100
AcDbLine
 10
157.0741029475
 20
96.6931029362
 30
0.0
 11
158.024102265
 21
95.7431026873
 31
0.0
  0
LINE
  5
6A
330
1F
100
AcDbEntity
  8
0
  6
SLD-Durchgehend
 62
     7
370
    15
100
AcDbLine
 10
231.3727324847
 20
135.4863603738
 30
0.0
 11
222.3399540428
 21
129.8420538333
 31
0.0
  0
LINE
  5
6B
330
1F
100
AcDbEntity
  8
0
  6
SLD-Durchgehend
 62
     7
370
    15
100
AcDbLine
 10
230.5552398804
 20
133.4344183234
 30
0.0
 11
231.5741030518
 21
135.1641022739
 31
0.0
  0
LINE
  5
6C
330
1F
100
AcDbEntity
  8
0
  6
SLD-Durchgehend
 62
     7
370
    15
100
AcDbLine
 10
222.7554915491
 20
129.3936406401
 30
0.0
 11
222.5413246099
 21
129.5197957334
 31
0.0
  0
LWPOLYLINE
  5
6D
330
1F
100
AcDbEntity
  8
0
  6
SLD-Durchgehend
 62
     7
370
    15
100
AcDbPolyline
 90
        5
 70
   128
 43
0.0
 10
222.7554915491
 20
129.3936406401
 10
222.9505216721
 20
129.2787601379
 10
223.1544515136
 20
129.1586344269
 10
223.3505843226
 20
129.0431038615
 10
223.355568761
 20
129.0401683328
  0
LINE
  5
6E
330
1F
100
AcDbEntity
  8
0
  6
SLD-Durchgehend
 62
     7
370
    15
100
AcDbLine
 10
222.1852501873
 20
118.5608764318
 30
0.0
 11
231.2180286292
 21
124.2051829723
 31
0.0
  0
LINE
  5
6F
330
1F
100
AcDbEntity
  8
0
  6
SLD-Durchgehend
 62
     7
370
    15
100
AcDbLine
 10
223.0027427915
 20
120.6128194136
 30
0.0
 11
221.9838796202
 21
118.8831345317
 31
0.0
  0
LINE
  5
70
330
1F
100
AcDbEntity
  8
0
  6
SLD-Durchgehend
 62
     7
370
    15
100
AcDbLine
 10
230.8024911228
 20
124.6535961655
 30
0.0
 11
231.0166580621
 21
124.5274410722
 31
0.0
  0
LWPOLYLINE
  5
71
330
1F
100
AcDbEntity
  8
0
  6
SLD-Durchgehend
 62
     7
370
    15
100
AcDbPolyline
 90
        5
 70
   128
 43
0.0
 10
230.2024101857
 20
125.0070703355
 10
230.2073983494
 20
125.0041329441
 10
230.4035311583
 20
124.8886023787
 10
230.6074609998
 20
124.7684785304
 10
230.8024911228
 20
124.6535961655
  0
LINE
  5
72
330
1F
100
AcDbEntity
  8
0
  6
SLD-Durchgehend
 62
     7
370
    15
100
AcDbLine
 10
231.3695063833
 20
135.507927942
 30
0.0
 11
222.3280368391
 21
129.8581899283
 31
0.0
  0
LINE
  5
73
330
1F
100
AcDbEntity
  8
0
  6
SLD-Durchgehend
 62
     7
370
    15
100
AcDbLine
 10
231.4160278085
 20
124.5049514947
 30
0.0
 11
231.97400924
 21
135.1518479315
 31
0.0
  0
LINE
  5
74
330
1F
100
AcDbEntity
  8
0
  6
SLD-Durchgehend
 62
     7
370
    15
100
AcDbLine
 10
222.1884762887
 20
118.5393097949
 30
0.0
 11
231.2299458328
 21
124.1890478087
 31
0.0
  0
LINE
  5
75
330
1F
100
AcDbEntity
  8
0
  6
SLD-Durchgehend
 62
     7
370
    15
100
AcDbLine
 10
222.1419548634
 20
129.5422853109
 30
0.0
 11
221.5839734319
 21
118.8953898055
 31
0.0
  0
ARC
  5
76
330
1F
100
AcDbEntity
  8
0
  6
SLD-Durchgehend
 62
     7
370
    15
100
AcDbCircle
 10
231.5741026703
 20
135.1641027567
 30
0.0
 40
0.3800000000000054
100
AcDbArc
 50
357.0
 51
122.0
  0
ARC
  5
77
330
1F
100
AcDbEntity
  8
0
  6
SLD-Durchgehend
 62
     7
370
    15
100
AcDbCircle
 10
222.5413233584
 20
129.5197958021
 30
0.0
 40
0.3799999999999756
100
AcDbArc
 50
122.0
 51
177.0
  0
LINE
  5
78
330
1F
100
AcDbEntity
  8
0
  6
SLD-Durchgehend
 62
     7
370
    15
100
AcDbLine
 10
222.1618441883
 20
129.5396831957
 30
0.0
 11
221.6043991987
 21
118.903021994
 31
0.0
  0
ARC
  5
79
330
1F
100
AcDbEntity
  8
0
  6
SLD-Durchgehend
 62
     7
370
    15
100
AcDbCircle
 10
221.9838795708
 20
118.8831346945
 30
0.0
 40
0.3800000000000346
100
AcDbArc
 50
177.0
 51
302.0
  0
ARC
  5
7A
330
1F
100
AcDbEntity
  8
0
  6
SLD-Durchgehend
 62
     7
370
    15
100
AcDbCircle
 10
231.0166588827
 20
124.5274416491
 30
0.0
 40
0.3800000000000218
100
AcDbArc
 50
302.0
 51
357.0
  0
LINE
  5
7B
330
1F
100
AcDbEntity
  8
0
  6
SLD-Durchgehend
 62
     7
370
    15
100
AcDbLine
 10
231.3961384836
 20
124.5075536099
 30
0.0
 11
231.9535834733
 21
135.1442148116
 31
0.0
  0
ARC
  5
7C
330
1F
100
AcDbEntity
  8
0
  6
SLD-Durchgehend
 62
     7
370
    15
100
AcDbCircle
 10
222.5380883388
 20
129.5217025625
 30
0.0
 40
0.3966678457200817
100
AcDbArc
 50
121.9743812185
 51
177.02563623
  0
ARC
  5
7D
330
1F
100
AcDbEntity
  8
0
  6
SLD-Durchgehend
 62
     7
370
    15
100
AcDbCircle
 10
231.0198829975
 20
124.5255419124
 30
0.0
 40
0.3966795641551851
100
AcDbArc
 50
301.9752547666
 51
357.0246149457
  0
ARC
  5
7E
330
1F
100
AcDbEntity
  8
0
  6
SLD-Durchgehend
 62
     7
370
    15
100
AcDbCircle
 10
221.9770613034
 20
118.871559213
 30
0.0
 40
0.3938095629011715
100
AcDbArc
 50
176.5307418169
 51
302.4691715813
  0
ARC
  5
7F
330
1F
100
AcDbEntity
  8
0
  6
SLD-Durchgehend
 62
     7
370
    15
100
AcDbCircle
 10
231.5809218343
 20
135.1756793145
 30
0.0
 40
0.3938091458968691
100
AcDbArc
 50
356.5306229022
 51
122.4692904961
  0
ARC
  5
80
330
1F
100
AcDbEntity
  8
0
  6
SLD-Durchgehend
 62
     7
370
    15
100
AcDbCircle
 10
229.133954214
 20
131.0215527168
 30
0.0
 40
1.00000000029539
100
AcDbArc
 50
357.0
 51
122.0
  0
LINE
  5
81
330
1F
100
AcDbEntity
  8
0
  6
SLD-Durchgehend
 62
     7
370
    15
100
AcDbLine
 10
229.8588117603
 20
125.7453669933
 30
0.0
 11
230.1325833443
 21
130.9692167816
 31
0.0
  0
ARC
  5
82
330
1F
100
AcDbEntity
  8
0
  6
SLD-Durchgehend
 62
     7
370
    15
100
AcDbCircle
 10
228.8601838266
 20
125.7977025338
 30
0.0
 40
0.9999999999999944
100
AcDbArc
 50
302.0
 51
357.0
  0
LINE
  5
83
330
1F
100
AcDbEntity
  8
0
  6
SLD-Durchgehend
 62
     7
370
    15
100
AcDbLine
 10
224.9539455417
 20
122.1776369167
 30
0.0
 11
229.3901031855
 21
124.9496542987
 31
0.0
  0
ARC
  5
84
330
1F
100
AcDbEntity
  8
0
  6
SLD-Durchgehend
 62
     7
370
    15
100
AcDbCircle
 10
224.424028027
 20
123.0256847344
 30
0.0
 40
1.000000000000024
100
AcDbArc
 50
177.0
 51
302.0
  0
LINE
  5
85
330
1F
100
AcDbEntity
  8
0
  6
SLD-Durchgehend
 62
     7
370
    15
100
AcDbLine
 10
223.6991671864
 20
128.301871675
 30
0.0
 11
223.4253993276
 21
123.0780209553
 31
0.0
  0
ARC
  5
86
330
1F
100
AcDbEntity
  8
0
  6
SLD-Durchgehend
 62
     7
370
    15
100
AcDbCircle
 10
224.6977984144
 20
128.2495349173
 30
0.0
 40
1.00000000000003
100
AcDbArc
 50
122.0
 51
177.0
  0
LINE
  5
87
330
1F
100
AcDbEntity
  8
0
  6
SLD-Durchgehend
 62
     7
370
    15
100
AcDbLine
 10
228.6040334049
 20
131.8696008203
 30
0.0
 11
224.1678794864
 21
129.0975825069
 31
0.0
  0
CIRCLE
  5
88
330
1F
100
AcDbEntity
  8
0
  6
SLD-Durchgehend
 62
     7
370
    15
100
AcDbCircle
 10
226.7789911205
 20
127.0236187256
 30
0.0
 40
3.049999999999986
  0
LWPOLYLINE
  5
89
330
1F
100
AcDbEntity
  8
0
  6
SLD-Durchgehend
 62
     7
370
    15
100
AcDbPolyline
 90
        5
 70
   128
 43
0.0
 10
230.2062844876
 20
132.8420058963
 10
230.2085680906
 20
132.8458857861
 10
230.2468491737
 20
132.9108734754
 10
230.4066566769
 20
133.1821733293
 10
230.5552398804
 20
133.4344183234
  0
LWPOLYLINE
  5
8A
330
1F
100
AcDbEntity
  8
0
  6
SLD-Durchgehend
 62
     7
370
    15
100
AcDbPolyline
 90
        5
 70
   128
 43
0.0
 10
223.0027427915
 20
120.6128194136
 10
223.1513259951
 20
120.8650644076
 10
223.3111334983
 20
121.1363642615
 10
223.3494145814
 20
121.2013519508
 10
223.3516981844
 20
121.2052318406
  0
ARC
  5
8B
330
1F
100
AcDbEntity
  8
0
  6
SLD-Durchgehend
 62
     7
370
    15
100
AcDbCircle
 10
226.7138961655
 20
126.9131094211
 30
0.0
 40
1.675000000000014
100
AcDbArc
 50
150.2895332104
 51
208.8894663376
  0
ARC
  5
8C
330
1F
100
AcDbEntity
  8
0
  6
SLD-Durchgehend
 62
     7
370
    15
100
AcDbCircle
 10
226.7138961655
 20
126.9131094211
 30
0.0
 40
1.675000000000014
100
AcDbArc
 50
208.8894663376
 51
268.9963080724
  0
ARC
  5
8D
330
1F
100
AcDbEntity
  8
0
  6
SLD-Durchgehend
 62
     7
370
    15
100
AcDbCircle
 10
226.7138961655
 20
126.9131094211
 30
0.0
 40
1.675000000000002
100
AcDbArc
 50
268.9963080724
 51
327.5962411996
  0
LINE
  5
8E
330
1F
100
AcDbEntity
  8
0
  6
SLD-Durchgehend
 62
     7
370
    15
100
AcDbLine
 10
228.1717842463
 20
126.0883730975
 30
0.0
 11
228.1280865911
 21
126.0155064193
 31
0.0
  0
ARC
  5
8F
330
1F
100
AcDbEntity
  8
0
  6
SLD-Durchgehend
 62
     7
370
    15
100
AcDbCircle
 10
226.7138961655
 20
126.9131094211
 30
0.0
 40
1.674999999999999
100
AcDbArc
 50
330.5028719715
 51
26.9465901378
  0
LINE
  5
90
330
1F
100
AcDbEntity
  8
0
  6
SLD-Durchgehend
 62
     7
370
    15
100
AcDbLine
 10
228.148963118
 20
127.7769428817
 30
0.0
 11
228.2070403937
 21
127.6721523282
 31
0.0
  0
ARC
  5
91
330
1F
100
AcDbEntity
  8
0
  6
SLD-Durchgehend
 62
     7
370
    15
100
AcDbCircle
 10
226.7138961655
 20
126.9131094211
 30
0.0
 40
1.675000000000011
100
AcDbArc
 50
31.045682038
 51
86.840092372
  0
LINE
  5
92
330
1F
100
AcDbEntity
  8
0
  6
SLD-Durchgehend
 62
     7
370
    15
100
AcDbLine
 10
226.6864402238
 20
128.5878845629
 30
0.0
 11
226.8062269334
 21
128.5855618444
 31
0.0
  0
ARC
  5
93
330
1F
100
AcDbEntity
  8
0
  6
SLD-Durchgehend
 62
     7
370
    15
100
AcDbCircle
 10
226.7138961655
 20
126.9131094211
 30
0.0
 40
1.675000000000006
100
AcDbArc
 50
90.9391842723
 51
147.3829024386
  0
LINE
  5
94
330
1F
100
AcDbEntity
  8
0
  6
SLD-Durchgehend
 62
     7
370
    15
100
AcDbLine
 10
225.2590915207
 20
127.74326812
 30
0.0
 11
225.3030573968
 21
127.8159708855
 31
0.0
  0
CIRCLE
  5
95
330
1F
100
AcDbEntity
  8
0
  6
SLD-Durchgehend
 62
     7
370
    15
100
AcDbCircle
 10
226.7138961655
 20
126.9131094211
 30
0.0
 40
1.799999999999997
  0
ARC
  5
96
330
1F
100
AcDbEntity
  8
0
  6
SLD-Durchgehend
 62
     7
370
    15
100
AcDbCircle
 10
227.8897141935
 20
127.564768974
 30
0.0
 40
0.3350041371169055
100
AcDbArc
 50
39.297501455
 51
105.6987515407
  0
ARC
  5
97
330
1F
100
AcDbEntity
  8
0
  6
SLD-Durchgehend
 62
     7
370
    15
100
AcDbCircle
 10
227.6404358827
 20
128.451652747
 30
0.0
 40
0.5862463733382467
100
AcDbArc
 50
192.1862225835
 51
285.6994456176
  0
ARC
  5
98
330
1F
100
AcDbEntity
  8
0
  6
SLD-Durchgehend
 62
     7
370
    15
100
AcDbCircle
 10
226.7399427292
 20
128.2571773171
 30
0.0
 40
0.3350074529007782
100
AcDbArc
 50
12.1876540434
 51
78.5882191617
  0
ARC
  5
99
330
1F
100
AcDbEntity
  8
0
  6
SLD-Durchgehend
 62
     7
370
    15
100
AcDbCircle
 10
225.8472424394
 20
128.4847476714
 30
0.0
 40
0.5862529558969108
100
AcDbArc
 50
252.1866313211
 51
345.6990981813
  0
ARC
  5
9A
330
1F
100
AcDbEntity
  8
0
  6
SLD-Durchgehend
 62
     7
370
    15
100
AcDbCircle
 10
225.5654153336
 20
127.6076632611
 30
0.0
 40
0.3349981393703389
100
AcDbArc
 50
72.1865745888
 51
141.5510379493
  0
ARC
  5
9B
330
1F
100
AcDbEntity
  8
0
  6
SLD-Durchgehend
 62
     7
370
    15
100
AcDbCircle
 10
226.7399517422
 20
128.2571807614
 30
0.0
 40
0.3350052043733591
100
AcDbArc
 50
99.1914218221
 51
165.6985681588
  0
ARC
  5
9C
330
1F
100
AcDbEntity
  8
0
  6
SLD-Durchgehend
 62
     7
370
    15
100
AcDbCircle
 10
227.8649518251
 20
126.2228356934
 30
0.0
 40
0.3350019767109395
100
AcDbArc
 50
336.3356155758
 51
45.6993565931
  0
ARC
  5
9D
330
1F
100
AcDbEntity
  8
0
  6
SLD-Durchgehend
 62
     7
370
    15
100
AcDbCircle
 10
228.5083827094
 20
126.8821610142
 30
0.0
 40
0.5862543293904038
100
AcDbArc
 50
132.1868890409
 51
225.6988111473
  0
ARC
  5
9E
330
1F
100
AcDbEntity
  8
0
  6
SLD-Durchgehend
 62
     7
370
    15
100
AcDbCircle
 10
227.8897266795
 20
127.5647713354
 30
0.0
 40
0.3349905533539893
100
AcDbArc
 50
312.1852866196
 51
18.6961484465
  0
ARC
  5
9F
330
1F
100
AcDbEntity
  8
0
  6
SLD-Durchgehend
 62
     7
370
    15
100
AcDbCircle
 10
224.9219937661
 20
126.9483382662
 30
0.0
 40
0.5862492944089888
100
AcDbArc
 50
312.1863658299
 51
45.6993343584
  0
ARC
  5
A0
330
1F
100
AcDbEntity
  8
0
  6
SLD-Durchgehend
 62
     7
370
    15
100
AcDbCircle
 10
225.540646944
 20
126.2657289836
 30
0.0
 40
0.3349929034990042
100
AcDbArc
 50
132.1859601365
 51
208.8904927379
  0
ARC
  5
A1
330
1F
100
AcDbEntity
  8
0
  6
SLD-Durchgehend
 62
     7
370
    15
100
AcDbCircle
 10
225.5654067669
 20
127.6076586451
 30
0.0
 40
0.3349909845744569
100
AcDbArc
 50
156.1204467831
 51
225.7000396873
  0
ARC
  5
A2
330
1F
100
AcDbEntity
  8
0
  6
SLD-Durchgehend
 62
     7
370
    15
100
AcDbCircle
 10
226.6904164306
 20
125.5733259691
 30
0.0
 40
0.3350110860440818
100
AcDbArc
 50
268.997527595
 51
345.697862359
  0
ARC
  5
A3
330
1F
100
AcDbEntity
  8
0
  6
SLD-Durchgehend
 62
     7
370
    15
100
AcDbCircle
 10
227.5831246505
 20
125.3457598965
 30
0.0
 40
0.5862458181426405
100
AcDbArc
 50
72.1861980053
 51
165.699554681
  0
ARC
  5
A4
330
1F
100
AcDbEntity
  8
0
  6
SLD-Durchgehend
 62
     7
370
    15
100
AcDbCircle
 10
227.8649536157
 20
126.2228400312
 30
0.0
 40
0.3350017751890727
100
AcDbArc
 50
252.1868064243
 51
321.7639283074
  0
ARC
  5
A5
330
1F
100
AcDbEntity
  8
0
  6
SLD-Durchgehend
 62
     7
370
    15
100
AcDbCircle
 10
225.5406404118
 20
126.2656921065
 30
0.0
 40
0.3349693687620436
100
AcDbArc
 50
208.8855098324
 51
285.7030033192
  0
ARC
  5
A6
330
1F
100
AcDbEntity
  8
0
  6
SLD-Durchgehend
 62
     7
370
    15
100
AcDbCircle
 10
225.7899314913
 20
125.3788412982
 30
0.0
 40
0.586252862512022
100
AcDbArc
 50
12.1866226322
 51
105.6990893352
  0
ARC
  5
A7
330
1F
100
AcDbEntity
  8
0
  6
SLD-Durchgehend
 62
     7
370
    15
100
AcDbCircle
 10
226.6904265919
 20
125.5733177965
 30
0.0
 40
0.3350030925613761
100
AcDbArc
 50
192.1870622953
 51
268.9957655096
  0
CIRCLE
  5
A8
330
1F
100
AcDbEntity
  8
0
  6
SLD-Durchgehend
 62
     7
370
    15
100
AcDbCircle
 10
226.7138961655
 20
126.9131094211
 30
0.0
 40
2.624999999999984
  0
LINE
  5
A9
330
1F
100
AcDbEntity
  8
0
  6
SLD-Durchgehend
 62
     7
370
    15
100
AcDbLine
 10
195.0092630479
 20
89.3352178064
 30
0.0
 11
195.0092630479
 21
120.4141031158
 31
0.0
  0
LWPOLYLINE
  5
AA
330
1F
100
AcDbEntity
  8
0
  6
SLD-Durchgehend
 62
     7
370
    15
100
AcDbPolyline
 90
        3
 70
   128
 43
0.0
 10
195.0092630479
 20
89.3352178064
 10
194.0699515883
 20
91.0335720656
 10
194.0141020361
 20
91.1349800554
  0
LINE
  5
AB
330
1F
100
AcDbEntity
  8
0
  6
SLD-Durchgehend
 62
     7
370
    15
100
AcDbLine
 10
194.0141020361
 20
91.1349800554
 30
0.0
 11
194.0141020361
 21
120.4141031158
 31
0.0
  0
LINE
  5
AC
330
1F
100
AcDbEntity
  8
0
  6
SLD-Durchgehend
 62
     7
370
    15
100
AcDbLine
 10
194.0141020361
 20
120.4141031158
 30
0.0
 11
195.0092630479
 21
120.4141031158
 31
0.0
  0
LINE
  5
AD
330
1F
100
AcDbEntity
  8
0
  6
SLD-Durchgehend
 62
     7
370
    15
100
AcDbLine
 10
184.9241031352
 20
120.4141031158
 30
0.0
 11
190.9389428813
 21
120.4141031158
 31
0.0
  0
LINE
  5
AE
330
1F
100
AcDbEntity
  8
0
  6
SLD-Durchgehend
 62
     7
370
    15
100
AcDbLine
 10
190.9389428813
 20
89.3352178064
 30
0.0
 11
190.9389428813
 21
120.4141031158
 31
0.0
  0
LINE
  5
AF
330
1F
100
AcDbEntity
  8
0
  6
SLD-Durchgehend
 62
     7
370
    15
100
AcDbLine
 10
190.9389428813
 20
89.3352178064
 30
0.0
 11
189.4241029415
 21
89.3352178064
 31
0.0
  0
ARC
  5
B0
330
1F
100
AcDbEntity
  8
0
  6
SLD-Durchgehend
 62
     7
370
    15
100
AcDbCircle
 10
188.8897533236
 20
78.6144488013
 30
0.0
 40
10.73407739745367
100
AcDbArc
 50
87.1465980851
 51
111.6813871243
  0
LINE
  5
B1
330
1F
100
AcDbEntity
  8
0
  6
SLD-Durchgehend
 62
     7
370
    15
100
AcDbLine
 10
184.9241031352
 20
88.5891185281
 30
0.0
 11
184.9241031352
 21
88.5641032037
 31
0.0
  0
LWPOLYLINE
  5
B2
330
1F
100
AcDbEntity
  8
0
  6
SLD-Durchgehend
 62
     7
370
    15
100
AcDbPolyline
 90
       11
 70
   128
 43
0.0
 10
189.4241029415
 20
128.0512788472
 10
188.6900968868
 20
128.0650959489
 10
187.9560908321
 20
128.1064932373
 10
187.2841732595
 20
128.1684206006
 10
186.6539454106
 20
128.247186276
 10
186.1078104023
 20
128.331444892
 10
185.6405472401
 20
128.4151801047
 10
185.2873990331
 20
128.4855061349
 10
185.0443694759
 20
128.5373863903
 10
184.9340254459
 20
128.5618727234
 10
184.9396301452
 20
128.5606154379
  0
LINE
  5
B3
330
1F
100
AcDbEntity
  8
0
  6
SLD-Durchgehend
 62
     7
370
    15
100
AcDbLine
 10
190.9389428813
 20
128.0512788472
 30
0.0
 11
189.4241029415
 21
128.0512788472
 31
0.0
  0
LINE
  5
B4
330
1F
100
AcDbEntity
  8
0
  6
SLD-Durchgehend
 62
     7
370
    15
100
AcDbLine
 10
190.9389428813
 20
124.6755120483
 30
0.0
 11
190.9389428813
 21
128.0512788472
 31
0.0
  0
LINE
  5
B5
330
1F
100
AcDbEntity
  8
0
  6
SLD-Durchgehend
 62
     7
370
    15
100
AcDbLine
 10
189.417772742
 20
124.6755120483
 30
0.0
 11
190.9389428813
 21
124.6755120483
 31
0.0
  0
ARC
  5
B6
330
1F
100
AcDbEntity
  8
0
  6
SLD-Durchgehend
 62
     7
370
    15
100
AcDbCircle
 10
189.0938602311
 20
120.517079758
 30
0.0
 40
4.171028461616025
100
AcDbArc
 50
85.5460566573
 51
181.4146934227
  0
LINE
  5
B7
330
1F
100
AcDbEntity
  8
0
  6
SLD-Durchgehend
 62
     7
370
    15
100
AcDbLine
 10
196.3241023961
 20
89.3352178064
 30
0.0
 11
195.0092630479
 21
89.3352178064
 31
0.0
  0
LINE
  5
B8
330
1F
100
AcDbEntity
  8
0
  6
SLD-Durchgehend
 62
     7
370
    15
100
AcDbLine
 10
195.0092630479
 20
120.4141031158
 30
0.0
 11
196.3241023961
 21
120.4141031158
 31
0.0
  0
LINE
  5
B9
330
1F
100
AcDbEntity
  8
0
  6
SLD-Durchgehend
 62
     7
370
    15
100
AcDbLine
 10
191.9341029618
 20
91.1349800554
 30
0.0
 11
191.9341029618
 21
120.4141031158
 31
0.0
  0
LWPOLYLINE
  5
BA
330
1F
100
AcDbEntity
  8
0
  6
SLD-Durchgehend
 62
     7
370
    15
100
AcDbPolyline
 90
        3
 70
   128
 43
0.0
 10
191.9341029618
 20
91.1349800554
 10
191.8782543409
 20
91.0335720656
 10
190.9389428813
 20
89.3352178064
  0
LINE
  5
BB
330
1F
100
AcDbEntity
  8
0
  6
SLD-Durchgehend
 62
     7
370
    15
100
AcDbLine
 10
190.9389428813
 20
120.4141031158
 30
0.0
 11
191.9341029618
 21
120.4141031158
 31
0.0
  0
LINE
  5
BC
330
1F
100
AcDbEntity
  8
0
  6
SLD-Durchgehend
 62
     7
370
    15
100
AcDbLine
 10
196.9241032395
 20
89.9600700614
 30
0.0
 11
196.9241032395
 21
120.4141031158
 31
0.0
  0
ARC
  5
BD
330
1F
100
AcDbEntity
  8
0
  6
SLD-Durchgehend
 62
     7
370
    15
100
AcDbCircle
 10
196.3128425344
 20
89.9465248792
 30
0.0
 40
0.6114107634496255
100
AcDbArc
 50
271.0552300829
 51
1.2694334473
  0
LINE
  5
BE
330
1F
100
AcDbEntity
  8
0
  6
SLD-Durchgehend
 62
     7
370
    15
100
AcDbLine
 10
196.3241023961
 20
120.4141031158
 30
0.0
 11
196.9241032395
 21
120.4141031158
 31
0.0
  0
LINE
  5
BF
330
1F
100
AcDbEntity
  8
0
  6
SLD-Durchgehend
 62
     7
370
    15
100
AcDbLine
 10
176.9741026703
 20
88.8641026941
 30
0.0
 11
176.9741026703
 21
128.2641028193
 31
0.0
  0
LINE
  5
C0
330
1F
100
AcDbEntity
  8
0
  6
SLD-Durchgehend
 62
     7
370
    15
100
AcDbLine
 10
193.9788794163
 20
91.6641035256
 30
0.0
 11
193.4141030554
 21
91.6641035256
 31
0.0
  0
LINE
  5
C1
330
1F
100
AcDbEntity
  8
0
  6
SLD-Durchgehend
 62
     7
370
    15
100
AcDbLine
 10
193.4141030554
 20
120.4141031158
 30
0.0
 11
194.0141020361
 21
120.4141031158
 31
0.0
  0
LINE
  5
C2
330
1F
100
AcDbEntity
  8
0
  6
SLD-Durchgehend
 62
     7
370
    15
100
AcDbLine
 10
192.5341028739
 20
91.6641035256
 30
0.0
 11
191.9693246502
 21
91.6641035256
 31
0.0
  0
LINE
  5
C3
330
1F
100
AcDbEntity
  8
0
  6
SLD-Durchgehend
 62
     7
370
    15
100
AcDbLine
 10
191.9341029618
 20
120.4141031158
 30
0.0
 11
192.5341028739
 21
120.4141031158
 31
0.0
  0
LINE
  5
C4
330
1F
100
AcDbEntity
  8
0
  6
SLD-Durchgehend
 62
     7
370
    15
100
AcDbLine
 10
196.9241647068
 20
125.4641019878
 30
0.0
 11
197.1241028998
 21
125.4641019878
 31
0.0
  0
LINE
  5
C5
330
1F
100
AcDbEntity
  8
0
  6
SLD-Durchgehend
 62
     7
370
    15
100
AcDbLine
 10
197.0271801594
 20
91.6641035256
 30
0.0
 11
197.1241028998
 21
91.6641035256
 31
0.0
  0
LINE
  5
C6
330
1F
100
AcDbEntity
  8
0
  6
SLD-Durchgehend
 62
     7
370
    15
100
AcDbLine
 10
196.9241032395
 20
120.4141031158
 30
0.0
 11
197.2532270495
 21
120.4141031158
 31
0.0
  0
ARC
  5
C7
330
1F
100
AcDbEntity
  8
0
  6
SLD-Durchgehend
 62
     7
370
    15
100
AcDbCircle
 10
198.6317475105
 20
121.4221239209
 30
0.0
 40
1.707754257787394
100
AcDbArc
 50
179.3497241651
 51
216.175534614
  0
LINE
  5
C8
330
1F
100
AcDbEntity
  8
0
  6
SLD-Durchgehend
 62
     7
370
    15
100
AcDbLine
 10
193.4141030554
 20
91.6641035256
 30
0.0
 11
192.5341028739
 21
91.6641035256
 31
0.0
  0
LINE
  5
C9
330
1F
100
AcDbEntity
  8
0
  6
SLD-Durchgehend
 62
     7
370
    15
100
AcDbLine
 10
192.5341028739
 20
120.4141031158
 30
0.0
 11
193.4141030554
 21
120.4141031158
 31
0.0
  0
ELLIPSE
  5
CA
330
1F
100
AcDbEntity
  8
0
  6
SLD-Durchgehend
 62
     7
370
    15
100
AcDbEllipse
 10
207.8937179126
 20
108.5641027567
 30
0.0
 11
0.0
 21
16.5
 31
0.0
210
0.0
220
0.0
230
1.0
 40
0.2679491924
 41
0.1168440434831719
 42
3.024748610106621
  0
ELLIPSE
  5
CB
330
1F
100
AcDbEntity
  8
0
  6
SLD-Durchgehend
 62
     7
370
    15
100
AcDbEllipse
 10
205.739148605
 20
117.5038061282
 30
0.0
 11
0.2199441409949543
 21
2.658240935926202
 31
0.0
210
0.0
220
0.0
230
1.0
 40
0.2265727024
 41
0.0
 42
6.283185307179586
  0
ARC
  5
CC
330
1F
100
AcDbEntity
  8
0
  6
SLD-Durchgehend
 62
     7
370
    15
100
AcDbCircle
 10
209.3929281729
 20
110.0730606509
 30
0.0
 40
15.0143115156344
100
AcDbArc
 50
86.6278700251
 51
97.7112157403
  0
ARC
  5
CD
330
1F
100
AcDbEntity
  8
0
  6
SLD-Durchgehend
 62
     7
370
    15
100
AcDbCircle
 10
209.4242907185
 20
107.8830070857
 30
0.0
 40
15.8390976253253
100
AcDbArc
 50
262.5781882038
 51
273.0827260308
  0
LINE
  5
CE
330
1F
100
AcDbEntity
  8
0
  6
SLD-Durchgehend
 62
     7
370
    15
100
AcDbLine
 10
210.2760819737
 20
92.0668297586
 30
0.0
 11
211.2067749742
 21
92.0668297586
 31
0.0
  0
LINE
  5
CF
330
1F
100
AcDbEntity
  8
0
  6
SLD-Durchgehend
 62
     7
370
    15
100
AcDbLine
 10
211.2067749742
 20
125.0613757548
 30
0.0
 11
210.2760819737
 21
125.0613757548
 31
0.0
  0
LINE
  5
D0
330
1F
100
AcDbEntity
  8
0
  6
SLD-Durchgehend
 62
     7
370
    15
100
AcDbLine
 10
163.1741028298
 20
94.0515843359
 30
0.0
 11
163.1741028298
 21
94.9605262977
 31
0.0
  0
ARC
  5
D1
330
1F
100
AcDbEntity
  8
0
  6
SLD-Durchgehend
 62
     7
370
    15
100
AcDbCircle
 10
160.0355622245
 20
93.993519906
 30
0.0
 40
3.284134359664609
100
AcDbArc
 50
17.1244326527
 51
29.8895177058
  0
LWPOLYLINE
  5
D2
330
1F
100
AcDbEntity
  8
0
  6
SLD-Durchgehend
 62
     7
370
    15
100
AcDbPolyline
 90
        7
 70
   128
 43
0.0
 10
162.274102496
 20
96.2802290124
 10
162.3374175299
 20
96.2797763896
 10
162.3987916875
 20
96.2683360231
 10
162.476194838
 20
96.2378687364
 10
162.5815581549
 20
96.1647617769
 10
162.7696312982
 20
95.9136800048
 10
162.8828670848
 20
95.6300997314
  0
ARC
  5
D3
330
1F
100
AcDbEntity
  8
0
  6
SLD-Durchgehend
 62
     7
370
    15
100
AcDbCircle
 10
168.0292427785
 20
21.4117307174
 30
0.0
 40
75.08937126268323
100
AcDbArc
 50
94.395681249
 51
97.5337113535
  0
LINE
  5
D4
330
1F
100
AcDbEntity
  8
0
  6
SLD-Durchgehend
 62
     7
370
    15
100
AcDbLine
 10
158.024102265
 20
95.8335676369
 30
0.0
 11
158.1843120996
 21
95.8529223827
 31
0.0
  0
LINE
  5
D5
330
1F
100
AcDbEntity
  8
0
  6
SLD-Durchgehend
 62
     7
370
    15
100
AcDbLine
 10
158.0155862514
 20
95.8609252376
 30
0.0
 11
158.024102265
 21
95.8335676369
 31
0.0
  0
ELLIPSE
  5
D6
330
1F
100
AcDbEntity
  8
0
  6
SLD-Durchgehend
 62
     7
370
    15
100
AcDbEllipse
 10
144.5473604625
 20
107.9248050789
 30
0.0
 11
13.37355272666628
 21
-13.37146352987014
 31
0.0
210
0.0
220
0.0
230
1.0
 40
0.1761188775
 41
0.3023035477142503
 42
0.3822730435340402
  0
ELLIPSE
  5
D7
330
1F
100
AcDbEntity
  8
0
  6
SLD-Durchgehend
 62
     7
370
    15
100
AcDbEllipse
 10
144.4679820318
 20
109.203213208
 30
0.0
 11
13.36963611134306
 21
13.36754752639483
 31
0.0
210
0.0
220
0.0
230
1.0
 40
0.1761188775
 41
5.933076931846599
 42
5.976720052691197
  0
LINE
  5
D8
330
1F
100
AcDbEntity
  8
0
  6
SLD-Durchgehend
 62
     7
370
    15
100
AcDbLine
 10
158.024102265
 20
121.4296833751
 30
0.0
 11
157.9249350373
 21
121.2375384894
 31
0.0
  0
LWPOLYLINE
  5
D9
330
1F
100
AcDbEntity
  8
0
  6
SLD-Durchgehend
 62
     7
370
    15
100
AcDbPolyline
 90
        3
 70
   128
 43
0.0
 10
159.7741020862
 20
121.3448966992
 10
158.9104680363
 20
121.4035253179
 10
158.024102265
 20
121.4296833751
  0
ARC
  5
DA
330
1F
100
AcDbEntity
  8
0
  6
SLD-Durchgehend
 62
     7
370
    15
100
AcDbCircle
 10
159.6191374415
 20
122.434236791
 30
0.0
 40
1.100307173752278
100
AcDbArc
 50
278.0963186522
 51
343.4942707128
  0
LINE
  5
DB
330
1F
100
AcDbEntity
  8
0
  6
SLD-Durchgehend
 62
     7
370
    15
100
AcDbLine
 10
160.67410242
 20
122.121627177
 30
0.0
 11
160.67410242
 21
122.9513703984
 31
0.0
  0
LINE
  5
DC
330
1F
100
AcDbEntity
  8
0
  6
SLD-Durchgehend
 62
     7
370
    15
100
AcDbLine
 10
174.9741025753
 20
93.4604021859
 30
0.0
 11
174.9741025753
 21
123.6678033275
 31
0.0
  0
LWPOLYLINE
  5
DD
330
1F
100
AcDbEntity
  8
0
  6
SLD-Durchgehend
 62
     7
370
    15
100
AcDbPolyline
 90
       18
 70
   128
 43
0.0
 10
168.1586455572
 20
93.8021361035
 10
168.1572467107
 20
93.8019358692
 10
168.2125467826
 20
93.810432325
 10
168.3735752497
 20
93.8332935003
 10
168.6373453606
 20
93.8665547547
 10
168.9878709633
 20
93.9037871686
 10
169.4107463602
 20
93.9365976629
 10
169.8924724962
 20
93.9577237842
 10
170.4222623277
 20
93.9610374299
 10
170.9707894381
 20
93.9435490546
 10
171.512319522
 20
93.9044130174
 10
172.0296286996
 20
93.8468135101
 10
172.5126489084
 20
93.7755570886
 10
172.9353603925
 20
93.700385387
 10
173.278573716
 20
93.6301403818
 10
173.5325858947
 20
93.5727168945
 10
173.6888213102
 20
93.5349182365
 10
173.7403807249
 20
93.5225046379
  0
LWPOLYLINE
  5
DE
330
1F
100
AcDbEntity
  8
0
  6
SLD-Durchgehend
 62
     7
370
    15
100
AcDbPolyline
 90
       18
 70
   128
 43
0.0
 10
173.7393818814
 20
123.6057018069
 10
173.6887109484
 20
123.5929864598
 10
173.533796614
 20
123.5555482236
 10
173.2758149057
 20
123.4974458021
 10
172.9335000757
 20
123.4272548136
 10
172.51170641
 20
123.3522162911
 10
172.0305376705
 20
123.2813323987
 10
171.5131642315
 20
123.2238418561
 10
170.971724486
 20
123.1847598356
 10
170.4224760663
 20
123.1672407267
 10
169.8921996187
 20
123.1705236387
 10
169.4093964081
 20
123.1916655925
 10
168.9867710713
 20
123.2244779495
 10
168.6359325442
 20
123.2618183968
 10
168.3730835114
 20
123.2950107333
 10
168.2120056841
 20
123.3178309304
 10
168.1572671998
 20
123.3262752322
 10
168.1581798959
 20
123.3261318085
  0
LWPOLYLINE
  5
DF
330
1F
100
AcDbEntity
  8
0
  6
SLD-Durchgehend
 62
     7
370
    15
100
AcDbPolyline
 90
       13
 70
   128
 43
0.0
 10
157.8340733442
 20
120.9521831152
 10
157.6693503205
 20
120.5546154779
 10
157.5868649427
 20
120.3956331265
 10
157.4789004419
 20
120.2183800888
 10
157.4256641809
 20
120.1434663636
 10
157.3611775432
 20
120.0647053448
 10
157.3223786447
 20
120.0245439214
 10
157.2830116395
 20
119.9904705537
 10
157.2514956835
 20
119.9690994945
 10
157.2119293753
 20
119.951974335
 10
157.1619508806
 20
119.9536693421
 10
157.0906227473
 20
120.0848330882
 10
157.0741029475
 20
120.3423344669
  0
LWPOLYLINE
  5
E0
330
1F
100
AcDbEntity
  8
0
  6
SLD-Durchgehend
 62
     7
370
    15
100
AcDbPolyline
 90
       11
 70
   128
 43
0.0
 10
157.0741029475
 20
97.0165894506
 10
157.0990866069
 20
97.268569949
 10
157.1576332692
 20
97.347975443
 10
157.2094334308
 20
97.3485882533
 10
157.2431845609
 20
97.3343101469
 10
157.2869995627
 20
97.3046801192
 10
157.330486739
 20
97.2659752843
 10
157.3782151583
 20
97.2150850249
 10
157.4467474613
 20
97.1293083531
 10
157.5859559718
 20
96.9157318723
 10
157.8340733442
 20
96.3971174461
  0
LINE
  5
E1
330
1F
100
AcDbEntity
  8
0
  6
SLD-Durchgehend
 62
     7
370
    15
100
AcDbLine
 10
157.0741029475
 20
97.0165894506
 30
0.0
 11
157.0741029475
 21
120.3423344669
 31
0.0
  0
LINE
  5
E2
330
1F
100
AcDbEntity
  8
0
  6
SLD-Durchgehend
 62
     7
370
    15
100
AcDbLine
 10
190.9389428813
 20
124.6755120483
 30
0.0
 11
191.9341029618
 21
122.478190544
 31
0.0
  0
LINE
  5
E3
330
1F
100
AcDbEntity
  8
0
  6
SLD-Durchgehend
 62
     7
370
    15
100
AcDbLine
 10
191.9341029618
 20
122.478190544
 30
0.0
 11
191.9341029618
 21
122.0799495605
 31
0.0
  0
LWPOLYLINE
  5
E4
330
1F
100
AcDbEntity
  8
0
  6
SLD-Durchgehend
 62
     7
370
    15
100
AcDbPolyline
 90
        6
 70
   128
 43
0.0
 10
191.9341029618
 20
122.0799495605
 10
191.9791175071
 20
121.775194737
 10
192.1035645548
 20
121.5190018666
 10
192.2506753374
 20
121.3682468188
 10
192.4008809049
 20
121.2915850011
 10
192.5341028739
 20
121.2711135996
  0
LINE
  5
E5
330
1F
100
AcDbEntity
  8
0
  6
SLD-Durchgehend
 62
     7
370
    15
100
AcDbLine
 10
192.5341028739
 20
121.2711135996
 30
0.0
 11
193.4141030554
 21
121.2711135996
 31
0.0
  0
ARC
  5
E6
330
1F
100
AcDbEntity
  8
0
  6
SLD-Durchgehend
 62
     7
370
    15
100
AcDbCircle
 10
193.2885610621
 20
121.9912006016
 30
0.0
 40
0.7309487551174776
100
AcDbArc
 50
279.8897062559
 51
6.9738377009
  0
LINE
  5
E7
330
1F
100
AcDbEntity
  8
0
  6
SLD-Durchgehend
 62
     7
370
    15
100
AcDbLine
 10
194.0141020361
 20
122.0799495605
 30
0.0
 11
194.0141020361
 21
122.478190544
 31
0.0
  0
LINE
  5
E8
330
1F
100
AcDbEntity
  8
0
  6
SLD-Durchgehend
 62
     7
370
    15
100
AcDbLine
 10
194.0141020361
 20
122.478190544
 30
0.0
 11
195.0092630479
 21
124.6755120483
 31
0.0
  0
LINE
  5
E9
330
1F
100
AcDbEntity
  8
0
  6
SLD-Durchgehend
 62
     7
370
    15
100
AcDbLine
 10
195.0092630479
 20
124.6755120483
 30
0.0
 11
196.3241023961
 21
124.6755120483
 31
0.0
  0
ARC
  5
EA
330
1F
100
AcDbEntity
  8
0
  6
SLD-Durchgehend
 62
     7
370
    15
100
AcDbCircle
 10
196.2285236908
 20
123.9839576682
 30
0.0
 40
0.698128032379553
100
AcDbArc
 50
355.1028521375
 51
82.1310855252
  0
LINE
  5
EB
330
1F
100
AcDbEntity
  8
0
  6
SLD-Durchgehend
 62
     7
370
    15
100
AcDbLine
 10
196.9241032395
 20
123.924360345
 30
0.0
 11
196.9241032395
 21
121.4415055838
 31
0.0
  0
LWPOLYLINE
  5
EC
330
1F
100
AcDbEntity
  8
0
  6
SLD-Durchgehend
 62
     7
370
    15
100
AcDbPolyline
 90
        3
 70
   128
 43
0.0
 10
195.0092630479
 20
128.0512788472
 10
194.9431782607
 20
127.9337869165
 10
194.0141020361
 20
126.2777798948
  0
LINE
  5
ED
330
1F
100
AcDbEntity
  8
0
  6
SLD-Durchgehend
 62
     7
370
    15
100
AcDbLine
 10
195.0092630479
 20
124.6755120483
 30
0.0
 11
195.0092630479
 21
128.0512788472
 31
0.0
  0
LINE
  5
EE
330
1F
100
AcDbEntity
  8
0
  6
SLD-Durchgehend
 62
     7
370
    15
100
AcDbLine
 10
194.0141020361
 20
122.478190544
 30
0.0
 11
194.0141020361
 21
126.2777798948
 31
0.0
  0
ARC
  5
EF
330
1F
100
AcDbEntity
  8
0
  6
SLD-Durchgehend
 62
     7
370
    15
100
AcDbCircle
 10
192.5608066723
 20
125.9637120364
 30
0.0
 40
0.6267108666969949
100
AcDbArc
 50
179.726192355
 51
232.8629641269
  0
LINE
  5
F0
330
1F
100
AcDbEntity
  8
0
  6
SLD-Durchgehend
 62
     7
370
    15
100
AcDbLine
 10
192.5341028739
 20
125.4641019878
 30
0.0
 11
192.1824466456
 21
125.4641019878
 31
0.0
  0
LWPOLYLINE
  5
F1
330
1F
100
AcDbEntity
  8
0
  6
SLD-Durchgehend
 62
     7
370
    15
100
AcDbPolyline
 90
        3
 70
   128
 43
0.0
 10
191.9341029618
 20
126.2777798948
 10
191.0050267372
 20
127.9337869165
 10
190.9389428813
 20
128.0512788472
  0
LINE
  5
F2
330
1F
100
AcDbEntity
  8
0
  6
SLD-Durchgehend
 62
     7
370
    15
100
AcDbLine
 10
191.9341029618
 20
122.478190544
 30
0.0
 11
191.9341029618
 21
126.2777798948
 31
0.0
  0
LINE
  5
F3
330
1F
100
AcDbEntity
  8
0
  6
SLD-Durchgehend
 62
     7
370
    15
100
AcDbLine
 10
193.765757421
 20
125.4641019878
 30
0.0
 11
193.4141030554
 21
125.4641019878
 31
0.0
  0
ARC
  5
F4
330
1F
100
AcDbEntity
  8
0
  6
SLD-Durchgehend
 62
     7
370
    15
100
AcDbCircle
 10
193.3869123622
 20
125.9639528592
 30
0.0
 40
0.627195720809245
100
AcDbArc
 50
307.1590768283
 51
0.2515960212
  0
ARC
  5
F5
330
1F
100
AcDbEntity
  8
0
  6
SLD-Durchgehend
 62
     7
370
    15
100
AcDbCircle
 10
196.3159981001
 20
127.4431725236
 30
0.0
 40
0.6081603245705092
100
AcDbArc
 50
359.2281322855
 51
89.2364584066
  0
LINE
  5
F6
330
1F
100
AcDbEntity
  8
0
  6
SLD-Durchgehend
 62
     7
370
    15
100
AcDbLine
 10
196.9241032395
 20
123.924360345
 30
0.0
 11
196.9241032395
 21
127.4349798587
 31
0.0
  0
LINE
  5
F7
330
1F
100
AcDbEntity
  8
0
  6
SLD-Durchgehend
 62
     7
370
    15
100
AcDbLine
 10
193.4141030554
 20
125.4641019878
 30
0.0
 11
192.5341028739
 21
125.4641019878
 31
0.0
  0
LINE
  5
F8
330
1F
100
AcDbEntity
  8
0
  6
SLD-Durchgehend
 62
     7
370
    15
100
AcDbLine
 10
196.3241023961
 20
128.0512788472
 30
0.0
 11
195.0092630479
 21
128.0512788472
 31
0.0
  0
LINE
  5
F9
330
1F
100
AcDbEntity
  8
0
  6
SLD-Durchgehend
 62
     7
370
    15
100
AcDbLine
 10
157.0741029475
 20
96.7456304607
 30
0.0
 11
157.0741029475
 21
97.0165894506
 31
0.0
  0
LINE
  5
FA
330
1F
100
AcDbEntity
  8
0
  6
SLD-Durchgehend
 62
     7
370
    15
100
AcDbLine
 10
157.0741029475
 20
120.4380166856
 30
0.0
 11
157.0741029475
 21
120.3423344669
 31
0.0
  0
LINE
  5
FB
330
1F
100
AcDbEntity
  8
0
  6
SLD-Durchgehend
 62
     7
370
    15
100
AcDbLine
 10
158.024102265
 20
121.4441030425
 30
0.0
 11
158.024102265
 21
121.4296833751
 31
0.0
  0
LINE
  5
FC
330
1F
100
AcDbEntity
  8
0
  6
SLD-Durchgehend
 62
     7
370
    15
100
AcDbLine
 10
157.0741029475
 20
120.4941027937
 30
0.0
 11
157.0741029475
 21
120.4380166856
 31
0.0
  0
LINE
  5
FD
330
1F
100
AcDbEntity
  8
0
  6
SLD-Durchgehend
 62
     7
370
    15
100
AcDbLine
 10
158.024102265
 20
95.7431026873
 30
0.0
 11
158.024102265
 21
95.8335676369
 31
0.0
  0
LINE
  5
FE
330
1F
100
AcDbEntity
  8
0
  6
SLD-Durchgehend
 62
     7
370
    15
100
AcDbLine
 10
157.0741029475
 20
96.6931029362
 30
0.0
 11
157.0741029475
 21
96.7456304607
 31
0.0
  0
LINE
  5
FF
330
1F
100
AcDbEntity
  8
0
  6
SLD-Durchgehend
 62
     7
370
    15
100
AcDbLine
 10
221.7403387669
 20
121.8790297535
 30
0.0
 11
219.7775056604
 21
120.6525170383
 31
0.0
  0
ARC
  5
100
330
1F
100
AcDbEntity
  8
0
  6
SLD-Durchgehend
 62
     7
370
    15
100
AcDbCircle
 10
220.5810993632
 20
119.3665006873
 30
0.0
 40
1.516442497159298
100
AcDbArc
 50
122.0
 51
302.0
  0
LINE
  5
101
330
1F
100
AcDbEntity
  8
0
  6
SLD-Durchgehend
 62
     7
370
    15
100
AcDbLine
 10
221.3846927527
 20
118.0804844153
 30
0.0
 11
222.0331465844
 21
118.4856851724
 31
0.0
  0
LINE
  5
102
330
1F
100
AcDbEntity
  8
0
  6
SLD-Durchgehend
 62
     7
370
    15
100
AcDbLine
 10
231.1600221339
 20
124.1453538788
 30
0.0
 11
230.6115401927
 21
113.6796797764
 31
0.0
  0
LINE
  5
103
330
1F
100
AcDbEntity
  8
0
  6
SLD-Durchgehend
 62
     7
370
    15
100
AcDbLine
 10
230.6115401927
 20
113.6796797764
 30
0.0
 11
215.1279000584
 21
91.5667505142
 31
0.0
  0
LINE
  5
104
330
1F
100
AcDbEntity
  8
0
  6
SLD-Durchgehend
 62
     7
370
    15
100
AcDbLine
 10
215.1279000584
 20
91.5667505142
 30
0.0
 11
212.0728006605
 21
91.5667505142
 31
0.0
  0
ARC
  5
105
330
1F
100
AcDbEntity
  8
0
  6
SLD-Durchgehend
 62
     7
370
    15
100
AcDbCircle
 10
211.2067499896
 20
91.0668652271
 30
0.0
 40
0.9999645317656429
100
AcDbArc
 50
29.9935839138
 51
89.9985684355
  0
ARC
  5
106
330
1F
100
AcDbEntity
  8
0
  6
SLD-Durchgehend
 62
     7
370
    15
100
AcDbCircle
 10
211.2067379533
 20
126.0613686012
 30
0.0
 40
0.999992847066029
100
AcDbArc
 50
270.0021211585
 51
336.0187415018
  0
LINE
  5
107
330
1F
100
AcDbEntity
  8
0
  6
SLD-Durchgehend
 62
     7
370
    15
100
AcDbLine
 10
212.1204098705
 20
125.6549337086
 30
0.0
 11
213.0953257922
 21
125.6549337086
 31
0.0
  0
ELLIPSE
  5
108
330
1F
100
AcDbEntity
  8
0
  6
SLD-Durchgehend
 62
     7
370
    15
100
AcDbEllipse
 10
213.0953252836
 20
136.7375425013
 30
0.0
 11
6.821210263296962E-13
 21
11.08260808004735
 31
0.0
210
-7.271960811294775E-15
220
4.475803291248867E-28
230
1.0
 40
0.9925461516
 41
3.141592653589869
 42
3.696741263369183
  0
LINE
  5
109
330
1F
100
AcDbEntity
  8
0
  6
SLD-Durchgehend
 62
     7
370
    15
100
AcDbLine
 10
218.8930919412
 20
127.3192965564
 30
0.0
 11
222.1315016989
 21
129.3428816971
 31
0.0
  0
LINE
  5
10A
330
1F
100
AcDbEntity
  8
0
  6
SLD-Durchgehend
 62
     7
370
    15
100
AcDbLine
 10
221.2434967998
 20
118.306440967
 30
0.0
 11
221.704318935
 21
118.5943919373
 31
0.0
  0
LINE
  5
10B
330
1F
100
AcDbEntity
  8
0
  6
SLD-Durchgehend
 62
     7
370
    15
100
AcDbLine
 10
219.9187016133
 20
120.4265604866
 30
0.0
 11
221.7233141903
 21
121.5542095852
 31
0.0
  0
ARC
  5
10C
330
1F
100
AcDbEntity
  8
0
  6
SLD-Durchgehend
 62
     7
370
    15
100
AcDbCircle
 10
220.5810993632
 20
119.3665006873
 30
0.0
 40
1.250000000000045
100
AcDbArc
 50
122.0
 51
302.0
  0
LINE
  5
10D
330
1F
100
AcDbEntity
  8
0
  6
SLD-Gestrichelt
 62
     7
370
     0
100
AcDbLine
 10
184.9241031352
 20
88.5641032037
 30
0.0
 11
184.9241031352
 21
88.5891185281
 31
0.0
  0
ARC
  5
10E
330
1F
100
AcDbEntity
  8
0
  6
SLD-Gestrichelt
 62
     7
370
     0
100
AcDbCircle
 10
188.8553252082
 20
78.8220974581
 30
0.0
 40
10.52849502866594
100
AcDbArc
 50
86.9032197167
 51
111.9247654927
  0
LINE
  5
10F
330
1F
100
AcDbEntity
  8
0
  6
SLD-Gestrichelt
 62
     7
370
     0
100
AcDbLine
 10
189.4241029415
 20
89.3352178064
 30
0.0
 11
190.9389428813
 21
89.3352178064
 31
0.0
  0
LINE
  5
110
330
1F
100
AcDbEntity
  8
0
  6
SLD-Gestrichelt
 62
     7
370
     0
100
AcDbLine
 10
190.9389428813
 20
128.0512788472
 30
0.0
 11
190.9389428813
 21
89.3352178064
 31
0.0
  0
LINE
  5
111
330
1F
100
AcDbEntity
  8
0
  6
SLD-Gestrichelt
 62
     7
370
     0
100
AcDbLine
 10
189.4241029415
 20
128.0512788472
 30
0.0
 11
190.9389428813
 21
128.0512788472
 31
0.0
  0
ARC
  5
112
330
1F
100
AcDbEntity
  8
0
  6
SLD-Gestrichelt
 62
     7
370
     0
100
AcDbCircle
 10
189.4933516919
 20
148.6575033737
 30
0.0
 40
20.60634088398746
100
AcDbArc
 50
257.2330230875
 51
269.8074539958
  0
CIRCLE
  5
113
330
1F
100
AcDbEntity
  8
0
  6
SLD-Gestrichelt
 62
     7
370
     0
100
AcDbCircle
 10
183.9737756791
 20
108.5622787335
 30
0.0
 40
4.99967324649674
  0
LINE
  5
114
330
1F
100
AcDbEntity
  8
0
  6
SLD-Gestrichelt
 62
     7
370
     0
100
AcDbLine
 10
176.9741026703
 20
128.2641028193
 30
0.0
 11
176.9741026703
 21
88.8641026941
 31
0.0
  0
LWPOLYLINE
  5
115
330
1F
100
AcDbEntity
  8
0
  6
SLD-Gestrichelt
 62
     7
370
     0
100
AcDbPolyline
 90
        3
 70
   128
 43
0.0
 10
194.0141020361
 20
91.4512236741
 10
194.0063459817
 20
91.5522628603
 10
193.9788794163
 20
91.6641035256
  0
LINE
  5
116
330
1F
100
AcDbEntity
  8
0
  6
SLD-Gestrichelt
 62
     7
370
     0
100
AcDbLine
 10
194.0141020361
 20
91.4512236741
 30
0.0
 11
194.0141020361
 21
120.4141031158
 31
0.0
  0
LWPOLYLINE
  5
117
330
1F
100
AcDbEntity
  8
0
  6
SLD-Gestrichelt
 62
     7
370
     0
100
AcDbPolyline
 90
        3
 70
   128
 43
0.0
 10
191.9693246502
 20
91.6641035256
 10
191.9418590162
 20
91.5522628603
 10
191.9341029618
 20
91.4512236741
  0
LINE
  5
118
330
1F
100
AcDbEntity
  8
0
  6
SLD-Gestrichelt
 62
     7
370
     0
100
AcDbLine
 10
191.9341029618
 20
91.4512236741
 30
0.0
 11
191.9341029618
 21
120.4141031158
 31
0.0
  0
LINE
  5
119
330
1F
100
AcDbEntity
  8
0
  6
SLD-Gestrichelt
 62
     7
370
     0
100
AcDbLine
 10
196.9241647068
 20
125.4641019878
 30
0.0
 11
196.9241032395
 21
125.4756373492
 31
0.0
  0
LINE
  5
11A
330
1F
100
AcDbEntity
  8
0
  6
SLD-Gestrichelt
 62
     7
370
     0
100
AcDbLine
 10
196.9241647068
 20
125.4641019878
 30
0.0
 11
197.1241028998
 21
125.4641019878
 31
0.0
  0
LINE
  5
11B
330
1F
100
AcDbEntity
  8
0
  6
SLD-Gestrichelt
 62
     7
370
     0
100
AcDbLine
 10
196.9241032395
 20
125.4756373492
 30
0.0
 11
196.9241032395
 21
91.6641035256
 31
0.0
  0
LINE
  5
11C
330
1F
100
AcDbEntity
  8
0
  6
SLD-Gestrichelt
 62
     7
370
     0
100
AcDbLine
 10
196.9241032395
 20
91.6641035256
 30
0.0
 11
197.1241028998
 21
91.6641035256
 31
0.0
  0
LINE
  5
11D
330
1F
100
AcDbEntity
  8
0
  6
SLD-Gestrichelt
 62
     7
370
     0
100
AcDbLine
 10
197.0271801594
 20
91.6641035256
 30
0.0
 11
196.9241032395
 21
91.6641035256
 31
0.0
  0
LINE
  5
11E
330
1F
100
AcDbEntity
  8
0
  6
SLD-Gestrichelt
 62
     7
370
     0
100
AcDbLine
 10
196.9241032395
 20
121.4415055838
 30
0.0
 11
196.9241032395
 21
125.4756373492
 31
0.0
  0
LINE
  5
11F
330
1F
100
AcDbEntity
  8
0
  6
SLD-Gestrichelt
 62
     7
370
     0
100
AcDbLine
 10
196.9241032395
 20
91.6641035256
 30
0.0
 11
196.9241032395
 21
120.4141031158
 31
0.0
  0
LINE
  5
120
330
1F
100
AcDbEntity
  8
0
  6
SLD-Gestrichelt
 62
     7
370
     0
100
AcDbLine
 10
184.9241031352
 20
120.4141031158
 30
0.0
 11
189.417772742
 21
120.4141031158
 31
0.0
  0
LWPOLYLINE
  5
121
330
1F
100
AcDbEntity
  8
0
  6
SLD-Gestrichelt
 62
     7
370
     0
100
AcDbPolyline
 90
       20
 70
   128
 43
0.0
 10
200.9741028789
 20
98.0211679962
 10
200.1519871894
 20
98.1296847713
 10
199.4226349536
 20
98.4458231506
 10
198.8622413967
 20
98.9471336034
 10
198.5376810673
 20
99.5906672579
 10
198.4893547389
 20
100.3035127324
 10
198.7165471557
 20
101.0045793046
 10
199.1938630137
 20
101.6186980669
 10
199.8757848535
 20
102.0701026683
 10
200.6837574784
 20
102.2911725705
 10
201.5170825664
 20
102.2511964803
 10
202.2853398714
 20
101.9614922953
 10
202.9127439502
 20
101.4579932344
 10
203.3268397692
 20
100.8017493551
 10
203.4740371648
 20
100.0815375847
 10
203.3415937815
 20
99.3876473186
 10
202.9482329283
 20
98.7879770947
 10
202.331108788
 20
98.3353077573
 10
201.5563806537
 20
98.0747507093
 10
200.9741028789
 20
98.0211679962
  0
LINE
  5
122
330
1F
100
AcDbEntity
  8
0
  6
SLD-Gestrichelt
 62
     7
370
     0
100
AcDbLine
 10
176.9741026703
 20
92.3569013503
 30
0.0
 11
176.9741026703
 21
124.7591150132
 31
0.0
  0
LINE
  5
123
330
1F
100
AcDbEntity
  8
0
  6
SLD-Gestrichelt
 62
     7
370
     0
100
AcDbLine
 10
158.0155862514
 20
95.8609252376
 30
0.0
 11
158.024102265
 21
95.8335676369
 31
0.0
  0
LINE
  5
124
330
1F
100
AcDbEntity
  8
0
  6
SLD-Gestrichelt
 62
     7
370
     0
100
AcDbLine
 10
158.024102265
 20
95.8335676369
 30
0.0
 11
158.1843120996
 21
95.8529223827
 31
0.0
  0
ARC
  5
125
330
1F
100
AcDbEntity
  8
0
  6
SLD-Gestrichelt
 62
     7
370
     0
100
AcDbCircle
 10
168.0292427785
 20
21.4117307174
 30
0.0
 40
75.08937126268323
100
AcDbArc
 50
94.395681249
 51
97.5337113535
  0
LWPOLYLINE
  5
126
330
1F
100
AcDbEntity
  8
0
  6
SLD-Gestrichelt
 62
     7
370
     0
100
AcDbPolyline
 90
        7
 70
   128
 43
0.0
 10
162.274102496
 20
96.2802290124
 10
162.3374175299
 20
96.2797763896
 10
162.3987916875
 20
96.2683360231
 10
162.476194838
 20
96.2378687364
 10
162.5815581549
 20
96.1647617769
 10
162.7696312982
 20
95.9136800048
 10
162.8828670848
 20
95.6300997314
  0
ARC
  5
127
330
1F
100
AcDbEntity
  8
0
  6
SLD-Gestrichelt
 62
     7
370
     0
100
AcDbCircle
 10
160.0355622245
 20
93.993519906
 30
0.0
 40
3.284134359664609
100
AcDbArc
 50
17.1244326527
 51
29.8895177058
  0
LINE
  5
128
330
1F
100
AcDbEntity
  8
0
  6
SLD-Gestrichelt
 62
     7
370
     0
100
AcDbLine
 10
163.1741028298
 20
94.9605262977
 30
0.0
 11
163.1741028298
 21
94.0515843359
 31
0.0
  0
LINE
  5
129
330
1F
100
AcDbEntity
  8
0
  6
SLD-Gestrichelt
 62
     7
370
     0
100
AcDbLine
 10
160.67410242
 20
122.9513703984
 30
0.0
 11
160.67410242
 21
122.121627177
 31
0.0
  0
ARC
  5
12A
330
1F
100
AcDbEntity
  8
0
  6
SLD-Gestrichelt
 62
     7
370
     0
100
AcDbCircle
 10
159.6191374415
 20
122.434236791
 30
0.0
 40
1.100307173752278
100
AcDbArc
 50
278.0963186522
 51
343.4942707128
  0
LWPOLYLINE
  5
12B
330
1F
100
AcDbEntity
  8
0
  6
SLD-Gestrichelt
 62
     7
370
     0
100
AcDbPolyline
 90
        3
 70
   128
 43
0.0
 10
159.7741020862
 20
121.3448966992
 10
158.9104680363
 20
121.4035253179
 10
158.024102265
 20
121.4296833751
  0
LINE
  5
12C
330
1F
100
AcDbEntity
  8
0
  6
SLD-Gestrichelt
 62
     7
370
     0
100
AcDbLine
 10
158.024102265
 20
121.4296833751
 30
0.0
 11
157.9249350373
 21
121.2375384894
 31
0.0
  0
ELLIPSE
  5
12D
330
1F
100
AcDbEntity
  8
0
  6
SLD-Gestrichelt
 62
     7
370
     0
100
AcDbEllipse
 10
144.4679820318
 20
109.203213208
 30
0.0
 11
13.36963611134309
 21
13.36754752639486
 31
0.0
210
0.0
220
0.0
230
1.0
 40
0.1761188775
 41
5.933076931846598
 42
5.976720052691197
  0
ELLIPSE
  5
12E
330
1F
100
AcDbEntity
  8
0
  6
SLD-Gestrichelt
 62
     7
370
     0
100
AcDbEllipse
 10
144.5473604625
 20
107.9248050789
 30
0.0
 11
13.37355272666628
 21
-13.37146352987016
 31
0.0
210
0.0
220
0.0
230
1.0
 40
0.1761188775
 41
0.3023035477142536
 42
0.3822730435340435
  0
LINE
  5
12F
330
1F
100
AcDbEntity
  8
0
  6
SLD-Gestrichelt
 62
     7
370
     0
100
AcDbLine
 10
174.9741025753
 20
123.6678033275
 30
0.0
 11
174.9741025753
 21
93.4604021859
 31
0.0
  0
ARC
  5
130
330
1F
100
AcDbEntity
  8
0
  6
SLD-Gestrichelt
 62
     7
370
     0
100
AcDbCircle
 10
171.3038533328
 20
72.4305476273
 30
0.0
 40
21.60178524906596
100
AcDbArc
 50
97.1287248107
 51
98.3719928051
  0
LWPOLYLINE
  5
131
330
1F
100
AcDbEntity
  8
0
  6
SLD-Gestrichelt
 62
     7
370
     0
100
AcDbPolyline
 90
       16
 70
   128
 43
0.0
 10
173.7403807249
 20
93.5225046379
 10
173.741872238
 20
93.5221460787
 10
173.6859374698
 20
93.5359985706
 10
173.5249041132
 20
93.5743401897
 10
173.2622352913
 20
93.6331345838
 10
172.9142161105
 20
93.704537223
 10
172.4947954547
 20
93.779097977
 10
172.015663052
 20
93.8487171334
 10
171.4902672004
 20
93.9058891636
 10
170.9415435809
 20
93.9449898106
 10
170.4001033697
 20
93.9618076337
 10
169.8790321145
 20
93.9573791948
 10
169.3934707921
 20
93.935090783
 10
168.9806066472
 20
93.9030160335
 10
168.9676649887
 20
93.9020102051
 10
168.6230942625
 20
93.8653477606
  0
LWPOLYLINE
  5
132
330
1F
100
AcDbEntity
  8
0
  6
SLD-Gestrichelt
 62
     7
370
     0
100
AcDbPolyline
 90
       16
 70
   128
 43
0.0
 10
168.6229759846
 20
123.2628428516
 10
168.968416566
 20
123.226249325
 10
168.9747318644
 20
123.225758518
 10
169.3944822084
 20
123.1931808543
 10
169.8801618088
 20
123.1708710221
 10
170.4020018708
 20
123.1663932231
 10
170.9431165848
 20
123.1832184968
 10
171.4929112252
 20
123.2225119275
 10
172.0175089333
 20
123.2797184167
 10
172.4970133994
 20
123.3494437438
 10
172.9155446421
 20
123.4238471043
 10
173.2632620744
 20
123.4951901388
 10
173.5251727998
 20
123.5538429719
 10
173.6859085988
 20
123.5921752778
 10
173.7405548822
 20
123.6059970361
 10
173.7393818814
 20
123.6057018069
  0
ARC
  5
133
330
1F
100
AcDbEntity
  8
0
  6
SLD-Gestrichelt
 62
     7
370
     0
100
AcDbCircle
 10
169.8569160723
 20
134.0633206622
 30
0.0
 40
10.87073728310236
100
AcDbArc
 50
261.009721592
 51
263.4822940933
  0
ARC
  5
134
330
1F
100
AcDbEntity
  8
0
  6
SLD-Gestrichelt
 62
     7
370
     0
100
AcDbCircle
 10
170.9719134133
 20
83.2583213749
 30
0.0
 40
12.76430890823062
100
AcDbArc
 50
81.773666861
 51
100.2786770347
  0
ARC
  5
135
330
1F
100
AcDbEntity
  8
0
  6
SLD-Gestrichelt
 62
     7
370
     0
100
AcDbCircle
 10
170.9719134133
 20
133.8698841384
 30
0.0
 40
12.76430890823064
100
AcDbArc
 50
259.7213229653
 51
278.226333139
  0
LWPOLYLINE
  5
136
330
1F
100
AcDbEntity
  8
0
  6
SLD-Gestrichelt
 62
     7
370
     0
100
AcDbPolyline
 90
        6
 70
   128
 43
0.0
 10
172.7982794884
 20
121.2369126407
 10
173.1566500868
 20
121.2805590731
 10
173.2689457033
 20
121.2909358692
 10
173.2738914918
 20
121.2913922173
 10
173.1351684332
 20
121.2783900228
 10
172.7982794884
 20
121.2369126407
  0
LWPOLYLINE
  5
137
330
1F
100
AcDbEntity
  8
0
  6
SLD-Gestrichelt
 62
     7
370
     0
100
AcDbPolyline
 90
        6
 70
   128
 43
0.0
 10
172.7982794884
 20
95.8912928727
 10
173.1566500868
 20
95.8476464403
 10
173.2690528054
 20
95.8372603309
 10
173.2738914918
 20
95.8368132961
 10
173.1351684332
 20
95.8498154906
 10
172.7982794884
 20
95.8912928727
  0
LINE
  5
138
330
1F
100
AcDbEntity
  8
0
  6
SLD-Gestrichelt
 62
     7
370
     0
100
AcDbLine
 10
176.9741026703
 20
98.0641028983
 30
0.0
 11
176.9741026703
 21
119.0518408221
 31
0.0
  0
LINE
  5
139
330
1F
100
AcDbEntity
  8
0
  6
SLD-Gestrichelt
 62
     7
370
     0
100
AcDbLine
 10
164.9767521787
 20
119.0641026151
 30
0.0
 11
164.9767521787
 21
98.0641028983
 31
0.0
  0
LWPOLYLINE
  5
13A
330
1F
100
AcDbEntity
  8
0
  6
SLD-Gestrichelt
 62
     7
370
     0
100
AcDbPolyline
 90
        3
 70
   128
 43
0.0
 10
202.3826835695
 20
113.1519761075
 10
202.028278077
 20
112.9331190278
 10
202.0133378003
 20
112.9228595783
  0
ARC
  5
13B
330
1F
100
AcDbEntity
  8
0
  6
SLD-Gestrichelt
 62
     7
370
     0
100
AcDbCircle
 10
201.8681639716
 20
113.569145032
 30
0.0
 40
0.6623898611976441
100
AcDbArc
 50
282.6600965419
 51
320.9651003874
  0
LWPOLYLINE
  5
13C
330
1F
100
AcDbEntity
  8
0
  6
SLD-Gestrichelt
 62
     7
370
     0
100
AcDbPolyline
 90
        3
 70
   128
 43
0.0
 10
199.2827093247
 20
115.553925014
 10
199.8842449877
 20
115.9667854336
 10
200.1963162813
 20
116.1590770026
  0
LWPOLYLINE
  5
13D
330
1F
100
AcDbEntity
  8
0
  6
SLD-Gestrichelt
 62
     7
370
     0
100
AcDbPolyline
 90
       38
 70
   128
 43
0.0
 10
200.1963162813
 20
116.1590770026
 10
200.0821361337
 20
116.0084202093
 10
200.0413367543
 20
115.9138821204
 10
200.0463975612
 20
115.8477908139
 10
200.1060077939
 20
115.7887575355
 10
200.4356643203
 20
115.6721256812
 10
200.8287495021
 20
115.5401209508
 10
201.2699263189
 20
115.3518424508
 10
201.8718754891
 20
115.009549274
 10
202.3416290078
 20
114.6502296579
 10
202.7321958933
 20
114.2415126924
 10
202.9603624735
 20
113.8832310353
 10
203.0657267216
 20
113.555669519
 10
203.0139712635
 20
113.1737313372
 10
202.8725797329
 20
112.9893439029
 10
202.6510739717
 20
112.8420771238
 10
202.4853581581
 20
112.7638222788
 10
202.3454399798
 20
112.6948638958
 10
202.2391518596
 20
112.6299125281
 10
202.1291179601
 20
112.5479743023
 10
201.9053360466
 20
112.3573279147
 10
201.5186062101
 20
112.0492759765
 10
201.1054771039
 20
111.800864539
 10
200.3716750089
 20
111.5884915599
 10
199.8573651556
 20
111.6437646233
 10
199.4638366643
 20
111.8533210502
 10
199.2888318393
 20
112.0557852228
 10
199.149722049
 20
112.2167224203
 10
199.050519431
 20
112.4488096357
 10
198.9650240186
 20
112.6488281553
 10
198.8743690792
 20
113.3021728274
 10
198.9871243033
 20
114.2137611424
 10
199.1614418123
 20
114.7616051276
 10
199.378398994
 20
115.2760951919
 10
199.4283458236
 20
115.419865786
 10
199.4330452774
 20
115.4938933578
 10
199.407625759
 20
115.5368105647
 10
199.2827093247
 20
115.553925014
  0
LWPOLYLINE
  5
13E
330
1F
100
AcDbEntity
  8
0
  6
SLD-Gestrichelt
 62
     7
370
     0
100
AcDbPolyline
 90
       30
 70
   128
 43
0.0
 10
197.2406374309
 20
114.2028730501
 10
197.3594965432
 20
114.2250911471
 10
197.5284794364
 20
114.1653891792
 10
197.7396810446
 20
114.0265587856
 10
197.9832274858
 20
113.8150908192
 10
198.2477305475
 20
113.5408735973
 10
198.5208222661
 20
113.2167291035
 10
198.7897323463
 20
112.8578146127
 10
199.041889796
 20
112.4809116264
 10
199.2655003462
 20
112.1036442601
 10
199.4501108322
 20
111.7436531604
 10
199.5870860312
 20
111.4177708187
 10
199.6700258944
 20
111.1412353021
 10
199.6950486693
 20
110.9269770932
 10
199.6609846148
 20
110.7850148947
 10
199.5694262925
 20
110.7219862425
 10
199.4246559236
 20
110.7408385397
 10
199.2334442232
 20
110.8406900567
 10
199.0047300253
 20
111.0168723063
 10
198.7492067758
 20
111.2611468089
 10
198.4788233433
 20
111.5620918245
 10
198.2062252257
 20
111.905635069
 10
197.9441547785
 20
112.2757133235
 10
197.7048682067
 20
112.6550219161
 10
197.4995544199
 20
113.0258247395
 10
197.337813491
 20
113.3707838272
 10
197.2272077594
 20
113.6737686721
 10
197.172907928
 20
113.9206124608
 10
197.1774565074
 20
114.0997728472
 10
197.2406374309
 20
114.2028730501
  0
LINE
  5
13F
330
1F
100
AcDbEntity
  8
0
  6
SLD-Gestrichelt
 62
     7
370
     0
100
AcDbLine
 10
189.417772742
 20
120.4141031158
 30
0.0
 11
197.2532270495
 21
120.4141031158
 31
0.0
  0
LINE
  5
140
330
1F
100
AcDbEntity
  8
0
  6
SLD-Gestrichelt
 62
     7
370
     0
100
AcDbLine
 10
191.9341029618
 20
122.0799495605
 30
0.0
 11
191.9341029618
 21
125.966706979
 31
0.0
  0
LINE
  5
141
330
1F
100
AcDbEntity
  8
0
  6
SLD-Gestrichelt
 62
     7
370
     0
100
AcDbLine
 10
194.0141020361
 20
122.0799495605
 30
0.0
 11
194.0141020361
 21
125.966706979
 31
0.0
  0
LINE
  5
142
330
1F
100
AcDbEntity
  8
0
  6
SLD-Gestrichelt
 62
     7
370
     0
100
AcDbLine
 10
157.0741029475
 20
98.6990963248
 30
0.0
 11
157.0741029475
 21
118.4291091886
 31
0.0
  0
LINE
  5
143
330
1F
100
AcDbEntity
  8
0
  6
SLD-Gestrichelt
 62
     7
370
     0
100
AcDbLine
 10
183.1434777025
 20
119.0641026151
 30
0.0
 11
183.1434777025
 21
98.0641028983
 31
0.0
  0
LINE
  5
144
330
1F
100
AcDbEntity
  8
0
  6
SLD-Gestrichelt
 62
     7
370
     0
100
AcDbLine
 10
184.9241031352
 20
118.4391022799
 30
0.0
 11
184.9241031352
 21
98.6891023022
 31
0.0
  0
ARC
  5
145
330
1F
100
AcDbEntity
  8
0
  6
SLD-Gestrichelt
 62
     7
370
     0
100
AcDbCircle
 10
201.0853926291
 20
114.8310063418
 30
0.0
 40
2.12181674794189
100
AcDbArc
 50
295.9339802074
 51
307.6912167218
  0
LINE
  5
146
330
1F
100
AcDbEntity
  8
0
  6
SLD-Gestrichelt
 62
     7
370
     0
100
AcDbLine
 10
158.024102265
 20
98.8661970151
 30
0.0
 11
162.274102496
 21
98.8661970151
 31
0.0
  0
LINE
  5
147
330
1F
100
AcDbEntity
  8
0
  6
SLD-Gestrichelt
 62
     7
370
     0
100
AcDbLine
 10
158.024102265
 20
118.2620084983
 30
0.0
 11
158.024102265
 21
98.8661970151
 31
0.0
  0
LINE
  5
148
330
1F
100
AcDbEntity
  8
0
  6
SLD-Gestrichelt
 62
     7
370
     0
100
AcDbLine
 10
159.7741020862
 20
118.2620084983
 30
0.0
 11
158.024102265
 21
118.2620084983
 31
0.0
  0
LWPOLYLINE
  5
149
330
1F
100
AcDbEntity
  8
0
  6
SLD-Gestrichelt
 62
     7
370
     0
100
AcDbPolyline
 90
        6
 70
   128
 43
0.0
 10
160.67410242
 20
118.5882927057
 10
160.6183217857
 20
118.4856739965
 10
160.4571601394
 20
118.3864369196
 10
160.2086460236
 20
118.3076805574
 10
159.9169036392
 20
118.2667321664
 10
159.7741020862
 20
118.2620084983
  0
LINE
  5
14A
330
1F
100
AcDbEntity
  8
0
  6
SLD-Gestrichelt
 62
     7
370
     0
100
AcDbLine
 10
160.67410242
 20
118.5882927057
 30
0.0
 11
160.67410242
 21
119.0641026151
 31
0.0
  0
LWPOLYLINE
  5
14B
330
1F
100
AcDbEntity
  8
0
  6
SLD-Gestrichelt
 62
     7
370
     0
100
AcDbPolyline
 90
        6
 70
   128
 43
0.0
 10
160.67410242
 20
118.5882927057
 10
160.6183217857
 20
118.4856739965
 10
160.4571601394
 20
118.3864369196
 10
160.2086460236
 20
118.3076805574
 10
159.9169036392
 20
118.2667321664
 10
159.7741020862
 20
118.2620084983
  0
LWPOLYLINE
  5
14C
330
1F
100
AcDbEntity
  8
0
  6
SLD-Gestrichelt
 62
     7
370
     0
100
AcDbPolyline
 90
        6
 70
   128
 43
0.0
 10
162.274102496
 20
98.8661970151
 10
162.5561330486
 20
98.8475072336
 10
162.8060888517
 20
98.7957741273
 10
163.0069490541
 20
98.7179751647
 10
163.1385123376
 20
98.6214985278
 10
163.1741028298
 20
98.5399128077
  0
LINE
  5
14D
330
1F
100
AcDbEntity
  8
0
  6
SLD-Gestrichelt
 62
     7
370
     0
100
AcDbLine
 10
163.1741028298
 20
98.5399128077
 30
0.0
 11
163.1741028298
 21
98.0641028983
 31
0.0
  0
LWPOLYLINE
  5
14E
330
1F
100
AcDbEntity
  8
0
  6
SLD-Gestrichelt
 62
     7
370
     0
100
AcDbPolyline
 90
        6
 70
   128
 43
0.0
 10
162.274102496
 20
98.8661970151
 10
162.5561330486
 20
98.8475072336
 10
162.8060888517
 20
98.7957741273
 10
163.0069490541
 20
98.7179751647
 10
163.1385123376
 20
98.6214985278
 10
163.1741028298
 20
98.5399128077
  0
LINE
  5
14F
330
1F
100
AcDbEntity
  8
0
  6
SLD-Gestrichelt
 62
     7
370
     0
100
AcDbLine
 10
158.024102265
 20
98.8661970151
 30
0.0
 11
158.024102265
 21
118.2620084983
 31
0.0
  0
LWPOLYLINE
  5
150
330
1F
100
AcDbEntity
  8
0
  6
SLD-Gestrichelt
 62
     7
370
     0
100
AcDbPolyline
 90
       14
 70
   128
 43
0.0
 10
202.074102873
 20
110.9969254722
 10
202.3450097088
 20
110.5929214646
 10
202.5738170389
 20
110.2275963313
 10
202.7283160034
 20
109.9716797144
 10
202.8736786935
 20
109.7188943204
 10
203.0190823618
 20
109.3828339036
 10
203.0733542535
 20
108.9461519696
 10
202.9744980875
 20
108.4134420199
 10
202.8503881786
 20
108.1444403063
 10
202.7204593662
 20
107.9854499222
 10
202.5503886882
 20
107.8870960883
 10
202.3508062605
 20
107.8653668192
 10
202.1519390885
 20
107.903733293
 10
202.074102873
 20
107.9302305844
  0
LWPOLYLINE
  5
151
330
1F
100
AcDbEntity
  8
0
  6
SLD-Gestrichelt
 62
     7
370
     0
100
AcDbPolyline
 90
       18
 70
   128
 43
0.0
 10
202.074102873
 20
107.9302305844
 10
201.5735169891
 20
107.602739965
 10
201.1452203635
 20
107.4742058664
 10
200.690971503
 20
107.4941748193
 10
200.2164142225
 20
107.6855326792
 10
199.5842548106
 20
108.2149362447
 10
199.1036737356
 20
108.9357505226
 10
198.9142240975
 20
109.4842037674
 10
198.8828534279
 20
110.0120740849
 10
198.9998443071
 20
110.4113201982
 10
199.2458792422
 20
110.7182346423
 10
199.7763810698
 20
110.9746726834
 10
200.1030797157
 20
111.0322777786
 10
200.485553408
 20
111.0573275619
 10
200.8911853675
 20
111.0626861592
 10
201.3085482661
 20
111.0607327101
 10
201.8007708732
 20
111.0369632625
 10
202.074102873
 20
110.9969254722
  0
ARC
  5
152
330
1F
100
AcDbEntity
  8
0
  6
SLD-Gestrichelt
 62
     7
370
     0
100
AcDbCircle
 10
200.8530324653
 20
114.1754038145
 30
0.0
 40
2.089553891021966
100
AcDbArc
 50
108.3176766571
 51
138.7214523244
  0
LINE
  5
153
330
1F
100
AcDbEntity
  8
0
  6
SLD-Gestrichelt
 62
     7
370
     0
100
AcDbLine
 10
160.67410242
 20
119.5641026971
 30
0.0
 11
160.67410242
 21
122.121627177
 31
0.0
  0
LINE
  5
154
330
1F
100
AcDbEntity
  8
0
  6
SLD-Gestrichelt
 62
     7
370
     0
100
AcDbLine
 10
163.1741028298
 20
97.5641028163
 30
0.0
 11
163.1741028298
 21
94.9605262977
 31
0.0
  0
LINE
  5
155
330
1F
100
AcDbEntity
  8
0
  6
SLD-Gestrichelt
 62
     7
370
     0
100
AcDbLine
 10
158.024102265
 20
119.5641026971
 30
0.0
 11
158.024102265
 21
121.4441030425
 31
0.0
  0
LINE
  5
156
330
1F
100
AcDbEntity
  8
0
  6
SLD-Gestrichelt
 62
     7
370
     0
100
AcDbLine
 10
157.0741029475
 20
119.5641026971
 30
0.0
 11
157.0741029475
 21
120.4941027937
 31
0.0
  0
LINE
  5
157
330
1F
100
AcDbEntity
  8
0
  6
SLD-Gestrichelt
 62
     7
370
     0
100
AcDbLine
 10
158.024102265
 20
97.5641028163
 30
0.0
 11
158.024102265
 21
95.7431026873
 31
0.0
  0
LINE
  5
158
330
1F
100
AcDbEntity
  8
0
  6
SLD-Gestrichelt
 62
     7
370
     0
100
AcDbLine
 10
157.0741029475
 20
97.5641028163
 30
0.0
 11
157.0741029475
 21
96.6931029362
 31
0.0
  0
LINE
  5
159
330
1F
100
AcDbEntity
  8
0
  6
SLD-Gestrichelt
 62
     7
370
     0
100
AcDbLine
 10
190.2741024289
 20
114.8141028498
 30
0.0
 11
190.2741024289
 21
102.3141026636
 31
0.0
  0
LINE
  5
15A
330
1F
100
AcDbEntity
  8
0
  6
SLD-Gestrichelt
 62
     7
370
     0
100
AcDbLine
 10
192.7741019074
 20
114.8141028498
 30
0.0
 11
192.7741019074
 21
102.3141026636
 31
0.0
  0
LINE
  5
15B
330
1F
100
AcDbEntity
  8
0
  6
SLD-Gestrichelt
 62
     7
370
     0
100
AcDbLine
 10
185.4241022859
 20
114.0641027269
 30
0.0
 11
185.4241022859
 21
103.0641027865
 31
0.0
  0
LINE
  5
15C
330
1F
100
AcDbEntity
  8
0
  6
SLD-Gestrichelt
 62
     7
370
     0
100
AcDbLine
 10
184.9241031352
 20
102.5641027045
 30
0.0
 11
184.9241031352
 21
114.5517748919
 31
0.0
  0
LINE
  5
15D
330
1F
100
AcDbEntity
  8
0
  6
SLD-Gestrichelt
 62
     7
370
     0
100
AcDbLine
 10
184.9241031352
 20
88.5891185281
 30
0.0
 11
184.9241031352
 21
91.6641035256
 31
0.0
  0
LINE
  5
15E
330
1F
100
AcDbEntity
  8
0
  6
SLD-Gestrichelt
 62
     7
370
     0
100
AcDbLine
 10
189.4241029415
 20
91.6641035256
 30
0.0
 11
184.9241031352
 21
91.6641035256
 31
0.0
  0
LINE
  5
15F
330
1F
100
AcDbEntity
  8
0
  6
SLD-Gestrichelt
 62
     7
370
     0
100
AcDbLine
 10
191.9693246502
 20
91.6641035256
 30
0.0
 11
189.4241029415
 21
91.6641035256
 31
0.0
  0
LINE
  5
160
330
1F
100
AcDbEntity
  8
0
  6
SLD-Gestrichelt
 62
     7
370
     0
100
AcDbLine
 10
191.9341029618
 20
91.4512236741
 30
0.0
 11
191.9341029618
 21
91.1349800554
 31
0.0
  0
LINE
  5
161
330
1F
100
AcDbEntity
  8
0
  6
SLD-Gestrichelt
 62
     7
370
     0
100
AcDbLine
 10
196.9241032395
 20
91.6641035256
 30
0.0
 11
193.9788794163
 21
91.6641035256
 31
0.0
  0
LINE
  5
162
330
1F
100
AcDbEntity
  8
0
  6
SLD-Gestrichelt
 62
     7
370
     0
100
AcDbLine
 10
194.0141020361
 20
91.1349800554
 30
0.0
 11
194.0141020361
 21
91.4512236741
 31
0.0
  0
LINE
  5
163
330
1F
100
AcDbEntity
  8
0
  6
SLD-Gestrichelt
 62
     7
370
     0
100
AcDbLine
 10
196.9241032395
 20
91.6641035256
 30
0.0
 11
196.9241032395
 21
89.9600700614
 31
0.0
  0
LINE
  5
164
330
1F
100
AcDbEntity
  8
0
  6
SLD-Gestrichelt
 62
     7
370
     0
100
AcDbLine
 10
190.2741024289
 20
103.0641027865
 30
0.0
 11
190.2741024289
 21
114.0518204448
 31
0.0
  0
ELLIPSE
  5
165
330
1F
100
AcDbEntity
  8
0
  6
SLD-Gestrichelt
 62
     7
370
     0
100
AcDbEllipse
 10
154.9683359306
 20
108.5641027567
 30
0.0
 11
12.26424774976738
 21
0.0
 31
0.0
210
0.0
220
0.0
230
1.0
 40
0.8164965809
 41
1.318982952866323
 42
1.398241670070612
  0
LINE
  5
166
330
1F
100
AcDbEntity
  8
0
  6
SLD-Gestrichelt
 62
     7
370
     0
100
AcDbLine
 10
157.0741029475
 20
119.5641026971
 30
0.0
 11
157.0741029475
 21
118.4291091886
 31
0.0
  0
ELLIPSE
  5
167
330
1F
100
AcDbEntity
  8
0
  6
SLD-Gestrichelt
 62
     7
370
     0
100
AcDbEllipse
 10
154.9683359306
 20
108.5641027567
 30
0.0
 11
12.26424774976735
 21
0.0
 31
0.0
210
0.0
220
0.0
230
1.0
 40
0.8164965809
 41
4.884943637108986
 42
4.964202354313276
  0
LINE
  5
168
330
1F
100
AcDbEntity
  8
0
  6
SLD-Gestrichelt
 62
     7
370
     0
100
AcDbLine
 10
157.0741029475
 20
97.5641028163
 30
0.0
 11
157.0741029475
 21
98.6990963248
 31
0.0
  0
LINE
  5
169
330
1F
100
AcDbEntity
  8
0
  6
SLD-Gestrichelt
 62
     7
370
     0
100
AcDbLine
 10
196.9241647068
 20
125.4641019878
 30
0.0
 11
193.765757421
 21
125.4641019878
 31
0.0
  0
LINE
  5
16A
330
1F
100
AcDbEntity
  8
0
  6
SLD-Gestrichelt
 62
     7
370
     0
100
AcDbLine
 10
196.9241032395
 20
125.4756373492
 30
0.0
 11
196.9241032395
 21
127.4349798587
 31
0.0
  0
LINE
  5
16B
330
1F
100
AcDbEntity
  8
0
  6
SLD-Gestrichelt
 62
     7
370
     0
100
AcDbLine
 10
194.0141020361
 20
126.2777798948
 30
0.0
 11
194.0141020361
 21
125.966706979
 31
0.0
  0
LINE
  5
16C
330
1F
100
AcDbEntity
  8
0
  6
SLD-Gestrichelt
 62
     7
370
     0
100
AcDbLine
 10
192.1824466456
 20
125.4641019878
 30
0.0
 11
189.4241029415
 21
125.4641019878
 31
0.0
  0
LINE
  5
16D
330
1F
100
AcDbEntity
  8
0
  6
SLD-Gestrichelt
 62
     7
370
     0
100
AcDbLine
 10
191.9341029618
 20
125.966706979
 30
0.0
 11
191.9341029618
 21
126.2777798948
 31
0.0
  0
LINE
  5
16E
330
1F
100
AcDbEntity
  8
0
  6
SLD-Gestrichelt
 62
     7
370
     0
100
AcDbLine
 10
189.4241029415
 20
125.4641019878
 30
0.0
 11
184.9241031352
 21
125.4641019878
 31
0.0
  0
LINE
  5
16F
330
1F
100
AcDbEntity
  8
0
  6
SLD-Gestrichelt
 62
     7
370
     0
100
AcDbLine
 10
158.024102265
 20
119.5641026971
 30
0.0
 11
158.024102265
 21
118.2620084983
 31
0.0
  0
LINE
  5
170
330
1F
100
AcDbEntity
  8
0
  6
SLD-Gestrichelt
 62
     7
370
     0
100
AcDbLine
 10
158.024102265
 20
97.5641028163
 30
0.0
 11
158.024102265
 21
98.8661970151
 31
0.0
  0
LINE
  5
171
330
1F
100
AcDbEntity
  8
0
  6
SLD-Gestrichelt
 62
     7
370
     0
100
AcDbLine
 10
160.67410242
 20
119.5641026971
 30
0.0
 11
160.67410242
 21
118.5882927057
 31
0.0
  0
LINE
  5
172
330
1F
100
AcDbEntity
  8
0
  6
SLD-Gestrichelt
 62
     7
370
     0
100
AcDbLine
 10
163.1741028298
 20
97.5641028163
 30
0.0
 11
163.1741028298
 21
98.5399128077
 31
0.0
  0
LWPOLYLINE
  5
173
330
1F
100
AcDbEntity
  8
0
  6
SLD-Gestrichelt
 62
     7
370
     0
100
AcDbPolyline
 90
       55
 70
   128
 43
0.0
 10
168.8299316931
 20
94.3249787343
 10
169.0584763903
 20
94.3582781729
 10
169.4386115316
 20
94.4006142345
 10
169.8402942177
 20
94.4297767383
 10
170.2118597943
 20
94.4457647529
 10
170.2120604943
 20
94.4457666156
 10
170.5218668114
 20
94.4485792098
 10
170.9166176636
 20
94.4334619817
 10
171.3481706586
 20
94.3984144506
 10
171.7997382413
 20
94.3434356851
 10
172.0256910678
 20
94.308471973
 10
172.2468648124
 20
94.2685266164
 10
172.6815070044
 20
94.1767028672
 10
172.9272360001
 20
94.1153603745
 10
173.1010971609
 20
94.0682931942
 10
173.2326576505
 20
94.0308298123
 10
173.2740824129
 20
94.0186127228
 10
173.2732246648
 20
94.018879081
 10
173.2356006298
 20
94.0305560035
 10
173.1104669645
 20
94.0654116821
 10
173.0132431742
 20
94.0914319036
 10
172.955749372
 20
94.1065891785
 10
172.9247712549
 20
94.1147056547
 10
172.9087241012
 20
94.1188975376
 10
172.9005610589
 20
94.1210274723
 10
172.8964446131
 20
94.1221003559
 10
172.8943775426
 20
94.1226386604
 10
172.8933419119
 20
94.1229087439
 10
172.8928236309
 20
94.1230437857
 10
172.8925642576
 20
94.1231117723
 10
172.8924348038
 20
94.1231452999
 10
172.8923696112
 20
94.1231620637
 10
172.8923374805
 20
94.1231704456
 10
172.8923211824
 20
94.1231751022
 10
172.8923132662
 20
94.1231769648
 10
172.8923048843
 20
94.1231788275
 10
172.8324119951
 20
94.1390429762
 10
172.7174793389
 20
94.1679679927
 10
172.5333526749
 20
94.2099529457
 10
172.2629939224
 20
94.2649996978
 10
171.821672285
 20
94.3404917744
 10
171.4377885703
 20
94.3912730691
 10
170.565442929
 20
94.4464213354
 10
170.125008842
 20
94.4456045655
 10
169.9821821432
 20
94.4411267665
 10
169.8426229898
 20
94.4345451099
 10
169.7071248684
 20
94.4258605269
 10
169.4646839071
 20
94.4045965699
 10
169.2766675744
 20
94.385218541
 10
169.0685784463
 20
94.3600085703
 10
168.834472822
 20
94.3256185529
 10
168.7203941885
 20
94.3059117672
 10
168.7124881912
 20
94.305492672
 10
168.7060536835
 20
94.305151808
 10
168.8299316931
 20
94.3249787343
  0
LWPOLYLINE
  5
174
330
1F
100
AcDbEntity
  8
0
  6
SLD-Gestrichelt
 62
     7
370
     0
100
AcDbPolyline
 90
       47
 70
   128
 43
0.0
 10
169.434943052
 20
122.7271572826
 10
169.0584735963
 20
122.76985656
 10
168.8323223982
 20
122.8028216538
 10
168.8300155122
 20
122.8031578613
 10
168.7061551977
 20
122.8229968947
 10
168.6787631381
 20
122.8285522339
 10
168.6747128162
 20
122.8293736604
 10
168.7200402859
 20
122.8222872269
 10
168.7648387644
 20
122.8142880973
 10
168.8335824776
 20
122.8026074496
 10
168.9323892835
 20
122.7872452837
 10
169.0674096364
 20
122.7682015997
 10
169.2992703076
 20
122.7403839258
 10
169.5028276201
 20
122.7198594389
 10
169.5888026636
 20
122.7120186341
 10
169.6571291443
 20
122.7061792416
 10
169.7060673516
 20
122.7023403299
 10
170.1240770537
 20
122.6825907034
 10
170.5648636464
 20
122.6817711395
 10
171.0087548029
 20
122.6998825696
 10
171.4384656418
 20
122.7369240624
 10
171.6206993926
 20
122.7591575262
 10
171.8215172198
 20
122.7875535515
 10
172.0369661245
 20
122.8221121383
 10
172.2615769151
 20
122.8628332865
 10
172.5577109512
 20
122.9234940511
 10
172.748574337
 20
122.9677961347
 10
172.8145124409
 20
122.984473328
 10
172.8608969617
 20
122.9966624779
 10
172.8899644706
 20
123.0043617216
 10
173.1090678852
 20
123.062235969
 10
173.2351223957
 20
123.0972406593
 10
173.2732581924
 20
123.1091150221
 10
173.2740880009
 20
123.1093729985
 10
173.2370679285
 20
123.0979968932
 10
173.1151068136
 20
123.0627379519
 10
172.8897195328
 20
123.0035961744
 10
172.5954667684
 20
122.935102987
 10
172.2480801884
 20
122.8669720841
 10
171.8522583153
 20
122.7973892492
 10
171.4508079942
 20
122.7347354543
 10
171.0283381883
 20
122.6961395842
 10
170.5619406905
 20
122.6792360795
 10
170.1302037593
 20
122.6825255108
 10
170.1290610265
 20
122.6825813902
 10
169.8108551111
 20
122.6980469328
 10
169.434943052
 20
122.7271572826
  0
LINE
  5
175
330
1F
100
AcDbEntity
  8
0
  6
SLD-Gestrichelt
 62
     7
370
     0
100
AcDbLine
 10
202.074102873
 20
107.9302305844
 30
0.0
 11
202.074102873
 21
106.0641028126
 31
0.0
  0
LWPOLYLINE
  5
176
330
1F
100
AcDbEntity
  8
0
  6
SLD-Gestrichelt
 62
     7
370
     0
100
AcDbPolyline
 90
       13
 70
   128
 43
0.0
 10
202.074102873
 20
106.1312800412
 10
202.2939993087
 20
106.4566883397
 10
202.4580499176
 20
106.7133549041
 10
202.6323376242
 20
106.9967868644
 10
202.7891965601
 20
107.2597469575
 10
202.9235826824
 20
107.5059256655
 10
203.0656857435
 20
107.976278141
 10
203.0159456674
 20
108.5764148548
 10
202.8702607397
 20
108.9502635551
 10
202.7382122371
 20
109.1262451046
 10
202.5962935779
 20
109.2236823425
 10
202.3253737036
 20
109.2606926941
 10
202.074102873
 20
109.197974929
  0
LINE
  5
177
330
1F
100
AcDbEntity
  8
0
  6
SLD-Gestrichelt
 62
     7
370
     0
100
AcDbLine
 10
202.074102873
 20
109.197974929
 30
0.0
 11
202.074102873
 21
111.0641027008
 31
0.0
  0
LWPOLYLINE
  5
178
330
1F
100
AcDbEntity
  8
0
  6
SLD-Gestrichelt
 62
     7
370
     0
100
AcDbPolyline
 90
       18
 70
   128
 43
0.0
 10
202.074102873
 20
109.197974929
 10
201.5735169891
 20
109.5254655484
 10
201.1452203635
 20
109.653999647
 10
200.690971503
 20
109.634030694
 10
200.2164142225
 20
109.4426728342
 10
199.5842548106
 20
108.9132692687
 10
199.1036737356
 20
108.1924549908
 10
198.9142240975
 20
107.644001746
 10
198.8828534279
 20
107.1161314285
 10
198.9998443071
 20
106.7168853152
 10
199.2458792422
 20
106.4099708711
 10
199.7763810698
 20
106.15353283
 10
200.1030797157
 20
106.0959277348
 10
200.485553408
 20
106.0708779515
 10
200.8911853675
 20
106.0655193542
 10
201.3085482661
 20
106.0674728033
 10
201.8007708732
 20
106.0912422509
 10
202.074102873
 20
106.1312800412
  0
LINE
  5
179
330
1F
100
AcDbEntity
  8
0
  6
SLD-Gestrichelt
 62
     7
370
     0
100
AcDbLine
 10
192.7741019074
 20
106.0641028126
 30
0.0
 11
192.7741019074
 21
111.0512760607
 31
0.0
  0
LWPOLYLINE
  5
17A
330
1F
100
AcDbEntity
  8
0
  6
SLD-Gestrichelt
 62
     7
370
     0
100
AcDbPolyline
 90
       30
 70
   128
 43
0.0
 10
200.9741028789
 20
101.4799379882
 10
201.4255410079
 20
101.5220221271
 10
201.8558697793
 20
101.6463071247
 10
202.2449689004
 20
101.8469810625
 10
202.5746421907
 20
102.1146608655
 10
202.8294781241
 20
102.4368300241
 10
202.9975576345
 20
102.7984248613
 10
203.0710222218
 20
103.18253675
 10
203.0464390311
 20
103.5712051344
 10
202.9249535892
 20
103.9462571171
 10
202.7122488264
 20
104.2901549627
 10
202.4182712678
 20
104.5868184556
 10
202.0567653719
 20
104.8223762446
 10
201.6446365062
 20
104.9858138104
 10
201.201151872
 20
105.0694887199
 10
200.7470520232
 20
105.0694887199
 10
200.3035692517
 20
104.9858138104
 10
199.8914403859
 20
104.8223762446
 10
199.5299344901
 20
104.5868184556
 10
199.2359550688
 20
104.2901549627
 10
199.0232521687
 20
103.9462571171
 10
198.9017667267
 20
103.5712051344
 10
198.8771816734
 20
103.18253675
 10
198.9506481234
 20
102.7984248613
 10
199.1187276337
 20
102.4368300241
 10
199.3735617045
 20
102.1146608655
 10
199.7032368574
 20
101.8469810625
 10
200.0923359785
 20
101.6463071247
 10
200.52266475
 20
101.5220221271
 10
200.9741028789
 20
101.4799379882
  0
LINE
  5
17B
330
1F
100
AcDbEntity
  8
0
  6
SLD-Gestrichelt
 62
     7
370
     0
100
AcDbLine
 10
222.1696374956
 20
129.3667105165
 30
0.0
 11
221.7784745637
 21
121.9028595042
 31
0.0
  0
LINE
  5
17C
330
1F
100
AcDbEntity
  8
0
  6
SLD-Gestrichelt
 62
     7
370
     0
100
AcDbLine
 10
221.7784745637
 20
121.9028595042
 30
0.0
 11
221.7403387669
 21
121.8790297535
 31
0.0
  0
LINE
  5
17D
330
1F
100
AcDbEntity
  8
0
  6
SLD-Gestrichelt
 62
     7
370
     0
100
AcDbLine
 10
222.0331465844
 20
118.4856851724
 30
0.0
 11
231.1623765174
 21
124.1902594593
 31
0.0
  0
LINE
  5
17E
330
1F
100
AcDbEntity
  8
0
  6
SLD-Gestrichelt
 62
     7
370
     0
100
AcDbLine
 10
231.1623765174
 20
124.1902594593
 30
0.0
 11
231.1600221339
 21
124.1453538788
 31
0.0
  0
LINE
  5
17F
330
1F
100
AcDbEntity
  8
0
  6
SLD-Gestrichelt
 62
     7
370
     0
100
AcDbLine
 10
222.1315016989
 20
129.3428816971
 30
0.0
 11
222.1696374956
 21
129.3667105165
 31
0.0
  0
LINE
  5
180
330
1F
100
AcDbEntity
  8
0
  6
SLD-Gestrichelt
 62
     7
370
     0
100
AcDbLine
 10
221.704318935
 20
118.5943919373
 30
0.0
 11
230.9035582486
 21
124.3427151022
 31
0.0
  0
LINE
  5
181
330
1F
100
AcDbEntity
  8
0
  6
SLD-Gestrichelt
 62
     7
370
     0
100
AcDbLine
 10
231.1623765174
 20
124.1902594593
 30
0.0
 11
230.9035582486
 21
124.3427151022
 31
0.0
  0
LINE
  5
182
330
1F
100
AcDbEntity
  8
0
  6
SLD-Gestrichelt
 62
     7
370
     0
100
AcDbLine
 10
230.6115401927
 20
113.6796797764
 30
0.0
 11
228.5946195964
 21
114.3741614324
 31
0.0
  0
LINE
  5
183
330
1F
100
AcDbEntity
  8
0
  6
SLD-Gestrichelt
 62
     7
370
     0
100
AcDbLine
 10
221.7784745637
 20
121.9028595042
 30
0.0
 11
222.0372928325
 21
121.7504038614
 31
0.0
  0
LINE
  5
184
330
1F
100
AcDbEntity
  8
0
  6
SLD-Gestrichelt
 62
     7
370
     0
100
AcDbLine
 10
222.4310411159
 20
129.2636112449
 30
0.0
 11
222.0372928325
 21
121.7504038614
 31
0.0
  0
LINE
  5
185
330
1F
100
AcDbEntity
  8
0
  6
SLD-Gestrichelt
 62
     7
370
     0
100
AcDbLine
 10
222.4310411159
 20
129.2636112449
 30
0.0
 11
222.1696374956
 21
129.3667105165
 31
0.0
  0
LINE
  5
186
330
1F
100
AcDbEntity
  8
0
  6
SLD-Gestrichelt
 62
     7
370
     0
100
AcDbLine
 10
221.7233141903
 20
121.5542095852
 30
0.0
 11
222.0372928325
 21
121.7504038614
 31
0.0
  0
ELLIPSE
  5
187
330
1F
100
AcDbEntity
  8
0
  6
SLD-Gestrichelt
 62
     7
370
     0
100
AcDbEllipse
 10
227.0745422875
 20
108.5641027567
 30
0.0
 11
12.05434456514388
 21
16.95714202892233
 31
0.0
210
0.0
220
0.0
230
1.0
 40
0.1000778042
 41
1.641819099524553
 42
3.194967451430362
  0
LINE
  5
188
330
1F
100
AcDbEntity
  8
0
  6
SLD-Gestrichelt
 62
     7
370
     0
100
AcDbLine
 10
212.0728006605
 20
108.5641027567
 30
0.0
 11
212.0728006605
 21
91.5667505142
 31
0.0
  0
LWPOLYLINE
  5
189
330
1F
100
AcDbEntity
  8
0
  6
SLD-Gestrichelt
 62
     7
370
     0
100
AcDbPolyline
 90
        3
 70
   128
 43
0.0
 10
212.1204098705
 20
125.6549337086
 10
212.0735829715
 20
125.4112233547
 10
212.1727017704
 20
125.0871678022
  0
LINE
  5
18A
330
1F
100
AcDbEntity
  8
0
  6
SLD-Gestrichelt
 62
     7
370
     0
100
AcDbLine
 10
184.9241031352
 20
91.6641035256
 30
0.0
 11
189.4241029415
 21
91.6641035256
 31
0.0
  0
LINE
  5
18B
330
1F
100
AcDbEntity
  8
0
  6
SLD-Gestrichelt
 62
     7
370
     0
100
AcDbLine
 10
230.9035582486
 20
124.3427151022
 30
0.0
 11
230.71288299
 21
124.2235691425
 31
0.0
  0
LINE
  5
18C
330
1F
100
AcDbEntity
  8
0
  6
SLD-Gestrichelt
 62
     7
370
     0
100
AcDbLine
 10
222.4210647885
 20
129.0731986192
 30
0.0
 11
222.4310411159
 21
129.2636112449
 31
0.0
  0
LINE
  5
18D
330
1F
100
AcDbEntity
  8
0
  6
SLD-Gestrichelt
 62
     7
370
     0
100
AcDbLine
 10
160.67410242
 20
119.5641026971
 30
0.0
 11
160.67410242
 21
122.121627177
 31
0.0
  0
LINE
  5
18E
330
1F
100
AcDbEntity
  8
0
  6
SLD-Gestrichelt
 62
     7
370
     0
100
AcDbLine
 10
163.1741028298
 20
97.5641028163
 30
0.0
 11
163.1741028298
 21
94.9605262977
 31
0.0
  0
LINE
  5
18F
330
1F
100
AcDbEntity
  8
0
  6
SLD-Gestrichelt
 62
     7
370
     0
100
AcDbLine
 10
194.0141020361
 20
125.966706979
 30
0.0
 11
194.0141020361
 21
91.4512236741
 31
0.0
  0
ARC
  5
190
330
1F
100
AcDbEntity
  8
0
  6
SLD-Gestrichelt
 62
     7
370
     0
100
AcDbCircle
 10
193.3856860205
 20
125.9645588129
 30
0.0
 40
0.6284196872648142
100
AcDbArc
 50
307.2148147453
 51
0.1958581042
  0
LWPOLYLINE
  5
191
330
1F
100
AcDbEntity
  8
0
  6
SLD-Gestrichelt
 62
     7
370
     0
100
AcDbPolyline
 90
        3
 70
   128
 43
0.0
 10
193.9788794163
 20
91.6641035256
 10
194.0063459817
 20
91.5522628603
 10
194.0141020361
 20
91.4512236741
  0
LINE
  5
192
330
1F
100
AcDbEntity
  8
0
  6
SLD-Gestrichelt
 62
     7
370
     0
100
AcDbLine
 10
193.4141030554
 20
125.4641019878
 30
0.0
 11
193.765757421
 21
125.4641019878
 31
0.0
  0
LINE
  5
193
330
1F
100
AcDbEntity
  8
0
  6
SLD-Gestrichelt
 62
     7
370
     0
100
AcDbLine
 10
193.4141030554
 20
91.6641035256
 30
0.0
 11
193.9788794163
 21
91.6641035256
 31
0.0
  0
ARC
  5
194
330
1F
100
AcDbEntity
  8
0
  6
SLD-Gestrichelt
 62
     7
370
     0
100
AcDbCircle
 10
192.5618627461
 20
125.9642338562
 30
0.0
 40
0.6277646558949946
100
AcDbArc
 50
179.774278685
 51
232.8148777969
  0
LINE
  5
195
330
1F
100
AcDbEntity
  8
0
  6
SLD-Gestrichelt
 62
     7
370
     0
100
AcDbLine
 10
191.9341029618
 20
125.966706979
 30
0.0
 11
191.9341029618
 21
91.4512236741
 31
0.0
  0
LWPOLYLINE
  5
196
330
1F
100
AcDbEntity
  8
0
  6
SLD-Gestrichelt
 62
     7
370
     0
100
AcDbPolyline
 90
        3
 70
   128
 43
0.0
 10
191.9341029618
 20
91.4512236741
 10
191.9418590162
 20
91.5522628603
 10
191.9693246502
 20
91.6641035256
  0
LINE
  5
197
330
1F
100
AcDbEntity
  8
0
  6
SLD-Gestrichelt
 62
     7
370
     0
100
AcDbLine
 10
192.1824466456
 20
125.4641019878
 30
0.0
 11
192.5341028739
 21
125.4641019878
 31
0.0
  0
LINE
  5
198
330
1F
100
AcDbEntity
  8
0
  6
SLD-Gestrichelt
 62
     7
370
     0
100
AcDbLine
 10
191.9693246502
 20
91.6641035256
 30
0.0
 11
192.5341028739
 21
91.6641035256
 31
0.0
  0
LINE
  5
199
330
1F
100
AcDbEntity
  8
0
  6
SLD-Gestrichelt
 62
     7
370
     0
100
AcDbLine
 10
230.8220712486
 20
134.3227324215
 30
0.0
 11
230.2651776019
 21
133.4635836211
 31
0.0
  0
LINE
  5
19A
330
1F
100
AcDbEntity
  8
0
  6
SLD-Gestrichelt
 62
     7
370
     0
100
AcDbLine
 10
230.6167555991
 20
133.1382353929
 30
0.0
 11
231.2296366338
 21
134.0837587741
 31
0.0
  0
CIRCLE
  5
19B
330
1F
100
AcDbEntity
  8
0
  6
SLD-Gestrichelt
 62
     7
370
     0
100
AcDbCircle
 10
226.7138961655
 20
126.9131094211
 30
0.0
 40
2.400000000000006
  0
LINE
  5
19C
330
1F
100
AcDbEntity
  8
0
  6
SLD-Gestrichelt
 62
     7
370
     0
100
AcDbLine
 10
231.2296366338
 20
134.0837587741
 30
0.0
 11
230.8220712486
 21
134.3227324215
 31
0.0
  0
LINE
  5
19D
330
1F
100
AcDbEntity
  8
0
  6
SLD-Gestrichelt
 62
     7
370
     0
100
AcDbLine
 10
222.0372928325
 20
121.7504038614
 30
0.0
 11
219.9187016133
 21
120.4265604866
 31
0.0
  0
ARC
  5
19E
330
1F
100
AcDbEntity
  8
0
  6
SLD-Gestrichelt
 62
     7
370
     0
100
AcDbCircle
 10
220.5810993632
 20
119.3665006873
 30
0.0
 40
1.25000000000003
100
AcDbArc
 50
122.0
 51
302.0
  0
LINE
  5
19F
330
1F
100
AcDbEntity
  8
0
  6
SLD-Gestrichelt
 62
     7
370
     0
100
AcDbLine
 10
222.4210647885
 20
129.0731986192
 30
0.0
 11
222.0372928325
 21
121.7504038614
 31
0.0
  0
LINE
  5
1A0
330
1F
100
AcDbEntity
  8
0
  6
SLD-Gestrichelt
 62
     7
370
     0
100
AcDbLine
 10
221.2434967998
 20
118.306440967
 30
0.0
 11
230.71288299
 21
124.2235691425
 31
0.0
  0
LINE
  5
1A1
330
1F
100
AcDbEntity
  8
0
  6
SLD-Gestrichelt
 62
     7
370
     0
100
AcDbLine
 10
222.4210647885
 20
129.0731986192
 30
0.0
 11
230.8220712486
 21
134.3227324215
 31
0.0
  0
LINE
  5
1A2
330
1F
100
AcDbEntity
  8
0
  6
SLD-Gestrichelt
 62
     7
370
     0
100
AcDbLine
 10
231.2296366338
 20
134.0837587741
 30
0.0
 11
230.71288299
 21
124.2235691425
 31
0.0
  0
CIRCLE
  5
1A3
330
1F
100
AcDbEntity
  8
0
  6
SLD-Gestrichelt
 62
     7
370
     0
100
AcDbCircle
 10
226.7138961655
 20
126.9131094211
 30
0.0
 40
1.649999999999977
  0
LINE
  5
1A4
330
1F
100
AcDbEntity
  8
0
  6
SLD-Gestrichelt
 62
     7
370
     0
100
AcDbLine
 10
158.024102265
 20
119.5641026971
 30
0.0
 11
158.024102265
 21
121.436843383
 31
0.0
  0
LINE
  5
1A5
330
1F
100
AcDbEntity
  8
0
  6
SLD-Gestrichelt
 62
     7
370
     0
100
AcDbLine
 10
157.0741029475
 20
119.5641026971
 30
0.0
 11
157.0741029475
 21
120.4885753942
 31
0.0
  0
LINE
  5
1A6
330
1F
100
AcDbEntity
  8
0
  6
SLD-Gestrichelt
 62
     7
370
     0
100
AcDbLine
 10
157.0741029475
 20
118.4291091886
 30
0.0
 11
157.0741029475
 21
98.6990963248
 31
0.0
  0
LINE
  5
1A7
330
1F
100
AcDbEntity
  8
0
  6
SLD-Gestrichelt
 62
     7
370
     0
100
AcDbLine
 10
158.024102265
 20
97.5641028163
 30
0.0
 11
158.024102265
 21
95.7490165857
 31
0.0
  0
LINE
  5
1A8
330
1F
100
AcDbEntity
  8
0
  6
SLD-Gestrichelt
 62
     7
370
     0
100
AcDbLine
 10
157.0741029475
 20
97.5641028163
 30
0.0
 11
157.0741029475
 21
96.698279227
 31
0.0
  0
LINE
  5
1A9
330
1F
100
AcDbEntity
  8
0
  6
SLD-Gestrichelt
 62
     7
370
     0
100
AcDbLine
 10
192.5341028739
 20
125.4641019878
 30
0.0
 11
193.4141030554
 21
125.4641019878
 31
0.0
  0
LINE
  5
1AA
330
1F
100
AcDbEntity
  8
0
  6
SLD-Gestrichelt
 62
     7
370
     0
100
AcDbLine
 10
192.5341028739
 20
91.6641035256
 30
0.0
 11
193.4141030554
 21
91.6641035256
 31
0.0
  0
LWPOLYLINE
  5
1AB
330
1F
100
AcDbEntity
  8
0
  6
SLD-Gestrichelt
 62
     7
370
     0
100
AcDbPolyline
 90
        3
 70
   128
 43
0.0
 10
190.9389428813
 20
128.0512788472
 10
191.0050267372
 20
127.9337869165
 10
191.9341029618
 20
126.2777798948
  0
LINE
  5
1AC
330
1F
100
AcDbEntity
  8
0
  6
SLD-Gestrichelt
 62
     7
370
     0
100
AcDbLine
 10
196.9241032395
 20
127.4349798587
 30
0.0
 11
196.9241032395
 21
89.9600700614
 31
0.0
  0
ARC
  5
1AD
330
1F
100
AcDbEntity
  8
0
  6
SLD-Gestrichelt
 62
     7
370
     0
100
AcDbCircle
 10
196.3148135827
 20
127.442019331
 30
0.0
 40
0.6093303209641194
100
AcDbArc
 50
359.3380584991
 51
89.126532193
  0
ARC
  5
1AE
330
1F
100
AcDbEntity
  8
0
  6
SLD-Gestrichelt
 62
     7
370
     0
100
AcDbCircle
 10
196.3112315712
 20
89.9480717716
 30
0.0
 40
0.6129891033281589
100
AcDbArc
 50
271.2031178686
 51
1.1215456616
  0
LWPOLYLINE
  5
1AF
330
1F
100
AcDbEntity
  8
0
  6
SLD-Gestrichelt
 62
     7
370
     0
100
AcDbPolyline
 90
        3
 70
   128
 43
0.0
 10
194.0141020361
 20
126.2777798948
 10
194.9431782607
 20
127.9337869165
 10
195.0092630479
 20
128.0512788472
  0
LINE
  5
1B0
330
1F
100
AcDbEntity
  8
0
  6
SLD-Gestrichelt
 62
     7
370
     0
100
AcDbLine
 10
195.0092630479
 20
128.0512788472
 30
0.0
 11
196.3241023961
 21
128.0512788472
 31
0.0
  0
LINE
  5
1B1
330
1F
100
AcDbEntity
  8
0
  6
SLD-Gestrichelt
 62
     7
370
     0
100
AcDbLine
 10
191.9341029618
 20
126.2777798948
 30
0.0
 11
191.9341029618
 21
91.1349800554
 31
0.0
  0
LINE
  5
1B2
330
1F
100
AcDbEntity
  8
0
  6
SLD-Gestrichelt
 62
     7
370
     0
100
AcDbLine
 10
195.0092630479
 20
128.0512788472
 30
0.0
 11
195.0092630479
 21
89.3352178064
 31
0.0
  0
LINE
  5
1B3
330
1F
100
AcDbEntity
  8
0
  6
SLD-Gestrichelt
 62
     7
370
     0
100
AcDbLine
 10
194.0141020361
 20
126.2777798948
 30
0.0
 11
194.0141020361
 21
91.1349800554
 31
0.0
  0
LWPOLYLINE
  5
1B4
330
1F
100
AcDbEntity
  8
0
  6
SLD-Gestrichelt
 62
     7
370
     0
100
AcDbPolyline
 90
        3
 70
   128
 43
0.0
 10
213.0953257922
 20
124.0013602328
 10
212.5152384881
 20
124.542055386
 10
212.1727017704
 20
125.0871678022
  0
LINE
  5
1B5
330
1F
100
AcDbEntity
  8
0
  6
SLD-Gestrichelt
 62
     7
370
     0
100
AcDbLine
 10
213.431242669
 20
123.7533378554
 30
0.0
 11
213.0953257922
 21
124.0013602328
 31
0.0
  0
LWPOLYLINE
  5
1B6
330
1F
100
AcDbEntity
  8
0
  6
SLD-Gestrichelt
 62
     7
370
     0
100
AcDbPolyline
 90
        3
 70
   128
 43
0.0
 10
190.9389428813
 20
89.3352178064
 10
191.8782543409
 20
91.0335720656
 10
191.9341029618
 20
91.1349800554
  0
LWPOLYLINE
  5
1B7
330
1F
100
AcDbEntity
  8
0
  6
SLD-Gestrichelt
 62
     7
370
     0
100
AcDbPolyline
 90
        3
 70
   128
 43
0.0
 10
194.0141020361
 20
91.1349800554
 10
194.0699515883
 20
91.0335720656
 10
195.0092630479
 20
89.3352178064
  0
LINE
  5
1B8
330
1F
100
AcDbEntity
  8
0
  6
SLD-Gestrichelt
 62
     7
370
     0
100
AcDbLine
 10
195.0092630479
 20
89.3352178064
 30
0.0
 11
196.3241023961
 21
89.3352178064
 31
0.0
  0
LINE
  5
1B9
330
1F
100
AcDbEntity
  8
0
  6
SLD-Gestrichelt
 62
     7
370
     0
100
AcDbLine
 10
157.0741029475
 20
96.7456304607
 30
0.0
 11
157.0741029475
 21
97.0165894506
 31
0.0
  0
LINE
  5
1BA
330
1F
100
AcDbEntity
  8
0
  6
SLD-Gestrichelt
 62
     7
370
     0
100
AcDbLine
 10
157.0741029475
 20
120.4380166856
 30
0.0
 11
157.0741029475
 21
120.3423344669
 31
0.0
  0
LWPOLYLINE
  5
1BB
330
1F
100
AcDbEntity
  8
0
  6
SLD-Gestrichelt
 62
     7
370
     0
100
AcDbPolyline
 90
       13
 70
   128
 43
0.0
 10
157.8340733442
 20
120.9521831152
 10
157.6693503205
 20
120.5546154779
 10
157.5868649427
 20
120.3956331265
 10
157.4789004419
 20
120.2183800888
 10
157.4256641809
 20
120.1434663636
 10
157.3611775432
 20
120.0647053448
 10
157.3223786447
 20
120.0245439214
 10
157.2830116395
 20
119.9904705537
 10
157.2514956835
 20
119.9690994945
 10
157.2119293753
 20
119.951974335
 10
157.1619508806
 20
119.9536693421
 10
157.0906227473
 20
120.0848330882
 10
157.0741029475
 20
120.3423344669
  0
LWPOLYLINE
  5
1BC
330
1F
100
AcDbEntity
  8
0
  6
SLD-Gestrichelt
 62
     7
370
     0
100
AcDbPolyline
 90
       11
 70
   128
 43
0.0
 10
157.0741029475
 20
97.0165894506
 10
157.0990866069
 20
97.268569949
 10
157.1576332692
 20
97.347975443
 10
157.2094334308
 20
97.3485882533
 10
157.2431845609
 20
97.3343101469
 10
157.2869995627
 20
97.3046801192
 10
157.330486739
 20
97.2659752843
 10
157.3782151583
 20
97.2150850249
 10
157.4467474613
 20
97.1293083531
 10
157.5859559718
 20
96.9157318723
 10
157.8340733442
 20
96.3971174461
  0
LINE
  5
1BD
330
1F
100
AcDbEntity
  8
0
  6
SLD-Gestrichelt
 62
     7
370
     0
100
AcDbLine
 10
157.0741029475
 20
120.3423344669
 30
0.0
 11
157.0741029475
 21
97.0165894506
 31
0.0
  0
LWPOLYLINE
  5
1BE
330
1F
100
AcDbEntity
  8
0
  6
SLD-Gestrichelt
 62
     7
370
     0
100
AcDbPolyline
 90
       32
 70
   128
 43
0.0
 10
200.9741028789
 20
101.0132848424
 10
201.4773486201
 20
101.0571506013
 10
201.9599916432
 20
101.1869513568
 10
202.4022730086
 20
101.3973739137
 10
202.7860840801
 20
101.6798030724
 10
203.0957134459
 20
102.0226764631
 10
203.3184820805
 20
102.4119562608
 10
203.4452741984
 20
102.8317056735
 10
203.4708930198
 20
103.2647399371
 10
203.3942954633
 20
103.6933308606
 10
203.2186144981
 20
104.0999318612
 10
202.9510417972
 20
104.4678960134
 10
202.6025334392
 20
104.7821596404
 10
202.187357286
 20
105.0298562878
 10
201.7225099746
 20
105.2008454827
 10
201.2270240132
 20
105.2881267061
 10
200.7211817447
 20
105.2881267061
 10
200.2256957833
 20
105.2008454827
 10
199.7608484719
 20
105.0298562878
 10
199.3456723187
 20
104.7821596404
 10
198.9971639607
 20
104.4678960134
 10
198.7295912597
 20
104.0999318612
 10
198.5539102945
 20
103.6933308606
 10
198.4773108754
 20
103.2647399371
 10
198.5029315594
 20
102.8317056735
 10
198.6297218148
 20
102.4119562608
 10
198.852492312
 20
102.0226764631
 10
199.1621198151
 20
101.6798030724
 10
199.5459327493
 20
101.3973739137
 10
199.988212252
 20
101.1869513568
 10
200.4708571378
 20
101.0571506013
 10
200.9741028789
 20
101.0132848424
  0
LWPOLYLINE
  5
1BF
330
1F
100
AcDbEntity
  8
0
  6
SLD-Gestrichelt
 62
     7
370
     0
100
AcDbPolyline
 90
        3
 70
   128
 43
0.0
 10
213.431242669
 20
123.7533378554
 10
213.2787702624
 20
122.1824201894
 10
213.1286038104
 20
120.564102861
  0
CIRCLE
  5
1C0
330
1F
100
AcDbEntity
  8
0
  6
SLD-Gestrichelt
 62
     7
370
     0
100
AcDbCircle
 10
226.7138933938
 20
126.9131098446
 30
0.0
 40
1.65000030694111
  0
ELLIPSE
  5
1C1
330
1F
100
AcDbEntity
  8
0
  6
SLD-Gestrichelt
 62
     7
370
     0
100
AcDbEllipse
 10
271.5540222422
 20
113.5641027567
 30
0.0
 11
44.23730811207605
 21
-24.44088137389454
 31
0.0
210
0.0
220
0.0
230
1.0
 40
0.1188519716
 41
3.579875834779226
 42
3.601080829006509
  0
ARC
  5
1C2
330
1F
100
AcDbEntity
  8
0
  6
SLD-Gestrichelt
 62
     7
370
     0
100
AcDbCircle
 10
213.0801668839
 20
134.1661302113
 30
0.0
 40
10.41870907818451
100
AcDbArc
 50
271.93104244
 51
303.9128614093
  0
ELLIPSE
  5
1C3
330
1F
100
AcDbEntity
  8
0
  6
SLD-Gestrichelt
 62
     7
370
     0
100
AcDbEllipse
 10
195.445755063
 20
113.5641027567
 30
0.0
 11
40.28575363916845
 21
24.90250970901531
 31
0.0
210
0.0
220
0.0
230
1.0
 40
0.0547507893
 41
5.299365705322223
 42
5.721354422838942
  0
ELLIPSE
  5
1C4
330
1F
100
AcDbEntity
  8
0
  6
SLD-Gestrichelt
 62
     7
370
     0
100
AcDbEllipse
 10
231.5030405536
 20
113.5641027567
 30
0.0
 11
1.33022022293406
 21
24.99946796325215
 31
0.0
210
0.0
220
0.0
230
1.0
 40
0.1226111485
 41
0.6779018534033234
 42
1.293526257040442
  0
CIRCLE
  5
1C5
330
1F
100
AcDbEntity
  8
0
  6
SLD-Gestrichelt
 62
     7
370
     0
100
AcDbCircle
 10
183.9741026703
 20
108.5641027567
 30
0.0
 40
5.0
  0
LINE
  5
1C6
330
1F
100
AcDbEntity
  8
0
  6
SLD-Gestrichelt
 62
     7
370
     0
100
AcDbLine
 10
213.1286038104
 20
120.564102861
 30
0.0
 11
228.9190216008
 21
120.564102861
 31
0.0
  0
LWPOLYLINE
  5
1C7
330
1F
100
AcDbEntity
  8
0
  6
SLD-Gestrichelt
 62
     7
370
     0
100
AcDbPolyline
 90
        3
 70
   128
 43
0.0
 10
213.1286038104
 20
120.564102861
 10
212.526928449
 20
116.0200850246
 10
212.1727017704
 20
111.4378322055
  0
LINE
  5
1C8
330
1F
100
AcDbEntity
  8
0
  6
SLD-Gestrichelt
 62
     7
370
     0
100
AcDbLine
 10
228.5946195964
 20
114.3741614324
 30
0.0
 11
224.5263753477
 21
108.5641027567
 31
0.0
  0
LINE
  5
1C9
330
1F
100
AcDbEntity
  8
0
  6
SLD-Gestrichelt
 62
     7
370
     0
100
AcDbLine
 10
228.9190216008
 20
120.564102861
 30
0.0
 11
228.5946195964
 21
114.3741614324
 31
0.0
  0
LWPOLYLINE
  5
1CA
330
1F
100
AcDbEntity
  8
0
  6
SLD-Gestrichelt
 62
     7
370
     0
100
AcDbPolyline
 90
        3
 70
   128
 43
0.0
 10
212.0728006605
 20
108.5641027567
 10
212.1714053694
 20
111.4089816947
 10
212.1727017704
 20
111.4378322055
  0
LINE
  5
1CB
330
1F
100
AcDbEntity
  8
0
  6
SLD-Gestrichelt
 62
     7
370
     0
100
AcDbLine
 10
176.9741026703
 20
92.3569013503
 30
0.0
 11
177.0682634426
 21
93.0268910852
 31
0.0
  0
LINE
  5
1CC
330
1F
100
AcDbEntity
  8
0
  6
SLD-Gestrichelt
 62
     7
370
     0
100
AcDbLine
 10
177.0682634426
 20
124.1013144282
 30
0.0
 11
176.9741026703
 21
124.7713041631
 31
0.0
  0
ARC
  5
1CD
330
1F
100
AcDbEntity
  8
0
  6
SLD-Gestrichelt
 62
     7
370
     0
100
AcDbCircle
 10
176.4740959176
 20
93.1103956032
 30
0.0
 40
0.6000067526677242
100
AcDbArc
 50
352.0
 51
0.0
  0
ARC
  5
1CE
330
1F
100
AcDbEntity
  8
0
  6
SLD-Gestrichelt
 62
     7
370
     0
100
AcDbCircle
 10
176.4740959176
 20
93.1103956032
 30
0.0
 40
0.6000067526677282
100
AcDbArc
 50
0.0
 51
33.5571153394
  0
ARC
  5
1CF
330
1F
100
AcDbEntity
  8
0
  6
SLD-Gestrichelt
 62
     7
370
     0
100
AcDbCircle
 10
176.4740959176
 20
124.0178099102
 30
0.0
 40
0.6000067526677062
100
AcDbArc
 50
348.75
 51
8.0
  0
LWPOLYLINE
  5
1D0
330
1F
100
AcDbEntity
  8
0
  6
SLD-Gestrichelt
 62
     7
370
     0
100
AcDbPolyline
 90
        3
 70
   128
 43
0.0
 10
177.0625737092
 20
123.9007541117
 10
177.0284298775
 20
123.7881972593
 10
176.9741026703
 20
123.6861457256
  0
LINE
  5
1D1
330
1F
100
AcDbEntity
  8
0
  6
SLD-Gestrichelt
 62
     7
370
     0
100
AcDbLine
 10
177.0741026678
 20
93.1103953299
 30
0.0
 11
177.0741026678
 21
124.0178101835
 31
0.0
  0
LINE
  5
1D2
330
1F
100
AcDbEntity
  8
0
  6
SLD-Gestrichelt
 62
     7
370
     0
100
AcDbLine
 10
177.0741026678
 20
93.1103953299
 30
0.0
 11
177.0741026678
 21
124.0178101835
 31
0.0
  0
LINE
  5
1D3
330
1F
100
AcDbEntity
  8
0
  6
SLD-Gestrichelt
 62
     7
370
     0
100
AcDbLine
 10
166.506730767
 20
95.8141029951
 30
0.0
 11
168.7048774231
 21
95.8141029951
 31
0.0
  0
LINE
  5
1D4
330
1F
100
AcDbEntity
  8
0
  6
SLD-Gestrichelt
 62
     7
370
     0
100
AcDbLine
 10
168.7048774231
 20
121.3141025183
 30
0.0
 11
166.506730767
 21
121.3141025183
 31
0.0
  0
ARC
  5
1D5
330
1F
100
AcDbEntity
  8
0
  6
SLD-Gestrichelt
 62
     7
370
     0
100
AcDbCircle
 10
166.5067306145
 20
96.2141027567
 30
0.0
 40
0.4000000000000069
100
AcDbArc
 50
210.0
 51
270.0
  0
ARC
  5
1D6
330
1F
100
AcDbEntity
  8
0
  6
SLD-Gestrichelt
 62
     7
370
     0
100
AcDbCircle
 10
166.5067306145
 20
120.9141027567
 30
0.0
 40
0.4000000000000057
100
AcDbArc
 50
90.0
 51
150.0
  0
ARC
  5
1D7
330
1F
100
AcDbEntity
  8
0
  6
SLD-Gestrichelt
 62
     7
370
     0
100
AcDbCircle
 10
172.7982793982
 20
100.8141027567
 30
0.0
 40
5.000000000000002
100
AcDbArc
 50
275.4061456483
 51
326.6329870308
  0
ARC
  5
1D8
330
1F
100
AcDbEntity
  8
0
  6
SLD-Gestrichelt
 62
     7
370
     0
100
AcDbCircle
 10
172.7982793982
 20
116.3141027567
 30
0.0
 40
5.000000000000018
100
AcDbArc
 50
33.3670129692
 51
84.5889997514
  0
LINE
  5
1D9
330
1F
100
AcDbEntity
  8
0
  6
SLD-Gestrichelt
 62
     7
370
     0
100
AcDbLine
 10
166.1603206787
 20
121.114102858
 30
0.0
 11
164.9767521787
 21
119.0641026151
 31
0.0
  0
LINE
  5
1DA
330
1F
100
AcDbEntity
  8
0
  6
SLD-Gestrichelt
 62
     7
370
     0
100
AcDbLine
 10
164.9767521787
 20
98.0641028983
 30
0.0
 11
166.1603206787
 21
96.0141026554
 31
0.0
  0
LINE
  5
1DB
330
1F
100
AcDbEntity
  8
0
  6
SLD-Gestrichelt
 62
     7
370
     0
100
AcDbLine
 10
205.8456910793
 20
120.1266438839
 30
0.0
 11
197.2406374309
 21
114.2028730501
 31
0.0
  0
LINE
  5
1DC
330
1F
100
AcDbEntity
  8
0
  6
SLD-Gestrichelt
 62
     7
370
     0
100
AcDbLine
 10
202.7801906708
 20
112.9173498739
 30
0.0
 11
205.6326044742
 21
114.8809690167
 31
0.0
  0
LINE
  5
1DD
330
1F
100
AcDbEntity
  8
0
  6
SLD-Gestrichelt
 62
     7
370
     0
100
AcDbLine
 10
199.6221857164
 20
110.7433605612
 30
0.0
 11
201.4809118602
 21
112.0229186163
 31
0.0
  0
LINE
  5
1DE
330
1F
100
AcDbEntity
  8
0
  6
SLD-Gestrichelt
 62
     7
370
     0
100
AcDbLine
 10
197.1729433182
 20
113.9203116436
 30
0.0
 11
197.4236870203
 21
111.7793935956
 31
0.0
  0
LINE
  5
1DF
330
1F
100
AcDbEntity
  8
0
  6
SLD-Gestrichelt
 62
     7
370
     0
100
AcDbLine
 10
197.4236870203
 20
111.7793935956
 30
0.0
 11
199.33407549
 21
110.7809843634
 31
0.0
  0
ARC
  5
1E0
330
1F
100
AcDbEntity
  8
0
  6
SLD-Gestrichelt
 62
     7
370
     0
100
AcDbCircle
 10
183.9241026703
 20
98.6891027567
 30
0.0
 40
1.0
100
AcDbArc
 50
218.6821874535
 51
0.0
  0
ARC
  5
1E1
330
1F
100
AcDbEntity
  8
0
  6
SLD-Gestrichelt
 62
     7
370
     0
100
AcDbCircle
 10
183.9241026703
 20
118.4391027567
 30
0.0
 40
1.0
100
AcDbArc
 50
0.0
 51
141.3178125465
  0
LINE
  5
1E2
330
1F
100
AcDbEntity
  8
0
  6
SLD-Gestrichelt
 62
     7
370
     0
100
AcDbLine
 10
163.1741028298
 20
98.0641028983
 30
0.0
 11
164.9767521787
 21
98.0641028983
 31
0.0
  0
LINE
  5
1E3
330
1F
100
AcDbEntity
  8
0
  6
SLD-Gestrichelt
 62
     7
370
     0
100
AcDbLine
 10
164.9767521787
 20
119.0641026151
 30
0.0
 11
160.67410242
 21
119.0641026151
 31
0.0
  0
LINE
  5
1E4
330
1F
100
AcDbEntity
  8
0
  6
SLD-Gestrichelt
 62
     7
370
     0
100
AcDbLine
 10
176.9741026703
 20
98.0641028983
 30
0.0
 11
183.1434777025
 21
98.0641028983
 31
0.0
  0
LINE
  5
1E5
330
1F
100
AcDbEntity
  8
0
  6
SLD-Gestrichelt
 62
     7
370
     0
100
AcDbLine
 10
183.1434777025
 20
119.0641026151
 30
0.0
 11
176.9741026703
 21
119.0641026151
 31
0.0
  0
LINE
  5
1E6
330
1F
100
AcDbEntity
  8
0
  6
SLD-Gestrichelt
 62
     7
370
     0
100
AcDbLine
 10
198.874102721
 20
113.3445275155
 30
0.0
 11
198.874102721
 21
109.8436197172
 31
0.0
  0
LINE
  5
1E7
330
1F
100
AcDbEntity
  8
0
  6
SLD-Gestrichelt
 62
     7
370
     0
100
AcDbLine
 10
203.0741030369
 20
108.9920529303
 30
0.0
 11
203.0741030369
 21
113.4508873475
 31
0.0
  0
LINE
  5
1E8
330
1F
100
AcDbEntity
  8
0
  6
SLD-Gestrichelt
 62
     7
370
     0
100
AcDbLine
 10
190.2741024289
 20
102.3141026636
 30
0.0
 11
192.7741019074
 21
102.3141026636
 31
0.0
  0
LINE
  5
1E9
330
1F
100
AcDbEntity
  8
0
  6
SLD-Gestrichelt
 62
     7
370
     0
100
AcDbLine
 10
192.7741019074
 20
114.8141028498
 30
0.0
 11
190.2741024289
 21
114.8141028498
 31
0.0
  0
LINE
  5
1EA
330
1F
100
AcDbEntity
  8
0
  6
SLD-Gestrichelt
 62
     7
370
     0
100
AcDbLine
 10
184.9241031352
 20
102.5641027045
 30
0.0
 11
185.4241022859
 21
103.0641027865
 31
0.0
  0
LINE
  5
1EB
330
1F
100
AcDbEntity
  8
0
  6
SLD-Gestrichelt
 62
     7
370
     0
100
AcDbLine
 10
185.4241022859
 20
114.0641027269
 30
0.0
 11
184.9241031352
 21
114.5641028089
 31
0.0
  0
LINE
  5
1EC
330
1F
100
AcDbEntity
  8
0
  6
SLD-Gestrichelt
 62
     7
370
     0
100
AcDbLine
 10
185.4241022859
 20
103.0641027865
 30
0.0
 11
190.2741024289
 21
103.0641027865
 31
0.0
  0
LINE
  5
1ED
330
1F
100
AcDbEntity
  8
0
  6
SLD-Gestrichelt
 62
     7
370
     0
100
AcDbLine
 10
190.2741024289
 20
114.0641027269
 30
0.0
 11
185.4241022859
 21
114.0641027269
 31
0.0
  0
LINE
  5
1EE
330
1F
100
AcDbEntity
  8
0
  6
SLD-Gestrichelt
 62
     7
370
     0
100
AcDbLine
 10
184.9241031352
 20
128.5641023097
 30
0.0
 11
184.9241031352
 21
125.4641019878
 31
0.0
  0
LINE
  5
1EF
330
1F
100
AcDbEntity
  8
0
  6
SLD-Gestrichelt
 62
     7
370
     0
100
AcDbLine
 10
173.7412820123
 20
93.5227980045
 30
0.0
 11
173.2733534202
 21
94.0186350745
 31
0.0
  0
LINE
  5
1F0
330
1F
100
AcDbEntity
  8
0
  6
SLD-Gestrichelt
 62
     7
370
     0
100
AcDbLine
 10
168.6754485611
 20
94.298488195
 30
0.0
 11
168.157975005
 21
93.8026632321
 31
0.0
  0
LINE
  5
1F1
330
1F
100
AcDbEntity
  8
0
  6
SLD-Gestrichelt
 62
     7
370
     0
100
AcDbLine
 10
168.1573407743
 20
123.3255925727
 30
0.0
 11
168.6750266719
 21
122.8297052112
 31
0.0
  0
LINE
  5
1F2
330
1F
100
AcDbEntity
  8
0
  6
SLD-Gestrichelt
 62
     7
370
     0
100
AcDbLine
 10
173.2726675011
 20
123.1093525094
 30
0.0
 11
173.7405714132
 21
123.6052463901
 31
0.0
  0
LINE
  5
1F3
330
1F
100
AcDbEntity
  8
0
  6
SLD-Gestrichelt
 62
     7
370
     0
100
AcDbLine
 10
202.074102873
 20
106.0641028126
 30
0.0
 11
203.5762535427
 21
108.5641027567
 31
0.0
  0
LINE
  5
1F4
330
1F
100
AcDbEntity
  8
0
  6
SLD-Gestrichelt
 62
     7
370
     0
100
AcDbLine
 10
203.5762535427
 20
108.5641027567
 30
0.0
 11
202.074102873
 21
111.0641027008
 31
0.0
  0
LINE
  5
1F5
330
1F
100
AcDbEntity
  8
0
  6
SLD-Gestrichelt
 62
     7
370
     0
100
AcDbLine
 10
192.7741019074
 20
106.0641028126
 30
0.0
 11
202.074102873
 21
106.0641028126
 31
0.0
  0
LINE
  5
1F6
330
1F
100
AcDbEntity
  8
0
  6
SLD-Gestrichelt
 62
     7
370
     0
100
AcDbLine
 10
202.074102873
 20
111.0641027008
 30
0.0
 11
192.7741019074
 21
111.0641027008
 31
0.0
  0
LINE
  5
1F7
330
1F
100
AcDbEntity
  8
0
  6
SLD-Gestrichelt
 62
     7
370
     0
100
AcDbLine
 10
173.2741026692
 20
121.2909572897
 30
0.0
 11
173.2741026692
 21
123.1091420305
 31
0.0
  0
LINE
  5
1F8
330
1F
100
AcDbEntity
  8
0
  6
SLD-Gestrichelt
 62
     7
370
     0
100
AcDbLine
 10
168.6741028
 20
122.8286034566
 30
0.0
 11
168.6741028
 21
121.3086002645
 31
0.0
  0
LINE
  5
1F9
330
1F
100
AcDbEntity
  8
0
  6
SLD-Gestrichelt
 62
     7
370
     0
100
AcDbLine
 10
173.2741026692
 20
94.018879081
 30
0.0
 11
173.2741026692
 21
95.8372482237
 31
0.0
  0
LINE
  5
1FA
330
1F
100
AcDbEntity
  8
0
  6
SLD-Gestrichelt
 62
     7
370
     0
100
AcDbLine
 10
168.6741028
 20
95.8196052489
 30
0.0
 11
168.6741028
 21
94.3054963973
 31
0.0
  0
LINE
  5
1FB
330
1F
100
AcDbEntity
  8
0
  6
SLD-Gestrichelt
 62
     7
370
     0
100
AcDbLine
 10
198.874102721
 20
107.2845857962
 30
0.0
 11
198.874102721
 21
103.2799894129
 31
0.0
  0
LINE
  5
1FC
330
1F
100
AcDbEntity
  8
0
  6
SLD-Gestrichelt
 62
     7
370
     0
100
AcDbLine
 10
203.0741030369
 20
103.2799894129
 30
0.0
 11
203.0741030369
 21
108.1423464603
 31
0.0
  0
ARC
  5
1FD
330
1F
100
AcDbEntity
  8
0
  6
SLD-Gestrichelt
 62
     7
370
     0
100
AcDbCircle
 10
159.7741026703
 20
122.3441027567
 30
0.0
 40
0.9000000000000057
100
AcDbArc
 50
270.0
 51
311.1792132368
  0
ARC
  5
1FE
330
1F
100
AcDbEntity
  8
0
  6
SLD-Gestrichelt
 62
     7
370
     0
100
AcDbCircle
 10
162.2741026703
 20
94.8431027567
 30
0.0
 40
0.9000000000000057
100
AcDbArc
 50
29.8499024808
 51
90.0
  0
LINE
  5
1FF
330
1F
100
AcDbEntity
  8
0
  6
SLD-Gestrichelt
 62
     7
370
     0
100
AcDbLine
 10
159.7741020862
 20
121.4441030425
 30
0.0
 11
158.024102265
 21
121.4441030425
 31
0.0
  0
LINE
  5
200
330
1F
100
AcDbEntity
  8
0
  6
SLD-Gestrichelt
 62
     7
370
     0
100
AcDbLine
 10
158.024102265
 20
121.4441030425
 30
0.0
 11
157.0741029475
 21
120.4941027937
 31
0.0
  0
LINE
  5
201
330
1F
100
AcDbEntity
  8
0
  6
SLD-Gestrichelt
 62
     7
370
     0
100
AcDbLine
 10
158.024102265
 20
95.7431026873
 30
0.0
 11
162.274102496
 21
95.7431026873
 31
0.0
  0
LINE
  5
202
330
1F
100
AcDbEntity
  8
0
  6
SLD-Gestrichelt
 62
     7
370
     0
100
AcDbLine
 10
157.0741029475
 20
96.6931029362
 30
0.0
 11
158.024102265
 21
95.7431026873
 31
0.0
  0
LINE
  5
203
330
1F
100
AcDbEntity
  8
0
  6
SLD-Gestrichelt
 62
     7
370
     0
100
AcDbLine
 10
198.4741034005
 20
103.1562031385
 30
0.0
 11
198.4741034005
 21
100.0683779967
 31
0.0
  0
LINE
  5
204
330
1F
100
AcDbEntity
  8
0
  6
SLD-Gestrichelt
 62
     7
370
     0
100
AcDbLine
 10
203.4741023574
 20
100.0661968392
 30
0.0
 11
203.4741023574
 21
103.1562031385
 31
0.0
  0
LINE
  5
205
330
1F
100
AcDbEntity
  8
VERMASSUNG
100
AcDbLine
 10
231.9741026703
 20
135.5641027567
 30
0.0
 11
231.9741026703
 21
114.2528261728
 31
0.0
  0
DIMENSION
  5
206
330
1F
100
AcDbEntity
  8
VERMASSUNG
100
AcDbDimension
  2
_D
 10
157.0741026703
 20
144.4152168476
 30
0.0
 11
194.5241026703
 21
144.4152168476
 31
0.0
 70
   160
  1
<>
 71
     2
 42
-1.0
  3
SLDDIMSTYLE0
100
AcDbAlignedDimension
 13
231.9741026703
 23
135.5641027567
 33
0.0
 14
157.0741026703
 24
120.4941027567
 34
0.0
100
AcDbRotatedDimension
  0
DIMENSION
  5
211
330
1F
100
AcDbEntity
  8
VERMASSUNG
100
AcDbDimension
  2
_D_1
 10
231.9741026703
 20
138.4152168476
 30
0.0
 11
204.4741026703
 21
138.4152168476
 31
0.0
 70
   160
  1
<>
 71
     2
 42
-1.0
  3
SLDDIMSTYLE0
100
AcDbAlignedDimension
 13
176.9741026703
 23
128.2641027567
 33
0.0
 14
231.9741026703
 24
135.5641027567
 34
0.0
100
AcDbRotatedDimension
  0
DIMENSION
  5
21B
330
1F
100
AcDbEntity
  8
VERMASSUNG
100
AcDbDimension
  2
_D_2
 10
240.2953285265
 20
108.5641027567
 30
0.0
 11
240.2953285265
 21
122.0641027567
 31
0.0
 70
   160
  1
<>
 71
     2
 42
-1.0
  3
SLDDIMSTYLE0
100
AcDbAlignedDimension
 13
231.9741026703
 23
135.5641027567
 33
0.0
 14
229.3184494951
 24
108.5641027567
 34
0.0
 50
90.0
100
AcDbRotatedDimension
  0
DIMENSION
  5
225
330
1F
100
AcDbEntity
  8
VERMASSUNG
100
AcDbDimension
  2
_D_3
 10
231.1623765035
 20
124.1902602338
 30
0.0
 11
226.2765861242
 21
115.1444413723
 31
0.0
 70
   162
  1
<>
 71
     1
 42
-1.0
  3
SLDDIMSTYLE1
100
AcDb2LineAngularDimension
 13
231.9741026703
 23
108.5641027567
 33
0.0
 14
231.9741026703
 24
135.5641027567
 34
0.0
 15
230.6115403329
 25
113.6796799699
 35
0.0
 16
231.3147748949
 26
114.5002062608
 36
0.0
  0
DIMENSION
  5
230
330
1F
100
AcDbEntity
  8
VERMASSUNG
100
AcDbDimension
  2
_D_4
 10
152.5922908498
 20
88.5641027567
 30
0.0
 11
152.5922908498
 21
108.5641027567
 31
0.0
 70
   160
  1
HSK %%c<>
 71
     2
 42
-1.0
  3
SLDDIMSTYLE0
100
AcDbAlignedDimension
 13
177.2741026703
 23
128.5641027567
 33
0.0
 14
177.2741026703
 24
88.5641027567
 34
0.0
 50
90.0
100
AcDbRotatedDimension
  0
LINE
  5
23C
330
1F
100
AcDbEntity
  8
VERMASSUNG
  6
SLD-Punktstrich
370
     0
100
AcDbLine
 10
155.8275562736
 20
108.5641027567
 30
0.0
 11
229.3184494951
 21
108.5641027567
 31
0.0
  0
ARC
  5
23D
330
1F
100
AcDbEntity
  8
0
  6
SLD-Durchgehend
 62
     7
370
    15
100
AcDbCircle
 10
94.5575752219
 20
176.0947537862
 30
0.0
 40
41.46020163838166
100
AcDbArc
 50
257.7539148837
 51
263.4176952091
  0
LINE
  5
23E
330
1F
100
AcDbEntity
  8
0
  6
SLD-Durchgehend
 62
     7
370
    15
100
AcDbLine
 10
85.7634145467
 20
118.4692827192
 30
0.0
 11
86.1016322232
 21
118.5283369523
 31
0.0
  0
LINE
  5
23F
330
1F
100
AcDbEntity
  8
0
  6
SLD-Durchgehend
 62
     7
370
    15
100
AcDbLine
 10
89.7716321705
 20
134.8105051694
 30
0.0
 11
89.7716321705
 21
134.9147648689
 31
0.0
  0
LINE
  5
240
330
1F
100
AcDbEntity
  8
0
  6
SLD-Durchgehend
 62
     7
370
    15
100
AcDbLine
 10
85.8016322089
 20
135.1518479315
 30
0.0
 11
85.8016322089
 21
135.5661207017
 31
0.0
  0
LINE
  5
241
330
1F
100
AcDbEntity
  8
0
  6
SLD-Durchgehend
 62
     7
370
    15
100
AcDbLine
 10
89.7716321705
 20
124.62908003
 30
0.0
 11
89.7716321705
 21
134.8105051694
 31
0.0
  0
LINE
  5
242
330
1F
100
AcDbEntity
  8
0
  6
SLD-Durchgehend
 62
     7
370
    15
100
AcDbLine
 10
85.8016322089
 20
124.5049514947
 30
0.0
 11
85.8016322089
 21
135.1518479315
 31
0.0
  0
LINE
  5
243
330
1F
100
AcDbEntity
  8
0
  6
SLD-Durchgehend
 62
     7
370
    15
100
AcDbLine
 10
89.7716321705
 20
124.62908003
 30
0.0
 11
89.7716321705
 21
124.5501020131
 31
0.0
  0
LINE
  5
244
330
1F
100
AcDbEntity
  8
0
  6
SLD-Durchgehend
 62
     7
370
    15
100
AcDbLine
 10
85.8016322089
 20
124.1890478087
 30
0.0
 11
85.8016322089
 21
124.5049514947
 31
0.0
  0
LINE
  5
245
330
1F
100
AcDbEntity
  8
0
  6
SLD-Durchgehend
 62
     7
370
    15
100
AcDbLine
 10
89.7716321705
 20
124.4480998394
 30
0.0
 11
89.7716321705
 21
124.5501020131
 31
0.0
  0
LINE
  5
246
330
1F
100
AcDbEntity
  8
0
  6
SLD-Durchgehend
 62
     7
370
    15
100
AcDbLine
 10
85.8016322089
 20
118.5393097949
 30
0.0
 11
85.8016322089
 21
124.1890478087
 31
0.0
  0
LINE
  5
247
330
1F
100
AcDbEntity
  8
0
  6
SLD-Durchgehend
 62
     7
370
    15
100
AcDbLine
 10
85.8016322089
 20
118.5393097949
 30
0.0
 11
85.8016322089
 21
118.4787710336
 31
0.0
  0
LINE
  5
248
330
1F
100
AcDbEntity
  8
0
  6
SLD-Durchgehend
 62
     7
370
    15
100
AcDbLine
 10
102.8016331328
 20
120.564102861
 30
0.0
 11
102.8016331328
 21
114.3741614324
 31
0.0
  0
LINE
  5
249
330
1F
100
AcDbEntity
  8
0
  6
SLD-Durchgehend
 62
     7
370
    15
100
AcDbLine
 10
86.1016322232
 20
113.6796797764
 30
0.0
 11
102.8016331328
 21
114.3741614324
 31
0.0
  0
LINE
  5
24A
330
1F
100
AcDbEntity
  8
0
  6
SLD-Durchgehend
 62
     7
370
    15
100
AcDbLine
 10
86.1016322232
 20
124.1902594593
 30
0.0
 11
86.1016322232
 21
113.6796797764
 31
0.0
  0
LINE
  5
24B
330
1F
100
AcDbEntity
  8
0
  6
SLD-Durchgehend
 62
     7
370
    15
100
AcDbLine
 10
88.2716321574
 20
124.3427151022
 30
0.0
 11
89.7716321705
 21
124.2235691425
 31
0.0
  0
LINE
  5
24C
330
1F
100
AcDbEntity
  8
0
  6
SLD-Durchgehend
 62
     7
370
    15
100
AcDbLine
 10
89.7716321705
 20
124.62908003
 30
0.0
 11
89.7716321705
 21
124.6109583554
 31
0.0
  0
LINE
  5
24D
330
1F
100
AcDbEntity
  8
0
  6
SLD-Durchgehend
 62
     7
370
    15
100
AcDbLine
 10
89.7716321705
 20
124.4480998394
 30
0.0
 11
89.7716321705
 21
124.2235691425
 31
0.0
  0
LINE
  5
24E
330
1F
100
AcDbEntity
  8
0
  6
SLD-Durchgehend
 62
     7
370
    15
100
AcDbLine
 10
94.3532661257
 20
133.1382353929
 30
0.0
 11
89.7716321705
 21
134.0837587741
 31
0.0
  0
ARC
  5
24F
330
1F
100
AcDbEntity
  8
0
  6
SLD-Durchgehend
 62
     7
370
    15
100
AcDbCircle
 10
78.8016322089
 20
113.5641027567
 30
0.0
 40
25.00000000000001
100
AcDbArc
 50
16.2602047083
 51
51.532884802
  0
LINE
  5
250
330
1F
100
AcDbEntity
  8
0
  6
SLD-Durchgehend
 62
     7
370
    15
100
AcDbLine
 10
89.7716321705
 20
134.3227324215
 30
0.0
 11
93.9347316233
 21
133.4635836211
 31
0.0
  0
ARC
  5
251
330
1F
100
AcDbEntity
  8
0
  6
SLD-Durchgehend
 62
     7
370
    15
100
AcDbCircle
 10
78.8016322089
 20
113.5641027567
 30
0.0
 40
25.00000000000003
100
AcDbArc
 50
51.532884802
 51
52.7478414758
  0
LINE
  5
252
330
1F
100
AcDbEntity
  8
0
  6
SLD-Durchgehend
 62
     7
370
    15
100
AcDbLine
 10
102.8016331328
 20
114.3741614324
 30
0.0
 11
102.8016331328
 21
108.5641027567
 31
0.0
  0
ARC
  5
253
330
1F
100
AcDbEntity
  8
0
  6
SLD-Durchgehend
 62
     7
370
    15
100
AcDbCircle
 10
85.8016322089
 20
108.5641027567
 30
0.0
 40
17.00000000000004
100
AcDbArc
 50
271.0111544781
 51
0.0
  0
LINE
  5
254
330
1F
100
AcDbEntity
  8
0
  6
SLD-Durchgehend
 62
     7
370
    15
100
AcDbLine
 10
86.1016322232
 20
113.6796797764
 30
0.0
 11
86.1016322232
 21
91.5667505142
 31
0.0
  0
ARC
  5
255
330
1F
100
AcDbEntity
  8
0
  6
SLD-Durchgehend
 62
     7
370
    15
100
AcDbCircle
 10
85.7490532808
 20
109.264052738
 30
0.0
 40
15.7987199491781
100
AcDbArc
 50
89.8093164362
 51
96.801215322
  0
ARC
  5
256
330
1F
100
AcDbEntity
  8
0
  6
SLD-Durchgehend
 62
     7
370
    15
100
AcDbCircle
 10
85.8016439579
 20
108.5642013673
 30
0.0
 40
16.50009887708294
100
AcDbArc
 50
263.3053288306
 51
271.0417518517
  0
ELLIPSE
  5
257
330
1F
100
AcDbEntity
  8
0
  6
SLD-Durchgehend
 62
     7
370
    15
100
AcDbEllipse
 10
77.7606700847
 20
117.5038061282
 30
0.0
 11
1.721753363541098
 21
2.368360820935991
 31
0.0
210
0.0
220
0.0
230
1.0
 40
0.7016899908
 41
0.0
 42
6.283185307179586
  0
ARC
  5
258
330
1F
100
AcDbEntity
  8
0
  6
SLD-Durchgehend
 62
     7
370
    15
100
AcDbCircle
 10
85.8016322089
 20
108.5641027567
 30
0.0
 40
16.50000000000001
100
AcDbArc
 50
96.6946705528
 51
263.3053294472
  0
LWPOLYLINE
  5
259
330
1F
100
AcDbEntity
  8
0
  6
SLD-Durchgehend
 62
     7
370
    15
100
AcDbPolyline
 90
        3
 70
   128
 43
0.0
 10
76.5852565599
 20
115.553925014
 10
76.7744277326
 20
115.9667854336
 10
76.9488691075
 20
116.1590770026
  0
LWPOLYLINE
  5
25A
330
1F
100
AcDbEntity
  8
0
  6
SLD-Durchgehend
 62
     7
370
    15
100
AcDbPolyline
 90
        8
 70
   128
 43
0.0
 10
76.9488691075
 20
116.1590770026
 10
77.1035012511
 20
116.0084202093
 10
77.2226239277
 20
115.9138821204
 10
77.3374746276
 20
115.8477908139
 10
77.4904732315
 20
115.7887575355
 10
77.9129611982
 20
115.6721256812
 10
78.2591775713
 20
115.5401209508
 10
78.4830540141
 20
115.3908969973
  0
ARC
  5
25B
330
1F
100
AcDbEntity
  8
0
  6
SLD-Durchgehend
 62
     7
370
    15
100
AcDbCircle
 10
76.6986391796
 20
114.7917667171
 30
0.0
 40
0.7705458376508255
100
AcDbArc
 50
10.9774341792
 51
98.4615602335
  0
LWPOLYLINE
  5
25C
330
1F
100
AcDbEntity
  8
0
  6
SLD-Durchgehend
 62
     7
370
    15
100
AcDbPolyline
 90
        9
 70
   128
 43
0.0
 10
76.9488691075
 20
116.1590770026
 10
76.9185675962
 20
116.1086468165
 10
76.8835452108
 20
116.0503590618
 10
76.8439705206
 20
115.9844968607
 10
76.8000372408
 20
115.9113787253
 10
76.7519567815
 20
115.8313590241
 10
76.6999619735
 20
115.7448261184
 10
76.6443052051
 20
115.6521981721
 10
76.5852565599
 20
115.553925014
  0
LINE
  5
25D
330
1F
100
AcDbEntity
  8
0
  6
SLD-Durchgehend
 62
     7
370
    15
100
AcDbLine
 10
81.3016324026
 20
125.4641019878
 30
0.0
 11
81.3016324026
 21
125.4756373492
 31
0.0
  0
LINE
  5
25E
330
1F
100
AcDbEntity
  8
0
  6
SLD-Durchgehend
 62
     7
370
    15
100
AcDbLine
 10
85.8016322089
 20
125.4641019878
 30
0.0
 11
81.3016324026
 21
125.4641019878
 31
0.0
  0
LINE
  5
25F
330
1F
100
AcDbEntity
  8
0
  6
SLD-Durchgehend
 62
     7
370
    15
100
AcDbLine
 10
90.3447587697
 20
91.6641035256
 30
0.0
 11
87.2316766253
 21
91.6641035256
 31
0.0
  0
LINE
  5
260
330
1F
100
AcDbEntity
  8
0
  6
SLD-Durchgehend
 62
     7
370
    15
100
AcDbLine
 10
86.1016322232
 20
91.6641035256
 30
0.0
 11
81.2585056482
 21
91.6641035256
 31
0.0
  0
LINE
  5
261
330
1F
100
AcDbEntity
  8
0
  6
SLD-Durchgehend
 62
     7
370
    15
100
AcDbLine
 10
72.9242293818
 20
120.4141031158
 30
0.0
 11
73.9516318498
 21
120.4141031158
 31
0.0
  0
LINE
  5
262
330
1F
100
AcDbEntity
  8
0
  6
SLD-Durchgehend
 62
     7
370
    15
100
AcDbLine
 10
73.9516318498
 20
121.4415055838
 30
0.0
 11
73.9516318498
 21
120.4141031158
 31
0.0
  0
LINE
  5
263
330
1F
100
AcDbEntity
  8
0
  6
SLD-Durchgehend
 62
     7
370
    15
100
AcDbLine
 10
81.3016324026
 20
127.4349798587
 30
0.0
 11
81.3016324026
 21
128.0512788472
 31
0.0
  0
ARC
  5
264
330
1F
100
AcDbEntity
  8
0
  6
SLD-Durchgehend
 62
     7
370
    15
100
AcDbCircle
 10
85.8016322089
 20
108.5641027567
 30
0.0
 40
20.0
100
AcDbArc
 50
103.0028781629
 51
126.3346172154
  0
LINE
  5
265
330
1F
100
AcDbEntity
  8
0
  6
SLD-Durchgehend
 62
     7
370
    15
100
AcDbLine
 10
73.9516318498
 20
124.6755120483
 30
0.0
 11
73.9516318498
 21
123.924360345
 31
0.0
  0
ARC
  5
266
330
1F
100
AcDbEntity
  8
0
  6
SLD-Durchgehend
 62
     7
370
    15
100
AcDbCircle
 10
85.8016322089
 20
108.5641027567
 30
0.0
 40
20.00000000000001
100
AcDbArc
 50
143.6653827846
 51
254.0379858372
  0
LINE
  5
267
330
1F
100
AcDbEntity
  8
0
  6
SLD-Durchgehend
 62
     7
370
    15
100
AcDbLine
 10
80.3016322387
 20
89.9600700614
 30
0.0
 11
80.3016322387
 21
89.3352178064
 31
0.0
  0
LINE
  5
268
330
1F
100
AcDbEntity
  8
0
  6
SLD-Durchgehend
 62
     7
370
    15
100
AcDbLine
 10
69.6902229173
 20
120.4141031158
 30
0.0
 11
70.4413746206
 21
120.4141031158
 31
0.0
  0
ARC
  5
269
330
1F
100
AcDbEntity
  8
0
  6
SLD-Durchgehend
 62
     7
370
    15
100
AcDbCircle
 10
85.8016322089
 20
108.5641027567
 30
0.0
 40
20.00000000000001
100
AcDbArc
 50
285.9620141628
 51
31.7883306171
  0
LINE
  5
26A
330
1F
100
AcDbEntity
  8
0
  6
SLD-Durchgehend
 62
     7
370
    15
100
AcDbLine
 10
91.3016321791
 20
89.3352178064
 30
0.0
 11
91.3016321791
 21
89.9600700614
 31
0.0
  0
LINE
  5
26B
330
1F
100
AcDbEntity
  8
0
  6
SLD-Durchgehend
 62
     7
370
    15
100
AcDbLine
 10
91.3016321791
 20
89.9600700614
 30
0.0
 11
91.3016321791
 21
91.6641035256
 31
0.0
  0
LINE
  5
26C
330
1F
100
AcDbEntity
  8
0
  6
SLD-Durchgehend
 62
     7
370
    15
100
AcDbLine
 10
91.3016321791
 20
91.6641035256
 30
0.0
 11
90.3447587697
 21
91.6641035256
 31
0.0
  0
LINE
  5
26D
330
1F
100
AcDbEntity
  8
0
  6
SLD-Durchgehend
 62
     7
370
    15
100
AcDbLine
 10
80.3016322387
 20
91.6641035256
 30
0.0
 11
80.3016322387
 21
89.9600700614
 31
0.0
  0
LINE
  5
26E
330
1F
100
AcDbEntity
  8
0
  6
SLD-Durchgehend
 62
     7
370
    15
100
AcDbLine
 10
81.2585056482
 20
91.6641035256
 30
0.0
 11
80.3016322387
 21
91.6641035256
 31
0.0
  0
LINE
  5
26F
330
1F
100
AcDbEntity
  8
0
  6
SLD-Durchgehend
 62
     7
370
    15
100
AcDbLine
 10
70.4413746206
 20
120.4141031158
 30
0.0
 11
72.9242293818
 21
120.4141031158
 31
0.0
  0
LINE
  5
270
330
1F
100
AcDbEntity
  8
0
  6
SLD-Durchgehend
 62
     7
370
    15
100
AcDbLine
 10
81.3016324026
 20
125.4756373492
 30
0.0
 11
81.3016324026
 21
127.4349798587
 31
0.0
  0
LINE
  5
271
330
1F
100
AcDbEntity
  8
0
  6
SLD-Durchgehend
 62
     7
370
    15
100
AcDbLine
 10
73.9516318498
 20
123.924360345
 30
0.0
 11
73.9516318498
 21
121.4415055838
 31
0.0
  0
ARC
  5
272
330
1F
100
AcDbEntity
  8
0
  6
SLD-Durchgehend
 62
     7
370
    15
100
AcDbCircle
 10
85.797826643
 20
108.5679083227
 30
0.0
 40
19.9946800139585
100
AcDbArc
 50
126.3322940084
 51
143.6677059916
  0
ARC
  5
273
330
1F
100
AcDbEntity
  8
0
  6
SLD-Durchgehend
 62
     7
370
    15
100
AcDbCircle
 10
85.8026182836
 20
108.5581695002
 30
0.0
 40
19.99402474853137
100
AcDbArc
 50
272.8640120614
 51
285.9639726697
  0
ARC
  5
274
330
1F
100
AcDbEntity
  8
0
  6
SLD-Durchgehend
 62
     7
370
    15
100
AcDbCircle
 10
85.8037192907
 20
108.5767048399
 30
0.0
 40
20.0126906033349
100
AcDbArc
 50
254.0421632182
 51
267.1298520507
  0
ARC
  5
275
330
1F
100
AcDbEntity
  8
0
  6
SLD-Durchgehend
 62
     7
370
    15
100
AcDbCircle
 10
85.7523958587
 20
108.8624416524
 30
0.0
 40
19.69824277004412
100
AcDbArc
 50
89.856787327
 51
103.0585851344
  0
ARC
  5
276
330
1F
100
AcDbEntity
  8
0
  6
SLD-Durchgehend
 62
     7
370
    15
100
AcDbCircle
 10
85.8016322089
 20
108.5641027567
 30
0.0
 40
20.0
100
AcDbArc
 50
267.1340160174
 51
272.8659839826
  0
CIRCLE
  5
277
330
1F
100
AcDbEntity
  8
VERMASSUNG
  6
SLD-Punktstrich
100
AcDbCircle
 10
85.8016322089
 20
110.5696190725
 30
0.0
 40
25.00000000000001
  0
POINT
  5
278
330
1F
100
AcDbEntity
  8
VERMASSUNG
100
AcDbPoint
 10
85.8016322089
 20
135.5696190725
 30
0.0
  0
DIMENSION
  5
279
330
1F
100
AcDbEntity
  8
VERMASSUNG
100
AcDbDimension
  2
_D_5
 10
57.1371435343
 20
135.5696190725
 30
0.0
 11
57.1371435343
 21
110.5696190725
 31
0.0
 70
   160
  1
%%c<>
 71
     2
 42
-1.0
  3
SLDDIMSTYLE0
100
AcDbAlignedDimension
 13
85.8016322089
 23
85.5696190725
 33
0.0
 14
85.8016322089
 24
135.5696190725
 34
0.0
 50
90.0
100
AcDbRotatedDimension
  0
INSERT
  5
28F
330
1F
100
AcDbEntity
  8
VERMASSUNG
100
AcDbBlockReference
  2
SW_CENTERMARKSYMBOL_0
 10
85.8016322089
 20
108.5641027567
 30
0.0
  0
OLE2FRAME
  5
290
330
1F
100
AcDbEntity
  8
0
100
AcDbOle2Frame
 70
     2
  3
Paintbrush-Bild
 10
13.8511154363
 20
38.264191557
 30
0.0
 11
51.6290888628
 21
31.9806341108
 31
0.0
 71
     2
 72
     0
 73
     1
 90
    12928
310
80552BED0767C5B32B40DDAF6807D121434000000000000000006FFBDDFB85D0
310
4940DDAF6807D121434000000000000000006FFBDDFB85D04940416F4BD60AFB
310
3F4000000000000000002BED0767C5B32B40416F4BD60AFB3F40000000000000
310
0000000000000100000000010000010000000100000000000100000000320000
310
D0CF11E0A1B11AE1000000000000000000000000000000003E000300FEFF0900
310
0600000000000000000000000100000001000000000000000010000002000000
310
01000000FEFFFFFF0000000000000000FFFFFFFFFFFFFFFFFFFFFFFFFFFFFFFF
310
FFFFFFFFFFFFFFFFFFFFFFFFFFFFFFFFFFFFFFFFFFFFFFFFFFFFFFFFFFFFFFFF
310
FFFFFFFFFFFFFFFFFFFFFFFFFFFFFFFFFFFFFFFFFFFFFFFFFFFFFFFFFFFFFFFF
310
FFFFFFFFFFFFFFFFFFFFFFFFFFFFFFFFFFFFFFFFFFFFFFFFFFFFFFFFFFFFFFFF
310
FFFFFFFFFFFFFFFFFFFFFFFFFFFFFFFFFFFFFFFFFFFFFFFFFFFFFFFFFFFFFFFF
310
FFFFFFFFFFFFFFFFFFFFFFFFFFFFFFFFFFFFFFFFFFFFFFFFFFFFFFFFFFFFFFFF
310
FFFFFFFFFFFFFFFFFFFFFFFFFFFFFFFFFFFFFFFFFFFFFFFFFFFFFFFFFFFFFFFF
310
FFFFFFFFFFFFFFFFFFFFFFFFFFFFFFFFFFFFFFFFFFFFFFFFFFFFFFFFFFFFFFFF
310
FFFFFFFFFFFFFFFFFFFFFFFFFFFFFFFFFFFFFFFFFFFFFFFFFFFFFFFFFFFFFFFF
310
FFFFFFFFFFFFFFFFFFFFFFFFFFFFFFFFFFFFFFFFFFFFFFFFFFFFFFFFFFFFFFFF
310
FFFFFFFFFFFFFFFFFFFFFFFFFFFFFFFFFFFFFFFFFFFFFFFFFFFFFFFFFFFFFFFF
310
FFFFFFFFFFFFFFFFFFFFFFFFFFFFFFFFFFFFFFFFFFFFFFFFFFFFFFFFFFFFFFFF
310
FFFFFFFFFFFFFFFFFFFFFFFFFFFFFFFFFFFFFFFFFFFFFFFFFFFFFFFFFFFFFFFF
310
FFFFFFFFFFFFFFFFFFFFFFFFFFFFFFFFFFFFFFFFFFFFFFFFFFFFFFFFFFFFFFFF
310
FDFFFFFFFEFFFFFFFEFFFFFFFEFFFFFF05000000060000000700000008000000
310
090000000A0000000B0000000C0000000D0000000E0000000F00000010000000
310
11000000120000001300000014000000150000001600000017000000FEFFFFFF
310
FFFFFFFFFFFFFFFFFFFFFFFFFFFFFFFFFFFFFFFFFFFFFFFFFFFFFFFFFFFFFFFF
310
FFFFFFFFFFFFFFFFFFFFFFFFFFFFFFFFFFFFFFFFFFFFFFFFFFFFFFFFFFFFFFFF
310
FFFFFFFFFFFFFFFFFFFFFFFFFFFFFFFFFFFFFFFFFFFFFFFFFFFFFFFFFFFFFFFF
310
FFFFFFFFFFFFFFFFFFFFFFFFFFFFFFFFFFFFFFFFFFFFFFFFFFFFFFFFFFFFFFFF
310
FFFFFFFFFFFFFFFFFFFFFFFFFFFFFFFFFFFFFFFFFFFFFFFFFFFFFFFFFFFFFFFF
310
FFFFFFFFFFFFFFFFFFFFFFFFFFFFFFFFFFFFFFFFFFFFFFFFFFFFFFFFFFFFFFFF
310
FFFFFFFFFFFFFFFFFFFFFFFFFFFFFFFFFFFFFFFFFFFFFFFFFFFFFFFFFFFFFFFF
310
FFFFFFFFFFFFFFFFFFFFFFFFFFFFFFFFFFFFFFFFFFFFFFFFFFFFFFFFFFFFFFFF
310
FFFFFFFFFFFFFFFFFFFFFFFFFFFFFFFFFFFFFFFFFFFFFFFFFFFFFFFFFFFFFFFF
310
FFFFFFFFFFFFFFFFFFFFFFFFFFFFFFFFFFFFFFFFFFFFFFFFFFFFFFFFFFFFFFFF
310
FFFFFFFFFFFFFFFFFFFFFFFFFFFFFFFFFFFFFFFFFFFFFFFFFFFFFFFFFFFFFFFF
310
FFFFFFFFFFFFFFFFFFFFFFFFFFFFFFFFFFFFFFFFFFFFFFFFFFFFFFFFFFFFFFFF
310
FFFFFFFFFFFFFFFFFFFFFFFFFFFFFFFFFFFFFFFFFFFFFFFFFFFFFFFFFFFFFFFF
310
52006F006F007400200045006E00740072007900000000000000000000000000
310
0000000000000000000000000000000000000000000000000000000000000000
310
16000500FFFFFFFFFFFFFFFF020000000A00030000000000C000000000000046
310
00000000000000000000000060C3D9FBC249D00103000000C000000000000000
310
01004F006C006500000000000000000000000000000000000000000000000000
310
0000000000000000000000000000000000000000000000000000000000000000
310
0A000200FFFFFFFFFFFFFFFFFFFFFFFF00000000000000000000000000000000
310
0000000000000000000000000000000000000000000000001400000000000000
310
010043006F006D0070004F0062006A0000000000000000000000000000000000
310
0000000000000000000000000000000000000000000000000000000000000000
310
120002010100000003000000FFFFFFFF00000000000000000000000000000000
310
0000000000000000000000000000000000000000010000004D00000000000000
310
01004F006C006500310030004E00610074006900760065000000000000000000
310
0000000000000000000000000000000000000000000000000000000000000000
310
1A000200FFFFFFFFFFFFFFFFFFFFFFFF00000000000000000000000000000000
310
0000000000000000000000000000000000000000040000002426000000000000
310
FEFFFFFF02000000FEFFFFFFFFFFFFFFFFFFFFFFFFFFFFFFFFFFFFFFFFFFFFFF
310
FFFFFFFFFFFFFFFFFFFFFFFFFFFFFFFFFFFFFFFFFFFFFFFFFFFFFFFFFFFFFFFF
310
FFFFFFFFFFFFFFFFFFFFFFFFFFFFFFFFFFFFFFFFFFFFFFFFFFFFFFFFFFFFFFFF
310
FFFFFFFFFFFFFFFFFFFFFFFFFFFFFFFFFFFFFFFFFFFFFFFFFFFFFFFFFFFFFFFF
310
FFFFFFFFFFFFFFFFFFFFFFFFFFFFFFFFFFFFFFFFFFFFFFFFFFFFFFFFFFFFFFFF
310
FFFFFFFFFFFFFFFFFFFFFFFFFFFFFFFFFFFFFFFFFFFFFFFFFFFFFFFFFFFFFFFF
310
FFFFFFFFFFFFFFFFFFFFFFFFFFFFFFFFFFFFFFFFFFFFFFFFFFFFFFFFFFFFFFFF
310
FFFFFFFFFFFFFFFFFFFFFFFFFFFFFFFFFFFFFFFFFFFFFFFFFFFFFFFFFFFFFFFF
310
FFFFFFFFFFFFFFFFFFFFFFFFFFFFFFFFFFFFFFFFFFFFFFFFFFFFFFFFFFFFFFFF
310
FFFFFFFFFFFFFFFFFFFFFFFFFFFFFFFFFFFFFFFFFFFFFFFFFFFFFFFFFFFFFFFF
310
FFFFFFFFFFFFFFFFFFFFFFFFFFFFFFFFFFFFFFFFFFFFFFFFFFFFFFFFFFFFFFFF
310
FFFFFFFFFFFFFFFFFFFFFFFFFFFFFFFFFFFFFFFFFFFFFFFFFFFFFFFFFFFFFFFF
310
FFFFFFFFFFFFFFFFFFFFFFFFFFFFFFFFFFFFFFFFFFFFFFFFFFFFFFFFFFFFFFFF
310
FFFFFFFFFFFFFFFFFFFFFFFFFFFFFFFFFFFFFFFFFFFFFFFFFFFFFFFFFFFFFFFF
310
FFFFFFFFFFFFFFFFFFFFFFFFFFFFFFFFFFFFFFFFFFFFFFFFFFFFFFFFFFFFFFFF
310
FFFFFFFFFFFFFFFFFFFFFFFFFFFFFFFFFFFFFFFFFFFFFFFFFFFFFFFFFFFFFFFF
310
0100000200000000000000000000000000000000000000000000000000000000
310
0000000000000000000000000000000000000000000000000000000000000000
310
0100FEFF030A0000FFFFFFFF0A00030000000000C00000000000004607000000
310
5042727573680007000000504272757368000700000050427275736800F439B2
310
7100000000000000000000000000000000000000000000000000000000000000
310
0000000000000000000000000000000000000000000000000000000000000000
310
0000000000000000000000000000000000000000000000000000000000000000
310
0000000000000000000000000000000000000000000000000000000000000000
310
0000000000000000000000000000000000000000000000000000000000000000
310
0000000000000000000000000000000000000000000000000000000000000000
310
0000000000000000000000000000000000000000000000000000000000000000
310
0000000000000000000000000000000000000000000000000000000000000000
310
0000000000000000000000000000000000000000000000000000000000000000
310
0000000000000000000000000000000000000000000000000000000000000000
310
0000000000000000000000000000000000000000000000000000000000000000
310
0000000000000000000000000000000000000000000000000000000000000000
310
20260000424D0E260000000000003E00000028000000B40200006E0000000100
310
01000000000000000000130B0000130B00000200000002000000000000FFFFFF
310
FFFFFFFFFFFFFFFFFFFFFFFFFFFFFFFFFFFFFFFFFFFFFFFFFFFFFFFFFFFFFFFF
310
FFFFFFFFFFFFFFFFFFFFFFFFFFFFFFFFFFFFFFFFFFFFFFFFFFFFFFFFFFFFFFFF
310
FFFFFFFFFFFFFFFFFFFFFFFFFFFFFFFFFFFFFFFFFFFFFFFFF000FFFFFFFFFFFF
310
FFFFFFFFFFFFFFFFFFFFFFFFFFFFFFFFFFFFFFFFFFFFFFFFFFFFFFFFFFFFFFFF
310
FFFFFFFFFFFFFFFFFFFFFFFFFFFFFFFFFFFFFFFFFFFFFFFFFFFFFFFFFFFFFFFF
310
FFFFFFFFFFFFFFFFFFFFFFFFFFFFFFFFF000FFFFFFFFFFFFFFFFFFFFFFFFFFFF
310
FFFFFFFFFFFFFFFFFFFFFFFFFFFFFFFFFFFFFFFFFFFFFFFFFFFFFFFFFFFFFFFF
310
FFFFFFFFFFFFFFFFFFFFFFFFFFFFFFFFFFFFFFFFFFFFFFFFFFFFFFFFFFFFFFFF
310
FFFFFFFFFFFFFFFFF000FFFFFFFFFFFFFFFFFFFFFFFFFFFFFFFFFFFFFFFFFFFF
310
FFFFFFFFFFFFFFFFFFFFFFFFFFFFFFFFFFFFFFFFFFFFFFFFFFFFFFFFFFFFFFFF
310
FFFFFFFFFFFFFFFFFFFFFFFFFFFFFFFFFFFFFFFFFFFFFFFFFFFFFFFFFFFFFFFF
310
F000FFFFFFFFFFFFFFFFFFFFFFFFFFFFFFFFFFFFFFFFFFFFFFFFFFFFFFFFFFFF
310
FFFFFFFFFFFFFFFFFFFFFFFFFFFFFFFFFFFFFFFFFFFFFFFFFFFFFFFFFFFFFFFF
310
FFFFFFFFFFFFFFFFFFFFFFFFFFFFFFFFFFFFFFFFFFFFFFFFF000FFFFFFFFFFFF
310
FFFFFFFFFFFFFFFFFFFFFFFFFFFFFFFFFFFFFFFFFFFFFFFFFFFFFFFFFFFFFFFF
310
FFFFFFFFFFFFFFFFFFFFFFFFFFFFFFFFFFFFFFFFFFFFFFFFFFFFFFFFFFFFFFFF
310
FFFFFFFFFFFFFFFFFFFFFFFFFFFFFFFFF000FFFFFFFFFFFFFFFFFFFFFFFFFFFF
310
FFFFFFFFFFFFFFFFFFFFFFFFFFFFFFFFFFFFFFFFFFFFFFFFFFFFFFFFFFFFFFFF
310
FFFFFFFFFFFFFFFFFFFFFFFFFFFFFFFFFFFFFFFFFFFFFFFFFFFFFFFFFFFFFFFF
310
FFFFFFFFFFFFFFFFF000FFFFFFFFFFFFFFFFFFFFFFFFFFFFFFFFFFFFFFFFFFFF
310
FFFFFFFFFFFFFFFFFFFFFFFFFFFFFFFFFFFFFFFFFFFFFFFFFFFFFFFFFFFFFFFF
310
FFFFFFFFFFFFFFFFFFFFFFFFFFFFFFFFFFFFFFFFFFFFFFFFFFFFFFFFFFFFFFFF
310
F000FFFFFFFFFFFFFFFFFFFFFFFFFFFFFFFFFFFFFFFFFFFFFFFFFFFFFFFFFFFF
310
FFFFFFFFFFFFFFFFFFFFFFFFFFFFFFFFFFFFFFFFFFFFFFFFFFFFFFFFFFFFFFFF
310
FFFFFFFFFFFFFFFFFFFFFFFFFFFFFFFFFFFFFFFFFFFFFFFFF000FFFFFFFFFFFF
310
FFFFFFFFFFFFFFFFFFFFFFFFFFFFFFFFFFFFFFFFFFFFFFFFFFFFFFFFFFFFFFFF
310
FFFFFFFFFFFFFFFFFFFFFFFFFFFFFFFFFFFFFFFFFFFFFFFFFFFFFFFFFFFFFFFF
310
FFFFFFFFFFFFFFFFFFFFFFFFFFFFFFFFF000FFFFFFFFFFFFFFFFFFFFFFFFFFFF
310
FFFFFFFFFFFFFFFFFFFFFFFFFFFFFFFFFFFFFFFFFFFFFFFFFFFFFFFFFFFFFFFF
310
FFFFFFFFFFFFFFFFFFFFFFFFFFFFFFFFFFFFFFFFFFFFFFFFFFFFFFFFFFFFFFFF
310
FFFFFFFFFFFFFFFFF000FFFFFFFFFFFFFFFFFFFFFFFFFFFFFFFFFFFFFFFFFFFF
310
FFFFFFFFFFFFFFFFFFFFFFFFFFFFFFFFFFFFFFFFFFFFFFFFFFFFFFFFFFFFFFFF
310
FFFFFFFFFFFFFFFFFFFFFFFFFFFFFFFFFFFFFFFFFFFFFFFFFFFFFFFFFFFFFFFF
310
F000FFFFFFFFFFFFFFFFFFFFFFFFFFFFFFFFFFFFFFFFFFFFFFFFFFFFFFFFFFFF
310
FFFFFFFFFFFFFFFFFFFFFFFFFFFFFFFFFFFFFFFFFFFFFFFFFFFFFFFFFFFFFFFF
310
FFFFFFFFFFFFFFFFFFFFFFFFFFFFFFFFFFFFFFFFFFFFFFFFF000FFFFFFFFFFFF
310
FFFFFFFFFFFFFFFFFFFFFFFFFFFFFFFFFFFFFFFFFFFFFFFFFFFFFFFFFFFFFFFF
310
FFFFFFFFFFFFFFFFFFFFFFFFFFFFFFFFFFFFFFFFFFFFFFFFFFFFFFFFFFFFFFFF
310
FFFFFFFFFFFFFFFFFFFFFFFFFFFFFFFFF000FFFFFFFFFFFFFFFFFFFFFFFFFFFF
310
FFFFFFFFFFFFFFFFFFFFFFFFFFFFFFFFFFFFFFFFFFFFFFFFFFFFFFFFFFFFFFFF
310
FFFFFFFFFFFFFFFFFFFFFFFFFFFFFFFFFFFFFFFFFFFFFFFFFFFFFFFFFFFFFFFF
310
FFFFFFFFFFFFFFFFF000FFFFFFFFFFFFFFFFFFFFFFFFFFFFFFFFFFFFFFFFFFFF
310
FFFFFFFFFFFFFFFFFFFFFFFFFFFFFFFFFFFFFFFFFFFFFFFFFFFFFFFFFFFFFFFF
310
FFFFFFFFFFFFFFFFFFFFFFFFFFFFFFFFFFFFFFFFFFFFFFFFFFFFFFFFFFFFFFFF
310
F000FFFFFFFFFFFFFFFFFFFFFFFFFFFFFFFFFFFFFFFFFFFFFFFFFFFFFFFFFFFF
310
FFFFFFFFFFFFFFFFFFFFFFFFFFFFFFFFFFFFFFFFFFFFFFFFFFFFFFFFFFFFFFFF
310
FFFFFFFFFFFFFFFFFFFFFFFFFFFFFFFFFFFFFFFFFFFFFFFFF000FFFFFFFFFFFF
310
FFFFFFFFFFFFFFFFFFFFFFFFFFFFFFFFFFFFFFFFFFFFFFFFFFFFFFFFFFFFFFFF
310
FFFFFFFFFFFFFFFFFFFFFFFFFFFFFFFFFFFFFFFFFFFFFFFFFFFFFFFFFFFFFFFF
310
FFFFFFFFFFFFFFFFFFFFFFFFFFFFFFFFF000FFFFFFFFFFFFFFFFFFFFFFFFFFFF
310
FFFFFFFFFFFFFFFFFFFFFFFFFFFFFFFFFFFFFFFFFFFFFFFFFFFFFFFFFFFFFFFF
310
FFFFFFFFFFFFFFFFFFFFFFFFFFFFFFFFFFFFFFFFFFFFFFFFFFFFFFFFFFFFFFFF
310
FFFFFFFFFFFFFFFFF000FFFFF80003FFFFFFFFFFFFFFFFFFFFFFFFFFFFFFFFFF
310
FFFFF00007FFFFFFFFFF00007FFFFFF800000000000000007FFFFFFFFFFFFFFF
310
FFFFFFFC001FFFFFFFFFFFFFFC001FFFFFFFFFFFFFFFFFFFFFFFFFFE0007FFFF
310
F000FFFF8000007FFFFFFFF8000FFFFFC0007FFFFF80007FFFFF0000007FFFFF
310
FFF8000007FFFFF800000000000000007FFFFFF0001FFFFFFFFFFFC00001FFFF
310
FFFFFFFFC00001FFFFFFFF000000000003FFFFE000007FFFF000FFFE0000000F
310
FFFFFFF0000FFFFF80007FFFFF80007FFFFC0000001FFFFFFFC0000001FFFFF8
310
00000000000000007FFFFFF0001FFFFFFFFFFE0000003FFFFFFFFFFE0000003F
310
FFFFFF000000000003FFFF0000000FFFF000FFF800000003FFFFFFF00007FFFF
310
80007FFFFF80007FFFF000000007FFFFFF000000003FFFF80000000000000000
310
7FFFFFF0001FFFFFFFFFF80000000FFFFFFFFFF80000000FFFFFFF0000000000
310
03FFFC00000003FFF000FFE000000000FFFFFFF00007FFFF80003FFFFF80007F
310
FFC000000001FFFFFC000000001FFFF800000000000000007FFFFFF0001FFFFF
310
FFFFE000000003FFFFFFFFE000000003FFFFFF000000000003FFF000000000FF
310
F000FF80000000007FFFFFF00007FFFF80003FFFFF80007FFF8000000000FFFF
310
F80000000007FFF800000000000000007FFFFFF0001FFFFFFFFFC000000001FF
310
FFFFFFC000000001FFFFFF000000000003FFC0000000007FF000FF0000000000
310
3FFFFFE00007FFFF00003FFFFF80007FFE00000000003FFFF00000000003FFF8
310
00000000000000007FFFFFF0001FFFFFFFFF8000000000FFFFFFFF8000000000
310
FFFFFF000000000003FF80000000003FF000FE00000000001FFFFFE00003FFFF
310
00003FFFFF80007FFC00000000001FFFE00000000001FFF8000001FFFE000000
310
7FFFFFF0001FFFFFFFFE00000000003FFFFFFE00000000003FFFFF0000000000
310
03FF00000000001FF000FC00000000000FFFFFE00003FFFF00001FFFFF80007F
310
F800000000001FFFC00000000000FFF8000001FFFE0000007FFFFFF0001FFFFF
310
FFFC00000000001FFFFFFC00000000001FFFFF000000000003FE00000000000F
310
F000F8000000000007FFFFE00003FFFF00001FFFFF80007FF800000000000FFF
310
800000000000FFF8000001FFFE0000007FFFFFF0001FFFFFFFF800000000000F
310
FFFFF800000000000FFFFF000000000003FC000000000007F000F80000000000
310
03FFFFC00003FFFE00001FFFFF80007FF0000000000007FF0000000000007FF8
310
000001FFFE0000007FFFFFF0001FFFFFFFF0000000000007FFFFF00000000000
310
07FFFF000000000003F8000000000003F000F0000000000003FFFFC00001FFFE
310
00001FFFFF80007FE0000000000007FE0000000000003FF8000001FFFE000000
310
7FFFFFF0001FFFFFFFF0000000000007FFFFF0000000000007FFFF0000000000
310
03F800001F800003F000E00001FFF00001FFFFC00001FFFE00000FFFFF80007F
310
E00001FFE00003FE00001FFF00003FF8000001FFFE0000007FFFFFF0001FFFFF
310
FFE000003E000003FFFFE000003E000003FFFF000000000003F00001FFF80001
310
F000E00007FFFC0001FFFFC00001FFFE00000FFFFF80007FC0000FFFFC0003FC
310
0000FFFFC0001FF8000001FFFE0000007FFFFFF0001FFFFFFFC00003FFE00001
310
FFFFC00003FFE00001FFFF0001FFFFFFFFF00007FFFE0001F000E0000FFFFF00
310
00FFFF800001FFFC00000FFFFF80007FC0001FFFFE0001FC0001FFFFE0001FF8
310
000001FFFE0000007FFFFFF0001FFFFFFF80000FFFF80000FFFF80000FFFF800
310
00FFFF0003FFFFFFFFE0000FFFFF8000F000C0003FFFFF8000FFFF800000FFFC
310
000007FFFF80007F80003FFFFF0001FC0003FFFFF0001FF8000001FFFE000000
310
7FFFFFF0001FFFFFFF80003FFFFE0000FFFF80003FFFFE0000FFFF0003FFFFFF
310
FFE0003FFFFF8000F000C0003FFFFF8000FFFF800000FFFC000007FFFF80007F
310
80007FFFFF8001F80007FFFFF8000FF8000001FFFE0000007FFFFFF0001FFFFF
310
FF00007FFFFF00007FFF00007FFFFF00007FFF0003FFFFFFFFE0003FFFFFC000
310
F000C0007FFFFFC000FFFF000000FFFC000007FFFF80007F8000FFFFFF8000F8
310
000FFFFFF8000FF8000001FFFE0000007FFFFFF0001FFFFFFF0000FFFFFF8000
310
7FFF0000FFFFFF80007FFF0003FFFFFFFFC0007FFFFFC00070008000FFFFFFC0
310
00FFFF000000FFF8000007FFFF80007F8000FFFFFF8000F8000FFFFFF8000FF8
310
000001FFFE0000007FFFFFF0001FFFFFFE0001FFFFFFC0003FFE0001FFFFFFC0
310
003FFF0003FFFFFFFFC0007FFFFFE00070008000FFFFFFC0007FFF0000007FF8
310
000003FFFF80007F0001FFFFFF8000F8000FFFFFF8000FF8000001FFFE000000
310
7FFFFFF0001FFFFFFE0001FFFFFFC0003FFE0001FFFFFFC0003FFF0003FFFFFF
310
FFC000FFFFFFE00070008000FFFFFFC0007FFF0000007FF8000003FFFF80007F
310
0001FFFFFF8000F8001FFFFFF8000FF8000001FFFE0000007FFFFFF0001FFFFF
310
FE0003FFFFFFE0003FFE0003FFFFFFE0003FFF0003FFFFFFFFC000FFFFFFE000
310
70008000FFFFFFC0007FFE0000007FF8000003FFFF80007F0001FFFFFF8000F0
310
001FFFFFF8000FF8000001FFFE0000007FFFFFF0001FFFFFFC0003FFFFFFE000
310
1FFC0003FFFFFFE0001FFF0003FFFFFFFFC000FFFFFFC00070008000FFFFFF80
310
007FFE0000007FF0000003FFFF80007F0001FFFFFF0000F0001FFFFFF8000FF8
310
000001FFFE0000007FFFFFF0001FFFFFFC0007FFFFFFF0001FFC0007FFFFFFF0
310
001FFF0003FFFFFFFFC000FFFFFFC00070008001FFFFFF0000FFFE0000003FF0
310
000001FFFF80007F0001FFFFFF0000F8001FFFFFF0000FF8000001FFFE000000
310
7FFFFFF0001FFFFFFC0007FFFFFFF0001FFC0007FFFFFFF0001FFF0003FFFFFF
310
FFC001FFFFFF80007000FFFFFFFFFE0000FFFE0008003FF0008001FFFF80007F
310
FFFFFFFFFC0000FFFFFFFFFFE0000FF8000001FFFE0000007FFFFFF0001FFFFF
310
F8000FFFFFFFF8000FF8000FFFFFFFF8000FFF0003FFFFFFFFFFFFFFFFFF0000
310
7000FFFFFFFFFC0000FFFC0008003FF0008001FFFF80007FFFFFFFFFF80001FF
310
FFFFFFFF80000FF8000001FFFE0000007FFFFFF0001FFFFFF8000FFFFFFFF800
310
0FF8000FFFFFFFF8000FFF0003FFFFFFFFFFFFFFFFFE0000F000FFFFFFFFE000
310
00FFFC000C003FE000C001FFFF80007FFFFFFFFFC00001FFFFFFFFFE00001FF8
310
000001FFFE0000007FFFFFF0001FFFFFF8000FFFFFFFF8000FF8000FFFFFFFF8
310
000FFF0003FFFFFFFFFFFFFFFFF00000F000FFFFFFFE000001FFFC000C001FE0
310
00C000FFFF80007FFFFFFFFE000001FFFFFFFFE000001FF80FFFFFFFFFFFFFC0
310
7FFFFFF0001FFFFFF8000FFFFFFFF8000FF8000FFFFFFFF8000FFF0003FFFFFF
310
FFFFFFFFFF800000F000FFFFFFC0000001FFFC001C001FE001C000FFFF80007F
310
FFFFFF80000003FFFFFFF80000001FF80FFFFFFFFFFFFFC07FFFFFF0001FFFFF
310
F8001FFFFFFFFC000FF8001FFFFFFFFC000FFF0003FFFFFFFFFFFFFFF0000001
310
F000FFFFF800000001FFF8001C001FE001C000FFFF80007FFFFFF800000003FF
310
FFFF800000003FF80FFFFFFFFFFFFFC07FFFFFF0001FFFFFF8001FFFFFFFFC00
310
0FF8001FFFFFFFFC000FFF0003FFFFFFFFFFFFFE00000001F000FFFFC0000000
310
03FFF8001E001FC001E000FFFF80007FFFFF8000000007FFFFFC000000003FF8
310
0FFFFFFFFFFFFFC07FFFFFF0001FFFFFF8001FFFFFFFFC000FF8001FFFFFFFFC
310
000FFF0003FFFFFFFFFFFFE000000003F000FFFE0000000007FFF8001E000FC0
310
01E0007FFF80007FFFFE0000000007FFFFE0000000007FF80FFFFFFFFFFFFFC0
310
7FFFFFF0001FFFFFF0001FFFFFFFFC0007F0001FFFFFFFFC0007FF0003FFFFFF
310
FFFFFF0000000003F000FFF80000000007FFF8001E000FC003E0007FFF80007F
310
FFF0000000000FFFFF8000000000FFF80FFFFFFFFFFFFFC07FFFFFF0001FFFFF
310
F0001FFFFFFFFC0007F0001FFFFFFFFC0007FF0003FFFFFFFFFFFC0000000007
310
F000FFE0000000000FFFF0003E000FC003E0007FFF80007FFFC0000000001FFF
310
FE0000000001FFF80FFFFFFFFFFFFFC07FFFFFF0001FFFFFF0001FFFFFFFFC00
310
07F0001FFFFFFFFC0007FF0003FFFFFFFFFFF0000000000FF000FFC000000000
310
1FFFF0003F000F8003F0003FFF80007FFF80000000003FFFF80000000003FFF8
310
0FFFFFFFFFFFFFC07FFFFFF0001FFFFFF0001FFFFFFFFC0007F0001FFFFFFFFC
310
0007FF0003FFFFFFFFFFE0000000001FF000FF00000000007FFFF0003F000780
310
03F0003FFF80007FFF00000000007FFFF00000000007FFF80FFFFFFFFFFFFFC0
310
7FFFFFF0001FFFFFF0001FFFFFFFFC0007F0001FFFFFFFFC0007FF0003FFFFFF
310
FFFF80000000007FF000FE0000000000FFFFE0003F00078007F0003FFF80007F
310
FE0000000001FFFFE0000000001FFFF80FFFFFFFFFFFFFC07FFFFFF0001FFFFF
310
F0001FFFFFFFFC0007F0001FFFFFFFFC0007FF0003FFFFFFFFFF0000000000FF
310
F000FC0000000003FFFFE0007F00078007F0003FFF80007FFC0000000007FFFF
310
C0000000007FFFF80FFFFFFFFFFFFFC07FFFFFF0001FFFFFF8001FFFFFFFFC00
310
0FF8001FFFFFFFFC000FFF0003FFFFFFFFFE0000000003FFF000FC000000000F
310
FFFFE0007F80070007F8001FFF80007FF8000000001FFFFF8000000001FFFFF8
310
0FFFFFFFFFFFFFC07FFFFFF0001FFFFFF8001FFFFFFFFC000FF8001FFFFFFFFC
310
000FFF0003FFFFFFFFFC000000000FFFF000F8000000007FFFFFE0007F800700
310
07F8001FFF80007FF000000000FFFFFF800000000FFFFFF80FFFFFFFFFFFFFC0
310
7FFFFFF0001FFFFFF8000FFFFFFFF8000FF8000FFFFFFFF8000FFF0003FFFFFF
310
FFFC000000007FFFF000F800000007FFFFFFC0007F8003000FF8001FFF80007F
310
F000000007FFFFFF000000007FFFFFF80FFFFFFFFFFFFFC07FFFFFF0001FFFFF
310
F8000FFFFFFFF8000FF8000FFFFFFFF8000FFF0003FFFFFFFFF80000000FFFFF
310
F000F0000000FFFFFFFFC000FF8003000FF8001FFF80007FE0000000FFFFFFFF
310
0000000FFFFFFFF8000001FFFE0000007FFFFFF0001FFFFFF8000FFFFFFFF800
310
0FF8000FFFFFFFF8000FFF0003FFFFFFFFF8000000FFFFFFF000F000000FFFFF
310
FFFFC000FFC002000FF8000FFF80007FE000001FFFFFFFFE000001FFFFFFFFF8
310
000001FFFE0000007FFFFFF0001FFFFFF8000FFFFFFFF8000FF8000FFFFFFFF8
310
000FFF0003FFFFFFFFF000001FFFFFFFF000E00000FFFFFFFFFFC000FFC00200
310
0FFC000FFF80007FE00001FFFFFFFFFE00001FFFFFFFFFF8000001FFFE000000
310
7FFFFFF0001FFFFFFC000FFFFFFFF8001FFC000FFFFFFFF8001FFF0003FFFFFF
310
FFF00001FFFFFFFFF000E00007FFFFFFFFFF8000FFC000001FFC000FFF80007F
310
C0000FFFFFFFFFFE0000FFFFFFFFFFF8000001FFFE0000007FFFFFF0001FFFFF
310
FC0007FFFFFFF0001FFC0007FFFFFFF0001FFF0003FFFFFFFFF00007FFFFFFFF
310
F000E0001FFFFFFFFFFF8000FFC000001FFC000FFF80007FC0003FFFFFFFFFFE
310
0001FFFFFFFFFFF8000001FFFE0000007FFFFFF0001FFFFFFC0007FFFFFFF000
310
1FFC0007FFFFFFF0001FFF0003FFFFFFFFF0001FFFFFFFFFF000E0003FFFFF00
310
03FF8001FFE000001FFC0007FF80007FC0007FFFFF0007FC0003FFFFF0003FF8
310
000001FFFE0000007FFFFFF0001FFFFFFC0003FFFFFFE0001FFC0003FFFFFFE0
310
001FFF0003FFFFFFFFF0003FFFFFFFFFF000E0003FFFFF0001FF8001FFE00000
310
1FFE0007FF80007FC0007FFFFE0003FC0007FFFFE0003FF8000001FFFE000000
310
7FFFFFF0001FFFFFFE0003FFFFFFE0003FFE0003FFFFFFE0003FFF0003FFFFFF
310
FFF0003FFFFF8001F000E0003FFFFF0001FF0001FFE000001FFE0007FF80007F
310
C0007FFFFE0003FC0007FFFFE0003FF8000001FFFE0000007FFFFFF0001FFFFF
310
FE0001FFFFFFC0003FFE0001FFFFFFC0003FFF0003FFFFFFFFF0003FFFFF0001
310
F000E0003FFFFF0003FF0001FFE000003FFE0007FF80007FC0007FFFFE0003FC
310
0007FFFFE0003FF8000001FFFE0000007FFFFFF0001FFFFFFF0001FFFFFFC000
310
7FFF0001FFFFFFC0007FFF0003FFFFFFFFF0003FFFFF0001F000E0003FFFFE00
310
03FF0003FFF000003FFE0003FF80007FC0007FFFFC0003FE0007FFFFE0003FF8
310
000001FFFE0000007FFFFFF0001FFFFFFF0000FFFFFF80007FFF0000FFFFFF80
310
007FFF0003FFFFFFFFF0003FFFFF0001F000E0003FFFFE0003FF0003FFF00000
310
3FFF0003FF80007FC0007FFFFC0007FE0007FFFFC0003FF8000001FFFE000000
310
7FFFFFF0001FFFFFFF80007FFFFF0000FFFF80007FFFFF0000FFFF0003FFFFFF
310
FFF0003FFFFF0003F000E0003FFFFC0003FE0003FFF000003FFF0003FF80007F
310
E0003FFFF80007FE0003FFFFC0007FF8000001FFFE0000007FFFFFF0001FFFFF
310
FF80003FFFFE0000FFFF80003FFFFE0000FFFF0003FFFFFFFFF0001FFFFE0003
310
F000F0001FFFF80003FE0003FFF000007FFF0001FF80007FE0003FFFF00007FE
310
0001FFFF80007FF8000001FFFE0000007FFFFFF0001FFFFFFFC0000FFFF80001
310
FFFFC0000FFFF80001FFFF0003FFFFFFFFF0001FFFFC0003F000F0000FFFF000
310
07FE0007FFF800007FFF0001FF80007FE0001FFFE00007FF0000FFFE00007FF8
310
000001FFFE0000007FFFFFF0001FFFFFFFC00003FFE00001FFFFC00003FFE000
310
01FFFF0003FFFFFFFFF8000FFFF80003F000F00003FFC00007FC0007FFF80000
310
7FFF8001FF80007FF00007FF80000FFF00007FF80000FFF8000001FFFE000000
310
7F80000000000001FFE000003E000003FFFFE000003E000003FFFF0003FFFFFF
310
FFF80003FFE00007F000F800000000000FFC0007FFF800007FFF8001FF80007F
310
F000000000000FFF000000000000FFF8000001FFFE0000007F80000000000001
310
FFF0000000000007FFFFF0000000000007FFFF0003FFFFFFFFFC00007E000007
310
F000F800000000000FFC0007FFF80000FFFF8000FF80007FF800000000001FFF
310
800000000001FFF8000001FFFE0000007F80000000000001FFF800000000000F
310
FFFFF800000000000FFFFF0003FFFFFFFFFC00000000000FF000FC0000000000
310
1FFC0007FFFC0000FFFF8000FF80007FF800000000003FFFC00000000001FFF8
310
000001FFFE0000007F80000000000001FFF800000000000FFFFFF80000000000
310
0FFFFF0003FFFFFFFFFE00000000001FF000FE00000000003FF8000FFFFC0000
310
FFFF8000FF80007FFC00000000003FFFC00000000003FFF8000001FFFE000000
310
7F80000000000001FFFC00000000001FFFFFFC00000000001FFFFF0003FFFFFF
310
FFFF00000000001FF000FF00000000003FF8000FFFFC0000FFFFC000FF80007F
310
FE00000000007FFFE00000000007FFF8000001FFFE0000007F80000000000001
310
FFFE00000000003FFFFFFE00000000003FFFFF0003FFFFFFFFFF80000000003F
310
F000FF80000000007FF8000FFFFC0001FFFFC0007F80007FFF0000000000FFFF
310
F0000000000FFFF800000000000000007F80000000000001FFFF8000000000FF
310
FFFFFF8000000000FFFFFF0003FFFFFFFFFFC0000000007FF000FFC000000000
310
FFF8000FFFFE0001FFFFC0007F80007FFF8000000001FFFFF8000000001FFFF8
310
00000000000000007F80000000000001FFFFC000000001FFFFFFFFC000000001
310
FFFFFF0003FFFFFFFFFFE000000000FFF000FFE000000003FFF0001FFFFE0001
310
FFFFC0007F80007FFFC000000007FFFFFE000000003FFFF80000000000000000
310
7F80000000000001FFFFE000000003FFFFFFFFE000000003FFFFFF0003FFFFFF
310
FFFFF000000003FFF000FFF80000000FFFF0001FFFFE0001FFFFE0007F80007F
310
FFF00000000FFFFFFF00000000FFFFF800000000000000007F80000000000001
310
FFFFF80000000FFFFFFFFFF80000000FFFFFFF0003FFFFFFFFFFFC0000000FFF
310
F000FFFE0000003FFFF0001FFFFE0003FFFFE0003F80007FFFFC0000003FFFFF
310
FFC0000003FFFFF800000000000000007F80000000000001FFFFFE0000003FFF
310
FFFFFFFE0000003FFFFFFF0003FFFFFFFFFFFF0000003FFFF000FFFF800000FF
310
FFF0001FFFFF0003FFFFE0003F80007FFFFF000001FFFFFFFFF800001FFFFFF8
310
00000000000000007F80000000000001FFFFFFC00001FFFFFFFFFFFFC00001FF
310
FFFFFF0003FFFFFFFFFFFFC00000FFFFF000FFFFF8000FFFFFFFFFFFFFFFFFFF
310
FFFFFFFFFFFFFFFFFFFFF0001FFFFFFFFFFF0000FFFFFFF80000000000000000
310
7FFFFFFFFFFFFFFFFFFFFFFC001FFFFFFFFFFFFFFC001FFFFFFFFFFFFFFFFFFF
310
FFFFFFFC001FFFFFF000FFFFFFFFFFFFFFFFFFFFFFFFFFFFFFFFFFFFFFFFFFFF
310
FFFFFFFFFFFFFFFFFFFFFFFFFFFFFFFFFFFFFFFFFFFFFFFFFFFFFFFFFFFFFFFF
310
FFFFFFFFFFFFFFFFFFFFFFFFFFFFFFFFFFFFFFFFFFFFFFFFFFFFFFFFFFFFFFFF
310
F000FFFFFFFFFFFFFFFFFFFFFFFFFFFFFFFFFFFFFFFFFFFFFFFFFFFFFFFFFFFF
310
FFFFFFFFFFFFFFFFFFFFFFFFFFFFFFFFFFFFFFFFFFFFFFFFFFFFFFFFFFFFFFFF
310
FFFFFFFFFFFFFFFFFFFFFFFFFFFFFFFFFFFFFFFFFFFFFFFFF000FFFFFFFFFFFF
310
FFFFFFFFFFFFFFFFFFFFFFFFFFFFFFFFFFFFFFFFFFFFFFFFFFFFFFFFFFFFFFFF
310
FFFFFFFFFFFFFFFFFFFFFFFFFFFFFFFFFFFFFFFFFFFFFFFFFFFFFFFFFFFFFFFF
310
FFFFFFFFFFFFFFFFFFFFFFFFFFFFFFFFF000FFFFFFFFFFFFFFFFFFFFFFFFFFFF
310
FFFFFFFFFFFFFFFFFFFFFFFFFFFFFFFFFFFFFFFFFFFFFFFFFFFFFFFFFFFFFFFF
310
FFFFFFFFFFFFFFFFFFFFFFFFFFFFFFFFFFFFFFFFFFFFFFFFFFFFFFFFFFFFFFFF
310
FFFFFFFFFFFFFFFFF000FFFFFFFFFFFFFFFFFFFFFFFFFFFFFFFFFFFFFFFFFFFF
310
FFFFFFFFFFFFFFFFFFFFFFFFFFFFFFFFFFFFFFFFFFFFFFFFFFFFFFFFFFFFFFFF
310
FFFFFFFFFFFFFFFFFFFFFFFFFFFFFFFFFFFFFFFFFFFFFFFFFFFFFFFFFFFFFFFF
310
F000FFFFFFFFFFFFFFFFFFFFFFFFFFFFFFFFFFFFFFFFFFFFFFFFFFFFFFFFFFFF
310
FFFFFFFFFFFFFFFFFFFFFFFFFFFFFFFFFFFFFFFFFFFFFFFFFFFFFFFFFFFFFFFF
310
FFFFFFFFFFFFFFFFFFFFFFFFFFFFFFFFFFFFFFFFFFFFFFFFF000FFFFFFFFFFFF
310
FFFFFFFFFFFFFFFFFFFFFFFFFFFFFFFFFFFFFFFFFFFFFFFFFFFFFFFFFFFFFFFF
310
FFFFFFFFFFFFFFFFFFFFFFFFFFFFFFFFFFFFFFFFFFFFFFFFFFFFFFFFFFFFFFFF
310
FFFFFFFFFFFFFFFFFFFFFFFFFFFFFFFFF000FFFFFFFFFFFFFFFFFFFFFFFFFFFF
310
FFFFFFFFFFFFFFFFFFFFFFFFFFFFFFFFFFFFFFFFFFFFFFFFFFFFFFFFFFFFFFFF
310
FFFFFFFFFFFFFFFFFFFFFFFFFFFFFFFFFFFFFFFFFFFFFFFFFFFFFFFFFFFFFFFF
310
FFFFFFFFFFFFFFFFF000FFFFFFFFFFFFFFFFFFFFFFFFFFFFFFFFFFFFFFFFFFFF
310
FFFFFFFFFFFFFFFFFFFFFFFFFFFFFFFFFFFFFFFFFFFFFFFFFFFFFFFFFFFFFFFF
310
FFFFFFFFFFFFFFFFFFFFFFFFFFFFFFFFFFFFFFFFFFFFFFFFFFFFFFFFFFFFFFFF
310
F000FFFFFFFFFFFFFFFFFFFFFFFFFFFFFFFFFFFFFFFFFFFFFFFFFFFFFFFFFFFF
310
FFFFFFFFFFFFFFFFFFFFFFFFFFFFFFFFFFFFFFFFFFFFFFFFFFFFFFFFFFFFFFFF
310
FFFFFFFFFFFFFFFFFFFFFFFFFFFFFFFFFFFFFFFFFFFFFFFFF000FFFFFFFFFFFF
310
FFFFFFFFFFFFFFFFFFFFFFFFFFFFFFFFFFFFFFFFFFFFFFFFFFFFFFFFFFFFFFFF
310
FFFFFFFFFFFFFFFFFFFFFFFFFFFFFFFFFFFFFFFFFFFFFFFFFFFFFFFFFFFFFFFF
310
FFFFFFFFFFFFFFFFFFFFFFFFFFFFFFFFF000FFFFFFFFFFFFFFFFFFFFFFFFFFFF
310
FFFFFFFFFFFFFFFFFFFFFFFFFFFFFFFFFFFFFFFFFFFFFFFFFFFFFFFFFFFFFFFF
310
FFFFFFFFFFFFFFFFFFFFFFFFFFFFFFFFFFFFFFFFFFFFFFFFFFFFFFFFFFFFFFFF
310
FFFFFFFFFFFFFFFFF000FFFFFFFFFFFFFFFFFFFFFFFFFFFFFFFFFFFFFFFFFFFF
310
FFFFFFFFFFFFFFFFFFFFFFFFFFFFFFFFFFFFFFFFFFFFFFFFFFFFFFFFFFFFFFFF
310
FFFFFFFFFFFFFFFFFFFFFFFFFFFFFFFFFFFFFFFFFFFFFFFFFFFFFFFFFFFFFFFF
310
F000FFFFFFFFFFFFFFFFFFFFFFFFFFFFFFFFFFFFFFFFFFFFFFFFFFFFFFFFFFFF
310
FFFFFFFFFFFFFFFFFFFFFFFFFFFFFFFFFFFFFFFFFFFFFFFFFFFFFFFFFFFFFFFF
310
FFFFFFFFFFFFFFFFFFFFFFFFFFFFFFFFFFFFFFFFFFFFFFFFF000FFFFFFFFFFFF
310
FFFFFFFFFFFFFFFFFFFFFFFFFFFFFFFFFFFFFFFFFFFFFFFFFFFFFFFFFFFFFFFF
310
FFFFFFFFFFFFFFFFFFFFFFFFFFFFFFFFFFFFFFFFFFFFFFFFFFFFFFFFFFFFFFFF
310
FFFFFFFFFFFFFFFFFFFFFFFFFFFFFFFFF000FFFFFFFFFFFFFFFFFFFFFFFFFFFF
310
FFFFFFFFFFFFFFFFFFFFFFFFFFFFFFFFFFFFFFFFFFFFFFFFFFFFFFFFFFFFFFFF
310
FFFFFFFFFFFFFFFFFFFFFFFFFFFFFFFFFFFFFFFFFFFFFFFFFFFFFFFFFFFFFFFF
310
FFFFFFFFFFFFFFFFF000FFFFFFFFFFFFFFFFFFFFFFFFFFFFFFFFFFFFFFFFFFFF
310
FFFFFFFFFFFFFFFFFFFFFFFFFFFFFFFFFFFFFFFFFFFFFFFFFFFFFFFFFFFFFFFF
310
FFFFFFFFFFFFFFFFFFFFFFFFFFFFFFFFFFFFFFFFFFFFFFFFFFFFFFFFFFFFFFFF
310
F000FFFFFFFFFFFFFFFFFFFFFFFFFFFFFFFFFFFFFFFFFFFFFFFFFFFFFFFFFFFF
310
FFFFFFFFFFFFFFFFFFFFFFFFFFFFFFFFFFFFFFFFFFFFFFFFFFFFFFFFFFFFFFFF
310
FFFFFFFFFFFFFFFFFFFFFFFFFFFFFFFFFFFFFFFFFFFFFFFFF000FFFFFFFFFFFF
310
FFFFFFFFFFFFFFFFFFFFFFFFFFFFFFFFFFFFFFFFFFFFFFFFFFFFFFFFFFFFFFFF
310
FFFFFFFFFFFFFFFFFFFFFFFFFFFFFFFFFFFFFFFFFFFFFFFFFFFFFFFFFFFFFFFF
310
FFFFFFFFFFFFFFFFFFFFFFFFFFFFFFFFF000FFFFFFFFFFFFFFFFFFFFFFFFFFFF
310
FFFFFFFFFFFFFFFFFFFFFFFFFFFFFFFFFFFFFFFFFFFFFFFFFFFFFFFFFFFFFFFF
310
FFFFFFFFFFFFFFFFFFFFFFFFFFFFFFFFFFFFFFFFFFFFFFFFFFFFFFFFFFFFFFFF
310
FFFFFFFFFFFFFFFFF000FFFFFFFFFFFFFFFFFFFFFFFFFFFFFFFFFFFFFFFFFFFF
310
FFFFFFFFFFFFFFFFFFFFFFFFFFFFFFFFFFFFFFFFFFFFFFFFFFFFFFFFFFFFFFFF
310
FFFFFFFFFFFFFFFFFFFFFFFFFFFFFFFFFFFFFFFFFFFFFFFFFFFFFFFFFFFFFFFF
310
F000FFFFFFFFFFFFFFFFFFFFFFFFFFFFFFFFFFFFFFFFFFFFFFFFFFFFFFFFFFFF
310
FFFFFFFFFFFFFFFFFFFFFFFFFFFFFFFFFFFFFFFFFFFFFFFFFFFFFFFFFFFFFFFF
310
FFFFFFFFFFFFFFFFFFFFFFFFFFFFFFFFFFFFFFFFFFFFFFFFF000FFFFFFFFFFFF
310
FFFFFFFFFFFFFFFFFFFFFFFFFFFFFFFFFFFFFFFFFFFFFFFFFFFFFFFFFFFFFFFF
310
FFFFFFFFFFFFFFFFFFFFFFFFFFFFFFFFFFFFFFFFFFFFFFFFFFFFFFFFFFFFFFFF
310
FFFFFFFFFFFFFFFFFFFFFFFFFFFFFFFFF0000000000000000000000000000000
310
0000000000000000000000000000000000000000000000000000000000000000
310
0000000000000000000000000000000000000000000000000000000000000000
310
0000000000000000000000000000000000000000000000000000000000000000
310
0000000000000000000000000000000000000000000000000000000000000000
310
0000000000000000000000000000000000000000000000000000000000000000
310
0000000000000000000000000000000000000000000000000000000000000000
310
0000000000000000000000000000000000000000000000000000000000000000
310
0000000000000000000000000000000000000000000000000000000000000000
310
0000000000000000000000000000000000000000000000000000000000000000
310
0000000000000000000000000000000000000000000000000000000000000000
310
0000000000000000000000000000000000000000000000000000000000000000
310
0000000000000000000000000000000000000000000000000000000000000000
310
0000000000000000000000000000000000000000000000000000000000000000
310
0000000000000000000000000000000000000000000000000000000000000000
310
0000000000000000000000000000000000000000000000000000000000000000
  1
OLE
  0
ENDSEC
  0
SECTION
  2
OBJECTS
  0
DICTIONARY
  5
C
330
0
100
AcDbDictionary
281
     1
  3
ACAD_GROUP
350
D
  3
ACAD_LAYOUT
350
1A
  3
ACAD_MLINESTYLE
350
17
  3
ACAD_PLOTSETTINGS
350
19
  3
ACAD_PLOTSTYLENAME
350
E
  0
DICTIONARY
  5
D
102
{ACAD_REACTORS
330
C
102
}
330
C
100
AcDbDictionary
281
     1
  0
DICTIONARY
  5
1A
102
{ACAD_REACTORS
330
C
102
}
330
C
100
AcDbDictionary
281
     1
  3
Layout1
350
1E
  3
Layout2
350
26
  3
Model
350
22
  0
DICTIONARY
  5
17
102
{ACAD_REACTORS
330
C
102
}
330
C
100
AcDbDictionary
281
     1
  3
Standard
350
18
  0
DICTIONARY
  5
19
102
{ACAD_REACTORS
330
C
102
}
330
C
100
AcDbDictionary
281
     1
  0
ACDBDICTIONARYWDFLT
  5
E
102
{ACAD_REACTORS
330
C
102
}
330
C
100
AcDbDictionary
281
     1
  3
Normal
350
F
100
AcDbDictionaryWithDefault
340
F
  0
LAYOUT
  5
1E
102
{ACAD_REACTORS
330
1A
102
}
330
1A
100
AcDbPlotSettings
  1

  2
none_device
  4

  6

 40
0.0
 41
0.0
 42
0.0
 43
0.0
 44
0.0
 45
0.0
 46
0.0
 47
0.0
 48
0.0
 49
0.0
140
0.0
141
0.0
142
1.0
143
1.0
 70
   688
 72
     0
 73
     0
 74
     5
  7

 75
    16
147
1.0
148
0.0
149
0.0
100
AcDbLayout
  1
Layout1
 70
     1
 71
     1
 10
0.0
 20
0.0
 11
420.0
 21
297.0
 12
0.0
 22
0.0
 32
0.0
 14
1.0000000000E+20
 24
1.0000000000E+20
 34
1.0000000000E+20
 15
-1.0000000000E+20
 25
-1.0000000000E+20
 35
-1.0000000000E+20
146
0.0
 13
0.0
 23
0.0
 33
0.0
 16
1.0
 26
0.0
 36
0.0
 17
0.0
 27
1.0
 37
0.0
 76
     0
330
1B
  0
LAYOUT
  5
26
102
{ACAD_REACTORS
330
1A
102
}
330
1A
100
AcDbPlotSettings
  1

  2
none_device
  4

  6

 40
0.0
 41
0.0
 42
0.0
 43
0.0
 44
0.0
 45
0.0
 46
0.0
 47
0.0
 48
0.0
 49
0.0
140
0.0
141
0.0
142
1.0
143
1.0
 70
   688
 72
     0
 73
     0
 74
     5
  7

 75
    16
147
1.0
148
0.0
149
0.0
100
AcDbLayout
  1
Layout2
 70
     1
 71
     2
 10
0.0
 20
0.0
 11
0.0
 21
0.0
 12
0.0
 22
0.0
 32
0.0
 14
0.0
 24
0.0
 34
0.0
 15
0.0
 25
0.0
 35
0.0
146
0.0
 13
0.0
 23
0.0
 33
0.0
 16
1.0
 26
0.0
 36
0.0
 17
0.0
 27
1.0
 37
0.0
 76
     0
330
23
  0
LAYOUT
  5
22
102
{ACAD_REACTORS
330
1A
102
}
330
1A
100
AcDbPlotSettings
  1

  2
none_device
  4

  6

 40
0.0
 41
0.0
 42
0.0
 43
0.0
 44
0.0
 45
0.0
 46
0.0
 47
0.0
 48
0.0
 49
0.0
140
0.0
141
0.0
142
1.0
143
1.0
 70
  1712
 72
     0
 73
     0
 74
     0
  7

 75
     0
147
1.0
148
0.0
149
0.0
100
AcDbLayout
  1
Model
 70
     1
 71
     0
 10
0.0
 20
0.0
 11
297.0
 21
210.0
 12
0.0
 22
0.0
 32
0.0
 14
0.0
 24
0.0
 34
0.0
 15
297.0
 25
210.0
 35
0.0
146
0.0
 13
0.0
 23
0.0
 33
0.0
 16
1.0
 26
0.0
 36
0.0
 17
0.0
 27
1.0
 37
0.0
 76
     0
330
1F
331
29
  0
MLINESTYLE
  5
18
102
{ACAD_REACTORS
330
17
102
}
330
17
100
AcDbMlineStyle
  2
Standard
 70
     0
  3

 62
   256
 51
90.0
 52
90.0
 71
     2
 49
0.5
 62
   256
  6
BYLAYER
 49
-0.5
 62
   256
  6
BYLAYER
  0
ACDBPLACEHOLDER
  5
F
102
{ACAD_REACTORS
330
E
102
}
330
E
  0
ENDSEC
  0
EOF
