  0
SECTION
  2
HEADER
  9
$ACADVER
  1
AC1015
  9
$ACADMAINTVER
 70
     6
  9
$DWGCODEPAGE
  3
ANSI_1252
  9
$INSBASE
 10
0.0
 20
0.0
 30
0.0
  9
$EXTMIN
 10
0.0
 20
0.0
 30
0.0
  9
$EXTMAX
 10
297.0
 20
210.0
 30
0.0
  9
$LIMMIN
 10
0.0
 20
0.0
  9
$LIMMAX
 10
297.0
 20
210.0
  9
$ORTHOMODE
 70
     0
  9
$REGENMODE
 70
     1
  9
$FILLMODE
 70
     1
  9
$QTEXTMODE
 70
     0
  9
$MIRRTEXT
 70
     1
  9
$LTSCALE
 40
1.0
  9
$ATTMODE
 70
     1
  9
$TEXTSIZE
 40
2.0
  9
$TRACEWID
 40
1.0
  9
$TEXTSTYLE
  7
STANDARD
  9
$CLAYER
  8
0
  9
$CELTYPE
  6
ByLayer
  9
$CECOLOR
 62
   256
  9
$CELTSCALE
 40
1.0
  9
$DISPSILH
 70
     0
  9
$DIMSCALE
 40
1.0
  9
$DIMASZ
 40
3.0
  9
$DIMEXO
 40
0.0
  9
$DIMDLI
 40
3.75
  9
$DIMRND
 40
0.0
  9
$DIMDLE
 40
0.0
  9
$DIMEXE
 40
1.0
  9
$DIMTP
 40
0.0
  9
$DIMTM
 40
0.0
  9
$DIMTXT
 40
2.0
  9
$DIMCEN
 40
2.5
  9
$DIMTSZ
 40
0.0
  9
$DIMTOL
 70
     0
  9
$DIMLIM
 70
     0
  9
$DIMTIH
 70
     1
  9
$DIMTOH
 70
     1
  9
$DIMSE1
 70
     0
  9
$DIMSE2
 70
     0
  9
$DIMTAD
 70
     1
  9
$DIMZIN
 70
     0
  9
$DIMBLK
  1

  9
$DIMASO
 70
     1
  9
$DIMSHO
 70
     1
  9
$DIMPOST
  1

  9
$DIMAPOST
  1

  9
$DIMALT
 70
     0
  9
$DIMALTD
 70
     3
  9
$DIMALTF
 40
0.0393700787
  9
$DIMLFAC
 40
1.0
  9
$DIMTOFL
 70
     1
  9
$DIMTVP
 40
0.0
  9
$DIMTIX
 70
     0
  9
$DIMSOXD
 70
     0
  9
$DIMSAH
 70
     0
  9
$DIMBLK1
  1

  9
$DIMBLK2
  1

  9
$DIMSTYLE
  2
ISO-25
  9
$DIMCLRD
 70
     0
  9
$DIMCLRE
 70
     0
  9
$DIMCLRT
 70
     0
  9
$DIMTFAC
 40
1.0
  9
$DIMGAP
 40
1.524
  9
$DIMJUST
 70
     0
  9
$DIMSD1
 70
     0
  9
$DIMSD2
 70
     0
  9
$DIMTOLJ
 70
     0
  9
$DIMTZIN
 70
     0
  9
$DIMALTZ
 70
     0
  9
$DIMALTTZ
 70
     0
  9
$DIMUPT
 70
     0
  9
$DIMDEC
 70
     2
  9
$DIMTDEC
 70
     3
  9
$DIMALTU
 70
     2
  9
$DIMALTTD
 70
     3
  9
$DIMTXSTY
  7
STANDARD
  9
$DIMAUNIT
 70
     0
  9
$DIMADEC
 70
     2
  9
$DIMALTRND
 40
0.0
  9
$DIMAZIN
 70
     0
  9
$DIMDSEP
 70
    44
  9
$DIMATFIT
 70
     3
  9
$DIMFRAC
 70
     0
  9
$DIMLDRBLK
  1

  9
$DIMLUNIT
 70
     2
  9
$DIMLWD
 70
    -2
  9
$DIMLWE
 70
    -2
  9
$DIMTMOVE
 70
     0
  9
$LUNITS
 70
     2
  9
$LUPREC
 70
     2
  9
$SKETCHINC
 40
1.0
  9
$FILLETRAD
 40
10.0
  9
$AUNITS
 70
     0
  9
$AUPREC
 70
     2
  9
$MENU
  1
.
  9
$ELEVATION
 40
0.0
  9
$PELEVATION
 40
0.0
  9
$THICKNESS
 40
0.0
  9
$LIMCHECK
 70
     0
  9
$CHAMFERA
 40
10.0
  9
$CHAMFERB
 40
10.0
  9
$CHAMFERC
 40
20.0
  9
$CHAMFERD
 40
0.0
  9
$SKPOLY
 70
     0
  9
$TDCREATE
 40
2457070.452950729
  9
$TDUCREATE
 40
2457070.411284063
  9
$TDUPDATE
 40
2457070.452951447
  9
$TDUUPDATE
 40
2457070.41128478
  9
$TDINDWG
 40
0.0000000116
  9
$TDUSRTIMER
 40
0.0000000116
  9
$USRTIMER
 70
     1
  9
$ANGBASE
 50
0.0
  9
$ANGDIR
 70
     0
  9
$PDMODE
 70
     0
  9
$PDSIZE
 40
-1.0
  9
$PLINEWID
 40
0.0
  9
$SPLFRAME
 70
     0
  9
$SPLINETYPE
 70
     6
  9
$SPLINESEGS
 70
     8
  9
$HANDSEED
  5
2E1
  9
$SURFTAB1
 70
     6
  9
$SURFTAB2
 70
     6
  9
$SURFTYPE
 70
     6
  9
$SURFU
 70
     6
  9
$SURFV
 70
     6
  9
$UCSBASE
  2

  9
$UCSNAME
  2

  9
$UCSORG
 10
0.0
 20
0.0
 30
0.0
  9
$UCSXDIR
 10
1.0
 20
0.0
 30
0.0
  9
$UCSYDIR
 10
0.0
 20
1.0
 30
0.0
  9
$UCSORTHOREF
  2

  9
$UCSORTHOVIEW
 70
     0
  9
$UCSORGTOP
 10
0.0
 20
0.0
 30
0.0
  9
$UCSORGBOTTOM
 10
0.0
 20
0.0
 30
0.0
  9
$UCSORGLEFT
 10
0.0
 20
0.0
 30
0.0
  9
$UCSORGRIGHT
 10
0.0
 20
0.0
 30
0.0
  9
$UCSORGFRONT
 10
0.0
 20
0.0
 30
0.0
  9
$UCSORGBACK
 10
0.0
 20
0.0
 30
0.0
  9
$PUCSBASE
  2

  9
$PUCSNAME
  2

  9
$PUCSORG
 10
0.0
 20
0.0
 30
0.0
  9
$PUCSXDIR
 10
1.0
 20
0.0
 30
0.0
  9
$PUCSYDIR
 10
0.0
 20
1.0
 30
0.0
  9
$PUCSORTHOREF
  2

  9
$PUCSORTHOVIEW
 70
     0
  9
$PUCSORGTOP
 10
0.0
 20
0.0
 30
0.0
  9
$PUCSORGBOTTOM
 10
0.0
 20
0.0
 30
0.0
  9
$PUCSORGLEFT
 10
0.0
 20
0.0
 30
0.0
  9
$PUCSORGRIGHT
 10
0.0
 20
0.0
 30
0.0
  9
$PUCSORGFRONT
 10
0.0
 20
0.0
 30
0.0
  9
$PUCSORGBACK
 10
0.0
 20
0.0
 30
0.0
  9
$USERI1
 70
     0
  9
$USERI2
 70
     0
  9
$USERI3
 70
     0
  9
$USERI4
 70
     0
  9
$USERI5
 70
     0
  9
$USERR1
 40
0.0
  9
$USERR2
 40
0.0
  9
$USERR3
 40
0.0
  9
$USERR4
 40
0.0
  9
$USERR5
 40
0.0
  9
$WORLDVIEW
 70
     1
  9
$SHADEDGE
 70
     3
  9
$SHADEDIF
 70
    70
  9
$TILEMODE
 70
     1
  9
$MAXACTVP
 70
    64
  9
$PINSBASE
 10
0.0
 20
0.0
 30
0.0
  9
$PLIMCHECK
 70
     0
  9
$PEXTMIN
 10
1.0000000000E+20
 20
1.0000000000E+20
 30
1.0000000000E+20
  9
$PEXTMAX
 10
-1.0000000000E+20
 20
-1.0000000000E+20
 30
-1.0000000000E+20
  9
$PLIMMIN
 10
0.0
 20
0.0
  9
$PLIMMAX
 10
420.0
 20
297.0
  9
$UNITMODE
 70
     0
  9
$VISRETAIN
 70
     1
  9
$PLINEGEN
 70
     0
  9
$PSLTSCALE
 70
     1
  9
$TREEDEPTH
 70
  3020
  9
$CMLSTYLE
  2
Standard
  9
$CMLJUST
 70
     0
  9
$CMLSCALE
 40
20.0
  9
$PROXYGRAPHICS
 70
     1
  9
$MEASUREMENT
 70
     1
  9
$CELWEIGHT
370
    -1
  9
$ENDCAPS
280
     0
  9
$JOINSTYLE
280
     0
  9
$LWDISPLAY
290
     1
  9
$INSUNITS
 70
     4
  9
$HYPERLINKBASE
  1

  9
$STYLESHEET
  1

  9
$XEDIT
290
     1
  9
$CEPSNTYPE
380
     0
  9
$PSTYLEMODE
290
     1
  9
$FINGERPRINTGUID
  2
{88140BF9-8322-4FBA-BBB3-AAB861F90DC7}
  9
$VERSIONGUID
  2
{FAEB1C32-E019-11D5-929B-00C0DF256EC4}
  9
$EXTNAMES
290
     1
  9
$PSVPSCALE
 40
0.0
  9
$OLESTARTUP
290
     0
  0
ENDSEC
  0
SECTION
  2
CLASSES
  0
CLASS
  1
ACDBDICTIONARYWDFLT
  2
AcDbDictionaryWithDefault
  3
ObjectDBX Classes
 90
        0
280
     0
281
     0
  0
CLASS
  1
VISUALSTYLE
  2
AcDbVisualStyle
  3
ObjectDBX Classes
 90
     4095
280
     0
281
     0
  0
CLASS
  1
MATERIAL
  2
AcDbMaterial
  3
ObjectDBX Classes
 90
     1153
280
     0
281
     0
  0
CLASS
  1
ACDBPLACEHOLDER
  2
AcDbPlaceHolder
  3
ObjectDBX Classes
 90
        0
280
     0
281
     0
  0
CLASS
  1
LAYOUT
  2
AcDbLayout
  3
ObjectDBX Classes
 90
        0
280
     0
281
     0
  0
ENDSEC
  0
SECTION
  2
TABLES
  0
TABLE
  2
VPORT
  5
8
330
0
100
AcDbSymbolTable
 70
     1
  0
VPORT
  5
29
330
8
100
AcDbSymbolTableRecord
100
AcDbViewportTableRecord
  2
*Active
 70
     0
 10
0.0
 20
0.0
 11
1.0
 21
1.0
 12
148.5
 22
105.0
 13
0.0
 23
0.0
 14
10.0
 24
10.0
 15
10.0
 25
10.0
 16
0.0
 26
0.0
 36
1.0
 17
0.0
 27
0.0
 37
0.0
 40
210.0
 41
1.4142857143
 42
50.0
 43
0.0
 44
0.0
 50
0.0
 51
0.0
 71
     0
 72
  2000
 73
     1
 74
     3
 75
     0
 76
     0
 77
     0
 78
     0
281
     0
 65
     1
110
0.0
120
0.0
130
0.0
111
1.0
121
0.0
131
0.0
112
0.0
122
1.0
132
0.0
 79
     0
146
0.0
  0
ENDTAB
  0
TABLE
  2
LTYPE
  5
5
330
0
100
AcDbSymbolTable
 70
     8
  0
LTYPE
  5
14
330
5
100
AcDbSymbolTableRecord
100
AcDbLinetypeTableRecord
  2
ByBlock
 70
     0
  3

 72
    65
 73
     0
 40
0.0
  0
LTYPE
  5
15
330
5
100
AcDbSymbolTableRecord
100
AcDbLinetypeTableRecord
  2
ByLayer
 70
     0
  3

 72
    65
 73
     0
 40
0.0
  0
LTYPE
  5
16
330
5
100
AcDbSymbolTableRecord
100
AcDbLinetypeTableRecord
  2
Continuous
 70
     0
  3
Solid line
 72
    65
 73
     0
 40
0.0
  0
LTYPE
  5
3F
330
5
100
AcDbSymbolTableRecord
100
AcDbLinetypeTableRecord
  2
SLD-Durchgehend
 70
     0
  3
SolidWorks Line Style
 72
    65
 73
     0
 40
0.0
  0
LTYPE
  5
40
330
5
100
AcDbSymbolTableRecord
100
AcDbLinetypeTableRecord
  2
SLD-Gestrichelt
 70
     0
  3
SolidWorks Line Style
 72
    65
 73
     2
 40
1.905
 49
1.27
 74
     0
 49
-0.635
 74
     0
  0
LTYPE
  5
41
330
5
100
AcDbSymbolTableRecord
100
AcDbLinetypeTableRecord
  2
SLD-Phantom
 70
     0
  3
SolidWorks Line Style
 72
    65
 73
     6
 40
12.7
 49
6.35
 74
     0
 49
-1.27
 74
     0
 49
1.27
 74
     0
 49
-1.27
 74
     0
 49
1.27
 74
     0
 49
-1.27
 74
     0
  0
LTYPE
  5
42
330
5
100
AcDbSymbolTableRecord
100
AcDbLinetypeTableRecord
  2
SLD-Kette
 70
     0
  3
SolidWorks Line Style
 72
    65
 73
     4
 40
10.16
 49
6.35
 74
     0
 49
-1.27
 74
     0
 49
1.27
 74
     0
 49
-1.27
 74
     0
  0
LTYPE
  5
43
330
5
100
AcDbSymbolTableRecord
100
AcDbLinetypeTableRecord
  2
SLD-Punktstrich
 70
     0
  3
SolidWorks Line Style
 72
    65
 73
     4
 40
19.05
 49
15.24
 74
     0
 49
-1.27
 74
     0
 49
1.27
 74
     0
 49
-1.27
 74
     0
  0
LTYPE
  5
44
330
5
100
AcDbSymbolTableRecord
100
AcDbLinetypeTableRecord
  2
SLD-Naht
 70
     0
  3
SolidWorks Line Style
 72
    65
 73
     2
 40
0.635
 49
0.0
 74
     0
 49
-0.635
 74
     0
  0
LTYPE
  5
45
330
5
100
AcDbSymbolTableRecord
100
AcDbLinetypeTableRecord
  2
SLD-Dicke-Dünne-Kette
 70
     0
  3
SolidWorks Line Style
 72
    65
 73
     4
 40
10.16
 49
6.35
 74
     0
 49
-1.27
 74
     0
 49
1.27
 74
     0
 49
-1.27
 74
     0
  0
ENDTAB
  0
TABLE
  2
LAYER
  5
2
330
0
100
AcDbSymbolTable
 70
     5
  0
LAYER
  5
10
330
2
100
AcDbSymbolTableRecord
100
AcDbLayerTableRecord
  2
0
 70
     0
 62
     7
  6
Continuous
370
    -3
390
F
  0
LAYER
  5
46
330
2
100
AcDbSymbolTableRecord
100
AcDbLayerTableRecord
  2
FORMAT
 70
     0
 62
     7
  6
SLD-Durchgehend
370
    -3
390
F
  0
LAYER
  5
47
330
2
100
AcDbSymbolTableRecord
100
AcDbLayerTableRecord
  2
VERMASSUNG
 70
     0
 62
     7
  6
SLD-Durchgehend
370
    -3
390
F
  0
LAYER
  5
48
330
2
100
AcDbSymbolTableRecord
100
AcDbLayerTableRecord
  2
KOPF_DÜNN
 70
     0
 62
     7
  6
SLD-Durchgehend
370
    -3
390
F
  0
LAYER
  5
49
330
2
100
AcDbSymbolTableRecord
100
AcDbLayerTableRecord
  2
KOPF_DICK
 70
     0
 62
     7
  6
SLD-Durchgehend
370
    15
390
F
  0
ENDTAB
  0
TABLE
  2
STYLE
  5
3
330
0
100
AcDbSymbolTable
 70
     2
  0
STYLE
  5
11
330
3
100
AcDbSymbolTableRecord
100
AcDbTextStyleTableRecord
  2
STANDARD
 70
     0
 40
0.0
 41
1.0
 50
0.0
 71
     0
 42
2.0
  3
ISOCPEUR.TTF
  4

1001
ACAD
1000
ISOCPEUR
1071
       34
  0
STYLE
  5
4A
330
3
100
AcDbSymbolTableRecord
100
AcDbTextStyleTableRecord
  2
SLDTEXTSTYLE0
 70
     0
 40
0.0
 41
1.0
 50
0.0
 71
     0
 42
0.2
  3
ISOCPEUR.TTF
  4

1001
ACAD
1000
ISOCPEUR
1071
      290
  0
ENDTAB
  0
TABLE
  2
VIEW
  5
6
330
0
100
AcDbSymbolTable
 70
     0
  0
ENDTAB
  0
TABLE
  2
UCS
  5
7
330
0
100
AcDbSymbolTable
 70
     0
  0
ENDTAB
  0
TABLE
  2
APPID
  5
9
330
0
100
AcDbSymbolTable
 70
     1
  0
APPID
  5
12
330
9
100
AcDbSymbolTableRecord
100
AcDbRegAppTableRecord
  2
ACAD
 70
     0
  0
ENDTAB
  0
TABLE
  2
DIMSTYLE
  5
A
330
0
100
AcDbSymbolTable
 70
     3
100
AcDbDimStyleTable
  0
DIMSTYLE
105
27
330
A
100
AcDbSymbolTableRecord
100
AcDbDimStyleTableRecord
  2
ISO-25
 70
     0
 41
2.5
 42
0.625
 43
3.75
 44
1.25
 73
     0
 74
     0
 77
     1
 78
     8
140
2.5
141
2.5
143
0.0393700787
147
0.625
171
     3
172
     1
178
     0
271
     2
272
     2
274
     3
278
    44
283
     0
284
     8
340
11
  0
DIMSTYLE
105
225
102
{ACAD_REACTORS
330
224
330
22F
330
242
330
24C
330
2C9
102
}
330
A
100
AcDbSymbolTableRecord
100
AcDbDimStyleTableRecord
  2
SLDDIMSTYLE0
 70
     0
 41
3.0
 44
0.0
 45
0.000000001
 73
     0
 74
     0
 77
     1
 78
    12
 79
     3
140
2.0
147
0.5
173
     1
178
     0
271
     2
272
     3
276
     2
284
    12
340
4A
  0
DIMSTYLE
105
23A
102
{ACAD_REACTORS
330
239
102
}
330
A
100
AcDbSymbolTableRecord
100
AcDbDimStyleTableRecord
  2
SLDDIMSTYLE1
 70
     0
 41
3.0
 44
0.0
 73
     0
 74
     0
 77
     1
 78
    12
 79
     3
140
2.0
147
0.5
173
     1
178
     0
179
     2
272
     3
276
     2
284
    12
340
4A
  0
ENDTAB
  0
TABLE
  2
BLOCK_RECORD
  5
1
330
0
100
AcDbSymbolTable
 70
     8
  0
BLOCK_RECORD
  5
1F
330
1
100
AcDbSymbolTableRecord
100
AcDbBlockTableRecord
  2
*Model_Space
340
22
  0
BLOCK_RECORD
  5
1B
330
1
100
AcDbSymbolTableRecord
100
AcDbBlockTableRecord
  2
*Paper_Space
340
1E
  0
BLOCK_RECORD
  5
23
330
1
100
AcDbSymbolTableRecord
100
AcDbBlockTableRecord
  2
*Paper_Space0
340
26
  0
BLOCK_RECORD
  5
226
330
1
100
AcDbSymbolTableRecord
100
AcDbBlockTableRecord
  2
_D
340
0
  0
BLOCK_RECORD
  5
230
330
1
100
AcDbSymbolTableRecord
100
AcDbBlockTableRecord
  2
_D_1
340
0
  0
BLOCK_RECORD
  5
23B
330
1
100
AcDbSymbolTableRecord
100
AcDbBlockTableRecord
  2
_D_2
340
0
  0
BLOCK_RECORD
  5
243
330
1
100
AcDbSymbolTableRecord
100
AcDbBlockTableRecord
  2
_D_3
340
0
  0
BLOCK_RECORD
  5
24D
330
1
100
AcDbSymbolTableRecord
100
AcDbBlockTableRecord
  2
_D_4
340
0
  0
BLOCK_RECORD
  5
2CA
330
1
100
AcDbSymbolTableRecord
100
AcDbBlockTableRecord
  2
_D_5
340
0
  0
BLOCK_RECORD
  5
2D4
330
1
100
AcDbSymbolTableRecord
100
AcDbBlockTableRecord
  2
SW_CENTERMARKSYMBOL_0
340
0
102
{BLKREFS
331
2DF
102
}
  0
ENDTAB
  0
ENDSEC
  0
SECTION
  2
BLOCKS
  0
BLOCK
  5
20
330
1F
100
AcDbEntity
  8
0
100
AcDbBlockBegin
  2
*Model_Space
 70
     0
 10
0.0
 20
0.0
 30
0.0
  3
*Model_Space
  1

  0
ENDBLK
  5
21
330
1F
100
AcDbEntity
  8
0
100
AcDbBlockEnd
  0
BLOCK
  5
1C
330
1B
100
AcDbEntity
 67
     1
  8
0
100
AcDbBlockBegin
  2
*Paper_Space
 70
     0
 10
0.0
 20
0.0
 30
0.0
  3
*Paper_Space
  1

  0
ENDBLK
  5
1D
330
1B
100
AcDbEntity
 67
     1
  8
0
100
AcDbBlockEnd
  0
BLOCK
  5
24
330
23
100
AcDbEntity
  8
0
100
AcDbBlockBegin
  2
*Paper_Space0
 70
     0
 10
0.0
 20
0.0
 30
0.0
  3
*Paper_Space0
  1

  0
ENDBLK
  5
25
330
23
100
AcDbEntity
  8
0
100
AcDbBlockEnd
  0
BLOCK
  5
227
330
226
100
AcDbEntity
  8
0
100
AcDbBlockBegin
  2
_D
 70
     0
 10
0.0
 20
0.0
 30
0.0
  3
_D
  1

  0
SOLID
  5
229
330
226
100
AcDbEntity
  8
VERMASSUNG
100
AcDbTrace
 10
156.5341038773
 20
142.6877118984
 30
0.0
 11
159.5341038773
 21
142.2377118984
 31
0.0
 12
159.5341038773
 22
143.1377118984
 32
0.0
 13
159.5341038773
 23
143.1377118984
 33
0.0
  0
SOLID
  5
22A
330
226
100
AcDbEntity
  8
VERMASSUNG
100
AcDbTrace
 10
231.4341038773
 20
142.6877118984
 30
0.0
 11
228.4341038773
 21
143.1377118984
 31
0.0
 12
228.4341038773
 22
142.2377118984
 32
0.0
 13
228.4341038773
 23
142.2377118984
 33
0.0
  0
LINE
  5
22B
330
226
100
AcDbEntity
  8
VERMASSUNG
100
AcDbLine
 10
156.5341038773
 20
124.6177118984
 30
0.0
 11
156.5341038773
 21
143.6877118984
 31
0.0
  0
LINE
  5
22C
330
226
100
AcDbEntity
  8
VERMASSUNG
100
AcDbLine
 10
231.4341038773
 20
85.6877118984
 30
0.0
 11
231.4341038773
 21
143.6877118984
 31
0.0
  0
LINE
  5
22D
330
226
100
AcDbEntity
  8
VERMASSUNG
100
AcDbLine
 10
156.5341038773
 20
142.6877118984
 30
0.0
 11
231.4341038773
 21
142.6877118984
 31
0.0
  0
MTEXT
  5
22E
330
226
100
AcDbEntity
  8
VERMASSUNG
100
AcDbMText
 10
191.485024377
 20
145.287711782
 30
0.0
 40
2.0
 41
0.0
 71
     1
 72
     1
  1
74.9
  7
SLDTEXTSTYLE0
 73
     1
 44
1.0
  0
ENDBLK
  5
228
330
226
100
AcDbEntity
  8
0
100
AcDbBlockEnd
  0
BLOCK
  5
231
330
230
100
AcDbEntity
  8
0
100
AcDbBlockBegin
  2
_D_1
 70
     0
 10
0.0
 20
0.0
 30
0.0
  3
_D_1
  1

  0
SOLID
  5
233
330
230
100
AcDbEntity
  8
VERMASSUNG
100
AcDbTrace
 10
176.4341038773
 20
136.6877118984
 30
0.0
 11
179.4341038773
 21
136.2377118984
 31
0.0
 12
179.4341038773
 22
137.1377118984
 32
0.0
 13
179.4341038773
 23
137.1377118984
 33
0.0
  0
SOLID
  5
234
330
230
100
AcDbEntity
  8
VERMASSUNG
100
AcDbTrace
 10
231.4341038773
 20
136.6877118984
 30
0.0
 11
228.4341038773
 21
137.1377118984
 31
0.0
 12
228.4341038773
 22
136.2377118984
 32
0.0
 13
228.4341038773
 23
136.2377118984
 33
0.0
  0
LINE
  5
235
330
230
100
AcDbEntity
  8
VERMASSUNG
100
AcDbLine
 10
176.4341038773
 20
132.3877118984
 30
0.0
 11
176.4341038773
 21
137.6877118984
 31
0.0
  0
LINE
  5
236
330
230
100
AcDbEntity
  8
VERMASSUNG
100
AcDbLine
 10
231.4341038773
 20
85.6877118984
 30
0.0
 11
231.4341038773
 21
137.6877118984
 31
0.0
  0
LINE
  5
237
330
230
100
AcDbEntity
  8
VERMASSUNG
100
AcDbLine
 10
176.4341038773
 20
136.6877118984
 30
0.0
 11
231.4341038773
 21
136.6877118984
 31
0.0
  0
MTEXT
  5
238
330
230
100
AcDbEntity
  8
VERMASSUNG
100
AcDbMText
 10
202.5345643114
 20
139.287711782
 30
0.0
 40
2.0
 41
0.0
 71
     1
 72
     1
  1
55
  7
SLDTEXTSTYLE0
 73
     1
 44
1.0
  0
ENDBLK
  5
232
330
230
100
AcDbEntity
  8
0
100
AcDbBlockEnd
  0
BLOCK
  5
23C
330
23B
100
AcDbEntity
  8
0
100
AcDbBlockBegin
  2
_D_2
 70
     0
 10
0.0
 20
0.0
 30
0.0
  3
_D_2
  1

  0
ARC
  5
23E
330
23B
100
AcDbEntity
  8
VERMASSUNG
100
AcDbCircle
 10
231.4341038773
 20
85.6509070373
 30
0.0
 40
22.00032491310536
100
AcDbArc
 50
90.0
 51
117.3589083597
  0
SOLID
  5
23F
330
23B
100
AcDbEntity
  8
VERMASSUNG
100
AcDbTrace
 10
231.4341038773
 20
107.6512319504
 30
0.0
 11
228.4105189921
 21
107.8970661252
 31
0.0
 12
228.4714589113
 22
106.9991316475
 32
0.0
 13
228.4714589113
 23
106.9991316475
 33
0.0
  0
SOLID
  5
240
330
23B
100
AcDbEntity
  8
VERMASSUNG
100
AcDbTrace
 10
221.3235698985
 20
105.190390115
 30
0.0
 11
224.2545099508
 21
105.9727521861
 31
0.0
 12
223.8959760401
 22
106.7982541152
 32
0.0
 13
223.8959760401
 23
106.7982541152
 33
0.0
  0
MTEXT
  5
241
330
23B
100
AcDbEntity
  8
VERMASSUNG
100
AcDbMText
 10
222.7014810616
 20
108.843950321
 30
0.0
 40
2.0
 41
0.0
 71
     1
 72
     1
  1
27.5°
  7
SLDTEXTSTYLE0
 11
0.9716339858447824
 21
0.2364897409009134
 31
0.0
 73
     1
 44
1.0
  0
ENDBLK
  5
23D
330
23B
100
AcDbEntity
  8
0
100
AcDbBlockEnd
  0
BLOCK
  5
244
330
243
100
AcDbEntity
  8
0
100
AcDbBlockBegin
  2
_D_3
 70
     0
 10
0.0
 20
0.0
 30
0.0
  3
_D_3
  1

  0
SOLID
  5
246
330
243
100
AcDbEntity
  8
VERMASSUNG
100
AcDbTrace
 10
238.0833021018
 20
112.6877118984
 30
0.0
 11
237.6333021018
 21
109.6877118984
 31
0.0
 12
238.5333021018
 22
109.6877118984
 32
0.0
 13
238.5333021018
 23
109.6877118984
 33
0.0
  0
SOLID
  5
247
330
243
100
AcDbEntity
  8
VERMASSUNG
100
AcDbTrace
 10
238.0833021018
 20
85.6877118984
 30
0.0
 11
238.5333021018
 21
88.6877118984
 31
0.0
 12
237.6333021018
 22
88.6877118984
 32
0.0
 13
237.6333021018
 23
88.6877118984
 33
0.0
  0
LINE
  5
248
330
243
100
AcDbEntity
  8
VERMASSUNG
100
AcDbLine
 10
231.4341038773
 20
112.6877118984
 30
0.0
 11
239.0833021018
 21
112.6877118984
 31
0.0
  0
LINE
  5
249
330
243
100
AcDbEntity
  8
VERMASSUNG
100
AcDbLine
 10
231.4341038773
 20
85.6877118984
 30
0.0
 11
239.0833021018
 21
85.6877118984
 31
0.0
  0
LINE
  5
24A
330
243
100
AcDbEntity
  8
VERMASSUNG
100
AcDbLine
 10
238.0833021018
 20
112.6877118984
 30
0.0
 11
238.0833021018
 21
85.6877118984
 31
0.0
  0
MTEXT
  5
24B
330
243
100
AcDbEntity
  8
VERMASSUNG
100
AcDbMText
 10
235.4833022182
 20
97.7881723324
 30
0.0
 40
2.0
 41
0.0
 71
     1
 72
     1
  1
27
  7
SLDTEXTSTYLE0
 11
-7.044195017643634E-15
 21
1.0
 31
0.0
 73
     1
 44
1.0
  0
ENDBLK
  5
245
330
243
100
AcDbEntity
  8
0
100
AcDbBlockEnd
  0
BLOCK
  5
24E
330
24D
100
AcDbEntity
  8
0
100
AcDbBlockBegin
  2
_D_4
 70
     0
 10
0.0
 20
0.0
 30
0.0
  3
_D_4
  1

  0
SOLID
  5
250
330
24D
100
AcDbEntity
  8
VERMASSUNG
100
AcDbTrace
 10
152.9150287813
 20
132.6877118984
 30
0.0
 11
152.4650287813
 21
129.6877118984
 31
0.0
 12
153.3650287813
 22
129.6877118984
 32
0.0
 13
153.3650287813
 23
129.6877118984
 33
0.0
  0
SOLID
  5
251
330
24D
100
AcDbEntity
  8
VERMASSUNG
100
AcDbTrace
 10
152.9150287813
 20
92.6877118984
 30
0.0
 11
153.3650287813
 21
95.6877118984
 31
0.0
 12
152.4650287813
 22
95.6877118984
 32
0.0
 13
152.4650287813
 23
95.6877118984
 33
0.0
  0
LINE
  5
252
330
24D
100
AcDbEntity
  8
VERMASSUNG
100
AcDbLine
 10
176.7341038773
 20
132.6877118984
 30
0.0
 11
151.9150287813
 21
132.6877118984
 31
0.0
  0
LINE
  5
253
330
24D
100
AcDbEntity
  8
VERMASSUNG
100
AcDbLine
 10
176.7341038773
 20
92.6877118984
 30
0.0
 11
151.9150287813
 21
92.6877118984
 31
0.0
  0
LINE
  5
254
330
24D
100
AcDbEntity
  8
VERMASSUNG
100
AcDbLine
 10
152.9150287813
 20
132.6877118984
 30
0.0
 11
152.9150287813
 21
92.6877118984
 31
0.0
  0
MTEXT
  5
255
330
24D
100
AcDbEntity
  8
VERMASSUNG
100
AcDbMText
 10
150.1150287718
 20
106.3835911985
 30
0.0
 40
2.0
 41
0.0
 71
     1
 72
     1
  1
HSK 
  7
SLDTEXTSTYLE0
 11
-7.044195017643634E-15
 21
1.0
 31
0.0
 73
     1
 44
1.0
  0
MTEXT
  5
256
330
24D
100
AcDbEntity
  8
VERMASSUNG
100
AcDbMText
 10
150.3150287813
 20
112.3835912507
 30
0.0
 40
2.0
 41
0.0
 71
     1
 72
     1
  1
%%c
  7
SLDTEXTSTYLE0
 11
-7.044195017643634E-15
 21
1.0
 31
0.0
 73
     1
 44
1.0
  0
MTEXT
  5
257
330
24D
100
AcDbEntity
  8
VERMASSUNG
100
AcDbMText
 10
150.3150288977
 20
115.9918362818
 30
0.0
 40
2.0
 41
0.0
 71
     1
 72
     1
  1
40
  7
SLDTEXTSTYLE0
 11
-7.044195017643634E-15
 21
1.0
 31
0.0
 73
     1
 44
1.0
  0
ENDBLK
  5
24F
330
24D
100
AcDbEntity
  8
0
100
AcDbBlockEnd
  0
BLOCK
  5
2CB
330
2CA
100
AcDbEntity
  8
0
100
AcDbBlockBegin
  2
_D_5
 70
     0
 10
0.0
 20
0.0
 30
0.0
  3
_D_5
  1

  0
SOLID
  5
2CD
330
2CA
100
AcDbEntity
  8
VERMASSUNG
100
AcDbTrace
 10
60.9462791951
 20
85.7106686292
 30
0.0
 11
61.3962791951
 21
88.7106686292
 31
0.0
 12
60.4962791951
 22
88.7106686292
 32
0.0
 13
60.4962791951
 23
88.7106686292
 33
0.0
  0
SOLID
  5
2CE
330
2CA
100
AcDbEntity
  8
VERMASSUNG
100
AcDbTrace
 10
60.9462791951
 20
135.7106686292
 30
0.0
 11
60.4962791951
 21
132.7106686292
 31
0.0
 12
61.3962791951
 22
132.7106686292
 32
0.0
 13
61.3962791951
 23
132.7106686292
 33
0.0
  0
LINE
  5
2CF
330
2CA
100
AcDbEntity
  8
VERMASSUNG
100
AcDbLine
 10
89.5774665892
 20
85.7106686292
 30
0.0
 11
59.9462791951
 21
85.7106686292
 31
0.0
  0
LINE
  5
2D0
330
2CA
100
AcDbEntity
  8
VERMASSUNG
100
AcDbLine
 10
89.5774665892
 20
135.7106686292
 30
0.0
 11
59.9462791951
 21
135.7106686292
 31
0.0
  0
LINE
  5
2D1
330
2CA
100
AcDbEntity
  8
VERMASSUNG
100
AcDbLine
 10
60.9462791951
 20
85.7106686292
 30
0.0
 11
60.9462791951
 21
135.7106686292
 31
0.0
  0
MTEXT
  5
2D2
330
2CA
100
AcDbEntity
  8
VERMASSUNG
100
AcDbMText
 10
58.3462791951
 20
107.5070028381
 30
0.0
 40
2.0
 41
0.0
 71
     1
 72
     1
  1
%%c
  7
SLDTEXTSTYLE0
 11
6.123233995736766E-17
 21
1.0
 31
0.0
 73
     1
 44
1.0
  0
MTEXT
  5
2D3
330
2CA
100
AcDbEntity
  8
VERMASSUNG
100
AcDbMText
 10
58.3462793115
 20
111.1152552884
 30
0.0
 40
2.0
 41
0.0
 71
     1
 72
     1
  1
50
  7
SLDTEXTSTYLE0
 11
6.123233995736766E-17
 21
1.0
 31
0.0
 73
     1
 44
1.0
  0
ENDBLK
  5
2CC
330
2CA
100
AcDbEntity
  8
0
100
AcDbBlockEnd
  0
BLOCK
  5
2D5
330
2D4
100
AcDbEntity
  8
0
100
AcDbBlockBegin
  2
SW_CENTERMARKSYMBOL_0
 70
     0
 10
0.0
 20
0.0
 30
0.0
  3
SW_CENTERMARKSYMBOL_0
  1

  0
LINE
  5
2D7
330
2D4
100
AcDbEntity
  8
VERMASSUNG
 62
     0
100
AcDbLine
 10
0.0
 20
0.0
 30
0.0
 11
0.0
 21
2.5
 31
0.0
  0
LINE
  5
2D8
330
2D4
100
AcDbEntity
  8
VERMASSUNG
 62
     0
100
AcDbLine
 10
0.0
 20
0.0
 30
0.0
 11
-2.5
 21
0.0
 31
0.0
  0
LINE
  5
2D9
330
2D4
100
AcDbEntity
  8
VERMASSUNG
 62
     0
100
AcDbLine
 10
0.0
 20
0.0
 30
0.0
 11
0.0
 21
-2.5
 31
0.0
  0
LINE
  5
2DA
330
2D4
100
AcDbEntity
  8
VERMASSUNG
 62
     0
100
AcDbLine
 10
0.0
 20
0.0
 30
0.0
 11
2.5
 21
0.0
 31
0.0
  0
LINE
  5
2DB
330
2D4
100
AcDbEntity
  8
VERMASSUNG
 62
     0
100
AcDbLine
 10
0.0
 20
5.0
 30
0.0
 11
0.0
 21
22.5
 31
0.0
  0
LINE
  5
2DC
330
2D4
100
AcDbEntity
  8
VERMASSUNG
 62
     0
100
AcDbLine
 10
-5.0
 20
0.0
 30
0.0
 11
-22.5
 21
0.0
 31
0.0
  0
LINE
  5
2DD
330
2D4
100
AcDbEntity
  8
VERMASSUNG
 62
     0
100
AcDbLine
 10
0.0
 20
-5.0
 30
0.0
 11
0.0
 21
-29.7137184272
 31
0.0
  0
LINE
  5
2DE
330
2D4
100
AcDbEntity
  8
VERMASSUNG
 62
     0
100
AcDbLine
 10
5.0
 20
0.0
 30
0.0
 11
22.5
 21
0.0
 31
0.0
  0
ENDBLK
  5
2D6
330
2D4
100
AcDbEntity
  8
0
100
AcDbBlockEnd
  0
ENDSEC
  0
SECTION
  2
ENTITIES
  0
MTEXT
  5
4B
330
1F
100
AcDbEntity
  8
KOPF_DÜNN
100
AcDbMText
 10
13.8892156294
 20
23.8770940835
 30
0.0
 40
3.0
 41
0.0
 71
     1
 72
     1
  1
HA4.KVB.LPA.055
  7
SLDTEXTSTYLE0
 73
     1
 44
1.0
  0
MTEXT
  5
4C
330
1F
100
AcDbEntity
  8
VERMASSUNG
100
AcDbMText
 10
13.9329988022
 20
28.9162328764
 30
0.0
 40
3.0
 41
0.0
 71
     1
 72
     1
  1
Klemmhalter links_Turning tool left 117.5° /35° /117.5°
  7
SLDTEXTSTYLE0
 73
     1
 44
1.0
  0
MTEXT
  5
4D
330
1F
100
AcDbEntity
  8
VERMASSUNG
100
AcDbMText
 10
98.8601118557
 20
13.8584013384
 30
0.0
 40
2.0
 41
0.0
 71
     1
 72
     1
  1
Datum: 25.11.2008
  7
SLDTEXTSTYLE0
 73
     1
 44
1.0
  0
MTEXT
  5
4E
330
1F
100
AcDbEntity
  8
VERMASSUNG
100
AcDbMText
 10
13.933048693
 20
18.0701447943
 30
0.0
 40
2.0
 41
0.0
 71
     1
 72
     1
  1
DIN 69893 HSK 40 A ICTM / VC.. 16 04..
  7
SLDTEXTSTYLE0
 73
     1
 44
1.0
  0
MTEXT
  5
4F
330
1F
100
AcDbEntity
  8
VERMASSUNG
100
AcDbMText
 10
13.9808475933
 20
13.9309618897
 30
0.0
 40
2.0
 41
0.0
 71
     1
 72
     1
  1
Gewicht: 298g
  7
SLDTEXTSTYLE0
 73
     1
 44
1.0
  0
LINE
  5
50
330
1F
100
AcDbEntity
  8
0
  6
SLD-Durchgehend
 62
     7
370
    15
100
AcDbLine
 10
176.7341038916
 20
92.6877123454
 30
0.0
 11
184.3841043423
 21
92.6877123454
 31
0.0
  0
LINE
  5
51
330
1F
100
AcDbEntity
  8
0
  6
SLD-Durchgehend
 62
     7
370
    15
100
AcDbLine
 10
184.3996313522
 20
132.6877114514
 30
0.0
 11
176.7341038916
 21
132.6877114514
 31
0.0
  0
ARC
  5
52
330
1F
100
AcDbEntity
  8
0
  6
SLD-Durchgehend
 62
     7
370
    15
100
AcDbCircle
 10
176.7341038773
 20
92.9877118984
 30
0.0
 40
0.3000000000000114
100
AcDbArc
 50
180.0
 51
270.0
  0
ARC
  5
53
330
1F
100
AcDbEntity
  8
0
  6
SLD-Durchgehend
 62
     7
370
    15
100
AcDbCircle
 10
176.7341038773
 20
132.3877118984
 30
0.0
 40
0.3000000000000114
100
AcDbArc
 50
90.0
 51
180.0
  0
ARC
  5
54
330
1F
100
AcDbEntity
  8
0
  6
SLD-Durchgehend
 62
     7
370
    15
100
AcDbCircle
 10
197.3841038773
 20
95.1877118984
 30
0.0
 40
1.0
100
AcDbArc
 50
90.0
 51
143.1137328946
  0
ARC
  5
55
330
1F
100
AcDbEntity
  8
0
  6
SLD-Durchgehend
 62
     7
370
    15
100
AcDbCircle
 10
197.3841038773
 20
130.1877118984
 30
0.0
 40
1.000000000000006
100
AcDbArc
 50
216.8998129703
 51
270.0
  0
LINE
  5
56
330
1F
100
AcDbEntity
  8
0
  6
SLD-Durchgehend
 62
     7
370
    15
100
AcDbLine
 10
197.3841046105
 20
96.1877119878
 30
0.0
 11
210.6667761812
 21
96.1877119878
 31
0.0
  0
LINE
  5
57
330
1F
100
AcDbEntity
  8
0
  6
SLD-Durchgehend
 62
     7
370
    15
100
AcDbLine
 10
208.1583333323
 20
129.187711809
 30
0.0
 11
197.3841046105
 21
129.187711809
 31
0.0
  0
ARC
  5
58
330
1F
100
AcDbEntity
  8
0
  6
SLD-Durchgehend
 62
     7
370
    15
100
AcDbCircle
 10
175.9340971247
 20
97.2340047449
 30
0.0
 40
0.6000067526677045
100
AcDbArc
 50
33.5571153394
 51
90.0
  0
ARC
  5
59
330
1F
100
AcDbEntity
  8
0
  6
SLD-Durchgehend
 62
     7
370
    15
100
AcDbCircle
 10
175.9340971247
 20
128.1414190519
 30
0.0
 40
0.6000067526677045
100
AcDbArc
 50
270.0
 51
326.4428846606
  0
LINE
  5
5A
330
1F
100
AcDbEntity
  8
0
  6
SLD-Durchgehend
 62
     7
370
    15
100
AcDbLine
 10
174.4341037823
 20
97.5840113276
 30
0.0
 11
175.2908157772
 21
97.8135665098
 31
0.0
  0
LINE
  5
5B
330
1F
100
AcDbEntity
  8
0
  6
SLD-Durchgehend
 62
     7
370
    15
100
AcDbLine
 10
175.2908157772
 20
127.561857287
 30
0.0
 11
174.4341037823
 21
127.7914124692
 31
0.0
  0
LINE
  5
5C
330
1F
100
AcDbEntity
  8
0
  6
SLD-Durchgehend
 62
     7
370
    15
100
AcDbLine
 10
167.6181708584
 20
127.4499328026
 30
0.0
 11
160.134103627
 21
127.0749795401
 31
0.0
  0
LINE
  5
5D
330
1F
100
AcDbEntity
  8
0
  6
SLD-Durchgehend
 62
     7
370
    15
100
AcDbLine
 10
174.4341037823
 20
127.7914124692
 30
0.0
 11
173.1993712141
 21
127.7295521611
 31
0.0
  0
LINE
  5
5E
330
1F
100
AcDbEntity
  8
0
  6
SLD-Durchgehend
 62
     7
370
    15
100
AcDbLine
 10
173.2003672636
 20
97.6458222756
 30
0.0
 11
174.4341037823
 21
97.5840113276
 31
0.0
  0
LINE
  5
5F
330
1F
100
AcDbEntity
  8
0
  6
SLD-Durchgehend
 62
     7
370
    15
100
AcDbLine
 10
162.6341040368
 20
98.1751934776
 30
0.0
 11
167.6186337257
 21
97.9254677111
 31
0.0
  0
ARC
  5
60
330
1F
100
AcDbEntity
  8
0
  6
SLD-Durchgehend
 62
     7
370
    15
100
AcDbCircle
 10
175.4461089668
 20
97.2340047449
 30
0.0
 40
0.6000067526677096
100
AcDbArc
 50
90.0
 51
105.0
  0
ARC
  5
61
330
1F
100
AcDbEntity
  8
0
  6
SLD-Durchgehend
 62
     7
370
    15
100
AcDbCircle
 10
175.4461089668
 20
128.1414190519
 30
0.0
 40
0.6000067526677096
100
AcDbArc
 50
255.0
 51
270.0
  0
LINE
  5
62
330
1F
100
AcDbEntity
  8
0
  6
SLD-Durchgehend
 62
     7
370
    15
100
AcDbLine
 10
175.4461089271
 20
97.8340118343
 30
0.0
 11
175.9340971015
 21
97.8340118343
 31
0.0
  0
LINE
  5
63
330
1F
100
AcDbEntity
  8
0
  6
SLD-Durchgehend
 62
     7
370
    15
100
AcDbLine
 10
175.9340971015
 20
127.5414119625
 30
0.0
 11
175.4461089271
 21
127.5414119625
 31
0.0
  0
ARC
  5
64
330
1F
100
AcDbEntity
  8
0
  6
SLD-Durchgehend
 62
     7
370
    15
100
AcDbCircle
 10
159.2341038773
 20
126.4677118984
 30
0.0
 40
0.9000000000000071
100
AcDbArc
 50
270.0
 51
311.1792132369
  0
ARC
  5
65
330
1F
100
AcDbEntity
  8
0
  6
SLD-Durchgehend
 62
     7
370
    15
100
AcDbCircle
 10
161.7341038773
 20
98.9667118984
 30
0.0
 40
0.9000000000000061
100
AcDbArc
 50
29.8499024808
 51
90.0
  0
LINE
  5
66
330
1F
100
AcDbEntity
  8
0
  6
SLD-Durchgehend
 62
     7
370
    15
100
AcDbLine
 10
157.484103472
 20
125.5677121842
 30
0.0
 11
156.5341041545
 21
124.6177119353
 31
0.0
  0
LINE
  5
67
330
1F
100
AcDbEntity
  8
0
  6
SLD-Durchgehend
 62
     7
370
    15
100
AcDbLine
 10
159.2341032932
 20
125.5677121842
 30
0.0
 11
157.484103472
 21
125.5677121842
 31
0.0
  0
LINE
  5
68
330
1F
100
AcDbEntity
  8
0
  6
SLD-Durchgehend
 62
     7
370
    15
100
AcDbLine
 10
157.484103472
 20
99.866711829
 30
0.0
 11
161.734103703
 21
99.866711829
 31
0.0
  0
LINE
  5
69
330
1F
100
AcDbEntity
  8
0
  6
SLD-Durchgehend
 62
     7
370
    15
100
AcDbLine
 10
156.5341041545
 20
100.8167120779
 30
0.0
 11
157.484103472
 21
99.866711829
 31
0.0
  0
ARC
  5
6A
330
1F
100
AcDbEntity
  8
0
  6
SLD-Durchgehend
 62
     7
370
    15
100
AcDbCircle
 10
210.6667768894
 20
95.1877118984
 30
0.0
 40
1.0
100
AcDbArc
 50
15.0
 51
90.0
  0
LINE
  5
6B
330
1F
100
AcDbEntity
  8
0
  6
SLD-Durchgehend
 62
     7
370
    15
100
AcDbLine
 10
211.6327029774
 20
95.4465300927
 30
0.0
 11
211.6708089719
 21
95.3043096849
 31
0.0
  0
LINE
  5
6C
330
1F
100
AcDbEntity
  8
0
  6
SLD-Durchgehend
 62
     7
370
    15
100
AcDbLine
 10
219.4103417108
 20
96.4398452231
 30
0.0
 11
219.316665561
 21
96.5332941303
 31
0.0
  0
LINE
  5
6D
330
1F
100
AcDbEntity
  8
0
  6
SLD-Durchgehend
 62
     7
370
    15
100
AcDbLine
 10
220.8077837835
 20
97.7698260137
 30
0.0
 11
220.9008303592
 21
97.6770038867
 31
0.0
  0
LINE
  5
6E
330
1F
100
AcDbEntity
  8
0
  6
SLD-Durchgehend
 62
     7
370
    15
100
AcDbLine
 10
222.5903202901
 20
98.2656360754
 30
0.0
 11
222.5397755513
 21
98.3160550857
 31
0.0
  0
LINE
  5
6F
330
1F
100
AcDbEntity
  8
0
  6
SLD-Durchgehend
 62
     7
370
    15
100
AcDbLine
 10
218.8319978426
 20
94.5992202649
 30
0.0
 11
218.8825388561
 21
94.5488003233
 31
0.0
  0
LINE
  5
70
330
1F
100
AcDbEntity
  8
0
  6
SLD-Durchgehend
 62
     7
370
    15
100
AcDbLine
 10
220.5963698337
 20
95.1072567293
 30
0.0
 11
220.5033009062
 21
95.2000965515
 31
0.0
  0
LINE
  5
71
330
1F
100
AcDbEntity
  8
0
  6
SLD-Durchgehend
 62
     7
370
    15
100
AcDbLine
 10
221.9944191287
 20
96.4366302976
 30
0.0
 11
222.0880356739
 21
96.3432409951
 31
0.0
  0
ARC
  5
72
330
1F
100
AcDbEntity
  8
0
  6
SLD-Durchgehend
 62
     7
370
    15
100
AcDbCircle
 10
224.0802451344
 20
99.5420835514
 30
0.0
 40
0.3931466820896624
100
AcDbArc
 50
27.3501921611
 51
62.5288050819
  0
LINE
  5
73
330
1F
100
AcDbEntity
  8
0
  6
SLD-Durchgehend
 62
     7
370
    15
100
AcDbLine
 10
231.4032022963
 20
86.2453089246
 30
0.0
 11
224.4294439564
 21
99.7227060759
 31
0.0
  0
ARC
  5
74
330
1F
100
AcDbEntity
  8
0
  6
SLD-Durchgehend
 62
     7
370
    15
100
AcDbCircle
 10
231.0622231883
 20
86.0595350531
 30
0.0
 40
0.3883023092884759
100
AcDbArc
 50
241.298464621
 51
28.5826437094
  0
LINE
  5
75
330
1F
100
AcDbEntity
  8
0
  6
SLD-Durchgehend
 62
     7
370
    15
100
AcDbLine
 10
217.4133402417
 20
92.721193392
 30
0.0
 11
230.8757421682
 21
85.7189421693
 31
0.0
  0
ARC
  5
76
330
1F
100
AcDbEntity
  8
0
  6
SLD-Durchgehend
 62
     7
370
    15
100
AcDbCircle
 10
217.5947211211
 20
93.0700244866
 30
0.0
 40
0.3931693731509725
100
AcDbArc
 50
207.3510147258
 51
242.5270280503
  0
LINE
  5
77
330
1F
100
AcDbEntity
  8
0
  6
SLD-Durchgehend
 62
     7
370
    15
100
AcDbLine
 10
210.2717426727
 20
106.3667841406
 30
0.0
 11
217.2455047379
 21
92.8893865237
 31
0.0
  0
LINE
  5
78
330
1F
100
AcDbEntity
  8
0
  6
SLD-Durchgehend
 62
     7
370
    15
100
AcDbLine
 10
224.2616047273
 20
99.8909001389
 30
0.0
 11
210.7992065261
 21
106.8931499647
 31
0.0
  0
LINE
  5
79
330
1F
100
AcDbEntity
  8
0
  6
SLD-Durchgehend
 62
     7
370
    15
100
AcDbLine
 10
217.4234469543
 20
92.7384712884
 30
0.0
 11
230.8588703285
 21
85.7502532342
 31
0.0
  0
ARC
  5
7A
330
1F
100
AcDbEntity
  8
0
  6
SLD-Durchgehend
 62
     7
370
    15
100
AcDbCircle
 10
231.033544601
 20
86.0882753699
 30
0.0
 40
0.3804866169770123
100
AcDbArc
 50
242.6721617441
 51
27.2089408183
  0
LINE
  5
7B
330
1F
100
AcDbEntity
  8
0
  6
SLD-Durchgehend
 62
     7
370
    15
100
AcDbLine
 10
231.3719284842
 20
86.2622478196
 30
0.0
 11
224.4121437083
 21
99.7126375476
 31
0.0
  0
ARC
  5
7C
330
1F
100
AcDbEntity
  8
0
  6
SLD-Durchgehend
 62
     7
370
    15
100
AcDbCircle
 10
224.0778279333
 20
99.5396758437
 30
0.0
 40
0.37640774221362
100
AcDbArc
 50
27.3552502288
 51
62.5226405765
  0
LINE
  5
7D
330
1F
100
AcDbEntity
  8
0
  6
SLD-Durchgehend
 62
     7
370
    15
100
AcDbLine
 10
224.25150174
 20
99.8736222425
 30
0.0
 11
210.8160783658
 21
106.8618402967
 31
0.0
  0
ARC
  5
7E
330
1F
100
AcDbEntity
  8
0
  6
SLD-Durchgehend
 62
     7
370
    15
100
AcDbCircle
 10
210.6414050398
 20
106.5238145922
 30
0.0
 40
0.380489352988306
100
AcDbArc
 50
62.6725350869
 51
207.2082035667
  0
LINE
  5
7F
330
1F
100
AcDbEntity
  8
0
  6
SLD-Durchgehend
 62
     7
370
    15
100
AcDbLine
 10
210.3030164848
 20
106.3498452456
 30
0.0
 11
217.262804986
 21
92.8994559833
 31
0.0
  0
ARC
  5
80
330
1F
100
AcDbEntity
  8
0
  6
SLD-Durchgehend
 62
     7
370
    15
100
AcDbCircle
 10
217.5971174393
 20
93.0724143725
 30
0.0
 40
0.3764032688509969
100
AcDbArc
 50
207.3550344377
 51
242.5228563675
  0
ARC
  5
81
330
1F
100
AcDbEntity
  8
0
  6
SLD-Durchgehend
 62
     7
370
    15
100
AcDbCircle
 10
210.6127263836
 20
106.5525541168
 30
0.0
 40
0.3883044876571127
100
AcDbArc
 50
61.2987882471
 51
208.5818140473
  0
LINE
  5
82
330
1F
100
AcDbEntity
  8
0
  6
SLD-Durchgehend
 62
     7
370
    15
100
AcDbLine
 10
212.934811146
 20
104.2252726072
 30
0.0
 11
210.6245649169
 21
106.5406173618
 31
0.0
  0
LINE
  5
83
330
1F
100
AcDbEntity
  8
0
  6
SLD-Durchgehend
 62
     7
370
    15
100
AcDbLine
 10
212.934811146
 20
104.2252726072
 30
0.0
 11
213.5094520757
 21
103.1147291103
 31
0.0
  0
LINE
  5
84
330
1F
100
AcDbEntity
  8
0
  6
SLD-Durchgehend
 62
     7
370
    15
100
AcDbLine
 10
217.675809295
 20
93.1919657776
 30
0.0
 11
217.5843534181
 21
93.0902280995
 31
0.0
  0
LINE
  5
85
330
1F
100
AcDbEntity
  8
0
  6
SLD-Durchgehend
 62
     7
370
    15
100
AcDbLine
 10
223.9580345462
 20
99.4611310923
 30
0.0
 11
224.0599882911
 21
99.552398842
 31
0.0
  0
LINE
  5
86
330
1F
100
AcDbEntity
  8
0
  6
SLD-Durchgehend
 62
     7
370
    15
100
AcDbLine
 10
214.0441169153
 20
103.6482838133
 30
0.0
 11
212.934811146
 21
104.2252726072
 31
0.0
  0
LWPOLYLINE
  5
87
330
1F
100
AcDbEntity
  8
0
  6
SLD-Durchgehend
 62
     7
370
    15
100
AcDbPolyline
 90
        8
 70
   128
 43
0.0
 10
214.1238344024
 20
103.0878818744
 10
214.2184493254
 20
103.1984578037
 10
214.2652166198
 20
103.2949456164
 10
214.2752115736
 20
103.3719333971
 10
214.2581981728
 20
103.4478389809
 10
214.2080706666
 20
103.5264584386
 10
214.0907538245
 20
103.6220009589
 10
214.0441169153
 20
103.6482838133
  0
LWPOLYLINE
  5
88
330
1F
100
AcDbEntity
  8
0
  6
SLD-Durchgehend
 62
     7
370
    15
100
AcDbPolyline
 90
        8
 70
   128
 43
0.0
 10
213.5094520757
 20
103.1147291103
 10
213.5902796994
 20
102.9919221216
 10
213.6731152544
 20
102.9190219158
 10
213.7456690083
 20
102.8884726727
 10
213.8248016248
 20
102.884867523
 10
213.912182034
 20
102.9124495724
 10
214.036927105
 20
103.0017494375
 10
214.0696724067
 20
103.0338307062
  0
ARC
  5
89
330
1F
100
AcDbEntity
  8
0
  6
SLD-Durchgehend
 62
     7
370
    15
100
AcDbCircle
 10
215.8332946906
 20
101.3208833643
 30
0.0
 40
1.001288058672493
100
AcDbArc
 50
62.6724423508
 51
207.2082359933
  0
ARC
  5
8A
330
1F
100
AcDbEntity
  8
0
  6
SLD-Durchgehend
 62
     7
370
    15
100
AcDbCircle
 10
215.7916008252
 20
101.3625337271
 30
0.0
 40
2.39963977935847
100
AcDbArc
 50
134.0277743161
 51
135.8548658536
  0
LINE
  5
8B
330
1F
100
AcDbEntity
  8
0
  6
SLD-Durchgehend
 62
     7
370
    15
100
AcDbLine
 10
222.8913311968
 20
98.7783878261
 30
0.0
 11
216.2929629097
 21
102.2104242036
 31
0.0
  0
ARC
  5
8C
330
1F
100
AcDbEntity
  8
0
  6
SLD-Durchgehend
 62
     7
370
    15
100
AcDbCircle
 10
222.4343002706
 20
97.8995775547
 30
0.0
 40
0.9905477073389092
100
AcDbArc
 50
27.3555510265
 51
62.5230237251
  0
LINE
  5
8D
330
1F
100
AcDbEntity
  8
0
  6
SLD-Durchgehend
 62
     7
370
    15
100
AcDbLine
 10
226.732150198
 20
91.7490230092
 30
0.0
 11
223.3140771399
 21
98.3547450194
 31
0.0
  0
ARC
  5
8E
330
1F
100
AcDbEntity
  8
0
  6
SLD-Durchgehend
 62
     7
370
    15
100
AcDbCircle
 10
225.8416536593
 20
91.2912098788
 30
0.0
 40
1.001287644899777
100
AcDbArc
 50
242.6724522988
 51
27.2081468371
  0
LINE
  5
8F
330
1F
100
AcDbEntity
  8
0
  6
SLD-Durchgehend
 62
     7
370
    15
100
AcDbLine
 10
218.7836137722
 20
93.8337047735
 30
0.0
 11
225.3819857846
 21
90.4016693273
 31
0.0
  0
ARC
  5
90
330
1F
100
AcDbEntity
  8
0
  6
SLD-Durchgehend
 62
     7
370
    15
100
AcDbCircle
 10
219.2406782251
 20
94.7125417647
 30
0.0
 40
0.9905868822691938
100
AcDbArc
 50
207.3561794574
 51
242.5220163525
  0
LINE
  5
91
330
1F
100
AcDbEntity
  8
0
  6
SLD-Durchgehend
 62
     7
370
    15
100
AcDbLine
 10
214.9427984963
 20
100.863068659
 30
0.0
 11
218.3608715544
 21
94.2573466489
 31
0.0
  0
CIRCLE
  5
92
330
1F
100
AcDbEntity
  8
0
  6
SLD-Durchgehend
 62
     7
370
    15
100
AcDbCircle
 10
220.8269946793
 20
96.3009773478
 30
0.0
 40
3.039335242020908
  0
ARC
  5
93
330
1F
100
AcDbEntity
  8
0
  6
SLD-Durchgehend
 62
     7
370
    15
100
AcDbCircle
 10
220.7572253549
 20
96.3841374038
 30
0.0
 40
3.051419118011188
100
AcDbArc
 50
242.6114628725
 51
44.81490441
  0
LWPOLYLINE
  5
94
330
1F
100
AcDbEntity
  8
0
  6
SLD-Durchgehend
 62
     7
370
    15
100
AcDbPolyline
 90
        3
 70
   128
 43
0.0
 10
218.6137777875
 20
94.2162268946
 10
218.8825910101
 20
93.9782106468
 10
219.3535049568
 20
93.674759675
  0
LINE
  5
95
330
1F
100
AcDbEntity
  8
0
  6
SLD-Durchgehend
 62
     7
370
    15
100
AcDbLine
 10
228.6285278509
 20
88.4981596062
 30
0.0
 11
231.019773067
 21
86.1020081827
 31
0.0
  0
LINE
  5
96
330
1F
100
AcDbEntity
  8
0
  6
SLD-Durchgehend
 62
     7
370
    15
100
AcDbLine
 10
227.5192220817
 20
89.0751474687
 30
0.0
 11
228.6285278509
 21
88.4981596062
 31
0.0
  0
LINE
  5
97
330
1F
100
AcDbEntity
  8
0
  6
SLD-Durchgehend
 62
     7
370
    15
100
AcDbLine
 10
228.6285278509
 20
88.4981596062
 30
0.0
 11
228.0538869212
 21
89.6087021717
 31
0.0
  0
ARC
  5
98
330
1F
100
AcDbEntity
  8
0
  6
SLD-Durchgehend
 62
     7
370
    15
100
AcDbCircle
 10
222.5535376784
 20
88.7851141255
 30
0.0
 40
6.573627283752368
100
AcDbArc
 50
131.8125286925
 51
137.9033250492
  0
ARC
  5
99
330
1F
100
AcDbEntity
  8
0
  6
SLD-Durchgehend
 62
     7
370
    15
100
AcDbCircle
 10
228.3619597671
 20
94.5670192316
 30
0.0
 40
6.583835375869352
100
AcDbArc
 50
131.9821964646
 51
138.0635048461
  0
ARC
  5
9A
330
1F
100
AcDbEntity
  8
0
  6
SLD-Durchgehend
 62
     7
370
    15
100
AcDbCircle
 10
225.7746382253
 20
91.3581359809
 30
0.0
 40
2.39563538902716
100
AcDbArc
 50
314.0237595302
 51
315.8539527152
  0
LWPOLYLINE
  5
9B
330
1F
100
AcDbEntity
  8
0
  6
SLD-Durchgehend
 62
     7
370
    15
100
AcDbPolyline
 90
        8
 70
   128
 43
0.0
 10
227.4395008693
 20
89.6355503389
 10
227.3448896716
 20
89.524972547
 10
227.2981223772
 20
89.4284856656
 10
227.2881274233
 20
89.3514988163
 10
227.3051408241
 20
89.2755923012
 10
227.3552683304
 20
89.1969737747
 10
227.4725814472
 20
89.1014312544
 10
227.5192220817
 20
89.0751474687
  0
LWPOLYLINE
  5
9C
330
1F
100
AcDbEntity
  8
0
  6
SLD-Durchgehend
 62
     7
370
    15
100
AcDbPolyline
 90
        8
 70
   128
 43
0.0
 10
228.0538869212
 20
89.6087021717
 10
227.9730592976
 20
89.7315082291
 10
227.8902237425
 20
89.8044102976
 10
227.8176662634
 20
89.834957678
 10
227.7385373721
 20
89.838563759
 10
227.6511569629
 20
89.8109817097
 10
227.526411892
 20
89.7216809133
 10
227.4936665902
 20
89.6896005759
  0
LINE
  5
9D
330
1F
100
AcDbEntity
  8
0
  6
SLD-Durchgehend
 62
     7
370
    15
100
AcDbLine
 10
194.469264255
 20
93.4588269481
 30
0.0
 11
194.469264255
 21
124.5377122575
 31
0.0
  0
LWPOLYLINE
  5
9E
330
1F
100
AcDbEntity
  8
0
  6
SLD-Durchgehend
 62
     7
370
    15
100
AcDbPolyline
 90
        3
 70
   128
 43
0.0
 10
194.469264255
 20
93.4588269481
 10
193.5299527953
 20
95.1571812072
 10
193.4741032431
 20
95.2585891971
  0
LINE
  5
9F
330
1F
100
AcDbEntity
  8
0
  6
SLD-Durchgehend
 62
     7
370
    15
100
AcDbLine
 10
193.4741032431
 20
95.2585891971
 30
0.0
 11
193.4741032431
 21
124.5377122575
 31
0.0
  0
LINE
  5
A0
330
1F
100
AcDbEntity
  8
0
  6
SLD-Durchgehend
 62
     7
370
    15
100
AcDbLine
 10
193.4741032431
 20
124.5377122575
 30
0.0
 11
194.469264255
 21
124.5377122575
 31
0.0
  0
LINE
  5
A1
330
1F
100
AcDbEntity
  8
0
  6
SLD-Durchgehend
 62
     7
370
    15
100
AcDbLine
 10
184.3841043423
 20
124.5377122575
 30
0.0
 11
190.3989440883
 21
124.5377122575
 31
0.0
  0
LINE
  5
A2
330
1F
100
AcDbEntity
  8
0
  6
SLD-Durchgehend
 62
     7
370
    15
100
AcDbLine
 10
190.3989440883
 20
93.4588269481
 30
0.0
 11
190.3989440883
 21
124.5377122575
 31
0.0
  0
LINE
  5
A3
330
1F
100
AcDbEntity
  8
0
  6
SLD-Durchgehend
 62
     7
370
    15
100
AcDbLine
 10
190.3989440883
 20
93.4588269481
 30
0.0
 11
188.8841041485
 21
93.4588269481
 31
0.0
  0
ARC
  5
A4
330
1F
100
AcDbEntity
  8
0
  6
SLD-Durchgehend
 62
     7
370
    15
100
AcDbCircle
 10
188.3497545306
 20
82.738057943
 30
0.0
 40
10.73407739745365
100
AcDbArc
 50
87.1465980851
 51
111.6813871243
  0
LINE
  5
A5
330
1F
100
AcDbEntity
  8
0
  6
SLD-Durchgehend
 62
     7
370
    15
100
AcDbLine
 10
184.3841043423
 20
92.7127276698
 30
0.0
 11
184.3841043423
 21
92.6877123454
 31
0.0
  0
LWPOLYLINE
  5
A6
330
1F
100
AcDbEntity
  8
0
  6
SLD-Durchgehend
 62
     7
370
    15
100
AcDbPolyline
 90
       11
 70
   128
 43
0.0
 10
188.8841041485
 20
132.1748879889
 10
188.1500980938
 20
132.1887050906
 10
187.4160920391
 20
132.230102379
 10
186.7441744665
 20
132.2920297423
 10
186.1139466176
 20
132.3707954177
 10
185.5678116093
 20
132.4550540337
 10
185.1005484472
 20
132.5387892464
 10
184.7474002401
 20
132.6091152766
 10
184.5043706829
 20
132.660995532
 10
184.394026653
 20
132.6854818651
 10
184.3996313522
 20
132.6842245796
  0
LINE
  5
A7
330
1F
100
AcDbEntity
  8
0
  6
SLD-Durchgehend
 62
     7
370
    15
100
AcDbLine
 10
190.3989440883
 20
132.1748879889
 30
0.0
 11
188.8841041485
 21
132.1748879889
 31
0.0
  0
LINE
  5
A8
330
1F
100
AcDbEntity
  8
0
  6
SLD-Durchgehend
 62
     7
370
    15
100
AcDbLine
 10
190.3989440883
 20
128.79912119
 30
0.0
 11
190.3989440883
 21
132.1748879889
 31
0.0
  0
LINE
  5
A9
330
1F
100
AcDbEntity
  8
0
  6
SLD-Durchgehend
 62
     7
370
    15
100
AcDbLine
 10
188.877773949
 20
128.79912119
 30
0.0
 11
190.3989440883
 21
128.79912119
 31
0.0
  0
ARC
  5
AA
330
1F
100
AcDbEntity
  8
0
  6
SLD-Durchgehend
 62
     7
370
    15
100
AcDbCircle
 10
188.5538614381
 20
124.6406888997
 30
0.0
 40
4.171028461616044
100
AcDbArc
 50
85.5460566573
 51
181.4146934227
  0
LINE
  5
AB
330
1F
100
AcDbEntity
  8
0
  6
SLD-Durchgehend
 62
     7
370
    15
100
AcDbLine
 10
191.3941041688
 20
95.2585891971
 30
0.0
 11
191.3941041688
 21
124.5377122575
 31
0.0
  0
LWPOLYLINE
  5
AC
330
1F
100
AcDbEntity
  8
0
  6
SLD-Durchgehend
 62
     7
370
    15
100
AcDbPolyline
 90
        3
 70
   128
 43
0.0
 10
191.3941041688
 20
95.2585891971
 10
191.338255548
 20
95.1571812072
 10
190.3989440883
 20
93.4588269481
  0
LINE
  5
AD
330
1F
100
AcDbEntity
  8
0
  6
SLD-Durchgehend
 62
     7
370
    15
100
AcDbLine
 10
190.3989440883
 20
124.5377122575
 30
0.0
 11
191.3941041688
 21
124.5377122575
 31
0.0
  0
LINE
  5
AE
330
1F
100
AcDbEntity
  8
0
  6
SLD-Durchgehend
 62
     7
370
    15
100
AcDbLine
 10
195.7841036032
 20
93.4588269481
 30
0.0
 11
194.469264255
 21
93.4588269481
 31
0.0
  0
LINE
  5
AF
330
1F
100
AcDbEntity
  8
0
  6
SLD-Durchgehend
 62
     7
370
    15
100
AcDbLine
 10
194.469264255
 20
124.5377122575
 30
0.0
 11
195.7841036032
 21
124.5377122575
 31
0.0
  0
LINE
  5
B0
330
1F
100
AcDbEntity
  8
0
  6
SLD-Durchgehend
 62
     7
370
    15
100
AcDbLine
 10
196.3841044466
 20
94.0836792031
 30
0.0
 11
196.3841044466
 21
124.5377122575
 31
0.0
  0
ARC
  5
B1
330
1F
100
AcDbEntity
  8
0
  6
SLD-Durchgehend
 62
     7
370
    15
100
AcDbCircle
 10
195.7728437414
 20
94.0701340208
 30
0.0
 40
0.6114107634496255
100
AcDbArc
 50
271.0552300829
 51
1.2694334473
  0
LINE
  5
B2
330
1F
100
AcDbEntity
  8
0
  6
SLD-Durchgehend
 62
     7
370
    15
100
AcDbLine
 10
195.7841036032
 20
124.5377122575
 30
0.0
 11
196.3841044466
 21
124.5377122575
 31
0.0
  0
LINE
  5
B3
330
1F
100
AcDbEntity
  8
0
  6
SLD-Durchgehend
 62
     7
370
    15
100
AcDbLine
 10
176.4341038773
 20
92.9877118358
 30
0.0
 11
176.4341038773
 21
132.387711961
 31
0.0
  0
LINE
  5
B4
330
1F
100
AcDbEntity
  8
0
  6
SLD-Durchgehend
 62
     7
370
    15
100
AcDbLine
 10
193.4388806234
 20
95.7877126673
 30
0.0
 11
192.8741042624
 21
95.7877126673
 31
0.0
  0
LINE
  5
B5
330
1F
100
AcDbEntity
  8
0
  6
SLD-Durchgehend
 62
     7
370
    15
100
AcDbLine
 10
192.8741042624
 20
124.5377122575
 30
0.0
 11
193.4741032431
 21
124.5377122575
 31
0.0
  0
LINE
  5
B6
330
1F
100
AcDbEntity
  8
0
  6
SLD-Durchgehend
 62
     7
370
    15
100
AcDbLine
 10
191.9941040809
 20
95.7877126673
 30
0.0
 11
191.4293258573
 21
95.7877126673
 31
0.0
  0
LINE
  5
B7
330
1F
100
AcDbEntity
  8
0
  6
SLD-Durchgehend
 62
     7
370
    15
100
AcDbLine
 10
191.3941041688
 20
124.5377122575
 30
0.0
 11
191.9941040809
 21
124.5377122575
 31
0.0
  0
LINE
  5
B8
330
1F
100
AcDbEntity
  8
0
  6
SLD-Durchgehend
 62
     7
370
    15
100
AcDbLine
 10
196.3841659138
 20
129.5877111295
 30
0.0
 11
196.5841041068
 21
129.5877111295
 31
0.0
  0
LINE
  5
B9
330
1F
100
AcDbEntity
  8
0
  6
SLD-Durchgehend
 62
     7
370
    15
100
AcDbLine
 10
196.3841044466
 20
95.7877126673
 30
0.0
 11
196.5841041068
 21
95.7877126673
 31
0.0
  0
LINE
  5
BA
330
1F
100
AcDbEntity
  8
0
  6
SLD-Durchgehend
 62
     7
370
    15
100
AcDbLine
 10
196.3841044466
 20
124.5377122575
 30
0.0
 11
196.7132282565
 21
124.5377122575
 31
0.0
  0
ARC
  5
BB
330
1F
100
AcDbEntity
  8
0
  6
SLD-Durchgehend
 62
     7
370
    15
100
AcDbCircle
 10
198.0917487175
 20
125.5457330626
 30
0.0
 40
1.70775425778734
100
AcDbArc
 50
179.3497241651
 51
216.175534614
  0
LINE
  5
BC
330
1F
100
AcDbEntity
  8
0
  6
SLD-Durchgehend
 62
     7
370
    15
100
AcDbLine
 10
192.8741042624
 20
95.7877126673
 30
0.0
 11
191.9941040809
 21
95.7877126673
 31
0.0
  0
LINE
  5
BD
330
1F
100
AcDbEntity
  8
0
  6
SLD-Durchgehend
 62
     7
370
    15
100
AcDbLine
 10
191.9941040809
 20
124.5377122575
 30
0.0
 11
192.8741042624
 21
124.5377122575
 31
0.0
  0
ELLIPSE
  5
BE
330
1F
100
AcDbEntity
  8
0
  6
SLD-Durchgehend
 62
     7
370
    15
100
AcDbEllipse
 10
254.0676571265
 20
112.6877118984
 30
0.0
 11
235.9609794429948
 21
1.156609637681044
 31
0.0
210
0.0
220
0.0
230
1.0
 40
0.0697548059
 41
1.761785896643123
 42
1.768814406339335
  0
ARC
  5
BF
330
1F
100
AcDbEntity
  8
0
  6
SLD-Durchgehend
 62
     7
370
    15
100
AcDbCircle
 10
207.1760478173
 20
124.8591543087
 30
0.0
 40
3.759359278753403
100
AcDbArc
 50
84.0036336976
 51
127.6390729898
  0
ELLIPSE
  5
C0
330
1F
100
AcDbEntity
  8
0
  6
SLD-Durchgehend
 62
     7
370
    15
100
AcDbEllipse
 10
206.3453426325
 20
112.6877118984
 30
0.0
 11
0.3321204061178378
 21
16.49976136173815
 31
0.0
210
0.0
220
0.0
230
1.0
 40
0.2671959542
 41
0.41295626276028
 42
2.879019295430601
  0
ARC
  5
C1
330
1F
100
AcDbEntity
  8
0
  6
SLD-Durchgehend
 62
     7
370
    15
100
AcDbCircle
 10
206.9955650884
 20
101.1296921483
 30
0.0
 40
4.83990631446953
100
AcDbArc
 50
244.0839031005
 51
276.8016875721
  0
ELLIPSE
  5
C2
330
1F
100
AcDbEntity
  8
0
  6
SLD-Durchgehend
 62
     7
370
    15
100
AcDbEllipse
 10
254.0676571265
 20
112.6877118984
 30
0.0
 11
235.9609794429948
 21
1.156609637681044
 31
0.0
210
0.0
220
0.0
230
1.0
 40
0.0697548059
 41
4.513687066777071
 42
4.527061405808923
  0
ELLIPSE
  5
C3
330
1F
100
AcDbEntity
  8
0
  6
SLD-Durchgehend
 62
     7
370
    15
100
AcDbEllipse
 10
216.9995656569
 20
112.6877118984
 30
0.0
 11
-9.026716742795827
 21
16.45571220594981
 31
0.0
210
0.0
220
0.0
230
1.0
 40
0.1338374214
 41
5.948756131657844
 42
6.209900788617447
  0
ELLIPSE
  5
C4
330
1F
100
AcDbEntity
  8
0
  6
SLD-Durchgehend
 62
     7
370
    15
100
AcDbEllipse
 10
204.1375118325
 20
104.7593807798
 30
0.0
 11
-0.1533777247708485
 21
2.628800446329194
 31
0.0
210
0.0
220
0.0
230
1.0
 40
0.2270241866
 41
0.0
 42
6.283185307179586
  0
LINE
  5
C5
330
1F
100
AcDbEntity
  8
0
  6
SLD-Durchgehend
 62
     7
370
    15
100
AcDbLine
 10
174.4341037823
 20
97.5840113276
 30
0.0
 11
174.4341037823
 21
127.7914124692
 31
0.0
  0
LINE
  5
C6
330
1F
100
AcDbEntity
  8
0
  6
SLD-Durchgehend
 62
     7
370
    15
100
AcDbLine
 10
162.6341040368
 20
98.1751934776
 30
0.0
 11
162.6341040368
 21
99.0841354394
 31
0.0
  0
ARC
  5
C7
330
1F
100
AcDbEntity
  8
0
  6
SLD-Durchgehend
 62
     7
370
    15
100
AcDbCircle
 10
159.4955634315
 20
98.1171290477
 30
0.0
 40
3.284134359664609
100
AcDbArc
 50
17.1244326527
 51
29.8895177058
  0
LWPOLYLINE
  5
C8
330
1F
100
AcDbEntity
  8
0
  6
SLD-Durchgehend
 62
     7
370
    15
100
AcDbPolyline
 90
        7
 70
   128
 43
0.0
 10
161.734103703
 20
100.4038381541
 10
161.7974187369
 20
100.4033855313
 10
161.8587928946
 20
100.3919451648
 10
161.9361960451
 20
100.3614778781
 10
162.0415593619
 20
100.2883709186
 10
162.2296325053
 20
100.0372891465
 10
162.3428682918
 20
99.7537088731
  0
ARC
  5
C9
330
1F
100
AcDbEntity
  8
0
  6
SLD-Durchgehend
 62
     7
370
    15
100
AcDbCircle
 10
167.4892439855
 20
25.535339859
 30
0.0
 40
75.08937126268323
100
AcDbArc
 50
94.395681249
 51
97.5337113535
  0
LINE
  5
CA
330
1F
100
AcDbEntity
  8
0
  6
SLD-Durchgehend
 62
     7
370
    15
100
AcDbLine
 10
157.484103472
 20
99.9571767786
 30
0.0
 11
157.6443133066
 21
99.9765315244
 31
0.0
  0
LINE
  5
CB
330
1F
100
AcDbEntity
  8
0
  6
SLD-Durchgehend
 62
     7
370
    15
100
AcDbLine
 10
157.4755874584
 20
99.9845343792
 30
0.0
 11
157.484103472
 21
99.9571767786
 31
0.0
  0
ELLIPSE
  5
CC
330
1F
100
AcDbEntity
  8
0
  6
SLD-Durchgehend
 62
     7
370
    15
100
AcDbEllipse
 10
144.0073616695
 20
112.0484142206
 30
0.0
 11
13.37355272666628
 21
-13.37146352987011
 31
0.0
210
0.0
220
0.0
230
1.0
 40
0.1761188775
 41
0.3023035477142462
 42
0.3822730435340345
  0
ELLIPSE
  5
CD
330
1F
100
AcDbEntity
  8
0
  6
SLD-Durchgehend
 62
     7
370
    15
100
AcDbEllipse
 10
143.9279832388
 20
113.3268223497
 30
0.0
 11
13.36963611134309
 21
13.36754752639483
 31
0.0
210
0.0
220
0.0
230
1.0
 40
0.1761188775
 41
5.933076931846601
 42
5.976720052691194
  0
LINE
  5
CE
330
1F
100
AcDbEntity
  8
0
  6
SLD-Durchgehend
 62
     7
370
    15
100
AcDbLine
 10
157.484103472
 20
125.5532925168
 30
0.0
 11
157.3849362443
 21
125.3611476311
 31
0.0
  0
LWPOLYLINE
  5
CF
330
1F
100
AcDbEntity
  8
0
  6
SLD-Durchgehend
 62
     7
370
    15
100
AcDbPolyline
 90
        3
 70
   128
 43
0.0
 10
159.2341032932
 20
125.4685058409
 10
158.3704692433
 20
125.5271344596
 10
157.484103472
 20
125.5532925168
  0
ARC
  5
D0
330
1F
100
AcDbEntity
  8
0
  6
SLD-Durchgehend
 62
     7
370
    15
100
AcDbCircle
 10
159.0791386485
 20
126.5578459327
 30
0.0
 40
1.100307173752291
100
AcDbArc
 50
278.0963186522
 51
343.4942707128
  0
LINE
  5
D1
330
1F
100
AcDbEntity
  8
0
  6
SLD-Durchgehend
 62
     7
370
    15
100
AcDbLine
 10
160.134103627
 20
126.2452363187
 30
0.0
 11
160.134103627
 21
127.0749795401
 31
0.0
  0
LWPOLYLINE
  5
D2
330
1F
100
AcDbEntity
  8
0
  6
SLD-Durchgehend
 62
     7
370
    15
100
AcDbPolyline
 90
       18
 70
   128
 43
0.0
 10
167.6186467642
 20
97.9257452452
 10
167.6172479177
 20
97.9255450109
 10
167.6725479896
 20
97.9340414667
 10
167.8335764567
 20
97.956902642
 10
168.0973465676
 20
97.9901638964
 10
168.4478721703
 20
98.0273963103
 10
168.8707475672
 20
98.0602068046
 10
169.3524737033
 20
98.0813329259
 10
169.8822635348
 20
98.0846465716
 10
170.4307906451
 20
98.0671581963
 10
170.972320729
 20
98.028022159
 10
171.4896299067
 20
97.9704226518
 10
171.9726501154
 20
97.8991662303
 10
172.3953615996
 20
97.8239945287
 10
172.7385749231
 20
97.7537495235
 10
172.9925871017
 20
97.6963260362
 10
173.1488225172
 20
97.6585273781
 10
173.2003819319
 20
97.6461137795
  0
LWPOLYLINE
  5
D3
330
1F
100
AcDbEntity
  8
0
  6
SLD-Durchgehend
 62
     7
370
    15
100
AcDbPolyline
 90
       18
 70
   128
 43
0.0
 10
173.1993830884
 20
127.7293109486
 10
173.1487121555
 20
127.7165956014
 10
172.993797821
 20
127.6791573653
 10
172.7358161128
 20
127.6210549438
 10
172.3935012827
 20
127.5508639553
 10
171.971707617
 20
127.4758254328
 10
171.4905388775
 20
127.4049415404
 10
170.9731654386
 20
127.3474509978
 10
170.431725693
 20
127.3083689773
 10
169.8824772733
 20
127.2908498684
 10
169.3522008257
 20
127.2941327804
 10
168.8693976151
 20
127.3152747342
 10
168.4467722783
 20
127.3480870911
 10
168.0959337513
 20
127.3854275385
 10
167.8330847184
 20
127.418619875
 10
167.6720068912
 20
127.4414400721
 10
167.6172684068
 20
127.4498843738
 10
167.618181103
 20
127.4497409502
  0
LWPOLYLINE
  5
D4
330
1F
100
AcDbEntity
  8
0
  6
SLD-Durchgehend
 62
     7
370
    15
100
AcDbPolyline
 90
       13
 70
   128
 43
0.0
 10
157.2940745513
 20
125.0757922569
 10
157.1293515275
 20
124.6782246196
 10
157.0468661497
 20
124.5192422682
 10
156.9389016489
 20
124.3419892305
 10
156.8856653879
 20
124.2670755053
 10
156.8211787502
 20
124.1883144864
 10
156.7823798517
 20
124.1481530631
 10
156.7430128465
 20
124.1140796953
 10
156.7114968906
 20
124.0927086362
 10
156.6719305823
 20
124.0755834767
 10
156.6219520877
 20
124.0772784838
 10
156.5506239543
 20
124.2084422299
 10
156.5341041545
 20
124.4659436086
  0
LWPOLYLINE
  5
D5
330
1F
100
AcDbEntity
  8
0
  6
SLD-Durchgehend
 62
     7
370
    15
100
AcDbPolyline
 90
       11
 70
   128
 43
0.0
 10
156.5341041545
 20
101.1401985922
 10
156.5590878139
 20
101.3921790907
 10
156.6176344762
 20
101.4715845847
 10
156.6694346378
 20
101.472197395
 10
156.7031857679
 20
101.4579192886
 10
156.7470007698
 20
101.4282892609
 10
156.7904879461
 20
101.389584426
 10
156.8382163654
 20
101.3386941665
 10
156.9067486683
 20
101.2529174948
 10
157.0459571789
 20
101.039341014
 10
157.2940745513
 20
100.5207265878
  0
LINE
  5
D6
330
1F
100
AcDbEntity
  8
0
  6
SLD-Durchgehend
 62
     7
370
    15
100
AcDbLine
 10
156.5341041545
 20
101.1401985922
 30
0.0
 11
156.5341041545
 21
124.4659436086
 31
0.0
  0
LINE
  5
D7
330
1F
100
AcDbEntity
  8
0
  6
SLD-Durchgehend
 62
     7
370
    15
100
AcDbLine
 10
190.3989440883
 20
128.79912119
 30
0.0
 11
191.3941041688
 21
126.6017996857
 31
0.0
  0
LINE
  5
D8
330
1F
100
AcDbEntity
  8
0
  6
SLD-Durchgehend
 62
     7
370
    15
100
AcDbLine
 10
191.3941041688
 20
126.6017996857
 30
0.0
 11
191.3941041688
 21
126.2035587022
 31
0.0
  0
LWPOLYLINE
  5
D9
330
1F
100
AcDbEntity
  8
0
  6
SLD-Durchgehend
 62
     7
370
    15
100
AcDbPolyline
 90
        6
 70
   128
 43
0.0
 10
191.3941041688
 20
126.2035587022
 10
191.4391187141
 20
125.8988038787
 10
191.5635657618
 20
125.6426110083
 10
191.7106765444
 20
125.4918559605
 10
191.8608821119
 20
125.4151941428
 10
191.9941040809
 20
125.3947227412
  0
LINE
  5
DA
330
1F
100
AcDbEntity
  8
0
  6
SLD-Durchgehend
 62
     7
370
    15
100
AcDbLine
 10
191.9941040809
 20
125.3947227412
 30
0.0
 11
192.8741042624
 21
125.3947227412
 31
0.0
  0
ARC
  5
DB
330
1F
100
AcDbEntity
  8
0
  6
SLD-Durchgehend
 62
     7
370
    15
100
AcDbCircle
 10
192.7485622692
 20
126.1148097433
 30
0.0
 40
0.7309487551175111
100
AcDbArc
 50
279.8897062559
 51
6.9738377009
  0
LINE
  5
DC
330
1F
100
AcDbEntity
  8
0
  6
SLD-Durchgehend
 62
     7
370
    15
100
AcDbLine
 10
193.4741032431
 20
126.2035587022
 30
0.0
 11
193.4741032431
 21
126.6017996857
 31
0.0
  0
LINE
  5
DD
330
1F
100
AcDbEntity
  8
0
  6
SLD-Durchgehend
 62
     7
370
    15
100
AcDbLine
 10
193.4741032431
 20
126.6017996857
 30
0.0
 11
194.469264255
 21
128.79912119
 31
0.0
  0
LINE
  5
DE
330
1F
100
AcDbEntity
  8
0
  6
SLD-Durchgehend
 62
     7
370
    15
100
AcDbLine
 10
194.469264255
 20
128.79912119
 30
0.0
 11
195.7841036032
 21
128.79912119
 31
0.0
  0
ARC
  5
DF
330
1F
100
AcDbEntity
  8
0
  6
SLD-Durchgehend
 62
     7
370
    15
100
AcDbCircle
 10
195.6885248978
 20
128.1075668099
 30
0.0
 40
0.6981280323795271
100
AcDbArc
 50
355.1028521375
 51
82.1310855252
  0
LINE
  5
E0
330
1F
100
AcDbEntity
  8
0
  6
SLD-Durchgehend
 62
     7
370
    15
100
AcDbLine
 10
196.3841044466
 20
128.0479694867
 30
0.0
 11
196.3841044466
 21
125.5651147255
 31
0.0
  0
ARC
  5
E1
330
1F
100
AcDbEntity
  8
0
  6
SLD-Durchgehend
 62
     7
370
    15
100
AcDbCircle
 10
195.7759993071
 20
131.5667816653
 30
0.0
 40
0.6081603245705092
100
AcDbArc
 50
359.2281322855
 51
89.2364584066
  0
LINE
  5
E2
330
1F
100
AcDbEntity
  8
0
  6
SLD-Durchgehend
 62
     7
370
    15
100
AcDbLine
 10
196.3841044466
 20
128.0479694867
 30
0.0
 11
196.3841044466
 21
131.5585890004
 31
0.0
  0
LWPOLYLINE
  5
E3
330
1F
100
AcDbEntity
  8
0
  6
SLD-Durchgehend
 62
     7
370
    15
100
AcDbPolyline
 90
        3
 70
   128
 43
0.0
 10
191.3941041688
 20
130.4013890365
 10
190.4650279442
 20
132.0573960581
 10
190.3989440883
 20
132.1748879889
  0
LINE
  5
E4
330
1F
100
AcDbEntity
  8
0
  6
SLD-Durchgehend
 62
     7
370
    15
100
AcDbLine
 10
191.3941041688
 20
126.6017996857
 30
0.0
 11
191.3941041688
 21
130.4013890365
 31
0.0
  0
ARC
  5
E5
330
1F
100
AcDbEntity
  8
0
  6
SLD-Durchgehend
 62
     7
370
    15
100
AcDbCircle
 10
192.0208078793
 20
130.087321178
 30
0.0
 40
0.6267108666969675
100
AcDbArc
 50
179.726192355
 51
232.8629641269
  0
LINE
  5
E6
330
1F
100
AcDbEntity
  8
0
  6
SLD-Durchgehend
 62
     7
370
    15
100
AcDbLine
 10
191.9941040809
 20
129.5877111295
 30
0.0
 11
191.6424478526
 21
129.5877111295
 31
0.0
  0
LWPOLYLINE
  5
E7
330
1F
100
AcDbEntity
  8
0
  6
SLD-Durchgehend
 62
     7
370
    15
100
AcDbPolyline
 90
        3
 70
   128
 43
0.0
 10
194.469264255
 20
132.1748879889
 10
194.4031794677
 20
132.0573960581
 10
193.4741032431
 20
130.4013890365
  0
LINE
  5
E8
330
1F
100
AcDbEntity
  8
0
  6
SLD-Durchgehend
 62
     7
370
    15
100
AcDbLine
 10
194.469264255
 20
128.79912119
 30
0.0
 11
194.469264255
 21
132.1748879889
 31
0.0
  0
LINE
  5
E9
330
1F
100
AcDbEntity
  8
0
  6
SLD-Durchgehend
 62
     7
370
    15
100
AcDbLine
 10
193.4741032431
 20
126.6017996857
 30
0.0
 11
193.4741032431
 21
130.4013890365
 31
0.0
  0
LINE
  5
EA
330
1F
100
AcDbEntity
  8
0
  6
SLD-Durchgehend
 62
     7
370
    15
100
AcDbLine
 10
192.8741042624
 20
129.5877111295
 30
0.0
 11
191.9941040809
 21
129.5877111295
 31
0.0
  0
LINE
  5
EB
330
1F
100
AcDbEntity
  8
0
  6
SLD-Durchgehend
 62
     7
370
    15
100
AcDbLine
 10
193.225758628
 20
129.5877111295
 30
0.0
 11
192.8741042624
 21
129.5877111295
 31
0.0
  0
ARC
  5
EC
330
1F
100
AcDbEntity
  8
0
  6
SLD-Durchgehend
 62
     7
370
    15
100
AcDbCircle
 10
192.8469135693
 20
130.0875620009
 30
0.0
 40
0.6271957208092563
100
AcDbArc
 50
307.1590768283
 51
0.2515960212
  0
LINE
  5
ED
330
1F
100
AcDbEntity
  8
0
  6
SLD-Durchgehend
 62
     7
370
    15
100
AcDbLine
 10
195.7841036032
 20
132.1748879889
 30
0.0
 11
194.469264255
 21
132.1748879889
 31
0.0
  0
LINE
  5
EE
330
1F
100
AcDbEntity
  8
0
  6
SLD-Durchgehend
 62
     7
370
    15
100
AcDbLine
 10
156.5341041545
 20
100.8692396024
 30
0.0
 11
156.5341041545
 21
101.1401985922
 31
0.0
  0
LINE
  5
EF
330
1F
100
AcDbEntity
  8
0
  6
SLD-Durchgehend
 62
     7
370
    15
100
AcDbLine
 10
156.5341041545
 20
124.5616258273
 30
0.0
 11
156.5341041545
 21
124.4659436086
 31
0.0
  0
LINE
  5
F0
330
1F
100
AcDbEntity
  8
0
  6
SLD-Durchgehend
 62
     7
370
    15
100
AcDbLine
 10
157.484103472
 20
125.5677121842
 30
0.0
 11
157.484103472
 21
125.5532925168
 31
0.0
  0
LINE
  5
F1
330
1F
100
AcDbEntity
  8
0
  6
SLD-Durchgehend
 62
     7
370
    15
100
AcDbLine
 10
156.5341041545
 20
124.6177119353
 30
0.0
 11
156.5341041545
 21
124.5616258273
 31
0.0
  0
LINE
  5
F2
330
1F
100
AcDbEntity
  8
0
  6
SLD-Durchgehend
 62
     7
370
    15
100
AcDbLine
 10
157.484103472
 20
99.866711829
 30
0.0
 11
157.484103472
 21
99.9571767786
 31
0.0
  0
LINE
  5
F3
330
1F
100
AcDbEntity
  8
0
  6
SLD-Durchgehend
 62
     7
370
    15
100
AcDbLine
 10
156.5341041545
 20
100.8167120779
 30
0.0
 11
156.5341041545
 21
100.8692396024
 31
0.0
  0
ELLIPSE
  5
F4
330
1F
100
AcDbEntity
  8
0
  6
SLD-Durchgehend
 62
     7
370
    15
100
AcDbEllipse
 10
210.5209177626
 20
83.9607626237
 30
0.0
 11
6.291549378031276
 21
9.153297532741632
 31
0.0
210
0.0
220
0.0
230
1.0
 40
0.9857763284
 41
0.1208367978162088
 42
0.4936787514808708
  0
LINE
  5
F5
330
1F
100
AcDbEntity
  8
0
  6
SLD-Durchgehend
 62
     7
370
    15
100
AcDbLine
 10
211.6327029774
 20
95.5381815472
 30
0.0
 11
211.7854622314
 21
94.9600779602
 31
0.0
  0
ARC
  5
F6
330
1F
100
AcDbEntity
  8
0
  6
SLD-Durchgehend
 62
     7
370
    15
100
AcDbCircle
 10
210.6520441401
 20
95.2840901094
 30
0.0
 40
1.013042059397357
100
AcDbArc
 50
14.5260542058
 51
89.1667537103
  0
LINE
  5
F7
330
1F
100
AcDbEntity
  8
0
  6
SLD-Durchgehend
 62
     7
370
    15
100
AcDbLine
 10
223.9936185191
 20
100.030289326
 30
0.0
 11
209.1958378563
 21
128.6282812396
 31
0.0
  0
LINE
  5
F8
330
1F
100
AcDbEntity
  8
0
  6
SLD-Durchgehend
 62
     7
370
    15
100
AcDbLine
 10
213.151425601
 20
109.5214696286
 30
0.0
 11
215.8784498582
 21
104.2512639576
 31
0.0
  0
ARC
  5
F9
330
1F
100
AcDbEntity
  8
0
  6
SLD-Durchgehend
 62
     7
370
    15
100
AcDbCircle
 10
211.3895290958
 20
108.5968379339
 30
0.0
 40
1.98977965259226
100
AcDbArc
 50
27.6901933538
 51
207.3503146469
  0
LINE
  5
FA
330
1F
100
AcDbEntity
  8
0
  6
SLD-Durchgehend
 62
     7
370
    15
100
AcDbLine
 10
210.2348101447
 20
106.4987120369
 30
0.0
 11
209.6221787045
 21
107.6826740207
 31
0.0
  0
LINE
  5
FB
330
1F
100
AcDbEntity
  8
0
  6
SLD-Durchgehend
 62
     7
370
    15
100
AcDbLine
 10
217.1812844584
 20
93.0134982952
 30
0.0
 11
215.6789195845
 21
93.7949300894
 31
0.0
  0
ARC
  5
FC
330
1F
100
AcDbEntity
  8
0
  6
SLD-Durchgehend
 62
     7
370
    15
100
AcDbCircle
 10
211.2524769488
 20
108.733861574
 30
0.0
 40
1.749227336590227
100
AcDbArc
 50
27.6901640065
 51
207.3503700647
  0
LINE
  5
FD
330
1F
100
AcDbEntity
  8
0
  6
SLD-Durchgehend
 62
     7
370
    15
100
AcDbLine
 10
209.6987892995
 20
107.9302130418
 30
0.0
 11
210.2963631163
 21
106.7753479035
 31
0.0
  0
LINE
  5
FE
330
1F
100
AcDbEntity
  8
0
  6
SLD-Durchgehend
 62
     7
370
    15
100
AcDbLine
 10
212.8013712476
 20
109.5467101002
 30
0.0
 11
215.4173557768
 21
104.4910934904
 31
0.0
  0
LINE
  5
FF
330
1F
100
AcDbEntity
  8
0
  6
SLD-Durchgehend
 62
     7
370
    15
100
AcDbLine
 10
211.7854622314
 20
94.9600779602
 30
0.0
 11
211.6803978691
 21
95.3068782726
 31
0.0
  0
LINE
  5
100
330
1F
100
AcDbEntity
  8
0
  6
SLD-Durchgehend
 62
     7
370
    15
100
AcDbLine
 10
212.6269829581
 20
109.7206765005
 30
0.0
 11
212.3957169364
 21
110.0612874759
 31
0.0
  0
LINE
  5
101
330
1F
100
AcDbEntity
  8
0
  6
SLD-Durchgehend
 62
     7
370
    15
100
AcDbLine
 10
215.3019127558
 20
104.5511405134
 30
0.0
 11
212.6269829581
 21
109.7206765005
 31
0.0
  0
CIRCLE
  5
102
330
1F
100
AcDbEntity
  8
0
  6
SLD-Durchgehend
 62
     7
370
    15
100
AcDbCircle
 10
220.7260117928
 20
96.4046725566
 30
0.0
 40
2.616750712690902
  0
CIRCLE
  5
103
330
1F
100
AcDbEntity
  8
0
  6
SLD-Durchgehend
 62
     7
370
    15
100
AcDbCircle
 10
220.7484507781
 20
96.3857231354
 30
0.0
 40
1.793773485108302
  0
ARC
  5
104
330
1F
100
AcDbEntity
  8
0
  6
SLD-Durchgehend
 62
     7
370
    15
100
AcDbCircle
 10
220.7450027137
 20
96.3987238075
 30
0.0
 40
1.681945291137356
100
AcDbArc
 50
283.1806669943
 51
341.5145876124
  0
ARC
  5
105
330
1F
100
AcDbEntity
  8
0
  6
SLD-Durchgehend
 62
     7
370
    15
100
AcDbCircle
 10
220.7601084472
 20
96.3955865974
 30
0.0
 40
1.66662524029951
100
AcDbArc
 50
341.4522209116
 51
41.6663394843
  0
ARC
  5
106
330
1F
100
AcDbEntity
  8
0
  6
SLD-Durchgehend
 62
     7
370
    15
100
AcDbCircle
 10
220.763943022
 20
96.3950132675
 30
0.0
 40
1.664144510859489
100
AcDbArc
 50
41.7688531406
 51
100.533809301
  0
LINE
  5
107
330
1F
100
AcDbEntity
  8
0
  6
SLD-Durchgehend
 62
     7
370
    15
100
AcDbLine
 10
220.3767006407
 20
98.0135857278
 30
0.0
 11
220.4597112844
 21
98.0311122873
 31
0.0
  0
ARC
  5
108
330
1F
100
AcDbEntity
  8
0
  6
SLD-Durchgehend
 62
     7
370
    15
100
AcDbCircle
 10
220.7663105313
 20
96.3773459217
 30
0.0
 40
1.681985900637864
100
AcDbArc
 50
103.3934582403
 51
159.580688298
  0
LINE
  5
109
330
1F
100
AcDbEntity
  8
0
  6
SLD-Durchgehend
 62
     7
370
    15
100
AcDbLine
 10
219.1522871266
 20
96.8505789676
 30
0.0
 11
219.1900131414
 21
96.9641705194
 31
0.0
  0
ARC
  5
10A
330
1F
100
AcDbEntity
  8
0
  6
SLD-Durchgehend
 62
     7
370
    15
100
AcDbCircle
 10
220.7511397674
 20
96.3803696304
 30
0.0
 40
1.666561306374845
100
AcDbArc
 50
163.611826449
 51
219.5067313843
  0
LINE
  5
10B
330
1F
100
AcDbEntity
  8
0
  6
SLD-Durchgehend
 62
     7
370
    15
100
AcDbLine
 10
219.5444894145
 20
95.2310220489
 30
0.0
 11
219.4653046439
 21
95.3201552072
 31
0.0
  0
ARC
  5
10C
330
1F
100
AcDbEntity
  8
0
  6
SLD-Durchgehend
 62
     7
370
    15
100
AcDbCircle
 10
220.7473687791
 20
96.3813258058
 30
0.0
 40
1.664366996425251
100
AcDbArc
 50
223.7200913889
 51
280.3172252674
  0
LINE
  5
10D
330
1F
100
AcDbEntity
  8
0
  6
SLD-Durchgehend
 62
     7
370
    15
100
AcDbLine
 10
221.1285238276
 20
94.7610878536
 30
0.0
 11
221.0454535792
 21
94.7438695619
 31
0.0
  0
ARC
  5
10E
330
1F
100
AcDbEntity
  8
0
  6
SLD-Durchgehend
 62
     7
370
    15
100
AcDbCircle
 10
220.4865725551
 20
97.6934295291
 30
0.0
 40
0.3384846069211217
100
AcDbArc
 50
108.9413090498
 51
177.3693616971
  0
ARC
  5
10F
330
1F
100
AcDbEntity
  8
0
  6
SLD-Durchgehend
 62
     7
370
    15
100
AcDbCircle
 10
219.5523960488
 20
97.7359437725
 30
0.0
 40
0.5966588578351251
100
AcDbArc
 50
266.0028983338
 51
357.4084082636
  0
ARC
  5
110
330
1F
100
AcDbEntity
  8
0
  6
SLD-Durchgehend
 62
     7
370
    15
100
AcDbCircle
 10
219.4872203385
 20
96.8038890924
 30
0.0
 40
0.3376718137720602
100
AcDbArc
 50
85.9948621269
 51
151.6623755873
  0
ARC
  5
111
330
1F
100
AcDbEntity
  8
0
  6
SLD-Durchgehend
 62
     7
370
    15
100
AcDbCircle
 10
219.4761474756
 20
96.8017593582
 30
0.0
 40
0.3275192818101324
100
AcDbArc
 50
171.4276172549
 51
238.4742519082
  0
ARC
  5
112
330
1F
100
AcDbEntity
  8
0
  6
SLD-Durchgehend
 62
     7
370
    15
100
AcDbCircle
 10
218.991419509
 20
96.0240507939
 30
0.0
 40
0.5888952345517983
100
AcDbArc
 50
325.2801060496
 51
57.838413536
  0
ARC
  5
113
330
1F
100
AcDbEntity
  8
0
  6
SLD-Durchgehend
 62
     7
370
    15
100
AcDbCircle
 10
219.7569398388
 20
95.4964985925
 30
0.0
 40
0.340805041667866
100
AcDbArc
 50
145.6825781592
 51
211.1601425993
  0
ARC
  5
114
330
1F
100
AcDbEntity
  8
0
  6
SLD-Durchgehend
 62
     7
370
    15
100
AcDbCircle
 10
220.4884714929
 20
97.7046854271
 30
0.0
 40
0.3276913863259147
100
AcDbArc
 50
24.8372206124
 51
95.035107796
  0
ARC
  5
115
330
1F
100
AcDbEntity
  8
0
  6
SLD-Durchgehend
 62
     7
370
    15
100
AcDbCircle
 10
221.7527510098
 20
97.2765594105
 30
0.0
 40
0.3394339761669756
100
AcDbArc
 50
41.9682047881
 51
117.8735074039
  0
ARC
  5
116
330
1F
100
AcDbEntity
  8
0
  6
SLD-Durchgehend
 62
     7
370
    15
100
AcDbCircle
 10
221.315810305
 20
98.0922713822
 30
0.0
 40
0.585940015784425
100
AcDbArc
 50
205.2498066728
 51
298.3511988243
  0
LWPOLYLINE
  5
117
330
1F
100
AcDbEntity
  8
0
  6
SLD-Durchgehend
 62
     7
370
    15
100
AcDbPolyline
 90
        3
 70
   128
 43
0.0
 10
219.316665561
 20
96.5332941303
 10
219.3043385754
 20
96.5452299604
 10
219.209898741
 20
96.6173422673
  0
LWPOLYLINE
  5
118
330
1F
100
AcDbEntity
  8
0
  6
SLD-Durchgehend
 62
     7
370
    15
100
AcDbPolyline
 90
        3
 70
   128
 43
0.0
 10
220.6908953498
 20
97.9370552266
 10
220.7515877793
 20
97.834871445
 10
220.8077837835
 20
97.7698260137
  0
ARC
  5
119
330
1F
100
AcDbEntity
  8
0
  6
SLD-Durchgehend
 62
     7
370
    15
100
AcDbCircle
 10
219.6519846896
 20
95.5924287261
 30
0.0
 40
0.3345608927347647
100
AcDbArc
 50
255.6407021237
 51
298.5673756087
  0
ARC
  5
11A
330
1F
100
AcDbEntity
  8
0
  6
SLD-Durchgehend
 62
     7
370
    15
100
AcDbCircle
 10
219.746059789
 20
95.4886628579
 30
0.0
 40
0.3271229162624576
100
AcDbArc
 50
231.9614489698
 51
299.4624988172
  0
ARC
  5
11B
330
1F
100
AcDbEntity
  8
0
  6
SLD-Durchgehend
 62
     7
370
    15
100
AcDbCircle
 10
220.6927329211
 20
96.4508081338
 30
0.0
 40
2.625016698827426
100
AcDbArc
 50
45.2809647288
 51
224.8588227779
  0
ARC
  5
11C
330
1F
100
AcDbEntity
  8
0
  6
SLD-Durchgehend
 62
     7
370
    15
100
AcDbCircle
 10
220.1880772331
 20
94.6969297231
 30
0.0
 40
0.5796474646611199
100
AcDbArc
 50
24.5894249227
 51
119.0115430255
  0
ARC
  5
11D
330
1F
100
AcDbEntity
  8
0
  6
SLD-Durchgehend
 62
     7
370
    15
100
AcDbCircle
 10
221.0209432363
 20
95.08012249
 30
0.0
 40
0.3371450557675366
100
AcDbArc
 50
204.9082061863
 51
274.1690636591
  0
ARC
  5
11E
330
1F
100
AcDbEntity
  8
0
  6
SLD-Durchgehend
 62
     7
370
    15
100
AcDbCircle
 10
221.6576186139
 20
97.3792060554
 30
0.0
 40
0.3341492933031832
100
AcDbArc
 50
324.785962991
 51
34.3257980677
  0
ARC
  5
11F
330
1F
100
AcDbEntity
  8
0
  6
SLD-Durchgehend
 62
     7
370
    15
100
AcDbCircle
 10
221.7606686835
 20
97.2850465269
 30
0.0
 40
0.3278731433436136
100
AcDbArc
 50
323.8905809107
 51
41.7907258849
  0
ARC
  5
120
330
1F
100
AcDbEntity
  8
0
  6
SLD-Durchgehend
 62
     7
370
    15
100
AcDbCircle
 10
222.0207921674
 20
95.9708676577
 30
0.0
 40
0.3363259213516098
100
AcDbArc
 50
341.7317555447
 51
58.5800322056
  0
ARC
  5
121
330
1F
100
AcDbEntity
  8
0
  6
SLD-Durchgehend
 62
     7
370
    15
100
AcDbCircle
 10
222.4948706962
 20
96.7533955979
 30
0.0
 40
0.5786096191491342
100
AcDbArc
 50
144.2044462472
 51
238.9140733384
  0
ARC
  5
122
330
1F
100
AcDbEntity
  8
0
  6
SLD-Durchgehend
 62
     7
370
    15
100
AcDbCircle
 10
220.0916264135
 20
94.7860709701
 30
0.0
 40
0.5838604885012596
100
AcDbArc
 50
45.1631428868
 51
118.6187979419
  0
ARC
  5
123
330
1F
100
AcDbEntity
  8
0
  6
SLD-Durchgehend
 62
     7
370
    15
100
AcDbCircle
 10
222.4075091499
 20
96.8494362226
 30
0.0
 40
0.5839966586666955
100
AcDbArc
 50
144.745479043
 51
224.9802910842
  0
ARC
  5
124
330
1F
100
AcDbEntity
  8
0
  6
SLD-Durchgehend
 62
     7
370
    15
100
AcDbCircle
 10
221.932326324
 20
95.0627969562
 30
0.0
 40
0.5798212879252619
100
AcDbArc
 50
84.2706518156
 51
179.1407480689
  0
ARC
  5
125
330
1F
100
AcDbEntity
  8
0
  6
SLD-Durchgehend
 62
     7
370
    15
100
AcDbCircle
 10
222.0235523859
 20
95.9721753043
 30
0.0
 40
0.3341213660358163
100
AcDbArc
 50
264.2727732002
 51
341.3704448849
  0
ARC
  5
126
330
1F
100
AcDbEntity
  8
0
  6
SLD-Durchgehend
 62
     7
370
    15
100
AcDbCircle
 10
221.0185672918
 20
95.0765125395
 30
0.0
 40
0.3340406744870562
100
AcDbArc
 50
289.2184722751
 51
359.1388414538
  0
ARC
  5
127
330
1F
100
AcDbEntity
  8
0
  6
SLD-Durchgehend
 62
     7
370
    15
100
AcDbCircle
 10
220.9224673539
 20
95.1756199847
 30
0.0
 40
0.3352770649301148
100
AcDbArc
 50
236.5902911313
 51
358.3932064677
  0
ARC
  5
128
330
1F
100
AcDbEntity
  8
0
  6
SLD-Durchgehend
 62
     7
370
    15
100
AcDbCircle
 10
221.845428138
 20
95.1484637252
 30
0.0
 40
0.5880836362727635
100
AcDbArc
 50
85.1384901896
 51
178.2699004119
  0
ARC
  5
129
330
1F
100
AcDbEntity
  8
0
  6
SLD-Durchgehend
 62
     7
370
    15
100
AcDbCircle
 10
221.9241245357
 20
96.0686538496
 30
0.0
 40
0.3354656647534796
100
AcDbArc
 50
265.0651510814
 51
33.3875410777
  0
LINE
  5
12A
330
1F
100
AcDbEntity
  8
0
  6
SLD-Gestrichelt
 62
     7
370
     0
100
AcDbLine
 10
184.3841043423
 20
92.6877123454
 30
0.0
 11
184.3841043423
 21
92.7127276698
 31
0.0
  0
ARC
  5
12B
330
1F
100
AcDbEntity
  8
0
  6
SLD-Gestrichelt
 62
     7
370
     0
100
AcDbCircle
 10
188.3153264152
 20
82.9457065998
 30
0.0
 40
10.52849502866595
100
AcDbArc
 50
86.9032197167
 51
111.9247654927
  0
LINE
  5
12C
330
1F
100
AcDbEntity
  8
0
  6
SLD-Gestrichelt
 62
     7
370
     0
100
AcDbLine
 10
188.8841041485
 20
93.4588269481
 30
0.0
 11
190.3989440883
 21
93.4588269481
 31
0.0
  0
LINE
  5
12D
330
1F
100
AcDbEntity
  8
0
  6
SLD-Gestrichelt
 62
     7
370
     0
100
AcDbLine
 10
190.3989440883
 20
132.1748879889
 30
0.0
 11
190.3989440883
 21
93.4588269481
 31
0.0
  0
LINE
  5
12E
330
1F
100
AcDbEntity
  8
0
  6
SLD-Gestrichelt
 62
     7
370
     0
100
AcDbLine
 10
188.8841041485
 20
132.1748879889
 30
0.0
 11
190.3989440883
 21
132.1748879889
 31
0.0
  0
ARC
  5
12F
330
1F
100
AcDbEntity
  8
0
  6
SLD-Gestrichelt
 62
     7
370
     0
100
AcDbCircle
 10
188.9533528989
 20
152.7811125154
 30
0.0
 40
20.60634088398746
100
AcDbArc
 50
257.2330230875
 51
269.8074539958
  0
CIRCLE
  5
130
330
1F
100
AcDbEntity
  8
0
  6
SLD-Gestrichelt
 62
     7
370
     0
100
AcDbCircle
 10
183.4337768861
 20
112.6858878751
 30
0.0
 40
4.99967324649674
  0
LINE
  5
131
330
1F
100
AcDbEntity
  8
0
  6
SLD-Gestrichelt
 62
     7
370
     0
100
AcDbLine
 10
176.4341038773
 20
132.387711961
 30
0.0
 11
176.4341038773
 21
92.9877118358
 31
0.0
  0
LWPOLYLINE
  5
132
330
1F
100
AcDbEntity
  8
0
  6
SLD-Gestrichelt
 62
     7
370
     0
100
AcDbPolyline
 90
        3
 70
   128
 43
0.0
 10
193.4741032431
 20
95.5748328158
 10
193.4663471887
 20
95.6758720019
 10
193.4388806234
 20
95.7877126673
  0
LINE
  5
133
330
1F
100
AcDbEntity
  8
0
  6
SLD-Gestrichelt
 62
     7
370
     0
100
AcDbLine
 10
193.4741032431
 20
95.5748328158
 30
0.0
 11
193.4741032431
 21
124.5377122575
 31
0.0
  0
LWPOLYLINE
  5
134
330
1F
100
AcDbEntity
  8
0
  6
SLD-Gestrichelt
 62
     7
370
     0
100
AcDbPolyline
 90
        3
 70
   128
 43
0.0
 10
191.4293258573
 20
95.7877126673
 10
191.4018602232
 20
95.6758720019
 10
191.3941041688
 20
95.5748328158
  0
LINE
  5
135
330
1F
100
AcDbEntity
  8
0
  6
SLD-Gestrichelt
 62
     7
370
     0
100
AcDbLine
 10
191.3941041688
 20
95.5748328158
 30
0.0
 11
191.3941041688
 21
124.5377122575
 31
0.0
  0
LINE
  5
136
330
1F
100
AcDbEntity
  8
0
  6
SLD-Gestrichelt
 62
     7
370
     0
100
AcDbLine
 10
196.3841659138
 20
129.5877111295
 30
0.0
 11
196.3841044466
 21
129.5992464909
 31
0.0
  0
LINE
  5
137
330
1F
100
AcDbEntity
  8
0
  6
SLD-Gestrichelt
 62
     7
370
     0
100
AcDbLine
 10
196.3841659138
 20
129.5877111295
 30
0.0
 11
196.5841041068
 21
129.5877111295
 31
0.0
  0
LINE
  5
138
330
1F
100
AcDbEntity
  8
0
  6
SLD-Gestrichelt
 62
     7
370
     0
100
AcDbLine
 10
196.3841044466
 20
129.5992464909
 30
0.0
 11
196.3841044466
 21
95.7877126673
 31
0.0
  0
LINE
  5
139
330
1F
100
AcDbEntity
  8
0
  6
SLD-Gestrichelt
 62
     7
370
     0
100
AcDbLine
 10
196.3841044466
 20
95.7877126673
 30
0.0
 11
196.5841041068
 21
95.7877126673
 31
0.0
  0
LINE
  5
13A
330
1F
100
AcDbEntity
  8
0
  6
SLD-Gestrichelt
 62
     7
370
     0
100
AcDbLine
 10
196.3841044466
 20
125.5651147255
 30
0.0
 11
196.3841044466
 21
129.5992464909
 31
0.0
  0
LINE
  5
13B
330
1F
100
AcDbEntity
  8
0
  6
SLD-Gestrichelt
 62
     7
370
     0
100
AcDbLine
 10
196.3841044466
 20
95.7877126673
 30
0.0
 11
196.3841044466
 21
124.5377122575
 31
0.0
  0
LINE
  5
13C
330
1F
100
AcDbEntity
  8
0
  6
SLD-Gestrichelt
 62
     7
370
     0
100
AcDbLine
 10
184.3841043423
 20
124.5377122575
 30
0.0
 11
188.877773949
 21
124.5377122575
 31
0.0
  0
LWPOLYLINE
  5
13D
330
1F
100
AcDbEntity
  8
0
  6
SLD-Gestrichelt
 62
     7
370
     0
100
AcDbPolyline
 90
       20
 70
   128
 43
0.0
 10
200.434104086
 20
118.9448105322
 10
199.6119883964
 20
119.0746573882
 10
198.8826361606
 20
119.4453070091
 10
198.3222426037
 20
120.0110314564
 10
197.9976822744
 20
120.7007330993
 10
197.949355946
 20
121.42100494
 10
198.1765483628
 20
122.0884028041
 10
198.6538642208
 20
122.6421262288
 10
199.3357860605
 20
123.0317962506
 10
200.1437586854
 20
123.2174768263
 10
200.9770837734
 20
123.1841475853
 10
201.7453410784
 20
122.9393429273
 10
202.3727451573
 20
122.4999039584
 10
202.7868409763
 20
121.8992930987
 10
202.9340383718
 20
121.2013925576
 10
202.8015949885
 20
120.4873684944
 10
202.4082341353
 20
119.8342417517
 10
201.791109995
 20
119.3170019576
 10
201.0163818608
 20
119.0090969355
 10
200.434104086
 20
118.9448105322
  0
ELLIPSE
  5
13E
330
1F
100
AcDbEntity
  8
0
  6
SLD-Gestrichelt
 62
     7
370
     0
100
AcDbEllipse
 10
216.9995656569
 20
112.6877118984
 30
0.0
 11
-9.026716742795827
 21
16.45571220594981
 31
0.0
210
0.0
220
0.0
230
1.0
 40
0.1338374214
 41
6.209900788617447
 42
7.343389486693942
  0
LINE
  5
13F
330
1F
100
AcDbEntity
  8
0
  6
SLD-Gestrichelt
 62
     7
370
     0
100
AcDbLine
 10
176.4341038773
 20
96.480510492
 30
0.0
 11
176.4341038773
 21
128.8820983061
 31
0.0
  0
LINE
  5
140
330
1F
100
AcDbEntity
  8
0
  6
SLD-Gestrichelt
 62
     7
370
     0
100
AcDbLine
 10
174.4341037823
 20
127.7914124692
 30
0.0
 11
174.4341037823
 21
97.5840113276
 31
0.0
  0
LINE
  5
141
330
1F
100
AcDbEntity
  8
0
  6
SLD-Gestrichelt
 62
     7
370
     0
100
AcDbLine
 10
157.4755874584
 20
99.9845343792
 30
0.0
 11
157.484103472
 21
99.9571767786
 31
0.0
  0
LINE
  5
142
330
1F
100
AcDbEntity
  8
0
  6
SLD-Gestrichelt
 62
     7
370
     0
100
AcDbLine
 10
157.484103472
 20
99.9571767786
 30
0.0
 11
157.6443133066
 21
99.9765315244
 31
0.0
  0
ARC
  5
143
330
1F
100
AcDbEntity
  8
0
  6
SLD-Gestrichelt
 62
     7
370
     0
100
AcDbCircle
 10
167.4892439855
 20
25.535339859
 30
0.0
 40
75.08937126268323
100
AcDbArc
 50
94.395681249
 51
97.5337113535
  0
LWPOLYLINE
  5
144
330
1F
100
AcDbEntity
  8
0
  6
SLD-Gestrichelt
 62
     7
370
     0
100
AcDbPolyline
 90
        7
 70
   128
 43
0.0
 10
161.734103703
 20
100.4038381541
 10
161.7974187369
 20
100.4033855313
 10
161.8587928946
 20
100.3919451648
 10
161.9361960451
 20
100.3614778781
 10
162.0415593619
 20
100.2883709186
 10
162.2296325053
 20
100.0372891465
 10
162.3428682918
 20
99.7537088731
  0
ARC
  5
145
330
1F
100
AcDbEntity
  8
0
  6
SLD-Gestrichelt
 62
     7
370
     0
100
AcDbCircle
 10
159.4955634315
 20
98.1171290477
 30
0.0
 40
3.284134359664609
100
AcDbArc
 50
17.1244326527
 51
29.8895177058
  0
LINE
  5
146
330
1F
100
AcDbEntity
  8
0
  6
SLD-Gestrichelt
 62
     7
370
     0
100
AcDbLine
 10
162.6341040368
 20
99.0841354394
 30
0.0
 11
162.6341040368
 21
98.1751934776
 31
0.0
  0
LINE
  5
147
330
1F
100
AcDbEntity
  8
0
  6
SLD-Gestrichelt
 62
     7
370
     0
100
AcDbLine
 10
160.134103627
 20
127.0749795401
 30
0.0
 11
160.134103627
 21
126.2452363187
 31
0.0
  0
ARC
  5
148
330
1F
100
AcDbEntity
  8
0
  6
SLD-Gestrichelt
 62
     7
370
     0
100
AcDbCircle
 10
159.0791386485
 20
126.5578459327
 30
0.0
 40
1.100307173752291
100
AcDbArc
 50
278.0963186522
 51
343.4942707128
  0
LWPOLYLINE
  5
149
330
1F
100
AcDbEntity
  8
0
  6
SLD-Gestrichelt
 62
     7
370
     0
100
AcDbPolyline
 90
        3
 70
   128
 43
0.0
 10
159.2341032932
 20
125.4685058409
 10
158.3704692433
 20
125.5271344596
 10
157.484103472
 20
125.5532925168
  0
LINE
  5
14A
330
1F
100
AcDbEntity
  8
0
  6
SLD-Gestrichelt
 62
     7
370
     0
100
AcDbLine
 10
157.484103472
 20
125.5532925168
 30
0.0
 11
157.3849362443
 21
125.3611476311
 31
0.0
  0
ELLIPSE
  5
14B
330
1F
100
AcDbEntity
  8
0
  6
SLD-Gestrichelt
 62
     7
370
     0
100
AcDbEllipse
 10
143.9279832388
 20
113.3268223497
 30
0.0
 11
13.36963611134309
 21
13.36754752639483
 31
0.0
210
0.0
220
0.0
230
1.0
 40
0.1761188775
 41
5.933076931846605
 42
5.976720052691198
  0
ELLIPSE
  5
14C
330
1F
100
AcDbEntity
  8
0
  6
SLD-Gestrichelt
 62
     7
370
     0
100
AcDbEllipse
 10
144.0073616695
 20
112.0484142206
 30
0.0
 11
13.37355272666625
 21
-13.37146352987011
 31
0.0
210
0.0
220
0.0
230
1.0
 40
0.1761188775
 41
0.3023035477142457
 42
0.3822730435340289
  0
ARC
  5
14D
330
1F
100
AcDbEntity
  8
0
  6
SLD-Gestrichelt
 62
     7
370
     0
100
AcDbCircle
 10
170.7638545398
 20
76.554156769
 30
0.0
 40
21.60178524906596
100
AcDbArc
 50
97.1287248107
 51
98.3719928051
  0
LWPOLYLINE
  5
14E
330
1F
100
AcDbEntity
  8
0
  6
SLD-Gestrichelt
 62
     7
370
     0
100
AcDbPolyline
 90
       16
 70
   128
 43
0.0
 10
173.2003819319
 20
97.6461137795
 10
173.201873445
 20
97.6457552204
 10
173.1459386768
 20
97.6596077123
 10
172.9849053203
 20
97.6979493314
 10
172.7222364983
 20
97.7567437255
 10
172.3742173175
 20
97.8281463647
 10
171.9547966617
 20
97.9027071187
 10
171.475664259
 20
97.9723262751
 10
170.9502684074
 20
98.0294983053
 10
170.401544788
 20
98.0685989523
 10
169.8601045767
 20
98.0854167753
 10
169.3390333215
 20
98.0809883365
 10
168.8534719991
 20
98.0586999246
 10
168.4406078542
 20
98.0266251752
 10
168.4276661957
 20
98.0256193468
 10
168.0830954696
 20
97.9889569023
  0
LWPOLYLINE
  5
14F
330
1F
100
AcDbEntity
  8
0
  6
SLD-Gestrichelt
 62
     7
370
     0
100
AcDbPolyline
 90
       16
 70
   128
 43
0.0
 10
168.0829771916
 20
127.3864519933
 10
168.428417773
 20
127.3498584667
 10
168.4347330714
 20
127.3493676597
 10
168.8544834154
 20
127.316789996
 10
169.3401630158
 20
127.2944801638
 10
169.8620030778
 20
127.2900023648
 10
170.4031177918
 20
127.3068276384
 10
170.9529124322
 20
127.3461210692
 10
171.4775101403
 20
127.4033275583
 10
171.9570146064
 20
127.4730528855
 10
172.3755458491
 20
127.547456246
 10
172.7232632814
 20
127.6187992805
 10
172.9851740068
 20
127.6774521136
 10
173.1459098058
 20
127.7157844195
 10
173.2005560892
 20
127.7296061778
 10
173.1993830884
 20
127.7293109486
  0
ARC
  5
150
330
1F
100
AcDbEntity
  8
0
  6
SLD-Gestrichelt
 62
     7
370
     0
100
AcDbCircle
 10
169.3169172794
 20
138.1869298039
 30
0.0
 40
10.87073728310234
100
AcDbArc
 50
261.009721592
 51
263.4822940933
  0
ARC
  5
151
330
1F
100
AcDbEntity
  8
0
  6
SLD-Gestrichelt
 62
     7
370
     0
100
AcDbCircle
 10
170.4319146203
 20
87.3819305166
 30
0.0
 40
12.7643089082306
100
AcDbArc
 50
81.773666861
 51
100.2786770347
  0
ARC
  5
152
330
1F
100
AcDbEntity
  8
0
  6
SLD-Gestrichelt
 62
     7
370
     0
100
AcDbCircle
 10
170.4319146203
 20
137.9934932801
 30
0.0
 40
12.76430890823064
100
AcDbArc
 50
259.7213229653
 51
278.226333139
  0
LWPOLYLINE
  5
153
330
1F
100
AcDbEntity
  8
0
  6
SLD-Gestrichelt
 62
     7
370
     0
100
AcDbPolyline
 90
        6
 70
   128
 43
0.0
 10
172.2582806955
 20
125.3605217823
 10
172.6166512939
 20
125.4041682148
 10
172.7289878885
 20
125.4145487362
 10
172.7338926988
 20
125.415001359
 10
172.5951696402
 20
125.4019991645
 10
172.2582806955
 20
125.3605217823
  0
LWPOLYLINE
  5
154
330
1F
100
AcDbEntity
  8
0
  6
SLD-Gestrichelt
 62
     7
370
     0
100
AcDbPolyline
 90
        6
 70
   128
 43
0.0
 10
172.2582806955
 20
100.0149020144
 10
172.6166512939
 20
99.971255582
 10
172.7290183893
 20
99.9608722666
 10
172.7338926988
 20
99.9604224378
 10
172.5951696402
 20
99.9734246323
 10
172.2582806955
 20
100.0149020144
  0
LINE
  5
155
330
1F
100
AcDbEntity
  8
0
  6
SLD-Gestrichelt
 62
     7
370
     0
100
AcDbLine
 10
176.4341038773
 20
102.1877120399
 30
0.0
 11
176.4341038773
 21
123.1877117568
 31
0.0
  0
LINE
  5
156
330
1F
100
AcDbEntity
  8
0
  6
SLD-Gestrichelt
 62
     7
370
     0
100
AcDbLine
 10
164.4367533858
 20
123.1877117568
 30
0.0
 11
164.4367533858
 21
102.1877120399
 31
0.0
  0
LINE
  5
157
330
1F
100
AcDbEntity
  8
0
  6
SLD-Gestrichelt
 62
     7
370
     0
100
AcDbLine
 10
188.877773949
 20
124.5377122575
 30
0.0
 11
196.7132282565
 21
124.5377122575
 31
0.0
  0
LINE
  5
158
330
1F
100
AcDbEntity
  8
0
  6
SLD-Gestrichelt
 62
     7
370
     0
100
AcDbLine
 10
191.3941041688
 20
126.2035587022
 30
0.0
 11
191.3941041688
 21
130.0903161207
 31
0.0
  0
LINE
  5
159
330
1F
100
AcDbEntity
  8
0
  6
SLD-Gestrichelt
 62
     7
370
     0
100
AcDbLine
 10
193.4741032431
 20
126.2035587022
 30
0.0
 11
193.4741032431
 21
130.0903161207
 31
0.0
  0
LWPOLYLINE
  5
15A
330
1F
100
AcDbEntity
  8
0
  6
SLD-Gestrichelt
 62
     7
370
     0
100
AcDbPolyline
 90
       29
 70
   128
 43
0.0
 10
199.1361160884
 20
110.8155635336
 10
199.1923195432
 20
110.7120661216
 10
199.1853923658
 20
110.5274377076
 10
199.1156847338
 20
110.2709363365
 10
198.9866909693
 20
109.9554240388
 10
198.8048781762
 20
109.5967221224
 10
198.5793640027
 20
109.2128169873
 10
198.3214584301
 20
108.8229597697
 10
198.0440900783
 20
108.4466993959
 10
197.7611710439
 20
108.1029025988
 10
197.4868872325
 20
107.8088095562
 10
197.2349905531
 20
107.5791663641
 10
197.0181134651
 20
107.4254892917
 10
196.8471319536
 20
107.3554841021
 10
196.7306179116
 20
107.37266095
 10
196.6744144569
 20
107.476158362
 10
196.6813416342
 20
107.6607865432
 10
196.7510492662
 20
107.9172881471
 10
196.8800430308
 20
108.2328002119
 10
197.0618558238
 20
108.5915023612
 10
197.2873699973
 20
108.9754072634
 10
197.5452755699
 20
109.3652644811
 10
197.8226439218
 20
109.7415250877
 10
198.1055629561
 20
110.0853218848
 10
198.3798467676
 20
110.3794149274
 10
198.631743447
 20
110.6090578867
 10
198.8486205349
 20
110.7627348426
 10
199.0196020464
 20
110.8327402651
 10
199.1361160884
 20
110.8155635336
  0
LWPOLYLINE
  5
15B
330
1F
100
AcDbEntity
  8
0
  6
SLD-Gestrichelt
 62
     7
370
     0
100
AcDbPolyline
 90
        3
 70
   128
 43
0.0
 10
202.3169011931
 20
108.592095148
 10
201.6499289433
 20
109.0405975153
 10
200.9329130063
 20
109.5433850458
  0
LWPOLYLINE
  5
15C
330
1F
100
AcDbEntity
  8
0
  6
SLD-Gestrichelt
 62
     7
370
     0
100
AcDbPolyline
 90
       12
 70
   128
 43
0.0
 10
200.9329130063
 20
109.5433850458
 10
200.198786811
 20
109.9777948727
 10
199.5999296317
 20
110.0742265733
 10
199.1366227279
 20
109.9639039637
 10
198.895127059
 20
109.791684026
 10
198.790990294
 20
109.7174201311
 10
198.5301100771
 20
109.3387555482
 10
198.4043889801
 20
108.9570967631
 10
198.3829238574
 20
108.8919339852
 10
198.340565444
 20
108.1884916091
 10
198.5498634289
 20
107.2109265403
 10
198.810931773
 20
106.6527527908
  0
LWPOLYLINE
  5
15D
330
1F
100
AcDbEntity
  8
0
  6
SLD-Gestrichelt
 62
     7
370
     0
100
AcDbPolyline
 90
        3
 70
   128
 43
0.0
 10
198.810931773
 20
106.6527527908
 10
199.3193836073
 20
106.3157369533
 10
199.7654126147
 20
106.0884947108
  0
LWPOLYLINE
  5
15E
330
1F
100
AcDbEntity
  8
0
  6
SLD-Gestrichelt
 62
     7
370
     0
100
AcDbPolyline
 90
       10
 70
   128
 43
0.0
 10
199.7654126147
 20
106.0884947108
 10
200.1885087351
 20
106.1614573152
 10
200.6418747018
 20
106.3124112004
 10
201.2742147903
 20
106.6306050086
 10
201.7605700652
 20
106.9754551315
 10
202.1656339178
 20
107.37315036
 10
202.4055966298
 20
107.7241025084
 10
202.5212575803
 20
108.0426464939
 10
202.4877597699
 20
108.4001272136
 10
202.3169011931
 20
108.592095148
  0
LINE
  5
15F
330
1F
100
AcDbEntity
  8
0
  6
SLD-Gestrichelt
 62
     7
370
     0
100
AcDbLine
 10
156.5341041545
 20
102.8227054665
 30
0.0
 11
156.5341041545
 21
122.5527183303
 31
0.0
  0
LINE
  5
160
330
1F
100
AcDbEntity
  8
0
  6
SLD-Gestrichelt
 62
     7
370
     0
100
AcDbLine
 10
182.6034789095
 20
123.1877117568
 30
0.0
 11
182.6034789095
 21
102.1877120399
 31
0.0
  0
LINE
  5
161
330
1F
100
AcDbEntity
  8
0
  6
SLD-Gestrichelt
 62
     7
370
     0
100
AcDbLine
 10
184.3841043423
 20
122.5627123529
 30
0.0
 11
184.3841043423
 21
102.8127114439
 31
0.0
  0
LINE
  5
162
330
1F
100
AcDbEntity
  8
0
  6
SLD-Gestrichelt
 62
     7
370
     0
100
AcDbLine
 10
157.484103472
 20
102.9898061568
 30
0.0
 11
161.734103703
 21
102.9898061568
 31
0.0
  0
LINE
  5
163
330
1F
100
AcDbEntity
  8
0
  6
SLD-Gestrichelt
 62
     7
370
     0
100
AcDbLine
 10
157.484103472
 20
122.38561764
 30
0.0
 11
157.484103472
 21
102.9898061568
 31
0.0
  0
LINE
  5
164
330
1F
100
AcDbEntity
  8
0
  6
SLD-Gestrichelt
 62
     7
370
     0
100
AcDbLine
 10
159.2341032932
 20
122.38561764
 30
0.0
 11
157.484103472
 21
122.38561764
 31
0.0
  0
LWPOLYLINE
  5
165
330
1F
100
AcDbEntity
  8
0
  6
SLD-Gestrichelt
 62
     7
370
     0
100
AcDbPolyline
 90
        6
 70
   128
 43
0.0
 10
160.134103627
 20
122.7119018474
 10
160.0783229927
 20
122.6092831382
 10
159.9171613465
 20
122.5100460613
 10
159.6686472307
 20
122.4312896991
 10
159.3769048462
 20
122.3903413081
 10
159.2341032932
 20
122.38561764
  0
LINE
  5
166
330
1F
100
AcDbEntity
  8
0
  6
SLD-Gestrichelt
 62
     7
370
     0
100
AcDbLine
 10
160.134103627
 20
122.7119018474
 30
0.0
 11
160.134103627
 21
123.1877117568
 31
0.0
  0
LWPOLYLINE
  5
167
330
1F
100
AcDbEntity
  8
0
  6
SLD-Gestrichelt
 62
     7
370
     0
100
AcDbPolyline
 90
        6
 70
   128
 43
0.0
 10
160.134103627
 20
122.7119018474
 10
160.0783229927
 20
122.6092831382
 10
159.9171613465
 20
122.5100460613
 10
159.6686472307
 20
122.4312896991
 10
159.3769048462
 20
122.3903413081
 10
159.2341032932
 20
122.38561764
  0
LWPOLYLINE
  5
168
330
1F
100
AcDbEntity
  8
0
  6
SLD-Gestrichelt
 62
     7
370
     0
100
AcDbPolyline
 90
        6
 70
   128
 43
0.0
 10
161.734103703
 20
102.9898061568
 10
162.0161342556
 20
102.9711163753
 10
162.2660900588
 20
102.919383269
 10
162.4669502611
 20
102.8415843064
 10
162.5985135446
 20
102.7451076695
 10
162.6341040368
 20
102.6635219494
  0
LINE
  5
169
330
1F
100
AcDbEntity
  8
0
  6
SLD-Gestrichelt
 62
     7
370
     0
100
AcDbLine
 10
162.6341040368
 20
102.6635219494
 30
0.0
 11
162.6341040368
 21
102.1877120399
 31
0.0
  0
LWPOLYLINE
  5
16A
330
1F
100
AcDbEntity
  8
0
  6
SLD-Gestrichelt
 62
     7
370
     0
100
AcDbPolyline
 90
        6
 70
   128
 43
0.0
 10
161.734103703
 20
102.9898061568
 10
162.0161342556
 20
102.9711163753
 10
162.2660900588
 20
102.919383269
 10
162.4669502611
 20
102.8415843064
 10
162.5985135446
 20
102.7451076695
 10
162.6341040368
 20
102.6635219494
  0
LINE
  5
16B
330
1F
100
AcDbEntity
  8
0
  6
SLD-Gestrichelt
 62
     7
370
     0
100
AcDbLine
 10
157.484103472
 20
102.9898061568
 30
0.0
 11
157.484103472
 21
122.38561764
 31
0.0
  0
ARC
  5
16C
330
1F
100
AcDbEntity
  8
0
  6
SLD-Gestrichelt
 62
     7
370
     0
100
AcDbCircle
 10
200.3379403993
 20
108.1463779241
 30
0.0
 40
2.136041053842509
100
AcDbArc
 50
224.3668032824
 51
254.4527951774
  0
ARC
  5
16D
330
1F
100
AcDbEntity
  8
0
  6
SLD-Gestrichelt
 62
     7
370
     0
100
AcDbCircle
 10
200.5547842105
 20
107.510867223
 30
0.0
 40
2.06739209781781
100
AcDbArc
 50
31.5331116622
 51
79.4611992172
  0
LWPOLYLINE
  5
16E
330
1F
100
AcDbEntity
  8
0
  6
SLD-Gestrichelt
 62
     7
370
     0
100
AcDbPolyline
 90
       13
 70
   128
 43
0.0
 10
201.53410408
 20
113.3215840707
 10
201.8050109158
 20
113.386040324
 10
202.0338182459
 20
113.356539983
 10
202.1883172105
 20
113.2592332467
 10
202.3336799006
 20
113.0678138613
 10
202.4790835688
 20
112.6876734701
 10
202.5333554606
 20
112.209558403
 10
202.4344992945
 20
111.7427799652
 10
202.3103893856
 20
111.4904836902
 10
202.1804605732
 20
111.2669509055
 10
202.0103898952
 20
110.9859783353
 10
201.6119402955
 20
110.3675524389
 10
201.53410408
 20
110.2548891829
  0
LWPOLYLINE
  5
16F
330
1F
100
AcDbEntity
  8
0
  6
SLD-Gestrichelt
 62
     7
370
     0
100
AcDbPolyline
 90
       18
 70
   128
 43
0.0
 10
201.53410408
 20
110.2548891829
 10
201.0335181961
 20
110.1987434702
 10
200.6052215705
 20
110.1894777419
 10
200.15097271
 20
110.1904079003
 10
199.6764154295
 20
110.2086764911
 10
199.0442560176
 20
110.3380544262
 10
198.5636749426
 20
110.679348061
 10
198.3742253045
 20
111.0672398388
 10
198.3428546349
 20
111.5680601831
 10
198.4598455141
 20
112.0675379677
 10
198.7058804492
 20
112.5787795643
 10
199.2363822768
 20
113.2342889939
 10
199.5630809228
 20
113.4953608887
 10
199.945554615
 20
113.6958110762
 10
200.3511865745
 20
113.7864238733
 10
200.7685494731
 20
113.7452350847
 10
201.2607720802
 20
113.5242803173
 10
201.53410408
 20
113.3215840707
  0
LINE
  5
170
330
1F
100
AcDbEntity
  8
0
  6
SLD-Gestrichelt
 62
     7
370
     0
100
AcDbLine
 10
160.134103627
 20
123.6877118388
 30
0.0
 11
160.134103627
 21
126.2452363187
 31
0.0
  0
LINE
  5
171
330
1F
100
AcDbEntity
  8
0
  6
SLD-Gestrichelt
 62
     7
370
     0
100
AcDbLine
 10
162.6341040368
 20
101.687711958
 30
0.0
 11
162.6341040368
 21
99.0841354394
 31
0.0
  0
LINE
  5
172
330
1F
100
AcDbEntity
  8
0
  6
SLD-Gestrichelt
 62
     7
370
     0
100
AcDbLine
 10
157.484103472
 20
123.6877118388
 30
0.0
 11
157.484103472
 21
125.5677121842
 31
0.0
  0
LINE
  5
173
330
1F
100
AcDbEntity
  8
0
  6
SLD-Gestrichelt
 62
     7
370
     0
100
AcDbLine
 10
156.5341041545
 20
123.6877118388
 30
0.0
 11
156.5341041545
 21
124.6177119353
 31
0.0
  0
LINE
  5
174
330
1F
100
AcDbEntity
  8
0
  6
SLD-Gestrichelt
 62
     7
370
     0
100
AcDbLine
 10
157.484103472
 20
101.687711958
 30
0.0
 11
157.484103472
 21
99.866711829
 31
0.0
  0
LINE
  5
175
330
1F
100
AcDbEntity
  8
0
  6
SLD-Gestrichelt
 62
     7
370
     0
100
AcDbLine
 10
156.5341041545
 20
101.687711958
 30
0.0
 11
156.5341041545
 21
100.8167120779
 31
0.0
  0
LINE
  5
176
330
1F
100
AcDbEntity
  8
0
  6
SLD-Gestrichelt
 62
     7
370
     0
100
AcDbLine
 10
192.2341031144
 20
118.9377119915
 30
0.0
 11
192.2341031144
 21
106.4377118053
 31
0.0
  0
LINE
  5
177
330
1F
100
AcDbEntity
  8
0
  6
SLD-Gestrichelt
 62
     7
370
     0
100
AcDbLine
 10
189.7341036359
 20
118.9377119915
 30
0.0
 11
189.7341036359
 21
106.4377118053
 31
0.0
  0
LINE
  5
178
330
1F
100
AcDbEntity
  8
0
  6
SLD-Gestrichelt
 62
     7
370
     0
100
AcDbLine
 10
184.8841034929
 20
118.1877118686
 30
0.0
 11
184.8841034929
 21
107.1877119282
 31
0.0
  0
LINE
  5
179
330
1F
100
AcDbEntity
  8
0
  6
SLD-Gestrichelt
 62
     7
370
     0
100
AcDbLine
 10
184.3841043423
 20
106.6877118462
 30
0.0
 11
184.3841043423
 21
118.6877119505
 31
0.0
  0
LINE
  5
17A
330
1F
100
AcDbEntity
  8
0
  6
SLD-Gestrichelt
 62
     7
370
     0
100
AcDbLine
 10
189.7341036359
 20
107.1877119282
 30
0.0
 11
189.7341036359
 21
118.1877118686
 31
0.0
  0
LINE
  5
17B
330
1F
100
AcDbEntity
  8
0
  6
SLD-Gestrichelt
 62
     7
370
     0
100
AcDbLine
 10
191.4293258573
 20
95.7877126673
 30
0.0
 11
188.8841041485
 21
95.7877126673
 31
0.0
  0
LINE
  5
17C
330
1F
100
AcDbEntity
  8
0
  6
SLD-Gestrichelt
 62
     7
370
     0
100
AcDbLine
 10
191.3941041688
 20
95.5748328158
 30
0.0
 11
191.3941041688
 21
95.2585891971
 31
0.0
  0
LINE
  5
17D
330
1F
100
AcDbEntity
  8
0
  6
SLD-Gestrichelt
 62
     7
370
     0
100
AcDbLine
 10
184.3841043423
 20
92.7127276698
 30
0.0
 11
184.3841043423
 21
95.7877126673
 31
0.0
  0
LINE
  5
17E
330
1F
100
AcDbEntity
  8
0
  6
SLD-Gestrichelt
 62
     7
370
     0
100
AcDbLine
 10
188.8841041485
 20
95.7877126673
 30
0.0
 11
184.3841043423
 21
95.7877126673
 31
0.0
  0
LINE
  5
17F
330
1F
100
AcDbEntity
  8
0
  6
SLD-Gestrichelt
 62
     7
370
     0
100
AcDbLine
 10
196.3841044466
 20
95.7877126673
 30
0.0
 11
193.4388806234
 21
95.7877126673
 31
0.0
  0
LINE
  5
180
330
1F
100
AcDbEntity
  8
0
  6
SLD-Gestrichelt
 62
     7
370
     0
100
AcDbLine
 10
193.4741032431
 20
95.2585891971
 30
0.0
 11
193.4741032431
 21
95.5748328158
 31
0.0
  0
LINE
  5
181
330
1F
100
AcDbEntity
  8
0
  6
SLD-Gestrichelt
 62
     7
370
     0
100
AcDbLine
 10
196.3841044466
 20
95.7877126673
 30
0.0
 11
196.3841044466
 21
94.0836792031
 31
0.0
  0
ELLIPSE
  5
182
330
1F
100
AcDbEntity
  8
0
  6
SLD-Gestrichelt
 62
     7
370
     0
100
AcDbEllipse
 10
154.4283371376
 20
112.6877118984
 30
0.0
 11
12.26424774976735
 21
0.0
 31
0.0
210
0.0
220
0.0
230
1.0
 40
0.8164965809
 41
4.884943637108984
 42
4.964202354313276
  0
LINE
  5
183
330
1F
100
AcDbEntity
  8
0
  6
SLD-Gestrichelt
 62
     7
370
     0
100
AcDbLine
 10
156.5341041545
 20
101.687711958
 30
0.0
 11
156.5341041545
 21
102.8227054665
 31
0.0
  0
ELLIPSE
  5
184
330
1F
100
AcDbEntity
  8
0
  6
SLD-Gestrichelt
 62
     7
370
     0
100
AcDbEllipse
 10
154.4283371376
 20
112.6877118984
 30
0.0
 11
12.26424774976735
 21
0.0
 31
0.0
210
0.0
220
0.0
230
1.0
 40
0.8164965809
 41
1.318982952866322
 42
1.398241670070614
  0
LINE
  5
185
330
1F
100
AcDbEntity
  8
0
  6
SLD-Gestrichelt
 62
     7
370
     0
100
AcDbLine
 10
156.5341041545
 20
123.6877118388
 30
0.0
 11
156.5341041545
 21
122.5527183303
 31
0.0
  0
LINE
  5
186
330
1F
100
AcDbEntity
  8
0
  6
SLD-Gestrichelt
 62
     7
370
     0
100
AcDbLine
 10
196.3841659138
 20
129.5877111295
 30
0.0
 11
193.225758628
 21
129.5877111295
 31
0.0
  0
LINE
  5
187
330
1F
100
AcDbEntity
  8
0
  6
SLD-Gestrichelt
 62
     7
370
     0
100
AcDbLine
 10
196.3841044466
 20
129.5992464909
 30
0.0
 11
196.3841044466
 21
131.5585890004
 31
0.0
  0
LINE
  5
188
330
1F
100
AcDbEntity
  8
0
  6
SLD-Gestrichelt
 62
     7
370
     0
100
AcDbLine
 10
193.4741032431
 20
130.4013890365
 30
0.0
 11
193.4741032431
 21
130.0903161207
 31
0.0
  0
LINE
  5
189
330
1F
100
AcDbEntity
  8
0
  6
SLD-Gestrichelt
 62
     7
370
     0
100
AcDbLine
 10
188.8841041485
 20
129.5877111295
 30
0.0
 11
184.3841043423
 21
129.5877111295
 31
0.0
  0
LINE
  5
18A
330
1F
100
AcDbEntity
  8
0
  6
SLD-Gestrichelt
 62
     7
370
     0
100
AcDbLine
 10
191.6424478526
 20
129.5877111295
 30
0.0
 11
188.8841041485
 21
129.5877111295
 31
0.0
  0
LINE
  5
18B
330
1F
100
AcDbEntity
  8
0
  6
SLD-Gestrichelt
 62
     7
370
     0
100
AcDbLine
 10
191.3941041688
 20
130.0903161207
 30
0.0
 11
191.3941041688
 21
130.4013890365
 31
0.0
  0
LINE
  5
18C
330
1F
100
AcDbEntity
  8
0
  6
SLD-Gestrichelt
 62
     7
370
     0
100
AcDbLine
 10
224.0159292827
 20
99.9871746787
 30
0.0
 11
223.9936185191
 21
100.030289326
 31
0.0
  0
LINE
  5
18D
330
1F
100
AcDbEntity
  8
0
  6
SLD-Gestrichelt
 62
     7
370
     0
100
AcDbLine
 10
215.9007568965
 20
104.2081493104
 30
0.0
 11
224.0159292827
 21
99.9871746787
 31
0.0
  0
LINE
  5
18E
330
1F
100
AcDbEntity
  8
0
  6
SLD-Gestrichelt
 62
     7
370
     0
100
AcDbLine
 10
215.8784498582
 20
104.2512639576
 30
0.0
 11
215.9007568965
 21
104.2081493104
 31
0.0
  0
LINE
  5
18F
330
1F
100
AcDbEntity
  8
0
  6
SLD-Gestrichelt
 62
     7
370
     0
100
AcDbLine
 10
217.2241550992
 20
92.9912005702
 30
0.0
 11
210.2348101447
 21
106.4987120369
 31
0.0
  0
LINE
  5
190
330
1F
100
AcDbEntity
  8
0
  6
SLD-Gestrichelt
 62
     7
370
     0
100
AcDbLine
 10
217.2241550992
 20
92.9912005702
 30
0.0
 11
217.1812844584
 21
93.0134982952
 31
0.0
  0
LINE
  5
191
330
1F
100
AcDbEntity
  8
0
  6
SLD-Gestrichelt
 62
     7
370
     0
100
AcDbLine
 10
160.134103627
 20
123.6877118388
 30
0.0
 11
160.134103627
 21
122.7119018474
 31
0.0
  0
LINE
  5
192
330
1F
100
AcDbEntity
  8
0
  6
SLD-Gestrichelt
 62
     7
370
     0
100
AcDbLine
 10
157.484103472
 20
123.6877118388
 30
0.0
 11
157.484103472
 21
122.38561764
 31
0.0
  0
LINE
  5
193
330
1F
100
AcDbEntity
  8
0
  6
SLD-Gestrichelt
 62
     7
370
     0
100
AcDbLine
 10
157.484103472
 20
101.687711958
 30
0.0
 11
157.484103472
 21
102.9898061568
 31
0.0
  0
LINE
  5
194
330
1F
100
AcDbEntity
  8
0
  6
SLD-Gestrichelt
 62
     7
370
     0
100
AcDbLine
 10
162.6341040368
 20
101.687711958
 30
0.0
 11
162.6341040368
 21
102.6635219494
 31
0.0
  0
LWPOLYLINE
  5
195
330
1F
100
AcDbEntity
  8
0
  6
SLD-Gestrichelt
 62
     7
370
     0
100
AcDbPolyline
 90
       54
 70
   128
 43
0.0
 10
168.2899533893
 20
98.4485860133
 10
168.5184775973
 20
98.4818873146
 10
168.8985466147
 20
98.5242243075
 10
169.3001925136
 20
98.5533868113
 10
169.6717771823
 20
98.569374826
 10
169.6717906865
 20
98.569374826
 10
169.9818680184
 20
98.5721883515
 10
170.8081718656
 20
98.5220235923
 10
171.2597394484
 20
98.4670448267
 10
171.4856922748
 20
98.4320811147
 10
171.7068660195
 20
98.3921357581
 10
172.1415082114
 20
98.3003120089
 10
172.3872372071
 20
98.2389695162
 10
172.561098368
 20
98.1919023359
 10
172.6926588575
 20
98.154438954
 10
172.73408362
 20
98.1422218645
 10
172.7332319255
 20
98.1424863601
 10
172.6956018368
 20
98.1541651452
 10
172.5704681716
 20
98.1890208238
 10
172.4732443812
 20
98.2150410453
 10
172.415750579
 20
98.2301983202
 10
172.3847724619
 20
98.2383147964
 10
172.3687253083
 20
98.2425066793
 10
172.3605622659
 20
98.244636614
 10
172.3564458201
 20
98.2457094976
 10
172.3543787497
 20
98.2462478021
 10
172.353343119
 20
98.2465178856
 10
172.352824838
 20
98.2466529274
 10
172.3525654646
 20
98.2467209139
 10
172.3524360108
 20
98.2467544416
 10
172.3523708182
 20
98.2467712054
 10
172.3523386876
 20
98.2467795873
 10
172.3523223894
 20
98.2467842439
 10
172.3523144732
 20
98.2467861065
 10
172.3523060913
 20
98.2467879692
 10
172.2924132022
 20
98.2626521179
 10
172.1774805459
 20
98.2915771344
 10
171.9933538819
 20
98.3335620874
 10
171.7229951295
 20
98.3886088395
 10
171.281673492
 20
98.4641009161
 10
170.8977897773
 20
98.5148822108
 10
170.0254441361
 20
98.570030477
 10
169.585010049
 20
98.5692137072
 10
169.4421833503
 20
98.5647359082
 10
169.3026241968
 20
98.5581542516
 10
169.1671260754
 20
98.5494696686
 10
168.9246851141
 20
98.5282057115
 10
168.7366687814
 20
98.5088276827
 10
168.5285796533
 20
98.483617712
 10
168.294474029
 20
98.4492276946
 10
168.1803953955
 20
98.4295209089
 10
168.1724968488
 20
98.4290999511
 10
168.1660679291
 20
98.4287581557
 10
168.2899533893
 20
98.4485860133
  0
LWPOLYLINE
  5
196
330
1F
100
AcDbEntity
  8
0
  6
SLD-Gestrichelt
 62
     7
370
     0
100
AcDbPolyline
 90
       47
 70
   128
 43
0.0
 10
168.8950401852
 20
126.8507636303
 10
168.5184748034
 20
126.8934657016
 10
168.2925340841
 20
126.9263954052
 10
168.2899952988
 20
126.9267651403
 10
168.1661433662
 20
126.9466032425
 10
168.1387643451
 20
126.9521595129
 10
168.1347149546
 20
126.9529809394
 10
168.180041493
 20
126.9458963686
 10
168.2248399715
 20
126.937897239
 10
168.2935836847
 20
126.9262165913
 10
168.3923904906
 20
126.9108544254
 10
168.5274108435
 20
126.8918107414
 10
168.7592715147
 20
126.8639930674
 10
168.9628288271
 20
126.8434685805
 10
169.0488038706
 20
126.8356277758
 10
169.1171303513
 20
126.8297883832
 10
169.1660685586
 20
126.8259494716
 10
169.5840782607
 20
126.8061998451
 10
170.0248648534
 20
126.8053802812
 10
170.4687560099
 20
126.8234917113
 10
170.8984668488
 20
126.8605332041
 10
171.0807005996
 20
126.8827666679
 10
171.2815184268
 20
126.9111626932
 10
171.4969673316
 20
126.94572128
 10
171.7215781222
 20
126.9864424282
 10
172.0177121582
 20
127.0471031928
 10
172.208575544
 20
127.0914052764
 10
172.2745136479
 20
127.1080824697
 10
172.3208981688
 20
127.1202716196
 10
172.3499656776
 20
127.1279708633
 10
172.5690690922
 20
127.1858451107
 10
172.6951236027
 20
127.220849801
 10
172.7332593995
 20
127.2327241638
 10
172.7340892079
 20
127.2329821402
 10
172.6970691355
 20
127.2216060349
 10
172.5751080206
 20
127.1863470936
 10
172.3497207398
 20
127.1272053161
 10
172.0554679754
 20
127.0587121287
 10
171.7080813954
 20
126.9905812258
 10
171.3122595223
 20
126.9209983909
 10
170.9108092012
 20
126.858344596
 10
170.4883393953
 20
126.8197487259
 10
170.0219418975
 20
126.8028452212
 10
169.5902454788
 20
126.8061346525
 10
169.5890869136
 20
126.8061905319
 10
169.270980184
 20
126.8216532806
 10
168.8950401852
 20
126.8507636303
  0
LINE
  5
197
330
1F
100
AcDbEntity
  8
0
  6
SLD-Gestrichelt
 62
     7
370
     0
100
AcDbLine
 10
210.2963631163
 20
106.7753479035
 30
0.0
 11
217.2368099103
 21
93.3623307535
 31
0.0
  0
LINE
  5
198
330
1F
100
AcDbEntity
  8
0
  6
SLD-Gestrichelt
 62
     7
370
     0
100
AcDbLine
 10
217.2368099103
 20
93.3623307535
 30
0.0
 11
217.2241550992
 21
92.9912005702
 31
0.0
  0
LINE
  5
199
330
1F
100
AcDbEntity
  8
0
  6
SLD-Gestrichelt
 62
     7
370
     0
100
AcDbLine
 10
215.9007568965
 20
104.2081493104
 30
0.0
 11
215.5854222486
 21
104.1662956738
 31
0.0
  0
LINE
  5
19A
330
1F
100
AcDbEntity
  8
0
  6
SLD-Gestrichelt
 62
     7
370
     0
100
AcDbLine
 10
215.4173557768
 20
104.4910934904
 30
0.0
 11
215.5854222486
 21
104.1662956738
 31
0.0
  0
LINE
  5
19B
330
1F
100
AcDbEntity
  8
0
  6
SLD-Gestrichelt
 62
     7
370
     0
100
AcDbLine
 10
201.53410408
 20
113.3215840707
 30
0.0
 11
201.53410408
 21
115.1877118425
 31
0.0
  0
LINE
  5
19C
330
1F
100
AcDbEntity
  8
0
  6
SLD-Gestrichelt
 62
     7
370
     0
100
AcDbLine
 10
201.53410408
 20
112.0538397261
 30
0.0
 11
201.53410408
 21
110.1877119543
 31
0.0
  0
LWPOLYLINE
  5
19D
330
1F
100
AcDbEntity
  8
0
  6
SLD-Gestrichelt
 62
     7
370
     0
100
AcDbPolyline
 90
       12
 70
   128
 43
0.0
 10
201.53410408
 20
112.0538397261
 10
201.7540005157
 20
111.9949975434
 10
202.0923388312
 20
112.0460900163
 10
202.2491977672
 20
112.1814898249
 10
202.3835838894
 20
112.4074732104
 10
202.5256869505
 20
112.9535200632
 10
202.4759468744
 20
113.5167766513
 10
202.3302619467
 20
113.8488096801
 10
202.1982134441
 20
114.0786478679
 10
202.0562947849
 20
114.3143736442
 10
201.7853749106
 20
114.7469217574
 10
201.53410408
 20
115.1205346139
  0
LWPOLYLINE
  5
19E
330
1F
100
AcDbEntity
  8
0
  6
SLD-Gestrichelt
 62
     7
370
     0
100
AcDbPolyline
 90
       18
 70
   128
 43
0.0
 10
201.53410408
 20
115.1205346139
 10
201.0335181961
 20
115.1766803266
 10
200.6052215705
 20
115.1859460549
 10
200.15097271
 20
115.1850158965
 10
199.6764154295
 20
115.1667473057
 10
199.0442560176
 20
115.0373693706
 10
198.5636749426
 20
114.6960757358
 10
198.3742253045
 20
114.308183958
 10
198.3428546349
 20
113.8073636137
 10
198.4598455141
 20
113.307885829
 10
198.7058804492
 20
112.7966442325
 10
199.2363822768
 20
112.1411348029
 10
199.5630809228
 20
111.8800629081
 10
199.945554615
 20
111.6796127205
 10
200.3511865745
 20
111.5889999235
 10
200.7685494731
 20
111.6301887121
 10
201.2607720802
 20
111.8511434795
 10
201.53410408
 20
112.0538397261
  0
LINE
  5
19F
330
1F
100
AcDbEntity
  8
0
  6
SLD-Gestrichelt
 62
     7
370
     0
100
AcDbLine
 10
192.2341031144
 20
110.1877119543
 30
0.0
 11
192.2341031144
 21
115.1748852024
 31
0.0
  0
LINE
  5
1A0
330
1F
100
AcDbEntity
  8
0
  6
SLD-Gestrichelt
 62
     7
370
     0
100
AcDbLine
 10
223.7005909095
 20
99.9453210422
 30
0.0
 11
215.5854222486
 21
104.1662956738
 31
0.0
  0
LINE
  5
1A1
330
1F
100
AcDbEntity
  8
0
  6
SLD-Gestrichelt
 62
     7
370
     0
100
AcDbLine
 10
223.7005909095
 20
99.9453210422
 30
0.0
 11
224.0159292827
 21
99.9871746787
 31
0.0
  0
LWPOLYLINE
  5
1A2
330
1F
100
AcDbEntity
  8
0
  6
SLD-Gestrichelt
 62
     7
370
     0
100
AcDbPolyline
 90
        3
 70
   128
 43
0.0
 10
211.6327029774
 20
109.8139824496
 10
211.5454268763
 20
111.8120783392
 10
211.5328018675
 20
112.6877118984
  0
LINE
  5
1A3
330
1F
100
AcDbEntity
  8
0
  6
SLD-Gestrichelt
 62
     7
370
     0
100
AcDbLine
 10
211.5328018675
 20
112.6877118984
 30
0.0
 11
211.5328018675
 21
117.6335013622
 31
0.0
  0
ARC
  5
1A4
330
1F
100
AcDbEntity
  8
0
  6
SLD-Gestrichelt
 62
     7
370
     0
100
AcDbCircle
 10
213.2944059555
 20
95.9447560051
 30
0.0
 40
1.729763710319032
100
AcDbArc
 50
163.8739893382
 51
196.1260106618
  0
ARC
  5
1A5
330
1F
100
AcDbEntity
  8
0
  6
SLD-Gestrichelt
 62
     7
370
     0
100
AcDbCircle
 10
178.2788993159
 20
104.7348989056
 30
0.0
 40
35.66785640100569
100
AcDbArc
 50
21.2003949405
 51
24.7639759839
  0
LINE
  5
1A6
330
1F
100
AcDbEntity
  8
0
  6
SLD-Gestrichelt
 62
     7
370
     0
100
AcDbLine
 10
211.6803978691
 20
95.3068782726
 30
0.0
 11
211.6327029774
 21
95.4643127659
 31
0.0
  0
ARC
  5
1A7
330
1F
100
AcDbEntity
  8
0
  6
SLD-Gestrichelt
 62
     7
370
     0
100
AcDbCircle
 10
211.0798830374
 20
108.9069339975
 30
0.0
 40
1.750414466015322
100
AcDbArc
 50
41.2597976254
 51
207.297338311
  0
LINE
  5
1A8
330
1F
100
AcDbEntity
  8
0
  6
SLD-Gestrichelt
 62
     7
370
     0
100
AcDbLine
 10
216.780271859
 20
94.0815706888
 30
0.0
 11
217.2368099103
 21
93.3623307535
 31
0.0
  0
LINE
  5
1A9
330
1F
100
AcDbEntity
  8
0
  6
SLD-Gestrichelt
 62
     7
370
     0
100
AcDbLine
 10
215.5854222486
 20
104.1662956738
 30
0.0
 11
215.4110302339
 21
104.3402620742
 31
0.0
  0
LINE
  5
1AA
330
1F
100
AcDbEntity
  8
0
  6
SLD-Gestrichelt
 62
     7
370
     0
100
AcDbLine
 10
215.4110302339
 20
104.3402620742
 30
0.0
 11
215.3019127558
 21
104.5511405134
 31
0.0
  0
LINE
  5
1AB
330
1F
100
AcDbEntity
  8
0
  6
SLD-Gestrichelt
 62
     7
370
     0
100
AcDbLine
 10
223.0535154352
 20
100.3651454264
 30
0.0
 11
223.7005909095
 21
99.9453210422
 31
0.0
  0
LWPOLYLINE
  5
1AC
330
1F
100
AcDbEntity
  8
0
  6
SLD-Gestrichelt
 62
     7
370
     0
100
AcDbPolyline
 90
       29
 70
   128
 43
0.0
 10
200.434104086
 20
116.1717738175
 10
200.9013970504
 20
116.216905011
 10
201.3452598015
 20
116.3500350119
 10
201.7434318672
 20
116.5644883329
 10
202.0759494165
 20
116.8495116906
 10
202.3261380503
 20
117.1908120775
 10
202.4814528535
 20
117.5712759757
 10
202.5341042439
 20
117.9718252422
 10
202.4814528535
 20
118.3723745087
 10
202.3261380503
 20
118.7528384069
 10
202.0759494165
 20
119.0941387938
 10
201.7434318672
 20
119.3791621515
 10
201.3452598015
 20
119.5936154725
 10
200.9013970504
 20
119.7267457062
 10
200.434104086
 20
119.7718766668
 10
199.9668092588
 20
119.7267457062
 10
199.5229483704
 20
119.5936154725
 10
199.1247744421
 20
119.3791621515
 10
198.7922568927
 20
119.0941387938
 10
198.5420701216
 20
118.7528384069
 10
198.3867553184
 20
118.3723745087
 10
198.334103928
 20
117.9718252422
 10
198.3867553184
 20
117.5712759757
 10
198.5420701216
 20
117.1908120775
 10
198.7922568927
 20
116.8495116906
 10
199.1247744421
 20
116.5644883329
 10
199.5229483704
 20
116.3500350119
 10
199.9668092588
 20
116.216905011
 10
200.434104086
 20
116.1717738175
  0
LINE
  5
1AD
330
1F
100
AcDbEntity
  8
0
  6
SLD-Gestrichelt
 62
     7
370
     0
100
AcDbLine
 10
184.3841043423
 20
95.7877126673
 30
0.0
 11
188.8841041485
 21
95.7877126673
 31
0.0
  0
LINE
  5
1AE
330
1F
100
AcDbEntity
  8
0
  6
SLD-Gestrichelt
 62
     7
370
     0
100
AcDbLine
 10
229.3346938799
 20
87.551591281
 30
0.0
 11
229.5643021474
 21
87.7824866363
 31
0.0
  0
CIRCLE
  5
1AF
330
1F
100
AcDbEntity
  8
0
  6
SLD-Gestrichelt
 62
     7
370
     0
100
AcDbCircle
 10
220.4245588622
 20
96.7077664118
 30
0.0
 40
2.395109370296491
  0
LINE
  5
1B0
330
1F
100
AcDbEntity
  8
0
  6
SLD-Gestrichelt
 62
     7
370
     0
100
AcDbLine
 10
223.0535154352
 20
100.3651454264
 30
0.0
 11
215.4110302339
 21
104.3402620742
 31
0.0
  0
LINE
  5
1B1
330
1F
100
AcDbEntity
  8
0
  6
SLD-Gestrichelt
 62
     7
370
     0
100
AcDbLine
 10
209.5243972848
 20
108.1041794421
 30
0.0
 11
216.780271859
 21
94.0815706888
 31
0.0
  0
LINE
  5
1B2
330
1F
100
AcDbEntity
  8
0
  6
SLD-Gestrichelt
 62
     7
370
     0
100
AcDbLine
 10
229.3346938799
 20
87.551591281
 30
0.0
 11
216.780271859
 21
94.0815706888
 31
0.0
  0
LINE
  5
1B3
330
1F
100
AcDbEntity
  8
0
  6
SLD-Gestrichelt
 62
     7
370
     0
100
AcDbLine
 10
229.5643021474
 20
87.7824866363
 30
0.0
 11
223.0535154352
 21
100.3651454264
 31
0.0
  0
CIRCLE
  5
1B4
330
1F
100
AcDbEntity
  8
0
  6
SLD-Gestrichelt
 62
     7
370
     0
100
AcDbCircle
 10
220.3729051986
 20
96.7646244617
 30
0.0
 40
1.647315625368611
  0
LINE
  5
1B5
330
1F
100
AcDbEntity
  8
0
  6
SLD-Gestrichelt
 62
     7
370
     0
100
AcDbLine
 10
160.134103627
 20
123.6877118388
 30
0.0
 11
160.134103627
 21
126.2452363187
 31
0.0
  0
LINE
  5
1B6
330
1F
100
AcDbEntity
  8
0
  6
SLD-Gestrichelt
 62
     7
370
     0
100
AcDbLine
 10
162.6341040368
 20
101.687711958
 30
0.0
 11
162.6341040368
 21
99.0841354394
 31
0.0
  0
CIRCLE
  5
1B7
330
1F
100
AcDbEntity
  8
0
  6
SLD-Gestrichelt
 62
     7
370
     0
100
AcDbCircle
 10
219.7619957935
 20
97.3724525916
 30
0.0
 40
1.647060786509249
  0
LINE
  5
1B8
330
1F
100
AcDbEntity
  8
0
  6
SLD-Gestrichelt
 62
     7
370
     0
100
AcDbLine
 10
193.4741032431
 20
130.0903161207
 30
0.0
 11
193.4741032431
 21
95.5748328158
 31
0.0
  0
ARC
  5
1B9
330
1F
100
AcDbEntity
  8
0
  6
SLD-Gestrichelt
 62
     7
370
     0
100
AcDbCircle
 10
192.8456872275
 20
130.0881679546
 30
0.0
 40
0.6284196872648536
100
AcDbArc
 50
307.2148147453
 51
0.1958581042
  0
LWPOLYLINE
  5
1BA
330
1F
100
AcDbEntity
  8
0
  6
SLD-Gestrichelt
 62
     7
370
     0
100
AcDbPolyline
 90
        3
 70
   128
 43
0.0
 10
193.4388806234
 20
95.7877126673
 10
193.4663471887
 20
95.6758720019
 10
193.4741032431
 20
95.5748328158
  0
LINE
  5
1BB
330
1F
100
AcDbEntity
  8
0
  6
SLD-Gestrichelt
 62
     7
370
     0
100
AcDbLine
 10
192.8741042624
 20
129.5877111295
 30
0.0
 11
193.225758628
 21
129.5877111295
 31
0.0
  0
LINE
  5
1BC
330
1F
100
AcDbEntity
  8
0
  6
SLD-Gestrichelt
 62
     7
370
     0
100
AcDbLine
 10
192.8741042624
 20
95.7877126673
 30
0.0
 11
193.4388806234
 21
95.7877126673
 31
0.0
  0
ARC
  5
1BD
330
1F
100
AcDbEntity
  8
0
  6
SLD-Gestrichelt
 62
     7
370
     0
100
AcDbCircle
 10
192.0218639532
 20
130.0878429979
 30
0.0
 40
0.6277646558949662
100
AcDbArc
 50
179.774278685
 51
232.8148777969
  0
LINE
  5
1BE
330
1F
100
AcDbEntity
  8
0
  6
SLD-Gestrichelt
 62
     7
370
     0
100
AcDbLine
 10
191.3941041688
 20
130.0903161207
 30
0.0
 11
191.3941041688
 21
95.5748328158
 31
0.0
  0
LWPOLYLINE
  5
1BF
330
1F
100
AcDbEntity
  8
0
  6
SLD-Gestrichelt
 62
     7
370
     0
100
AcDbPolyline
 90
        3
 70
   128
 43
0.0
 10
191.3941041688
 20
95.5748328158
 10
191.4018602232
 20
95.6758720019
 10
191.4293258573
 20
95.7877126673
  0
LINE
  5
1C0
330
1F
100
AcDbEntity
  8
0
  6
SLD-Gestrichelt
 62
     7
370
     0
100
AcDbLine
 10
191.6424478526
 20
129.5877111295
 30
0.0
 11
191.9941040809
 21
129.5877111295
 31
0.0
  0
LINE
  5
1C1
330
1F
100
AcDbEntity
  8
0
  6
SLD-Gestrichelt
 62
     7
370
     0
100
AcDbLine
 10
191.4293258573
 20
95.7877126673
 30
0.0
 11
191.9941040809
 21
95.7877126673
 31
0.0
  0
LINE
  5
1C2
330
1F
100
AcDbEntity
  8
0
  6
SLD-Gestrichelt
 62
     7
370
     0
100
AcDbLine
 10
157.484103472
 20
123.6877118388
 30
0.0
 11
157.484103472
 21
125.5604525247
 31
0.0
  0
LINE
  5
1C3
330
1F
100
AcDbEntity
  8
0
  6
SLD-Gestrichelt
 62
     7
370
     0
100
AcDbLine
 10
156.5341041545
 20
123.6877118388
 30
0.0
 11
156.5341041545
 21
124.6121845359
 31
0.0
  0
LINE
  5
1C4
330
1F
100
AcDbEntity
  8
0
  6
SLD-Gestrichelt
 62
     7
370
     0
100
AcDbLine
 10
156.5341041545
 20
122.5527183303
 30
0.0
 11
156.5341041545
 21
102.8227054665
 31
0.0
  0
LINE
  5
1C5
330
1F
100
AcDbEntity
  8
0
  6
SLD-Gestrichelt
 62
     7
370
     0
100
AcDbLine
 10
157.484103472
 20
101.687711958
 30
0.0
 11
157.484103472
 21
99.8726257274
 31
0.0
  0
LINE
  5
1C6
330
1F
100
AcDbEntity
  8
0
  6
SLD-Gestrichelt
 62
     7
370
     0
100
AcDbLine
 10
156.5341041545
 20
101.687711958
 30
0.0
 11
156.5341041545
 21
100.8218883687
 31
0.0
  0
LINE
  5
1C7
330
1F
100
AcDbEntity
  8
0
  6
SLD-Gestrichelt
 62
     7
370
     0
100
AcDbLine
 10
191.9941040809
 20
129.5877111295
 30
0.0
 11
192.8741042624
 21
129.5877111295
 31
0.0
  0
LINE
  5
1C8
330
1F
100
AcDbEntity
  8
0
  6
SLD-Gestrichelt
 62
     7
370
     0
100
AcDbLine
 10
191.9941040809
 20
95.7877126673
 30
0.0
 11
192.8741042624
 21
95.7877126673
 31
0.0
  0
LWPOLYLINE
  5
1C9
330
1F
100
AcDbEntity
  8
0
  6
SLD-Gestrichelt
 62
     7
370
     0
100
AcDbPolyline
 90
        3
 70
   128
 43
0.0
 10
190.3989440883
 20
132.1748879889
 10
190.4650279442
 20
132.0573960581
 10
191.3941041688
 20
130.4013890365
  0
LINE
  5
1CA
330
1F
100
AcDbEntity
  8
0
  6
SLD-Gestrichelt
 62
     7
370
     0
100
AcDbLine
 10
196.3841044466
 20
131.5585890004
 30
0.0
 11
196.3841044466
 21
94.0836792031
 31
0.0
  0
ARC
  5
1CB
330
1F
100
AcDbEntity
  8
0
  6
SLD-Gestrichelt
 62
     7
370
     0
100
AcDbCircle
 10
195.7748147898
 20
131.5656284727
 30
0.0
 40
0.6093303209641477
100
AcDbArc
 50
359.3380584991
 51
89.126532193
  0
ARC
  5
1CC
330
1F
100
AcDbEntity
  8
0
  6
SLD-Gestrichelt
 62
     7
370
     0
100
AcDbCircle
 10
195.7712327782
 20
94.0716809133
 30
0.0
 40
0.6129891033281305
100
AcDbArc
 50
271.2031178686
 51
1.1215456616
  0
LWPOLYLINE
  5
1CD
330
1F
100
AcDbEntity
  8
0
  6
SLD-Gestrichelt
 62
     7
370
     0
100
AcDbPolyline
 90
        3
 70
   128
 43
0.0
 10
193.4741032431
 20
130.4013890365
 10
194.4031794677
 20
132.0573960581
 10
194.469264255
 20
132.1748879889
  0
LINE
  5
1CE
330
1F
100
AcDbEntity
  8
0
  6
SLD-Gestrichelt
 62
     7
370
     0
100
AcDbLine
 10
194.469264255
 20
132.1748879889
 30
0.0
 11
195.7841036032
 21
132.1748879889
 31
0.0
  0
LINE
  5
1CF
330
1F
100
AcDbEntity
  8
0
  6
SLD-Gestrichelt
 62
     7
370
     0
100
AcDbLine
 10
191.3941041688
 20
130.4013890365
 30
0.0
 11
191.3941041688
 21
95.2585891971
 31
0.0
  0
LINE
  5
1D0
330
1F
100
AcDbEntity
  8
0
  6
SLD-Gestrichelt
 62
     7
370
     0
100
AcDbLine
 10
193.4741032431
 20
130.4013890365
 30
0.0
 11
193.4741032431
 21
95.2585891971
 31
0.0
  0
LINE
  5
1D1
330
1F
100
AcDbEntity
  8
0
  6
SLD-Gestrichelt
 62
     7
370
     0
100
AcDbLine
 10
194.469264255
 20
132.1748879889
 30
0.0
 11
194.469264255
 21
93.4588269481
 31
0.0
  0
LINE
  5
1D2
330
1F
100
AcDbEntity
  8
0
  6
SLD-Gestrichelt
 62
     7
370
     0
100
AcDbLine
 10
227.4031867395
 20
89.5576712826
 30
0.0
 11
229.3346938799
 21
87.551591281
 31
0.0
  0
LINE
  5
1D3
330
1F
100
AcDbEntity
  8
0
  6
SLD-Gestrichelt
 62
     7
370
     0
100
AcDbLine
 10
229.5643021474
 20
87.7824866363
 30
0.0
 11
227.335963876
 21
90.0968623498
 31
0.0
  0
LWPOLYLINE
  5
1D4
330
1F
100
AcDbEntity
  8
0
  6
SLD-Gestrichelt
 62
     7
370
     0
100
AcDbPolyline
 90
        3
 70
   128
 43
0.0
 10
193.4741032431
 20
95.2585891971
 10
193.5299527953
 20
95.1571812072
 10
194.469264255
 20
93.4588269481
  0
LINE
  5
1D5
330
1F
100
AcDbEntity
  8
0
  6
SLD-Gestrichelt
 62
     7
370
     0
100
AcDbLine
 10
194.469264255
 20
93.4588269481
 30
0.0
 11
195.7841036032
 21
93.4588269481
 31
0.0
  0
LWPOLYLINE
  5
1D6
330
1F
100
AcDbEntity
  8
0
  6
SLD-Gestrichelt
 62
     7
370
     0
100
AcDbPolyline
 90
        3
 70
   128
 43
0.0
 10
190.3989440883
 20
93.4588269481
 10
191.338255548
 20
95.1571812072
 10
191.3941041688
 20
95.2585891971
  0
ARC
  5
1D7
330
1F
100
AcDbEntity
  8
0
  6
SLD-Gestrichelt
 62
     7
370
     0
100
AcDbCircle
 10
215.3301690821
 20
95.3437552442
 30
0.0
 40
3.852372868799876
100
AcDbArc
 50
130.894041279
 51
163.6967275051
  0
LINE
  5
1D8
330
1F
100
AcDbEntity
  8
0
  6
SLD-Gestrichelt
 62
     7
370
     0
100
AcDbLine
 10
156.5341041545
 20
100.8692396024
 30
0.0
 11
156.5341041545
 21
101.1401985922
 31
0.0
  0
LINE
  5
1D9
330
1F
100
AcDbEntity
  8
0
  6
SLD-Gestrichelt
 62
     7
370
     0
100
AcDbLine
 10
156.5341041545
 20
124.5616258273
 30
0.0
 11
156.5341041545
 21
124.4659436086
 31
0.0
  0
LWPOLYLINE
  5
1DA
330
1F
100
AcDbEntity
  8
0
  6
SLD-Gestrichelt
 62
     7
370
     0
100
AcDbPolyline
 90
       13
 70
   128
 43
0.0
 10
157.2940745513
 20
125.0757922569
 10
157.1293515275
 20
124.6782246196
 10
157.0468661497
 20
124.5192422682
 10
156.9389016489
 20
124.3419892305
 10
156.8856653879
 20
124.2670755053
 10
156.8211787502
 20
124.1883144864
 10
156.7823798517
 20
124.1481530631
 10
156.7430128465
 20
124.1140796953
 10
156.7114968906
 20
124.0927086362
 10
156.6719305823
 20
124.0755834767
 10
156.6219520877
 20
124.0772784838
 10
156.5506239543
 20
124.2084422299
 10
156.5341041545
 20
124.4659436086
  0
LWPOLYLINE
  5
1DB
330
1F
100
AcDbEntity
  8
0
  6
SLD-Gestrichelt
 62
     7
370
     0
100
AcDbPolyline
 90
       11
 70
   128
 43
0.0
 10
156.5341041545
 20
101.1401985922
 10
156.5590878139
 20
101.3921790907
 10
156.6176344762
 20
101.4715845847
 10
156.6694346378
 20
101.472197395
 10
156.7031857679
 20
101.4579192886
 10
156.7470007698
 20
101.4282892609
 10
156.7904879461
 20
101.389584426
 10
156.8382163654
 20
101.3386941665
 10
156.9067486683
 20
101.2529174948
 10
157.0459571789
 20
101.039341014
 10
157.2940745513
 20
100.5207265878
  0
LINE
  5
1DC
330
1F
100
AcDbEntity
  8
0
  6
SLD-Gestrichelt
 62
     7
370
     0
100
AcDbLine
 10
156.5341041545
 20
124.4659436086
 30
0.0
 11
156.5341041545
 21
101.1401985922
 31
0.0
  0
LWPOLYLINE
  5
1DD
330
1F
100
AcDbEntity
  8
0
  6
SLD-Gestrichelt
 62
     7
370
     0
100
AcDbPolyline
 90
       32
 70
   128
 43
0.0
 10
200.434104086
 20
115.9526934532
 10
200.9373498271
 20
115.9965589793
 10
201.4199928502
 20
116.1263602005
 10
201.8622742156
 20
116.3367827573
 10
202.2460852871
 20
116.619211916
 10
202.5557146529
 20
116.9620848411
 10
202.7784832875
 20
117.3513651045
 10
202.9052754054
 20
117.7711145172
 10
202.9308942268
 20
118.2041487807
 10
202.8542966703
 20
118.6327397043
 10
202.6786157052
 20
119.0393402392
 10
202.4110430042
 20
119.4073048571
 10
202.0625346462
 20
119.721568484
 10
201.647358493
 20
119.9692648986
 10
201.1825111816
 20
120.1402543263
 10
200.6870252202
 20
120.227535084
 10
200.1811829517
 20
120.227535084
 10
199.6856969903
 20
120.1402543263
 10
199.2208496789
 20
119.9692648986
 10
198.8056735257
 20
119.721568484
 10
198.4571651677
 20
119.4073048571
 10
198.1895924667
 20
119.0393402392
 10
198.0139115016
 20
118.6327397043
 10
197.9373120824
 20
118.2041487807
 10
197.9629327665
 20
117.7711145172
 10
198.0897230218
 20
117.3513651045
 10
198.312493519
 20
116.9620848411
 10
198.6221210221
 20
116.619211916
 10
199.0059339563
 20
116.3367827573
 10
199.448213459
 20
116.1263602005
 10
199.9308583448
 20
115.9965589793
 10
200.434104086
 20
115.9526934532
  0
ARC
  5
1DE
330
1F
100
AcDbEntity
  8
0
  6
SLD-Gestrichelt
 62
     7
370
     0
100
AcDbCircle
 10
-193.9763857142
 20
52.9971586817
 30
0.0
 40
409.2945400570975
100
AcDbArc
 50
6.3485958831
 51
7.1142684472
  0
ELLIPSE
  5
1DF
330
1F
100
AcDbEntity
  8
0
  6
SLD-Gestrichelt
 62
     7
370
     0
100
AcDbEllipse
 10
248.9545809508
 20
103.6877118984
 30
0.0
 11
20.98905014541415
 21
15.45203177222802
 31
0.0
210
0.0
220
0.0
230
1.0
 40
0.3376829883
 41
2.927249379295279
 42
2.982075346333885
  0
ELLIPSE
  5
1E0
330
1F
100
AcDbEntity
  8
0
  6
SLD-Gestrichelt
 62
     7
370
     0
100
AcDbEllipse
 10
197.8793829709
 20
103.6877118984
 30
0.0
 11
31.99361951810122
 21
-16.80852355917526
 31
0.0
210
0.0
220
0.0
230
1.0
 40
0.0795256816
 41
0.4393417604468188
 42
1.023153614416169
  0
LWPOLYLINE
  5
1E1
330
1F
100
AcDbEntity
  8
0
  6
SLD-Gestrichelt
 62
     7
370
     0
100
AcDbPolyline
 90
        3
 70
   128
 43
0.0
 10
215.6789195845
 20
97.108134363
 10
214.313842834
 20
97.7808724308
 10
212.8081661771
 20
98.2558469439
  0
ELLIPSE
  5
1E2
330
1F
100
AcDbEntity
  8
0
  6
SLD-Gestrichelt
 62
     7
370
     0
100
AcDbEllipse
 10
221.822055505
 20
103.6877118984
 30
0.0
 11
-9.300253613789636
 21
16.95437015158461
 31
0.0
210
0.0
220
0.0
230
1.0
 40
0.1338374214
 41
1.497511808232659
 42
2.423910400450313
  0
CIRCLE
  5
1E3
330
1F
100
AcDbEntity
  8
0
  6
SLD-Gestrichelt
 62
     7
370
     0
100
AcDbCircle
 10
183.4341038773
 20
112.6877118984
 30
0.0
 40
5.0
  0
ELLIPSE
  5
1E4
330
1F
100
AcDbEntity
  8
0
  6
SLD-Gestrichelt
 62
     7
370
     0
100
AcDbEllipse
 10
216.9995656569
 20
112.6877118984
 30
0.0
 11
-9.300253613789607
 21
16.95437015158463
 31
0.0
210
0.0
220
0.0
230
1.0
 40
0.1338374214
 41
1.202314319836011
 42
1.497511808232659
  0
ARC
  5
1E5
330
1F
100
AcDbEntity
  8
0
  6
SLD-Gestrichelt
 62
     7
370
     0
100
AcDbCircle
 10
286.5143953996
 20
113.2588619952
 30
0.0
 40
74.96089017006163
100
AcDbArc
 50
182.6339948582
 51
187.3356592744
  0
LINE
  5
1E6
330
1F
100
AcDbEntity
  8
0
  6
SLD-Gestrichelt
 62
     7
370
     0
100
AcDbLine
 10
218.8780610571
 20
103.6877122858
 30
0.0
 11
214.0555721829
 21
112.6877118984
 31
0.0
  0
LINE
  5
1E7
330
1F
100
AcDbEntity
  8
0
  6
SLD-Gestrichelt
 62
     7
370
     0
100
AcDbLine
 10
176.4341038773
 20
96.480510492
 30
0.0
 11
176.5282646496
 21
97.1505002269
 31
0.0
  0
LINE
  5
1E8
330
1F
100
AcDbEntity
  8
0
  6
SLD-Gestrichelt
 62
     7
370
     0
100
AcDbLine
 10
176.5282646496
 20
128.2249235699
 30
0.0
 11
176.4341038773
 21
128.8949133047
 31
0.0
  0
ARC
  5
1E9
330
1F
100
AcDbEntity
  8
0
  6
SLD-Gestrichelt
 62
     7
370
     0
100
AcDbCircle
 10
175.9340971247
 20
97.2340047449
 30
0.0
 40
0.6000067526677242
100
AcDbArc
 50
352.0
 51
0.0
  0
ARC
  5
1EA
330
1F
100
AcDbEntity
  8
0
  6
SLD-Gestrichelt
 62
     7
370
     0
100
AcDbCircle
 10
175.9340971247
 20
97.2340047449
 30
0.0
 40
0.6000067526677242
100
AcDbArc
 50
0.0
 51
33.5571153394
  0
ARC
  5
1EB
330
1F
100
AcDbEntity
  8
0
  6
SLD-Gestrichelt
 62
     7
370
     0
100
AcDbCircle
 10
175.9340971247
 20
128.1414190519
 30
0.0
 40
0.6000067526677042
100
AcDbArc
 50
348.75
 51
8.0
  0
LWPOLYLINE
  5
1EC
330
1F
100
AcDbEntity
  8
0
  6
SLD-Gestrichelt
 62
     7
370
     0
100
AcDbPolyline
 90
        3
 70
   128
 43
0.0
 10
176.5225749162
 20
128.0243632534
 10
176.4884310845
 20
127.911806401
 10
176.4341038773
 20
127.8097548673
  0
LINE
  5
1ED
330
1F
100
AcDbEntity
  8
0
  6
SLD-Gestrichelt
 62
     7
370
     0
100
AcDbLine
 10
176.5341038748
 20
97.2340044716
 30
0.0
 11
176.5341038748
 21
128.1414193252
 31
0.0
  0
LINE
  5
1EE
330
1F
100
AcDbEntity
  8
0
  6
SLD-Gestrichelt
 62
     7
370
     0
100
AcDbLine
 10
176.5341038748
 20
97.2340044716
 30
0.0
 11
176.5341038748
 21
128.1414193252
 31
0.0
  0
ARC
  5
1EF
330
1F
100
AcDbEntity
  8
0
  6
SLD-Gestrichelt
 62
     7
370
     0
100
AcDbCircle
 10
165.9667318215
 20
100.3377118984
 30
0.0
 40
0.4000000000000057
100
AcDbArc
 50
210.0
 51
270.0
  0
ARC
  5
1F0
330
1F
100
AcDbEntity
  8
0
  6
SLD-Gestrichelt
 62
     7
370
     0
100
AcDbCircle
 10
165.9667318215
 20
125.0377118984
 30
0.0
 40
0.3999999999999856
100
AcDbArc
 50
90.0
 51
150.0
  0
LINE
  5
1F1
330
1F
100
AcDbEntity
  8
0
  6
SLD-Gestrichelt
 62
     7
370
     0
100
AcDbLine
 10
165.966731974
 20
99.9377121368
 30
0.0
 11
168.1648786301
 21
99.9377121368
 31
0.0
  0
LINE
  5
1F2
330
1F
100
AcDbEntity
  8
0
  6
SLD-Gestrichelt
 62
     7
370
     0
100
AcDbLine
 10
168.1648786301
 20
125.43771166
 30
0.0
 11
165.966731974
 21
125.43771166
 31
0.0
  0
ARC
  5
1F3
330
1F
100
AcDbEntity
  8
0
  6
SLD-Gestrichelt
 62
     7
370
     0
100
AcDbCircle
 10
172.2582806052
 20
104.9377118984
 30
0.0
 40
4.999999999999996
100
AcDbArc
 50
275.411535397
 51
326.6329870308
  0
ARC
  5
1F4
330
1F
100
AcDbEntity
  8
0
  6
SLD-Gestrichelt
 62
     7
370
     0
100
AcDbCircle
 10
172.2582806052
 20
120.4377118984
 30
0.0
 40
5.000000000000007
100
AcDbArc
 50
33.3670129692
 51
84.5874789244
  0
LINE
  5
1F5
330
1F
100
AcDbEntity
  8
0
  6
SLD-Gestrichelt
 62
     7
370
     0
100
AcDbLine
 10
165.6203218857
 20
125.2377119997
 30
0.0
 11
164.4367533858
 21
123.1877117568
 31
0.0
  0
LINE
  5
1F6
330
1F
100
AcDbEntity
  8
0
  6
SLD-Gestrichelt
 62
     7
370
     0
100
AcDbLine
 10
164.4367533858
 20
102.1877120399
 30
0.0
 11
165.6203218857
 21
100.1377117971
 31
0.0
  0
LINE
  5
1F7
330
1F
100
AcDbEntity
  8
0
  6
SLD-Gestrichelt
 62
     7
370
     0
100
AcDbLine
 10
200.7353068451
 20
109.6982355846
 30
0.0
 11
199.1361160884
 21
110.8155635336
 31
0.0
  0
LINE
  5
1F8
330
1F
100
AcDbEntity
  8
0
  6
SLD-Gestrichelt
 62
     7
370
     0
100
AcDbLine
 10
204.0917896787
 20
107.3531180771
 30
0.0
 11
202.3395118425
 21
108.577405397
 31
0.0
  0
LINE
  5
1F9
330
1F
100
AcDbEntity
  8
0
  6
SLD-Gestrichelt
 62
     7
370
     0
100
AcDbLine
 10
196.7306179116
 20
107.37266095
 30
0.0
 11
204.1832343797
 21
102.1656434202
 31
0.0
  0
LINE
  5
1FA
330
1F
100
AcDbEntity
  8
0
  6
SLD-Gestrichelt
 62
     7
370
     0
100
AcDbLine
 10
198.8938865373
 20
110.7872099999
 30
0.0
 11
196.9256424467
 21
109.7981921082
 31
0.0
  0
LINE
  5
1FB
330
1F
100
AcDbEntity
  8
0
  6
SLD-Gestrichelt
 62
     7
370
     0
100
AcDbLine
 10
196.9256424467
 20
109.7981921082
 30
0.0
 11
196.6739283065
 21
107.6098646188
 31
0.0
  0
ARC
  5
1FC
330
1F
100
AcDbEntity
  8
0
  6
SLD-Gestrichelt
 62
     7
370
     0
100
AcDbCircle
 10
183.3841038773
 20
102.8127118984
 30
0.0
 40
1.00000000000001
100
AcDbArc
 50
218.6821874535
 51
0.0
  0
ARC
  5
1FD
330
1F
100
AcDbEntity
  8
0
  6
SLD-Gestrichelt
 62
     7
370
     0
100
AcDbCircle
 10
183.3841038773
 20
122.5627118984
 30
0.0
 40
1.000000000000001
100
AcDbArc
 50
0.0
 51
141.3178125465
  0
LINE
  5
1FE
330
1F
100
AcDbEntity
  8
0
  6
SLD-Gestrichelt
 62
     7
370
     0
100
AcDbLine
 10
162.6341040368
 20
102.1877120399
 30
0.0
 11
164.4367533858
 21
102.1877120399
 31
0.0
  0
LINE
  5
1FF
330
1F
100
AcDbEntity
  8
0
  6
SLD-Gestrichelt
 62
     7
370
     0
100
AcDbLine
 10
164.4367533858
 20
123.1877117568
 30
0.0
 11
160.134103627
 21
123.1877117568
 31
0.0
  0
LINE
  5
200
330
1F
100
AcDbEntity
  8
0
  6
SLD-Gestrichelt
 62
     7
370
     0
100
AcDbLine
 10
176.4341038773
 20
102.1877120399
 30
0.0
 11
182.6034789095
 21
102.1877120399
 31
0.0
  0
LINE
  5
201
330
1F
100
AcDbEntity
  8
0
  6
SLD-Gestrichelt
 62
     7
370
     0
100
AcDbLine
 10
182.6034789095
 20
123.1877117568
 30
0.0
 11
176.4341038773
 21
123.1877117568
 31
0.0
  0
LINE
  5
202
330
1F
100
AcDbEntity
  8
0
  6
SLD-Gestrichelt
 62
     7
370
     0
100
AcDbLine
 10
202.5341042439
 20
108.166660011
 30
0.0
 11
202.5341042439
 21
112.2597617248
 31
0.0
  0
LINE
  5
203
330
1F
100
AcDbEntity
  8
0
  6
SLD-Gestrichelt
 62
     7
370
     0
100
AcDbLine
 10
198.334103928
 20
111.4081949379
 30
0.0
 11
198.334103928
 21
108.376486987
 31
0.0
  0
LINE
  5
204
330
1F
100
AcDbEntity
  8
0
  6
SLD-Gestrichelt
 62
     7
370
     0
100
AcDbLine
 10
189.7341036359
 20
106.4377118053
 30
0.0
 11
192.2341031144
 21
106.4377118053
 31
0.0
  0
LINE
  5
205
330
1F
100
AcDbEntity
  8
0
  6
SLD-Gestrichelt
 62
     7
370
     0
100
AcDbLine
 10
192.2341031144
 20
118.9377119915
 30
0.0
 11
189.7341036359
 21
118.9377119915
 31
0.0
  0
LINE
  5
206
330
1F
100
AcDbEntity
  8
0
  6
SLD-Gestrichelt
 62
     7
370
     0
100
AcDbLine
 10
184.3841043423
 20
106.6877118462
 30
0.0
 11
184.8841034929
 21
107.1877119282
 31
0.0
  0
LINE
  5
207
330
1F
100
AcDbEntity
  8
0
  6
SLD-Gestrichelt
 62
     7
370
     0
100
AcDbLine
 10
184.8841034929
 20
118.1877118686
 30
0.0
 11
184.3841043423
 21
118.6877119505
 31
0.0
  0
LINE
  5
208
330
1F
100
AcDbEntity
  8
0
  6
SLD-Gestrichelt
 62
     7
370
     0
100
AcDbLine
 10
184.8841034929
 20
107.1877119282
 30
0.0
 11
189.7341036359
 21
107.1877119282
 31
0.0
  0
LINE
  5
209
330
1F
100
AcDbEntity
  8
0
  6
SLD-Gestrichelt
 62
     7
370
     0
100
AcDbLine
 10
189.7341036359
 20
118.1877118686
 30
0.0
 11
184.8841034929
 21
118.1877118686
 31
0.0
  0
LINE
  5
20A
330
1F
100
AcDbEntity
  8
0
  6
SLD-Gestrichelt
 62
     7
370
     0
100
AcDbLine
 10
184.3841043423
 20
132.6877114514
 30
0.0
 11
184.3841043423
 21
129.5877111295
 31
0.0
  0
LINE
  5
20B
330
1F
100
AcDbEntity
  8
0
  6
SLD-Gestrichelt
 62
     7
370
     0
100
AcDbLine
 10
173.2012832193
 20
97.6464071462
 30
0.0
 11
172.7333546272
 21
98.1422442162
 31
0.0
  0
LINE
  5
20C
330
1F
100
AcDbEntity
  8
0
  6
SLD-Gestrichelt
 62
     7
370
     0
100
AcDbLine
 10
168.1354497681
 20
98.4220973367
 30
0.0
 11
167.617976212
 21
97.9262723738
 31
0.0
  0
LINE
  5
20D
330
1F
100
AcDbEntity
  8
0
  6
SLD-Gestrichelt
 62
     7
370
     0
100
AcDbLine
 10
167.6173419813
 20
127.4492017144
 30
0.0
 11
168.135027879
 21
126.9533143529
 31
0.0
  0
LINE
  5
20E
330
1F
100
AcDbEntity
  8
0
  6
SLD-Gestrichelt
 62
     7
370
     0
100
AcDbLine
 10
172.7326687081
 20
127.2329616511
 30
0.0
 11
173.2005726202
 21
127.7288555318
 31
0.0
  0
LINE
  5
20F
330
1F
100
AcDbEntity
  8
0
  6
SLD-Gestrichelt
 62
     7
370
     0
100
AcDbLine
 10
201.53410408
 20
110.1877119543
 30
0.0
 11
203.0362547497
 21
112.6877118984
 31
0.0
  0
LINE
  5
210
330
1F
100
AcDbEntity
  8
0
  6
SLD-Gestrichelt
 62
     7
370
     0
100
AcDbLine
 10
203.0362547497
 20
112.6877118984
 30
0.0
 11
201.53410408
 21
115.1877118425
 31
0.0
  0
LINE
  5
211
330
1F
100
AcDbEntity
  8
0
  6
SLD-Gestrichelt
 62
     7
370
     0
100
AcDbLine
 10
192.2341031144
 20
110.1877119543
 30
0.0
 11
201.53410408
 21
110.1877119543
 31
0.0
  0
LINE
  5
212
330
1F
100
AcDbEntity
  8
0
  6
SLD-Gestrichelt
 62
     7
370
     0
100
AcDbLine
 10
201.53410408
 20
115.1877118425
 30
0.0
 11
192.2341031144
 21
115.1877118425
 31
0.0
  0
LINE
  5
213
330
1F
100
AcDbEntity
  8
0
  6
SLD-Gestrichelt
 62
     7
370
     0
100
AcDbLine
 10
172.7341038762
 20
125.4145664313
 30
0.0
 11
172.7341038762
 21
127.2327511722
 31
0.0
  0
LINE
  5
214
330
1F
100
AcDbEntity
  8
0
  6
SLD-Gestrichelt
 62
     7
370
     0
100
AcDbLine
 10
168.134104007
 20
126.952208873
 30
0.0
 11
168.134104007
 21
125.4322094062
 31
0.0
  0
LINE
  5
215
330
1F
100
AcDbEntity
  8
0
  6
SLD-Gestrichelt
 62
     7
370
     0
100
AcDbLine
 10
172.7341038762
 20
98.1424882227
 30
0.0
 11
172.7341038762
 21
99.9608573654
 31
0.0
  0
LINE
  5
216
330
1F
100
AcDbEntity
  8
0
  6
SLD-Gestrichelt
 62
     7
370
     0
100
AcDbLine
 10
168.134104007
 20
99.9432143906
 30
0.0
 11
168.134104007
 21
98.4291036764
 31
0.0
  0
LINE
  5
217
330
1F
100
AcDbEntity
  8
0
  6
SLD-Gestrichelt
 62
     7
370
     0
100
AcDbLine
 10
212.4860067973
 20
109.9774065112
 30
0.0
 11
212.3116147826
 21
110.1513729116
 31
0.0
  0
LINE
  5
218
330
1F
100
AcDbEntity
  8
0
  6
SLD-Gestrichelt
 62
     7
370
     0
100
AcDbLine
 10
202.5341042439
 20
113.1094681948
 30
0.0
 11
202.5341042439
 21
117.9718252422
 31
0.0
  0
LINE
  5
219
330
1F
100
AcDbEntity
  8
0
  6
SLD-Gestrichelt
 62
     7
370
     0
100
AcDbLine
 10
198.334103928
 20
117.9718252422
 30
0.0
 11
198.334103928
 21
113.9672288589
 31
0.0
  0
ARC
  5
21A
330
1F
100
AcDbEntity
  8
0
  6
SLD-Gestrichelt
 62
     7
370
     0
100
AcDbCircle
 10
159.2341038773
 20
126.4677118984
 30
0.0
 40
0.9000000000000098
100
AcDbArc
 50
270.0
 51
311.1792132368
  0
ARC
  5
21B
330
1F
100
AcDbEntity
  8
0
  6
SLD-Gestrichelt
 62
     7
370
     0
100
AcDbCircle
 10
161.7341038773
 20
98.9667118984
 30
0.0
 40
0.9000000000000131
100
AcDbArc
 50
29.8499024808
 51
90.0
  0
LINE
  5
21C
330
1F
100
AcDbEntity
  8
0
  6
SLD-Gestrichelt
 62
     7
370
     0
100
AcDbLine
 10
221.5365884016
 20
97.9396210203
 30
0.0
 11
220.9262182126
 21
98.5485038871
 31
0.0
  0
LINE
  5
21D
330
1F
100
AcDbEntity
  8
0
  6
SLD-Gestrichelt
 62
     7
370
     0
100
AcDbLine
 10
218.595613272
 20
96.2122076342
 30
0.0
 11
219.2059834609
 21
95.6033256987
 31
0.0
  0
LINE
  5
21E
330
1F
100
AcDbEntity
  8
0
  6
SLD-Gestrichelt
 62
     7
370
     0
100
AcDbLine
 10
159.2341032932
 20
125.5677121842
 30
0.0
 11
157.484103472
 21
125.5677121842
 31
0.0
  0
LINE
  5
21F
330
1F
100
AcDbEntity
  8
0
  6
SLD-Gestrichelt
 62
     7
370
     0
100
AcDbLine
 10
157.484103472
 20
125.5677121842
 30
0.0
 11
156.5341041545
 21
124.6177119353
 31
0.0
  0
LINE
  5
220
330
1F
100
AcDbEntity
  8
0
  6
SLD-Gestrichelt
 62
     7
370
     0
100
AcDbLine
 10
157.484103472
 20
99.866711829
 30
0.0
 11
161.734103703
 21
99.866711829
 31
0.0
  0
LINE
  5
221
330
1F
100
AcDbEntity
  8
0
  6
SLD-Gestrichelt
 62
     7
370
     0
100
AcDbLine
 10
156.5341041545
 20
100.8167120779
 30
0.0
 11
157.484103472
 21
99.866711829
 31
0.0
  0
LINE
  5
222
330
1F
100
AcDbEntity
  8
0
  6
SLD-Gestrichelt
 62
     7
370
     0
100
AcDbLine
 10
202.9341035644
 20
118.0956115165
 30
0.0
 11
202.9341035644
 21
121.1856178159
 31
0.0
  0
LINE
  5
223
330
1F
100
AcDbEntity
  8
0
  6
SLD-Gestrichelt
 62
     7
370
     0
100
AcDbLine
 10
197.9341046075
 20
121.1834366584
 30
0.0
 11
197.9341046075
 21
118.0956115165
 31
0.0
  0
DIMENSION
  5
224
330
1F
100
AcDbEntity
  8
VERMASSUNG
100
AcDbDimension
  2
_D
 10
231.4341038773
 20
142.6877118984
 30
0.0
 11
193.9841038773
 21
142.6877118984
 31
0.0
 70
   160
  1
<>
 71
     2
 42
-1.0
  3
SLDDIMSTYLE0
100
AcDbAlignedDimension
 13
156.5341038773
 23
124.6177118984
 33
0.0
 14
231.4341038773
 24
85.6877118984
 34
0.0
100
AcDbRotatedDimension
  0
DIMENSION
  5
22F
330
1F
100
AcDbEntity
  8
VERMASSUNG
100
AcDbDimension
  2
_D_1
 10
231.4341038773
 20
136.6877118984
 30
0.0
 11
203.9341038773
 21
136.6877118984
 31
0.0
 70
   160
  1
<>
 71
     2
 42
-1.0
  3
SLDDIMSTYLE0
100
AcDbAlignedDimension
 13
176.4341038773
 23
132.3877118984
 33
0.0
 14
231.4341038773
 24
85.6877118984
 34
0.0
100
AcDbRotatedDimension
  0
DIMENSION
  5
239
330
1F
100
AcDbEntity
  8
VERMASSUNG
100
AcDbDimension
  2
_D_2
 10
231.4341038773
 20
85.6877118984
 30
0.0
 11
226.2312527389
 21
107.0271704225
 31
0.0
 70
   162
  1
<>
 71
     1
 42
-1.0
  3
SLDDIMSTYLE1
100
AcDb2LineAngularDimension
 13
224.0159281274
 23
99.987174522
 33
0.0
 14
209.195839204
 24
128.6282806533
 34
0.0
 15
231.4341038773
 25
112.6877118984
 35
0.0
 16
226.2312527389
 26
107.0271704225
 36
0.0
  0
DIMENSION
  5
242
330
1F
100
AcDbEntity
  8
VERMASSUNG
100
AcDbDimension
  2
_D_3
 10
238.0833021018
 20
85.6877118984
 30
0.0
 11
238.0833021018
 21
99.1877118984
 31
0.0
 70
   160
  1
<>
 71
     2
 42
-1.0
  3
SLDDIMSTYLE0
100
AcDbAlignedDimension
 13
231.4341038773
 23
112.6877118984
 33
0.0
 14
231.4341038773
 24
85.6877118984
 34
0.0
 50
90.0
100
AcDbRotatedDimension
  0
DIMENSION
  5
24C
330
1F
100
AcDbEntity
  8
VERMASSUNG
100
AcDbDimension
  2
_D_4
 10
152.9150287813
 20
92.6877118984
 30
0.0
 11
152.9150287813
 21
112.6877118984
 31
0.0
 70
   160
  1
HSK %%c<>
 71
     2
 42
-1.0
  3
SLDDIMSTYLE0
100
AcDbAlignedDimension
 13
176.7341038773
 23
132.6877118984
 33
0.0
 14
176.7341038773
 24
92.6877118984
 34
0.0
 50
90.0
100
AcDbRotatedDimension
  0
LINE
  5
258
330
1F
100
AcDbEntity
  8
VERMASSUNG
  6
SLD-Punktstrich
370
     0
100
AcDbLine
 10
155.3609326532
 20
112.6877118984
 30
0.0
 11
232.595287728
 21
112.6877118984
 31
0.0
  0
ARC
  5
259
330
1F
100
AcDbEntity
  8
0
  6
SLD-Durchgehend
 62
     7
370
    15
100
AcDbCircle
 10
158.3194020043
 20
-146.8040404083
 30
0.0
 40
242.4309592047082
100
AcDbArc
 50
105.332747675
 51
106.4937770681
  0
LINE
  5
25A
330
1F
100
AcDbEntity
  8
0
  6
SLD-Durchgehend
 62
     7
370
    15
100
AcDbLine
 10
88.8549955467
 20
90.2963572332
 30
0.0
 11
89.1516559255
 21
89.8524870315
 31
0.0
  0
LINE
  5
25B
330
1F
100
AcDbEntity
  8
0
  6
SLD-Durchgehend
 62
     7
370
    15
100
AcDbLine
 10
87.5019678984
 20
102.7073015609
 30
0.0
 11
87.3124728583
 21
102.314556312
 31
0.0
  0
LINE
  5
25C
330
1F
100
AcDbEntity
  8
0
  6
SLD-Durchgehend
 62
     7
370
    15
100
AcDbLine
 10
87.2136977173
 20
106.8570742534
 30
0.0
 11
86.5609961234
 21
106.9526149111
 31
0.0
  0
ARC
  5
25D
330
1F
100
AcDbEntity
  8
0
  6
SLD-Durchgehend
 62
     7
370
    15
100
AcDbCircle
 10
94.8123893121
 20
96.8587774173
 30
0.0
 40
6.999999999999992
100
AcDbArc
 50
198.365394812
 51
203.4880118044
  0
ARC
  5
25E
330
1F
100
AcDbEntity
  8
0
  6
SLD-Durchgehend
 62
     7
370
    15
100
AcDbCircle
 10
94.8123893121
 20
96.8587774173
 30
0.0
 40
6.999999999999993
100
AcDbArc
 50
164.7827895784
 51
169.634605188
  0
LINE
  5
25F
330
1F
100
AcDbEntity
  8
0
  6
SLD-Durchgehend
 62
     7
370
    15
100
AcDbLine
 10
88.2454549333
 20
95.2813060173
 30
0.0
 11
88.19107722
 21
95.2775024959
 31
0.0
  0
LINE
  5
260
330
1F
100
AcDbEntity
  8
0
  6
SLD-Durchgehend
 62
     7
370
    15
100
AcDbLine
 10
87.9905972302
 20
97.1390999073
 30
0.0
 11
88.1320180975
 21
97.1489896217
 31
0.0
  0
ARC
  5
261
330
1F
100
AcDbEntity
  8
0
  6
SLD-Durchgehend
 62
     7
370
    15
100
AcDbCircle
 10
86.0475572973
 20
99.5206574907
 30
0.0
 40
2.067374236107753
100
AcDbArc
 50
5.608582909
 51
10.3166634935
  0
LINE
  5
262
330
1F
100
AcDbEntity
  8
0
  6
SLD-Durchgehend
 62
     7
370
    15
100
AcDbLine
 10
89.5363096038
 20
86.2453089246
 30
0.0
 11
88.1050345393
 21
99.7227060759
 31
0.0
  0
LWPOLYLINE
  5
263
330
1F
100
AcDbEntity
  8
0
  6
SLD-Durchgehend
 62
     7
370
    15
100
AcDbPolyline
 90
        9
 70
   128
 43
0.0
 10
89.5361428461
 20
85.7189421693
 10
89.5484778189
 20
85.6761795619
 10
89.5579261555
 20
85.6810522416
 10
89.5631033059
 20
85.7318093219
 10
89.563748425
 20
85.818135474
 10
89.5602166525
 20
85.9285996446
 10
89.5529560435
 20
86.0536744037
 10
89.5424496353
 20
86.1834914574
 10
89.5363096038
 20
86.2453089246
  0
LINE
  5
264
330
1F
100
AcDbEntity
  8
0
  6
SLD-Durchgehend
 62
     7
370
    15
100
AcDbLine
 10
88.1028163617
 20
92.721193392
 30
0.0
 11
89.5361428461
 21
85.7189421693
 31
0.0
  0
ARC
  5
265
330
1F
100
AcDbEntity
  8
0
  6
SLD-Durchgehend
 62
     7
370
    15
100
AcDbCircle
 10
90.1367503225
 20
93.0914333535
 30
0.0
 40
2.06735700493599
100
AcDbArc
 50
185.6085809218
 51
190.3166747385
  0
LINE
  5
266
330
1F
100
AcDbEntity
  8
0
  6
SLD-Durchgehend
 62
     7
370
    15
100
AcDbLine
 10
86.6480151795
 20
106.3667841406
 30
0.0
 11
88.0792902222
 21
92.8893865237
 31
0.0
  0
LWPOLYLINE
  5
267
330
1F
100
AcDbEntity
  8
0
  6
SLD-Durchgehend
 62
     7
370
    15
100
AcDbPolyline
 90
        9
 70
   128
 43
0.0
 10
86.6481818862
 20
106.8931499647
 10
86.6358469844
 20
106.935913969
 10
86.626398484
 20
106.9310398923
 10
86.6212214947
 20
106.880282812
 10
86.6205763209
 20
106.7939575912
 10
86.624108129
 20
106.6834924893
 10
86.6313687198
 20
106.5584181958
 10
86.6418749697
 20
106.4286016078
 10
86.6480151795
 20
106.3667841406
  0
LINE
  5
268
330
1F
100
AcDbEntity
  8
0
  6
SLD-Durchgehend
 62
     7
370
    15
100
AcDbLine
 10
88.0815082833
 20
99.8909001389
 30
0.0
 11
86.6481818862
 21
106.8931499647
 31
0.0
  0
LINE
  5
269
330
1F
100
AcDbEntity
  8
0
  6
SLD-Durchgehend
 62
     7
370
    15
100
AcDbLine
 10
88.1023164743
 20
92.7384712884
 30
0.0
 11
89.5327707126
 21
85.7502532342
 31
0.0
  0
LWPOLYLINE
  5
26A
330
1F
100
AcDbEntity
  8
0
  6
SLD-Durchgehend
 62
     7
370
    15
100
AcDbPolyline
 90
        9
 70
   128
 43
0.0
 10
89.5327707126
 20
85.7502532342
 10
89.5433326491
 20
85.7126408407
 10
89.5517371405
 20
85.712156553
 10
89.5571501274
 20
85.7488432118
 10
89.5590344258
 20
85.819064934
 10
89.5572030363
 20
85.9158498386
 10
89.551837707
 20
86.0295959899
 10
89.5434708923
 20
86.149012033
 10
89.5329329155
 20
86.2622478196
  0
LINE
  5
26B
330
1F
100
AcDbEntity
  8
0
  6
SLD-Durchgehend
 62
     7
370
    15
100
AcDbLine
 10
89.5329329155
 20
86.2622478196
 30
0.0
 11
88.1045259207
 21
99.7126375476
 31
0.0
  0
ARC
  5
26C
330
1F
100
AcDbEntity
  8
0
  6
SLD-Durchgehend
 62
     7
370
    15
100
AcDbCircle
 10
86.2412562503
 20
99.5340797029
 30
0.0
 40
1.871805750775849
100
AcDbArc
 50
5.4739606522
 51
10.4512223565
  0
LINE
  5
26D
330
1F
100
AcDbEntity
  8
0
  6
SLD-Durchgehend
 62
     7
370
    15
100
AcDbLine
 10
88.0820081707
 20
99.8736222425
 30
0.0
 11
86.6515539724
 21
106.8618402967
 31
0.0
  0
LWPOLYLINE
  5
26E
330
1F
100
AcDbEntity
  8
0
  6
SLD-Durchgehend
 62
     7
370
    15
100
AcDbPolyline
 90
        9
 70
   128
 43
0.0
 10
86.6515539724
 20
106.8618402967
 10
86.6409920759
 20
106.8994517589
 10
86.6325875882
 20
106.8999374436
 10
86.6271745085
 20
106.8632489221
 10
86.6252902101
 20
106.7930276656
 10
86.627121656
 20
106.6962422954
 10
86.6324870053
 20
106.582497541
 10
86.6408537745
 20
106.4630814978
 10
86.6513916895
 20
106.3498452456
  0
LINE
  5
26F
330
1F
100
AcDbEntity
  8
0
  6
SLD-Durchgehend
 62
     7
370
    15
100
AcDbLine
 10
86.6513916895
 20
106.3498452456
 30
0.0
 11
88.0797987243
 21
92.8994559833
 31
0.0
  0
ARC
  5
270
330
1F
100
AcDbEntity
  8
0
  6
SLD-Durchgehend
 62
     7
370
    15
100
AcDbCircle
 10
89.9430663131
 20
93.0780135368
 30
0.0
 40
1.871803650865914
100
AcDbArc
 50
185.4739578585
 51
190.4512251502
  0
LINE
  5
271
330
1F
100
AcDbEntity
  8
0
  6
SLD-Durchgehend
 62
     7
370
    15
100
AcDbLine
 10
94.168431931
 20
87.1284132043
 30
0.0
 11
92.8329193171
 21
99.7040768304
 31
0.0
  0
LWPOLYLINE
  5
272
330
1F
100
AcDbEntity
  8
0
  6
SLD-Durchgehend
 62
     7
370
    15
100
AcDbPolyline
 90
        9
 70
   128
 43
0.0
 10
94.168431931
 20
87.1284132043
 10
94.1716482535
 20
87.0936692843
 10
94.1741246402
 20
87.0570385048
 10
94.1754247665
 20
87.0251276681
 10
94.1755323343
 20
87.0015875587
 10
94.1746042713
 20
86.9871855864
 10
94.1727574587
 20
86.9822570273
 10
94.1700752496
 20
86.987565566
 10
94.1683895558
 20
86.9946827331
  0
LWPOLYLINE
  5
273
330
1F
100
AcDbEntity
  8
0
  6
SLD-Durchgehend
 62
     7
370
    15
100
AcDbPolyline
 90
        9
 70
   128
 43
0.0
 10
87.3607288718
 20
102.2104242036
 10
87.3329342481
 20
102.3094014415
 10
87.3108171995
 20
102.3106792161
 10
87.2965723879
 20
102.2141317987
 10
87.2916137937
 20
102.0293387735
 10
87.2964331552
 20
101.7746406758
 10
87.3105524711
 20
101.4753117377
 10
87.3325703338
 20
101.1610592866
 10
87.3603018604
 20
100.863068659
  0
LINE
  5
274
330
1F
100
AcDbEntity
  8
0
  6
SLD-Durchgehend
 62
     7
370
    15
100
AcDbLine
 10
88.063249937
 20
98.7783878261
 30
0.0
 11
87.3607288718
 21
102.2104242036
 31
0.0
  0
ARC
  5
275
330
1F
100
AcDbEntity
  8
0
  6
SLD-Durchgehend
 62
     7
370
    15
100
AcDbCircle
 10
83.2192840367
 20
97.8848711597
 30
0.0
 40
4.925685503264213
100
AcDbArc
 50
5.4739157394
 51
10.4512847226
  0
LINE
  5
276
330
1F
100
AcDbEntity
  8
0
  6
SLD-Durchgehend
 62
     7
370
    15
100
AcDbLine
 10
88.8240227264
 20
91.7490230092
 30
0.0
 11
88.1225070821
 21
98.3547450194
 31
0.0
  0
LWPOLYLINE
  5
277
330
1F
100
AcDbEntity
  8
0
  6
SLD-Durchgehend
 62
     7
370
    15
100
AcDbPolyline
 90
        9
 70
   128
 43
0.0
 10
88.8235958896
 20
90.4016693273
 10
88.8513904552
 20
90.3026920894
 10
88.8735075619
 20
90.3014124522
 10
88.8877522571
 20
90.3979608008
 10
88.8927109095
 20
90.5827538261
 10
88.8878914898
 20
90.8374519238
 10
88.8737721739
 20
91.1367808619
 10
88.8517542531
 20
91.451033313
 10
88.8240227264
 20
91.7490230092
  0
LINE
  5
278
330
1F
100
AcDbEntity
  8
0
  6
SLD-Durchgehend
 62
     7
370
    15
100
AcDbLine
 10
88.1210748244
 20
93.8337047735
 30
0.0
 11
88.8235958896
 21
90.4016693273
 31
0.0
  0
ARC
  5
279
330
1F
100
AcDbEntity
  8
0
  6
SLD-Durchgehend
 62
     7
370
    15
100
AcDbCircle
 10
92.9651747709
 20
94.72724257
 30
0.0
 40
4.925821158550258
100
AcDbArc
 50
185.4740223181
 51
190.4512435894
  0
LINE
  5
27A
330
1F
100
AcDbEntity
  8
0
  6
SLD-Durchgehend
 62
     7
370
    15
100
AcDbLine
 10
87.3603018604
 20
100.863068659
 30
0.0
 11
88.0618175629
 21
94.2573466489
 31
0.0
  0
LWPOLYLINE
  5
27B
330
1F
100
AcDbEntity
  8
0
  6
SLD-Durchgehend
 62
     7
370
    15
100
AcDbPolyline
 90
       35
 70
   128
 43
0.0
 10
88.1818786634
 20
93.6052755603
 10
88.2330529762
 20
93.393796418
 10
88.279429348
 20
93.2814900914
 10
88.3194286048
 20
93.2721805909
 10
88.3516885711
 20
93.3661882916
 10
88.3751106353
 20
93.5603075811
 10
88.3888973526
 20
93.8479297945
 10
88.3925789872
 20
94.2192592809
 10
88.3860303925
 20
94.6616542676
 10
88.3694743875
 20
95.1600440928
 10
88.343474888
 20
95.6974619219
 10
88.308917349
 20
96.2556035408
 10
88.2669783801
 20
96.8154643813
 10
88.2190862808
 20
97.3579756135
 10
88.1668719135
 20
97.8646653855
 10
88.1121134057
 20
98.3182781526
 10
88.0566754982
 20
98.7033669987
 10
88.002446098
 20
99.0068179706
 10
87.9512717852
 20
99.2182971129
 10
87.9048954135
 20
99.3306034395
 10
87.8648961566
 20
99.3399120086
 10
87.8326361904
 20
99.2459052393
 10
87.8092140097
 20
99.0517859498
 10
87.7954274088
 20
98.7641637364
 10
87.7917456578
 20
98.3928333187
 10
87.7982943689
 20
97.9504392633
 10
87.8148502575
 20
97.4520475754
 10
87.840849757
 20
96.914631609
 10
87.8754074124
 20
96.3564881274
 10
87.9173463814
 20
95.7966291496
 10
87.9652384806
 20
95.2541169861
 10
88.0174528479
 20
94.7474272141
 10
88.0722113557
 20
94.2938153783
 10
88.1276492633
 20
93.9087265322
 10
88.1818786634
 20
93.6052755603
  0
ARC
  5
27C
330
1F
100
AcDbEntity
  8
0
  6
SLD-Durchgehend
 62
     7
370
    15
100
AcDbCircle
 10
92.3281965304
 20
99.6549138383
 30
0.0
 40
0.5071115175418176
100
AcDbArc
 50
5.5633979427
 51
10.3618577175
  0
LINE
  5
27D
330
1F
100
AcDbEntity
  8
0
  6
SLD-Durchgehend
 62
     7
370
    15
100
AcDbLine
 10
92.8270377822
 20
99.7461251134
 30
0.0
 11
92.7019145943
 21
100.3573912346
 31
0.0
  0
LINE
  5
27E
330
1F
100
AcDbEntity
  8
0
  6
SLD-Durchgehend
 62
     7
370
    15
100
AcDbLine
 10
92.7469370559
 20
100.3651454264
 30
0.0
 11
90.309427867
 21
99.9453210422
 31
0.0
  0
LINE
  5
27F
330
1F
100
AcDbEntity
  8
0
  6
SLD-Durchgehend
 62
     7
370
    15
100
AcDbLine
 10
90.309427867
 20
99.9453210422
 30
0.0
 11
88.3590215722
 21
99.9871746787
 31
0.0
  0
LINE
  5
280
330
1F
100
AcDbEntity
  8
0
  6
SLD-Durchgehend
 62
     7
370
    15
100
AcDbLine
 10
88.3590215722
 20
99.9871746787
 30
0.0
 11
85.317388051
 21
128.6282812396
 31
0.0
  0
ARC
  5
281
330
1F
100
AcDbEntity
  8
0
  6
SLD-Durchgehend
 62
     7
370
    15
100
AcDbCircle
 10
89.5774665892
 20
112.6877118984
 30
0.0
 40
16.50000000000001
100
AcDbArc
 50
25.0558814744
 51
104.9624866862
  0
ARC
  5
282
330
1F
100
AcDbEntity
  8
0
  6
SLD-Durchgehend
 62
     7
370
    15
100
AcDbCircle
 10
111.9595252806
 20
123.0260883933
 30
0.0
 40
8.15491006470415
100
AcDbArc
 50
204.2593865906
 51
221.3967053629
  0
ARC
  5
283
330
1F
100
AcDbEntity
  8
0
  6
SLD-Durchgehend
 62
     7
370
    15
100
AcDbCircle
 10
89.5774665892
 20
112.6877118984
 30
0.0
 40
17.0
100
AcDbArc
 50
0.0
 51
16.913570208
  0
LINE
  5
284
330
1F
100
AcDbEntity
  8
0
  6
SLD-Durchgehend
 62
     7
370
    15
100
AcDbLine
 10
106.5774675131
 20
103.6877122858
 30
0.0
 11
106.5774675131
 21
112.6877118984
 31
0.0
  0
ARC
  5
285
330
1F
100
AcDbEntity
  8
0
  6
SLD-Durchgehend
 62
     7
370
    15
100
AcDbCircle
 10
89.5774665892
 20
103.6877118984
 30
0.0
 40
17.00000000000002
100
AcDbArc
 50
306.9212705191
 51
0.0
  0
LINE
  5
286
330
1F
100
AcDbEntity
  8
0
  6
SLD-Durchgehend
 62
     7
370
    15
100
AcDbLine
 10
94.0983191736
 20
87.7886221895
 30
0.0
 11
99.7896570384
 21
90.0968623498
 31
0.0
  0
LINE
  5
287
330
1F
100
AcDbEntity
  8
0
  6
SLD-Durchgehend
 62
     7
370
    15
100
AcDbLine
 10
92.7971909892
 20
99.8919367009
 30
0.0
 11
92.7469370559
 21
100.3651454264
 31
0.0
  0
LINE
  5
288
330
1F
100
AcDbEntity
  8
0
  6
SLD-Durchgehend
 62
     7
370
    15
100
AcDbLine
 10
99.0295534625
 20
89.5576712826
 30
0.0
 11
94.1218294807
 21
87.5672412255
 31
0.0
  0
ARC
  5
289
330
1F
100
AcDbEntity
  8
0
  6
SLD-Durchgehend
 62
     7
370
    15
100
AcDbCircle
 10
89.5774665892
 20
103.6877118984
 30
0.0
 40
17.00000000000002
100
AcDbArc
 50
303.779974
 51
306.9212705191
  0
ELLIPSE
  5
28A
330
1F
100
AcDbEntity
  8
0
  6
SLD-Durchgehend
 62
     7
370
    15
100
AcDbEllipse
 10
88.5337301282
 20
83.9607626237
 30
0.0
 11
-0.7665412603314224
 21
11.05647228698467
 31
0.0
210
0.0
220
0.0
230
1.0
 40
0.0694005236
 41
6.168013363409562
 42
6.176534914316659
  0
ARC
  5
28B
330
1F
100
AcDbEntity
  8
0
  6
SLD-Durchgehend
 62
     7
370
    15
100
AcDbCircle
 10
89.5774665892
 20
112.6877118984
 30
0.0
 40
16.50000000000001
100
AcDbArc
 50
262.634809372
 51
263.4011025523
  0
ARC
  5
28C
330
1F
100
AcDbEntity
  8
0
  6
SLD-Durchgehend
 62
     7
370
    15
100
AcDbCircle
 10
89.5774665892
 20
112.6877118984
 30
0.0
 40
16.50000000000001
100
AcDbArc
 50
104.9624866862
 51
105.365190628
  0
LINE
  5
28D
330
1F
100
AcDbEntity
  8
0
  6
SLD-Durchgehend
 62
     7
370
    15
100
AcDbLine
 10
86.9307437584
 20
109.5214696286
 30
0.0
 11
87.4950085904
 21
104.2081493104
 31
0.0
  0
LWPOLYLINE
  5
28E
330
1F
100
AcDbEntity
  8
0
  6
SLD-Durchgehend
 62
     7
370
    15
100
AcDbPolyline
 90
       14
 70
   128
 43
0.0
 10
86.8119330749
 20
107.6826740207
 10
86.7689245984
 20
108.1306290032
 10
86.7318679716
 20
108.6059825645
 10
86.7029166452
 20
109.0811086503
 10
86.6837535191
 20
109.5283949433
 10
86.6754922222
 20
109.9218468332
 10
86.6786128513
 20
110.2385980228
 10
86.6929337986
 20
110.4602404555
 10
86.71762316
 20
110.5738927761
 10
86.7512457676
 20
110.5729500448
 10
86.7918477066
 20
110.4574669769
 10
86.8370694712
 20
110.2341551484
 10
86.8842826362
 20
109.9159925395
 10
86.9307437584
 20
109.5214696286
  0
LINE
  5
28F
330
1F
100
AcDbEntity
  8
0
  6
SLD-Durchgehend
 62
     7
370
    15
100
AcDbLine
 10
86.8946508176
 20
106.9037754239
 30
0.0
 11
86.8119330749
 21
107.6826740207
 31
0.0
  0
LINE
  5
290
330
1F
100
AcDbEntity
  8
0
  6
SLD-Durchgehend
 62
     7
370
    15
100
AcDbLine
 10
87.4950085904
 20
104.2081493104
 30
0.0
 11
88.3590215722
 21
99.9871746787
 31
0.0
  0
ARC
  5
291
330
1F
100
AcDbEntity
  8
0
  6
SLD-Durchgehend
 62
     7
370
    15
100
AcDbCircle
 10
89.5773528056
 20
112.6880158264
 30
0.0
 40
16.49967593340957
100
AcDbArc
 50
105.3650893797
 51
113.3525544175
  0
ARC
  5
292
330
1F
100
AcDbEntity
  8
0
  6
SLD-Durchgehend
 62
     7
370
    15
100
AcDbCircle
 10
89.5775167894
 20
112.687923642
 30
0.0
 40
16.50021707397022
100
AcDbArc
 50
254.6475286079
 51
262.6347310126
  0
ELLIPSE
  5
293
330
1F
100
AcDbEntity
  8
0
  6
SLD-Durchgehend
 62
     7
370
    15
100
AcDbEllipse
 10
81.8720121907
 20
104.7593807798
 30
0.0
 11
-1.656733903304286
 21
2.348843543871056
 31
0.0
210
0.0
220
0.0
230
1.0
 40
0.7128425204
 41
0.0
 42
6.283185307179586
  0
ARC
  5
294
330
1F
100
AcDbEntity
  8
0
  6
SLD-Durchgehend
 62
     7
370
    15
100
AcDbCircle
 10
89.5774665892
 20
112.6877118984
 30
0.0
 40
16.5
100
AcDbArc
 50
113.3524981074
 51
254.6475018926
  0
LINE
  5
295
330
1F
100
AcDbEntity
  8
0
  6
SLD-Durchgehend
 62
     7
370
    15
100
AcDbLine
 10
82.2291321724
 20
107.0788808318
 30
0.0
 11
82.120618657
 21
106.6527527908
 31
0.0
  0
LWPOLYLINE
  5
296
330
1F
100
AcDbEntity
  8
0
  6
SLD-Durchgehend
 62
     7
370
    15
100
AcDbPolyline
 90
        3
 70
   128
 43
0.0
 10
82.120618657
 20
106.6527527908
 10
82.2772019215
 20
106.3157369533
 10
82.4596591897
 20
106.0884947108
  0
ARC
  5
297
330
1F
100
AcDbEntity
  8
0
  6
SLD-Durchgehend
 62
     7
370
    15
100
AcDbCircle
 10
82.4778128566
 20
106.8287816199
 30
0.0
 40
0.7405094621268632
100
AcDbArc
 50
268.595247247
 51
327.1857971378
  0
LWPOLYLINE
  5
298
330
1F
100
AcDbEntity
  8
0
  6
SLD-Durchgehend
 62
     7
370
    15
100
AcDbPolyline
 90
        9
 70
   128
 43
0.0
 10
82.120618657
 20
106.6527527908
 10
82.1773501716
 20
106.5583353081
 10
82.2304509252
 20
106.4699616434
 10
82.2796606131
 20
106.3880625331
 10
82.324738954
 20
106.3130393775
 10
82.3654656902
 20
106.2452586518
 10
82.4016419843
 20
106.1850509757
 10
82.4330913506
 20
106.1327111127
 10
82.4596591897
 20
106.0884947108
  0
LINE
  5
299
330
1F
100
AcDbEntity
  8
0
  6
SLD-Durchgehend
 62
     7
370
    15
100
AcDbLine
 10
85.0774667829
 20
129.5877111295
 30
0.0
 11
85.0774667829
 21
129.5992464909
 31
0.0
  0
LINE
  5
29A
330
1F
100
AcDbEntity
  8
0
  6
SLD-Durchgehend
 62
     7
370
    15
100
AcDbLine
 10
94.0774663955
 20
129.5877111295
 30
0.0
 11
85.0774667829
 21
129.5877111295
 31
0.0
  0
LINE
  5
29B
330
1F
100
AcDbEntity
  8
0
  6
SLD-Durchgehend
 62
     7
370
    15
100
AcDbLine
 10
94.0774663955
 20
129.5992464909
 30
0.0
 11
94.0774663955
 21
129.5877111295
 31
0.0
  0
LINE
  5
29C
330
1F
100
AcDbEntity
  8
0
  6
SLD-Durchgehend
 62
     7
370
    15
100
AcDbLine
 10
87.7714933499
 20
95.7877126673
 30
0.0
 11
85.0343400284
 21
95.7877126673
 31
0.0
  0
LINE
  5
29D
330
1F
100
AcDbEntity
  8
0
  6
SLD-Durchgehend
 62
     7
370
    15
100
AcDbLine
 10
76.700063762
 20
124.5377122575
 30
0.0
 11
77.7274662301
 21
124.5377122575
 31
0.0
  0
LINE
  5
29E
330
1F
100
AcDbEntity
  8
0
  6
SLD-Durchgehend
 62
     7
370
    15
100
AcDbLine
 10
77.7274662301
 20
125.5651147255
 30
0.0
 11
77.7274662301
 21
124.5377122575
 31
0.0
  0
LINE
  5
29F
330
1F
100
AcDbEntity
  8
0
  6
SLD-Durchgehend
 62
     7
370
    15
100
AcDbLine
 10
85.0774667829
 20
131.5585890004
 30
0.0
 11
85.0774667829
 21
132.1748879889
 31
0.0
  0
ARC
  5
2A0
330
1F
100
AcDbEntity
  8
0
  6
SLD-Durchgehend
 62
     7
370
    15
100
AcDbCircle
 10
89.5774665892
 20
112.6877118984
 30
0.0
 40
20.00000000000002
100
AcDbArc
 50
103.0028781629
 51
126.3346172154
  0
LINE
  5
2A1
330
1F
100
AcDbEntity
  8
0
  6
SLD-Durchgehend
 62
     7
370
    15
100
AcDbLine
 10
77.7274662301
 20
128.79912119
 30
0.0
 11
77.7274662301
 21
128.0479694867
 31
0.0
  0
LINE
  5
2A2
330
1F
100
AcDbEntity
  8
0
  6
SLD-Durchgehend
 62
     7
370
    15
100
AcDbLine
 10
84.077466619
 20
94.0836792031
 30
0.0
 11
84.077466619
 21
93.4588269481
 31
0.0
  0
ARC
  5
2A3
330
1F
100
AcDbEntity
  8
0
  6
SLD-Durchgehend
 62
     7
370
    15
100
AcDbCircle
 10
89.5774665892
 20
112.6877118984
 30
0.0
 40
20.00000000000001
100
AcDbArc
 50
143.6653827846
 51
254.0379858372
  0
LINE
  5
2A4
330
1F
100
AcDbEntity
  8
0
  6
SLD-Durchgehend
 62
     7
370
    15
100
AcDbLine
 10
73.4660572976
 20
124.5377122575
 30
0.0
 11
74.2172090009
 21
124.5377122575
 31
0.0
  0
LINE
  5
2A5
330
1F
100
AcDbEntity
  8
0
  6
SLD-Durchgehend
 62
     7
370
    15
100
AcDbLine
 10
94.0774663955
 20
132.1748879889
 30
0.0
 11
94.0774663955
 21
131.5585890004
 31
0.0
  0
ARC
  5
2A6
330
1F
100
AcDbEntity
  8
0
  6
SLD-Durchgehend
 62
     7
370
    15
100
AcDbCircle
 10
89.5774665892
 20
112.6877118984
 30
0.0
 40
20.0
100
AcDbArc
 50
327.7690473645
 51
76.9971218371
  0
LINE
  5
2A7
330
1F
100
AcDbEntity
  8
0
  6
SLD-Durchgehend
 62
     7
370
    15
100
AcDbLine
 10
94.0774663955
 20
131.5585890004
 30
0.0
 11
94.0774663955
 21
129.5992464909
 31
0.0
  0
LINE
  5
2A8
330
1F
100
AcDbEntity
  8
0
  6
SLD-Durchgehend
 62
     7
370
    15
100
AcDbLine
 10
84.077466619
 20
95.7877126673
 30
0.0
 11
84.077466619
 21
94.0836792031
 31
0.0
  0
LINE
  5
2A9
330
1F
100
AcDbEntity
  8
0
  6
SLD-Durchgehend
 62
     7
370
    15
100
AcDbLine
 10
85.0343400284
 20
95.7877126673
 30
0.0
 11
84.077466619
 21
95.7877126673
 31
0.0
  0
LINE
  5
2AA
330
1F
100
AcDbEntity
  8
0
  6
SLD-Durchgehend
 62
     7
370
    15
100
AcDbLine
 10
74.2172090009
 20
124.5377122575
 30
0.0
 11
76.700063762
 21
124.5377122575
 31
0.0
  0
LINE
  5
2AB
330
1F
100
AcDbEntity
  8
0
  6
SLD-Durchgehend
 62
     7
370
    15
100
AcDbLine
 10
85.0774667829
 20
129.5992464909
 30
0.0
 11
85.0774667829
 21
131.5585890004
 31
0.0
  0
LINE
  5
2AC
330
1F
100
AcDbEntity
  8
0
  6
SLD-Durchgehend
 62
     7
370
    15
100
AcDbLine
 10
77.7274662301
 20
128.0479694867
 30
0.0
 11
77.7274662301
 21
125.5651147255
 31
0.0
  0
ARC
  5
2AD
330
1F
100
AcDbEntity
  8
0
  6
SLD-Durchgehend
 62
     7
370
    15
100
AcDbCircle
 10
89.5736610232
 20
112.6915174643
 30
0.0
 40
19.99468001395882
100
AcDbArc
 50
126.3322940084
 51
143.6677059916
  0
ARC
  5
2AE
330
1F
100
AcDbEntity
  8
0
  6
SLD-Durchgehend
 62
     7
370
    15
100
AcDbCircle
 10
89.4404636868
 20
112.1071200463
 30
0.0
 40
19.40413803866834
100
AcDbArc
 50
253.9554798715
 51
266.075727672
  0
ARC
  5
2AF
330
1F
100
AcDbEntity
  8
0
  6
SLD-Durchgehend
 62
     7
370
    15
100
AcDbCircle
 10
89.5774665892
 20
112.6856173491
 30
0.0
 40
20.00204160398592
100
AcDbArc
 50
76.9984728682
 51
103.0015271318
  0
LWPOLYLINE
  5
2B0
330
1F
100
AcDbEntity
  8
0
  6
SLD-Durchgehend
 62
     7
370
    15
100
AcDbPolyline
 90
       27
 70
   128
 43
0.0
 10
88.1600057378
 20
94.6825009921
 10
88.1956641001
 20
94.5976575056
 10
88.2246406886
 20
94.616866965
 10
88.2452515557
 20
94.7390099207
 10
88.2562986713
 20
94.9569896945
 10
88.2571402376
 20
95.258138437
 10
88.2477273604
 20
95.6249528715
 10
88.2286068422
 20
96.0361150244
 10
88.2008901004
 20
96.4677308837
 10
88.1661878571
 20
96.8947162071
 10
88.1265168914
 20
97.292256836
 10
88.0841828089
 20
97.6372475886
 10
88.0416458145
 20
97.9096389526
 10
88.0013779875
 20
98.0936021695
 10
87.9657196251
 20
98.1784447247
 10
87.9367430366
 20
98.1592352653
 10
87.916132286
 20
98.0370923096
 10
87.905085054
 20
97.8191116044
 10
87.9042434877
 20
97.5179637933
 10
87.9136564813
 20
97.1511493588
 10
87.932776883
 20
96.7399862745
 10
87.9604936249
 20
96.3083704153
 10
87.9951958682
 20
95.8813850918
 10
88.0348668338
 20
95.4838463256
 10
88.0772009164
 20
95.1388546416
 10
88.1197379108
 20
94.8664632776
 10
88.1600057378
 20
94.6825009921
  0
ARC
  5
2B1
330
1F
100
AcDbEntity
  8
0
  6
SLD-Durchgehend
 62
     7
370
    15
100
AcDbCircle
 10
81.9070724
 20
95.357364653
 30
0.0
 40
6.341620857276161
100
AcDbArc
 50
354.6047412346
 51
4.5953322439
  0
ARC
  5
2B2
330
1F
100
AcDbEntity
  8
0
  6
SLD-Durchgehend
 62
     7
370
    15
100
AcDbCircle
 10
67.4772242009
 20
94.9417440738
 30
0.0
 40
20.77163150581556
100
AcDbArc
 50
2.5487350478
 51
7.0844247482
  0
LWPOLYLINE
  5
2B3
330
1F
100
AcDbEntity
  8
0
  6
SLD-Durchgehend
 62
     7
370
    15
100
AcDbPolyline
 90
        9
 70
   128
 43
0.0
 10
88.0902747063
 20
97.5035450572
 10
88.0691900288
 20
97.6530567893
 10
88.0482931293
 20
97.7819211
 10
88.0279249882
 20
97.8880350629
 10
88.0084180876
 20
97.9696654865
 10
87.9900909399
 20
98.0254805797
 10
87.9732426161
 20
98.054569509
 10
87.9581479726
 20
98.0564572999
 10
87.9450535772
 20
98.0311122873
  0
LINE
  5
2B4
330
1F
100
AcDbEntity
  8
0
  6
SLD-Durchgehend
 62
     7
370
    15
100
AcDbLine
 10
87.9404604107
 20
98.0135857278
 30
0.0
 11
87.9450535772
 21
98.0311122873
 31
0.0
  0
ARC
  5
2B5
330
1F
100
AcDbEntity
  8
0
  6
SLD-Durchgehend
 62
     7
370
    15
100
AcDbCircle
 10
93.9866305361
 20
97.4323608331
 30
0.0
 40
6.074042769310246
100
AcDbArc
 50
174.5089676122
 51
184.4207728907
  0
LINE
  5
2B6
330
1F
100
AcDbEntity
  8
0
  6
SLD-Durchgehend
 62
     7
370
    15
100
AcDbLine
 10
87.9359575825
 20
96.8505789676
 30
0.0
 11
87.9306588227
 21
96.9641705194
 31
0.0
  0
ARC
  5
2B7
330
1F
100
AcDbEntity
  8
0
  6
SLD-Durchgehend
 62
     7
370
    15
100
AcDbCircle
 10
108.9307990254
 20
97.8490386873
 30
0.0
 40
21.01857009944838
100
AcDbArc
 50
182.7227858661
 51
186.9103764273
  0
LINE
  5
2B8
330
1F
100
AcDbEntity
  8
0
  6
SLD-Durchgehend
 62
     7
370
    15
100
AcDbLine
 10
88.0767004469
 20
95.2310220489
 30
0.0
 11
88.064916888
 21
95.3201552072
 31
0.0
  0
LWPOLYLINE
  5
2B9
330
1F
100
AcDbEntity
  8
0
  6
SLD-Durchgehend
 62
     7
370
    15
100
AcDbPolyline
 90
        9
 70
   128
 43
0.0
 10
88.0767004469
 20
95.2310220489
 10
88.0969964105
 20
95.091705505
 10
88.1170455737
 20
94.9720231035
 10
88.1365440923
 20
94.8737871984
 10
88.1551967373
 20
94.7984823176
 10
88.1727209685
 20
94.7472521254
 10
88.1888515919
 20
94.7208696196
 10
88.2033441353
 20
94.7197371313
 10
88.2159791559
 20
94.7438695619
  0
LINE
  5
2BA
330
1F
100
AcDbEntity
  8
0
  6
SLD-Durchgehend
 62
     7
370
    15
100
AcDbLine
 10
88.220598283
 20
94.7610878536
 30
0.0
 11
88.2159791559
 21
94.7438695619
 31
0.0
  0
ARC
  5
2BB
330
1F
100
AcDbEntity
  8
0
  6
SLD-Durchgehend
 62
     7
370
    15
100
AcDbCircle
 10
83.0726616272
 20
95.4640117832
 30
0.0
 40
5.195705328767302
100
AcDbArc
 50
352.2246443711
 51
355.6673504669
  0
ARC
  5
2BC
330
1F
100
AcDbEntity
  8
0
  6
SLD-Durchgehend
 62
     7
370
    15
100
AcDbCircle
 10
87.6856540514
 20
97.818796128
 30
0.0
 40
0.3352107777540879
100
AcDbArc
 50
4.0257404873
 51
39.3000142212
  0
ARC
  5
2BD
330
1F
100
AcDbEntity
  8
0
  6
SLD-Durchgehend
 62
     7
370
    15
100
AcDbCircle
 10
89.4039304398
 20
94.8135017335
 30
0.0
 40
1.192495099364766
100
AcDbArc
 50
174.0011045921
 51
183.2793895015
  0
LINE
  5
2BE
330
1F
100
AcDbEntity
  8
0
  6
SLD-Durchgehend
 62
     7
370
    15
100
AcDbLine
 10
88.2150115117
 20
94.7443985531
 30
0.0
 11
88.2159791559
 21
94.7438695619
 31
0.0
  0
LWPOLYLINE
  5
2BF
330
1F
100
AcDbEntity
  8
0
  6
SLD-Durchgehend
 62
     7
370
    15
100
AcDbPolyline
 90
        5
 70
   128
 43
0.0
 10
88.0767004469
 20
95.2310220489
 10
88.0913290798
 20
95.1812782475
 10
88.1103218904
 20
95.1615304837
 10
88.1310864256
 20
95.1791008154
 10
88.1425070015
 20
95.2038441935
  0
LWPOLYLINE
  5
2C0
330
1F
100
AcDbEntity
  8
0
  6
SLD-Durchgehend
 62
     7
370
    15
100
AcDbPolyline
 90
        6
 70
   128
 43
0.0
 10
88.1425070015
 20
95.2038441935
 10
88.1779349779
 20
95.2691205928
 10
88.2069514969
 20
95.2693403849
 10
88.223157441
 20
95.2051163802
 10
88.22563895
 20
95.0867043027
 10
88.2179655505
 20
94.9381285498
  0
ARC
  5
2C1
330
1F
100
AcDbEntity
  8
0
  6
SLD-Durchgehend
 62
     7
370
    15
100
AcDbCircle
 10
89.351805538
 20
98.0620626269
 30
0.0
 40
1.412177424433237
100
AcDbArc
 50
181.9672227193
 51
194.4797437948
  0
LWPOLYLINE
  5
2C2
330
1F
100
AcDbEntity
  8
0
  6
SLD-Durchgehend
 62
     7
370
    15
100
AcDbPolyline
 90
        6
 70
   128
 43
0.0
 10
87.984484378
 20
97.7089650148
 10
88.0220564918
 20
97.5196932593
 10
88.0420082154
 20
97.3511117661
 10
88.0393349703
 20
97.2254670376
 10
88.0156800754
 20
97.1540522912
 10
87.9792970277
 20
97.140736241
  0
LWPOLYLINE
  5
2C3
330
1F
100
AcDbEntity
  8
0
  6
SLD-Durchgehend
 62
     7
370
    15
100
AcDbPolyline
 90
        5
 70
   128
 43
0.0
 10
87.9792970277
 20
97.140736241
 10
87.9559205983
 20
97.13044047
 10
87.9393906703
 20
97.0834040234
 10
87.9313662786
 20
97.0053014496
 10
87.9306588227
 20
96.9641705194
  0
ARC
  5
2C4
330
1F
100
AcDbEntity
  8
0
  6
SLD-Durchgehend
 62
     7
370
    15
100
AcDbCircle
 10
89.6565353722
 20
95.4469985659
 30
0.0
 40
1.596664848015756
100
AcDbArc
 50
171.2954509694
 51
184.5565325588
  0
ARC
  5
2C5
330
1F
100
AcDbEntity
  8
0
  6
SLD-Durchgehend
 62
     7
370
    15
100
AcDbCircle
 10
88.9349669492
 20
96.8980637141
 30
0.0
 40
1.000137248588497
100
AcDbArc
 50
182.7213252521
 51
202.0510150417
  0
ARC
  5
2C6
330
1F
100
AcDbEntity
  8
0
  6
SLD-Durchgehend
 62
     7
370
    15
100
AcDbCircle
 10
86.5602008768
 20
95.9806514716
 30
0.0
 40
1.545891165383309
100
AcDbArc
 50
349.1115575217
 51
20.521615234
  0
CIRCLE
  5
2C7
330
1F
100
AcDbEntity
  8
VERMASSUNG
  6
SLD-Punktstrich
100
AcDbCircle
 10
89.5774665892
 20
110.7106686292
 30
0.0
 40
25.0
  0
POINT
  5
2C8
330
1F
100
AcDbEntity
  8
VERMASSUNG
100
AcDbPoint
 10
89.5511079398
 20
85.7106825248
 30
0.0
  0
DIMENSION
  5
2C9
330
1F
100
AcDbEntity
  8
VERMASSUNG
100
AcDbDimension
  2
_D_5
 10
60.9462791951
 20
135.7106686292
 30
0.0
 11
60.9462791951
 21
110.7106686292
 31
0.0
 70
   160
  1
%%c<>
 71
     2
 42
-1.0
  3
SLDDIMSTYLE0
100
AcDbAlignedDimension
 13
89.5774665892
 23
85.7106686292
 33
0.0
 14
89.5774665892
 24
135.7106686292
 34
0.0
 50
90.0
100
AcDbRotatedDimension
  0
INSERT
  5
2DF
330
1F
100
AcDbEntity
  8
VERMASSUNG
100
AcDbBlockReference
  2
SW_CENTERMARKSYMBOL_0
 10
89.5774665892
 20
112.6877118984
 30
0.0
  0
OLE2FRAME
  5
2E0
330
1F
100
AcDbEntity
  8
0
100
AcDbOle2Frame
 70
     2
  3
Paintbrush-Bild
 10
13.8511154363
 20
38.264191557
 30
0.0
 11
51.6290888628
 21
31.9806341108
 31
0.0
 71
     2
 72
     0
 73
     1
 90
    12928
310
80552BED0767C5B32B40DDAF6807D121434000000000000000006FFBDDFB85D0
310
4940DDAF6807D121434000000000000000006FFBDDFB85D04940416F4BD60AFB
310
3F4000000000000000002BED0767C5B32B40416F4BD60AFB3F40000000000000
310
0000000000000100000000010000010000000100000000000100000000320000
310
D0CF11E0A1B11AE1000000000000000000000000000000003E000300FEFF0900
310
0600000000000000000000000100000001000000000000000010000002000000
310
01000000FEFFFFFF0000000000000000FFFFFFFFFFFFFFFFFFFFFFFFFFFFFFFF
310
FFFFFFFFFFFFFFFFFFFFFFFFFFFFFFFFFFFFFFFFFFFFFFFFFFFFFFFFFFFFFFFF
310
FFFFFFFFFFFFFFFFFFFFFFFFFFFFFFFFFFFFFFFFFFFFFFFFFFFFFFFFFFFFFFFF
310
FFFFFFFFFFFFFFFFFFFFFFFFFFFFFFFFFFFFFFFFFFFFFFFFFFFFFFFFFFFFFFFF
310
FFFFFFFFFFFFFFFFFFFFFFFFFFFFFFFFFFFFFFFFFFFFFFFFFFFFFFFFFFFFFFFF
310
FFFFFFFFFFFFFFFFFFFFFFFFFFFFFFFFFFFFFFFFFFFFFFFFFFFFFFFFFFFFFFFF
310
FFFFFFFFFFFFFFFFFFFFFFFFFFFFFFFFFFFFFFFFFFFFFFFFFFFFFFFFFFFFFFFF
310
FFFFFFFFFFFFFFFFFFFFFFFFFFFFFFFFFFFFFFFFFFFFFFFFFFFFFFFFFFFFFFFF
310
FFFFFFFFFFFFFFFFFFFFFFFFFFFFFFFFFFFFFFFFFFFFFFFFFFFFFFFFFFFFFFFF
310
FFFFFFFFFFFFFFFFFFFFFFFFFFFFFFFFFFFFFFFFFFFFFFFFFFFFFFFFFFFFFFFF
310
FFFFFFFFFFFFFFFFFFFFFFFFFFFFFFFFFFFFFFFFFFFFFFFFFFFFFFFFFFFFFFFF
310
FFFFFFFFFFFFFFFFFFFFFFFFFFFFFFFFFFFFFFFFFFFFFFFFFFFFFFFFFFFFFFFF
310
FFFFFFFFFFFFFFFFFFFFFFFFFFFFFFFFFFFFFFFFFFFFFFFFFFFFFFFFFFFFFFFF
310
FFFFFFFFFFFFFFFFFFFFFFFFFFFFFFFFFFFFFFFFFFFFFFFFFFFFFFFFFFFFFFFF
310
FDFFFFFFFEFFFFFFFEFFFFFFFEFFFFFF05000000060000000700000008000000
310
090000000A0000000B0000000C0000000D0000000E0000000F00000010000000
310
11000000120000001300000014000000150000001600000017000000FEFFFFFF
310
FFFFFFFFFFFFFFFFFFFFFFFFFFFFFFFFFFFFFFFFFFFFFFFFFFFFFFFFFFFFFFFF
310
FFFFFFFFFFFFFFFFFFFFFFFFFFFFFFFFFFFFFFFFFFFFFFFFFFFFFFFFFFFFFFFF
310
FFFFFFFFFFFFFFFFFFFFFFFFFFFFFFFFFFFFFFFFFFFFFFFFFFFFFFFFFFFFFFFF
310
FFFFFFFFFFFFFFFFFFFFFFFFFFFFFFFFFFFFFFFFFFFFFFFFFFFFFFFFFFFFFFFF
310
FFFFFFFFFFFFFFFFFFFFFFFFFFFFFFFFFFFFFFFFFFFFFFFFFFFFFFFFFFFFFFFF
310
FFFFFFFFFFFFFFFFFFFFFFFFFFFFFFFFFFFFFFFFFFFFFFFFFFFFFFFFFFFFFFFF
310
FFFFFFFFFFFFFFFFFFFFFFFFFFFFFFFFFFFFFFFFFFFFFFFFFFFFFFFFFFFFFFFF
310
FFFFFFFFFFFFFFFFFFFFFFFFFFFFFFFFFFFFFFFFFFFFFFFFFFFFFFFFFFFFFFFF
310
FFFFFFFFFFFFFFFFFFFFFFFFFFFFFFFFFFFFFFFFFFFFFFFFFFFFFFFFFFFFFFFF
310
FFFFFFFFFFFFFFFFFFFFFFFFFFFFFFFFFFFFFFFFFFFFFFFFFFFFFFFFFFFFFFFF
310
FFFFFFFFFFFFFFFFFFFFFFFFFFFFFFFFFFFFFFFFFFFFFFFFFFFFFFFFFFFFFFFF
310
FFFFFFFFFFFFFFFFFFFFFFFFFFFFFFFFFFFFFFFFFFFFFFFFFFFFFFFFFFFFFFFF
310
FFFFFFFFFFFFFFFFFFFFFFFFFFFFFFFFFFFFFFFFFFFFFFFFFFFFFFFFFFFFFFFF
310
52006F006F007400200045006E00740072007900000000000000000000000000
310
0000000000000000000000000000000000000000000000000000000000000000
310
16000500FFFFFFFFFFFFFFFF020000000A00030000000000C000000000000046
310
000000000000000000000000D0743D3ECE49D00103000000C000000000000000
310
01004F006C006500000000000000000000000000000000000000000000000000
310
0000000000000000000000000000000000000000000000000000000000000000
310
0A000200FFFFFFFFFFFFFFFFFFFFFFFF00000000000000000000000000000000
310
0000000000000000000000000000000000000000000000001400000000000000
310
010043006F006D0070004F0062006A0000000000000000000000000000000000
310
0000000000000000000000000000000000000000000000000000000000000000
310
120002010100000003000000FFFFFFFF00000000000000000000000000000000
310
0000000000000000000000000000000000000000010000004D00000000000000
310
01004F006C006500310030004E00610074006900760065000000000000000000
310
0000000000000000000000000000000000000000000000000000000000000000
310
1A000200FFFFFFFFFFFFFFFFFFFFFFFF00000000000000000000000000000000
310
0000000000000000000000000000000000000000040000002426000000000000
310
FEFFFFFF02000000FEFFFFFFFFFFFFFFFFFFFFFFFFFFFFFFFFFFFFFFFFFFFFFF
310
FFFFFFFFFFFFFFFFFFFFFFFFFFFFFFFFFFFFFFFFFFFFFFFFFFFFFFFFFFFFFFFF
310
FFFFFFFFFFFFFFFFFFFFFFFFFFFFFFFFFFFFFFFFFFFFFFFFFFFFFFFFFFFFFFFF
310
FFFFFFFFFFFFFFFFFFFFFFFFFFFFFFFFFFFFFFFFFFFFFFFFFFFFFFFFFFFFFFFF
310
FFFFFFFFFFFFFFFFFFFFFFFFFFFFFFFFFFFFFFFFFFFFFFFFFFFFFFFFFFFFFFFF
310
FFFFFFFFFFFFFFFFFFFFFFFFFFFFFFFFFFFFFFFFFFFFFFFFFFFFFFFFFFFFFFFF
310
FFFFFFFFFFFFFFFFFFFFFFFFFFFFFFFFFFFFFFFFFFFFFFFFFFFFFFFFFFFFFFFF
310
FFFFFFFFFFFFFFFFFFFFFFFFFFFFFFFFFFFFFFFFFFFFFFFFFFFFFFFFFFFFFFFF
310
FFFFFFFFFFFFFFFFFFFFFFFFFFFFFFFFFFFFFFFFFFFFFFFFFFFFFFFFFFFFFFFF
310
FFFFFFFFFFFFFFFFFFFFFFFFFFFFFFFFFFFFFFFFFFFFFFFFFFFFFFFFFFFFFFFF
310
FFFFFFFFFFFFFFFFFFFFFFFFFFFFFFFFFFFFFFFFFFFFFFFFFFFFFFFFFFFFFFFF
310
FFFFFFFFFFFFFFFFFFFFFFFFFFFFFFFFFFFFFFFFFFFFFFFFFFFFFFFFFFFFFFFF
310
FFFFFFFFFFFFFFFFFFFFFFFFFFFFFFFFFFFFFFFFFFFFFFFFFFFFFFFFFFFFFFFF
310
FFFFFFFFFFFFFFFFFFFFFFFFFFFFFFFFFFFFFFFFFFFFFFFFFFFFFFFFFFFFFFFF
310
FFFFFFFFFFFFFFFFFFFFFFFFFFFFFFFFFFFFFFFFFFFFFFFFFFFFFFFFFFFFFFFF
310
FFFFFFFFFFFFFFFFFFFFFFFFFFFFFFFFFFFFFFFFFFFFFFFFFFFFFFFFFFFFFFFF
310
0100000200000000000000000000000000000000000000000000000000000000
310
0000000000000000000000000000000000000000000000000000000000000000
310
0100FEFF030A0000FFFFFFFF0A00030000000000C00000000000004607000000
310
5042727573680007000000504272757368000700000050427275736800F439B2
310
7100000000000000000000000000000000000000000000000000000000000000
310
0000000000000000000000000000000000000000000000000000000000000000
310
0000000000000000000000000000000000000000000000000000000000000000
310
0000000000000000000000000000000000000000000000000000000000000000
310
0000000000000000000000000000000000000000000000000000000000000000
310
0000000000000000000000000000000000000000000000000000000000000000
310
0000000000000000000000000000000000000000000000000000000000000000
310
0000000000000000000000000000000000000000000000000000000000000000
310
0000000000000000000000000000000000000000000000000000000000000000
310
0000000000000000000000000000000000000000000000000000000000000000
310
0000000000000000000000000000000000000000000000000000000000000000
310
0000000000000000000000000000000000000000000000000000000000000000
310
20260000424D0E260000000000003E00000028000000B40200006E0000000100
310
01000000000000000000130B0000130B00000200000002000000000000FFFFFF
310
FFFFFFFFFFFFFFFFFFFFFFFFFFFFFFFFFFFFFFFFFFFFFFFFFFFFFFFFFFFFFFFF
310
FFFFFFFFFFFFFFFFFFFFFFFFFFFFFFFFFFFFFFFFFFFFFFFFFFFFFFFFFFFFFFFF
310
FFFFFFFFFFFFFFFFFFFFFFFFFFFFFFFFFFFFFFFFFFFFFFFFF000FFFFFFFFFFFF
310
FFFFFFFFFFFFFFFFFFFFFFFFFFFFFFFFFFFFFFFFFFFFFFFFFFFFFFFFFFFFFFFF
310
FFFFFFFFFFFFFFFFFFFFFFFFFFFFFFFFFFFFFFFFFFFFFFFFFFFFFFFFFFFFFFFF
310
FFFFFFFFFFFFFFFFFFFFFFFFFFFFFFFFF000FFFFFFFFFFFFFFFFFFFFFFFFFFFF
310
FFFFFFFFFFFFFFFFFFFFFFFFFFFFFFFFFFFFFFFFFFFFFFFFFFFFFFFFFFFFFFFF
310
FFFFFFFFFFFFFFFFFFFFFFFFFFFFFFFFFFFFFFFFFFFFFFFFFFFFFFFFFFFFFFFF
310
FFFFFFFFFFFFFFFFF000FFFFFFFFFFFFFFFFFFFFFFFFFFFFFFFFFFFFFFFFFFFF
310
FFFFFFFFFFFFFFFFFFFFFFFFFFFFFFFFFFFFFFFFFFFFFFFFFFFFFFFFFFFFFFFF
310
FFFFFFFFFFFFFFFFFFFFFFFFFFFFFFFFFFFFFFFFFFFFFFFFFFFFFFFFFFFFFFFF
310
F000FFFFFFFFFFFFFFFFFFFFFFFFFFFFFFFFFFFFFFFFFFFFFFFFFFFFFFFFFFFF
310
FFFFFFFFFFFFFFFFFFFFFFFFFFFFFFFFFFFFFFFFFFFFFFFFFFFFFFFFFFFFFFFF
310
FFFFFFFFFFFFFFFFFFFFFFFFFFFFFFFFFFFFFFFFFFFFFFFFF000FFFFFFFFFFFF
310
FFFFFFFFFFFFFFFFFFFFFFFFFFFFFFFFFFFFFFFFFFFFFFFFFFFFFFFFFFFFFFFF
310
FFFFFFFFFFFFFFFFFFFFFFFFFFFFFFFFFFFFFFFFFFFFFFFFFFFFFFFFFFFFFFFF
310
FFFFFFFFFFFFFFFFFFFFFFFFFFFFFFFFF000FFFFFFFFFFFFFFFFFFFFFFFFFFFF
310
FFFFFFFFFFFFFFFFFFFFFFFFFFFFFFFFFFFFFFFFFFFFFFFFFFFFFFFFFFFFFFFF
310
FFFFFFFFFFFFFFFFFFFFFFFFFFFFFFFFFFFFFFFFFFFFFFFFFFFFFFFFFFFFFFFF
310
FFFFFFFFFFFFFFFFF000FFFFFFFFFFFFFFFFFFFFFFFFFFFFFFFFFFFFFFFFFFFF
310
FFFFFFFFFFFFFFFFFFFFFFFFFFFFFFFFFFFFFFFFFFFFFFFFFFFFFFFFFFFFFFFF
310
FFFFFFFFFFFFFFFFFFFFFFFFFFFFFFFFFFFFFFFFFFFFFFFFFFFFFFFFFFFFFFFF
310
F000FFFFFFFFFFFFFFFFFFFFFFFFFFFFFFFFFFFFFFFFFFFFFFFFFFFFFFFFFFFF
310
FFFFFFFFFFFFFFFFFFFFFFFFFFFFFFFFFFFFFFFFFFFFFFFFFFFFFFFFFFFFFFFF
310
FFFFFFFFFFFFFFFFFFFFFFFFFFFFFFFFFFFFFFFFFFFFFFFFF000FFFFFFFFFFFF
310
FFFFFFFFFFFFFFFFFFFFFFFFFFFFFFFFFFFFFFFFFFFFFFFFFFFFFFFFFFFFFFFF
310
FFFFFFFFFFFFFFFFFFFFFFFFFFFFFFFFFFFFFFFFFFFFFFFFFFFFFFFFFFFFFFFF
310
FFFFFFFFFFFFFFFFFFFFFFFFFFFFFFFFF000FFFFFFFFFFFFFFFFFFFFFFFFFFFF
310
FFFFFFFFFFFFFFFFFFFFFFFFFFFFFFFFFFFFFFFFFFFFFFFFFFFFFFFFFFFFFFFF
310
FFFFFFFFFFFFFFFFFFFFFFFFFFFFFFFFFFFFFFFFFFFFFFFFFFFFFFFFFFFFFFFF
310
FFFFFFFFFFFFFFFFF000FFFFFFFFFFFFFFFFFFFFFFFFFFFFFFFFFFFFFFFFFFFF
310
FFFFFFFFFFFFFFFFFFFFFFFFFFFFFFFFFFFFFFFFFFFFFFFFFFFFFFFFFFFFFFFF
310
FFFFFFFFFFFFFFFFFFFFFFFFFFFFFFFFFFFFFFFFFFFFFFFFFFFFFFFFFFFFFFFF
310
F000FFFFFFFFFFFFFFFFFFFFFFFFFFFFFFFFFFFFFFFFFFFFFFFFFFFFFFFFFFFF
310
FFFFFFFFFFFFFFFFFFFFFFFFFFFFFFFFFFFFFFFFFFFFFFFFFFFFFFFFFFFFFFFF
310
FFFFFFFFFFFFFFFFFFFFFFFFFFFFFFFFFFFFFFFFFFFFFFFFF000FFFFFFFFFFFF
310
FFFFFFFFFFFFFFFFFFFFFFFFFFFFFFFFFFFFFFFFFFFFFFFFFFFFFFFFFFFFFFFF
310
FFFFFFFFFFFFFFFFFFFFFFFFFFFFFFFFFFFFFFFFFFFFFFFFFFFFFFFFFFFFFFFF
310
FFFFFFFFFFFFFFFFFFFFFFFFFFFFFFFFF000FFFFFFFFFFFFFFFFFFFFFFFFFFFF
310
FFFFFFFFFFFFFFFFFFFFFFFFFFFFFFFFFFFFFFFFFFFFFFFFFFFFFFFFFFFFFFFF
310
FFFFFFFFFFFFFFFFFFFFFFFFFFFFFFFFFFFFFFFFFFFFFFFFFFFFFFFFFFFFFFFF
310
FFFFFFFFFFFFFFFFF000FFFFFFFFFFFFFFFFFFFFFFFFFFFFFFFFFFFFFFFFFFFF
310
FFFFFFFFFFFFFFFFFFFFFFFFFFFFFFFFFFFFFFFFFFFFFFFFFFFFFFFFFFFFFFFF
310
FFFFFFFFFFFFFFFFFFFFFFFFFFFFFFFFFFFFFFFFFFFFFFFFFFFFFFFFFFFFFFFF
310
F000FFFFFFFFFFFFFFFFFFFFFFFFFFFFFFFFFFFFFFFFFFFFFFFFFFFFFFFFFFFF
310
FFFFFFFFFFFFFFFFFFFFFFFFFFFFFFFFFFFFFFFFFFFFFFFFFFFFFFFFFFFFFFFF
310
FFFFFFFFFFFFFFFFFFFFFFFFFFFFFFFFFFFFFFFFFFFFFFFFF000FFFFFFFFFFFF
310
FFFFFFFFFFFFFFFFFFFFFFFFFFFFFFFFFFFFFFFFFFFFFFFFFFFFFFFFFFFFFFFF
310
FFFFFFFFFFFFFFFFFFFFFFFFFFFFFFFFFFFFFFFFFFFFFFFFFFFFFFFFFFFFFFFF
310
FFFFFFFFFFFFFFFFFFFFFFFFFFFFFFFFF000FFFFFFFFFFFFFFFFFFFFFFFFFFFF
310
FFFFFFFFFFFFFFFFFFFFFFFFFFFFFFFFFFFFFFFFFFFFFFFFFFFFFFFFFFFFFFFF
310
FFFFFFFFFFFFFFFFFFFFFFFFFFFFFFFFFFFFFFFFFFFFFFFFFFFFFFFFFFFFFFFF
310
FFFFFFFFFFFFFFFFF000FFFFF80003FFFFFFFFFFFFFFFFFFFFFFFFFFFFFFFFFF
310
FFFFF00007FFFFFFFFFF00007FFFFFF800000000000000007FFFFFFFFFFFFFFF
310
FFFFFFFC001FFFFFFFFFFFFFFC001FFFFFFFFFFFFFFFFFFFFFFFFFFE0007FFFF
310
F000FFFF8000007FFFFFFFF8000FFFFFC0007FFFFF80007FFFFF0000007FFFFF
310
FFF8000007FFFFF800000000000000007FFFFFF0001FFFFFFFFFFFC00001FFFF
310
FFFFFFFFC00001FFFFFFFF000000000003FFFFE000007FFFF000FFFE0000000F
310
FFFFFFF0000FFFFF80007FFFFF80007FFFFC0000001FFFFFFFC0000001FFFFF8
310
00000000000000007FFFFFF0001FFFFFFFFFFE0000003FFFFFFFFFFE0000003F
310
FFFFFF000000000003FFFF0000000FFFF000FFF800000003FFFFFFF00007FFFF
310
80007FFFFF80007FFFF000000007FFFFFF000000003FFFF80000000000000000
310
7FFFFFF0001FFFFFFFFFF80000000FFFFFFFFFF80000000FFFFFFF0000000000
310
03FFFC00000003FFF000FFE000000000FFFFFFF00007FFFF80003FFFFF80007F
310
FFC000000001FFFFFC000000001FFFF800000000000000007FFFFFF0001FFFFF
310
FFFFE000000003FFFFFFFFE000000003FFFFFF000000000003FFF000000000FF
310
F000FF80000000007FFFFFF00007FFFF80003FFFFF80007FFF8000000000FFFF
310
F80000000007FFF800000000000000007FFFFFF0001FFFFFFFFFC000000001FF
310
FFFFFFC000000001FFFFFF000000000003FFC0000000007FF000FF0000000000
310
3FFFFFE00007FFFF00003FFFFF80007FFE00000000003FFFF00000000003FFF8
310
00000000000000007FFFFFF0001FFFFFFFFF8000000000FFFFFFFF8000000000
310
FFFFFF000000000003FF80000000003FF000FE00000000001FFFFFE00003FFFF
310
00003FFFFF80007FFC00000000001FFFE00000000001FFF8000001FFFE000000
310
7FFFFFF0001FFFFFFFFE00000000003FFFFFFE00000000003FFFFF0000000000
310
03FF00000000001FF000FC00000000000FFFFFE00003FFFF00001FFFFF80007F
310
F800000000001FFFC00000000000FFF8000001FFFE0000007FFFFFF0001FFFFF
310
FFFC00000000001FFFFFFC00000000001FFFFF000000000003FE00000000000F
310
F000F8000000000007FFFFE00003FFFF00001FFFFF80007FF800000000000FFF
310
800000000000FFF8000001FFFE0000007FFFFFF0001FFFFFFFF800000000000F
310
FFFFF800000000000FFFFF000000000003FC000000000007F000F80000000000
310
03FFFFC00003FFFE00001FFFFF80007FF0000000000007FF0000000000007FF8
310
000001FFFE0000007FFFFFF0001FFFFFFFF0000000000007FFFFF00000000000
310
07FFFF000000000003F8000000000003F000F0000000000003FFFFC00001FFFE
310
00001FFFFF80007FE0000000000007FE0000000000003FF8000001FFFE000000
310
7FFFFFF0001FFFFFFFF0000000000007FFFFF0000000000007FFFF0000000000
310
03F800001F800003F000E00001FFF00001FFFFC00001FFFE00000FFFFF80007F
310
E00001FFE00003FE00001FFF00003FF8000001FFFE0000007FFFFFF0001FFFFF
310
FFE000003E000003FFFFE000003E000003FFFF000000000003F00001FFF80001
310
F000E00007FFFC0001FFFFC00001FFFE00000FFFFF80007FC0000FFFFC0003FC
310
0000FFFFC0001FF8000001FFFE0000007FFFFFF0001FFFFFFFC00003FFE00001
310
FFFFC00003FFE00001FFFF0001FFFFFFFFF00007FFFE0001F000E0000FFFFF00
310
00FFFF800001FFFC00000FFFFF80007FC0001FFFFE0001FC0001FFFFE0001FF8
310
000001FFFE0000007FFFFFF0001FFFFFFF80000FFFF80000FFFF80000FFFF800
310
00FFFF0003FFFFFFFFE0000FFFFF8000F000C0003FFFFF8000FFFF800000FFFC
310
000007FFFF80007F80003FFFFF0001FC0003FFFFF0001FF8000001FFFE000000
310
7FFFFFF0001FFFFFFF80003FFFFE0000FFFF80003FFFFE0000FFFF0003FFFFFF
310
FFE0003FFFFF8000F000C0003FFFFF8000FFFF800000FFFC000007FFFF80007F
310
80007FFFFF8001F80007FFFFF8000FF8000001FFFE0000007FFFFFF0001FFFFF
310
FF00007FFFFF00007FFF00007FFFFF00007FFF0003FFFFFFFFE0003FFFFFC000
310
F000C0007FFFFFC000FFFF000000FFFC000007FFFF80007F8000FFFFFF8000F8
310
000FFFFFF8000FF8000001FFFE0000007FFFFFF0001FFFFFFF0000FFFFFF8000
310
7FFF0000FFFFFF80007FFF0003FFFFFFFFC0007FFFFFC00070008000FFFFFFC0
310
00FFFF000000FFF8000007FFFF80007F8000FFFFFF8000F8000FFFFFF8000FF8
310
000001FFFE0000007FFFFFF0001FFFFFFE0001FFFFFFC0003FFE0001FFFFFFC0
310
003FFF0003FFFFFFFFC0007FFFFFE00070008000FFFFFFC0007FFF0000007FF8
310
000003FFFF80007F0001FFFFFF8000F8000FFFFFF8000FF8000001FFFE000000
310
7FFFFFF0001FFFFFFE0001FFFFFFC0003FFE0001FFFFFFC0003FFF0003FFFFFF
310
FFC000FFFFFFE00070008000FFFFFFC0007FFF0000007FF8000003FFFF80007F
310
0001FFFFFF8000F8001FFFFFF8000FF8000001FFFE0000007FFFFFF0001FFFFF
310
FE0003FFFFFFE0003FFE0003FFFFFFE0003FFF0003FFFFFFFFC000FFFFFFE000
310
70008000FFFFFFC0007FFE0000007FF8000003FFFF80007F0001FFFFFF8000F0
310
001FFFFFF8000FF8000001FFFE0000007FFFFFF0001FFFFFFC0003FFFFFFE000
310
1FFC0003FFFFFFE0001FFF0003FFFFFFFFC000FFFFFFC00070008000FFFFFF80
310
007FFE0000007FF0000003FFFF80007F0001FFFFFF0000F0001FFFFFF8000FF8
310
000001FFFE0000007FFFFFF0001FFFFFFC0007FFFFFFF0001FFC0007FFFFFFF0
310
001FFF0003FFFFFFFFC000FFFFFFC00070008001FFFFFF0000FFFE0000003FF0
310
000001FFFF80007F0001FFFFFF0000F8001FFFFFF0000FF8000001FFFE000000
310
7FFFFFF0001FFFFFFC0007FFFFFFF0001FFC0007FFFFFFF0001FFF0003FFFFFF
310
FFC001FFFFFF80007000FFFFFFFFFE0000FFFE0008003FF0008001FFFF80007F
310
FFFFFFFFFC0000FFFFFFFFFFE0000FF8000001FFFE0000007FFFFFF0001FFFFF
310
F8000FFFFFFFF8000FF8000FFFFFFFF8000FFF0003FFFFFFFFFFFFFFFFFF0000
310
7000FFFFFFFFFC0000FFFC0008003FF0008001FFFF80007FFFFFFFFFF80001FF
310
FFFFFFFF80000FF8000001FFFE0000007FFFFFF0001FFFFFF8000FFFFFFFF800
310
0FF8000FFFFFFFF8000FFF0003FFFFFFFFFFFFFFFFFE0000F000FFFFFFFFE000
310
00FFFC000C003FE000C001FFFF80007FFFFFFFFFC00001FFFFFFFFFE00001FF8
310
000001FFFE0000007FFFFFF0001FFFFFF8000FFFFFFFF8000FF8000FFFFFFFF8
310
000FFF0003FFFFFFFFFFFFFFFFF00000F000FFFFFFFE000001FFFC000C001FE0
310
00C000FFFF80007FFFFFFFFE000001FFFFFFFFE000001FF80FFFFFFFFFFFFFC0
310
7FFFFFF0001FFFFFF8000FFFFFFFF8000FF8000FFFFFFFF8000FFF0003FFFFFF
310
FFFFFFFFFF800000F000FFFFFFC0000001FFFC001C001FE001C000FFFF80007F
310
FFFFFF80000003FFFFFFF80000001FF80FFFFFFFFFFFFFC07FFFFFF0001FFFFF
310
F8001FFFFFFFFC000FF8001FFFFFFFFC000FFF0003FFFFFFFFFFFFFFF0000001
310
F000FFFFF800000001FFF8001C001FE001C000FFFF80007FFFFFF800000003FF
310
FFFF800000003FF80FFFFFFFFFFFFFC07FFFFFF0001FFFFFF8001FFFFFFFFC00
310
0FF8001FFFFFFFFC000FFF0003FFFFFFFFFFFFFE00000001F000FFFFC0000000
310
03FFF8001E001FC001E000FFFF80007FFFFF8000000007FFFFFC000000003FF8
310
0FFFFFFFFFFFFFC07FFFFFF0001FFFFFF8001FFFFFFFFC000FF8001FFFFFFFFC
310
000FFF0003FFFFFFFFFFFFE000000003F000FFFE0000000007FFF8001E000FC0
310
01E0007FFF80007FFFFE0000000007FFFFE0000000007FF80FFFFFFFFFFFFFC0
310
7FFFFFF0001FFFFFF0001FFFFFFFFC0007F0001FFFFFFFFC0007FF0003FFFFFF
310
FFFFFF0000000003F000FFF80000000007FFF8001E000FC003E0007FFF80007F
310
FFF0000000000FFFFF8000000000FFF80FFFFFFFFFFFFFC07FFFFFF0001FFFFF
310
F0001FFFFFFFFC0007F0001FFFFFFFFC0007FF0003FFFFFFFFFFFC0000000007
310
F000FFE0000000000FFFF0003E000FC003E0007FFF80007FFFC0000000001FFF
310
FE0000000001FFF80FFFFFFFFFFFFFC07FFFFFF0001FFFFFF0001FFFFFFFFC00
310
07F0001FFFFFFFFC0007FF0003FFFFFFFFFFF0000000000FF000FFC000000000
310
1FFFF0003F000F8003F0003FFF80007FFF80000000003FFFF80000000003FFF8
310
0FFFFFFFFFFFFFC07FFFFFF0001FFFFFF0001FFFFFFFFC0007F0001FFFFFFFFC
310
0007FF0003FFFFFFFFFFE0000000001FF000FF00000000007FFFF0003F000780
310
03F0003FFF80007FFF00000000007FFFF00000000007FFF80FFFFFFFFFFFFFC0
310
7FFFFFF0001FFFFFF0001FFFFFFFFC0007F0001FFFFFFFFC0007FF0003FFFFFF
310
FFFF80000000007FF000FE0000000000FFFFE0003F00078007F0003FFF80007F
310
FE0000000001FFFFE0000000001FFFF80FFFFFFFFFFFFFC07FFFFFF0001FFFFF
310
F0001FFFFFFFFC0007F0001FFFFFFFFC0007FF0003FFFFFFFFFF0000000000FF
310
F000FC0000000003FFFFE0007F00078007F0003FFF80007FFC0000000007FFFF
310
C0000000007FFFF80FFFFFFFFFFFFFC07FFFFFF0001FFFFFF8001FFFFFFFFC00
310
0FF8001FFFFFFFFC000FFF0003FFFFFFFFFE0000000003FFF000FC000000000F
310
FFFFE0007F80070007F8001FFF80007FF8000000001FFFFF8000000001FFFFF8
310
0FFFFFFFFFFFFFC07FFFFFF0001FFFFFF8001FFFFFFFFC000FF8001FFFFFFFFC
310
000FFF0003FFFFFFFFFC000000000FFFF000F8000000007FFFFFE0007F800700
310
07F8001FFF80007FF000000000FFFFFF800000000FFFFFF80FFFFFFFFFFFFFC0
310
7FFFFFF0001FFFFFF8000FFFFFFFF8000FF8000FFFFFFFF8000FFF0003FFFFFF
310
FFFC000000007FFFF000F800000007FFFFFFC0007F8003000FF8001FFF80007F
310
F000000007FFFFFF000000007FFFFFF80FFFFFFFFFFFFFC07FFFFFF0001FFFFF
310
F8000FFFFFFFF8000FF8000FFFFFFFF8000FFF0003FFFFFFFFF80000000FFFFF
310
F000F0000000FFFFFFFFC000FF8003000FF8001FFF80007FE0000000FFFFFFFF
310
0000000FFFFFFFF8000001FFFE0000007FFFFFF0001FFFFFF8000FFFFFFFF800
310
0FF8000FFFFFFFF8000FFF0003FFFFFFFFF8000000FFFFFFF000F000000FFFFF
310
FFFFC000FFC002000FF8000FFF80007FE000001FFFFFFFFE000001FFFFFFFFF8
310
000001FFFE0000007FFFFFF0001FFFFFF8000FFFFFFFF8000FF8000FFFFFFFF8
310
000FFF0003FFFFFFFFF000001FFFFFFFF000E00000FFFFFFFFFFC000FFC00200
310
0FFC000FFF80007FE00001FFFFFFFFFE00001FFFFFFFFFF8000001FFFE000000
310
7FFFFFF0001FFFFFFC000FFFFFFFF8001FFC000FFFFFFFF8001FFF0003FFFFFF
310
FFF00001FFFFFFFFF000E00007FFFFFFFFFF8000FFC000001FFC000FFF80007F
310
C0000FFFFFFFFFFE0000FFFFFFFFFFF8000001FFFE0000007FFFFFF0001FFFFF
310
FC0007FFFFFFF0001FFC0007FFFFFFF0001FFF0003FFFFFFFFF00007FFFFFFFF
310
F000E0001FFFFFFFFFFF8000FFC000001FFC000FFF80007FC0003FFFFFFFFFFE
310
0001FFFFFFFFFFF8000001FFFE0000007FFFFFF0001FFFFFFC0007FFFFFFF000
310
1FFC0007FFFFFFF0001FFF0003FFFFFFFFF0001FFFFFFFFFF000E0003FFFFF00
310
03FF8001FFE000001FFC0007FF80007FC0007FFFFF0007FC0003FFFFF0003FF8
310
000001FFFE0000007FFFFFF0001FFFFFFC0003FFFFFFE0001FFC0003FFFFFFE0
310
001FFF0003FFFFFFFFF0003FFFFFFFFFF000E0003FFFFF0001FF8001FFE00000
310
1FFE0007FF80007FC0007FFFFE0003FC0007FFFFE0003FF8000001FFFE000000
310
7FFFFFF0001FFFFFFE0003FFFFFFE0003FFE0003FFFFFFE0003FFF0003FFFFFF
310
FFF0003FFFFF8001F000E0003FFFFF0001FF0001FFE000001FFE0007FF80007F
310
C0007FFFFE0003FC0007FFFFE0003FF8000001FFFE0000007FFFFFF0001FFFFF
310
FE0001FFFFFFC0003FFE0001FFFFFFC0003FFF0003FFFFFFFFF0003FFFFF0001
310
F000E0003FFFFF0003FF0001FFE000003FFE0007FF80007FC0007FFFFE0003FC
310
0007FFFFE0003FF8000001FFFE0000007FFFFFF0001FFFFFFF0001FFFFFFC000
310
7FFF0001FFFFFFC0007FFF0003FFFFFFFFF0003FFFFF0001F000E0003FFFFE00
310
03FF0003FFF000003FFE0003FF80007FC0007FFFFC0003FE0007FFFFE0003FF8
310
000001FFFE0000007FFFFFF0001FFFFFFF0000FFFFFF80007FFF0000FFFFFF80
310
007FFF0003FFFFFFFFF0003FFFFF0001F000E0003FFFFE0003FF0003FFF00000
310
3FFF0003FF80007FC0007FFFFC0007FE0007FFFFC0003FF8000001FFFE000000
310
7FFFFFF0001FFFFFFF80007FFFFF0000FFFF80007FFFFF0000FFFF0003FFFFFF
310
FFF0003FFFFF0003F000E0003FFFFC0003FE0003FFF000003FFF0003FF80007F
310
E0003FFFF80007FE0003FFFFC0007FF8000001FFFE0000007FFFFFF0001FFFFF
310
FF80003FFFFE0000FFFF80003FFFFE0000FFFF0003FFFFFFFFF0001FFFFE0003
310
F000F0001FFFF80003FE0003FFF000007FFF0001FF80007FE0003FFFF00007FE
310
0001FFFF80007FF8000001FFFE0000007FFFFFF0001FFFFFFFC0000FFFF80001
310
FFFFC0000FFFF80001FFFF0003FFFFFFFFF0001FFFFC0003F000F0000FFFF000
310
07FE0007FFF800007FFF0001FF80007FE0001FFFE00007FF0000FFFE00007FF8
310
000001FFFE0000007FFFFFF0001FFFFFFFC00003FFE00001FFFFC00003FFE000
310
01FFFF0003FFFFFFFFF8000FFFF80003F000F00003FFC00007FC0007FFF80000
310
7FFF8001FF80007FF00007FF80000FFF00007FF80000FFF8000001FFFE000000
310
7F80000000000001FFE000003E000003FFFFE000003E000003FFFF0003FFFFFF
310
FFF80003FFE00007F000F800000000000FFC0007FFF800007FFF8001FF80007F
310
F000000000000FFF000000000000FFF8000001FFFE0000007F80000000000001
310
FFF0000000000007FFFFF0000000000007FFFF0003FFFFFFFFFC00007E000007
310
F000F800000000000FFC0007FFF80000FFFF8000FF80007FF800000000001FFF
310
800000000001FFF8000001FFFE0000007F80000000000001FFF800000000000F
310
FFFFF800000000000FFFFF0003FFFFFFFFFC00000000000FF000FC0000000000
310
1FFC0007FFFC0000FFFF8000FF80007FF800000000003FFFC00000000001FFF8
310
000001FFFE0000007F80000000000001FFF800000000000FFFFFF80000000000
310
0FFFFF0003FFFFFFFFFE00000000001FF000FE00000000003FF8000FFFFC0000
310
FFFF8000FF80007FFC00000000003FFFC00000000003FFF8000001FFFE000000
310
7F80000000000001FFFC00000000001FFFFFFC00000000001FFFFF0003FFFFFF
310
FFFF00000000001FF000FF00000000003FF8000FFFFC0000FFFFC000FF80007F
310
FE00000000007FFFE00000000007FFF8000001FFFE0000007F80000000000001
310
FFFE00000000003FFFFFFE00000000003FFFFF0003FFFFFFFFFF80000000003F
310
F000FF80000000007FF8000FFFFC0001FFFFC0007F80007FFF0000000000FFFF
310
F0000000000FFFF800000000000000007F80000000000001FFFF8000000000FF
310
FFFFFF8000000000FFFFFF0003FFFFFFFFFFC0000000007FF000FFC000000000
310
FFF8000FFFFE0001FFFFC0007F80007FFF8000000001FFFFF8000000001FFFF8
310
00000000000000007F80000000000001FFFFC000000001FFFFFFFFC000000001
310
FFFFFF0003FFFFFFFFFFE000000000FFF000FFE000000003FFF0001FFFFE0001
310
FFFFC0007F80007FFFC000000007FFFFFE000000003FFFF80000000000000000
310
7F80000000000001FFFFE000000003FFFFFFFFE000000003FFFFFF0003FFFFFF
310
FFFFF000000003FFF000FFF80000000FFFF0001FFFFE0001FFFFE0007F80007F
310
FFF00000000FFFFFFF00000000FFFFF800000000000000007F80000000000001
310
FFFFF80000000FFFFFFFFFF80000000FFFFFFF0003FFFFFFFFFFFC0000000FFF
310
F000FFFE0000003FFFF0001FFFFE0003FFFFE0003F80007FFFFC0000003FFFFF
310
FFC0000003FFFFF800000000000000007F80000000000001FFFFFE0000003FFF
310
FFFFFFFE0000003FFFFFFF0003FFFFFFFFFFFF0000003FFFF000FFFF800000FF
310
FFF0001FFFFF0003FFFFE0003F80007FFFFF000001FFFFFFFFF800001FFFFFF8
310
00000000000000007F80000000000001FFFFFFC00001FFFFFFFFFFFFC00001FF
310
FFFFFF0003FFFFFFFFFFFFC00000FFFFF000FFFFF8000FFFFFFFFFFFFFFFFFFF
310
FFFFFFFFFFFFFFFFFFFFF0001FFFFFFFFFFF0000FFFFFFF80000000000000000
310
7FFFFFFFFFFFFFFFFFFFFFFC001FFFFFFFFFFFFFFC001FFFFFFFFFFFFFFFFFFF
310
FFFFFFFC001FFFFFF000FFFFFFFFFFFFFFFFFFFFFFFFFFFFFFFFFFFFFFFFFFFF
310
FFFFFFFFFFFFFFFFFFFFFFFFFFFFFFFFFFFFFFFFFFFFFFFFFFFFFFFFFFFFFFFF
310
FFFFFFFFFFFFFFFFFFFFFFFFFFFFFFFFFFFFFFFFFFFFFFFFFFFFFFFFFFFFFFFF
310
F000FFFFFFFFFFFFFFFFFFFFFFFFFFFFFFFFFFFFFFFFFFFFFFFFFFFFFFFFFFFF
310
FFFFFFFFFFFFFFFFFFFFFFFFFFFFFFFFFFFFFFFFFFFFFFFFFFFFFFFFFFFFFFFF
310
FFFFFFFFFFFFFFFFFFFFFFFFFFFFFFFFFFFFFFFFFFFFFFFFF000FFFFFFFFFFFF
310
FFFFFFFFFFFFFFFFFFFFFFFFFFFFFFFFFFFFFFFFFFFFFFFFFFFFFFFFFFFFFFFF
310
FFFFFFFFFFFFFFFFFFFFFFFFFFFFFFFFFFFFFFFFFFFFFFFFFFFFFFFFFFFFFFFF
310
FFFFFFFFFFFFFFFFFFFFFFFFFFFFFFFFF000FFFFFFFFFFFFFFFFFFFFFFFFFFFF
310
FFFFFFFFFFFFFFFFFFFFFFFFFFFFFFFFFFFFFFFFFFFFFFFFFFFFFFFFFFFFFFFF
310
FFFFFFFFFFFFFFFFFFFFFFFFFFFFFFFFFFFFFFFFFFFFFFFFFFFFFFFFFFFFFFFF
310
FFFFFFFFFFFFFFFFF000FFFFFFFFFFFFFFFFFFFFFFFFFFFFFFFFFFFFFFFFFFFF
310
FFFFFFFFFFFFFFFFFFFFFFFFFFFFFFFFFFFFFFFFFFFFFFFFFFFFFFFFFFFFFFFF
310
FFFFFFFFFFFFFFFFFFFFFFFFFFFFFFFFFFFFFFFFFFFFFFFFFFFFFFFFFFFFFFFF
310
F000FFFFFFFFFFFFFFFFFFFFFFFFFFFFFFFFFFFFFFFFFFFFFFFFFFFFFFFFFFFF
310
FFFFFFFFFFFFFFFFFFFFFFFFFFFFFFFFFFFFFFFFFFFFFFFFFFFFFFFFFFFFFFFF
310
FFFFFFFFFFFFFFFFFFFFFFFFFFFFFFFFFFFFFFFFFFFFFFFFF000FFFFFFFFFFFF
310
FFFFFFFFFFFFFFFFFFFFFFFFFFFFFFFFFFFFFFFFFFFFFFFFFFFFFFFFFFFFFFFF
310
FFFFFFFFFFFFFFFFFFFFFFFFFFFFFFFFFFFFFFFFFFFFFFFFFFFFFFFFFFFFFFFF
310
FFFFFFFFFFFFFFFFFFFFFFFFFFFFFFFFF000FFFFFFFFFFFFFFFFFFFFFFFFFFFF
310
FFFFFFFFFFFFFFFFFFFFFFFFFFFFFFFFFFFFFFFFFFFFFFFFFFFFFFFFFFFFFFFF
310
FFFFFFFFFFFFFFFFFFFFFFFFFFFFFFFFFFFFFFFFFFFFFFFFFFFFFFFFFFFFFFFF
310
FFFFFFFFFFFFFFFFF000FFFFFFFFFFFFFFFFFFFFFFFFFFFFFFFFFFFFFFFFFFFF
310
FFFFFFFFFFFFFFFFFFFFFFFFFFFFFFFFFFFFFFFFFFFFFFFFFFFFFFFFFFFFFFFF
310
FFFFFFFFFFFFFFFFFFFFFFFFFFFFFFFFFFFFFFFFFFFFFFFFFFFFFFFFFFFFFFFF
310
F000FFFFFFFFFFFFFFFFFFFFFFFFFFFFFFFFFFFFFFFFFFFFFFFFFFFFFFFFFFFF
310
FFFFFFFFFFFFFFFFFFFFFFFFFFFFFFFFFFFFFFFFFFFFFFFFFFFFFFFFFFFFFFFF
310
FFFFFFFFFFFFFFFFFFFFFFFFFFFFFFFFFFFFFFFFFFFFFFFFF000FFFFFFFFFFFF
310
FFFFFFFFFFFFFFFFFFFFFFFFFFFFFFFFFFFFFFFFFFFFFFFFFFFFFFFFFFFFFFFF
310
FFFFFFFFFFFFFFFFFFFFFFFFFFFFFFFFFFFFFFFFFFFFFFFFFFFFFFFFFFFFFFFF
310
FFFFFFFFFFFFFFFFFFFFFFFFFFFFFFFFF000FFFFFFFFFFFFFFFFFFFFFFFFFFFF
310
FFFFFFFFFFFFFFFFFFFFFFFFFFFFFFFFFFFFFFFFFFFFFFFFFFFFFFFFFFFFFFFF
310
FFFFFFFFFFFFFFFFFFFFFFFFFFFFFFFFFFFFFFFFFFFFFFFFFFFFFFFFFFFFFFFF
310
FFFFFFFFFFFFFFFFF000FFFFFFFFFFFFFFFFFFFFFFFFFFFFFFFFFFFFFFFFFFFF
310
FFFFFFFFFFFFFFFFFFFFFFFFFFFFFFFFFFFFFFFFFFFFFFFFFFFFFFFFFFFFFFFF
310
FFFFFFFFFFFFFFFFFFFFFFFFFFFFFFFFFFFFFFFFFFFFFFFFFFFFFFFFFFFFFFFF
310
F000FFFFFFFFFFFFFFFFFFFFFFFFFFFFFFFFFFFFFFFFFFFFFFFFFFFFFFFFFFFF
310
FFFFFFFFFFFFFFFFFFFFFFFFFFFFFFFFFFFFFFFFFFFFFFFFFFFFFFFFFFFFFFFF
310
FFFFFFFFFFFFFFFFFFFFFFFFFFFFFFFFFFFFFFFFFFFFFFFFF000FFFFFFFFFFFF
310
FFFFFFFFFFFFFFFFFFFFFFFFFFFFFFFFFFFFFFFFFFFFFFFFFFFFFFFFFFFFFFFF
310
FFFFFFFFFFFFFFFFFFFFFFFFFFFFFFFFFFFFFFFFFFFFFFFFFFFFFFFFFFFFFFFF
310
FFFFFFFFFFFFFFFFFFFFFFFFFFFFFFFFF000FFFFFFFFFFFFFFFFFFFFFFFFFFFF
310
FFFFFFFFFFFFFFFFFFFFFFFFFFFFFFFFFFFFFFFFFFFFFFFFFFFFFFFFFFFFFFFF
310
FFFFFFFFFFFFFFFFFFFFFFFFFFFFFFFFFFFFFFFFFFFFFFFFFFFFFFFFFFFFFFFF
310
FFFFFFFFFFFFFFFFF000FFFFFFFFFFFFFFFFFFFFFFFFFFFFFFFFFFFFFFFFFFFF
310
FFFFFFFFFFFFFFFFFFFFFFFFFFFFFFFFFFFFFFFFFFFFFFFFFFFFFFFFFFFFFFFF
310
FFFFFFFFFFFFFFFFFFFFFFFFFFFFFFFFFFFFFFFFFFFFFFFFFFFFFFFFFFFFFFFF
310
F000FFFFFFFFFFFFFFFFFFFFFFFFFFFFFFFFFFFFFFFFFFFFFFFFFFFFFFFFFFFF
310
FFFFFFFFFFFFFFFFFFFFFFFFFFFFFFFFFFFFFFFFFFFFFFFFFFFFFFFFFFFFFFFF
310
FFFFFFFFFFFFFFFFFFFFFFFFFFFFFFFFFFFFFFFFFFFFFFFFF000FFFFFFFFFFFF
310
FFFFFFFFFFFFFFFFFFFFFFFFFFFFFFFFFFFFFFFFFFFFFFFFFFFFFFFFFFFFFFFF
310
FFFFFFFFFFFFFFFFFFFFFFFFFFFFFFFFFFFFFFFFFFFFFFFFFFFFFFFFFFFFFFFF
310
FFFFFFFFFFFFFFFFFFFFFFFFFFFFFFFFF000FFFFFFFFFFFFFFFFFFFFFFFFFFFF
310
FFFFFFFFFFFFFFFFFFFFFFFFFFFFFFFFFFFFFFFFFFFFFFFFFFFFFFFFFFFFFFFF
310
FFFFFFFFFFFFFFFFFFFFFFFFFFFFFFFFFFFFFFFFFFFFFFFFFFFFFFFFFFFFFFFF
310
FFFFFFFFFFFFFFFFF000FFFFFFFFFFFFFFFFFFFFFFFFFFFFFFFFFFFFFFFFFFFF
310
FFFFFFFFFFFFFFFFFFFFFFFFFFFFFFFFFFFFFFFFFFFFFFFFFFFFFFFFFFFFFFFF
310
FFFFFFFFFFFFFFFFFFFFFFFFFFFFFFFFFFFFFFFFFFFFFFFFFFFFFFFFFFFFFFFF
310
F000FFFFFFFFFFFFFFFFFFFFFFFFFFFFFFFFFFFFFFFFFFFFFFFFFFFFFFFFFFFF
310
FFFFFFFFFFFFFFFFFFFFFFFFFFFFFFFFFFFFFFFFFFFFFFFFFFFFFFFFFFFFFFFF
310
FFFFFFFFFFFFFFFFFFFFFFFFFFFFFFFFFFFFFFFFFFFFFFFFF000FFFFFFFFFFFF
310
FFFFFFFFFFFFFFFFFFFFFFFFFFFFFFFFFFFFFFFFFFFFFFFFFFFFFFFFFFFFFFFF
310
FFFFFFFFFFFFFFFFFFFFFFFFFFFFFFFFFFFFFFFFFFFFFFFFFFFFFFFFFFFFFFFF
310
FFFFFFFFFFFFFFFFFFFFFFFFFFFFFFFFF0000000000000000000000000000000
310
0000000000000000000000000000000000000000000000000000000000000000
310
0000000000000000000000000000000000000000000000000000000000000000
310
0000000000000000000000000000000000000000000000000000000000000000
310
0000000000000000000000000000000000000000000000000000000000000000
310
0000000000000000000000000000000000000000000000000000000000000000
310
0000000000000000000000000000000000000000000000000000000000000000
310
0000000000000000000000000000000000000000000000000000000000000000
310
0000000000000000000000000000000000000000000000000000000000000000
310
0000000000000000000000000000000000000000000000000000000000000000
310
0000000000000000000000000000000000000000000000000000000000000000
310
0000000000000000000000000000000000000000000000000000000000000000
310
0000000000000000000000000000000000000000000000000000000000000000
310
0000000000000000000000000000000000000000000000000000000000000000
310
0000000000000000000000000000000000000000000000000000000000000000
310
0000000000000000000000000000000000000000000000000000000000000000
  1
OLE
  0
ENDSEC
  0
SECTION
  2
OBJECTS
  0
DICTIONARY
  5
C
330
0
100
AcDbDictionary
281
     1
  3
ACAD_GROUP
350
D
  3
ACAD_LAYOUT
350
1A
  3
ACAD_MLINESTYLE
350
17
  3
ACAD_PLOTSETTINGS
350
19
  3
ACAD_PLOTSTYLENAME
350
E
  0
DICTIONARY
  5
D
102
{ACAD_REACTORS
330
C
102
}
330
C
100
AcDbDictionary
281
     1
  0
DICTIONARY
  5
1A
102
{ACAD_REACTORS
330
C
102
}
330
C
100
AcDbDictionary
281
     1
  3
Layout1
350
1E
  3
Layout2
350
26
  3
Model
350
22
  0
DICTIONARY
  5
17
102
{ACAD_REACTORS
330
C
102
}
330
C
100
AcDbDictionary
281
     1
  3
Standard
350
18
  0
DICTIONARY
  5
19
102
{ACAD_REACTORS
330
C
102
}
330
C
100
AcDbDictionary
281
     1
  0
ACDBDICTIONARYWDFLT
  5
E
102
{ACAD_REACTORS
330
C
102
}
330
C
100
AcDbDictionary
281
     1
  3
Normal
350
F
100
AcDbDictionaryWithDefault
340
F
  0
LAYOUT
  5
1E
102
{ACAD_REACTORS
330
1A
102
}
330
1A
100
AcDbPlotSettings
  1

  2
none_device
  4

  6

 40
0.0
 41
0.0
 42
0.0
 43
0.0
 44
0.0
 45
0.0
 46
0.0
 47
0.0
 48
0.0
 49
0.0
140
0.0
141
0.0
142
1.0
143
1.0
 70
   688
 72
     0
 73
     0
 74
     5
  7

 75
    16
147
1.0
148
0.0
149
0.0
100
AcDbLayout
  1
Layout1
 70
     1
 71
     1
 10
0.0
 20
0.0
 11
420.0
 21
297.0
 12
0.0
 22
0.0
 32
0.0
 14
1.0000000000E+20
 24
1.0000000000E+20
 34
1.0000000000E+20
 15
-1.0000000000E+20
 25
-1.0000000000E+20
 35
-1.0000000000E+20
146
0.0
 13
0.0
 23
0.0
 33
0.0
 16
1.0
 26
0.0
 36
0.0
 17
0.0
 27
1.0
 37
0.0
 76
     0
330
1B
  0
LAYOUT
  5
26
102
{ACAD_REACTORS
330
1A
102
}
330
1A
100
AcDbPlotSettings
  1

  2
none_device
  4

  6

 40
0.0
 41
0.0
 42
0.0
 43
0.0
 44
0.0
 45
0.0
 46
0.0
 47
0.0
 48
0.0
 49
0.0
140
0.0
141
0.0
142
1.0
143
1.0
 70
   688
 72
     0
 73
     0
 74
     5
  7

 75
    16
147
1.0
148
0.0
149
0.0
100
AcDbLayout
  1
Layout2
 70
     1
 71
     2
 10
0.0
 20
0.0
 11
0.0
 21
0.0
 12
0.0
 22
0.0
 32
0.0
 14
0.0
 24
0.0
 34
0.0
 15
0.0
 25
0.0
 35
0.0
146
0.0
 13
0.0
 23
0.0
 33
0.0
 16
1.0
 26
0.0
 36
0.0
 17
0.0
 27
1.0
 37
0.0
 76
     0
330
23
  0
LAYOUT
  5
22
102
{ACAD_REACTORS
330
1A
102
}
330
1A
100
AcDbPlotSettings
  1

  2
none_device
  4

  6

 40
0.0
 41
0.0
 42
0.0
 43
0.0
 44
0.0
 45
0.0
 46
0.0
 47
0.0
 48
0.0
 49
0.0
140
0.0
141
0.0
142
1.0
143
1.0
 70
  1712
 72
     0
 73
     0
 74
     0
  7

 75
     0
147
1.0
148
0.0
149
0.0
100
AcDbLayout
  1
Model
 70
     1
 71
     0
 10
0.0
 20
0.0
 11
297.0
 21
210.0
 12
0.0
 22
0.0
 32
0.0
 14
0.0
 24
0.0
 34
0.0
 15
297.0
 25
210.0
 35
0.0
146
0.0
 13
0.0
 23
0.0
 33
0.0
 16
1.0
 26
0.0
 36
0.0
 17
0.0
 27
1.0
 37
0.0
 76
     0
330
1F
331
29
  0
MLINESTYLE
  5
18
102
{ACAD_REACTORS
330
17
102
}
330
17
100
AcDbMlineStyle
  2
Standard
 70
     0
  3

 62
   256
 51
90.0
 52
90.0
 71
     2
 49
0.5
 62
   256
  6
BYLAYER
 49
-0.5
 62
   256
  6
BYLAYER
  0
ACDBPLACEHOLDER
  5
F
102
{ACAD_REACTORS
330
E
102
}
330
E
  0
ENDSEC
  0
EOF
