  0
SECTION
  2
HEADER
  9
$ACADVER
  1
AC1015
  9
$ACADMAINTVER
 70
     6
  9
$DWGCODEPAGE
  3
ANSI_1252
  9
$INSBASE
 10
0.0
 20
0.0
 30
0.0
  9
$EXTMIN
 10
0.0
 20
0.0
 30
0.0
  9
$EXTMAX
 10
297.0
 20
210.0
 30
0.0
  9
$LIMMIN
 10
0.0
 20
0.0
  9
$LIMMAX
 10
297.0
 20
210.0
  9
$ORTHOMODE
 70
     0
  9
$REGENMODE
 70
     1
  9
$FILLMODE
 70
     1
  9
$QTEXTMODE
 70
     0
  9
$MIRRTEXT
 70
     1
  9
$LTSCALE
 40
1.0
  9
$ATTMODE
 70
     1
  9
$TEXTSIZE
 40
2.0
  9
$TRACEWID
 40
1.0
  9
$TEXTSTYLE
  7
Standard
  9
$CLAYER
  8
0
  9
$CELTYPE
  6
ByLayer
  9
$CECOLOR
 62
   256
  9
$CELTSCALE
 40
1.0
  9
$DISPSILH
 70
     0
  9
$DIMSCALE
 40
1.0
  9
$DIMASZ
 40
3.0
  9
$DIMEXO
 40
0.0
  9
$DIMDLI
 40
3.75
  9
$DIMRND
 40
0.0
  9
$DIMDLE
 40
0.0
  9
$DIMEXE
 40
1.0
  9
$DIMTP
 40
0.0
  9
$DIMTM
 40
0.0
  9
$DIMTXT
 40
2.0
  9
$DIMCEN
 40
2.5
  9
$DIMTSZ
 40
0.0
  9
$DIMTOL
 70
     0
  9
$DIMLIM
 70
     0
  9
$DIMTIH
 70
     1
  9
$DIMTOH
 70
     1
  9
$DIMSE1
 70
     0
  9
$DIMSE2
 70
     0
  9
$DIMTAD
 70
     1
  9
$DIMZIN
 70
     0
  9
$DIMBLK
  1

  9
$DIMASO
 70
     1
  9
$DIMSHO
 70
     1
  9
$DIMPOST
  1

  9
$DIMAPOST
  1

  9
$DIMALT
 70
     0
  9
$DIMALTD
 70
     3
  9
$DIMALTF
 40
0.0393700787
  9
$DIMLFAC
 40
1.0
  9
$DIMTOFL
 70
     1
  9
$DIMTVP
 40
0.0
  9
$DIMTIX
 70
     0
  9
$DIMSOXD
 70
     0
  9
$DIMSAH
 70
     0
  9
$DIMBLK1
  1

  9
$DIMBLK2
  1

  9
$DIMSTYLE
  2
ISO-25
  9
$DIMCLRD
 70
     0
  9
$DIMCLRE
 70
     0
  9
$DIMCLRT
 70
     0
  9
$DIMTFAC
 40
1.0
  9
$DIMGAP
 40
1.524
  9
$DIMJUST
 70
     0
  9
$DIMSD1
 70
     0
  9
$DIMSD2
 70
     0
  9
$DIMTOLJ
 70
     0
  9
$DIMTZIN
 70
     0
  9
$DIMALTZ
 70
     0
  9
$DIMALTTZ
 70
     0
  9
$DIMUPT
 70
     0
  9
$DIMDEC
 70
     2
  9
$DIMTDEC
 70
     3
  9
$DIMALTU
 70
     2
  9
$DIMALTTD
 70
     3
  9
$DIMTXSTY
  7
Standard
  9
$DIMAUNIT
 70
     0
  9
$DIMADEC
 70
     2
  9
$DIMALTRND
 40
0.0
  9
$DIMAZIN
 70
     0
  9
$DIMDSEP
 70
    44
  9
$DIMATFIT
 70
     3
  9
$DIMFRAC
 70
     0
  9
$DIMLDRBLK
  1

  9
$DIMLUNIT
 70
     2
  9
$DIMLWD
 70
    -2
  9
$DIMLWE
 70
    -2
  9
$DIMTMOVE
 70
     0
  9
$LUNITS
 70
     2
  9
$LUPREC
 70
     2
  9
$SKETCHINC
 40
1.0
  9
$FILLETRAD
 40
10.0
  9
$AUNITS
 70
     0
  9
$AUPREC
 70
     2
  9
$MENU
  1
.
  9
$ELEVATION
 40
0.0
  9
$PELEVATION
 40
0.0
  9
$THICKNESS
 40
0.0
  9
$LIMCHECK
 70
     0
  9
$CHAMFERA
 40
10.0
  9
$CHAMFERB
 40
10.0
  9
$CHAMFERC
 40
20.0
  9
$CHAMFERD
 40
0.0
  9
$SKPOLY
 70
     0
  9
$TDCREATE
 40
2456220.434727327
  9
$TDUCREATE
 40
2456220.351393993
  9
$TDUPDATE
 40
2456220.434728958
  9
$TDUUPDATE
 40
2456220.351395625
  9
$TDINDWG
 40
0.0000000116
  9
$TDUSRTIMER
 40
0.0000000116
  9
$USRTIMER
 70
     1
  9
$ANGBASE
 50
0.0
  9
$ANGDIR
 70
     0
  9
$PDMODE
 70
     0
  9
$PDSIZE
 40
-1.0
  9
$PLINEWID
 40
0.0
  9
$SPLFRAME
 70
     0
  9
$SPLINETYPE
 70
     6
  9
$SPLINESEGS
 70
     8
  9
$HANDSEED
  5
2EC
  9
$SURFTAB1
 70
     6
  9
$SURFTAB2
 70
     6
  9
$SURFTYPE
 70
     6
  9
$SURFU
 70
     6
  9
$SURFV
 70
     6
  9
$UCSBASE
  2

  9
$UCSNAME
  2

  9
$UCSORG
 10
0.0
 20
0.0
 30
0.0
  9
$UCSXDIR
 10
1.0
 20
0.0
 30
0.0
  9
$UCSYDIR
 10
0.0
 20
1.0
 30
0.0
  9
$UCSORTHOREF
  2

  9
$UCSORTHOVIEW
 70
     0
  9
$UCSORGTOP
 10
0.0
 20
0.0
 30
0.0
  9
$UCSORGBOTTOM
 10
0.0
 20
0.0
 30
0.0
  9
$UCSORGLEFT
 10
0.0
 20
0.0
 30
0.0
  9
$UCSORGRIGHT
 10
0.0
 20
0.0
 30
0.0
  9
$UCSORGFRONT
 10
0.0
 20
0.0
 30
0.0
  9
$UCSORGBACK
 10
0.0
 20
0.0
 30
0.0
  9
$PUCSBASE
  2

  9
$PUCSNAME
  2

  9
$PUCSORG
 10
0.0
 20
0.0
 30
0.0
  9
$PUCSXDIR
 10
1.0
 20
0.0
 30
0.0
  9
$PUCSYDIR
 10
0.0
 20
1.0
 30
0.0
  9
$PUCSORTHOREF
  2

  9
$PUCSORTHOVIEW
 70
     0
  9
$PUCSORGTOP
 10
0.0
 20
0.0
 30
0.0
  9
$PUCSORGBOTTOM
 10
0.0
 20
0.0
 30
0.0
  9
$PUCSORGLEFT
 10
0.0
 20
0.0
 30
0.0
  9
$PUCSORGRIGHT
 10
0.0
 20
0.0
 30
0.0
  9
$PUCSORGFRONT
 10
0.0
 20
0.0
 30
0.0
  9
$PUCSORGBACK
 10
0.0
 20
0.0
 30
0.0
  9
$USERI1
 70
     0
  9
$USERI2
 70
     0
  9
$USERI3
 70
     0
  9
$USERI4
 70
     0
  9
$USERI5
 70
     0
  9
$USERR1
 40
0.0
  9
$USERR2
 40
0.0
  9
$USERR3
 40
0.0
  9
$USERR4
 40
0.0
  9
$USERR5
 40
0.0
  9
$WORLDVIEW
 70
     1
  9
$SHADEDGE
 70
     3
  9
$SHADEDIF
 70
    70
  9
$TILEMODE
 70
     1
  9
$MAXACTVP
 70
    64
  9
$PINSBASE
 10
0.0
 20
0.0
 30
0.0
  9
$PLIMCHECK
 70
     0
  9
$PEXTMIN
 10
1.0000000000E+20
 20
1.0000000000E+20
 30
1.0000000000E+20
  9
$PEXTMAX
 10
-1.0000000000E+20
 20
-1.0000000000E+20
 30
-1.0000000000E+20
  9
$PLIMMIN
 10
0.0
 20
0.0
  9
$PLIMMAX
 10
420.0
 20
297.0
  9
$UNITMODE
 70
     0
  9
$VISRETAIN
 70
     1
  9
$PLINEGEN
 70
     0
  9
$PSLTSCALE
 70
     1
  9
$TREEDEPTH
 70
  3020
  9
$CMLSTYLE
  2
Standard
  9
$CMLJUST
 70
     0
  9
$CMLSCALE
 40
20.0
  9
$PROXYGRAPHICS
 70
     1
  9
$MEASUREMENT
 70
     1
  9
$CELWEIGHT
370
    -1
  9
$ENDCAPS
280
     0
  9
$JOINSTYLE
280
     0
  9
$LWDISPLAY
290
     1
  9
$INSUNITS
 70
     4
  9
$HYPERLINKBASE
  1

  9
$STYLESHEET
  1

  9
$XEDIT
290
     1
  9
$CEPSNTYPE
380
     0
  9
$PSTYLEMODE
290
     1
  9
$FINGERPRINTGUID
  2
{0A493797-0062-4D17-97CB-0EA32D3AF13F}
  9
$VERSIONGUID
  2
{FAEB1C32-E019-11D5-929B-00C0DF256EC4}
  9
$EXTNAMES
290
     1
  9
$PSVPSCALE
 40
0.0
  9
$OLESTARTUP
290
     0
  0
ENDSEC
  0
SECTION
  2
CLASSES
  0
CLASS
  1
ACDBDICTIONARYWDFLT
  2
AcDbDictionaryWithDefault
  3
ObjectDBX Classes
 90
        0
280
     0
281
     0
  0
CLASS
  1
VISUALSTYLE
  2
AcDbVisualStyle
  3
ObjectDBX Classes
 90
     4095
280
     0
281
     0
  0
CLASS
  1
MATERIAL
  2
AcDbMaterial
  3
ObjectDBX Classes
 90
     1153
280
     0
281
     0
  0
CLASS
  1
ACDBPLACEHOLDER
  2
AcDbPlaceHolder
  3
ObjectDBX Classes
 90
        0
280
     0
281
     0
  0
CLASS
  1
LAYOUT
  2
AcDbLayout
  3
ObjectDBX Classes
 90
        0
280
     0
281
     0
  0
ENDSEC
  0
SECTION
  2
TABLES
  0
TABLE
  2
VPORT
  5
8
330
0
100
AcDbSymbolTable
 70
     1
  0
VPORT
  5
29
330
8
100
AcDbSymbolTableRecord
100
AcDbViewportTableRecord
  2
*Active
 70
     0
 10
0.0
 20
0.0
 11
1.0
 21
1.0
 12
148.5
 22
105.0
 13
0.0
 23
0.0
 14
10.0
 24
10.0
 15
10.0
 25
10.0
 16
0.0
 26
0.0
 36
1.0
 17
0.0
 27
0.0
 37
0.0
 40
210.0
 41
1.4142857143
 42
50.0
 43
0.0
 44
0.0
 50
0.0
 51
0.0
 71
     0
 72
  2000
 73
     1
 74
     3
 75
     0
 76
     0
 77
     0
 78
     0
281
     0
 65
     1
110
0.0
120
0.0
130
0.0
111
1.0
121
0.0
131
0.0
112
0.0
122
1.0
132
0.0
 79
     0
146
0.0
  0
ENDTAB
  0
TABLE
  2
LTYPE
  5
5
330
0
100
AcDbSymbolTable
 70
     6
  0
LTYPE
  5
14
330
5
100
AcDbSymbolTableRecord
100
AcDbLinetypeTableRecord
  2
ByBlock
 70
     0
  3

 72
    65
 73
     0
 40
0.0
  0
LTYPE
  5
15
330
5
100
AcDbSymbolTableRecord
100
AcDbLinetypeTableRecord
  2
ByLayer
 70
     0
  3

 72
    65
 73
     0
 40
0.0
  0
LTYPE
  5
16
330
5
100
AcDbSymbolTableRecord
100
AcDbLinetypeTableRecord
  2
Continuous
 70
     0
  3
Solid line
 72
    65
 73
     0
 40
0.0
  0
LTYPE
  5
3F
330
5
100
AcDbSymbolTableRecord
100
AcDbLinetypeTableRecord
  2
HIDDEN
 70
     0
  3
Hidden __ __ __ __ __ __ __ __ __ __ __ __ __ __
 72
    65
 73
     2
 40
1.905
 49
1.27
 74
     0
 49
-0.635
 74
     0
  0
LTYPE
  5
40
330
5
100
AcDbSymbolTableRecord
100
AcDbLinetypeTableRecord
  2
PHANTOM
 70
     0
  3
Phantom ______  __  __  ______  __  __  ______
 72
    65
 73
     6
 40
12.7
 49
6.35
 74
     0
 49
-1.27
 74
     0
 49
1.27
 74
     0
 49
-1.27
 74
     0
 49
1.27
 74
     0
 49
-1.27
 74
     0
  0
LTYPE
  5
41
330
5
100
AcDbSymbolTableRecord
100
AcDbLinetypeTableRecord
  2
CENTER
 70
     0
  3
Center ____ _ ____ _ ____ _ ____ _ ____ _ ____
 72
    65
 73
     4
 40
10.16
 49
6.35
 74
     0
 49
-1.27
 74
     0
 49
1.27
 74
     0
 49
-1.27
 74
     0
  0
LTYPE
  5
42
330
5
100
AcDbSymbolTableRecord
100
AcDbLinetypeTableRecord
  2
CENTERX2
 70
     0
  3
Center (2x) ________  __  ________  __  _____
 72
    65
 73
     4
 40
20.32
 49
12.7
 74
     0
 49
-2.54
 74
     0
 49
2.54
 74
     0
 49
-2.54
 74
     0
  0
LTYPE
  5
43
330
5
100
AcDbSymbolTableRecord
100
AcDbLinetypeTableRecord
  2
DOT2
 70
     0
  3
Dot (.5x) ........................................
 72
    65
 73
     2
 40
0.635
 49
0.0
 74
     0
 49
-0.635
 74
     0
  0
ENDTAB
  0
TABLE
  2
LAYER
  5
2
330
0
100
AcDbSymbolTable
 70
     5
  0
LAYER
  5
10
330
2
100
AcDbSymbolTableRecord
100
AcDbLayerTableRecord
  2
0
 70
     0
 62
     7
  6
Continuous
370
    -3
390
F
  0
LAYER
  5
44
330
2
100
AcDbSymbolTableRecord
100
AcDbLayerTableRecord
  2
FORMAT
 70
     0
 62
     7
  6
Continuous
370
    -3
390
F
  0
LAYER
  5
45
330
2
100
AcDbSymbolTableRecord
100
AcDbLayerTableRecord
  2
VERMASSUNG
 70
     0
 62
     7
  6
Continuous
370
    -3
390
F
  0
LAYER
  5
46
330
2
100
AcDbSymbolTableRecord
100
AcDbLayerTableRecord
  2
KOPF_DÜNN
 70
     0
 62
     7
  6
Continuous
370
    -3
390
F
  0
LAYER
  5
47
330
2
100
AcDbSymbolTableRecord
100
AcDbLayerTableRecord
  2
KOPF_DICK
 70
     0
 62
     7
  6
Continuous
370
    15
390
F
  0
ENDTAB
  0
TABLE
  2
STYLE
  5
3
330
0
100
AcDbSymbolTable
 70
     3
  0
STYLE
  5
11
330
3
100
AcDbSymbolTableRecord
100
AcDbTextStyleTableRecord
  2
Standard
 70
     0
 40
0.0
 41
1.0
 50
0.0
 71
     0
 42
2.0
  3
txt
  4

  0
STYLE
  5
48
330
3
100
AcDbSymbolTableRecord
100
AcDbTextStyleTableRecord
  2
SLDTEXTSTYLE0
 70
     0
 40
0.0
 41
0.7
 50
0.0
 71
     0
 42
0.2
  3
TXT
  4

  0
STYLE
  5
4C
330
3
100
AcDbSymbolTableRecord
100
AcDbTextStyleTableRecord
  2
SLDTEXTSTYLE1
 70
     0
 40
0.0
 41
0.6470588235
 50
0.0
 71
     0
 42
0.2
  3
TXT
  4

  0
ENDTAB
  0
TABLE
  2
VIEW
  5
6
330
0
100
AcDbSymbolTable
 70
     0
  0
ENDTAB
  0
TABLE
  2
UCS
  5
7
330
0
100
AcDbSymbolTable
 70
     0
  0
ENDTAB
  0
TABLE
  2
APPID
  5
9
330
0
100
AcDbSymbolTable
 70
     1
  0
APPID
  5
12
330
9
100
AcDbSymbolTableRecord
100
AcDbRegAppTableRecord
  2
ACAD
 70
     0
  0
ENDTAB
  0
TABLE
  2
DIMSTYLE
  5
A
330
0
100
AcDbSymbolTable
 70
     3
100
AcDbDimStyleTable
  0
DIMSTYLE
105
27
330
A
100
AcDbSymbolTableRecord
100
AcDbDimStyleTableRecord
  2
ISO-25
 70
     0
 41
2.5
 42
0.625
 43
3.75
 44
1.25
 73
     0
 74
     0
 77
     1
 78
     8
140
2.5
141
2.5
143
0.0393700787
147
0.625
171
     3
172
     1
178
     0
271
     2
272
     2
274
     3
278
    44
283
     0
284
     8
340
11
  0
DIMSTYLE
105
22C
102
{ACAD_REACTORS
330
22B
102
}
330
A
100
AcDbSymbolTableRecord
100
AcDbDimStyleTableRecord
  2
SLDDIMSTYLE0
 70
     0
 41
3.0
 44
0.0
 73
     0
 74
     0
 77
     1
 78
    12
 79
     3
140
2.0
147
0.5
173
     1
178
     0
179
     1
272
     3
276
     2
284
    12
340
48
  0
DIMSTYLE
105
235
102
{ACAD_REACTORS
330
234
330
23F
330
249
330
253
330
2D4
102
}
330
A
100
AcDbSymbolTableRecord
100
AcDbDimStyleTableRecord
  2
SLDDIMSTYLE1
 70
     0
 41
3.0
 44
0.0
 45
0.000000001
 73
     0
 74
     0
 77
     1
 78
    12
 79
     3
140
2.0
147
0.5
173
     1
178
     0
271
     2
272
     3
276
     2
284
    12
340
48
  0
ENDTAB
  0
TABLE
  2
BLOCK_RECORD
  5
1
330
0
100
AcDbSymbolTable
 70
     8
  0
BLOCK_RECORD
  5
1F
330
1
100
AcDbSymbolTableRecord
100
AcDbBlockTableRecord
  2
*Model_Space
340
22
  0
BLOCK_RECORD
  5
1B
330
1
100
AcDbSymbolTableRecord
100
AcDbBlockTableRecord
  2
*Paper_Space
340
1E
  0
BLOCK_RECORD
  5
23
330
1
100
AcDbSymbolTableRecord
100
AcDbBlockTableRecord
  2
*Paper_Space0
340
26
  0
BLOCK_RECORD
  5
22D
330
1
100
AcDbSymbolTableRecord
100
AcDbBlockTableRecord
  2
_D
340
0
  0
BLOCK_RECORD
  5
236
330
1
100
AcDbSymbolTableRecord
100
AcDbBlockTableRecord
  2
_D_1
340
0
  0
BLOCK_RECORD
  5
240
330
1
100
AcDbSymbolTableRecord
100
AcDbBlockTableRecord
  2
_D_2
340
0
  0
BLOCK_RECORD
  5
24A
330
1
100
AcDbSymbolTableRecord
100
AcDbBlockTableRecord
  2
_D_3
340
0
  0
BLOCK_RECORD
  5
254
330
1
100
AcDbSymbolTableRecord
100
AcDbBlockTableRecord
  2
_D_4
340
0
  0
BLOCK_RECORD
  5
2D5
330
1
100
AcDbSymbolTableRecord
100
AcDbBlockTableRecord
  2
_D_5
340
0
  0
BLOCK_RECORD
  5
2DF
330
1
100
AcDbSymbolTableRecord
100
AcDbBlockTableRecord
  2
SW_CENTERMARKSYMBOL_0
340
0
102
{BLKREFS
331
2EA
102
}
  0
ENDTAB
  0
ENDSEC
  0
SECTION
  2
BLOCKS
  0
BLOCK
  5
20
330
1F
100
AcDbEntity
  8
0
100
AcDbBlockBegin
  2
*Model_Space
 70
     0
 10
0.0
 20
0.0
 30
0.0
  3
*Model_Space
  1

  0
ENDBLK
  5
21
330
1F
100
AcDbEntity
  8
0
100
AcDbBlockEnd
  0
BLOCK
  5
1C
330
1B
100
AcDbEntity
 67
     1
  8
0
100
AcDbBlockBegin
  2
*Paper_Space
 70
     0
 10
0.0
 20
0.0
 30
0.0
  3
*Paper_Space
  1

  0
ENDBLK
  5
1D
330
1B
100
AcDbEntity
 67
     1
  8
0
100
AcDbBlockEnd
  0
BLOCK
  5
24
330
23
100
AcDbEntity
  8
0
100
AcDbBlockBegin
  2
*Paper_Space0
 70
     0
 10
0.0
 20
0.0
 30
0.0
  3
*Paper_Space0
  1

  0
ENDBLK
  5
25
330
23
100
AcDbEntity
  8
0
100
AcDbBlockEnd
  0
BLOCK
  5
22E
330
22D
100
AcDbEntity
  8
0
100
AcDbBlockBegin
  2
_D
 70
     0
 10
0.0
 20
0.0
 30
0.0
  3
_D
  1

  0
ARC
  5
230
330
22D
100
AcDbEntity
  8
VERMASSUNG
100
AcDbCircle
 10
234.1532975779
 20
135.2033425144
 30
0.0
 40
9.792319213390305
100
AcDbArc
 50
90.0
 51
207.4804697925
  0
SOLID
  5
231
330
22D
100
AcDbEntity
  8
VERMASSUNG
100
AcDbTrace
 10
234.1532975779
 20
144.9956617278
 30
0.0
 11
231.1197354088
 21
144.996414291
 31
0.0
 12
231.2530210114
 22
144.1063384806
 32
0.0
 13
231.2530210114
 23
144.1063384806
 33
0.0
  0
SOLID
  5
232
330
22D
100
AcDbEntity
  8
VERMASSUNG
100
AcDbTrace
 10
225.4658636002
 20
130.6847136892
 30
0.0
 11
224.9165211837
 21
133.6681216247
 31
0.0
 12
224.0653701109
 22
133.3756462388
 32
0.0
 13
224.0653701109
 23
133.3756462388
 33
0.0
  0
MTEXT
  5
233
330
22D
100
AcDbEntity
  8
VERMASSUNG
100
AcDbMText
 10
221.3992834794
 20
138.0323475598
 30
0.1
 40
2.0
 41
0.0
 71
     1
 72
     1
  1
117.5°
  7
SLDTEXTSTYLE0
 11
0.5189189560017075
 21
0.8548234420639726
 31
0.0
 73
     1
 44
1.0
  0
ENDBLK
  5
22F
330
22D
100
AcDbEntity
  8
0
100
AcDbBlockEnd
  0
BLOCK
  5
237
330
236
100
AcDbEntity
  8
0
100
AcDbBlockBegin
  2
_D_1
 70
     0
 10
0.0
 20
0.0
 30
0.0
  3
_D_1
  1

  0
SOLID
  5
239
330
236
100
AcDbEntity
  8
VERMASSUNG
100
AcDbTrace
 10
159.2532975779
 20
155.2557834204
 30
0.0
 11
162.2532975779
 21
154.8057834204
 31
0.0
 12
162.2532975779
 22
155.7057834204
 32
0.0
 13
162.2532975779
 23
155.7057834204
 33
0.0
  0
SOLID
  5
23A
330
236
100
AcDbEntity
  8
VERMASSUNG
100
AcDbTrace
 10
234.1532975779
 20
155.2557834204
 30
0.0
 11
231.1532975779
 21
155.7057834204
 31
0.0
 12
231.1532975779
 22
154.8057834204
 32
0.0
 13
231.1532975779
 23
154.8057834204
 33
0.0
  0
LINE
  5
23B
330
236
100
AcDbEntity
  8
VERMASSUNG
100
AcDbLine
 10
159.2532975779
 20
119.8751650147
 30
0.0
 11
159.2532975779
 21
156.2557834204
 31
0.0
  0
LINE
  5
23C
330
236
100
AcDbEntity
  8
VERMASSUNG
100
AcDbLine
 10
234.1532975779
 20
134.9451650147
 30
0.0
 11
234.1532975779
 21
156.2557834204
 31
0.0
  0
LINE
  5
23D
330
236
100
AcDbEntity
  8
VERMASSUNG
100
AcDbLine
 10
159.2532975779
 20
155.2557834204
 30
0.0
 11
234.1532975779
 21
155.2557834204
 31
0.0
  0
MTEXT
  5
23E
330
236
100
AcDbEntity
  8
VERMASSUNG
100
AcDbMText
 10
194.2042694173
 20
157.8339187835
 30
0.0
 40
2.0
 41
0.0
 71
     1
 72
     1
  1
74.9
  7
SLDTEXTSTYLE0
 73
     1
 44
1.0
  0
ENDBLK
  5
238
330
236
100
AcDbEntity
  8
0
100
AcDbBlockEnd
  0
BLOCK
  5
241
330
240
100
AcDbEntity
  8
0
100
AcDbBlockBegin
  2
_D_2
 70
     0
 10
0.0
 20
0.0
 30
0.0
  3
_D_2
  1

  0
SOLID
  5
243
330
240
100
AcDbEntity
  8
VERMASSUNG
100
AcDbTrace
 10
179.1532975779
 20
149.2557834204
 30
0.0
 11
182.1532975779
 21
148.8057834204
 31
0.0
 12
182.1532975779
 22
149.7057834204
 32
0.0
 13
182.1532975779
 23
149.7057834204
 33
0.0
  0
SOLID
  5
244
330
240
100
AcDbEntity
  8
VERMASSUNG
100
AcDbTrace
 10
234.1532975779
 20
149.2557834204
 30
0.0
 11
231.1532975779
 21
149.7057834204
 31
0.0
 12
231.1532975779
 22
148.8057834204
 32
0.0
 13
231.1532975779
 23
148.8057834204
 33
0.0
  0
LINE
  5
245
330
240
100
AcDbEntity
  8
VERMASSUNG
100
AcDbLine
 10
179.1532975779
 20
127.6451650147
 30
0.0
 11
179.1532975779
 21
150.2557834204
 31
0.0
  0
LINE
  5
246
330
240
100
AcDbEntity
  8
VERMASSUNG
100
AcDbLine
 10
234.1532975779
 20
134.9451650147
 30
0.0
 11
234.1532975779
 21
150.2557834204
 31
0.0
  0
LINE
  5
247
330
240
100
AcDbEntity
  8
VERMASSUNG
100
AcDbLine
 10
179.1532975779
 20
149.2557834204
 30
0.0
 11
234.1532975779
 21
149.2557834204
 31
0.0
  0
MTEXT
  5
248
330
240
100
AcDbEntity
  8
VERMASSUNG
100
AcDbMText
 10
205.2552256346
 20
151.8339187835
 30
0.0
 40
2.0
 41
0.0
 71
     1
 72
     1
  1
55
  7
SLDTEXTSTYLE0
 73
     1
 44
1.0
  0
ENDBLK
  5
242
330
240
100
AcDbEntity
  8
0
100
AcDbBlockEnd
  0
BLOCK
  5
24B
330
24A
100
AcDbEntity
  8
0
100
AcDbBlockBegin
  2
_D_3
 70
     0
 10
0.0
 20
0.0
 30
0.0
  3
_D_3
  1

  0
SOLID
  5
24D
330
24A
100
AcDbEntity
  8
VERMASSUNG
100
AcDbTrace
 10
244.3732650755
 20
134.9451650147
 30
0.0
 11
243.9232650755
 21
131.9451650147
 31
0.0
 12
244.8232650755
 22
131.9451650147
 32
0.0
 13
244.8232650755
 23
131.9451650147
 33
0.0
  0
SOLID
  5
24E
330
24A
100
AcDbEntity
  8
VERMASSUNG
100
AcDbTrace
 10
244.3732650755
 20
107.9451650147
 30
0.0
 11
244.8232650755
 21
110.9451650147
 31
0.0
 12
243.9232650755
 22
110.9451650147
 32
0.0
 13
243.9232650755
 23
110.9451650147
 33
0.0
  0
LINE
  5
24F
330
24A
100
AcDbEntity
  8
VERMASSUNG
100
AcDbLine
 10
234.1532975779
 20
134.9451650147
 30
0.0
 11
245.3732650755
 21
134.9451650147
 31
0.0
  0
LINE
  5
250
330
24A
100
AcDbEntity
  8
VERMASSUNG
100
AcDbLine
 10
220.6271057132
 20
107.9451650147
 30
0.0
 11
245.3732650755
 21
107.9451650147
 31
0.0
  0
LINE
  5
251
330
24A
100
AcDbEntity
  8
VERMASSUNG
100
AcDbLine
 10
244.3732650755
 20
134.9451650147
 30
0.0
 11
244.3732650755
 21
107.9451650147
 31
0.0
  0
MTEXT
  5
252
330
24A
100
AcDbEntity
  8
VERMASSUNG
100
AcDbMText
 10
241.7951297124
 20
120.0470930714
 30
0.0
 40
2.0
 41
0.0
 71
     1
 72
     1
  1
27
  7
SLDTEXTSTYLE0
 11
-7.044195017643634E-15
 21
1.0
 31
0.0
 73
     1
 44
1.0
  0
ENDBLK
  5
24C
330
24A
100
AcDbEntity
  8
0
100
AcDbBlockEnd
  0
BLOCK
  5
255
330
254
100
AcDbEntity
  8
0
100
AcDbBlockBegin
  2
_D_4
 70
     0
 10
0.0
 20
0.0
 30
0.0
  3
_D_4
  1

  0
SOLID
  5
257
330
254
100
AcDbEntity
  8
VERMASSUNG
100
AcDbTrace
 10
149.1092086029
 20
127.9451650147
 30
0.0
 11
148.6592086029
 21
124.9451650147
 31
0.0
 12
149.5592086029
 22
124.9451650147
 32
0.0
 13
149.5592086029
 23
124.9451650147
 33
0.0
  0
SOLID
  5
258
330
254
100
AcDbEntity
  8
VERMASSUNG
100
AcDbTrace
 10
149.1092086029
 20
87.9451650147
 30
0.0
 11
149.5592086029
 21
90.9451650147
 31
0.0
 12
148.6592086029
 22
90.9451650147
 32
0.0
 13
148.6592086029
 23
90.9451650147
 33
0.0
  0
LINE
  5
259
330
254
100
AcDbEntity
  8
VERMASSUNG
100
AcDbLine
 10
179.4532975779
 20
127.9451650147
 30
0.0
 11
148.1092086029
 21
127.9451650147
 31
0.0
  0
LINE
  5
25A
330
254
100
AcDbEntity
  8
VERMASSUNG
100
AcDbLine
 10
179.4532975779
 20
87.9451650147
 30
0.0
 11
148.1092086029
 21
87.9451650147
 31
0.0
  0
LINE
  5
25B
330
254
100
AcDbEntity
  8
VERMASSUNG
100
AcDbLine
 10
149.1092086029
 20
127.9451650147
 30
0.0
 11
149.1092086029
 21
87.9451650147
 31
0.0
  0
MTEXT
  5
25C
330
254
100
AcDbEntity
  8
VERMASSUNG
100
AcDbMText
 10
146.3310731139
 20
100.840843102
 30
0.0
 40
2.0
 41
0.0
 71
     1
 72
     1
  1
HSK T
  7
SLDTEXTSTYLE0
 11
-7.044195017643634E-15
 21
1.0
 31
0.0
 73
     1
 44
1.0
  0
MTEXT
  5
25D
330
254
100
AcDbEntity
  8
VERMASSUNG
100
AcDbMText
 10
146.5310731234
 20
108.4408432302
 30
0.0
 40
2.0
 41
0.0
 71
     1
 72
     1
  1
%%c
  7
SLDTEXTSTYLE0
 11
-7.044195017643634E-15
 21
1.0
 31
0.0
 73
     1
 44
1.0
  0
MTEXT
  5
25E
330
254
100
AcDbEntity
  8
VERMASSUNG
100
AcDbMText
 10
146.5310732398
 20
112.0498391188
 30
0.0
 40
2.0
 41
0.0
 71
     1
 72
     1
  1
40
  7
SLDTEXTSTYLE0
 11
-7.044195017643634E-15
 21
1.0
 31
0.0
 73
     1
 44
1.0
  0
ENDBLK
  5
256
330
254
100
AcDbEntity
  8
0
100
AcDbBlockEnd
  0
BLOCK
  5
2D6
330
2D5
100
AcDbEntity
  8
0
100
AcDbBlockBegin
  2
_D_5
 70
     0
 10
0.0
 20
0.0
 30
0.0
  3
_D_5
  1

  0
SOLID
  5
2D8
330
2D5
100
AcDbEntity
  8
VERMASSUNG
100
AcDbTrace
 10
63.9019813375
 20
84.92220814
 30
0.0
 11
64.3519813375
 21
87.92220814
 31
0.0
 12
63.4519813375
 22
87.92220814
 32
0.0
 13
63.4519813375
 23
87.92220814
 33
0.0
  0
SOLID
  5
2D9
330
2D5
100
AcDbEntity
  8
VERMASSUNG
100
AcDbTrace
 10
63.9019813375
 20
134.92220814
 30
0.0
 11
63.4519813375
 21
131.92220814
 31
0.0
 12
64.3519813375
 22
131.92220814
 32
0.0
 13
64.3519813375
 23
131.92220814
 33
0.0
  0
LINE
  5
2DA
330
2D5
100
AcDbEntity
  8
VERMASSUNG
100
AcDbLine
 10
91.3095308862
 20
84.92220814
 30
0.0
 11
62.9019813375
 21
84.92220814
 31
0.0
  0
LINE
  5
2DB
330
2D5
100
AcDbEntity
  8
VERMASSUNG
100
AcDbLine
 10
91.3095308862
 20
134.92220814
 30
0.0
 11
62.9019813375
 21
134.92220814
 31
0.0
  0
LINE
  5
2DC
330
2D5
100
AcDbEntity
  8
VERMASSUNG
100
AcDbLine
 10
63.9019813375
 20
84.92220814
 30
0.0
 11
63.9019813375
 21
134.92220814
 31
0.0
  0
MTEXT
  5
2DD
330
2D5
100
AcDbEntity
  8
VERMASSUNG
100
AcDbMText
 10
61.323845858
 20
106.7210914489
 30
0.0
 40
2.0
 41
0.0
 71
     1
 72
     1
  1
%%c
  7
SLDTEXTSTYLE0
 11
6.123233995736766E-17
 21
1.0
 31
0.0
 73
     1
 44
1.0
  0
MTEXT
  5
2DE
330
2D5
100
AcDbEntity
  8
VERMASSUNG
100
AcDbMText
 10
61.3238459744
 20
110.3271809445
 30
0.0
 40
2.0
 41
0.0
 71
     1
 72
     1
  1
50
  7
SLDTEXTSTYLE0
 11
6.123233995736766E-17
 21
1.0
 31
0.0
 73
     1
 44
1.0
  0
ENDBLK
  5
2D7
330
2D5
100
AcDbEntity
  8
0
100
AcDbBlockEnd
  0
BLOCK
  5
2E0
330
2DF
100
AcDbEntity
  8
0
100
AcDbBlockBegin
  2
SW_CENTERMARKSYMBOL_0
 70
     0
 10
0.0
 20
0.0
 30
0.0
  3
SW_CENTERMARKSYMBOL_0
  1

  0
LINE
  5
2E2
330
2DF
100
AcDbEntity
  8
VERMASSUNG
 62
     0
100
AcDbLine
 10
0.0
 20
0.0
 30
0.0
 11
0.0
 21
2.5
 31
0.0
  0
LINE
  5
2E3
330
2DF
100
AcDbEntity
  8
VERMASSUNG
 62
     0
100
AcDbLine
 10
0.0
 20
0.0
 30
0.0
 11
-2.5
 21
0.0
 31
0.0
  0
LINE
  5
2E4
330
2DF
100
AcDbEntity
  8
VERMASSUNG
 62
     0
100
AcDbLine
 10
0.0
 20
0.0
 30
0.0
 11
0.0
 21
-2.5
 31
0.0
  0
LINE
  5
2E5
330
2DF
100
AcDbEntity
  8
VERMASSUNG
 62
     0
100
AcDbLine
 10
0.0
 20
0.0
 30
0.0
 11
2.5
 21
0.0
 31
0.0
  0
LINE
  5
2E6
330
2DF
100
AcDbEntity
  8
VERMASSUNG
 62
     0
100
AcDbLine
 10
0.0
 20
5.0
 30
0.0
 11
0.0
 21
30.4339112472
 31
0.0
  0
LINE
  5
2E7
330
2DF
100
AcDbEntity
  8
VERMASSUNG
 62
     0
100
AcDbLine
 10
-5.0
 20
0.0
 30
0.0
 11
-22.5
 21
0.0
 31
0.0
  0
LINE
  5
2E8
330
2DF
100
AcDbEntity
  8
VERMASSUNG
 62
     0
100
AcDbLine
 10
0.0
 20
-5.0
 30
0.0
 11
0.0
 21
-22.5
 31
0.0
  0
LINE
  5
2E9
330
2DF
100
AcDbEntity
  8
VERMASSUNG
 62
     0
100
AcDbLine
 10
5.0
 20
0.0
 30
0.0
 11
22.5
 21
0.0
 31
0.0
  0
ENDBLK
  5
2E1
330
2DF
100
AcDbEntity
  8
0
100
AcDbBlockEnd
  0
ENDSEC
  0
SECTION
  2
ENTITIES
  0
MTEXT
  5
49
330
1F
100
AcDbEntity
  8
KOPF_DÜNN
100
AcDbMText
 10
13.8892156294
 20
23.8442973028
 30
0.0
 40
3.0
 41
0.0
 71
     1
 72
     1
  1
HA4.KVB.RPA.055
  7
SLDTEXTSTYLE0
 73
     1
 44
1.0
  0
MTEXT
  5
4A
330
1F
100
AcDbEntity
  8
VERMASSUNG
100
AcDbMText
 10
13.9329988022
 20
28.8834360957
 30
0.0
 40
3.0
 41
0.0
 71
     1
 72
     1
  1
Klemmhalter rechts_Turning tool right 117.5° /35° /117.5°
  7
SLDTEXTSTYLE0
 73
     1
 44
1.0
  0
MTEXT
  5
4B
330
1F
100
AcDbEntity
  8
VERMASSUNG
100
AcDbMText
 10
98.8601118557
 20
13.8365368179
 30
0.0
 40
2.0
 41
0.0
 71
     1
 72
     1
  1
Datum: 19.10.2012
  7
SLDTEXTSTYLE0
 73
     1
 44
1.0
  0
MTEXT
  5
4D
330
1F
100
AcDbEntity
  8
VERMASSUNG
100
AcDbMText
 10
13.933048693
 20
18.0482802738
 30
0.0
 40
2.0
 41
0.0
 71
     1
 72
     1
  1
DIN 69893 HSK T 40  / VC.. 16 04..
  7
SLDTEXTSTYLE1
 73
     1
 44
1.0
  0
MTEXT
  5
4E
330
1F
100
AcDbEntity
  8
VERMASSUNG
100
AcDbMText
 10
13.9808475933
 20
13.9090973692
 30
0.0
 40
2.0
 41
0.0
 71
     1
 72
     1
  1
Gewicht: 305g
  7
SLDTEXTSTYLE0
 73
     1
 44
1.0
  0
LINE
  5
4F
330
1F
100
AcDbEntity
  8
0
  6
Continuous
 62
     7
370
    15
100
AcDbLine
 10
221.6036846088
 20
126.0840765897
 30
0.0
 11
221.55313987
 21
126.0336566482
 31
0.0
  0
LINE
  5
50
330
1F
100
AcDbEntity
  8
0
  6
Continuous
 62
     7
370
    15
100
AcDbLine
 10
225.260921304
 20
122.3168218274
 30
0.0
 11
225.3114660428
 21
122.3672408376
 31
0.0
  0
LINE
  5
51
330
1F
100
AcDbEntity
  8
0
  6
Continuous
 62
     7
370
    15
100
AcDbLine
 10
222.2945545958
 20
124.7147027169
 30
0.0
 11
222.3866996513
 21
124.8066261176
 31
0.0
  0
LINE
  5
52
330
1F
100
AcDbEntity
  8
0
  6
Continuous
 62
     7
370
    15
100
AcDbLine
 10
224.5603283094
 20
123.6743073676
 30
0.0
 11
224.4681460009
 21
123.5823485766
 31
0.0
  0
LINE
  5
53
330
1F
100
AcDbEntity
  8
0
  6
Continuous
 62
     7
370
    15
100
AcDbLine
 10
179.4532975922
 20
87.9451654617
 30
0.0
 11
187.1032980428
 21
87.9451654617
 31
0.0
  0
LINE
  5
54
330
1F
100
AcDbEntity
  8
0
  6
Continuous
 62
     7
370
    15
100
AcDbLine
 10
187.1188250528
 20
127.9451645676
 30
0.0
 11
179.4532975922
 21
127.9451645676
 31
0.0
  0
ARC
  5
55
330
1F
100
AcDbEntity
  8
0
  6
Continuous
 62
     7
370
    15
100
AcDbCircle
 10
179.4532975779
 20
88.2451650147
 30
0.0
 40
0.3000000000000114
100
AcDbArc
 50
180.0
 51
270.0
  0
ARC
  5
56
330
1F
100
AcDbEntity
  8
0
  6
Continuous
 62
     7
370
    15
100
AcDbCircle
 10
179.4532975779
 20
127.6451650147
 30
0.0
 40
0.3000000000000114
100
AcDbArc
 50
90.0
 51
180.0
  0
ARC
  5
57
330
1F
100
AcDbEntity
  8
0
  6
Continuous
 62
     7
370
    15
100
AcDbCircle
 10
200.1032975779
 20
90.4451650147
 30
0.0
 40
1.000000000000015
100
AcDbArc
 50
90.0
 51
143.1137328946
  0
ARC
  5
58
330
1F
100
AcDbEntity
  8
0
  6
Continuous
 62
     7
370
    15
100
AcDbCircle
 10
200.1032975779
 20
125.4451650147
 30
0.0
 40
1.0
100
AcDbArc
 50
216.8998129703
 51
270.0
  0
LINE
  5
59
330
1F
100
AcDbEntity
  8
0
  6
Continuous
 62
     7
370
    15
100
AcDbLine
 10
200.1032983111
 20
91.4451651041
 30
0.0
 11
211.0752430902
 21
91.4451651041
 31
0.0
  0
LINE
  5
5A
330
1F
100
AcDbEntity
  8
0
  6
Continuous
 62
     7
370
    15
100
AcDbLine
 10
213.3859698818
 20
124.4451649252
 30
0.0
 11
200.1032983111
 21
124.4451649252
 31
0.0
  0
ARC
  5
5B
330
1F
100
AcDbEntity
  8
0
  6
Continuous
 62
     7
370
    15
100
AcDbCircle
 10
178.6532908252
 20
92.4914578612
 30
0.0
 40
0.6000067526677242
100
AcDbArc
 50
33.5571153394
 51
90.0
  0
ARC
  5
5C
330
1F
100
AcDbEntity
  8
0
  6
Continuous
 62
     7
370
    15
100
AcDbCircle
 10
178.6532908252
 20
123.3988721681
 30
0.0
 40
0.6000067526677242
100
AcDbArc
 50
270.0
 51
326.4428846606
  0
LINE
  5
5D
330
1F
100
AcDbEntity
  8
0
  6
Continuous
 62
     7
370
    15
100
AcDbLine
 10
170.337364559
 20
122.7073859189
 30
0.0
 11
162.8532973276
 21
122.3324326564
 31
0.0
  0
LINE
  5
5E
330
1F
100
AcDbEntity
  8
0
  6
Continuous
 62
     7
370
    15
100
AcDbLine
 10
177.1532974829
 20
123.0488655854
 30
0.0
 11
175.9185649147
 21
122.9870052774
 31
0.0
  0
LINE
  5
5F
330
1F
100
AcDbEntity
  8
0
  6
Continuous
 62
     7
370
    15
100
AcDbLine
 10
175.9195609641
 20
92.9032753918
 30
0.0
 11
177.1532974829
 21
92.8414644439
 31
0.0
  0
LINE
  5
60
330
1F
100
AcDbEntity
  8
0
  6
Continuous
 62
     7
370
    15
100
AcDbLine
 10
165.3532977374
 20
93.4326465938
 30
0.0
 11
170.3378274263
 21
93.1829208274
 31
0.0
  0
LINE
  5
61
330
1F
100
AcDbEntity
  8
0
  6
Continuous
 62
     7
370
    15
100
AcDbLine
 10
177.1532974829
 20
92.8414644439
 30
0.0
 11
178.0100094778
 21
93.0710196261
 31
0.0
  0
LINE
  5
62
330
1F
100
AcDbEntity
  8
0
  6
Continuous
 62
     7
370
    15
100
AcDbLine
 10
178.0100094778
 20
122.8193104033
 30
0.0
 11
177.1532974829
 21
123.0488655854
 31
0.0
  0
ARC
  5
63
330
1F
100
AcDbEntity
  8
0
  6
Continuous
 62
     7
370
    15
100
AcDbCircle
 10
178.1653026674
 20
92.4914578612
 30
0.0
 40
0.6000067526677242
100
AcDbArc
 50
90.0
 51
105.0
  0
ARC
  5
64
330
1F
100
AcDbEntity
  8
0
  6
Continuous
 62
     7
370
    15
100
AcDbCircle
 10
178.1653026674
 20
123.3988721681
 30
0.0
 40
0.6000067526677242
100
AcDbArc
 50
255.0
 51
270.0
  0
LINE
  5
65
330
1F
100
AcDbEntity
  8
0
  6
Continuous
 62
     7
370
    15
100
AcDbLine
 10
178.1653026277
 20
93.0914649505
 30
0.0
 11
178.6532908021
 21
93.0914649505
 31
0.0
  0
LINE
  5
66
330
1F
100
AcDbEntity
  8
0
  6
Continuous
 62
     7
370
    15
100
AcDbLine
 10
178.6532908021
 20
122.7988650788
 30
0.0
 11
178.1653026277
 21
122.7988650788
 31
0.0
  0
ARC
  5
67
330
1F
100
AcDbEntity
  8
0
  6
Continuous
 62
     7
370
    15
100
AcDbCircle
 10
161.9532975779
 20
121.7251650147
 30
0.0
 40
0.9000000000000071
100
AcDbArc
 50
270.0
 51
311.1792132369
  0
ARC
  5
68
330
1F
100
AcDbEntity
  8
0
  6
Continuous
 62
     7
370
    15
100
AcDbCircle
 10
164.4532975779
 20
94.2241650147
 30
0.0
 40
0.9000000000000061
100
AcDbArc
 50
29.8499024808
 51
90.0
  0
LINE
  5
69
330
1F
100
AcDbEntity
  8
0
  6
Continuous
 62
     7
370
    15
100
AcDbLine
 10
160.2032971726
 20
120.8251653005
 30
0.0
 11
159.2532978551
 21
119.8751650516
 31
0.0
  0
LINE
  5
6A
330
1F
100
AcDbEntity
  8
0
  6
Continuous
 62
     7
370
    15
100
AcDbLine
 10
161.9532969938
 20
120.8251653005
 30
0.0
 11
160.2032971726
 21
120.8251653005
 31
0.0
  0
LINE
  5
6B
330
1F
100
AcDbEntity
  8
0
  6
Continuous
 62
     7
370
    15
100
AcDbLine
 10
160.2032971726
 20
95.1241649453
 30
0.0
 11
164.4532974036
 21
95.1241649453
 31
0.0
  0
LINE
  5
6C
330
1F
100
AcDbEntity
  8
0
  6
Continuous
 62
     7
370
    15
100
AcDbLine
 10
159.2532978551
 20
96.0741651941
 30
0.0
 11
160.2032971726
 21
95.1241649453
 31
0.0
  0
ARC
  5
6D
330
1F
100
AcDbEntity
  8
0
  6
Continuous
 62
     7
370
    15
100
AcDbCircle
 10
213.3859705899
 20
125.4451650147
 30
0.0
 40
1.0
100
AcDbArc
 50
270.0
 51
345.0
  0
LINE
  5
6E
330
1F
100
AcDbEntity
  8
0
  6
Continuous
 62
     7
370
    15
100
AcDbLine
 10
214.382257794
 20
125.2996533875
 30
0.0
 11
214.351896678
 21
125.1863468204
 31
0.0
  0
SPLINE
  5
6F
330
1F
100
AcDbEntity
  8
0
  6
Continuous
 62
     7
370
    15
100
AcDbSpline
210
0.0
220
0.0
230
1.0
 70
     8
 71
     3
 72
    10
 73
     6
 74
     0
 42
0.00000001
 43
0.00000001
 12
1.0
 22
0.0
 32
0.0
 13
1.0
 23
0.0
 33
0.0
 40
0.0
 40
0.0
 40
0.0
 40
0.0
 40
0.272481219620992
 40
0.5447556693826664
 40
1.0
 40
1.0
 40
1.0
 40
1.0
 10
220.1344859943962
 20
127.9116835210622
 30
0.0
 10
220.1155842917176
 20
127.9006087405554
 30
0.0
 10
220.077795229743
 20
127.8784675835368
 30
0.0
 10
220.0172184060279
 20
127.824528332345
 30
0.0
 10
219.9861140303239
 20
127.7746818120364
 30
0.0
 10
219.9666504905796
 20
127.7434903893769
 30
0.0
  0
LINE
  5
70
330
1F
100
AcDbEntity
  8
0
  6
Continuous
 62
     7
370
    15
100
AcDbLine
 10
233.5968879209
 20
134.9139347438
 30
0.0
 11
220.1344859944
 21
127.9116835211
 31
0.0
  0
SPLINE
  5
71
330
1F
100
AcDbEntity
  8
0
  6
Continuous
 62
     7
370
    15
100
AcDbSpline
210
0.0
220
0.0
230
1.0
 70
     8
 71
     3
 72
    15
 73
    11
 74
     0
 42
0.00000001
 43
0.00000001
 12
1.0
 22
0.0
 32
0.0
 13
1.0
 23
0.0
 33
0.0
 40
0.0
 40
0.0
 40
0.0
 40
0.0
 40
0.1411617153063724
 40
0.2818352519779496
 40
0.4169678661453282
 40
0.5461350537003729
 40
0.672357870950687
 40
0.7999844009539848
 40
0.9323918240239333
 40
1.0
 40
1.0
 40
1.0
 40
1.0
 10
234.1243480489826
 20
134.3875679884255
 30
0.0
 10
234.1418320110072
 20
134.4313053525179
 30
0.0
 10
234.1767394703853
 20
134.518628824063
 30
0.0
 10
234.1695944058069
 20
134.6607292979772
 30
0.0
 10
234.1184312535488
 20
134.7874283611268
 30
0.0
 10
234.0293517257167
 20
134.8853244342148
 30
0.0
 10
233.9152652870923
 20
134.9465980238917
 30
0.0
 10
233.786984917416
 20
134.9674272573716
 30
0.0
 10
233.6773529018409
 20
134.9509752378059
 30
0.0
 10
233.6172153024776
 20
134.9232920598126
 30
0.0
 10
233.5968879209137
 20
134.9139347437919
 30
0.0
  0
LINE
  5
72
330
1F
100
AcDbEntity
  8
0
  6
Continuous
 62
     7
370
    15
100
AcDbLine
 10
227.1505859838
 20
120.9101708371
 30
0.0
 11
234.124348049
 21
134.3875679884
 31
0.0
  0
SPLINE
  5
73
330
1F
100
AcDbEntity
  8
0
  6
Continuous
 62
     7
370
    15
100
AcDbSpline
210
0.0
220
0.0
230
1.0
 70
     8
 71
     3
 72
    10
 73
     6
 74
     0
 42
0.00000001
 43
0.00000001
 12
1.0
 22
0.0
 32
0.0
 13
1.0
 23
0.0
 33
0.0
 40
0.0
 40
0.0
 40
0.0
 40
0.0
 40
0.2724827068899379
 40
0.5447566471411246
 40
1.0
 40
1.0
 40
1.0
 40
1.0
 10
226.9827504799938
 20
120.7419767741263
 30
0.0
 10
227.0016521515556
 20
120.7530519177977
 30
0.0
 10
227.0394410128852
 20
120.7751937197559
 30
0.0
 10
227.1000181088923
 20
120.8291328001124
 30
0.0
 10
227.1311224609048
 20
120.8789793802586
 30
0.0
 10
227.1505859838104
 20
120.9101708371341
 30
0.0
  0
LINE
  5
74
330
1F
100
AcDbEntity
  8
0
  6
Continuous
 62
     7
370
    15
100
AcDbLine
 10
213.5203522788
 20
113.7397269484
 30
0.0
 11
226.98275048
 21
120.7419767741
 31
0.0
  0
LINE
  5
75
330
1F
100
AcDbEntity
  8
0
  6
Continuous
 62
     7
370
    15
100
AcDbLine
 10
219.9666504906
 20
127.7434903894
 30
0.0
 11
212.9928884254
 21
114.2660927724
 31
0.0
  0
LINE
  5
76
330
1F
100
AcDbEntity
  8
0
  6
Continuous
 62
     7
370
    15
100
AcDbLine
 10
227.133289461
 20
120.9202393655
 30
0.0
 11
234.0930742369
 21
134.3706290934
 31
0.0
  0
ARC
  5
77
330
1F
100
AcDbEntity
  8
0
  6
Continuous
 62
     7
370
    15
100
AcDbCircle
 10
233.7546869031
 20
134.5445993564
 30
0.0
 40
0.3804886858386566
100
AcDbArc
 50
332.7915896202
 51
117.3277238368
  0
LINE
  5
78
330
1F
100
AcDbEntity
  8
0
  6
Continuous
 62
     7
370
    15
100
AcDbLine
 10
233.5800123559
 20
134.8826236788
 30
0.0
 11
220.144592707
 21
127.8944056247
 31
0.0
  0
ARC
  5
79
330
1F
100
AcDbEntity
  8
0
  6
Continuous
 62
     7
370
    15
100
AcDbCircle
 10
220.318263192
 20
127.5604625405
 30
0.0
 40
0.37640326885099
100
AcDbArc
 50
117.4771436325
 51
152.6449655623
  0
LINE
  5
7A
330
1F
100
AcDbEntity
  8
0
  6
Continuous
 62
     7
370
    15
100
AcDbLine
 10
219.9839507387
 20
127.7334209297
 30
0.0
 11
213.0241622375
 21
114.2830316674
 31
0.0
  0
ARC
  5
7B
330
1F
100
AcDbEntity
  8
0
  6
Continuous
 62
     7
370
    15
100
AcDbCircle
 10
213.3625507925
 20
114.1090623209
 30
0.0
 40
0.3804893529882994
100
AcDbArc
 50
152.7917964333
 51
297.3274649131
  0
LINE
  5
7C
330
1F
100
AcDbEntity
  8
0
  6
Continuous
 62
     7
370
    15
100
AcDbLine
 10
213.5372241185
 20
113.7710366164
 30
0.0
 11
226.9726474927
 21
120.7592546705
 31
0.0
  0
ARC
  5
7D
330
1F
100
AcDbEntity
  8
0
  6
Continuous
 62
     7
370
    15
100
AcDbCircle
 10
226.798973686
 20
121.0932010693
 30
0.0
 40
0.3764077422136024
100
AcDbArc
 50
297.4773594235
 51
332.6447497712
  0
SPLINE
  5
7E
330
1F
100
AcDbEntity
  8
0
  6
Continuous
 62
     7
370
    15
100
AcDbSpline
210
0.0
220
0.0
230
1.0
 70
     8
 71
     3
 72
    15
 73
    11
 74
     0
 42
0.00000001
 43
0.00000001
 12
1.0
 22
0.0
 32
0.0
 13
1.0
 23
0.0
 33
0.0
 40
0.0
 40
0.0
 40
0.0
 40
0.0
 40
0.1411621492321073
 40
0.2818348861205822
 40
0.4169670545131177
 40
0.5461345786271277
 40
0.6723543140625178
 40
0.79998083803625
 40
0.9323883940244179
 40
1.0
 40
1.0
 40
1.0
 40
1.0
 10
212.9928884254074
 20
114.2660927724242
 30
0.0
 10
212.9754040266276
 20
114.2223552375879
 30
0.0
 10
212.9404958478716
 20
114.1350318069314
 30
0.0
 10
212.9476470566005
 20
113.9929318731585
 30
0.0
 10
212.9988088232902
 20
113.8662330397487
 30
0.0
 10
213.087888002413
 20
113.7683381316496
 30
0.0
 10
213.2019717433189
 20
113.7070619410878
 30
0.0
 10
213.3302518966183
 20
113.6862331033178
 30
0.0
 10
213.439884266103
 20
113.7026875910549
 30
0.0
 10
213.500023631176
 20
113.7303696893016
 30
0.0
 10
213.5203522787666
 20
113.7397269483805
 30
0.0
  0
LINE
  5
7F
330
1F
100
AcDbEntity
  8
0
  6
Continuous
 62
     7
370
    15
100
AcDbLine
 10
215.6559531735
 20
116.4076043058
 30
0.0
 11
213.3457106696
 21
114.0922595512
 31
0.0
  0
LINE
  5
80
330
1F
100
AcDbEntity
  8
0
  6
Continuous
 62
     7
370
    15
100
AcDbLine
 10
215.6559531735
 20
116.4076043058
 30
0.0
 11
216.765262668
 21
116.9845930997
 31
0.0
  0
LINE
  5
81
330
1F
100
AcDbEntity
  8
0
  6
Continuous
 62
     7
370
    15
100
AcDbLine
 10
226.6791802989
 20
121.1717458207
 30
0.0
 11
226.7811340438
 21
121.0804780711
 31
0.0
  0
LINE
  5
82
330
1F
100
AcDbEntity
  8
0
  6
Continuous
 62
     7
370
    15
100
AcDbLine
 10
220.3969550477
 20
127.4409111355
 30
0.0
 11
220.3054954455
 21
127.5426488135
 31
0.0
  0
LINE
  5
83
330
1F
100
AcDbEntity
  8
0
  6
Continuous
 62
     7
370
    15
100
AcDbLine
 10
216.2305941032
 20
117.5181478027
 30
0.0
 11
215.6559531735
 21
116.4076043058
 31
0.0
  0
SPLINE
  5
84
330
1F
100
AcDbEntity
  8
0
  6
Continuous
 62
     7
370
    15
100
AcDbSpline
210
0.0
220
0.0
230
1.0
 70
     8
 71
     3
 72
    14
 73
    10
 74
     0
 42
0.00000001
 43
0.00000001
 12
1.0
 22
0.0
 32
0.0
 13
1.0
 23
0.0
 33
0.0
 40
0.0
 40
0.0
 40
0.0
 40
0.0
 40
0.2055199879235887
 40
0.3570154098064859
 40
0.4668493357405337
 40
0.577079449530537
 40
0.709367016921392
 40
0.9240580532433099
 40
0.9999999999999999
 40
0.9999999999999999
 40
0.9999999999999999
 40
0.9999999999999999
 10
216.790818159399
 20
117.5990462068618
 30
0.0
 10
216.7555662726581
 20
117.6326411929466
 30
0.0
 10
216.6943290814806
 20
117.6910001284726
 30
0.0
 10
216.5944454254903
 20
117.7420509393961
 30
0.0
 10
216.5061883069609
 20
117.754710699834
 30
0.0
 10
216.4235827344485
 20
117.7354201747382
 30
0.0
 10
216.3331160920667
 20
117.674132352256
 30
0.0
 10
216.2716640746531
 20
117.5938038232794
 30
0.0
 10
216.239102414376
 20
117.5338211754016
 30
0.0
 10
216.2305941031551
 20
117.5181478027404
 30
0.0
  0
SPLINE
  5
85
330
1F
100
AcDbEntity
  8
0
  6
Continuous
 62
     7
370
    15
100
AcDbSpline
210
0.0
220
0.0
230
1.0
 70
     8
 71
     3
 72
    14
 73
    10
 74
     0
 42
0.00000001
 43
0.00000001
 12
1.0
 22
0.0
 32
0.0
 13
1.0
 23
0.0
 33
0.0
 40
0.0
 40
0.0
 40
0.0
 40
0.0
 40
0.2086057514803472
 40
0.3652037005651722
 40
0.4768532628280511
 40
0.5890212298623532
 40
0.718567625512346
 40
0.9352578392283948
 40
1.0
 40
1.0
 40
1.0
 40
1.0
 10
216.7652626679516
 20
116.9845930997432
 30
0.0
 10
216.8078351888025
 20
117.0093074953679
 30
0.0
 10
216.8823664135975
 20
117.0525747048065
 30
0.0
 10
216.9593345804787
 20
117.1368636017567
 30
0.0
 10
216.9958984227442
 20
117.2201767997617
 30
0.0
 10
216.999196747303
 20
117.3053701505601
 30
0.0
 10
216.9631334620588
 20
117.4092939724739
 30
0.0
 10
216.9028201612457
 20
117.4873750347032
 30
0.0
 10
216.8557974931217
 20
117.5342188457368
 30
0.0
 10
216.8449801550484
 20
117.5449950385988
 30
0.0
  0
ARC
  5
86
330
1F
100
AcDbEntity
  8
0
  6
Continuous
 62
     7
370
    15
100
AcDbCircle
 10
218.5544395516
 20
119.3119926552
 30
0.0
 40
1.001287674216135
100
AcDbArc
 50
152.7916952065
 51
297.3276264495
  0
ARC
  5
87
330
1F
100
AcDbEntity
  8
0
  6
Continuous
 62
     7
370
    15
100
AcDbCircle
 10
218.5078788471
 20
119.2654654742
 30
0.0
 40
2.392749585749987
100
AcDbArc
 50
224.1425032639
 51
225.9748565664
  0
LINE
  5
88
330
1F
100
AcDbEntity
  8
0
  6
Continuous
 62
     7
370
    15
100
AcDbLine
 10
221.0820173071
 20
126.3755302642
 30
0.0
 11
217.663944249
 21
119.769808254
 31
0.0
  0
ARC
  5
89
330
1F
100
AcDbEntity
  8
0
  6
Continuous
 62
     7
370
    15
100
AcDbCircle
 10
221.9618106613
 20
125.9203484365
 30
0.0
 40
0.9905689487735493
100
AcDbArc
 50
117.4776549377
 51
152.6441492524
  0
LINE
  5
8A
330
1F
100
AcDbEntity
  8
0
  6
Continuous
 62
     7
370
    15
100
AcDbLine
 10
228.1031315373
 20
130.2312075857
 30
0.0
 11
221.5047595249
 21
126.7991721396
 31
0.0
  0
ARC
  5
8B
330
1F
100
AcDbEntity
  8
0
  6
Continuous
 62
     7
370
    15
100
AcDbCircle
 10
228.5628002941
 20
129.3416703802
 30
0.0
 40
1.001285077246905
100
AcDbArc
 50
332.7915623385
 51
117.3276804387
  0
LINE
  5
8C
330
1F
100
AcDbEntity
  8
0
  6
Continuous
 62
     7
370
    15
100
AcDbLine
 10
226.0352191673
 20
122.2781318937
 30
0.0
 11
229.4532922254
 21
128.8838539038
 31
0.0
  0
ARC
  5
8D
330
1F
100
AcDbEntity
  8
0
  6
Continuous
 62
     7
370
    15
100
AcDbCircle
 10
225.1554525365
 20
122.7332851228
 30
0.0
 40
0.9905320724966814
100
AcDbArc
 50
297.4770219568
 51
332.6449081903
  0
LINE
  5
8E
330
1F
100
AcDbEntity
  8
0
  6
Continuous
 62
     7
370
    15
100
AcDbLine
 10
219.0141086624
 20
118.4224527095
 30
0.0
 11
225.6124769495
 21
121.854489087
 31
0.0
  0
CIRCLE
  5
8F
330
1F
100
AcDbEntity
  8
0
  6
Continuous
 62
     7
370
    15
100
AcDbCircle
 10
223.5636123551
 20
124.3162805765
 30
0.0
 40
3.039345583748015
  0
ARC
  5
90
330
1F
100
AcDbEntity
  8
0
  6
Continuous
 62
     7
370
    15
100
AcDbCircle
 10
223.4803403861
 20
124.2467647118
 30
0.0
 40
3.051431085863601
100
AcDbArc
 50
332.7307848849
 51
134.6751768914
  0
LWPOLYLINE
  5
91
330
1F
100
AcDbEntity
  8
0
  6
Continuous
 62
     7
370
    15
100
AcDbPolyline
 90
        3
 70
   128
 43
0.0
 10
225.6430094288
 20
122.0980420474
 10
225.890193616
 20
122.3771203075
 10
226.19264621
 20
122.8486843173
  0
LINE
  5
92
330
1F
100
AcDbEntity
  8
0
  6
Continuous
 62
     7
370
    15
100
AcDbLine
 10
231.3496736036
 20
132.1347173069
 30
0.0
 11
233.7409188197
 21
134.5308687303
 31
0.0
  0
LINE
  5
93
330
1F
100
AcDbEntity
  8
0
  6
Continuous
 62
     7
370
    15
100
AcDbLine
 10
230.7750326739
 20
131.0241747413
 30
0.0
 11
231.3496736036
 21
132.1347173069
 31
0.0
  0
LINE
  5
94
330
1F
100
AcDbEntity
  8
0
  6
Continuous
 62
     7
370
    15
100
AcDbLine
 10
231.3496736036
 20
132.1347173069
 30
0.0
 11
230.2403641091
 21
131.5577294443
 31
0.0
  0
SPLINE
  5
95
330
1F
100
AcDbEntity
  8
0
  6
Continuous
 62
     7
370
    15
100
AcDbSpline
210
0.0
220
0.0
230
1.0
 70
     8
 71
     3
 72
    11
 73
     7
 74
     0
 42
0.00000001
 43
0.00000001
 12
1.0
 22
0.0
 32
0.0
 13
1.0
 23
0.0
 33
0.0
 40
0.0
 40
0.0
 40
0.0
 40
0.0
 40
0.3241884060247996
 40
0.6482204094117953
 40
0.9887951155191755
 40
1.0
 40
1.0
 40
1.0
 40
1.0
 10
226.6791802988625
 20
121.1717458207309
 30
0.0
 10
226.6253919858613
 20
121.2210818158641
 30
0.0
 10
226.5178413096891
 20
121.3197300042927
 30
0.0
 10
226.3440386078089
 20
121.4938622662745
 30
0.0
 10
226.2364584977915
 20
121.6088971926823
 30
0.0
 10
226.187056043866
 20
121.6640799121429
 30
0.0
 10
226.1854824767685
 20
121.665837592274
 30
0.0
  0
SPLINE
  5
96
330
1F
100
AcDbEntity
  8
0
  6
Continuous
 62
     7
370
    15
100
AcDbSpline
210
0.0
220
0.0
230
1.0
 70
     8
 71
     3
 72
    11
 73
     7
 74
     0
 42
0.00000001
 43
0.00000001
 12
1.0
 22
0.0
 32
0.0
 13
1.0
 23
0.0
 33
0.0
 40
0.0
 40
0.0
 40
0.0
 40
0.0
 40
0.3241877764666765
 40
0.6482215357073028
 40
0.9887953490116302
 40
1.0
 40
1.0
 40
1.0
 40
1.0
 10
220.3969550476646
 20
127.4409111354649
 30
0.0
 10
220.4463925337418
 20
127.387235095149
 30
0.0
 10
220.5452440188154
 20
127.2799085152777
 30
0.0
 10
220.7197435248281
 20
127.1064725138519
 30
0.0
 10
220.8350036971623
 20
126.9990957312472
 30
0.0
 10
220.8903142110837
 20
126.9498094693107
 30
0.0
 10
220.8920759306526
 20
126.9482396308482
 30
0.0
  0
ARC
  5
97
330
1F
100
AcDbEntity
  8
0
  6
Continuous
 62
     7
370
    15
100
AcDbCircle
 10
228.4893967707
 20
129.2683400779
 30
0.0
 40
2.404676770321237
100
AcDbArc
 50
44.1494882615
 51
45.972799493
  0
SPLINE
  5
98
330
1F
100
AcDbEntity
  8
0
  6
Continuous
 62
     7
370
    15
100
AcDbSpline
210
0.0
220
0.0
230
1.0
 70
     8
 71
     3
 72
    14
 73
    10
 74
     0
 42
0.00000001
 43
0.00000001
 12
1.0
 22
0.0
 32
0.0
 13
1.0
 23
0.0
 33
0.0
 40
0.0
 40
0.0
 40
0.0
 40
0.0
 40
0.2055177653689604
 40
0.3570127346226453
 40
0.4668474873104678
 40
0.5770786748703243
 40
0.7093668404671238
 40
0.9240588556791428
 40
0.9999999999999999
 40
0.9999999999999999
 40
0.9999999999999999
 40
0.9999999999999999
 10
230.2148123429394
 20
130.9432763371766
 30
0.0
 10
230.2500626679715
 20
130.9096803858893
 30
0.0
 10
230.3112973496229
 20
130.851319579855
 30
0.0
 10
230.4111819961103
 20
130.8002740614738
 30
0.0
 10
230.4994385343879
 20
130.7876095424323
 30
0.0
 10
230.5820437807913
 20
130.8069042600056
 30
0.0
 10
230.6725108256807
 20
130.8681905684244
 30
0.0
 10
230.7339622102168
 20
130.9485196628561
 30
0.0
 10
230.7665243360838
 20
131.008501702653
 30
0.0
 10
230.775032673893
 20
131.024174741298
 30
0.0
  0
SPLINE
  5
99
330
1F
100
AcDbEntity
  8
0
  6
Continuous
 62
     7
370
    15
100
AcDbSpline
210
0.0
220
0.0
230
1.0
 70
     8
 71
     3
 72
    14
 73
    10
 74
     0
 42
0.00000001
 43
0.00000001
 12
1.0
 22
0.0
 32
0.0
 13
1.0
 23
0.0
 33
0.0
 40
0.0
 40
0.0
 40
0.0
 40
0.0
 40
0.2086056079374393
 40
0.365204433686716
 40
0.4768514988666
 40
0.5890220128525676
 40
0.718565815018631
 40
0.935256946092515
 40
1.0
 40
1.0
 40
1.0
 40
1.0
 10
230.2403641090965
 20
131.5577294442952
 30
0.0
 10
230.1977914789844
 20
131.5330151313857
 30
0.0
 10
230.1232598620045
 20
131.4897479501276
 30
0.0
 10
230.0462930437307
 20
131.4054584280791
 30
0.0
 10
230.00972785647
 20
131.3221456700432
 30
0.0
 10
230.0064298392596
 20
131.2369525555361
 30
0.0
 10
230.042493943967
 20
131.1330288684517
 30
0.0
 10
230.1028070073137
 20
131.054947950247
 30
0.0
 10
230.149829292404
 20
131.0081030881159
 30
0.0
 10
230.1606466219997
 20
130.997326574117
 30
0.0
  0
CIRCLE
  5
9A
330
1F
100
AcDbEntity
  8
0
  6
Continuous
 62
     7
370
    15
100
AcDbCircle
 10
223.4451460312
 20
124.2245767141
 30
0.0
 40
2.619697831580628
  0
CIRCLE
  5
9B
330
1F
100
AcDbEntity
  8
0
  6
Continuous
 62
     7
370
    15
100
AcDbCircle
 10
223.4683101222
 20
124.2437975722
 30
0.0
 40
1.796647970155881
  0
ARC
  5
9C
330
1F
100
AcDbEntity
  8
0
  6
Continuous
 62
     7
370
    15
100
AcDbCircle
 10
223.4669242292
 20
124.2546815527
 30
0.0
 40
1.660978190076343
100
AcDbArc
 50
118.1653786725
 51
177.0078241717
  0
ARC
  5
9D
330
1F
100
AcDbEntity
  8
0
  6
Continuous
 62
     7
370
    15
100
AcDbCircle
 10
223.4857538453
 20
124.2540391183
 30
0.0
 40
1.679815704697604
100
AcDbArc
 50
177.0194667123
 51
236.9055097519
  0
ARC
  5
9E
330
1F
100
AcDbEntity
  8
0
  6
Continuous
 62
     7
370
    15
100
AcDbCircle
 10
223.4839528927
 20
124.2463204356
 30
0.0
 40
1.672368044560166
100
AcDbArc
 50
236.8128089715
 51
295.3776124768
  0
LINE
  5
9F
330
1F
100
AcDbEntity
  8
0
  6
Continuous
 62
     7
370
    15
100
AcDbLine
 10
224.2761333631
 20
122.7736094732
 30
0.0
 11
224.2006999598
 21
122.7353311841
 31
0.0
  0
ARC
  5
A0
330
1F
100
AcDbEntity
  8
0
  6
Continuous
 62
     7
370
    15
100
AcDbCircle
 10
223.4868173587
 20
124.2348146348
 30
0.0
 40
1.660764968053533
100
AcDbArc
 50
298.3770973308
 51
355.0587908884
  0
LINE
  5
A1
330
1F
100
AcDbEntity
  8
0
  6
Continuous
 62
     7
370
    15
100
AcDbLine
 10
225.1475122915
 20
124.2110974852
 30
0.0
 11
225.141410266
 21
124.0917671237
 31
0.0
  0
ARC
  5
A2
330
1F
100
AcDbEntity
  8
0
  6
Continuous
 62
     7
370
    15
100
AcDbCircle
 10
223.4677278192
 20
124.2354648996
 30
0.0
 40
1.679961203214471
100
AcDbArc
 50
359.1689099958
 51
54.7561216244
  0
LINE
  5
A3
330
1F
100
AcDbEntity
  8
0
  6
Continuous
 62
     7
370
    15
100
AcDbLine
 10
224.3369636283
 20
125.673134229
 30
0.0
 11
224.4371627615
 21
125.6074946139
 31
0.0
  0
ARC
  5
A4
330
1F
100
AcDbEntity
  8
0
  6
Continuous
 62
     7
370
    15
100
AcDbCircle
 10
223.4695709821
 20
124.243678728
 30
0.0
 40
1.672038585724986
100
AcDbArc
 50
58.7506516845
 51
115.1683523454
  0
LINE
  5
A5
330
1F
100
AcDbEntity
  8
0
  6
Continuous
 62
     7
370
    15
100
AcDbLine
 10
222.6829123841
 20
125.7189813767
 30
0.0
 11
222.7584873484
 21
125.7569774751
 31
0.0
  0
SPLINE
  5
A6
330
1F
100
AcDbEntity
  8
0
  6
Continuous
 62
     7
370
    15
100
AcDbSpline
210
0.0
220
0.0
230
1.0
 70
     8
 71
     3
 72
    12
 73
     8
 74
     0
 42
0.00000001
 43
0.00000001
 12
1.0
 22
0.0
 32
0.0
 13
1.0
 23
0.0
 33
0.0
 40
0.0
 40
0.0
 40
0.0
 40
0.0
 40
0.0091685835315088
 40
0.2573259881863655
 40
0.50549046964957
 40
0.7549885855148828
 40
1.0
 40
1.0
 40
1.0
 40
1.0
 10
221.8082104967213
 20
124.3413839254678
 30
0.0
 10
221.8081430426324
 20
124.3400164416657
 30
0.0
 10
221.8062498723284
 20
124.3016365633035
 30
0.0
 10
221.815911243868
 20
124.2247641764969
 30
0.0
 10
221.8658122779301
 20
124.1231801018813
 30
0.0
 10
221.9445801990554
 20
124.0412265841278
 30
0.0
 10
222.012288565764
 20
124.0129452552249
 30
0.0
 10
222.0458355889893
 20
123.9989328894913
 30
0.0
  0
SPLINE
  5
A7
330
1F
100
AcDbEntity
  8
0
  6
Continuous
 62
     7
370
    15
100
AcDbSpline
210
0.0
220
0.0
230
1.0
 70
     8
 71
     3
 72
    12
 73
     8
 74
     0
 42
0.00000001
 43
0.00000001
 12
1.0
 22
0.0
 32
0.0
 13
1.0
 23
0.0
 33
0.0
 40
0.0
 40
0.0
 40
0.0
 40
0.0
 40
0.2058440067570886
 40
0.4120691687506399
 40
0.6141384743200723
 40
0.8132604904835433
 40
0.9999999999999999
 40
0.9999999999999999
 40
0.9999999999999999
 40
0.9999999999999999
 10
222.0458355889893
 20
123.9989328894913
 30
0.0
 10
222.1059056165617
 20
123.973709326732
 30
0.0
 10
222.2261569015933
 20
123.9232154954909
 30
0.0
 10
222.3649098337222
 20
123.7771893642928
 30
0.0
 10
222.4501396649819
 20
123.6005033610269
 30
0.0
 10
222.4771023496429
 20
123.4115646844534
 30
0.0
 10
222.4473234949563
 20
123.2946191382181
 30
0.0
 10
222.4329118774509
 20
123.2380227882564
 30
0.0
  0
SPLINE
  5
A8
330
1F
100
AcDbEntity
  8
0
  6
Continuous
 62
     7
370
    15
100
AcDbSpline
210
0.0
220
0.0
230
1.0
 70
     8
 71
     3
 72
    11
 73
     7
 74
     0
 42
0.00000001
 43
0.00000001
 12
1.0
 22
0.0
 32
0.0
 13
1.0
 23
0.0
 33
0.0
 40
0.0
 40
0.0
 40
0.0
 40
0.0
 40
0.2535078735179398
 40
0.5075667641853062
 40
0.759506958444822
 40
1.0
 40
1.0
 40
1.0
 40
1.0
 10
222.4329118774509
 20
123.2380227882564
 30
0.0
 10
222.4240629086201
 20
123.2017833793859
 30
0.0
 10
222.4063457371038
 20
123.1292257927471
 30
0.0
 10
222.4281942508529
 20
123.0162691882842
 30
0.0
 10
222.4817154786838
 20
122.9155895382421
 30
0.0
 10
222.5400495201312
 20
122.8693299632173
 30
0.0
 10
222.5685385213471
 20
122.8467378530801
 30
0.0
  0
SPLINE
  5
A9
330
1F
100
AcDbEntity
  8
0
  6
Continuous
 62
     7
370
    15
100
AcDbSpline
210
0.0
220
0.0
230
1.0
 70
     8
 71
     3
 72
    12
 73
     8
 74
     0
 42
0.00000001
 43
0.00000001
 12
1.0
 22
0.0
 32
0.0
 13
1.0
 23
0.0
 33
0.0
 40
0.0
 40
0.0
 40
0.0
 40
0.0
 40
0.0091760818178841
 40
0.2576820132650421
 40
0.5061878942353292
 40
0.7560370622543102
 40
1.0
 40
1.0
 40
1.0
 40
1.0
 10
222.5685385213471
 20
122.8467378530801
 30
0.0
 10
222.5696904697278
 20
122.8459932575691
 30
0.0
 10
222.602039394228
 20
122.8250835845575
 30
0.0
 10
222.6732526613012
 20
122.7948436879266
 30
0.0
 10
222.7852220948478
 20
122.7872675111737
 30
0.0
 10
222.8937991689324
 20
122.8146349103154
 30
0.0
 10
222.9506083489055
 20
122.8592027210566
 30
0.0
 10
222.9786743567562
 20
122.8812210027278
 30
0.0
  0
SPLINE
  5
AA
330
1F
100
AcDbEntity
  8
0
  6
Continuous
 62
     7
370
    15
100
AcDbSpline
210
0.0
220
0.0
230
1.0
 70
     8
 71
     3
 72
    12
 73
     8
 74
     0
 42
0.00000001
 43
0.00000001
 12
1.0
 22
0.0
 32
0.0
 13
1.0
 23
0.0
 33
0.0
 40
0.0
 40
0.0
 40
0.0
 40
0.0
 40
0.205752102488184
 40
0.4119601403841016
 40
0.6140133356734497
 40
0.8131411938662909
 40
1.0
 40
1.0
 40
1.0
 40
1.0
 10
222.9786743567562
 20
122.8812210027278
 30
0.0
 10
223.0293454009458
 20
122.9207643791127
 30
0.0
 10
223.130799773588
 20
122.9999387578424
 30
0.0
 10
223.32451292994
 20
123.04691103633
 30
0.0
 10
223.5198902579239
 20
123.0316424973988
 30
0.0
 10
223.6985142254072
 20
122.9593202933153
 30
0.0
 10
223.7868164652559
 20
122.8740655630471
 30
0.0
 10
223.8295641885376
 20
122.8327931601703
 30
0.0
  0
SPLINE
  5
AB
330
1F
100
AcDbEntity
  8
0
  6
Continuous
 62
     7
370
    15
100
AcDbSpline
210
0.0
220
0.0
230
1.0
 70
     8
 71
     3
 72
    11
 73
     7
 74
     0
 42
0.00000001
 43
0.00000001
 12
1.0
 22
0.0
 32
0.0
 13
1.0
 23
0.0
 33
0.0
 40
0.0
 40
0.0
 40
0.0
 40
0.0
 40
0.279401550452431
 40
0.5596209612431203
 40
0.8375012943253336
 40
1.0
 40
1.0
 40
1.0
 40
1.0
 10
223.8295641885376
 20
122.8327931601703
 30
0.0
 10
223.8570793100017
 20
122.806733701906
 30
0.0
 10
223.9121900948112
 20
122.7545385044931
 30
0.0
 10
224.0220842145585
 20
122.7160598871903
 30
0.0
 10
224.12200790386
 20
122.7123434121203
 30
0.0
 10
224.1794894285606
 20
122.7291350966753
 30
0.0
 10
224.2006999598122
 20
122.7353311840594
 30
0.0
  0
LWPOLYLINE
  5
AC
330
1F
100
AcDbEntity
  8
0
  6
Continuous
 62
     7
370
    15
100
AcDbPolyline
 90
        3
 70
   128
 43
0.0
 10
221.8598318444
 20
124.5042312656
 10
221.8799446867
 20
124.5164464925
 10
221.9847222016
 20
124.5537776265
  0
SPLINE
  5
AD
330
1F
100
AcDbEntity
  8
0
  6
Continuous
 62
     7
370
    15
100
AcDbSpline
210
0.0
220
0.0
230
1.0
 70
     8
 71
     3
 72
    11
 73
     7
 74
     0
 42
0.00000001
 43
0.00000001
 12
1.0
 22
0.0
 32
0.0
 13
1.0
 23
0.0
 33
0.0
 40
0.0
 40
0.0
 40
0.0
 40
0.0
 40
0.2524746648786451
 40
0.5068863097575615
 40
0.759176813449838
 40
1.0
 40
1.0
 40
1.0
 40
1.0
 10
222.0796612248993
 20
124.6484875444472
 30
0.0
 10
222.0438632559585
 20
124.6388021229565
 30
0.0
 10
221.9719926768573
 20
124.6193569736375
 30
0.0
 10
221.8848905439326
 20
124.5459232991514
 30
0.0
 10
221.8242978046627
 20
124.4505399453032
 30
0.0
 10
221.8134891479023
 20
124.3772007666146
 30
0.0
 10
221.8082104967213
 20
124.3413839254678
 30
0.0
  0
SPLINE
  5
AE
330
1F
100
AcDbEntity
  8
0
  6
Continuous
 62
     7
370
    15
100
AcDbSpline
210
0.0
220
0.0
230
1.0
 70
     8
 71
     3
 72
    12
 73
     8
 74
     0
 42
0.00000001
 43
0.00000001
 12
1.0
 22
0.0
 32
0.0
 13
1.0
 23
0.0
 33
0.0
 40
0.0
 40
0.0
 40
0.0
 40
0.0
 40
0.2058582383465633
 40
0.4121021053823742
 40
0.6141922532064151
 40
0.8133173488753971
 40
1.0
 40
1.0
 40
1.0
 40
1.0
 10
222.543474768219
 20
125.3609716657698
 30
0.0
 10
222.5521692452822
 20
125.2955059585231
 30
0.0
 10
222.5695744865382
 20
125.1644519088847
 30
0.0
 10
222.5134628153997
 20
124.9703753719728
 30
0.0
 10
222.4033779980292
 20
124.8090614150564
 30
0.0
 10
222.2529075369014
 20
124.6936414502535
 30
0.0
 10
222.1361548900153
 20
124.6632117230102
 30
0.0
 10
222.0796612248993
 20
124.6484875444472
 30
0.0
  0
SPLINE
  5
AF
330
1F
100
AcDbEntity
  8
0
  6
Continuous
 62
     7
370
    15
100
AcDbSpline
210
0.0
220
0.0
230
1.0
 70
     8
 71
     3
 72
    11
 73
     7
 74
     0
 42
0.00000001
 43
0.00000001
 12
1.0
 22
0.0
 32
0.0
 13
1.0
 23
0.0
 33
0.0
 40
0.0
 40
0.0
 40
0.0
 40
0.0
 40
0.2423625760527819
 40
0.5166873120729368
 40
0.7923349512648049
 40
1.0
 40
1.0
 40
1.0
 40
1.0
 10
222.6829123840904
 20
125.7189813766778
 30
0.0
 10
222.657186400242
 20
125.6981599600773
 30
0.0
 10
222.6023417552412
 20
125.653771251424
 30
0.0
 10
222.5499214237193
 20
125.5568071658072
 30
0.0
 10
222.5289835167245
 20
125.4537830910668
 30
0.0
 10
222.5391195968608
 20
125.3888650234496
 30
0.0
 10
222.543474768219
 20
125.3609716657698
 30
0.0
  0
ARC
  5
B0
330
1F
100
AcDbEntity
  8
0
  6
Continuous
 62
     7
370
    15
100
AcDbCircle
 10
223.9904718339
 20
122.9512237565
 30
0.0
 40
0.3333505832253427
100
AcDbArc
 50
328.7012871944
 51
13.8119090206
  0
SPLINE
  5
B1
330
1F
100
AcDbEntity
  8
0
  6
Continuous
 62
     7
370
    15
100
AcDbSpline
210
0.0
220
0.0
230
1.0
 70
     8
 71
     3
 72
    11
 73
     7
 74
     0
 42
0.00000001
 43
0.00000001
 12
1.0
 22
0.0
 32
0.0
 13
1.0
 23
0.0
 33
0.0
 40
0.0
 40
0.0
 40
0.0
 40
0.0
 40
0.2431136748712649
 40
0.5182802453496013
 40
0.7947809884745078
 40
1.0
 40
1.0
 40
1.0
 40
1.0
 10
224.2761333630657
 20
122.7736094731987
 30
0.0
 10
224.3016439009399
 20
122.7943884818625
 30
0.0
 10
224.3560283687632
 20
122.838686071104
 30
0.0
 10
224.4068225708764
 20
122.9345856554198
 30
0.0
 10
224.4255766332786
 20
123.0355528697783
 30
0.0
 10
224.4140615902602
 20
123.0986610899035
 30
0.0
 10
224.4091560290432
 20
123.1255460295975
 30
0.0
  0
ARC
  5
B2
330
1F
100
AcDbEntity
  8
0
  6
Continuous
 62
     7
370
    15
100
AcDbCircle
 10
223.4138533163
 20
124.1820453484
 30
0.0
 40
2.625017892273341
100
AcDbArc
 50
135.1404816572
 51
314.7197884023
  0
SPLINE
  5
B3
330
1F
100
AcDbEntity
  8
0
  6
Continuous
 62
     7
370
    15
100
AcDbSpline
210
0.0
220
0.0
230
1.0
 70
     8
 71
     3
 72
    12
 73
     8
 74
     0
 42
0.00000001
 43
0.00000001
 12
1.0
 22
0.0
 32
0.0
 13
1.0
 23
0.0
 33
0.0
 40
0.0
 40
0.0
 40
0.0
 40
0.0
 40
0.2058178827962944
 40
0.4120207393345349
 40
0.6140783739127834
 40
0.8132111009589732
 40
1.0
 40
1.0
 40
1.0
 40
1.0
 10
224.4091560290432
 20
123.1255460295975
 30
0.0
 10
224.3990996219522
 20
123.1896425070469
 30
0.0
 10
224.3789679976811
 20
123.3179553517259
 30
0.0
 10
224.4328583760449
 20
123.5098266350392
 30
0.0
 10
224.543079606423
 20
123.6712901486304
 30
0.0
 10
224.6958538851976
 20
123.7890587687738
 30
0.0
 10
224.8152009782356
 20
123.8220581892497
 30
0.0
 10
224.8729658470726
 20
123.8380301509202
 30
0.0
  0
SPLINE
  5
B4
330
1F
100
AcDbEntity
  8
0
  6
Continuous
 62
     7
370
    15
100
AcDbSpline
210
0.0
220
0.0
230
1.0
 70
     8
 71
     3
 72
    11
 73
     7
 74
     0
 42
0.00000001
 43
0.00000001
 12
1.0
 22
0.0
 32
0.0
 13
1.0
 23
0.0
 33
0.0
 40
0.0
 40
0.0
 40
0.0
 40
0.0
 40
0.2908631713743416
 40
0.5839590605085732
 40
0.8745970381439174
 40
0.9999999999999999
 40
0.9999999999999999
 40
0.9999999999999999
 40
0.9999999999999999
 10
224.8729658470726
 20
123.8380301509202
 30
0.0
 10
224.9095446191128
 20
123.8485058524936
 30
0.0
 10
224.9829829483938
 20
123.8695376690007
 30
0.0
 10
225.0720316751712
 20
123.9447188966904
 30
0.0
 10
225.1221989901752
 20
124.0241438121882
 30
0.0
 10
225.1369607729096
 20
124.0761049959691
 30
0.0
 10
225.1414102659798
 20
124.091767123729
 30
0.0
  0
ARC
  5
B5
330
1F
100
AcDbEntity
  8
0
  6
Continuous
 62
     7
370
    15
100
AcDbCircle
 10
221.8839895095
 20
125.1264462487
 30
0.0
 40
0.5814605972231266
100
AcDbArc
 50
279.9762990819
 51
314.917889814
  0
ARC
  5
B6
330
1F
100
AcDbEntity
  8
0
  6
Continuous
 62
     7
370
    15
100
AcDbCircle
 10
224.879925742
 20
123.1701402532
 30
0.0
 40
0.5826476267876692
100
AcDbArc
 50
134.9701986559
 51
193.8357465537
  0
ARC
  5
B7
330
1F
100
AcDbEntity
  8
0
  6
Continuous
 62
     7
370
    15
100
AcDbCircle
 10
222.7718134401
 20
125.3436939325
 30
0.0
 40
0.3347081088023033
100
AcDbArc
 50
40.0321247546
 51
122.1861207628
  0
SPLINE
  5
B8
330
1F
100
AcDbEntity
  8
0
  6
Continuous
 62
     7
370
    15
100
AcDbSpline
210
0.0
220
0.0
230
1.0
 70
     8
 71
     3
 72
    11
 73
     7
 74
     0
 42
0.00000001
 43
0.00000001
 12
1.0
 22
0.0
 32
0.0
 13
1.0
 23
0.0
 33
0.0
 40
0.0
 40
0.0
 40
0.0
 40
0.0
 40
0.2802381654365784
 40
0.5612834475290279
 40
0.8399857791270567
 40
1.0
 40
1.0
 40
1.0
 40
1.0
 10
223.1230666087246
 20
125.6537236038745
 30
0.0
 10
223.0963490216399
 20
125.680575885406
 30
0.0
 10
223.042836897889
 20
125.7343577859853
 30
0.0
 10
222.9346826188206
 20
125.7745704663882
 30
0.0
 10
222.836154087302
 20
125.7792296212386
 30
0.0
 10
222.7792442282124
 20
125.7629244883078
 30
0.0
 10
222.7584873483753
 20
125.7569774750769
 30
0.0
  0
SPLINE
  5
B9
330
1F
100
AcDbEntity
  8
0
  6
Continuous
 62
     7
370
    15
100
AcDbSpline
210
0.0
220
0.0
230
1.0
 70
     8
 71
     3
 72
    11
 73
     7
 74
     0
 42
0.00000001
 43
0.00000001
 12
1.0
 22
0.0
 32
0.0
 13
1.0
 23
0.0
 33
0.0
 40
0.0
 40
0.0
 40
0.0
 40
0.0
 40
0.2657528700819242
 40
0.5530046820536175
 40
0.8418258674825112
 40
1.0
 40
1.0
 40
1.0
 40
1.0
 10
224.3369636283493
 20
125.6731342289746
 30
0.0
 10
224.3037963826649
 20
125.6836724756438
 30
0.0
 10
224.2347787191918
 20
125.7056014946867
 30
0.0
 10
224.1232760808024
 20
125.6943896432475
 30
0.0
 10
224.0337092406566
 20
125.6564753325781
 30
0.0
 10
223.9895713763471
 20
125.6186733377586
 30
0.0
 10
223.9739527152157
 20
125.6052966926396
 30
0.0
  0
SPLINE
  5
BA
330
1F
100
AcDbEntity
  8
0
  6
Continuous
 62
     7
370
    15
100
AcDbSpline
210
0.0
220
0.0
230
1.0
 70
     8
 71
     3
 72
    12
 73
     8
 74
     0
 42
0.00000001
 43
0.00000001
 12
1.0
 22
0.0
 32
0.0
 13
1.0
 23
0.0
 33
0.0
 40
0.0
 40
0.0
 40
0.0
 40
0.0
 40
0.2057926457722472
 40
0.4120349497063793
 40
0.6141320082912296
 40
0.8132648542148686
 40
0.9999999999999999
 40
0.9999999999999999
 40
0.9999999999999999
 40
0.9999999999999999
 10
223.9739527152157
 20
125.6052966926396
 30
0.0
 10
223.9219109026631
 20
125.5643895354241
 30
0.0
 10
223.8177135658862
 20
125.4824858386099
 30
0.0
 10
223.6217783465973
 20
125.4333350352768
 30
0.0
 10
223.426536189985
 20
125.4487866519101
 30
0.0
 10
223.2502532526142
 20
125.5234437002564
 30
0.0
 10
223.164544230717
 20
125.6112372198468
 30
0.0
 10
223.1230666087246
 20
125.6537236038745
 30
0.0
  0
SPLINE
  5
BB
330
1F
100
AcDbEntity
  8
0
  6
Continuous
 62
     7
370
    15
100
AcDbSpline
210
0.0
220
0.0
230
1.0
 70
     8
 71
     3
 72
    11
 73
     7
 74
     0
 42
0.00000001
 43
0.00000001
 12
1.0
 22
0.0
 32
0.0
 13
1.0
 23
0.0
 33
0.0
 40
0.0
 40
0.0
 40
0.0
 40
0.0
 40
0.2669005524879757
 40
0.5546086447585875
 40
0.8439034442235829
 40
1.0
 40
1.0
 40
1.0
 40
1.0
 10
225.1475122914887
 20
124.2110974852145
 30
0.0
 10
225.1398557807098
 20
124.244998164258
 30
0.0
 10
225.1239458583546
 20
124.3154424158172
 30
0.0
 10
225.0579769465287
 20
124.4053900772528
 30
0.0
 10
224.9803795042563
 20
124.4626037451352
 30
0.0
 10
224.9258888521181
 20
124.4811017868995
 30
0.0
 10
224.9067914829826
 20
124.487584805876
 30
0.0
  0
SPLINE
  5
BC
330
1F
100
AcDbEntity
  8
0
  6
Continuous
 62
     7
370
    15
100
AcDbSpline
210
0.0
220
0.0
230
1.0
 70
     8
 71
     3
 72
    12
 73
     8
 74
     0
 42
0.00000001
 43
0.00000001
 12
1.0
 22
0.0
 32
0.0
 13
1.0
 23
0.0
 33
0.0
 40
0.0
 40
0.0
 40
0.0
 40
0.0
 40
0.2058398781096949
 40
0.4120617084884026
 40
0.6141388962321227
 40
0.813277535718728
 40
1.0
 40
1.0
 40
1.0
 40
1.0
 10
224.9067914829826
 20
124.487584805876
 30
0.0
 10
224.845360581779
 20
124.5114498263462
 30
0.0
 10
224.7223847894475
 20
124.5592241507306
 30
0.0
 10
224.5814360124338
 20
124.7030589614409
 30
0.0
 10
224.4963670354201
 20
124.8799119715061
 30
0.0
 10
224.4717218369686
 20
125.0711617738695
 30
0.0
 10
224.5040643122893
 20
125.190665027166
 30
0.0
 10
224.519715194521
 20
125.2484939757884
 30
0.0
  0
SPLINE
  5
BD
330
1F
100
AcDbEntity
  8
0
  6
Continuous
 62
     7
370
    15
100
AcDbSpline
210
0.0
220
0.0
230
1.0
 70
     8
 71
     3
 72
    11
 73
     7
 74
     0
 42
0.00000001
 43
0.00000001
 12
1.0
 22
0.0
 32
0.0
 13
1.0
 23
0.0
 33
0.0
 40
0.0
 40
0.0
 40
0.0
 40
0.0
 40
0.2928983171892786
 40
0.5864339282417038
 40
0.8775177238415479
 40
1.0
 40
1.0
 40
1.0
 40
1.0
 10
224.519715194521
 20
125.2484939757884
 30
0.0
 10
224.5293536425557
 20
125.2855141172796
 30
0.0
 10
224.5486515101481
 20
125.3596349494071
 30
0.0
 10
224.5286370460867
 20
125.4745117660146
 30
0.0
 10
224.48537971359
 20
125.5573680518686
 30
0.0
 10
224.4481799058812
 20
125.5960411406621
 30
0.0
 10
224.437162761507
 20
125.6074946139157
 30
0.0
  0
ARC
  5
BE
330
1F
100
AcDbEntity
  8
0
  6
Continuous
 62
     7
370
    15
100
AcDbCircle
 10
224.7173358392
 20
124.0712240132
 30
0.0
 40
0.3351854301720071
100
AcDbArc
 50
325.6580741208
 51
73.630695004
  0
ARC
  5
BF
330
1F
100
AcDbEntity
  8
0
  6
Continuous
 62
     7
370
    15
100
AcDbCircle
 10
223.4763258887
 20
125.9351743822
 30
0.0
 40
0.5851760977441279
100
AcDbArc
 50
220.0059504882
 51
313.4771560257
  0
ARC
  5
C0
330
1F
100
AcDbEntity
  8
0
  6
Continuous
 62
     7
370
    15
100
AcDbCircle
 10
224.1091558329
 20
125.2668423507
 30
0.0
 40
0.3352271650029365
100
AcDbArc
 50
340.2805812713
 51
133.3671162337
  0
ARC
  5
C1
330
1F
100
AcDbEntity
  8
0
  6
Continuous
 62
     7
370
    15
100
AcDbCircle
 10
224.97802453
 20
124.9562892839
 30
0.0
 40
0.5874734425294547
100
AcDbArc
 50
160.3613037443
 51
253.5637918412
  0
LINE
  5
C2
330
1F
100
AcDbEntity
  8
0
  6
Continuous
 62
     7
370
    15
100
AcDbLine
 10
198.5032973037
 20
88.7162800644
 30
0.0
 11
197.1884579555
 21
88.7162800644
 31
0.0
  0
LINE
  5
C3
330
1F
100
AcDbEntity
  8
0
  6
Continuous
 62
     7
370
    15
100
AcDbLine
 10
197.1884579555
 20
88.7162800644
 30
0.0
 11
197.1884579555
 21
119.7951653738
 31
0.0
  0
LINE
  5
C4
330
1F
100
AcDbEntity
  8
0
  6
Continuous
 62
     7
370
    15
100
AcDbLine
 10
197.1884579555
 20
119.7951653738
 30
0.0
 11
198.5032973037
 21
119.7951653738
 31
0.0
  0
SPLINE
  5
C5
330
1F
100
AcDbEntity
  8
0
  6
Continuous
 62
     7
370
    15
100
AcDbSpline
210
0.0
220
0.0
230
1.0
 70
     8
 71
     3
 72
     8
 73
     4
 74
     0
 42
0.00000001
 43
0.00000001
 12
1.0
 22
0.0
 32
0.0
 13
1.0
 23
0.0
 33
0.0
 40
0.0
 40
0.0
 40
0.0
 40
0.0
 40
1.0
 40
1.0
 40
1.0
 40
1.0
 10
197.1884572768086
 20
88.71628049162501
 30
0.0
 10
196.8557520051033
 20
89.31565216484867
 30
0.0
 10
196.5239362045298
 20
89.9155212755537
 30
0.0
 10
196.1932975779152
 20
90.5160416266647
 30
0.0
  0
LINE
  5
C6
330
1F
100
AcDbEntity
  8
0
  6
Continuous
 62
     7
370
    15
100
AcDbLine
 10
196.1932969437
 20
90.5160423134
 30
0.0
 11
196.1932969437
 21
119.7951653738
 31
0.0
  0
SPLINE
  5
C7
330
1F
100
AcDbEntity
  8
0
  6
Continuous
 62
     7
370
    15
100
AcDbSpline
210
0.0
220
0.0
230
1.0
 70
    24
 71
     3
 72
     8
 73
     4
 74
     0
 42
0.00000001
 43
0.00000001
 12
1.0
 22
0.0
 32
0.0
 13
1.0
 23
0.0
 33
0.0
 40
0.0
 40
0.0
 40
0.0
 40
0.0
 40
1.0
 40
1.0
 40
1.0
 40
1.0
 10
196.1932975779152
 20
119.7951650146544
 30
0.0
 10
196.5169342335374
 20
119.7951650146544
 30
0.0
 10
196.849424455054
 20
119.7951650146544
 30
0.0
 10
197.1884572768087
 20
119.7951650146544
 30
0.0
  0
LINE
  5
C8
330
1F
100
AcDbEntity
  8
0
  6
Continuous
 62
     7
370
    15
100
AcDbLine
 10
187.1032980428
 20
119.7951653738
 30
0.0
 11
193.1181377889
 21
119.7951653738
 31
0.0
  0
LINE
  5
C9
330
1F
100
AcDbEntity
  8
0
  6
Continuous
 62
     7
370
    15
100
AcDbLine
 10
193.1181377889
 20
88.7162800644
 30
0.0
 11
193.1181377889
 21
119.7951653738
 31
0.0
  0
LINE
  5
CA
330
1F
100
AcDbEntity
  8
0
  6
Continuous
 62
     7
370
    15
100
AcDbLine
 10
193.1181377889
 20
88.7162800644
 30
0.0
 11
191.6032978491
 21
88.7162800644
 31
0.0
  0
SPLINE
  5
CB
330
1F
100
AcDbEntity
  8
0
  6
Continuous
 62
     7
370
    15
100
AcDbSpline
210
0.0
220
0.0
230
1.0
 70
     8
 71
     3
 72
    22
 73
    18
 74
     0
 42
0.00000001
 43
0.00000001
 12
1.0
 22
0.0
 32
0.0
 13
1.0
 23
0.0
 33
0.0
 40
0.0
 40
0.0
 40
0.0
 40
0.0
 40
0.125
 40
0.125
 40
0.25
 40
0.25
 40
0.375
 40
0.375
 40
0.5
 40
0.5
 40
0.625
 40
0.625
 40
0.75
 40
0.75
 40
0.875
 40
0.875
 40
1.0
 40
1.0
 40
1.0
 40
1.0
 10
191.6032975779152
 20
88.71628049162501
 30
0.0
 10
191.3041731488746
 20
88.71628049162501
 30
0.0
 10
191.0103507006258
 20
88.70776639055862
 30
0.0
 10
190.4327864243794
 20
88.67532262167673
 30
0.0
 10
190.1459687465655
 20
88.6509887329747
 30
0.0
 10
189.6015062176662
 20
88.59052870821785
 30
0.0
 10
189.3435509470449
 20
88.55461528743936
 30
0.0
 10
188.8554930036849
 20
88.47490526137022
 30
0.0
 10
188.6257947050212
 20
88.43102696018089
 30
0.0
 10
188.2133757220685
 20
88.3427833378107
 30
0.0
 10
188.0278487792085
 20
88.29797499634975
 30
0.0
 10
187.6993287343077
 20
88.21065398843056
 30
0.0
 10
187.5609148474082
 20
88.16936319985491
 30
0.0
 10
187.3363227007923
 20
88.09502497656108
 30
0.0
 10
187.249243888668
 20
88.06161485082642
 30
0.0
 10
187.132742080713
 20
88.00659544930026
 30
0.0
 10
187.1032975779152
 20
87.98513368283403
 30
0.0
 10
187.1032975779152
 20
87.97018065921624
 30
0.0
  0
LINE
  5
CC
330
1F
100
AcDbEntity
  8
0
  6
Continuous
 62
     7
370
    15
100
AcDbLine
 10
187.1032980428
 20
87.970180786
 30
0.0
 11
187.1032980428
 21
87.9451654617
 31
0.0
  0
SPLINE
  5
CD
330
1F
100
AcDbEntity
  8
0
  6
Continuous
 62
     7
370
    15
100
AcDbSpline
210
0.0
220
0.0
230
1.0
 70
     8
 71
     3
 72
    17
 73
    13
 74
     0
 42
0.00000001
 43
0.00000001
 12
1.0
 22
0.0
 32
0.0
 13
1.0
 23
0.0
 33
0.0
 40
0.0
 40
0.0
 40
0.0
 40
0.0
 40
0.1039928149931941
 40
0.211050797947968
 40
0.315030024669631
 40
0.4219351868122974
 40
0.5275775927633417
 40
0.6362134531400181
 40
0.7429488821168505
 40
0.8528788227495517
 40
0.9578277247781112
 40
1.0
 40
1.0
 40
1.0
 40
1.0
 10
191.6032978491163
 20
127.4323411051333
 30
0.0
 10
191.3574807648913
 20
127.4350569397263
 30
0.0
 10
190.8586011857749
 20
127.4405686576079
 30
0.0
 10
190.1351176422502
 20
127.4836524163835
 30
0.0
 10
189.4473222860424
 20
127.547519028565
 30
0.0
 10
188.8225769139082
 20
127.6268545445899
 30
0.0
 10
188.2666261108459
 20
127.7137933363582
 30
0.0
 10
187.8046396042787
 20
127.7977529276772
 30
0.0
 10
187.4423744730069
 20
127.8709157967682
 30
0.0
 10
187.2105955022533
 20
127.9210528370598
 30
0.0
 10
187.1010295579701
 20
127.9456729344423
 30
0.0
 10
187.1148604333346
 20
127.9425677863771
 30
0.0
 10
187.1188250527954
 20
127.9416776959002
 30
0.0
  0
LINE
  5
CE
330
1F
100
AcDbEntity
  8
0
  6
Continuous
 62
     7
370
    15
100
AcDbLine
 10
193.1181377889
 20
127.4323411051
 30
0.0
 11
191.6032978491
 21
127.4323411051
 31
0.0
  0
LINE
  5
CF
330
1F
100
AcDbEntity
  8
0
  6
Continuous
 62
     7
370
    15
100
AcDbLine
 10
193.1181377889
 20
124.0565743063
 30
0.0
 11
193.1181377889
 21
127.4323411051
 31
0.0
  0
LINE
  5
D0
330
1F
100
AcDbEntity
  8
0
  6
Continuous
 62
     7
370
    15
100
AcDbLine
 10
191.5969676496
 20
124.0565743063
 30
0.0
 11
193.1181377889
 21
124.0565743063
 31
0.0
  0
SPLINE
  5
D1
330
1F
100
AcDbEntity
  8
0
  6
Continuous
 62
     7
370
    15
100
AcDbSpline
210
0.0
220
0.0
230
1.0
 70
     8
 71
     3
 72
    22
 73
    18
 74
     0
 42
0.00000001
 43
0.00000001
 12
1.0
 22
0.0
 32
0.0
 13
1.0
 23
0.0
 33
0.0
 40
0.0
 40
0.0
 40
0.0
 40
0.0
 40
0.2500000000000002
 40
0.2500000000000002
 40
0.3750000000000001
 40
0.3750000000000001
 40
0.5000000000000001
 40
0.5000000000000001
 40
0.6250000000000001
 40
0.6250000000000001
 40
0.75
 40
0.75
 40
0.875
 40
0.875
 40
0.9375000000000001
 40
0.9375000000000001
 40
1.0
 40
1.0
 40
1.0
 40
1.0
 10
187.1032975779152
 20
119.7951650146544
 30
0.0
 10
187.1252785959018
 20
120.3580376565524
 30
0.0
 10
187.2042554792566
 20
120.888662540282
 30
0.0
 10
187.4506533722889
 20
121.6343735312036
 30
0.0
 10
187.5551779873799
 20
121.8759937576023
 30
0.0
 10
187.8170245826864
 20
122.3348525329282
 30
0.0
 10
187.9722412048522
 20
122.549031205398
 30
0.0
 10
188.3408329579161
 20
122.9462597645435
 30
0.0
 10
188.5569666503811
 20
123.1307045995633
 30
0.0
 10
189.040861145368
 20
123.451784447447
 30
0.0
 10
189.3113266903757
 20
123.591135277553
 30
0.0
 10
189.9075532558859
 20
123.8204408119785
 30
0.0
 10
190.2230465226058
 20
123.9069768214549
 30
0.0
 10
190.7237631706244
 20
123.9958664257861
 30
0.0
 10
190.8965596052395
 20
124.0186749316478
 30
0.0
 10
191.2449283780215
 20
124.048966094344
 30
0.0
 10
191.420329406932
 20
124.0565740157319
 30
0.0
 10
191.59696805262
 20
124.0565740157319
 30
0.0
  0
LINE
  5
D2
330
1F
100
AcDbEntity
  8
0
  6
Continuous
 62
     7
370
    15
100
AcDbLine
 10
194.1132978694
 20
90.5160423134
 30
0.0
 11
194.1132978694
 21
119.7951653738
 31
0.0
  0
SPLINE
  5
D3
330
1F
100
AcDbEntity
  8
0
  6
Continuous
 62
     7
370
    15
100
AcDbSpline
210
0.0
220
0.0
230
1.0
 70
     8
 71
     3
 72
     8
 73
     4
 74
     0
 42
0.00000001
 43
0.00000001
 12
1.0
 22
0.0
 32
0.0
 13
1.0
 23
0.0
 33
0.0
 40
0.0
 40
0.0
 40
0.0
 40
0.0
 40
1.0
 40
1.0
 40
1.0
 40
1.0
 10
194.1132975779152
 20
90.5160416266647
 30
0.0
 10
193.7826589513006
 20
89.9155212755537
 30
0.0
 10
193.4508431507271
 20
89.31565216484867
 30
0.0
 10
193.1181378790218
 20
88.71628049162501
 30
0.0
  0
SPLINE
  5
D4
330
1F
100
AcDbEntity
  8
0
  6
Continuous
 62
     7
370
    15
100
AcDbSpline
210
0.0
220
0.0
230
1.0
 70
    24
 71
     3
 72
     8
 73
     4
 74
     0
 42
0.00000001
 43
0.00000001
 12
1.0
 22
0.0
 32
0.0
 13
1.0
 23
0.0
 33
0.0
 40
0.0
 40
0.0
 40
0.0
 40
0.0
 40
1.0
 40
1.0
 40
1.0
 40
1.0
 10
193.1181378790218
 20
119.7951650146544
 30
0.0
 10
193.4571707007764
 20
119.7951650146544
 30
0.0
 10
193.789660922293
 20
119.7951650146544
 30
0.0
 10
194.1132975779152
 20
119.7951650146544
 30
0.0
  0
LINE
  5
D5
330
1F
100
AcDbEntity
  8
0
  6
Continuous
 62
     7
370
    15
100
AcDbLine
 10
199.1032981471
 20
89.3411323194
 30
0.0
 11
199.1032981471
 21
119.7951653738
 31
0.0
  0
SPLINE
  5
D6
330
1F
100
AcDbEntity
  8
0
  6
Continuous
 62
     7
370
    15
100
AcDbSpline
210
0.0
220
0.0
230
1.0
 70
     8
 71
     3
 72
    10
 73
     6
 74
     0
 42
0.00000001
 43
0.00000001
 12
1.0
 22
0.0
 32
0.0
 13
1.0
 23
0.0
 33
0.0
 40
0.0
 40
0.0
 40
0.0
 40
0.0
 40
0.5
 40
0.5
 40
1.0
 40
1.0
 40
1.0
 40
1.0
 10
199.1032975779152
 20
89.3411331935679
 30
0.0
 10
199.1032975779152
 20
89.18150102466466
 30
0.0
 10
199.0416610642099
 20
89.02045139090059
 30
0.0
 10
198.822634697967
 20
88.787460507224
 30
0.0
 10
198.6650178099196
 20
88.716280491625
 30
0.0
 10
198.5032975779152
 20
88.716280491625
 30
0.0
  0
SPLINE
  5
D7
330
1F
100
AcDbEntity
  8
0
  6
Continuous
 62
     7
370
    15
100
AcDbSpline
210
0.0
220
0.0
230
1.0
 70
    24
 71
     3
 72
    12
 73
     8
 74
     0
 42
0.00000001
 43
0.00000001
 12
1.0
 22
0.0
 32
0.0
 13
1.0
 23
0.0
 33
0.0
 40
0.0
 40
0.0
 40
0.0
 40
0.0
 40
0.250000000000002
 40
0.250000000000002
 40
0.500000000000004
 40
0.500000000000004
 40
1.0
 40
1.0
 40
1.0
 40
1.0
 10
198.5032975779152
 20
119.7951650146544
 30
0.0
 10
198.5914844432841
 20
119.7951650146544
 30
0.0
 10
198.6801718365853
 20
119.7951650146544
 30
0.0
 10
198.8344243297042
 20
119.7951650146544
 30
0.0
 10
198.8997703107802
 20
119.7951650146544
 30
0.0
 10
199.0541801807313
 20
119.7951650146544
 30
0.0
 10
199.1032975779152
 20
119.7951650146544
 30
0.0
 10
199.1032975779152
 20
119.7951650146544
 30
0.0
  0
LINE
  5
D8
330
1F
100
AcDbEntity
  8
0
  6
Continuous
 62
     7
370
    15
100
AcDbLine
 10
179.1532975779
 20
88.2451649521
 30
0.0
 11
179.1532975779
 21
127.6451650772
 31
0.0
  0
SPLINE
  5
D9
330
1F
100
AcDbEntity
  8
0
  6
Continuous
 62
     7
370
    15
100
AcDbSpline
210
0.0
220
0.0
230
1.0
 70
    24
 71
     3
 72
    16
 73
    12
 74
     0
 42
0.00000001
 43
0.00000001
 12
1.0
 22
0.0
 32
0.0
 13
1.0
 23
0.0
 33
0.0
 40
0.0
 40
0.0
 40
0.0
 40
0.0
 40
0.0624999999999997
 40
0.0624999999999997
 40
0.1249999999999994
 40
0.1249999999999994
 40
0.2499999999999988
 40
0.2499999999999988
 40
0.499999999999999
 40
0.499999999999999
 40
1.0
 40
1.0
 40
1.0
 40
1.0
 10
194.7132975778886
 20
91.04516501465443
 30
0.0
 10
194.6788189107034
 20
91.04516501465443
 30
0.0
 10
194.6449987338666
 20
91.04516501465443
 30
0.0
 10
194.5884766666829
 20
91.04516501465443
 30
0.0
 10
194.5641505871566
 20
91.04516501465443
 30
0.0
 10
194.4996976876054
 20
91.04516501465443
 30
0.0
 10
194.4660694122467
 20
91.04516501465443
 30
0.0
 10
194.3779920967219
 20
91.04516501465443
 30
0.0
 10
194.3351726434543
 20
91.04516501465443
 30
0.0
 10
194.2245160092573
 20
91.04516501465443
 30
0.0
 10
194.1782834233132
 20
91.04516501465443
 30
0.0
 10
194.1485199784966
 20
91.04516501465443
 30
0.0
  0
SPLINE
  5
DA
330
1F
100
AcDbEntity
  8
0
  6
Continuous
 62
     7
370
    15
100
AcDbSpline
210
0.0
220
0.0
230
1.0
 70
    24
 71
     3
 72
    12
 73
     8
 74
     0
 42
0.00000001
 43
0.00000001
 12
1.0
 22
0.0
 32
0.0
 13
1.0
 23
0.0
 33
0.0
 40
0.0
 40
0.0
 40
0.0
 40
0.0
 40
0.5000000000000013
 40
0.5000000000000013
 40
0.7500000000000007
 40
0.7500000000000007
 40
1.0
 40
1.0
 40
1.0
 40
1.0
 10
194.1132975779152
 20
119.7951650146544
 30
0.0
 10
194.1132975779152
 20
119.7951650146544
 30
0.0
 10
194.1602936754235
 20
119.7951650146544
 30
0.0
 10
194.3097996134238
 20
119.7951650146544
 30
0.0
 10
194.3743182359822
 20
119.7951650146544
 30
0.0
 10
194.5287579287112
 20
119.7951650146544
 30
0.0
 10
194.6196963167142
 20
119.7951650146544
 30
0.0
 10
194.7132975779152
 20
119.7951650146544
 30
0.0
  0
SPLINE
  5
DB
330
1F
100
AcDbEntity
  8
0
  6
Continuous
 62
     7
370
    15
100
AcDbSpline
210
0.0
220
0.0
230
1.0
 70
    24
 71
     3
 72
    16
 73
    12
 74
     0
 42
0.00000001
 43
0.00000001
 12
1.0
 22
0.0
 32
0.0
 13
1.0
 23
0.0
 33
0.0
 40
0.0
 40
0.0
 40
0.0
 40
0.0
 40
0.5000000000000001
 40
0.5000000000000001
 40
0.7499999999999993
 40
0.7499999999999993
 40
0.8749999999999983
 40
0.8749999999999983
 40
0.9374999999999991
 40
0.9374999999999991
 40
1.0
 40
1.0
 40
1.0
 40
1.0
 10
196.1580751773339
 20
91.04516501465443
 30
0.0
 10
196.1280387578073
 20
91.04516501465443
 30
0.0
 10
196.0814046606025
 20
91.04516501465443
 30
0.0
 10
195.9710202490238
 20
91.04516501465443
 30
0.0
 10
195.9276826005032
 20
91.04516501465443
 30
0.0
 10
195.8392009661186
 20
91.04516501465443
 30
0.0
 10
195.8058254615019
 20
91.04516501465443
 30
0.0
 10
195.7413332520514
 20
91.04516501465443
 30
0.0
 10
195.7171289148648
 20
91.04516501465443
 30
0.0
 10
195.6613751050544
 20
91.04516501465443
 30
0.0
 10
195.6277910789862
 20
91.04516501465442
 30
0.0
 10
195.5932975779152
 20
91.04516501465443
 30
0.0
  0
SPLINE
  5
DC
330
1F
100
AcDbEntity
  8
0
  6
Continuous
 62
     7
370
    15
100
AcDbSpline
210
0.0
220
0.0
230
1.0
 70
    24
 71
     3
 72
    12
 73
     8
 74
     0
 42
0.00000001
 43
0.00000001
 12
1.0
 22
0.0
 32
0.0
 13
1.0
 23
0.0
 33
0.0
 40
0.0
 40
0.0
 40
0.0
 40
0.0
 40
0.249999999999999
 40
0.249999999999999
 40
0.499999999999998
 40
0.499999999999998
 40
1.0
 40
1.0
 40
1.0
 40
1.0
 10
195.5932975779152
 20
119.7951650146544
 30
0.0
 10
195.6859556674214
 20
119.7951650146544
 30
0.0
 10
195.7780190769792
 20
119.7951650146544
 30
0.0
 10
195.9321766274699
 20
119.7951650146544
 30
0.0
 10
195.9966655608346
 20
119.7951650146544
 30
0.0
 10
196.1467171097842
 20
119.7951650146544
 30
0.0
 10
196.1932975779152
 20
119.7951650146544
 30
0.0
 10
196.1932975779152
 20
119.7951650146544
 30
0.0
  0
SPLINE
  5
DD
330
1F
100
AcDbEntity
  8
0
  6
Continuous
 62
     7
370
    15
100
AcDbSpline
210
0.0
220
0.0
230
1.0
 70
    24
 71
     3
 72
    14
 73
    10
 74
     0
 42
0.00000001
 43
0.00000001
 12
1.0
 22
0.0
 32
0.0
 13
1.0
 23
0.0
 33
0.0
 40
0.0
 40
0.0
 40
0.0
 40
0.0
 40
0.125
 40
0.125
 40
0.25
 40
0.25
 40
0.5
 40
0.5
 40
1.0
 40
1.0
 40
1.0
 40
1.0
 10
199.3032975779004
 20
124.8451650146544
 30
0.0
 10
199.303297790881
 20
124.8451650146544
 30
0.0
 10
199.3009214216823
 20
124.8451650146544
 30
0.0
 10
199.2917735147506
 20
124.8451650146544
 30
0.0
 10
199.2850076126969
 20
124.8451650146544
 30
0.0
 10
199.2595681900919
 20
124.8451650146544
 30
0.0
 10
199.2356751552098
 20
124.8451650146544
 30
0.0
 10
199.1607409478559
 20
124.8451650146544
 30
0.0
 10
199.1055144660423
 20
124.8451650146544
 30
0.0
 10
199.1033597010385
 20
124.8451650146544
 30
0.0
  0
SPLINE
  5
DE
330
1F
100
AcDbEntity
  8
0
  6
Continuous
 62
     7
370
    15
100
AcDbSpline
210
0.0
220
0.0
230
1.0
 70
    24
 71
     3
 72
    14
 73
    10
 74
     0
 42
0.00000001
 43
0.00000001
 12
1.0
 22
0.0
 32
0.0
 13
1.0
 23
0.0
 33
0.0
 40
0.0
 40
0.0
 40
0.0
 40
0.0
 40
0.1250000000000001
 40
0.1250000000000001
 40
0.2500000000000002
 40
0.2500000000000002
 40
0.5000000000000002
 40
0.5000000000000002
 40
1.0
 40
1.0
 40
1.0
 40
1.0
 10
199.303297577901
 20
91.04516501465443
 30
0.0
 10
199.3032977889932
 20
91.04516501465443
 30
0.0
 10
199.3008751862525
 20
91.04516501465443
 30
0.0
 10
199.2915559799492
 20
91.04516501465443
 30
0.0
 10
199.2846653202278
 20
91.04516501465442
 30
0.0
 10
199.2587868587273
 20
91.04516501465443
 30
0.0
 10
199.2345143330962
 20
91.04516501465443
 30
0.0
 10
199.1587580385647
 20
91.04516501465443
 30
0.0
 10
199.1032975779152
 20
91.04516501465443
 30
0.0
 10
199.1032975779152
 20
91.04516501465443
 30
0.0
  0
SPLINE
  5
DF
330
1F
100
AcDbEntity
  8
0
  6
Continuous
 62
     7
370
    15
100
AcDbSpline
210
0.0
220
0.0
230
1.0
 70
    24
 71
     3
 72
    12
 73
     8
 74
     0
 42
0.00000001
 43
0.00000001
 12
1.0
 22
0.0
 32
0.0
 13
1.0
 23
0.0
 33
0.0
 40
0.0
 40
0.0
 40
0.0
 40
0.0
 40
0.5
 40
0.5
 40
0.75
 40
0.75
 40
1.0
 40
1.0
 40
1.0
 40
1.0
 10
199.1032975779152
 20
119.7951650146544
 30
0.0
 10
199.1032975779152
 20
119.7951650146544
 30
0.0
 10
199.1305183260428
 20
119.7951650146544
 30
0.0
 10
199.2109647718158
 20
119.7951650146544
 30
0.0
 10
199.2444120002938
 20
119.7951650146544
 30
0.0
 10
199.3268215700681
 20
119.7951650146544
 30
0.0
 10
199.3761046669517
 20
119.7951650146544
 30
0.0
 10
199.4324212895883
 20
119.7951650146544
 30
0.0
  0
SPLINE
  5
E0
330
1F
100
AcDbEntity
  8
0
  6
Continuous
 62
     7
370
    15
100
AcDbSpline
210
0.0
220
0.0
230
1.0
 70
     8
 71
     3
 72
    10
 73
     6
 74
     0
 42
0.00000001
 43
0.00000001
 12
1.0
 22
0.0
 32
0.0
 13
1.0
 23
0.0
 33
0.0
 40
0.0
 40
0.0
 40
0.0
 40
0.0
 40
0.5
 40
0.5
 40
1.0
 40
1.0
 40
1.0
 40
1.0
 10
199.1032975779152
 20
120.822567703085
 30
0.0
 10
199.1032975779152
 20
120.6398589909501
 30
0.0
 10
199.1302709116233
 20
120.4563507011893
 30
0.0
 10
199.237861279409
 20
120.1080467228686
 30
0.0
 10
199.3193258237522
 20
119.9398591403257
 30
0.0
 10
199.432421289588
 20
119.795165014653
 30
0.0
  0
LINE
  5
E1
330
1F
100
AcDbEntity
  8
0
  6
Continuous
 62
     7
370
    15
100
AcDbLine
 10
195.593297963
 20
91.0451657836
 30
0.0
 11
194.7132977815
 21
91.0451657836
 31
0.0
  0
LINE
  5
E2
330
1F
100
AcDbEntity
  8
0
  6
Continuous
 62
     7
370
    15
100
AcDbLine
 10
194.7132977815
 20
119.7951653738
 30
0.0
 11
195.593297963
 21
119.7951653738
 31
0.0
  0
ELLIPSE
  5
E3
330
1F
100
AcDbEntity
  8
0
  6
Continuous
 62
     7
370
    15
100
AcDbEllipse
 10
209.0645363331
 20
107.9451650147
 30
0.0
 11
-0.3321204061178094
 21
16.49976136173817
 31
0.0
210
0.0
220
0.0
230
1.0
 40
0.2671959542
 41
0.2625733581592068
 42
2.728636390829507
  0
ELLIPSE
  5
E4
330
1F
100
AcDbEntity
  8
0
  6
Continuous
 62
     7
370
    15
100
AcDbEllipse
 10
206.856705533
 20
115.8734961333
 30
0.0
 11
0.1533777247708485
 21
2.628800446329222
 31
0.0
210
0.0
220
0.0
230
1.0
 40
0.2270241866
 41
0.0
 42
6.283185307179586
  0
ELLIPSE
  5
E5
330
1F
100
AcDbEntity
  8
0
  6
Continuous
 62
     7
370
    15
100
AcDbEllipse
 10
256.7868508271
 20
107.9451650147
 30
0.0
 11
235.9609794429946
 21
-1.15660963768103
 31
0.0
210
0.0
220
0.0
230
1.0
 40
0.0697548059
 41
1.756123901370671
 42
1.769498240402524
  0
SPLINE
  5
E6
330
1F
100
AcDbEntity
  8
0
  6
Continuous
 62
     7
370
    15
100
AcDbSpline
210
0.0
220
0.0
230
1.0
 70
     8
 71
     3
 72
    18
 73
    14
 74
     0
 42
0.00000001
 43
0.00000001
 12
1.0
 22
0.0
 32
0.0
 13
1.0
 23
0.0
 33
0.0
 40
0.0
 40
0.0
 40
0.0
 40
0.0
 40
0.2499999999999991
 40
0.2499999999999991
 40
0.4999999999999982
 40
0.4999999999999982
 40
0.6249999999999987
 40
0.6249999999999987
 40
0.7499999999999991
 40
0.7499999999999991
 40
0.8749999999999996
 40
0.8749999999999996
 40
1.0
 40
1.0
 40
1.0
 40
1.0
 10
210.287964143416
 20
124.3090272700993
 30
0.0
 10
209.9707376354298
 20
124.3061267326237
 30
0.0
 10
209.6656403226847
 20
124.2970470429611
 30
0.0
 10
209.0794673798916
 20
124.2628229823519
 30
0.0
 10
208.8112053924102
 20
124.2382537702072
 30
0.0
 10
208.4517460325181
 20
124.1853552678353
 30
0.0
 10
208.3399298307304
 20
124.1650572993865
 30
0.0
 10
208.1374154941881
 20
124.1193123082693
 30
0.0
 10
208.0457763783488
 20
124.0937363027545
 30
0.0
 10
207.881644531102
 20
124.036173774915
 30
0.0
 10
207.8094167015119
 20
124.0041463551646
 30
0.0
 10
207.6881317868348
 20
123.9347404080022
 30
0.0
 10
207.6384048490633
 20
123.8971558140286
 30
0.0
 10
207.5994560857811
 20
123.8563664087351
 30
0.0
  0
SPLINE
  5
E7
330
1F
100
AcDbEntity
  8
0
  6
Continuous
 62
     7
370
    15
100
AcDbSpline
210
0.0
220
0.0
230
1.0
 70
     8
 71
     3
 72
    20
 73
    16
 74
     0
 42
0.00000001
 43
0.00000001
 12
1.0
 22
0.0
 32
0.0
 13
1.0
 23
0.0
 33
0.0
 40
0.0
 40
0.0
 40
0.0
 40
0.0
 40
0.2500000000000004
 40
0.2500000000000004
 40
0.3750000000000003
 40
0.3750000000000003
 40
0.5000000000000002
 40
0.5000000000000002
 40
0.6250000000000001
 40
0.6250000000000001
 40
0.75
 40
0.75
 40
0.875
 40
0.875
 40
1.0
 40
1.0
 40
1.0
 40
1.0
 10
207.5994560857811
 20
92.79678608611877
 30
0.0
 10
207.6773616973412
 20
92.67463573977766
 30
0.0
 10
207.7972617024924
 20
92.5677380165077
 30
0.0
 10
208.0434660684319
 20
92.42668083288338
 30
0.0
 10
208.1362719510151
 20
92.38335205625157
 30
0.0
 10
208.3384657898553
 20
92.30528645884237
 30
0.0
 10
208.4484623673676
 20
92.27018266034261
 30
0.0
 10
208.6867716403225
 20
92.20701774229852
 30
0.0
 10
208.8157809862486
 20
92.17892502153876
 30
0.0
 10
209.0832621072332
 20
92.13098254167909
 30
0.0
 10
209.2227290352452
 20
92.11081757919551
 30
0.0
 10
209.5131744323483
 20
92.07730051749081
 30
0.0
 10
209.6652796705687
 20
92.06390908787992
 30
0.0
 10
209.9730476685608
 20
92.04428627391822
 30
0.0
 10
210.1293003045519
 20
92.03793035279777
 30
0.0
 10
210.287964143416
 20
92.03493174541943
 30
0.0
  0
ELLIPSE
  5
E8
330
1F
100
AcDbEntity
  8
0
  6
Continuous
 62
     7
370
    15
100
AcDbEllipse
 10
256.7868508271
 20
107.9451650147
 30
0.0
 11
235.9609794429946
 21
-1.15660963768103
 31
0.0
210
0.0
220
0.0
230
1.0
 40
0.0697548059
 41
4.51437090084026
 42
4.523028093085729
  0
ELLIPSE
  5
E9
330
1F
100
AcDbEntity
  8
0
  6
Continuous
 62
     7
370
    15
100
AcDbEllipse
 10
222.844907996
 20
107.9451650147
 30
0.0
 11
12.01699404365465
 21
16.42844719786328
 31
0.0
210
0.0
220
0.0
230
1.0
 40
0.1277329972
 41
3.234755643517411
 42
3.494271617927746
  0
LINE
  5
EA
330
1F
100
AcDbEntity
  8
0
  6
Continuous
 62
     7
370
    15
100
AcDbLine
 10
165.3532977374
 20
93.4326465938
 30
0.0
 11
165.3532977374
 21
94.3415885557
 31
0.0
  0
SPLINE
  5
EB
330
1F
100
AcDbEntity
  8
0
  6
Continuous
 62
     7
370
    15
100
AcDbSpline
210
0.0
220
0.0
230
1.0
 70
     8
 71
     3
 72
    10
 73
     6
 74
     0
 42
0.00000001
 43
0.00000001
 12
1.0
 22
0.0
 32
0.0
 13
1.0
 23
0.0
 33
0.0
 40
0.0
 40
0.0
 40
0.0
 40
0.0
 40
0.5
 40
0.5
 40
1.0
 40
1.0
 40
1.0
 40
1.0
 10
165.06206237543
 20
95.01116166744647
 30
0.0
 10
165.0999367783747
 20
94.88499955939383
 30
0.0
 10
165.1807278257005
 20
94.76704051841195
 30
0.0
 10
165.3058577682918
 20
94.54399453582296
 30
0.0
 10
165.3532975779152
 20
94.4391994623276
 30
0.0
 10
165.3532975779152
 20
94.3415888289302
 30
0.0
  0
SPLINE
  5
EC
330
1F
100
AcDbEntity
  8
0
  6
Continuous
 62
     7
370
    15
100
AcDbSpline
210
0.0
220
0.0
230
1.0
 70
     8
 71
     3
 72
    16
 73
    12
 74
     0
 42
0.00000001
 43
0.00000001
 12
1.0
 22
0.0
 32
0.0
 13
1.0
 23
0.0
 33
0.0
 40
0.0
 40
0.0
 40
0.0
 40
0.0
 40
0.0625000000000001
 40
0.0625000000000001
 40
0.1250000000000003
 40
0.1250000000000003
 40
0.2500000000000006
 40
0.2500000000000006
 40
0.4999999999999999
 40
0.4999999999999999
 40
1.0
 40
1.0
 40
1.0
 40
1.0
 10
164.4532975779154
 20
95.66129171610154
 30
0.0
 10
164.4846133772427
 20
95.66389633799359
 30
0.0
 10
164.5173277156684
 20
95.66212743753363
 30
0.0
 10
164.5786342691451
 20
95.65059254308362
 30
0.0
 10
164.6071451593631
 20
95.64106556573739
 30
0.0
 10
164.6830391327193
 20
95.60755196561246
 30
0.0
 10
164.7223787177524
 20
95.5791644512926
 30
0.0
 10
164.8238144987337
 20
95.49114350108474
 30
0.0
 10
164.8686398583397
 20
95.42951084887756
 30
0.0
 10
164.9829222133048
 20
95.24612265520244
 30
0.0
 10
165.0277361211476
 20
95.12550466073758
 30
0.0
 10
165.06206237543
 20
95.01116166744649
 30
0.0
  0
SPLINE
  5
ED
330
1F
100
AcDbEntity
  8
0
  6
Continuous
 62
     7
370
    15
100
AcDbSpline
210
0.0
220
0.0
230
1.0
 70
     8
 71
     3
 72
    10
 73
     6
 74
     0
 42
0.00000001
 43
0.00000001
 12
1.0
 22
0.0
 32
0.0
 13
1.0
 23
0.0
 33
0.0
 40
0.0
 40
0.0
 40
0.0
 40
0.0
 40
0.5
 40
0.5
 40
1.0
 40
1.0
 40
1.0
 40
1.0
 10
160.3635061431996
 20
95.2339847522033
 30
0.0
 10
161.021764154102
 20
95.3269094575203
 30
0.0
 10
161.6991064626391
 20
95.40284457464287
 30
0.0
 10
163.0684524763203
 20
95.54166266018055
 30
0.0
 10
163.7597725571928
 20
95.60360931646703
 30
0.0
 10
164.4532975779159
 20
95.66129171610157
 30
0.0
  0
SPLINE
  5
EE
330
1F
100
AcDbEntity
  8
0
  6
Continuous
 62
     7
370
    15
100
AcDbSpline
210
0.0
220
0.0
230
1.0
 70
     8
 71
     3
 72
     8
 73
     4
 74
     0
 42
0.00000001
 43
0.00000001
 12
1.0
 22
0.0
 32
0.0
 13
1.0
 23
0.0
 33
0.0
 40
0.0000002108190109
 40
0.0000002108190109
 40
0.0000002108190109
 40
0.0000002108190109
 40
0.0001710235456397
 40
0.0001710235456397
 40
0.0001710235456397
 40
0.0001710235456397
 10
160.2032975779152
 20
95.21462946369503
 30
0.0
 10
160.257285764005
 20
95.2202596062986
 30
0.0
 10
160.3108754240809
 20
95.22655499976013
 30
0.0
 10
160.3635061431996
 20
95.23398475220327
 30
0.0
  0
SPLINE
  5
EF
330
1F
100
AcDbEntity
  8
0
  6
Continuous
 62
     7
370
    15
100
AcDbSpline
210
0.0
220
0.0
230
1.0
 70
     8
 71
     3
 72
     8
 73
     4
 74
     0
 42
0.00000001
 43
0.00000001
 12
1.0
 22
0.0
 32
0.0
 13
1.0
 23
0.0
 33
0.0
 40
0.000003532078448
 40
0.000003532078448
 40
0.000003532078448
 40
0.000003532078448
 40
0.0000638548434643
 40
0.0000638548434643
 40
0.0000638548434643
 40
0.0000638548434643
 10
160.1947814283461
 20
95.24198731511085
 30
0.0
 10
160.1973305994683
 20
95.23282611177211
 30
0.0
 10
160.2001725222501
 20
95.22370510846339
 30
0.0
 10
160.2032975779152
 20
95.21462946369505
 30
0.0
  0
ELLIPSE
  5
F0
330
1F
100
AcDbEntity
  8
0
  6
Continuous
 62
     7
370
    15
100
AcDbEllipse
 10
146.7265553701
 20
107.3058673369
 30
0.0
 11
13.37355272666625
 21
-13.37146352987013
 31
0.0
210
0.0
220
0.0
230
1.0
 40
0.1761188775
 41
0.3023035477142542
 42
0.3822730435340367
  0
ELLIPSE
  5
F1
330
1F
100
AcDbEntity
  8
0
  6
Continuous
 62
     7
370
    15
100
AcDbEllipse
 10
146.6471769394
 20
108.584275466
 30
0.0
 11
13.36963611134303
 21
13.36754752639483
 31
0.0
210
0.0
220
0.0
230
1.0
 40
0.1761188775
 41
5.933076931846596
 42
5.976720052691199
  0
SPLINE
  5
F2
330
1F
100
AcDbEntity
  8
0
  6
Continuous
 62
     7
370
    15
100
AcDbSpline
210
0.0
220
0.0
230
1.0
 70
     8
 71
     3
 72
     8
 73
     4
 74
     0
 42
0.00000001
 43
0.00000001
 12
1.0
 22
0.0
 32
0.0
 13
1.0
 23
0.0
 33
0.0
 40
0.0
 40
0.0
 40
0.0
 40
0.0
 40
1.0
 40
1.0
 40
1.0
 40
1.0
 10
160.2032975779152
 20
120.8107455616328
 30
0.0
 10
160.1575326702259
 20
120.7492251824739
 30
0.0
 10
160.1231455485959
 20
120.6853303227245
 30
0.0
 10
160.104130294923
 20
120.6186003776808
 30
0.0
  0
SPLINE
  5
F3
330
1F
100
AcDbEntity
  8
0
  6
Continuous
 62
     7
370
    15
100
AcDbSpline
210
0.0
220
0.0
230
1.0
 70
     8
 71
     3
 72
    12
 73
     8
 74
     0
 42
0.00000001
 43
0.00000001
 12
1.0
 22
0.0
 32
0.0
 13
1.0
 23
0.0
 33
0.0
 40
0.0
 40
0.0
 40
0.0
 40
0.0
 40
0.2499999999999986
 40
0.2499999999999986
 40
0.4999999999999971
 40
0.4999999999999971
 40
1.0
 40
1.0
 40
1.0
 40
1.0
 10
161.9532975779152
 20
120.7259588733136
 30
0.0
 10
161.811255174726
 20
120.7417846014898
 30
0.0
 10
161.6671370682219
 20
120.7528057352651
 30
0.0
 10
161.3773825545494
 20
120.7713420971323
 30
0.0
 10
161.2316406511906
 20
120.7786128028681
 30
0.0
 10
160.7929604120108
 20
120.7970736531961
 30
0.0
 10
160.4985847959395
 20
120.8049525200196
 30
0.0
 10
160.2032975779152
 20
120.8107455616328
 30
0.0
  0
SPLINE
  5
F4
330
1F
100
AcDbEntity
  8
0
  6
Continuous
 62
     7
370
    15
100
AcDbSpline
210
0.0
220
0.0
230
1.0
 70
     8
 71
     3
 72
    20
 73
    16
 74
     0
 42
0.00000001
 43
0.00000001
 12
1.0
 22
0.0
 32
0.0
 13
1.0
 23
0.0
 33
0.0
 40
0.0
 40
0.0
 40
0.0
 40
0.0
 40
0.2499999999999996
 40
0.2499999999999996
 40
0.4999999999999991
 40
0.4999999999999991
 40
0.7499999999999987
 40
0.7499999999999987
 40
0.8749999999999971
 40
0.8749999999999971
 40
0.9374999999999983
 40
0.9374999999999983
 40
0.9687499999999991
 40
0.9687499999999991
 40
1.0
 40
1.0
 40
1.0
 40
1.0
 10
162.8532975779162
 20
121.5026891364023
 30
0.0
 10
162.8532975779162
 20
121.4420797367049
 30
0.0
 10
162.8279025583392
 20
121.3762537713014
 30
0.0
 10
162.7416093725573
 20
121.2422060019547
 30
0.0
 10
162.680973393874
 20
121.1735106438129
 30
0.0
 10
162.5328715996528
 20
121.0331120921585
 30
0.0
 10
162.4461019928741
 20
120.9614085875771
 30
0.0
 10
162.2974641975449
 20
120.8552451858283
 30
0.0
 10
162.2451749806587
 20
120.8197168371968
 30
0.0
 10
162.1544111523488
 20
120.7700129066813
 30
0.0
 10
162.1220451598968
 20
120.7537519086661
 30
0.0
 10
162.0643560042306
 20
120.7346393403202
 30
0.0
 10
162.0433689763432
 20
120.7292481982387
 30
0.0
 10
161.9980799973527
 20
120.7235108298462
 30
0.0
 10
161.9750657285142
 20
120.7235335634996
 30
0.0
 10
161.9532975779146
 20
120.7259588733125
 30
0.0
  0
LINE
  5
F5
330
1F
100
AcDbEntity
  8
0
  6
Continuous
 62
     7
370
    15
100
AcDbLine
 10
162.8532973276
 20
121.502689435
 30
0.0
 11
162.8532973276
 21
122.3324326564
 31
0.0
  0
LINE
  5
F6
330
1F
100
AcDbEntity
  8
0
  6
Continuous
 62
     7
370
    15
100
AcDbLine
 10
177.1532974829
 20
92.8414644439
 30
0.0
 11
177.1532974829
 21
123.0488655854
 31
0.0
  0
SPLINE
  5
F7
330
1F
100
AcDbEntity
  8
0
  6
Continuous
 62
     7
370
    15
100
AcDbSpline
210
0.0
220
0.0
230
1.0
 70
     8
 71
     3
 72
    24
 73
    20
 74
     0
 42
0.00000001
 43
0.00000001
 12
1.0
 22
0.0
 32
0.0
 13
1.0
 23
0.0
 33
0.0
 40
0.0
 40
0.0
 40
0.0
 40
0.0
 40
0.0016643193296813
 40
0.0648792890554526
 40
0.127882629835479
 40
0.1913652263153964
 40
0.2543782098387403
 40
0.3163193264594876
 40
0.3777469775702122
 40
0.4397082275190884
 40
0.5014189034197821
 40
0.562536076452263
 40
0.6237133677268287
 40
0.6863020174790898
 40
0.7490598999921412
 40
0.811592469235191
 40
0.8743360189604256
 40
0.9379727054607176
 40
1.0
 40
1.0
 40
1.0
 40
1.0
 10
170.337840464828
 20
93.18319836148622
 30
0.0
 10
170.3373630740025
 20
93.18312995065125
 30
0.0
 10
170.3187531973945
 20
93.18046312688908
 30
0.0
 10
170.3818937342036
 20
93.19017768972715
 30
0.0
 10
170.5339364912861
 20
93.21238239593512
 30
0.0
 10
170.8018620065511
 20
93.24681814746853
 30
0.0
 10
171.1511757837378
 20
93.28528115813776
 30
0.0
 10
171.5782268456619
 20
93.31950921108515
 30
0.0
 10
172.0656664740769
 20
93.34196177092527
 30
0.0
 10
172.5973168390182
 20
93.34555575865627
 30
0.0
 10
173.1484374415191
 20
93.32854212940306
 30
0.0
 10
173.6958954323059
 20
93.2885963639599
 30
0.0
 10
174.2205296620614
 20
93.22948875130324
 30
0.0
 10
174.7023180604614
 20
93.1571243138821
 30
0.0
 10
175.127266652471
 20
93.08080364240395
 30
0.0
 10
175.4734829659319
 20
93.00881969641287
 30
0.0
 10
175.728561278063
 20
92.95043267024919
 30
0.0
 10
175.8887566702005
 20
92.91077301394263
 30
0.0
 10
175.9093907325971
 20
92.9059483384789
 30
0.0
 10
175.9195756324804
 20
92.90356689581277
 30
0.0
  0
SPLINE
  5
F8
330
1F
100
AcDbEntity
  8
0
  6
Continuous
 62
     7
370
    15
100
AcDbSpline
210
0.0
220
0.0
230
1.0
 70
     8
 71
     3
 72
    24
 73
    20
 74
     0
 42
0.00000001
 43
0.00000001
 12
1.0
 22
0.0
 32
0.0
 13
1.0
 23
0.0
 33
0.0
 40
0.0
 40
0.0
 40
0.0
 40
0.0
 40
0.0629034706215385
 40
0.1256338688179741
 40
0.1890239793713884
 40
0.2513957684939822
 40
0.3139906836130308
 40
0.3762905044722344
 40
0.4374458894592898
 40
0.498543195540241
 40
0.5603281747675228
 40
0.6223344559749604
 40
0.6838864964282686
 40
0.7458035579052691
 40
0.8089499376965126
 40
0.8723245876864573
 40
0.9353799443000518
 40
0.9988635323362688
 40
1.0
 40
1.0
 40
1.0
 40
1.0
 10
175.9185767890191
 20
122.9867640648186
 30
0.0
 10
175.9091061627442
 20
122.98434127555
 30
0.0
 10
175.8901909676478
 20
122.9795023630681
 30
0.0
 10
175.7281396712436
 20
122.9395307718907
 30
0.0
 10
175.471614430498
 20
122.8811867763183
 30
0.0
 10
175.1255582942047
 20
122.80895167833
 30
0.0
 10
174.7016589013113
 20
122.7328024268179
 30
0.0
 10
174.2206759404734
 20
122.6606831253054
 30
0.0
 10
173.6966923834934
 20
122.6017956119976
 30
0.0
 10
173.1490944982863
 20
122.5618840893934
 30
0.0
 10
172.5976181822302
 20
122.5448483417782
 30
0.0
 10
172.0651769024489
 20
122.5484118128699
 30
0.0
 10
171.5771946907629
 20
122.5708450778369
 30
0.0
 10
171.1496825371304
 20
122.6051350927138
 30
0.0
 10
170.800780982358
 20
122.6436388875005
 30
0.0
 10
170.5335263618673
 20
122.6780949154552
 30
0.0
 10
170.3805920573465
 20
122.7001777027933
 30
0.0
 10
170.319482406183
 20
122.710006414544
 30
0.0
 10
170.337065569871
 20
122.7072426721478
 30
0.0
 10
170.3373748035407
 20
122.7071940664351
 30
0.0
  0
SPLINE
  5
F9
330
1F
100
AcDbEntity
  8
0
  6
Continuous
 62
     7
370
    15
100
AcDbSpline
210
0.0
220
0.0
230
1.0
 70
     8
 71
     3
 72
    26
 73
    22
 74
     0
 42
0.00000001
 43
0.00000001
 12
1.0
 22
0.0
 32
0.0
 13
1.0
 23
0.0
 33
0.0
 40
0.0
 40
0.0
 40
0.0
 40
0.0
 40
0.2500000000000016
 40
0.2500000000000016
 40
0.3750000000000021
 40
0.3750000000000021
 40
0.4375000000000028
 40
0.4375000000000028
 40
0.4687500000000033
 40
0.4687500000000033
 40
0.5000000000000037
 40
0.5000000000000037
 40
0.5312500000000041
 40
0.5312500000000041
 40
0.5625000000000046
 40
0.5625000000000046
 40
0.6250000000000043
 40
0.6250000000000043
 40
0.7500000000000029
 40
0.7500000000000029
 40
1.0
 40
1.0
 40
1.0
 40
1.0
 10
160.0132676243031
 20
120.3332455942673
 30
0.0
 10
159.9658795148746
 20
120.1975898522442
 30
0.0
 10
159.9082382129702
 20
120.053628453915
 30
0.0
 10
159.7861904004269
 20
119.8108558806606
 30
0.0
 10
159.7401413926504
 20
119.7258162402112
 30
0.0
 10
159.6494881084847
 20
119.5854402671709
 30
0.0
 10
159.6151356081992
 20
119.5355288898321
 30
0.0
 10
159.5527004358086
 20
119.4589936249778
 30
0.0
 10
159.5294064170106
 20
119.4325891459909
 30
0.0
 10
159.4803538798841
 20
119.3849943807299
 30
0.0
 10
159.4559224302272
 20
119.365551766878
 30
0.0
 10
159.4152928346074
 20
119.3406439892099
 30
0.0
 10
159.3991305527562
 20
119.334574157899
 30
0.0
 10
159.3721485086531
 20
119.3288852863052
 30
0.0
 10
159.3613989858303
 20
119.3292757943859
 30
0.0
 10
159.3333630116732
 20
119.3354181411744
 30
0.0
 10
159.3205017796405
 20
119.3460821475924
 30
0.0
 10
159.2894989184802
 20
119.3850949379526
 30
0.0
 10
159.2786394364111
 20
119.4211469283569
 30
0.0
 10
159.2553621804731
 20
119.538826325856
 30
0.0
 10
159.2532975779151
 20
119.630156226189
 30
0.0
 10
159.2532975779151
 20
119.7233964790952
 30
0.0
  0
SPLINE
  5
FA
330
1F
100
AcDbEntity
  8
0
  6
Continuous
 62
     7
370
    15
100
AcDbSpline
210
0.0
220
0.0
230
1.0
 70
     8
 71
     3
 72
    24
 73
    20
 74
     0
 42
0.00000001
 43
0.00000001
 12
1.0
 22
0.0
 32
0.0
 13
1.0
 23
0.0
 33
0.0
 40
0.0
 40
0.0
 40
0.0
 40
0.0
 40
0.2499999999999985
 40
0.2499999999999985
 40
0.3749999999999983
 40
0.3749999999999983
 40
0.4374999999999981
 40
0.4374999999999981
 40
0.4999999999999979
 40
0.4999999999999979
 40
0.5312499999999966
 40
0.5312499999999966
 40
0.5624999999999953
 40
0.5624999999999953
 40
0.6249999999999953
 40
0.6249999999999953
 40
0.7499999999999967
 40
0.7499999999999967
 40
1.0
 40
1.0
 40
1.0
 40
1.0
 10
159.2532975779152
 20
96.39765181343304
 30
0.0
 10
159.2532975779152
 20
96.48256076710263
 30
0.0
 10
159.2560222063476
 20
96.56489046314951
 30
0.0
 10
159.2823795274655
 20
96.66730285056852
 30
0.0
 10
159.2945932457377
 20
96.69811994695291
 30
0.0
 10
159.3292038958701
 20
96.72721746302985
 30
0.0
 10
159.3435906062375
 20
96.73417510366846
 30
0.0
 10
159.3848390893399
 20
96.7330653623916
 30
0.0
 10
159.4133786392708
 20
96.72477195678285
 30
0.0
 10
159.4743013047821
 20
96.68018852292161
 30
0.0
 10
159.497367274922
 20
96.6597268096643
 30
0.0
 10
159.5412631549282
 20
96.61511419138397
 30
0.0
 10
159.5621431904884
 20
96.5912381131776
 30
0.0
 10
159.6193534537815
 20
96.52134101601558
 30
0.0
 10
159.6517000775578
 20
96.4757634272311
 30
0.0
 10
159.7378660210497
 20
96.34687993961224
 30
0.0
 10
159.7835300410897
 20
96.26704676248019
 30
0.0
 10
159.9040776045409
 20
96.04126595336785
 30
0.0
 10
159.9631376932421
 20
95.90643456839653
 30
0.0
 10
160.0132676243031
 20
95.77817942972901
 30
0.0
  0
LINE
  5
FB
330
1F
100
AcDbEntity
  8
0
  6
Continuous
 62
     7
370
    15
100
AcDbLine
 10
159.2532978551
 20
96.3976517085
 30
0.0
 11
159.2532978551
 21
119.7233967248
 31
0.0
  0
SPLINE
  5
FC
330
1F
100
AcDbEntity
  8
0
  6
Continuous
 62
     7
370
    15
100
AcDbSpline
210
0.0
220
0.0
230
1.0
 70
     8
 71
     3
 72
    10
 73
     6
 74
     0
 42
0.00000001
 43
0.00000001
 12
1.0
 22
0.0
 32
0.0
 13
1.0
 23
0.0
 33
0.0
 40
0.0
 40
0.0
 40
0.0
 40
0.0
 40
0.5
 40
0.5
 40
1.0
 40
1.0
 40
1.0
 40
1.0
 10
199.1032975779152
 20
126.8160420477973
 30
0.0
 10
199.1032975779152
 20
126.9744764906852
 30
0.0
 10
199.0411363614323
 20
127.1334971854871
 30
0.0
 10
198.8206270207606
 20
127.3635050097428
 30
0.0
 10
198.6617119178155
 20
127.4323402845595
 30
0.0
 10
198.5032975779152
 20
127.4323402845595
 30
0.0
  0
LINE
  5
FD
330
1F
100
AcDbEntity
  8
0
  6
Continuous
 62
     7
370
    15
100
AcDbLine
 10
199.1032981471
 20
123.305422603
 30
0.0
 11
199.1032981471
 21
126.8160421167
 31
0.0
  0
SPLINE
  5
FE
330
1F
100
AcDbEntity
  8
0
  6
Continuous
 62
     7
370
    15
100
AcDbSpline
210
0.0
220
0.0
230
1.0
 70
     8
 71
     3
 72
    12
 73
     8
 74
     0
 42
0.00000001
 43
0.00000001
 12
1.0
 22
0.0
 32
0.0
 13
1.0
 23
0.0
 33
0.0
 40
0.0
 40
0.0
 40
0.0
 40
0.0
 40
0.25
 40
0.25
 40
0.5
 40
0.5
 40
1.0
 40
1.0
 40
1.0
 40
1.0
 10
198.5032975779152
 20
124.0565740157319
 30
0.0
 10
198.592585936959
 20
124.0565740157319
 30
0.0
 10
198.6806447678612
 20
124.0309493831271
 30
0.0
 10
198.8332984811103
 20
123.9424060101953
 30
0.0
 10
198.8990919744523
 20
123.8795235270807
 30
0.0
 10
199.0545326211683
 20
123.6621623391471
 30
0.0
 10
199.1032975779152
 20
123.4835153291357
 30
0.0
 10
199.1032975779152
 20
123.3054221739601
 30
0.0
  0
SPLINE
  5
FF
330
1F
100
AcDbEntity
  8
0
  6
Continuous
 62
     7
370
    15
100
AcDbSpline
210
0.0
220
0.0
230
1.0
 70
     8
 71
     3
 72
     8
 73
     4
 74
     0
 42
0.00000001
 43
0.00000001
 12
1.0
 22
0.0
 32
0.0
 13
1.0
 23
0.0
 33
0.0
 40
0.0
 40
0.0
 40
0.0
 40
0.0
 40
1.0
 40
1.0
 40
1.0
 40
1.0
 10
194.1132975779152
 20
125.6588417101846
 30
0.0
 10
193.7822772468955
 20
126.2503974066423
 30
0.0
 10
193.4504959754115
 20
126.8415300708875
 30
0.0
 10
193.1181378790218
 20
127.4323402845595
 30
0.0
  0
LINE
  5
100
330
1F
100
AcDbEntity
  8
0
  6
Continuous
 62
     7
370
    15
100
AcDbLine
 10
194.1132978694
 20
121.8592528019
 30
0.0
 11
194.1132978694
 21
125.6588421527
 31
0.0
  0
SPLINE
  5
101
330
1F
100
AcDbEntity
  8
0
  6
Continuous
 62
     7
370
    15
100
AcDbSpline
210
0.0
220
0.0
230
1.0
 70
     8
 71
     3
 72
     8
 73
     4
 74
     0
 42
0.00000001
 43
0.00000001
 12
1.0
 22
0.0
 32
0.0
 13
1.0
 23
0.0
 33
0.0
 40
0.0
 40
0.0
 40
0.0
 40
0.0
 40
1.0
 40
1.0
 40
1.0
 40
1.0
 10
193.1181378790218
 20
124.0565740157319
 30
0.0
 10
193.4575609203034
 20
123.3267831542125
 30
0.0
 10
193.7900716637984
 20
122.5946147987908
 30
0.0
 10
194.1132975779151
 20
121.8592529141099
 30
0.0
  0
SPLINE
  5
102
330
1F
100
AcDbEntity
  8
0
  6
Continuous
 62
     7
370
    15
100
AcDbSpline
210
0.0
220
0.0
230
1.0
 70
    24
 71
     3
 72
    12
 73
     8
 74
     0
 42
0.00000001
 43
0.00000001
 12
1.0
 22
0.0
 32
0.0
 13
1.0
 23
0.0
 33
0.0
 40
0.0
 40
0.0
 40
0.0
 40
0.0
 40
0.5
 40
0.5
 40
0.75
 40
0.75
 40
1.0
 40
1.0
 40
1.0
 40
1.0
 10
195.9449531921652
 20
124.8451650146544
 30
0.0
 10
195.9108074438742
 20
124.8451650146544
 30
0.0
 10
195.8716142854692
 20
124.8451650146544
 30
0.0
 10
195.7937666268155
 20
124.8451650146544
 30
0.0
 10
195.7643621680302
 20
124.8451650146544
 30
0.0
 10
195.6913546467243
 20
124.8451650146544
 30
0.0
 10
195.6444493289164
 20
124.8451650146544
 30
0.0
 10
195.5932975779152
 20
124.8451650146544
 30
0.0
  0
SPLINE
  5
103
330
1F
100
AcDbEntity
  8
0
  6
Continuous
 62
     7
370
    15
100
AcDbSpline
210
0.0
220
0.0
230
1.0
 70
     8
 71
     3
 72
    10
 73
     6
 74
     0
 42
0.00000001
 43
0.00000001
 12
1.0
 22
0.0
 32
0.0
 13
1.0
 23
0.0
 33
0.0
 40
0.0
 40
0.0
 40
0.0
 40
0.0
 40
0.5
 40
0.5
 40
1.0
 40
1.0
 40
1.0
 40
1.0
 10
196.1932975779152
 20
125.3477689864731
 30
0.0
 10
196.193297577915
 20
125.2512264389966
 30
0.0
 10
196.1713569553336
 20
125.1547652387265
 30
0.0
 10
196.0852267699417
 20
124.9793626444822
 30
0.0
 10
196.0221444627981
 20
124.9029471121152
 30
0.0
 10
195.9449531921652
 20
124.8451650146544
 30
0.0
  0
SPLINE
  5
104
330
1F
100
AcDbEntity
  8
0
  6
Continuous
 62
     7
370
    15
100
AcDbSpline
210
0.0
220
0.0
230
1.0
 70
     8
 71
     3
 72
    12
 73
     8
 74
     0
 42
0.00000001
 43
0.00000001
 12
1.0
 22
0.0
 32
0.0
 13
1.0
 23
0.0
 33
0.0
 40
0.0
 40
0.0
 40
0.0
 40
0.0
 40
0.25
 40
0.25
 40
0.5
 40
0.5
 40
1.0
 40
1.0
 40
1.0
 40
1.0
 10
195.5932975779152
 20
120.6521758748057
 30
0.0
 10
195.685839544637
 20
120.6521758748057
 30
0.0
 10
195.7780489217814
 20
120.6832092217219
 30
0.0
 10
195.9331858821583
 20
120.7860200875467
 30
0.0
 10
195.9969957796193
 20
120.8561929018924
 30
0.0
 10
196.1461222154204
 20
121.0891053854204
 30
0.0
 10
196.1932975779152
 20
121.2759007474903
 30
0.0
 10
196.1932975779152
 20
121.4610121949091
 30
0.0
  0
SPLINE
  5
105
330
1F
100
AcDbEntity
  8
0
  6
Continuous
 62
     7
370
    15
100
AcDbSpline
210
0.0
220
0.0
230
1.0
 70
     8
 71
     3
 72
     8
 73
     4
 74
     0
 42
0.00000001
 43
0.00000001
 12
1.0
 22
0.0
 32
0.0
 13
1.0
 23
0.0
 33
0.0
 40
0.0
 40
0.0
 40
0.0
 40
0.0
 40
1.0
 40
1.0
 40
1.0
 40
1.0
 10
197.1884572768086
 20
127.4323402845595
 30
0.0
 10
196.856099180419
 20
126.8415300708875
 30
0.0
 10
196.5243179089349
 20
126.2503974066423
 30
0.0
 10
196.1932975779152
 20
125.6588417101846
 30
0.0
  0
LINE
  5
106
330
1F
100
AcDbEntity
  8
0
  6
Continuous
 62
     7
370
    15
100
AcDbLine
 10
197.1884579555
 20
124.0565743063
 30
0.0
 11
197.1884579555
 21
127.4323411051
 31
0.0
  0
SPLINE
  5
107
330
1F
100
AcDbEntity
  8
0
  6
Continuous
 62
     7
370
    15
100
AcDbSpline
210
0.0
220
0.0
230
1.0
 70
     8
 71
     3
 72
     8
 73
     4
 74
     0
 42
0.00000001
 43
0.00000001
 12
1.0
 22
0.0
 32
0.0
 13
1.0
 23
0.0
 33
0.0
 40
0.0
 40
0.0
 40
0.0
 40
0.0
 40
1.0
 40
1.0
 40
1.0
 40
1.0
 10
196.1932975779152
 20
121.8592529141098
 30
0.0
 10
196.5168551361701
 20
122.5953693127324
 30
0.0
 10
196.8493494563871
 20
123.327460908151
 30
0.0
 10
197.1884572768086
 20
124.0565740157319
 30
0.0
  0
LINE
  5
108
330
1F
100
AcDbEntity
  8
0
  6
Continuous
 62
     7
370
    15
100
AcDbLine
 10
196.1932969437
 20
121.8592528019
 30
0.0
 11
196.1932969437
 21
125.6588421527
 31
0.0
  0
SPLINE
  5
109
330
1F
100
AcDbEntity
  8
0
  6
Continuous
 62
     7
370
    15
100
AcDbSpline
210
0.0
220
0.0
230
1.0
 70
     8
 71
     3
 72
    10
 73
     6
 74
     0
 42
0.00000001
 43
0.00000001
 12
1.0
 22
0.0
 32
0.0
 13
1.0
 23
0.0
 33
0.0
 40
0.0
 40
0.0
 40
0.0
 40
0.0
 40
0.5
 40
0.5
 40
1.0
 40
1.0
 40
1.0
 40
1.0
 10
194.3616419636652
 20
124.8451650146544
 30
0.0
 10
194.2843172317909
 20
124.9030470155161
 30
0.0
 10
194.2209374062544
 20
124.98012036015
 30
0.0
 10
194.1353669574814
 20
125.1546234183438
 30
0.0
 10
194.1132975779152
 20
125.2514286218243
 30
0.0
 10
194.1132975779152
 20
125.3477689864743
 30
0.0
  0
SPLINE
  5
10A
330
1F
100
AcDbEntity
  8
0
  6
Continuous
 62
     7
370
    15
100
AcDbSpline
210
0.0
220
0.0
230
1.0
 70
    24
 71
     3
 72
    12
 73
     8
 74
     0
 42
0.00000001
 43
0.00000001
 12
1.0
 22
0.0
 32
0.0
 13
1.0
 23
0.0
 33
0.0
 40
0.0
 40
0.0
 40
0.0
 40
0.0
 40
0.2499999999999989
 40
0.2499999999999989
 40
0.4999999999999978
 40
0.4999999999999978
 40
1.0
 40
1.0
 40
1.0
 40
1.0
 10
194.7132975779152
 20
124.8451650146544
 30
0.0
 10
194.6617053776406
 20
124.8451650146544
 30
0.0
 10
194.614800368846
 20
124.8451650146544
 30
0.0
 10
194.5414666429696
 20
124.8451650146544
 30
0.0
 10
194.5122368135206
 20
124.8451650146544
 30
0.0
 10
194.4340040334576
 20
124.8451650146544
 30
0.0
 10
194.39556987555
 20
124.8451650146544
 30
0.0
 10
194.3616419636652
 20
124.8451650146544
 30
0.0
  0
SPLINE
  5
10B
330
1F
100
AcDbEntity
  8
0
  6
Continuous
 62
     7
370
    15
100
AcDbSpline
210
0.0
220
0.0
230
1.0
 70
     8
 71
     3
 72
    12
 73
     8
 74
     0
 42
0.00000001
 43
0.00000001
 12
1.0
 22
0.0
 32
0.0
 13
1.0
 23
0.0
 33
0.0
 40
0.0
 40
0.0
 40
0.0
 40
0.0
 40
0.5000000000000032
 40
0.5000000000000032
 40
0.7500000000000016
 40
0.7500000000000016
 40
1.0
 40
1.0
 40
1.0
 40
1.0
 10
194.1132975779152
 20
121.4610121949091
 30
0.0
 10
194.1132975779152
 20
121.2752461183311
 30
0.0
 10
194.1598433231718
 20
121.0900728063408
 30
0.0
 10
194.3099442715615
 20
120.8556622029973
 30
0.0
 10
194.3738810878556
 20
120.7855663055851
 30
0.0
 10
194.5292488195852
 20
120.6828857877811
 30
0.0
 10
194.6204921025031
 20
120.6521758748056
 30
0.0
 10
194.7132975779152
 20
120.6521758748056
 30
0.0
  0
LINE
  5
10C
330
1F
100
AcDbEntity
  8
0
  6
Continuous
 62
     7
370
    15
100
AcDbLine
 10
194.7132977815
 20
120.6521758575
 30
0.0
 11
195.593297963
 21
120.6521758575
 31
0.0
  0
LINE
  5
10D
330
1F
100
AcDbEntity
  8
0
  6
Continuous
 62
     7
370
    15
100
AcDbLine
 10
197.1884579555
 20
124.0565743063
 30
0.0
 11
198.5032973037
 21
124.0565743063
 31
0.0
  0
LINE
  5
10E
330
1F
100
AcDbEntity
  8
0
  6
Continuous
 62
     7
370
    15
100
AcDbLine
 10
199.1032981471
 20
123.305422603
 30
0.0
 11
199.1032981471
 21
120.8225678418
 31
0.0
  0
LINE
  5
10F
330
1F
100
AcDbEntity
  8
0
  6
Continuous
 62
     7
370
    15
100
AcDbLine
 10
194.1132978694
 20
121.8592528019
 30
0.0
 11
194.1132978694
 21
121.4610118184
 31
0.0
  0
LINE
  5
110
330
1F
100
AcDbEntity
  8
0
  6
Continuous
 62
     7
370
    15
100
AcDbLine
 10
196.1932969437
 20
121.4610118184
 30
0.0
 11
196.1932969437
 21
121.8592528019
 31
0.0
  0
LINE
  5
111
330
1F
100
AcDbEntity
  8
0
  6
Continuous
 62
     7
370
    15
100
AcDbLine
 10
195.593297963
 20
124.8451642458
 30
0.0
 11
194.7132977815
 21
124.8451642458
 31
0.0
  0
LINE
  5
112
330
1F
100
AcDbEntity
  8
0
  6
Continuous
 62
     7
370
    15
100
AcDbLine
 10
198.5032973037
 20
127.4323411051
 30
0.0
 11
197.1884579555
 21
127.4323411051
 31
0.0
  0
LINE
  5
113
330
1F
100
AcDbEntity
  8
0
  6
Continuous
 62
     7
370
    15
100
AcDbLine
 10
159.2532978551
 20
96.1266927187
 30
0.0
 11
159.2532978551
 21
96.3976517085
 31
0.0
  0
LINE
  5
114
330
1F
100
AcDbEntity
  8
0
  6
Continuous
 62
     7
370
    15
100
AcDbLine
 10
159.2532978551
 20
119.8190789435
 30
0.0
 11
159.2532978551
 21
119.7233967248
 31
0.0
  0
LINE
  5
115
330
1F
100
AcDbEntity
  8
0
  6
Continuous
 62
     7
370
    15
100
AcDbLine
 10
160.2032971726
 20
120.8251653005
 30
0.0
 11
160.2032971726
 21
120.810745633
 31
0.0
  0
LINE
  5
116
330
1F
100
AcDbEntity
  8
0
  6
Continuous
 62
     7
370
    15
100
AcDbLine
 10
159.2532978551
 20
119.8751650516
 30
0.0
 11
159.2532978551
 21
119.8190789435
 31
0.0
  0
LINE
  5
117
330
1F
100
AcDbEntity
  8
0
  6
Continuous
 62
     7
370
    15
100
AcDbLine
 10
160.2032971726
 20
95.1241649453
 30
0.0
 11
160.2032971726
 21
95.2146298949
 31
0.0
  0
LINE
  5
118
330
1F
100
AcDbEntity
  8
0
  6
Continuous
 62
     7
370
    15
100
AcDbLine
 10
159.2532978551
 20
96.0741651941
 30
0.0
 11
159.2532978551
 21
96.1266927187
 31
0.0
  0
SPLINE
  5
119
330
1F
100
AcDbEntity
  8
0
  6
Continuous
 62
     7
370
    15
100
AcDbSpline
210
0.0
220
0.0
230
1.0
 70
     8
 71
     3
 72
    10
 73
     6
 74
     0
 42
0.00000001
 43
0.00000001
 12
1.0
 22
0.0
 32
0.0
 13
1.0
 23
0.0
 33
0.0
 40
0.0
 40
0.0
 40
0.0
 40
0.0
 40
0.5
 40
0.5
 40
1.0
 40
1.0
 40
1.0
 40
1.0
 10
214.3518964162253
 20
125.0946945708243
 30
0.0
 10
214.2952007616169
 20
124.8800071532734
 30
0.0
 10
214.1704918873731
 20
124.6894599714703
 30
0.0
 10
213.8245535149303
 20
124.4156348308081
 30
0.0
 10
213.6083584975371
 20
124.3376702329714
 30
0.0
 10
213.3859705899362
 20
124.3358521379805
 30
0.0
  0
LINE
  5
11A
330
1F
100
AcDbEntity
  8
0
  6
Continuous
 62
     7
370
    15
100
AcDbLine
 10
214.351896678
 20
125.0946953658
 30
0.0
 11
214.490168278
 21
125.6180017952
 31
0.0
  0
ELLIPSE
  5
11B
330
1F
100
AcDbEntity
  8
0
  6
Continuous
 62
     7
370
    15
100
AcDbEllipse
 10
213.1196055802
 20
136.5846607013
 30
0.0
 11
-6.253262676623877
 21
9.146302074812949
 31
0.0
210
0.0
220
0.0
230
1.0
 40
0.9882480265
 41
2.661398977935852
 42
3.02291751386204
  0
LINE
  5
11C
330
1F
100
AcDbEntity
  8
0
  6
Continuous
 62
     7
370
    15
100
AcDbLine
 10
218.2587203727
 20
126.7710257087
 30
0.0
 11
219.9070979999
 21
127.6284031335
 31
0.0
  0
LINE
  5
11D
330
1F
100
AcDbEntity
  8
0
  6
Continuous
 62
     7
370
    15
100
AcDbLine
 10
212.9507255898
 20
114.1240590949
 30
0.0
 11
212.3433244572
 21
112.9502028924
 31
0.0
  0
ARC
  5
11E
330
1F
100
AcDbEntity
  8
0
  6
Continuous
 62
     7
370
    15
100
AcDbCircle
 10
214.1106909061
 20
112.0360697989
 30
0.0
 40
1.989779755970379
100
AcDbArc
 50
152.6506860369
 51
332.3088059624
  0
LINE
  5
11F
330
1F
100
AcDbEntity
  8
0
  6
Continuous
 62
     7
370
    15
100
AcDbLine
 10
215.8725713537
 20
111.1114072845
 30
0.0
 11
218.5995918856
 21
116.3816129554
 31
0.0
  0
LINE
  5
120
330
1F
100
AcDbEntity
  8
0
  6
Continuous
 62
     7
370
    15
100
AcDbLine
 10
226.8586983131
 20
120.6774528835
 30
0.0
 11
226.5299786971
 21
120.0421726097
 31
0.0
  0
ELLIPSE
  5
121
330
1F
100
AcDbEntity
  8
0
  6
Continuous
 62
     7
370
    15
100
AcDbEllipse
 10
236.3742685474
 20
114.9046320582
 30
0.0
 11
9.148699490328143
 21
-6.297498731701708
 31
0.0
210
0.0
220
0.0
230
1.0
 40
0.9858180188
 41
3.265193610787215
 42
3.751144268652114
  0
LINE
  5
122
330
1F
100
AcDbEntity
  8
0
  6
Continuous
 62
     7
370
    15
100
AcDbLine
 10
225.3190209315
 20
114.9046322096
 30
0.0
 11
225.3721137689
 21
110.9451650407
 31
0.0
  0
LINE
  5
123
330
1F
100
AcDbEntity
  8
0
  6
Continuous
 62
     7
370
    15
100
AcDbLine
 10
225.3721137689
 20
110.9451650407
 30
0.0
 11
212.2923848377
 21
91.997679672
 31
0.0
  0
ARC
  5
124
330
1F
100
AcDbEntity
  8
0
  6
Continuous
 62
     7
370
    15
100
AcDbCircle
 10
213.9738047938
 20
111.8993648331
 30
0.0
 40
1.749228549548027
100
AcDbArc
 50
152.6625381182
 51
332.2969278106
  0
LINE
  5
125
330
1F
100
AcDbEntity
  8
0
  6
Continuous
 62
     7
370
    15
100
AcDbLine
 10
213.0172220216
 20
113.8569748726
 30
0.0
 11
212.4199350522
 21
112.7026638713
 31
0.0
  0
LINE
  5
126
330
1F
100
AcDbEntity
  8
0
  6
Continuous
 62
     7
370
    15
100
AcDbLine
 10
218.1385015295
 20
116.1417834226
 30
0.0
 11
215.5225170003
 21
111.0861668129
 31
0.0
  0
LINE
  5
127
330
1F
100
AcDbEntity
  8
0
  6
Continuous
 62
     7
370
    15
100
AcDbLine
 10
214.3904906855
 20
125.2974480156
 30
0.0
 11
214.490168278
 21
125.6180017952
 31
0.0
  0
LINE
  5
128
330
1F
100
AcDbEntity
  8
0
  6
Continuous
 62
     7
370
    15
100
AcDbLine
 10
215.1168626891
 20
110.5715894371
 30
0.0
 11
215.3481249855
 21
110.9122004125
 31
0.0
  0
LINE
  5
129
330
1F
100
AcDbEntity
  8
0
  6
Continuous
 62
     7
370
    15
100
AcDbLine
 10
215.3481249855
 20
110.9122004125
 30
0.0
 11
218.0230585085
 21
116.0817363996
 31
0.0
  0
LINE
  5
12A
330
1F
100
AcDbEntity
  8
0
  6
HIDDEN
 62
     7
370
     0
100
AcDbLine
 10
187.1032980428
 20
87.9451654617
 30
0.0
 11
187.1032980428
 21
87.970180786
 31
0.0
  0
SPLINE
  5
12B
330
1F
100
AcDbEntity
  8
0
  6
HIDDEN
 62
     7
370
     0
100
AcDbSpline
210
0.0
220
0.0
230
1.0
 70
     8
 71
     3
 72
    22
 73
    18
 74
     0
 42
0.00000001
 43
0.00000001
 12
1.0
 22
0.0
 32
0.0
 13
1.0
 23
0.0
 33
0.0
 40
0.0
 40
0.0
 40
0.0
 40
0.0
 40
0.1250000000000001
 40
0.1250000000000001
 40
0.2500000000000002
 40
0.2500000000000002
 40
0.3750000000000003
 40
0.3750000000000003
 40
0.5000000000000004
 40
0.5000000000000004
 40
0.6250000000000003
 40
0.6250000000000003
 40
0.7500000000000002
 40
0.7500000000000002
 40
0.8750000000000001
 40
0.8750000000000001
 40
1.0
 40
1.0
 40
1.0
 40
1.0
 10
187.1032975779152
 20
87.97018065921624
 30
0.0
 10
187.1032975779152
 20
87.98513625182558
 30
0.0
 10
187.1327459990454
 20
88.00652444847194
 30
0.0
 10
187.2475838652692
 20
88.06090269508725
 30
0.0
 10
187.334396703807
 20
88.09434885869562
 30
0.0
 10
187.560044076103
 20
88.16911313409337
 30
0.0
 10
187.6978812177671
 20
88.2102116230543
 30
0.0
 10
188.0230821776715
 20
88.29676455201808
 30
0.0
 10
188.2117844575795
 20
88.34241545111595
 30
0.0
 10
188.6241161778117
 20
88.43069500628081
 30
0.0
 10
188.8492631041636
 20
88.47379635628806
 30
0.0
 10
189.3392389555209
 20
88.55400053614332
 30
0.0
 10
189.5999465976428
 20
88.59029538353289
 30
0.0
 10
190.1408039783584
 20
88.65047460268258
 30
0.0
 10
190.4244946044125
 20
88.6747619401137
 30
0.0
 10
191.0085769753419
 20
88.70776003442505
 30
0.0
 10
191.3041445303338
 20
88.716280491625
 30
0.0
 10
191.6032975779152
 20
88.71628049162501
 30
0.0
  0
LINE
  5
12C
330
1F
100
AcDbEntity
  8
0
  6
HIDDEN
 62
     7
370
     0
100
AcDbLine
 10
191.6032978491
 20
88.7162800644
 30
0.0
 11
193.1181377889
 21
88.7162800644
 31
0.0
  0
LINE
  5
12D
330
1F
100
AcDbEntity
  8
0
  6
HIDDEN
 62
     7
370
     0
100
AcDbLine
 10
193.1181377889
 20
127.4323411051
 30
0.0
 11
193.1181377889
 21
88.7162800644
 31
0.0
  0
LINE
  5
12E
330
1F
100
AcDbEntity
  8
0
  6
HIDDEN
 62
     7
370
     0
100
AcDbLine
 10
191.6032978491
 20
127.4323411051
 30
0.0
 11
193.1181377889
 21
127.4323411051
 31
0.0
  0
SPLINE
  5
12F
330
1F
100
AcDbEntity
  8
0
  6
HIDDEN
 62
     7
370
     0
100
AcDbSpline
210
0.0
220
0.0
230
1.0
 70
     8
 71
     3
 72
    17
 73
    13
 74
     0
 42
0.00000001
 43
0.00000001
 12
1.0
 22
0.0
 32
0.0
 13
1.0
 23
0.0
 33
0.0
 40
0.0
 40
0.0
 40
0.0
 40
0.0
 40
0.0659340435969183
 40
0.1690661462905225
 40
0.2751488405985667
 40
0.379123145219446
 40
0.485986792297652
 40
0.5922065347858924
 40
0.7014821075588975
 40
0.8079660909051144
 40
0.9176704333646215
 40
1.0
 40
1.0
 40
1.0
 40
1.0
 10
187.1188250527954
 20
127.9416776959002
 30
0.0
 10
187.1173885075617
 20
127.9419970651249
 30
0.0
 10
187.1137049602864
 20
127.9428159823504
 30
0.0
 10
187.2475821810681
 20
127.9128889263246
 30
0.0
 10
187.4973002591453
 20
127.8594614468231
 30
0.0
 10
187.8666937550636
 20
127.7859341599354
 30
0.0
 10
188.3362790667807
 20
127.7020815682588
 30
0.0
 10
188.9053265618436
 20
127.6151421120804
 30
0.0
 10
189.5509645897733
 20
127.536117121982
 30
0.0
 10
190.2637774418049
 20
127.4740640268967
 30
0.0
 10
190.9551208719239
 20
127.4380814115168
 30
0.0
 10
191.4087962687101
 20
127.4340636264552
 30
0.0
 10
191.6032978491163
 20
127.4323411051333
 30
0.0
  0
SPLINE
  5
130
330
1F
100
AcDbEntity
  8
0
  6
HIDDEN
 62
     7
370
     0
100
AcDbSpline
210
0.0
220
0.0
230
1.0
 70
     8
 71
     3
 72
    76
 73
    72
 74
     0
 42
0.00000001
 43
0.00000001
 12
1.0
 22
0.0
 32
0.0
 13
1.0
 23
0.0
 33
0.0
 40
-0.03125
 40
-0.03125
 40
0.0
 40
0.0
 40
0.03125
 40
0.03125
 40
0.0624999999999999
 40
0.0624999999999999
 40
0.0937499999999999
 40
0.0937499999999999
 40
0.1249999999999999
 40
0.1249999999999999
 40
0.1562499999999999
 40
0.1562499999999999
 40
0.1874999999999998
 40
0.1874999999999998
 40
0.2031249999999998
 40
0.2031249999999998
 40
0.2187499999999998
 40
0.2187499999999998
 40
0.2499999999999998
 40
0.2499999999999998
 40
0.2812499999999998
 40
0.2812499999999998
 40
0.3124999999999999
 40
0.3124999999999999
 40
0.3437499999999999
 40
0.3437499999999999
 40
0.3749999999999999
 40
0.3749999999999999
 40
0.4062499999999999
 40
0.4062499999999999
 40
0.4374999999999999
 40
0.4374999999999999
 40
0.46875
 40
0.46875
 40
0.484375
 40
0.484375
 40
0.5
 40
0.5
 40
0.5312500000000001
 40
0.5312500000000001
 40
0.5625000000000001
 40
0.5625000000000001
 40
0.5937500000000001
 40
0.5937500000000001
 40
0.6250000000000001
 40
0.6250000000000001
 40
0.6562500000000001
 40
0.6562500000000001
 40
0.6875000000000002
 40
0.6875000000000002
 40
0.7187500000000003
 40
0.7187500000000003
 40
0.7343750000000003
 40
0.7343750000000003
 40
0.7500000000000002
 40
0.7500000000000002
 40
0.7812500000000002
 40
0.7812500000000002
 40
0.8125000000000002
 40
0.8125000000000002
 40
0.8437500000000002
 40
0.8437500000000002
 40
0.8750000000000001
 40
0.8750000000000001
 40
0.9062500000000001
 40
0.9062500000000001
 40
0.9375000000000001
 40
0.9375000000000001
 40
0.96875
 40
0.96875
 40
1.0
 40
1.0
 40
1.03125
 40
1.03125
 10
181.1532975779152
 20
108.2768996587002
 30
0.0
 10
181.1532975779152
 20
107.6134303706087
 30
0.0
 10
181.1859825136332
 20
107.2874959080959
 30
0.0
 10
181.313806755644
 20
106.6466750521531
 30
0.0
 10
181.4105850288996
 20
106.3283896101107
 30
0.0
 10
181.6620377028841
 20
105.7234832718607
 30
0.0
 10
181.8157178835789
 20
105.4367999551369
 30
0.0
 10
182.178550406893
 20
104.894283534987
 30
0.0
 10
182.38881336405
 20
104.6384904463929
 30
0.0
 10
182.8481170444724
 20
104.1793689848384
 30
0.0
 10
183.0989579038481
 20
103.9728929272094
 30
0.0
 10
183.6449892963138
 20
103.6073860961611
 30
0.0
 10
183.9338604090133
 20
103.4529498915425
 30
0.0
 10
184.3846098651628
 20
103.2656117999219
 30
0.0
 10
184.5380961808357
 20
103.2103997795611
 30
0.0
 10
184.8517250844003
 20
103.1147627095973
 30
0.0
 10
185.0128292685334
 20
103.0741842446088
 30
0.0
 10
185.4973261365356
 20
102.9774504520483
 30
0.0
 10
185.8226072061514
 20
102.9453727298098
 30
0.0
 10
186.4776765790776
 20
102.9449592911692
 30
0.0
 10
186.8104979117118
 20
102.9777377174468
 30
0.0
 10
187.4528065084375
 20
103.1058961885528
 30
0.0
 10
187.7651279898838
 20
103.2006999828979
 30
0.0
 10
188.3721073044369
 20
103.4524120599506
 30
0.0
 10
188.6626673229392
 20
103.6082721850591
 30
0.0
 10
189.2028568571461
 20
103.9695186351214
 30
0.0
 10
189.4568616070935
 20
104.1777081491383
 30
0.0
 10
189.9200856189701
 20
104.6408383991136
 30
0.0
 10
190.1260522998371
 20
104.8918086162829
 30
0.0
 10
190.4881062065328
 20
105.4321589403897
 30
0.0
 10
190.6452521329936
 20
105.7250054783298
 30
0.0
 10
190.8959878469142
 20
106.3284853605593
 30
0.0
 10
190.9911577378252
 20
106.6402062445297
 30
0.0
 10
191.0879882204966
 20
107.123106414759
 30
0.0
 10
191.1126134676869
 20
107.2876204825852
 30
0.0
 10
191.1451561718739
 20
107.6157311303675
 30
0.0
 10
191.153227939752
 20
107.7795202892904
 30
0.0
 10
191.1534355115849
 20
108.2701078362562
 30
0.0
 10
191.1218001927957
 20
108.5961335543912
 30
0.0
 10
190.9924597985613
 20
109.2460444387647
 30
0.0
 10
190.8969599448681
 20
109.5588494496445
 30
0.0
 10
190.6472197869527
 20
110.1612366034111
 30
0.0
 10
190.4907592905257
 20
110.4537600040065
 30
0.0
 10
190.12765578655
 20
110.9965744854435
 30
0.0
 10
189.9217297363204
 20
111.2474673777247
 30
0.0
 10
189.4610150525665
 20
111.7088449874376
 30
0.0
 10
189.2052315739783
 20
111.9189886961361
 30
0.0
 10
188.665258404521
 20
112.2805575659037
 30
0.0
 10
188.3786776919145
 20
112.4347260959048
 30
0.0
 10
187.7705390071918
 20
112.6878441639847
 30
0.0
 10
187.4557989724537
 20
112.7835523276052
 30
0.0
 10
186.9758241651201
 20
112.8797445744108
 30
0.0
 10
186.8140995166069
 20
112.9040297897767
 30
0.0
 10
186.4871012012313
 20
112.936715294997
 30
0.0
 10
186.3208494002997
 20
112.9450776474685
 30
0.0
 10
185.8260772577891
 20
112.945337677466
 30
0.0
 10
185.5006376172355
 20
112.9131862246552
 30
0.0
 10
184.8583495494508
 20
112.7856514954607
 30
0.0
 10
184.5391829895058
 20
112.6887120649252
 30
0.0
 10
183.9360069461351
 20
112.4385186371583
 30
0.0
 10
183.6488744349066
 20
112.2851400427361
 30
0.0
 10
183.103530144309
 20
111.9208960322819
 30
0.0
 10
182.8497467009011
 20
111.7123706816963
 30
0.0
 10
182.3905538621234
 20
111.25379715862
 30
0.0
 10
182.1816939346911
 20
111.0003087291141
 30
0.0
 10
181.8166818121773
 20
110.4554045082539
 30
0.0
 10
181.663054783424
 20
110.1686719059638
 30
0.0
 10
181.4123642695565
 20
109.5668353309874
 30
0.0
 10
181.314918358903
 20
109.2482625571683
 30
0.0
 10
181.1859916493041
 20
108.6038367719509
 30
0.0
 10
181.1532975779152
 20
108.2768996587002
 30
0.0
 10
181.1532975779152
 20
107.6134303706087
 30
0.0
  0
LINE
  5
131
330
1F
100
AcDbEntity
  8
0
  6
HIDDEN
 62
     7
370
     0
100
AcDbLine
 10
179.1532975779
 20
88.2451649521
 30
0.0
 11
179.1532975779
 21
127.6451650772
 31
0.0
  0
SPLINE
  5
132
330
1F
100
AcDbEntity
  8
0
  6
HIDDEN
 62
     7
370
     0
100
AcDbSpline
210
0.0
220
0.0
230
1.0
 70
     8
 71
     3
 72
    10
 73
     6
 74
     0
 42
0.00000001
 43
0.00000001
 12
1.0
 22
0.0
 32
0.0
 13
1.0
 23
0.0
 33
0.0
 40
0.0
 40
0.0
 40
0.0
 40
0.0
 40
0.5
 40
0.5
 40
1.0
 40
1.0
 40
1.0
 40
1.0
 10
194.1485199784966
 20
91.04516501465443
 30
0.0
 10
194.1368078615334
 20
91.01082167746044
 30
0.0
 10
194.1280097916614
 20
90.97572913972222
 30
0.0
 10
194.1161962338893
 20
90.90405736433149
 30
0.0
 10
194.1132975779152
 20
90.86811370996622
 30
0.0
 10
194.1132975779152
 20
90.83228609262613
 30
0.0
  0
LINE
  5
133
330
1F
100
AcDbEntity
  8
0
  6
HIDDEN
 62
     7
370
     0
100
AcDbLine
 10
194.1132978694
 20
90.8322859321
 30
0.0
 11
194.1132978694
 21
119.7951653738
 31
0.0
  0
SPLINE
  5
134
330
1F
100
AcDbEntity
  8
0
  6
HIDDEN
 62
     7
370
     0
100
AcDbSpline
210
0.0
220
0.0
230
1.0
 70
     8
 71
     3
 72
    10
 73
     6
 74
     0
 42
0.00000001
 43
0.00000001
 12
1.0
 22
0.0
 32
0.0
 13
1.0
 23
0.0
 33
0.0
 40
0.0
 40
0.0
 40
0.0
 40
0.0
 40
0.5
 40
0.5
 40
1.0
 40
1.0
 40
1.0
 40
1.0
 10
196.1932975779152
 20
90.83228609262613
 30
0.0
 10
196.1932975779152
 20
90.86850858206675
 30
0.0
 10
196.1903278486178
 20
90.90470177932522
 30
0.0
 10
196.1784488662699
 20
90.97634027073987
 30
0.0
 10
196.1696536384293
 20
91.01121359538146
 30
0.0
 10
196.1580751773341
 20
91.04516501465376
 30
0.0
  0
LINE
  5
135
330
1F
100
AcDbEntity
  8
0
  6
HIDDEN
 62
     7
370
     0
100
AcDbLine
 10
196.1932969437
 20
90.8322859321
 30
0.0
 11
196.1932969437
 21
119.7951653738
 31
0.0
  0
SPLINE
  5
136
330
1F
100
AcDbEntity
  8
0
  6
HIDDEN
 62
     7
370
     0
100
AcDbSpline
210
0.0
220
0.0
230
1.0
 70
     8
 71
     3
 72
     9
 73
     5
 74
     0
 42
0.00000001
 43
0.00000001
 12
1.0
 22
0.0
 32
0.0
 13
1.0
 23
0.0
 33
0.0
 40
0.0
 40
0.0
 40
0.0
 40
0.0
 40
0.5
 40
1.0
 40
1.0
 40
1.0
 40
1.0
 10
199.1033597010385
 20
124.8451650146544
 30
0.0
 10
199.1033389883352
 20
124.8470878829883
 30
0.0
 10
199.1033079270168
 20
124.8509331719772
 30
0.0
 10
199.1032975779152
 20
124.8547775662977
 30
0.0
 10
199.1032975779152
 20
124.8566995399422
 30
0.0
  0
SPLINE
  5
137
330
1F
100
AcDbEntity
  8
0
  6
HIDDEN
 62
     7
370
     0
100
AcDbSpline
210
0.0
220
0.0
230
1.0
 70
    24
 71
     3
 72
    10
 73
     6
 74
     0
 42
0.00000001
 43
0.00000001
 12
1.0
 22
0.0
 32
0.0
 13
1.0
 23
0.0
 33
0.0
 40
0.0
 40
0.0
 40
0.0
 40
0.0
 40
0.4999999999999998
 40
0.4999999999999998
 40
1.0
 40
1.0
 40
1.0
 40
1.0
 10
199.1033597010385
 20
124.8451650146544
 30
0.0
 10
199.1055130215182
 20
124.8451650146544
 30
0.0
 10
199.1607298792536
 20
124.8451650146544
 30
0.0
 10
199.2606749026348
 20
124.8451650146544
 30
0.0
 10
199.3032967178985
 20
124.8451650146544
 30
0.0
 10
199.3032975779004
 20
124.8451650146544
 30
0.0
  0
SPLINE
  5
138
330
1F
100
AcDbEntity
  8
0
  6
HIDDEN
 62
     7
370
     0
100
AcDbSpline
210
0.0
220
0.0
230
1.0
 70
     8
 71
     3
 72
     9
 73
     5
 74
     0
 42
0.00000001
 43
0.00000001
 12
1.0
 22
0.0
 32
0.0
 13
1.0
 23
0.0
 33
0.0
 40
0.0
 40
0.0
 40
0.0
 40
0.0
 40
0.5
 40
1.0
 40
1.0
 40
1.0
 40
1.0
 10
199.1032975779152
 20
124.8566995399422
 30
0.0
 10
199.1032975779152
 20
124.8547764154591
 30
0.0
 10
199.1033079394128
 20
124.8509308706142
 30
0.0
 10
199.1033390007287
 20
124.8470867324367
 30
0.0
 10
199.1033597010385
 20
124.8451650146544
 30
0.0
  0
LINE
  5
139
330
1F
100
AcDbEntity
  8
0
  6
HIDDEN
 62
     7
370
     0
100
AcDbLine
 10
199.1032981471
 20
124.8566996072
 30
0.0
 11
199.1032981471
 21
91.0451657836
 31
0.0
  0
SPLINE
  5
13A
330
1F
100
AcDbEntity
  8
0
  6
HIDDEN
 62
     7
370
     0
100
AcDbSpline
210
0.0
220
0.0
230
1.0
 70
    24
 71
     3
 72
    10
 73
     6
 74
     0
 42
0.00000001
 43
0.00000001
 12
1.0
 22
0.0
 32
0.0
 13
1.0
 23
0.0
 33
0.0
 40
0.0
 40
0.0
 40
0.0
 40
0.0
 40
0.5
 40
0.5
 40
1.0
 40
1.0
 40
1.0
 40
1.0
 10
199.1032975779152
 20
91.04516501465443
 30
0.0
 10
199.1032975779152
 20
91.04516501465443
 30
0.0
 10
199.1587448361011
 20
91.04516501465443
 30
0.0
 10
199.2597873704743
 20
91.04516501465443
 30
0.0
 10
199.3032967255183
 20
91.04516501465443
 30
0.0
 10
199.303297577901
 20
91.04516501465443
 30
0.0
  0
LINE
  5
13B
330
1F
100
AcDbEntity
  8
0
  6
HIDDEN
 62
     7
370
     0
100
AcDbLine
 10
199.1032981471
 20
120.8225678418
 30
0.0
 11
199.1032981471
 21
124.8566996072
 31
0.0
  0
LINE
  5
13C
330
1F
100
AcDbEntity
  8
0
  6
HIDDEN
 62
     7
370
     0
100
AcDbLine
 10
199.1032981471
 20
91.0451657836
 30
0.0
 11
199.1032981471
 21
119.7951653738
 31
0.0
  0
LINE
  5
13D
330
1F
100
AcDbEntity
  8
0
  6
HIDDEN
 62
     7
370
     0
100
AcDbLine
 10
187.1032980428
 20
119.7951653738
 30
0.0
 11
191.5969676496
 21
119.7951653738
 31
0.0
  0
SPLINE
  5
13E
330
1F
100
AcDbEntity
  8
0
  6
HIDDEN
 62
     7
370
     0
100
AcDbSpline
210
0.0
220
0.0
230
1.0
 70
     8
 71
     3
 72
    64
 73
    60
 74
     0
 42
0.00000001
 43
0.00000001
 12
1.0
 22
0.0
 32
0.0
 13
1.0
 23
0.0
 33
0.0
 40
-0.0312500000000007
 40
-0.0312500000000007
 40
0.0
 40
0.0
 40
0.0312499999999995
 40
0.0312499999999995
 40
0.062499999999999
 40
0.062499999999999
 40
0.0937499999999984
 40
0.0937499999999984
 40
0.1249999999999979
 40
0.1249999999999979
 40
0.1874999999999969
 40
0.1874999999999969
 40
0.2187499999999966
 40
0.2187499999999966
 40
0.2499999999999962
 40
0.2499999999999962
 40
0.2812499999999959
 40
0.2812499999999959
 40
0.3124999999999957
 40
0.3124999999999957
 40
0.3437499999999954
 40
0.3437499999999954
 40
0.3749999999999952
 40
0.3749999999999952
 40
0.4062499999999949
 40
0.4062499999999949
 40
0.4374999999999947
 40
0.4374999999999947
 40
0.4687499999999944
 40
0.4687499999999944
 40
0.4999999999999942
 40
0.4999999999999942
 40
0.5624999999999944
 40
0.5624999999999944
 40
0.5937499999999948
 40
0.5937499999999948
 40
0.6249999999999951
 40
0.6249999999999951
 40
0.6562499999999956
 40
0.6562499999999956
 40
0.6874999999999959
 40
0.6874999999999959
 40
0.7187499999999962
 40
0.7187499999999962
 40
0.7499999999999967
 40
0.7499999999999967
 40
0.7812499999999971
 40
0.7812499999999971
 40
0.8124999999999974
 40
0.8124999999999974
 40
0.8437499999999978
 40
0.8437499999999978
 40
0.8749999999999982
 40
0.8749999999999982
 40
0.9374999999999987
 40
0.9374999999999987
 40
0.9687499999999993
 40
0.9687499999999993
 40
1.0
 40
1.0
 40
1.03125
 40
1.03125
 10
204.2863578404829
 20
101.309139568548
 30
0.0
 10
203.9530590033684
 20
101.309139568548
 30
0.0
 10
203.7891468660482
 20
101.323959875103
 30
0.0
 10
203.4666510089359
 20
101.3825603105012
 30
0.0
 10
203.3063580854646
 20
101.4270752361035
 30
0.0
 10
203.0010881911504
 20
101.5439126493972
 30
0.0
 10
202.8564051345345
 20
101.6156692700612
 30
0.0
 10
202.5828475035493
 20
101.7861646431431
 30
0.0
 10
202.4535810448196
 20
101.8857605871141
 30
0.0
 10
202.1068536154627
 20
102.2135063681906
 30
0.0
 10
201.9213024549818
 20
102.4795956712896
 30
0.0
 10
201.7367261921823
 20
102.9136740385395
 30
0.0
 10
201.6896635846383
 20
103.0662698846714
 30
0.0
 10
201.628012355218
 20
103.3783005988692
 30
0.0
 10
201.6134466024657
 20
103.5358721039929
 30
0.0
 10
201.6161910278567
 20
103.8541355917807
 30
0.0
 10
201.6340532293725
 20
104.0162275907474
 30
0.0
 10
201.7010656662013
 20
104.330254193091
 30
0.0
 10
201.7499603296998
 20
104.4835556600732
 30
0.0
 10
201.8791790367953
 20
104.7823907948858
 30
0.0
 10
201.9592037560793
 20
104.9263248620612
 30
0.0
 10
202.1442790753322
 20
105.1937109408904
 30
0.0
 10
202.2505583421567
 20
105.3192611762947
 30
0.0
 10
202.4882107763509
 20
105.5489969202449
 30
0.0
 10
202.6167466668071
 20
105.6506747189449
 30
0.0
 10
202.8927092275893
 20
105.8281698261512
 30
0.0
 10
203.0419335729823
 20
105.9045218407325
 30
0.0
 10
203.3488876387655
 20
106.0248669848147
 30
0.0
 10
203.506965259309
 20
106.0695518285597
 30
0.0
 10
203.8322870365961
 20
106.1279728751541
 30
0.0
 10
203.9992513293329
 20
106.1412107636168
 30
0.0
 10
204.4925386134023
 20
106.1327535730071
 30
0.0
 10
204.8233810786003
 20
106.0622732817298
 30
0.0
 10
205.2776991284882
 20
105.8717778609224
 30
0.0
 10
205.4248800947574
 20
105.7931878672441
 30
0.0
 10
205.6999957901967
 20
105.6110832366388
 30
0.0
 10
205.8273643255829
 20
105.5083880593401
 30
0.0
 10
206.0617984530031
 20
105.27999885627
 30
0.0
 10
206.1695920989675
 20
105.1528700311261
 30
0.0
 10
206.3551574635698
 20
104.8851044848777
 30
0.0
 10
206.434060082836
 20
104.7437636240075
 30
0.0
 10
206.5631203498048
 20
104.4458539782462
 30
0.0
 10
206.6126411238091
 20
104.289504082614
 30
0.0
 10
206.67719682122
 20
103.9760963461502
 30
0.0
 10
206.693116759471
 20
103.8172033554588
 30
0.0
 10
206.6904591160017
 20
103.4951735414218
 30
0.0
 10
206.6719392400897
 20
103.3378038324467
 30
0.0
 10
206.6021488765534
 20
103.0299270857963
 30
0.0
 10
206.549965395998
 20
102.8778396353646
 30
0.0
 10
206.4162026188071
 20
102.5913093137132
 30
0.0
 10
206.33492311572
 20
102.4562437999748
 30
0.0
 10
206.1440575235727
 20
102.2018571946115
 30
0.0
 10
206.0347320809239
 20
102.0835073954802
 30
0.0
 10
205.6780129515699
 20
101.7655670585365
 30
0.0
 10
205.3937298321514
 20
101.5964131630396
 30
0.0
 10
204.9364388848547
 20
101.4262800241968
 30
0.0
 10
204.7762139736029
 20
101.3823919110288
 30
0.0
 10
204.450973270554
 20
101.3239582191962
 30
0.0
 10
204.2863578404829
 20
101.309139568548
 30
0.0
 10
203.9530590033684
 20
101.309139568548
 30
0.0
  0
ELLIPSE
  5
13F
330
1F
100
AcDbEntity
  8
0
  6
HIDDEN
 62
     7
370
     0
100
AcDbEllipse
 10
222.844907996
 20
107.9451650147
 30
0.0
 11
12.01699404365465
 21
16.42844719786328
 31
0.0
210
0.0
220
0.0
230
1.0
 40
0.1277329972
 41
2.285258425689415
 42
3.234755643517411
  0
LINE
  5
140
330
1F
100
AcDbEntity
  8
0
  6
HIDDEN
 62
     7
370
     0
100
AcDbLine
 10
179.1532975779
 20
91.7379636083
 30
0.0
 11
179.1532975779
 21
124.152366421
 31
0.0
  0
SPLINE
  5
141
330
1F
100
AcDbEntity
  8
0
  6
HIDDEN
 62
     7
370
     0
100
AcDbSpline
210
0.0
220
0.0
230
1.0
 70
     8
 71
     3
 72
     8
 73
     4
 74
     0
 42
0.00000001
 43
0.00000001
 12
1.0
 22
0.0
 32
0.0
 13
1.0
 23
0.0
 33
0.0
 40
0.000003532078448
 40
0.000003532078448
 40
0.000003532078448
 40
0.000003532078448
 40
0.0000638548434643
 40
0.0000638548434643
 40
0.0000638548434643
 40
0.0000638548434643
 10
160.1947814283461
 20
95.24198731511085
 30
0.0
 10
160.1973305994683
 20
95.23282611177211
 30
0.0
 10
160.2001725222501
 20
95.22370510846339
 30
0.0
 10
160.2032975779152
 20
95.21462946369503
 30
0.0
  0
SPLINE
  5
142
330
1F
100
AcDbEntity
  8
0
  6
HIDDEN
 62
     7
370
     0
100
AcDbSpline
210
0.0
220
0.0
230
1.0
 70
     8
 71
     3
 72
     8
 73
     4
 74
     0
 42
0.00000001
 43
0.00000001
 12
1.0
 22
0.0
 32
0.0
 13
1.0
 23
0.0
 33
0.0
 40
0.0000002108190109
 40
0.0000002108190109
 40
0.0000002108190109
 40
0.0000002108190109
 40
0.0001710235456397
 40
0.0001710235456397
 40
0.0001710235456397
 40
0.0001710235456397
 10
160.2032975779152
 20
95.21462946369503
 30
0.0
 10
160.257285764005
 20
95.2202596062986
 30
0.0
 10
160.3108754240809
 20
95.22655499976013
 30
0.0
 10
160.3635061431996
 20
95.23398475220327
 30
0.0
  0
SPLINE
  5
143
330
1F
100
AcDbEntity
  8
0
  6
HIDDEN
 62
     7
370
     0
100
AcDbSpline
210
0.0
220
0.0
230
1.0
 70
     8
 71
     3
 72
    10
 73
     6
 74
     0
 42
0.00000001
 43
0.00000001
 12
1.0
 22
0.0
 32
0.0
 13
1.0
 23
0.0
 33
0.0
 40
0.0
 40
0.0
 40
0.0
 40
0.0
 40
0.5
 40
0.5
 40
1.0
 40
1.0
 40
1.0
 40
1.0
 10
160.3635061431996
 20
95.2339847522033
 30
0.0
 10
161.0217641541019
 20
95.32690945752029
 30
0.0
 10
161.6991064626389
 20
95.40284457464284
 30
0.0
 10
163.0684524763199
 20
95.5416626601805
 30
0.0
 10
163.7597725571923
 20
95.60360931646697
 30
0.0
 10
164.4532975779152
 20
95.66129171610152
 30
0.0
  0
SPLINE
  5
144
330
1F
100
AcDbEntity
  8
0
  6
HIDDEN
 62
     7
370
     0
100
AcDbSpline
210
0.0
220
0.0
230
1.0
 70
     8
 71
     3
 72
    16
 73
    12
 74
     0
 42
0.00000001
 43
0.00000001
 12
1.0
 22
0.0
 32
0.0
 13
1.0
 23
0.0
 33
0.0
 40
0.0
 40
0.0
 40
0.0
 40
0.0
 40
0.0624999999999981
 40
0.0624999999999981
 40
0.1249999999999962
 40
0.1249999999999962
 40
0.2499999999999959
 40
0.2499999999999959
 40
0.4999999999999971
 40
0.4999999999999971
 40
1.0
 40
1.0
 40
1.0
 40
1.0
 10
164.4532975779152
 20
95.66129171610152
 30
0.0
 10
164.4846133772425
 20
95.66389633799359
 30
0.0
 10
164.5173277156681
 20
95.66212743753364
 30
0.0
 10
164.578634269145
 20
95.65059254308368
 30
0.0
 10
164.6071451593629
 20
95.64106556573746
 30
0.0
 10
164.6830391327192
 20
95.60755196561254
 30
0.0
 10
164.7223787177523
 20
95.57916445129268
 30
0.0
 10
164.8238144987337
 20
95.49114350108479
 30
0.0
 10
164.8686398583396
 20
95.42951084887764
 30
0.0
 10
164.9829222133048
 20
95.24612265520244
 30
0.0
 10
165.0277361211476
 20
95.12550466073758
 30
0.0
 10
165.06206237543
 20
95.01116166744647
 30
0.0
  0
SPLINE
  5
145
330
1F
100
AcDbEntity
  8
0
  6
HIDDEN
 62
     7
370
     0
100
AcDbSpline
210
0.0
220
0.0
230
1.0
 70
     8
 71
     3
 72
    10
 73
     6
 74
     0
 42
0.00000001
 43
0.00000001
 12
1.0
 22
0.0
 32
0.0
 13
1.0
 23
0.0
 33
0.0
 40
0.0
 40
0.0
 40
0.0
 40
0.0
 40
0.5
 40
0.5
 40
1.0
 40
1.0
 40
1.0
 40
1.0
 10
165.06206237543
 20
95.01116166744647
 30
0.0
 10
165.0999367783747
 20
94.88499955939383
 30
0.0
 10
165.1807278257005
 20
94.76704051841195
 30
0.0
 10
165.3058577682918
 20
94.54399453582296
 30
0.0
 10
165.3532975779152
 20
94.4391994623276
 30
0.0
 10
165.3532975779152
 20
94.3415888289302
 30
0.0
  0
LINE
  5
146
330
1F
100
AcDbEntity
  8
0
  6
HIDDEN
 62
     7
370
     0
100
AcDbLine
 10
165.3532977374
 20
94.3415885557
 30
0.0
 11
165.3532977374
 21
93.4326465938
 31
0.0
  0
LINE
  5
147
330
1F
100
AcDbEntity
  8
0
  6
HIDDEN
 62
     7
370
     0
100
AcDbLine
 10
162.8532973276
 20
122.3324326564
 30
0.0
 11
162.8532973276
 21
121.502689435
 31
0.0
  0
SPLINE
  5
148
330
1F
100
AcDbEntity
  8
0
  6
HIDDEN
 62
     7
370
     0
100
AcDbSpline
210
0.0
220
0.0
230
1.0
 70
     8
 71
     3
 72
    20
 73
    16
 74
     0
 42
0.00000001
 43
0.00000001
 12
1.0
 22
0.0
 32
0.0
 13
1.0
 23
0.0
 33
0.0
 40
0.0
 40
0.0
 40
0.0
 40
0.0
 40
0.2499999999999986
 40
0.2499999999999986
 40
0.4999999999999971
 40
0.4999999999999971
 40
0.7499999999999957
 40
0.7499999999999957
 40
0.8749999999999962
 40
0.8749999999999962
 40
0.9374999999999981
 40
0.9374999999999981
 40
0.9687499999999991
 40
0.9687499999999991
 40
1.0
 40
1.0
 40
1.0
 40
1.0
 10
162.8532975779162
 20
121.5026891364023
 30
0.0
 10
162.8532975779162
 20
121.4420797367049
 30
0.0
 10
162.8279025583392
 20
121.3762537713014
 30
0.0
 10
162.7416093725573
 20
121.2422060019547
 30
0.0
 10
162.680973393874
 20
121.1735106438129
 30
0.0
 10
162.5328715996528
 20
121.0331120921585
 30
0.0
 10
162.4461019928741
 20
120.9614085875771
 30
0.0
 10
162.2974641975449
 20
120.8552451858283
 30
0.0
 10
162.2451749806587
 20
120.8197168371968
 30
0.0
 10
162.1544111523488
 20
120.7700129066813
 30
0.0
 10
162.1220451598968
 20
120.7537519086662
 30
0.0
 10
162.0643560042306
 20
120.7346393403202
 30
0.0
 10
162.0433689763432
 20
120.7292481982387
 30
0.0
 10
161.9980799973527
 20
120.7235108298462
 30
0.0
 10
161.9750657285142
 20
120.7235335634996
 30
0.0
 10
161.9532975779146
 20
120.7259588733125
 30
0.0
  0
SPLINE
  5
149
330
1F
100
AcDbEntity
  8
0
  6
HIDDEN
 62
     7
370
     0
100
AcDbSpline
210
0.0
220
0.0
230
1.0
 70
     8
 71
     3
 72
    12
 73
     8
 74
     0
 42
0.00000001
 43
0.00000001
 12
1.0
 22
0.0
 32
0.0
 13
1.0
 23
0.0
 33
0.0
 40
0.0
 40
0.0
 40
0.0
 40
0.0
 40
0.2499999999999986
 40
0.2499999999999986
 40
0.4999999999999971
 40
0.4999999999999971
 40
1.0
 40
1.0
 40
1.0
 40
1.0
 10
161.9532975779152
 20
120.7259588733136
 30
0.0
 10
161.811255174726
 20
120.7417846014898
 30
0.0
 10
161.6671370682219
 20
120.7528057352651
 30
0.0
 10
161.3773825545494
 20
120.7713420971323
 30
0.0
 10
161.2316406511906
 20
120.7786128028681
 30
0.0
 10
160.7929604120108
 20
120.7970736531961
 30
0.0
 10
160.4985847959395
 20
120.8049525200196
 30
0.0
 10
160.2032975779152
 20
120.8107455616328
 30
0.0
  0
SPLINE
  5
14A
330
1F
100
AcDbEntity
  8
0
  6
HIDDEN
 62
     7
370
     0
100
AcDbSpline
210
0.0
220
0.0
230
1.0
 70
     8
 71
     3
 72
     8
 73
     4
 74
     0
 42
0.00000001
 43
0.00000001
 12
1.0
 22
0.0
 32
0.0
 13
1.0
 23
0.0
 33
0.0
 40
0.0
 40
0.0
 40
0.0
 40
0.0
 40
1.0
 40
1.0
 40
1.0
 40
1.0
 10
160.2032975779152
 20
120.8107455616328
 30
0.0
 10
160.1575326702259
 20
120.7492251824739
 30
0.0
 10
160.1231455485959
 20
120.6853303227245
 30
0.0
 10
160.104130294923
 20
120.6186003776808
 30
0.0
  0
ELLIPSE
  5
14B
330
1F
100
AcDbEntity
  8
0
  6
HIDDEN
 62
     7
370
     0
100
AcDbEllipse
 10
146.6471769394
 20
108.584275466
 30
0.0
 11
13.36963611134303
 21
13.36754752639483
 31
0.0
210
0.0
220
0.0
230
1.0
 40
0.1761188775
 41
5.933076931846596
 42
5.976720052691199
  0
ELLIPSE
  5
14C
330
1F
100
AcDbEntity
  8
0
  6
HIDDEN
 62
     7
370
     0
100
AcDbEllipse
 10
146.7265553701
 20
107.3058673369
 30
0.0
 11
13.37355272666625
 21
-13.37146352987013
 31
0.0
210
0.0
220
0.0
230
1.0
 40
0.1761188775
 41
0.3023035477142542
 42
0.3822730435340367
  0
LINE
  5
14D
330
1F
100
AcDbEntity
  8
0
  6
HIDDEN
 62
     7
370
     0
100
AcDbLine
 10
177.1532974829
 20
123.0488655854
 30
0.0
 11
177.1532974829
 21
92.8414644439
 31
0.0
  0
SPLINE
  5
14E
330
1F
100
AcDbEntity
  8
0
  6
HIDDEN
 62
     7
370
     0
100
AcDbSpline
210
0.0
220
0.0
230
1.0
 70
     8
 71
     3
 72
    11
 73
     7
 74
     0
 42
0.00000001
 43
0.00000001
 12
1.0
 22
0.0
 32
0.0
 13
1.0
 23
0.0
 33
0.0
 40
0.0
 40
0.0
 40
0.0
 40
0.0
 40
0.25946967059813
 40
0.3326084702733429
 40
0.6701731790694504
 40
1.0
 40
1.0
 40
1.0
 40
1.0
 10
170.8022891701436
 20
93.2464100185931
 30
0.0
 10
170.7367288743575
 20
93.23791860273728
 30
0.0
 10
170.6526885715282
 20
93.22703364330543
 30
0.0
 10
170.4758148980903
 20
93.20442551021314
 30
0.0
 10
170.3739312449562
 20
93.18783003018972
 30
0.0
 10
170.3497773764049
 20
93.18473027128618
 30
0.0
 10
170.337840464828
 20
93.18319836148622
 30
0.0
  0
SPLINE
  5
14F
330
1F
100
AcDbEntity
  8
0
  6
HIDDEN
 62
     7
370
     0
100
AcDbSpline
210
0.0
220
0.0
230
1.0
 70
     8
 71
     3
 72
    22
 73
    18
 74
     0
 42
0.00000001
 43
0.00000001
 12
1.0
 22
0.0
 32
0.0
 13
1.0
 23
0.0
 33
0.0
 40
0.0
 40
0.0
 40
0.0
 40
0.0
 40
0.0022119868471047
 40
0.0799684029100432
 40
0.1575272209552896
 40
0.2358577835459358
 40
0.3136122147965963
 40
0.3900719927085506
 40
0.4660893518218608
 40
0.5423589988219177
 40
0.6186534337227994
 40
0.6937723094550358
 40
0.7691592430128827
 40
0.8459429920566703
 40
0.9207581226786524
 40
0.9231032778326366
 40
1.0
 40
1.0
 40
1.0
 40
1.0
 10
175.9195756324804
 20
92.90356689581277
 30
0.0
 10
175.9200857472817
 20
92.90344419950222
 30
0.0
 10
175.9385275684967
 20
92.89900844618343
 30
0.0
 10
175.8748806470821
 20
92.91480582029415
 30
0.0
 10
175.7224485491358
 20
92.95165236375243
 30
0.0
 10
175.4558642095692
 20
93.01194197524521
 30
0.0
 10
175.1090354835814
 20
93.08440761840066
 30
0.0
 10
174.6852384255581
 20
93.16078260146185
 30
0.0
 10
174.2019256209917
 20
93.23207629215345
 30
0.0
 10
173.6731761733097
 20
93.28995579798884
 30
0.0
 10
173.1239843491882
 20
93.32970481265025
 30
0.0
 10
172.5745010726641
 20
93.34653925767633
 30
0.0
 10
172.0489771295844
 20
93.34128598952803
 30
0.0
 10
171.5607447231299
 20
93.31855535637021
 30
0.0
 10
171.2935700813857
 20
93.29441023669027
 30
0.0
 10
171.0092210297243
 20
93.27244437904392
 30
0.0
 10
170.904201072555
 20
93.2592316846574
 30
0.0
 10
170.8022891701436
 20
93.2464100185931
 30
0.0
  0
SPLINE
  5
150
330
1F
100
AcDbEntity
  8
0
  6
HIDDEN
 62
     7
370
     0
100
AcDbSpline
210
0.0
220
0.0
230
1.0
 70
     8
 71
     3
 72
    22
 73
    18
 74
     0
 42
0.00000001
 43
0.00000001
 12
1.0
 22
0.0
 32
0.0
 13
1.0
 23
0.0
 33
0.0
 40
0.0
 40
0.0
 40
0.0
 40
0.0
 40
0.0769496979898115
 40
0.0780938880527605
 40
0.1541394023339273
 40
0.230948519945297
 40
0.3064555519845071
 40
0.3815281636167389
 40
0.4579812553650078
 40
0.5341646018648127
 40
0.6102700516631084
 40
0.6865845638039152
 40
0.7642917144352694
 40
0.8424373723746879
 40
0.9199456372638479
 40
0.9982050360904
 40
0.9999999999999999
 40
0.9999999999999999
 40
0.9999999999999999
 40
0.9999999999999999
 10
170.8021708921766
 20
122.6439051095546
 30
0.0
 10
170.904278187033
 20
122.6311158290753
 30
0.0
 10
171.0079037484346
 20
122.6181363806289
 30
0.0
 10
171.2919613676672
 20
122.5961249416452
 30
0.0
 10
171.5593694406399
 20
122.5719882028098
 30
0.0
 10
172.0502690226582
 20
122.5490847247834
 30
0.0
 10
172.5759959583247
 20
122.5437684858041
 30
0.0
 10
173.1260626248861
 20
122.5606296281389
 30
0.0
 10
173.6752796548174
 20
122.6005213930562
 30
0.0
 10
174.2041451800575
 20
122.6585470479728
 30
0.0
 10
174.6869743793382
 20
122.7298170504205
 30
0.0
 10
175.1104978297141
 20
122.8061290435046
 30
0.0
 10
175.4567569696761
 20
122.8784642543154
 30
0.0
 10
175.7226051520792
 20
122.9386720259279
 30
0.0
 10
175.8760181731688
 20
122.9755834751136
 30
0.0
 10
175.9367781130321
 20
122.9913469470114
 30
0.0
 10
175.9189759458729
 20
122.9868645678829
 30
0.0
 10
175.9185767890191
 20
122.9867640648186
 30
0.0
  0
SPLINE
  5
151
330
1F
100
AcDbEntity
  8
0
  6
HIDDEN
 62
     7
370
     0
100
AcDbSpline
210
0.0
220
0.0
230
1.0
 70
     8
 71
     3
 72
    10
 73
     6
 74
     0
 42
0.00000001
 43
0.00000001
 12
1.0
 22
0.0
 32
0.0
 13
1.0
 23
0.0
 33
0.0
 40
0.0
 40
0.0
 40
0.0
 40
0.0
 40
0.3343825542418548
 40
0.6655473131622539
 40
0.9999999999999999
 40
0.9999999999999999
 40
0.9999999999999999
 40
0.9999999999999999
 10
170.3373748035407
 20
122.7071940664351
 30
0.0
 10
170.3470814810461
 20
122.7056202143526
 30
0.0
 10
170.3664014277702
 20
122.7024876555167
 30
0.0
 10
170.5239728719848
 20
122.6784322690601
 30
0.0
 10
170.7091333418155
 20
122.6554520010066
 30
0.0
 10
170.8021708921766
 20
122.6439051095546
 30
0.0
  0
SPLINE
  5
152
330
1F
100
AcDbEntity
  8
0
  6
HIDDEN
 62
     7
370
     0
100
AcDbSpline
210
0.0
220
0.0
230
1.0
 70
    11
 71
     3
 72
    50
 73
    46
 74
     0
 42
0.00000001
 43
0.00000001
 12
1.0
 22
0.0
 32
0.0
 13
1.0
 23
0.0
 33
0.0
 40
0.0
 40
0.0
 40
0.0
 40
0.0
 40
0.0624999999999999
 40
0.0624999999999999
 40
0.1249999999999998
 40
0.1249999999999998
 40
0.1562499999999998
 40
0.1562499999999998
 40
0.1874999999999998
 40
0.1874999999999998
 40
0.2187499999999999
 40
0.2187499999999999
 40
0.2499999999999999
 40
0.2499999999999999
 40
0.28125
 40
0.28125
 40
0.3125000000000001
 40
0.3125000000000001
 40
0.3750000000000002
 40
0.3750000000000002
 40
0.4375000000000003
 40
0.4375000000000003
 40
0.5000000000000004
 40
0.5000000000000004
 40
0.5312500000000004
 40
0.5312500000000004
 40
0.5625000000000006
 40
0.5625000000000006
 40
0.5937500000000006
 40
0.5937500000000006
 40
0.6250000000000007
 40
0.6250000000000007
 40
0.6562500000000007
 40
0.6562500000000007
 40
0.6875000000000008
 40
0.6875000000000008
 40
0.7500000000000006
 40
0.7500000000000006
 40
0.8125000000000004
 40
0.8125000000000004
 40
0.8750000000000003
 40
0.8750000000000003
 40
0.9375000000000002
 40
0.9375000000000002
 40
1.0
 40
1.0
 40
1.0
 40
1.0
 10
174.9774743057927
 20
95.27235472117454
 30
0.0
 10
174.8312194709911
 20
95.293407247
 30
0.0
 10
174.6597508340327
 20
95.31568847168201
 30
0.0
 10
174.2666062285227
 20
95.35652996203093
 30
0.0
 10
174.0513620429575
 20
95.37428759695187
 30
0.0
 10
173.7086222564078
 20
95.39256088979548
 30
0.0
 10
173.5903758733523
 20
95.3972708288095
 30
0.0
 10
173.354596871174
 20
95.4032699238683
 30
0.0
 10
173.2360305614681
 20
95.40462575626412
 30
0.0
 10
172.9975354806675
 20
95.40393134425342
 30
0.0
 10
172.8767430871457
 20
95.40183284126209
 30
0.0
 10
172.6416771216805
 20
95.39444969173628
 30
0.0
 10
172.5266216091805
 20
95.38918692846535
 30
0.0
 10
172.3014018544376
 20
95.37593316641683
 30
0.0
 10
172.1903196848353
 20
95.36785409173937
 30
0.0
 10
171.9790682378997
 20
95.34991836474435
 30
0.0
 10
171.8787100033989
 20
95.3400821295309
 30
0.0
 10
171.5930660463755
 20
95.30906646110945
 30
0.0
 10
171.4227873027797
 20
95.28623476689079
 30
0.0
 10
171.1466361728594
 20
95.24553749256006
 30
0.0
 10
171.0369369864746
 20
95.22721144298791
 30
0.0
 10
170.8913939053107
 20
95.20218384374294
 30
0.0
 10
170.8533872698534
 20
95.19518119437548
 30
0.0
 10
170.8532529764955
 20
95.19515696890868
 30
0.0
 10
170.8623707317378
 20
95.19681155616482
 30
0.0
 10
170.8992892772514
 20
95.20339419943768
 30
0.0
 10
170.9272629322761
 20
95.20835044096037
 30
0.0
 10
171.0000345117284
 20
95.22086711365871
 30
0.0
 10
171.0449597498901
 20
95.22845165297214
 30
0.0
 10
171.1520030648456
 20
95.24575990834533
 30
0.0
 10
171.2145711058121
 20
95.25554420013806
 30
0.0
 10
171.3529620085515
 20
95.27594940180413
 30
0.0
 10
171.429145464326
 20
95.2866343567272
 30
0.0
 10
171.595501198137
 20
95.30821809430459
 30
0.0
 10
171.6865295005817
 20
95.31920420330573
 30
0.0
 10
171.9731833172546
 20
95.35036128707183
 30
0.0
 10
172.1852353753723
 20
95.369057474108
 30
0.0
 10
172.6384126513268
 20
95.39580475482349
 30
0.0
 10
172.8730423000667
 20
95.4035103615253
 30
0.0
 10
173.3544658495254
 20
95.40502836902348
 30
0.0
 10
173.5897712197938
 20
95.39883968079113
 30
0.0
 10
174.0496788714694
 20
95.3744343450983
 30
0.0
 10
174.2641073834285
 20
95.356751191173
 30
0.0
 10
174.6573065681939
 20
95.31598027414037
 30
0.0
 10
174.831215639859
 20
95.29340779846898
 30
0.0
 10
174.9774743057927
 20
95.27235472117454
 30
0.0
  0
SPLINE
  5
153
330
1F
100
AcDbEntity
  8
0
  6
HIDDEN
 62
     7
370
     0
100
AcDbSpline
210
0.0
220
0.0
230
1.0
 70
    11
 71
     3
 72
    50
 73
    46
 74
     0
 42
0.00000001
 43
0.00000001
 12
1.0
 22
0.0
 32
0.0
 13
1.0
 23
0.0
 33
0.0
 40
0.0
 40
0.0
 40
0.0
 40
0.0
 40
0.0624999999999999
 40
0.0624999999999999
 40
0.1249999999999998
 40
0.1249999999999998
 40
0.1562499999999998
 40
0.1562499999999998
 40
0.1874999999999998
 40
0.1874999999999998
 40
0.2187499999999999
 40
0.2187499999999999
 40
0.2499999999999999
 40
0.2499999999999999
 40
0.28125
 40
0.28125
 40
0.3125000000000001
 40
0.3125000000000001
 40
0.3750000000000002
 40
0.3750000000000002
 40
0.4375000000000003
 40
0.4375000000000003
 40
0.5000000000000004
 40
0.5000000000000004
 40
0.5312500000000004
 40
0.5312500000000004
 40
0.5625000000000006
 40
0.5625000000000006
 40
0.5937500000000006
 40
0.5937500000000006
 40
0.6250000000000007
 40
0.6250000000000007
 40
0.6562500000000007
 40
0.6562500000000007
 40
0.6875000000000008
 40
0.6875000000000008
 40
0.7500000000000006
 40
0.7500000000000006
 40
0.8125000000000004
 40
0.8125000000000004
 40
0.8750000000000003
 40
0.8750000000000003
 40
0.9375000000000002
 40
0.9375000000000002
 40
1.0
 40
1.0
 40
1.0
 40
1.0
 10
174.9774743057927
 20
120.6179753081343
 30
0.0
 10
174.8312194709911
 20
120.5969227823088
 30
0.0
 10
174.6597508340327
 20
120.5746415576268
 30
0.0
 10
174.2666062285227
 20
120.5338000672779
 30
0.0
 10
174.0513620429575
 20
120.516042432357
 30
0.0
 10
173.7086222564078
 20
120.4977691395134
 30
0.0
 10
173.5903758733523
 20
120.4930592004993
 30
0.0
 10
173.354596871174
 20
120.4870601054405
 30
0.0
 10
173.2360305614681
 20
120.4857042730447
 30
0.0
 10
172.9975354806675
 20
120.4863986850554
 30
0.0
 10
172.8767430871457
 20
120.4884971880468
 30
0.0
 10
172.6416771216805
 20
120.4958803375726
 30
0.0
 10
172.5266216091805
 20
120.5011431008435
 30
0.0
 10
172.3014018544376
 20
120.514396862892
 30
0.0
 10
172.1903196848353
 20
120.5224759375695
 30
0.0
 10
171.9790682378997
 20
120.5404116645645
 30
0.0
 10
171.8787100033989
 20
120.5502478997779
 30
0.0
 10
171.5930660463755
 20
120.5812635681994
 30
0.0
 10
171.4227873027797
 20
120.6040952624181
 30
0.0
 10
171.1466361728594
 20
120.6447925367488
 30
0.0
 10
171.0369369864746
 20
120.6631185863209
 30
0.0
 10
170.8913939053107
 20
120.6881461855659
 30
0.0
 10
170.8533872698534
 20
120.6951488349333
 30
0.0
 10
170.8532529764955
 20
120.6951730604002
 30
0.0
 10
170.8623707317378
 20
120.693518473144
 30
0.0
 10
170.8992892772514
 20
120.6869358298711
 30
0.0
 10
170.9272629322761
 20
120.6819795883485
 30
0.0
 10
171.0000345117284
 20
120.6694629156501
 30
0.0
 10
171.0449597498901
 20
120.6618783763367
 30
0.0
 10
171.1520030648456
 20
120.6445701209635
 30
0.0
 10
171.2145711058121
 20
120.6347858291708
 30
0.0
 10
171.3529620085515
 20
120.6143806275047
 30
0.0
 10
171.429145464326
 20
120.6036956725816
 30
0.0
 10
171.595501198137
 20
120.5821119350042
 30
0.0
 10
171.6865295005817
 20
120.5711258260031
 30
0.0
 10
171.9731833172546
 20
120.539968742237
 30
0.0
 10
172.1852353753723
 20
120.5212725552008
 30
0.0
 10
172.6384126513268
 20
120.4945252744854
 30
0.0
 10
172.8730423000667
 20
120.4868196677835
 30
0.0
 10
173.3544658495254
 20
120.4853016602854
 30
0.0
 10
173.5897712197938
 20
120.4914903485177
 30
0.0
 10
174.0496788714694
 20
120.5158956842105
 30
0.0
 10
174.2641073834285
 20
120.5335788381358
 30
0.0
 10
174.6573065681939
 20
120.5743497551685
 30
0.0
 10
174.831215639859
 20
120.5969222308399
 30
0.0
 10
174.9774743057927
 20
120.6179753081343
 30
0.0
  0
SPLINE
  5
154
330
1F
100
AcDbEntity
  8
0
  6
HIDDEN
 62
     7
370
     0
100
AcDbSpline
210
0.0
220
0.0
230
1.0
 70
    11
 71
     3
 72
    14
 73
    10
 74
     0
 42
0.00000001
 43
0.00000001
 12
1.0
 22
0.0
 32
0.0
 13
1.0
 23
0.0
 33
0.0
 40
0.0
 40
0.0
 40
0.0
 40
0.0
 40
0.25
 40
0.25
 40
0.5
 40
0.5
 40
0.75
 40
0.75
 40
1.0
 40
1.0
 40
1.0
 40
1.0
 10
174.9774743057927
 20
120.6179753081343
 30
0.0
 10
175.1313502014955
 20
120.6401248409863
 30
0.0
 10
175.2492307691246
 20
120.6529369080599
 30
0.0
 10
175.4122945590373
 20
120.6692896168904
 30
0.0
 10
175.4532110776609
 20
120.6724653796082
 30
0.0
 10
175.4533838101771
 20
120.672480081785
 30
0.0
 10
175.4124560519433
 20
120.6693005307915
 30
0.0
 10
175.2501186864777
 20
120.6530311993141
 30
0.0
 10
175.1313484183716
 20
120.6401245843161
 30
0.0
 10
174.9774743057927
 20
120.6179753081343
 30
0.0
  0
SPLINE
  5
155
330
1F
100
AcDbEntity
  8
0
  6
HIDDEN
 62
     7
370
     0
100
AcDbSpline
210
0.0
220
0.0
230
1.0
 70
    11
 71
     3
 72
    14
 73
    10
 74
     0
 42
0.00000001
 43
0.00000001
 12
1.0
 22
0.0
 32
0.0
 13
1.0
 23
0.0
 33
0.0
 40
0.0
 40
0.0
 40
0.0
 40
0.0
 40
0.2499999999999999
 40
0.2499999999999999
 40
0.4999999999999999
 40
0.4999999999999999
 40
0.7499999999999998
 40
0.7499999999999998
 40
1.0
 40
1.0
 40
1.0
 40
1.0
 10
174.9774743057927
 20
95.27235472117454
 30
0.0
 10
175.1313502014955
 20
95.25020518832254
 30
0.0
 10
175.2492307691246
 20
95.2373931212489
 30
0.0
 10
175.4122945590373
 20
95.22104041241845
 30
0.0
 10
175.4532110776609
 20
95.2178646497006
 30
0.0
 10
175.4533838101771
 20
95.21784994752389
 30
0.0
 10
175.4124560519433
 20
95.2210294985173
 30
0.0
 10
175.2501186864777
 20
95.23729882999478
 30
0.0
 10
175.1313484183716
 20
95.25020544499279
 30
0.0
 10
174.9774743057927
 20
95.27235472117454
 30
0.0
  0
LINE
  5
156
330
1F
100
AcDbEntity
  8
0
  6
HIDDEN
 62
     7
370
     0
100
AcDbLine
 10
179.1532975779
 20
97.4451651562
 30
0.0
 11
179.1532975779
 21
118.4451648731
 31
0.0
  0
LINE
  5
157
330
1F
100
AcDbEntity
  8
0
  6
HIDDEN
 62
     7
370
     0
100
AcDbLine
 10
167.1559470863
 20
118.4451648731
 30
0.0
 11
167.1559470863
 21
97.4451651562
 31
0.0
  0
SPLINE
  5
158
330
1F
100
AcDbEntity
  8
0
  6
HIDDEN
 62
     7
370
     0
100
AcDbSpline
210
0.0
220
0.0
230
1.0
 70
     8
 71
     3
 72
    18
 73
    14
 74
     0
 42
0.00000001
 43
0.00000001
 12
1.0
 22
0.0
 32
0.0
 13
1.0
 23
0.0
 33
0.0
 40
0.0
 40
0.0
 40
0.0
 40
0.0
 40
0.250000000000003
 40
0.250000000000003
 40
0.3750000000000025
 40
0.3750000000000025
 40
0.500000000000002
 40
0.500000000000002
 40
0.6250000000000014
 40
0.6250000000000014
 40
0.750000000000001
 40
0.750000000000001
 40
1.0
 40
1.0
 40
1.0
 40
1.0
 10
201.2926802268816
 20
110.3923352590178
 30
0.0
 10
201.1272081569711
 20
110.3196346560236
 30
0.0
 10
200.9623137701757
 20
110.2422724847498
 30
0.0
 10
200.7235289667206
 20
110.095458127901
 30
0.0
 10
200.6450736496327
 20
110.040497372059
 30
0.0
 10
200.4990419525805
 20
109.9191793567087
 30
0.0
 10
200.430883871508
 20
109.8524286755109
 30
0.0
 10
200.3028935276049
 20
109.7081452307854
 30
0.0
 10
200.2428323603948
 20
109.630488210732
 30
0.0
 10
200.1300547754091
 20
109.4740869977745
 30
0.0
 10
200.0766408290537
 20
109.3947122471404
 30
0.0
 10
199.9188604285356
 20
109.1566925343897
 30
0.0
 10
199.8165005522292
 20
108.998404570056
 30
0.0
 10
199.7100781823058
 20
108.844214386604
 30
0.0
  0
SPLINE
  5
159
330
1F
100
AcDbEntity
  8
0
  6
HIDDEN
 62
     7
370
     0
100
AcDbSpline
210
0.0
220
0.0
230
1.0
 70
     8
 71
     3
 72
    54
 73
    50
 74
     0
 42
0.00000001
 43
0.00000001
 12
1.0
 22
0.0
 32
0.0
 13
1.0
 23
0.0
 33
0.0
 40
0.0
 40
0.0
 40
0.0
 40
0.0
 40
0.0624999999999996
 40
0.0624999999999996
 40
0.1249999999999992
 40
0.1249999999999992
 40
0.156249999999999
 40
0.156249999999999
 40
0.1874999999999989
 40
0.1874999999999989
 40
0.2187499999999987
 40
0.2187499999999987
 40
0.2499999999999986
 40
0.2499999999999986
 40
0.2812499999999984
 40
0.2812499999999984
 40
0.3124999999999982
 40
0.3124999999999982
 40
0.3749999999999977
 40
0.3749999999999977
 40
0.4374999999999972
 40
0.4374999999999972
 40
0.4999999999999967
 40
0.4999999999999967
 40
0.5312499999999968
 40
0.5312499999999968
 40
0.5624999999999969
 40
0.5624999999999969
 40
0.593749999999997
 40
0.593749999999997
 40
0.6249999999999971
 40
0.6249999999999971
 40
0.6874999999999974
 40
0.6874999999999974
 40
0.7499999999999977
 40
0.7499999999999977
 40
0.8124999999999979
 40
0.8124999999999979
 40
0.8437499999999982
 40
0.8437499999999982
 40
0.8749999999999986
 40
0.8749999999999986
 40
0.906249999999999
 40
0.906249999999999
 40
0.9374999999999993
 40
0.9374999999999993
 40
0.9687499999999997
 40
0.9687499999999997
 40
1.0
 40
1.0
 40
1.0
 40
1.0
 10
197.6676187727897
 20
109.7994607351613
 30
0.0
 10
197.6209004814641
 20
110.0370630858356
 30
0.0
 10
197.6085302268067
 20
110.2723947838426
 30
0.0
 10
197.6414859830606
 20
110.740506945039
 30
0.0
 10
197.6864018273506
 20
110.9665100943274
 30
0.0
 10
197.798361470054
 20
111.2899619415076
 30
0.0
 10
197.8435124358304
 20
111.3958259171448
 30
0.0
 10
197.9530823223056
 20
111.5990597859831
 30
0.0
 10
198.0182810959329
 20
111.6980367822276
 30
0.0
 10
198.1770773396844
 20
111.8773358831704
 30
0.0
 10
198.2731107508004
 20
111.9564627695231
 30
0.0
 10
198.4698120256151
 20
112.0709620901451
 30
0.0
 10
198.5694054982253
 20
112.1091017532378
 30
0.0
 10
198.764300881836
 20
112.1649102386532
 30
0.0
 10
198.8603656265622
 20
112.1827843508056
 30
0.0
 10
199.0540699547303
 20
112.2066573981938
 30
0.0
 10
199.151793927232
 20
112.2124085391365
 30
0.0
 10
199.4486389953038
 20
112.2142363672996
 30
0.0
 10
199.6480108006066
 20
112.1953793824548
 30
0.0
 10
200.0571355463881
 20
112.1178637624708
 30
0.0
 10
200.2701603784419
 20
112.0577836586737
 30
0.0
 10
200.6929275847012
 20
111.8875103661492
 30
0.0
 10
200.9064149477111
 20
111.7752722495166
 30
0.0
 10
201.1979180996408
 20
111.5666146895805
 30
0.0
 10
201.291844002247
 20
111.4889608417638
 30
0.0
 10
201.45911564711
 20
111.3268674528867
 30
0.0
 10
201.5338955813424
 20
111.2415446547489
 30
0.0
 10
201.6637107529182
 20
111.0634024471332
 30
0.0
 10
201.7159552694968
 20
110.9745352196259
 30
0.0
 10
201.7985179240913
 20
110.7973595645719
 30
0.0
 10
201.8281620504531
 20
110.7099744326133
 30
0.0
 10
201.885950159061
 20
110.4602491968118
 30
0.0
 10
201.884493713877
 20
110.3051693614405
 30
0.0
 10
201.8301437861978
 20
110.0317773595332
 30
0.0
 10
201.7766892554831
 20
109.9093012881177
 30
0.0
 10
201.6386327882094
 20
109.6992322113183
 30
0.0
 10
201.5537666273603
 20
109.6103646317381
 30
0.0
 10
201.415965292535
 20
109.5089608485793
 30
0.0
 10
201.367972305946
 20
109.4803904732265
 30
0.0
 10
201.2754097916819
 20
109.4428625134367
 30
0.0
 10
201.2304591248302
 20
109.433587807093
 30
0.0
 10
201.1660856943953
 20
109.459402015424
 30
0.0
 10
201.1502424631597
 20
109.4985535610831
 30
0.0
 10
201.1557424581874
 20
109.6240649378762
 30
0.0
 10
201.1731776552292
 20
109.7058654338446
 30
0.0
 10
201.2109448196879
 20
109.8833659605188
 30
0.0
 10
201.2316715333752
 20
109.9797274090579
 30
0.0
 10
201.2671200397996
 20
110.1797138824385
 30
0.0
 10
201.2822149354764
 20
110.2840443793334
 30
0.0
 10
201.2926802268816
 20
110.3923352590178
 30
0.0
  0
LWPOLYLINE
  5
15A
330
1F
100
AcDbEntity
  8
0
  6
HIDDEN
 62
     7
370
     0
100
AcDbPolyline
 90
       24
 70
   128
 43
0.0
 10
197.6676196949
 20
109.7994607406
 10
197.424738218
 20
110.1933937751
 10
197.2225760267
 20
110.5688781243
 10
197.071552758
 20
110.9065593917
 10
196.979452406
 20
111.1890323226
 10
196.9510209904
 20
111.4017366197
 10
196.9877262757
 20
111.5337089867
 10
197.0876739518
 20
111.5781465776
 10
197.2457138048
 20
111.5327592705
 10
197.4537004874
 20
111.3998863146
 10
197.7009107516
 20
111.1863766562
 10
197.9746059672
 20
110.9032352686
 10
198.2606747345
 20
110.5650569078
 10
198.5443742172
 20
110.1892726727
 10
198.8110807882
 20
109.7952517446
 10
199.0470481263
 20
109.403304057
 10
199.240111296
 20
109.0336322084
 10
199.3803219096
 20
108.7052907095
 10
199.4604491786
 20
108.4352037286
 10
199.4763673441
 20
108.2372927047
 10
199.4272512541
 20
108.1217588651
 10
199.3156359689
 20
108.0945572901
 10
199.1472751991
 20
108.1570901004
 10
198.9308432834
 20
108.3061340613
  0
SPLINE
  5
15B
330
1F
100
AcDbEntity
  8
0
  6
HIDDEN
 62
     7
370
     0
100
AcDbSpline
210
0.0
220
0.0
230
1.0
 70
     8
 71
     3
 72
    20
 73
    16
 74
     0
 42
0.00000001
 43
0.00000001
 12
1.0
 22
0.0
 32
0.0
 13
1.0
 23
0.0
 33
0.0
 40
0.0
 40
0.0
 40
0.0
 40
0.0
 40
0.1249999999999999
 40
0.1249999999999999
 40
0.2499999999999997
 40
0.2499999999999997
 40
0.3749999999999996
 40
0.3749999999999996
 40
0.4999999999999994
 40
0.4999999999999994
 40
0.6249999999999993
 40
0.6249999999999993
 40
0.7499999999999991
 40
0.7499999999999991
 40
1.0
 40
1.0
 40
1.0
 40
1.0
 10
199.7100781823058
 20
108.844214386604
 30
0.0
 10
199.7975475163497
 20
108.8340728518896
 30
0.0
 10
199.8799040463498
 20
108.8255954143352
 30
0.0
 10
200.0247195646541
 20
108.8025352806969
 30
0.0
 10
200.0874509455542
 20
108.7880120222794
 30
0.0
 10
200.1531045869771
 20
108.7311150064893
 30
0.0
 10
200.1491927765748
 20
108.6868679646828
 30
0.0
 10
200.082662665652
 20
108.58917860362
 30
0.0
 10
200.0259851073593
 20
108.5387127601265
 30
0.0
 10
199.8953227193667
 20
108.448417660604
 30
0.0
 10
199.820155728763
 20
108.4080154637806
 30
0.0
 10
199.6616999927585
 20
108.342265978722
 30
0.0
 10
199.577680920319
 20
108.3164593891576
 30
0.0
 10
199.3144361532955
 20
108.2638657638835
 30
0.0
 10
199.1238772399197
 20
108.262264226171
 30
0.0
 10
198.930843281825
 20
108.3061340624116
 30
0.0
  0
SPLINE
  5
15C
330
1F
100
AcDbEntity
  8
0
  6
HIDDEN
 62
     7
370
     0
100
AcDbSpline
210
0.0
220
0.0
230
1.0
 70
     8
 71
     3
 72
    16
 73
    12
 74
     0
 42
0.00000001
 43
0.00000001
 12
1.0
 22
0.0
 32
0.0
 13
1.0
 23
0.0
 33
0.0
 40
0.0
 40
0.0
 40
0.0
 40
0.0
 40
0.2499999999999986
 40
0.2499999999999986
 40
0.4999999999999972
 40
0.4999999999999972
 40
0.624999999999997
 40
0.624999999999997
 40
0.7499999999999967
 40
0.7499999999999967
 40
1.0
 40
1.0
 40
1.0
 40
1.0
 10
198.8209578478573
 20
112.7653523585127
 30
0.0
 10
198.7259642932936
 20
112.7217187610419
 30
0.0
 10
198.6323036865282
 20
112.6707354779403
 30
0.0
 10
198.4404123040312
 20
112.5531582080816
 30
0.0
 10
198.3445272510767
 20
112.487863286819
 30
0.0
 10
198.1925101050855
 20
112.3818061913204
 30
0.0
 10
198.1409420248562
 20
112.3455254123825
 30
0.0
 10
198.0414122956915
 20
112.2759034100023
 30
0.0
 10
197.9922207850293
 20
112.2416937939037
 30
0.0
 10
197.8545685652708
 20
112.145785654979
 30
0.0
 10
197.772376930038
 20
112.0879706166191
 30
0.0
 10
197.697265606929
 20
112.0312666880121
 30
0.0
  0
SPLINE
  5
15D
330
1F
100
AcDbEntity
  8
0
  6
HIDDEN
 62
     7
370
     0
100
AcDbSpline
210
0.0
220
0.0
230
1.0
 70
     8
 71
     3
 72
    12
 73
     8
 74
     0
 42
0.00000001
 43
0.00000001
 12
1.0
 22
0.0
 32
0.0
 13
1.0
 23
0.0
 33
0.0
 40
0.0
 40
0.0
 40
0.0
 40
0.0
 40
0.5
 40
0.5
 40
0.75
 40
0.75
 40
1.0
 40
1.0
 40
1.0
 40
1.0
 10
197.697265606929
 20
112.0312666880121
 30
0.0
 10
197.8810788761471
 20
112.1522360935653
 30
0.0
 10
198.0705557227444
 20
112.2681658627582
 30
0.0
 10
198.3582560876643
 20
112.4506600743935
 30
0.0
 10
198.4548868377556
 20
112.5132632331479
 30
0.0
 10
198.6413410640006
 20
112.6385298628184
 30
0.0
 10
198.7320820528855
 20
112.7017169070057
 30
0.0
 10
198.8209578478572
 20
112.7653523585127
 30
0.0
  0
SPLINE
  5
15E
330
1F
100
AcDbEntity
  8
0
  6
HIDDEN
 62
     7
370
     0
100
AcDbSpline
210
0.0
220
0.0
230
1.0
 70
    11
 71
     3
 72
    62
 73
    58
 74
     0
 42
0.00000001
 43
0.00000001
 12
1.0
 22
0.0
 32
0.0
 13
1.0
 23
0.0
 33
0.0
 40
0.0
 40
0.0
 40
0.0
 40
0.0
 40
0.0000075092293907
 40
0.0000075092293907
 40
0.0000075092293907
 40
0.0000151239964902
 40
0.0000151239964902
 40
0.0000151239964902
 40
0.0000234517341901
 40
0.0000234517341901
 40
0.0000234517341901
 40
0.0000324698917363
 40
0.0000324698917363
 40
0.0000324698917363
 40
0.0000418286572991
 40
0.0000418286572991
 40
0.0000418286572991
 40
0.000050938338133
 40
0.000050938338133
 40
0.000050938338133
 40
0.0000593423151302
 40
0.0000593423151302
 40
0.0000593423151302
 40
0.0000670191981084
 40
0.0000670191981084
 40
0.0000670191981084
 40
0.0000742860009039
 40
0.0000742860009039
 40
0.0000742860009039
 40
0.0000815350728476
 40
0.0000815350728476
 40
0.0000815350728476
 40
0.0000890932950968
 40
0.0000890932950968
 40
0.0000890932950968
 40
0.0000971803923122
 40
0.0000971803923122
 40
0.0000971803923122
 40
0.0001058692923236
 40
0.0001058692923236
 40
0.0001058692923236
 40
0.0001150222021567
 40
0.0001150222021567
 40
0.0001150222021567
 40
0.000124252686638
 40
0.000124252686638
 40
0.000124252686638
 40
0.0001330376907321
 40
0.0001330376907321
 40
0.0001330376907321
 40
0.000141040678786
 40
0.000141040678786
 40
0.000141040678786
 40
0.0001483712202037
 40
0.0001483712202037
 40
0.0001483712202037
 40
0.0001521694173933
 40
0.0001521694173933
 40
0.0001521694173933
 40
0.0001521694173933
 10
199.0641992039009
 20
111.1176814500274
 30
0.0
 10
199.0659909102745
 20
111.1160263973749
 30
0.0
 10
199.0681122400875
 20
111.1146435795518
 30
0.0
 10
199.0703746700422
 20
111.1136187069468
 30
0.0
 10
199.0726715778539
 20
111.1125782159969
 30
0.0
 10
199.0751700738724
 20
111.1118772579417
 30
0.0
 10
199.0776876687946
 20
111.1115350607266
 30
0.0
 10
199.0804385698652
 20
111.1111611520103
 30
0.0
 10
199.0832802857617
 20
111.1112047992032
 30
0.0
 10
199.0860121062171
 20
111.1116396877085
 30
0.0
 10
199.0889662354631
 20
111.1121099663646
 30
0.0
 10
199.0918698050397
 20
111.1130503272964
 30
0.0
 10
199.0944988549306
 20
111.1143872172393
 30
0.0
 10
199.097222874098
 20
111.1157723997123
 30
0.0
 10
199.0997296956835
 20
111.1176256468553
 30
0.0
 10
199.1017792549643
 20
111.119807488239
 30
0.0
 10
199.1037725212878
 20
111.1219294034206
 30
0.0
 10
199.1053917343005
 20
111.1244310719415
 30
0.0
 10
199.1064364640474
 20
111.1270924268407
 30
0.0
 10
199.1074009400945
 20
111.1295493426708
 30
0.0
 10
199.107902440375
 20
111.1322202833565
 30
0.0
 10
199.1078547639045
 20
111.1348464160064
 30
0.0
 10
199.1078111327809
 20
111.1372497213885
 30
0.0
 10
199.1073056950729
 20
111.1396865741754
 30
0.0
 10
199.1063738901236
 20
111.1419303191036
 30
0.0
 10
199.1054904046715
 20
111.1440577128288
 30
0.0
 10
199.1042006868963
 20
111.1460707091548
 30
0.0
 10
199.1026197237275
 20
111.1478068041407
 30
0.0
 10
199.1010412716975
 20
111.1495401415826
 30
0.0
 10
199.0991331017433
 20
111.1510439058043
 30
0.0
 10
199.0970544353142
 20
111.1522198156969
 30
0.0
 10
199.0948869118682
 20
111.1534459923584
 30
0.0
 10
199.0924806313811
 20
111.1543482452074
 30
0.0
 10
199.0900199538593
 20
111.1548862174593
 30
0.0
 10
199.0873883812269
 20
111.1554615521152
 30
0.0
 10
199.0846291505132
 20
111.1556362099533
 30
0.0
 10
199.0819422616494
 20
111.1554230598446
 30
0.0
 10
199.0790581506173
 20
111.155194264159
 30
0.0
 10
199.0761830187294
 20
111.1545135305289
 30
0.0
 10
199.0735287492348
 20
111.1534453454062
 30
0.0
 10
199.0707362800961
 20
111.1523215431716
 30
0.0
 10
199.0681117711595
 20
111.1507374046706
 30
0.0
 10
199.0658761316034
 20
111.148814072857
 30
0.0
 10
199.0636243893353
 20
111.1468768878002
 30
0.0
 10
199.0617017898896
 20
111.1445355380503
 30
0.0
 10
199.0603175420945
 20
111.1419810478572
 30
0.0
 10
199.0590006695471
 20
111.1395508919127
 30
0.0
 10
199.0581336970208
 20
111.1368488163908
 30
0.0
 10
199.0578520413321
 20
111.1341294364408
 30
0.0
 10
199.0575951447031
 20
111.1316491047092
 30
0.0
 10
199.0578204966648
 20
111.1290771963108
 30
0.0
 10
199.0585349696742
 20
111.1266674535391
 30
0.0
 10
199.059190826708
 20
111.1244554081213
 30
0.0
 10
199.0602771045291
 20
111.1223165127569
 30
0.0
 10
199.0616968471888
 20
111.1204382414574
 30
0.0
 10
199.0624407493862
 20
111.1194540841262
 30
0.0
 10
199.0632822589862
 20
111.1185284594122
 30
0.0
 10
199.0641992039009
 20
111.1176814500274
 30
0.0
  0
SPLINE
  5
15F
330
1F
100
AcDbEntity
  8
0
  6
HIDDEN
 62
     7
370
     0
100
AcDbSpline
210
0.0
220
0.0
230
1.0
 70
     8
 71
     3
 72
    20
 73
    16
 74
     0
 42
0.00000001
 43
0.00000001
 12
1.0
 22
0.0
 32
0.0
 13
1.0
 23
0.0
 33
0.0
 40
0.0
 40
0.0
 40
0.0
 40
0.0
 40
0.1250000000000001
 40
0.1250000000000001
 40
0.2500000000000001
 40
0.2500000000000001
 40
0.3750000000000002
 40
0.3750000000000002
 40
0.5000000000000002
 40
0.5000000000000002
 40
0.6250000000000001
 40
0.6250000000000001
 40
0.7500000000000001
 40
0.7500000000000001
 40
1.0
 40
1.0
 40
1.0
 40
1.0
 10
198.930843281825
 20
108.3061340624116
 30
0.0
 10
198.8532259866644
 20
108.3461002378358
 30
0.0
 10
198.7702879004653
 20
108.3904285659829
 30
0.0
 10
198.6025527730095
 20
108.4870119857155
 30
0.0
 10
198.5155907098714
 20
108.5407433625122
 30
0.0
 10
198.3525092312016
 20
108.6539870294048
 30
0.0
 10
198.2741544901815
 20
108.7150670775413
 30
0.0
 10
198.1317719486787
 20
108.8426353290129
 30
0.0
 10
198.0671237662687
 20
108.9093345330936
 30
0.0
 10
197.9498591791092
 20
109.0497294118704
 30
0.0
 10
197.8973380806069
 20
109.1236051871035
 30
0.0
 10
197.8085691778729
 20
109.2714821769494
 30
0.0
 10
197.7717971443752
 20
109.3460744415
 30
0.0
 10
197.6855299386738
 20
109.5657539934657
 30
0.0
 10
197.664730873847
 20
109.6964093690291
 30
0.0
 10
197.6676187727897
 20
109.7994607351613
 30
0.0
  0
LINE
  5
160
330
1F
100
AcDbEntity
  8
0
  6
HIDDEN
 62
     7
370
     0
100
AcDbLine
 10
196.1932969437
 20
121.4610118184
 30
0.0
 11
196.1932969437
 21
125.347769237
 31
0.0
  0
LINE
  5
161
330
1F
100
AcDbEntity
  8
0
  6
HIDDEN
 62
     7
370
     0
100
AcDbLine
 10
194.1132978694
 20
121.4610118184
 30
0.0
 11
194.1132978694
 21
125.347769237
 31
0.0
  0
LINE
  5
162
330
1F
100
AcDbEntity
  8
0
  6
HIDDEN
 62
     7
370
     0
100
AcDbLine
 10
191.5969676496
 20
119.7951653738
 30
0.0
 11
199.4324219571
 21
119.7951653738
 31
0.0
  0
SPLINE
  5
163
330
1F
100
AcDbEntity
  8
0
  6
HIDDEN
 62
     7
370
     0
100
AcDbSpline
210
0.0
220
0.0
230
1.0
 70
     8
 71
     3
 72
    64
 73
    60
 74
     0
 42
0.00000001
 43
0.00000001
 12
1.0
 22
0.0
 32
0.0
 13
1.0
 23
0.0
 33
0.0
 40
-0.0312500000000001
 40
-0.0312500000000001
 40
0.0
 40
0.0
 40
0.0624999999999997
 40
0.0624999999999997
 40
0.1249999999999993
 40
0.1249999999999993
 40
0.1874999999999989
 40
0.1874999999999989
 40
0.2187499999999989
 40
0.2187499999999989
 40
0.2499999999999989
 40
0.2499999999999989
 40
0.2812499999999989
 40
0.2812499999999989
 40
0.3124999999999989
 40
0.3124999999999989
 40
0.3437499999999989
 40
0.3437499999999989
 40
0.3749999999999989
 40
0.3749999999999989
 40
0.4062499999999989
 40
0.4062499999999989
 40
0.437499999999999
 40
0.437499999999999
 40
0.4687499999999991
 40
0.4687499999999991
 40
0.4999999999999991
 40
0.4999999999999991
 40
0.5312499999999991
 40
0.5312499999999991
 40
0.5624999999999992
 40
0.5624999999999992
 40
0.5937499999999992
 40
0.5937499999999992
 40
0.6249999999999993
 40
0.6249999999999993
 40
0.6562499999999993
 40
0.6562499999999993
 40
0.6874999999999994
 40
0.6874999999999994
 40
0.7187499999999994
 40
0.7187499999999994
 40
0.7499999999999994
 40
0.7499999999999994
 40
0.7812499999999996
 40
0.7812499999999996
 40
0.8124999999999996
 40
0.8124999999999996
 40
0.8437499999999997
 40
0.8437499999999997
 40
0.8749999999999997
 40
0.8749999999999997
 40
0.9062499999999998
 40
0.9062499999999998
 40
0.9374999999999998
 40
0.9374999999999998
 40
0.9687499999999999
 40
0.9687499999999999
 40
1.0
 40
1.0
 40
1.0625
 40
1.0625
 10
201.1548877135202
 20
106.2678000134079
 30
0.0
 10
200.7043871007808
 20
106.2678000134079
 30
0.0
 10
200.4209736917957
 20
106.3510848796635
 30
0.0
 10
199.9121698617102
 20
106.5913710441618
 30
0.0
 10
199.6787740922009
 20
106.7524670489451
 30
0.0
 10
199.2639094110511
 20
107.1364534395172
 30
0.0
 10
199.0788994988164
 20
107.3637611480401
 30
0.0
 10
198.8661418416089
 20
107.7500008246692
 30
0.0
 10
198.8058055115191
 20
107.887605214409
 30
0.0
 10
198.7166453624596
 20
108.1686656047245
 30
0.0
 10
198.6868851612085
 20
108.3161824400177
 30
0.0
 10
198.6647422222707
 20
108.603713222099
 30
0.0
 10
198.6718101080835
 20
108.7466858232226
 30
0.0
 10
198.7215836792928
 20
109.0184308908629
 30
0.0
 10
198.7634738964697
 20
109.1451849496277
 30
0.0
 10
198.8759788765356
 20
109.3799881852177
 30
0.0
 10
198.9446376858951
 20
109.4844562443512
 30
0.0
 10
199.1021456408855
 20
109.6734683816379
 30
0.0
 10
199.1917166575154
 20
109.7581765121607
 30
0.0
 10
199.382501224822
 20
109.9055238226861
 30
0.0
 10
199.4843893563197
 20
109.9691205023431
 30
0.0
 10
199.7010080354039
 20
110.0799970948955
 30
0.0
 10
199.8166350972984
 20
110.1274680172358
 30
0.0
 10
200.056524004557
 20
110.2060494415177
 30
0.0
 10
200.1810753661516
 20
110.2374984188526
 30
0.0
 10
200.4434284515568
 20
110.2867161988952
 30
0.0
 10
200.5836442421508
 20
110.3047361876713
 30
0.0
 10
200.8743670531011
 20
110.3251887517497
 30
0.0
 10
201.0263696640392
 20
110.327623686188
 30
0.0
 10
201.3199977047051
 20
110.3141428567608
 30
0.0
 10
201.4629235825889
 20
110.2980580922849
 30
0.0
 10
201.7247766844451
 20
110.2469628790245
 30
0.0
 10
201.8454604266964
 20
110.2119994029462
 30
0.0
 10
202.0696940155256
 20
110.1217800551673
 30
0.0
 10
202.1712866318489
 20
110.0674650176024
 30
0.0
 10
202.358985965256
 20
109.9379607419688
 30
0.0
 10
202.4458050699644
 20
109.8617939773462
 30
0.0
 10
202.5998792751714
 20
109.6892343204928
 30
0.0
 10
202.6671731253337
 20
109.5933233294148
 30
0.0
 10
202.7822282413837
 20
109.379356940786
 30
0.0
 10
202.8302437463786
 20
109.2595827820073
 30
0.0
 10
202.8999398544909
 20
109.0061797392236
 30
0.0
 10
202.9224603609952
 20
108.8707597306122
 30
0.0
 10
202.9400723185836
 20
108.587369346621
 30
0.0
 10
202.9351145676287
 20
108.4434821601019
 30
0.0
 10
202.8984062458196
 20
108.1514870256013
 30
0.0
 10
202.8663377463853
 20
108.0041736121867
 30
0.0
 10
202.7793409165347
 20
107.7209525951342
 30
0.0
 10
202.7234340255498
 20
107.581723996702
 30
0.0
 10
202.592886768784
 20
107.320084170396
 30
0.0
 10
202.5182860328702
 20
107.1968708148892
 30
0.0
 10
202.3497482246367
 20
106.9649091836765
 30
0.0
 10
202.2577844383959
 20
106.8588809900626
 30
0.0
 10
202.0572505806632
 20
106.6670261799797
 30
0.0
 10
201.9473938517832
 20
106.5801982632514
 30
0.0
 10
201.7095688419758
 20
106.4336300137361
 30
0.0
 10
201.5808943270424
 20
106.3733786494301
 30
0.0
 10
201.302675013499
 20
106.2898096266312
 30
0.0
 10
201.1548877135202
 20
106.2678000134079
 30
0.0
 10
200.7043871007808
 20
106.2678000134079
 30
0.0
  0
ARC
  5
164
330
1F
100
AcDbEntity
  8
0
  6
HIDDEN
 62
     7
370
     0
100
AcDbCircle
 10
199.1881245115
 20
110.9607804262
 30
0.0
 40
2.179974359737546
100
AcDbArc
 50
283.8529888346
 51
344.8849709918
  0
LINE
  5
165
330
1F
100
AcDbEntity
  8
0
  6
HIDDEN
 62
     7
370
     0
100
AcDbLine
 10
159.2532978551
 20
98.0801585827
 30
0.0
 11
159.2532978551
 21
117.8101714466
 31
0.0
  0
LINE
  5
166
330
1F
100
AcDbEntity
  8
0
  6
HIDDEN
 62
     7
370
     0
100
AcDbLine
 10
185.3226726101
 20
118.4451648731
 30
0.0
 11
185.3226726101
 21
97.4451651562
 31
0.0
  0
LINE
  5
167
330
1F
100
AcDbEntity
  8
0
  6
HIDDEN
 62
     7
370
     0
100
AcDbLine
 10
187.1032980428
 20
117.8201654691
 30
0.0
 11
187.1032980428
 21
98.0701645602
 31
0.0
  0
LINE
  5
168
330
1F
100
AcDbEntity
  8
0
  6
HIDDEN
 62
     7
370
     0
100
AcDbLine
 10
160.2032971726
 20
98.247259273
 30
0.0
 11
164.4532974036
 21
98.247259273
 31
0.0
  0
LINE
  5
169
330
1F
100
AcDbEntity
  8
0
  6
HIDDEN
 62
     7
370
     0
100
AcDbLine
 10
160.2032971726
 20
117.6430707563
 30
0.0
 11
160.2032971726
 21
98.247259273
 31
0.0
  0
LINE
  5
16A
330
1F
100
AcDbEntity
  8
0
  6
HIDDEN
 62
     7
370
     0
100
AcDbLine
 10
161.9532969938
 20
117.6430707563
 30
0.0
 11
160.2032971726
 21
117.6430707563
 31
0.0
  0
SPLINE
  5
16B
330
1F
100
AcDbEntity
  8
0
  6
HIDDEN
 62
     7
370
     0
100
AcDbSpline
210
0.0
220
0.0
230
1.0
 70
     8
 71
     3
 72
    14
 73
    10
 74
     0
 42
0.00000001
 43
0.00000001
 12
1.0
 22
0.0
 32
0.0
 13
1.0
 23
0.0
 33
0.0
 40
0.0
 40
0.0
 40
0.0
 40
0.0
 40
0.2499999999999999
 40
0.2499999999999999
 40
0.4999999999999998
 40
0.4999999999999998
 40
0.7499999999999997
 40
0.7499999999999997
 40
1.0
 40
1.0
 40
1.0
 40
1.0
 10
162.8532975779152
 20
117.9693545080748
 30
0.0
 10
162.8532975779152
 20
117.932882643541
 30
0.0
 10
162.8309269461112
 20
117.8951468910285
 30
0.0
 10
162.7437114148629
 20
117.820011169329
 30
0.0
 10
162.6796902087862
 20
117.783638883107
 30
0.0
 10
162.516204911045
 20
117.7194153439449
 30
0.0
 10
162.4168900368718
 20
117.6918923813224
 30
0.0
 10
162.1970637661667
 20
117.6537202144353
 30
0.0
 10
162.0760602038575
 20
117.6430707164026
 30
0.0
 10
161.9532975779152
 20
117.6430707164026
 30
0.0
  0
LINE
  5
16C
330
1F
100
AcDbEntity
  8
0
  6
HIDDEN
 62
     7
370
     0
100
AcDbLine
 10
162.8532973276
 20
117.9693549637
 30
0.0
 11
162.8532973276
 21
118.4451648731
 31
0.0
  0
SPLINE
  5
16D
330
1F
100
AcDbEntity
  8
0
  6
HIDDEN
 62
     7
370
     0
100
AcDbSpline
210
0.0
220
0.0
230
1.0
 70
     8
 71
     3
 72
    14
 73
    10
 74
     0
 42
0.00000001
 43
0.00000001
 12
1.0
 22
0.0
 32
0.0
 13
1.0
 23
0.0
 33
0.0
 40
0.0
 40
0.0
 40
0.0
 40
0.0
 40
0.2499999999999999
 40
0.2499999999999999
 40
0.4999999999999998
 40
0.4999999999999998
 40
0.7499999999999997
 40
0.7499999999999997
 40
1.0
 40
1.0
 40
1.0
 40
1.0
 10
162.8532975779152
 20
117.9693545080748
 30
0.0
 10
162.8532975779152
 20
117.932882643541
 30
0.0
 10
162.8309269461112
 20
117.8951468910285
 30
0.0
 10
162.7437114148629
 20
117.820011169329
 30
0.0
 10
162.6796902087862
 20
117.783638883107
 30
0.0
 10
162.516204911045
 20
117.7194153439449
 30
0.0
 10
162.4168900368718
 20
117.6918923813224
 30
0.0
 10
162.1970637661667
 20
117.6537202144353
 30
0.0
 10
162.0760602038575
 20
117.6430707164026
 30
0.0
 10
161.9532975779152
 20
117.6430707164026
 30
0.0
  0
SPLINE
  5
16E
330
1F
100
AcDbEntity
  8
0
  6
HIDDEN
 62
     7
370
     0
100
AcDbSpline
210
0.0
220
0.0
230
1.0
 70
     8
 71
     3
 72
    14
 73
    10
 74
     0
 42
0.00000001
 43
0.00000001
 12
1.0
 22
0.0
 32
0.0
 13
1.0
 23
0.0
 33
0.0
 40
0.0
 40
0.0
 40
0.0
 40
0.0
 40
0.2500000000000003
 40
0.2500000000000003
 40
0.5000000000000002
 40
0.5000000000000002
 40
0.7500000000000001
 40
0.7500000000000001
 40
1.0
 40
1.0
 40
1.0
 40
1.0
 10
164.4532975779152
 20
98.24725931290624
 30
0.0
 10
164.5759030013017
 20
98.24725931290624
 30
0.0
 10
164.6962461033945
 20
98.23671597099623
 30
0.0
 10
164.9165461075734
 20
98.19853301037159
 30
0.0
 10
165.0161898538609
 20
98.17089174223082
 30
0.0
 10
165.1790779389219
 20
98.10696041744345
 30
0.0
 10
165.2437225957246
 20
98.07024167847958
 30
0.0
 10
165.3304455606205
 20
97.99566503303394
 30
0.0
 10
165.3532975779152
 20
97.95740929916025
 30
0.0
 10
165.3532975779152
 20
97.92097552123403
 30
0.0
  0
LINE
  5
16F
330
1F
100
AcDbEntity
  8
0
  6
HIDDEN
 62
     7
370
     0
100
AcDbLine
 10
165.3532977374
 20
97.9209750656
 30
0.0
 11
165.3532977374
 21
97.4451651562
 31
0.0
  0
SPLINE
  5
170
330
1F
100
AcDbEntity
  8
0
  6
HIDDEN
 62
     7
370
     0
100
AcDbSpline
210
0.0
220
0.0
230
1.0
 70
     8
 71
     3
 72
    14
 73
    10
 74
     0
 42
0.00000001
 43
0.00000001
 12
1.0
 22
0.0
 32
0.0
 13
1.0
 23
0.0
 33
0.0
 40
0.0
 40
0.0
 40
0.0
 40
0.0
 40
0.2500000000000003
 40
0.2500000000000003
 40
0.5000000000000002
 40
0.5000000000000002
 40
0.7500000000000001
 40
0.7500000000000001
 40
1.0
 40
1.0
 40
1.0
 40
1.0
 10
164.4532975779152
 20
98.24725931290624
 30
0.0
 10
164.5759030013017
 20
98.24725931290624
 30
0.0
 10
164.6962461033945
 20
98.23671597099623
 30
0.0
 10
164.9165461075734
 20
98.19853301037159
 30
0.0
 10
165.0161898538609
 20
98.17089174223082
 30
0.0
 10
165.1790779389219
 20
98.10696041744345
 30
0.0
 10
165.2437225957246
 20
98.07024167847958
 30
0.0
 10
165.3304455606205
 20
97.99566503303394
 30
0.0
 10
165.3532975779152
 20
97.95740929916025
 30
0.0
 10
165.3532975779152
 20
97.92097552123403
 30
0.0
  0
LINE
  5
171
330
1F
100
AcDbEntity
  8
0
  6
HIDDEN
 62
     7
370
     0
100
AcDbLine
 10
160.2032971726
 20
98.247259273
 30
0.0
 11
160.2032971726
 21
117.6430707563
 31
0.0
  0
ARC
  5
172
330
1F
100
AcDbEntity
  8
0
  6
HIDDEN
 62
     7
370
     0
100
AcDbCircle
 10
199.4056192215
 20
110.6433075552
 30
0.0
 40
2.201114130338429
100
AcDbArc
 50
105.4038205971
 51
140.9077169336
  0
LINE
  5
173
330
1F
100
AcDbEntity
  8
0
  6
HIDDEN
 62
     7
370
     0
100
AcDbLine
 10
162.8532973276
 20
118.945164955
 30
0.0
 11
162.8532973276
 21
121.502689435
 31
0.0
  0
LINE
  5
174
330
1F
100
AcDbEntity
  8
0
  6
HIDDEN
 62
     7
370
     0
100
AcDbLine
 10
165.3532977374
 20
96.9451650743
 30
0.0
 11
165.3532977374
 21
94.3415885557
 31
0.0
  0
LINE
  5
175
330
1F
100
AcDbEntity
  8
0
  6
HIDDEN
 62
     7
370
     0
100
AcDbLine
 10
160.2032971726
 20
118.945164955
 30
0.0
 11
160.2032971726
 21
120.8251653005
 31
0.0
  0
LINE
  5
176
330
1F
100
AcDbEntity
  8
0
  6
HIDDEN
 62
     7
370
     0
100
AcDbLine
 10
159.2532978551
 20
118.945164955
 30
0.0
 11
159.2532978551
 21
119.8751650516
 31
0.0
  0
LINE
  5
177
330
1F
100
AcDbEntity
  8
0
  6
HIDDEN
 62
     7
370
     0
100
AcDbLine
 10
160.2032971726
 20
96.9451650743
 30
0.0
 11
160.2032971726
 21
95.1241649453
 31
0.0
  0
LINE
  5
178
330
1F
100
AcDbEntity
  8
0
  6
HIDDEN
 62
     7
370
     0
100
AcDbLine
 10
159.2532978551
 20
96.9451650743
 30
0.0
 11
159.2532978551
 21
96.0741651941
 31
0.0
  0
LINE
  5
179
330
1F
100
AcDbEntity
  8
0
  6
HIDDEN
 62
     7
370
     0
100
AcDbLine
 10
192.4532973365
 20
114.1951651078
 30
0.0
 11
192.4532973365
 21
101.6951649215
 31
0.0
  0
LINE
  5
17A
330
1F
100
AcDbEntity
  8
0
  6
HIDDEN
 62
     7
370
     0
100
AcDbLine
 10
194.953296815
 20
114.1951651078
 30
0.0
 11
194.953296815
 21
101.6951649215
 31
0.0
  0
LINE
  5
17B
330
1F
100
AcDbEntity
  8
0
  6
HIDDEN
 62
     7
370
     0
100
AcDbLine
 10
187.6032971935
 20
113.4451649849
 30
0.0
 11
187.6032971935
 21
102.4451650445
 31
0.0
  0
LINE
  5
17C
330
1F
100
AcDbEntity
  8
0
  6
HIDDEN
 62
     7
370
     0
100
AcDbLine
 10
187.1032980428
 20
101.9451649625
 30
0.0
 11
187.1032980428
 21
113.9451650668
 31
0.0
  0
LINE
  5
17D
330
1F
100
AcDbEntity
  8
0
  6
HIDDEN
 62
     7
370
     0
100
AcDbLine
 10
194.1485195578
 20
91.0451657836
 30
0.0
 11
191.6032978491
 21
91.0451657836
 31
0.0
  0
LINE
  5
17E
330
1F
100
AcDbEntity
  8
0
  6
HIDDEN
 62
     7
370
     0
100
AcDbLine
 10
194.1132978694
 20
90.8322859321
 30
0.0
 11
194.1132978694
 21
90.5160423134
 31
0.0
  0
LINE
  5
17F
330
1F
100
AcDbEntity
  8
0
  6
HIDDEN
 62
     7
370
     0
100
AcDbLine
 10
187.1032980428
 20
87.970180786
 30
0.0
 11
187.1032980428
 21
91.0451657836
 31
0.0
  0
LINE
  5
180
330
1F
100
AcDbEntity
  8
0
  6
HIDDEN
 62
     7
370
     0
100
AcDbLine
 10
191.6032978491
 20
91.0451657836
 30
0.0
 11
187.1032980428
 21
91.0451657836
 31
0.0
  0
LINE
  5
181
330
1F
100
AcDbEntity
  8
0
  6
HIDDEN
 62
     7
370
     0
100
AcDbLine
 10
199.1032981471
 20
91.0451657836
 30
0.0
 11
196.1580743239
 21
91.0451657836
 31
0.0
  0
LINE
  5
182
330
1F
100
AcDbEntity
  8
0
  6
HIDDEN
 62
     7
370
     0
100
AcDbLine
 10
196.1932969437
 20
90.5160423134
 30
0.0
 11
196.1932969437
 21
90.8322859321
 31
0.0
  0
LINE
  5
183
330
1F
100
AcDbEntity
  8
0
  6
HIDDEN
 62
     7
370
     0
100
AcDbLine
 10
199.1032981471
 20
91.0451657836
 30
0.0
 11
199.1032981471
 21
89.3411323194
 31
0.0
  0
LINE
  5
184
330
1F
100
AcDbEntity
  8
0
  6
HIDDEN
 62
     7
370
     0
100
AcDbLine
 10
192.4532973365
 20
102.4451650445
 30
0.0
 11
192.4532973365
 21
113.4451649849
 31
0.0
  0
ELLIPSE
  5
185
330
1F
100
AcDbEntity
  8
0
  6
HIDDEN
 62
     7
370
     0
100
AcDbEllipse
 10
157.1475308382
 20
107.9451650147
 30
0.0
 11
12.26424774976732
 21
0.0
 31
0.0
210
0.0
220
0.0
230
1.0
 40
0.8164965809
 41
1.318982952866323
 42
1.398241670070616
  0
LINE
  5
186
330
1F
100
AcDbEntity
  8
0
  6
HIDDEN
 62
     7
370
     0
100
AcDbLine
 10
159.2532978551
 20
118.945164955
 30
0.0
 11
159.2532978551
 21
117.8101714466
 31
0.0
  0
ELLIPSE
  5
187
330
1F
100
AcDbEntity
  8
0
  6
HIDDEN
 62
     7
370
     0
100
AcDbEllipse
 10
157.1475308382
 20
107.9451650147
 30
0.0
 11
12.26424774976732
 21
0.0
 31
0.0
210
0.0
220
0.0
230
1.0
 40
0.8164965809
 41
4.884943637108982
 42
4.964202354313274
  0
LINE
  5
188
330
1F
100
AcDbEntity
  8
0
  6
HIDDEN
 62
     7
370
     0
100
AcDbLine
 10
159.2532978551
 20
96.9451650743
 30
0.0
 11
159.2532978551
 21
98.0801585827
 31
0.0
  0
LINE
  5
189
330
1F
100
AcDbEntity
  8
0
  6
HIDDEN
 62
     7
370
     0
100
AcDbLine
 10
199.1033596144
 20
124.8451642458
 30
0.0
 11
195.9449523286
 21
124.8451642458
 31
0.0
  0
LINE
  5
18A
330
1F
100
AcDbEntity
  8
0
  6
HIDDEN
 62
     7
370
     0
100
AcDbLine
 10
199.1032981471
 20
124.8566996072
 30
0.0
 11
199.1032981471
 21
126.8160421167
 31
0.0
  0
LINE
  5
18B
330
1F
100
AcDbEntity
  8
0
  6
HIDDEN
 62
     7
370
     0
100
AcDbLine
 10
196.1932969437
 20
125.6588421527
 30
0.0
 11
196.1932969437
 21
125.347769237
 31
0.0
  0
LINE
  5
18C
330
1F
100
AcDbEntity
  8
0
  6
HIDDEN
 62
     7
370
     0
100
AcDbLine
 10
194.3616415532
 20
124.8451642458
 30
0.0
 11
191.6032978491
 21
124.8451642458
 31
0.0
  0
LINE
  5
18D
330
1F
100
AcDbEntity
  8
0
  6
HIDDEN
 62
     7
370
     0
100
AcDbLine
 10
194.1132978694
 20
125.347769237
 30
0.0
 11
194.1132978694
 21
125.6588421527
 31
0.0
  0
LINE
  5
18E
330
1F
100
AcDbEntity
  8
0
  6
HIDDEN
 62
     7
370
     0
100
AcDbLine
 10
191.6032978491
 20
124.8451642458
 30
0.0
 11
187.1032980428
 21
124.8451642458
 31
0.0
  0
LINE
  5
18F
330
1F
100
AcDbEntity
  8
0
  6
HIDDEN
 62
     7
370
     0
100
AcDbLine
 10
219.9070979999
 20
127.6284031335
 30
0.0
 11
219.9499686406
 21
127.6507008586
 31
0.0
  0
LINE
  5
190
330
1F
100
AcDbEntity
  8
0
  6
HIDDEN
 62
     7
370
     0
100
AcDbLine
 10
219.9499686406
 20
127.6507008586
 30
0.0
 11
212.9507255898
 21
114.1240590949
 31
0.0
  0
LINE
  5
191
330
1F
100
AcDbEntity
  8
0
  6
HIDDEN
 62
     7
370
     0
100
AcDbLine
 10
218.5995918856
 20
116.3816129554
 30
0.0
 11
218.6219026492
 21
116.4247276027
 31
0.0
  0
LINE
  5
192
330
1F
100
AcDbEntity
  8
0
  6
HIDDEN
 62
     7
370
     0
100
AcDbLine
 10
218.6219026492
 20
116.4247276027
 30
0.0
 11
226.8810053514
 21
120.7205675308
 31
0.0
  0
LINE
  5
193
330
1F
100
AcDbEntity
  8
0
  6
HIDDEN
 62
     7
370
     0
100
AcDbLine
 10
226.8810053514
 20
120.7205675308
 30
0.0
 11
226.8586983131
 21
120.6774528835
 31
0.0
  0
LINE
  5
194
330
1F
100
AcDbEntity
  8
0
  6
HIDDEN
 62
     7
370
     0
100
AcDbLine
 10
160.2032971726
 20
96.9451650743
 30
0.0
 11
160.2032971726
 21
98.247259273
 31
0.0
  0
LINE
  5
195
330
1F
100
AcDbEntity
  8
0
  6
HIDDEN
 62
     7
370
     0
100
AcDbLine
 10
165.3532977374
 20
96.9451650743
 30
0.0
 11
165.3532977374
 21
97.9209750656
 31
0.0
  0
LINE
  5
196
330
1F
100
AcDbEntity
  8
0
  6
HIDDEN
 62
     7
370
     0
100
AcDbLine
 10
160.2032971726
 20
118.945164955
 30
0.0
 11
160.2032971726
 21
117.6430707563
 31
0.0
  0
LINE
  5
197
330
1F
100
AcDbEntity
  8
0
  6
HIDDEN
 62
     7
370
     0
100
AcDbLine
 10
162.8532973276
 20
118.945164955
 30
0.0
 11
162.8532973276
 21
117.9693549637
 31
0.0
  0
SPLINE
  5
198
330
1F
100
AcDbEntity
  8
0
  6
HIDDEN
 62
     7
370
     0
100
AcDbSpline
210
0.0
220
0.0
230
1.0
 70
     8
 71
     3
 72
    35
 73
    31
 74
     0
 42
0.00000001
 43
0.00000001
 12
1.0
 22
0.0
 32
0.0
 13
1.0
 23
0.0
 33
0.0
 40
-0.0968719547595006
 40
-0.0666583833390638
 40
-0.0343746550663528
 40
0.0
 40
0.0402441098602218
 40
0.0744787394150458
 40
0.102701076922835
 40
0.1249180007539461
 40
0.1620538085088403
 40
0.2036866663220331
 40
0.2499064830388325
 40
0.2843401434852735
 40
0.3106265384480303
 40
0.3287516969918892
 40
0.3698185885315884
 40
0.4071583744141671
 40
0.4519491139953024
 40
0.5000414814625184
 40
0.5203027018300285
 40
0.5628788417857504
 40
0.5977565761193747
 40
0.6256573786661428
 40
0.686051351246162
 40
0.7499481278641021
 40
0.7710338013047724
 40
0.8124324456481478
 40
0.8472054201757163
 40
0.8749589023494395
 40
0.9031280452404993
 40
0.9333416166609361
 40
0.965625344933647
 40
0.9999999999999999
 40
1.040244109860222
 40
1.074478739415046
 40
1.102701076922835
 10
170.9970908717348
 20
93.70431564896037
 30
0.0
 10
171.2357335187737
 20
93.74088616676154
 30
0.0
 10
171.5821199886699
 20
93.78130042718503
 30
0.0
 10
171.986842696456
 20
93.81067449326343
 30
0.0
 10
172.3604608213535
 20
93.82788057177412
 30
0.0
 10
172.7691282142773
 20
93.83307093520638
 30
0.0
 10
173.2592244662471
 20
93.80814342758148
 30
0.0
 10
173.8576148184868
 20
93.74732570939156
 30
0.0
 10
174.3927410080777
 20
93.65981317139075
 30
0.0
 10
174.7869973170693
 20
93.57605629994109
 30
0.0
 10
175.0269263422522
 20
93.51817374005431
 30
0.0
 10
175.2407080909249
 20
93.46016087836318
 30
0.0
 10
175.4084759071894
 20
93.41362668388938
 30
0.0
 10
175.478939528219
 20
93.39156574692923
 30
0.0
 10
175.3894143358755
 20
93.42034248292805
 30
0.0
 10
175.15657784161
 20
93.48190467221067
 30
0.0
 10
174.8371436891489
 20
93.5658453419461
 30
0.0
 10
174.4850521445512
 20
93.64083799154668
 30
0.0
 10
174.0373515862871
 20
93.71861268531187
 30
0.0
 10
173.470478051112
 20
93.79549707593335
 30
0.0
 10
172.7176278391676
 20
93.84078628467891
 30
0.0
 10
172.0464563918632
 20
93.82331278735464
 30
0.0
 10
171.5616633020152
 20
93.77854366332915
 30
0.0
 10
171.2473065966762
 20
93.74299449504579
 30
0.0
 10
171.0124726449228
 20
93.70730852782009
 30
0.0
 10
170.8875287506021
 20
93.68452609606095
 30
0.0
 10
170.8407067206203
 20
93.67754593409067
 30
0.0
 10
170.8722348637079
 20
93.68450318706647
 30
0.0
 10
170.9970908717348
 20
93.70431564896037
 30
0.0
 10
171.2357335187737
 20
93.74088616676154
 30
0.0
 10
171.5821199886699
 20
93.78130042718503
 30
0.0
  0
SPLINE
  5
199
330
1F
100
AcDbEntity
  8
0
  6
HIDDEN
 62
     7
370
     0
100
AcDbSpline
210
0.0
220
0.0
230
1.0
 70
     8
 71
     3
 72
    35
 73
    31
 74
     0
 42
0.00000001
 43
0.00000001
 12
1.0
 22
0.0
 32
0.0
 13
1.0
 23
0.0
 33
0.0
 40
-0.1243197192419421
 40
-0.1014876450686309
 40
-0.0608470324374216
 40
0.0
 40
0.0343752282034998
 40
0.06664410493777
 40
0.0968273219162002
 40
0.1249505624682888
 40
0.152666254694978
 40
0.1874715331004942
 40
0.2288808119705798
 40
0.2500285047284304
 40
0.3139875933197626
 40
0.3744837005593567
 40
0.4023317688239968
 40
0.4371113644499154
 40
0.4795885530026773
 40
0.499790401118691
 40
0.5479907717246938
 40
0.5929884907782011
 40
0.6398024291144515
 40
0.6945156081854151
 40
0.728510232295924
 40
0.7625225324122133
 40
0.7965529092023899
 40
0.8145533850530493
 40
0.833722924435114
 40
0.8540905233807928
 40
0.8756802807580579
 40
0.898512354931369
 40
0.9391529675625784
 40
1.0
 40
1.0343752282035
 40
1.06664410493777
 40
1.0968273219162
 10
171.7526560711171
 20
122.0913509026325
 30
0.0
 10
171.2811948383251
 20
122.142234605507
 30
0.0
 10
170.9972730795225
 20
122.1859489683896
 30
0.0
 10
170.872330033956
 20
122.2057545317765
 30
0.0
 10
170.8407325706279
 20
122.212741001776
 30
0.0
 10
170.8872216876239
 20
122.2057996894025
 30
0.0
 10
171.0116767679969
 20
122.1830170121277
 30
0.0
 10
171.2460264880053
 20
122.147345668859
 30
0.0
 10
171.5603197033329
 20
122.1117955821155
 30
0.0
 10
172.0452453852462
 20
122.0670246131513
 30
0.0
 10
172.7171998692286
 20
122.0495391720868
 30
0.0
 10
173.4704772120214
 20
122.0947768895013
 30
0.0
 10
174.0369612590316
 20
122.1715085504761
 30
0.0
 10
174.4835547460833
 20
122.2491204714652
 30
0.0
 10
174.834942568849
 20
122.3239446378283
 30
0.0
 10
175.1548344962774
 20
122.4079020200321
 30
0.0
 10
175.3889039587033
 20
122.4694899197096
 30
0.0
 10
175.4856684401966
 20
122.5008918961396
 30
0.0
 10
175.38020241731
 20
122.4668705335235
 30
0.0
 10
175.0807688803686
 20
122.3841153494898
 30
0.0
 10
174.6813230578935
 20
122.2943248852085
 30
0.0
 10
174.2805576939029
 20
122.2211716664926
 30
0.0
 10
173.9006090247964
 20
122.153936089941
 30
0.0
 10
173.5696233412388
 20
122.1061972460318
 30
0.0
 10
173.294539384783
 20
122.0814241066648
 30
0.0
 10
172.9993047155493
 20
122.065114095001
 30
0.0
 10
172.6885701346688
 20
122.0583526726883
 30
0.0
 10
172.2920358160904
 20
122.0603751912845
 30
0.0
 10
171.7526560711171
 20
122.0913509026325
 30
0.0
 10
171.2811948383251
 20
122.142234605507
 30
0.0
 10
170.9972730795225
 20
122.1859489683896
 30
0.0
  0
LINE
  5
19A
330
1F
100
AcDbEntity
  8
0
  6
HIDDEN
 62
     7
370
     0
100
AcDbLine
 10
219.99185953
 20
127.336068428
 30
0.0
 11
219.9499686406
 21
127.6507008586
 31
0.0
  0
LINE
  5
19B
330
1F
100
AcDbEntity
  8
0
  6
HIDDEN
 62
     7
370
     0
100
AcDbLine
 10
219.99185953
 20
127.336068428
 30
0.0
 11
213.0172220216
 21
113.8569748726
 31
0.0
  0
LINE
  5
19C
330
1F
100
AcDbEntity
  8
0
  6
HIDDEN
 62
     7
370
     0
100
AcDbLine
 10
218.306564276
 20
116.4665812392
 30
0.0
 11
218.1385015295
 21
116.1417834226
 31
0.0
  0
LINE
  5
19D
330
1F
100
AcDbEntity
  8
0
  6
HIDDEN
 62
     7
370
     0
100
AcDbLine
 10
218.306564276
 20
116.4665812392
 30
0.0
 11
218.6219026492
 21
116.4247276027
 31
0.0
  0
SPLINE
  5
19E
330
1F
100
AcDbEntity
  8
0
  6
HIDDEN
 62
     7
370
     0
100
AcDbSpline
210
0.0
220
0.0
230
1.0
 70
     8
 71
     3
 72
    64
 73
    60
 74
     0
 42
0.00000001
 43
0.00000001
 12
1.0
 22
0.0
 32
0.0
 13
1.0
 23
0.0
 33
0.0
 40
-0.0312499999999998
 40
-0.0312499999999998
 40
0.0
 40
0.0
 40
0.0625000000000003
 40
0.0625000000000003
 40
0.1250000000000006
 40
0.1250000000000006
 40
0.1875000000000009
 40
0.1875000000000009
 40
0.2187500000000009
 40
0.2187500000000009
 40
0.2500000000000009
 40
0.2500000000000009
 40
0.2812500000000009
 40
0.2812500000000009
 40
0.3125000000000008
 40
0.3125000000000008
 40
0.3437500000000008
 40
0.3437500000000008
 40
0.3750000000000008
 40
0.3750000000000008
 40
0.4062500000000008
 40
0.4062500000000008
 40
0.4375000000000008
 40
0.4375000000000008
 40
0.4687500000000007
 40
0.4687500000000007
 40
0.5000000000000007
 40
0.5000000000000007
 40
0.5312500000000007
 40
0.5312500000000007
 40
0.5625000000000008
 40
0.5625000000000008
 40
0.5937500000000008
 40
0.5937500000000008
 40
0.6250000000000008
 40
0.6250000000000008
 40
0.6562500000000008
 40
0.6562500000000008
 40
0.6875000000000007
 40
0.6875000000000007
 40
0.7187500000000007
 40
0.7187500000000007
 40
0.7500000000000007
 40
0.7500000000000007
 40
0.7812500000000007
 40
0.7812500000000007
 40
0.8125000000000006
 40
0.8125000000000006
 40
0.8437500000000004
 40
0.8437500000000004
 40
0.8750000000000004
 40
0.8750000000000004
 40
0.9062500000000003
 40
0.9062500000000003
 40
0.9375000000000002
 40
0.9375000000000002
 40
0.9687500000000002
 40
0.9687500000000002
 40
1.0
 40
1.0
 40
1.0625
 40
1.0625
 10
201.3329170789311
 20
105.5656415454868
 30
0.0
 10
201.7834176916704
 20
105.5656415454868
 30
0.0
 10
202.0668311006556
 20
105.5988569557394
 30
0.0
 10
202.5756349307411
 20
105.7192547921271
 30
0.0
 10
202.8090307002504
 20
105.808699720264
 30
0.0
 10
203.2238953814002
 20
106.0573786718989
 30
0.0
 10
203.4089052936349
 20
106.2190134747789
 30
0.0
 10
203.6216629508424
 20
106.5282727121527
 30
0.0
 10
203.6819992809322
 20
106.6436721092174
 30
0.0
 10
203.7711594299916
 20
106.8917440562241
 30
0.0
 10
203.8009196312428
 20
107.0281369549289
 30
0.0
 10
203.8230625701806
 20
107.3073973782272
 30
0.0
 10
203.8159946843678
 20
107.4530218767459
 30
0.0
 10
203.7662211131585
 20
107.7433158787664
 30
0.0
 10
203.7243308959816
 20
107.8856595676526
 30
0.0
 10
203.6118259159157
 20
108.1617996744437
 30
0.0
 10
203.5431671065562
 20
108.2912941607096
 30
0.0
 10
203.3856591515658
 20
108.5365803461453
 30
0.0
 10
203.2960881349359
 20
108.6527828807238
 30
0.0
 10
203.1053035676293
 20
108.865131974005
 30
0.0
 10
203.0034154361316
 20
108.9625067586485
 30
0.0
 10
202.7867967570474
 20
109.1415911623495
 30
0.0
 10
202.6711696951529
 20
109.2237656585388
 30
0.0
 10
202.4312807878943
 20
109.3679517773539
 30
0.0
 10
202.3067294262997
 20
109.4305089903336
 30
0.0
 10
202.0443763408945
 20
109.5338522440367
 30
0.0
 10
201.9041605503005
 20
109.5752569955566
 30
0.0
 10
201.6134377393502
 20
109.6234037701051
 30
0.0
 10
201.4614351284121
 20
109.6295022721993
 30
0.0
 10
201.1678070877462
 20
109.5972563808307
 30
0.0
 10
201.0248812098624
 20
109.5589232140113
 30
0.0
 10
200.7630281080062
 20
109.4495454379623
 30
0.0
 10
200.6423443657549
 20
109.3788814139814
 30
0.0
 10
200.4181107769257
 20
109.2133167903351
 30
0.0
 10
200.3165181606024
 20
109.1200247580289
 30
0.0
 10
200.1288188271953
 20
108.9140486346874
 30
0.0
 10
200.0419997224869
 20
108.7999401724158
 30
0.0
 10
199.8879255172799
 20
108.5577611661283
 30
0.0
 10
199.8206316671176
 20
108.4301697498872
 30
0.0
 10
199.7055765510676
 20
108.1611079947248
 30
0.0
 10
199.6575610460726
 20
108.0177639247442
 30
0.0
 10
199.5878649379604
 20
107.7299032384758
 30
0.0
 10
199.5653444314561
 20
107.5831877811671
 30
0.0
 10
199.5477324738677
 20
107.2909749206472
 30
0.0
 10
199.5526902248226
 20
107.1495867485563
 30
0.0
 10
199.5893985466317
 20
106.8759290114285
 30
0.0
 10
199.621467046066
 20
106.7446097152926
 30
0.0
 10
199.7084638759166
 20
106.5040145951506
 30
0.0
 10
199.7643707669015
 20
106.3918965210056
 30
0.0
 10
199.8949180236673
 20
106.1916942381319
 30
0.0
 10
199.9695187595811
 20
106.1028312590832
 30
0.0
 10
200.1380565678146
 20
105.9446770203071
 30
0.0
 10
200.2300203540554
 20
105.877268663627
 30
0.0
 10
200.4305542117881
 20
105.7626001419649
 30
0.0
 10
200.5404109406681
 20
105.7148691086717
 30
0.0
 10
200.7782359504755
 20
105.6394817309617
 30
0.0
 10
200.9069104654089
 20
105.6115281193209
 30
0.0
 10
201.1851297789523
 20
105.5744631215148
 30
0.0
 10
201.3329170789311
 20
105.5656415454868
 30
0.0
 10
201.7834176916704
 20
105.5656415454868
 30
0.0
  0
LINE
  5
19F
330
1F
100
AcDbEntity
  8
0
  6
HIDDEN
 62
     7
370
     0
100
AcDbLine
 10
204.2532977806
 20
110.4451649588
 30
0.0
 11
204.2532977806
 21
105.4451650705
 31
0.0
  0
LINE
  5
1A0
330
1F
100
AcDbEntity
  8
0
  6
HIDDEN
 62
     7
370
     0
100
AcDbLine
 10
194.953296815
 20
105.4451650705
 30
0.0
 11
194.953296815
 21
110.4323383186
 31
0.0
  0
LINE
  5
1A1
330
1F
100
AcDbEntity
  8
0
  6
HIDDEN
 62
     7
370
     0
100
AcDbLine
 10
218.306564276
 20
116.4665812392
 30
0.0
 11
226.5099701629
 21
120.733450516
 31
0.0
  0
LINE
  5
1A2
330
1F
100
AcDbEntity
  8
0
  6
HIDDEN
 62
     7
370
     0
100
AcDbLine
 10
226.8810053514
 20
120.7205675308
 30
0.0
 11
226.5099701629
 21
120.733450516
 31
0.0
  0
LINE
  5
1A3
330
1F
100
AcDbEntity
  8
0
  6
HIDDEN
 62
     7
370
     0
100
AcDbLine
 10
221.6803808854
 20
110.9451650407
 30
0.0
 11
225.3721137689
 21
110.9451650407
 31
0.0
  0
SPLINE
  5
1A4
330
1F
100
AcDbEntity
  8
0
  6
HIDDEN
 62
     7
370
     0
100
AcDbSpline
210
0.0
220
0.0
230
1.0
 70
     8
 71
     3
 72
    10
 73
     6
 74
     0
 42
0.00000001
 43
0.00000001
 12
1.0
 22
0.0
 32
0.0
 13
1.0
 23
0.0
 33
0.0
 40
0.0
 40
0.0
 40
0.0
 40
0.0
 40
0.5
 40
0.5
 40
1.0
 40
1.0
 40
1.0
 40
1.0
 10
214.2519959937207
 20
107.9451650146544
 30
0.0
 10
214.2519959937207
 20
108.4246005992897
 30
0.0
 10
214.2645588757323
 20
108.9036729686646
 30
0.0
 10
214.3040217760629
 20
109.8614031953073
 30
0.0
 10
214.3305102779546
 20
110.3400427001665
 30
0.0
 10
214.3518964162265
 20
110.8188944242684
 30
0.0
  0
SPLINE
  5
1A5
330
1F
100
AcDbEntity
  8
0
  6
HIDDEN
 62
     7
370
     0
100
AcDbSpline
210
0.0
220
0.0
230
1.0
 70
     8
 71
     3
 72
    10
 73
     6
 74
     0
 42
0.00000001
 43
0.00000001
 12
1.0
 22
0.0
 32
0.0
 13
1.0
 23
0.0
 33
0.0
 40
0.0
 40
0.0
 40
0.0
 40
0.0
 40
0.5
 40
0.5
 40
1.0
 40
1.0
 40
1.0
 40
1.0
 10
214.3518964162264
 20
125.1733409447424
 30
0.0
 10
214.3220058118995
 20
125.0315796078335
 30
0.0
 10
214.2892614948819
 20
124.8895173705552
 30
0.0
 10
214.2892189008108
 20
124.6126715904433
 30
0.0
 10
214.3219664401381
 20
124.4780998009965
 30
0.0
 10
214.3518964162253
 20
124.3434847498596
 30
0.0
  0
LINE
  5
1A6
330
1F
100
AcDbEntity
  8
0
  6
HIDDEN
 62
     7
370
     0
100
AcDbLine
 10
214.2519955681
 20
99.9931901459
 30
0.0
 11
214.2519955681
 21
107.9451650147
 31
0.0
  0
SPLINE
  5
1A7
330
1F
100
AcDbEntity
  8
0
  6
HIDDEN
 62
     7
370
     0
100
AcDbSpline
210
0.0
220
0.0
230
1.0
 70
     8
 71
     3
 72
    12
 73
     8
 74
     0
 42
0.00000001
 43
0.00000001
 12
1.0
 22
0.0
 32
0.0
 13
1.0
 23
0.0
 33
0.0
 40
0.0
 40
0.0
 40
0.0
 40
0.0
 40
0.2500000000000008
 40
0.2500000000000008
 40
0.5000000000000016
 40
0.5000000000000016
 40
1.0
 40
1.0
 40
1.0
 40
1.0
 10
214.2519959937207
 20
99.9931903606464
 30
0.0
 10
214.2006651781429
 20
99.87707152675186
 30
0.0
 10
214.140435961391
 20
99.75087871047772
 30
0.0
 10
214.0102196917902
 20
99.48857139179276
 30
0.0
 10
213.9404545767293
 20
99.3529719766228
 30
0.0
 10
213.7207352120488
 20
98.93622250889746
 30
0.0
 10
213.561310625601
 20
98.64603166106563
 30
0.0
 10
213.3859705899362
 20
98.34064723345818
 30
0.0
  0
LINE
  5
1A8
330
1F
100
AcDbEntity
  8
0
  6
HIDDEN
 62
     7
370
     0
100
AcDbLine
 10
214.351896678
 20
125.173341832
 30
0.0
 11
214.3904906855
 21
125.2974480156
 31
0.0
  0
ARC
  5
1A9
330
1F
100
AcDbEntity
  8
0
  6
HIDDEN
 62
     7
370
     0
100
AcDbCircle
 10
213.8008441698
 20
111.7256720547
 30
0.0
 40
1.75037465455294
100
AcDbArc
 50
152.692011348
 51
318.7508527156
  0
LINE
  5
1AA
330
1F
100
AcDbEntity
  8
0
  6
HIDDEN
 62
     7
370
     0
100
AcDbLine
 10
219.5726116346
 20
126.6888923708
 30
0.0
 11
219.99185953
 21
127.336068428
 31
0.0
  0
LINE
  5
1AB
330
1F
100
AcDbEntity
  8
0
  6
HIDDEN
 62
     7
370
     0
100
AcDbLine
 10
218.0230585085
 20
116.0817363996
 30
0.0
 11
218.1321759866
 21
116.2926148389
 31
0.0
  0
LINE
  5
1AC
330
1F
100
AcDbEntity
  8
0
  6
HIDDEN
 62
     7
370
     0
100
AcDbLine
 10
218.306564276
 20
116.4665812392
 30
0.0
 11
218.1321759866
 21
116.2926148389
 31
0.0
  0
LINE
  5
1AD
330
1F
100
AcDbEntity
  8
0
  6
HIDDEN
 62
     7
370
     0
100
AcDbLine
 10
226.5099701629
 20
120.733450516
 30
0.0
 11
225.7918534027
 21
120.2766731147
 31
0.0
  0
LWPOLYLINE
  5
1AE
330
1F
100
AcDbEntity
  8
0
  6
HIDDEN
 62
     7
370
     0
100
AcDbPolyline
 90
       29
 70
   128
 43
0.0
 10
203.0696724699
 20
103.2367892329
 10
203.5298687564
 20
103.3086482201
 10
203.9669868694
 20
103.4786187809
 10
204.3591109262
 20
103.7381774511
 10
204.6865751193
 20
104.0743094634
 10
204.932963957
 20
104.4701590434
 10
205.0859187887
 20
104.9058769129
 10
205.1377692417
 20
105.3596147102
 10
205.0859187887
 20
105.808619526
 10
204.932963957
 20
106.2303769866
 10
204.6865751193
 20
106.6037379204
 10
204.3591109262
 20
106.9099807644
 10
203.9669868694
 20
107.1337489992
 10
203.5298687564
 20
107.2638221083
 10
203.0696724699
 20
107.2936776325
 10
202.6094780461
 20
107.2218185289
 10
202.1723599331
 20
107.0518480263
 10
201.7802358763
 20
106.7922891814
 10
201.4527698205
 20
106.4561575184
 10
201.2063828455
 20
106.060307822
 10
201.0534280137
 20
105.6245897196
 10
201.0015775607
 20
105.1708521553
 10
201.0534280137
 20
104.7218471065
 10
201.2063828455
 20
104.3000897624
 10
201.4527698205
 20
103.9267288286
 10
201.7802358763
 20
103.6204862174
 10
202.1723599331
 20
103.396717808
 10
202.6094780461
 20
103.2666446407
 10
203.0696724699
 20
103.2367892329
  0
LINE
  5
1AF
330
1F
100
AcDbEntity
  8
0
  6
HIDDEN
 62
     7
370
     0
100
AcDbLine
 10
187.1032980428
 20
91.0451657836
 30
0.0
 11
191.6032978491
 21
91.0451657836
 31
0.0
  0
LINE
  5
1B0
330
1F
100
AcDbEntity
  8
0
  6
HIDDEN
 62
     7
370
     0
100
AcDbLine
 10
232.3744637118
 20
132.9981371526
 30
0.0
 11
232.1431343601
 21
133.2272480939
 31
0.0
  0
CIRCLE
  5
1B1
330
1F
100
AcDbEntity
  8
0
  6
HIDDEN
 62
     7
370
     0
100
AcDbCircle
 10
223.1439160747
 20
123.9251194477
 30
0.0
 40
2.393320893834908
  0
LINE
  5
1B2
330
1F
100
AcDbEntity
  8
0
  6
HIDDEN
 62
     7
370
     0
100
AcDbLine
 10
218.1321759866
 20
116.2926148389
 30
0.0
 11
225.7918534027
 21
120.2766731147
 31
0.0
  0
LINE
  5
1B3
330
1F
100
AcDbEntity
  8
0
  6
HIDDEN
 62
     7
370
     0
100
AcDbLine
 10
219.5726116346
 20
126.6888923708
 30
0.0
 11
212.2455430375
 21
112.528697471
 31
0.0
  0
LINE
  5
1B4
330
1F
100
AcDbEntity
  8
0
  6
HIDDEN
 62
     7
370
     0
100
AcDbLine
 10
225.7918534027
 20
120.2766731147
 30
0.0
 11
232.3744637118
 21
132.9981371526
 31
0.0
  0
LINE
  5
1B5
330
1F
100
AcDbEntity
  8
0
  6
HIDDEN
 62
     7
370
     0
100
AcDbLine
 10
232.1431343601
 20
133.2272480939
 30
0.0
 11
219.5726116346
 21
126.6888923708
 31
0.0
  0
CIRCLE
  5
1B6
330
1F
100
AcDbEntity
  8
0
  6
HIDDEN
 62
     7
370
     0
100
AcDbCircle
 10
223.0914318671
 20
123.8693164021
 30
0.0
 40
1.644980986750665
  0
LINE
  5
1B7
330
1F
100
AcDbEntity
  8
0
  6
HIDDEN
 62
     7
370
     0
100
AcDbLine
 10
162.8532973276
 20
118.945164955
 30
0.0
 11
162.8532973276
 21
121.502689435
 31
0.0
  0
LINE
  5
1B8
330
1F
100
AcDbEntity
  8
0
  6
HIDDEN
 62
     7
370
     0
100
AcDbLine
 10
165.3532977374
 20
96.9451650743
 30
0.0
 11
165.3532977374
 21
94.3415885557
 31
0.0
  0
CIRCLE
  5
1B9
330
1F
100
AcDbEntity
  8
0
  6
HIDDEN
 62
     7
370
     0
100
AcDbCircle
 10
222.4810615414
 20
123.2604344652
 30
0.0
 40
1.644980854422779
  0
LINE
  5
1BA
330
1F
100
AcDbEntity
  8
0
  6
HIDDEN
 62
     7
370
     0
100
AcDbLine
 10
196.1932969437
 20
125.347769237
 30
0.0
 11
196.1932969437
 21
90.8322859321
 31
0.0
  0
SPLINE
  5
1BB
330
1F
100
AcDbEntity
  8
0
  6
HIDDEN
 62
     7
370
     0
100
AcDbSpline
210
0.0
220
0.0
230
1.0
 70
     8
 71
     3
 72
    10
 73
     6
 74
     0
 42
0.00000001
 43
0.00000001
 12
1.0
 22
0.0
 32
0.0
 13
1.0
 23
0.0
 33
0.0
 40
0.0
 40
0.0
 40
0.0
 40
0.0
 40
0.5
 40
0.5
 40
1.0
 40
1.0
 40
1.0
 40
1.0
 10
195.9449531921652
 20
124.8451650146544
 30
0.0
 10
196.0223811967138
 20
124.9031243210415
 30
0.0
 10
196.0855608136004
 20
124.9801089761595
 30
0.0
 10
196.1708559928616
 20
125.153679109032
 30
0.0
 10
196.1932975779152
 20
125.2505803715137
 30
0.0
 10
196.1932975779152
 20
125.3477689864743
 30
0.0
  0
SPLINE
  5
1BC
330
1F
100
AcDbEntity
  8
0
  6
HIDDEN
 62
     7
370
     0
100
AcDbSpline
210
0.0
220
0.0
230
1.0
 70
     8
 71
     3
 72
    10
 73
     6
 74
     0
 42
0.00000001
 43
0.00000001
 12
1.0
 22
0.0
 32
0.0
 13
1.0
 23
0.0
 33
0.0
 40
0.0
 40
0.0
 40
0.0
 40
0.0
 40
0.5
 40
0.5
 40
1.0
 40
1.0
 40
1.0
 40
1.0
 10
196.1580751773338
 20
91.04516501465443
 30
0.0
 10
196.169787294297
 20
91.01082167746044
 30
0.0
 10
196.178585364169
 20
90.97572913972222
 30
0.0
 10
196.1903989219411
 20
90.90405736433149
 30
0.0
 10
196.1932975779152
 20
90.86811370996622
 30
0.0
 10
196.1932975779152
 20
90.83228609262613
 30
0.0
  0
SPLINE
  5
1BD
330
1F
100
AcDbEntity
  8
0
  6
HIDDEN
 62
     7
370
     0
100
AcDbSpline
210
0.0
220
0.0
230
1.0
 70
    24
 71
     3
 72
    14
 73
    10
 74
     0
 42
0.00000001
 43
0.00000001
 12
1.0
 22
0.0
 32
0.0
 13
1.0
 23
0.0
 33
0.0
 40
0.0
 40
0.0
 40
0.0
 40
0.0
 40
0.1250000000000006
 40
0.1250000000000006
 40
0.2500000000000013
 40
0.2500000000000013
 40
0.5000000000000026
 40
0.5000000000000026
 40
1.0
 40
1.0
 40
1.0
 40
1.0
 10
195.5932975779152
 20
124.8451650146544
 30
0.0
 10
195.6187388089997
 20
124.8451650146544
 30
0.0
 10
195.6443531116271
 20
124.8451650146544
 30
0.0
 10
195.6898295521542
 20
124.8451650146544
 30
0.0
 10
195.7098327538937
 20
124.8451650146544
 30
0.0
 10
195.7649779458665
 20
124.8451650146544
 30
0.0
 10
195.7944121643886
 20
124.8451650146544
 30
0.0
 10
195.8723251769673
 20
124.8451650146544
 30
0.0
 10
195.910901277488
 20
124.8451650146544
 30
0.0
 10
195.944953192166
 20
124.8451650146544
 30
0.0
  0
SPLINE
  5
1BE
330
1F
100
AcDbEntity
  8
0
  6
HIDDEN
 62
     7
370
     0
100
AcDbSpline
210
0.0
220
0.0
230
1.0
 70
    24
 71
     3
 72
    16
 73
    12
 74
     0
 42
0.00000001
 43
0.00000001
 12
1.0
 22
0.0
 32
0.0
 13
1.0
 23
0.0
 33
0.0
 40
0.0
 40
0.0
 40
0.0
 40
0.0
 40
0.0625000000000021
 40
0.0625000000000021
 40
0.1250000000000042
 40
0.1250000000000042
 40
0.2500000000000031
 40
0.2500000000000031
 40
0.500000000000001
 40
0.500000000000001
 40
1.0
 40
1.0
 40
1.0
 40
1.0
 10
195.5932975779152
 20
91.04516501465443
 30
0.0
 10
195.6275854013753
 20
91.04516501465443
 30
0.0
 10
195.6614693106968
 20
91.04516501465443
 30
0.0
 10
195.7178055035137
 20
91.04516501465443
 30
0.0
 10
195.7420673596806
 20
91.04516501465442
 30
0.0
 10
195.8063604777278
 20
91.04516501465443
 30
0.0
 10
195.8399242671545
 20
91.04516501465443
 30
0.0
 10
195.927840639377
 20
91.04516501465442
 30
0.0
 10
195.9705971820937
 20
91.04516501465443
 30
0.0
 10
196.0811419237439
 20
91.04516501465442
 30
0.0
 10
196.128121337506
 20
91.04516501465443
 30
0.0
 10
196.1580751773338
 20
91.04516501465443
 30
0.0
  0
SPLINE
  5
1BF
330
1F
100
AcDbEntity
  8
0
  6
HIDDEN
 62
     7
370
     0
100
AcDbSpline
210
0.0
220
0.0
230
1.0
 70
     8
 71
     3
 72
    10
 73
     6
 74
     0
 42
0.00000001
 43
0.00000001
 12
1.0
 22
0.0
 32
0.0
 13
1.0
 23
0.0
 33
0.0
 40
0.0
 40
0.0
 40
0.0
 40
0.0
 40
0.5
 40
0.5
 40
1.0
 40
1.0
 40
1.0
 40
1.0
 10
194.1132975779152
 20
125.3477689864743
 30
0.0
 10
194.1132975779152
 20
125.2508339212426
 30
0.0
 10
194.1357472137607
 20
125.1537746425034
 30
0.0
 10
194.2207428720287
 20
124.9805905550964
 30
0.0
 10
194.2835989559592
 20
124.9035846862109
 30
0.0
 10
194.3616419636651
 20
124.8451650146544
 30
0.0
  0
LINE
  5
1C0
330
1F
100
AcDbEntity
  8
0
  6
HIDDEN
 62
     7
370
     0
100
AcDbLine
 10
194.1132978694
 20
125.347769237
 30
0.0
 11
194.1132978694
 21
90.8322859321
 31
0.0
  0
SPLINE
  5
1C1
330
1F
100
AcDbEntity
  8
0
  6
HIDDEN
 62
     7
370
     0
100
AcDbSpline
210
0.0
220
0.0
230
1.0
 70
     8
 71
     3
 72
    10
 73
     6
 74
     0
 42
0.00000001
 43
0.00000001
 12
1.0
 22
0.0
 32
0.0
 13
1.0
 23
0.0
 33
0.0
 40
0.0
 40
0.0
 40
0.0
 40
0.0
 40
0.5
 40
0.5
 40
1.0
 40
1.0
 40
1.0
 40
1.0
 10
194.1132975779152
 20
90.83228609262613
 30
0.0
 10
194.1132975779152
 20
90.86850858206688
 30
0.0
 10
194.1162673072126
 20
90.90470177932544
 30
0.0
 10
194.1281462895606
 20
90.97634027074031
 30
0.0
 10
194.1369415174013
 20
91.01121359538202
 30
0.0
 10
194.1485199784966
 20
91.04516501465443
 30
0.0
  0
SPLINE
  5
1C2
330
1F
100
AcDbEntity
  8
0
  6
HIDDEN
 62
     7
370
     0
100
AcDbSpline
210
0.0
220
0.0
230
1.0
 70
    24
 71
     3
 72
    12
 73
     8
 74
     0
 42
0.00000001
 43
0.00000001
 12
1.0
 22
0.0
 32
0.0
 13
1.0
 23
0.0
 33
0.0
 40
0.0
 40
0.0
 40
0.0
 40
0.0
 40
0.4999999999999982
 40
0.4999999999999982
 40
0.7499999999999991
 40
0.7499999999999991
 40
1.0
 40
1.0
 40
1.0
 40
1.0
 10
194.3616419636652
 20
124.8451650146544
 30
0.0
 10
194.3955932891409
 20
124.8451650146544
 30
0.0
 10
194.4343391473432
 20
124.8451650146544
 30
0.0
 10
194.5125344943509
 20
124.8451650146544
 30
0.0
 10
194.5420431860357
 20
124.8451650146544
 30
0.0
 10
194.6149183474413
 20
124.8451650146544
 30
0.0
 10
194.6617149815757
 20
124.8451650146544
 30
0.0
 10
194.7132975779152
 20
124.8451650146544
 30
0.0
  0
SPLINE
  5
1C3
330
1F
100
AcDbEntity
  8
0
  6
HIDDEN
 62
     7
370
     0
100
AcDbSpline
210
0.0
220
0.0
230
1.0
 70
    24
 71
     3
 72
    16
 73
    12
 74
     0
 42
0.00000001
 43
0.00000001
 12
1.0
 22
0.0
 32
0.0
 13
1.0
 23
0.0
 33
0.0
 40
0.0
 40
0.0
 40
0.0
 40
0.0
 40
0.5
 40
0.5
 40
0.75
 40
0.75
 40
0.875
 40
0.875
 40
0.9375
 40
0.9375
 40
1.0
 40
1.0
 40
1.0
 40
1.0
 10
194.1485199784966
 20
91.04516501465443
 30
0.0
 10
194.1782973841868
 20
91.04516501465443
 30
0.0
 10
194.2252706300506
 20
91.04516501465443
 30
0.0
 10
194.3355880894058
 20
91.04516501465442
 30
0.0
 10
194.3787325598672
 20
91.04516501465443
 30
0.0
 10
194.4673943595372
 20
91.04516501465442
 30
0.0
 10
194.5004455666667
 20
91.04516501465443
 30
0.0
 10
194.5647911511523
 20
91.04516501465443
 30
0.0
 10
194.588936264586
 20
91.04516501465443
 30
0.0
 10
194.6455551852114
 20
91.04516501465443
 30
0.0
 10
194.6791577320897
 20
91.04516501465442
 30
0.0
 10
194.7132975779153
 20
91.04516501465443
 30
0.0
  0
LINE
  5
1C4
330
1F
100
AcDbEntity
  8
0
  6
HIDDEN
 62
     7
370
     0
100
AcDbLine
 10
160.2032971726
 20
118.945164955
 30
0.0
 11
160.2032971726
 21
120.817905641
 31
0.0
  0
LINE
  5
1C5
330
1F
100
AcDbEntity
  8
0
  6
HIDDEN
 62
     7
370
     0
100
AcDbLine
 10
160.2032971726
 20
96.9451650743
 30
0.0
 11
160.2032971726
 21
95.1300788436
 31
0.0
  0
LINE
  5
1C6
330
1F
100
AcDbEntity
  8
0
  6
HIDDEN
 62
     7
370
     0
100
AcDbLine
 10
159.2532978551
 20
118.945164955
 30
0.0
 11
159.2532978551
 21
119.8696376521
 31
0.0
  0
LINE
  5
1C7
330
1F
100
AcDbEntity
  8
0
  6
HIDDEN
 62
     7
370
     0
100
AcDbLine
 10
159.2532978551
 20
117.8101714466
 30
0.0
 11
159.2532978551
 21
98.0801585827
 31
0.0
  0
LINE
  5
1C8
330
1F
100
AcDbEntity
  8
0
  6
HIDDEN
 62
     7
370
     0
100
AcDbLine
 10
159.2532978551
 20
96.9451650743
 30
0.0
 11
159.2532978551
 21
96.079341485
 31
0.0
  0
LINE
  5
1C9
330
1F
100
AcDbEntity
  8
0
  6
HIDDEN
 62
     7
370
     0
100
AcDbLine
 10
194.7132977815
 20
124.8451642458
 30
0.0
 11
195.593297963
 21
124.8451642458
 31
0.0
  0
LINE
  5
1CA
330
1F
100
AcDbEntity
  8
0
  6
HIDDEN
 62
     7
370
     0
100
AcDbLine
 10
194.7132977815
 20
91.0451657836
 30
0.0
 11
195.593297963
 21
91.0451657836
 31
0.0
  0
SPLINE
  5
1CB
330
1F
100
AcDbEntity
  8
0
  6
HIDDEN
 62
     7
370
     0
100
AcDbSpline
210
0.0
220
0.0
230
1.0
 70
     8
 71
     3
 72
     8
 73
     4
 74
     0
 42
0.00000001
 43
0.00000001
 12
1.0
 22
0.0
 32
0.0
 13
1.0
 23
0.0
 33
0.0
 40
0.0
 40
0.0
 40
0.0
 40
0.0
 40
1.0
 40
1.0
 40
1.0
 40
1.0
 10
196.1932975779152
 20
125.6588417101846
 30
0.0
 10
196.5243179089349
 20
126.2503974066423
 30
0.0
 10
196.856099180419
 20
126.8415300708875
 30
0.0
 10
197.1884572768086
 20
127.4323402845595
 30
0.0
  0
SPLINE
  5
1CC
330
1F
100
AcDbEntity
  8
0
  6
HIDDEN
 62
     7
370
     0
100
AcDbSpline
210
0.0
220
0.0
230
1.0
 70
     8
 71
     3
 72
    10
 73
     6
 74
     0
 42
0.00000001
 43
0.00000001
 12
1.0
 22
0.0
 32
0.0
 13
1.0
 23
0.0
 33
0.0
 40
0.0
 40
0.0
 40
0.0
 40
0.0
 40
0.5
 40
0.5
 40
1.0
 40
1.0
 40
1.0
 40
1.0
 10
198.5032975779152
 20
127.4323402845595
 30
0.0
 10
198.6637198025146
 20
127.4323402845595
 30
0.0
 10
198.8202026031819
 20
127.3637548820537
 30
0.0
 10
199.0408562137492
 20
127.133981612734
 30
0.0
 10
199.1032975779152
 20
126.9754834110663
 30
0.0
 10
199.1032975779152
 20
126.8160420477973
 30
0.0
  0
LINE
  5
1CD
330
1F
100
AcDbEntity
  8
0
  6
HIDDEN
 62
     7
370
     0
100
AcDbLine
 10
197.1884579555
 20
127.4323411051
 30
0.0
 11
198.5032973037
 21
127.4323411051
 31
0.0
  0
SPLINE
  5
1CE
330
1F
100
AcDbEntity
  8
0
  6
HIDDEN
 62
     7
370
     0
100
AcDbSpline
210
0.0
220
0.0
230
1.0
 70
     8
 71
     3
 72
     8
 73
     4
 74
     0
 42
0.00000001
 43
0.00000001
 12
1.0
 22
0.0
 32
0.0
 13
1.0
 23
0.0
 33
0.0
 40
0.0
 40
0.0
 40
0.0
 40
0.0
 40
1.0
 40
1.0
 40
1.0
 40
1.0
 10
193.1181378790218
 20
127.4323402845595
 30
0.0
 10
193.4504959754115
 20
126.8415300708875
 30
0.0
 10
193.7822772468955
 20
126.2503974066423
 30
0.0
 10
194.1132975779152
 20
125.6588417101846
 30
0.0
  0
LINE
  5
1CF
330
1F
100
AcDbEntity
  8
0
  6
HIDDEN
 62
     7
370
     0
100
AcDbLine
 10
199.1032981471
 20
126.8160421167
 30
0.0
 11
199.1032981471
 21
89.3411323194
 31
0.0
  0
SPLINE
  5
1D0
330
1F
100
AcDbEntity
  8
0
  6
HIDDEN
 62
     7
370
     0
100
AcDbSpline
210
0.0
220
0.0
230
1.0
 70
     8
 71
     3
 72
    12
 73
     8
 74
     0
 42
0.00000001
 43
0.00000001
 12
1.0
 22
0.0
 32
0.0
 13
1.0
 23
0.0
 33
0.0
 40
0.0
 40
0.0
 40
0.0
 40
0.0
 40
0.2499999999999962
 40
0.2499999999999962
 40
0.4999999999999925
 40
0.4999999999999925
 40
1.0
 40
1.0
 40
1.0
 40
1.0
 10
198.5032975779152
 20
88.71628049162501
 30
0.0
 10
198.5830630583854
 20
88.71628049162501
 30
0.0
 10
198.6634843420425
 20
88.73325608798311
 30
0.0
 10
198.8101662587051
 20
88.7977315854423
 30
0.0
 10
198.876520068269
 20
88.84484521723691
 30
0.0
 10
199.0427241489956
 20
89.02145513122439
 30
0.0
 10
199.1032975779152
 20
89.18130400703255
 30
0.0
 10
199.1032975779152
 20
89.34113319356759
 30
0.0
  0
LINE
  5
1D1
330
1F
100
AcDbEntity
  8
0
  6
HIDDEN
 62
     7
370
     0
100
AcDbLine
 10
197.1884579555
 20
127.4323411051
 30
0.0
 11
197.1884579555
 21
88.7162800644
 31
0.0
  0
LINE
  5
1D2
330
1F
100
AcDbEntity
  8
0
  6
HIDDEN
 62
     7
370
     0
100
AcDbLine
 10
194.1132978694
 20
125.6588421527
 30
0.0
 11
194.1132978694
 21
90.5160423134
 31
0.0
  0
LINE
  5
1D3
330
1F
100
AcDbEntity
  8
0
  6
HIDDEN
 62
     7
370
     0
100
AcDbLine
 10
196.1932969437
 20
125.6588421527
 30
0.0
 11
196.1932969437
 21
90.5160423134
 31
0.0
  0
LINE
  5
1D4
330
1F
100
AcDbEntity
  8
0
  6
HIDDEN
 62
     7
370
     0
100
AcDbLine
 10
229.4093375252
 20
130.1345903192
 30
0.0
 11
232.3744637118
 21
132.9981371526
 31
0.0
  0
LINE
  5
1D5
330
1F
100
AcDbEntity
  8
0
  6
HIDDEN
 62
     7
370
     0
100
AcDbLine
 10
232.1431343601
 20
133.2272480939
 30
0.0
 11
229.3467153953
 21
130.5266286943
 31
0.0
  0
SPLINE
  5
1D6
330
1F
100
AcDbEntity
  8
0
  6
HIDDEN
 62
     7
370
     0
100
AcDbSpline
210
0.0
220
0.0
230
1.0
 70
     8
 71
     3
 72
     8
 73
     4
 74
     0
 42
0.00000001
 43
0.00000001
 12
1.0
 22
0.0
 32
0.0
 13
1.0
 23
0.0
 33
0.0
 40
0.0
 40
0.0
 40
0.0
 40
0.0
 40
1.0
 40
1.0
 40
1.0
 40
1.0
 10
215.6195500369238
 20
122.6338869374306
 30
0.0
 10
214.9735369519749
 20
123.1125215996248
 30
0.0
 10
214.4937640507614
 20
123.7054114409449
 30
0.0
 10
214.3518964162253
 20
124.3434847498596
 30
0.0
  0
SPLINE
  5
1D7
330
1F
100
AcDbEntity
  8
0
  6
HIDDEN
 62
     7
370
     0
100
AcDbSpline
210
0.0
220
0.0
230
1.0
 70
     8
 71
     3
 72
     8
 73
     4
 74
     0
 42
0.00000001
 43
0.00000001
 12
1.0
 22
0.0
 32
0.0
 13
1.0
 23
0.0
 33
0.0
 40
0.0
 40
0.0
 40
0.0
 40
0.0
 40
1.0
 40
1.0
 40
1.0
 40
1.0
 10
193.1181378790218
 20
88.71628049162501
 30
0.0
 10
193.4508431507271
 20
89.31565216484867
 30
0.0
 10
193.7826589513006
 20
89.9155212755537
 30
0.0
 10
194.1132975779152
 20
90.5160416266647
 30
0.0
  0
SPLINE
  5
1D8
330
1F
100
AcDbEntity
  8
0
  6
HIDDEN
 62
     7
370
     0
100
AcDbSpline
210
0.0
220
0.0
230
1.0
 70
     8
 71
     3
 72
     8
 73
     4
 74
     0
 42
0.00000001
 43
0.00000001
 12
1.0
 22
0.0
 32
0.0
 13
1.0
 23
0.0
 33
0.0
 40
0.0
 40
0.0
 40
0.0
 40
0.0
 40
1.0
 40
1.0
 40
1.0
 40
1.0
 10
196.1932975779152
 20
90.5160416266647
 30
0.0
 10
196.5239362045298
 20
89.9155212755537
 30
0.0
 10
196.8557520051033
 20
89.31565216484867
 30
0.0
 10
197.1884572768086
 20
88.71628049162501
 30
0.0
  0
LINE
  5
1D9
330
1F
100
AcDbEntity
  8
0
  6
HIDDEN
 62
     7
370
     0
100
AcDbLine
 10
197.1884579555
 20
88.7162800644
 30
0.0
 11
198.5032973037
 21
88.7162800644
 31
0.0
  0
LINE
  5
1DA
330
1F
100
AcDbEntity
  8
0
  6
HIDDEN
 62
     7
370
     0
100
AcDbLine
 10
159.2532978551
 20
96.1266927187
 30
0.0
 11
159.2532978551
 21
96.3976517085
 31
0.0
  0
LINE
  5
1DB
330
1F
100
AcDbEntity
  8
0
  6
HIDDEN
 62
     7
370
     0
100
AcDbLine
 10
159.2532978551
 20
119.8190789435
 30
0.0
 11
159.2532978551
 21
119.7233967248
 31
0.0
  0
SPLINE
  5
1DC
330
1F
100
AcDbEntity
  8
0
  6
HIDDEN
 62
     7
370
     0
100
AcDbSpline
210
0.0
220
0.0
230
1.0
 70
     8
 71
     3
 72
    26
 73
    22
 74
     0
 42
0.00000001
 43
0.00000001
 12
1.0
 22
0.0
 32
0.0
 13
1.0
 23
0.0
 33
0.0
 40
0.0
 40
0.0
 40
0.0
 40
0.0
 40
0.2499999999999997
 40
0.2499999999999997
 40
0.3749999999999998
 40
0.3749999999999998
 40
0.4375000000000003
 40
0.4375000000000003
 40
0.4687500000000004
 40
0.4687500000000004
 40
0.5000000000000004
 40
0.5000000000000004
 40
0.5312500000000006
 40
0.5312500000000006
 40
0.5625000000000006
 40
0.5625000000000006
 40
0.6250000000000007
 40
0.6250000000000007
 40
0.7500000000000006
 40
0.7500000000000006
 40
1.0
 40
1.0
 40
1.0
 40
1.0
 10
160.0132676243031
 20
120.3332455942673
 30
0.0
 10
159.9658795148746
 20
120.1975898522442
 30
0.0
 10
159.9082382129702
 20
120.053628453915
 30
0.0
 10
159.7861904004269
 20
119.8108558806606
 30
0.0
 10
159.7401413926504
 20
119.7258162402112
 30
0.0
 10
159.6494881084847
 20
119.5854402671709
 30
0.0
 10
159.6151356081992
 20
119.5355288898321
 30
0.0
 10
159.5527004358086
 20
119.4589936249778
 30
0.0
 10
159.5294064170106
 20
119.4325891459909
 30
0.0
 10
159.4803538798841
 20
119.3849943807299
 30
0.0
 10
159.4559224302272
 20
119.365551766878
 30
0.0
 10
159.4152928346074
 20
119.3406439892099
 30
0.0
 10
159.3991305527563
 20
119.334574157899
 30
0.0
 10
159.3721485086531
 20
119.3288852863052
 30
0.0
 10
159.3613989858303
 20
119.3292757943859
 30
0.0
 10
159.3333630116732
 20
119.3354181411744
 30
0.0
 10
159.3205017796405
 20
119.3460821475924
 30
0.0
 10
159.2894989184802
 20
119.3850949379526
 30
0.0
 10
159.2786394364111
 20
119.4211469283569
 30
0.0
 10
159.2553621804731
 20
119.538826325856
 30
0.0
 10
159.2532975779151
 20
119.630156226189
 30
0.0
 10
159.2532975779151
 20
119.7233964790952
 30
0.0
  0
SPLINE
  5
1DD
330
1F
100
AcDbEntity
  8
0
  6
HIDDEN
 62
     7
370
     0
100
AcDbSpline
210
0.0
220
0.0
230
1.0
 70
     8
 71
     3
 72
    24
 73
    20
 74
     0
 42
0.00000001
 43
0.00000001
 12
1.0
 22
0.0
 32
0.0
 13
1.0
 23
0.0
 33
0.0
 40
0.0
 40
0.0
 40
0.0
 40
0.0
 40
0.2499999999999895
 40
0.2499999999999895
 40
0.3749999999999849
 40
0.3749999999999849
 40
0.4374999999999835
 40
0.4374999999999835
 40
0.499999999999982
 40
0.499999999999982
 40
0.5312499999999813
 40
0.5312499999999813
 40
0.5624999999999807
 40
0.5624999999999807
 40
0.6249999999999821
 40
0.6249999999999821
 40
0.7499999999999876
 40
0.7499999999999876
 40
1.0
 40
1.0
 40
1.0
 40
1.0
 10
159.2532975779152
 20
96.39765181343304
 30
0.0
 10
159.2532975779152
 20
96.48256076710263
 30
0.0
 10
159.2560222063476
 20
96.56489046314951
 30
0.0
 10
159.2823795274655
 20
96.66730285056852
 30
0.0
 10
159.2945932457378
 20
96.69811994695291
 30
0.0
 10
159.3292038958701
 20
96.72721746302986
 30
0.0
 10
159.3435906062375
 20
96.73417510366846
 30
0.0
 10
159.3848390893399
 20
96.73306536239161
 30
0.0
 10
159.4133786392708
 20
96.72477195678285
 30
0.0
 10
159.4743013047821
 20
96.68018852292161
 30
0.0
 10
159.497367274922
 20
96.6597268096643
 30
0.0
 10
159.5412631549282
 20
96.61511419138397
 30
0.0
 10
159.5621431904884
 20
96.5912381131776
 30
0.0
 10
159.6193534537815
 20
96.52134101601558
 30
0.0
 10
159.6517000775578
 20
96.4757634272311
 30
0.0
 10
159.7378660210497
 20
96.34687993961224
 30
0.0
 10
159.7835300410897
 20
96.26704676248019
 30
0.0
 10
159.9040776045409
 20
96.04126595336785
 30
0.0
 10
159.9631376932421
 20
95.90643456839653
 30
0.0
 10
160.0132676243031
 20
95.77817942972901
 30
0.0
  0
LINE
  5
1DE
330
1F
100
AcDbEntity
  8
0
  6
HIDDEN
 62
     7
370
     0
100
AcDbLine
 10
159.2532978551
 20
119.7233967248
 30
0.0
 11
159.2532978551
 21
96.3976517085
 31
0.0
  0
LWPOLYLINE
  5
1DF
330
1F
100
AcDbEntity
  8
0
  6
HIDDEN
 62
     7
370
     0
100
AcDbPolyline
 90
       32
 70
   128
 43
0.0
 10
203.1114087598
 20
102.7891583506
 10
203.6070102052
 20
102.8612073276
 10
204.0823199944
 20
103.0291694913
 10
204.5178827987
 20
103.2861684214
 10
204.8958619283
 20
103.6216820356
 10
205.2007862524
 20
104.0219751883
 10
205.4201723234
 20
104.4706596293
 10
205.5450366036
 20
104.9493657191
 10
205.5702679948
 20
105.4384956367
 10
205.4948327289
 20
105.9180240844
 10
205.3218209342
 20
106.3683191313
 10
205.0583143876
 20
106.7709457128
 10
204.7150996671
 20
107.1094202924
 10
204.3062304304
 20
107.3698856051
 10
203.8484462695
 20
107.5416781821
 10
203.3604872571
 20
107.61776485
 10
202.8623302625
 20
107.5950305965
 10
202.3743712501
 20
107.4744061332
 10
201.9165852265
 20
107.2608298853
 10
201.5077159898
 20
106.9630456621
 10
201.1645031319
 20
106.5932447089
 10
200.9009965853
 20
106.1665669548
 10
200.7279847906
 20
105.7004804023
 10
200.6525495247
 20
105.2140666869
 10
200.6777809159
 20
104.7272399299
 10
200.8026451961
 20
104.2599304345
 10
201.0220294045
 20
103.8312701274
 10
201.3269537286
 20
103.4588086184
 10
201.7049347208
 20
103.1577944521
 10
202.1404975252
 20
102.9405508887
 10
202.6158073143
 20
102.8159720589
 10
203.1114087598
 20
102.7891583506
  0
SPLINE
  5
1E0
330
1F
100
AcDbEntity
  8
0
  6
HIDDEN
 62
     7
370
     0
100
AcDbSpline
210
0.0
220
0.0
230
1.0
 70
     8
 71
     3
 72
    10
 73
     6
 74
     0
 42
0.00000001
 43
0.00000001
 12
1.0
 22
0.0
 32
0.0
 13
1.0
 23
0.0
 33
0.0
 40
0.0
 40
0.0
 40
0.0
 40
0.0
 40
0.5
 40
0.5
 40
1.0
 40
1.0
 40
1.0
 40
1.0
 10
215.6195500369238
 20
122.6338869374306
 30
0.0
 10
215.5269329312237
 20
121.8744164776135
 30
0.0
 10
215.4307731545563
 20
121.1037119011271
 30
0.0
 10
215.2302355289859
 20
119.5400154867515
 30
0.0
 10
215.1253678956157
 20
118.7434230515008
 30
0.0
 10
215.0169200443563
 20
117.9451650146544
 30
0.0
  0
ELLIPSE
  5
1E1
330
1F
100
AcDbEntity
  8
0
  6
HIDDEN
 62
     7
370
     0
100
AcDbEllipse
 10
251.1992031856
 20
117.9451650147
 30
0.0
 11
21.28714951022411
 21
-15.44066556427281
 31
0.0
210
0.0
220
0.0
230
1.0
 40
0.3341157914
 41
3.447535354324613
 42
3.481208743188162
  0
ELLIPSE
  5
1E2
330
1F
100
AcDbEntity
  8
0
  6
HIDDEN
 62
     7
370
     0
100
AcDbEllipse
 10
225.1537708683
 20
117.9451650147
 30
0.0
 11
9.389367777068287
 21
16.94176952541674
 31
0.0
210
0.0
220
0.0
230
1.0
 40
0.1497290449
 41
0.8540636835186944
 42
1.529920193430731
  0
ELLIPSE
  5
1E3
330
1F
100
AcDbEntity
  8
0
  6
HIDDEN
 62
     7
370
     0
100
AcDbEllipse
 10
202.3145750024
 20
117.9451650147
 30
0.0
 11
32.01280404195163
 21
16.84784927900888
 31
0.0
210
0.0
220
0.0
230
1.0
 40
0.0708889968
 41
5.187974807112554
 42
5.679478460661121
  0
SPLINE
  5
1E4
330
1F
100
AcDbEntity
  8
0
  6
HIDDEN
 62
     7
370
     0
100
AcDbSpline
210
0.0
220
0.0
230
1.0
 70
     8
 71
     3
 72
     8
 73
     4
 74
     0
 42
0.00000001
 43
0.00000001
 12
1.0
 22
0.0
 32
0.0
 13
1.0
 23
0.0
 33
0.0
 40
0.0
 40
0.0
 40
0.0
 40
0.0
 40
1.0
 40
1.0
 40
1.0
 40
1.0
 10
223.0029089936723
 20
120.0421729485618
 30
0.0
 10
222.6297533812203
 20
119.3784855719531
 30
0.0
 10
222.3324484370902
 20
118.6805759488794
 30
0.0
 10
222.1169721763928
 20
117.9451650146544
 30
0.0
  0
SPLINE
  5
1E5
330
1F
100
AcDbEntity
  8
0
  6
HIDDEN
 62
     7
370
     0
100
AcDbSpline
210
0.0
220
0.0
230
1.0
 70
     8
 71
     3
 72
    10
 73
     6
 74
     0
 42
0.00000001
 43
0.00000001
 12
1.0
 22
0.0
 32
0.0
 13
1.0
 23
0.0
 33
0.0
 40
0.0
 40
0.0
 40
0.0
 40
0.0
 40
0.5
 40
0.5
 40
1.0
 40
1.0
 40
1.0
 40
1.0
 10
215.6195500369238
 20
122.6338869374306
 30
0.0
 10
216.0399511384683
 20
122.7499366470646
 30
0.0
 10
216.4521086702652
 20
122.8921613705813
 30
0.0
 10
217.25951345488
 20
123.2290635668153
 30
0.0
 10
217.6547893620874
 20
123.4241581131411
 30
0.0
 10
218.0337225957864
 20
123.6415971373568
 30
0.0
  0
CIRCLE
  5
1E6
330
1F
100
AcDbEntity
  8
0
  6
HIDDEN
 62
     7
370
     0
100
AcDbCircle
 10
186.1532975779
 20
107.9451650147
 30
0.0
 40
5.0
  0
ELLIPSE
  5
1E7
330
1F
100
AcDbEntity
  8
0
  6
HIDDEN
 62
     7
370
     0
100
AcDbEllipse
 10
222.844907996
 20
107.9451650147
 30
0.0
 11
12.3811453783108
 21
16.92627893113185
 31
0.0
210
0.0
220
0.0
230
1.0
 40
0.1277329972
 41
1.663959316722411
 42
2.150717676687727
  0
SPLINE
  5
1E8
330
1F
100
AcDbEntity
  8
0
  6
HIDDEN
 62
     7
370
     0
100
AcDbSpline
210
0.0
220
0.0
230
1.0
 70
     8
 71
     3
 72
     8
 73
     4
 74
     0
 42
0.00000001
 43
0.00000001
 12
1.0
 22
0.0
 32
0.0
 13
1.0
 23
0.0
 33
0.0
 40
0.0
 40
0.0
 40
0.0
 40
0.0
 40
1.0
 40
1.0
 40
1.0
 40
1.0
 10
215.0169200443563
 20
117.9451650146544
 30
0.0
 10
214.6954585416234
 20
115.5789657298091
 30
0.0
 10
214.4584611346706
 20
113.2049586358382
 30
0.0
 10
214.3518964162266
 20
110.8188944242693
 30
0.0
  0
ELLIPSE
  5
1E9
330
1F
100
AcDbEntity
  8
0
  6
HIDDEN
 62
     7
370
     0
100
AcDbEllipse
 10
232.8862657125
 20
114.9046320582
 30
0.0
 11
11.20588364450737
 21
0.0
 31
0.0
210
0.0
220
0.0
230
1.0
 40
0.9816271834
 41
2.861533927670551
 42
3.141592653589793
  0
LINE
  5
1EA
330
1F
100
AcDbEntity
  8
0
  6
HIDDEN
 62
     7
370
     0
100
AcDbLine
 10
221.6803808854
 20
110.9451650407
 30
0.0
 11
221.6803808854
 21
114.9046322096
 31
0.0
  0
LINE
  5
1EB
330
1F
100
AcDbEntity
  8
0
  6
HIDDEN
 62
     7
370
     0
100
AcDbLine
 10
219.5404437528
 20
107.9451650147
 30
0.0
 11
221.6803808854
 21
110.9451650407
 31
0.0
  0
LINE
  5
1EC
330
1F
100
AcDbEntity
  8
0
  6
HIDDEN
 62
     7
370
     0
100
AcDbLine
 10
179.1532975779
 20
91.7379636083
 30
0.0
 11
179.2474583502
 21
92.4079533432
 31
0.0
  0
LINE
  5
1ED
330
1F
100
AcDbEntity
  8
0
  6
HIDDEN
 62
     7
370
     0
100
AcDbLine
 10
179.2474583502
 20
123.4823766861
 30
0.0
 11
179.1532975779
 21
124.152366421
 31
0.0
  0
ARC
  5
1EE
330
1F
100
AcDbEntity
  8
0
  6
HIDDEN
 62
     7
370
     0
100
AcDbCircle
 10
178.6532908252
 20
92.4914578612
 30
0.0
 40
0.6000067526677062
100
AcDbArc
 50
352.0
 51
0.0
  0
ARC
  5
1EF
330
1F
100
AcDbEntity
  8
0
  6
HIDDEN
 62
     7
370
     0
100
AcDbCircle
 10
178.6532908252
 20
92.4914578612
 30
0.0
 40
0.6000067526677045
100
AcDbArc
 50
0.0
 51
33.5571153394
  0
ARC
  5
1F0
330
1F
100
AcDbEntity
  8
0
  6
HIDDEN
 62
     7
370
     0
100
AcDbCircle
 10
178.6532908252
 20
123.3988721681
 30
0.0
 40
0.6000067526677281
100
AcDbArc
 50
348.75
 51
8.0
  0
LWPOLYLINE
  5
1F1
330
1F
100
AcDbEntity
  8
0
  6
HIDDEN
 62
     7
370
     0
100
AcDbPolyline
 90
        3
 70
   128
 43
0.0
 10
179.2417686168
 20
123.2818163697
 10
179.2076247851
 20
123.1692595173
 10
179.1532975779
 20
123.0672079835
  0
LINE
  5
1F2
330
1F
100
AcDbEntity
  8
0
  6
HIDDEN
 62
     7
370
     0
100
AcDbLine
 10
179.2532975754
 20
92.4914575879
 30
0.0
 11
179.2532975754
 21
123.3988724414
 31
0.0
  0
LINE
  5
1F3
330
1F
100
AcDbEntity
  8
0
  6
HIDDEN
 62
     7
370
     0
100
AcDbLine
 10
179.2532975754
 20
92.4914575879
 30
0.0
 11
179.2532975754
 21
123.3988724414
 31
0.0
  0
ARC
  5
1F4
330
1F
100
AcDbEntity
  8
0
  6
HIDDEN
 62
     7
370
     0
100
AcDbCircle
 10
168.6859255221
 20
95.5951650147
 30
0.0
 40
0.4000000000000244
100
AcDbArc
 50
210.0
 51
270.0
  0
ARC
  5
1F5
330
1F
100
AcDbEntity
  8
0
  6
HIDDEN
 62
     7
370
     0
100
AcDbCircle
 10
168.6859255221
 20
120.2951650147
 30
0.0
 40
0.4000000000000173
100
AcDbArc
 50
90.0
 51
150.0
  0
LINE
  5
1F6
330
1F
100
AcDbEntity
  8
0
  6
HIDDEN
 62
     7
370
     0
100
AcDbLine
 10
168.6859256746
 20
95.1951652531
 30
0.0
 11
170.8840723307
 21
95.1951652531
 31
0.0
  0
LINE
  5
1F7
330
1F
100
AcDbEntity
  8
0
  6
HIDDEN
 62
     7
370
     0
100
AcDbLine
 10
170.8840723307
 20
120.6951647762
 30
0.0
 11
168.6859256746
 21
120.6951647762
 31
0.0
  0
ARC
  5
1F8
330
1F
100
AcDbEntity
  8
0
  6
HIDDEN
 62
     7
370
     0
100
AcDbCircle
 10
174.9774743058
 20
100.1951650147
 30
0.0
 40
5.0
100
AcDbArc
 50
275.4100919888
 51
326.6329870308
  0
ARC
  5
1F9
330
1F
100
AcDbEntity
  8
0
  6
HIDDEN
 62
     7
370
     0
100
AcDbCircle
 10
174.9774743058
 20
115.6951650147
 30
0.0
 40
4.999999999999987
100
AcDbArc
 50
33.3670129692
 51
84.5877660174
  0
LINE
  5
1FA
330
1F
100
AcDbEntity
  8
0
  6
HIDDEN
 62
     7
370
     0
100
AcDbLine
 10
168.3395155863
 20
120.495165116
 30
0.0
 11
167.1559470863
 21
118.4451648731
 31
0.0
  0
LINE
  5
1FB
330
1F
100
AcDbEntity
  8
0
  6
HIDDEN
 62
     7
370
     0
100
AcDbLine
 10
167.1559470863
 20
97.4451651562
 30
0.0
 11
168.3395155863
 21
95.3951649133
 31
0.0
  0
LINE
  5
1FC
330
1F
100
AcDbEntity
  8
0
  6
HIDDEN
 62
     7
370
     0
100
AcDbLine
 10
197.9467780487
 20
112.2100724604
 30
0.0
 11
197.0119499759
 21
111.5569235988
 31
0.0
  0
LINE
  5
1FD
330
1F
100
AcDbEntity
  8
0
  6
HIDDEN
 62
     7
370
     0
100
AcDbLine
 10
206.9024280803
 20
118.4672334928
 30
0.0
 11
197.9467780487
 21
112.2100724604
 31
0.0
  0
LINE
  5
1FE
330
1F
100
AcDbEntity
  8
0
  6
HIDDEN
 62
     7
370
     0
100
AcDbLine
 10
201.4516410575
 20
109.5352774717
 30
0.0
 11
206.8109833793
 21
113.279758836
 31
0.0
  0
LINE
  5
1FF
330
1F
100
AcDbEntity
  8
0
  6
HIDDEN
 62
     7
370
     0
100
AcDbLine
 10
199.4174481527
 20
108.1140208842
 30
0.0
 11
199.9579169945
 21
108.4916365215
 31
0.0
  0
LINE
  5
200
330
1F
100
AcDbEntity
  8
0
  6
HIDDEN
 62
     7
370
     0
100
AcDbLine
 10
196.9552603708
 20
111.3197196972
 30
0.0
 11
197.2069763736
 21
109.1313923242
 31
0.0
  0
LINE
  5
201
330
1F
100
AcDbEntity
  8
0
  6
HIDDEN
 62
     7
370
     0
100
AcDbLine
 10
197.2069763736
 20
109.1313923242
 30
0.0
 11
199.1752186016
 21
108.1423744325
 31
0.0
  0
LINE
  5
202
330
1F
100
AcDbEntity
  8
0
  6
HIDDEN
 62
     7
370
     0
100
AcDbLine
 10
197.906012197
 20
109.1148243284
 30
0.0
 11
199.0650766687
 21
107.4135081724
 31
0.0
  0
LINE
  5
203
330
1F
100
AcDbEntity
  8
0
  6
HIDDEN
 62
     7
370
     0
100
AcDbLine
 10
202.6438568876
 20
109.6200791652
 30
0.0
 11
201.6294510261
 21
111.1090598859
 31
0.0
  0
ARC
  5
204
330
1F
100
AcDbEntity
  8
0
  6
HIDDEN
 62
     7
370
     0
100
AcDbCircle
 10
186.1032975779
 20
98.0701650147
 30
0.0
 40
1.00000000000001
100
AcDbArc
 50
218.6821874535
 51
0.0
  0
ARC
  5
205
330
1F
100
AcDbEntity
  8
0
  6
HIDDEN
 62
     7
370
     0
100
AcDbCircle
 10
186.1032975779
 20
117.8201650147
 30
0.0
 40
1.00000000000001
100
AcDbArc
 50
0.0
 51
141.3178125465
  0
LINE
  5
206
330
1F
100
AcDbEntity
  8
0
  6
HIDDEN
 62
     7
370
     0
100
AcDbLine
 10
165.3532977374
 20
97.4451651562
 30
0.0
 11
167.1559470863
 21
97.4451651562
 31
0.0
  0
LINE
  5
207
330
1F
100
AcDbEntity
  8
0
  6
HIDDEN
 62
     7
370
     0
100
AcDbLine
 10
167.1559470863
 20
118.4451648731
 30
0.0
 11
162.8532973276
 21
118.4451648731
 31
0.0
  0
LINE
  5
208
330
1F
100
AcDbEntity
  8
0
  6
HIDDEN
 62
     7
370
     0
100
AcDbLine
 10
179.1532975779
 20
97.4451651562
 30
0.0
 11
185.3226726101
 21
97.4451651562
 31
0.0
  0
LINE
  5
209
330
1F
100
AcDbEntity
  8
0
  6
HIDDEN
 62
     7
370
     0
100
AcDbLine
 10
185.3226726101
 20
118.4451648731
 30
0.0
 11
179.1532975779
 21
118.4451648731
 31
0.0
  0
LINE
  5
20A
330
1F
100
AcDbEntity
  8
0
  6
HIDDEN
 62
     7
370
     0
100
AcDbLine
 10
192.4532973365
 20
101.6951649215
 30
0.0
 11
194.953296815
 21
101.6951649215
 31
0.0
  0
LINE
  5
20B
330
1F
100
AcDbEntity
  8
0
  6
HIDDEN
 62
     7
370
     0
100
AcDbLine
 10
194.953296815
 20
114.1951651078
 30
0.0
 11
192.4532973365
 21
114.1951651078
 31
0.0
  0
LINE
  5
20C
330
1F
100
AcDbEntity
  8
0
  6
HIDDEN
 62
     7
370
     0
100
AcDbLine
 10
187.1032980428
 20
101.9451649625
 30
0.0
 11
187.6032971935
 21
102.4451650445
 31
0.0
  0
LINE
  5
20D
330
1F
100
AcDbEntity
  8
0
  6
HIDDEN
 62
     7
370
     0
100
AcDbLine
 10
187.6032971935
 20
113.4451649849
 30
0.0
 11
187.1032980428
 21
113.9451650668
 31
0.0
  0
LINE
  5
20E
330
1F
100
AcDbEntity
  8
0
  6
HIDDEN
 62
     7
370
     0
100
AcDbLine
 10
187.6032971935
 20
102.4451650445
 30
0.0
 11
192.4532973365
 21
102.4451650445
 31
0.0
  0
LINE
  5
20F
330
1F
100
AcDbEntity
  8
0
  6
HIDDEN
 62
     7
370
     0
100
AcDbLine
 10
192.4532973365
 20
113.4451649849
 30
0.0
 11
187.6032971935
 21
113.4451649849
 31
0.0
  0
LINE
  5
210
330
1F
100
AcDbEntity
  8
0
  6
HIDDEN
 62
     7
370
     0
100
AcDbLine
 10
187.1032980428
 20
127.9451645676
 30
0.0
 11
187.1032980428
 21
124.8451642458
 31
0.0
  0
LINE
  5
211
330
1F
100
AcDbEntity
  8
0
  6
HIDDEN
 62
     7
370
     0
100
AcDbLine
 10
175.9204769199
 20
92.9038602624
 30
0.0
 11
175.4525483278
 21
93.3996973325
 31
0.0
  0
LINE
  5
212
330
1F
100
AcDbEntity
  8
0
  6
HIDDEN
 62
     7
370
     0
100
AcDbLine
 10
170.8546434687
 20
93.6795504529
 30
0.0
 11
170.3371699126
 21
93.1837254901
 31
0.0
  0
LINE
  5
213
330
1F
100
AcDbEntity
  8
0
  6
HIDDEN
 62
     7
370
     0
100
AcDbLine
 10
170.3365356819
 20
122.7066548307
 30
0.0
 11
170.8542215795
 21
122.2107674692
 31
0.0
  0
LINE
  5
214
330
1F
100
AcDbEntity
  8
0
  6
HIDDEN
 62
     7
370
     0
100
AcDbLine
 10
175.4518624087
 20
122.4904147674
 30
0.0
 11
175.9197663208
 21
122.9863086481
 31
0.0
  0
LINE
  5
215
330
1F
100
AcDbEntity
  8
0
  6
HIDDEN
 62
     7
370
     0
100
AcDbLine
 10
194.953296815
 20
105.4451650705
 30
0.0
 11
204.2532977806
 21
105.4451650705
 31
0.0
  0
LINE
  5
216
330
1F
100
AcDbEntity
  8
0
  6
HIDDEN
 62
     7
370
     0
100
AcDbLine
 10
204.2532977806
 20
110.4451649588
 30
0.0
 11
194.953296815
 21
110.4451649588
 31
0.0
  0
LINE
  5
217
330
1F
100
AcDbEntity
  8
0
  6
HIDDEN
 62
     7
370
     0
100
AcDbLine
 10
204.2532977806
 20
105.4451650705
 30
0.0
 11
205.7554484503
 21
107.9451650147
 31
0.0
  0
LINE
  5
218
330
1F
100
AcDbEntity
  8
0
  6
HIDDEN
 62
     7
370
     0
100
AcDbLine
 10
205.7554484503
 20
107.9451650147
 30
0.0
 11
204.2532977806
 21
110.4451649588
 31
0.0
  0
LINE
  5
219
330
1F
100
AcDbEntity
  8
0
  6
HIDDEN
 62
     7
370
     0
100
AcDbLine
 10
175.4532975768
 20
93.399941339
 30
0.0
 11
175.4532975768
 21
95.2183104817
 31
0.0
  0
LINE
  5
21A
330
1F
100
AcDbEntity
  8
0
  6
HIDDEN
 62
     7
370
     0
100
AcDbLine
 10
170.8532977076
 20
95.2006675068
 30
0.0
 11
170.8532977076
 21
93.6865567926
 31
0.0
  0
LINE
  5
21B
330
1F
100
AcDbEntity
  8
0
  6
HIDDEN
 62
     7
370
     0
100
AcDbLine
 10
175.4532975768
 20
120.6720195476
 30
0.0
 11
175.4532975768
 21
122.4902042885
 31
0.0
  0
LINE
  5
21C
330
1F
100
AcDbEntity
  8
0
  6
HIDDEN
 62
     7
370
     0
100
AcDbLine
 10
170.8532977076
 20
122.2096619893
 30
0.0
 11
170.8532977076
 21
120.6896625225
 31
0.0
  0
LINE
  5
21D
330
1F
100
AcDbEntity
  8
0
  6
HIDDEN
 62
     7
370
     0
100
AcDbLine
 10
215.0327605353
 20
110.4815040015
 30
0.0
 11
215.20715255
 21
110.6554704018
 31
0.0
  0
LINE
  5
21E
330
1F
100
AcDbEntity
  8
0
  6
HIDDEN
 62
     7
370
     0
100
AcDbLine
 10
199.8452604906
 20
106.2683264025
 30
0.0
 11
201.3341565774
 21
104.0828694821
 31
0.0
  0
LINE
  5
21F
330
1F
100
AcDbEntity
  8
0
  6
HIDDEN
 62
     7
370
     0
100
AcDbLine
 10
204.8051883624
 20
106.4475972669
 30
0.0
 11
203.4236402408
 21
108.4754852926
 31
0.0
  0
ARC
  5
220
330
1F
100
AcDbEntity
  8
0
  6
HIDDEN
 62
     7
370
     0
100
AcDbCircle
 10
161.9532975779
 20
121.7251650147
 30
0.0
 40
0.8999999999999915
100
AcDbArc
 50
270.0
 51
311.1792132368
  0
ARC
  5
221
330
1F
100
AcDbEntity
  8
0
  6
HIDDEN
 62
     7
370
     0
100
AcDbCircle
 10
164.4532975779
 20
94.2241650147
 30
0.0
 40
0.9000000000000061
100
AcDbArc
 50
29.8499024808
 51
90.0
  0
LINE
  5
222
330
1F
100
AcDbEntity
  8
0
  6
HIDDEN
 62
     7
370
     0
100
AcDbLine
 10
221.9271292136
 20
125.0295512144
 30
0.0
 11
221.3167590247
 21
124.4206692789
 31
0.0
  0
LINE
  5
223
330
1F
100
AcDbEntity
  8
0
  6
HIDDEN
 62
     7
370
     0
100
AcDbLine
 10
223.6473639653
 20
122.084373026
 30
0.0
 11
224.2577341543
 21
122.6932558928
 31
0.0
  0
LINE
  5
224
330
1F
100
AcDbEntity
  8
0
  6
HIDDEN
 62
     7
370
     0
100
AcDbLine
 10
161.9532969938
 20
120.8251653005
 30
0.0
 11
160.2032971726
 21
120.8251653005
 31
0.0
  0
LINE
  5
225
330
1F
100
AcDbEntity
  8
0
  6
HIDDEN
 62
     7
370
     0
100
AcDbLine
 10
160.2032971726
 20
95.1241649453
 30
0.0
 11
164.4532974036
 21
95.1241649453
 31
0.0
  0
LINE
  5
226
330
1F
100
AcDbEntity
  8
0
  6
HIDDEN
 62
     7
370
     0
100
AcDbLine
 10
160.2032971726
 20
120.8251653005
 30
0.0
 11
159.2532978551
 21
119.8751650516
 31
0.0
  0
LINE
  5
227
330
1F
100
AcDbEntity
  8
0
  6
HIDDEN
 62
     7
370
     0
100
AcDbLine
 10
159.2532978551
 20
96.0741651941
 30
0.0
 11
160.2032971726
 21
95.1241649453
 31
0.0
  0
LINE
  5
228
330
1F
100
AcDbEntity
  8
0
  6
HIDDEN
 62
     7
370
     0
100
AcDbLine
 10
201.0453180568
 20
103.7963967536
 30
0.0
 11
202.0131596522
 21
102.3757647488
 31
0.0
  0
LINE
  5
229
330
1F
100
AcDbEntity
  8
0
  6
HIDDEN
 62
     7
370
     0
100
AcDbLine
 10
206.2724852161
 20
105.0042888381
 30
0.0
 11
205.1774994628
 21
106.6115488064
 31
0.0
  0
LINE
  5
22A
330
1F
100
AcDbEntity
  8
VERMASSUNG
100
AcDbLine
 10
234.1532975779
 20
150.7999822085
 30
0.0
 11
234.1532975779
 21
106.6814943371
 31
0.0
  0
DIMENSION
  5
22B
330
1F
100
AcDbEntity
  8
VERMASSUNG
100
AcDbDimension
  2
_D
 10
233.5968860794
 20
134.9139340374
 30
0.0
 11
225.7825935621
 21
140.2847625774
 31
0.0
 70
   162
  1
<>
 71
     1
 42
-1.0
  3
SLDDIMSTYLE0
100
AcDb2LineAngularDimension
 13
234.1532975779
 23
150.7999822085
 33
0.0
 14
234.1532975779
 24
106.6814943371
 34
0.0
 15
220.1344865246
 25
127.9116837942
 35
0.0
 16
225.7825935621
 26
140.2847625774
 36
0.0
  0
DIMENSION
  5
234
330
1F
100
AcDbEntity
  8
VERMASSUNG
100
AcDbDimension
  2
_D_1
 10
234.1532975779
 20
155.2557834204
 30
0.0
 11
196.7032975779
 21
155.2557834204
 31
0.0
 70
   160
  1
<>
 71
     2
 42
-1.0
  3
SLDDIMSTYLE1
100
AcDbAlignedDimension
 13
159.2532975779
 23
119.8751650147
 33
0.0
 14
234.1532975779
 24
134.9451650147
 34
0.0
100
AcDbRotatedDimension
  0
DIMENSION
  5
23F
330
1F
100
AcDbEntity
  8
VERMASSUNG
100
AcDbDimension
  2
_D_2
 10
234.1532975779
 20
149.2557834204
 30
0.0
 11
206.6532975779
 21
149.2557834204
 31
0.0
 70
   160
  1
<>
 71
     2
 42
-1.0
  3
SLDDIMSTYLE1
100
AcDbAlignedDimension
 13
179.1532975779
 23
127.6451650147
 33
0.0
 14
234.1532975779
 24
134.9451650147
 34
0.0
100
AcDbRotatedDimension
  0
DIMENSION
  5
249
330
1F
100
AcDbEntity
  8
VERMASSUNG
100
AcDbDimension
  2
_D_3
 10
244.3732650755
 20
107.9451650147
 30
0.0
 11
244.3732650755
 21
121.4451650147
 31
0.0
 70
   160
  1
<>
 71
     2
 42
-1.0
  3
SLDDIMSTYLE1
100
AcDbAlignedDimension
 13
234.1532975779
 23
134.9451650147
 33
0.0
 14
220.6271057132
 24
107.9451650147
 34
0.0
 50
90.0
100
AcDbRotatedDimension
  0
DIMENSION
  5
253
330
1F
100
AcDbEntity
  8
VERMASSUNG
100
AcDbDimension
  2
_D_4
 10
149.1092086029
 20
87.9451650147
 30
0.0
 11
149.1092086029
 21
107.9451650147
 31
0.0
 70
   160
  1
HSK T%%c<>
 71
     2
 42
-1.0
  3
SLDDIMSTYLE1
100
AcDbAlignedDimension
 13
179.4532975779
 23
127.9451650147
 33
0.0
 14
179.4532975779
 24
87.9451650147
 34
0.0
 50
90.0
100
AcDbRotatedDimension
  0
LINE
  5
25F
330
1F
100
AcDbEntity
  8
VERMASSUNG
  6
CENTERX2
370
     0
100
AcDbLine
 10
157.7031553161
 20
107.9451650147
 30
0.0
 11
220.6271057132
 21
107.9451650147
 31
0.0
  0
SPLINE
  5
260
330
1F
100
AcDbEntity
  8
0
  6
Continuous
 62
     7
370
    15
100
AcDbSpline
210
0.0
220
0.0
230
1.0
 70
     8
 71
     3
 72
    11
 73
     7
 74
     0
 42
0.00000001
 43
0.00000001
 12
1.0
 22
0.0
 32
0.0
 13
1.0
 23
0.0
 33
0.0
 40
0.0
 40
0.0
 40
0.0
 40
0.0
 40
0.2476423420932043
 40
0.4989322009338173
 40
0.7510921154684997
 40
1.0
 40
1.0
 40
1.0
 40
1.0
 10
95.946965499138
 20
133.6349382762015
 30
0.0
 10
95.5714469589955
 20
133.7653915972629
 30
0.0
 10
94.81487887721632
 20
134.0282196825014
 30
0.0
 10
93.60397347675877
 20
134.3285598843055
 30
0.0
 10
92.38850073609301
 20
134.6199150724055
 30
0.0
 10
91.60964013313522
 20
134.861729748548
 30
0.0
 10
91.22273731202307
 20
134.9818523738683
 30
0.0
  0
LINE
  5
261
330
1F
100
AcDbEntity
  8
0
  6
Continuous
 62
     7
370
    15
100
AcDbLine
 10
90.8838569813
 20
130.7803898815
 30
0.0
 11
90.5871966316
 21
130.3365196798
 31
0.0
  0
LINE
  5
262
330
1F
100
AcDbEntity
  8
0
  6
Continuous
 62
     7
370
    15
100
AcDbLine
 10
89.0446740597
 20
118.3183206011
 30
0.0
 11
89.2341688669
 21
117.9255753521
 31
0.0
  0
LINE
  5
263
330
1F
100
AcDbEntity
  8
0
  6
Continuous
 62
     7
370
    15
100
AcDbLine
 10
88.2931973248
 20
113.680262002
 30
0.0
 11
88.9458986859
 21
113.7758026596
 31
0.0
  0
ARC
  5
264
330
1F
100
AcDbEntity
  8
0
  6
Continuous
 62
     7
370
    15
100
AcDbCircle
 10
96.5445903772
 20
123.7740994957
 30
0.0
 40
7.000000000000004
100
AcDbArc
 50
190.365394812
 51
195.2172104216
  0
ARC
  5
265
330
1F
100
AcDbEntity
  8
0
  6
Continuous
 62
     7
370
    15
100
AcDbCircle
 10
96.5445903772
 20
123.7740994957
 30
0.0
 40
7.000000000000024
100
AcDbArc
 50
156.5119881956
 51
161.634605188
  0
LINE
  5
266
330
1F
100
AcDbEntity
  8
0
  6
Continuous
 62
     7
370
    15
100
AcDbLine
 10
89.8099824482
 20
123.0384021763
 30
0.0
 11
89.8030194149
 21
123.038889258
 31
0.0
  0
SPLINE
  5
267
330
1F
100
AcDbEntity
  8
0
  6
Continuous
 62
     7
370
    15
100
AcDbSpline
210
0.0
220
0.0
230
1.0
 70
     8
 71
     3
 72
    15
 73
    11
 74
     0
 42
0.00000001
 43
0.00000001
 12
1.0
 22
0.0
 32
0.0
 13
1.0
 23
0.0
 33
0.0
 40
0.0
 40
0.0
 40
0.0
 40
0.0
 40
0.1411617153063724
 40
0.2818352519779496
 40
0.4169678661453282
 40
0.5461350537003729
 40
0.672357870950687
 40
0.7999844009539848
 40
0.9323918240239333
 40
1.0
 40
1.0
 40
1.0
 40
1.0
 10
91.26851066696412
 20
134.3875679884255
 30
0.0
 10
91.27279467944916
 20
134.4313053525179
 30
0.0
 10
91.28134788904693
 20
134.518628824063
 30
0.0
 10
91.29078343424455
 20
134.6607292979772
 30
0.0
 10
91.29605675556819
 20
134.7874283611268
 30
0.0
 10
91.29665800970388
 20
134.8853244342148
 30
0.0
 10
91.29294564088143
 20
134.9465980238917
 30
0.0
 10
91.28541012004099
 20
134.9674272573716
 30
0.0
 10
91.2765747932177
 20
134.9509752378059
 30
0.0
 10
91.27042323044502
 20
134.9232920598126
 30
0.0
 10
91.26834391292954
 20
134.9139347437919
 30
0.0
  0
SPLINE
  5
268
330
1F
100
AcDbEntity
  8
0
  6
Continuous
 62
     7
370
    15
100
AcDbSpline
210
0.0
220
0.0
230
1.0
 70
     8
 71
     3
 72
    15
 73
    11
 74
     0
 42
0.00000001
 43
0.00000001
 12
1.0
 22
0.0
 32
0.0
 13
1.0
 23
0.0
 33
0.0
 40
0.0
 40
0.0
 40
0.0
 40
0.0
 40
0.1437537242859782
 40
0.2878311206673183
 40
0.4234913432456368
 40
0.5497154303870345
 40
0.6718833939047661
 40
0.7962133904507684
 40
0.9276126830094451
 40
1.0
 40
1.0
 40
1.0
 40
1.0
 10
95.90059075719631
 20
133.6381941799224
 30
0.0
 10
95.90171142156015
 20
133.6428168206762
 30
0.0
 10
95.90395527354616
 20
133.6520725104
 30
0.0
 10
95.9064413998449
 20
133.650536558509
 30
0.0
 10
95.9077972767816
 20
133.6373061993026
 30
0.0
 10
95.90792317675225
 20
133.6146087015095
 30
0.0
 10
95.90696813412248
 20
133.5860007103357
 30
0.0
 10
95.90506629529361
 20
133.5538341803464
 30
0.0
 10
95.90280442625948
 20
133.5257570956386
 30
0.0
 10
95.90120224525381
 20
133.5100448697727
 30
0.0
 10
95.90063313237346
 20
133.5044637087882
 30
0.0
  0
SPLINE
  5
269
330
1F
100
AcDbEntity
  8
0
  6
Continuous
 62
     7
370
    15
100
AcDbSpline
210
0.0
220
0.0
230
1.0
 70
     8
 71
     3
 72
    10
 73
     6
 74
     0
 42
0.00000001
 43
0.00000001
 12
1.0
 22
0.0
 32
0.0
 13
1.0
 23
0.0
 33
0.0
 40
0.0
 40
0.0
 40
0.0
 40
0.0
 40
0.272481219620992
 40
0.5447556693826664
 40
1.0
 40
1.0
 40
1.0
 40
1.0
 10
89.83501744671679
 20
127.9116835210622
 30
0.0
 10
89.83291804528855
 20
127.9006087405554
 30
0.0
 10
89.82872083554346
 20
127.8784675835368
 30
0.0
 10
89.82070274184254
 20
127.824528332345
 30
0.0
 10
89.81503677909488
 20
127.7746818120364
 30
0.0
 10
89.81149130715943
 20
127.7434903893769
 30
0.0
  0
LINE
  5
26A
330
1F
100
AcDbEntity
  8
0
  6
Continuous
 62
     7
370
    15
100
AcDbLine
 10
91.2683439129
 20
134.9139347438
 30
0.0
 11
89.8350174467
 21
127.9116835211
 31
0.0
  0
LINE
  5
26B
330
1F
100
AcDbEntity
  8
0
  6
Continuous
 62
     7
370
    15
100
AcDbLine
 10
89.8372355078
 20
120.9101708371
 30
0.0
 11
91.268510667
 21
134.3875679884
 31
0.0
  0
SPLINE
  5
26C
330
1F
100
AcDbEntity
  8
0
  6
Continuous
 62
     7
370
    15
100
AcDbSpline
210
0.0
220
0.0
230
1.0
 70
     8
 71
     3
 72
    10
 73
     6
 74
     0
 42
0.00000001
 43
0.00000001
 12
1.0
 22
0.0
 32
0.0
 13
1.0
 23
0.0
 33
0.0
 40
0.0
 40
0.0
 40
0.0
 40
0.0
 40
0.2724827068899379
 40
0.5447566471411246
 40
1.0
 40
1.0
 40
1.0
 40
1.0
 10
89.8137093682862
 20
120.7419767741263
 30
0.0
 10
89.81580875228876
 20
120.7530519177977
 30
0.0
 10
89.8200059118199
 20
120.7751937197559
 30
0.0
 10
89.82802428021917
 20
120.8291328001124
 30
0.0
 10
89.83369011583042
 20
120.8789793802586
 30
0.0
 10
89.83723550784356
 20
120.9101708371341
 30
0.0
  0
LINE
  5
26D
330
1F
100
AcDbEntity
  8
0
  6
Continuous
 62
     7
370
    15
100
AcDbLine
 10
88.3803828548
 20
113.7397269484
 30
0.0
 11
89.8137093683
 21
120.7419767741
 31
0.0
  0
SPLINE
  5
26E
330
1F
100
AcDbEntity
  8
0
  6
Continuous
 62
     7
370
    15
100
AcDbSpline
210
0.0
220
0.0
230
1.0
 70
     8
 71
     3
 72
    15
 73
    11
 74
     0
 42
0.00000001
 43
0.00000001
 12
1.0
 22
0.0
 32
0.0
 13
1.0
 23
0.0
 33
0.0
 40
0.0
 40
0.0
 40
0.0
 40
0.0
 40
0.1411621492321073
 40
0.2818348861205822
 40
0.4169670545131177
 40
0.5461345786271277
 40
0.6723543140625178
 40
0.79998083803625
 40
0.9323883940244179
 40
1.0
 40
1.0
 40
1.0
 40
1.0
 10
88.38021614803887
 20
114.2660927724242
 30
0.0
 10
88.37593215311357
 20
114.2223552375879
 30
0.0
 10
88.36737901596962
 20
114.1350318069314
 30
0.0
 10
88.35794321308701
 20
113.9929318731585
 30
0.0
 10
88.35267011175512
 20
113.8662330397487
 30
0.0
 10
88.35206873577438
 20
113.7683381316496
 30
0.0
 10
88.35578114772805
 20
113.7070619410878
 30
0.0
 10
88.3633166640671
 20
113.6862331033178
 30
0.0
 10
88.37215219835835
 20
113.7026875910549
 30
0.0
 10
88.3783035426619
 20
113.7303696893016
 30
0.0
 10
88.38038285477973
 20
113.7397269483805
 30
0.0
  0
LINE
  5
26F
330
1F
100
AcDbEntity
  8
0
  6
Continuous
 62
     7
370
    15
100
AcDbLine
 10
89.8114913072
 20
127.7434903894
 30
0.0
 11
88.380216148
 21
114.2660927724
 31
0.0
  0
LINE
  5
270
330
1F
100
AcDbEntity
  8
0
  6
Continuous
 62
     7
370
    15
100
AcDbLine
 10
89.8367270057
 20
120.9202393655
 30
0.0
 11
91.2651339787
 21
134.3706290934
 31
0.0
  0
LWPOLYLINE
  5
271
330
1F
100
AcDbEntity
  8
0
  6
Continuous
 62
     7
370
    15
100
AcDbPolyline
 90
        9
 70
   128
 43
0.0
 10
91.2651339787
 20
134.3706290934
 10
91.2756719591
 20
134.48386488
 10
91.284038772
 20
134.6032809232
 10
91.2894041013
 20
134.7170270745
 10
91.2912354908
 20
134.8138119791
 10
91.2893511924
 20
134.8840337012
 10
91.2839382055
 20
134.9207203601
 10
91.2755337123
 20
134.9202360723
 10
91.2649717758
 20
134.8826236788
  0
LINE
  5
272
330
1F
100
AcDbEntity
  8
0
  6
Continuous
 62
     7
370
    15
100
AcDbLine
 10
91.2649717758
 20
134.8826236788
 30
0.0
 11
89.8345175593
 21
127.8944056247
 31
0.0
  0
ARC
  5
273
330
1F
100
AcDbEntity
  8
0
  6
Continuous
 62
     7
370
    15
100
AcDbCircle
 10
91.6752673981
 20
127.5548633762
 30
0.0
 40
1.871803650865925
100
AcDbArc
 50
169.5487748499
 51
174.5260421415
  0
LINE
  5
274
330
1F
100
AcDbEntity
  8
0
  6
Continuous
 62
     7
370
    15
100
AcDbLine
 10
89.8119998093
 20
127.7334209297
 30
0.0
 11
88.3835928909
 21
114.2830316674
 31
0.0
  0
LWPOLYLINE
  5
275
330
1F
100
AcDbEntity
  8
0
  6
Continuous
 62
     7
370
    15
100
AcDbPolyline
 90
        9
 70
   128
 43
0.0
 10
88.3835928909
 20
114.2830316674
 10
88.3730549759
 20
114.1697954152
 10
88.3646879739
 20
114.050379372
 10
88.3593226246
 20
113.9366346177
 10
88.3574914116
 20
113.8398492474
 10
88.35937571
 20
113.769627991
 10
88.3647885568
 20
113.7329394695
 10
88.3731930445
 20
113.7334251542
 10
88.383754941
 20
113.7710366164
  0
LINE
  5
276
330
1F
100
AcDbEntity
  8
0
  6
Continuous
 62
     7
370
    15
100
AcDbLine
 10
88.383754941
 20
113.7710366164
 30
0.0
 11
89.8142092557
 21
120.7592546705
 31
0.0
  0
ARC
  5
277
330
1F
100
AcDbEntity
  8
0
  6
Continuous
 62
     7
370
    15
100
AcDbCircle
 10
87.9734110273
 20
121.0988036875
 30
0.0
 40
1.871852465519604
100
AcDbArc
 50
349.5488397899
 51
354.5259772014
  0
LINE
  5
278
330
1F
100
AcDbEntity
  8
0
  6
Continuous
 62
     7
370
    15
100
AcDbLine
 10
94.5651205185
 20
120.9288000826
 30
0.0
 11
95.9006331324
 21
133.5044637088
 31
0.0
  0
LWPOLYLINE
  5
279
330
1F
100
AcDbEntity
  8
0
  6
Continuous
 62
     7
370
    15
100
AcDbPolyline
 90
        9
 70
   128
 43
0.0
 10
90.5562238114
 20
128.8838539038
 10
90.583955338
 20
129.1818436001
 10
90.6059732589
 20
129.4960960511
 10
90.6200925166
 20
129.7954249893
 10
90.6249119945
 20
130.050123087
 10
90.6199532839
 20
130.2349161122
 10
90.6057085887
 20
130.3314644609
 10
90.5835915402
 20
130.3301848237
 10
90.5557969746
 20
130.2312075857
  0
LWPOLYLINE
  5
27A
330
1F
100
AcDbEntity
  8
0
  6
Continuous
 62
     7
370
    15
100
AcDbPolyline
 90
        9
 70
   128
 43
0.0
 10
89.0925030618
 20
119.769808254
 10
89.0647715352
 20
119.4718176264
 10
89.0427536725
 20
119.1575651754
 10
89.0286343566
 20
118.8582362373
 10
89.0238147623
 20
118.6035381396
 10
89.0287735893
 20
118.4187451143
 10
89.0430181681
 20
118.322197697
 10
89.0651352166
 20
118.3234754715
 10
89.0929298404
 20
118.4224527095
  0
LINE
  5
27B
330
1F
100
AcDbEntity
  8
0
  6
Continuous
 62
     7
370
    15
100
AcDbLine
 10
89.7940186479
 20
126.3755302642
 30
0.0
 11
89.0925030618
 21
119.769808254
 31
0.0
  0
ARC
  5
27C
330
1F
100
AcDbEntity
  8
0
  6
Continuous
 62
     7
370
    15
100
AcDbCircle
 10
94.6973758559
 20
125.905634343
 30
0.0
 40
4.925821158550272
100
AcDbArc
 50
169.5487564106
 51
174.5259776819
  0
LINE
  5
27D
330
1F
100
AcDbEntity
  8
0
  6
Continuous
 62
     7
370
    15
100
AcDbLine
 10
90.5557969746
 20
130.2312075857
 30
0.0
 11
89.8532759094
 21
126.7991721396
 31
0.0
  0
LINE
  5
27E
330
1F
100
AcDbEntity
  8
0
  6
Continuous
 62
     7
370
    15
100
AcDbLine
 10
89.8547081671
 20
122.2781318937
 30
0.0
 11
90.5562238114
 21
128.8838539038
 31
0.0
  0
ARC
  5
27F
330
1F
100
AcDbEntity
  8
0
  6
Continuous
 62
     7
370
    15
100
AcDbCircle
 10
84.9515192288
 20
122.7480023137
 30
0.0
 40
4.925651223574981
100
AcDbArc
 50
349.5486824103
 51
354.5260862427
  0
LINE
  5
280
330
1F
100
AcDbEntity
  8
0
  6
Continuous
 62
     7
370
    15
100
AcDbLine
 10
89.0929298404
 20
118.4224527095
 30
0.0
 11
89.7954509056
 21
121.854489087
 31
0.0
  0
LWPOLYLINE
  5
281
330
1F
100
AcDbEntity
  8
0
  6
Continuous
 62
     7
370
    15
100
AcDbPolyline
 90
       35
 70
   128
 43
0.0
 10
89.9153816209
 20
122.9181684319
 10
89.9664582613
 20
123.4377030049
 10
90.0126960988
 20
123.9875148747
 10
90.0525203834
 20
124.5488825951
 10
90.0845752259
 20
125.1026879762
 10
90.1077687669
 20
125.6300735984
 10
90.1213112448
 20
126.1130779747
 10
90.1247415387
 20
126.5352539484
 10
90.1179428839
 20
126.8822256241
 10
90.1011465977
 20
127.1421745185
 10
90.0749248614
 20
127.3062512044
 10
90.0401705804
 20
127.3688677464
 10
89.9980672331
 20
127.3278895531
 10
89.9500487068
 20
127.1847154711
 10
89.8977499384
 20
126.9442200426
 10
89.8429521986
 20
126.6145914558
 10
89.7875213924
 20
126.2070558731
 10
89.7333451941
 20
125.7354918633
 10
89.6822685537
 20
125.2159572903
 10
89.6360307162
 20
124.6661454205
 10
89.5962064316
 20
124.1047777001
 10
89.5641517055
 20
123.550972319
 10
89.5409581645
 20
123.0235876281
 10
89.5274155702
 20
122.5405832518
 10
89.5239852763
 20
122.1184072782
 10
89.5307840475
 20
121.7714365337
 10
89.5475802173
 20
121.511486708
 10
89.5738019536
 20
121.3474100221
 10
89.6085562346
 20
121.2847934801
 10
89.6506595819
 20
121.3257707421
 10
89.6986782246
 20
121.4689448241
 10
89.7509768766
 20
121.7094411839
 10
89.8057746164
 20
122.0390697707
 10
89.8612054226
 20
122.4466044221
 10
89.9153816209
 20
122.9181684319
  0
SPLINE
  5
282
330
1F
100
AcDbEntity
  8
0
  6
Continuous
 62
     7
370
    15
100
AcDbSpline
210
0.0
220
0.0
230
1.0
 70
     8
 71
     3
 72
    10
 73
     6
 74
     0
 42
0.00000001
 43
0.00000001
 12
1.0
 22
0.0
 32
0.0
 13
1.0
 23
0.0
 33
0.0
 40
0.0
 40
0.0
 40
0.0
 40
0.0
 40
0.4164775649174275
 40
0.7035851270280308
 40
1.0
 40
1.0
 40
1.0
 40
1.0
 10
94.5651205184958
 20
120.9288000825942
 30
0.0
 10
94.56431155824191
 20
120.9216466273354
 30
0.0
 10
94.56294492423581
 20
120.9095617873564
 30
0.0
 10
94.5609367801588
 20
120.8957626037431
 30
0.0
 10
94.5598109017929
 20
120.8897871708515
 30
0.0
 10
94.55923898360646
 20
120.8867517996729
 30
0.0
  0
LINE
  5
283
330
1F
100
AcDbEntity
  8
0
  6
Continuous
 62
     7
370
    15
100
AcDbLine
 10
94.4360857758
 20
120.2851099659
 30
0.0
 11
94.5592389836
 21
120.8867517997
 31
0.0
  0
LWPOLYLINE
  5
284
330
1F
100
AcDbEntity
  8
0
  6
Continuous
 62
     7
370
    15
100
AcDbPolyline
 90
       27
 70
   128
 43
0.0
 10
89.9449067584
 20
126.0374620322
 10
89.9127271188
 20
126.0102040831
 10
89.8747454559
 20
125.8803479139
 10
89.8331691207
 20
125.6554409627
 10
89.7904144296
 20
125.3485552732
 10
89.7489661512
 20
124.9775238101
 10
89.711233035
 20
124.5639122788
 10
89.6794079964
 20
124.1317543898
 10
89.655340642
 20
123.7061697755
 10
89.6404295855
 20
123.3118887756
 10
89.635541539
 20
122.971826582
 10
89.6409605558
 20
122.7057467912
 10
89.6563716161
 20
122.529113083
 10
89.6808791368
 20
122.4521895636
 10
89.7130587765
 20
122.4794475127
 10
89.7510404394
 20
122.6093036819
 10
89.7926167746
 20
122.8342097018
 10
89.8353714657
 20
123.1410963226
 10
89.8768197441
 20
123.5121268544
 10
89.9145528603
 20
123.9257402484
 10
89.9463778989
 20
124.3578962747
 10
89.9704452532
 20
124.7834827516
 10
89.9853563097
 20
125.1777618889
 10
89.9902443563
 20
125.5178250138
 10
89.9848253395
 20
125.7839038734
 10
89.9694142792
 20
125.9605385129
 10
89.9449067584
 20
126.0374620322
  0
ARC
  5
285
330
1F
100
AcDbEntity
  8
0
  6
Continuous
 62
     7
370
    15
100
AcDbCircle
 10
102.8249378748
 20
123.5375566394
 30
0.0
 40
13.14685313033877
100
AcDbArc
 50
170.4488797729
 51
176.4946246437
  0
ARC
  5
286
330
1F
100
AcDbEntity
  8
0
  6
Continuous
 62
     7
370
    15
100
AcDbCircle
 10
105.0880348664
 20
123.0659578296
 30
0.0
 40
15.43812831594741
100
AcDbArc
 50
175.2610889506
 51
180.8136220485
  0
LWPOLYLINE
  5
287
330
1F
100
AcDbEntity
  8
0
  6
Continuous
 62
     7
370
    15
100
AcDbPolyline
 90
        9
 70
   128
 43
0.0
 10
89.6514630805
 20
122.8467378531
 10
89.657156721
 20
122.7414760504
 10
89.6653922902
 20
122.6607527349
 10
89.6760354445
 20
122.6058847968
 10
89.6889122597
 20
122.5777672369
 10
89.7038128388
 20
122.5768601287
 10
89.7204937575
 20
122.603177442
 10
89.738682953
 20
122.6562907685
 10
89.7580833335
 20
122.7353311841
  0
LINE
  5
288
330
1F
100
AcDbEntity
  8
0
  6
Continuous
 62
     7
370
    15
100
AcDbLine
 10
89.766047655
 20
122.7736094732
 30
0.0
 11
89.7580833335
 21
122.7353311841
 31
0.0
  0
ARC
  5
289
330
1F
100
AcDbEntity
  8
0
  6
Continuous
 62
     7
370
    15
100
AcDbCircle
 10
77.0966332288
 20
124.9104513375
 30
0.0
 40
12.84835223115624
100
AcDbArc
 50
350.426509968
 51
356.3466949792
  0
LINE
  5
28A
330
1F
100
AcDbEntity
  8
0
  6
Continuous
 62
     7
370
    15
100
AcDbLine
 10
89.927648187
 20
124.2110974852
 30
0.0
 11
89.9188760596
 21
124.0917671237
 31
0.0
  0
ARC
  5
28B
330
1F
100
AcDbEntity
  8
0
  6
Continuous
 62
     7
370
    15
100
AcDbCircle
 10
74.3250807108
 20
125.4447843461
 30
0.0
 40
15.65126496866408
100
AcDbArc
 50
355.4790585993
 51
0.5956566184
  0
LINE
  5
28C
330
1F
100
AcDbEntity
  8
0
  6
Continuous
 62
     7
370
    15
100
AcDbLine
 10
89.9730663442
 20
125.673134229
 30
0.0
 11
89.9754998901
 21
125.6074946139
 31
0.0
  0
LWPOLYLINE
  5
28D
330
1F
100
AcDbEntity
  8
0
  6
Continuous
 62
     7
370
    15
100
AcDbPolyline
 90
        9
 70
   128
 43
0.0
 10
89.9730663442
 20
125.673134229
 10
89.9669675783
 20
125.7688332115
 10
89.9585355002
 20
125.8414502952
 10
89.9478978173
 20
125.8898883823
 10
89.9352154157
 20
125.9134117279
 10
89.9206804971
 20
125.9116664294
 10
89.9045132029
 20
125.8846767012
 10
89.8869583544
 20
125.8328523252
 10
89.8682818444
 20
125.7569774751
  0
LINE
  5
28E
330
1F
100
AcDbEntity
  8
0
  6
Continuous
 62
     7
370
    15
100
AcDbLine
 10
89.860327069
 20
125.7189813767
 30
0.0
 11
89.8682818444
 21
125.7569774751
 31
0.0
  0
SPLINE
  5
28F
330
1F
100
AcDbEntity
  8
0
  6
Continuous
 62
     7
370
    15
100
AcDbSpline
210
0.0
220
0.0
230
1.0
 70
     8
 71
     3
 72
     9
 73
     5
 74
     0
 42
0.00000001
 43
0.00000001
 12
1.0
 22
0.0
 32
0.0
 13
1.0
 23
0.0
 33
0.0
 40
0.0
 40
0.0
 40
0.0
 40
0.0
 40
0.5183138217769719
 40
1.0
 40
1.0
 40
1.0
 40
1.0
 10
89.77780397265172
 20
122.8327931601703
 30
0.0
 10
89.77204676356078
 20
122.8061554950825
 30
0.0
 10
89.76093918963728
 20
122.7547625667665
 30
0.0
 10
89.75703588765201
 20
122.7343996889311
 30
0.0
 10
89.75515572103626
 20
122.7245911721289
 30
0.0
  0
LINE
  5
290
330
1F
100
AcDbEntity
  8
0
  6
Continuous
 62
     7
370
    15
100
AcDbLine
 10
89.7545800473
 20
122.7203694869
 30
0.0
 11
89.7545823756
 21
122.7193888042
 31
0.0
  0
SPLINE
  5
291
330
1F
100
AcDbEntity
  8
0
  6
Continuous
 62
     7
370
    15
100
AcDbSpline
210
0.0
220
0.0
230
1.0
 70
     8
 71
     3
 72
    10
 73
     6
 74
     0
 42
0.00000001
 43
0.00000001
 12
1.0
 22
0.0
 32
0.0
 13
1.0
 23
0.0
 33
0.0
 40
0.0
 40
0.0
 40
0.0
 40
0.0
 40
0.3903655103834565
 40
0.7818553162561349
 40
0.9999999999999999
 40
0.9999999999999999
 40
0.9999999999999999
 40
0.9999999999999999
 10
89.92534060246265
 20
125.6537236038745
 30
0.0
 10
89.919641703924
 20
125.6802031085234
 30
0.0
 10
89.90822749339378
 20
125.7332383816993
 30
0.0
 10
89.89319109005169
 20
125.7723887686061
 30
0.0
 10
89.88532796671832
 20
125.7711954892851
 30
0.0
 10
89.88251431594557
 20
125.7707684997618
 30
0.0
  0
LINE
  5
292
330
1F
100
AcDbEntity
  8
0
  6
Continuous
 62
     7
370
    15
100
AcDbLine
 10
89.8758022742
 20
125.7722716544
 30
0.0
 11
89.8682818444
 21
125.7569774751
 31
0.0
  0
SPLINE
  5
293
330
1F
100
AcDbEntity
  8
0
  6
Continuous
 62
     7
370
    15
100
AcDbSpline
210
0.0
220
0.0
230
1.0
 70
     8
 71
     3
 72
    12
 73
     8
 74
     0
 42
0.00000001
 43
0.00000001
 12
1.0
 22
0.0
 32
0.0
 13
1.0
 23
0.0
 33
0.0
 40
0.0
 40
0.0
 40
0.0
 40
0.0
 40
0.0091760818178841
 40
0.2576820132650421
 40
0.5061878942353292
 40
0.7560370622543102
 40
1.0
 40
1.0
 40
1.0
 40
1.0
 10
89.65146308048583
 20
122.8467378530801
 30
0.0
 10
89.65149250315261
 20
122.8459932575691
 30
0.0
 10
89.6523187481844
 20
122.8250835845575
 30
0.0
 10
89.65714891436365
 20
122.7948436879266
 30
0.0
 10
89.67252573539021
 20
122.7872675111737
 30
0.0
 10
89.69448689213561
 20
122.8146349103154
 30
0.0
 10
89.71274843503431
 20
122.8592027210566
 30
0.0
 10
89.72177036787338
 20
122.8812210027278
 30
0.0
  0
SPLINE
  5
294
330
1F
100
AcDbEntity
  8
0
  6
Continuous
 62
     7
370
    15
100
AcDbSpline
210
0.0
220
0.0
230
1.0
 70
     8
 71
     3
 72
    10
 73
     6
 74
     0
 42
0.00000001
 43
0.00000001
 12
1.0
 22
0.0
 32
0.0
 13
1.0
 23
0.0
 33
0.0
 40
0.0
 40
0.0
 40
0.0
 40
0.0
 40
0.4396226533218709
 40
0.8802194864031092
 40
1.0
 40
1.0
 40
1.0
 40
1.0
 10
89.72177036787338
 20
122.8812210027278
 30
0.0
 10
89.73757579851413
 20
122.9198535072731
 30
0.0
 10
89.76922168376562
 20
122.9972041238814
 30
0.0
 10
89.7976297935621
 20
123.0433813096318
 30
0.0
 10
89.80167337405332
 20
123.0343935720522
 30
0.0
 10
89.8025376883424
 20
123.0324724454582
 30
0.0
  0
SPLINE
  5
295
330
1F
100
AcDbEntity
  8
0
  6
Continuous
 62
     7
370
    15
100
AcDbSpline
210
0.0
220
0.0
230
1.0
 70
     8
 71
     3
 72
    11
 73
     7
 74
     0
 42
0.00000001
 43
0.00000001
 12
1.0
 22
0.0
 32
0.0
 13
1.0
 23
0.0
 33
0.0
 40
0.0
 40
0.0
 40
0.0
 40
0.0
 40
0.2423625760527819
 40
0.5166873120729368
 40
0.7923349512648049
 40
1.0
 40
1.0
 40
1.0
 40
1.0
 10
89.86032706900454
 20
125.7189813766778
 30
0.0
 10
89.85806328169785
 20
125.6981599600773
 30
0.0
 10
89.85323716457343
 20
125.653771251424
 30
0.0
 10
89.85189753651578
 20
125.5568071658072
 30
0.0
 10
89.85559338824352
 20
125.4537830910668
 30
0.0
 10
89.86178102856103
 20
125.3888650234496
 30
0.0
 10
89.86443967307872
 20
125.3609716657698
 30
0.0
  0
SPLINE
  5
296
330
1F
100
AcDbEntity
  8
0
  6
Continuous
 62
     7
370
    15
100
AcDbSpline
210
0.0
220
0.0
230
1.0
 70
     8
 71
     3
 72
    11
 73
     7
 74
     0
 42
0.00000001
 43
0.00000001
 12
1.0
 22
0.0
 32
0.0
 13
1.0
 23
0.0
 33
0.0
 40
0.0
 40
0.0
 40
0.0
 40
0.0
 40
0.2535078735179398
 40
0.5075667641853062
 40
0.759506958444822
 40
1.0
 40
1.0
 40
1.0
 40
1.0
 10
89.70856293319679
 20
123.2380227882564
 30
0.0
 10
89.69966727981017
 20
123.2017833793859
 30
0.0
 10
89.68185663771017
 20
123.1292257927471
 30
0.0
 10
89.66301828425978
 20
123.0162691882842
 30
0.0
 10
89.65165668590147
 20
122.9155895382421
 30
0.0
 10
89.65152660768729
 20
122.8693299632173
 30
0.0
 10
89.65146308048583
 20
122.8467378530801
 30
0.0
  0
SPLINE
  5
297
330
1F
100
AcDbEntity
  8
0
  6
Continuous
 62
     7
370
    15
100
AcDbSpline
210
0.0
220
0.0
230
1.0
 70
     8
 71
     3
 72
    12
 73
     8
 74
     0
 42
0.00000001
 43
0.00000001
 12
1.0
 22
0.0
 32
0.0
 13
1.0
 23
0.0
 33
0.0
 40
0.0
 40
0.0
 40
0.0
 40
0.0
 40
0.2058582383465633
 40
0.4121021053823742
 40
0.6141922532064151
 40
0.8133173488753971
 40
1.0
 40
1.0
 40
1.0
 40
1.0
 10
89.86443967307872
 20
125.3609716657698
 30
0.0
 10
89.87029548539157
 20
125.2955059585231
 30
0.0
 10
89.88201807955262
 20
125.1644519088847
 30
0.0
 10
89.88035269347019
 20
124.9703753719728
 30
0.0
 10
89.86024933967103
 20
124.8090614150564
 30
0.0
 10
89.82500951552565
 20
124.6936414502535
 30
0.0
 10
89.7962480705032
 20
124.6632117230102
 30
0.0
 10
89.78233113168693
 20
124.6484875444472
 30
0.0
  0
SPLINE
  5
298
330
1F
100
AcDbEntity
  8
0
  6
Continuous
 62
     7
370
    15
100
AcDbSpline
210
0.0
220
0.0
230
1.0
 70
     8
 71
     3
 72
    11
 73
     7
 74
     0
 42
0.00000001
 43
0.00000001
 12
1.0
 22
0.0
 32
0.0
 13
1.0
 23
0.0
 33
0.0
 40
0.0
 40
0.0
 40
0.0
 40
0.0
 40
0.2524746648786451
 40
0.5068863097575615
 40
0.759176813449838
 40
1.0
 40
1.0
 40
1.0
 40
1.0
 10
89.78233113168693
 20
124.6484875444472
 30
0.0
 10
89.77343901999802
 20
124.6388021229565
 30
0.0
 10
89.75558657653758
 20
124.6193569736375
 30
0.0
 10
89.73189720907811
 20
124.5459232991514
 30
0.0
 10
89.71290741415199
 20
124.4505399453032
 30
0.0
 10
89.70603696826346
 20
124.3772007666146
 30
0.0
 10
89.70268163113809
 20
124.3413839254678
 30
0.0
  0
SPLINE
  5
299
330
1F
100
AcDbEntity
  8
0
  6
Continuous
 62
     7
370
    15
100
AcDbSpline
210
0.0
220
0.0
230
1.0
 70
     8
 71
     3
 72
    12
 73
     8
 74
     0
 42
0.00000001
 43
0.00000001
 12
1.0
 22
0.0
 32
0.0
 13
1.0
 23
0.0
 33
0.0
 40
0.0
 40
0.0
 40
0.0
 40
0.0
 40
0.0091685835315088
 40
0.2573259881863655
 40
0.50549046964957
 40
0.7549885855148828
 40
1.0
 40
1.0
 40
1.0
 40
1.0
 10
89.70268163113809
 20
124.3413839254678
 30
0.0
 10
89.70258212732776
 20
124.3400164416657
 30
0.0
 10
89.69978944771317
 20
124.3016365633035
 30
0.0
 10
89.69704045302477
 20
124.2247641764969
 30
0.0
 10
89.70149365533645
 20
124.1231801018813
 30
0.0
 10
89.71374467486753
 20
124.0412265841278
 30
0.0
 10
89.72771572476245
 20
124.0129452552249
 30
0.0
 10
89.73463786981023
 20
123.9989328894913
 30
0.0
  0
SPLINE
  5
29A
330
1F
100
AcDbEntity
  8
0
  6
Continuous
 62
     7
370
    15
100
AcDbSpline
210
0.0
220
0.0
230
1.0
 70
     8
 71
     3
 72
    12
 73
     8
 74
     0
 42
0.00000001
 43
0.00000001
 12
1.0
 22
0.0
 32
0.0
 13
1.0
 23
0.0
 33
0.0
 40
0.0
 40
0.0
 40
0.0
 40
0.0
 40
0.2058440067570886
 40
0.4120691687506399
 40
0.6141384743200723
 40
0.8132604904835433
 40
0.9999999999999999
 40
0.9999999999999999
 40
0.9999999999999999
 40
0.9999999999999999
 10
89.73463786981023
 20
123.9989328894913
 30
0.0
 10
89.74690084747185
 20
123.973709326732
 30
0.0
 10
89.77144950978678
 20
123.9232154954909
 30
0.0
 10
89.78675287860415
 20
123.7771893642928
 30
0.0
 10
89.77920424345155
 20
123.6005033610269
 30
0.0
 10
89.75120679029304
 20
123.4115646844534
 30
0.0
 10
89.7224701608624
 20
123.2946191382181
 30
0.0
 10
89.70856293319679
 20
123.2380227882564
 30
0.0
  0
LINE
  5
29B
330
1F
100
AcDbEntity
  8
0
  6
Continuous
 62
     7
370
    15
100
AcDbLine
 10
90.1065472209
 20
120.7205675308
 30
0.0
 11
90.0345029005
 21
120.0421726097
 31
0.0
  0
LINE
  5
29C
330
1F
100
AcDbEntity
  8
0
  6
Continuous
 62
     7
370
    15
100
AcDbLine
 10
90.1065472209
 20
120.7205675308
 30
0.0
 11
92.051023261
 21
120.733450516
 31
0.0
  0
LINE
  5
29D
330
1F
100
AcDbEntity
  8
0
  6
Continuous
 62
     7
370
    15
100
AcDbLine
 10
92.051023261
 20
120.733450516
 30
0.0
 11
94.4809683061
 21
120.2766731147
 31
0.0
  0
LINE
  5
29E
330
1F
100
AcDbEntity
  8
0
  6
Continuous
 62
     7
370
    15
100
AcDbLine
 10
94.4809683061
 20
120.2766731147
 30
0.0
 11
94.5312222394
 21
120.7498818401
 31
0.0
  0
LINE
  5
29F
330
1F
100
AcDbEntity
  8
0
  6
Continuous
 62
     7
370
    15
100
AcDbLine
 10
103.1593375302
 20
130.1345903192
 30
0.0
 11
95.8462685741
 21
132.9925473545
 31
0.0
  0
ARC
  5
2A0
330
1F
100
AcDbEntity
  8
0
  6
Continuous
 62
     7
370
    15
100
AcDbCircle
 10
91.3095308862
 20
117.9451650147
 30
0.0
 40
17.00000000000004
100
AcDbArc
 50
7.0856770933
 51
45.8094026677
  0
LINE
  5
2A1
330
1F
100
AcDbEntity
  8
0
  6
Continuous
 62
     7
370
    15
100
AcDbLine
 10
95.8696224189
 20
133.2124549661
 30
0.0
 11
102.7422381959
 21
130.5266286943
 31
0.0
  0
ARC
  5
2A2
330
1F
100
AcDbEntity
  8
0
  6
Continuous
 62
     7
370
    15
100
AcDbCircle
 10
91.3095308862
 20
117.9451650147
 30
0.0
 40
17.00000000000001
100
AcDbArc
 50
45.8094026677
 51
47.7387457315
  0
ARC
  5
2A3
330
1F
100
AcDbEntity
  8
0
  6
Continuous
 62
     7
370
    15
100
AcDbCircle
 10
91.3095308862
 20
107.9451650147
 30
0.0
 40
16.50000000000001
100
AcDbArc
 50
254.634809372
 51
255.1308299501
  0
ARC
  5
2A4
330
1F
100
AcDbEntity
  8
0
  6
Continuous
 62
     7
370
    15
100
AcDbCircle
 10
91.3095308862
 20
107.9451650147
 30
0.0
 40
16.5
100
AcDbArc
 50
96.5988974477
 51
97.365190628
  0
ELLIPSE
  5
2A5
330
1F
100
AcDbEntity
  8
0
  6
Continuous
 62
     7
370
    15
100
AcDbEllipse
 10
90.2512319055
 20
136.5846607013
 30
0.0
 11
0.767097598973109
 21
11.03818896016224
 31
0.0
210
0.0
220
0.0
230
1.0
 40
0.0694594175
 41
3.260427757578716
 42
3.26785644737723
  0
LINE
  5
2A6
330
1F
100
AcDbEntity
  8
0
  6
Continuous
 62
     7
370
    15
100
AcDbLine
 10
88.6268517862
 20
113.7291014891
 30
0.0
 11
88.5441342763
 21
112.9502028924
 31
0.0
  0
LWPOLYLINE
  5
2A7
330
1F
100
AcDbEntity
  8
0
  6
Continuous
 62
     7
370
    15
100
AcDbPolyline
 90
       15
 70
   128
 43
0.0
 10
88.5441342763
 20
112.9502028924
 10
88.5040282666
 20
112.5354742397
 10
88.4689120504
 20
112.09543969
 10
88.4405467588
 20
111.6521641378
 10
88.420354754
 20
111.227875226
 10
88.409348151
 20
110.8438483205
 10
88.408079224
 20
110.5193406109
 10
88.4166115358
 20
110.2706239324
 10
88.4345171436
 20
110.1101700913
 10
88.4608980197
 20
110.0460250162
 10
88.4944319188
 20
110.0814047966
 10
88.5334366395
 20
110.2145359617
 10
88.5759566373
 20
110.4387423255
 10
88.619859882
 20
110.7427811947
 10
88.6629447269
 20
111.1114072845
  0
LINE
  5
2A8
330
1F
100
AcDbEntity
  8
0
  6
Continuous
 62
     7
370
    15
100
AcDbLine
 10
88.6629447269
 20
111.1114072845
 30
0.0
 11
89.2272097918
 21
116.4247276027
 31
0.0
  0
ELLIPSE
  5
2A9
330
1F
100
AcDbEntity
  8
0
  6
Continuous
 62
     7
370
    15
100
AcDbEllipse
 10
90.3653118939
 20
114.9046320582
 30
0.0
 11
0.7626130685137157
 21
10.99987004243184
 31
0.0
210
0.0
220
0.0
230
1.0
 40
0.0701143
 41
1.089706604568735
 42
1.575657262433632
  0
LINE
  5
2AA
330
1F
100
AcDbEntity
  8
0
  6
Continuous
 62
     7
370
    15
100
AcDbLine
 10
89.5903658749
 20
114.9046322096
 30
0.0
 11
89.3172146681
 21
110.9451650407
 31
0.0
  0
LINE
  5
2AB
330
1F
100
AcDbEntity
  8
0
  6
Continuous
 62
     7
370
    15
100
AcDbLine
 10
89.3172146681
 20
110.9451650407
 30
0.0
 11
87.0754204153
 21
91.997679672
 31
0.0
  0
LINE
  5
2AC
330
1F
100
AcDbEntity
  8
0
  6
Continuous
 62
     7
370
    15
100
AcDbLine
 10
89.2272097918
 20
116.4247276027
 30
0.0
 11
90.1065472209
 21
120.7205675308
 31
0.0
  0
LINE
  5
2AD
330
1F
100
AcDbEntity
  8
0
  6
Continuous
 62
     7
370
    15
100
AcDbLine
 10
108.3095318101
 20
114.9046322096
 30
0.0
 11
108.3095318101
 21
117.9451647911
 31
0.0
  0
SPLINE
  5
2AE
330
1F
100
AcDbEntity
  8
0
  6
Continuous
 62
     7
370
    15
100
AcDbSpline
210
0.0
220
0.0
230
1.0
 70
     8
 71
     3
 72
     8
 73
     4
 74
     0
 42
0.00000001
 43
0.00000001
 12
1.0
 22
0.0
 32
0.0
 13
1.0
 23
0.0
 33
0.0
 40
0.0
 40
0.0
 40
0.0
 40
0.0
 40
1.0
 40
1.0
 40
1.0
 40
1.0
 10
108.1796985713299
 20
120.0421729485618
 30
0.0
 10
108.2621967254892
 20
119.3784855719531
 30
0.0
 10
108.3095308861784
 20
118.6805759488794
 30
0.0
 10
108.3095308861784
 20
117.9451650146544
 30
0.0
  0
LINE
  5
2AF
330
1F
100
AcDbEntity
  8
0
  6
Continuous
 62
     7
370
    15
100
AcDbLine
 10
108.3095318101
 20
110.9451650407
 30
0.0
 11
89.3172146681
 21
110.9451650407
 31
0.0
  0
LINE
  5
2B0
330
1F
100
AcDbEntity
  8
0
  6
Continuous
 62
     7
370
    15
100
AcDbLine
 10
108.3095318101
 20
107.9451650147
 30
0.0
 11
108.3095318101
 21
110.9451650407
 31
0.0
  0
ARC
  5
2B1
330
1F
100
AcDbEntity
  8
0
  6
Continuous
 62
     7
370
    15
100
AcDbCircle
 10
91.3095308862
 20
107.9451650147
 30
0.0
 40
17.00000000000002
100
AcDbArc
 50
332.1108003313
 51
0.0
  0
SPLINE
  5
2B2
330
1F
100
AcDbEntity
  8
0
  6
Continuous
 62
     7
370
    15
100
AcDbSpline
210
0.0
220
0.0
230
1.0
 70
     8
 71
     3
 72
    12
 73
     8
 74
     0
 42
0.00000001
 43
0.00000001
 12
1.0
 22
0.0
 32
0.0
 13
1.0
 23
0.0
 33
0.0
 40
0.0
 40
0.0
 40
0.0
 40
0.0
 40
0.2500000000000008
 40
0.2500000000000008
 40
0.5000000000000016
 40
0.5000000000000016
 40
1.0
 40
1.0
 40
1.0
 40
1.0
 10
106.335045822513
 20
99.9931903606464
 30
0.0
 10
106.1730012666978
 20
99.87707152675186
 30
0.0
 10
106.0197667466796
 20
99.75087871047772
 30
0.0
 10
105.7270880299695
 20
99.48857139179276
 30
0.0
 10
105.5883922665628
 20
99.3529719766228
 30
0.0
 10
105.1894141282641
 20
98.93622250889746
 30
0.0
 10
104.9446756068327
 20
98.64603166106563
 30
0.0
 10
104.726059430876
 20
98.34064723345818
 30
0.0
  0
ARC
  5
2B3
330
1F
100
AcDbEntity
  8
0
  6
Continuous
 62
     7
370
    15
100
AcDbCircle
 10
91.3095308862
 20
107.9451650147
 30
0.0
 40
16.5
100
AcDbArc
 50
255.1308299501
 51
324.402183241
  0
LINE
  5
2B4
330
1F
100
AcDbEntity
  8
0
  6
Continuous
 62
     7
370
    15
100
AcDbLine
 10
108.3095318101
 20
110.9451650407
 30
0.0
 11
108.3095318101
 21
114.9046322096
 31
0.0
  0
SPLINE
  5
2B5
330
1F
100
AcDbEntity
  8
0
  6
Continuous
 62
     7
370
    15
100
AcDbSpline
210
0.0
220
0.0
230
1.0
 70
     8
 71
     3
 72
    18
 73
    14
 74
     0
 42
0.00000001
 43
0.00000001
 12
1.0
 22
0.0
 32
0.0
 13
1.0
 23
0.0
 33
0.0
 40
0.0
 40
0.0
 40
0.0
 40
0.0
 40
0.2499999999999991
 40
0.2499999999999991
 40
0.4999999999999982
 40
0.4999999999999982
 40
0.6249999999999987
 40
0.6249999999999987
 40
0.7499999999999991
 40
0.7499999999999991
 40
0.8749999999999996
 40
0.8749999999999996
 40
1.0
 40
1.0
 40
1.0
 40
1.0
 10
89.19434482229983
 20
124.3090272700993
 30
0.0
 10
89.17190519085173
 20
124.3061267326237
 30
0.0
 10
89.100311928123
 20
124.2970470429611
 30
0.0
 10
88.86029983919055
 20
124.2628229823519
 30
0.0
 10
88.69649839538741
 20
124.2382537702072
 30
0.0
 10
88.39115967280404
 20
124.1853552678353
 30
0.0
 10
88.27976663568433
 20
124.1650572993865
 30
0.0
 10
88.04436068137538
 20
124.1193123082693
 30
0.0
 10
87.91957084484015
 20
124.0937363027545
 30
0.0
 10
87.65609130053608
 20
124.036173774915
 30
0.0
 10
87.51739312755096
 20
124.0041463551646
 30
0.0
 10
87.23464816201236
 20
123.9347404080022
 30
0.0
 10
87.08961084368923
 20
123.8971558140286
 30
0.0
 10
86.94104485586941
 20
123.8563664087351
 30
0.0
  0
SPLINE
  5
2B6
330
1F
100
AcDbEntity
  8
0
  6
Continuous
 62
     7
370
    15
100
AcDbSpline
210
0.0
220
0.0
230
1.0
 70
     8
 71
     3
 72
    20
 73
    16
 74
     0
 42
0.00000001
 43
0.00000001
 12
1.0
 22
0.0
 32
0.0
 13
1.0
 23
0.0
 33
0.0
 40
0.0
 40
0.0
 40
0.0
 40
0.0
 40
0.2500000000000004
 40
0.2500000000000004
 40
0.3750000000000003
 40
0.3750000000000003
 40
0.5000000000000002
 40
0.5000000000000002
 40
0.6250000000000001
 40
0.6250000000000001
 40
0.75
 40
0.75
 40
0.875
 40
0.875
 40
1.0
 40
1.0
 40
1.0
 40
1.0
 10
84.76914742360547
 20
92.79678608611877
 30
0.0
 10
85.05206351609692
 20
92.67463573977766
 30
0.0
 10
85.3213798416767
 20
92.5677380165077
 30
0.0
 10
85.7019509978579
 20
92.42668083288338
 30
0.0
 10
85.82369930802355
 20
92.38335205625157
 30
0.0
 10
86.05038937680196
 20
92.30528645884237
 30
0.0
 10
86.15632265961354
 20
92.27018266034261
 30
0.0
 10
86.35258149487339
 20
92.20701774229852
 30
0.0
 10
86.44306376865772
 20
92.17892502153876
 30
0.0
 10
86.60119164204256
 20
92.13098254167909
 30
0.0
 10
86.66980205759334
 20
92.11081757919551
 30
0.0
 10
86.7857582781352
 20
92.07730051749081
 30
0.0
 10
86.83325576998675
 20
92.06390908787992
 30
0.0
 10
86.90346869869734
 20
92.04428627391822
 30
0.0
 10
86.92660794802178
 20
92.03793035279777
 30
0.0
 10
86.93752021389864
 20
92.03493174541943
 30
0.0
  0
ELLIPSE
  5
2B7
330
1F
100
AcDbEntity
  8
0
  6
Continuous
 62
     7
370
    15
100
AcDbEllipse
 10
83.6040764877
 20
115.8734961333
 30
0.0
 11
1.656733903304314
 21
2.348843543871055
 31
0.0
210
0.0
220
0.0
230
1.0
 40
0.7128425204
 41
0.0
 42
6.283185307179586
  0
ARC
  5
2B8
330
1F
100
AcDbEntity
  8
0
  6
Continuous
 62
     7
370
    15
100
AcDbCircle
 10
91.3095308862
 20
107.9451650147
 30
0.0
 40
16.5
100
AcDbArc
 50
105.3524981074
 51
246.6475018926
  0
SPLINE
  5
2B9
330
1F
100
AcDbEntity
  8
0
  6
Continuous
 62
     7
370
    15
100
AcDbSpline
210
0.0
220
0.0
230
1.0
 70
    24
 71
     3
 72
     9
 73
     5
 74
     0
 42
0.00000001
 43
0.00000001
 12
1.0
 22
0.0
 32
0.0
 13
1.0
 23
0.0
 33
0.0
 40
0.0
 40
0.0
 40
0.0
 40
0.0
 40
0.5
 40
1.0
 40
1.0
 40
1.0
 40
1.0
 10
86.8095308861784
 20
124.8451650146544
 30
0.0
 10
86.8095308861784
 20
124.8470878829883
 30
0.0
 10
86.8095308861784
 20
124.8509331719772
 30
0.0
 10
86.8095308861784
 20
124.8547775662977
 30
0.0
 10
86.8095308861784
 20
124.8566995399422
 30
0.0
  0
SPLINE
  5
2BA
330
1F
100
AcDbEntity
  8
0
  6
Continuous
 62
     7
370
    15
100
AcDbSpline
210
0.0
220
0.0
230
1.0
 70
    24
 71
     3
 72
     9
 73
     5
 74
     0
 42
0.00000001
 43
0.00000001
 12
1.0
 22
0.0
 32
0.0
 13
1.0
 23
0.0
 33
0.0
 40
0.0
 40
0.0
 40
0.0
 40
0.0
 40
0.0720347733600254
 40
1.0
 40
1.0
 40
1.0
 40
1.0
 10
89.5036944349385
 20
124.8451642457545
 30
0.0
 10
89.43897205340492
 20
124.8451642457545
 30
0.0
 10
88.54048402443452
 20
124.8451642457545
 30
0.0
 10
87.64267066108994
 20
124.8451642457545
 30
0.0
 10
86.80953107989347
 20
124.8451642457545
 30
0.0
  0
SPLINE
  5
2BB
330
1F
100
AcDbEntity
  8
0
  6
Continuous
 62
     7
370
    15
100
AcDbSpline
210
0.0
220
0.0
230
1.0
 70
    24
 71
     3
 72
    18
 73
    14
 74
     0
 42
0.00000001
 43
0.00000001
 12
1.0
 22
0.0
 32
0.0
 13
1.0
 23
0.0
 33
0.0
 40
0.0
 40
0.0
 40
0.0
 40
0.0
 40
0.25
 40
0.25
 40
0.5
 40
0.5
 40
0.5625
 40
0.5625
 40
0.625
 40
0.625
 40
0.75
 40
0.75
 40
1.0
 40
1.0
 40
1.0
 40
1.0
 10
95.85265756281862
 20
91.04516501465443
 30
0.0
 10
95.09823063253168
 20
91.04516501465443
 30
0.0
 10
94.3451156659465
 20
91.04516501465443
 30
0.0
 10
92.83866480151826
 20
91.04516501465443
 30
0.0
 10
92.08524058058397
 20
91.04516501465443
 30
0.0
 10
91.14235436580094
 20
91.04516501465443
 30
0.0
 10
90.95020592726127
 20
91.04516501465443
 30
0.0
 10
90.56952643397904
 20
91.04516501465443
 30
0.0
 10
90.37927288919191
 20
91.04516501465443
 30
0.0
 10
89.80871439878419
 20
91.04516501465442
 30
0.0
 10
89.4286139622106
 20
91.04516501465443
 30
0.0
 10
88.28843915837737
 20
91.04516501465442
 30
0.0
 10
87.52853132800354
 20
91.04516501465443
 30
0.0
 10
86.76640420953815
 20
91.04516501465443
 30
0.0
  0
SPLINE
  5
2BC
330
1F
100
AcDbEntity
  8
0
  6
Continuous
 62
     7
370
    15
100
AcDbSpline
210
0.0
220
0.0
230
1.0
 70
    24
 71
     3
 72
    12
 73
     8
 74
     0
 42
0.00000001
 43
0.00000001
 12
1.0
 22
0.0
 32
0.0
 13
1.0
 23
0.0
 33
0.0
 40
0.0
 40
0.0
 40
0.0
 40
0.0
 40
0.5
 40
0.5
 40
0.75
 40
0.75
 40
1.0
 40
1.0
 40
1.0
 40
1.0
 10
78.43212819774777
 20
119.7951650146544
 30
0.0
 10
78.61465490129548
 20
119.7951650146544
 30
0.0
 10
78.79924555663065
 20
119.7951650146544
 30
0.0
 10
79.05952687880516
 20
119.7951650146544
 30
0.0
 10
79.14408133161623
 20
119.7951650146544
 30
0.0
 10
79.30802928136045
 20
119.7951650146544
 30
0.0
 10
79.38747950540183
 20
119.7951650146544
 30
0.0
 10
79.45953088618018
 20
119.7951650146544
 30
0.0
  0
SPLINE
  5
2BD
330
1F
100
AcDbEntity
  8
0
  6
Continuous
 62
     7
370
    15
100
AcDbSpline
210
0.0
220
0.0
230
1.0
 70
    24
 71
     3
 72
    10
 73
     6
 74
     0
 42
0.00000001
 43
0.00000001
 12
1.0
 22
0.0
 32
0.0
 13
1.0
 23
0.0
 33
0.0
 40
0.0
 40
0.0
 40
0.0
 40
0.0
 40
0.5
 40
0.5
 40
1.0
 40
1.0
 40
1.0
 40
1.0
 10
79.45953088617838
 20
120.822567703085
 30
0.0
 10
79.45953088617838
 20
120.6398589909501
 30
0.0
 10
79.45953088617838
 20
120.4563507011893
 30
0.0
 10
79.45953088617838
 20
120.1080467228686
 30
0.0
 10
79.45953088617838
 20
119.9398591403257
 30
0.0
 10
79.45953088617838
 20
119.795165014653
 30
0.0
  0
SPLINE
  5
2BE
330
1F
100
AcDbEntity
  8
0
  6
Continuous
 62
     7
370
    15
100
AcDbSpline
210
0.0
220
0.0
230
1.0
 70
    24
 71
     3
 72
    10
 73
     6
 74
     0
 42
0.00000001
 43
0.00000001
 12
1.0
 22
0.0
 32
0.0
 13
1.0
 23
0.0
 33
0.0
 40
0.0
 40
0.0
 40
0.0
 40
0.0
 40
0.5
 40
0.5
 40
1.0
 40
1.0
 40
1.0
 40
1.0
 10
86.8095308861784
 20
126.8160420477973
 30
0.0
 10
86.8095308861784
 20
126.9744764906852
 30
0.0
 10
86.8095308861784
 20
127.1334971854871
 30
0.0
 10
86.8095308861784
 20
127.3635050097428
 30
0.0
 10
86.8095308861784
 20
127.4323402845595
 30
0.0
 10
86.8095308861784
 20
127.4323402845595
 30
0.0
  0
ARC
  5
2BF
330
1F
100
AcDbEntity
  8
0
  6
Continuous
 62
     7
370
    15
100
AcDbCircle
 10
91.3095308862
 20
107.9451650147
 30
0.0
 40
20.00000000000001
100
AcDbArc
 50
103.0028781629
 51
126.3346172154
  0
SPLINE
  5
2C0
330
1F
100
AcDbEntity
  8
0
  6
Continuous
 62
     7
370
    15
100
AcDbSpline
210
0.0
220
0.0
230
1.0
 70
    24
 71
     3
 72
    12
 73
     8
 74
     0
 42
0.00000001
 43
0.00000001
 12
1.0
 22
0.0
 32
0.0
 13
1.0
 23
0.0
 33
0.0
 40
0.0
 40
0.0
 40
0.0
 40
0.0
 40
0.25
 40
0.25
 40
0.5
 40
0.5
 40
1.0
 40
1.0
 40
1.0
 40
1.0
 10
79.45953088617838
 20
124.0565740157319
 30
0.0
 10
79.45953088617838
 20
124.0565740157319
 30
0.0
 10
79.45953088617838
 20
124.0309493831271
 30
0.0
 10
79.45953088617838
 20
123.9424060101953
 30
0.0
 10
79.45953088617838
 20
123.8795235270807
 30
0.0
 10
79.45953088617838
 20
123.6621623391471
 30
0.0
 10
79.45953088617838
 20
123.4835153291357
 30
0.0
 10
79.45953088617838
 20
123.3054221739601
 30
0.0
  0
SPLINE
  5
2C1
330
1F
100
AcDbEntity
  8
0
  6
Continuous
 62
     7
370
    15
100
AcDbSpline
210
0.0
220
0.0
230
1.0
 70
    24
 71
     3
 72
    10
 73
     6
 74
     0
 42
0.00000001
 43
0.00000001
 12
1.0
 22
0.0
 32
0.0
 13
1.0
 23
0.0
 33
0.0
 40
0.0
 40
0.0
 40
0.0
 40
0.0
 40
0.5
 40
0.5
 40
1.0
 40
1.0
 40
1.0
 40
1.0
 10
85.8095308861784
 20
89.3411331935679
 30
0.0
 10
85.8095308861784
 20
89.18150102466466
 30
0.0
 10
85.8095308861784
 20
89.02045139090059
 30
0.0
 10
85.8095308861784
 20
88.787460507224
 30
0.0
 10
85.8095308861784
 20
88.716280491625
 30
0.0
 10
85.8095308861784
 20
88.716280491625
 30
0.0
  0
ARC
  5
2C2
330
1F
100
AcDbEntity
  8
0
  6
Continuous
 62
     7
370
    15
100
AcDbCircle
 10
91.3095308862
 20
107.9451650147
 30
0.0
 40
20.0
100
AcDbArc
 50
143.6653827846
 51
254.0379858372
  0
SPLINE
  5
2C3
330
1F
100
AcDbEntity
  8
0
  6
Continuous
 62
     7
370
    15
100
AcDbSpline
210
0.0
220
0.0
230
1.0
 70
    24
 71
     3
 72
    12
 73
     8
 74
     0
 42
0.00000001
 43
0.00000001
 12
1.0
 22
0.0
 32
0.0
 13
1.0
 23
0.0
 33
0.0
 40
0.0
 40
0.0
 40
0.0
 40
0.0
 40
0.250000000000002
 40
0.250000000000002
 40
0.500000000000004
 40
0.500000000000004
 40
1.0
 40
1.0
 40
1.0
 40
1.0
 10
75.19812188510092
 20
119.7951650146544
 30
0.0
 10
75.19812188510092
 20
119.7951650146544
 30
0.0
 10
75.22340203526538
 20
119.7951650146544
 30
0.0
 10
75.31301338076713
 20
119.7951650146544
 30
0.0
 10
75.37599901769315
 20
119.7951650146544
 30
0.0
 10
75.5922857394507
 20
119.7951650146544
 30
0.0
 10
75.77226549687107
 20
119.7951650146544
 30
0.0
 10
75.94927372687278
 20
119.7951650146544
 30
0.0
  0
ARC
  5
2C4
330
1F
100
AcDbEntity
  8
0
  6
Continuous
 62
     7
370
    15
100
AcDbCircle
 10
91.3095308862
 20
107.9451650147
 30
0.0
 40
20.00000000000001
100
AcDbArc
 50
285.9620141628
 51
31.6518676056
  0
SPLINE
  5
2C5
330
1F
100
AcDbEntity
  8
0
  6
Continuous
 62
     7
370
    15
100
AcDbSpline
210
0.0
220
0.0
230
1.0
 70
    24
 71
     3
 72
    12
 73
     8
 74
     0
 42
0.00000001
 43
0.00000001
 12
1.0
 22
0.0
 32
0.0
 13
1.0
 23
0.0
 33
0.0
 40
0.0
 40
0.0
 40
0.0
 40
0.0
 40
0.2499999999999962
 40
0.2499999999999962
 40
0.4999999999999925
 40
0.4999999999999925
 40
1.0
 40
1.0
 40
1.0
 40
1.0
 10
96.80953088617838
 20
88.71628049162501
 30
0.0
 10
96.80953088617838
 20
88.71628049162501
 30
0.0
 10
96.80953088617838
 20
88.73325608798311
 30
0.0
 10
96.80953088617838
 20
88.7977315854423
 30
0.0
 10
96.80953088617838
 20
88.84484521723691
 30
0.0
 10
96.80953088617838
 20
89.02145513122439
 30
0.0
 10
96.80953088617838
 20
89.18130400703255
 30
0.0
 10
96.80953088617838
 20
89.34113319356759
 30
0.0
  0
LINE
  5
2C6
330
1F
100
AcDbEntity
  8
0
  6
Continuous
 62
     7
370
    15
100
AcDbLine
 10
96.8095308564
 20
89.3411323194
 30
0.0
 11
96.8095308564
 21
91.0451657836
 31
0.0
  0
LINE
  5
2C7
330
1F
100
AcDbEntity
  8
0
  6
Continuous
 62
     7
370
    15
100
AcDbLine
 10
96.8095308564
 20
91.0451657836
 30
0.0
 11
95.8526574469
 21
91.0451657836
 31
0.0
  0
LINE
  5
2C8
330
1F
100
AcDbEntity
  8
0
  6
Continuous
 62
     7
370
    15
100
AcDbLine
 10
85.809530916
 20
91.0451657836
 30
0.0
 11
85.809530916
 21
89.3411323194
 31
0.0
  0
LINE
  5
2C9
330
1F
100
AcDbEntity
  8
0
  6
Continuous
 62
     7
370
    15
100
AcDbLine
 10
86.7664043254
 20
91.0451657836
 30
0.0
 11
85.809530916
 21
91.0451657836
 31
0.0
  0
LINE
  5
2CA
330
1F
100
AcDbEntity
  8
0
  6
Continuous
 62
     7
370
    15
100
AcDbLine
 10
75.9492732979
 20
119.7951653738
 30
0.0
 11
78.432128059
 21
119.7951653738
 31
0.0
  0
LINE
  5
2CB
330
1F
100
AcDbEntity
  8
0
  6
Continuous
 62
     7
370
    15
100
AcDbLine
 10
86.8095310799
 20
124.8566996072
 30
0.0
 11
86.8095310799
 21
126.8160421167
 31
0.0
  0
LINE
  5
2CC
330
1F
100
AcDbEntity
  8
0
  6
Continuous
 62
     7
370
    15
100
AcDbLine
 10
79.4595305271
 20
123.305422603
 30
0.0
 11
79.4595305271
 21
120.8225678418
 31
0.0
  0
SPLINE
  5
2CD
330
1F
100
AcDbEntity
  8
0
  6
Continuous
 62
     7
370
    15
100
AcDbSpline
210
0.0
220
0.0
230
1.0
 70
     8
 71
     3
 72
    22
 73
    18
 74
     0
 42
0.00000001
 43
0.00000001
 12
1.0
 22
0.0
 32
0.0
 13
1.0
 23
0.0
 33
0.0
 40
0.0
 40
0.0
 40
0.0
 40
0.0
 40
0.2500000000000002
 40
0.2500000000000002
 40
0.3750000000000001
 40
0.3750000000000001
 40
0.5000000000000001
 40
0.5000000000000001
 40
0.6250000000000001
 40
0.6250000000000001
 40
0.75
 40
0.75
 40
0.875
 40
0.875
 40
0.9375000000000001
 40
0.9375000000000001
 40
1.0
 40
1.0
 40
1.0
 40
1.0
 10
75.19812188510093
 20
119.7951650146544
 30
0.0
 10
75.61211676326741
 20
120.3580376565524
 30
0.0
 10
76.04792656457634
 20
120.888662540282
 30
0.0
 10
76.72466736756067
 20
121.6343735312036
 30
0.0
 10
76.95552249473536
 20
121.8759937576023
 30
0.0
 10
77.41555954989748
 20
122.3348525329282
 30
0.0
 10
77.64152722667599
 20
122.549031205398
 30
0.0
 10
78.07871881517671
 20
122.9462597645435
 30
0.0
 10
78.29177153946927
 20
123.1307045995633
 30
0.0
 10
78.6759476787028
 20
123.451784447447
 30
0.0
 10
78.85006468749428
 20
123.591135277553
 30
0.0
 10
79.1435824322948
 20
123.8204408119785
 30
0.0
 10
79.25837473689222
 20
123.9069768214549
 30
0.0
 10
79.37732931298818
 20
123.9958664257861
 30
0.0
 10
79.40814739597478
 20
124.0186749316478
 30
0.0
 10
79.4491666076934
 20
124.048966094344
 30
0.0
 10
79.45953088617838
 20
124.0565740157319
 30
0.0
 10
79.45953088617838
 20
124.0565740157319
 30
0.0
  0
SPLINE
  5
2CE
330
1F
100
AcDbEntity
  8
0
  6
Continuous
 62
     7
370
    15
100
AcDbSpline
210
0.0
220
0.0
230
1.0
 70
     8
 71
     3
 72
    22
 73
    18
 74
     0
 42
0.00000001
 43
0.00000001
 12
1.0
 22
0.0
 32
0.0
 13
1.0
 23
0.0
 33
0.0
 40
0.0
 40
0.0
 40
0.0
 40
0.0
 40
0.1250000000000001
 40
0.1250000000000001
 40
0.2500000000000002
 40
0.2500000000000002
 40
0.3750000000000003
 40
0.3750000000000003
 40
0.5000000000000004
 40
0.5000000000000004
 40
0.6250000000000003
 40
0.6250000000000003
 40
0.7500000000000002
 40
0.7500000000000002
 40
0.8750000000000001
 40
0.8750000000000001
 40
1.0
 40
1.0
 40
1.0
 40
1.0
 10
92.30953088617838
 20
87.97018065921624
 30
0.0
 10
92.60826861457603
 20
87.98513625182558
 30
0.0
 10
92.9014739394105
 20
88.00652444847194
 30
0.0
 10
93.47742902003807
 20
88.06090269508725
 30
0.0
 10
93.76317131385345
 20
88.09434885869562
 30
0.0
 10
94.30670045484713
 20
88.16911313409337
 30
0.0
 10
94.56419364306875
 20
88.2102116230543
 30
0.0
 10
95.05139864033403
 20
88.29676455201808
 30
0.0
 10
95.28153826252317
 20
88.34241545111595
 30
0.0
 10
95.69474391872666
 20
88.43069500628081
 30
0.0
 10
95.88057965942254
 20
88.47379635628806
 30
0.0
 10
96.20967623960597
 20
88.55400053614332
 30
0.0
 10
96.34963609642001
 20
88.59029538353289
 30
0.0
 10
96.57532245764968
 20
88.65047460268258
 30
0.0
 10
96.66259386598841
 20
88.6747619401137
 30
0.0
 10
96.77999407933928
 20
88.70776003442505
 30
0.0
 10
96.80953088617838
 20
88.716280491625
 30
0.0
 10
96.80953088617838
 20
88.71628049162501
 30
0.0
  0
SPLINE
  5
2CF
330
1F
100
AcDbEntity
  8
0
  6
Continuous
 62
     7
370
    15
100
AcDbSpline
210
0.0
220
0.0
230
1.0
 70
     8
 71
     3
 72
    22
 73
    18
 74
     0
 42
0.00000001
 43
0.00000001
 12
1.0
 22
0.0
 32
0.0
 13
1.0
 23
0.0
 33
0.0
 40
0.0
 40
0.0
 40
0.0
 40
0.0
 40
0.125
 40
0.125
 40
0.25
 40
0.25
 40
0.375
 40
0.375
 40
0.5
 40
0.5
 40
0.625
 40
0.625
 40
0.75
 40
0.75
 40
0.875
 40
0.875
 40
1.0
 40
1.0
 40
1.0
 40
1.0
 10
85.8095308861784
 20
88.71628049162501
 30
0.0
 10
85.8095308861784
 20
88.71628049162501
 30
0.0
 10
85.83905678459831
 20
88.70776639055862
 30
0.0
 10
85.95446161788496
 20
88.67532262167673
 30
0.0
 10
86.0418444229508
 20
88.6509887329747
 30
0.0
 10
86.26851784225842
 20
88.59052870821785
 30
0.0
 10
86.40699368859097
 20
88.55461528743936
 30
0.0
 10
86.73380418575475
 20
88.47490526137022
 30
0.0
 10
86.92284902173475
 20
88.43102696018089
 30
0.0
 10
87.33571730421048
 20
88.3427833378107
 30
0.0
 10
87.5611891954618
 20
88.29797499634975
 30
0.0
 10
88.05204480000947
 20
88.21065398843056
 30
0.0
 10
88.31088495795154
 20
88.16936319985491
 30
0.0
 10
88.85063778374737
 20
88.09502497656108
 30
0.0
 10
89.13474087257643
 20
88.06161485082642
 30
0.0
 10
89.71619400771834
 20
88.00659544930026
 30
0.0
 10
90.01084447334664
 20
87.98513368283403
 30
0.0
 10
90.3095308861784
 20
87.97018065921624
 30
0.0
  0
SPLINE
  5
2D0
330
1F
100
AcDbEntity
  8
0
  6
Continuous
 62
     7
370
    15
100
AcDbSpline
210
0.0
220
0.0
230
1.0
 70
     8
 71
     3
 72
    15
 73
    11
 74
     0
 42
0.00000001
 43
0.00000001
 12
1.0
 22
0.0
 32
0.0
 13
1.0
 23
0.0
 33
0.0
 40
0.0
 40
0.0
 40
0.0
 40
0.0
 40
0.1341621233816629
 40
0.2683342540169227
 40
0.4023900474994107
 40
0.5364594530356052
 40
0.6726814111793091
 40
0.8089001209376938
 40
0.9466449142308113
 40
1.0
 40
1.0
 40
1.0
 40
1.0
 10
86.80953107989347
 20
127.4323411051333
 30
0.0
 10
86.82179674656695
 20
127.4352425380273
 30
0.0
 10
86.84632899481913
 20
127.4410456202354
 30
0.0
 10
87.03732993187059
 20
127.4840275333072
 30
0.0
 10
87.3381641737025
 20
127.5480721347865
 30
0.0
 10
87.74925481607251
 20
127.6275292052844
 30
0.0
 10
88.26136938127416
 20
127.7143941439391
 30
0.0
 10
88.8654315152138
 20
127.7977544603298
 30
0.0
 10
89.39685708264527
 20
127.8584653781343
 30
0.0
 10
89.73591232781008
 20
127.8808853717134
 30
0.0
 10
89.83057655143506
 20
127.8871450338662
 30
0.0
  0
ARC
  5
2D1
330
1F
100
AcDbEntity
  8
0
  6
Continuous
 62
     7
370
    15
100
AcDbCircle
 10
91.3095308862
 20
107.9451650147
 30
0.0
 40
20.0
100
AcDbArc
 50
267.1340160174
 51
272.8659839826
  0
CIRCLE
  5
2D2
330
1F
100
AcDbEntity
  8
VERMASSUNG
  6
CENTERX2
100
AcDbCircle
 10
91.3095308862
 20
109.92220814
 30
0.0
 40
25.0
  0
POINT
  5
2D3
330
1F
100
AcDbEntity
  8
VERMASSUNG
100
AcDbPoint
 10
91.2833090048
 20
134.9221943883
 30
0.0
  0
DIMENSION
  5
2D4
330
1F
100
AcDbEntity
  8
VERMASSUNG
100
AcDbDimension
  2
_D_5
 10
63.9019813375
 20
134.92220814
 30
0.0
 11
63.9019813375
 21
109.92220814
 31
0.0
 70
   160
  1
%%c<>
 71
     2
 42
-1.0
  3
SLDDIMSTYLE1
100
AcDbAlignedDimension
 13
91.3095308862
 23
84.92220814
 33
0.0
 14
91.3095308862
 24
134.92220814
 34
0.0
 50
90.0
100
AcDbRotatedDimension
  0
INSERT
  5
2EA
330
1F
100
AcDbEntity
  8
VERMASSUNG
100
AcDbBlockReference
  2
SW_CENTERMARKSYMBOL_0
 10
91.3095308862
 20
107.9451650147
 30
0.0
  0
OLE2FRAME
  5
2EB
330
1F
100
AcDbEntity
  8
0
100
AcDbOle2Frame
 70
     2
  3
Paintbrush-Bild
 10
13.8511154363
 20
38.264191557
 30
0.0
 11
51.6290888628
 21
31.9806341108
 31
0.0
 71
     2
 72
     0
 73
     1
 90
    12928
310
80552BED0767C5B32B40DDAF6807D121434000000000000000006FFBDDFB85D0
310
4940DDAF6807D121434000000000000000006FFBDDFB85D04940416F4BD60AFB
310
3F4000000000000000002BED0767C5B32B40416F4BD60AFB3F40000000000000
310
0000000000000100000000010000010000000100000000000100000000320000
310
D0CF11E0A1B11AE1000000000000000000000000000000003E000300FEFF0900
310
0600000000000000000000000100000001000000000000000010000002000000
310
01000000FEFFFFFF0000000000000000FFFFFFFFFFFFFFFFFFFFFFFFFFFFFFFF
310
FFFFFFFFFFFFFFFFFFFFFFFFFFFFFFFFFFFFFFFFFFFFFFFFFFFFFFFFFFFFFFFF
310
FFFFFFFFFFFFFFFFFFFFFFFFFFFFFFFFFFFFFFFFFFFFFFFFFFFFFFFFFFFFFFFF
310
FFFFFFFFFFFFFFFFFFFFFFFFFFFFFFFFFFFFFFFFFFFFFFFFFFFFFFFFFFFFFFFF
310
FFFFFFFFFFFFFFFFFFFFFFFFFFFFFFFFFFFFFFFFFFFFFFFFFFFFFFFFFFFFFFFF
310
FFFFFFFFFFFFFFFFFFFFFFFFFFFFFFFFFFFFFFFFFFFFFFFFFFFFFFFFFFFFFFFF
310
FFFFFFFFFFFFFFFFFFFFFFFFFFFFFFFFFFFFFFFFFFFFFFFFFFFFFFFFFFFFFFFF
310
FFFFFFFFFFFFFFFFFFFFFFFFFFFFFFFFFFFFFFFFFFFFFFFFFFFFFFFFFFFFFFFF
310
FFFFFFFFFFFFFFFFFFFFFFFFFFFFFFFFFFFFFFFFFFFFFFFFFFFFFFFFFFFFFFFF
310
FFFFFFFFFFFFFFFFFFFFFFFFFFFFFFFFFFFFFFFFFFFFFFFFFFFFFFFFFFFFFFFF
310
FFFFFFFFFFFFFFFFFFFFFFFFFFFFFFFFFFFFFFFFFFFFFFFFFFFFFFFFFFFFFFFF
310
FFFFFFFFFFFFFFFFFFFFFFFFFFFFFFFFFFFFFFFFFFFFFFFFFFFFFFFFFFFFFFFF
310
FFFFFFFFFFFFFFFFFFFFFFFFFFFFFFFFFFFFFFFFFFFFFFFFFFFFFFFFFFFFFFFF
310
FFFFFFFFFFFFFFFFFFFFFFFFFFFFFFFFFFFFFFFFFFFFFFFFFFFFFFFFFFFFFFFF
310
FDFFFFFFFEFFFFFFFEFFFFFFFEFFFFFF05000000060000000700000008000000
310
090000000A0000000B0000000C0000000D0000000E0000000F00000010000000
310
11000000120000001300000014000000150000001600000017000000FEFFFFFF
310
FFFFFFFFFFFFFFFFFFFFFFFFFFFFFFFFFFFFFFFFFFFFFFFFFFFFFFFFFFFFFFFF
310
FFFFFFFFFFFFFFFFFFFFFFFFFFFFFFFFFFFFFFFFFFFFFFFFFFFFFFFFFFFFFFFF
310
FFFFFFFFFFFFFFFFFFFFFFFFFFFFFFFFFFFFFFFFFFFFFFFFFFFFFFFFFFFFFFFF
310
FFFFFFFFFFFFFFFFFFFFFFFFFFFFFFFFFFFFFFFFFFFFFFFFFFFFFFFFFFFFFFFF
310
FFFFFFFFFFFFFFFFFFFFFFFFFFFFFFFFFFFFFFFFFFFFFFFFFFFFFFFFFFFFFFFF
310
FFFFFFFFFFFFFFFFFFFFFFFFFFFFFFFFFFFFFFFFFFFFFFFFFFFFFFFFFFFFFFFF
310
FFFFFFFFFFFFFFFFFFFFFFFFFFFFFFFFFFFFFFFFFFFFFFFFFFFFFFFFFFFFFFFF
310
FFFFFFFFFFFFFFFFFFFFFFFFFFFFFFFFFFFFFFFFFFFFFFFFFFFFFFFFFFFFFFFF
310
FFFFFFFFFFFFFFFFFFFFFFFFFFFFFFFFFFFFFFFFFFFFFFFFFFFFFFFFFFFFFFFF
310
FFFFFFFFFFFFFFFFFFFFFFFFFFFFFFFFFFFFFFFFFFFFFFFFFFFFFFFFFFFFFFFF
310
FFFFFFFFFFFFFFFFFFFFFFFFFFFFFFFFFFFFFFFFFFFFFFFFFFFFFFFFFFFFFFFF
310
FFFFFFFFFFFFFFFFFFFFFFFFFFFFFFFFFFFFFFFFFFFFFFFFFFFFFFFFFFFFFFFF
310
FFFFFFFFFFFFFFFFFFFFFFFFFFFFFFFFFFFFFFFFFFFFFFFFFFFFFFFFFFFFFFFF
310
52006F006F007400200045006E00740072007900000000000000000000000000
310
0000000000000000000000000000000000000000000000000000000000000000
310
16000500FFFFFFFFFFFFFFFF020000000A00030000000000C000000000000046
310
00000000000000000000000060AAEB5ED3ADCD0103000000C000000000000000
310
01004F006C006500000000000000000000000000000000000000000000000000
310
0000000000000000000000000000000000000000000000000000000000000000
310
0A000200FFFFFFFFFFFFFFFFFFFFFFFF00000000000000000000000000000000
310
0000000000000000000000000000000000000000000000001400000000000000
310
010043006F006D0070004F0062006A0000000000000000000000000000000000
310
0000000000000000000000000000000000000000000000000000000000000000
310
120002010100000003000000FFFFFFFF00000000000000000000000000000000
310
0000000000000000000000000000000000000000010000004D00000000000000
310
01004F006C006500310030004E00610074006900760065000000000000000000
310
0000000000000000000000000000000000000000000000000000000000000000
310
1A000200FFFFFFFFFFFFFFFFFFFFFFFF00000000000000000000000000000000
310
0000000000000000000000000000000000000000040000002426000000000000
310
FEFFFFFF02000000FEFFFFFFFFFFFFFFFFFFFFFFFFFFFFFFFFFFFFFFFFFFFFFF
310
FFFFFFFFFFFFFFFFFFFFFFFFFFFFFFFFFFFFFFFFFFFFFFFFFFFFFFFFFFFFFFFF
310
FFFFFFFFFFFFFFFFFFFFFFFFFFFFFFFFFFFFFFFFFFFFFFFFFFFFFFFFFFFFFFFF
310
FFFFFFFFFFFFFFFFFFFFFFFFFFFFFFFFFFFFFFFFFFFFFFFFFFFFFFFFFFFFFFFF
310
FFFFFFFFFFFFFFFFFFFFFFFFFFFFFFFFFFFFFFFFFFFFFFFFFFFFFFFFFFFFFFFF
310
FFFFFFFFFFFFFFFFFFFFFFFFFFFFFFFFFFFFFFFFFFFFFFFFFFFFFFFFFFFFFFFF
310
FFFFFFFFFFFFFFFFFFFFFFFFFFFFFFFFFFFFFFFFFFFFFFFFFFFFFFFFFFFFFFFF
310
FFFFFFFFFFFFFFFFFFFFFFFFFFFFFFFFFFFFFFFFFFFFFFFFFFFFFFFFFFFFFFFF
310
FFFFFFFFFFFFFFFFFFFFFFFFFFFFFFFFFFFFFFFFFFFFFFFFFFFFFFFFFFFFFFFF
310
FFFFFFFFFFFFFFFFFFFFFFFFFFFFFFFFFFFFFFFFFFFFFFFFFFFFFFFFFFFFFFFF
310
FFFFFFFFFFFFFFFFFFFFFFFFFFFFFFFFFFFFFFFFFFFFFFFFFFFFFFFFFFFFFFFF
310
FFFFFFFFFFFFFFFFFFFFFFFFFFFFFFFFFFFFFFFFFFFFFFFFFFFFFFFFFFFFFFFF
310
FFFFFFFFFFFFFFFFFFFFFFFFFFFFFFFFFFFFFFFFFFFFFFFFFFFFFFFFFFFFFFFF
310
FFFFFFFFFFFFFFFFFFFFFFFFFFFFFFFFFFFFFFFFFFFFFFFFFFFFFFFFFFFFFFFF
310
FFFFFFFFFFFFFFFFFFFFFFFFFFFFFFFFFFFFFFFFFFFFFFFFFFFFFFFFFFFFFFFF
310
FFFFFFFFFFFFFFFFFFFFFFFFFFFFFFFFFFFFFFFFFFFFFFFFFFFFFFFFFFFFFFFF
310
0100000200000000000000000000000000000000000000000000000000000000
310
0000000000000000000000000000000000000000000000000000000000000000
310
0100FEFF030A0000FFFFFFFF0A00030000000000C00000000000004607000000
310
5042727573680007000000504272757368000700000050427275736800F439B2
310
7100000000000000000000000000000000000000000000000000000000000000
310
0000000000000000000000000000000000000000000000000000000000000000
310
0000000000000000000000000000000000000000000000000000000000000000
310
0000000000000000000000000000000000000000000000000000000000000000
310
0000000000000000000000000000000000000000000000000000000000000000
310
0000000000000000000000000000000000000000000000000000000000000000
310
0000000000000000000000000000000000000000000000000000000000000000
310
0000000000000000000000000000000000000000000000000000000000000000
310
0000000000000000000000000000000000000000000000000000000000000000
310
0000000000000000000000000000000000000000000000000000000000000000
310
0000000000000000000000000000000000000000000000000000000000000000
310
0000000000000000000000000000000000000000000000000000000000000000
310
20260000424D0E260000000000003E00000028000000B40200006E0000000100
310
01000000000000000000130B0000130B00000200000002000000000000FFFFFF
310
FFFFFFFFFFFFFFFFFFFFFFFFFFFFFFFFFFFFFFFFFFFFFFFFFFFFFFFFFFFFFFFF
310
FFFFFFFFFFFFFFFFFFFFFFFFFFFFFFFFFFFFFFFFFFFFFFFFFFFFFFFFFFFFFFFF
310
FFFFFFFFFFFFFFFFFFFFFFFFFFFFFFFFFFFFFFFFFFFFFFFFF000FFFFFFFFFFFF
310
FFFFFFFFFFFFFFFFFFFFFFFFFFFFFFFFFFFFFFFFFFFFFFFFFFFFFFFFFFFFFFFF
310
FFFFFFFFFFFFFFFFFFFFFFFFFFFFFFFFFFFFFFFFFFFFFFFFFFFFFFFFFFFFFFFF
310
FFFFFFFFFFFFFFFFFFFFFFFFFFFFFFFFF000FFFFFFFFFFFFFFFFFFFFFFFFFFFF
310
FFFFFFFFFFFFFFFFFFFFFFFFFFFFFFFFFFFFFFFFFFFFFFFFFFFFFFFFFFFFFFFF
310
FFFFFFFFFFFFFFFFFFFFFFFFFFFFFFFFFFFFFFFFFFFFFFFFFFFFFFFFFFFFFFFF
310
FFFFFFFFFFFFFFFFF000FFFFFFFFFFFFFFFFFFFFFFFFFFFFFFFFFFFFFFFFFFFF
310
FFFFFFFFFFFFFFFFFFFFFFFFFFFFFFFFFFFFFFFFFFFFFFFFFFFFFFFFFFFFFFFF
310
FFFFFFFFFFFFFFFFFFFFFFFFFFFFFFFFFFFFFFFFFFFFFFFFFFFFFFFFFFFFFFFF
310
F000FFFFFFFFFFFFFFFFFFFFFFFFFFFFFFFFFFFFFFFFFFFFFFFFFFFFFFFFFFFF
310
FFFFFFFFFFFFFFFFFFFFFFFFFFFFFFFFFFFFFFFFFFFFFFFFFFFFFFFFFFFFFFFF
310
FFFFFFFFFFFFFFFFFFFFFFFFFFFFFFFFFFFFFFFFFFFFFFFFF000FFFFFFFFFFFF
310
FFFFFFFFFFFFFFFFFFFFFFFFFFFFFFFFFFFFFFFFFFFFFFFFFFFFFFFFFFFFFFFF
310
FFFFFFFFFFFFFFFFFFFFFFFFFFFFFFFFFFFFFFFFFFFFFFFFFFFFFFFFFFFFFFFF
310
FFFFFFFFFFFFFFFFFFFFFFFFFFFFFFFFF000FFFFFFFFFFFFFFFFFFFFFFFFFFFF
310
FFFFFFFFFFFFFFFFFFFFFFFFFFFFFFFFFFFFFFFFFFFFFFFFFFFFFFFFFFFFFFFF
310
FFFFFFFFFFFFFFFFFFFFFFFFFFFFFFFFFFFFFFFFFFFFFFFFFFFFFFFFFFFFFFFF
310
FFFFFFFFFFFFFFFFF000FFFFFFFFFFFFFFFFFFFFFFFFFFFFFFFFFFFFFFFFFFFF
310
FFFFFFFFFFFFFFFFFFFFFFFFFFFFFFFFFFFFFFFFFFFFFFFFFFFFFFFFFFFFFFFF
310
FFFFFFFFFFFFFFFFFFFFFFFFFFFFFFFFFFFFFFFFFFFFFFFFFFFFFFFFFFFFFFFF
310
F000FFFFFFFFFFFFFFFFFFFFFFFFFFFFFFFFFFFFFFFFFFFFFFFFFFFFFFFFFFFF
310
FFFFFFFFFFFFFFFFFFFFFFFFFFFFFFFFFFFFFFFFFFFFFFFFFFFFFFFFFFFFFFFF
310
FFFFFFFFFFFFFFFFFFFFFFFFFFFFFFFFFFFFFFFFFFFFFFFFF000FFFFFFFFFFFF
310
FFFFFFFFFFFFFFFFFFFFFFFFFFFFFFFFFFFFFFFFFFFFFFFFFFFFFFFFFFFFFFFF
310
FFFFFFFFFFFFFFFFFFFFFFFFFFFFFFFFFFFFFFFFFFFFFFFFFFFFFFFFFFFFFFFF
310
FFFFFFFFFFFFFFFFFFFFFFFFFFFFFFFFF000FFFFFFFFFFFFFFFFFFFFFFFFFFFF
310
FFFFFFFFFFFFFFFFFFFFFFFFFFFFFFFFFFFFFFFFFFFFFFFFFFFFFFFFFFFFFFFF
310
FFFFFFFFFFFFFFFFFFFFFFFFFFFFFFFFFFFFFFFFFFFFFFFFFFFFFFFFFFFFFFFF
310
FFFFFFFFFFFFFFFFF000FFFFFFFFFFFFFFFFFFFFFFFFFFFFFFFFFFFFFFFFFFFF
310
FFFFFFFFFFFFFFFFFFFFFFFFFFFFFFFFFFFFFFFFFFFFFFFFFFFFFFFFFFFFFFFF
310
FFFFFFFFFFFFFFFFFFFFFFFFFFFFFFFFFFFFFFFFFFFFFFFFFFFFFFFFFFFFFFFF
310
F000FFFFFFFFFFFFFFFFFFFFFFFFFFFFFFFFFFFFFFFFFFFFFFFFFFFFFFFFFFFF
310
FFFFFFFFFFFFFFFFFFFFFFFFFFFFFFFFFFFFFFFFFFFFFFFFFFFFFFFFFFFFFFFF
310
FFFFFFFFFFFFFFFFFFFFFFFFFFFFFFFFFFFFFFFFFFFFFFFFF000FFFFFFFFFFFF
310
FFFFFFFFFFFFFFFFFFFFFFFFFFFFFFFFFFFFFFFFFFFFFFFFFFFFFFFFFFFFFFFF
310
FFFFFFFFFFFFFFFFFFFFFFFFFFFFFFFFFFFFFFFFFFFFFFFFFFFFFFFFFFFFFFFF
310
FFFFFFFFFFFFFFFFFFFFFFFFFFFFFFFFF000FFFFFFFFFFFFFFFFFFFFFFFFFFFF
310
FFFFFFFFFFFFFFFFFFFFFFFFFFFFFFFFFFFFFFFFFFFFFFFFFFFFFFFFFFFFFFFF
310
FFFFFFFFFFFFFFFFFFFFFFFFFFFFFFFFFFFFFFFFFFFFFFFFFFFFFFFFFFFFFFFF
310
FFFFFFFFFFFFFFFFF000FFFFFFFFFFFFFFFFFFFFFFFFFFFFFFFFFFFFFFFFFFFF
310
FFFFFFFFFFFFFFFFFFFFFFFFFFFFFFFFFFFFFFFFFFFFFFFFFFFFFFFFFFFFFFFF
310
FFFFFFFFFFFFFFFFFFFFFFFFFFFFFFFFFFFFFFFFFFFFFFFFFFFFFFFFFFFFFFFF
310
F000FFFFFFFFFFFFFFFFFFFFFFFFFFFFFFFFFFFFFFFFFFFFFFFFFFFFFFFFFFFF
310
FFFFFFFFFFFFFFFFFFFFFFFFFFFFFFFFFFFFFFFFFFFFFFFFFFFFFFFFFFFFFFFF
310
FFFFFFFFFFFFFFFFFFFFFFFFFFFFFFFFFFFFFFFFFFFFFFFFF000FFFFFFFFFFFF
310
FFFFFFFFFFFFFFFFFFFFFFFFFFFFFFFFFFFFFFFFFFFFFFFFFFFFFFFFFFFFFFFF
310
FFFFFFFFFFFFFFFFFFFFFFFFFFFFFFFFFFFFFFFFFFFFFFFFFFFFFFFFFFFFFFFF
310
FFFFFFFFFFFFFFFFFFFFFFFFFFFFFFFFF000FFFFFFFFFFFFFFFFFFFFFFFFFFFF
310
FFFFFFFFFFFFFFFFFFFFFFFFFFFFFFFFFFFFFFFFFFFFFFFFFFFFFFFFFFFFFFFF
310
FFFFFFFFFFFFFFFFFFFFFFFFFFFFFFFFFFFFFFFFFFFFFFFFFFFFFFFFFFFFFFFF
310
FFFFFFFFFFFFFFFFF000FFFFF80003FFFFFFFFFFFFFFFFFFFFFFFFFFFFFFFFFF
310
FFFFF00007FFFFFFFFFF00007FFFFFF800000000000000007FFFFFFFFFFFFFFF
310
FFFFFFFC001FFFFFFFFFFFFFFC001FFFFFFFFFFFFFFFFFFFFFFFFFFE0007FFFF
310
F000FFFF8000007FFFFFFFF8000FFFFFC0007FFFFF80007FFFFF0000007FFFFF
310
FFF8000007FFFFF800000000000000007FFFFFF0001FFFFFFFFFFFC00001FFFF
310
FFFFFFFFC00001FFFFFFFF000000000003FFFFE000007FFFF000FFFE0000000F
310
FFFFFFF0000FFFFF80007FFFFF80007FFFFC0000001FFFFFFFC0000001FFFFF8
310
00000000000000007FFFFFF0001FFFFFFFFFFE0000003FFFFFFFFFFE0000003F
310
FFFFFF000000000003FFFF0000000FFFF000FFF800000003FFFFFFF00007FFFF
310
80007FFFFF80007FFFF000000007FFFFFF000000003FFFF80000000000000000
310
7FFFFFF0001FFFFFFFFFF80000000FFFFFFFFFF80000000FFFFFFF0000000000
310
03FFFC00000003FFF000FFE000000000FFFFFFF00007FFFF80003FFFFF80007F
310
FFC000000001FFFFFC000000001FFFF800000000000000007FFFFFF0001FFFFF
310
FFFFE000000003FFFFFFFFE000000003FFFFFF000000000003FFF000000000FF
310
F000FF80000000007FFFFFF00007FFFF80003FFFFF80007FFF8000000000FFFF
310
F80000000007FFF800000000000000007FFFFFF0001FFFFFFFFFC000000001FF
310
FFFFFFC000000001FFFFFF000000000003FFC0000000007FF000FF0000000000
310
3FFFFFE00007FFFF00003FFFFF80007FFE00000000003FFFF00000000003FFF8
310
00000000000000007FFFFFF0001FFFFFFFFF8000000000FFFFFFFF8000000000
310
FFFFFF000000000003FF80000000003FF000FE00000000001FFFFFE00003FFFF
310
00003FFFFF80007FFC00000000001FFFE00000000001FFF8000001FFFE000000
310
7FFFFFF0001FFFFFFFFE00000000003FFFFFFE00000000003FFFFF0000000000
310
03FF00000000001FF000FC00000000000FFFFFE00003FFFF00001FFFFF80007F
310
F800000000001FFFC00000000000FFF8000001FFFE0000007FFFFFF0001FFFFF
310
FFFC00000000001FFFFFFC00000000001FFFFF000000000003FE00000000000F
310
F000F8000000000007FFFFE00003FFFF00001FFFFF80007FF800000000000FFF
310
800000000000FFF8000001FFFE0000007FFFFFF0001FFFFFFFF800000000000F
310
FFFFF800000000000FFFFF000000000003FC000000000007F000F80000000000
310
03FFFFC00003FFFE00001FFFFF80007FF0000000000007FF0000000000007FF8
310
000001FFFE0000007FFFFFF0001FFFFFFFF0000000000007FFFFF00000000000
310
07FFFF000000000003F8000000000003F000F0000000000003FFFFC00001FFFE
310
00001FFFFF80007FE0000000000007FE0000000000003FF8000001FFFE000000
310
7FFFFFF0001FFFFFFFF0000000000007FFFFF0000000000007FFFF0000000000
310
03F800001F800003F000E00001FFF00001FFFFC00001FFFE00000FFFFF80007F
310
E00001FFE00003FE00001FFF00003FF8000001FFFE0000007FFFFFF0001FFFFF
310
FFE000003E000003FFFFE000003E000003FFFF000000000003F00001FFF80001
310
F000E00007FFFC0001FFFFC00001FFFE00000FFFFF80007FC0000FFFFC0003FC
310
0000FFFFC0001FF8000001FFFE0000007FFFFFF0001FFFFFFFC00003FFE00001
310
FFFFC00003FFE00001FFFF0001FFFFFFFFF00007FFFE0001F000E0000FFFFF00
310
00FFFF800001FFFC00000FFFFF80007FC0001FFFFE0001FC0001FFFFE0001FF8
310
000001FFFE0000007FFFFFF0001FFFFFFF80000FFFF80000FFFF80000FFFF800
310
00FFFF0003FFFFFFFFE0000FFFFF8000F000C0003FFFFF8000FFFF800000FFFC
310
000007FFFF80007F80003FFFFF0001FC0003FFFFF0001FF8000001FFFE000000
310
7FFFFFF0001FFFFFFF80003FFFFE0000FFFF80003FFFFE0000FFFF0003FFFFFF
310
FFE0003FFFFF8000F000C0003FFFFF8000FFFF800000FFFC000007FFFF80007F
310
80007FFFFF8001F80007FFFFF8000FF8000001FFFE0000007FFFFFF0001FFFFF
310
FF00007FFFFF00007FFF00007FFFFF00007FFF0003FFFFFFFFE0003FFFFFC000
310
F000C0007FFFFFC000FFFF000000FFFC000007FFFF80007F8000FFFFFF8000F8
310
000FFFFFF8000FF8000001FFFE0000007FFFFFF0001FFFFFFF0000FFFFFF8000
310
7FFF0000FFFFFF80007FFF0003FFFFFFFFC0007FFFFFC00070008000FFFFFFC0
310
00FFFF000000FFF8000007FFFF80007F8000FFFFFF8000F8000FFFFFF8000FF8
310
000001FFFE0000007FFFFFF0001FFFFFFE0001FFFFFFC0003FFE0001FFFFFFC0
310
003FFF0003FFFFFFFFC0007FFFFFE00070008000FFFFFFC0007FFF0000007FF8
310
000003FFFF80007F0001FFFFFF8000F8000FFFFFF8000FF8000001FFFE000000
310
7FFFFFF0001FFFFFFE0001FFFFFFC0003FFE0001FFFFFFC0003FFF0003FFFFFF
310
FFC000FFFFFFE00070008000FFFFFFC0007FFF0000007FF8000003FFFF80007F
310
0001FFFFFF8000F8001FFFFFF8000FF8000001FFFE0000007FFFFFF0001FFFFF
310
FE0003FFFFFFE0003FFE0003FFFFFFE0003FFF0003FFFFFFFFC000FFFFFFE000
310
70008000FFFFFFC0007FFE0000007FF8000003FFFF80007F0001FFFFFF8000F0
310
001FFFFFF8000FF8000001FFFE0000007FFFFFF0001FFFFFFC0003FFFFFFE000
310
1FFC0003FFFFFFE0001FFF0003FFFFFFFFC000FFFFFFC00070008000FFFFFF80
310
007FFE0000007FF0000003FFFF80007F0001FFFFFF0000F0001FFFFFF8000FF8
310
000001FFFE0000007FFFFFF0001FFFFFFC0007FFFFFFF0001FFC0007FFFFFFF0
310
001FFF0003FFFFFFFFC000FFFFFFC00070008001FFFFFF0000FFFE0000003FF0
310
000001FFFF80007F0001FFFFFF0000F8001FFFFFF0000FF8000001FFFE000000
310
7FFFFFF0001FFFFFFC0007FFFFFFF0001FFC0007FFFFFFF0001FFF0003FFFFFF
310
FFC001FFFFFF80007000FFFFFFFFFE0000FFFE0008003FF0008001FFFF80007F
310
FFFFFFFFFC0000FFFFFFFFFFE0000FF8000001FFFE0000007FFFFFF0001FFFFF
310
F8000FFFFFFFF8000FF8000FFFFFFFF8000FFF0003FFFFFFFFFFFFFFFFFF0000
310
7000FFFFFFFFFC0000FFFC0008003FF0008001FFFF80007FFFFFFFFFF80001FF
310
FFFFFFFF80000FF8000001FFFE0000007FFFFFF0001FFFFFF8000FFFFFFFF800
310
0FF8000FFFFFFFF8000FFF0003FFFFFFFFFFFFFFFFFE0000F000FFFFFFFFE000
310
00FFFC000C003FE000C001FFFF80007FFFFFFFFFC00001FFFFFFFFFE00001FF8
310
000001FFFE0000007FFFFFF0001FFFFFF8000FFFFFFFF8000FF8000FFFFFFFF8
310
000FFF0003FFFFFFFFFFFFFFFFF00000F000FFFFFFFE000001FFFC000C001FE0
310
00C000FFFF80007FFFFFFFFE000001FFFFFFFFE000001FF80FFFFFFFFFFFFFC0
310
7FFFFFF0001FFFFFF8000FFFFFFFF8000FF8000FFFFFFFF8000FFF0003FFFFFF
310
FFFFFFFFFF800000F000FFFFFFC0000001FFFC001C001FE001C000FFFF80007F
310
FFFFFF80000003FFFFFFF80000001FF80FFFFFFFFFFFFFC07FFFFFF0001FFFFF
310
F8001FFFFFFFFC000FF8001FFFFFFFFC000FFF0003FFFFFFFFFFFFFFF0000001
310
F000FFFFF800000001FFF8001C001FE001C000FFFF80007FFFFFF800000003FF
310
FFFF800000003FF80FFFFFFFFFFFFFC07FFFFFF0001FFFFFF8001FFFFFFFFC00
310
0FF8001FFFFFFFFC000FFF0003FFFFFFFFFFFFFE00000001F000FFFFC0000000
310
03FFF8001E001FC001E000FFFF80007FFFFF8000000007FFFFFC000000003FF8
310
0FFFFFFFFFFFFFC07FFFFFF0001FFFFFF8001FFFFFFFFC000FF8001FFFFFFFFC
310
000FFF0003FFFFFFFFFFFFE000000003F000FFFE0000000007FFF8001E000FC0
310
01E0007FFF80007FFFFE0000000007FFFFE0000000007FF80FFFFFFFFFFFFFC0
310
7FFFFFF0001FFFFFF0001FFFFFFFFC0007F0001FFFFFFFFC0007FF0003FFFFFF
310
FFFFFF0000000003F000FFF80000000007FFF8001E000FC003E0007FFF80007F
310
FFF0000000000FFFFF8000000000FFF80FFFFFFFFFFFFFC07FFFFFF0001FFFFF
310
F0001FFFFFFFFC0007F0001FFFFFFFFC0007FF0003FFFFFFFFFFFC0000000007
310
F000FFE0000000000FFFF0003E000FC003E0007FFF80007FFFC0000000001FFF
310
FE0000000001FFF80FFFFFFFFFFFFFC07FFFFFF0001FFFFFF0001FFFFFFFFC00
310
07F0001FFFFFFFFC0007FF0003FFFFFFFFFFF0000000000FF000FFC000000000
310
1FFFF0003F000F8003F0003FFF80007FFF80000000003FFFF80000000003FFF8
310
0FFFFFFFFFFFFFC07FFFFFF0001FFFFFF0001FFFFFFFFC0007F0001FFFFFFFFC
310
0007FF0003FFFFFFFFFFE0000000001FF000FF00000000007FFFF0003F000780
310
03F0003FFF80007FFF00000000007FFFF00000000007FFF80FFFFFFFFFFFFFC0
310
7FFFFFF0001FFFFFF0001FFFFFFFFC0007F0001FFFFFFFFC0007FF0003FFFFFF
310
FFFF80000000007FF000FE0000000000FFFFE0003F00078007F0003FFF80007F
310
FE0000000001FFFFE0000000001FFFF80FFFFFFFFFFFFFC07FFFFFF0001FFFFF
310
F0001FFFFFFFFC0007F0001FFFFFFFFC0007FF0003FFFFFFFFFF0000000000FF
310
F000FC0000000003FFFFE0007F00078007F0003FFF80007FFC0000000007FFFF
310
C0000000007FFFF80FFFFFFFFFFFFFC07FFFFFF0001FFFFFF8001FFFFFFFFC00
310
0FF8001FFFFFFFFC000FFF0003FFFFFFFFFE0000000003FFF000FC000000000F
310
FFFFE0007F80070007F8001FFF80007FF8000000001FFFFF8000000001FFFFF8
310
0FFFFFFFFFFFFFC07FFFFFF0001FFFFFF8001FFFFFFFFC000FF8001FFFFFFFFC
310
000FFF0003FFFFFFFFFC000000000FFFF000F8000000007FFFFFE0007F800700
310
07F8001FFF80007FF000000000FFFFFF800000000FFFFFF80FFFFFFFFFFFFFC0
310
7FFFFFF0001FFFFFF8000FFFFFFFF8000FF8000FFFFFFFF8000FFF0003FFFFFF
310
FFFC000000007FFFF000F800000007FFFFFFC0007F8003000FF8001FFF80007F
310
F000000007FFFFFF000000007FFFFFF80FFFFFFFFFFFFFC07FFFFFF0001FFFFF
310
F8000FFFFFFFF8000FF8000FFFFFFFF8000FFF0003FFFFFFFFF80000000FFFFF
310
F000F0000000FFFFFFFFC000FF8003000FF8001FFF80007FE0000000FFFFFFFF
310
0000000FFFFFFFF8000001FFFE0000007FFFFFF0001FFFFFF8000FFFFFFFF800
310
0FF8000FFFFFFFF8000FFF0003FFFFFFFFF8000000FFFFFFF000F000000FFFFF
310
FFFFC000FFC002000FF8000FFF80007FE000001FFFFFFFFE000001FFFFFFFFF8
310
000001FFFE0000007FFFFFF0001FFFFFF8000FFFFFFFF8000FF8000FFFFFFFF8
310
000FFF0003FFFFFFFFF000001FFFFFFFF000E00000FFFFFFFFFFC000FFC00200
310
0FFC000FFF80007FE00001FFFFFFFFFE00001FFFFFFFFFF8000001FFFE000000
310
7FFFFFF0001FFFFFFC000FFFFFFFF8001FFC000FFFFFFFF8001FFF0003FFFFFF
310
FFF00001FFFFFFFFF000E00007FFFFFFFFFF8000FFC000001FFC000FFF80007F
310
C0000FFFFFFFFFFE0000FFFFFFFFFFF8000001FFFE0000007FFFFFF0001FFFFF
310
FC0007FFFFFFF0001FFC0007FFFFFFF0001FFF0003FFFFFFFFF00007FFFFFFFF
310
F000E0001FFFFFFFFFFF8000FFC000001FFC000FFF80007FC0003FFFFFFFFFFE
310
0001FFFFFFFFFFF8000001FFFE0000007FFFFFF0001FFFFFFC0007FFFFFFF000
310
1FFC0007FFFFFFF0001FFF0003FFFFFFFFF0001FFFFFFFFFF000E0003FFFFF00
310
03FF8001FFE000001FFC0007FF80007FC0007FFFFF0007FC0003FFFFF0003FF8
310
000001FFFE0000007FFFFFF0001FFFFFFC0003FFFFFFE0001FFC0003FFFFFFE0
310
001FFF0003FFFFFFFFF0003FFFFFFFFFF000E0003FFFFF0001FF8001FFE00000
310
1FFE0007FF80007FC0007FFFFE0003FC0007FFFFE0003FF8000001FFFE000000
310
7FFFFFF0001FFFFFFE0003FFFFFFE0003FFE0003FFFFFFE0003FFF0003FFFFFF
310
FFF0003FFFFF8001F000E0003FFFFF0001FF0001FFE000001FFE0007FF80007F
310
C0007FFFFE0003FC0007FFFFE0003FF8000001FFFE0000007FFFFFF0001FFFFF
310
FE0001FFFFFFC0003FFE0001FFFFFFC0003FFF0003FFFFFFFFF0003FFFFF0001
310
F000E0003FFFFF0003FF0001FFE000003FFE0007FF80007FC0007FFFFE0003FC
310
0007FFFFE0003FF8000001FFFE0000007FFFFFF0001FFFFFFF0001FFFFFFC000
310
7FFF0001FFFFFFC0007FFF0003FFFFFFFFF0003FFFFF0001F000E0003FFFFE00
310
03FF0003FFF000003FFE0003FF80007FC0007FFFFC0003FE0007FFFFE0003FF8
310
000001FFFE0000007FFFFFF0001FFFFFFF0000FFFFFF80007FFF0000FFFFFF80
310
007FFF0003FFFFFFFFF0003FFFFF0001F000E0003FFFFE0003FF0003FFF00000
310
3FFF0003FF80007FC0007FFFFC0007FE0007FFFFC0003FF8000001FFFE000000
310
7FFFFFF0001FFFFFFF80007FFFFF0000FFFF80007FFFFF0000FFFF0003FFFFFF
310
FFF0003FFFFF0003F000E0003FFFFC0003FE0003FFF000003FFF0003FF80007F
310
E0003FFFF80007FE0003FFFFC0007FF8000001FFFE0000007FFFFFF0001FFFFF
310
FF80003FFFFE0000FFFF80003FFFFE0000FFFF0003FFFFFFFFF0001FFFFE0003
310
F000F0001FFFF80003FE0003FFF000007FFF0001FF80007FE0003FFFF00007FE
310
0001FFFF80007FF8000001FFFE0000007FFFFFF0001FFFFFFFC0000FFFF80001
310
FFFFC0000FFFF80001FFFF0003FFFFFFFFF0001FFFFC0003F000F0000FFFF000
310
07FE0007FFF800007FFF0001FF80007FE0001FFFE00007FF0000FFFE00007FF8
310
000001FFFE0000007FFFFFF0001FFFFFFFC00003FFE00001FFFFC00003FFE000
310
01FFFF0003FFFFFFFFF8000FFFF80003F000F00003FFC00007FC0007FFF80000
310
7FFF8001FF80007FF00007FF80000FFF00007FF80000FFF8000001FFFE000000
310
7F80000000000001FFE000003E000003FFFFE000003E000003FFFF0003FFFFFF
310
FFF80003FFE00007F000F800000000000FFC0007FFF800007FFF8001FF80007F
310
F000000000000FFF000000000000FFF8000001FFFE0000007F80000000000001
310
FFF0000000000007FFFFF0000000000007FFFF0003FFFFFFFFFC00007E000007
310
F000F800000000000FFC0007FFF80000FFFF8000FF80007FF800000000001FFF
310
800000000001FFF8000001FFFE0000007F80000000000001FFF800000000000F
310
FFFFF800000000000FFFFF0003FFFFFFFFFC00000000000FF000FC0000000000
310
1FFC0007FFFC0000FFFF8000FF80007FF800000000003FFFC00000000001FFF8
310
000001FFFE0000007F80000000000001FFF800000000000FFFFFF80000000000
310
0FFFFF0003FFFFFFFFFE00000000001FF000FE00000000003FF8000FFFFC0000
310
FFFF8000FF80007FFC00000000003FFFC00000000003FFF8000001FFFE000000
310
7F80000000000001FFFC00000000001FFFFFFC00000000001FFFFF0003FFFFFF
310
FFFF00000000001FF000FF00000000003FF8000FFFFC0000FFFFC000FF80007F
310
FE00000000007FFFE00000000007FFF8000001FFFE0000007F80000000000001
310
FFFE00000000003FFFFFFE00000000003FFFFF0003FFFFFFFFFF80000000003F
310
F000FF80000000007FF8000FFFFC0001FFFFC0007F80007FFF0000000000FFFF
310
F0000000000FFFF800000000000000007F80000000000001FFFF8000000000FF
310
FFFFFF8000000000FFFFFF0003FFFFFFFFFFC0000000007FF000FFC000000000
310
FFF8000FFFFE0001FFFFC0007F80007FFF8000000001FFFFF8000000001FFFF8
310
00000000000000007F80000000000001FFFFC000000001FFFFFFFFC000000001
310
FFFFFF0003FFFFFFFFFFE000000000FFF000FFE000000003FFF0001FFFFE0001
310
FFFFC0007F80007FFFC000000007FFFFFE000000003FFFF80000000000000000
310
7F80000000000001FFFFE000000003FFFFFFFFE000000003FFFFFF0003FFFFFF
310
FFFFF000000003FFF000FFF80000000FFFF0001FFFFE0001FFFFE0007F80007F
310
FFF00000000FFFFFFF00000000FFFFF800000000000000007F80000000000001
310
FFFFF80000000FFFFFFFFFF80000000FFFFFFF0003FFFFFFFFFFFC0000000FFF
310
F000FFFE0000003FFFF0001FFFFE0003FFFFE0003F80007FFFFC0000003FFFFF
310
FFC0000003FFFFF800000000000000007F80000000000001FFFFFE0000003FFF
310
FFFFFFFE0000003FFFFFFF0003FFFFFFFFFFFF0000003FFFF000FFFF800000FF
310
FFF0001FFFFF0003FFFFE0003F80007FFFFF000001FFFFFFFFF800001FFFFFF8
310
00000000000000007F80000000000001FFFFFFC00001FFFFFFFFFFFFC00001FF
310
FFFFFF0003FFFFFFFFFFFFC00000FFFFF000FFFFF8000FFFFFFFFFFFFFFFFFFF
310
FFFFFFFFFFFFFFFFFFFFF0001FFFFFFFFFFF0000FFFFFFF80000000000000000
310
7FFFFFFFFFFFFFFFFFFFFFFC001FFFFFFFFFFFFFFC001FFFFFFFFFFFFFFFFFFF
310
FFFFFFFC001FFFFFF000FFFFFFFFFFFFFFFFFFFFFFFFFFFFFFFFFFFFFFFFFFFF
310
FFFFFFFFFFFFFFFFFFFFFFFFFFFFFFFFFFFFFFFFFFFFFFFFFFFFFFFFFFFFFFFF
310
FFFFFFFFFFFFFFFFFFFFFFFFFFFFFFFFFFFFFFFFFFFFFFFFFFFFFFFFFFFFFFFF
310
F000FFFFFFFFFFFFFFFFFFFFFFFFFFFFFFFFFFFFFFFFFFFFFFFFFFFFFFFFFFFF
310
FFFFFFFFFFFFFFFFFFFFFFFFFFFFFFFFFFFFFFFFFFFFFFFFFFFFFFFFFFFFFFFF
310
FFFFFFFFFFFFFFFFFFFFFFFFFFFFFFFFFFFFFFFFFFFFFFFFF000FFFFFFFFFFFF
310
FFFFFFFFFFFFFFFFFFFFFFFFFFFFFFFFFFFFFFFFFFFFFFFFFFFFFFFFFFFFFFFF
310
FFFFFFFFFFFFFFFFFFFFFFFFFFFFFFFFFFFFFFFFFFFFFFFFFFFFFFFFFFFFFFFF
310
FFFFFFFFFFFFFFFFFFFFFFFFFFFFFFFFF000FFFFFFFFFFFFFFFFFFFFFFFFFFFF
310
FFFFFFFFFFFFFFFFFFFFFFFFFFFFFFFFFFFFFFFFFFFFFFFFFFFFFFFFFFFFFFFF
310
FFFFFFFFFFFFFFFFFFFFFFFFFFFFFFFFFFFFFFFFFFFFFFFFFFFFFFFFFFFFFFFF
310
FFFFFFFFFFFFFFFFF000FFFFFFFFFFFFFFFFFFFFFFFFFFFFFFFFFFFFFFFFFFFF
310
FFFFFFFFFFFFFFFFFFFFFFFFFFFFFFFFFFFFFFFFFFFFFFFFFFFFFFFFFFFFFFFF
310
FFFFFFFFFFFFFFFFFFFFFFFFFFFFFFFFFFFFFFFFFFFFFFFFFFFFFFFFFFFFFFFF
310
F000FFFFFFFFFFFFFFFFFFFFFFFFFFFFFFFFFFFFFFFFFFFFFFFFFFFFFFFFFFFF
310
FFFFFFFFFFFFFFFFFFFFFFFFFFFFFFFFFFFFFFFFFFFFFFFFFFFFFFFFFFFFFFFF
310
FFFFFFFFFFFFFFFFFFFFFFFFFFFFFFFFFFFFFFFFFFFFFFFFF000FFFFFFFFFFFF
310
FFFFFFFFFFFFFFFFFFFFFFFFFFFFFFFFFFFFFFFFFFFFFFFFFFFFFFFFFFFFFFFF
310
FFFFFFFFFFFFFFFFFFFFFFFFFFFFFFFFFFFFFFFFFFFFFFFFFFFFFFFFFFFFFFFF
310
FFFFFFFFFFFFFFFFFFFFFFFFFFFFFFFFF000FFFFFFFFFFFFFFFFFFFFFFFFFFFF
310
FFFFFFFFFFFFFFFFFFFFFFFFFFFFFFFFFFFFFFFFFFFFFFFFFFFFFFFFFFFFFFFF
310
FFFFFFFFFFFFFFFFFFFFFFFFFFFFFFFFFFFFFFFFFFFFFFFFFFFFFFFFFFFFFFFF
310
FFFFFFFFFFFFFFFFF000FFFFFFFFFFFFFFFFFFFFFFFFFFFFFFFFFFFFFFFFFFFF
310
FFFFFFFFFFFFFFFFFFFFFFFFFFFFFFFFFFFFFFFFFFFFFFFFFFFFFFFFFFFFFFFF
310
FFFFFFFFFFFFFFFFFFFFFFFFFFFFFFFFFFFFFFFFFFFFFFFFFFFFFFFFFFFFFFFF
310
F000FFFFFFFFFFFFFFFFFFFFFFFFFFFFFFFFFFFFFFFFFFFFFFFFFFFFFFFFFFFF
310
FFFFFFFFFFFFFFFFFFFFFFFFFFFFFFFFFFFFFFFFFFFFFFFFFFFFFFFFFFFFFFFF
310
FFFFFFFFFFFFFFFFFFFFFFFFFFFFFFFFFFFFFFFFFFFFFFFFF000FFFFFFFFFFFF
310
FFFFFFFFFFFFFFFFFFFFFFFFFFFFFFFFFFFFFFFFFFFFFFFFFFFFFFFFFFFFFFFF
310
FFFFFFFFFFFFFFFFFFFFFFFFFFFFFFFFFFFFFFFFFFFFFFFFFFFFFFFFFFFFFFFF
310
FFFFFFFFFFFFFFFFFFFFFFFFFFFFFFFFF000FFFFFFFFFFFFFFFFFFFFFFFFFFFF
310
FFFFFFFFFFFFFFFFFFFFFFFFFFFFFFFFFFFFFFFFFFFFFFFFFFFFFFFFFFFFFFFF
310
FFFFFFFFFFFFFFFFFFFFFFFFFFFFFFFFFFFFFFFFFFFFFFFFFFFFFFFFFFFFFFFF
310
FFFFFFFFFFFFFFFFF000FFFFFFFFFFFFFFFFFFFFFFFFFFFFFFFFFFFFFFFFFFFF
310
FFFFFFFFFFFFFFFFFFFFFFFFFFFFFFFFFFFFFFFFFFFFFFFFFFFFFFFFFFFFFFFF
310
FFFFFFFFFFFFFFFFFFFFFFFFFFFFFFFFFFFFFFFFFFFFFFFFFFFFFFFFFFFFFFFF
310
F000FFFFFFFFFFFFFFFFFFFFFFFFFFFFFFFFFFFFFFFFFFFFFFFFFFFFFFFFFFFF
310
FFFFFFFFFFFFFFFFFFFFFFFFFFFFFFFFFFFFFFFFFFFFFFFFFFFFFFFFFFFFFFFF
310
FFFFFFFFFFFFFFFFFFFFFFFFFFFFFFFFFFFFFFFFFFFFFFFFF000FFFFFFFFFFFF
310
FFFFFFFFFFFFFFFFFFFFFFFFFFFFFFFFFFFFFFFFFFFFFFFFFFFFFFFFFFFFFFFF
310
FFFFFFFFFFFFFFFFFFFFFFFFFFFFFFFFFFFFFFFFFFFFFFFFFFFFFFFFFFFFFFFF
310
FFFFFFFFFFFFFFFFFFFFFFFFFFFFFFFFF000FFFFFFFFFFFFFFFFFFFFFFFFFFFF
310
FFFFFFFFFFFFFFFFFFFFFFFFFFFFFFFFFFFFFFFFFFFFFFFFFFFFFFFFFFFFFFFF
310
FFFFFFFFFFFFFFFFFFFFFFFFFFFFFFFFFFFFFFFFFFFFFFFFFFFFFFFFFFFFFFFF
310
FFFFFFFFFFFFFFFFF000FFFFFFFFFFFFFFFFFFFFFFFFFFFFFFFFFFFFFFFFFFFF
310
FFFFFFFFFFFFFFFFFFFFFFFFFFFFFFFFFFFFFFFFFFFFFFFFFFFFFFFFFFFFFFFF
310
FFFFFFFFFFFFFFFFFFFFFFFFFFFFFFFFFFFFFFFFFFFFFFFFFFFFFFFFFFFFFFFF
310
F000FFFFFFFFFFFFFFFFFFFFFFFFFFFFFFFFFFFFFFFFFFFFFFFFFFFFFFFFFFFF
310
FFFFFFFFFFFFFFFFFFFFFFFFFFFFFFFFFFFFFFFFFFFFFFFFFFFFFFFFFFFFFFFF
310
FFFFFFFFFFFFFFFFFFFFFFFFFFFFFFFFFFFFFFFFFFFFFFFFF000FFFFFFFFFFFF
310
FFFFFFFFFFFFFFFFFFFFFFFFFFFFFFFFFFFFFFFFFFFFFFFFFFFFFFFFFFFFFFFF
310
FFFFFFFFFFFFFFFFFFFFFFFFFFFFFFFFFFFFFFFFFFFFFFFFFFFFFFFFFFFFFFFF
310
FFFFFFFFFFFFFFFFFFFFFFFFFFFFFFFFF000FFFFFFFFFFFFFFFFFFFFFFFFFFFF
310
FFFFFFFFFFFFFFFFFFFFFFFFFFFFFFFFFFFFFFFFFFFFFFFFFFFFFFFFFFFFFFFF
310
FFFFFFFFFFFFFFFFFFFFFFFFFFFFFFFFFFFFFFFFFFFFFFFFFFFFFFFFFFFFFFFF
310
FFFFFFFFFFFFFFFFF000FFFFFFFFFFFFFFFFFFFFFFFFFFFFFFFFFFFFFFFFFFFF
310
FFFFFFFFFFFFFFFFFFFFFFFFFFFFFFFFFFFFFFFFFFFFFFFFFFFFFFFFFFFFFFFF
310
FFFFFFFFFFFFFFFFFFFFFFFFFFFFFFFFFFFFFFFFFFFFFFFFFFFFFFFFFFFFFFFF
310
F000FFFFFFFFFFFFFFFFFFFFFFFFFFFFFFFFFFFFFFFFFFFFFFFFFFFFFFFFFFFF
310
FFFFFFFFFFFFFFFFFFFFFFFFFFFFFFFFFFFFFFFFFFFFFFFFFFFFFFFFFFFFFFFF
310
FFFFFFFFFFFFFFFFFFFFFFFFFFFFFFFFFFFFFFFFFFFFFFFFF000FFFFFFFFFFFF
310
FFFFFFFFFFFFFFFFFFFFFFFFFFFFFFFFFFFFFFFFFFFFFFFFFFFFFFFFFFFFFFFF
310
FFFFFFFFFFFFFFFFFFFFFFFFFFFFFFFFFFFFFFFFFFFFFFFFFFFFFFFFFFFFFFFF
310
FFFFFFFFFFFFFFFFFFFFFFFFFFFFFFFFF0000000000000000000000000000000
310
0000000000000000000000000000000000000000000000000000000000000000
310
0000000000000000000000000000000000000000000000000000000000000000
310
0000000000000000000000000000000000000000000000000000000000000000
310
0000000000000000000000000000000000000000000000000000000000000000
310
0000000000000000000000000000000000000000000000000000000000000000
310
0000000000000000000000000000000000000000000000000000000000000000
310
0000000000000000000000000000000000000000000000000000000000000000
310
0000000000000000000000000000000000000000000000000000000000000000
310
0000000000000000000000000000000000000000000000000000000000000000
310
0000000000000000000000000000000000000000000000000000000000000000
310
0000000000000000000000000000000000000000000000000000000000000000
310
0000000000000000000000000000000000000000000000000000000000000000
310
0000000000000000000000000000000000000000000000000000000000000000
310
0000000000000000000000000000000000000000000000000000000000000000
310
0000000000000000000000000000000000000000000000000000000000000000
  1
OLE
  0
ENDSEC
  0
SECTION
  2
OBJECTS
  0
DICTIONARY
  5
C
330
0
100
AcDbDictionary
281
     1
  3
ACAD_GROUP
350
D
  3
ACAD_LAYOUT
350
1A
  3
ACAD_MLINESTYLE
350
17
  3
ACAD_PLOTSETTINGS
350
19
  3
ACAD_PLOTSTYLENAME
350
E
  0
DICTIONARY
  5
D
102
{ACAD_REACTORS
330
C
102
}
330
C
100
AcDbDictionary
281
     1
  0
DICTIONARY
  5
1A
102
{ACAD_REACTORS
330
C
102
}
330
C
100
AcDbDictionary
281
     1
  3
Layout1
350
1E
  3
Layout2
350
26
  3
Model
350
22
  0
DICTIONARY
  5
17
102
{ACAD_REACTORS
330
C
102
}
330
C
100
AcDbDictionary
281
     1
  3
Standard
350
18
  0
DICTIONARY
  5
19
102
{ACAD_REACTORS
330
C
102
}
330
C
100
AcDbDictionary
281
     1
  0
ACDBDICTIONARYWDFLT
  5
E
102
{ACAD_REACTORS
330
C
102
}
330
C
100
AcDbDictionary
281
     1
  3
Normal
350
F
100
AcDbDictionaryWithDefault
340
F
  0
LAYOUT
  5
1E
102
{ACAD_REACTORS
330
1A
102
}
330
1A
100
AcDbPlotSettings
  1

  2
none_device
  4

  6

 40
0.0
 41
0.0
 42
0.0
 43
0.0
 44
0.0
 45
0.0
 46
0.0
 47
0.0
 48
0.0
 49
0.0
140
0.0
141
0.0
142
1.0
143
1.0
 70
   688
 72
     0
 73
     0
 74
     5
  7

 75
    16
147
1.0
148
0.0
149
0.0
100
AcDbLayout
  1
Layout1
 70
     1
 71
     1
 10
0.0
 20
0.0
 11
420.0
 21
297.0
 12
0.0
 22
0.0
 32
0.0
 14
1.0000000000E+20
 24
1.0000000000E+20
 34
1.0000000000E+20
 15
-1.0000000000E+20
 25
-1.0000000000E+20
 35
-1.0000000000E+20
146
0.0
 13
0.0
 23
0.0
 33
0.0
 16
1.0
 26
0.0
 36
0.0
 17
0.0
 27
1.0
 37
0.0
 76
     0
330
1B
  0
LAYOUT
  5
26
102
{ACAD_REACTORS
330
1A
102
}
330
1A
100
AcDbPlotSettings
  1

  2
none_device
  4

  6

 40
0.0
 41
0.0
 42
0.0
 43
0.0
 44
0.0
 45
0.0
 46
0.0
 47
0.0
 48
0.0
 49
0.0
140
0.0
141
0.0
142
1.0
143
1.0
 70
   688
 72
     0
 73
     0
 74
     5
  7

 75
    16
147
1.0
148
0.0
149
0.0
100
AcDbLayout
  1
Layout2
 70
     1
 71
     2
 10
0.0
 20
0.0
 11
0.0
 21
0.0
 12
0.0
 22
0.0
 32
0.0
 14
0.0
 24
0.0
 34
0.0
 15
0.0
 25
0.0
 35
0.0
146
0.0
 13
0.0
 23
0.0
 33
0.0
 16
1.0
 26
0.0
 36
0.0
 17
0.0
 27
1.0
 37
0.0
 76
     0
330
23
  0
LAYOUT
  5
22
102
{ACAD_REACTORS
330
1A
102
}
330
1A
100
AcDbPlotSettings
  1

  2
none_device
  4

  6

 40
0.0
 41
0.0
 42
0.0
 43
0.0
 44
0.0
 45
0.0
 46
0.0
 47
0.0
 48
0.0
 49
0.0
140
0.0
141
0.0
142
1.0
143
1.0
 70
  1712
 72
     0
 73
     0
 74
     0
  7

 75
     0
147
1.0
148
0.0
149
0.0
100
AcDbLayout
  1
Model
 70
     1
 71
     0
 10
0.0
 20
0.0
 11
297.0
 21
210.0
 12
0.0
 22
0.0
 32
0.0
 14
0.0
 24
0.0
 34
0.0
 15
297.0
 25
210.0
 35
0.0
146
0.0
 13
0.0
 23
0.0
 33
0.0
 16
1.0
 26
0.0
 36
0.0
 17
0.0
 27
1.0
 37
0.0
 76
     0
330
1F
331
29
  0
MLINESTYLE
  5
18
102
{ACAD_REACTORS
330
17
102
}
330
17
100
AcDbMlineStyle
  2
Standard
 70
     0
  3

 62
   256
 51
90.0
 52
90.0
 71
     2
 49
0.5
 62
   256
  6
BYLAYER
 49
-0.5
 62
   256
  6
BYLAYER
  0
ACDBPLACEHOLDER
  5
F
102
{ACAD_REACTORS
330
E
102
}
330
E
  0
ENDSEC
  0
EOF
