  0
SECTION
  2
HEADER
  9
$ACADVER
  1
AC1015
  9
$ACADMAINTVER
 70
     6
  9
$DWGCODEPAGE
  3
ANSI_1252
  9
$INSBASE
 10
0.0
 20
0.0
 30
0.0
  9
$EXTMIN
 10
0.0
 20
0.0
 30
0.0
  9
$EXTMAX
 10
297.0
 20
210.0
 30
0.0
  9
$LIMMIN
 10
0.0
 20
0.0
  9
$LIMMAX
 10
297.0
 20
210.0
  9
$ORTHOMODE
 70
     0
  9
$REGENMODE
 70
     1
  9
$FILLMODE
 70
     1
  9
$QTEXTMODE
 70
     0
  9
$MIRRTEXT
 70
     1
  9
$LTSCALE
 40
1.0
  9
$ATTMODE
 70
     1
  9
$TEXTSIZE
 40
2.0
  9
$TRACEWID
 40
1.0
  9
$TEXTSTYLE
  7
Standard
  9
$CLAYER
  8
0
  9
$CELTYPE
  6
ByLayer
  9
$CECOLOR
 62
   256
  9
$CELTSCALE
 40
1.0
  9
$DISPSILH
 70
     0
  9
$DIMSCALE
 40
1.0
  9
$DIMASZ
 40
3.0
  9
$DIMEXO
 40
0.0
  9
$DIMDLI
 40
3.75
  9
$DIMRND
 40
0.0
  9
$DIMDLE
 40
0.0
  9
$DIMEXE
 40
1.0
  9
$DIMTP
 40
0.0
  9
$DIMTM
 40
0.0
  9
$DIMTXT
 40
2.0
  9
$DIMCEN
 40
2.5
  9
$DIMTSZ
 40
0.0
  9
$DIMTOL
 70
     0
  9
$DIMLIM
 70
     0
  9
$DIMTIH
 70
     1
  9
$DIMTOH
 70
     1
  9
$DIMSE1
 70
     0
  9
$DIMSE2
 70
     0
  9
$DIMTAD
 70
     1
  9
$DIMZIN
 70
     0
  9
$DIMBLK
  1

  9
$DIMASO
 70
     1
  9
$DIMSHO
 70
     1
  9
$DIMPOST
  1

  9
$DIMAPOST
  1

  9
$DIMALT
 70
     0
  9
$DIMALTD
 70
     3
  9
$DIMALTF
 40
0.0393700787
  9
$DIMLFAC
 40
1.0
  9
$DIMTOFL
 70
     1
  9
$DIMTVP
 40
0.0
  9
$DIMTIX
 70
     0
  9
$DIMSOXD
 70
     0
  9
$DIMSAH
 70
     0
  9
$DIMBLK1
  1

  9
$DIMBLK2
  1

  9
$DIMSTYLE
  2
ISO-25
  9
$DIMCLRD
 70
     0
  9
$DIMCLRE
 70
     0
  9
$DIMCLRT
 70
     0
  9
$DIMTFAC
 40
1.0
  9
$DIMGAP
 40
1.524
  9
$DIMJUST
 70
     0
  9
$DIMSD1
 70
     0
  9
$DIMSD2
 70
     0
  9
$DIMTOLJ
 70
     0
  9
$DIMTZIN
 70
     0
  9
$DIMALTZ
 70
     0
  9
$DIMALTTZ
 70
     0
  9
$DIMUPT
 70
     0
  9
$DIMDEC
 70
     2
  9
$DIMTDEC
 70
     3
  9
$DIMALTU
 70
     2
  9
$DIMALTTD
 70
     3
  9
$DIMTXSTY
  7
Standard
  9
$DIMAUNIT
 70
     0
  9
$DIMADEC
 70
     2
  9
$DIMALTRND
 40
0.0
  9
$DIMAZIN
 70
     0
  9
$DIMDSEP
 70
    44
  9
$DIMATFIT
 70
     3
  9
$DIMFRAC
 70
     0
  9
$DIMLDRBLK
  1

  9
$DIMLUNIT
 70
     2
  9
$DIMLWD
 70
    -2
  9
$DIMLWE
 70
    -2
  9
$DIMTMOVE
 70
     0
  9
$LUNITS
 70
     2
  9
$LUPREC
 70
     2
  9
$SKETCHINC
 40
1.0
  9
$FILLETRAD
 40
10.0
  9
$AUNITS
 70
     0
  9
$AUPREC
 70
     2
  9
$MENU
  1
.
  9
$ELEVATION
 40
0.0
  9
$PELEVATION
 40
0.0
  9
$THICKNESS
 40
0.0
  9
$LIMCHECK
 70
     0
  9
$CHAMFERA
 40
0.0
  9
$CHAMFERB
 40
0.0
  9
$CHAMFERC
 40
0.0
  9
$CHAMFERD
 40
0.0
  9
$SKPOLY
 70
     0
  9
$TDCREATE
 40
2458162.714387118
  9
$TDUCREATE
 40
2458162.672720451
  9
$TDUPDATE
 40
2458162.714388773
  9
$TDUUPDATE
 40
2458162.672722106
  9
$TDINDWG
 40
0.0000000116
  9
$TDUSRTIMER
 40
0.0000000116
  9
$USRTIMER
 70
     1
  9
$ANGBASE
 50
0.0
  9
$ANGDIR
 70
     0
  9
$PDMODE
 70
     0
  9
$PDSIZE
 40
-1.0
  9
$PLINEWID
 40
0.0
  9
$SPLFRAME
 70
     0
  9
$SPLINETYPE
 70
     6
  9
$SPLINESEGS
 70
     8
  9
$HANDSEED
  5
253
  9
$SURFTAB1
 70
     6
  9
$SURFTAB2
 70
     6
  9
$SURFTYPE
 70
     6
  9
$SURFU
 70
     6
  9
$SURFV
 70
     6
  9
$UCSBASE
  2

  9
$UCSNAME
  2

  9
$UCSORG
 10
0.0
 20
0.0
 30
0.0
  9
$UCSXDIR
 10
1.0
 20
0.0
 30
0.0
  9
$UCSYDIR
 10
0.0
 20
1.0
 30
0.0
  9
$UCSORTHOREF
  2

  9
$UCSORTHOVIEW
 70
     0
  9
$UCSORGTOP
 10
0.0
 20
0.0
 30
0.0
  9
$UCSORGBOTTOM
 10
0.0
 20
0.0
 30
0.0
  9
$UCSORGLEFT
 10
0.0
 20
0.0
 30
0.0
  9
$UCSORGRIGHT
 10
0.0
 20
0.0
 30
0.0
  9
$UCSORGFRONT
 10
0.0
 20
0.0
 30
0.0
  9
$UCSORGBACK
 10
0.0
 20
0.0
 30
0.0
  9
$PUCSBASE
  2

  9
$PUCSNAME
  2

  9
$PUCSORG
 10
0.0
 20
0.0
 30
0.0
  9
$PUCSXDIR
 10
1.0
 20
0.0
 30
0.0
  9
$PUCSYDIR
 10
0.0
 20
1.0
 30
0.0
  9
$PUCSORTHOREF
  2

  9
$PUCSORTHOVIEW
 70
     0
  9
$PUCSORGTOP
 10
0.0
 20
0.0
 30
0.0
  9
$PUCSORGBOTTOM
 10
0.0
 20
0.0
 30
0.0
  9
$PUCSORGLEFT
 10
0.0
 20
0.0
 30
0.0
  9
$PUCSORGRIGHT
 10
0.0
 20
0.0
 30
0.0
  9
$PUCSORGFRONT
 10
0.0
 20
0.0
 30
0.0
  9
$PUCSORGBACK
 10
0.0
 20
0.0
 30
0.0
  9
$USERI1
 70
     0
  9
$USERI2
 70
     0
  9
$USERI3
 70
     0
  9
$USERI4
 70
     0
  9
$USERI5
 70
     0
  9
$USERR1
 40
0.0
  9
$USERR2
 40
0.0
  9
$USERR3
 40
0.0
  9
$USERR4
 40
0.0
  9
$USERR5
 40
0.0
  9
$WORLDVIEW
 70
     1
  9
$SHADEDGE
 70
     3
  9
$SHADEDIF
 70
    70
  9
$TILEMODE
 70
     1
  9
$MAXACTVP
 70
    64
  9
$PINSBASE
 10
0.0
 20
0.0
 30
0.0
  9
$PLIMCHECK
 70
     0
  9
$PEXTMIN
 10
1.0000000000E+20
 20
1.0000000000E+20
 30
1.0000000000E+20
  9
$PEXTMAX
 10
-1.0000000000E+20
 20
-1.0000000000E+20
 30
-1.0000000000E+20
  9
$PLIMMIN
 10
0.0
 20
0.0
  9
$PLIMMAX
 10
420.0
 20
297.0
  9
$UNITMODE
 70
     0
  9
$VISRETAIN
 70
     1
  9
$PLINEGEN
 70
     0
  9
$PSLTSCALE
 70
     1
  9
$TREEDEPTH
 70
  3020
  9
$CMLSTYLE
  2
Standard
  9
$CMLJUST
 70
     0
  9
$CMLSCALE
 40
20.0
  9
$PROXYGRAPHICS
 70
     1
  9
$MEASUREMENT
 70
     1
  9
$CELWEIGHT
370
    -1
  9
$ENDCAPS
280
     0
  9
$JOINSTYLE
280
     0
  9
$LWDISPLAY
290
     1
  9
$INSUNITS
 70
     4
  9
$HYPERLINKBASE
  1

  9
$STYLESHEET
  1

  9
$XEDIT
290
     1
  9
$CEPSNTYPE
380
     0
  9
$PSTYLEMODE
290
     1
  9
$FINGERPRINTGUID
  2
{7C2D1BD1-C9D4-4E99-A48D-9511605C91E0}
  9
$VERSIONGUID
  2
{FAEB1C32-E019-11D5-929B-00C0DF256EC4}
  9
$EXTNAMES
290
     1
  9
$PSVPSCALE
 40
0.0
  9
$OLESTARTUP
290
     0
  0
ENDSEC
  0
SECTION
  2
CLASSES
  0
CLASS
  1
ACDBDICTIONARYWDFLT
  2
AcDbDictionaryWithDefault
  3
ObjectDBX Classes
 90
        0
280
     0
281
     0
  0
CLASS
  1
VISUALSTYLE
  2
AcDbVisualStyle
  3
ObjectDBX Classes
 90
     4095
280
     0
281
     0
  0
CLASS
  1
MATERIAL
  2
AcDbMaterial
  3
ObjectDBX Classes
 90
     1153
280
     0
281
     0
  0
CLASS
  1
SCALE
  2
AcDbScale
  3
ObjectDBX Classes
 90
     1153
280
     0
281
     0
  0
CLASS
  1
TABLESTYLE
  2
AcDbTableStyle
  3
ObjectDBX Classes
 90
     4095
280
     0
281
     0
  0
CLASS
  1
MLEADERSTYLE
  2
AcDbMLeaderStyle
  3
ACDB_MLEADERSTYLE_CLASS
 90
     4095
280
     0
281
     0
  0
CLASS
  1
SUN
  2
AcDbSun
  3
SCENEOE
 90
     1153
280
     0
281
     0
  0
CLASS
  1
ACDBPLACEHOLDER
  2
AcDbPlaceHolder
  3
ObjectDBX Classes
 90
        0
280
     0
281
     0
  0
CLASS
  1
LAYOUT
  2
AcDbLayout
  3
ObjectDBX Classes
 90
        0
280
     0
281
     0
  0
ENDSEC
  0
SECTION
  2
TABLES
  0
TABLE
  2
VPORT
  5
8
330
0
100
AcDbSymbolTable
 70
     1
  0
VPORT
  5
29
330
8
100
AcDbSymbolTableRecord
100
AcDbViewportTableRecord
  2
*Active
 70
     0
 10
0.0
 20
0.0
 11
1.0
 21
1.0
 12
148.5
 22
105.0
 13
0.0
 23
0.0
 14
10.0
 24
10.0
 15
10.0
 25
10.0
 16
0.0
 26
0.0
 36
1.0
 17
0.0
 27
0.0
 37
0.0
 40
210.0
 41
1.4142857143
 42
50.0
 43
0.0
 44
0.0
 50
0.0
 51
0.0
 71
     0
 72
  2000
 73
     1
 74
     3
 75
     0
 76
     0
 77
     0
 78
     0
281
     0
 65
     1
110
0.0
120
0.0
130
0.0
111
1.0
121
0.0
131
0.0
112
0.0
122
1.0
132
0.0
 79
     0
146
0.0
  0
ENDTAB
  0
TABLE
  2
LTYPE
  5
5
330
0
100
AcDbSymbolTable
 70
     6
  0
LTYPE
  5
14
330
5
100
AcDbSymbolTableRecord
100
AcDbLinetypeTableRecord
  2
ByBlock
 70
     0
  3

 72
    65
 73
     0
 40
0.0
  0
LTYPE
  5
15
330
5
100
AcDbSymbolTableRecord
100
AcDbLinetypeTableRecord
  2
ByLayer
 70
     0
  3

 72
    65
 73
     0
 40
0.0
  0
LTYPE
  5
16
330
5
100
AcDbSymbolTableRecord
100
AcDbLinetypeTableRecord
  2
Continuous
 70
     0
  3
Solid line
 72
    65
 73
     0
 40
0.0
  0
LTYPE
  5
6E
330
5
100
AcDbSymbolTableRecord
100
AcDbLinetypeTableRecord
  2
HIDDEN
 70
     0
  3
Hidden __ __ __ __ __ __ __ __ __ __ __ __ __ __
 72
    65
 73
     2
 40
1.905
 49
1.27
 74
     0
 49
-0.635
 74
     0
  0
LTYPE
  5
6F
330
5
100
AcDbSymbolTableRecord
100
AcDbLinetypeTableRecord
  2
PHANTOM
 70
     0
  3
Phantom ______  __  __  ______  __  __  ______
 72
    65
 73
     6
 40
12.7
 49
6.35
 74
     0
 49
-1.27
 74
     0
 49
1.27
 74
     0
 49
-1.27
 74
     0
 49
1.27
 74
     0
 49
-1.27
 74
     0
  0
LTYPE
  5
70
330
5
100
AcDbSymbolTableRecord
100
AcDbLinetypeTableRecord
  2
CENTER
 70
     0
  3
Center ____ _ ____ _ ____ _ ____ _ ____ _ ____
 72
    65
 73
     4
 40
10.16
 49
6.35
 74
     0
 49
-1.27
 74
     0
 49
1.27
 74
     0
 49
-1.27
 74
     0
  0
LTYPE
  5
71
330
5
100
AcDbSymbolTableRecord
100
AcDbLinetypeTableRecord
  2
CENTERX2
 70
     0
  3
Center (2x) ________  __  ________  __  _____
 72
    65
 73
     4
 40
20.32
 49
12.7
 74
     0
 49
-2.54
 74
     0
 49
2.54
 74
     0
 49
-2.54
 74
     0
  0
LTYPE
  5
72
330
5
100
AcDbSymbolTableRecord
100
AcDbLinetypeTableRecord
  2
DOT2
 70
     0
  3
Dot (.5x) ........................................
 72
    65
 73
     2
 40
0.635
 49
0.0
 74
     0
 49
-0.635
 74
     0
  0
ENDTAB
  0
TABLE
  2
LAYER
  5
2
330
0
100
AcDbSymbolTable
 70
     5
  0
LAYER
  5
10
330
2
100
AcDbSymbolTableRecord
100
AcDbLayerTableRecord
  2
0
 70
     0
 62
     7
  6
Continuous
370
    -3
390
F
  0
LAYER
  5
73
330
2
100
AcDbSymbolTableRecord
100
AcDbLayerTableRecord
  2
FORMAT
 70
     0
 62
     7
  6
Continuous
370
    -3
390
F
  0
LAYER
  5
74
330
2
100
AcDbSymbolTableRecord
100
AcDbLayerTableRecord
  2
VERMASSUNG
 70
     0
 62
     7
  6
Continuous
370
    -3
390
F
  0
LAYER
  5
75
330
2
100
AcDbSymbolTableRecord
100
AcDbLayerTableRecord
  2
KOPF_DÜNN
 70
     0
 62
     7
  6
Continuous
370
    -3
390
F
  0
LAYER
  5
76
330
2
100
AcDbSymbolTableRecord
100
AcDbLayerTableRecord
  2
KOPF_DICK
 70
     0
 62
     7
  6
Continuous
370
    25
390
F
  0
ENDTAB
  0
TABLE
  2
STYLE
  5
3
330
0
100
AcDbSymbolTable
 70
     3
  0
STYLE
  5
11
330
3
100
AcDbSymbolTableRecord
100
AcDbTextStyleTableRecord
  2
Standard
 70
     0
 40
0.0
 41
1.0
 50
0.0
 71
     0
 42
2.0
  3
txt
  4

  0
STYLE
  5
77
330
3
100
AcDbSymbolTableRecord
100
AcDbTextStyleTableRecord
  2
SLDTEXTSTYLE0
 70
     0
 40
0.0
 41
0.7
 50
0.0
 71
     0
 42
2.0
  3
TXT
  4

  0
STYLE
  5
7B
330
3
100
AcDbSymbolTableRecord
100
AcDbTextStyleTableRecord
  2
SLDTEXTSTYLE1
 70
     0
 40
0.0
 41
0.64
 50
0.0
 71
     0
 42
2.0
  3
TXT
  4

  0
ENDTAB
  0
TABLE
  2
VIEW
  5
6
330
0
100
AcDbSymbolTable
 70
     0
  0
ENDTAB
  0
TABLE
  2
UCS
  5
7
330
0
100
AcDbSymbolTable
 70
     0
  0
ENDTAB
  0
TABLE
  2
APPID
  5
9
330
0
100
AcDbSymbolTable
 70
     1
  0
APPID
  5
12
330
9
100
AcDbSymbolTableRecord
100
AcDbRegAppTableRecord
  2
ACAD
 70
     0
  0
ENDTAB
  0
TABLE
  2
DIMSTYLE
  5
A
330
0
100
AcDbSymbolTable
 70
     2
100
AcDbDimStyleTable
  0
DIMSTYLE
105
27
330
A
100
AcDbSymbolTableRecord
100
AcDbDimStyleTableRecord
  2
ISO-25
 70
     0
 41
2.5
 42
0.625
 43
3.75
 44
1.25
 73
     0
 74
     0
 77
     1
 78
     8
140
2.5
141
2.5
143
0.0393700787
147
0.625
171
     3
172
     1
178
     0
271
     2
272
     2
274
     3
278
    44
283
     0
284
     8
340
11
  0
DIMSTYLE
105
15E
102
{ACAD_REACTORS
330
15D
330
232
330
23C
330
246
102
}
330
A
100
AcDbSymbolTableRecord
100
AcDbDimStyleTableRecord
  2
SLDDIMSTYLE0
 70
     0
 41
3.0
 44
0.0
 45
0.000000001
 73
     0
 74
     0
 77
     1
 78
    12
 79
     3
140
2.0
147
0.5
173
     1
178
     0
271
     2
272
     3
276
     2
284
    12
340
77
  0
ENDTAB
  0
TABLE
  2
BLOCK_RECORD
  5
1
330
0
100
AcDbSymbolTable
 70
     5
  0
BLOCK_RECORD
  5
1F
330
1
100
AcDbSymbolTableRecord
100
AcDbBlockTableRecord
  2
*Model_Space
340
22
  0
BLOCK_RECORD
  5
1B
330
1
100
AcDbSymbolTableRecord
100
AcDbBlockTableRecord
  2
*Paper_Space
340
1E
  0
BLOCK_RECORD
  5
23
330
1
100
AcDbSymbolTableRecord
100
AcDbBlockTableRecord
  2
*Paper_Space0
340
26
  0
BLOCK_RECORD
  5
15F
330
1
100
AcDbSymbolTableRecord
100
AcDbBlockTableRecord
  2
_D
340
0
  0
BLOCK_RECORD
  5
233
330
1
100
AcDbSymbolTableRecord
100
AcDbBlockTableRecord
  2
_D_1
340
0
  0
BLOCK_RECORD
  5
23D
330
1
100
AcDbSymbolTableRecord
100
AcDbBlockTableRecord
  2
_D_2
340
0
  0
BLOCK_RECORD
  5
247
330
1
100
AcDbSymbolTableRecord
100
AcDbBlockTableRecord
  2
_D_3
340
0
  0
ENDTAB
  0
ENDSEC
  0
SECTION
  2
BLOCKS
  0
BLOCK
  5
20
330
1F
100
AcDbEntity
  8
0
100
AcDbBlockBegin
  2
*Model_Space
 70
     0
 10
0.0
 20
0.0
 30
0.0
  3
*Model_Space
  1

  0
ENDBLK
  5
21
330
1F
100
AcDbEntity
  8
0
100
AcDbBlockEnd
  0
BLOCK
  5
1C
330
1B
100
AcDbEntity
 67
     1
  8
0
100
AcDbBlockBegin
  2
*Paper_Space
 70
     0
 10
0.0
 20
0.0
 30
0.0
  3
*Paper_Space
  1

  0
ENDBLK
  5
1D
330
1B
100
AcDbEntity
 67
     1
  8
0
100
AcDbBlockEnd
  0
BLOCK
  5
24
330
23
100
AcDbEntity
  8
0
100
AcDbBlockBegin
  2
*Paper_Space0
 70
     0
 10
0.0
 20
0.0
 30
0.0
  3
*Paper_Space0
  1

  0
ENDBLK
  5
25
330
23
100
AcDbEntity
  8
0
100
AcDbBlockEnd
  0
BLOCK
  5
160
330
15F
100
AcDbEntity
  8
0
100
AcDbBlockBegin
  2
_D
 70
     0
 10
0.0
 20
0.0
 30
0.0
  3
_D
  1

  0
SOLID
  5
162
330
15F
100
AcDbEntity
  8
VERMASSUNG
100
AcDbTrace
 10
201.1074245507
 20
95.3879509157
 30
0.0
 11
200.6574245507
 21
92.3879509157
 31
0.0
 12
201.5574245507
 22
92.3879509157
 32
0.0
 13
201.5574245507
 23
92.3879509157
 33
0.0
  0
SOLID
  5
163
330
15F
100
AcDbEntity
  8
VERMASSUNG
100
AcDbTrace
 10
201.1074245507
 20
62.3879509157
 30
0.0
 11
201.5574245507
 21
65.3879509157
 31
0.0
 12
200.6574245507
 22
65.3879509157
 32
0.0
 13
200.6574245507
 23
65.3879509157
 33
0.0
  0
LINE
  5
164
330
15F
100
AcDbEntity
  8
VERMASSUNG
100
AcDbLine
 10
148.5845208912
 20
95.3879509157
 30
0.0
 11
202.1074245507
 21
95.3879509157
 31
0.0
  0
LINE
  5
165
330
15F
100
AcDbEntity
  8
VERMASSUNG
100
AcDbLine
 10
148.5845208912
 20
62.3879509157
 30
0.0
 11
202.1074245507
 21
62.3879509157
 31
0.0
  0
LINE
  5
166
330
15F
100
AcDbEntity
  8
VERMASSUNG
100
AcDbLine
 10
201.1074245507
 20
95.3879509157
 30
0.0
 11
201.1074245507
 21
62.3879509157
 31
0.0
  0
MTEXT
  5
167
330
15F
100
AcDbEntity
  8
VERMASSUNG
100
AcDbMText
 10
198.5292892457
 20
75.6829509584
 30
0.0
 40
2.0
 41
0.0
 71
     1
 72
     1
  1
%%c
  7
SLDTEXTSTYLE0
 11
-7.044195017643634E-15
 21
1.0
 31
0.0
 73
     1
 44
1.0
  0
MTEXT
  5
168
330
15F
100
AcDbEntity
  8
VERMASSUNG
100
AcDbMText
 10
198.3292892945
 20
79.2929509727
 30
0.0
 40
2.0
 41
0.0
 71
     1
 72
     1
  1
33
  7
SLDTEXTSTYLE0
 11
-7.044195017643634E-15
 21
1.0
 31
0.0
 73
     1
 44
1.0
  0
ENDBLK
  5
161
330
15F
100
AcDbEntity
  8
0
100
AcDbBlockEnd
  0
BLOCK
  5
234
330
233
100
AcDbEntity
  8
0
100
AcDbBlockBegin
  2
_D_1
 70
     0
 10
0.0
 20
0.0
 30
0.0
  3
_D_1
  1

  0
SOLID
  5
236
330
233
100
AcDbEntity
  8
VERMASSUNG
100
AcDbTrace
 10
112.6711823715
 20
171.1597823151
 30
0.0
 11
115.6711823715
 21
170.7097823151
 31
0.0
 12
115.6711823715
 22
171.6097823151
 32
0.0
 13
115.6711823715
 23
171.6097823151
 33
0.0
  0
SOLID
  5
237
330
233
100
AcDbEntity
  8
VERMASSUNG
100
AcDbTrace
 10
192.6711823715
 20
171.1597823151
 30
0.0
 11
189.6711823715
 21
171.6097823151
 31
0.0
 12
189.6711823715
 22
170.7097823151
 32
0.0
 13
189.6711823715
 23
170.7097823151
 33
0.0
  0
LINE
  5
238
330
233
100
AcDbEntity
  8
VERMASSUNG
100
AcDbLine
 10
112.6711823715
 20
160.5762366692
 30
0.0
 11
112.6711823715
 21
172.1597823151
 31
0.0
  0
LINE
  5
239
330
233
100
AcDbEntity
  8
VERMASSUNG
100
AcDbLine
 10
192.6711823715
 20
140.8762366692
 30
0.0
 11
192.6711823715
 21
172.1597823151
 31
0.0
  0
LINE
  5
23A
330
233
100
AcDbEntity
  8
VERMASSUNG
100
AcDbLine
 10
112.6711823715
 20
171.1597823151
 30
0.0
 11
192.6711823715
 21
171.1597823151
 31
0.0
  0
MTEXT
  5
23B
330
233
100
AcDbEntity
  8
VERMASSUNG
100
AcDbMText
 10
151.2711824214
 20
173.7379179111
 30
0.0
 40
2.0
 41
0.0
 71
     1
 72
     1
  1
80
  7
SLDTEXTSTYLE0
 73
     1
 44
1.0
  0
ENDBLK
  5
235
330
233
100
AcDbEntity
  8
0
100
AcDbBlockEnd
  0
BLOCK
  5
23E
330
23D
100
AcDbEntity
  8
0
100
AcDbBlockBegin
  2
_D_2
 70
     0
 10
0.0
 20
0.0
 30
0.0
  3
_D_2
  1

  0
SOLID
  5
240
330
23D
100
AcDbEntity
  8
VERMASSUNG
100
AcDbTrace
 10
92.7711823715
 20
178.2285825562
 30
0.0
 11
95.7711823715
 21
177.7785825562
 31
0.0
 12
95.7711823715
 22
178.6785825562
 32
0.0
 13
95.7711823715
 23
178.6785825562
 33
0.0
  0
SOLID
  5
241
330
23D
100
AcDbEntity
  8
VERMASSUNG
100
AcDbTrace
 10
192.6711823715
 20
178.2285825562
 30
0.0
 11
189.6711823715
 21
178.6785825562
 31
0.0
 12
189.6711823715
 22
177.7785825562
 32
0.0
 13
189.6711823715
 23
177.7785825562
 33
0.0
  0
LINE
  5
242
330
23D
100
AcDbEntity
  8
VERMASSUNG
100
AcDbLine
 10
92.7711823715
 20
154.3222202604
 30
0.0
 11
92.7711823715
 21
179.2285825562
 31
0.0
  0
LINE
  5
243
330
23D
100
AcDbEntity
  8
VERMASSUNG
100
AcDbLine
 10
192.6711823715
 20
140.8762366692
 30
0.0
 11
192.6711823715
 21
179.2285825562
 31
0.0
  0
LINE
  5
244
330
23D
100
AcDbEntity
  8
VERMASSUNG
100
AcDbLine
 10
92.7711823715
 20
178.2285825562
 30
0.0
 11
192.6711823715
 21
178.2285825562
 31
0.0
  0
MTEXT
  5
245
330
23D
100
AcDbEntity
  8
VERMASSUNG
100
AcDbMText
 10
140.3211824903
 20
180.8067181522
 30
0.0
 40
2.0
 41
0.0
 71
     1
 72
     1
  1
99.9
  7
SLDTEXTSTYLE0
 73
     1
 44
1.0
  0
ENDBLK
  5
23F
330
23D
100
AcDbEntity
  8
0
100
AcDbBlockEnd
  0
BLOCK
  5
248
330
247
100
AcDbEntity
  8
0
100
AcDbBlockBegin
  2
_D_3
 70
     0
 10
0.0
 20
0.0
 30
0.0
  3
_D_3
  1

  0
SOLID
  5
24A
330
247
100
AcDbEntity
  8
VERMASSUNG
100
AcDbTrace
 10
85.6979051256
 20
160.8762366692
 30
0.0
 11
85.2479051256
 21
157.8762366692
 31
0.0
 12
86.1479051256
 22
157.8762366692
 32
0.0
 13
86.1479051256
 23
157.8762366692
 33
0.0
  0
SOLID
  5
24B
330
247
100
AcDbEntity
  8
VERMASSUNG
100
AcDbTrace
 10
85.6979051256
 20
120.8762366692
 30
0.0
 11
86.1479051256
 21
123.8762366692
 31
0.0
 12
85.2479051256
 22
123.8762366692
 32
0.0
 13
85.2479051256
 23
123.8762366692
 33
0.0
  0
LINE
  5
24C
330
247
100
AcDbEntity
  8
VERMASSUNG
100
AcDbLine
 10
112.9711823715
 20
160.8762366692
 30
0.0
 11
84.6979051256
 21
160.8762366692
 31
0.0
  0
LINE
  5
24D
330
247
100
AcDbEntity
  8
VERMASSUNG
100
AcDbLine
 10
112.9711823715
 20
120.8762366692
 30
0.0
 11
84.6979051256
 21
120.8762366692
 31
0.0
  0
LINE
  5
24E
330
247
100
AcDbEntity
  8
VERMASSUNG
100
AcDbLine
 10
85.6979051256
 20
160.8762366692
 30
0.0
 11
85.6979051256
 21
120.8762366692
 31
0.0
  0
MTEXT
  5
24F
330
247
100
AcDbEntity
  8
VERMASSUNG
100
AcDbMText
 10
82.9197698694
 20
134.5712368558
 30
0.0
 40
2.0
 41
0.0
 71
     1
 72
     1
  1
HSK
  7
SLDTEXTSTYLE0
 11
-7.044195017643634E-15
 21
1.0
 31
0.0
 73
     1
 44
1.0
  0
MTEXT
  5
250
330
247
100
AcDbEntity
  8
VERMASSUNG
100
AcDbMText
 10
83.1197698207
 20
140.5712369079
 30
0.0
 40
2.0
 41
0.0
 71
     1
 72
     1
  1
%%c
  7
SLDTEXTSTYLE0
 11
-7.044195017643634E-15
 21
1.0
 31
0.0
 73
     1
 44
1.0
  0
MTEXT
  5
251
330
247
100
AcDbEntity
  8
VERMASSUNG
100
AcDbMText
 10
82.9197698694
 20
144.1812369222
 30
0.0
 40
2.0
 41
0.0
 71
     1
 72
     1
  1
40
  7
SLDTEXTSTYLE0
 11
-7.044195017643634E-15
 21
1.0
 31
0.0
 73
     1
 44
1.0
  0
ENDBLK
  5
249
330
247
100
AcDbEntity
  8
0
100
AcDbBlockEnd
  0
ENDSEC
  0
SECTION
  2
ENTITIES
  0
MTEXT
  5
78
330
1F
100
AcDbEntity
  8
KOPF_DÜNN
100
AcDbMText
 10
13.8892156294
 20
23.8442973028
 30
0.0
 40
3.0
 41
0.0
 71
     1
 72
     1
  1
HA4.KVD.NVA.080
  7
SLDTEXTSTYLE0
 73
     1
 44
1.0
  0
MTEXT
  5
79
330
1F
100
AcDbEntity
  8
VERMASSUNG
100
AcDbMText
 10
13.9329988022
 20
28.8834360957
 30
0.0
 40
3.0
 41
0.0
 71
     1
 72
     1
  1
Klemmhalter_Turning tool
  7
SLDTEXTSTYLE0
 73
     1
 44
1.0
  0
MTEXT
  5
7A
330
1F
100
AcDbEntity
  8
VERMASSUNG
100
AcDbMText
 10
98.8601118557
 20
13.8365368761
 30
0.0
 40
2.0
 41
0.0
 71
     1
 72
     1
  1
Datum: 12.02.2018
  7
SLDTEXTSTYLE0
 73
     1
 44
1.0
  0
MTEXT
  5
7C
330
1F
100
AcDbEntity
  8
VERMASSUNG
100
AcDbMText
 10
13.933048693
 20
18.0482802738
 30
0.0
 40
2.0
 41
0.0
 71
     1
 72
     1
  1
HSK 63 A ICTM / VN .. 16 04 ..
  7
SLDTEXTSTYLE1
 73
     1
 44
1.0
  0
MTEXT
  5
7D
330
1F
100
AcDbEntity
  8
VERMASSUNG
100
AcDbMText
 10
13.9808475933
 20
13.9090974274
 30
0.0
 40
2.0
 41
0.0
 71
     1
 72
     1
  1
Gewicht: 423g
  7
SLDTEXTSTYLE0
 73
     1
 44
1.0
  0
LINE
  5
7E
330
1F
100
AcDbEntity
  8
0
  6
Continuous
 62
     7
370
    25
100
AcDbLine
 10
163.3747004641
 20
84.6379509269
 30
0.0
 11
162.8908560349
 21
84.6379509269
 31
0.0
  0
LINE
  5
7F
330
1F
100
AcDbEntity
  8
0
  6
Continuous
 62
     7
370
    25
100
AcDbLine
 10
162.8908560349
 20
73.1379509045
 30
0.0
 11
163.3747004641
 21
73.1379509045
 31
0.0
  0
LINE
  5
80
330
1F
100
AcDbEntity
  8
0
  6
Continuous
 62
     7
370
    25
100
AcDbLine
 10
162.6489356829
 20
85.8879511317
 30
0.0
 11
161.5381695999
 21
85.8879511317
 31
0.0
  0
LINE
  5
81
330
1F
100
AcDbEntity
  8
0
  6
Continuous
 62
     7
370
    25
100
AcDbLine
 10
161.5381695999
 20
71.8879506996
 30
0.0
 11
162.6489356829
 21
71.8879506996
 31
0.0
  0
LINE
  5
82
330
1F
100
AcDbEntity
  8
0
  6
Continuous
 62
     7
370
    25
100
AcDbLine
 10
180.9553810133
 20
76.2967730945
 30
0.0
 11
180.9553810133
 21
81.4791287368
 31
0.0
  0
LINE
  5
83
330
1F
100
AcDbEntity
  8
0
  6
Continuous
 62
     7
370
    25
100
AcDbLine
 10
177.0549126638
 20
73.9137426092
 30
0.0
 11
178.2064669503
 21
73.9137426092
 31
0.0
  0
LINE
  5
84
330
1F
100
AcDbEntity
  8
0
  6
Continuous
 62
     7
370
    25
100
AcDbLine
 10
178.2064669503
 20
83.8621592222
 30
0.0
 11
177.0549126638
 21
83.8621592222
 31
0.0
  0
LINE
  5
85
330
1F
100
AcDbEntity
  8
0
  6
Continuous
 62
     7
370
    25
100
AcDbLine
 10
112.9711823857
 20
58.8879513627
 30
0.0
 11
120.6211828364
 21
58.8879513627
 31
0.0
  0
LINE
  5
86
330
1F
100
AcDbEntity
  8
0
  6
Continuous
 62
     7
370
    25
100
AcDbLine
 10
120.6367098464
 20
98.8879504686
 30
0.0
 11
112.9711823857
 21
98.8879504686
 31
0.0
  0
ARC
  5
87
330
1F
100
AcDbEntity
  8
0
  6
Continuous
 62
     7
370
    25
100
AcDbCircle
 10
112.9711823715
 20
59.1879509157
 30
0.0
 40
0.3000000000000043
100
AcDbArc
 50
180.0
 51
270.0
  0
ARC
  5
88
330
1F
100
AcDbEntity
  8
0
  6
Continuous
 62
     7
370
    25
100
AcDbCircle
 10
112.9711823715
 20
98.5879509157
 30
0.0
 40
0.2999999999999972
100
AcDbArc
 50
90.0
 51
180.0
  0
ARC
  5
89
330
1F
100
AcDbEntity
  8
0
  6
Continuous
 62
     7
370
    25
100
AcDbCircle
 10
133.6211823715
 20
61.3879509157
 30
0.0
 40
1.00000000000001
100
AcDbArc
 50
90.0
 51
143.1137328946
  0
ARC
  5
8A
330
1F
100
AcDbEntity
  8
0
  6
Continuous
 62
     7
370
    25
100
AcDbCircle
 10
133.6211823715
 20
96.3879509157
 30
0.0
 40
1.000000000000011
100
AcDbArc
 50
216.8998129703
 51
270.0
  0
LINE
  5
8B
330
1F
100
AcDbEntity
  8
0
  6
Continuous
 62
     7
370
    25
100
AcDbLine
 10
133.6211831046
 20
62.3879510051
 30
0.0
 11
148.5845193936
 21
62.3879510051
 31
0.0
  0
LINE
  5
8C
330
1F
100
AcDbEntity
  8
0
  6
Continuous
 62
     7
370
    25
100
AcDbLine
 10
148.5845193936
 20
95.3879508263
 30
0.0
 11
133.6211831046
 21
95.3879508263
 31
0.0
  0
ARC
  5
8D
330
1F
100
AcDbEntity
  8
0
  6
Continuous
 62
     7
370
    25
100
AcDbCircle
 10
112.1711756188
 20
63.4342437622
 30
0.0
 40
0.6000067526677203
100
AcDbArc
 50
33.5571153394
 51
90.0
  0
ARC
  5
8E
330
1F
100
AcDbEntity
  8
0
  6
Continuous
 62
     7
370
    25
100
AcDbCircle
 10
112.1711756188
 20
94.3416580691
 30
0.0
 40
0.6000067526677203
100
AcDbArc
 50
270.0
 51
326.4428846606
  0
LINE
  5
8F
330
1F
100
AcDbEntity
  8
0
  6
Continuous
 62
     7
370
    25
100
AcDbLine
 10
103.9069656951
 20
93.6527627593
 30
0.0
 11
96.3711821212
 21
93.2752185574
 31
0.0
  0
LINE
  5
90
330
1F
100
AcDbEntity
  8
0
  6
Continuous
 62
     7
370
    25
100
AcDbLine
 10
110.6711822765
 20
93.9916514864
 30
0.0
 11
109.3838742206
 21
93.9271564668
 31
0.0
  0
LINE
  5
91
330
1F
100
AcDbEntity
  8
0
  6
Continuous
 62
     7
370
    25
100
AcDbLine
 10
109.3839622306
 20
63.8487407079
 30
0.0
 11
110.6711822765
 21
63.7842503449
 31
0.0
  0
LINE
  5
92
330
1F
100
AcDbEntity
  8
0
  6
Continuous
 62
     7
370
    25
100
AcDbLine
 10
98.8711825309
 20
64.3754324949
 30
0.0
 11
103.9082881732
 21
64.1230729481
 31
0.0
  0
LINE
  5
93
330
1F
100
AcDbEntity
  8
0
  6
Continuous
 62
     7
370
    25
100
AcDbLine
 10
110.6711822765
 20
63.7842503449
 30
0.0
 11
111.5278942714
 21
64.0138055271
 31
0.0
  0
LINE
  5
94
330
1F
100
AcDbEntity
  8
0
  6
Continuous
 62
     7
370
    25
100
AcDbLine
 10
111.5278942714
 20
93.7620963043
 30
0.0
 11
110.6711822765
 21
93.9916514864
 31
0.0
  0
ARC
  5
95
330
1F
100
AcDbEntity
  8
0
  6
Continuous
 62
     7
370
    25
100
AcDbCircle
 10
111.6831874609
 20
63.4342437622
 30
0.0
 40
0.6000067526677133
100
AcDbArc
 50
90.0
 51
105.0
  0
ARC
  5
96
330
1F
100
AcDbEntity
  8
0
  6
Continuous
 62
     7
370
    25
100
AcDbCircle
 10
111.6831874609
 20
94.3416580691
 30
0.0
 40
0.6000067526677133
100
AcDbArc
 50
255.0
 51
270.0
  0
LINE
  5
97
330
1F
100
AcDbEntity
  8
0
  6
Continuous
 62
     7
370
    25
100
AcDbLine
 10
111.6831874212
 20
64.0342508516
 30
0.0
 11
112.1711755957
 21
64.0342508516
 31
0.0
  0
LINE
  5
98
330
1F
100
AcDbEntity
  8
0
  6
Continuous
 62
     7
370
    25
100
AcDbLine
 10
112.1711755957
 20
93.7416509798
 30
0.0
 11
111.6831874212
 21
93.7416509798
 31
0.0
  0
ARC
  5
99
330
1F
100
AcDbEntity
  8
0
  6
Continuous
 62
     7
370
    25
100
AcDbCircle
 10
95.4711823715
 20
92.6679509157
 30
0.0
 40
0.8999999999999978
100
AcDbArc
 50
270.0
 51
311.1792132369
  0
ARC
  5
9A
330
1F
100
AcDbEntity
  8
0
  6
Continuous
 62
     7
370
    25
100
AcDbCircle
 10
97.9711823715
 20
65.1079509157
 30
0.0
 40
0.9000000000000057
100
AcDbArc
 50
34.6391318474
 51
90.0
  0
LINE
  5
9B
330
1F
100
AcDbEntity
  8
0
  6
Continuous
 62
     7
370
    25
100
AcDbLine
 10
93.7211819662
 20
91.7679512015
 30
0.0
 11
92.7711826487
 21
90.8179509526
 31
0.0
  0
LINE
  5
9C
330
1F
100
AcDbEntity
  8
0
  6
Continuous
 62
     7
370
    25
100
AcDbLine
 10
95.4711817874
 20
91.7679512015
 30
0.0
 11
93.7211819662
 21
91.7679512015
 31
0.0
  0
LINE
  5
9D
330
1F
100
AcDbEntity
  8
0
  6
Continuous
 62
     7
370
    25
100
AcDbLine
 10
93.7801831139
 20
66.0079506299
 30
0.0
 11
97.9711821971
 21
66.0079506299
 31
0.0
  0
LINE
  5
9E
330
1F
100
AcDbEntity
  8
0
  6
Continuous
 62
     7
370
    25
100
AcDbLine
 10
92.7711826487
 20
67.0169510951
 30
0.0
 11
93.7801831139
 21
66.0079506299
 31
0.0
  0
LWPOLYLINE
  5
9F
330
1F
100
AcDbEntity
  8
0
  6
Continuous
 62
     7
370
    25
100
AcDbPolyline
 90
       44
 70
   128
 43
0.0
 10
163.0241357459
 20
73.1493130399
 10
163.8386071397
 20
73.1578625811
 10
164.6431878878
 20
73.2885392456
 10
165.4207342042
 20
73.5385574473
 10
166.1546722723
 20
73.9025886243
 10
166.8293595983
 20
74.3728743939
 10
167.4304165615
 20
74.9393909311
 10
167.9450356139
 20
75.5900641045
 10
168.3622420503
 20
76.311026288
 10
168.6731510533
 20
77.0869110085
 10
168.8711316062
 20
77.9011818188
 10
168.9519629551
 20
78.7364839009
 10
168.9139277412
 20
79.5750142381
 10
168.7578343524
 20
80.3989009539
 10
168.4870057477
 20
81.1905845141
 10
168.107216127
 20
81.9331913328
 10
167.6265642716
 20
82.6108940484
 10
167.0552910043
 20
83.209249012
 10
166.4055705739
 20
83.7155029251
 10
165.6912536098
 20
84.118865717
 10
164.9275653733
 20
84.4107408149
 10
164.1307779325
 20
84.584906984
 10
163.3178748859
 20
84.6376529036
 10
162.5061862839
 20
84.5678535363
 10
161.7130049242
 20
84.3769966698
 10
160.9552436246
 20
84.0691507867
 10
160.2490477933
 20
83.650876589
 10
159.6094676031
 20
83.1310886963
 10
159.0501376165
 20
82.5208658891
 10
158.5829787625
 20
81.8332136216
 10
158.2179450167
 20
81.0827883499
 10
157.9628222359
 20
80.2855839094
 10
157.8230418934
 20
79.458591291
 10
157.8015842212
 20
78.6194364439
 10
157.8989111556
 20
77.7860045739
 10
158.1129439844
 20
76.9760587093
 10
158.439119227
 20
76.2068615834
 10
158.8704929424
 20
75.4948072674
 10
159.3978599383
 20
74.8550717792
 10
160.0099921895
 20
74.3012901468
 10
160.6938325537
 20
73.8452652542
 10
161.4348151458
 20
73.4967163837
 10
162.2171410097
 20
73.2630722298
 10
163.0241357459
 20
73.1493130399
  0
LWPOLYLINE
  5
A0
330
1F
100
AcDbEntity
  8
0
  6
Continuous
 62
     7
370
    25
100
AcDbPolyline
 90
       29
 70
   128
 43
0.0
 10
163.7061246408
 20
76.3928909393
 10
164.2486572934
 20
76.4204925465
 10
164.7716284467
 20
76.5718231516
 10
165.2488120569
 20
76.8392938728
 10
165.6562843097
 20
77.2094927335
 10
165.9736082627
 20
77.6638566124
 10
166.1848732008
 20
78.1796016338
 10
166.2794881238
 20
78.7308662504
 10
166.2527070118
 20
79.2900077897
 10
166.1058709694
 20
79.8289884653
 10
165.8463448955
 20
80.3207816163
 10
165.4871449543
 20
80.7407267232
 10
165.0462754739
 20
81.0677658839
 10
164.5458535029
 20
81.2855000215
 10
164.0109614207
 20
81.383010892
 10
163.468428768
 20
81.3554092849
 10
162.9454576148
 20
81.2040786797
 10
162.4682740046
 20
80.9366079586
 10
162.0608017517
 20
80.5664090978
 10
161.7434777988
 20
80.112045219
 10
161.5322128607
 20
79.5963001976
 10
161.4375979377
 20
79.0450355809
 10
161.4643790497
 20
78.4858940417
 10
161.6112150921
 20
77.946913366
 10
161.870741166
 20
77.455120215
 10
162.2299411071
 20
77.0351751082
 10
162.6708105875
 20
76.7081359474
 10
163.1712362839
 20
76.4904018099
 10
163.7061246408
 20
76.3928909393
  0
SPLINE
  5
A1
330
1F
100
AcDbEntity
  8
0
  6
Continuous
 62
     7
370
    25
100
AcDbSpline
210
0.0
220
0.0
230
1.0
 70
     8
 71
     3
 72
    11
 73
     7
 74
     0
 42
0.000000001
 43
0.00000001
 40
0.0
 40
0.0
 40
0.0
 40
0.0
 40
0.1208905417765087
 40
0.4766709529606331
 40
0.8143664952638201
 40
0.9999999999999999
 40
0.9999999999999999
 40
0.9999999999999999
 40
0.9999999999999999
 10
162.8161825908381
 20
80.95655316284142
 30
0.0
 10
162.8907675269195
 20
80.95106148721925
 30
0.0
 10
163.1848556502416
 20
80.9294078308314
 30
0.0
 10
163.7747880355359
 20
80.88857140522008
 30
0.0
 10
164.4957073934251
 20
80.84382165787255
 30
0.0
 10
164.906751973849
 20
80.81992215721706
 30
0.0
 10
165.0525563133914
 20
80.81144460739783
 30
0.0
  0
SPLINE
  5
A2
330
1F
100
AcDbEntity
  8
0
  6
Continuous
 62
     7
370
    25
100
AcDbSpline
210
0.0
220
0.0
230
1.0
 70
     8
 71
     3
 72
    11
 73
     7
 74
     0
 42
0.000000001
 43
0.00000001
 40
0.0
 40
0.0
 40
0.0
 40
0.0
 40
0.2164528301642916
 40
0.4403053509222287
 40
0.7518954077578613
 40
1.0
 40
1.0
 40
1.0
 40
1.0
 10
161.5760595275123
 20
79.0330595147771
 30
0.0
 10
161.643483787547
 20
79.16481895569295
 30
0.0
 10
161.7806372840048
 20
79.43284218655455
 30
0.0
 10
162.0715986832594
 20
79.93022603413726
 30
0.0
 10
162.433495318815
 20
80.46376630922906
 30
0.0
 10
162.6986453801985
 20
80.80520035743643
 30
0.0
 10
162.8161825908382
 20
80.95655316284142
 30
0.0
  0
SPLINE
  5
A3
330
1F
100
AcDbEntity
  8
0
  6
Continuous
 62
     7
370
    25
100
AcDbSpline
210
0.0
220
0.0
230
1.0
 70
     8
 71
     3
 72
    11
 73
     7
 74
     0
 42
0.000000001
 43
0.00000001
 40
0.0
 40
0.0
 40
0.0
 40
0.0
 40
0.2164524303168127
 40
0.4403057630911133
 40
0.7518957719780712
 40
1.0
 40
1.0
 40
1.0
 40
1.0
 10
162.5723101867396
 20
76.9644572239577
 30
0.0
 10
162.4865432720615
 20
77.10615688046987
 30
0.0
 10
162.3120769158278
 20
77.39440116259237
 30
0.0
 10
162.0247454654199
 20
77.92930437470072
 30
0.0
 10
161.7663237178552
 20
78.50309647141803
 30
0.0
 10
161.6344965660987
 20
78.87028862889281
 30
0.0
 10
161.5760595275123
 20
79.0330595147771
 30
0.0
  0
SPLINE
  5
A4
330
1F
100
AcDbEntity
  8
0
  6
Continuous
 62
     7
370
    25
100
AcDbSpline
210
0.0
220
0.0
230
1.0
 70
     8
 71
     3
 72
    11
 73
     7
 74
     0
 42
0.000000001
 43
0.00000001
 40
0.0
 40
0.0
 40
0.0
 40
0.0
 40
0.1856334881265554
 40
0.5233273938993952
 40
0.8791077762187282
 40
1.0
 40
1.0
 40
1.0
 40
1.0
 10
164.8086839092929
 20
76.81934866851411
 30
0.0
 10
164.6628795824158
 20
76.82782621619158
 30
0.0
 10
164.2518362993645
 20
76.8517256374516
 30
0.0
 10
163.5309179024197
 20
76.89647536469576
 30
0.0
 10
162.9409863159671
 20
76.93731218610758
 30
0.0
 10
162.6468963653241
 20
76.95896556208902
 30
0.0
 10
162.5723101867396
 20
76.9644572239577
 30
0.0
  0
SPLINE
  5
A5
330
1F
100
AcDbEntity
  8
0
  6
Continuous
 62
     7
370
    25
100
AcDbSpline
210
0.0
220
0.0
230
1.0
 70
     8
 71
     3
 72
    11
 73
     7
 74
     0
 42
0.000000001
 43
0.00000001
 40
0.0
 40
0.0
 40
0.0
 40
0.0
 40
0.2164524588130786
 40
0.4403053543612471
 40
0.7518957001927478
 40
1.0
 40
1.0
 40
1.0
 40
1.0
 10
166.0488069726188
 20
78.74284231657843
 30
0.0
 10
165.9463346026963
 20
78.61108274606916
 30
0.0
 10
165.7378863670035
 20
78.34305878966924
 30
0.0
 10
165.3874972871825
 20
77.84567612394406
 30
0.0
 10
165.0614275804396
 20
77.31213614457923
 30
0.0
 10
164.8863106404419
 20
76.97070154213716
 30
0.0
 10
164.8086839092929
 20
76.81934866851411
 30
0.0
  0
SPLINE
  5
A6
330
1F
100
AcDbEntity
  8
0
  6
Continuous
 62
     7
370
    25
100
AcDbSpline
210
0.0
220
0.0
230
1.0
 70
     8
 71
     3
 72
    11
 73
     7
 74
     0
 42
0.000000001
 43
0.00000001
 40
0.0
 40
0.0
 40
0.0
 40
0.0
 40
0.2164526495126978
 40
0.4403051542913458
 40
0.7518956181924592
 40
1.0
 40
1.0
 40
1.0
 40
1.0
 10
165.0525563133914
 20
80.81144460739783
 30
0.0
 10
165.1032755299039
 20
80.66974519213525
 30
0.0
 10
165.2064478980977
 20
80.38150209120467
 30
0.0
 10
165.4343447316298
 20
79.84659535629523
 30
0.0
 10
165.7285999016442
 20
79.27280592002187
 30
0.0
 10
165.9504597909325
 20
78.90561332171683
 30
0.0
 10
166.0488069726188
 20
78.74284231657843
 30
0.0
  0
LINE
  5
A7
330
1F
100
AcDbEntity
  8
0
  6
Continuous
 62
     7
370
    25
100
AcDbLine
 10
164.3728994502
 20
80.8114446074
 30
0.0
 11
165.0525563134
 21
80.8114446074
 31
0.0
  0
LINE
  5
A8
330
1F
100
AcDbEntity
  8
0
  6
Continuous
 62
     7
370
    25
100
AcDbLine
 10
164.3728994502
 20
80.8114446074
 30
0.0
 11
163.2547125889
 21
80.8839989433
 31
0.0
  0
LINE
  5
A9
330
1F
100
AcDbEntity
  8
0
  6
Continuous
 62
     7
370
    25
100
AcDbLine
 10
163.2547125889
 20
80.8839989433
 30
0.0
 11
162.7842158748
 21
80.9145274645
 31
0.0
  0
LINE
  5
AA
330
1F
100
AcDbEntity
  8
0
  6
Continuous
 62
     7
370
    25
100
AcDbLine
 10
164.1290307714
 20
76.8193486685
 30
0.0
 11
164.7490904404
 21
77.7810954562
 31
0.0
  0
LINE
  5
AB
330
1F
100
AcDbEntity
  8
0
  6
Continuous
 62
     7
370
    25
100
AcDbLine
 10
164.7490904404
 20
77.7810954562
 30
0.0
 11
165.3691501094
 21
78.7428423166
 31
0.0
  0
LINE
  5
AC
330
1F
100
AcDbEntity
  8
0
  6
Continuous
 62
     7
370
    25
100
AcDbLine
 10
165.3691501094
 20
78.7428423166
 30
0.0
 11
166.0488069726
 21
78.7428423166
 31
0.0
  0
LINE
  5
AD
330
1F
100
AcDbEntity
  8
0
  6
Continuous
 62
     7
370
    25
100
AcDbLine
 10
165.3691501094
 20
78.7428423166
 30
0.0
 11
164.8710266424
 21
79.7771434838
 31
0.0
  0
LINE
  5
AE
330
1F
100
AcDbEntity
  8
0
  6
Continuous
 62
     7
370
    25
100
AcDbLine
 10
164.8710266424
 20
79.7771434838
 30
0.0
 11
164.3728994502
 21
80.8114446074
 31
0.0
  0
LINE
  5
AF
330
1F
100
AcDbEntity
  8
0
  6
Continuous
 62
     7
370
    25
100
AcDbLine
 10
162.5402913166
 20
73.1493130399
 30
0.0
 11
162.8908560349
 21
73.1379509045
 31
0.0
  0
ARC
  5
B0
330
1F
100
AcDbEntity
  8
0
  6
Continuous
 62
     7
370
    25
100
AcDbCircle
 10
163.0268707447
 20
78.8841330532
 30
0.0
 40
5.755425277469276
100
AcDbArc
 50
91.3541648139
 51
265.1502687926
  0
ARC
  5
B1
330
1F
100
AcDbEntity
  8
0
  6
Continuous
 62
     7
370
    25
100
AcDbCircle
 10
163.1328479497
 20
79.002564637
 30
0.0
 40
1.885376895840144
100
AcDbArc
 50
86.2940032824
 51
103.4044376565
  0
ARC
  5
B2
330
1F
100
AcDbEntity
  8
0
  6
Continuous
 62
     7
370
    25
100
AcDbCircle
 10
163.1165070414
 20
78.9486210092
 30
0.0
 40
1.940306295708513
100
AcDbArc
 50
25.2777043368
 51
85.9154357233
  0
ARC
  5
B3
330
1F
100
AcDbEntity
  8
0
  6
Continuous
 62
     7
370
    25
100
AcDbCircle
 10
163.0222773273
 20
78.8883328999
 30
0.0
 40
2.051306482271843
100
AcDbArc
 50
327.3318926578
 51
25.676533687
  0
ARC
  5
B4
330
1F
100
AcDbEntity
  8
0
  6
Continuous
 62
     7
370
    25
100
AcDbCircle
 10
163.1227228837
 20
78.8144399355
 30
0.0
 40
1.926881481145665
100
AcDbArc
 50
272.5900219573
 51
327.5693644889
  0
ARC
  5
B5
330
1F
100
AcDbEntity
  8
0
  6
Continuous
 62
     7
370
    25
100
AcDbCircle
 10
162.8831732964
 20
78.590875147
 30
0.0
 40
5.702724044636208
100
AcDbArc
 50
268.6690532917
 51
303.0192200916
  0
ARC
  5
B6
330
1F
100
AcDbEntity
  8
0
  6
Continuous
 62
     7
370
    25
100
AcDbCircle
 10
162.9525788466
 20
78.8429892359
 30
0.0
 40
5.956721021209169
100
AcDbArc
 50
59.3339667447
 51
268.0579585302
  0
LWPOLYLINE
  5
B7
330
1F
100
AcDbEntity
  8
0
  6
Continuous
 62
     7
370
    25
100
AcDbPolyline
 90
       41
 70
   128
 43
0.0
 10
156.6783346904
 20
75.5508973336
 10
157.1525678707
 20
74.775531709
 10
157.7210322691
 20
74.0706709286
 10
158.3739825262
 20
73.4483984372
 10
159.1002241446
 20
72.9193834661
 10
159.8873034788
 20
72.4926952346
 10
160.7217312528
 20
72.1756488158
 10
161.5891986264
 20
71.9736798739
 10
162.4748342408
 20
71.8902510664
 10
163.3634538127
 20
71.9267924389
 10
164.2398246301
 20
72.0826781428
 10
165.088918872
 20
72.3552352822
 10
165.8961818291
 20
72.7397909461
 10
166.647774048
 20
73.229752302
 10
167.3308097495
 20
73.8167197516
 10
167.9335766209
 20
74.4906294232
 10
168.4457444323
 20
75.2399277946
 10
168.8585289491
 20
76.0517689007
 10
169.1648558451
 20
76.9122343583
 10
169.3594687356
 20
77.806572018
 10
169.4390372111
 20
78.7194491815
 10
169.4021903647
 20
79.6352151621
 10
169.2495689465
 20
80.538169884
 10
168.9837806596
 20
81.4128327722
 10
168.6093889846
 20
82.2442083692
 10
168.1328088714
 20
83.0180433652
 10
167.5622098817
 20
83.7210708371
 10
166.907378353
 20
84.3412385395
 10
166.1795385851
 20
84.867913097
 10
165.3911665751
 20
85.2920658028
 10
164.5557851268
 20
85.6064244246
 10
163.6877105309
 20
85.8055998644
 10
162.801825322
 20
85.8861769622
 10
161.9133212341
 20
85.8467750324
 10
161.0374272538
 20
85.6880692838
 10
160.1891600264
 20
85.4127801096
 10
159.3830668105
 20
85.0256274527
 10
158.6329647077
 20
84.533248849
 10
157.951709695
 20
83.9440858064
 10
157.3509880079
 20
83.2682394495
 10
156.8410963489
 20
82.517295664
  0
SPLINE
  5
B8
330
1F
100
AcDbEntity
  8
0
  6
Continuous
 62
     7
370
    25
100
AcDbSpline
210
0.0
220
0.0
230
1.0
 70
     8
 71
     3
 72
    14
 73
    10
 74
     0
 42
0.000000001
 43
0.00000001
 40
0.0
 40
0.0
 40
0.0
 40
0.0
 40
0.2406877491461776
 40
0.3654955208697271
 40
0.4913833587819017
 40
0.5985914835610815
 40
0.7015348667169123
 40
0.8683341002778279
 40
1.0
 40
1.0
 40
1.0
 40
1.0
 10
156.6783346904475
 20
75.5508973336055
 30
0.0
 10
156.8102516315381
 20
75.72415688591158
 30
0.0
 10
157.0105736307527
 20
75.98725955956411
 30
0.0
 10
157.1021660553131
 20
76.46225574526237
 30
0.0
 10
157.058341010428
 20
76.83722770530137
 30
0.0
 10
156.9037862481303
 20
77.1650572077036
 30
0.0
 10
156.6502643746701
 20
77.46482338485038
 30
0.0
 10
156.3183882361699
 20
77.69277971290099
 30
0.0
 10
156.0532400952587
 20
77.7815403919777
 30
0.0
 10
155.9362717641551
 20
77.82069657260767
 30
0.0
  0
ARC
  5
B9
330
1F
100
AcDbEntity
  8
0
  6
Continuous
 62
     7
370
    25
100
AcDbCircle
 10
162.5377315469
 20
78.8103928071
 30
0.0
 40
6.675235568849173
100
AcDbArc
 50
188.213747444
 51
188.5263284584
  0
SPLINE
  5
BA
330
1F
100
AcDbEntity
  8
0
  6
Continuous
 62
     7
370
    25
100
AcDbSpline
210
0.0
220
0.0
230
1.0
 70
     8
 71
     3
 72
    14
 73
    10
 74
     0
 42
0.000000001
 43
0.00000001
 40
0.0
 40
0.0
 40
0.0
 40
0.0
 40
0.2406877050076875
 40
0.3654954747966307
 40
0.491383076607924
 40
0.5985913121470553
 40
0.70153380048365
 40
0.8683338271866644
 40
1.0
 40
1.0
 40
1.0
 40
1.0
 10
155.9309706760604
 20
77.85672583414457
 30
0.0
 10
156.1148434251927
 20
77.98713854475858
 30
0.0
 10
156.3940627469446
 20
78.18517631151471
 30
0.0
 10
156.6410962005856
 20
78.61874481810365
 30
0.0
 10
156.7254268982025
 20
78.99283589643504
 30
0.0
 10
156.688335187956
 20
79.35158108986407
 30
0.0
 10
156.5474892438293
 20
79.71033650604204
 30
0.0
 10
156.3078527896277
 20
80.02155077966724
 30
0.0
 10
156.085154899729
 20
80.18091043167604
 30
0.0
 10
155.9869133604724
 20
80.2512107722669
 30
0.0
  0
ARC
  5
BB
330
1F
100
AcDbEntity
  8
0
  6
Continuous
 62
     7
370
    25
100
AcDbCircle
 10
162.9479232582
 20
78.9101808044
 30
0.0
 40
7.089006994670073
100
AcDbArc
 50
168.8014344829
 51
169.0956289827
  0
SPLINE
  5
BC
330
1F
100
AcDbEntity
  8
0
  6
Continuous
 62
     7
370
    25
100
AcDbSpline
210
0.0
220
0.0
230
1.0
 70
     8
 71
     3
 72
    14
 73
    10
 74
     0
 42
0.000000001
 43
0.00000001
 40
0.0
 40
0.0
 40
0.0
 40
0.0
 40
0.2406879526031281
 40
0.3654958612330027
 40
0.4913833279193047
 40
0.5985914878463042
 40
0.7015343708363098
 40
0.868334044635293
 40
1.0
 40
1.0
 40
1.0
 40
1.0
 10
155.9938908292014
 20
80.28693537490658
 30
0.0
 10
156.2123656921379
 20
80.358771455593
 30
0.0
 10
156.5441299425839
 20
80.46785788843736
 30
0.0
 10
156.9234873159117
 20
80.80770440794177
 30
0.0
 10
157.1279559662374
 20
81.13579230339305
 30
0.0
 10
157.2115029320336
 20
81.48218712995896
 30
0.0
 10
157.1961023454121
 20
81.85665350974168
 30
0.0
 10
157.0707842959446
 20
82.21359404437307
 30
0.0
 10
156.9114052591603
 20
82.42433070785853
 30
0.0
 10
156.8410963488776
 20
82.51729566401086
 30
0.0
  0
LINE
  5
BD
330
1F
100
AcDbEntity
  8
0
  6
Continuous
 62
     7
370
    25
100
AcDbLine
 10
155.5675723327
 20
75.5508973336
 30
0.0
 11
156.6783346904
 21
75.5508973336
 31
0.0
  0
SPLINE
  5
BE
330
1F
100
AcDbEntity
  8
0
  6
Continuous
 62
     7
370
    25
100
AcDbSpline
210
0.0
220
0.0
230
1.0
 70
     8
 71
     3
 72
    16
 73
    12
 74
     0
 42
0.000000001
 43
0.00000001
 40
0.0
 40
0.0
 40
0.0
 40
0.0
 40
0.2447320448379879
 40
0.3352523401884021
 40
0.4264851911701261
 40
0.485914598735094
 40
0.5455540000221786
 40
0.6156611967143253
 40
0.7256812185588776
 40
0.9416021007497762
 40
1.0
 40
1.0
 40
1.0
 40
1.0
 10
154.8255094064433
 20
77.82069657260767
 30
0.0
 10
154.9203148654048
 20
77.75183091327652
 30
0.0
 10
155.0501865052243
 20
77.65749355968364
 30
0.0
 10
155.2335028427039
 20
77.38305954571449
 30
0.0
 10
155.3435341763599
 20
77.16891786802421
 30
0.0
 10
155.4369669931151
 20
76.92989351492132
 30
0.0
 10
155.5085918543635
 20
76.6950704810867
 30
0.0
 10
155.5710029416057
 20
76.4133325840006
 30
0.0
 10
155.6173713324945
 20
76.0249210368531
 30
0.0
 10
155.6046308429785
 20
75.7459591619703
 30
0.0
 10
155.5740767831379
 20
75.58513427350508
 30
0.0
 10
155.5675723327357
 20
75.5508973336055
 30
0.0
  0
LINE
  5
BF
330
1F
100
AcDbEntity
  8
0
  6
Continuous
 62
     7
370
    25
100
AcDbLine
 10
155.9362717642
 20
77.8206965726
 30
0.0
 11
154.8255094064
 21
77.8206965726
 31
0.0
  0
LINE
  5
C0
330
1F
100
AcDbEntity
  8
0
  6
Continuous
 62
     7
370
    25
100
AcDbLine
 10
154.8202083183
 20
77.8567258341
 30
0.0
 11
155.9309706761
 21
77.8567258341
 31
0.0
  0
SPLINE
  5
C1
330
1F
100
AcDbEntity
  8
0
  6
Continuous
 62
     7
370
    25
100
AcDbSpline
210
0.0
220
0.0
230
1.0
 70
     8
 71
     3
 72
    16
 73
    12
 74
     0
 42
0.000000001
 43
0.00000001
 40
0.0
 40
0.0
 40
0.0
 40
0.0
 40
0.244732452209915
 40
0.3352523366589334
 40
0.4264852297051266
 40
0.4859147771508109
 40
0.5455540053755212
 40
0.6156614457993208
 40
0.725681379886323
 40
0.9416022568776722
 40
0.9999999999999999
 40
0.9999999999999999
 40
0.9999999999999999
 40
0.9999999999999999
 10
154.8761510027606
 20
80.2512107722669
 30
0.0
 10
154.9385999000211
 20
80.13095348632163
 30
0.0
 10
155.0241469475799
 20
79.9662162978149
 30
0.0
 10
155.0998429171738
 20
79.61159949698141
 30
0.0
 10
155.1297380612437
 20
79.35739192432229
 30
0.0
 10
155.1372715829921
 20
79.09429964406843
 30
0.0
 10
155.1269658147861
 20
78.85026435526252
 30
0.0
 10
155.0939418278199
 20
78.57420056953895
 30
0.0
 10
155.0134144035805
 20
78.22092107725693
 30
0.0
 10
154.9146235568617
 20
77.99690910790869
 30
0.0
 10
154.8367799013988
 20
77.88133053567384
 30
0.0
 10
154.8202083183486
 20
77.85672583414457
 30
0.0
  0
LINE
  5
C2
330
1F
100
AcDbEntity
  8
0
  6
Continuous
 62
     7
370
    25
100
AcDbLine
 10
155.9869133605
 20
80.2512107723
 30
0.0
 11
154.8761510028
 21
80.2512107723
 31
0.0
  0
LINE
  5
C3
330
1F
100
AcDbEntity
  8
0
  6
Continuous
 62
     7
370
    25
100
AcDbLine
 10
154.8831284715
 20
80.2869353749
 30
0.0
 11
155.9938908292
 21
80.2869353749
 31
0.0
  0
SPLINE
  5
C4
330
1F
100
AcDbEntity
  8
0
  6
Continuous
 62
     7
370
    25
100
AcDbSpline
210
0.0
220
0.0
230
1.0
 70
     8
 71
     3
 72
    16
 73
    12
 74
     0
 42
0.000000001
 43
0.00000001
 40
0.0
 40
0.0
 40
0.0
 40
0.0
 40
0.2447320646634346
 40
0.335252075377318
 40
0.4264851342276145
 40
0.4859145186097493
 40
0.5455542021710975
 40
0.6156610777823038
 40
0.7256812282147065
 40
0.94160246018836
 40
1.0
 40
1.0
 40
1.0
 40
1.0
 10
155.7303339911658
 20
82.51729566401086
 30
0.0
 10
155.7453215300924
 20
82.36015092264304
 30
0.0
 10
155.7658525689524
 20
82.14488243810406
 30
0.0
 10
155.7138042317995
 20
81.7528571163072
 30
0.0
 10
155.6551099284125
 20
81.48924580160455
 30
0.0
 10
155.5739299825036
 20
81.2338148536197
 30
0.0
 10
155.4835752527935
 20
81.01000707637743
 30
0.0
 10
155.3627619964388
 20
80.77290826755656
 30
0.0
 10
155.1746505402168
 20
80.49737655805762
 30
0.0
 10
155.0132225366517
 20
80.35533150512133
 30
0.0
 10
154.9059622583668
 20
80.29894009363531
 30
0.0
 10
154.8831284714896
 20
80.28693537490658
 30
0.0
  0
LINE
  5
C5
330
1F
100
AcDbEntity
  8
0
  6
Continuous
 62
     7
370
    25
100
AcDbLine
 10
156.8410963489
 20
82.517295664
 30
0.0
 11
155.7303339912
 21
82.517295664
 31
0.0
  0
ARC
  5
C6
330
1F
100
AcDbEntity
  8
0
  6
Continuous
 62
     7
370
    25
100
AcDbCircle
 10
161.4269691892
 20
78.8103928071
 30
0.0
 40
6.675235568849173
100
AcDbArc
 50
188.213747444
 51
188.5263284584
  0
ARC
  5
C7
330
1F
100
AcDbEntity
  8
0
  6
Continuous
 62
     7
370
    25
100
AcDbCircle
 10
161.8371609004
 20
78.9101808044
 30
0.0
 40
7.089006994670073
100
AcDbArc
 50
168.8014344829
 51
169.0956289827
  0
ARC
  5
C8
330
1F
100
AcDbEntity
  8
0
  6
Continuous
 62
     7
370
    25
100
AcDbCircle
 10
161.5745858953
 20
78.6448146105
 30
0.0
 40
6.756962043452239
100
AcDbArc
 50
207.2507688841
 51
269.6912058824
  0
ARC
  5
C9
330
1F
100
AcDbEntity
  8
0
  6
Continuous
 62
     7
370
    25
100
AcDbCircle
 10
161.5749740216
 20
79.135587795
 30
0.0
 40
6.752463639072839
100
AcDbArc
 50
90.3122931995
 51
149.9463320976
  0
LINE
  5
CA
330
1F
100
AcDbEntity
  8
0
  6
Continuous
 62
     7
370
    25
100
AcDbLine
 10
152.9669956042
 20
86.387950748
 30
0.0
 11
151.3575249089
 21
86.387950748
 31
0.0
  0
SPLINE
  5
CB
330
1F
100
AcDbEntity
  8
0
  6
Continuous
 62
     7
370
    25
100
AcDbSpline
210
0.0
220
0.0
230
1.0
 70
     8
 71
     3
 72
     9
 73
     5
 74
     0
 42
0.000000001
 43
0.00000001
 40
0.0
 40
0.0
 40
0.0
 40
0.0
 40
0.495225650821331
 40
1.0
 40
1.0
 40
1.0
 40
1.0
 10
152.9669956041533
 20
86.3879507480397
 30
0.0
 10
152.6144323399236
 20
86.37580100154526
 30
0.0
 10
151.902507859346
 20
86.35126724309735
 30
0.0
 10
151.2093495706345
 20
86.1829465177175
 30
0.0
 10
150.8594610465724
 20
86.0979825331106
 30
0.0
  0
SPLINE
  5
CC
330
1F
100
AcDbEntity
  8
0
  6
Continuous
 62
     7
370
    25
100
AcDbSpline
210
0.0
220
0.0
230
1.0
 70
     8
 71
     3
 72
    16
 73
    12
 74
     0
 42
0.000000001
 43
0.00000001
 40
0.0
 40
0.0
 40
0.0
 40
0.0
 40
0.096739734498309
 40
0.193625729766155
 40
0.3126068241175017
 40
0.4317663304581505
 40
0.5957972324416898
 40
0.7600318239761866
 40
0.8792872452530549
 40
0.9985545081721753
 40
0.9999999999999999
 40
0.9999999999999999
 40
0.9999999999999999
 40
0.9999999999999999
 10
150.8594610465724
 20
86.0979825331106
 30
0.0
 10
150.4908854741065
 20
85.97862696680887
 30
0.0
 10
149.7531770799002
 20
85.73973538056798
 30
0.0
 10
148.6552119991241
 20
85.1782001823299
 30
0.0
 10
147.5958004907668
 20
84.4658208714044
 30
0.0
 10
146.4940271373199
 20
83.49732493191298
 30
0.0
 10
145.4885820454992
 20
82.31943332083034
 30
0.0
 10
144.7276194200566
 20
81.07492184524651
 30
0.0
 10
144.2260478579945
 20
79.9286763953786
 30
0.0
 10
144.0179022144076
 20
79.23885782459509
 30
0.0
 10
143.9365915375147
 20
78.89210317787365
 30
0.0
 10
143.9356178713996
 20
78.88795091567776
 30
0.0
  0
SPLINE
  5
CD
330
1F
100
AcDbEntity
  8
0
  6
Continuous
 62
     7
370
    25
100
AcDbSpline
210
0.0
220
0.0
230
1.0
 70
     8
 71
     3
 72
    16
 73
    12
 74
     0
 42
0.000000001
 43
0.00000001
 40
0.0
 40
0.0
 40
0.0
 40
0.0
 40
0.096739734498309
 40
0.1936257297661549
 40
0.3126068241175015
 40
0.4317663304581502
 40
0.5957972324416895
 40
0.7600318239761862
 40
0.8792872452530544
 40
0.9985545081721745
 40
1.0
 40
1.0
 40
1.0
 40
1.0
 10
150.8594610465724
 20
71.67791929824493
 30
0.0
 10
150.4908854741065
 20
71.79727486454667
 30
0.0
 10
149.7531770799002
 20
72.03616645078756
 30
0.0
 10
148.655211999124
 20
72.59770164902564
 30
0.0
 10
147.5958004907668
 20
73.31008095995114
 30
0.0
 10
146.4940271373199
 20
74.27857689944254
 30
0.0
 10
145.4885820454992
 20
75.4564685105252
 30
0.0
 10
144.7276194200566
 20
76.700979986109
 30
0.0
 10
144.2260478579945
 20
77.84722543597698
 30
0.0
 10
144.0179022144076
 20
78.53704400676033
 30
0.0
 10
143.9365915375147
 20
78.8837986534819
 30
0.0
 10
143.9356178713996
 20
78.88795091567776
 30
0.0
  0
SPLINE
  5
CE
330
1F
100
AcDbEntity
  8
0
  6
Continuous
 62
     7
370
    25
100
AcDbSpline
210
0.0
220
0.0
230
1.0
 70
     8
 71
     3
 72
     9
 73
     5
 74
     0
 42
0.000000001
 43
0.00000001
 40
0.0
 40
0.0
 40
0.0
 40
0.0
 40
0.495225650821331
 40
1.0
 40
1.0
 40
1.0
 40
1.0
 10
152.9669956041533
 20
71.38795108331583
 30
0.0
 10
152.6144323399236
 20
71.40010082981028
 30
0.0
 10
151.902507859346
 20
71.42463458825817
 30
0.0
 10
151.2093495706345
 20
71.59295531363804
 30
0.0
 10
150.8594610465724
 20
71.67791929824493
 30
0.0
  0
LINE
  5
CF
330
1F
100
AcDbEntity
  8
0
  6
Continuous
 62
     7
370
    25
100
AcDbLine
 10
152.9669956042
 20
71.3879510833
 30
0.0
 11
151.3575249089
 21
71.3879510833
 31
0.0
  0
SPLINE
  5
D0
330
1F
100
AcDbEntity
  8
0
  6
Continuous
 62
     7
370
    25
100
AcDbSpline
210
0.0
220
0.0
230
1.0
 70
     8
 71
     3
 72
    10
 73
     6
 74
     0
 42
0.000000001
 43
0.00000001
 40
0.0
 40
0.0
 40
0.0
 40
0.0
 40
0.1480683723297169
 40
0.9078074069879805
 40
1.0
 40
1.0
 40
1.0
 40
1.0
 10
150.1972869707305
 20
71.45118229819677
 30
0.0
 10
150.2472392468034
 20
71.44636930693454
 30
0.0
 10
150.5534967243552
 20
71.41686085047705
 30
0.0
 10
150.956584948634
 20
71.38958979491137
 30
0.0
 10
151.3183736046832
 20
71.38811110152942
 30
0.0
 10
151.3575249088962
 20
71.38795108331583
 30
0.0
  0
ARC
  5
D1
330
1F
100
AcDbEntity
  8
0
  6
Continuous
 62
     7
370
    25
100
AcDbCircle
 10
151.3515424071
 20
78.8879509157
 30
0.0
 40
7.525811124541888
100
AcDbArc
 50
98.8224416552
 51
261.1775583448
  0
SPLINE
  5
D2
330
1F
100
AcDbEntity
  8
0
  6
Continuous
 62
     7
370
    25
100
AcDbSpline
210
0.0
220
0.0
230
1.0
 70
     8
 71
     3
 72
    10
 73
     6
 74
     0
 42
0.000000001
 43
0.00000001
 40
0.0
 40
0.0
 40
0.0
 40
0.0
 40
0.1480683723297169
 40
0.9078074069879805
 40
1.0
 40
1.0
 40
1.0
 40
1.0
 10
150.1972869707305
 20
86.32471953315876
 30
0.0
 10
150.2472392468034
 20
86.329532524421
 30
0.0
 10
150.5534967243552
 20
86.35904098087849
 30
0.0
 10
150.956584948634
 20
86.38631203644417
 30
0.0
 10
151.3183736046832
 20
86.38779072982612
 30
0.0
 10
151.3575249088962
 20
86.3879507480397
 30
0.0
  0
LINE
  5
D3
330
1F
100
AcDbEntity
  8
0
  6
Continuous
 62
     7
370
    25
100
AcDbLine
 10
152.9669956042
 20
86.387950748
 30
0.0
 11
163.9641605986
 21
86.387950748
 31
0.0
  0
SPLINE
  5
D4
330
1F
100
AcDbEntity
  8
0
  6
Continuous
 62
     7
370
    25
100
AcDbSpline
210
0.0
220
0.0
230
1.0
 70
     8
 71
     3
 72
    13
 73
     9
 74
     0
 42
0.000000001
 43
0.00000001
 40
0.0
 40
0.0
 40
0.0
 40
0.0
 40
0.1635391735639864
 40
0.3270849173028779
 40
0.4958211903406423
 40
0.6645722598723898
 40
0.8317546818827336
 40
1.0
 40
1.0
 40
1.0
 40
1.0
 10
163.9641605986316
 20
86.3879507480397
 30
0.0
 10
164.8530508230881
 20
86.3690660987612
 30
0.0
 10
166.6308669831041
 20
86.3312960415147
 30
0.0
 10
169.2489510159588
 20
86.02835307404266
 30
0.0
 10
171.8118229660697
 20
85.54326315247098
 30
0.0
 10
174.2856058477805
 20
84.861153786514
 30
0.0
 10
176.6489924707528
 20
84.0154536509336
 30
0.0
 10
178.1137130809187
 20
83.31726789625918
 30
0.0
 10
178.848394073363
 20
82.9670688210263
 30
0.0
  0
SPLINE
  5
D5
330
1F
100
AcDbEntity
  8
0
  6
Continuous
 62
     7
370
    25
100
AcDbSpline
210
0.0
220
0.0
230
1.0
 70
     8
 71
     3
 72
    13
 73
     9
 74
     0
 42
0.000000001
 43
0.00000001
 40
0.0
 40
0.0
 40
0.0
 40
0.0
 40
0.1635391735639864
 40
0.3270849173028779
 40
0.4958211903406423
 40
0.6645722598723898
 40
0.8317546818827336
 40
1.0
 40
1.0
 40
1.0
 40
1.0
 10
163.9641605986316
 20
71.38795108331583
 30
0.0
 10
164.8530508230881
 20
71.40683573259433
 30
0.0
 10
166.6308669831041
 20
71.44460578984082
 30
0.0
 10
169.2489510159588
 20
71.74754875731288
 30
0.0
 10
171.8118229660697
 20
72.23263867888454
 30
0.0
 10
174.2856058477805
 20
72.91474804484153
 30
0.0
 10
176.6489924707528
 20
73.76044818042195
 30
0.0
 10
178.1137130809187
 20
74.45863393509636
 30
0.0
 10
178.848394073363
 20
74.80883301032922
 30
0.0
  0
LINE
  5
D6
330
1F
100
AcDbEntity
  8
0
  6
Continuous
 62
     7
370
    25
100
AcDbLine
 10
152.9669956042
 20
71.3879510833
 30
0.0
 11
163.9641605986
 21
71.3879510833
 31
0.0
  0
SPLINE
  5
D7
330
1F
100
AcDbEntity
  8
0
  6
Continuous
 62
     7
370
    25
100
AcDbSpline
210
0.0
220
0.0
230
1.0
 70
     8
 71
     3
 72
    10
 73
     6
 74
     0
 42
0.000000001
 43
0.00000001
 40
0.0
 40
0.0
 40
0.0
 40
0.0
 40
0.0394301326871281
 40
0.8130208908953004
 40
1.0
 40
1.0
 40
1.0
 40
1.0
 10
155.5964731348712
 20
76.03205699270806
 30
0.0
 10
155.5871301874999
 20
76.04981879962374
 30
0.0
 10
155.394485352756
 20
76.41605444476019
 30
0.0
 10
155.2392284167379
 20
76.91276698454844
 30
0.0
 10
155.1694319790183
 20
77.3971048747467
 30
0.0
 10
155.1558457983691
 20
77.4913833549454
 30
0.0
  0
SPLINE
  5
D8
330
1F
100
AcDbEntity
  8
0
  6
Continuous
 62
     7
370
    25
100
AcDbSpline
210
0.0
220
0.0
230
1.0
 70
     8
 71
     3
 72
    10
 73
     6
 74
     0
 42
0.000000001
 43
0.00000001
 40
0.0
 40
0.0
 40
0.0
 40
0.0
 40
0.0438813298337141
 40
0.8789597996563848
 40
1.0
 40
1.0
 40
1.0
 40
1.0
 10
155.0282136274535
 20
78.31543060748122
 30
0.0
 10
155.0249262244582
 20
78.33624581317369
 30
0.0
 10
154.9590782866435
 20
78.75318233480117
 30
0.0
 10
154.9698094837167
 20
79.24468453685932
 30
0.0
 10
155.0549523349769
 20
79.69570260884288
 30
0.0
 10
155.0657310260493
 20
79.75279941020749
 30
0.0
  0
SPLINE
  5
D9
330
1F
100
AcDbEntity
  8
0
  6
Continuous
 62
     7
370
    25
100
AcDbSpline
210
0.0
220
0.0
230
1.0
 70
     8
 71
     3
 72
    10
 73
     6
 74
     0
 42
0.000000001
 43
0.00000001
 40
0.0
 40
0.0
 40
0.0
 40
0.0
 40
0.1257977046012074
 40
0.8962378574652647
 40
1.0
 40
1.0
 40
1.0
 40
1.0
 10
155.2142322732169
 20
80.57118550205819
 30
0.0
 10
155.2254122370271
 20
80.63587974300688
 30
0.0
 10
155.3050631880804
 20
81.09678980557128
 30
0.0
 10
155.4867037772988
 20
81.5983049307044
 30
0.0
 10
155.7145015466229
 20
81.99274425289185
 30
0.0
 10
155.7415396643836
 20
82.03956164216838
 30
0.0
  0
SPLINE
  5
DA
330
1F
100
AcDbEntity
  8
0
  6
Continuous
 62
     7
370
    25
100
AcDbSpline
210
0.0
220
0.0
230
1.0
 70
    11
 71
     3
 72
    26
 73
    22
 74
     0
 42
0.000000001
 43
0.00000001
 40
0.0
 40
0.0
 40
0.0
 40
0.0
 40
0.0528531918193125
 40
0.1056991832200818
 40
0.1587534032562601
 40
0.2123327135990917
 40
0.2665718968030978
 40
0.3213658470219545
 40
0.3762801025514617
 40
0.4306688244651256
 40
0.4840622467495945
 40
0.5365487232285329
 40
0.5887657218050102
 40
0.6414932288111798
 40
0.6951927879240607
 40
0.7497774257778718
 40
0.8047175376817279
 40
0.8593987352969361
 40
0.9134562366256869
 40
0.9668595730215692
 40
1.0
 40
1.0
 40
1.0
 40
1.0
 10
154.9871907306868
 20
78.88795091567778
 30
0.0
 10
154.9707790316767
 20
78.7206293341882
 30
0.0
 10
154.9379578694929
 20
78.38600896615061
 30
0.0
 10
154.6822397462976
 20
77.94025614834123
 30
0.0
 10
154.3046792658296
 20
77.59919306849693
 30
0.0
 10
153.8291591810582
 20
77.40018910084999
 30
0.0
 10
153.3097993563425
 20
77.36746555888658
 30
0.0
 10
152.8035985731492
 20
77.5086193223036
 30
0.0
 10
152.3718525841766
 20
77.81021238387434
 30
0.0
 10
152.0684549226278
 20
78.23584786646374
 30
0.0
 10
151.9285058853891
 20
78.7315064383018
 30
0.0
 10
151.9625563102335
 20
79.2382007811903
 30
0.0
 10
152.1613792449137
 20
79.70275529955667
 30
0.0
 10
152.5032888410805
 20
80.07958941399961
 30
0.0
 10
152.9553648705374
 20
80.32853010016505
 30
0.0
 10
153.4707177499014
 20
80.41736227408059
 30
0.0
 10
153.9892238237205
 20
80.33032780625655
 30
0.0
 10
154.4481181682835
 20
80.07555356946499
 30
0.0
 10
154.7893736180989
 20
79.68526210214715
 30
0.0
 10
154.9635135750856
 20
79.26557143576177
 30
0.0
 10
154.980634551095
 20
78.99251364225442
 30
0.0
 10
154.9871907306868
 20
78.88795091567778
 30
0.0
  0
LINE
  5
DB
330
1F
100
AcDbEntity
  8
0
  6
Continuous
 62
     7
370
    25
100
AcDbLine
 10
152.9102035536
 20
80.0059849236
 30
0.0
 11
152.6898191048
 21
80.1502544739
 31
0.0
  0
LINE
  5
DC
330
1F
100
AcDbEntity
  8
0
  6
Continuous
 62
     7
370
    25
100
AcDbLine
 10
152.6862018479
 20
77.6264353728
 30
0.0
 11
152.9102035536
 21
77.7699169077
 31
0.0
  0
ARC
  5
DD
330
1F
100
AcDbEntity
  8
0
  6
Continuous
 62
     7
370
    25
100
AcDbCircle
 10
151.8671366001
 20
78.8879509157
 30
0.0
 40
1.529048302846115
100
AcDbArc
 50
313.0132468439
 51
46.9867531561
  0
SPLINE
  5
DE
330
1F
100
AcDbEntity
  8
0
  6
Continuous
 62
     7
370
    25
100
AcDbSpline
210
0.0
220
0.0
230
1.0
 70
     8
 71
     3
 72
    13
 73
     9
 74
     0
 42
0.000000001
 43
0.00000001
 40
0.0
 40
0.0
 40
0.0
 40
0.0
 40
0.1905804339012587
 40
0.3811144349989304
 40
0.5723668804104577
 40
0.7634810759062286
 40
0.9402461740283311
 40
1.0
 40
1.0
 40
1.0
 40
1.0
 10
178.848394073363
 20
74.80883301032922
 30
0.0
 10
179.0796950283705
 20
74.92990847354275
 30
0.0
 10
179.5422405844797
 20
75.17202990127947
 30
0.0
 10
180.1060596732442
 20
75.51826608578958
 30
0.0
 10
180.5514010217133
 20
75.83348909944614
 30
0.0
 10
180.8335704949625
 20
76.08624213396733
 30
0.0
 10
180.9603972558941
 20
76.24353738310342
 30
0.0
 10
180.942171265102
 20
76.28603623993199
 30
0.0
 10
180.9375666750628
 20
76.2967730945184
 30
0.0
  0
SPLINE
  5
DF
330
1F
100
AcDbEntity
  8
0
  6
Continuous
 62
     7
370
    25
100
AcDbSpline
210
0.0
220
0.0
230
1.0
 70
     8
 71
     3
 72
    13
 73
     9
 74
     0
 42
0.000000001
 43
0.00000001
 40
0.0
 40
0.0
 40
0.0
 40
0.0
 40
0.1905804339012587
 40
0.3811144349989304
 40
0.5723668804104577
 40
0.7634810759062286
 40
0.9402461740283311
 40
1.0
 40
1.0
 40
1.0
 40
1.0
 10
178.848394073363
 20
82.9670688210263
 30
0.0
 10
179.0796950283705
 20
82.84599335781279
 30
0.0
 10
179.5422405844797
 20
82.60387193007607
 30
0.0
 10
180.1060596732442
 20
82.25763574556596
 30
0.0
 10
180.5514010217133
 20
81.9424127319094
 30
0.0
 10
180.8335704949625
 20
81.6896596973882
 30
0.0
 10
180.9603972558941
 20
81.53236444825212
 30
0.0
 10
180.942171265102
 20
81.48986559142354
 30
0.0
 10
180.9375666750628
 20
81.47912873683713
 30
0.0
  0
LINE
  5
E0
330
1F
100
AcDbEntity
  8
0
  6
Continuous
 62
     7
370
    25
100
AcDbLine
 10
177.4095379485
 20
74.1532932108
 30
0.0
 11
178.0897536052
 21
73.932255905
 31
0.0
  0
LINE
  5
E1
330
1F
100
AcDbEntity
  8
0
  6
Continuous
 62
     7
370
    25
100
AcDbLine
 10
178.0897536052
 20
83.8436459264
 30
0.0
 11
177.4095379485
 21
83.6226086205
 31
0.0
  0
ARC
  5
E2
330
1F
100
AcDbEntity
  8
0
  6
Continuous
 62
     7
370
    25
100
AcDbCircle
 10
178.206463225
 20
83.4849413547
 30
0.0
 40
0.3772136067417216
100
AcDbArc
 50
71.9769677189
 51
108.0230322811
  0
LINE
  5
E3
330
1F
100
AcDbEntity
  8
0
  6
Continuous
 62
     7
370
    25
100
AcDbLine
 10
192.3997708334
 20
79.2694376971
 30
0.0
 11
178.3231728448
 21
83.8436459264
 31
0.0
  0
ARC
  5
E4
330
1F
100
AcDbEntity
  8
0
  6
Continuous
 62
     7
370
    25
100
AcDbCircle
 10
192.2689262912
 20
78.8879509157
 30
0.0
 40
0.403301944704486
100
AcDbArc
 50
288.9312393786
 51
71.0687606214
  0
LINE
  5
E5
330
1F
100
AcDbEntity
  8
0
  6
Continuous
 62
     7
370
    25
100
AcDbLine
 10
178.3231728448
 20
73.932255905
 30
0.0
 11
192.3997708334
 21
78.5064641343
 31
0.0
  0
ARC
  5
E6
330
1F
100
AcDbEntity
  8
0
  6
Continuous
 62
     7
370
    25
100
AcDbCircle
 10
178.206463225
 20
74.2909604767
 30
0.0
 40
0.3772136067417216
100
AcDbArc
 50
251.9769677189
 51
288.0230322811
  0
ARC
  5
E7
330
1F
100
AcDbEntity
  8
0
  6
Continuous
 62
     7
370
    25
100
AcDbCircle
 10
192.2696382386
 20
78.8879509157
 30
0.0
 40
0.383135712161458
100
AcDbArc
 50
288.9307403451
 51
71.0692596549
  0
LINE
  5
E8
330
1F
100
AcDbEntity
  8
0
  6
Continuous
 62
     7
370
    25
100
AcDbLine
 10
192.3939370288
 20
79.2503633667
 30
0.0
 11
178.3173390402
 21
83.8245715087
 31
0.0
  0
ARC
  5
E9
330
1F
100
AcDbEntity
  8
0
  6
Continuous
 62
     7
370
    25
100
AcDbCircle
 10
178.206463225
 20
83.483793518
 30
0.0
 40
0.3583616683758555
100
AcDbArc
 50
71.9771406227
 51
108.0228593773
  0
LINE
  5
EA
330
1F
100
AcDbEntity
  8
0
  6
Continuous
 62
     7
370
    25
100
AcDbLine
 10
178.0955874098
 20
83.8245715087
 30
0.0
 11
177.4364047421
 21
83.6103682479
 31
0.0
  0
LINE
  5
EB
330
1F
100
AcDbEntity
  8
0
  6
Continuous
 62
     7
370
    25
100
AcDbLine
 10
177.4364047421
 20
74.1655335834
 30
0.0
 11
178.0955874098
 21
73.9513303226
 31
0.0
  0
ARC
  5
EC
330
1F
100
AcDbEntity
  8
0
  6
Continuous
 62
     7
370
    25
100
AcDbCircle
 10
178.206463225
 20
74.2921083134
 30
0.0
 40
0.3583616683758555
100
AcDbArc
 50
251.9771406227
 51
288.0228593773
  0
LINE
  5
ED
330
1F
100
AcDbEntity
  8
0
  6
Continuous
 62
     7
370
    25
100
AcDbLine
 10
178.3173390402
 20
73.9513303226
 30
0.0
 11
192.3939370288
 21
78.5255384646
 31
0.0
  0
LINE
  5
EE
330
1F
100
AcDbEntity
  8
0
  6
Continuous
 62
     7
370
    25
100
AcDbLine
 10
178.1533890141
 20
74.3137423953
 30
0.0
 11
178.0955874098
 21
73.9513303226
 31
0.0
  0
LINE
  5
EF
330
1F
100
AcDbEntity
  8
0
  6
Continuous
 62
     7
370
    25
100
AcDbLine
 10
178.1309776677
 20
74.4819792992
 30
0.0
 11
178.1533890141
 21
74.3137423953
 31
0.0
  0
LINE
  5
F0
330
1F
100
AcDbEntity
  8
0
  6
Continuous
 62
     7
370
    25
100
AcDbLine
 10
178.1533890141
 20
83.462159436
 30
0.0
 11
178.0955874098
 21
83.8245715087
 31
0.0
  0
LINE
  5
F1
330
1F
100
AcDbEntity
  8
0
  6
Continuous
 62
     7
370
    25
100
AcDbLine
 10
178.1309776677
 20
83.2939225322
 30
0.0
 11
178.1533890141
 21
83.462159436
 31
0.0
  0
LINE
  5
F2
330
1F
100
AcDbEntity
  8
0
  6
Continuous
 62
     7
370
    25
100
AcDbLine
 10
184.1208123339
 20
79.8416678401
 30
0.0
 11
180.9553810133
 21
80.8702791648
 31
0.0
  0
ARC
  5
F3
330
1F
100
AcDbEntity
  8
0
  6
Continuous
 62
     7
370
    25
100
AcDbCircle
 10
183.7937051357
 20
78.8879509157
 30
0.0
 40
1.008253485518227
100
AcDbArc
 50
288.9310164556
 51
71.0689835444
  0
LINE
  5
F4
330
1F
100
AcDbEntity
  8
0
  6
Continuous
 62
     7
370
    25
100
AcDbLine
 10
180.9553810133
 20
76.9056226665
 30
0.0
 11
184.1208123339
 21
77.9342339913
 31
0.0
  0
LINE
  5
F5
330
1F
100
AcDbEntity
  8
0
  6
Continuous
 62
     7
370
    25
100
AcDbLine
 10
188.8445996417
 20
78.8879509157
 30
0.0
 11
192.2299870027
 21
78.8879509157
 31
0.0
  0
LINE
  5
F6
330
1F
100
AcDbEntity
  8
0
  6
Continuous
 62
     7
370
    25
100
AcDbLine
 10
192.2299870027
 20
78.8879509157
 30
0.0
 11
192.3939370288
 21
78.5255384646
 31
0.0
  0
LINE
  5
F7
330
1F
100
AcDbEntity
  8
0
  6
Continuous
 62
     7
370
    25
100
AcDbLine
 10
178.1533890141
 20
74.3137423953
 30
0.0
 11
178.3173390402
 21
73.9513303226
 31
0.0
  0
LINE
  5
F8
330
1F
100
AcDbEntity
  8
0
  6
Continuous
 62
     7
370
    25
100
AcDbLine
 10
186.3514491094
 20
78.077799578
 30
0.0
 11
188.8445996417
 21
78.8879509157
 31
0.0
  0
LINE
  5
F9
330
1F
100
AcDbEntity
  8
0
  6
Continuous
 62
     7
370
    25
100
AcDbLine
 10
178.1533890141
 20
83.462159436
 30
0.0
 11
178.3173390402
 21
83.8245715087
 31
0.0
  0
LINE
  5
FA
330
1F
100
AcDbEntity
  8
0
  6
Continuous
 62
     7
370
    25
100
AcDbLine
 10
192.2299870027
 20
78.8879509157
 30
0.0
 11
192.3939370288
 21
79.2503633667
 31
0.0
  0
LINE
  5
FB
330
1F
100
AcDbEntity
  8
0
  6
Continuous
 62
     7
370
    25
100
AcDbLine
 10
188.8445996417
 20
78.8879509157
 30
0.0
 11
186.3514491094
 21
79.6981022533
 31
0.0
  0
ARC
  5
FC
330
1F
100
AcDbEntity
  8
0
  6
Continuous
 62
     7
370
    25
100
AcDbCircle
 10
183.493262591
 20
78.8879509157
 30
0.0
 40
2.457020250244133
100
AcDbArc
 50
350.2663109523
 51
9.7336890477
  0
SPLINE
  5
FD
330
1F
100
AcDbEntity
  8
0
  6
Continuous
 62
     7
370
    25
100
AcDbSpline
210
0.0
220
0.0
230
1.0
 70
     8
 71
     3
 72
    14
 73
    10
 74
     0
 42
0.000000001
 43
0.00000001
 40
0.0
 40
0.0
 40
0.0
 40
0.0
 40
0.2210589417310185
 40
0.3460785011712568
 40
0.4396022221700548
 40
0.5338890112854364
 40
0.6146535863313226
 40
0.7517288041580616
 40
1.0
 40
1.0
 40
1.0
 40
1.0
 10
185.9149121416766
 20
78.47254513327248
 30
0.0
 10
185.9067604529881
 20
78.4140167044301
 30
0.0
 10
185.8939985887485
 20
78.32238760871893
 30
0.0
 10
185.9088309309676
 20
78.2048709531993
 30
0.0
 10
185.9425107782003
 20
78.12757330132607
 30
0.0
 10
185.9943187272758
 20
78.07686255596008
 30
0.0
 10
186.0696907320302
 20
78.04441342425908
 30
0.0
 10
186.1921094721344
 20
78.03414649006132
 30
0.0
 10
186.2890148561797
 20
78.06069493291156
 30
0.0
 10
186.351449109431
 20
78.07779957803182
 30
0.0
  0
SPLINE
  5
FE
330
1F
100
AcDbEntity
  8
0
  6
Continuous
 62
     7
370
    25
100
AcDbSpline
210
0.0
220
0.0
230
1.0
 70
     8
 71
     3
 72
    14
 73
    10
 74
     0
 42
0.000000001
 43
0.00000001
 40
0.0
 40
0.0
 40
0.0
 40
0.0
 40
0.2234996748934618
 40
0.3567598384457975
 40
0.4531233292132785
 40
0.5344619841388026
 40
0.6157330643872206
 40
0.7396161890671076
 40
0.9999999999999999
 40
0.9999999999999999
 40
0.9999999999999999
 40
0.9999999999999999
 10
186.351449109431
 20
79.69810225332371
 30
0.0
 10
186.2953878305572
 20
79.71362089689785
 30
0.0
 10
186.2059003948209
 20
79.73839242632867
 30
0.0
 10
186.0872566906293
 20
79.73484263714093
 30
0.0
 10
186.009729235775
 20
79.7083785013646
 30
0.0
 10
185.9562640839283
 20
79.66451104144944
 30
0.0
 10
185.917090765917
 20
79.5982954188211
 30
0.0
 10
185.8913118175329
 20
79.47476254866685
 30
0.0
 10
185.905379627563
 20
79.372590013689
 30
0.0
 10
185.9149121416766
 20
79.30335669808305
 30
0.0
  0
LINE
  5
FF
330
1F
100
AcDbEntity
  8
0
  6
Continuous
 62
     7
370
    25
100
AcDbLine
 10
127.631182663
 20
61.4588282144
 30
0.0
 11
127.631182663
 21
90.7379512748
 31
0.0
  0
SPLINE
  5
100
330
1F
100
AcDbEntity
  8
0
  6
Continuous
 62
     7
370
    25
100
AcDbSpline
210
0.0
220
0.0
230
1.0
 70
     8
 71
     3
 72
     8
 73
     4
 74
     0
 42
0.000000001
 43
0.00000001
 40
0.0
 40
0.0
 40
0.0
 40
0.0
 40
1.0
 40
1.0
 40
1.0
 40
1.0
 10
127.631182371493
 20
61.45882752768805
 30
0.0
 10
127.3005437448785
 20
60.85830717657706
 30
0.0
 10
126.9687279443049
 20
60.25843806587202
 30
0.0
 10
126.6360226725996
 20
59.65906639264836
 30
0.0
  0
LINE
  5
101
330
1F
100
AcDbEntity
  8
0
  6
Continuous
 62
     7
370
    25
100
AcDbLine
 10
126.6360225825
 20
59.6590659654
 30
0.0
 11
126.6360225825
 21
90.7379512748
 31
0.0
  0
SPLINE
  5
102
330
1F
100
AcDbEntity
  8
0
  6
Continuous
 62
     7
370
    25
100
AcDbSpline
210
0.0
220
0.0
230
1.0
 70
    24
 71
     3
 72
     8
 73
     4
 74
     0
 42
0.000000001
 43
0.00000001
 40
0.0
 40
0.0
 40
0.0
 40
0.0
 40
1.0
 40
1.0
 40
1.0
 40
1.0
 10
126.6360226725996
 20
90.73795091567777
 30
0.0
 10
126.9750554943542
 20
90.73795091567777
 30
0.0
 10
127.3075457158708
 20
90.73795091567777
 30
0.0
 10
127.631182371493
 20
90.73795091567777
 30
0.0
  0
LINE
  5
103
330
1F
100
AcDbEntity
  8
0
  6
Continuous
 62
     7
370
    25
100
AcDbLine
 10
120.6211828364
 20
90.7379512748
 30
0.0
 11
126.6360225825
 21
90.7379512748
 31
0.0
  0
LINE
  5
104
330
1F
100
AcDbEntity
  8
0
  6
Continuous
 62
     7
370
    25
100
AcDbLine
 10
126.6360225825
 20
59.6590659654
 30
0.0
 11
125.1211826427
 21
59.6590659654
 31
0.0
  0
SPLINE
  5
105
330
1F
100
AcDbEntity
  8
0
  6
Continuous
 62
     7
370
    25
100
AcDbSpline
210
0.0
220
0.0
230
1.0
 70
     8
 71
     3
 72
    22
 73
    18
 74
     0
 42
0.000000001
 43
0.00000001
 40
0.0
 40
0.0
 40
0.0
 40
0.0
 40
0.125
 40
0.125
 40
0.25
 40
0.25
 40
0.375
 40
0.375
 40
0.5
 40
0.5
 40
0.625
 40
0.625
 40
0.75
 40
0.75
 40
0.875
 40
0.875
 40
1.0
 40
1.0
 40
1.0
 40
1.0
 10
125.1211823714931
 20
59.65906639264836
 30
0.0
 10
124.8220579424524
 20
59.65906639264836
 30
0.0
 10
124.5282354942036
 20
59.65055229158196
 30
0.0
 10
123.9506712179573
 20
59.61810852270007
 30
0.0
 10
123.6638535401433
 20
59.59377463399804
 30
0.0
 10
123.119391011244
 20
59.5333146092412
 30
0.0
 10
122.8614357406227
 20
59.49740118846272
 30
0.0
 10
122.3733777972628
 20
59.41769116239358
 30
0.0
 10
122.143679498599
 20
59.37381286120424
 30
0.0
 10
121.7312605156464
 20
59.28556923883406
 30
0.0
 10
121.5457335727863
 20
59.24076089737309
 30
0.0
 10
121.2172135278855
 20
59.15343988945391
 30
0.0
 10
121.078799640986
 20
59.11214910087826
 30
0.0
 10
120.8542074943701
 20
59.03781087758443
 30
0.0
 10
120.7671286822459
 20
59.00440075184976
 30
0.0
 10
120.6506268742908
 20
58.94938135032363
 30
0.0
 10
120.621182371493
 20
58.92791958385738
 30
0.0
 10
120.621182371493
 20
58.9129665602396
 30
0.0
  0
LINE
  5
106
330
1F
100
AcDbEntity
  8
0
  6
Continuous
 62
     7
370
    25
100
AcDbLine
 10
120.6211828364
 20
58.9129666871
 30
0.0
 11
120.6211828364
 21
58.8879513627
 31
0.0
  0
SPLINE
  5
107
330
1F
100
AcDbEntity
  8
0
  6
Continuous
 62
     7
370
    25
100
AcDbSpline
210
0.0
220
0.0
230
1.0
 70
     8
 71
     3
 72
    17
 73
    13
 74
     0
 42
0.000000001
 43
0.00000001
 40
0.0
 40
0.0
 40
0.0
 40
0.0
 40
0.1039928149931941
 40
0.211050797947968
 40
0.315030024669631
 40
0.4219351868122974
 40
0.5275775927633417
 40
0.6362134531400181
 40
0.7429488821168505
 40
0.8528788227495517
 40
0.9578277247781112
 40
1.0
 40
1.0
 40
1.0
 40
1.0
 10
125.1211826426942
 20
98.37512700615666
 30
0.0
 10
124.8753655584692
 20
98.3778428407497
 30
0.0
 10
124.3764859793528
 20
98.38335455863131
 30
0.0
 10
123.6530024358281
 20
98.42643831740686
 30
0.0
 10
122.9652070796203
 20
98.49030492958839
 30
0.0
 10
122.3404617074861
 20
98.56964044561326
 30
0.0
 10
121.7845109044238
 20
98.65657923738159
 30
0.0
 10
121.3225243978565
 20
98.74053882870054
 30
0.0
 10
120.9602592665848
 20
98.81370169779157
 30
0.0
 10
120.7284802958311
 20
98.86383873808316
 30
0.0
 10
120.6189143515479
 20
98.88845883546566
 30
0.0
 10
120.6327452269124
 20
98.88535368740041
 30
0.0
 10
120.6367098463733
 20
98.88446359692357
 30
0.0
  0
LINE
  5
108
330
1F
100
AcDbEntity
  8
0
  6
Continuous
 62
     7
370
    25
100
AcDbLine
 10
126.6360225825
 20
98.3751270062
 30
0.0
 11
125.1211826427
 21
98.3751270062
 31
0.0
  0
LINE
  5
109
330
1F
100
AcDbEntity
  8
0
  6
Continuous
 62
     7
370
    25
100
AcDbLine
 10
126.6360225825
 20
94.9993602073
 30
0.0
 11
126.6360225825
 21
98.3751270062
 31
0.0
  0
LINE
  5
10A
330
1F
100
AcDbEntity
  8
0
  6
Continuous
 62
     7
370
    25
100
AcDbLine
 10
125.1148524432
 20
94.9993602073
 30
0.0
 11
126.6360225825
 21
94.9993602073
 31
0.0
  0
SPLINE
  5
10B
330
1F
100
AcDbEntity
  8
0
  6
Continuous
 62
     7
370
    25
100
AcDbSpline
210
0.0
220
0.0
230
1.0
 70
     8
 71
     3
 72
    22
 73
    18
 74
     0
 42
0.000000001
 43
0.00000001
 40
0.0
 40
0.0
 40
0.0
 40
0.0
 40
0.2499999999999999
 40
0.2499999999999999
 40
0.3749999999999999
 40
0.3749999999999999
 40
0.4999999999999999
 40
0.4999999999999999
 40
0.6249999999999999
 40
0.6249999999999999
 40
0.7499999999999999
 40
0.7499999999999999
 40
0.8749999999999998
 40
0.8749999999999998
 40
0.9374999999999999
 40
0.9374999999999999
 40
1.0
 40
1.0
 40
1.0
 40
1.0
 10
120.621182371493
 20
90.73795091567777
 30
0.0
 10
120.6431633894797
 20
91.3008235575758
 30
0.0
 10
120.7221402728344
 20
91.83144844130533
 30
0.0
 10
120.9685381658668
 20
92.57715943222689
 30
0.0
 10
121.0730627809578
 20
92.8187796586256
 30
0.0
 10
121.3349093762643
 20
93.27763843395151
 30
0.0
 10
121.4901259984301
 20
93.49181710642135
 30
0.0
 10
121.858717751494
 20
93.88904566556687
 30
0.0
 10
122.0748514439589
 20
94.07349050058667
 30
0.0
 10
122.5587459389458
 20
94.39457034847031
 30
0.0
 10
122.8292114839535
 20
94.5339211785763
 30
0.0
 10
123.4254380494637
 20
94.7632267130019
 30
0.0
 10
123.7409313161837
 20
94.84976272247822
 30
0.0
 10
124.2416479642022
 20
94.93865232680947
 30
0.0
 10
124.4144443988173
 20
94.96146083267111
 30
0.0
 10
124.7628131715994
 20
94.99175199536735
 30
0.0
 10
124.9382142005098
 20
94.99935991675524
 30
0.0
 10
125.1148528461978
 20
94.99935991675524
 30
0.0
  0
LINE
  5
10C
330
1F
100
AcDbEntity
  8
0
  6
Continuous
 62
     7
370
    25
100
AcDbLine
 10
130.7063427491
 20
59.6590659654
 30
0.0
 11
130.7063427491
 21
90.7379512748
 31
0.0
  0
SPLINE
  5
10D
330
1F
100
AcDbEntity
  8
0
  6
Continuous
 62
     7
370
    25
100
AcDbSpline
210
0.0
220
0.0
230
1.0
 70
     8
 71
     3
 72
     8
 73
     4
 74
     0
 42
0.000000001
 43
0.00000001
 40
0.0
 40
0.0
 40
0.0
 40
0.0
 40
1.0
 40
1.0
 40
1.0
 40
1.0
 10
130.7063420703865
 20
59.65906639264836
 30
0.0
 10
130.3736367986812
 20
60.25843806587202
 30
0.0
 10
130.0418209981077
 20
60.85830717657706
 30
0.0
 10
129.711182371493
 20
61.45882752768804
 30
0.0
  0
LINE
  5
10E
330
1F
100
AcDbEntity
  8
0
  6
Continuous
 62
     7
370
    25
100
AcDbLine
 10
129.7111817373
 20
61.4588282144
 30
0.0
 11
129.7111817373
 21
90.7379512748
 31
0.0
  0
SPLINE
  5
10F
330
1F
100
AcDbEntity
  8
0
  6
Continuous
 62
     7
370
    25
100
AcDbSpline
210
0.0
220
0.0
230
1.0
 70
    24
 71
     3
 72
     8
 73
     4
 74
     0
 42
0.000000001
 43
0.00000001
 40
0.0
 40
0.0
 40
0.0
 40
0.0
 40
1.0
 40
1.0
 40
1.0
 40
1.0
 10
129.711182371493
 20
90.73795091567777
 30
0.0
 10
130.0348190271153
 20
90.73795091567777
 30
0.0
 10
130.3673092486319
 20
90.73795091567777
 30
0.0
 10
130.7063420703865
 20
90.73795091567777
 30
0.0
  0
LINE
  5
110
330
1F
100
AcDbEntity
  8
0
  6
Continuous
 62
     7
370
    25
100
AcDbLine
 10
132.6211829407
 20
60.2839182204
 30
0.0
 11
132.6211829407
 21
90.7379512748
 31
0.0
  0
SPLINE
  5
111
330
1F
100
AcDbEntity
  8
0
  6
Continuous
 62
     7
370
    25
100
AcDbSpline
210
0.0
220
0.0
230
1.0
 70
     8
 71
     3
 72
    10
 73
     6
 74
     0
 42
0.000000001
 43
0.00000001
 40
0.0
 40
0.0
 40
0.0
 40
0.0
 40
0.5
 40
0.5
 40
1.0
 40
1.0
 40
1.0
 40
1.0
 10
132.6211823714931
 20
60.28391909459124
 30
0.0
 10
132.6211823714931
 20
60.124286925688
 30
0.0
 10
132.5595458577877
 20
59.96323729192395
 30
0.0
 10
132.3405194915449
 20
59.73024640824735
 30
0.0
 10
132.1829026034975
 20
59.65906639264836
 30
0.0
 10
132.021182371493
 20
59.65906639264836
 30
0.0
  0
SPLINE
  5
112
330
1F
100
AcDbEntity
  8
0
  6
Continuous
 62
     7
370
    25
100
AcDbSpline
210
0.0
220
0.0
230
1.0
 70
    24
 71
     3
 72
    12
 73
     8
 74
     0
 42
0.000000001
 43
0.00000001
 40
0.0
 40
0.0
 40
0.0
 40
0.0
 40
0.250000000000002
 40
0.250000000000002
 40
0.500000000000004
 40
0.500000000000004
 40
1.0
 40
1.0
 40
1.0
 40
1.0
 10
132.021182371493
 20
90.73795091567777
 30
0.0
 10
132.1093692368619
 20
90.73795091567777
 30
0.0
 10
132.1980566301632
 20
90.73795091567777
 30
0.0
 10
132.3523091232821
 20
90.73795091567777
 30
0.0
 10
132.417655104358
 20
90.73795091567777
 30
0.0
 10
132.5720649743091
 20
90.73795091567777
 30
0.0
 10
132.6211823714931
 20
90.73795091567777
 30
0.0
 10
132.6211823714931
 20
90.73795091567777
 30
0.0
  0
LINE
  5
113
330
1F
100
AcDbEntity
  8
0
  6
Continuous
 62
     7
370
    25
100
AcDbLine
 10
132.0211820973
 20
59.6590659654
 30
0.0
 11
130.7063427491
 21
59.6590659654
 31
0.0
  0
LINE
  5
114
330
1F
100
AcDbEntity
  8
0
  6
Continuous
 62
     7
370
    25
100
AcDbLine
 10
130.7063427491
 20
90.7379512748
 30
0.0
 11
132.0211820973
 21
90.7379512748
 31
0.0
  0
LINE
  5
115
330
1F
100
AcDbEntity
  8
0
  6
Continuous
 62
     7
370
    25
100
AcDbLine
 10
112.6711823715
 20
59.1879508531
 30
0.0
 11
112.6711823715
 21
98.5879509783
 31
0.0
  0
SPLINE
  5
116
330
1F
100
AcDbEntity
  8
0
  6
Continuous
 62
     7
370
    25
100
AcDbSpline
210
0.0
220
0.0
230
1.0
 70
    24
 71
     3
 72
    16
 73
    12
 74
     0
 42
0.000000001
 43
0.00000001
 40
0.0
 40
0.0
 40
0.0
 40
0.0
 40
0.4999999999999987
 40
0.4999999999999987
 40
0.749999999999998
 40
0.749999999999998
 40
0.874999999999997
 40
0.874999999999997
 40
0.9374999999999984
 40
0.9374999999999984
 40
1.0
 40
1.0
 40
1.0
 40
1.0
 10
129.6759599709118
 20
61.98795091567777
 30
0.0
 10
129.6459235513852
 20
61.98795091567777
 30
0.0
 10
129.5992894541804
 20
61.98795091567777
 30
0.0
 10
129.4889050426017
 20
61.98795091567777
 30
0.0
 10
129.4455673940811
 20
61.98795091567777
 30
0.0
 10
129.3570857596964
 20
61.98795091567777
 30
0.0
 10
129.3237102550798
 20
61.98795091567777
 30
0.0
 10
129.2592180456293
 20
61.98795091567777
 30
0.0
 10
129.2350137084426
 20
61.98795091567777
 30
0.0
 10
129.1792598986322
 20
61.98795091567777
 30
0.0
 10
129.145675872564
 20
61.98795091567778
 30
0.0
 10
129.111182371493
 20
61.98795091567777
 30
0.0
  0
SPLINE
  5
117
330
1F
100
AcDbEntity
  8
0
  6
Continuous
 62
     7
370
    25
100
AcDbSpline
210
0.0
220
0.0
230
1.0
 70
    24
 71
     3
 72
    12
 73
     8
 74
     0
 42
0.000000001
 43
0.00000001
 40
0.0
 40
0.0
 40
0.0
 40
0.0
 40
0.2499999999999997
 40
0.2499999999999997
 40
0.4999999999999994
 40
0.4999999999999994
 40
1.0
 40
1.0
 40
1.0
 40
1.0
 10
129.111182371493
 20
90.73795091567777
 30
0.0
 10
129.2038404609993
 20
90.73795091567777
 30
0.0
 10
129.295903870557
 20
90.73795091567777
 30
0.0
 10
129.4500614210478
 20
90.73795091567777
 30
0.0
 10
129.5145503544125
 20
90.73795091567777
 30
0.0
 10
129.664601903362
 20
90.73795091567777
 30
0.0
 10
129.711182371493
 20
90.73795091567777
 30
0.0
 10
129.711182371493
 20
90.73795091567777
 30
0.0
  0
SPLINE
  5
118
330
1F
100
AcDbEntity
  8
0
  6
Continuous
 62
     7
370
    25
100
AcDbSpline
210
0.0
220
0.0
230
1.0
 70
    24
 71
     3
 72
    16
 73
    12
 74
     0
 42
0.000000001
 43
0.00000001
 40
0.0
 40
0.0
 40
0.0
 40
0.0
 40
0.0624999999999991
 40
0.0624999999999991
 40
0.1249999999999981
 40
0.1249999999999981
 40
0.249999999999997
 40
0.249999999999997
 40
0.4999999999999976
 40
0.4999999999999976
 40
1.0
 40
1.0
 40
1.0
 40
1.0
 10
128.2311823714665
 20
61.98795091567777
 30
0.0
 10
128.1967037042813
 20
61.98795091567777
 30
0.0
 10
128.1628835274444
 20
61.98795091567777
 30
0.0
 10
128.1063614602608
 20
61.98795091567777
 30
0.0
 10
128.0820353807345
 20
61.98795091567777
 30
0.0
 10
128.0175824811832
 20
61.98795091567777
 30
0.0
 10
127.9839542058246
 20
61.98795091567777
 30
0.0
 10
127.8958768902997
 20
61.98795091567777
 30
0.0
 10
127.8530574370321
 20
61.98795091567777
 30
0.0
 10
127.7424008028351
 20
61.98795091567777
 30
0.0
 10
127.6961682168911
 20
61.98795091567777
 30
0.0
 10
127.6664047720744
 20
61.98795091567777
 30
0.0
  0
SPLINE
  5
119
330
1F
100
AcDbEntity
  8
0
  6
Continuous
 62
     7
370
    25
100
AcDbSpline
210
0.0
220
0.0
230
1.0
 70
    24
 71
     3
 72
    12
 73
     8
 74
     0
 42
0.000000001
 43
0.00000001
 40
0.0
 40
0.0
 40
0.0
 40
0.0
 40
0.4999999999999987
 40
0.4999999999999987
 40
0.7499999999999993
 40
0.7499999999999993
 40
1.0
 40
1.0
 40
1.0
 40
1.0
 10
127.631182371493
 20
90.73795091567777
 30
0.0
 10
127.631182371493
 20
90.73795091567777
 30
0.0
 10
127.6781784690014
 20
90.73795091567777
 30
0.0
 10
127.8276844070016
 20
90.73795091567777
 30
0.0
 10
127.8922030295601
 20
90.73795091567777
 30
0.0
 10
128.0466427222891
 20
90.73795091567777
 30
0.0
 10
128.137581110292
 20
90.73795091567777
 30
0.0
 10
128.231182371493
 20
90.73795091567777
 30
0.0
  0
SPLINE
  5
11A
330
1F
100
AcDbEntity
  8
0
  6
Continuous
 62
     7
370
    25
100
AcDbSpline
210
0.0
220
0.0
230
1.0
 70
    24
 71
     3
 72
    14
 73
    10
 74
     0
 42
0.000000001
 43
0.00000001
 40
0.0
 40
0.0
 40
0.0
 40
0.0
 40
0.1250000000000001
 40
0.1250000000000001
 40
0.2500000000000001
 40
0.2500000000000001
 40
0.5000000000000001
 40
0.5000000000000001
 40
1.0
 40
1.0
 40
1.0
 40
1.0
 10
132.8211823714714
 20
95.78795091567777
 30
0.0
 10
132.8211826294512
 20
95.78795091567777
 30
0.0
 10
132.8188063011274
 20
95.78795091567777
 30
0.0
 10
132.8096584572851
 20
95.78795091567777
 30
0.0
 10
132.8028925783738
 20
95.78795091567777
 30
0.0
 10
132.7774531992062
 20
95.78795091567777
 30
0.0
 10
132.7535601577761
 20
95.78795091567777
 30
0.0
 10
132.6786258730412
 20
95.78795091567777
 30
0.0
 10
132.623399262254
 20
95.78795091567777
 30
0.0
 10
132.6212444946164
 20
95.78795091567777
 30
0.0
  0
SPLINE
  5
11B
330
1F
100
AcDbEntity
  8
0
  6
Continuous
 62
     7
370
    25
100
AcDbSpline
210
0.0
220
0.0
230
1.0
 70
    24
 71
     3
 72
     9
 73
     5
 74
     0
 42
0.000000001
 43
0.00000001
 40
0.0
 40
0.0
 40
0.0
 40
0.0
 40
0.0000166546199298
 40
1.0
 40
1.0
 40
1.0
 40
1.0
 10
132.8211826009709
 20
61.98795168457769
 30
0.0
 10
132.8211826009743
 20
61.98795168457769
 30
0.0
 10
132.8211828004403
 20
61.98795168462799
 30
0.0
 10
132.7852491825789
 20
61.98795168460285
 30
0.0
 10
132.7493161631782
 20
61.98795168457769
 30
0.0
  0
SPLINE
  5
11C
330
1F
100
AcDbEntity
  8
0
  6
Continuous
 62
     7
370
    25
100
AcDbSpline
210
0.0
220
0.0
230
1.0
 70
    24
 71
     3
 72
    12
 73
     8
 74
     0
 42
0.000000001
 43
0.00000001
 40
0.0
 40
0.0
 40
0.0
 40
0.0
 40
0.4999999999999978
 40
0.4999999999999978
 40
0.7499999999999989
 40
0.7499999999999989
 40
1.0
 40
1.0
 40
1.0
 40
1.0
 10
132.6211823714931
 20
90.73795091567777
 30
0.0
 10
132.6211823714931
 20
90.73795091567777
 30
0.0
 10
132.6484031196207
 20
90.73795091567777
 30
0.0
 10
132.7288495653936
 20
90.73795091567777
 30
0.0
 10
132.7622967938717
 20
90.73795091567777
 30
0.0
 10
132.8447063636459
 20
90.73795091567777
 30
0.0
 10
132.8939894605296
 20
90.73795091567777
 30
0.0
 10
132.9503060831662
 20
90.73795091567777
 30
0.0
  0
SPLINE
  5
11D
330
1F
100
AcDbEntity
  8
0
  6
Continuous
 62
     7
370
    25
100
AcDbSpline
210
0.0
220
0.0
230
1.0
 70
     8
 71
     3
 72
    10
 73
     6
 74
     0
 42
0.000000001
 43
0.00000001
 40
0.0
 40
0.0
 40
0.0
 40
0.0
 40
0.5
 40
0.5
 40
1.0
 40
1.0
 40
1.0
 40
1.0
 10
132.621182371493
 20
91.76535360410838
 30
0.0
 10
132.621182371493
 20
91.5826448919734
 30
0.0
 10
132.6481557052011
 20
91.39913660221262
 30
0.0
 10
132.7557460729869
 20
91.05083262389195
 30
0.0
 10
132.8372106173301
 20
90.88264504134906
 30
0.0
 10
132.9503060831659
 20
90.73795091567632
 30
0.0
  0
LINE
  5
11E
330
1F
100
AcDbEntity
  8
0
  6
Continuous
 62
     7
370
    25
100
AcDbLine
 10
129.1111827565
 20
61.9879516846
 30
0.0
 11
128.231182575
 21
61.9879516846
 31
0.0
  0
LINE
  5
11F
330
1F
100
AcDbEntity
  8
0
  6
Continuous
 62
     7
370
    25
100
AcDbLine
 10
128.231182575
 20
90.7379512748
 30
0.0
 11
129.1111827565
 21
90.7379512748
 31
0.0
  0
ELLIPSE
  5
120
330
1F
100
AcDbEntity
  8
0
  6
Continuous
 62
     7
370
    25
100
AcDbEllipse
 10
142.1959275432
 20
78.8879509157
 30
0.0
 11
0.0
 21
16.5
 31
0.0
210
0.0
220
0.0
230
1.0
 40
0.2679491924
 41
1.121364069898051
 42
2.020228583691742
  0
ELLIPSE
  5
121
330
1F
100
AcDbEntity
  8
0
  6
Continuous
 62
     7
370
    25
100
AcDbEllipse
 10
178.0382611798
 20
78.8879509157
 30
0.0
 11
29.72395706971392
 21
-16.406895264121
 31
0.0
210
0.0
220
0.0
230
1.0
 40
0.0588874455
 41
2.461868368521354
 42
3.035309767258783
  0
ELLIPSE
  5
122
330
1F
100
AcDbEntity
  8
0
  6
Continuous
 62
     7
370
    25
100
AcDbEllipse
 10
191.4311127232
 20
78.8879509157
 30
0.0
 11
66.17788540334129
 21
0.0
 31
0.0
210
0.0
220
0.0
230
1.0
 40
0.2493280028
 41
2.14423772553232
 42
2.451731689899256
  0
SPLINE
  5
123
330
1F
100
AcDbEntity
  8
0
  6
Continuous
 62
     7
370
    25
100
AcDbSpline
210
0.0
220
0.0
230
1.0
 70
     8
 71
     3
 72
    18
 73
    14
 74
     0
 42
0.000000001
 43
0.00000001
 40
0.0
 40
0.0
 40
0.0
 40
0.0
 40
0.1249999999999998
 40
0.1249999999999998
 40
0.2499999999999996
 40
0.2499999999999996
 40
0.3749999999999993
 40
0.3749999999999993
 40
0.4999999999999991
 40
0.4999999999999991
 40
0.7499999999999996
 40
0.7499999999999996
 40
1.0
 40
1.0
 40
1.0
 40
1.0
 10
140.3858259575441
 20
89.3890450060364
 30
0.0
 10
140.1991494862235
 20
89.33263543493142
 30
0.0
 10
140.0279051660912
 20
89.25740762062635
 30
0.0
 10
139.7098803882042
 20
89.07565187249448
 30
0.0
 10
139.5620900645524
 20
88.9676219242039
 30
0.0
 10
139.2991494617891
 20
88.73277034187164
 30
0.0
 10
139.1823366106293
 20
88.60532155064135
 30
0.0
 10
138.9719166177529
 20
88.33309408589078
 30
0.0
 10
138.8782347241724
 20
88.18768608648865
 30
0.0
 10
138.6324366722703
 20
87.74007940289002
 30
0.0
 10
138.5115867733902
 20
87.42289480169822
 30
0.0
 10
138.3246541972193
 20
86.75764676704146
 30
0.0
 10
138.2596235023282
 20
86.41087937593248
 30
0.0
 10
138.213814165476
 20
86.05644589885816
 30
0.0
  0
SPLINE
  5
124
330
1F
100
AcDbEntity
  8
0
  6
Continuous
 62
     7
370
    25
100
AcDbSpline
210
0.0
220
0.0
230
1.0
 70
     8
 71
     3
 72
    20
 73
    16
 74
     0
 42
0.000000001
 43
0.00000001
 40
0.0
 40
0.0
 40
0.0
 40
0.0
 40
0.2499999999999996
 40
0.2499999999999996
 40
0.3749999999999997
 40
0.3749999999999997
 40
0.4999999999999998
 40
0.4999999999999998
 40
0.6249999999999999
 40
0.6249999999999999
 40
0.7499999999999999
 40
0.7499999999999999
 40
0.875
 40
0.875
 40
1.0
 40
1.0
 40
1.0
 40
1.0
 10
138.213814165476
 20
71.71945593249737
 30
0.0
 10
138.2595882993212
 20
71.36529482618914
 30
0.0
 10
138.3239414856583
 20
71.02214574107772
 30
0.0
 10
138.4627657770802
 20
70.52608975050536
 30
0.0
 10
138.5161470353943
 20
70.36385892816288
 30
0.0
 10
138.6408746212861
 20
70.04623170740909
 30
0.0
 10
138.7126641656191
 20
69.88999838384363
 30
0.0
 10
138.8772783460123
 20
69.58968874560658
 30
0.0
 10
138.969719764494
 20
69.44599557096461
 30
0.0
 10
139.1800270783704
 20
69.1732298429078
 30
0.0
 10
139.2991235227974
 20
69.0431846962686
 30
0.0
 10
139.5616082415372
 20
68.80868027799278
 30
0.0
 10
139.7052054766961
 20
68.70337605006367
 30
0.0
 10
140.0233206928454
 20
68.52067301829196
 30
0.0
 10
140.1991944063896
 20
68.44325282252653
 30
0.0
 10
140.3858259575441
 20
68.38685682531914
 30
0.0
  0
ELLIPSE
  5
125
330
1F
100
AcDbEntity
  8
0
  6
Continuous
 62
     7
370
    25
100
AcDbEllipse
 10
191.4311127232
 20
78.8879509157
 30
0.0
 11
66.17788540334129
 21
0.0
 31
0.0
210
0.0
220
0.0
230
1.0
 40
0.2493280028
 41
3.831453617280364
 42
4.138947581647285
  0
ELLIPSE
  5
126
330
1F
100
AcDbEntity
  8
0
  6
Continuous
 62
     7
370
    25
100
AcDbEllipse
 10
178.0382611798
 20
78.8879509157
 30
0.0
 11
29.72395706971392
 21
16.40689526412102
 31
0.0
210
0.0
220
0.0
230
1.0
 40
0.0588874455
 41
3.24787553992103
 42
3.821316938658369
  0
LINE
  5
127
330
1F
100
AcDbEntity
  8
0
  6
Continuous
 62
     7
370
    25
100
AcDbLine
 10
98.8711825309
 20
64.3754324949
 30
0.0
 11
98.8711825309
 21
65.2512044719
 31
0.0
  0
SPLINE
  5
128
330
1F
100
AcDbEntity
  8
0
  6
Continuous
 62
     7
370
    25
100
AcDbSpline
210
0.0
220
0.0
230
1.0
 70
     8
 71
     3
 72
    12
 73
     8
 74
     0
 42
0.000000001
 43
0.00000001
 40
0.0
 40
0.0
 40
0.0
 40
0.0
 40
0.25
 40
0.25
 40
0.5
 40
0.5
 40
1.0
 40
1.0
 40
1.0
 40
1.0
 10
98.50344727863619
 20
65.95757505279302
 30
0.0
 10
98.52887149553014
 20
65.89068945971924
 30
0.0
 10
98.5694833350994
 20
65.82624097003563
 30
0.0
 10
98.65408448137156
 20
65.70124030995778
 30
0.0
 10
98.6981812776571
 20
65.64072156476566
 30
0.0
 10
98.81425038614317
 20
65.46451550865723
 30
0.0
 10
98.87118237149306
 20
65.35412109368544
 30
0.0
 10
98.87118237149306
 20
65.25120421759229
 30
0.0
  0
SPLINE
  5
129
330
1F
100
AcDbEntity
  8
0
  6
Continuous
 62
     7
370
    25
100
AcDbSpline
210
0.0
220
0.0
230
1.0
 70
     8
 71
     3
 72
    14
 73
    10
 74
     0
 42
0.000000001
 43
0.00000001
 40
0.0
 40
0.0
 40
0.0
 40
0.0
 40
0.1249999999999986
 40
0.1249999999999986
 40
0.2499999999999972
 40
0.2499999999999972
 40
0.4999999999999989
 40
0.4999999999999989
 40
1.0
 40
1.0
 40
1.0
 40
1.0
 10
97.97118237149304
 20
66.44758086816675
 30
0.0
 10
98.02019469430442
 20
66.45210592732191
 30
0.0
 10
98.07300091929989
 20
66.4439865417674
 30
0.0
 10
98.15806801102939
 20
66.41365646661595
 30
0.0
 10
98.19265219637013
 20
66.39300150953947
 30
0.0
 10
98.28120788170739
 20
66.32846538621264
 30
0.0
 10
98.3221435830286
 20
66.28122720616001
 30
0.0
 10
98.42602410993153
 20
66.14143110487633
 30
0.0
 10
98.46924790936365
 20
66.04754616600704
 30
0.0
 10
98.50344727863619
 20
65.95757505279303
 30
0.0
  0
SPLINE
  5
12A
330
1F
100
AcDbEntity
  8
0
  6
Continuous
 62
     7
370
    25
100
AcDbSpline
210
0.0
220
0.0
230
1.0
 70
     8
 71
     3
 72
    10
 73
     6
 74
     0
 42
0.000000001
 43
0.00000001
 40
0.0
 40
0.0
 40
0.0
 40
0.0
 40
0.5
 40
0.5
 40
1.0
 40
1.0
 40
1.0
 40
1.0
 10
95.05035897979457
 20
66.12132878860027
 30
0.0
 10
95.52326341038422
 20
66.18836170172376
 30
0.0
 10
96.00626834322864
 20
66.2462302028896
 30
0.0
 10
96.98208272158155
 20
66.35307135124981
 30
0.0
 10
97.47555693460559
 20
66.40182228558852
 30
0.0
 10
97.97118237149301
 20
66.4475808681668
 30
0.0
  0
SPLINE
  5
12B
330
1F
100
AcDbEntity
  8
0
  6
Continuous
 62
     7
370
    25
100
AcDbSpline
210
0.0
220
0.0
230
1.0
 70
     8
 71
     3
 72
    10
 73
     6
 74
     0
 42
0.000000001
 43
0.00000001
 40
0.0
 40
0.0
 40
0.0
 40
0.0
 40
0.5
 40
0.5
 40
1.0
 40
1.0
 40
1.0
 40
1.0
 10
93.78018237149305
 20
66.0368840381215
 30
0.0
 10
93.99554140205043
 20
66.04389686909202
 30
0.0
 10
94.20998274037443
 20
66.05267159274732
 30
0.0
 10
94.63497395899495
 20
66.07772477029513
 30
0.0
 10
94.84634669071765
 20
66.09241060309549
 30
0.0
 10
95.05035897979458
 20
66.12132878860025
 30
0.0
  0
SPLINE
  5
12C
330
1F
100
AcDbEntity
  8
0
  6
Continuous
 62
     7
370
    25
100
AcDbSpline
210
0.0
220
0.0
230
1.0
 70
     8
 71
     3
 72
     8
 73
     4
 74
     0
 42
0.000000001
 43
0.00000001
 40
0.0
 40
0.0
 40
0.0
 40
0.0
 40
1.0
 40
1.0
 40
1.0
 40
1.0
 10
93.71266622192398
 20
66.18477321613419
 30
0.0
 10
93.72680066655212
 20
66.13397689250097
 30
0.0
 10
93.74985804170073
 20
66.08473814194073
 30
0.0
 10
93.78018237149305
 20
66.0368840381215
 30
0.0
  0
ELLIPSE
  5
12D
330
1F
100
AcDbEntity
  8
0
  6
Continuous
 62
     7
370
    25
100
AcDbEllipse
 10
80.2444401637
 20
78.2486532379
 30
0.0
 11
13.37355272666626
 21
-13.37146352987013
 31
0.0
210
0.0
220
0.0
230
1.0
 40
0.1761188775
 41
0.3023035477142473
 42
0.3822730435340322
  0
ELLIPSE
  5
12E
330
1F
100
AcDbEntity
  8
0
  6
Continuous
 62
     7
370
    25
100
AcDbEllipse
 10
80.165061733
 20
79.527061367
 30
0.0
 11
13.36963611134306
 21
13.36754752639482
 31
0.0
210
0.0
220
0.0
230
1.0
 40
0.1761188775
 41
5.933076931846605
 42
5.976720052691198
  0
SPLINE
  5
12F
330
1F
100
AcDbEntity
  8
0
  6
Continuous
 62
     7
370
    25
100
AcDbSpline
210
0.0
220
0.0
230
1.0
 70
     8
 71
     3
 72
     8
 73
     4
 74
     0
 42
0.000000001
 43
0.00000001
 40
0.0
 40
0.0
 40
0.0
 40
0.0
 40
1.0
 40
1.0
 40
1.0
 40
1.0
 10
93.72118237149306
 20
91.75353146265611
 30
0.0
 10
93.67541746380375
 20
91.69201108349728
 30
0.0
 10
93.64103034217375
 20
91.62811622374784
 30
0.0
 10
93.62201508850085
 20
91.5613862787041
 30
0.0
  0
SPLINE
  5
130
330
1F
100
AcDbEntity
  8
0
  6
Continuous
 62
     7
370
    25
100
AcDbSpline
210
0.0
220
0.0
230
1.0
 70
     8
 71
     3
 72
    12
 73
     8
 74
     0
 42
0.000000001
 43
0.00000001
 40
0.0
 40
0.0
 40
0.0
 40
0.0
 40
0.2499999999999986
 40
0.2499999999999986
 40
0.4999999999999971
 40
0.4999999999999971
 40
1.0
 40
1.0
 40
1.0
 40
1.0
 10
95.4711823714931
 20
91.66874477433696
 30
0.0
 10
95.32913996830386
 20
91.68457050251317
 30
0.0
 10
95.18502186179973
 20
91.69559163628848
 30
0.0
 10
94.89526734812722
 20
91.71412799815565
 30
0.0
 10
94.74952544476844
 20
91.72139870389144
 30
0.0
 10
94.3108452055886
 20
91.73985955421942
 30
0.0
 10
94.0164695895174
 20
91.74773842104298
 30
0.0
 10
93.72118237149306
 20
91.75353146265611
 30
0.0
  0
SPLINE
  5
131
330
1F
100
AcDbEntity
  8
0
  6
Continuous
 62
     7
370
    25
100
AcDbSpline
210
0.0
220
0.0
230
1.0
 70
     8
 71
     3
 72
    20
 73
    16
 74
     0
 42
0.000000001
 43
0.00000001
 40
0.0
 40
0.0
 40
0.0
 40
0.0
 40
0.2499999999999978
 40
0.2499999999999978
 40
0.4999999999999956
 40
0.4999999999999956
 40
0.7499999999999933
 40
0.7499999999999933
 40
0.8749999999999936
 40
0.8749999999999936
 40
0.9374999999999948
 40
0.9374999999999948
 40
0.9687499999999973
 40
0.9687499999999973
 40
1.0
 40
1.0
 40
1.0
 40
1.0
 10
96.371182371494
 20
92.44547503742562
 30
0.0
 10
96.371182371494
 20
92.38486563772824
 30
0.0
 10
96.34578735191708
 20
92.3190396723247
 30
0.0
 10
96.25949416613514
 20
92.18499190297806
 30
0.0
 10
96.19885818745189
 20
92.11629654483629
 30
0.0
 10
96.05075639323063
 20
91.97589799318186
 30
0.0
 10
95.96398678645197
 20
91.90419448860048
 30
0.0
 10
95.81534899112279
 20
91.79803108685164
 30
0.0
 10
95.7630597742366
 20
91.76250273822012
 30
0.0
 10
95.67229594592668
 20
91.71279880770462
 30
0.0
 10
95.63992995347469
 20
91.6965378096895
 30
0.0
 10
95.58224079780847
 20
91.67742524134356
 30
0.0
 10
95.561253769921
 20
91.67203409926202
 30
0.0
 10
95.51596479093052
 20
91.66629673086952
 30
0.0
 10
95.49295052209203
 20
91.66631946452293
 30
0.0
 10
95.47118237149242
 20
91.6687447743358
 30
0.0
  0
LINE
  5
132
330
1F
100
AcDbEntity
  8
0
  6
Continuous
 62
     7
370
    25
100
AcDbLine
 10
96.3711821212
 20
92.445475336
 30
0.0
 11
96.3711821212
 21
93.2752185574
 31
0.0
  0
LINE
  5
133
330
1F
100
AcDbEntity
  8
0
  6
Continuous
 62
     7
370
    25
100
AcDbLine
 10
110.6711822765
 20
63.7842503449
 30
0.0
 11
110.6711822765
 21
93.9916514864
 31
0.0
  0
SPLINE
  5
134
330
1F
100
AcDbEntity
  8
0
  6
Continuous
 62
     7
370
    25
100
AcDbSpline
210
0.0
220
0.0
230
1.0
 70
     8
 71
     3
 72
    18
 73
    14
 74
     0
 42
0.000000001
 43
0.00000001
 40
0.0
 40
0.0
 40
0.0
 40
0.0
 40
0.0647987055308793
 40
0.1911457431666448
 40
0.3159453184352518
 40
0.3775977083606854
 40
0.4397856493455953
 40
0.5017220995336993
 40
0.5630628754677616
 40
0.6866516188868883
 40
0.8118021473332026
 40
0.9380327409414257
 40
1.0
 40
1.0
 40
1.0
 40
1.0
 10
103.9088292716105
 20
64.13386977074883
 30
0.0
 10
103.8981841448217
 20
64.13243506164079
 30
0.0
 10
103.8667827355732
 20
64.12820290088325
 30
0.0
 10
104.2856660837368
 20
64.18902023076119
 30
0.0
 10
104.9302296893954
 20
64.25457036402163
 30
0.0
 10
105.5838910462588
 20
64.28477495668893
 30
0.0
 10
106.1150760347228
 20
64.28834968258487
 30
0.0
 10
106.6664834260855
 20
64.27126922182806
 30
0.0
 10
107.3973852472694
 20
64.21825161541622
 30
0.0
 10
108.2592567491129
 20
64.10046750512717
 30
0.0
 10
109.0255610970376
 20
63.94792584838531
 30
0.0
 10
109.4260405472169
 20
63.84873293718299
 30
0.0
 10
109.3947830405718
 20
63.85667830983316
 30
0.0
 10
109.3844909889657
 20
63.85929445533298
 30
0.0
  0
SPLINE
  5
135
330
1F
100
AcDbEntity
  8
0
  6
Continuous
 62
     7
370
    25
100
AcDbSpline
210
0.0
220
0.0
230
1.0
 70
     8
 71
     3
 72
    18
 73
    14
 74
     0
 42
0.000000001
 43
0.00000001
 40
0.0
 40
0.0
 40
0.0
 40
0.0
 40
0.0628581906661193
 40
0.188821099002829
 40
0.3136429384039809
 40
0.4369193679427552
 40
0.4982390324135774
 40
0.5602488727579926
 40
0.6224808204920839
 40
0.684256874301895
 40
0.8091590031135478
 40
0.9354526781227457
 40
1.0
 40
1.0
 40
1.0
 40
1.0
 10
109.3844113608856
 20
93.91643508134625
 30
0.0
 10
109.3950713836614
 20
93.91907871442984
 30
0.0
 10
109.4270932601203
 20
93.92701998189094
 30
0.0
 10
109.0216193517439
 20
93.82732600784455
 30
0.0
 10
108.2586824918184
 20
93.67490856287672
 30
0.0
 10
107.3972799270726
 20
93.55762879644928
 30
0.0
 10
106.667153077037
 20
93.50473034113729
 30
0.0
 10
106.1153731497081
 20
93.48762589572173
 30
0.0
 10
105.5834056303566
 20
93.49117017485385
 30
0.0
 10
104.9287860139741
 20
93.52136089255981
 30
0.0
 10
104.2843802812194
 20
93.58702451222874
 30
0.0
 10
103.8669474422846
 20
93.64785000220947
 30
0.0
 10
103.8972599228008
 20
93.64336261444997
 30
0.0
 10
103.90751238149
 20
93.6418448647692
 30
0.0
  0
SPLINE
  5
136
330
1F
100
AcDbEntity
  8
0
  6
Continuous
 62
     7
370
    25
100
AcDbSpline
210
0.0
220
0.0
230
1.0
 70
     8
 71
     3
 72
    26
 73
    22
 74
     0
 42
0.000000001
 43
0.00000001
 40
0.0
 40
0.0
 40
0.0
 40
0.0
 40
0.2500000000000024
 40
0.2500000000000024
 40
0.3750000000000032
 40
0.3750000000000032
 40
0.4375000000000031
 40
0.4375000000000031
 40
0.4687500000000032
 40
0.4687500000000032
 40
0.5000000000000033
 40
0.5000000000000033
 40
0.5312500000000034
 40
0.5312500000000034
 40
0.5625000000000034
 40
0.5625000000000034
 40
0.6250000000000028
 40
0.6250000000000028
 40
0.7500000000000019
 40
0.7500000000000019
 40
1.0
 40
1.0
 40
1.0
 40
1.0
 10
93.5311524178809
 20
91.27603149529067
 30
0.0
 10
93.48376430845242
 20
91.14037575326759
 30
0.0
 10
93.42612300654804
 20
90.99641435493837
 30
0.0
 10
93.30407519400474
 20
90.75364178168397
 30
0.0
 10
93.25802618622821
 20
90.66860214123459
 30
0.0
 10
93.1673729020626
 20
90.52822616819425
 30
0.0
 10
93.13302040177699
 20
90.47831479085542
 30
0.0
 10
93.0705852293865
 20
90.40177952600115
 30
0.0
 10
93.04729121058845
 20
90.37537504701426
 30
0.0
 10
92.99823867346191
 20
90.32778028175323
 30
0.0
 10
92.97380722380508
 20
90.30833766790138
 30
0.0
 10
92.93317762818528
 20
90.2834298902333
 30
0.0
 10
92.91701534633413
 20
90.27736005892234
 30
0.0
 10
92.89003330223098
 20
90.27167118732854
 30
0.0
 10
92.87928377940815
 20
90.27206169540929
 30
0.0
 10
92.85124780525103
 20
90.27820404219771
 30
0.0
 10
92.83838657321837
 20
90.28886804861571
 30
0.0
 10
92.80738371205805
 20
90.3278808389759
 30
0.0
 10
92.7965242299889
 20
90.36393282938023
 30
0.0
 10
92.7732469740509
 20
90.4816122268793
 30
0.0
 10
92.77118237149296
 20
90.57294212721231
 30
0.0
 10
92.77118237149296
 20
90.66618238011857
 30
0.0
  0
SPLINE
  5
137
330
1F
100
AcDbEntity
  8
0
  6
Continuous
 62
     7
370
    25
100
AcDbSpline
210
0.0
220
0.0
230
1.0
 70
     8
 71
     3
 72
    24
 73
    20
 74
     0
 42
0.000000001
 43
0.00000001
 40
0.0
 40
0.0
 40
0.0
 40
0.0
 40
0.2499999999999998
 40
0.2499999999999998
 40
0.3749999999999999
 40
0.3749999999999999
 40
0.4375000000000001
 40
0.4375000000000001
 40
0.5000000000000001
 40
0.5000000000000001
 40
0.5312500000000002
 40
0.5312500000000002
 40
0.5625000000000003
 40
0.5625000000000003
 40
0.625000000000001
 40
0.625000000000001
 40
0.7500000000000008
 40
0.7500000000000008
 40
1.0
 40
1.0
 40
1.0
 40
1.0
 10
92.77118237149305
 20
67.34043771445639
 30
0.0
 10
92.77118237149305
 20
67.42534666812597
 30
0.0
 10
92.77390699992542
 20
67.50767636417287
 30
0.0
 10
92.8002643210434
 20
67.61008875159187
 30
0.0
 10
92.81247803931558
 20
67.64090584797626
 30
0.0
 10
92.84708868944797
 20
67.6700033640532
 30
0.0
 10
92.86147539981538
 20
67.67696100469182
 30
0.0
 10
92.90272388291777
 20
67.67585126341497
 30
0.0
 10
92.93126343284864
 20
67.6675578578062
 30
0.0
 10
92.99218609835994
 20
67.62297442394497
 30
0.0
 10
93.0152520684998
 20
67.60251271068766
 30
0.0
 10
93.05914794850605
 20
67.55790009240734
 30
0.0
 10
93.0800279840662
 20
67.53402401420094
 30
0.0
 10
93.1372382473593
 20
67.46412691703894
 30
0.0
 10
93.16958487113568
 20
67.41854932825446
 30
0.0
 10
93.25575081462753
 20
67.28966584063559
 30
0.0
 10
93.30141483466754
 20
67.20983266350353
 30
0.0
 10
93.42196239811875
 20
66.98405185439121
 30
0.0
 10
93.48102248681992
 20
66.84922046941989
 30
0.0
 10
93.5311524178809
 20
66.72096533075236
 30
0.0
  0
LINE
  5
138
330
1F
100
AcDbEntity
  8
0
  6
Continuous
 62
     7
370
    25
100
AcDbLine
 10
92.7711826487
 20
67.3404376095
 30
0.0
 11
92.7711826487
 21
90.6661826259
 31
0.0
  0
LINE
  5
139
330
1F
100
AcDbEntity
  8
0
  6
Continuous
 62
     7
370
    25
100
AcDbLine
 10
170.3222476615
 20
71.985046666
 30
0.0
 11
164.5031989289
 21
70.0941386705
 31
0.0
  0
ARC
  5
13A
330
1F
100
AcDbEntity
  8
0
  6
Continuous
 62
     7
370
    25
100
AcDbCircle
 10
167.4596821345
 20
61.0040345116
 30
0.0
 40
9.558806754244042
100
AcDbArc
 50
108.0166990828
 51
120.7700451516
  0
LINE
  5
13B
330
1F
100
AcDbEntity
  8
0
  6
Continuous
 62
     7
370
    25
100
AcDbLine
 10
162.5694566144
 20
69.2172239607
 30
0.0
 11
155.5278793646
 21
65.027308937
 31
0.0
  0
LINE
  5
13C
330
1F
100
AcDbEntity
  8
0
  6
Continuous
 62
     7
370
    25
100
AcDbLine
 10
162.5694566144
 20
88.5586778706
 30
0.0
 11
155.5278793646
 21
92.7485928944
 31
0.0
  0
ARC
  5
13D
330
1F
100
AcDbEntity
  8
0
  6
Continuous
 62
     7
370
    25
100
AcDbCircle
 10
167.4596821345
 20
96.7718673197
 30
0.0
 40
9.558806754244037
100
AcDbArc
 50
239.2299548484
 51
251.9833009172
  0
LINE
  5
13E
330
1F
100
AcDbEntity
  8
0
  6
Continuous
 62
     7
370
    25
100
AcDbLine
 10
170.3222476615
 20
85.7908551654
 30
0.0
 11
164.5031989289
 21
87.6817631608
 31
0.0
  0
LWPOLYLINE
  5
13F
330
1F
100
AcDbEntity
  8
0
  6
Continuous
 62
     7
370
    25
100
AcDbPolyline
 90
        3
 70
   128
 43
0.0
 10
152.0869106723
 20
79.3568626061
 10
152.1299638523
 20
78.8879509157
 10
152.0876333786
 20
78.4229566009
  0
SPLINE
  5
140
330
1F
100
AcDbEntity
  8
0
  6
Continuous
 62
     7
370
    25
100
AcDbSpline
210
0.0
220
0.0
230
1.0
 70
     8
 71
     3
 72
     8
 73
     4
 74
     0
 42
0.000000001
 43
0.00000001
 40
0.0
 40
0.0
 40
0.0
 40
0.0
 40
1.0
 40
1.0
 40
1.0
 40
1.0
 10
126.6360226725996
 20
94.99935991675524
 30
0.0
 10
126.9754457138813
 20
94.26956905523585
 30
0.0
 10
127.3079564573763
 20
93.5374006998142
 30
0.0
 10
127.631182371493
 20
92.80203881513322
 30
0.0
  0
LINE
  5
141
330
1F
100
AcDbEntity
  8
0
  6
Continuous
 62
     7
370
    25
100
AcDbLine
 10
127.631182663
 20
92.8020387029
 30
0.0
 11
127.631182663
 21
92.4037977195
 31
0.0
  0
SPLINE
  5
142
330
1F
100
AcDbEntity
  8
0
  6
Continuous
 62
     7
370
    25
100
AcDbSpline
210
0.0
220
0.0
230
1.0
 70
     8
 71
     3
 72
    12
 73
     8
 74
     0
 42
0.000000001
 43
0.00000001
 40
0.0
 40
0.0
 40
0.0
 40
0.0
 40
0.5000000000000032
 40
0.5000000000000032
 40
0.7500000000000016
 40
0.7500000000000016
 40
1.0
 40
1.0
 40
1.0
 40
1.0
 10
127.631182371493
 20
92.4037980959325
 30
0.0
 10
127.6311823714931
 20
92.21803201935441
 30
0.0
 10
127.6777281167497
 20
92.03285870736414
 30
0.0
 10
127.8278290651393
 20
91.79844810402064
 30
0.0
 10
127.8917658814334
 20
91.7283522066085
 30
0.0
 10
128.0471336131631
 20
91.62567168880443
 30
0.0
 10
128.138376896081
 20
91.59496177582896
 30
0.0
 10
128.231182371493
 20
91.59496177582896
 30
0.0
  0
LINE
  5
143
330
1F
100
AcDbEntity
  8
0
  6
Continuous
 62
     7
370
    25
100
AcDbLine
 10
128.231182575
 20
91.5949617585
 30
0.0
 11
129.1111827565
 21
91.5949617585
 31
0.0
  0
SPLINE
  5
144
330
1F
100
AcDbEntity
  8
0
  6
Continuous
 62
     7
370
    25
100
AcDbSpline
210
0.0
220
0.0
230
1.0
 70
     8
 71
     3
 72
    12
 73
     8
 74
     0
 42
0.000000001
 43
0.00000001
 40
0.0
 40
0.0
 40
0.0
 40
0.0
 40
0.25
 40
0.25
 40
0.5
 40
0.5
 40
1.0
 40
1.0
 40
1.0
 40
1.0
 10
129.111182371493
 20
91.59496177582903
 30
0.0
 10
129.2037243382149
 20
91.59496177582903
 30
0.0
 10
129.2959337153593
 20
91.62599512274528
 30
0.0
 10
129.4510706757361
 20
91.7288059885701
 30
0.0
 10
129.5148805731972
 20
91.79897880291576
 30
0.0
 10
129.6640070089983
 20
92.03189128644374
 30
0.0
 10
129.711182371493
 20
92.21868664851362
 30
0.0
 10
129.711182371493
 20
92.4037980959325
 30
0.0
  0
LINE
  5
145
330
1F
100
AcDbEntity
  8
0
  6
Continuous
 62
     7
370
    25
100
AcDbLine
 10
129.7111817373
 20
92.4037977195
 30
0.0
 11
129.7111817373
 21
92.8020387029
 31
0.0
  0
SPLINE
  5
146
330
1F
100
AcDbEntity
  8
0
  6
Continuous
 62
     7
370
    25
100
AcDbSpline
210
0.0
220
0.0
230
1.0
 70
     8
 71
     3
 72
     8
 73
     4
 74
     0
 42
0.000000001
 43
0.00000001
 40
0.0
 40
0.0
 40
0.0
 40
0.0
 40
1.0
 40
1.0
 40
1.0
 40
1.0
 10
129.711182371493
 20
92.80203881513313
 30
0.0
 10
130.034739929748
 20
93.53815521375572
 30
0.0
 10
130.3672342499649
 20
94.27024680917435
 30
0.0
 10
130.7063420703865
 20
94.99935991675524
 30
0.0
  0
LINE
  5
147
330
1F
100
AcDbEntity
  8
0
  6
Continuous
 62
     7
370
    25
100
AcDbLine
 10
130.7063427491
 20
94.9993602073
 30
0.0
 11
132.0211820973
 21
94.9993602073
 31
0.0
  0
SPLINE
  5
148
330
1F
100
AcDbEntity
  8
0
  6
Continuous
 62
     7
370
    25
100
AcDbSpline
210
0.0
220
0.0
230
1.0
 70
     8
 71
     3
 72
    12
 73
     8
 74
     0
 42
0.000000001
 43
0.00000001
 40
0.0
 40
0.0
 40
0.0
 40
0.0
 40
0.25
 40
0.25
 40
0.5
 40
0.5
 40
1.0
 40
1.0
 40
1.0
 40
1.0
 10
132.021182371493
 20
94.99935991675524
 30
0.0
 10
132.1104707305368
 20
94.99935991675524
 30
0.0
 10
132.198529561439
 20
94.97373528415048
 30
0.0
 10
132.3511832746882
 20
94.88519191121868
 30
0.0
 10
132.4169767680302
 20
94.82230942810402
 30
0.0
 10
132.5724174147462
 20
94.60494824017043
 30
0.0
 10
132.6211823714931
 20
94.42630123015908
 30
0.0
 10
132.6211823714931
 20
94.2482080749834
 30
0.0
  0
LINE
  5
149
330
1F
100
AcDbEntity
  8
0
  6
Continuous
 62
     7
370
    25
100
AcDbLine
 10
132.6211829407
 20
94.248208504
 30
0.0
 11
132.6211829407
 21
91.7653537428
 31
0.0
  0
SPLINE
  5
14A
330
1F
100
AcDbEntity
  8
0
  6
Continuous
 62
     7
370
    25
100
AcDbSpline
210
0.0
220
0.0
230
1.0
 70
     8
 71
     3
 72
    10
 73
     6
 74
     0
 42
0.000000001
 43
0.00000001
 40
0.0
 40
0.0
 40
0.0
 40
0.0
 40
0.5
 40
0.5
 40
1.0
 40
1.0
 40
1.0
 40
1.0
 10
132.6211823714931
 20
97.75882794882067
 30
0.0
 10
132.6211823714931
 20
97.9172623917085
 30
0.0
 10
132.5590211550101
 20
98.07628308651049
 30
0.0
 10
132.3385118143385
 20
98.30629091076612
 30
0.0
 10
132.1795967113933
 20
98.37512618558289
 30
0.0
 10
132.021182371493
 20
98.37512618558289
 30
0.0
  0
LINE
  5
14B
330
1F
100
AcDbEntity
  8
0
  6
Continuous
 62
     7
370
    25
100
AcDbLine
 10
132.6211829407
 20
94.248208504
 30
0.0
 11
132.6211829407
 21
97.7588280177
 31
0.0
  0
LINE
  5
14C
330
1F
100
AcDbEntity
  8
0
  6
Continuous
 62
     7
370
    25
100
AcDbLine
 10
129.1111827565
 20
95.7879501468
 30
0.0
 11
128.231182575
 21
95.7879501468
 31
0.0
  0
SPLINE
  5
14D
330
1F
100
AcDbEntity
  8
0
  6
Continuous
 62
     7
370
    25
100
AcDbSpline
210
0.0
220
0.0
230
1.0
 70
     8
 71
     3
 72
     8
 73
     4
 74
     0
 42
0.000000001
 43
0.00000001
 40
0.0
 40
0.0
 40
0.0
 40
0.0
 40
1.0
 40
1.0
 40
1.0
 40
1.0
 10
130.7063420703865
 20
98.37512618558284
 30
0.0
 10
130.3739839739968
 20
97.78431597191089
 30
0.0
 10
130.0422027025127
 20
97.19318330766569
 30
0.0
 10
129.711182371493
 20
96.60162761120799
 30
0.0
  0
LINE
  5
14E
330
1F
100
AcDbEntity
  8
0
  6
Continuous
 62
     7
370
    25
100
AcDbLine
 10
130.7063427491
 20
94.9993602073
 30
0.0
 11
130.7063427491
 21
98.3751270062
 31
0.0
  0
LINE
  5
14F
330
1F
100
AcDbEntity
  8
0
  6
Continuous
 62
     7
370
    25
100
AcDbLine
 10
129.7111817373
 20
92.8020387029
 30
0.0
 11
129.7111817373
 21
96.6016280538
 31
0.0
  0
LINE
  5
150
330
1F
100
AcDbEntity
  8
0
  6
Continuous
 62
     7
370
    25
100
AcDbLine
 10
132.0211820973
 20
98.3751270062
 30
0.0
 11
130.7063427491
 21
98.3751270062
 31
0.0
  0
SPLINE
  5
151
330
1F
100
AcDbEntity
  8
0
  6
Continuous
 62
     7
370
    25
100
AcDbSpline
210
0.0
220
0.0
230
1.0
 70
    24
 71
     3
 72
    12
 73
     8
 74
     0
 42
0.000000001
 43
0.00000001
 40
0.0
 40
0.0
 40
0.0
 40
0.0
 40
0.5
 40
0.5
 40
0.75
 40
0.75
 40
1.0
 40
1.0
 40
1.0
 40
1.0
 10
129.4628379857431
 20
95.78795091567777
 30
0.0
 10
129.4286922374521
 20
95.78795091567777
 30
0.0
 10
129.3894990790471
 20
95.78795091567777
 30
0.0
 10
129.3116514203933
 20
95.78795091567777
 30
0.0
 10
129.282246961608
 20
95.78795091567777
 30
0.0
 10
129.2092394403021
 20
95.78795091567777
 30
0.0
 10
129.1623341224943
 20
95.78795091567777
 30
0.0
 10
129.111182371493
 20
95.78795091567777
 30
0.0
  0
SPLINE
  5
152
330
1F
100
AcDbEntity
  8
0
  6
Continuous
 62
     7
370
    25
100
AcDbSpline
210
0.0
220
0.0
230
1.0
 70
     8
 71
     3
 72
    10
 73
     6
 74
     0
 42
0.000000001
 43
0.00000001
 40
0.0
 40
0.0
 40
0.0
 40
0.0
 40
0.5
 40
0.5
 40
1.0
 40
1.0
 40
1.0
 40
1.0
 10
129.7111823714931
 20
96.29055488749648
 30
0.0
 10
129.7111823714929
 20
96.19401234001997
 30
0.0
 10
129.6892417489115
 20
96.09755113974985
 30
0.0
 10
129.6031115635195
 20
95.92214854550555
 30
0.0
 10
129.5400292563759
 20
95.84573301313851
 30
0.0
 10
129.4628379857431
 20
95.78795091567778
 30
0.0
  0
SPLINE
  5
153
330
1F
100
AcDbEntity
  8
0
  6
Continuous
 62
     7
370
    25
100
AcDbSpline
210
0.0
220
0.0
230
1.0
 70
     8
 71
     3
 72
     8
 73
     4
 74
     0
 42
0.000000001
 43
0.00000001
 40
0.0
 40
0.0
 40
0.0
 40
0.0
 40
1.0
 40
1.0
 40
1.0
 40
1.0
 10
127.631182371493
 20
96.60162761120799
 30
0.0
 10
127.3001620404734
 20
97.19318330766569
 30
0.0
 10
126.9683807689893
 20
97.78431597191089
 30
0.0
 10
126.6360226725996
 20
98.37512618558284
 30
0.0
  0
LINE
  5
154
330
1F
100
AcDbEntity
  8
0
  6
Continuous
 62
     7
370
    25
100
AcDbLine
 10
127.631182663
 20
92.8020387029
 30
0.0
 11
127.631182663
 21
96.6016280538
 31
0.0
  0
SPLINE
  5
155
330
1F
100
AcDbEntity
  8
0
  6
Continuous
 62
     7
370
    25
100
AcDbSpline
210
0.0
220
0.0
230
1.0
 70
     8
 71
     3
 72
    10
 73
     6
 74
     0
 42
0.000000001
 43
0.00000001
 40
0.0
 40
0.0
 40
0.0
 40
0.0
 40
0.5
 40
0.5
 40
1.0
 40
1.0
 40
1.0
 40
1.0
 10
127.879526757243
 20
95.78795091567777
 30
0.0
 10
127.8022020253688
 20
95.84583291653942
 30
0.0
 10
127.7388221998323
 20
95.92290626117331
 30
0.0
 10
127.6532517510592
 20
96.09740931936716
 30
0.0
 10
127.631182371493
 20
96.19421452284762
 30
0.0
 10
127.631182371493
 20
96.29055488749762
 30
0.0
  0
SPLINE
  5
156
330
1F
100
AcDbEntity
  8
0
  6
Continuous
 62
     7
370
    25
100
AcDbSpline
210
0.0
220
0.0
230
1.0
 70
    24
 71
     3
 72
    12
 73
     8
 74
     0
 42
0.000000001
 43
0.00000001
 40
0.0
 40
0.0
 40
0.0
 40
0.0
 40
0.2499999999999989
 40
0.2499999999999989
 40
0.4999999999999978
 40
0.4999999999999978
 40
1.0
 40
1.0
 40
1.0
 40
1.0
 10
128.231182371493
 20
95.78795091567777
 30
0.0
 10
128.1795901712185
 20
95.78795091567777
 30
0.0
 10
128.1326851624239
 20
95.78795091567777
 30
0.0
 10
128.0593514365474
 20
95.78795091567777
 30
0.0
 10
128.0301216070984
 20
95.78795091567777
 30
0.0
 10
127.9518888270355
 20
95.78795091567777
 30
0.0
 10
127.9134546691278
 20
95.78795091567777
 30
0.0
 10
127.879526757243
 20
95.78795091567777
 30
0.0
  0
LINE
  5
157
330
1F
100
AcDbEntity
  8
0
  6
Continuous
 62
     7
370
    25
100
AcDbLine
 10
92.7711826487
 20
67.0694786197
 30
0.0
 11
92.7711826487
 21
67.3404376095
 31
0.0
  0
LINE
  5
158
330
1F
100
AcDbEntity
  8
0
  6
Continuous
 62
     7
370
    25
100
AcDbLine
 10
92.7711826487
 20
90.7618648445
 30
0.0
 11
92.7711826487
 21
90.6661826259
 31
0.0
  0
LINE
  5
159
330
1F
100
AcDbEntity
  8
0
  6
Continuous
 62
     7
370
    25
100
AcDbLine
 10
93.7211819662
 20
91.7679512015
 30
0.0
 11
93.7211819662
 21
91.7535315341
 31
0.0
  0
LINE
  5
15A
330
1F
100
AcDbEntity
  8
0
  6
Continuous
 62
     7
370
    25
100
AcDbLine
 10
92.7711826487
 20
90.8179509526
 30
0.0
 11
92.7711826487
 21
90.7618648445
 31
0.0
  0
LINE
  5
15B
330
1F
100
AcDbEntity
  8
0
  6
Continuous
 62
     7
370
    25
100
AcDbLine
 10
93.7801831139
 20
66.0079506299
 30
0.0
 11
93.7801831139
 21
66.0368840283
 31
0.0
  0
LINE
  5
15C
330
1F
100
AcDbEntity
  8
0
  6
Continuous
 62
     7
370
    25
100
AcDbLine
 10
92.7711826487
 20
67.0169510951
 30
0.0
 11
92.7711826487
 21
67.0694786197
 31
0.0
  0
DIMENSION
  5
15D
330
1F
100
AcDbEntity
  8
VERMASSUNG
100
AcDbDimension
  2
_D
 10
201.1074245507
 20
62.3879509157
 30
0.0
 11
201.1074245507
 21
78.8879509157
 31
0.0
 70
   160
  1
%%c<>
 71
     2
 42
-1.0
  3
SLDDIMSTYLE0
100
AcDbAlignedDimension
 13
148.5845208912
 23
95.3879509157
 33
0.0
 14
148.5845208912
 24
62.3879509157
 34
0.0
 50
90.0
100
AcDbRotatedDimension
  0
LINE
  5
169
330
1F
100
AcDbEntity
  8
VERMASSUNG
  6
CENTERX2
370
    18
100
AcDbLine
 10
189.1315158579
 20
78.8879509157
 30
0.0
 11
194.283064081
 21
78.8879509157
 31
0.0
  0
LINE
  5
16A
330
1F
100
AcDbEntity
  8
VERMASSUNG
  6
CENTERX2
370
    18
100
AcDbLine
 10
188.4773313425
 20
78.8879509157
 30
0.0
 11
80.7367252357
 21
78.8879509157
 31
0.0
  0
LINE
  5
16B
330
1F
100
AcDbEntity
  8
VERMASSUNG
  6
CENTERX2
370
    18
100
AcDbLine
 10
152.1281411742
 20
79.0757099829
 30
0.0
 11
157.1400797206
 21
79.0757099829
 31
0.0
  0
LINE
  5
16C
330
1F
100
AcDbEntity
  8
0
  6
Continuous
 62
     7
370
    25
100
AcDbLine
 10
160.1535127236
 20
123.9701801161
 30
0.0
 11
160.3484944178
 21
124.0045608202
 31
0.0
  0
LINE
  5
16D
330
1F
100
AcDbEntity
  8
0
  6
Continuous
 62
     7
370
    25
100
AcDbLine
 10
159.7029798402
 20
124.2856470118
 30
0.0
 11
160.1535127236
 21
123.9701801161
 31
0.0
  0
LINE
  5
16E
330
1F
100
AcDbEntity
  8
0
  6
Continuous
 62
     7
370
    25
100
AcDbLine
 10
159.6385993732
 20
124.3825585763
 30
0.0
 11
159.7029798402
 21
124.2856470118
 31
0.0
  0
ARC
  5
16F
330
1F
100
AcDbEntity
  8
0
  6
Continuous
 62
     7
370
    25
100
AcDbCircle
 10
160.2979880161
 20
164.5100463667
 30
0.0
 40
3.000000000000017
100
AcDbArc
 50
76.0
 51
146.5287793655
  0
ARC
  5
170
330
1F
100
AcDbEntity
  8
0
  6
Continuous
 62
     7
370
    25
100
AcDbCircle
 10
165.9675673658
 20
163.0964614704
 30
0.0
 40
2.999999999999994
100
AcDbArc
 50
5.4712206345
 51
76.0
  0
LINE
  5
171
330
1F
100
AcDbEntity
  8
0
  6
Continuous
 62
     7
370
    25
100
AcDbLine
 10
157.7955008222
 20
166.1646005879
 30
0.0
 11
157.3116563929
 21
164.2240093271
 31
0.0
  0
LINE
  5
172
330
1F
100
AcDbEntity
  8
0
  6
Continuous
 62
     7
370
    25
100
AcDbLine
 10
168.4700556768
 20
161.4419066528
 30
0.0
 11
168.9539001061
 21
163.3824979136
 31
0.0
  0
LINE
  5
173
330
1F
100
AcDbEntity
  8
0
  6
Continuous
 62
     7
370
    25
100
AcDbLine
 10
156.4960338844
 20
149.9987759809
 30
0.0
 11
156.3992620183
 21
149.6106575424
 31
0.0
  0
LINE
  5
174
330
1F
100
AcDbEntity
  8
0
  6
Continuous
 62
     7
370
    25
100
AcDbLine
 10
162.4150954856
 20
148.1107420469
 30
0.0
 11
162.5118673516
 21
148.4988600197
 31
0.0
  0
ARC
  5
175
330
1F
100
AcDbEntity
  8
0
  6
Continuous
 62
     7
370
    25
100
AcDbCircle
 10
156.2288751628
 20
150.5806925222
 30
0.0
 40
0.5000000000000301
100
AcDbArc
 50
112.8698976458
 51
256.0
  0
ARC
  5
176
330
1F
100
AcDbEntity
  8
0
  6
Continuous
 62
     7
370
    25
100
AcDbCircle
 10
163.0209452467
 20
148.887239253
 30
0.0
 40
0.500000000000037
100
AcDbArc
 50
256.0
 51
39.1301023542
  0
LWPOLYLINE
  5
177
330
1F
100
AcDbEntity
  8
0
  6
Continuous
 62
     7
370
    25
100
AcDbPolyline
 90
       18
 70
   128
 43
0.0
 10
156.1079145147
 20
150.095545053
 10
156.1657384707
 20
150.0811272482
 10
156.3372396601
 20
150.0383674348
 10
156.6165805532
 20
149.9687194074
 10
156.9942504836
 20
149.8745561759
 10
157.4573822988
 20
149.7590852151
 10
157.9902068449
 20
149.6262367065
 10
158.5745819582
 20
149.4805359463
 10
159.1906034125
 20
149.3269440899
 10
159.8172940983
 20
149.1706923763
 10
160.4333192779
 20
149.0171005199
 10
161.0176906658
 20
148.8713997597
 10
161.5505189372
 20
148.7385512511
 10
162.0136507524
 20
148.623079359
 10
162.3913169576
 20
148.5289165931
 10
162.6706578506
 20
148.4592690314
 10
162.8421590401
 20
148.4165087523
 10
162.8999829961
 20
148.4020914132
  0
LINE
  5
178
330
1F
100
AcDbEntity
  8
0
  6
Continuous
 62
     7
370
    25
100
AcDbLine
 10
169.0211564971
 20
158.485285304
 30
0.0
 11
169.4410041643
 21
160.1692096511
 31
0.0
  0
LINE
  5
179
330
1F
100
AcDbEntity
  8
0
  6
Continuous
 62
     7
370
    25
100
AcDbLine
 10
168.3302418066
 20
155.7141815493
 30
0.0
 11
168.5000703407
 21
156.3953285287
 31
0.0
  0
LINE
  5
17A
330
1F
100
AcDbEntity
  8
0
  6
Continuous
 62
     7
370
    25
100
AcDbLine
 10
169.4410041643
 20
160.1692096511
 30
0.0
 11
168.7126316799
 21
161.3814265648
 31
0.0
  0
LINE
  5
17B
330
1F
100
AcDbEntity
  8
0
  6
Continuous
 62
     7
370
    25
100
AcDbLine
 10
157.0690803899
 20
164.2844894151
 30
0.0
 11
156.6785023285
 21
164.0498054395
 31
0.0
  0
LINE
  5
17C
330
1F
100
AcDbEntity
  8
0
  6
Continuous
 62
     7
370
    25
100
AcDbLine
 10
167.6936865522
 20
155.0550081948
 30
0.0
 11
168.3302418066
 21
155.7141815493
 31
0.0
  0
LINE
  5
17D
330
1F
100
AcDbEntity
  8
0
  6
Continuous
 62
     7
370
    25
100
AcDbLine
 10
143.9356178714
 20
153.0273773889
 30
0.0
 11
143.8630436285
 21
152.7362887929
 31
0.0
  0
LINE
  5
17E
330
1F
100
AcDbEntity
  8
0
  6
Continuous
 62
     7
370
    25
100
AcDbLine
 10
190.5972593201
 20
133.5194365303
 30
0.0
 11
191.2939929141
 21
136.3138880762
 31
0.0
  0
LINE
  5
17F
330
1F
100
AcDbEntity
  8
0
  6
Continuous
 62
     7
370
    25
100
AcDbLine
 10
190.2335890306
 20
133.3009245055
 30
0.0
 11
190.5972593201
 21
133.5194365303
 31
0.0
  0
LINE
  5
180
330
1F
100
AcDbEntity
  8
0
  6
Continuous
 62
     7
370
    25
100
AcDbLine
 10
163.7417458667
 20
148.089154921
 30
0.0
 11
163.6691697611
 21
147.798066325
 31
0.0
  0
LINE
  5
181
330
1F
100
AcDbEntity
  8
0
  6
Continuous
 62
     7
370
    25
100
AcDbLine
 10
191.5196337475
 20
136.2576292078
 30
0.0
 11
192.6711805834
 21
140.8762366692
 31
0.0
  0
ARC
  5
182
330
1F
100
AcDbEntity
  8
0
  6
Continuous
 62
     7
370
    25
100
AcDbCircle
 10
112.9711823715
 20
121.1762366692
 30
0.0
 40
0.2999999999999972
100
AcDbArc
 50
180.0
 51
270.0
  0
ARC
  5
183
330
1F
100
AcDbEntity
  8
0
  6
Continuous
 62
     7
370
    25
100
AcDbCircle
 10
112.9711823715
 20
160.5762366692
 30
0.0
 40
0.2999999999999972
100
AcDbArc
 50
90.0
 51
180.0
  0
LINE
  5
184
330
1F
100
AcDbEntity
  8
0
  6
Continuous
 62
     7
370
    25
100
AcDbLine
 10
124.6616280375
 20
120.8762371162
 30
0.0
 11
126.6360225825
 21
120.8762371162
 31
0.0
  0
LINE
  5
185
330
1F
100
AcDbEntity
  8
0
  6
Continuous
 62
     7
370
    25
100
AcDbLine
 10
112.9711823857
 20
120.8762371162
 30
0.0
 11
114.6711824665
 21
120.8762371162
 31
0.0
  0
LINE
  5
186
330
1F
100
AcDbEntity
  8
0
  6
Continuous
 62
     7
370
    25
100
AcDbLine
 10
126.6360225825
 20
160.8762362222
 30
0.0
 11
112.9711823857
 21
160.8762362222
 31
0.0
  0
ARC
  5
187
330
1F
100
AcDbEntity
  8
0
  6
Continuous
 62
     7
370
    25
100
AcDbCircle
 10
132.0211823715
 20
160.2762366692
 30
0.0
 40
0.6000000000000227
100
AcDbArc
 50
0.0
 51
90.0
  0
ARC
  5
188
330
1F
100
AcDbEntity
  8
0
  6
Continuous
 62
     7
370
    25
100
AcDbCircle
 10
132.0211823715
 20
121.4762366692
 30
0.0
 40
0.6000000000000227
100
AcDbArc
 50
270.0
 51
0.0
  0
LINE
  5
189
330
1F
100
AcDbEntity
  8
0
  6
Continuous
 62
     7
370
    25
100
AcDbLine
 10
129.7111817373
 20
122.599904723
 30
0.0
 11
130.7063427491
 21
120.8762371162
 31
0.0
  0
LINE
  5
18A
330
1F
100
AcDbEntity
  8
0
  6
Continuous
 62
     7
370
    25
100
AcDbLine
 10
130.7063427491
 20
160.8762362222
 30
0.0
 11
129.7111817373
 21
159.1525686155
 31
0.0
  0
LINE
  5
18B
330
1F
100
AcDbEntity
  8
0
  6
Continuous
 62
     7
370
    25
100
AcDbLine
 10
130.7063427491
 20
120.8762371162
 30
0.0
 11
132.0211820973
 21
120.8762371162
 31
0.0
  0
LINE
  5
18C
330
1F
100
AcDbEntity
  8
0
  6
Continuous
 62
     7
370
    25
100
AcDbLine
 10
132.0211820973
 20
160.8762362222
 30
0.0
 11
130.7063427491
 21
160.8762362222
 31
0.0
  0
LINE
  5
18D
330
1F
100
AcDbEntity
  8
0
  6
Continuous
 62
     7
370
    25
100
AcDbLine
 10
126.6360225825
 20
120.8762371162
 30
0.0
 11
127.631182663
 21
122.599904723
 31
0.0
  0
LINE
  5
18E
330
1F
100
AcDbEntity
  8
0
  6
Continuous
 62
     7
370
    25
100
AcDbLine
 10
127.631182663
 20
159.1525686155
 30
0.0
 11
126.6360225825
 21
160.8762362222
 31
0.0
  0
ARC
  5
18F
330
1F
100
AcDbEntity
  8
0
  6
Continuous
 62
     7
370
    25
100
AcDbCircle
 10
128.2311823715
 20
122.9012366692
 30
0.0
 40
0.6000000000000085
100
AcDbArc
 50
90.0
 51
180.0
  0
ARC
  5
190
330
1F
100
AcDbEntity
  8
0
  6
Continuous
 62
     7
370
    25
100
AcDbCircle
 10
129.1111823715
 20
158.8512366692
 30
0.0
 40
0.5999999999999943
100
AcDbArc
 50
270.0
 51
0.0
  0
ARC
  5
191
330
1F
100
AcDbEntity
  8
0
  6
Continuous
 62
     7
370
    25
100
AcDbCircle
 10
129.1111823715
 20
122.9012366692
 30
0.0
 40
0.5999999999999943
100
AcDbArc
 50
0.0
 51
90.0
  0
ARC
  5
192
330
1F
100
AcDbEntity
  8
0
  6
Continuous
 62
     7
370
    25
100
AcDbCircle
 10
128.2311823715
 20
158.8512366692
 30
0.0
 40
0.6000000000000085
100
AcDbArc
 50
180.0
 51
270.0
  0
LINE
  5
193
330
1F
100
AcDbEntity
  8
0
  6
Continuous
 62
     7
370
    25
100
AcDbLine
 10
128.231182575
 20
123.501236848
 30
0.0
 11
129.1111827565
 21
123.501236848
 31
0.0
  0
ARC
  5
194
330
1F
100
AcDbEntity
  8
0
  6
Continuous
 62
     7
370
    25
100
AcDbCircle
 10
133.6211823715
 20
123.3762366692
 30
0.0
 40
1.000000000000014
100
AcDbArc
 50
90.0
 51
180.0
  0
ARC
  5
195
330
1F
100
AcDbEntity
  8
0
  6
Continuous
 62
     7
370
    25
100
AcDbCircle
 10
133.6211823715
 20
158.3762366692
 30
0.0
 40
1.0
100
AcDbArc
 50
180.0
 51
270.0
  0
LINE
  5
196
330
1F
100
AcDbEntity
  8
0
  6
Continuous
 62
     7
370
    25
100
AcDbLine
 10
129.1111827565
 20
158.2512364904
 30
0.0
 11
128.231182575
 21
158.2512364904
 31
0.0
  0
LINE
  5
197
330
1F
100
AcDbEntity
  8
0
  6
Continuous
 62
     7
370
    25
100
AcDbLine
 10
168.2908394111
 20
124.3762367586
 30
0.0
 11
186.4766486658
 21
124.3762367586
 31
0.0
  0
LINE
  5
198
330
1F
100
AcDbEntity
  8
0
  6
Continuous
 62
     7
370
    25
100
AcDbLine
 10
133.6211831046
 20
124.3762367586
 30
0.0
 11
159.5938027574
 21
124.3762367586
 31
0.0
  0
LINE
  5
199
330
1F
100
AcDbEntity
  8
0
  6
Continuous
 62
     7
370
    25
100
AcDbLine
 10
137.7747663034
 20
157.3762365798
 30
0.0
 11
133.6211831046
 21
157.3762365798
 31
0.0
  0
ARC
  5
19A
330
1F
100
AcDbEntity
  8
0
  6
Continuous
 62
     7
370
    25
100
AcDbCircle
 10
112.1711756188
 20
125.4225295157
 30
0.0
 40
0.6000067526677282
100
AcDbArc
 50
33.5571153394
 51
90.0
  0
ARC
  5
19B
330
1F
100
AcDbEntity
  8
0
  6
Continuous
 62
     7
370
    25
100
AcDbCircle
 10
112.1711756188
 20
156.3299438227
 30
0.0
 40
0.600006752667744
100
AcDbArc
 50
270.0
 51
326.4428846606
  0
LINE
  5
19C
330
1F
100
AcDbEntity
  8
0
  6
Continuous
 62
     7
370
    25
100
AcDbLine
 10
110.6711822765
 20
155.97993724
 30
0.0
 11
93.5311530454
 21
155.1212177793
 31
0.0
  0
LINE
  5
19D
330
1F
100
AcDbEntity
  8
0
  6
Continuous
 62
     7
370
    25
100
AcDbLine
 10
93.5311530454
 20
126.6312555591
 30
0.0
 11
110.6711822765
 21
125.7725360984
 31
0.0
  0
LINE
  5
19E
330
1F
100
AcDbEntity
  8
0
  6
Continuous
 62
     7
370
    25
100
AcDbLine
 10
110.6711822765
 20
125.7725360984
 30
0.0
 11
111.5278942714
 21
126.0020912806
 31
0.0
  0
LINE
  5
19F
330
1F
100
AcDbEntity
  8
0
  6
Continuous
 62
     7
370
    25
100
AcDbLine
 10
111.5278942714
 20
155.7503820578
 30
0.0
 11
110.6711822765
 21
155.97993724
 31
0.0
  0
ARC
  5
1A0
330
1F
100
AcDbEntity
  8
0
  6
Continuous
 62
     7
370
    25
100
AcDbCircle
 10
111.6831874609
 20
125.4225295157
 30
0.0
 40
0.6000067526677242
100
AcDbArc
 50
90.0
 51
105.0
  0
ARC
  5
1A1
330
1F
100
AcDbEntity
  8
0
  6
Continuous
 62
     7
370
    25
100
AcDbCircle
 10
111.6831874609
 20
156.3299438227
 30
0.0
 40
0.6000067526677242
100
AcDbArc
 50
255.0
 51
270.0
  0
LINE
  5
1A2
330
1F
100
AcDbEntity
  8
0
  6
Continuous
 62
     7
370
    25
100
AcDbLine
 10
111.6831874212
 20
126.0225366051
 30
0.0
 11
112.1711755957
 21
126.0225366051
 31
0.0
  0
LINE
  5
1A3
330
1F
100
AcDbEntity
  8
0
  6
Continuous
 62
     7
370
    25
100
AcDbLine
 10
112.1711755957
 20
155.7299367333
 30
0.0
 11
111.6831874212
 21
155.7299367333
 31
0.0
  0
ARC
  5
1A4
330
1F
100
AcDbEntity
  8
0
  6
Continuous
 62
     7
370
    25
100
AcDbCircle
 10
93.5711823715
 20
127.4302530781
 30
0.0
 40
0.8000000000000114
100
AcDbArc
 50
180.0
 51
267.1318680593
  0
ARC
  5
1A5
330
1F
100
AcDbEntity
  8
0
  6
Continuous
 62
     7
370
    25
100
AcDbCircle
 10
93.5711823715
 20
154.3222202604
 30
0.0
 40
0.8000000000000114
100
AcDbArc
 50
92.8681319407
 51
180.0
  0
LWPOLYLINE
  5
1A6
330
1F
100
AcDbEntity
  8
0
  6
Continuous
 62
     7
370
    25
100
AcDbPolyline
 90
        5
 70
   128
 43
0.0
 10
160.1535127236
 20
123.9701801161
 10
160.1894655002
 20
124.0215239296
 10
160.2955170644
 20
124.1729830573
 10
160.4663551522
 20
124.4169634948
 10
160.4933858587
 20
124.4555668155
  0
LWPOLYLINE
  5
1A7
330
1F
100
AcDbEntity
  8
0
  6
Continuous
 62
     7
370
    25
100
AcDbPolyline
 90
        5
 70
   128
 43
0.0
 10
160.3484944178
 20
124.0045608202
 10
160.3824318124
 20
124.0530305723
 10
160.4825452639
 20
124.196007214
 10
160.6438168062
 20
124.4263232867
 10
160.6523253692
 20
124.4384751836
  0
LWPOLYLINE
  5
1A8
330
1F
100
AcDbEntity
  8
0
  6
Continuous
 62
     7
370
    25
100
AcDbPolyline
 90
        3
 70
   128
 43
0.0
 10
159.7029798402
 20
124.2856470118
 10
159.7389326168
 20
124.3369908253
 10
159.7803429438
 20
124.3961335341
  0
LWPOLYLINE
  5
1A9
330
1F
100
AcDbEntity
  8
0
  6
Continuous
 62
     7
370
    25
100
AcDbPolyline
 90
       13
 70
   128
 43
0.0
 10
163.0241357459
 20
164.8609538744
 10
163.8386071397
 20
164.6578845749
 10
164.6431878878
 20
164.457279555
 10
165.4207342042
 20
164.2634154479
 10
166.1546722723
 20
164.0804254631
 10
166.8293595983
 20
163.9122062544
 10
167.4304165615
 20
163.7623452763
 10
167.9450356139
 20
163.6340369652
 10
168.3622420503
 20
163.5300156842
 10
168.6731510533
 20
163.452497981
 10
168.8711316062
 20
163.4031360219
 10
168.9519629551
 20
163.3829822014
 10
168.9539001061
 20
163.3824979136
  0
LWPOLYLINE
  5
1AA
330
1F
100
AcDbEntity
  8
0
  6
Continuous
 62
     7
370
    25
100
AcDbPolyline
 90
       12
 70
   128
 43
0.0
 10
157.7955008222
 20
166.1646005879
 10
157.8015842212
 20
166.1630825321
 10
157.8989111556
 20
166.1388178537
 10
158.1129439844
 20
166.0854530702
 10
158.439119227
 20
166.0041281203
 10
158.8704929424
 20
165.8965752641
 10
159.3978599383
 20
165.7650874177
 10
160.0099921895
 20
165.6124659995
 10
160.6938325537
 20
165.4419650505
 10
161.4348151458
 20
165.2572167287
 10
162.2171410097
 20
165.0621623913
 10
163.0241357459
 20
164.8609538744
  0
LWPOLYLINE
  5
1AB
330
1F
100
AcDbEntity
  8
0
  6
Continuous
 62
     7
370
    25
100
AcDbPolyline
 90
       10
 70
   128
 43
0.0
 10
163.680423863
 20
166.7585515598
 10
164.2535784019
 20
166.6156475613
 10
164.8105651809
 20
166.4767761896
 10
165.3285742475
 20
166.3476222376
 10
165.786397524
 20
166.2334718923
 10
166.1652968003
 20
166.1390022556
 10
166.4497599674
 20
166.0680783162
 10
166.6281343175
 20
166.023603938
 10
166.6931220068
 20
166.0074007879
 10
166.6933343483
 20
166.0073486338
  0
LWPOLYLINE
  5
1AC
330
1F
100
AcDbEntity
  8
0
  6
Continuous
 62
     7
370
    25
100
AcDbPolyline
 90
        9
 70
   128
 43
0.0
 10
161.0237554384
 20
167.4209342519
 10
161.0350095404
 20
167.4181272457
 10
161.1436054779
 20
167.3910518358
 10
161.3633491768
 20
167.3362621287
 10
161.6852477862
 20
167.2560044745
 10
162.0961249543
 20
167.1535627166
 10
162.5791498197
 20
167.0331296692
 10
163.114555992
 20
166.8996376167
 10
163.680423863
 20
166.7585515598
  0
SPLINE
  5
1AD
330
1F
100
AcDbEntity
  8
0
  6
Continuous
 62
     7
370
    25
100
AcDbSpline
210
0.0
220
0.0
230
1.0
 70
     8
 71
     3
 72
    16
 73
    12
 74
     0
 42
0.000000001
 43
0.00000001
 40
0.0
 40
0.0
 40
0.0
 40
0.0
 40
0.0962627961947787
 40
0.1922733954454653
 40
0.294667605324336
 40
0.411847573391365
 40
0.5416905131465725
 40
0.673988033728908
 40
0.7979620902649768
 40
0.9113880093909993
 40
1.0
 40
1.0
 40
1.0
 40
1.0
 10
168.4908912254531
 20
156.3668971131108
 30
0.0
 10
168.4945157456549
 20
156.3768274222901
 30
0.0
 10
168.5017552902517
 20
156.3966620244334
 30
0.0
 10
168.5289797027221
 20
156.5543723076654
 30
0.0
 10
168.5705614767546
 20
156.792235007529
 30
0.0
 10
168.6337654316997
 20
157.1179907453516
 30
0.0
 10
168.7224956812859
 20
157.5051007284536
 30
0.0
 10
168.8297743294514
 20
157.8952241589127
 30
0.0
 10
168.9300914690805
 20
158.2117493468492
 30
0.0
 10
169.0013854382881
 20
158.419437359855
 30
0.0
 10
169.0144425602078
 20
158.4653807985622
 30
0.0
 10
169.0201692951877
 20
158.485531173136
 30
0.0
  0
ARC
  5
1AE
330
1F
100
AcDbEntity
  8
0
  6
Continuous
 62
     7
370
    25
100
AcDbCircle
 10
173.7844958499
 20
156.1813727343
 30
0.0
 40
5.296854653014631
100
AcDbArc
 50
154.0783948604
 51
177.9927826625
  0
LWPOLYLINE
  5
1AF
330
1F
100
AcDbEntity
  8
0
  6
Continuous
 62
     7
370
    25
100
AcDbPolyline
 90
       22
 70
   128
 43
0.0
 10
155.5675723327
 20
158.8962723682
 10
156.041805513
 20
158.7780316541
 10
156.6102699114
 20
158.6362992595
 10
157.2632201685
 20
158.4735003481
 10
157.9894617869
 20
158.2924270252
 10
158.7765411211
 20
158.0961861829
 10
159.6109688951
 20
157.8881398956
 10
160.4784362687
 20
157.6718569914
 10
161.3640681578
 20
157.4510441343
 10
162.252691455
 20
157.2294862191
 10
163.1290622724
 20
157.0109811793
 10
163.9781565143
 20
156.7992785195
 10
164.7854194714
 20
156.59800481
 10
165.5370116903
 20
156.4106115321
 10
166.2200473918
 20
156.2403117488
 10
166.8228142632
 20
156.0900251562
 10
167.3349820746
 20
155.9623277927
 10
167.7477665914
 20
155.8594091977
 10
168.0540897621
 20
155.783033296
 10
168.2487063779
 20
155.7345104585
 10
168.3282711281
 20
155.7146723563
 10
168.3302418066
 20
155.7141815493
  0
LINE
  5
1B0
330
1F
100
AcDbEntity
  8
0
  6
Continuous
 62
     7
370
    25
100
AcDbLine
 10
155.5675723327
 20
158.8962723682
 30
0.0
 11
156.6783346904
 21
163.35130047
 31
0.0
  0
LWPOLYLINE
  5
1B1
330
1F
100
AcDbEntity
  8
0
  6
Continuous
 62
     7
370
    25
100
AcDbPolyline
 90
       22
 70
   128
 43
0.0
 10
156.6783346904
 20
163.35130047
 10
157.1525678707
 20
163.2330597559
 10
157.7210322691
 20
163.0913254986
 10
158.3739825262
 20
162.9285265873
 10
159.1002241446
 20
162.747455127
 10
159.8873034788
 20
162.5512142847
 10
160.7217312528
 20
162.3431679974
 10
161.5891986264
 20
162.1268850932
 10
162.4748342408
 20
161.9060703734
 10
163.3634538127
 20
161.6845124582
 10
164.2398246301
 20
161.4660092811
 10
165.088918872
 20
161.2543066213
 10
165.8961818291
 20
161.0530329118
 10
166.647774048
 20
160.8656396339
 10
167.3308097495
 20
160.6953398506
 10
167.9335766209
 20
160.5450523267
 10
168.4457444323
 20
160.4173549632
 10
168.8585289491
 20
160.3144363681
 10
169.1648558451
 20
160.2380604664
 10
169.3594687356
 20
160.1895385603
 10
169.4390372111
 20
160.1696995268
 10
169.4410041643
 20
160.1692096511
  0
LWPOLYLINE
  5
1B2
330
1F
100
AcDbEntity
  8
0
  6
Continuous
 62
     7
370
    25
100
AcDbPolyline
 90
       13
 70
   128
 43
0.0
 10
162.7507143391
 20
162.8678993503
 10
163.5804258956
 20
162.6610283921
 10
164.3961005582
 20
162.4576592068
 10
165.1811309828
 20
162.2619287292
 10
165.9195393993
 20
162.07782302
 10
166.596290536
 20
161.9090897212
 10
167.1976119949
 20
161.7591635505
 10
167.7112587465
 20
161.6310973833
 10
168.1267776264
 20
161.5274970601
 10
168.4357085003
 20
161.4504710952
 10
168.6317593528
 20
161.4015896986
 10
168.7109441234
 20
161.3818475226
 10
168.7126316799
 20
161.3814265648
  0
LWPOLYLINE
  5
1B3
330
1F
100
AcDbEntity
  8
0
  6
Continuous
 62
     7
370
    25
100
AcDbPolyline
 90
       12
 70
   128
 43
0.0
 10
157.0690803899
 20
164.2844894151
 10
157.1100660337
 20
164.2742709438
 10
157.2670423163
 20
164.2351330439
 10
157.5385004951
 20
164.1674501071
 10
157.9189196898
 20
164.0726004908
 10
158.4005550219
 20
163.9525157581
 10
158.973597802
 20
163.8096396992
 10
159.6263841463
 20
163.6468817661
 10
160.3456296695
 20
163.4675537417
 10
161.1166828049
 20
163.2753082732
 10
161.9238563551
 20
163.0740587781
 10
162.7507143391
 20
162.8678993503
  0
SPLINE
  5
1B4
330
1F
100
AcDbEntity
  8
0
  6
Continuous
 62
     7
370
    25
100
AcDbSpline
210
0.0
220
0.0
230
1.0
 70
     8
 71
     3
 72
    14
 73
    10
 74
     0
 42
0.000000001
 43
0.00000001
 40
0.0
 40
0.0
 40
0.0
 40
0.0
 40
0.2406877491461776
 40
0.3654955208697271
 40
0.4913833587819017
 40
0.5985914835610815
 40
0.7015348667169123
 40
0.8683341002778279
 40
1.0
 40
1.0
 40
1.0
 40
1.0
 10
156.6783346904475
 20
163.3513004700206
 30
0.0
 10
156.8102516315381
 20
163.4888371183189
 30
0.0
 10
157.0105736307527
 20
163.6976929038202
 30
0.0
 10
157.1021660553131
 20
163.9105563585784
 30
0.0
 10
157.058341010428
 20
163.9974357293988
 30
0.0
 10
156.9037862481303
 20
163.9901514589432
 30
0.0
 10
156.6502643746701
 20
163.9047109433666
 30
0.0
 10
156.3183882361699
 20
163.7460417890475
 30
0.0
 10
156.0532400952587
 20
163.6005151273466
 30
0.0
 10
155.9362717641551
 20
163.5363170126937
 30
0.0
  0
ARC
  5
1B5
330
1F
100
AcDbEntity
  8
0
  6
Continuous
 62
     7
370
    25
100
AcDbCircle
 10
156.7222978843
 20
166.6983497819
 30
0.0
 40
3.258264614043022
100
AcDbArc
 50
255.9441440759
 51
256.0402194345
  0
SPLINE
  5
1B6
330
1F
100
AcDbEntity
  8
0
  6
Continuous
 62
     7
370
    25
100
AcDbSpline
210
0.0
220
0.0
230
1.0
 70
     8
 71
     3
 72
    10
 73
     6
 74
     0
 42
0.000000001
 43
0.00000001
 40
0.0
 40
0.0
 40
0.0
 40
0.0
 40
0.5344880104915063
 40
0.8116449037621598
 40
1.0
 40
1.0
 40
1.0
 40
1.0
 10
155.9309706760604
 20
163.5376394907496
 30
0.0
 10
156.112570313669
 20
163.6605025641188
 30
0.0
 10
156.3883378098465
 20
163.847075855574
 30
0.0
 10
156.6298465207951
 20
164.0180684903765
 30
0.0
 10
156.6651547241187
 20
164.0395492780893
 30
0.0
 10
156.6794411016662
 20
164.0482408175729
 30
0.0
  0
SPLINE
  5
1B7
330
1F
100
AcDbEntity
  8
0
  6
Continuous
 62
     7
370
    25
100
AcDbSpline
210
0.0
220
0.0
230
1.0
 70
     8
 71
     3
 72
    10
 73
     6
 74
     0
 42
0.000000001
 43
0.00000001
 40
0.0
 40
0.0
 40
0.0
 40
0.0
 40
0.1833042105997645
 40
0.8261394326833602
 40
1.0
 40
1.0
 40
1.0
 40
1.0
 10
155.0691582931239
 20
158.0172863970063
 30
0.0
 10
155.0574484748076
 20
158.0688646325102
 30
0.0
 10
155.0046731314101
 20
158.3013241820132
 30
0.0
 10
154.9143196852808
 20
158.697309230051
 30
0.0
 10
154.836726566437
 20
159.0149838870092
 30
0.0
 10
154.8202083183486
 20
159.0826113889478
 30
0.0
  0
LINE
  5
1B8
330
1F
100
AcDbEntity
  8
0
  6
Continuous
 62
     7
370
    25
100
AcDbLine
 10
154.8202083183
 20
159.0826113889
 30
0.0
 11
154.8255094064
 21
159.0812907735
 31
0.0
  0
SPLINE
  5
1B9
330
1F
100
AcDbEntity
  8
0
  6
Continuous
 62
     7
370
    25
100
AcDbSpline
210
0.0
220
0.0
230
1.0
 70
     8
 71
     3
 72
     9
 73
     5
 74
     0
 42
0.000000001
 43
0.00000001
 40
0.0
 40
0.0
 40
0.0
 40
0.0
 40
0.7552218868863902
 40
1.0
 40
1.0
 40
1.0
 40
1.0
 10
154.8255094064433
 20
159.0812907735369
 30
0.0
 10
154.9198232974435
 20
158.7869329928323
 30
0.0
 10
155.044705656705
 20
158.3971696851
 30
0.0
 10
155.1854687840785
 20
158.0786659986353
 30
0.0
 10
155.219924516793
 20
158.0007032672427
 30
0.0
  0
SPLINE
  5
1BA
330
1F
100
AcDbEntity
  8
0
  6
Continuous
 62
     7
370
    25
100
AcDbSpline
210
0.0
220
0.0
230
1.0
 70
     8
 71
     3
 72
    10
 73
     6
 74
     0
 42
0.000000001
 43
0.00000001
 40
0.0
 40
0.0
 40
0.0
 40
0.0
 40
0.1045466157475329
 40
0.8093728900291463
 40
1.0
 40
1.0
 40
1.0
 40
1.0
 10
155.5869661940295
 20
157.9603322962783
 30
0.0
 10
155.5913989405519
 20
157.9848469260491
 30
0.0
 10
155.6257161189508
 20
158.1746328565044
 30
0.0
 10
155.6036420955304
 20
158.5258654482742
 30
0.0
 10
155.5739032397684
 20
158.8312591385016
 30
0.0
 10
155.5675723327357
 20
158.8962723682187
 30
0.0
  0
LINE
  5
1BB
330
1F
100
AcDbEntity
  8
0
  6
Continuous
 62
     7
370
    25
100
AcDbLine
 10
155.9362717642
 20
163.5363170127
 30
0.0
 11
154.8255094064
 21
159.0812907735
 31
0.0
  0
LINE
  5
1BC
330
1F
100
AcDbEntity
  8
0
  6
Continuous
 62
     7
370
    25
100
AcDbLine
 10
154.8202083183
 20
159.0826113889
 30
0.0
 11
155.9309706761
 21
163.5376394907
 31
0.0
  0
SPLINE
  5
1BD
330
1F
100
AcDbEntity
  8
0
  6
Continuous
 62
     7
370
    25
100
AcDbSpline
210
0.0
220
0.0
230
1.0
 70
     8
 71
     3
 72
    14
 73
    10
 74
     0
 42
0.000000001
 43
0.00000001
 40
0.0
 40
0.0
 40
0.0
 40
0.0
 40
0.1531035544556454
 40
0.3061698069326617
 40
0.4598132245250997
 40
0.6133455784943094
 40
0.7553505276498799
 40
0.8972673645482032
 40
0.9999999999999999
 40
0.9999999999999999
 40
0.9999999999999999
 40
0.9999999999999999
 10
178.848394073363
 20
149.1220000381134
 30
0.0
 10
179.0796483769874
 20
148.9392556440349
 30
0.0
 10
179.5421006416964
 20
148.5738113795176
 30
0.0
 10
180.1066201644652
 20
147.8766360491819
 30
0.0
 10
180.5492909548412
 20
147.0852145897023
 30
0.0
 10
180.8411910368853
 20
146.2304304192127
 30
0.0
 10
180.9689996290294
 20
145.3455484998753
 30
0.0
 10
180.9552015566215
 20
144.5414724870518
 30
0.0
 10
180.850725169653
 20
144.0434665839447
 30
0.0
 10
180.8068536890704
 20
143.8343451073877
 30
0.0
  0
LWPOLYLINE
  5
1BE
330
1F
100
AcDbEntity
  8
0
  6
Continuous
 62
     7
370
    25
100
AcDbPolyline
 90
        4
 70
   128
 43
0.0
 10
175.2141349686
 20
145.2287666681
 10
175.9342708362
 20
145.0492179202
 10
176.6489454282
 20
144.871029369
 10
176.7309316171
 20
144.8505882355
  0
SPLINE
  5
1BF
330
1F
100
AcDbEntity
  8
0
  6
Continuous
 62
     7
370
    25
100
AcDbSpline
210
0.0
220
0.0
230
1.0
 70
     8
 71
     3
 72
    10
 73
     6
 74
     0
 42
0.000000001
 43
0.00000001
 40
0.0
 40
0.0
 40
0.0
 40
0.0
 40
0.4116161621104236
 40
0.8227987772374976
 40
1.0
 40
1.0
 40
1.0
 40
1.0
 10
175.2141349686343
 20
145.2287666680775
 30
0.0
 10
175.019749325622
 20
145.5198690342085
 30
0.0
 10
174.6311827820658
 20
146.1017671542325
 30
0.0
 10
173.899088099527
 20
146.5562576400731
 30
0.0
 10
173.4282216891915
 20
146.6974834712037
 30
0.0
 10
173.2864127231796
 20
146.7400158936642
 30
0.0
  0
LWPOLYLINE
  5
1C0
330
1F
100
AcDbEntity
  8
0
  6
Continuous
 62
     7
370
    25
100
AcDbPolyline
 90
        9
 70
   128
 43
0.0
 10
173.2864127232
 20
146.7400158937
 10
171.939485587
 20
147.0758433635
 10
170.5800042225
 20
147.4148000772
 10
169.209730692
 20
147.7564469161
 10
167.8304494096
 20
148.1003405707
 10
166.443941064
 20
148.4460358689
 10
165.0520049704
 20
148.7930839131
 10
163.65645162
 20
149.1410353402
 10
162.2590840532
 20
149.4894384588
  0
SPLINE
  5
1C1
330
1F
100
AcDbEntity
  8
0
  6
Continuous
 62
     7
370
    25
100
AcDbSpline
210
0.0
220
0.0
230
1.0
 70
     8
 71
     3
 72
    13
 73
     9
 74
     0
 42
0.000000001
 43
0.00000001
 40
0.0
 40
0.0
 40
0.0
 40
0.0
 40
0.1635391735639864
 40
0.3270849173028779
 40
0.4958211903406423
 40
0.6645722598723898
 40
0.8317546818827336
 40
1.0
 40
1.0
 40
1.0
 40
1.0
 10
163.9641605986316
 20
156.3281242916844
 30
0.0
 10
164.8530508230881
 20
156.0521454465006
 30
0.0
 10
166.6308669831041
 20
155.5001766687022
 30
0.0
 10
169.2489510159588
 20
154.4802263850691
 30
0.0
 10
171.8118229660697
 20
153.3235332877826
 30
0.0
 10
174.2856058477805
 20
152.0292616636015
 30
0.0
 10
176.6489924707528
 20
150.6324682829194
 30
0.0
 10
178.1137130809187
 20
149.6265519616151
 30
0.0
 10
178.848394073363
 20
149.1220000381134
 30
0.0
  0
SPLINE
  5
1C2
330
1F
100
AcDbEntity
  8
0
  6
Continuous
 62
     7
370
    25
100
AcDbSpline
210
0.0
220
0.0
230
1.0
 70
     8
 71
     3
 72
    16
 73
    12
 74
     0
 42
0.000000001
 43
0.00000001
 40
0.0
 40
0.0
 40
0.0
 40
0.0
 40
0.0951182498447075
 40
0.1936363151946598
 40
0.3110215712530311
 40
0.4317770468190978
 40
0.593621125907657
 40
0.7600369034051335
 40
0.8786867858792847
 40
0.9985545388593172
 40
0.9999999999999999
 40
0.9999999999999999
 40
0.9999999999999999
 40
0.9999999999999999
 10
150.8594610465724
 20
158.3326843748353
 30
0.0
 10
150.4968697248909
 20
158.3227480033963
 30
0.0
 10
149.7587269650462
 20
158.3025201043864
 30
0.0
 10
148.6662036240507
 20
158.0528479374781
 30
0.0
 10
147.6001722158942
 20
157.6340762159366
 30
0.0
 10
146.5037359019389
 20
156.9680727809915
 30
0.0
 10
145.4928394658654
 20
156.0560895211149
 30
0.0
 10
144.731372326475
 20
155.0130826460363
 30
0.0
 10
144.2266867652868
 20
153.9927590469816
 30
0.0
 10
144.0183084107587
 20
153.3578830021066
 30
0.0
 10
143.9365915375058
 20
153.0312690325245
 30
0.0
 10
143.9356178713996
 20
153.027377388861
 30
0.0
  0
SPLINE
  5
1C3
330
1F
100
AcDbEntity
  8
0
  6
Continuous
 62
     7
370
    25
100
AcDbSpline
210
0.0
220
0.0
230
1.0
 70
     8
 71
     3
 72
    10
 73
     6
 74
     0
 42
0.000000001
 43
0.00000001
 40
0.0
 40
0.0
 40
0.0
 40
0.0
 40
0.1480683723297169
 40
0.9078074069879805
 40
1.0
 40
1.0
 40
1.0
 40
1.0
 10
150.1972869707305
 20
151.1569836358092
 30
0.0
 10
150.2472392468034
 20
151.1993355517365
 30
0.0
 10
150.5534967243552
 20
151.4589952101358
 30
0.0
 10
150.956584948634
 20
151.6725237732098
 30
0.0
 10
151.3183736046832
 20
151.7814824015294
 30
0.0
 10
151.3575249088962
 20
151.7932734633348
 30
0.0
  0
SPLINE
  5
1C4
330
1F
100
AcDbEntity
  8
0
  6
Continuous
 62
     7
370
    25
100
AcDbSpline
210
0.0
220
0.0
230
1.0
 70
     8
 71
     3
 72
     9
 73
     5
 74
     0
 42
0.000000001
 43
0.00000001
 40
0.0
 40
0.0
 40
0.0
 40
0.0
 40
0.495225650821331
 40
1.0
 40
1.0
 40
1.0
 40
1.0
 10
152.9669956041533
 20
158.2485077152512
 30
0.0
 10
152.6144323399236
 20
158.268120406027
 30
0.0
 10
151.902507859346
 20
158.3077239498725
 30
0.0
 10
151.2093495706345
 20
158.3243114368777
 30
0.0
 10
150.8594610465724
 20
158.3326843748353
 30
0.0
  0
LINE
  5
1C5
330
1F
100
AcDbEntity
  8
0
  6
Continuous
 62
     7
370
    25
100
AcDbLine
 10
162.2590840532
 20
149.4894384588
 30
0.0
 11
152.9102035536
 21
151.8203758816
 31
0.0
  0
ARC
  5
1C6
330
1F
100
AcDbEntity
  8
0
  6
Continuous
 62
     7
370
    25
100
AcDbCircle
 10
152.1844372778
 20
148.9094887064
 30
0.0
 40
3.00000000000002
100
AcDbArc
 50
76.0
 51
106.0
  0
ARC
  5
1C7
330
1F
100
AcDbEntity
  8
0
  6
Continuous
 62
     7
370
    25
100
AcDbCircle
 10
149.9182316942
 20
108.3415434871
 30
0.0
 40
50.00000000000003
100
AcDbArc
 50
73.6849659708
 51
86.5042053002
  0
LINE
  5
1C8
330
1F
100
AcDbEntity
  8
0
  6
Continuous
 62
     7
370
    25
100
AcDbLine
 10
176.3581790699
 20
137.0696365549
 30
0.0
 11
190.2579971327
 21
133.6040239031
 31
0.0
  0
LINE
  5
1C9
330
1F
100
AcDbEntity
  8
0
  6
Continuous
 62
     7
370
    25
100
AcDbLine
 10
176.3581790699
 20
137.0696365549
 30
0.0
 11
177.0549126638
 21
139.8640882172
 31
0.0
  0
LINE
  5
1CA
330
1F
100
AcDbEntity
  8
0
  6
Continuous
 62
     7
370
    25
100
AcDbLine
 10
177.0549126638
 20
139.8640882172
 30
0.0
 11
190.9547307266
 21
136.398475449
 31
0.0
  0
LINE
  5
1CB
330
1F
100
AcDbEntity
  8
0
  6
Continuous
 62
     7
370
    25
100
AcDbLine
 10
190.0978841556
 20
133.3347594547
 30
0.0
 11
176.2856029643
 21
136.7785477261
 31
0.0
  0
LINE
  5
1CC
330
1F
100
AcDbEntity
  8
0
  6
Continuous
 62
     7
370
    25
100
AcDbLine
 10
176.3581790699
 20
137.0696365549
 30
0.0
 11
176.2856029643
 21
136.7785477261
 31
0.0
  0
LINE
  5
1CD
330
1F
100
AcDbEntity
  8
0
  6
Continuous
 62
     7
370
    25
100
AcDbLine
 10
175.3901623858
 20
137.3109906627
 30
0.0
 11
176.3581790699
 21
137.0696365549
 31
0.0
  0
LINE
  5
1CE
330
1F
100
AcDbEntity
  8
0
  6
Continuous
 62
     7
370
    25
100
AcDbLine
 10
176.0868959798
 20
140.1054422669
 30
0.0
 11
177.0549126638
 21
139.8640882172
 31
0.0
  0
LINE
  5
1CF
330
1F
100
AcDbEntity
  8
0
  6
Continuous
 62
     7
370
    25
100
AcDbLine
 10
176.2856029643
 20
136.7785477261
 30
0.0
 11
175.8015983475
 21
136.89922478
 31
0.0
  0
LWPOLYLINE
  5
1D0
330
1F
100
AcDbEntity
  8
0
  6
Continuous
 62
     7
370
    25
100
AcDbPolyline
 90
        5
 70
   128
 43
0.0
 10
190.2579971327
 20
133.6040239031
 10
190.3946929349
 20
133.5699402908
 10
190.5033522023
 20
133.5428490485
 10
190.5731864942
 20
133.5254384386
 10
190.5972593201
 20
133.5194365303
  0
LWPOLYLINE
  5
1D1
330
1F
100
AcDbEntity
  8
0
  6
Continuous
 62
     7
370
    25
100
AcDbPolyline
 90
        5
 70
   128
 43
0.0
 10
190.2335890306
 20
133.3009245055
 10
190.2239628805
 20
133.3033249895
 10
190.1960306538
 20
133.3102894197
 10
190.1525639666
 20
133.3211258235
 10
190.0978841556
 20
133.3347594547
  0
LINE
  5
1D2
330
1F
100
AcDbEntity
  8
0
  6
Continuous
 62
     7
370
    25
100
AcDbLine
 10
176.0868959798
 20
140.1054422669
 30
0.0
 11
176.9382067693
 21
139.8931871582
 31
0.0
  0
LINE
  5
1D3
330
1F
100
AcDbEntity
  8
0
  6
Continuous
 62
     7
370
    25
100
AcDbLine
 10
164.0131556166
 20
148.0214850227
 30
0.0
 11
175.2141349686
 21
145.2287666681
 31
0.0
  0
LINE
  5
1D4
330
1F
100
AcDbEntity
  8
0
  6
Continuous
 62
     7
370
    25
100
AcDbLine
 10
176.7309316171
 20
144.8505882355
 30
0.0
 11
178.0897536052
 21
144.5117947361
 31
0.0
  0
LWPOLYLINE
  5
1D5
330
1F
100
AcDbEntity
  8
0
  6
Continuous
 62
     7
370
    25
100
AcDbPolyline
 90
        9
 70
   128
 43
0.0
 10
178.0897536052
 20
144.5117947361
 10
178.1183340324
 20
144.5046696527
 10
178.1474210991
 20
144.4974167454
 10
178.176858343
 20
144.4900776906
 10
178.2064669503
 20
144.4826957951
 10
178.236068107
 20
144.4753138995
 10
178.2655053509
 20
144.4679750776
 10
178.2945998682
 20
144.4607219374
 10
178.3231728448
 20
144.4535968541
  0
LINE
  5
1D6
330
1F
100
AcDbEntity
  8
0
  6
Continuous
 62
     7
370
    25
100
AcDbLine
 10
177.1716260089
 20
139.8349892762
 30
0.0
 11
191.2482239975
 21
136.3252986404
 31
0.0
  0
LINE
  5
1D7
330
1F
100
AcDbEntity
  8
0
  6
Continuous
 62
     7
370
    25
100
AcDbLine
 10
178.3231728448
 20
144.4535968541
 30
0.0
 11
192.3997708334
 21
140.943906502
 31
0.0
  0
LWPOLYLINE
  5
1D8
330
1F
100
AcDbEntity
  8
0
  6
Continuous
 62
     7
370
    25
100
AcDbPolyline
 90
        5
 70
   128
 43
0.0
 10
163.7417458667
 20
148.089154921
 10
163.7610056175
 20
148.0843534874
 10
163.8168700708
 20
148.0704250927
 10
163.9037959946
 20
148.0487518194
 10
164.0131556166
 20
148.0214850227
  0
LWPOLYLINE
  5
1D9
330
1F
100
AcDbEntity
  8
0
  6
Continuous
 62
     7
370
    25
100
AcDbPolyline
 90
        5
 70
   128
 43
0.0
 10
191.2482239975
 20
136.3252986404
 10
191.3575836195
 20
136.2980323093
 10
191.4445095433
 20
136.2763590361
 10
191.5003739966
 20
136.2624306413
 10
191.5196337475
 20
136.2576292078
  0
LWPOLYLINE
  5
1DA
330
1F
100
AcDbEntity
  8
0
  6
Continuous
 62
     7
370
    25
100
AcDbPolyline
 90
        5
 70
   128
 43
0.0
 10
192.3997708334
 20
140.943906502
 10
192.509137906
 20
140.9166397854
 10
192.5960563792
 20
140.8949667849
 10
192.6519208325
 20
140.8810383269
 10
192.6711805834
 20
140.8762366692
  0
LINE
  5
1DB
330
1F
100
AcDbEntity
  8
0
  6
Continuous
 62
     7
370
    25
100
AcDbLine
 10
112.6711823715
 20
140.8762366692
 30
0.0
 11
112.6711823715
 21
160.5762367318
 31
0.0
  0
LINE
  5
1DC
330
1F
100
AcDbEntity
  8
0
  6
Continuous
 62
     7
370
    25
100
AcDbLine
 10
112.6711823715
 20
121.1762366066
 30
0.0
 11
112.6711823715
 21
140.8762366692
 31
0.0
  0
LINE
  5
1DD
330
1F
100
AcDbEntity
  8
0
  6
Continuous
 62
     7
370
    25
100
AcDbLine
 10
126.6360225825
 20
146.3762366394
 30
0.0
 11
126.6360225825
 21
160.8762362222
 31
0.0
  0
LINE
  5
1DE
330
1F
100
AcDbEntity
  8
0
  6
Continuous
 62
     7
370
    25
100
AcDbLine
 10
126.6360225825
 20
146.3762366394
 30
0.0
 11
125.1211826427
 21
146.3762366394
 31
0.0
  0
LINE
  5
1DF
330
1F
100
AcDbEntity
  8
0
  6
Continuous
 62
     7
370
    25
100
AcDbLine
 10
125.1211826427
 20
135.376236699
 30
0.0
 11
126.6360225825
 21
135.376236699
 31
0.0
  0
LINE
  5
1E0
330
1F
100
AcDbEntity
  8
0
  6
Continuous
 62
     7
370
    25
100
AcDbLine
 10
126.6360225825
 20
120.8762371162
 30
0.0
 11
126.6360225825
 21
135.376236699
 31
0.0
  0
SPLINE
  5
1E1
330
1F
100
AcDbEntity
  8
0
  6
Continuous
 62
     7
370
    25
100
AcDbSpline
210
0.0
220
0.0
230
1.0
 70
     8
 71
     3
 72
    26
 73
    22
 74
     0
 42
0.000000001
 43
0.00000001
 40
0.0
 40
0.0
 40
0.0
 40
0.0
 40
0.0518086777789673
 40
0.1051478112096984
 40
0.1569488445708777
 40
0.2102011617783841
 40
0.2629608365061462
 40
0.3172046013403532
 40
0.3706941931921108
 40
0.4257950591953966
 40
0.4781959060758691
 40
0.5321929228992337
 40
0.583371067187249
 40
0.6360072974582667
 40
0.6877351791694954
 40
0.740882455027983
 40
0.7940564759392987
 40
0.8487591140522152
 40
0.9020657370858305
 40
0.9569975687295231
 40
1.0
 40
1.0
 40
1.0
 40
1.0
 10
114.671182466488
 20
120.8762371162436
 30
0.0
 10
114.6840885813758
 20
120.879483133974
 30
0.0
 10
114.7102820645886
 20
120.8860710585096
 30
0.0
 10
114.920639497272
 20
120.9377150912375
 30
0.0
 10
115.2523172192993
 20
121.0147423044058
 30
0.0
 10
115.704376438752
 20
121.1113105312038
 30
0.0
 10
116.2716627340845
 20
121.2183126665183
 30
0.0
 10
116.9354480620599
 20
121.3232505740675
 30
0.0
 10
117.6884344118795
 20
121.4153129181478
 30
0.0
 10
118.4924192870072
 20
121.4813398666499
 30
0.0
 10
119.3340250073301
 20
121.5144756279312
 30
0.0
 10
120.1656550204329
 20
121.5109147254172
 30
0.0
 10
120.9833364790374
 20
121.4722859786834
 30
0.0
 10
121.7527581364333
 20
121.4044949089733
 30
0.0
 10
122.4735273320469
 20
121.3135137240661
 30
0.0
 10
123.1200578117224
 20
121.2096075091241
 30
0.0
 10
123.6822304001281
 20
121.1023873863323
 30
0.0
 10
124.1334176845142
 20
121.0050271258071
 30
0.0
 10
124.4578629556938
 20
120.9290307165772
 30
0.0
 10
124.6449397584063
 20
120.8828248242348
 30
0.0
 10
124.6565361302568
 20
120.8799012869384
 30
0.0
 10
124.6616280375082
 20
120.8786175767443
 30
0.0
  0
SPLINE
  5
1E2
330
1F
100
AcDbEntity
  8
0
  6
Continuous
 62
     7
370
    25
100
AcDbSpline
210
0.0
220
0.0
230
1.0
 70
     8
 71
     3
 72
    22
 73
    18
 74
     0
 42
0.000000001
 43
0.00000001
 40
0.0
 40
0.0
 40
0.0
 40
0.0
 40
0.1250000000000001
 40
0.1250000000000001
 40
0.2500000000000002
 40
0.2500000000000002
 40
0.3750000000000003
 40
0.3750000000000003
 40
0.5000000000000004
 40
0.5000000000000004
 40
0.6250000000000003
 40
0.6250000000000003
 40
0.7500000000000002
 40
0.7500000000000002
 40
0.8750000000000001
 40
0.8750000000000001
 40
1.0
 40
1.0
 40
1.0
 40
1.0
 10
120.621182371493
 20
139.8762366692088
 30
0.0
 10
120.621182371493
 20
139.5774989408111
 30
0.0
 10
120.6506307926232
 20
139.2842936159767
 30
0.0
 10
120.7654686588471
 20
138.7083385353491
 30
0.0
 10
120.8522814973848
 20
138.4225962415337
 30
0.0
 10
121.0779288696808
 20
137.8790671005401
 30
0.0
 10
121.215766011345
 20
137.6215739123184
 30
0.0
 10
121.5409669712493
 20
137.1343689150532
 30
0.0
 10
121.7296692511573
 20
136.904229292864
 30
0.0
 10
122.1420009713896
 20
136.4910236366605
 30
0.0
 10
122.3671478977415
 20
136.3051878959646
 30
0.0
 10
122.8571237490988
 20
135.9760913157812
 30
0.0
 10
123.1178313912206
 20
135.8361314589672
 30
0.0
 10
123.6586887719363
 20
135.6104450977375
 30
0.0
 10
123.9423793979903
 20
135.5231736893988
 30
0.0
 10
124.5264617689198
 20
135.4057734760479
 30
0.0
 10
124.8220293239117
 20
135.3762366692088
 30
0.0
 10
125.1211823714931
 20
135.3762366692088
 30
0.0
  0
SPLINE
  5
1E3
330
1F
100
AcDbEntity
  8
0
  6
Continuous
 62
     7
370
    25
100
AcDbSpline
210
0.0
220
0.0
230
1.0
 70
     8
 71
     3
 72
    22
 73
    18
 74
     0
 42
0.000000001
 43
0.00000001
 40
0.0
 40
0.0
 40
0.0
 40
0.0
 40
0.125
 40
0.125
 40
0.25
 40
0.25
 40
0.375
 40
0.375
 40
0.5
 40
0.5
 40
0.625
 40
0.625
 40
0.75
 40
0.75
 40
0.875
 40
0.875
 40
1.0
 40
1.0
 40
1.0
 40
1.0
 10
125.1211823714931
 20
146.3762366692088
 30
0.0
 10
124.8220579424524
 20
146.3762366692088
 30
0.0
 10
124.5282354942036
 20
146.3467107707889
 30
0.0
 10
123.9506712179573
 20
146.2313059375022
 30
0.0
 10
123.6638535401433
 20
146.1439231324364
 30
0.0
 10
123.119391011244
 20
145.9172497131287
 30
0.0
 10
122.8614357406227
 20
145.7787738667962
 30
0.0
 10
122.3733777972628
 20
145.4519633696324
 30
0.0
 10
122.143679498599
 20
145.2629185336524
 30
0.0
 10
121.7312605156464
 20
144.8500502511767
 30
0.0
 10
121.5457335727863
 20
144.6245783599254
 30
0.0
 10
121.2172135278855
 20
144.1337227553777
 30
0.0
 10
121.078799640986
 20
143.8748825974356
 30
0.0
 10
120.8542074943701
 20
143.3351297716398
 30
0.0
 10
120.7671286822459
 20
143.0510266828107
 30
0.0
 10
120.6506268742908
 20
142.4695735476688
 30
0.0
 10
120.621182371493
 20
142.1749230820406
 30
0.0
 10
120.621182371493
 20
141.8762366692088
 30
0.0
  0
LINE
  5
1E4
330
1F
100
AcDbEntity
  8
0
  6
Continuous
 62
     7
370
    25
100
AcDbLine
 10
120.6211828364
 20
141.8762367167
 30
0.0
 11
120.6211828364
 21
139.8762366217
 31
0.0
  0
LINE
  5
1E5
330
1F
100
AcDbEntity
  8
0
  6
Continuous
 62
     7
370
    25
100
AcDbLine
 10
132.6211829407
 20
146.3762366394
 30
0.0
 11
132.6211829407
 21
160.2762372414
 31
0.0
  0
SPLINE
  5
1E6
330
1F
100
AcDbEntity
  8
0
  6
Continuous
 62
     7
370
    25
100
AcDbSpline
210
0.0
220
0.0
230
1.0
 70
    24
 71
     3
 72
    10
 73
     6
 74
     0
 42
0.000000001
 43
0.00000001
 40
0.0
 40
0.0
 40
0.0
 40
0.0
 40
0.5
 40
0.5
 40
1.0
 40
1.0
 40
1.0
 40
1.0
 10
132.6211823714931
 20
146.3762366692088
 30
0.0
 10
132.6211823714931
 20
146.3762366692088
 30
0.0
 10
132.5595458577877
 20
146.3762366692088
 30
0.0
 10
132.3405194915449
 20
146.3762366692088
 30
0.0
 10
132.1829026034975
 20
146.3762366692088
 30
0.0
 10
132.021182371493
 20
146.3762366692088
 30
0.0
  0
LINE
  5
1E7
330
1F
100
AcDbEntity
  8
0
  6
Continuous
 62
     7
370
    25
100
AcDbLine
 10
132.6211829407
 20
121.476236097
 30
0.0
 11
132.6211829407
 21
135.376236699
 31
0.0
  0
SPLINE
  5
1E8
330
1F
100
AcDbEntity
  8
0
  6
Continuous
 62
     7
370
    25
100
AcDbSpline
210
0.0
220
0.0
230
1.0
 70
    24
 71
     3
 72
    12
 73
     8
 74
     0
 42
0.000000001
 43
0.00000001
 40
0.0
 40
0.0
 40
0.0
 40
0.0
 40
0.2499999999999962
 40
0.2499999999999962
 40
0.4999999999999925
 40
0.4999999999999925
 40
1.0
 40
1.0
 40
1.0
 40
1.0
 10
132.021182371493
 20
135.3762366692088
 30
0.0
 10
132.1009478519633
 20
135.3762366692088
 30
0.0
 10
132.1813691356204
 20
135.3762366692088
 30
0.0
 10
132.3280510522829
 20
135.3762366692088
 30
0.0
 10
132.3944048618468
 20
135.3762366692088
 30
0.0
 10
132.5606089425735
 20
135.3762366692088
 30
0.0
 10
132.621182371493
 20
135.3762366692088
 30
0.0
 10
132.6211823714931
 20
135.3762366692088
 30
0.0
  0
LINE
  5
1E9
330
1F
100
AcDbEntity
  8
0
  6
Continuous
 62
     7
370
    25
100
AcDbLine
 10
130.7063427491
 20
120.8762371162
 30
0.0
 11
130.7063427491
 21
135.376236699
 31
0.0
  0
LINE
  5
1EA
330
1F
100
AcDbEntity
  8
0
  6
Continuous
 62
     7
370
    25
100
AcDbLine
 10
129.7111817373
 20
122.599904723
 30
0.0
 11
129.7111817373
 21
135.376236699
 31
0.0
  0
SPLINE
  5
1EB
330
1F
100
AcDbEntity
  8
0
  6
Continuous
 62
     7
370
    25
100
AcDbSpline
210
0.0
220
0.0
230
1.0
 70
    24
 71
     3
 72
     8
 73
     4
 74
     0
 42
0.000000001
 43
0.00000001
 40
0.0
 40
0.0
 40
0.0
 40
0.0
 40
1.0
 40
1.0
 40
1.0
 40
1.0
 10
129.711182371493
 20
135.3762366692088
 30
0.0
 10
130.0418209981077
 20
135.3762366692088
 30
0.0
 10
130.3736367986812
 20
135.3762366692088
 30
0.0
 10
130.7063420703865
 20
135.3762366692088
 30
0.0
  0
LINE
  5
1EC
330
1F
100
AcDbEntity
  8
0
  6
Continuous
 62
     7
370
    25
100
AcDbLine
 10
130.7063427491
 20
146.3762366394
 30
0.0
 11
130.7063427491
 21
160.8762362222
 31
0.0
  0
LINE
  5
1ED
330
1F
100
AcDbEntity
  8
0
  6
Continuous
 62
     7
370
    25
100
AcDbLine
 10
129.7111817373
 20
146.3762366394
 30
0.0
 11
129.7111817373
 21
159.1525686155
 31
0.0
  0
SPLINE
  5
1EE
330
1F
100
AcDbEntity
  8
0
  6
Continuous
 62
     7
370
    25
100
AcDbSpline
210
0.0
220
0.0
230
1.0
 70
    24
 71
     3
 72
     8
 73
     4
 74
     0
 42
0.000000001
 43
0.00000001
 40
0.0
 40
0.0
 40
0.0
 40
0.0
 40
1.0
 40
1.0
 40
1.0
 40
1.0
 10
130.7063420703865
 20
146.3762366692088
 30
0.0
 10
130.3736367986812
 20
146.3762366692088
 30
0.0
 10
130.0418209981077
 20
146.3762366692088
 30
0.0
 10
129.711182371493
 20
146.3762366692088
 30
0.0
  0
LINE
  5
1EF
330
1F
100
AcDbEntity
  8
0
  6
Continuous
 62
     7
370
    25
100
AcDbLine
 10
130.7063427491
 20
135.376236699
 30
0.0
 11
132.0211820973
 21
135.376236699
 31
0.0
  0
LINE
  5
1F0
330
1F
100
AcDbEntity
  8
0
  6
Continuous
 62
     7
370
    25
100
AcDbLine
 10
132.0211820973
 20
146.3762366394
 30
0.0
 11
130.7063427491
 21
146.3762366394
 31
0.0
  0
LINE
  5
1F1
330
1F
100
AcDbEntity
  8
0
  6
Continuous
 62
     7
370
    25
100
AcDbLine
 10
127.631182663
 20
122.599904723
 30
0.0
 11
127.631182663
 21
135.376236699
 31
0.0
  0
SPLINE
  5
1F2
330
1F
100
AcDbEntity
  8
0
  6
Continuous
 62
     7
370
    25
100
AcDbSpline
210
0.0
220
0.0
230
1.0
 70
    24
 71
     3
 72
     8
 73
     4
 74
     0
 42
0.000000001
 43
0.00000001
 40
0.0
 40
0.0
 40
0.0
 40
0.0
 40
1.0
 40
1.0
 40
1.0
 40
1.0
 10
126.6360226725996
 20
135.3762366692088
 30
0.0
 10
126.9687279443049
 20
135.3762366692088
 30
0.0
 10
127.3005437448785
 20
135.3762366692088
 30
0.0
 10
127.631182371493
 20
135.3762366692088
 30
0.0
  0
LINE
  5
1F3
330
1F
100
AcDbEntity
  8
0
  6
Continuous
 62
     7
370
    25
100
AcDbLine
 10
127.631182663
 20
146.3762366394
 30
0.0
 11
127.631182663
 21
159.1525686155
 31
0.0
  0
SPLINE
  5
1F4
330
1F
100
AcDbEntity
  8
0
  6
Continuous
 62
     7
370
    25
100
AcDbSpline
210
0.0
220
0.0
230
1.0
 70
    24
 71
     3
 72
     8
 73
     4
 74
     0
 42
0.000000001
 43
0.00000001
 40
0.0
 40
0.0
 40
0.0
 40
0.0
 40
1.0
 40
1.0
 40
1.0
 40
1.0
 10
127.631182371493
 20
146.3762366692088
 30
0.0
 10
127.3005437448785
 20
146.3762366692088
 30
0.0
 10
126.9687279443049
 20
146.3762366692088
 30
0.0
 10
126.6360226725996
 20
146.3762366692088
 30
0.0
  0
SPLINE
  5
1F5
330
1F
100
AcDbEntity
  8
0
  6
Continuous
 62
     7
370
    25
100
AcDbSpline
210
0.0
220
0.0
230
1.0
 70
     8
 71
     3
 72
    16
 73
    12
 74
     0
 42
0.000000001
 43
0.00000001
 40
0.0
 40
0.0
 40
0.0
 40
0.0
 40
0.5000000000000013
 40
0.5000000000000013
 40
0.750000000000002
 40
0.750000000000002
 40
0.8750000000000017
 40
0.8750000000000017
 40
0.9375000000000008
 40
0.9375000000000008
 40
1.0
 40
1.0
 40
1.0
 40
1.0
 10
127.6664047720744
 20
135.3762366692088
 30
0.0
 10
127.6961821777646
 20
135.644534997116
 30
0.0
 10
127.7431554236284
 20
135.9147169822295
 30
0.0
 10
127.8534728829836
 20
136.3081459152258
 30
0.0
 10
127.8966173534451
 20
136.4385532538624
 30
0.0
 10
127.985279153115
 20
136.6237926201646
 30
0.0
 10
128.0183303602445
 20
136.6835162229647
 30
0.0
 10
128.0826759447302
 20
136.7633997754371
 30
0.0
 10
128.1068210581638
 20
136.7885005681184
 30
0.0
 10
128.1634399787892
 20
136.8277359799593
 30
0.0
 10
128.1970425256675
 20
136.8413110193357
 30
0.0
 10
128.2311823714932
 20
136.8413110193357
 30
0.0
  0
SPLINE
  5
1F6
330
1F
100
AcDbEntity
  8
0
  6
Continuous
 62
     7
370
    25
100
AcDbSpline
210
0.0
220
0.0
230
1.0
 70
     8
 71
     3
 72
    16
 73
    12
 74
     0
 42
0.000000001
 43
0.00000001
 40
0.0
 40
0.0
 40
0.0
 40
0.0
 40
0.4999999999999987
 40
0.4999999999999987
 40
0.749999999999998
 40
0.749999999999998
 40
0.874999999999997
 40
0.874999999999997
 40
0.9374999999999984
 40
0.9374999999999984
 40
1.0
 40
1.0
 40
1.0
 40
1.0
 10
129.6759599709118
 20
146.3762366692092
 30
0.0
 10
129.6459235513852
 20
146.105604592689
 30
0.0
 10
129.5992894541804
 20
145.8380785895231
 30
0.0
 10
129.4889050426017
 20
145.4443562270409
 30
0.0
 10
129.4455673940811
 20
145.3135134478416
 30
0.0
 10
129.3570857596964
 20
145.1286963842105
 30
0.0
 10
129.3237102550798
 20
145.0684177316806
 30
0.0
 10
129.2592180456293
 20
144.9885586410054
 30
0.0
 10
129.2350137084426
 20
144.9635857400256
 30
0.0
 10
129.1792598986322
 20
144.9249894376399
 30
0.0
 10
129.145675872564
 20
144.9111623190815
 30
0.0
 10
129.111182371493
 20
144.9111623190815
 30
0.0
  0
SPLINE
  5
1F7
330
1F
100
AcDbEntity
  8
0
  6
Continuous
 62
     7
370
    25
100
AcDbSpline
210
0.0
220
0.0
230
1.0
 70
     8
 71
     3
 72
    16
 73
    12
 74
     0
 42
0.000000001
 43
0.00000001
 40
0.0
 40
0.0
 40
0.0
 40
0.0
 40
0.0625000000000016
 40
0.0625000000000016
 40
0.1250000000000033
 40
0.1250000000000033
 40
0.2500000000000026
 40
0.2500000000000026
 40
0.5000000000000011
 40
0.5000000000000011
 40
1.0
 40
1.0
 40
1.0
 40
1.0
 10
129.111182371493
 20
136.841311019336
 30
0.0
 10
129.1454701949531
 20
136.841311019336
 30
0.0
 10
129.1793541042747
 20
136.8274973161938
 30
0.0
 10
129.2356902970915
 20
136.7883395073586
 30
0.0
 10
129.2599521532585
 20
136.7631125973238
 30
0.0
 10
129.3242452713056
 20
136.6831741793229
 30
0.0
 10
129.3578090607323
 20
136.6224007158205
 30
0.0
 10
129.4457254329549
 20
136.4383569371143
 30
0.0
 10
129.4884819756715
 20
136.3094353825936
 30
0.0
 10
129.5990267173217
 20
135.9157105025356
 30
0.0
 10
129.6460061310839
 20
135.6461246918193
 30
0.0
 10
129.6759599709117
 20
135.3762366692088
 30
0.0
  0
SPLINE
  5
1F8
330
1F
100
AcDbEntity
  8
0
  6
Continuous
 62
     7
370
    25
100
AcDbSpline
210
0.0
220
0.0
230
1.0
 70
     8
 71
     3
 72
    16
 73
    12
 74
     0
 42
0.000000001
 43
0.00000001
 40
0.0
 40
0.0
 40
0.0
 40
0.0
 40
0.0624999999999991
 40
0.0624999999999991
 40
0.1249999999999981
 40
0.1249999999999981
 40
0.249999999999997
 40
0.249999999999997
 40
0.4999999999999976
 40
0.4999999999999976
 40
1.0
 40
1.0
 40
1.0
 40
1.0
 10
128.2311823714665
 20
144.9111623190814
 30
0.0
 10
128.1967037042813
 20
144.911162319088
 30
0.0
 10
128.1628835274444
 20
144.9250191919906
 30
0.0
 10
128.1063614602608
 20
144.9643969142653
 30
0.0
 10
128.0820353807345
 20
144.9897602186687
 30
0.0
 10
128.0175824811832
 20
145.0701079785509
 30
0.0
 10
127.9839542058246
 20
145.1311667868057
 30
0.0
 10
127.8958768902997
 20
145.3160479586261
 30
0.0
 10
127.8530574370321
 20
145.4455387124715
 30
0.0
 10
127.7424008028351
 20
145.8409940948213
 30
0.0
 10
127.6961682168911
 20
146.1080641306017
 30
0.0
 10
127.6664047720744
 20
146.3762366692088
 30
0.0
  0
LINE
  5
1F9
330
1F
100
AcDbEntity
  8
0
  6
Continuous
 62
     7
370
    25
100
AcDbLine
 10
128.231182575
 20
136.8413109513
 30
0.0
 11
129.1111827565
 21
136.8413109513
 31
0.0
  0
SPLINE
  5
1FA
330
1F
100
AcDbEntity
  8
0
  6
Continuous
 62
     7
370
    25
100
AcDbSpline
210
0.0
220
0.0
230
1.0
 70
     8
 71
     3
 72
    18
 73
    14
 74
     0
 42
0.000000001
 43
0.00000001
 40
0.0
 40
0.0
 40
0.0
 40
0.0
 40
0.25
 40
0.25
 40
0.5
 40
0.5
 40
0.5625
 40
0.5625
 40
0.625
 40
0.625
 40
0.75
 40
0.75
 40
1.0
 40
1.0
 40
1.0
 40
1.0
 10
132.6211823714931
 20
136.3331099925686
 30
0.0
 10
132.6211823714931
 20
137.0875369228555
 30
0.0
 10
132.676123270126
 20
137.8406518894407
 30
0.0
 10
132.7767531636783
 20
139.3471027538689
 30
0.0
 10
132.8204558404654
 20
140.1005269748032
 30
0.0
 10
132.8213513013285
 20
141.0434131895862
 30
0.0
 10
132.8190913078109
 20
141.2355616281259
 30
0.0
 10
132.8100234737234
 20
141.6162411214081
 30
0.0
 10
132.8032250690584
 20
141.8064946661953
 30
0.0
 10
132.7775196156717
 20
142.377053156603
 30
0.0
 10
132.7532206503202
 20
142.7571535931766
 30
0.0
 10
132.6771559941372
 20
143.8973283970098
 30
0.0
 10
132.6211823714931
 20
144.6572362273837
 30
0.0
 10
132.6211823714931
 20
145.419363345849
 30
0.0
  0
LINE
  5
1FB
330
1F
100
AcDbEntity
  8
0
  6
Continuous
 62
     7
370
    25
100
AcDbLine
 10
129.1111827565
 20
144.9111623871
 30
0.0
 11
128.231182575
 21
144.9111623871
 31
0.0
  0
LINE
  5
1FC
330
1F
100
AcDbEntity
  8
0
  6
Continuous
 62
     7
370
    25
100
AcDbLine
 10
132.6211829407
 20
145.41936323
 30
0.0
 11
132.6211829407
 21
146.3762366394
 31
0.0
  0
LINE
  5
1FD
330
1F
100
AcDbEntity
  8
0
  6
Continuous
 62
     7
370
    25
100
AcDbLine
 10
132.6211829407
 20
135.376236699
 30
0.0
 11
132.6211829407
 21
136.3331101085
 31
0.0
  0
ELLIPSE
  5
1FE
330
1F
100
AcDbEntity
  8
0
  6
Continuous
 62
     7
370
    25
100
AcDbEllipse
 10
178.0382611798
 20
140.8762366692
 30
0.0
 11
29.68681201691404
 21
3.25212972613906
 31
0.0
210
0.0
220
0.0
230
1.0
 40
0.5448995328
 41
2.369753498221339
 42
3.887748418616375
  0
LINE
  5
1FF
330
1F
100
AcDbEntity
  8
0
  6
Continuous
 62
     7
370
    25
100
AcDbLine
 10
162.5694566144
 20
148.0722560728
 30
0.0
 11
155.5278793646
 21
149.8279183353
 31
0.0
  0
LWPOLYLINE
  5
200
330
1F
100
AcDbEntity
  8
0
  6
Continuous
 62
     7
370
    25
100
AcDbPolyline
 90
        6
 70
   128
 43
0.0
 10
137.7747663034
 20
157.3762365798
 10
137.7926141692
 20
157.309624664
 10
137.8460162057
 20
157.1103272209
 10
137.9345384164
 20
156.7799554388
 10
138.0574692709
 20
156.3211729
 10
138.2138141168
 20
155.7376862685
  0
SPLINE
  5
201
330
1F
100
AcDbEntity
  8
0
  6
Continuous
 62
     7
370
    25
100
AcDbSpline
210
0.0
220
0.0
230
1.0
 70
     8
 71
     3
 72
    20
 73
    16
 74
     0
 42
0.000000001
 43
0.00000001
 40
0.0
 40
0.0
 40
0.0
 40
0.0
 40
0.2499999999999996
 40
0.2499999999999996
 40
0.3749999999999997
 40
0.3749999999999997
 40
0.4999999999999998
 40
0.4999999999999998
 40
0.6249999999999999
 40
0.6249999999999999
 40
0.7499999999999999
 40
0.7499999999999999
 40
0.875
 40
0.875
 40
1.0
 40
1.0
 40
1.0
 40
1.0
 10
138.213814165476
 20
155.737686116558
 30
0.0
 10
138.2595882993212
 20
155.5668547233751
 30
0.0
 10
138.3239414856583
 20
155.3856923296624
 30
0.0
 10
138.4627657770802
 20
155.1017621957488
 30
0.0
 10
138.5161470353943
 20
155.005098514587
 30
0.0
 10
138.6408746212861
 20
154.8085330592348
 30
0.0
 10
138.7126641656191
 20
154.7080624093408
 30
0.0
 10
138.8772783460123
 20
154.5079964120719
 30
0.0
 10
138.969719764494
 20
154.40869887772
 30
0.0
 10
139.1800270783704
 20
154.2142368429463
 30
0.0
 10
139.2991235227974
 20
154.1182989107007
 30
0.0
 10
139.5616082415372
 20
153.9406898814434
 30
0.0
 10
139.7052054766961
 20
153.8584578756657
 30
0.0
 10
140.0233206928454
 20
153.7130268305013
 30
0.0
 10
140.1991944063896
 20
153.6497885449545
 30
0.0
 10
140.3858259575441
 20
153.6032560730376
 30
0.0
  0
LWPOLYLINE
  5
202
330
1F
100
AcDbEntity
  8
0
  6
Continuous
 62
     7
370
    25
100
AcDbPolyline
 90
        8
 70
   128
 43
0.0
 10
140.3858259989
 20
153.6032560463
 10
142.2846027387
 20
153.1298377732
 10
144.2781992925
 20
152.632778808
 10
146.3627674354
 20
152.1130374814
 10
148.5342875792
 20
151.5716158966
 10
150.7885724975
 20
151.0095599289
 10
153.1212710513
 20
150.4279536376
 10
155.5278793646
 20
149.8279183353
  0
SPLINE
  5
203
330
1F
100
AcDbEntity
  8
0
  6
Continuous
 62
     7
370
    25
100
AcDbSpline
210
0.0
220
0.0
230
1.0
 70
     8
 71
     3
 72
     8
 73
     4
 74
     0
 42
0.000000001
 43
0.00000001
 40
0.0
 40
0.0
 40
0.0
 40
0.0
 40
1.0
 40
1.0
 40
1.0
 40
1.0
 10
159.3482873067646
 20
126.9149017756107
 30
0.0
 10
158.6617242821783
 20
127.053878034035
 30
0.0
 10
158.0246635194717
 20
127.2447222022619
 30
0.0
 10
157.4420489688915
 20
127.5073536994028
 30
0.0
  0
ELLIPSE
  5
204
330
1F
100
AcDbEntity
  8
0
  6
Continuous
 62
     7
370
    25
100
AcDbEllipse
 10
191.5734738319
 20
140.8762366692
 30
0.0
 11
54.08840475313351
 21
1.382747921829406
 31
0.0
210
0.0
220
0.0
230
1.0
 40
0.3039830597
 41
4.066394722026379
 42
4.610262071555823
  0
LINE
  5
205
330
1F
100
AcDbEntity
  8
0
  6
Continuous
 62
     7
370
    25
100
AcDbLine
 10
186.4766486658
 20
124.3762367586
 30
0.0
 11
186.4773341192
 21
124.3789767096
 31
0.0
  0
SPLINE
  5
206
330
1F
100
AcDbEntity
  8
0
  6
Continuous
 62
     7
370
    25
100
AcDbSpline
210
0.0
220
0.0
230
1.0
 70
     8
 71
     3
 72
    21
 73
    17
 74
     0
 42
0.000000001
 43
0.00000001
 40
0.0
 40
0.0
 40
0.0
 40
0.0
 40
0.011988925637333
 40
0.0628894114965269
 40
0.1153168205073896
 40
0.1987420047160477
 40
0.2619431430635866
 40
0.3268463931528633
 40
0.4258464689585399
 40
0.5275706161930531
 40
0.6310068400297708
 40
0.7369937600312757
 40
0.8237838116424836
 40
0.9112068481028187
 40
0.9577105387116717
 40
1.0
 40
1.0
 40
1.0
 40
1.0
 10
159.5938027573783
 20
124.3782223383448
 30
0.0
 10
159.5874293195219
 20
124.377596138837
 30
0.0
 10
159.5539966527324
 20
124.3743113308635
 30
0.0
 10
159.7012499085395
 20
124.3889230768193
 30
0.0
 10
160.051616894565
 20
124.4213952549737
 30
0.0
 10
160.6267597274292
 20
124.4673194490569
 30
0.0
 10
161.3166860201139
 20
124.5091023800349
 30
0.0
 10
162.1082670461033
 20
124.5443270252448
 30
0.0
 10
163.0713935205139
 20
124.5674783752155
 30
0.0
 10
164.1866892952439
 20
124.5680490520335
 30
0.0
 10
165.316242647866
 20
124.5440462810763
 30
0.0
 10
166.3575592631745
 20
124.501262565789
 30
0.0
 10
167.2761149788774
 20
124.4490572447465
 30
0.0
 10
167.8972483558694
 20
124.4060944856319
 30
0.0
 10
168.2376880381531
 20
124.3803719709356
 30
0.0
 10
168.2736918819892
 20
124.3775708478368
 30
0.0
 10
168.2908394111354
 20
124.3762367586158
 30
0.0
  0
SPLINE
  5
207
330
1F
100
AcDbEntity
  8
0
  6
Continuous
 62
     7
370
    25
100
AcDbSpline
210
0.0
220
0.0
230
1.0
 70
     8
 71
     3
 72
     8
 73
     4
 74
     0
 42
0.000000001
 43
0.00000001
 40
0.0
 40
0.0
 40
0.0
 40
0.0
 40
1.0
 40
1.0
 40
1.0
 40
1.0
 10
93.71266622192398
 20
134.4103306829089
 30
0.0
 10
93.72680066655212
 20
134.5085660836849
 30
0.0
 10
93.74985804170073
 20
134.6055867161576
 30
0.0
 10
93.78018237149305
 20
134.7016770630274
 30
0.0
  0
SPLINE
  5
208
330
1F
100
AcDbEntity
  8
0
  6
Continuous
 62
     7
370
    25
100
AcDbSpline
210
0.0
220
0.0
230
1.0
 70
     8
 71
     3
 72
    10
 73
     6
 74
     0
 42
0.000000001
 43
0.00000001
 40
0.0
 40
0.0
 40
0.0
 40
0.0
 40
0.5
 40
0.5
 40
1.0
 40
1.0
 40
1.0
 40
1.0
 10
93.78018237149305
 20
134.7016770630274
 30
0.0
 10
93.99554140205043
 20
134.6621675832154
 30
0.0
 10
94.20998274037443
 20
134.6194250418177
 30
0.0
 10
94.63497395899495
 20
134.5202389349502
 30
0.0
 10
94.84634669071765
 20
134.4666908614425
 30
0.0
 10
95.05035897979458
 20
134.3872387997565
 30
0.0
  0
SPLINE
  5
209
330
1F
100
AcDbEntity
  8
0
  6
Continuous
 62
     7
370
    25
100
AcDbSpline
210
0.0
220
0.0
230
1.0
 70
     8
 71
     3
 72
    10
 73
     6
 74
     0
 42
0.000000001
 43
0.00000001
 40
0.0
 40
0.0
 40
0.0
 40
0.0
 40
0.5
 40
0.5
 40
1.0
 40
1.0
 40
1.0
 40
1.0
 10
95.05035897979457
 20
134.3872387997565
 30
0.0
 10
95.52326341038422
 20
134.2030673845894
 30
0.0
 10
96.00626834322861
 20
134.0440749843386
 30
0.0
 10
96.9820827215815
 20
133.7505313417504
 30
0.0
 10
97.47555693460554
 20
133.6165892504774
 30
0.0
 10
97.97118237149296
 20
133.4908685780973
 30
0.0
  0
SPLINE
  5
20A
330
1F
100
AcDbEntity
  8
0
  6
Continuous
 62
     7
370
    25
100
AcDbSpline
210
0.0
220
0.0
230
1.0
 70
     8
 71
     3
 72
    14
 73
    10
 74
     0
 42
0.000000001
 43
0.00000001
 40
0.0
 40
0.0
 40
0.0
 40
0.0
 40
0.1250000000000007
 40
0.1250000000000007
 40
0.2500000000000014
 40
0.2500000000000014
 40
0.5000000000000009
 40
0.5000000000000009
 40
1.0
 40
1.0
 40
1.0
 40
1.0
 10
97.97118237149301
 20
133.4908685780974
 30
0.0
 10
98.02019469430434
 20
133.478436080247
 30
0.0
 10
98.07300091929983
 20
133.4868840746949
 30
0.0
 10
98.15806801102934
 20
133.5297996019891
 30
0.0
 10
98.1926521963701
 20
133.5614911139285
 30
0.0
 10
98.28120788170739
 20
133.6636132439741
 30
0.0
 10
98.32214358302858
 20
133.7421890261649
 30
0.0
 10
98.42602410993153
 20
133.9822633557712
 30
0.0
 10
98.46924790936365
 20
134.1537793429767
 30
0.0
 10
98.50344727863619
 20
134.3276373141728
 30
0.0
  0
SPLINE
  5
20B
330
1F
100
AcDbEntity
  8
0
  6
Continuous
 62
     7
370
    25
100
AcDbSpline
210
0.0
220
0.0
230
1.0
 70
     8
 71
     3
 72
    12
 73
     8
 74
     0
 42
0.000000001
 43
0.00000001
 40
0.0
 40
0.0
 40
0.0
 40
0.0
 40
0.25
 40
0.25
 40
0.5
 40
0.5
 40
1.0
 40
1.0
 40
1.0
 40
1.0
 10
98.50344727863619
 20
134.3276373141728
 30
0.0
 10
98.52887149553014
 20
134.4568853927911
 30
0.0
 10
98.5694833350994
 20
134.5844378079799
 30
0.0
 10
98.65408448137156
 20
134.8406276310656
 30
0.0
 10
98.6981812776571
 20
134.9692023192352
 30
0.0
 10
98.81425038614317
 20
135.3604766701064
 30
0.0
 10
98.87118237149306
 20
135.628463791828
 30
0.0
 10
98.87118237149306
 20
135.911126475107
 30
0.0
  0
LINE
  5
20C
330
1F
100
AcDbEntity
  8
0
  6
Continuous
 62
     7
370
    25
100
AcDbLine
 10
98.8711825309
 20
135.9111264529
 30
0.0
 11
98.8711825309
 21
145.8413468855
 31
0.0
  0
SPLINE
  5
20D
330
1F
100
AcDbEntity
  8
0
  6
Continuous
 62
     7
370
    25
100
AcDbSpline
210
0.0
220
0.0
230
1.0
 70
     8
 71
     3
 72
    12
 73
     8
 74
     0
 42
0.000000001
 43
0.00000001
 40
0.0
 40
0.0
 40
0.0
 40
0.0
 40
0.25
 40
0.25
 40
0.5
 40
0.5
 40
1.0
 40
1.0
 40
1.0
 40
1.0
 10
98.50344727863619
 20
147.4248360242447
 30
0.0
 10
98.52887149553014
 20
147.2955879456265
 30
0.0
 10
98.5694833350994
 20
147.1680355304376
 30
0.0
 10
98.65408448137156
 20
146.9118457073519
 30
0.0
 10
98.6981812776571
 20
146.7832710191824
 30
0.0
 10
98.81425038614317
 20
146.3919966683112
 30
0.0
 10
98.87118237149306
 20
146.1240095465896
 30
0.0
 10
98.87118237149306
 20
145.8413468633106
 30
0.0
  0
SPLINE
  5
20E
330
1F
100
AcDbEntity
  8
0
  6
Continuous
 62
     7
370
    25
100
AcDbSpline
210
0.0
220
0.0
230
1.0
 70
     8
 71
     3
 72
    14
 73
    10
 74
     0
 42
0.000000001
 43
0.00000001
 40
0.0
 40
0.0
 40
0.0
 40
0.0
 40
0.1249999999999986
 40
0.1249999999999986
 40
0.2499999999999972
 40
0.2499999999999972
 40
0.4999999999999989
 40
0.4999999999999989
 40
1.0
 40
1.0
 40
1.0
 40
1.0
 10
97.97118237149304
 20
148.2616047603201
 30
0.0
 10
98.02019469430442
 20
148.2740372581706
 30
0.0
 10
98.07300091929989
 20
148.2655892637227
 30
0.0
 10
98.15806801102939
 20
148.2226737364285
 30
0.0
 10
98.19265219637013
 20
148.190982224489
 30
0.0
 10
98.28120788170739
 20
148.0888600944434
 30
0.0
 10
98.3221435830286
 20
148.0102843122525
 30
0.0
 10
98.42602410993153
 20
147.7702099826464
 30
0.0
 10
98.46924790936365
 20
147.5986939954409
 30
0.0
 10
98.50344727863619
 20
147.4248360242447
 30
0.0
  0
SPLINE
  5
20F
330
1F
100
AcDbEntity
  8
0
  6
Continuous
 62
     7
370
    25
100
AcDbSpline
210
0.0
220
0.0
230
1.0
 70
     8
 71
     3
 72
    10
 73
     6
 74
     0
 42
0.000000001
 43
0.00000001
 40
0.0
 40
0.0
 40
0.0
 40
0.0
 40
0.5
 40
0.5
 40
1.0
 40
1.0
 40
1.0
 40
1.0
 10
95.05035897979457
 20
147.365234538661
 30
0.0
 10
95.52326341038422
 20
147.5494059538281
 30
0.0
 10
96.00626834322864
 20
147.708398354079
 30
0.0
 10
96.98208272158155
 20
148.0019419966673
 30
0.0
 10
97.47555693460559
 20
148.1358840879402
 30
0.0
 10
97.97118237149301
 20
148.2616047603202
 30
0.0
  0
SPLINE
  5
210
330
1F
100
AcDbEntity
  8
0
  6
Continuous
 62
     7
370
    25
100
AcDbSpline
210
0.0
220
0.0
230
1.0
 70
     8
 71
     3
 72
    10
 73
     6
 74
     0
 42
0.000000001
 43
0.00000001
 40
0.0
 40
0.0
 40
0.0
 40
0.0
 40
0.5
 40
0.5
 40
1.0
 40
1.0
 40
1.0
 40
1.0
 10
93.78018237149305
 20
147.0507962753902
 30
0.0
 10
93.99554140205043
 20
147.0903057552022
 30
0.0
 10
94.20998274037443
 20
147.1330482965998
 30
0.0
 10
94.63497395899495
 20
147.2322344034674
 30
0.0
 10
94.84634669071765
 20
147.2857824769751
 30
0.0
 10
95.05035897979458
 20
147.365234538661
 30
0.0
  0
SPLINE
  5
211
330
1F
100
AcDbEntity
  8
0
  6
Continuous
 62
     7
370
    25
100
AcDbSpline
210
0.0
220
0.0
230
1.0
 70
     8
 71
     3
 72
     8
 73
     4
 74
     0
 42
0.000000001
 43
0.00000001
 40
0.0
 40
0.0
 40
0.0
 40
0.0
 40
1.0
 40
1.0
 40
1.0
 40
1.0
 10
93.71266622192398
 20
147.3421426555086
 30
0.0
 10
93.72680066655212
 20
147.2439072547326
 30
0.0
 10
93.74985804170073
 20
147.14688662226
 30
0.0
 10
93.78018237149305
 20
147.0507962753902
 30
0.0
  0
ELLIPSE
  5
212
330
1F
100
AcDbEntity
  8
0
  6
Continuous
 62
     7
370
    25
100
AcDbEllipse
 10
80.2444401637
 20
141.1089219948
 30
0.0
 11
11.1369359868293
 21
11.10090879287065
 31
0.0
210
0.0
220
0.0
230
1.0
 40
0.6999052427
 41
5.802043396094633
 42
5.882012891914418
  0
ELLIPSE
  5
213
330
1F
100
AcDbEntity
  8
0
  6
Continuous
 62
     7
370
    25
100
AcDbEllipse
 10
80.2444401637
 20
140.6435513437
 30
0.0
 11
11.1369359868293
 21
-11.10090879287065
 31
0.0
210
0.0
220
0.0
230
1.0
 40
0.6999052427
 41
0.4011724152651885
 42
0.4811419110849726
  0
LINE
  5
214
330
1F
100
AcDbEntity
  8
0
  6
Continuous
 62
     7
370
    25
100
AcDbLine
 10
110.6711822765
 20
140.8762366692
 30
0.0
 11
110.6711822765
 21
155.97993724
 31
0.0
  0
LINE
  5
215
330
1F
100
AcDbEntity
  8
0
  6
Continuous
 62
     7
370
    25
100
AcDbLine
 10
110.6711822765
 20
125.7725360984
 30
0.0
 11
110.6711822765
 21
140.8762366692
 31
0.0
  0
SPLINE
  5
216
330
1F
100
AcDbEntity
  8
0
  6
Continuous
 62
     7
370
    25
100
AcDbSpline
210
0.0
220
0.0
230
1.0
 70
    11
 71
     3
 72
    39
 73
    35
 74
     0
 42
0.000000001
 43
0.00000001
 40
0.0
 40
0.0
 40
0.0
 40
0.0
 40
0.0313950051307935
 40
0.0632578417333686
 40
0.0952224636477132
 40
0.1268300883541491
 40
0.1583319028232145
 40
0.1900733366302603
 40
0.2215799771181153
 40
0.2525506668390194
 40
0.2832646329732096
 40
0.3142453913338048
 40
0.3451008643995742
 40
0.3756595953882495
 40
0.4062483587849162
 40
0.4375428428480292
 40
0.4689219037421096
 40
0.5001883476926194
 40
0.5315602582317083
 40
0.5633787432097793
 40
0.5952897280241013
 40
0.6268283118816874
 40
0.658286746451874
 40
0.6900582026392497
 40
0.7215959795548583
 40
0.7526086401062488
 40
0.7834418460072076
 40
0.814377396825633
 40
0.845322980162298
 40
0.8757917625066854
 40
0.9063692625164961
 40
0.9375133059481078
 40
0.9688100874297394
 40
1.0
 40
1.0
 40
1.0
 40
1.0
 10
104.3201735170831
 20
139.276854886619
 30
0.0
 10
104.2192814763619
 20
139.4342716687931
 30
0.0
 10
104.0468840016065
 20
139.7712848727318
 30
0.0
 10
103.8911080651262
 20
140.3197160444248
 30
0.0
 10
103.8357141475494
 20
140.8888936599573
 30
0.0
 10
103.8918580038709
 20
141.4560567910439
 30
0.0
 10
104.0539595436615
 20
142.0006086806716
 30
0.0
 10
104.3191764842596
 20
142.5015559008131
 30
0.0
 10
104.6692103639073
 20
142.9429817653757
 30
0.0
 10
105.0960721656048
 20
143.3021088876319
 30
0.0
 10
105.5835621773309
 20
143.5684854126835
 30
0.0
 10
106.1151986932046
 20
143.7281100335782
 30
0.0
 10
106.6663235739684
 20
143.7839548610697
 30
0.0
 10
107.2137781289658
 20
143.7238002372415
 30
0.0
 10
107.7384215736641
 20
143.5541427657176
 30
0.0
 10
108.2201758613441
 20
143.2798152610338
 30
0.0
 10
108.64525227302
 20
142.9186564257026
 30
0.0
 10
108.9909921256352
 20
142.4792960233833
 30
0.0
 10
109.2478619827442
 20
141.9779714200778
 30
0.0
 10
109.4027931512197
 20
141.4307637398264
 30
0.0
 10
109.4575987593246
 20
140.8624934680449
 30
0.0
 10
109.4006612669861
 20
140.2963640465495
 30
0.0
 10
109.2381959217835
 20
139.7533012397863
 30
0.0
 10
108.9743199733215
 20
139.2539369868988
 30
0.0
 10
108.6267701519502
 20
138.8140985562603
 30
0.0
 10
108.2031651064072
 20
138.455976972973
 30
0.0
 10
107.7197913628689
 20
138.1895609624832
 30
0.0
 10
107.1910948604482
 20
138.027708983468
 30
0.0
 10
106.6417528073499
 20
137.9689315004694
 30
0.0
 10
106.0928101814966
 20
138.0253226664833
 30
0.0
 10
105.5652590681696
 20
138.191805165485
 30
0.0
 10
105.0797027594004
 20
138.4652726105943
 30
0.0
 10
104.651529944961
 20
138.8266178626526
 30
0.0
 10
104.4204064654779
 20
139.120466453088
 30
0.0
 10
104.3201735170831
 20
139.276854886619
 30
0.0
  0
SPLINE
  5
217
330
1F
100
AcDbEntity
  8
0
  6
Continuous
 62
     7
370
    25
100
AcDbSpline
210
0.0
220
0.0
230
1.0
 70
    11
 71
     3
 72
    34
 73
    30
 74
     0
 42
0.000000001
 43
0.00000001
 40
0.0
 40
0.0
 40
0.0
 40
0.0
 40
0.0327308734477094
 40
0.0616017355500058
 40
0.0866124217902672
 40
0.1077655312085963
 40
0.1250683956617892
 40
0.1622243094256516
 40
0.2038797080351943
 40
0.2501245490140115
 40
0.2845768524840655
 40
0.3108774793854101
 40
0.3290124512186853
 40
0.3701015771301628
 40
0.4074615794608459
 40
0.4522765695736795
 40
0.5003949751348233
 40
0.5206671653130152
 40
0.5632663567628647
 40
0.5981629745416435
 40
0.6260788830998936
 40
0.6865055540894934
 40
0.7504369255996579
 40
0.771534015225698
 40
0.8129550735447757
 40
0.8477468747957424
 40
0.8755153832218557
 40
0.9336703854467745
 40
1.0
 40
1.0
 40
1.0
 40
1.0
 10
104.7555561165451
 20
139.6032967447213
 30
0.0
 10
104.8428860093105
 20
139.4716250251147
 30
0.0
 10
105.0325245569527
 20
139.2419203048691
 30
0.0
 10
105.3563519985798
 20
138.9756507063408
 30
0.0
 10
105.6714915514859
 20
138.7958523705304
 30
0.0
 10
105.9571927334927
 20
138.6839459574929
 30
0.0
 10
106.3108461290773
 20
138.5927067169543
 30
0.0
 10
106.7771330513167
 20
138.5549160324498
 30
0.0
 10
107.3754920386323
 20
138.6560072099679
 30
0.0
 10
107.9106273479811
 20
138.909767668136
 30
0.0
 10
108.304881840293
 20
139.2377330747254
 30
0.0
 10
108.5448111766748
 20
139.52951813484
 30
0.0
 10
108.7585928614965
 20
139.8781178666524
 30
0.0
 10
108.9263607080014
 20
140.3166500500872
 30
0.0
 10
108.9968243195134
 20
140.9121270415385
 30
0.0
 10
108.9072991302104
 20
141.5425126134264
 30
0.0
 10
108.6744626349988
 20
142.0430909059083
 30
0.0
 10
108.3550284828951
 20
142.4652508469497
 30
0.0
 10
108.0029369365837
 20
142.7791027741603
 30
0.0
 10
107.5552363838985
 20
143.0154755862379
 30
0.0
 10
106.9883628273008
 20
143.1853112375123
 30
0.0
 10
106.2355127917274
 20
143.1967057778454
 30
0.0
 10
105.5643407453818
 20
142.9261949521999
 30
0.0
 10
105.0795487562998
 20
142.5576001037125
 30
0.0
 10
104.7651862848666
 20
142.2029426852359
 30
0.0
 10
104.5303715674675
 20
141.7568506439221
 30
0.0
 10
104.3640880402083
 20
141.1972243345481
 30
0.0
 10
104.3499576650198
 20
140.4450810943376
 30
0.0
 10
104.5785807560998
 20
139.8701314939685
 30
0.0
 10
104.7555561165452
 20
139.6032967447213
 30
0.0
  0
ARC
  5
218
330
1F
100
AcDbEntity
  8
0
  6
Continuous
 62
     7
370
    25
100
AcDbCircle
 10
97.9711823715
 20
143.9422366692
 30
0.0
 40
0.9000000000000057
100
AcDbArc
 50
0.0
 51
90.0
  0
ARC
  5
219
330
1F
100
AcDbEntity
  8
0
  6
Continuous
 62
     7
370
    25
100
AcDbCircle
 10
97.9711823715
 20
137.8102366692
 30
0.0
 40
0.9000000000000057
100
AcDbArc
 50
270.0
 51
0.0
  0
LINE
  5
21A
330
1F
100
AcDbEntity
  8
0
  6
Continuous
 62
     7
370
    25
100
AcDbLine
 10
92.7711826487
 20
135.9012367385
 30
0.0
 11
92.7711826487
 21
134.7323370347
 31
0.0
  0
LINE
  5
21B
330
1F
100
AcDbEntity
  8
0
  6
Continuous
 62
     7
370
    25
100
AcDbLine
 10
93.7801831139
 20
136.9102367381
 30
0.0
 11
92.7711826487
 21
135.9012367385
 31
0.0
  0
LINE
  5
21C
330
1F
100
AcDbEntity
  8
0
  6
Continuous
 62
     7
370
    25
100
AcDbLine
 10
93.7801831139
 20
136.9102367381
 30
0.0
 11
93.7801831139
 21
134.7016769642
 31
0.0
  0
LINE
  5
21D
330
1F
100
AcDbEntity
  8
0
  6
Continuous
 62
     7
370
    25
100
AcDbLine
 10
97.9711821971
 20
144.8422366003
 30
0.0
 11
93.7801831139
 21
144.8422366003
 31
0.0
  0
LINE
  5
21E
330
1F
100
AcDbEntity
  8
0
  6
Continuous
 62
     7
370
    25
100
AcDbLine
 10
93.7801831139
 20
144.8422366003
 30
0.0
 11
93.7801831139
 21
147.0507963742
 31
0.0
  0
LINE
  5
21F
330
1F
100
AcDbEntity
  8
0
  6
Continuous
 62
     7
370
    25
100
AcDbLine
 10
97.9711821971
 20
136.9102367381
 30
0.0
 11
93.7801831139
 21
136.9102367381
 31
0.0
  0
LINE
  5
220
330
1F
100
AcDbEntity
  8
0
  6
Continuous
 62
     7
370
    25
100
AcDbLine
 10
93.7801831139
 20
144.8422366003
 30
0.0
 11
92.7711826487
 21
145.8512365999
 31
0.0
  0
LINE
  5
221
330
1F
100
AcDbEntity
  8
0
  6
Continuous
 62
     7
370
    25
100
AcDbLine
 10
92.7711826487
 20
145.8512365999
 30
0.0
 11
92.7711826487
 21
147.0201363037
 31
0.0
  0
SPLINE
  5
222
330
1F
100
AcDbEntity
  8
0
  6
Continuous
 62
     7
370
    25
100
AcDbSpline
210
0.0
220
0.0
230
1.0
 70
     8
 71
     3
 72
     9
 73
     5
 74
     0
 42
0.000000001
 43
0.00000001
 40
0.0
 40
0.0
 40
0.0
 40
0.0
 40
0.8972775180519583
 40
1.0
 40
1.0
 40
1.0
 40
1.0
 10
105.0197890697081
 20
139.2978361756093
 30
0.0
 10
104.8575092739103
 20
139.4602135633708
 30
0.0
 10
104.6766512979409
 20
139.6411803038659
 30
0.0
 10
104.6067341705145
 20
139.8796583460194
 30
0.0
 10
104.5995521096546
 20
139.9041554023995
 30
0.0
  0
SPLINE
  5
223
330
1F
100
AcDbEntity
  8
0
  6
Continuous
 62
     7
370
    25
100
AcDbSpline
210
0.0
220
0.0
230
1.0
 70
     8
 71
     3
 72
     9
 73
     5
 74
     0
 42
0.000000001
 43
0.00000001
 40
0.0
 40
0.0
 40
0.0
 40
0.0
 40
0.0758807436978637
 40
1.0
 40
1.0
 40
1.0
 40
1.0
 10
107.9959151072461
 20
142.7465673251561
 30
0.0
 10
108.0115376745413
 20
142.7387964379393
 30
0.0
 10
108.2174208345347
 20
142.6363872252965
 30
0.0
 10
108.3618704855532
 20
142.4496518541773
 30
0.0
 10
108.4953591896255
 20
142.2770861018933
 30
0.0
  0
LINE
  5
224
330
1F
100
AcDbEntity
  8
0
  6
Continuous
 62
     7
370
    25
100
AcDbLine
 10
92.7711826487
 20
147.0201363037
 30
0.0
 11
92.7711826487
 21
147.764589935
 31
0.0
  0
SPLINE
  5
225
330
1F
100
AcDbEntity
  8
0
  6
Continuous
 62
     7
370
    25
100
AcDbSpline
210
0.0
220
0.0
230
1.0
 70
     8
 71
     3
 72
    24
 73
    20
 74
     0
 42
0.000000001
 43
0.00000001
 40
0.0
 40
0.0
 40
0.0
 40
0.0
 40
0.2499999999999998
 40
0.2499999999999998
 40
0.3749999999999999
 40
0.3749999999999999
 40
0.4375000000000001
 40
0.4375000000000001
 40
0.5000000000000001
 40
0.5000000000000001
 40
0.5312500000000002
 40
0.5312500000000002
 40
0.5625000000000003
 40
0.5625000000000003
 40
0.625000000000001
 40
0.625000000000001
 40
0.7500000000000008
 40
0.7500000000000008
 40
1.0
 40
1.0
 40
1.0
 40
1.0
 10
92.77118237149305
 20
147.7645901445418
 30
0.0
 10
92.77118237149305
 20
147.9978755774585
 30
0.0
 10
92.77390699992542
 20
148.2320408388972
 30
0.0
 10
92.8002643210434
 20
148.5904802122646
 30
0.0
 10
92.81247803931558
 20
148.7108600119405
 30
0.0
 10
92.84708868944797
 20
148.8919995514737
 30
0.0
 10
92.86147539981538
 20
148.9531794390971
 30
0.0
 10
92.90272388291777
 20
149.0707329463923
 30
0.0
 10
92.93126343284864
 20
149.1313910634184
 30
0.0
 10
92.99218609835994
 20
149.1870250430945
 30
0.0
 10
93.0152520684998
 20
149.1982473329457
 30
0.0
 10
93.05914794850605
 20
149.204018138709
 30
0.0
 10
93.0800279840662
 20
149.1994682928182
 30
0.0
 10
93.1372382473593
 20
149.1746992162311
 30
0.0
 10
93.16958487113568
 20
149.1440510211403
 30
0.0
 10
93.25575081462753
 20
149.0418789138925
 30
0.0
 10
93.30141483466754
 20
148.956051725121
 30
0.0
 10
93.42196239811875
 20
148.6881815467863
 30
0.0
 10
93.48102248681992
 20
148.4904155083622
 30
0.0
 10
93.5311524178809
 20
148.2846075239602
 30
0.0
  0
SPLINE
  5
226
330
1F
100
AcDbEntity
  8
0
  6
Continuous
 62
     7
370
    25
100
AcDbSpline
210
0.0
220
0.0
230
1.0
 70
     8
 71
     3
 72
    24
 73
    20
 74
     0
 42
0.000000001
 43
0.00000001
 40
0.0
 40
0.0
 40
0.0
 40
0.0
 40
0.2500000000000037
 40
0.2500000000000037
 40
0.3750000000000058
 40
0.3750000000000058
 40
0.4375000000000068
 40
0.4375000000000068
 40
0.5000000000000079
 40
0.5000000000000079
 40
0.5312500000000083
 40
0.5312500000000083
 40
0.5625000000000088
 40
0.5625000000000088
 40
0.6250000000000075
 40
0.6250000000000075
 40
0.7500000000000051
 40
0.7500000000000051
 40
1.0
 40
1.0
 40
1.0
 40
1.0
 10
92.77118237149305
 20
133.9878831938758
 30
0.0
 10
92.77118237149305
 20
133.7545977609591
 30
0.0
 10
92.77390699992543
 20
133.5204324995204
 30
0.0
 10
92.80026432104341
 20
133.161993126153
 30
0.0
 10
92.81247803931558
 20
133.0416133264771
 30
0.0
 10
92.84708868944799
 20
132.8604737869439
 30
0.0
 10
92.86147539981539
 20
132.7992938993205
 30
0.0
 10
92.90272388291777
 20
132.6817403920252
 30
0.0
 10
92.93126343284862
 20
132.6210822749992
 30
0.0
 10
92.99218609835994
 20
132.5654482953231
 30
0.0
 10
93.0152520684998
 20
132.5542260054718
 30
0.0
 10
93.05914794850604
 20
132.5484551997086
 30
0.0
 10
93.0800279840662
 20
132.5530050455994
 30
0.0
 10
93.1372382473593
 20
132.5777741221865
 30
0.0
 10
93.16958487113568
 20
132.6084223172773
 30
0.0
 10
93.25575081462753
 20
132.7105944245251
 30
0.0
 10
93.30141483466754
 20
132.7964216132966
 30
0.0
 10
93.42196239811875
 20
133.0642917916313
 30
0.0
 10
93.48102248681992
 20
133.2620578300553
 30
0.0
 10
93.5311524178809
 20
133.4678658144574
 30
0.0
  0
LINE
  5
227
330
1F
100
AcDbEntity
  8
0
  6
Continuous
 62
     7
370
    25
100
AcDbLine
 10
92.7711826487
 20
134.7323370347
 30
0.0
 11
92.7711826487
 21
133.9878834034
 31
0.0
  0
LINE
  5
228
330
1F
100
AcDbEntity
  8
0
  6
Continuous
 62
     7
370
    25
100
AcDbLine
 10
92.7711826487
 20
127.4302530284
 30
0.0
 11
92.7711826487
 21
133.9878834034
 31
0.0
  0
LINE
  5
229
330
1F
100
AcDbEntity
  8
0
  6
Continuous
 62
     7
370
    25
100
AcDbLine
 10
92.7711826487
 20
147.764589935
 30
0.0
 11
92.7711826487
 21
154.3222203101
 31
0.0
  0
SPLINE
  5
22A
330
1F
100
AcDbEntity
  8
0
  6
Continuous
 62
     7
370
    25
100
AcDbSpline
210
0.0
220
0.0
230
1.0
 70
     8
 71
     3
 72
    11
 73
     7
 74
     0
 42
0.000000001
 43
0.00000001
 40
0.0
 40
0.0
 40
0.0
 40
0.0
 40
0.2871758678267002
 40
0.5743809950627952
 40
0.8587939886389703
 40
1.0
 40
1.0
 40
1.0
 40
1.0
 10
96.37118212115355
 20
137.7512366226427
 30
0.0
 10
96.36031520916232
 20
137.6448037968387
 30
0.0
 10
96.33858027798581
 20
137.4319273011385
 30
0.0
 10
96.16743782805831
 20
137.1577776573873
 30
0.0
 10
95.96293855847063
 20
136.9713182202858
 30
0.0
 10
95.804714734017
 20
136.9254532021312
 30
0.0
 10
95.7522214127738
 20
136.9102367381118
 30
0.0
  0
LINE
  5
22B
330
1F
100
AcDbEntity
  8
0
  6
Continuous
 62
     7
370
    25
100
AcDbLine
 10
96.3711821212
 20
137.7512366226
 30
0.0
 11
96.3711821212
 21
144.0012367158
 31
0.0
  0
SPLINE
  5
22C
330
1F
100
AcDbEntity
  8
0
  6
Continuous
 62
     7
370
    25
100
AcDbSpline
210
0.0
220
0.0
230
1.0
 70
     8
 71
     3
 72
    11
 73
     7
 74
     0
 42
0.000000001
 43
0.00000001
 40
0.0
 40
0.0
 40
0.0
 40
0.0
 40
0.2871758678267002
 40
0.5743809950627952
 40
0.8587939886389703
 40
1.0
 40
1.0
 40
1.0
 40
1.0
 10
96.37118212115355
 20
144.0012367157749
 30
0.0
 10
96.36031520916232
 20
144.1076695415789
 30
0.0
 10
96.33858027798581
 20
144.320546037279
 30
0.0
 10
96.16743782805831
 20
144.5946956810303
 30
0.0
 10
95.96293855847063
 20
144.7811551181318
 30
0.0
 10
95.804714734017
 20
144.8270201362864
 30
0.0
 10
95.7522214127738
 20
144.8422366003058
 30
0.0
  0
LWPOLYLINE
  5
22D
330
1F
100
AcDbEntity
  8
0
  6
Continuous
 62
     7
370
    25
100
AcDbPolyline
 90
        9
 70
   128
 43
0.0
 10
164.5031989289
 20
147.5901196892
 10
164.2519541753
 20
147.6527618425
 10
164.0030675305
 20
147.714816797
 10
163.7567215337
 20
147.7762375208
 10
163.513098724
 20
147.8369793104
 10
163.2723853661
 20
147.8969960655
 10
163.0347565485
 20
147.9562440137
 10
162.80038736
 20
148.0146784517
 10
162.5694566144
 20
148.0722560728
  0
LINE
  5
22E
330
1F
100
AcDbEntity
  8
0
  6
Continuous
 62
     7
370
    25
100
AcDbLine
 10
177.1658667101
 20
144.432961307
 30
0.0
 11
175.3175862802
 21
137.0199018339
 31
0.0
  0
LINE
  5
22F
330
1F
100
AcDbEntity
  8
0
  6
Continuous
 62
     7
370
    25
100
AcDbLine
 10
175.3175862802
 20
137.0199018339
 30
0.0
 11
175.8015983475
 21
136.89922478
 31
0.0
  0
LINE
  5
230
330
1F
100
AcDbEntity
  8
0
  6
Continuous
 62
     7
370
    25
100
AcDbLine
 10
186.4773341192
 20
124.3789767096
 30
0.0
 11
188.7914695514
 21
133.6604848685
 31
0.0
  0
LINE
  5
231
330
1F
100
AcDbEntity
  8
0
  6
Continuous
 62
     7
370
    25
100
AcDbLine
 10
177.1658667101
 20
144.432961307
 30
0.0
 11
164.5031989289
 21
147.5901196892
 31
0.0
  0
DIMENSION
  5
232
330
1F
100
AcDbEntity
  8
VERMASSUNG
100
AcDbDimension
  2
_D_1
 10
192.6711823715
 20
171.1597823151
 30
0.0
 11
152.6711823715
 21
171.1597823151
 31
0.0
 70
   160
  1
<>
 71
     2
 42
-1.0
  3
SLDDIMSTYLE0
100
AcDbAlignedDimension
 13
112.6711823715
 23
160.5762366692
 33
0.0
 14
192.6711823715
 24
140.8762366692
 34
0.0
100
AcDbRotatedDimension
  0
DIMENSION
  5
23C
330
1F
100
AcDbEntity
  8
VERMASSUNG
100
AcDbDimension
  2
_D_2
 10
192.6711823715
 20
178.2285825562
 30
0.0
 11
142.7211823715
 21
178.2285825562
 31
0.0
 70
   160
  1
<>
 71
     2
 42
-1.0
  3
SLDDIMSTYLE0
100
AcDbAlignedDimension
 13
92.7711823715
 23
154.3222202604
 33
0.0
 14
192.6711823715
 24
140.8762366692
 34
0.0
 50
0.0
100
AcDbRotatedDimension
  0
DIMENSION
  5
246
330
1F
100
AcDbEntity
  8
VERMASSUNG
100
AcDbDimension
  2
_D_3
 10
85.6979051256
 20
120.8762366692
 30
0.0
 11
85.6979051256
 21
140.8762366692
 31
0.0
 70
   160
  1
HSK %%c<>
 71
     2
 42
-1.0
  3
SLDDIMSTYLE0
100
AcDbAlignedDimension
 13
112.9711823715
 23
160.8762366692
 33
0.0
 14
112.9711823715
 24
120.8762366692
 34
0.0
 50
90.0
100
AcDbRotatedDimension
  0
OLE2FRAME
  5
252
330
1F
100
AcDbEntity
  8
0
100
AcDbOle2Frame
 70
     2
  3
Paintbrush-Bild
 10
13.8511154363
 20
38.264191557
 30
0.0
 11
51.6290888628
 21
31.9806341108
 31
0.0
 71
     2
 72
     0
 73
     1
 90
    12928
310
80552BED0767C5B32B40DDAF6807D121434000000000000000006FFBDDFB85D0
310
4940DDAF6807D121434000000000000000006FFBDDFB85D04940416F4BD60AFB
310
3F4000000000000000002BED0767C5B32B40416F4BD60AFB3F40000000000000
310
0000000000000100000000010000010000000100000000000100000000320000
310
D0CF11E0A1B11AE1000000000000000000000000000000003E000300FEFF0900
310
0600000000000000000000000100000001000000000000000010000002000000
310
01000000FEFFFFFF0000000000000000FFFFFFFFFFFFFFFFFFFFFFFFFFFFFFFF
310
FFFFFFFFFFFFFFFFFFFFFFFFFFFFFFFFFFFFFFFFFFFFFFFFFFFFFFFFFFFFFFFF
310
FFFFFFFFFFFFFFFFFFFFFFFFFFFFFFFFFFFFFFFFFFFFFFFFFFFFFFFFFFFFFFFF
310
FFFFFFFFFFFFFFFFFFFFFFFFFFFFFFFFFFFFFFFFFFFFFFFFFFFFFFFFFFFFFFFF
310
FFFFFFFFFFFFFFFFFFFFFFFFFFFFFFFFFFFFFFFFFFFFFFFFFFFFFFFFFFFFFFFF
310
FFFFFFFFFFFFFFFFFFFFFFFFFFFFFFFFFFFFFFFFFFFFFFFFFFFFFFFFFFFFFFFF
310
FFFFFFFFFFFFFFFFFFFFFFFFFFFFFFFFFFFFFFFFFFFFFFFFFFFFFFFFFFFFFFFF
310
FFFFFFFFFFFFFFFFFFFFFFFFFFFFFFFFFFFFFFFFFFFFFFFFFFFFFFFFFFFFFFFF
310
FFFFFFFFFFFFFFFFFFFFFFFFFFFFFFFFFFFFFFFFFFFFFFFFFFFFFFFFFFFFFFFF
310
FFFFFFFFFFFFFFFFFFFFFFFFFFFFFFFFFFFFFFFFFFFFFFFFFFFFFFFFFFFFFFFF
310
FFFFFFFFFFFFFFFFFFFFFFFFFFFFFFFFFFFFFFFFFFFFFFFFFFFFFFFFFFFFFFFF
310
FFFFFFFFFFFFFFFFFFFFFFFFFFFFFFFFFFFFFFFFFFFFFFFFFFFFFFFFFFFFFFFF
310
FFFFFFFFFFFFFFFFFFFFFFFFFFFFFFFFFFFFFFFFFFFFFFFFFFFFFFFFFFFFFFFF
310
FFFFFFFFFFFFFFFFFFFFFFFFFFFFFFFFFFFFFFFFFFFFFFFFFFFFFFFFFFFFFFFF
310
FDFFFFFFFEFFFFFFFEFFFFFFFEFFFFFF05000000060000000700000008000000
310
090000000A0000000B0000000C0000000D0000000E0000000F00000010000000
310
11000000120000001300000014000000150000001600000017000000FEFFFFFF
310
FFFFFFFFFFFFFFFFFFFFFFFFFFFFFFFFFFFFFFFFFFFFFFFFFFFFFFFFFFFFFFFF
310
FFFFFFFFFFFFFFFFFFFFFFFFFFFFFFFFFFFFFFFFFFFFFFFFFFFFFFFFFFFFFFFF
310
FFFFFFFFFFFFFFFFFFFFFFFFFFFFFFFFFFFFFFFFFFFFFFFFFFFFFFFFFFFFFFFF
310
FFFFFFFFFFFFFFFFFFFFFFFFFFFFFFFFFFFFFFFFFFFFFFFFFFFFFFFFFFFFFFFF
310
FFFFFFFFFFFFFFFFFFFFFFFFFFFFFFFFFFFFFFFFFFFFFFFFFFFFFFFFFFFFFFFF
310
FFFFFFFFFFFFFFFFFFFFFFFFFFFFFFFFFFFFFFFFFFFFFFFFFFFFFFFFFFFFFFFF
310
FFFFFFFFFFFFFFFFFFFFFFFFFFFFFFFFFFFFFFFFFFFFFFFFFFFFFFFFFFFFFFFF
310
FFFFFFFFFFFFFFFFFFFFFFFFFFFFFFFFFFFFFFFFFFFFFFFFFFFFFFFFFFFFFFFF
310
FFFFFFFFFFFFFFFFFFFFFFFFFFFFFFFFFFFFFFFFFFFFFFFFFFFFFFFFFFFFFFFF
310
FFFFFFFFFFFFFFFFFFFFFFFFFFFFFFFFFFFFFFFFFFFFFFFFFFFFFFFFFFFFFFFF
310
FFFFFFFFFFFFFFFFFFFFFFFFFFFFFFFFFFFFFFFFFFFFFFFFFFFFFFFFFFFFFFFF
310
FFFFFFFFFFFFFFFFFFFFFFFFFFFFFFFFFFFFFFFFFFFFFFFFFFFFFFFFFFFFFFFF
310
FFFFFFFFFFFFFFFFFFFFFFFFFFFFFFFFFFFFFFFFFFFFFFFFFFFFFFFFFFFFFFFF
310
52006F006F007400200045006E00740072007900000000000000000000000000
310
0000000000000000000000000000000000000000000000000000000000000000
310
16000500FFFFFFFFFFFFFFFF020000000A00030000000000C000000000000046
310
00000000000000000000000040A7EFC01BA4D30103000000C000000000000000
310
01004F006C006500000000000000000000000000000000000000000000000000
310
0000000000000000000000000000000000000000000000000000000000000000
310
0A000200FFFFFFFFFFFFFFFFFFFFFFFF00000000000000000000000000000000
310
0000000000000000000000000000000000000000000000001400000000000000
310
010043006F006D0070004F0062006A0000000000000000000000000000000000
310
0000000000000000000000000000000000000000000000000000000000000000
310
120002010100000003000000FFFFFFFF00000000000000000000000000000000
310
0000000000000000000000000000000000000000010000004D00000000000000
310
01004F006C006500310030004E00610074006900760065000000000000000000
310
0000000000000000000000000000000000000000000000000000000000000000
310
1A000200FFFFFFFFFFFFFFFFFFFFFFFF00000000000000000000000000000000
310
0000000000000000000000000000000000000000040000002426000000000000
310
FEFFFFFF02000000FEFFFFFFFFFFFFFFFFFFFFFFFFFFFFFFFFFFFFFFFFFFFFFF
310
FFFFFFFFFFFFFFFFFFFFFFFFFFFFFFFFFFFFFFFFFFFFFFFFFFFFFFFFFFFFFFFF
310
FFFFFFFFFFFFFFFFFFFFFFFFFFFFFFFFFFFFFFFFFFFFFFFFFFFFFFFFFFFFFFFF
310
FFFFFFFFFFFFFFFFFFFFFFFFFFFFFFFFFFFFFFFFFFFFFFFFFFFFFFFFFFFFFFFF
310
FFFFFFFFFFFFFFFFFFFFFFFFFFFFFFFFFFFFFFFFFFFFFFFFFFFFFFFFFFFFFFFF
310
FFFFFFFFFFFFFFFFFFFFFFFFFFFFFFFFFFFFFFFFFFFFFFFFFFFFFFFFFFFFFFFF
310
FFFFFFFFFFFFFFFFFFFFFFFFFFFFFFFFFFFFFFFFFFFFFFFFFFFFFFFFFFFFFFFF
310
FFFFFFFFFFFFFFFFFFFFFFFFFFFFFFFFFFFFFFFFFFFFFFFFFFFFFFFFFFFFFFFF
310
FFFFFFFFFFFFFFFFFFFFFFFFFFFFFFFFFFFFFFFFFFFFFFFFFFFFFFFFFFFFFFFF
310
FFFFFFFFFFFFFFFFFFFFFFFFFFFFFFFFFFFFFFFFFFFFFFFFFFFFFFFFFFFFFFFF
310
FFFFFFFFFFFFFFFFFFFFFFFFFFFFFFFFFFFFFFFFFFFFFFFFFFFFFFFFFFFFFFFF
310
FFFFFFFFFFFFFFFFFFFFFFFFFFFFFFFFFFFFFFFFFFFFFFFFFFFFFFFFFFFFFFFF
310
FFFFFFFFFFFFFFFFFFFFFFFFFFFFFFFFFFFFFFFFFFFFFFFFFFFFFFFFFFFFFFFF
310
FFFFFFFFFFFFFFFFFFFFFFFFFFFFFFFFFFFFFFFFFFFFFFFFFFFFFFFFFFFFFFFF
310
FFFFFFFFFFFFFFFFFFFFFFFFFFFFFFFFFFFFFFFFFFFFFFFFFFFFFFFFFFFFFFFF
310
FFFFFFFFFFFFFFFFFFFFFFFFFFFFFFFFFFFFFFFFFFFFFFFFFFFFFFFFFFFFFFFF
310
0100000200000000000000000000000000000000000000000000000000000000
310
0000000000000000000000000000000000000000000000000000000000000000
310
0100FEFF030A0000FFFFFFFF0A00030000000000C00000000000004607000000
310
5042727573680007000000504272757368000700000050427275736800F439B2
310
7100000000000000000000000000000000000000000000000000000000000000
310
0000000000000000000000000000000000000000000000000000000000000000
310
0000000000000000000000000000000000000000000000000000000000000000
310
0000000000000000000000000000000000000000000000000000000000000000
310
0000000000000000000000000000000000000000000000000000000000000000
310
0000000000000000000000000000000000000000000000000000000000000000
310
0000000000000000000000000000000000000000000000000000000000000000
310
0000000000000000000000000000000000000000000000000000000000000000
310
0000000000000000000000000000000000000000000000000000000000000000
310
0000000000000000000000000000000000000000000000000000000000000000
310
0000000000000000000000000000000000000000000000000000000000000000
310
0000000000000000000000000000000000000000000000000000000000000000
310
20260000424D0E260000000000003E00000028000000B40200006E0000000100
310
01000000000000000000130B0000130B00000200000002000000000000FFFFFF
310
FFFFFFFFFFFFFFFFFFFFFFFFFFFFFFFFFFFFFFFFFFFFFFFFFFFFFFFFFFFFFFFF
310
FFFFFFFFFFFFFFFFFFFFFFFFFFFFFFFFFFFFFFFFFFFFFFFFFFFFFFFFFFFFFFFF
310
FFFFFFFFFFFFFFFFFFFFFFFFFFFFFFFFFFFFFFFFFFFFFFFFF000FFFFFFFFFFFF
310
FFFFFFFFFFFFFFFFFFFFFFFFFFFFFFFFFFFFFFFFFFFFFFFFFFFFFFFFFFFFFFFF
310
FFFFFFFFFFFFFFFFFFFFFFFFFFFFFFFFFFFFFFFFFFFFFFFFFFFFFFFFFFFFFFFF
310
FFFFFFFFFFFFFFFFFFFFFFFFFFFFFFFFF000FFFFFFFFFFFFFFFFFFFFFFFFFFFF
310
FFFFFFFFFFFFFFFFFFFFFFFFFFFFFFFFFFFFFFFFFFFFFFFFFFFFFFFFFFFFFFFF
310
FFFFFFFFFFFFFFFFFFFFFFFFFFFFFFFFFFFFFFFFFFFFFFFFFFFFFFFFFFFFFFFF
310
FFFFFFFFFFFFFFFFF000FFFFFFFFFFFFFFFFFFFFFFFFFFFFFFFFFFFFFFFFFFFF
310
FFFFFFFFFFFFFFFFFFFFFFFFFFFFFFFFFFFFFFFFFFFFFFFFFFFFFFFFFFFFFFFF
310
FFFFFFFFFFFFFFFFFFFFFFFFFFFFFFFFFFFFFFFFFFFFFFFFFFFFFFFFFFFFFFFF
310
F000FFFFFFFFFFFFFFFFFFFFFFFFFFFFFFFFFFFFFFFFFFFFFFFFFFFFFFFFFFFF
310
FFFFFFFFFFFFFFFFFFFFFFFFFFFFFFFFFFFFFFFFFFFFFFFFFFFFFFFFFFFFFFFF
310
FFFFFFFFFFFFFFFFFFFFFFFFFFFFFFFFFFFFFFFFFFFFFFFFF000FFFFFFFFFFFF
310
FFFFFFFFFFFFFFFFFFFFFFFFFFFFFFFFFFFFFFFFFFFFFFFFFFFFFFFFFFFFFFFF
310
FFFFFFFFFFFFFFFFFFFFFFFFFFFFFFFFFFFFFFFFFFFFFFFFFFFFFFFFFFFFFFFF
310
FFFFFFFFFFFFFFFFFFFFFFFFFFFFFFFFF000FFFFFFFFFFFFFFFFFFFFFFFFFFFF
310
FFFFFFFFFFFFFFFFFFFFFFFFFFFFFFFFFFFFFFFFFFFFFFFFFFFFFFFFFFFFFFFF
310
FFFFFFFFFFFFFFFFFFFFFFFFFFFFFFFFFFFFFFFFFFFFFFFFFFFFFFFFFFFFFFFF
310
FFFFFFFFFFFFFFFFF000FFFFFFFFFFFFFFFFFFFFFFFFFFFFFFFFFFFFFFFFFFFF
310
FFFFFFFFFFFFFFFFFFFFFFFFFFFFFFFFFFFFFFFFFFFFFFFFFFFFFFFFFFFFFFFF
310
FFFFFFFFFFFFFFFFFFFFFFFFFFFFFFFFFFFFFFFFFFFFFFFFFFFFFFFFFFFFFFFF
310
F000FFFFFFFFFFFFFFFFFFFFFFFFFFFFFFFFFFFFFFFFFFFFFFFFFFFFFFFFFFFF
310
FFFFFFFFFFFFFFFFFFFFFFFFFFFFFFFFFFFFFFFFFFFFFFFFFFFFFFFFFFFFFFFF
310
FFFFFFFFFFFFFFFFFFFFFFFFFFFFFFFFFFFFFFFFFFFFFFFFF000FFFFFFFFFFFF
310
FFFFFFFFFFFFFFFFFFFFFFFFFFFFFFFFFFFFFFFFFFFFFFFFFFFFFFFFFFFFFFFF
310
FFFFFFFFFFFFFFFFFFFFFFFFFFFFFFFFFFFFFFFFFFFFFFFFFFFFFFFFFFFFFFFF
310
FFFFFFFFFFFFFFFFFFFFFFFFFFFFFFFFF000FFFFFFFFFFFFFFFFFFFFFFFFFFFF
310
FFFFFFFFFFFFFFFFFFFFFFFFFFFFFFFFFFFFFFFFFFFFFFFFFFFFFFFFFFFFFFFF
310
FFFFFFFFFFFFFFFFFFFFFFFFFFFFFFFFFFFFFFFFFFFFFFFFFFFFFFFFFFFFFFFF
310
FFFFFFFFFFFFFFFFF000FFFFFFFFFFFFFFFFFFFFFFFFFFFFFFFFFFFFFFFFFFFF
310
FFFFFFFFFFFFFFFFFFFFFFFFFFFFFFFFFFFFFFFFFFFFFFFFFFFFFFFFFFFFFFFF
310
FFFFFFFFFFFFFFFFFFFFFFFFFFFFFFFFFFFFFFFFFFFFFFFFFFFFFFFFFFFFFFFF
310
F000FFFFFFFFFFFFFFFFFFFFFFFFFFFFFFFFFFFFFFFFFFFFFFFFFFFFFFFFFFFF
310
FFFFFFFFFFFFFFFFFFFFFFFFFFFFFFFFFFFFFFFFFFFFFFFFFFFFFFFFFFFFFFFF
310
FFFFFFFFFFFFFFFFFFFFFFFFFFFFFFFFFFFFFFFFFFFFFFFFF000FFFFFFFFFFFF
310
FFFFFFFFFFFFFFFFFFFFFFFFFFFFFFFFFFFFFFFFFFFFFFFFFFFFFFFFFFFFFFFF
310
FFFFFFFFFFFFFFFFFFFFFFFFFFFFFFFFFFFFFFFFFFFFFFFFFFFFFFFFFFFFFFFF
310
FFFFFFFFFFFFFFFFFFFFFFFFFFFFFFFFF000FFFFFFFFFFFFFFFFFFFFFFFFFFFF
310
FFFFFFFFFFFFFFFFFFFFFFFFFFFFFFFFFFFFFFFFFFFFFFFFFFFFFFFFFFFFFFFF
310
FFFFFFFFFFFFFFFFFFFFFFFFFFFFFFFFFFFFFFFFFFFFFFFFFFFFFFFFFFFFFFFF
310
FFFFFFFFFFFFFFFFF000FFFFFFFFFFFFFFFFFFFFFFFFFFFFFFFFFFFFFFFFFFFF
310
FFFFFFFFFFFFFFFFFFFFFFFFFFFFFFFFFFFFFFFFFFFFFFFFFFFFFFFFFFFFFFFF
310
FFFFFFFFFFFFFFFFFFFFFFFFFFFFFFFFFFFFFFFFFFFFFFFFFFFFFFFFFFFFFFFF
310
F000FFFFFFFFFFFFFFFFFFFFFFFFFFFFFFFFFFFFFFFFFFFFFFFFFFFFFFFFFFFF
310
FFFFFFFFFFFFFFFFFFFFFFFFFFFFFFFFFFFFFFFFFFFFFFFFFFFFFFFFFFFFFFFF
310
FFFFFFFFFFFFFFFFFFFFFFFFFFFFFFFFFFFFFFFFFFFFFFFFF000FFFFFFFFFFFF
310
FFFFFFFFFFFFFFFFFFFFFFFFFFFFFFFFFFFFFFFFFFFFFFFFFFFFFFFFFFFFFFFF
310
FFFFFFFFFFFFFFFFFFFFFFFFFFFFFFFFFFFFFFFFFFFFFFFFFFFFFFFFFFFFFFFF
310
FFFFFFFFFFFFFFFFFFFFFFFFFFFFFFFFF000FFFFFFFFFFFFFFFFFFFFFFFFFFFF
310
FFFFFFFFFFFFFFFFFFFFFFFFFFFFFFFFFFFFFFFFFFFFFFFFFFFFFFFFFFFFFFFF
310
FFFFFFFFFFFFFFFFFFFFFFFFFFFFFFFFFFFFFFFFFFFFFFFFFFFFFFFFFFFFFFFF
310
FFFFFFFFFFFFFFFFF000FFFFF80003FFFFFFFFFFFFFFFFFFFFFFFFFFFFFFFFFF
310
FFFFF00007FFFFFFFFFF00007FFFFFF800000000000000007FFFFFFFFFFFFFFF
310
FFFFFFFC001FFFFFFFFFFFFFFC001FFFFFFFFFFFFFFFFFFFFFFFFFFE0007FFFF
310
F000FFFF8000007FFFFFFFF8000FFFFFC0007FFFFF80007FFFFF0000007FFFFF
310
FFF8000007FFFFF800000000000000007FFFFFF0001FFFFFFFFFFFC00001FFFF
310
FFFFFFFFC00001FFFFFFFF000000000003FFFFE000007FFFF000FFFE0000000F
310
FFFFFFF0000FFFFF80007FFFFF80007FFFFC0000001FFFFFFFC0000001FFFFF8
310
00000000000000007FFFFFF0001FFFFFFFFFFE0000003FFFFFFFFFFE0000003F
310
FFFFFF000000000003FFFF0000000FFFF000FFF800000003FFFFFFF00007FFFF
310
80007FFFFF80007FFFF000000007FFFFFF000000003FFFF80000000000000000
310
7FFFFFF0001FFFFFFFFFF80000000FFFFFFFFFF80000000FFFFFFF0000000000
310
03FFFC00000003FFF000FFE000000000FFFFFFF00007FFFF80003FFFFF80007F
310
FFC000000001FFFFFC000000001FFFF800000000000000007FFFFFF0001FFFFF
310
FFFFE000000003FFFFFFFFE000000003FFFFFF000000000003FFF000000000FF
310
F000FF80000000007FFFFFF00007FFFF80003FFFFF80007FFF8000000000FFFF
310
F80000000007FFF800000000000000007FFFFFF0001FFFFFFFFFC000000001FF
310
FFFFFFC000000001FFFFFF000000000003FFC0000000007FF000FF0000000000
310
3FFFFFE00007FFFF00003FFFFF80007FFE00000000003FFFF00000000003FFF8
310
00000000000000007FFFFFF0001FFFFFFFFF8000000000FFFFFFFF8000000000
310
FFFFFF000000000003FF80000000003FF000FE00000000001FFFFFE00003FFFF
310
00003FFFFF80007FFC00000000001FFFE00000000001FFF8000001FFFE000000
310
7FFFFFF0001FFFFFFFFE00000000003FFFFFFE00000000003FFFFF0000000000
310
03FF00000000001FF000FC00000000000FFFFFE00003FFFF00001FFFFF80007F
310
F800000000001FFFC00000000000FFF8000001FFFE0000007FFFFFF0001FFFFF
310
FFFC00000000001FFFFFFC00000000001FFFFF000000000003FE00000000000F
310
F000F8000000000007FFFFE00003FFFF00001FFFFF80007FF800000000000FFF
310
800000000000FFF8000001FFFE0000007FFFFFF0001FFFFFFFF800000000000F
310
FFFFF800000000000FFFFF000000000003FC000000000007F000F80000000000
310
03FFFFC00003FFFE00001FFFFF80007FF0000000000007FF0000000000007FF8
310
000001FFFE0000007FFFFFF0001FFFFFFFF0000000000007FFFFF00000000000
310
07FFFF000000000003F8000000000003F000F0000000000003FFFFC00001FFFE
310
00001FFFFF80007FE0000000000007FE0000000000003FF8000001FFFE000000
310
7FFFFFF0001FFFFFFFF0000000000007FFFFF0000000000007FFFF0000000000
310
03F800001F800003F000E00001FFF00001FFFFC00001FFFE00000FFFFF80007F
310
E00001FFE00003FE00001FFF00003FF8000001FFFE0000007FFFFFF0001FFFFF
310
FFE000003E000003FFFFE000003E000003FFFF000000000003F00001FFF80001
310
F000E00007FFFC0001FFFFC00001FFFE00000FFFFF80007FC0000FFFFC0003FC
310
0000FFFFC0001FF8000001FFFE0000007FFFFFF0001FFFFFFFC00003FFE00001
310
FFFFC00003FFE00001FFFF0001FFFFFFFFF00007FFFE0001F000E0000FFFFF00
310
00FFFF800001FFFC00000FFFFF80007FC0001FFFFE0001FC0001FFFFE0001FF8
310
000001FFFE0000007FFFFFF0001FFFFFFF80000FFFF80000FFFF80000FFFF800
310
00FFFF0003FFFFFFFFE0000FFFFF8000F000C0003FFFFF8000FFFF800000FFFC
310
000007FFFF80007F80003FFFFF0001FC0003FFFFF0001FF8000001FFFE000000
310
7FFFFFF0001FFFFFFF80003FFFFE0000FFFF80003FFFFE0000FFFF0003FFFFFF
310
FFE0003FFFFF8000F000C0003FFFFF8000FFFF800000FFFC000007FFFF80007F
310
80007FFFFF8001F80007FFFFF8000FF8000001FFFE0000007FFFFFF0001FFFFF
310
FF00007FFFFF00007FFF00007FFFFF00007FFF0003FFFFFFFFE0003FFFFFC000
310
F000C0007FFFFFC000FFFF000000FFFC000007FFFF80007F8000FFFFFF8000F8
310
000FFFFFF8000FF8000001FFFE0000007FFFFFF0001FFFFFFF0000FFFFFF8000
310
7FFF0000FFFFFF80007FFF0003FFFFFFFFC0007FFFFFC00070008000FFFFFFC0
310
00FFFF000000FFF8000007FFFF80007F8000FFFFFF8000F8000FFFFFF8000FF8
310
000001FFFE0000007FFFFFF0001FFFFFFE0001FFFFFFC0003FFE0001FFFFFFC0
310
003FFF0003FFFFFFFFC0007FFFFFE00070008000FFFFFFC0007FFF0000007FF8
310
000003FFFF80007F0001FFFFFF8000F8000FFFFFF8000FF8000001FFFE000000
310
7FFFFFF0001FFFFFFE0001FFFFFFC0003FFE0001FFFFFFC0003FFF0003FFFFFF
310
FFC000FFFFFFE00070008000FFFFFFC0007FFF0000007FF8000003FFFF80007F
310
0001FFFFFF8000F8001FFFFFF8000FF8000001FFFE0000007FFFFFF0001FFFFF
310
FE0003FFFFFFE0003FFE0003FFFFFFE0003FFF0003FFFFFFFFC000FFFFFFE000
310
70008000FFFFFFC0007FFE0000007FF8000003FFFF80007F0001FFFFFF8000F0
310
001FFFFFF8000FF8000001FFFE0000007FFFFFF0001FFFFFFC0003FFFFFFE000
310
1FFC0003FFFFFFE0001FFF0003FFFFFFFFC000FFFFFFC00070008000FFFFFF80
310
007FFE0000007FF0000003FFFF80007F0001FFFFFF0000F0001FFFFFF8000FF8
310
000001FFFE0000007FFFFFF0001FFFFFFC0007FFFFFFF0001FFC0007FFFFFFF0
310
001FFF0003FFFFFFFFC000FFFFFFC00070008001FFFFFF0000FFFE0000003FF0
310
000001FFFF80007F0001FFFFFF0000F8001FFFFFF0000FF8000001FFFE000000
310
7FFFFFF0001FFFFFFC0007FFFFFFF0001FFC0007FFFFFFF0001FFF0003FFFFFF
310
FFC001FFFFFF80007000FFFFFFFFFE0000FFFE0008003FF0008001FFFF80007F
310
FFFFFFFFFC0000FFFFFFFFFFE0000FF8000001FFFE0000007FFFFFF0001FFFFF
310
F8000FFFFFFFF8000FF8000FFFFFFFF8000FFF0003FFFFFFFFFFFFFFFFFF0000
310
7000FFFFFFFFFC0000FFFC0008003FF0008001FFFF80007FFFFFFFFFF80001FF
310
FFFFFFFF80000FF8000001FFFE0000007FFFFFF0001FFFFFF8000FFFFFFFF800
310
0FF8000FFFFFFFF8000FFF0003FFFFFFFFFFFFFFFFFE0000F000FFFFFFFFE000
310
00FFFC000C003FE000C001FFFF80007FFFFFFFFFC00001FFFFFFFFFE00001FF8
310
000001FFFE0000007FFFFFF0001FFFFFF8000FFFFFFFF8000FF8000FFFFFFFF8
310
000FFF0003FFFFFFFFFFFFFFFFF00000F000FFFFFFFE000001FFFC000C001FE0
310
00C000FFFF80007FFFFFFFFE000001FFFFFFFFE000001FF80FFFFFFFFFFFFFC0
310
7FFFFFF0001FFFFFF8000FFFFFFFF8000FF8000FFFFFFFF8000FFF0003FFFFFF
310
FFFFFFFFFF800000F000FFFFFFC0000001FFFC001C001FE001C000FFFF80007F
310
FFFFFF80000003FFFFFFF80000001FF80FFFFFFFFFFFFFC07FFFFFF0001FFFFF
310
F8001FFFFFFFFC000FF8001FFFFFFFFC000FFF0003FFFFFFFFFFFFFFF0000001
310
F000FFFFF800000001FFF8001C001FE001C000FFFF80007FFFFFF800000003FF
310
FFFF800000003FF80FFFFFFFFFFFFFC07FFFFFF0001FFFFFF8001FFFFFFFFC00
310
0FF8001FFFFFFFFC000FFF0003FFFFFFFFFFFFFE00000001F000FFFFC0000000
310
03FFF8001E001FC001E000FFFF80007FFFFF8000000007FFFFFC000000003FF8
310
0FFFFFFFFFFFFFC07FFFFFF0001FFFFFF8001FFFFFFFFC000FF8001FFFFFFFFC
310
000FFF0003FFFFFFFFFFFFE000000003F000FFFE0000000007FFF8001E000FC0
310
01E0007FFF80007FFFFE0000000007FFFFE0000000007FF80FFFFFFFFFFFFFC0
310
7FFFFFF0001FFFFFF0001FFFFFFFFC0007F0001FFFFFFFFC0007FF0003FFFFFF
310
FFFFFF0000000003F000FFF80000000007FFF8001E000FC003E0007FFF80007F
310
FFF0000000000FFFFF8000000000FFF80FFFFFFFFFFFFFC07FFFFFF0001FFFFF
310
F0001FFFFFFFFC0007F0001FFFFFFFFC0007FF0003FFFFFFFFFFFC0000000007
310
F000FFE0000000000FFFF0003E000FC003E0007FFF80007FFFC0000000001FFF
310
FE0000000001FFF80FFFFFFFFFFFFFC07FFFFFF0001FFFFFF0001FFFFFFFFC00
310
07F0001FFFFFFFFC0007FF0003FFFFFFFFFFF0000000000FF000FFC000000000
310
1FFFF0003F000F8003F0003FFF80007FFF80000000003FFFF80000000003FFF8
310
0FFFFFFFFFFFFFC07FFFFFF0001FFFFFF0001FFFFFFFFC0007F0001FFFFFFFFC
310
0007FF0003FFFFFFFFFFE0000000001FF000FF00000000007FFFF0003F000780
310
03F0003FFF80007FFF00000000007FFFF00000000007FFF80FFFFFFFFFFFFFC0
310
7FFFFFF0001FFFFFF0001FFFFFFFFC0007F0001FFFFFFFFC0007FF0003FFFFFF
310
FFFF80000000007FF000FE0000000000FFFFE0003F00078007F0003FFF80007F
310
FE0000000001FFFFE0000000001FFFF80FFFFFFFFFFFFFC07FFFFFF0001FFFFF
310
F0001FFFFFFFFC0007F0001FFFFFFFFC0007FF0003FFFFFFFFFF0000000000FF
310
F000FC0000000003FFFFE0007F00078007F0003FFF80007FFC0000000007FFFF
310
C0000000007FFFF80FFFFFFFFFFFFFC07FFFFFF0001FFFFFF8001FFFFFFFFC00
310
0FF8001FFFFFFFFC000FFF0003FFFFFFFFFE0000000003FFF000FC000000000F
310
FFFFE0007F80070007F8001FFF80007FF8000000001FFFFF8000000001FFFFF8
310
0FFFFFFFFFFFFFC07FFFFFF0001FFFFFF8001FFFFFFFFC000FF8001FFFFFFFFC
310
000FFF0003FFFFFFFFFC000000000FFFF000F8000000007FFFFFE0007F800700
310
07F8001FFF80007FF000000000FFFFFF800000000FFFFFF80FFFFFFFFFFFFFC0
310
7FFFFFF0001FFFFFF8000FFFFFFFF8000FF8000FFFFFFFF8000FFF0003FFFFFF
310
FFFC000000007FFFF000F800000007FFFFFFC0007F8003000FF8001FFF80007F
310
F000000007FFFFFF000000007FFFFFF80FFFFFFFFFFFFFC07FFFFFF0001FFFFF
310
F8000FFFFFFFF8000FF8000FFFFFFFF8000FFF0003FFFFFFFFF80000000FFFFF
310
F000F0000000FFFFFFFFC000FF8003000FF8001FFF80007FE0000000FFFFFFFF
310
0000000FFFFFFFF8000001FFFE0000007FFFFFF0001FFFFFF8000FFFFFFFF800
310
0FF8000FFFFFFFF8000FFF0003FFFFFFFFF8000000FFFFFFF000F000000FFFFF
310
FFFFC000FFC002000FF8000FFF80007FE000001FFFFFFFFE000001FFFFFFFFF8
310
000001FFFE0000007FFFFFF0001FFFFFF8000FFFFFFFF8000FF8000FFFFFFFF8
310
000FFF0003FFFFFFFFF000001FFFFFFFF000E00000FFFFFFFFFFC000FFC00200
310
0FFC000FFF80007FE00001FFFFFFFFFE00001FFFFFFFFFF8000001FFFE000000
310
7FFFFFF0001FFFFFFC000FFFFFFFF8001FFC000FFFFFFFF8001FFF0003FFFFFF
310
FFF00001FFFFFFFFF000E00007FFFFFFFFFF8000FFC000001FFC000FFF80007F
310
C0000FFFFFFFFFFE0000FFFFFFFFFFF8000001FFFE0000007FFFFFF0001FFFFF
310
FC0007FFFFFFF0001FFC0007FFFFFFF0001FFF0003FFFFFFFFF00007FFFFFFFF
310
F000E0001FFFFFFFFFFF8000FFC000001FFC000FFF80007FC0003FFFFFFFFFFE
310
0001FFFFFFFFFFF8000001FFFE0000007FFFFFF0001FFFFFFC0007FFFFFFF000
310
1FFC0007FFFFFFF0001FFF0003FFFFFFFFF0001FFFFFFFFFF000E0003FFFFF00
310
03FF8001FFE000001FFC0007FF80007FC0007FFFFF0007FC0003FFFFF0003FF8
310
000001FFFE0000007FFFFFF0001FFFFFFC0003FFFFFFE0001FFC0003FFFFFFE0
310
001FFF0003FFFFFFFFF0003FFFFFFFFFF000E0003FFFFF0001FF8001FFE00000
310
1FFE0007FF80007FC0007FFFFE0003FC0007FFFFE0003FF8000001FFFE000000
310
7FFFFFF0001FFFFFFE0003FFFFFFE0003FFE0003FFFFFFE0003FFF0003FFFFFF
310
FFF0003FFFFF8001F000E0003FFFFF0001FF0001FFE000001FFE0007FF80007F
310
C0007FFFFE0003FC0007FFFFE0003FF8000001FFFE0000007FFFFFF0001FFFFF
310
FE0001FFFFFFC0003FFE0001FFFFFFC0003FFF0003FFFFFFFFF0003FFFFF0001
310
F000E0003FFFFF0003FF0001FFE000003FFE0007FF80007FC0007FFFFE0003FC
310
0007FFFFE0003FF8000001FFFE0000007FFFFFF0001FFFFFFF0001FFFFFFC000
310
7FFF0001FFFFFFC0007FFF0003FFFFFFFFF0003FFFFF0001F000E0003FFFFE00
310
03FF0003FFF000003FFE0003FF80007FC0007FFFFC0003FE0007FFFFE0003FF8
310
000001FFFE0000007FFFFFF0001FFFFFFF0000FFFFFF80007FFF0000FFFFFF80
310
007FFF0003FFFFFFFFF0003FFFFF0001F000E0003FFFFE0003FF0003FFF00000
310
3FFF0003FF80007FC0007FFFFC0007FE0007FFFFC0003FF8000001FFFE000000
310
7FFFFFF0001FFFFFFF80007FFFFF0000FFFF80007FFFFF0000FFFF0003FFFFFF
310
FFF0003FFFFF0003F000E0003FFFFC0003FE0003FFF000003FFF0003FF80007F
310
E0003FFFF80007FE0003FFFFC0007FF8000001FFFE0000007FFFFFF0001FFFFF
310
FF80003FFFFE0000FFFF80003FFFFE0000FFFF0003FFFFFFFFF0001FFFFE0003
310
F000F0001FFFF80003FE0003FFF000007FFF0001FF80007FE0003FFFF00007FE
310
0001FFFF80007FF8000001FFFE0000007FFFFFF0001FFFFFFFC0000FFFF80001
310
FFFFC0000FFFF80001FFFF0003FFFFFFFFF0001FFFFC0003F000F0000FFFF000
310
07FE0007FFF800007FFF0001FF80007FE0001FFFE00007FF0000FFFE00007FF8
310
000001FFFE0000007FFFFFF0001FFFFFFFC00003FFE00001FFFFC00003FFE000
310
01FFFF0003FFFFFFFFF8000FFFF80003F000F00003FFC00007FC0007FFF80000
310
7FFF8001FF80007FF00007FF80000FFF00007FF80000FFF8000001FFFE000000
310
7F80000000000001FFE000003E000003FFFFE000003E000003FFFF0003FFFFFF
310
FFF80003FFE00007F000F800000000000FFC0007FFF800007FFF8001FF80007F
310
F000000000000FFF000000000000FFF8000001FFFE0000007F80000000000001
310
FFF0000000000007FFFFF0000000000007FFFF0003FFFFFFFFFC00007E000007
310
F000F800000000000FFC0007FFF80000FFFF8000FF80007FF800000000001FFF
310
800000000001FFF8000001FFFE0000007F80000000000001FFF800000000000F
310
FFFFF800000000000FFFFF0003FFFFFFFFFC00000000000FF000FC0000000000
310
1FFC0007FFFC0000FFFF8000FF80007FF800000000003FFFC00000000001FFF8
310
000001FFFE0000007F80000000000001FFF800000000000FFFFFF80000000000
310
0FFFFF0003FFFFFFFFFE00000000001FF000FE00000000003FF8000FFFFC0000
310
FFFF8000FF80007FFC00000000003FFFC00000000003FFF8000001FFFE000000
310
7F80000000000001FFFC00000000001FFFFFFC00000000001FFFFF0003FFFFFF
310
FFFF00000000001FF000FF00000000003FF8000FFFFC0000FFFFC000FF80007F
310
FE00000000007FFFE00000000007FFF8000001FFFE0000007F80000000000001
310
FFFE00000000003FFFFFFE00000000003FFFFF0003FFFFFFFFFF80000000003F
310
F000FF80000000007FF8000FFFFC0001FFFFC0007F80007FFF0000000000FFFF
310
F0000000000FFFF800000000000000007F80000000000001FFFF8000000000FF
310
FFFFFF8000000000FFFFFF0003FFFFFFFFFFC0000000007FF000FFC000000000
310
FFF8000FFFFE0001FFFFC0007F80007FFF8000000001FFFFF8000000001FFFF8
310
00000000000000007F80000000000001FFFFC000000001FFFFFFFFC000000001
310
FFFFFF0003FFFFFFFFFFE000000000FFF000FFE000000003FFF0001FFFFE0001
310
FFFFC0007F80007FFFC000000007FFFFFE000000003FFFF80000000000000000
310
7F80000000000001FFFFE000000003FFFFFFFFE000000003FFFFFF0003FFFFFF
310
FFFFF000000003FFF000FFF80000000FFFF0001FFFFE0001FFFFE0007F80007F
310
FFF00000000FFFFFFF00000000FFFFF800000000000000007F80000000000001
310
FFFFF80000000FFFFFFFFFF80000000FFFFFFF0003FFFFFFFFFFFC0000000FFF
310
F000FFFE0000003FFFF0001FFFFE0003FFFFE0003F80007FFFFC0000003FFFFF
310
FFC0000003FFFFF800000000000000007F80000000000001FFFFFE0000003FFF
310
FFFFFFFE0000003FFFFFFF0003FFFFFFFFFFFF0000003FFFF000FFFF800000FF
310
FFF0001FFFFF0003FFFFE0003F80007FFFFF000001FFFFFFFFF800001FFFFFF8
310
00000000000000007F80000000000001FFFFFFC00001FFFFFFFFFFFFC00001FF
310
FFFFFF0003FFFFFFFFFFFFC00000FFFFF000FFFFF8000FFFFFFFFFFFFFFFFFFF
310
FFFFFFFFFFFFFFFFFFFFF0001FFFFFFFFFFF0000FFFFFFF80000000000000000
310
7FFFFFFFFFFFFFFFFFFFFFFC001FFFFFFFFFFFFFFC001FFFFFFFFFFFFFFFFFFF
310
FFFFFFFC001FFFFFF000FFFFFFFFFFFFFFFFFFFFFFFFFFFFFFFFFFFFFFFFFFFF
310
FFFFFFFFFFFFFFFFFFFFFFFFFFFFFFFFFFFFFFFFFFFFFFFFFFFFFFFFFFFFFFFF
310
FFFFFFFFFFFFFFFFFFFFFFFFFFFFFFFFFFFFFFFFFFFFFFFFFFFFFFFFFFFFFFFF
310
F000FFFFFFFFFFFFFFFFFFFFFFFFFFFFFFFFFFFFFFFFFFFFFFFFFFFFFFFFFFFF
310
FFFFFFFFFFFFFFFFFFFFFFFFFFFFFFFFFFFFFFFFFFFFFFFFFFFFFFFFFFFFFFFF
310
FFFFFFFFFFFFFFFFFFFFFFFFFFFFFFFFFFFFFFFFFFFFFFFFF000FFFFFFFFFFFF
310
FFFFFFFFFFFFFFFFFFFFFFFFFFFFFFFFFFFFFFFFFFFFFFFFFFFFFFFFFFFFFFFF
310
FFFFFFFFFFFFFFFFFFFFFFFFFFFFFFFFFFFFFFFFFFFFFFFFFFFFFFFFFFFFFFFF
310
FFFFFFFFFFFFFFFFFFFFFFFFFFFFFFFFF000FFFFFFFFFFFFFFFFFFFFFFFFFFFF
310
FFFFFFFFFFFFFFFFFFFFFFFFFFFFFFFFFFFFFFFFFFFFFFFFFFFFFFFFFFFFFFFF
310
FFFFFFFFFFFFFFFFFFFFFFFFFFFFFFFFFFFFFFFFFFFFFFFFFFFFFFFFFFFFFFFF
310
FFFFFFFFFFFFFFFFF000FFFFFFFFFFFFFFFFFFFFFFFFFFFFFFFFFFFFFFFFFFFF
310
FFFFFFFFFFFFFFFFFFFFFFFFFFFFFFFFFFFFFFFFFFFFFFFFFFFFFFFFFFFFFFFF
310
FFFFFFFFFFFFFFFFFFFFFFFFFFFFFFFFFFFFFFFFFFFFFFFFFFFFFFFFFFFFFFFF
310
F000FFFFFFFFFFFFFFFFFFFFFFFFFFFFFFFFFFFFFFFFFFFFFFFFFFFFFFFFFFFF
310
FFFFFFFFFFFFFFFFFFFFFFFFFFFFFFFFFFFFFFFFFFFFFFFFFFFFFFFFFFFFFFFF
310
FFFFFFFFFFFFFFFFFFFFFFFFFFFFFFFFFFFFFFFFFFFFFFFFF000FFFFFFFFFFFF
310
FFFFFFFFFFFFFFFFFFFFFFFFFFFFFFFFFFFFFFFFFFFFFFFFFFFFFFFFFFFFFFFF
310
FFFFFFFFFFFFFFFFFFFFFFFFFFFFFFFFFFFFFFFFFFFFFFFFFFFFFFFFFFFFFFFF
310
FFFFFFFFFFFFFFFFFFFFFFFFFFFFFFFFF000FFFFFFFFFFFFFFFFFFFFFFFFFFFF
310
FFFFFFFFFFFFFFFFFFFFFFFFFFFFFFFFFFFFFFFFFFFFFFFFFFFFFFFFFFFFFFFF
310
FFFFFFFFFFFFFFFFFFFFFFFFFFFFFFFFFFFFFFFFFFFFFFFFFFFFFFFFFFFFFFFF
310
FFFFFFFFFFFFFFFFF000FFFFFFFFFFFFFFFFFFFFFFFFFFFFFFFFFFFFFFFFFFFF
310
FFFFFFFFFFFFFFFFFFFFFFFFFFFFFFFFFFFFFFFFFFFFFFFFFFFFFFFFFFFFFFFF
310
FFFFFFFFFFFFFFFFFFFFFFFFFFFFFFFFFFFFFFFFFFFFFFFFFFFFFFFFFFFFFFFF
310
F000FFFFFFFFFFFFFFFFFFFFFFFFFFFFFFFFFFFFFFFFFFFFFFFFFFFFFFFFFFFF
310
FFFFFFFFFFFFFFFFFFFFFFFFFFFFFFFFFFFFFFFFFFFFFFFFFFFFFFFFFFFFFFFF
310
FFFFFFFFFFFFFFFFFFFFFFFFFFFFFFFFFFFFFFFFFFFFFFFFF000FFFFFFFFFFFF
310
FFFFFFFFFFFFFFFFFFFFFFFFFFFFFFFFFFFFFFFFFFFFFFFFFFFFFFFFFFFFFFFF
310
FFFFFFFFFFFFFFFFFFFFFFFFFFFFFFFFFFFFFFFFFFFFFFFFFFFFFFFFFFFFFFFF
310
FFFFFFFFFFFFFFFFFFFFFFFFFFFFFFFFF000FFFFFFFFFFFFFFFFFFFFFFFFFFFF
310
FFFFFFFFFFFFFFFFFFFFFFFFFFFFFFFFFFFFFFFFFFFFFFFFFFFFFFFFFFFFFFFF
310
FFFFFFFFFFFFFFFFFFFFFFFFFFFFFFFFFFFFFFFFFFFFFFFFFFFFFFFFFFFFFFFF
310
FFFFFFFFFFFFFFFFF000FFFFFFFFFFFFFFFFFFFFFFFFFFFFFFFFFFFFFFFFFFFF
310
FFFFFFFFFFFFFFFFFFFFFFFFFFFFFFFFFFFFFFFFFFFFFFFFFFFFFFFFFFFFFFFF
310
FFFFFFFFFFFFFFFFFFFFFFFFFFFFFFFFFFFFFFFFFFFFFFFFFFFFFFFFFFFFFFFF
310
F000FFFFFFFFFFFFFFFFFFFFFFFFFFFFFFFFFFFFFFFFFFFFFFFFFFFFFFFFFFFF
310
FFFFFFFFFFFFFFFFFFFFFFFFFFFFFFFFFFFFFFFFFFFFFFFFFFFFFFFFFFFFFFFF
310
FFFFFFFFFFFFFFFFFFFFFFFFFFFFFFFFFFFFFFFFFFFFFFFFF000FFFFFFFFFFFF
310
FFFFFFFFFFFFFFFFFFFFFFFFFFFFFFFFFFFFFFFFFFFFFFFFFFFFFFFFFFFFFFFF
310
FFFFFFFFFFFFFFFFFFFFFFFFFFFFFFFFFFFFFFFFFFFFFFFFFFFFFFFFFFFFFFFF
310
FFFFFFFFFFFFFFFFFFFFFFFFFFFFFFFFF000FFFFFFFFFFFFFFFFFFFFFFFFFFFF
310
FFFFFFFFFFFFFFFFFFFFFFFFFFFFFFFFFFFFFFFFFFFFFFFFFFFFFFFFFFFFFFFF
310
FFFFFFFFFFFFFFFFFFFFFFFFFFFFFFFFFFFFFFFFFFFFFFFFFFFFFFFFFFFFFFFF
310
FFFFFFFFFFFFFFFFF000FFFFFFFFFFFFFFFFFFFFFFFFFFFFFFFFFFFFFFFFFFFF
310
FFFFFFFFFFFFFFFFFFFFFFFFFFFFFFFFFFFFFFFFFFFFFFFFFFFFFFFFFFFFFFFF
310
FFFFFFFFFFFFFFFFFFFFFFFFFFFFFFFFFFFFFFFFFFFFFFFFFFFFFFFFFFFFFFFF
310
F000FFFFFFFFFFFFFFFFFFFFFFFFFFFFFFFFFFFFFFFFFFFFFFFFFFFFFFFFFFFF
310
FFFFFFFFFFFFFFFFFFFFFFFFFFFFFFFFFFFFFFFFFFFFFFFFFFFFFFFFFFFFFFFF
310
FFFFFFFFFFFFFFFFFFFFFFFFFFFFFFFFFFFFFFFFFFFFFFFFF000FFFFFFFFFFFF
310
FFFFFFFFFFFFFFFFFFFFFFFFFFFFFFFFFFFFFFFFFFFFFFFFFFFFFFFFFFFFFFFF
310
FFFFFFFFFFFFFFFFFFFFFFFFFFFFFFFFFFFFFFFFFFFFFFFFFFFFFFFFFFFFFFFF
310
FFFFFFFFFFFFFFFFFFFFFFFFFFFFFFFFF000FFFFFFFFFFFFFFFFFFFFFFFFFFFF
310
FFFFFFFFFFFFFFFFFFFFFFFFFFFFFFFFFFFFFFFFFFFFFFFFFFFFFFFFFFFFFFFF
310
FFFFFFFFFFFFFFFFFFFFFFFFFFFFFFFFFFFFFFFFFFFFFFFFFFFFFFFFFFFFFFFF
310
FFFFFFFFFFFFFFFFF000FFFFFFFFFFFFFFFFFFFFFFFFFFFFFFFFFFFFFFFFFFFF
310
FFFFFFFFFFFFFFFFFFFFFFFFFFFFFFFFFFFFFFFFFFFFFFFFFFFFFFFFFFFFFFFF
310
FFFFFFFFFFFFFFFFFFFFFFFFFFFFFFFFFFFFFFFFFFFFFFFFFFFFFFFFFFFFFFFF
310
F000FFFFFFFFFFFFFFFFFFFFFFFFFFFFFFFFFFFFFFFFFFFFFFFFFFFFFFFFFFFF
310
FFFFFFFFFFFFFFFFFFFFFFFFFFFFFFFFFFFFFFFFFFFFFFFFFFFFFFFFFFFFFFFF
310
FFFFFFFFFFFFFFFFFFFFFFFFFFFFFFFFFFFFFFFFFFFFFFFFF000FFFFFFFFFFFF
310
FFFFFFFFFFFFFFFFFFFFFFFFFFFFFFFFFFFFFFFFFFFFFFFFFFFFFFFFFFFFFFFF
310
FFFFFFFFFFFFFFFFFFFFFFFFFFFFFFFFFFFFFFFFFFFFFFFFFFFFFFFFFFFFFFFF
310
FFFFFFFFFFFFFFFFFFFFFFFFFFFFFFFFF0000000000000000000000000000000
310
0000000000000000000000000000000000000000000000000000000000000000
310
0000000000000000000000000000000000000000000000000000000000000000
310
0000000000000000000000000000000000000000000000000000000000000000
310
0000000000000000000000000000000000000000000000000000000000000000
310
0000000000000000000000000000000000000000000000000000000000000000
310
0000000000000000000000000000000000000000000000000000000000000000
310
0000000000000000000000000000000000000000000000000000000000000000
310
0000000000000000000000000000000000000000000000000000000000000000
310
0000000000000000000000000000000000000000000000000000000000000000
310
0000000000000000000000000000000000000000000000000000000000000000
310
0000000000000000000000000000000000000000000000000000000000000000
310
0000000000000000000000000000000000000000000000000000000000000000
310
0000000000000000000000000000000000000000000000000000000000000000
310
0000000000000000000000000000000000000000000000000000000000000000
310
0000000000000000000000000000000000000000000000000000000000000000
  1
OLE
  0
ENDSEC
  0
SECTION
  2
OBJECTS
  0
DICTIONARY
  5
C
330
0
100
AcDbDictionary
281
     1
  3
ACAD_GROUP
350
D
  3
ACAD_LAYOUT
350
1A
  3
ACAD_MLINESTYLE
350
17
  3
ACAD_PLOTSETTINGS
350
19
  3
ACAD_PLOTSTYLENAME
350
E
  3
ACAD_SCALELIST
350
47
  0
DICTIONARY
  5
D
102
{ACAD_REACTORS
330
C
102
}
330
C
100
AcDbDictionary
281
     1
  0
DICTIONARY
  5
1A
102
{ACAD_REACTORS
330
C
102
}
330
C
100
AcDbDictionary
281
     1
  3
Layout1
350
1E
  3
Layout2
350
26
  3
Model
350
22
  0
DICTIONARY
  5
17
102
{ACAD_REACTORS
330
C
102
}
330
C
100
AcDbDictionary
281
     1
  3
Standard
350
18
  0
DICTIONARY
  5
19
102
{ACAD_REACTORS
330
C
102
}
330
C
100
AcDbDictionary
281
     1
  0
ACDBDICTIONARYWDFLT
  5
E
102
{ACAD_REACTORS
330
C
102
}
330
C
100
AcDbDictionary
281
     1
  3
Normal
350
F
100
AcDbDictionaryWithDefault
340
F
  0
DICTIONARY
  5
47
102
{ACAD_REACTORS
330
C
102
}
330
C
100
AcDbDictionary
281
     1
  3
A0
350
48
  3
A1
350
49
  3
A2
350
4A
  3
A3
350
4B
  3
A4
350
4C
  3
A5
350
4D
  3
A6
350
4E
  3
A7
350
4F
  3
A8
350
50
  3
A9
350
51
  3
B0
350
52
  3
B1
350
53
  3
B2
350
54
  3
B3
350
55
  3
B4
350
56
  3
B5
350
57
  3
B6
350
58
  3
B7
350
59
  3
B8
350
5A
  3
B9
350
5B
  3
C0
350
5C
  3
C1
350
5D
  3
C2
350
5E
  3
C3
350
5F
  3
C4
350
60
  3
C5
350
61
  3
C6
350
62
  3
C7
350
63
  3
C8
350
64
  3
C9
350
65
  3
D0
350
66
  3
D1
350
67
  3
D2
350
68
  0
LAYOUT
  5
1E
102
{ACAD_REACTORS
330
1A
102
}
330
1A
100
AcDbPlotSettings
  1

  2
none_device
  4

  6

 40
0.0
 41
0.0
 42
0.0
 43
0.0
 44
0.0
 45
0.0
 46
0.0
 47
0.0
 48
0.0
 49
0.0
140
0.0
141
0.0
142
1.0
143
1.0
 70
   688
 72
     1
 73
     0
 74
     5
  7

 75
    16
147
1.0
148
0.0
149
0.0
100
AcDbLayout
  1
Layout1
 70
     1
 71
     1
 10
0.0
 20
0.0
 11
420.0
 21
297.0
 12
0.0
 22
0.0
 32
0.0
 14
1.0000000000E+20
 24
1.0000000000E+20
 34
1.0000000000E+20
 15
-1.0000000000E+20
 25
-1.0000000000E+20
 35
-1.0000000000E+20
146
0.0
 13
0.0
 23
0.0
 33
0.0
 16
1.0
 26
0.0
 36
0.0
 17
0.0
 27
1.0
 37
0.0
 76
     0
330
1B
  0
LAYOUT
  5
26
102
{ACAD_REACTORS
330
1A
102
}
330
1A
100
AcDbPlotSettings
  1

  2
none_device
  4

  6

 40
0.0
 41
0.0
 42
0.0
 43
0.0
 44
0.0
 45
0.0
 46
0.0
 47
0.0
 48
0.0
 49
0.0
140
0.0
141
0.0
142
1.0
143
1.0
 70
   688
 72
     1
 73
     0
 74
     5
  7

 75
    16
147
1.0
148
0.0
149
0.0
100
AcDbLayout
  1
Layout2
 70
     1
 71
     2
 10
0.0
 20
0.0
 11
0.0
 21
0.0
 12
0.0
 22
0.0
 32
0.0
 14
0.0
 24
0.0
 34
0.0
 15
0.0
 25
0.0
 35
0.0
146
0.0
 13
0.0
 23
0.0
 33
0.0
 16
1.0
 26
0.0
 36
0.0
 17
0.0
 27
1.0
 37
0.0
 76
     0
330
23
  0
LAYOUT
  5
22
102
{ACAD_REACTORS
330
1A
102
}
330
1A
100
AcDbPlotSettings
  1

  2
none_device
  4
Letter_(8.50_x_11.00_Inches)
  6

 40
6.35
 41
6.35
 42
6.35000508
 43
6.35000508
 44
215.9
 45
279.4
 46
0.0
 47
0.0
 48
0.0
 49
0.0
140
0.0
141
0.0
142
1.0
143
1.0
 70
  1712
 72
     1
 73
     0
 74
     0
  7

 75
     0
147
1.0
148
0.0
149
0.0
100
AcDbLayout
  1
Model
 70
     1
 71
     0
 10
0.0
 20
0.0
 11
297.0
 21
210.0
 12
0.0
 22
0.0
 32
0.0
 14
0.0
 24
0.0
 34
0.0
 15
297.0
 25
210.0
 35
0.0
146
0.0
 13
0.0
 23
0.0
 33
0.0
 16
1.0
 26
0.0
 36
0.0
 17
0.0
 27
1.0
 37
0.0
 76
     0
330
1F
331
29
  0
MLINESTYLE
  5
18
102
{ACAD_REACTORS
330
17
102
}
330
17
100
AcDbMlineStyle
  2
Standard
 70
     0
  3

 62
   256
 51
90.0
 52
90.0
 71
     2
 49
0.5
 62
   256
  6
BYLAYER
 49
-0.5
 62
   256
  6
BYLAYER
  0
ACDBPLACEHOLDER
  5
F
102
{ACAD_REACTORS
330
E
102
}
330
E
  0
SCALE
  5
48
102
{ACAD_REACTORS
330
47
102
}
330
47
100
AcDbScale
 70
     0
300
1:1
140
1.0
141
1.0
290
     1
  0
SCALE
  5
49
102
{ACAD_REACTORS
330
47
102
}
330
47
100
AcDbScale
 70
     0
300
1:2
140
1.0
141
2.0
290
     0
  0
SCALE
  5
4A
102
{ACAD_REACTORS
330
47
102
}
330
47
100
AcDbScale
 70
     0
300
1:4
140
1.0
141
4.0
290
     0
  0
SCALE
  5
4B
102
{ACAD_REACTORS
330
47
102
}
330
47
100
AcDbScale
 70
     0
300
1:5
140
1.0
141
5.0
290
     0
  0
SCALE
  5
4C
102
{ACAD_REACTORS
330
47
102
}
330
47
100
AcDbScale
 70
     0
300
1:8
140
1.0
141
8.0
290
     0
  0
SCALE
  5
4D
102
{ACAD_REACTORS
330
47
102
}
330
47
100
AcDbScale
 70
     0
300
1:10
140
1.0
141
10.0
290
     0
  0
SCALE
  5
4E
102
{ACAD_REACTORS
330
47
102
}
330
47
100
AcDbScale
 70
     0
300
1:16
140
1.0
141
16.0
290
     0
  0
SCALE
  5
4F
102
{ACAD_REACTORS
330
47
102
}
330
47
100
AcDbScale
 70
     0
300
1:20
140
1.0
141
20.0
290
     0
  0
SCALE
  5
50
102
{ACAD_REACTORS
330
47
102
}
330
47
100
AcDbScale
 70
     0
300
1:30
140
1.0
141
30.0
290
     0
  0
SCALE
  5
51
102
{ACAD_REACTORS
330
47
102
}
330
47
100
AcDbScale
 70
     0
300
1:40
140
1.0
141
40.0
290
     0
  0
SCALE
  5
52
102
{ACAD_REACTORS
330
47
102
}
330
47
100
AcDbScale
 70
     0
300
1:50
140
1.0
141
50.0
290
     0
  0
SCALE
  5
53
102
{ACAD_REACTORS
330
47
102
}
330
47
100
AcDbScale
 70
     0
300
1:100
140
1.0
141
100.0
290
     0
  0
SCALE
  5
54
102
{ACAD_REACTORS
330
47
102
}
330
47
100
AcDbScale
 70
     0
300
2:1
140
2.0
141
1.0
290
     0
  0
SCALE
  5
55
102
{ACAD_REACTORS
330
47
102
}
330
47
100
AcDbScale
 70
     0
300
4:1
140
4.0
141
1.0
290
     0
  0
SCALE
  5
56
102
{ACAD_REACTORS
330
47
102
}
330
47
100
AcDbScale
 70
     0
300
8:1
140
8.0
141
1.0
290
     0
  0
SCALE
  5
57
102
{ACAD_REACTORS
330
47
102
}
330
47
100
AcDbScale
 70
     0
300
10:1
140
10.0
141
1.0
290
     0
  0
SCALE
  5
58
102
{ACAD_REACTORS
330
47
102
}
330
47
100
AcDbScale
 70
     0
300
100:1
140
100.0
141
1.0
290
     0
  0
SCALE
  5
59
102
{ACAD_REACTORS
330
47
102
}
330
47
100
AcDbScale
 70
     0
300
1/128" = 1'-0"
140
0.0078125
141
12.0
290
     0
  0
SCALE
  5
5A
102
{ACAD_REACTORS
330
47
102
}
330
47
100
AcDbScale
 70
     0
300
1/64" = 1'-0"
140
0.015625
141
12.0
290
     0
  0
SCALE
  5
5B
102
{ACAD_REACTORS
330
47
102
}
330
47
100
AcDbScale
 70
     0
300
1/32" = 1'-0"
140
0.03125
141
12.0
290
     0
  0
SCALE
  5
5C
102
{ACAD_REACTORS
330
47
102
}
330
47
100
AcDbScale
 70
     0
300
1/16" = 1'-0"
140
0.0625
141
12.0
290
     0
  0
SCALE
  5
5D
102
{ACAD_REACTORS
330
47
102
}
330
47
100
AcDbScale
 70
     0
300
3/32" = 1'-0"
140
0.09375
141
12.0
290
     0
  0
SCALE
  5
5E
102
{ACAD_REACTORS
330
47
102
}
330
47
100
AcDbScale
 70
     0
300
1/8" = 1'-0"
140
0.125
141
12.0
290
     0
  0
SCALE
  5
5F
102
{ACAD_REACTORS
330
47
102
}
330
47
100
AcDbScale
 70
     0
300
3/16" = 1'-0"
140
0.1875
141
12.0
290
     0
  0
SCALE
  5
60
102
{ACAD_REACTORS
330
47
102
}
330
47
100
AcDbScale
 70
     0
300
1/4" = 1'-0"
140
0.25
141
12.0
290
     0
  0
SCALE
  5
61
102
{ACAD_REACTORS
330
47
102
}
330
47
100
AcDbScale
 70
     0
300
3/8" = 1'-0"
140
0.375
141
12.0
290
     0
  0
SCALE
  5
62
102
{ACAD_REACTORS
330
47
102
}
330
47
100
AcDbScale
 70
     0
300
1/2" = 1'-0"
140
0.5
141
12.0
290
     0
  0
SCALE
  5
63
102
{ACAD_REACTORS
330
47
102
}
330
47
100
AcDbScale
 70
     0
300
3/4" = 1'-0"
140
0.75
141
12.0
290
     0
  0
SCALE
  5
64
102
{ACAD_REACTORS
330
47
102
}
330
47
100
AcDbScale
 70
     0
300
1" = 1'-0"
140
1.0
141
12.0
290
     0
  0
SCALE
  5
65
102
{ACAD_REACTORS
330
47
102
}
330
47
100
AcDbScale
 70
     0
300
1-1/2" = 1'-0"
140
1.5
141
12.0
290
     0
  0
SCALE
  5
66
102
{ACAD_REACTORS
330
47
102
}
330
47
100
AcDbScale
 70
     0
300
3" = 1'-0"
140
3.0
141
12.0
290
     0
  0
SCALE
  5
67
102
{ACAD_REACTORS
330
47
102
}
330
47
100
AcDbScale
 70
     0
300
6" = 1'-0"
140
6.0
141
12.0
290
     0
  0
SCALE
  5
68
102
{ACAD_REACTORS
330
47
102
}
330
47
100
AcDbScale
 70
     0
300
1'-0" = 1'-0"
140
12.0
141
12.0
290
     0
  0
ENDSEC
  0
EOF
