  0
SECTION
  2
HEADER
  9
$ACADVER
  1
AC1015
  9
$ACADMAINTVER
 70
     6
  9
$DWGCODEPAGE
  3
ANSI_1252
  9
$INSBASE
 10
0.0
 20
0.0
 30
0.0
  9
$EXTMIN
 10
0.0
 20
0.0
 30
0.0
  9
$EXTMAX
 10
297.0
 20
210.0
 30
0.0
  9
$LIMMIN
 10
0.0
 20
0.0
  9
$LIMMAX
 10
297.0
 20
210.0
  9
$ORTHOMODE
 70
     0
  9
$REGENMODE
 70
     1
  9
$FILLMODE
 70
     1
  9
$QTEXTMODE
 70
     0
  9
$MIRRTEXT
 70
     1
  9
$LTSCALE
 40
1.0
  9
$ATTMODE
 70
     1
  9
$TEXTSIZE
 40
2.0
  9
$TRACEWID
 40
1.0
  9
$TEXTSTYLE
  7
Standard
  9
$CLAYER
  8
0
  9
$CELTYPE
  6
ByLayer
  9
$CECOLOR
 62
   256
  9
$CELTSCALE
 40
1.0
  9
$DISPSILH
 70
     0
  9
$DIMSCALE
 40
1.0
  9
$DIMASZ
 40
3.0
  9
$DIMEXO
 40
0.0
  9
$DIMDLI
 40
3.75
  9
$DIMRND
 40
0.0
  9
$DIMDLE
 40
0.0
  9
$DIMEXE
 40
1.0
  9
$DIMTP
 40
0.0
  9
$DIMTM
 40
0.0
  9
$DIMTXT
 40
2.0
  9
$DIMCEN
 40
2.5
  9
$DIMTSZ
 40
0.0
  9
$DIMTOL
 70
     0
  9
$DIMLIM
 70
     0
  9
$DIMTIH
 70
     1
  9
$DIMTOH
 70
     1
  9
$DIMSE1
 70
     0
  9
$DIMSE2
 70
     0
  9
$DIMTAD
 70
     1
  9
$DIMZIN
 70
     0
  9
$DIMBLK
  1

  9
$DIMASO
 70
     1
  9
$DIMSHO
 70
     1
  9
$DIMPOST
  1

  9
$DIMAPOST
  1

  9
$DIMALT
 70
     0
  9
$DIMALTD
 70
     3
  9
$DIMALTF
 40
0.0393700787
  9
$DIMLFAC
 40
1.0
  9
$DIMTOFL
 70
     1
  9
$DIMTVP
 40
0.0
  9
$DIMTIX
 70
     0
  9
$DIMSOXD
 70
     0
  9
$DIMSAH
 70
     0
  9
$DIMBLK1
  1

  9
$DIMBLK2
  1

  9
$DIMSTYLE
  2
ISO-25
  9
$DIMCLRD
 70
     0
  9
$DIMCLRE
 70
     0
  9
$DIMCLRT
 70
     0
  9
$DIMTFAC
 40
1.0
  9
$DIMGAP
 40
1.524
  9
$DIMJUST
 70
     0
  9
$DIMSD1
 70
     0
  9
$DIMSD2
 70
     0
  9
$DIMTOLJ
 70
     0
  9
$DIMTZIN
 70
     0
  9
$DIMALTZ
 70
     0
  9
$DIMALTTZ
 70
     0
  9
$DIMUPT
 70
     0
  9
$DIMDEC
 70
     2
  9
$DIMTDEC
 70
     3
  9
$DIMALTU
 70
     2
  9
$DIMALTTD
 70
     3
  9
$DIMTXSTY
  7
Standard
  9
$DIMAUNIT
 70
     0
  9
$DIMADEC
 70
     2
  9
$DIMALTRND
 40
0.0
  9
$DIMAZIN
 70
     0
  9
$DIMDSEP
 70
    44
  9
$DIMATFIT
 70
     3
  9
$DIMFRAC
 70
     0
  9
$DIMLDRBLK
  1

  9
$DIMLUNIT
 70
     2
  9
$DIMLWD
 70
    -2
  9
$DIMLWE
 70
    -2
  9
$DIMTMOVE
 70
     0
  9
$LUNITS
 70
     2
  9
$LUPREC
 70
     2
  9
$SKETCHINC
 40
1.0
  9
$FILLETRAD
 40
10.0
  9
$AUNITS
 70
     0
  9
$AUPREC
 70
     2
  9
$MENU
  1
.
  9
$ELEVATION
 40
0.0
  9
$PELEVATION
 40
0.0
  9
$THICKNESS
 40
0.0
  9
$LIMCHECK
 70
     0
  9
$CHAMFERA
 40
10.0
  9
$CHAMFERB
 40
10.0
  9
$CHAMFERC
 40
20.0
  9
$CHAMFERD
 40
0.0
  9
$SKPOLY
 70
     0
  9
$TDCREATE
 40
2456091.646235798
  9
$TDUCREATE
 40
2456091.562902465
  9
$TDUPDATE
 40
2456091.646237419
  9
$TDUUPDATE
 40
2456091.562904085
  9
$TDINDWG
 40
0.0000000116
  9
$TDUSRTIMER
 40
0.0000000116
  9
$USRTIMER
 70
     1
  9
$ANGBASE
 50
0.0
  9
$ANGDIR
 70
     0
  9
$PDMODE
 70
     0
  9
$PDSIZE
 40
-1.0
  9
$PLINEWID
 40
0.0
  9
$SPLFRAME
 70
     0
  9
$SPLINETYPE
 70
     6
  9
$SPLINESEGS
 70
     8
  9
$HANDSEED
  5
302
  9
$SURFTAB1
 70
     6
  9
$SURFTAB2
 70
     6
  9
$SURFTYPE
 70
     6
  9
$SURFU
 70
     6
  9
$SURFV
 70
     6
  9
$UCSBASE
  2

  9
$UCSNAME
  2

  9
$UCSORG
 10
0.0
 20
0.0
 30
0.0
  9
$UCSXDIR
 10
1.0
 20
0.0
 30
0.0
  9
$UCSYDIR
 10
0.0
 20
1.0
 30
0.0
  9
$UCSORTHOREF
  2

  9
$UCSORTHOVIEW
 70
     0
  9
$UCSORGTOP
 10
0.0
 20
0.0
 30
0.0
  9
$UCSORGBOTTOM
 10
0.0
 20
0.0
 30
0.0
  9
$UCSORGLEFT
 10
0.0
 20
0.0
 30
0.0
  9
$UCSORGRIGHT
 10
0.0
 20
0.0
 30
0.0
  9
$UCSORGFRONT
 10
0.0
 20
0.0
 30
0.0
  9
$UCSORGBACK
 10
0.0
 20
0.0
 30
0.0
  9
$PUCSBASE
  2

  9
$PUCSNAME
  2

  9
$PUCSORG
 10
0.0
 20
0.0
 30
0.0
  9
$PUCSXDIR
 10
1.0
 20
0.0
 30
0.0
  9
$PUCSYDIR
 10
0.0
 20
1.0
 30
0.0
  9
$PUCSORTHOREF
  2

  9
$PUCSORTHOVIEW
 70
     0
  9
$PUCSORGTOP
 10
0.0
 20
0.0
 30
0.0
  9
$PUCSORGBOTTOM
 10
0.0
 20
0.0
 30
0.0
  9
$PUCSORGLEFT
 10
0.0
 20
0.0
 30
0.0
  9
$PUCSORGRIGHT
 10
0.0
 20
0.0
 30
0.0
  9
$PUCSORGFRONT
 10
0.0
 20
0.0
 30
0.0
  9
$PUCSORGBACK
 10
0.0
 20
0.0
 30
0.0
  9
$USERI1
 70
     0
  9
$USERI2
 70
     0
  9
$USERI3
 70
     0
  9
$USERI4
 70
     0
  9
$USERI5
 70
     0
  9
$USERR1
 40
0.0
  9
$USERR2
 40
0.0
  9
$USERR3
 40
0.0
  9
$USERR4
 40
0.0
  9
$USERR5
 40
0.0
  9
$WORLDVIEW
 70
     1
  9
$SHADEDGE
 70
     3
  9
$SHADEDIF
 70
    70
  9
$TILEMODE
 70
     1
  9
$MAXACTVP
 70
    64
  9
$PINSBASE
 10
0.0
 20
0.0
 30
0.0
  9
$PLIMCHECK
 70
     0
  9
$PEXTMIN
 10
1.0000000000E+20
 20
1.0000000000E+20
 30
1.0000000000E+20
  9
$PEXTMAX
 10
-1.0000000000E+20
 20
-1.0000000000E+20
 30
-1.0000000000E+20
  9
$PLIMMIN
 10
0.0
 20
0.0
  9
$PLIMMAX
 10
420.0
 20
297.0
  9
$UNITMODE
 70
     0
  9
$VISRETAIN
 70
     1
  9
$PLINEGEN
 70
     0
  9
$PSLTSCALE
 70
     1
  9
$TREEDEPTH
 70
  3020
  9
$CMLSTYLE
  2
Standard
  9
$CMLJUST
 70
     0
  9
$CMLSCALE
 40
20.0
  9
$PROXYGRAPHICS
 70
     1
  9
$MEASUREMENT
 70
     1
  9
$CELWEIGHT
370
    -1
  9
$ENDCAPS
280
     0
  9
$JOINSTYLE
280
     0
  9
$LWDISPLAY
290
     1
  9
$INSUNITS
 70
     4
  9
$HYPERLINKBASE
  1

  9
$STYLESHEET
  1

  9
$XEDIT
290
     1
  9
$CEPSNTYPE
380
     0
  9
$PSTYLEMODE
290
     1
  9
$FINGERPRINTGUID
  2
{E003A6F2-45B3-44F6-AE1C-3E4B930662B2}
  9
$VERSIONGUID
  2
{FAEB1C32-E019-11D5-929B-00C0DF256EC4}
  9
$EXTNAMES
290
     1
  9
$PSVPSCALE
 40
0.0
  9
$OLESTARTUP
290
     0
  0
ENDSEC
  0
SECTION
  2
CLASSES
  0
CLASS
  1
ACDBDICTIONARYWDFLT
  2
AcDbDictionaryWithDefault
  3
ObjectDBX Classes
 90
        0
280
     0
281
     0
  0
CLASS
  1
VISUALSTYLE
  2
AcDbVisualStyle
  3
ObjectDBX Classes
 90
     4095
280
     0
281
     0
  0
CLASS
  1
MATERIAL
  2
AcDbMaterial
  3
ObjectDBX Classes
 90
     1153
280
     0
281
     0
  0
CLASS
  1
ACDBPLACEHOLDER
  2
AcDbPlaceHolder
  3
ObjectDBX Classes
 90
        0
280
     0
281
     0
  0
CLASS
  1
LAYOUT
  2
AcDbLayout
  3
ObjectDBX Classes
 90
        0
280
     0
281
     0
  0
ENDSEC
  0
SECTION
  2
TABLES
  0
TABLE
  2
VPORT
  5
8
330
0
100
AcDbSymbolTable
 70
     1
  0
VPORT
  5
29
330
8
100
AcDbSymbolTableRecord
100
AcDbViewportTableRecord
  2
*Active
 70
     0
 10
0.0
 20
0.0
 11
1.0
 21
1.0
 12
148.5
 22
105.0
 13
0.0
 23
0.0
 14
10.0
 24
10.0
 15
10.0
 25
10.0
 16
0.0
 26
0.0
 36
1.0
 17
0.0
 27
0.0
 37
0.0
 40
210.0
 41
1.4142857143
 42
50.0
 43
0.0
 44
0.0
 50
0.0
 51
0.0
 71
     0
 72
  2000
 73
     1
 74
     3
 75
     0
 76
     0
 77
     0
 78
     0
281
     0
 65
     1
110
0.0
120
0.0
130
0.0
111
1.0
121
0.0
131
0.0
112
0.0
122
1.0
132
0.0
 79
     0
146
0.0
  0
ENDTAB
  0
TABLE
  2
LTYPE
  5
5
330
0
100
AcDbSymbolTable
 70
     6
  0
LTYPE
  5
14
330
5
100
AcDbSymbolTableRecord
100
AcDbLinetypeTableRecord
  2
ByBlock
 70
     0
  3

 72
    65
 73
     0
 40
0.0
  0
LTYPE
  5
15
330
5
100
AcDbSymbolTableRecord
100
AcDbLinetypeTableRecord
  2
ByLayer
 70
     0
  3

 72
    65
 73
     0
 40
0.0
  0
LTYPE
  5
16
330
5
100
AcDbSymbolTableRecord
100
AcDbLinetypeTableRecord
  2
Continuous
 70
     0
  3
Solid line
 72
    65
 73
     0
 40
0.0
  0
LTYPE
  5
3F
330
5
100
AcDbSymbolTableRecord
100
AcDbLinetypeTableRecord
  2
HIDDEN
 70
     0
  3
Hidden __ __ __ __ __ __ __ __ __ __ __ __ __ __
 72
    65
 73
     2
 40
1.905
 49
1.27
 74
     0
 49
-0.635
 74
     0
  0
LTYPE
  5
40
330
5
100
AcDbSymbolTableRecord
100
AcDbLinetypeTableRecord
  2
PHANTOM
 70
     0
  3
Phantom ______  __  __  ______  __  __  ______
 72
    65
 73
     6
 40
12.7
 49
6.35
 74
     0
 49
-1.27
 74
     0
 49
1.27
 74
     0
 49
-1.27
 74
     0
 49
1.27
 74
     0
 49
-1.27
 74
     0
  0
LTYPE
  5
41
330
5
100
AcDbSymbolTableRecord
100
AcDbLinetypeTableRecord
  2
CENTER
 70
     0
  3
Center ____ _ ____ _ ____ _ ____ _ ____ _ ____
 72
    65
 73
     4
 40
10.16
 49
6.35
 74
     0
 49
-1.27
 74
     0
 49
1.27
 74
     0
 49
-1.27
 74
     0
  0
LTYPE
  5
42
330
5
100
AcDbSymbolTableRecord
100
AcDbLinetypeTableRecord
  2
CENTERX2
 70
     0
  3
Center (2x) ________  __  ________  __  _____
 72
    65
 73
     4
 40
20.32
 49
12.7
 74
     0
 49
-2.54
 74
     0
 49
2.54
 74
     0
 49
-2.54
 74
     0
  0
LTYPE
  5
43
330
5
100
AcDbSymbolTableRecord
100
AcDbLinetypeTableRecord
  2
DOT2
 70
     0
  3
Dot (.5x) ........................................
 72
    65
 73
     2
 40
0.635
 49
0.0
 74
     0
 49
-0.635
 74
     0
  0
ENDTAB
  0
TABLE
  2
LAYER
  5
2
330
0
100
AcDbSymbolTable
 70
     5
  0
LAYER
  5
10
330
2
100
AcDbSymbolTableRecord
100
AcDbLayerTableRecord
  2
0
 70
     0
 62
     7
  6
Continuous
370
    -3
390
F
  0
LAYER
  5
44
330
2
100
AcDbSymbolTableRecord
100
AcDbLayerTableRecord
  2
FORMAT
 70
     0
 62
     7
  6
Continuous
370
    -3
390
F
  0
LAYER
  5
45
330
2
100
AcDbSymbolTableRecord
100
AcDbLayerTableRecord
  2
VERMASSUNG
 70
     0
 62
     7
  6
Continuous
370
    -3
390
F
  0
LAYER
  5
46
330
2
100
AcDbSymbolTableRecord
100
AcDbLayerTableRecord
  2
KOPF_DÜNN
 70
     0
 62
     7
  6
Continuous
370
    -3
390
F
  0
LAYER
  5
47
330
2
100
AcDbSymbolTableRecord
100
AcDbLayerTableRecord
  2
KOPF_DICK
 70
     0
 62
     7
  6
Continuous
370
    15
390
F
  0
ENDTAB
  0
TABLE
  2
STYLE
  5
3
330
0
100
AcDbSymbolTable
 70
     3
  0
STYLE
  5
11
330
3
100
AcDbSymbolTableRecord
100
AcDbTextStyleTableRecord
  2
Standard
 70
     0
 40
0.0
 41
1.0
 50
0.0
 71
     0
 42
2.0
  3
txt
  4

  0
STYLE
  5
48
330
3
100
AcDbSymbolTableRecord
100
AcDbTextStyleTableRecord
  2
SLDTEXTSTYLE0
 70
     0
 40
0.0
 41
0.7
 50
0.0
 71
     0
 42
0.2
  3
TXT
  4

  0
STYLE
  5
4C
330
3
100
AcDbSymbolTableRecord
100
AcDbTextStyleTableRecord
  2
SLDTEXTSTYLE1
 70
     0
 40
0.0
 41
0.6450980392
 50
0.0
 71
     0
 42
0.2
  3
TXT
  4

  0
ENDTAB
  0
TABLE
  2
VIEW
  5
6
330
0
100
AcDbSymbolTable
 70
     0
  0
ENDTAB
  0
TABLE
  2
UCS
  5
7
330
0
100
AcDbSymbolTable
 70
     0
  0
ENDTAB
  0
TABLE
  2
APPID
  5
9
330
0
100
AcDbSymbolTable
 70
     1
  0
APPID
  5
12
330
9
100
AcDbSymbolTableRecord
100
AcDbRegAppTableRecord
  2
ACAD
 70
     0
  0
ENDTAB
  0
TABLE
  2
DIMSTYLE
  5
A
330
0
100
AcDbSymbolTable
 70
     2
100
AcDbDimStyleTable
  0
DIMSTYLE
105
27
330
A
100
AcDbSymbolTableRecord
100
AcDbDimStyleTableRecord
  2
ISO-25
 70
     0
 41
2.5
 42
0.625
 43
3.75
 44
1.25
 73
     0
 74
     0
 77
     1
 78
     8
140
2.5
141
2.5
143
0.0393700787
147
0.625
171
     3
172
     1
178
     0
271
     2
272
     2
274
     3
278
    44
283
     0
284
     8
340
11
  0
DIMSTYLE
105
210
102
{ACAD_REACTORS
330
20F
330
2E3
330
2EC
330
2F6
102
}
330
A
100
AcDbSymbolTableRecord
100
AcDbDimStyleTableRecord
  2
SLDDIMSTYLE0
 70
     0
 41
3.0
 44
0.0
 45
0.000000001
 73
     0
 74
     0
 77
     1
 78
    12
 79
     3
140
2.0
147
0.5
173
     1
178
     0
271
     2
272
     3
276
     2
284
    12
340
48
  0
ENDTAB
  0
TABLE
  2
BLOCK_RECORD
  5
1
330
0
100
AcDbSymbolTable
 70
     5
  0
BLOCK_RECORD
  5
1F
330
1
100
AcDbSymbolTableRecord
100
AcDbBlockTableRecord
  2
*Model_Space
340
22
  0
BLOCK_RECORD
  5
1B
330
1
100
AcDbSymbolTableRecord
100
AcDbBlockTableRecord
  2
*Paper_Space
340
1E
  0
BLOCK_RECORD
  5
23
330
1
100
AcDbSymbolTableRecord
100
AcDbBlockTableRecord
  2
*Paper_Space0
340
26
  0
BLOCK_RECORD
  5
211
330
1
100
AcDbSymbolTableRecord
100
AcDbBlockTableRecord
  2
_D
340
0
  0
BLOCK_RECORD
  5
2E4
330
1
100
AcDbSymbolTableRecord
100
AcDbBlockTableRecord
  2
_D_1
340
0
  0
BLOCK_RECORD
  5
2ED
330
1
100
AcDbSymbolTableRecord
100
AcDbBlockTableRecord
  2
_D_2
340
0
  0
BLOCK_RECORD
  5
2F7
330
1
100
AcDbSymbolTableRecord
100
AcDbBlockTableRecord
  2
_D_3
340
0
  0
ENDTAB
  0
ENDSEC
  0
SECTION
  2
BLOCKS
  0
BLOCK
  5
20
330
1F
100
AcDbEntity
  8
0
100
AcDbBlockBegin
  2
*Model_Space
 70
     0
 10
0.0
 20
0.0
 30
0.0
  3
*Model_Space
  1

  0
ENDBLK
  5
21
330
1F
100
AcDbEntity
  8
0
100
AcDbBlockEnd
  0
BLOCK
  5
1C
330
1B
100
AcDbEntity
 67
     1
  8
0
100
AcDbBlockBegin
  2
*Paper_Space
 70
     0
 10
0.0
 20
0.0
 30
0.0
  3
*Paper_Space
  1

  0
ENDBLK
  5
1D
330
1B
100
AcDbEntity
 67
     1
  8
0
100
AcDbBlockEnd
  0
BLOCK
  5
24
330
23
100
AcDbEntity
  8
0
100
AcDbBlockBegin
  2
*Paper_Space0
 70
     0
 10
0.0
 20
0.0
 30
0.0
  3
*Paper_Space0
  1

  0
ENDBLK
  5
25
330
23
100
AcDbEntity
  8
0
100
AcDbBlockEnd
  0
BLOCK
  5
212
330
211
100
AcDbEntity
  8
0
100
AcDbBlockBegin
  2
_D
 70
     0
 10
0.0
 20
0.0
 30
0.0
  3
_D
  1

  0
SOLID
  5
214
330
211
100
AcDbEntity
  8
VERMASSUNG
100
AcDbTrace
 10
94.266295499
 20
181.8112978286
 30
0.0
 11
93.816295499
 21
178.8112978286
 31
0.0
 12
94.716295499
 22
178.8112978286
 32
0.0
 13
94.716295499
 23
178.8112978286
 33
0.0
  0
SOLID
  5
215
330
211
100
AcDbEntity
  8
VERMASSUNG
100
AcDbTrace
 10
94.266295499
 20
141.8112978286
 30
0.0
 11
94.716295499
 21
144.8112978286
 31
0.0
 12
93.816295499
 22
144.8112978286
 32
0.0
 13
93.816295499
 23
144.8112978286
 33
0.0
  0
LINE
  5
216
330
211
100
AcDbEntity
  8
VERMASSUNG
100
AcDbLine
 10
121.5747393461
 20
181.8112978286
 30
0.0
 11
93.266295499
 21
181.8112978286
 31
0.0
  0
LINE
  5
217
330
211
100
AcDbEntity
  8
VERMASSUNG
100
AcDbLine
 10
121.5747393461
 20
141.8112978286
 30
0.0
 11
93.266295499
 21
141.8112978286
 31
0.0
  0
LINE
  5
218
330
211
100
AcDbEntity
  8
VERMASSUNG
100
AcDbLine
 10
94.266295499
 20
181.8112978286
 30
0.0
 11
94.266295499
 21
141.8112978286
 31
0.0
  0
MTEXT
  5
219
330
211
100
AcDbEntity
  8
VERMASSUNG
100
AcDbMText
 10
91.4881600099
 20
153.8062971778
 30
0.1
 40
2.0
 41
0.0
 71
     1
 72
     1
  1
HSK T
  7
SLDTEXTSTYLE0
 11
-6.156016597943509E-15
 21
1.0
 31
0.0
 73
     1
 44
1.0
  0
MTEXT
  5
21A
330
211
100
AcDbEntity
  8
VERMASSUNG
100
AcDbMText
 10
91.6881600194
 20
161.4062973059
 30
0.1
 40
2.0
 41
0.0
 71
     1
 72
     1
  1
%%c
  7
SLDTEXTSTYLE0
 11
-6.156016597943509E-15
 21
1.0
 31
0.0
 73
     1
 44
1.0
  0
MTEXT
  5
21B
330
211
100
AcDbEntity
  8
VERMASSUNG
100
AcDbMText
 10
91.4881600099
 20
165.0162973202
 30
0.1
 40
2.0
 41
0.0
 71
     1
 72
     1
  1
40
  7
SLDTEXTSTYLE0
 11
-6.156016597943509E-15
 21
1.0
 31
0.0
 73
     1
 44
1.0
  0
ENDBLK
  5
213
330
211
100
AcDbEntity
  8
0
100
AcDbBlockEnd
  0
BLOCK
  5
2E5
330
2E4
100
AcDbEntity
  8
0
100
AcDbBlockBegin
  2
_D_1
 70
     0
 10
0.0
 20
0.0
 30
0.0
  3
_D_1
  1

  0
SOLID
  5
2E7
330
2E4
100
AcDbEntity
  8
VERMASSUNG
100
AcDbTrace
 10
121.2747393461
 20
61.3581367712
 30
0.0
 11
124.2747393461
 21
60.9081367712
 31
0.0
 12
124.2747393461
 22
61.8081367712
 32
0.0
 13
124.2747393461
 23
61.8081367712
 33
0.0
  0
SOLID
  5
2E8
330
2E4
100
AcDbEntity
  8
VERMASSUNG
100
AcDbTrace
 10
201.2747393461
 20
61.3581367712
 30
0.0
 11
198.2747393461
 21
61.8081367712
 31
0.0
 12
198.2747393461
 22
60.9081367712
 32
0.0
 13
198.2747393461
 23
60.9081367712
 33
0.0
  0
LINE
  5
2E9
330
2E4
100
AcDbEntity
  8
VERMASSUNG
100
AcDbLine
 10
121.2747393461
 20
71.6581367712
 30
0.0
 11
121.2747393461
 21
60.3581367712
 31
0.0
  0
LINE
  5
2EA
330
2E4
100
AcDbEntity
  8
VERMASSUNG
100
AcDbLine
 10
121.2747393461
 20
61.3581367712
 30
0.0
 11
201.2747393461
 21
61.3581367712
 31
0.0
  0
MTEXT
  5
2EB
330
2E4
100
AcDbEntity
  8
VERMASSUNG
100
AcDbMText
 10
158.9747392951
 20
63.9362721343
 30
0.1
 40
2.0
 41
0.0
 71
     1
 72
     1
  1
80
  7
SLDTEXTSTYLE0
 73
     1
 44
1.0
  0
ENDBLK
  5
2E6
330
2E4
100
AcDbEntity
  8
0
100
AcDbBlockEnd
  0
BLOCK
  5
2EE
330
2ED
100
AcDbEntity
  8
0
100
AcDbBlockBegin
  2
_D_2
 70
     0
 10
0.0
 20
0.0
 30
0.0
  3
_D_2
  1

  0
SOLID
  5
2F0
330
2ED
100
AcDbEntity
  8
VERMASSUNG
100
AcDbTrace
 10
101.3747393461
 20
50.8398312999
 30
0.0
 11
104.3747393461
 21
50.3898312999
 31
0.0
 12
104.3747393461
 22
51.2898312999
 32
0.0
 13
104.3747393461
 23
51.2898312999
 33
0.0
  0
SOLID
  5
2F1
330
2ED
100
AcDbEntity
  8
VERMASSUNG
100
AcDbTrace
 10
201.2747393461
 20
50.8398312999
 30
0.0
 11
198.2747393461
 21
51.2898312999
 31
0.0
 12
198.2747393461
 22
50.3898312999
 32
0.0
 13
198.2747393461
 23
50.3898312999
 33
0.0
  0
LINE
  5
2F2
330
2ED
100
AcDbEntity
  8
VERMASSUNG
100
AcDbLine
 10
101.3747393461
 20
79.4871367712
 30
0.0
 11
101.3747393461
 21
49.8398312999
 31
0.0
  0
LINE
  5
2F3
330
2ED
100
AcDbEntity
  8
VERMASSUNG
100
AcDbLine
 10
201.2747393461
 20
59.6052562213
 30
0.0
 11
201.2747393461
 21
49.8398312999
 31
0.0
  0
LINE
  5
2F4
330
2ED
100
AcDbEntity
  8
VERMASSUNG
100
AcDbLine
 10
101.3747393461
 20
50.8398312999
 30
0.0
 11
201.2747393461
 21
50.8398312999
 31
0.0
  0
MTEXT
  5
2F5
330
2ED
100
AcDbEntity
  8
VERMASSUNG
100
AcDbMText
 10
148.0247391312
 20
53.417966663
 30
0.1
 40
2.0
 41
0.0
 71
     1
 72
     1
  1
99.9
  7
SLDTEXTSTYLE0
 73
     1
 44
1.0
  0
ENDBLK
  5
2EF
330
2ED
100
AcDbEntity
  8
0
100
AcDbBlockEnd
  0
BLOCK
  5
2F8
330
2F7
100
AcDbEntity
  8
0
100
AcDbBlockBegin
  2
_D_3
 70
     0
 10
0.0
 20
0.0
 30
0.0
  3
_D_3
  1

  0
SOLID
  5
2FA
330
2F7
100
AcDbEntity
  8
VERMASSUNG
100
AcDbTrace
 10
211.4370532184
 20
107.8581367712
 30
0.0
 11
210.9870532184
 21
104.8581367712
 31
0.0
 12
211.8870532184
 22
104.8581367712
 32
0.0
 13
211.8870532184
 23
104.8581367712
 33
0.0
  0
SOLID
  5
2FB
330
2F7
100
AcDbEntity
  8
VERMASSUNG
100
AcDbTrace
 10
211.4370532184
 20
74.8581367712
 30
0.0
 11
211.8870532184
 21
77.8581367712
 31
0.0
 12
210.9870532184
 22
77.8581367712
 32
0.0
 13
210.9870532184
 23
77.8581367712
 33
0.0
  0
LINE
  5
2FC
330
2F7
100
AcDbEntity
  8
VERMASSUNG
100
AcDbLine
 10
181.0561401192
 20
107.8581367712
 30
0.0
 11
212.4370532184
 21
107.8581367712
 31
0.0
  0
LINE
  5
2FD
330
2F7
100
AcDbEntity
  8
VERMASSUNG
100
AcDbLine
 10
181.0561401192
 20
74.8581367712
 30
0.0
 11
212.4370532184
 21
74.8581367712
 31
0.0
  0
LINE
  5
2FE
330
2F7
100
AcDbEntity
  8
VERMASSUNG
100
AcDbLine
 10
211.4370532184
 20
107.8581367712
 30
0.0
 11
211.4370532184
 21
74.8581367712
 31
0.0
  0
MTEXT
  5
2FF
330
2F7
100
AcDbEntity
  8
VERMASSUNG
100
AcDbMText
 10
208.8589177389
 20
87.2531369458
 30
0.1
 40
2.0
 41
0.0
 71
     1
 72
     1
  1
%%c
  7
SLDTEXTSTYLE0
 11
-5.267838178243384E-15
 21
1.0
 31
0.0
 73
     1
 44
1.0
  0
MTEXT
  5
300
330
2F7
100
AcDbEntity
  8
VERMASSUNG
100
AcDbMText
 10
208.6589177294
 20
90.8631369601
 30
0.1
 40
2.0
 41
0.0
 71
     1
 72
     1
  1
33
  7
SLDTEXTSTYLE0
 11
-5.267838178243384E-15
 21
1.0
 31
0.0
 73
     1
 44
1.0
  0
ENDBLK
  5
2F9
330
2F7
100
AcDbEntity
  8
0
100
AcDbBlockEnd
  0
ENDSEC
  0
SECTION
  2
ENTITIES
  0
MTEXT
  5
49
330
1F
100
AcDbEntity
  8
KOPF_DÜNN
100
AcDbMText
 10
13.8892156294
 20
23.8442973028
 30
0.0
 40
3.0
 41
0.0
 71
     1
 72
     1
  1
HA4.PCD.NMA.080
  7
SLDTEXTSTYLE0
 73
     1
 44
1.0
  0
MTEXT
  5
4A
330
1F
100
AcDbEntity
  8
VERMASSUNG
100
AcDbMText
 10
13.9329988022
 20
28.8834360957
 30
0.0
 40
3.0
 41
0.0
 71
     1
 72
     1
  1
Klemmhalter_Turning tool
  7
SLDTEXTSTYLE0
 73
     1
 44
1.0
  0
MTEXT
  5
4B
330
1F
100
AcDbEntity
  8
VERMASSUNG
100
AcDbMText
 10
98.8601118557
 20
13.8365368179
 30
0.0
 40
2.0
 41
0.0
 71
     1
 72
     1
  1
Datum: 12.06.2012
  7
SLDTEXTSTYLE0
 73
     1
 44
1.0
  0
MTEXT
  5
4D
330
1F
100
AcDbEntity
  8
VERMASSUNG
100
AcDbMText
 10
13.933048693
 20
18.0482802738
 30
0.0
 40
2.0
 41
0.0
 71
     1
 72
     1
  1
DIN 69893 HSK T 40 / CN.. 12 04.. / 50° / 80° / 50°
  7
SLDTEXTSTYLE1
 73
     1
 44
1.0
  0
MTEXT
  5
4E
330
1F
100
AcDbEntity
  8
VERMASSUNG
100
AcDbMText
 10
13.9808475933
 20
13.9090973692
 30
0.0
 40
2.0
 41
0.0
 71
     1
 72
     1
  1
Gewicht: 453g
  7
SLDTEXTSTYLE0
 73
     1
 44
1.0
  0
ARC
  5
4F
330
1F
100
AcDbEntity
  8
0
  6
Continuous
 62
     7
370
    15
100
AcDbCircle
 10
121.5747393461
 20
142.1112978286
 30
0.0
 40
0.3000000000000114
100
AcDbArc
 50
180.0
 51
270.0
  0
ARC
  5
50
330
1F
100
AcDbEntity
  8
0
  6
Continuous
 62
     7
370
    15
100
AcDbCircle
 10
121.5747393461
 20
181.5112978286
 30
0.0
 40
0.3000000000000398
100
AcDbArc
 50
90.0
 51
180.0
  0
LINE
  5
51
330
1F
100
AcDbEntity
  8
0
  6
Continuous
 62
     7
370
    15
100
AcDbLine
 10
133.2596844346
 20
141.8112978286
 30
0.0
 11
135.2395796472
 21
141.8112978286
 31
0.0
  0
LINE
  5
52
330
1F
100
AcDbEntity
  8
0
  6
Continuous
 62
     7
370
    15
100
AcDbLine
 10
121.5747393461
 20
141.8112978286
 30
0.0
 11
123.2747393461
 21
141.8112978286
 31
0.0
  0
LINE
  5
53
330
1F
100
AcDbEntity
  8
0
  6
Continuous
 62
     7
370
    15
100
AcDbLine
 10
135.2395796472
 20
181.8112978286
 30
0.0
 11
121.5747393461
 21
181.8112978286
 31
0.0
  0
ARC
  5
54
330
1F
100
AcDbEntity
  8
0
  6
Continuous
 62
     7
370
    15
100
AcDbCircle
 10
140.6247393461
 20
181.2112978286
 30
0.0
 40
0.6000000000000227
100
AcDbArc
 50
360.0
 51
90.0
  0
ARC
  5
55
330
1F
100
AcDbEntity
  8
0
  6
Continuous
 62
     7
370
    15
100
AcDbCircle
 10
140.6247393461
 20
142.4112978286
 30
0.0
 40
0.6000000000000227
100
AcDbArc
 50
270.0
 51
360.0
  0
LINE
  5
56
330
1F
100
AcDbEntity
  8
0
  6
Continuous
 62
     7
370
    15
100
AcDbLine
 10
139.309899045
 20
141.8112978286
 30
0.0
 11
140.6247393461
 21
141.8112978286
 31
0.0
  0
LINE
  5
57
330
1F
100
AcDbEntity
  8
0
  6
Continuous
 62
     7
370
    15
100
AcDbLine
 10
136.2347393461
 20
180.0876306685
 30
0.0
 11
135.2395796472
 21
181.8112978286
 31
0.0
  0
LINE
  5
58
330
1F
100
AcDbEntity
  8
0
  6
Continuous
 62
     7
370
    15
100
AcDbLine
 10
140.6247393461
 20
181.8112978286
 30
0.0
 11
139.309899045
 21
181.8112978286
 31
0.0
  0
LINE
  5
59
330
1F
100
AcDbEntity
  8
0
  6
Continuous
 62
     7
370
    15
100
AcDbLine
 10
138.3147393461
 20
143.5349649888
 30
0.0
 11
139.309899045
 21
141.8112978286
 31
0.0
  0
LINE
  5
5A
330
1F
100
AcDbEntity
  8
0
  6
Continuous
 62
     7
370
    15
100
AcDbLine
 10
139.309899045
 20
181.8112978286
 30
0.0
 11
138.3147393461
 21
180.0876306685
 31
0.0
  0
LINE
  5
5B
330
1F
100
AcDbEntity
  8
0
  6
Continuous
 62
     7
370
    15
100
AcDbLine
 10
135.2395796472
 20
141.8112978286
 30
0.0
 11
136.2347393461
 21
143.5349649888
 31
0.0
  0
ARC
  5
5C
330
1F
100
AcDbEntity
  8
0
  6
Continuous
 62
     7
370
    15
100
AcDbCircle
 10
136.8347393461
 20
179.7862978286
 30
0.0
 40
0.6000000000000227
100
AcDbArc
 50
180.0
 51
270.0
  0
ARC
  5
5D
330
1F
100
AcDbEntity
  8
0
  6
Continuous
 62
     7
370
    15
100
AcDbCircle
 10
137.7147393461
 20
143.8362978286
 30
0.0
 40
0.5999999999999943
100
AcDbArc
 50
360.0
 51
90.0
  0
ARC
  5
5E
330
1F
100
AcDbEntity
  8
0
  6
Continuous
 62
     7
370
    15
100
AcDbCircle
 10
136.8347393461
 20
143.8362978286
 30
0.0
 40
0.6000000000000227
100
AcDbArc
 50
90.0
 51
180.0
  0
ARC
  5
5F
330
1F
100
AcDbEntity
  8
0
  6
Continuous
 62
     7
370
    15
100
AcDbCircle
 10
137.7147393461
 20
179.7862978286
 30
0.0
 40
0.5999999999999943
100
AcDbArc
 50
270.0
 51
0.0
  0
ARC
  5
60
330
1F
100
AcDbEntity
  8
0
  6
Continuous
 62
     7
370
    15
100
AcDbCircle
 10
142.2247393461
 20
144.3112978286
 30
0.0
 40
1.0
100
AcDbArc
 50
90.0
 51
180.0
  0
ARC
  5
61
330
1F
100
AcDbEntity
  8
0
  6
Continuous
 62
     7
370
    15
100
AcDbCircle
 10
142.2247393461
 20
179.3112978286
 30
0.0
 40
1.0
100
AcDbArc
 50
180.0
 51
270.0
  0
LINE
  5
62
330
1F
100
AcDbEntity
  8
0
  6
Continuous
 62
     7
370
    15
100
AcDbLine
 10
137.7147393461
 20
179.1862978286
 30
0.0
 11
136.8347393461
 21
179.1862978286
 31
0.0
  0
LINE
  5
63
330
1F
100
AcDbEntity
  8
0
  6
Continuous
 62
     7
370
    15
100
AcDbLine
 10
136.8347393461
 20
144.4362978286
 30
0.0
 11
137.7147393461
 21
144.4362978286
 31
0.0
  0
LINE
  5
64
330
1F
100
AcDbEntity
  8
0
  6
Continuous
 62
     7
370
    15
100
AcDbLine
 10
163.7675181426
 20
145.3112978286
 30
0.0
 11
195.5622830462
 21
145.3112978286
 31
0.0
  0
LINE
  5
65
330
1F
100
AcDbEntity
  8
0
  6
Continuous
 62
     7
370
    15
100
AcDbLine
 10
142.2247393461
 20
145.3112978286
 30
0.0
 11
158.7747393461
 21
145.3112978286
 31
0.0
  0
LINE
  5
66
330
1F
100
AcDbEntity
  8
0
  6
Continuous
 62
     7
370
    15
100
AcDbLine
 10
165.8253900038
 20
178.3112978286
 30
0.0
 11
142.2247393461
 21
178.3112978286
 31
0.0
  0
ARC
  5
67
330
1F
100
AcDbEntity
  8
0
  6
Continuous
 62
     7
370
    15
100
AcDbCircle
 10
120.7747325935
 20
146.3575906752
 30
0.0
 40
0.6000067526677242
100
AcDbArc
 50
33.5571153394
 51
90.0
  0
ARC
  5
68
330
1F
100
AcDbEntity
  8
0
  6
Continuous
 62
     7
370
    15
100
AcDbCircle
 10
120.7747325935
 20
177.2650049821
 30
0.0
 40
0.6000067526677242
100
AcDbArc
 50
270.0
 51
326.4428846606
  0
LINE
  5
69
330
1F
100
AcDbEntity
  8
0
  6
Continuous
 62
     7
370
    15
100
AcDbLine
 10
119.2747393461
 20
176.9149982294
 30
0.0
 11
102.1347093925
 21
176.0562792939
 31
0.0
  0
LINE
  5
6A
330
1F
100
AcDbEntity
  8
0
  6
Continuous
 62
     7
370
    15
100
AcDbLine
 10
102.1347093925
 20
147.5663163634
 30
0.0
 11
119.2747393461
 21
146.7075974278
 31
0.0
  0
LINE
  5
6B
330
1F
100
AcDbEntity
  8
0
  6
Continuous
 62
     7
370
    15
100
AcDbLine
 10
119.2747393461
 20
146.7075974278
 30
0.0
 11
120.1314512608
 21
146.9371526935
 31
0.0
  0
LINE
  5
6C
330
1F
100
AcDbEntity
  8
0
  6
Continuous
 62
     7
370
    15
100
AcDbLine
 10
120.1314512608
 20
176.6854429638
 30
0.0
 11
119.2747393461
 21
176.9149982294
 31
0.0
  0
ARC
  5
6D
330
1F
100
AcDbEntity
  8
0
  6
Continuous
 62
     7
370
    15
100
AcDbCircle
 10
120.2867444356
 20
146.3575906752
 30
0.0
 40
0.6000067526677242
100
AcDbArc
 50
90.0
 51
105.0
  0
ARC
  5
6E
330
1F
100
AcDbEntity
  8
0
  6
Continuous
 62
     7
370
    15
100
AcDbCircle
 10
120.2867444356
 20
177.2650049821
 30
0.0
 40
0.6000067526676958
100
AcDbArc
 50
255.0
 51
270.0
  0
LINE
  5
6F
330
1F
100
AcDbEntity
  8
0
  6
Continuous
 62
     7
370
    15
100
AcDbLine
 10
120.2867444356
 20
146.9575974278
 30
0.0
 11
120.7747325935
 21
146.9575974278
 31
0.0
  0
LINE
  5
70
330
1F
100
AcDbEntity
  8
0
  6
Continuous
 62
     7
370
    15
100
AcDbLine
 10
120.7747325935
 20
176.6649982294
 30
0.0
 11
120.2867444356
 21
176.6649982294
 31
0.0
  0
ARC
  5
71
330
1F
100
AcDbEntity
  8
0
  6
Continuous
 62
     7
370
    15
100
AcDbCircle
 10
102.1747393461
 20
175.2572814198
 30
0.0
 40
0.8000000000000036
100
AcDbArc
 50
92.8681319407
 51
180.0
  0
ARC
  5
72
330
1F
100
AcDbEntity
  8
0
  6
Continuous
 62
     7
370
    15
100
AcDbCircle
 10
102.1747393461
 20
148.3653142375
 30
0.0
 40
0.8000000000000036
100
AcDbArc
 50
180.0
 51
267.1318680593
  0
LINE
  5
73
330
1F
100
AcDbEntity
  8
0
  6
Continuous
 62
     7
370
    15
100
AcDbLine
 10
182.1055828261
 20
164.1649742948
 30
0.0
 11
182.0690220231
 21
163.8672104493
 31
0.0
  0
LINE
  5
74
330
1F
100
AcDbEntity
  8
0
  6
Continuous
 62
     7
370
    15
100
AcDbLine
 10
200.6946412715
 20
157.0867781468
 30
0.0
 11
201.2747393461
 21
161.8112978286
 31
0.0
  0
LINE
  5
75
330
1F
100
AcDbEntity
  8
0
  6
Continuous
 62
     7
370
    15
100
AcDbLine
 10
199.1171145706
 20
154.3788457728
 30
0.0
 11
199.4680982796
 21
157.2373786895
 31
0.0
  0
LINE
  5
76
330
1F
100
AcDbEntity
  8
0
  6
Continuous
 62
     7
370
    15
100
AcDbLine
 10
198.7827899221
 20
154.1176427303
 30
0.0
 11
199.1171145706
 21
154.3788457728
 31
0.0
  0
LINE
  5
77
330
1F
100
AcDbEntity
  8
0
  6
Continuous
 62
     7
370
    15
100
AcDbLine
 10
181.2942556226
 20
146.5324198212
 30
0.0
 11
181.8177666368
 21
146.9414314519
 31
0.0
  0
LINE
  5
78
330
1F
100
AcDbEntity
  8
0
  6
Continuous
 62
     7
370
    15
100
AcDbLine
 10
121.2747393461
 20
161.8112978286
 30
0.0
 11
121.2747393461
 21
181.5112978286
 31
0.0
  0
LINE
  5
79
330
1F
100
AcDbEntity
  8
0
  6
Continuous
 62
     7
370
    15
100
AcDbLine
 10
121.2747393461
 20
142.1112978286
 30
0.0
 11
121.2747393461
 21
161.8112978286
 31
0.0
  0
LINE
  5
7A
330
1F
100
AcDbEntity
  8
0
  6
Continuous
 62
     7
370
    15
100
AcDbLine
 10
135.2395796472
 20
167.3112978286
 30
0.0
 11
135.2395796472
 21
181.8112978286
 31
0.0
  0
LINE
  5
7B
330
1F
100
AcDbEntity
  8
0
  6
Continuous
 62
     7
370
    15
100
AcDbLine
 10
135.2395796472
 20
167.3112978286
 30
0.0
 11
133.7247393461
 21
167.3112978286
 31
0.0
  0
SPLINE
  5
7C
330
1F
100
AcDbEntity
  8
0
  6
Continuous
 62
     7
370
    15
100
AcDbSpline
210
0.0
220
0.0
230
1.0
 70
     8
 71
     3
 72
    22
 73
    18
 74
     0
 42
0.00000001
 43
0.00000001
 12
1.0
 22
0.0
 32
0.0
 13
1.0
 23
0.0
 33
0.0
 40
0.0
 40
0.0
 40
0.0
 40
0.0
 40
0.125
 40
0.125
 40
0.25
 40
0.25
 40
0.375
 40
0.375
 40
0.5
 40
0.5
 40
0.625
 40
0.625
 40
0.75
 40
0.75
 40
0.875
 40
0.875
 40
1.0
 40
1.0
 40
1.0
 40
1.0
 10
133.7247393461258
 20
167.3112978286394
 30
0.0
 10
133.4256149170852
 20
167.3112978286394
 30
0.0
 10
133.1317924688364
 20
167.2817719302195
 30
0.0
 10
132.55422819259
 20
167.1663670969328
 30
0.0
 10
132.2674105147761
 20
167.078984291867
 30
0.0
 10
131.7229479858768
 20
166.8523108725594
 30
0.0
 10
131.4649927152555
 20
166.7138350262268
 30
0.0
 10
130.9769347718956
 20
166.387024529063
 30
0.0
 10
130.7472364732319
 20
166.1979796930831
 30
0.0
 10
130.3348174902792
 20
165.7851114106073
 30
0.0
 10
130.1492905474191
 20
165.559639519356
 30
0.0
 10
129.8207705025184
 20
165.0687839148083
 30
0.0
 10
129.6823566156189
 20
164.8099437568663
 30
0.0
 10
129.4577644690029
 20
164.2701909310705
 30
0.0
 10
129.3706856568787
 20
163.9860878422414
 30
0.0
 10
129.2541838489236
 20
163.4046347070995
 30
0.0
 10
129.2247393461258
 20
163.1099842414712
 30
0.0
 10
129.2247393461258
 20
162.8112978286395
 30
0.0
  0
LINE
  5
7D
330
1F
100
AcDbEntity
  8
0
  6
Continuous
 62
     7
370
    15
100
AcDbLine
 10
129.2247393461
 20
162.8112978286
 30
0.0
 11
129.2247393461
 21
160.8112978286
 31
0.0
  0
SPLINE
  5
7E
330
1F
100
AcDbEntity
  8
0
  6
Continuous
 62
     7
370
    15
100
AcDbSpline
210
0.0
220
0.0
230
1.0
 70
     8
 71
     3
 72
    22
 73
    18
 74
     0
 42
0.00000001
 43
0.00000001
 12
1.0
 22
0.0
 32
0.0
 13
1.0
 23
0.0
 33
0.0
 40
0.0
 40
0.0
 40
0.0
 40
0.0
 40
0.1249999999999999
 40
0.1249999999999999
 40
0.2499999999999999
 40
0.2499999999999999
 40
0.3749999999999999
 40
0.3749999999999999
 40
0.5
 40
0.5
 40
0.625
 40
0.625
 40
0.75
 40
0.75
 40
0.8750000000000001
 40
0.8750000000000001
 40
1.0
 40
1.0
 40
1.0
 40
1.0
 10
129.2247393461258
 20
160.8112978286395
 30
0.0
 10
129.2247393461258
 20
160.5125601002418
 30
0.0
 10
129.2541877672561
 20
160.2193547754073
 30
0.0
 10
129.3690256334799
 20
159.6433996947798
 30
0.0
 10
129.4558384720176
 20
159.3576574009644
 30
0.0
 10
129.6814858443136
 20
158.8141282599707
 30
0.0
 10
129.8193229859777
 20
158.5566350717491
 30
0.0
 10
130.1445239458821
 20
158.0694300744838
 30
0.0
 10
130.3332262257901
 20
157.8392904522946
 30
0.0
 10
130.7455579460224
 20
157.4260847960911
 30
0.0
 10
130.9707048723743
 20
157.2402490553953
 30
0.0
 10
131.4606807237315
 20
156.9111524752118
 30
0.0
 10
131.7213883658534
 20
156.7711926183978
 30
0.0
 10
132.2622457465691
 20
156.5455062571681
 30
0.0
 10
132.5459363726231
 20
156.4582348488294
 30
0.0
 10
133.1300187435525
 20
156.3408346354785
 30
0.0
 10
133.4255862985445
 20
156.3112978286394
 30
0.0
 10
133.7247393461258
 20
156.3112978286394
 30
0.0
  0
LINE
  5
7F
330
1F
100
AcDbEntity
  8
0
  6
Continuous
 62
     7
370
    15
100
AcDbLine
 10
133.7247393461
 20
156.3112978286
 30
0.0
 11
135.2395796472
 21
156.3112978286
 31
0.0
  0
LINE
  5
80
330
1F
100
AcDbEntity
  8
0
  6
Continuous
 62
     7
370
    15
100
AcDbLine
 10
135.2395796472
 20
141.8112978286
 30
0.0
 11
135.2395796472
 21
156.3112978286
 31
0.0
  0
SPLINE
  5
81
330
1F
100
AcDbEntity
  8
0
  6
Continuous
 62
     7
370
    15
100
AcDbSpline
210
0.0
220
0.0
230
1.0
 70
     8
 71
     3
 72
    37
 73
    33
 74
     0
 42
0.00000001
 43
0.00000001
 12
1.0
 22
0.0
 32
0.0
 13
1.0
 23
0.0
 33
0.0
 40
0.0
 40
0.0
 40
0.0
 40
0.0
 40
0.0259426949400601
 40
0.0783667694840416
 40
0.1051472645671396
 40
0.1310830117345753
 40
0.183467861216759
 40
0.2101976960504919
 40
0.2365912803822915
 40
0.2631642051796657
 40
0.2900143142725139
 40
0.3172446006542837
 40
0.337284178643953
 40
0.3777508760772617
 40
0.4258413397060761
 40
0.4520581709502549
 40
0.4784662788393611
 40
0.5051730545202616
 40
0.532289834588385
 40
0.5579373506821452
 40
0.6359652055482017
 40
0.6618634216134345
 40
0.7141614995888271
 40
0.7408366916774467
 40
0.7941781491332438
 40
0.8212492491223325
 40
0.8487135507205003
 40
0.9021996125013362
 40
0.9293676822867759
 40
0.9569556060892069
 40
0.9829701861652668
 40
1.0
 40
1.0
 40
1.0
 40
1.0
 10
123.2747393461258
 20
141.8112978286394
 30
0.0
 10
123.2781017044292
 20
141.8121382218553
 30
0.0
 10
123.2882585967138
 20
141.8146768517697
 30
0.0
 10
123.3830115772912
 20
141.8382913422565
 30
0.0
 10
123.5397478244956
 20
141.8760416214928
 30
0.0
 10
123.740048182647
 20
141.9229924147111
 30
0.0
 10
124.0021592589954
 20
141.9816220329499
 30
0.0
 10
124.3218079038462
 20
142.0475731988249
 30
0.0
 10
124.5904175357388
 20
142.0996530146188
 30
0.0
 10
124.8847337943808
 20
142.1526716819734
 30
0.0
 10
125.2059896212408
 20
142.2056641793823
 30
0.0
 10
125.521519762119
 20
142.2524565074921
 30
0.0
 10
125.9136472473977
 20
142.3044481809962
 30
0.0
 10
126.4264045435737
 20
142.3619218583445
 30
0.0
 10
127.0015018129011
 20
142.4074461461079
 30
0.0
 10
127.5206922661003
 20
142.4331493010694
 30
0.0
 10
127.9352870924105
 20
142.4449101850959
 30
0.0
 10
128.3571062792089
 20
142.4477612671342
 30
0.0
 10
128.7744187365592
 20
142.4414016007089
 30
0.0
 10
129.4545286850107
 20
142.4165715583022
 30
0.0
 10
130.1105115818658
 20
142.3645607045422
 30
0.0
 10
130.8388604794692
 20
142.2798814059921
 30
0.0
 10
131.2955229658269
 20
142.2141600856918
 30
0.0
 10
131.8164888377389
 20
142.1269611731516
 30
0.0
 10
132.1909828209415
 20
142.0555199674418
 30
0.0
 10
132.5111548411568
 20
141.9888180231458
 30
0.0
 10
132.7915048882038
 20
141.9273242741193
 30
0.0
 10
133.0085910210422
 20
141.8764468040858
 30
0.0
 10
133.1585607807374
 20
141.8400928732875
 30
0.0
 10
133.2310577752193
 20
141.8222005971411
 30
0.0
 10
133.276145618265
 20
141.810950375618
 30
0.0
 10
133.2643508447573
 20
141.8138901510218
 30
0.0
 10
133.2596844345977
 20
141.8150532253107
 30
0.0
  0
LINE
  5
82
330
1F
100
AcDbEntity
  8
0
  6
Continuous
 62
     7
370
    15
100
AcDbLine
 10
141.2247393461
 20
167.3112978286
 30
0.0
 11
141.2247393461
 21
181.2112978286
 31
0.0
  0
SPLINE
  5
83
330
1F
100
AcDbEntity
  8
0
  6
Continuous
 62
     7
370
    15
100
AcDbSpline
210
0.0
220
0.0
230
1.0
 70
    24
 71
     3
 72
    10
 73
     6
 74
     0
 42
0.00000001
 43
0.00000001
 12
1.0
 22
0.0
 32
0.0
 13
1.0
 23
0.0
 33
0.0
 40
0.0
 40
0.0
 40
0.0
 40
0.0
 40
0.5
 40
0.5
 40
1.0
 40
1.0
 40
1.0
 40
1.0
 10
141.2247393461258
 20
167.3112978286394
 30
0.0
 10
141.2247393461258
 20
167.3112978286394
 30
0.0
 10
141.1631028324205
 20
167.3112978286394
 30
0.0
 10
140.9440764661776
 20
167.3112978286394
 30
0.0
 10
140.7864595781302
 20
167.3112978286394
 30
0.0
 10
140.6247393461258
 20
167.3112978286394
 30
0.0
  0
LINE
  5
84
330
1F
100
AcDbEntity
  8
0
  6
Continuous
 62
     7
370
    15
100
AcDbLine
 10
141.2247393461
 20
142.4112978286
 30
0.0
 11
141.2247393461
 21
156.3112978286
 31
0.0
  0
SPLINE
  5
85
330
1F
100
AcDbEntity
  8
0
  6
Continuous
 62
     7
370
    15
100
AcDbSpline
210
0.0
220
0.0
230
1.0
 70
    24
 71
     3
 72
    12
 73
     8
 74
     0
 42
0.00000001
 43
0.00000001
 12
1.0
 22
0.0
 32
0.0
 13
1.0
 23
0.0
 33
0.0
 40
0.0
 40
0.0
 40
0.0
 40
0.0
 40
0.25
 40
0.25
 40
0.5
 40
0.5
 40
1.0
 40
1.0
 40
1.0
 40
1.0
 10
140.6247393461258
 20
156.3112978286394
 30
0.0
 10
140.704504826596
 20
156.3112978286394
 30
0.0
 10
140.7849261102531
 20
156.3112978286394
 30
0.0
 10
140.9316080269157
 20
156.3112978286394
 30
0.0
 10
140.9979618364796
 20
156.3112978286394
 30
0.0
 10
141.1641659172062
 20
156.3112978286394
 30
0.0
 10
141.2247393461257
 20
156.3112978286394
 30
0.0
 10
141.2247393461258
 20
156.3112978286394
 30
0.0
  0
LINE
  5
86
330
1F
100
AcDbEntity
  8
0
  6
Continuous
 62
     7
370
    15
100
AcDbLine
 10
139.309899045
 20
141.8112978286
 30
0.0
 11
139.309899045
 21
156.3112978286
 31
0.0
  0
LINE
  5
87
330
1F
100
AcDbEntity
  8
0
  6
Continuous
 62
     7
370
    15
100
AcDbLine
 10
139.309899045
 20
156.3112978286
 30
0.0
 11
140.6247393461
 21
156.3112978286
 31
0.0
  0
LINE
  5
88
330
1F
100
AcDbEntity
  8
0
  6
Continuous
 62
     7
370
    15
100
AcDbLine
 10
136.2347393461
 20
167.3112978286
 30
0.0
 11
136.2347393461
 21
180.0876306685
 31
0.0
  0
SPLINE
  5
89
330
1F
100
AcDbEntity
  8
0
  6
Continuous
 62
     7
370
    15
100
AcDbSpline
210
0.0
220
0.0
230
1.0
 70
    24
 71
     3
 72
     8
 73
     4
 74
     0
 42
0.00000001
 43
0.00000001
 12
1.0
 22
0.0
 32
0.0
 13
1.0
 23
0.0
 33
0.0
 40
0.0
 40
0.0
 40
0.0
 40
0.0
 40
1.0
 40
1.0
 40
1.0
 40
1.0
 10
136.2347393461258
 20
167.3112978286394
 30
0.0
 10
135.9041007195112
 20
167.3112978286394
 30
0.0
 10
135.5722849189377
 20
167.3112978286394
 30
0.0
 10
135.2395796472323
 20
167.3112978286394
 30
0.0
  0
LINE
  5
8A
330
1F
100
AcDbEntity
  8
0
  6
Continuous
 62
     7
370
    15
100
AcDbLine
 10
139.309899045
 20
167.3112978286
 30
0.0
 11
139.309899045
 21
181.8112978286
 31
0.0
  0
LINE
  5
8B
330
1F
100
AcDbEntity
  8
0
  6
Continuous
 62
     7
370
    15
100
AcDbLine
 10
140.6247393461
 20
167.3112978286
 30
0.0
 11
139.309899045
 21
167.3112978286
 31
0.0
  0
LINE
  5
8C
330
1F
100
AcDbEntity
  8
0
  6
Continuous
 62
     7
370
    15
100
AcDbLine
 10
138.3147393461
 20
143.5349649888
 30
0.0
 11
138.3147393461
 21
156.3112978286
 31
0.0
  0
SPLINE
  5
8D
330
1F
100
AcDbEntity
  8
0
  6
Continuous
 62
     7
370
    15
100
AcDbSpline
210
0.0
220
0.0
230
1.0
 70
    24
 71
     3
 72
     8
 73
     4
 74
     0
 42
0.00000001
 43
0.00000001
 12
1.0
 22
0.0
 32
0.0
 13
1.0
 23
0.0
 33
0.0
 40
0.0
 40
0.0
 40
0.0
 40
0.0
 40
1.0
 40
1.0
 40
1.0
 40
1.0
 10
138.3147393461258
 20
156.3112978286394
 30
0.0
 10
138.6453779727404
 20
156.3112978286394
 30
0.0
 10
138.9771937733139
 20
156.3112978286394
 30
0.0
 10
139.3098990450192
 20
156.3112978286394
 30
0.0
  0
LINE
  5
8E
330
1F
100
AcDbEntity
  8
0
  6
Continuous
 62
     7
370
    15
100
AcDbLine
 10
138.3147393461
 20
167.3112978286
 30
0.0
 11
138.3147393461
 21
180.0876306685
 31
0.0
  0
SPLINE
  5
8F
330
1F
100
AcDbEntity
  8
0
  6
Continuous
 62
     7
370
    15
100
AcDbSpline
210
0.0
220
0.0
230
1.0
 70
    24
 71
     3
 72
     8
 73
     4
 74
     0
 42
0.00000001
 43
0.00000001
 12
1.0
 22
0.0
 32
0.0
 13
1.0
 23
0.0
 33
0.0
 40
0.0
 40
0.0
 40
0.0
 40
0.0
 40
1.0
 40
1.0
 40
1.0
 40
1.0
 10
139.3098990450193
 20
167.3112978286394
 30
0.0
 10
138.9771937733139
 20
167.3112978286394
 30
0.0
 10
138.6453779727404
 20
167.3112978286394
 30
0.0
 10
138.3147393461258
 20
167.3112978286394
 30
0.0
  0
LINE
  5
90
330
1F
100
AcDbEntity
  8
0
  6
Continuous
 62
     7
370
    15
100
AcDbLine
 10
136.2347393461
 20
143.5349649888
 30
0.0
 11
136.2347393461
 21
156.3112978286
 31
0.0
  0
SPLINE
  5
91
330
1F
100
AcDbEntity
  8
0
  6
Continuous
 62
     7
370
    15
100
AcDbSpline
210
0.0
220
0.0
230
1.0
 70
    24
 71
     3
 72
     8
 73
     4
 74
     0
 42
0.00000001
 43
0.00000001
 12
1.0
 22
0.0
 32
0.0
 13
1.0
 23
0.0
 33
0.0
 40
0.0
 40
0.0
 40
0.0
 40
0.0
 40
1.0
 40
1.0
 40
1.0
 40
1.0
 10
135.2395796472323
 20
156.3112978286394
 30
0.0
 10
135.5722849189377
 20
156.3112978286394
 30
0.0
 10
135.9041007195112
 20
156.3112978286394
 30
0.0
 10
136.2347393461258
 20
156.3112978286394
 30
0.0
  0
SPLINE
  5
92
330
1F
100
AcDbEntity
  8
0
  6
Continuous
 62
     7
370
    15
100
AcDbSpline
210
0.0
220
0.0
230
1.0
 70
     8
 71
     3
 72
    16
 73
    12
 74
     0
 42
0.00000001
 43
0.00000001
 12
1.0
 22
0.0
 32
0.0
 13
1.0
 23
0.0
 33
0.0
 40
0.0
 40
0.0
 40
0.0
 40
0.0
 40
0.0625000000000002
 40
0.0625000000000002
 40
0.1250000000000004
 40
0.1250000000000004
 40
0.2500000000000008
 40
0.2500000000000008
 40
0.5000000000000003
 40
0.5000000000000003
 40
1.0
 40
1.0
 40
1.0
 40
1.0
 10
136.8347393461258
 20
165.8462234785113
 30
0.0
 10
136.7996328575117
 20
165.8462234785113
 30
0.0
 10
136.7665381724257
 20
165.8600244665057
 30
0.0
 10
136.7099384604999
 20
165.8994319875694
 30
0.0
 10
136.6856364063643
 20
165.9247695721857
 30
0.0
 10
136.6211084177233
 20
166.0052016173845
 30
0.0
 10
136.5875195922072
 20
166.0662156512914
 30
0.0
 10
136.4994801778581
 20
166.2510011854195
 30
0.0
 10
136.4563724139856
 20
166.3813784230114
 30
0.0
 10
136.3459381998125
 20
166.7762983703611
 30
0.0
 10
136.2997581814351
 20
167.0428280466081
 30
0.0
 10
136.2699617467072
 20
167.3112978286394
 30
0.0
  0
SPLINE
  5
93
330
1F
100
AcDbEntity
  8
0
  6
Continuous
 62
     7
370
    15
100
AcDbSpline
210
0.0
220
0.0
230
1.0
 70
     8
 71
     3
 72
    16
 73
    12
 74
     0
 42
0.00000001
 43
0.00000001
 12
1.0
 22
0.0
 32
0.0
 13
1.0
 23
0.0
 33
0.0
 40
0.0
 40
0.0
 40
0.0
 40
0.0
 40
0.0625000000000003
 40
0.0625000000000003
 40
0.1250000000000006
 40
0.1250000000000006
 40
0.25
 40
0.25
 40
0.5
 40
0.5
 40
1.0
 40
1.0
 40
1.0
 40
1.0
 10
137.7147393461258
 20
157.776372178766
 30
0.0
 10
137.7490686837686
 20
157.7763721787659
 30
0.0
 10
137.7830839252292
 20
157.7624890002939
 30
0.0
 10
137.8395684997855
 20
157.7231262788679
 30
0.0
 10
137.8638708826275
 20
157.6977808328445
 30
0.0
 10
137.9281361594466
 20
157.617705031827
 30
0.0
 10
137.9614935289526
 20
157.5572704026021
 30
0.0
 10
138.0499172642702
 20
157.3719371021508
 30
0.0
 10
138.0924568078791
 20
157.2431258410526
 30
0.0
 10
138.2024408929492
 20
156.8510440046972
 30
0.0
 10
138.2496675599767
 20
156.5802447046766
 30
0.0
 10
138.2795169455444
 20
156.3112978286394
 30
0.0
  0
SPLINE
  5
94
330
1F
100
AcDbEntity
  8
0
  6
Continuous
 62
     7
370
    15
100
AcDbSpline
210
0.0
220
0.0
230
1.0
 70
     8
 71
     3
 72
    16
 73
    12
 74
     0
 42
0.00000001
 43
0.00000001
 12
1.0
 22
0.0
 32
0.0
 13
1.0
 23
0.0
 33
0.0
 40
0.0
 40
0.0
 40
0.0
 40
0.0
 40
0.4999999999999999
 40
0.4999999999999999
 40
0.7500000000000002
 40
0.7500000000000002
 40
0.8750000000000004
 40
0.8750000000000004
 40
0.9375000000000002
 40
0.9375000000000002
 40
1.0
 40
1.0
 40
1.0
 40
1.0
 10
136.2699617467071
 20
156.3112978286394
 30
0.0
 10
136.2998181858278
 20
156.5803082581138
 30
0.0
 10
136.3467400596826
 20
156.8500077100882
 30
0.0
 10
136.4572074661027
 20
157.2437748562836
 30
0.0
 10
136.5004333183137
 20
157.3742046785469
 30
0.0
 10
136.5888512188409
 20
157.5588606677694
 30
0.0
 10
136.6217245594813
 20
157.6183105934861
 30
0.0
 10
136.6860166905562
 20
157.6982246211981
 30
0.0
 10
136.7101708445635
 20
157.7233871905045
 30
0.0
 10
136.7669056152211
 20
157.7627646430436
 30
0.0
 10
136.8002766714067
 20
157.7763721787668
 30
0.0
 10
136.8347393461258
 20
157.7763721787667
 30
0.0
  0
SPLINE
  5
95
330
1F
100
AcDbEntity
  8
0
  6
Continuous
 62
     7
370
    15
100
AcDbSpline
210
0.0
220
0.0
230
1.0
 70
     8
 71
     3
 72
    16
 73
    12
 74
     0
 42
0.00000001
 43
0.00000001
 12
1.0
 22
0.0
 32
0.0
 13
1.0
 23
0.0
 33
0.0
 40
0.0
 40
0.0
 40
0.0
 40
0.0
 40
0.5000000000000033
 40
0.5000000000000033
 40
0.750000000000005
 40
0.750000000000005
 40
0.8750000000000044
 40
0.8750000000000044
 40
0.9375000000000022
 40
0.9375000000000022
 40
1.0
 40
1.0
 40
1.0
 40
1.0
 10
138.2795169455445
 20
167.3112978286398
 30
0.0
 10
138.2495426276903
 20
167.0412252963276
 30
0.0
 10
138.203026233085
 20
166.7743238236214
 30
0.0
 10
138.0931649273508
 20
166.3816561006673
 30
0.0
 10
138.0500122768213
 20
166.2507832620247
 30
0.0
 10
137.9612282237073
 20
166.0648065387308
 30
0.0
 10
137.9280390558289
 20
166.0046333680705
 30
0.0
 10
137.8632927554792
 20
165.9241635928462
 30
0.0
 10
137.8390215444969
 20
165.8989790447851
 30
0.0
 10
137.7825602672779
 20
165.859852996398
 30
0.0
 10
137.7497566612045
 20
165.8462234785113
 30
0.0
 10
137.7147393461258
 20
165.8462234785113
 30
0.0
  0
LINE
  5
96
330
1F
100
AcDbEntity
  8
0
  6
Continuous
 62
     7
370
    15
100
AcDbLine
 10
136.8347393461
 20
157.7763721788
 30
0.0
 11
137.7147393461
 21
157.7763721788
 31
0.0
  0
LINE
  5
97
330
1F
100
AcDbEntity
  8
0
  6
Continuous
 62
     7
370
    15
100
AcDbLine
 10
137.7147393461
 20
165.8462234785
 30
0.0
 11
136.8347393461
 21
165.8462234785
 31
0.0
  0
SPLINE
  5
98
330
1F
100
AcDbEntity
  8
0
  6
Continuous
 62
     7
370
    15
100
AcDbSpline
210
0.0
220
0.0
230
1.0
 70
     8
 71
     3
 72
    18
 73
    14
 74
     0
 42
0.00000001
 43
0.00000001
 12
1.0
 22
0.0
 32
0.0
 13
1.0
 23
0.0
 33
0.0
 40
0.0
 40
0.0
 40
0.0
 40
0.0
 40
0.2500000000000001
 40
0.2500000000000001
 40
0.5000000000000001
 40
0.5000000000000001
 40
0.5625000000000001
 40
0.5625000000000001
 40
0.6250000000000001
 40
0.6250000000000001
 40
0.7500000000000002
 40
0.7500000000000002
 40
1.0
 40
1.0
 40
1.0
 40
1.0
 10
141.2247393461258
 20
157.2681711519992
 30
0.0
 10
141.2247393461258
 20
158.0225980822861
 30
0.0
 10
141.2796802447587
 20
158.7757130488713
 30
0.0
 10
141.380310138311
 20
160.2821639132995
 30
0.0
 10
141.4240128150981
 20
161.0355881342338
 30
0.0
 10
141.4249082759612
 20
161.9784743490169
 30
0.0
 10
141.4226482824436
 20
162.1706227875565
 30
0.0
 10
141.4135804483561
 20
162.5513022808387
 30
0.0
 10
141.4067820436912
 20
162.7415558256259
 30
0.0
 10
141.3810765903045
 20
163.3121143160336
 30
0.0
 10
141.3567776249529
 20
163.6922147526072
 30
0.0
 10
141.28071296877
 20
164.8323895564404
 30
0.0
 10
141.2247393461258
 20
165.5922973868142
 30
0.0
 10
141.2247393461258
 20
166.3544245052796
 30
0.0
  0
LINE
  5
99
330
1F
100
AcDbEntity
  8
0
  6
Continuous
 62
     7
370
    15
100
AcDbLine
 10
141.2247393461
 20
166.3544245053
 30
0.0
 11
141.2247393461
 21
167.3112978286
 31
0.0
  0
LINE
  5
9A
330
1F
100
AcDbEntity
  8
0
  6
Continuous
 62
     7
370
    15
100
AcDbLine
 10
141.2247393461
 20
156.3112978286
 30
0.0
 11
141.2247393461
 21
157.268171152
 31
0.0
  0
LINE
  5
9B
330
1F
100
AcDbEntity
  8
0
  6
Continuous
 62
     7
370
    15
100
AcDbLine
 10
165.8253900038
 20
178.3112978286
 30
0.0
 11
168.7510123954
 21
167.3927264193
 31
0.0
  0
SPLINE
  5
9C
330
1F
100
AcDbEntity
  8
0
  6
Continuous
 62
     7
370
    15
100
AcDbSpline
210
0.0
220
0.0
230
1.0
 70
     8
 71
     3
 72
    18
 73
    14
 74
     0
 42
0.00000001
 43
0.00000001
 12
1.0
 22
0.0
 32
0.0
 13
1.0
 23
0.0
 33
0.0
 40
0.0
 40
0.0
 40
0.0
 40
0.0
 40
0.2499999999999964
 40
0.2499999999999964
 40
0.3749999999999961
 40
0.3749999999999961
 40
0.4999999999999958
 40
0.4999999999999958
 40
0.6249999999999954
 40
0.6249999999999954
 40
0.7499999999999951
 40
0.7499999999999951
 40
1.0
 40
1.0
 40
1.0
 40
1.0
 10
168.7510123953978
 20
167.3927264193048
 30
0.0
 10
168.8255659619603
 20
167.1144887210081
 30
0.0
 10
168.9386840033615
 20
166.849550816032
 30
0.0
 10
169.1689862215244
 20
166.4744564547775
 30
0.0
 10
169.2560898655848
 20
166.3535067412074
 30
0.0
 10
169.4454617750543
 20
166.1278504339524
 30
0.0
 10
169.5483478381203
 20
166.0220396832597
 30
0.0
 10
169.7708278107155
 20
165.8249689655953
 30
0.0
 10
169.8915933846642
 20
165.7330450816884
 30
0.0
 10
170.1434223349188
 20
165.5698800452452
 30
0.0
 10
170.274655996489
 20
165.4981897326861
 30
0.0
 10
170.6841391449439
 20
165.3127423047875
 30
0.0
 10
170.9803493109176
 20
165.2287282592961
 30
0.0
 10
171.2831818440496
 20
165.1915450996884
 30
0.0
  0
LINE
  5
9D
330
1F
100
AcDbEntity
  8
0
  6
Continuous
 62
     7
370
    15
100
AcDbLine
 10
171.283181844
 20
165.1915450997
 30
0.0
 11
181.8856208443
 21
163.8897292825
 31
0.0
  0
ELLIPSE
  5
9E
330
1F
100
AcDbEntity
  8
0
  6
Continuous
 62
     7
370
    15
100
AcDbEllipse
 10
201.3435719395
 20
161.8112978286
 30
0.0
 11
20.08605421908249
 21
8.579729419517749
 31
0.0
210
0.0
220
0.0
230
1.0
 40
0.7016762904
 41
2.468459834889064
 42
4.141935694946673
  0
LINE
  5
9F
330
1F
100
AcDbEntity
  8
0
  6
Continuous
 62
     7
370
    15
100
AcDbLine
 10
195.5622830462
 20
145.3112978286
 30
0.0
 11
195.5637622056
 21
145.3159009235
 31
0.0
  0
SPLINE
  5
A0
330
1F
100
AcDbEntity
  8
0
  6
Continuous
 62
     7
370
    15
100
AcDbSpline
210
0.0
220
0.0
230
1.0
 70
     8
 71
     3
 72
    37
 73
    33
 74
     0
 42
0.00000001
 43
0.00000001
 12
1.0
 22
0.0
 32
0.0
 13
1.0
 23
0.0
 33
0.0
 40
0.0
 40
0.0
 40
0.0
 40
0.0
 40
0.0157818987070585
 40
0.042473659246705
 40
0.0696197746202642
 40
0.1221298031849703
 40
0.1756414741452993
 40
0.2285449389540226
 40
0.2553022101848699
 40
0.2825026302409688
 40
0.3090730268214714
 40
0.3358297096598438
 40
0.3628761210154827
 40
0.3903205202419042
 40
0.4433981177967734
 40
0.4703472164065601
 40
0.4976981216875109
 40
0.5502991026791617
 40
0.5769093394667874
 40
0.603968421338287
 40
0.6565394520629037
 40
0.6831282052906329
 40
0.7101555674485082
 40
0.7632336424036783
 40
0.790098845790916
 40
0.8174001423129159
 40
0.8439762815916197
 40
0.8707399793323675
 40
0.8977957502563579
 40
0.9252528487745333
 40
0.9623623003512007
 40
1.0
 40
1.0
 40
1.0
 40
1.0
 10
163.7675181426024
 20
145.3123892144021
 30
0.0
 10
163.7697980047207
 20
145.312044888619
 30
0.0
 10
163.7759337738408
 20
145.3111182082334
 30
0.0
 10
163.7539976783931
 20
145.3144364429045
 30
0.0
 10
163.7071134066549
 20
145.3214462577705
 30
0.0
 10
163.602123723314
 20
145.3368058840187
 30
0.0
 10
163.4140298171554
 20
145.3625628420161
 30
0.0
 10
163.2064059322857
 20
145.3882491410702
 30
0.0
 10
163.0138448937124
 20
145.4095641824648
 30
0.0
 10
162.8563055486159
 20
145.4255568968994
 30
0.0
 10
162.6875388319424
 20
145.4410157622696
 30
0.0
 10
162.5091098272174
 20
145.4554893529327
 30
0.0
 10
162.3197820422266
 20
145.4687279822261
 30
0.0
 10
162.0590275202897
 20
145.4838746174827
 30
0.0
 10
161.78569236152
 20
145.4948136855566
 30
0.0
 10
161.5067085394539
 20
145.5006024106587
 30
0.0
 10
161.2266833850711
 20
145.5027709841916
 30
0.0
 10
160.9467554401953
 20
145.4994964670767
 30
0.0
 10
160.673737948756
 20
145.4911484569139
 30
0.0
 10
160.4065173317859
 20
145.4796348471196
 30
0.0
 10
160.1502700992493
 20
145.4638552308452
 30
0.0
 10
159.9111057341699
 20
145.4451983581847
 30
0.0
 10
159.683632255853
 20
145.4250199839374
 30
0.0
 10
159.4768572414759
 20
145.403452811528
 30
0.0
 10
159.2958586050558
 20
145.3823473810091
 30
0.0
 10
159.1736698140398
 20
145.3671443980474
 30
0.0
 10
159.0665801450876
 20
145.353084225623
 30
0.0
 10
158.9753320405736
 20
145.3405663536263
 30
0.0
 10
158.8994537582016
 20
145.3297774375105
 30
0.0
 10
158.8338472384802
 20
145.3201865425016
 30
0.0
 10
158.784795985658
 20
145.3128267206537
 30
0.0
 10
158.7781073158766
 20
145.311809854753
 30
0.0
 10
158.7747393461258
 20
145.3112978286393
 30
0.0
  0
SPLINE
  5
A1
330
1F
100
AcDbEntity
  8
0
  6
Continuous
 62
     7
370
    15
100
AcDbSpline
210
0.0
220
0.0
230
1.0
 70
     8
 71
     3
 72
    68
 73
    64
 74
     0
 42
0.00000001
 43
0.00000001
 12
1.0
 22
0.0
 32
0.0
 13
1.0
 23
0.0
 33
0.0
 40
-0.0624999999999998
 40
-0.0624999999999998
 40
0.0
 40
0.0
 40
0.03125
 40
0.03125
 40
0.0625
 40
0.0625
 40
0.0937500000000001
 40
0.0937500000000001
 40
0.1093750000000001
 40
0.1093750000000001
 40
0.1250000000000001
 40
0.1250000000000001
 40
0.1562500000000002
 40
0.1562500000000002
 40
0.1875000000000002
 40
0.1875000000000002
 40
0.2187500000000002
 40
0.2187500000000002
 40
0.2500000000000002
 40
0.2500000000000002
 40
0.2812500000000002
 40
0.2812500000000002
 40
0.3125000000000003
 40
0.3125000000000003
 40
0.3437500000000003
 40
0.3437500000000003
 40
0.3750000000000003
 40
0.3750000000000003
 40
0.4062500000000003
 40
0.4062500000000003
 40
0.4375000000000003
 40
0.4375000000000003
 40
0.4687500000000004
 40
0.4687500000000004
 40
0.5000000000000003
 40
0.5000000000000003
 40
0.5312500000000002
 40
0.5312500000000002
 40
0.5625000000000001
 40
0.5625000000000001
 40
0.5937500000000001
 40
0.5937500000000001
 40
0.6250000000000001
 40
0.6250000000000001
 40
0.6562500000000001
 40
0.6562500000000001
 40
0.6875000000000001
 40
0.6875000000000001
 40
0.7187500000000001
 40
0.7187500000000001
 40
0.7500000000000001
 40
0.7500000000000001
 40
0.7812500000000002
 40
0.7812500000000002
 40
0.8125000000000002
 40
0.8125000000000002
 40
0.8437500000000002
 40
0.8437500000000002
 40
0.8750000000000002
 40
0.8750000000000002
 40
0.9375000000000002
 40
0.9375000000000002
 40
1.0
 40
1.0
 40
1.03125
 40
1.03125
 10
173.6728212886068
 20
146.4124116402745
 30
0.0
 10
173.6379825330836
 20
146.1286727461736
 30
0.0
 10
173.6538732376357
 20
146.0424060936178
 30
0.0
 10
173.7423914391429
 20
145.8855430310217
 30
0.0
 10
173.8165474484869
 20
145.8142891382728
 30
0.0
 10
174.0199865432583
 20
145.691573592486
 30
0.0
 10
174.1486820361478
 20
145.6395444413832
 30
0.0
 10
174.3834436504902
 20
145.5729293847807
 30
0.0
 10
174.4690710607003
 20
145.5525999868978
 30
0.0
 10
174.6503386414801
 20
145.5162265275897
 30
0.0
 10
174.7463906487594
 20
145.5000396156258
 30
0.0
 10
175.0504631709564
 20
145.4565005081097
 30
0.0
 10
175.2768836003987
 20
145.4339598986063
 30
0.0
 10
175.7607067984198
 20
145.3991533398044
 30
0.0
 10
176.0157152437918
 20
145.386870235172
 30
0.0
 10
176.5513080860428
 20
145.368731835748
 30
0.0
 10
176.8323257125607
 20
145.3629558682579
 30
0.0
 10
177.3954259851408
 20
145.3561680674252
 30
0.0
 10
177.6811676966235
 20
145.3550446332264
 30
0.0
 10
178.2575057919173
 20
145.3569874769279
 30
0.0
 10
178.5396535375917
 20
145.3600214112032
 30
0.0
 10
179.0923792211458
 20
145.3713152823953
 30
0.0
 10
179.365810400328
 20
145.3797340378909
 30
0.0
 10
179.8813611277898
 20
145.4041872482917
 30
0.0
 10
180.1244785949931
 20
145.4201557286935
 30
0.0
 10
180.5815131240017
 20
145.463466143358
 30
0.0
 10
180.7945219433183
 20
145.4909636672231
 30
0.0
 10
181.1726869880771
 20
145.5593390635432
 30
0.0
 10
181.3406055187665
 20
145.6004268338562
 30
0.0
 10
181.6330311709358
 20
145.7008702918016
 30
0.0
 10
181.7528471510113
 20
145.7586335483732
 30
0.0
 10
181.9432984509219
 20
145.8916149006377
 30
0.0
 10
182.0142409571859
 20
145.9677475212762
 30
0.0
 10
182.1031282848895
 20
146.1353320041661
 30
0.0
 10
182.1216906643277
 20
146.2264352719185
 30
0.0
 10
182.1091750050639
 20
146.4236332013166
 30
0.0
 10
182.0773649253046
 20
146.5303984322165
 30
0.0
 10
181.966645512134
 20
146.7504457210579
 30
0.0
 10
181.8879380231392
 20
146.8645823498287
 30
0.0
 10
181.6828532619694
 20
147.099324828328
 30
0.0
 10
181.5565211741082
 20
147.2193321634306
 30
0.0
 10
181.2638692589754
 20
147.4534284124813
 30
0.0
 10
181.0966932950931
 20
147.5686715095252
 30
0.0
 10
180.7155533394952
 20
147.7907433605673
 30
0.0
 10
180.5044004314059
 20
147.895518855896
 30
0.0
 10
180.0503418071959
 20
148.0808749787163
 30
0.0
 10
179.8054886761251
 20
148.1625894976091
 30
0.0
 10
179.2758770411151
 20
148.2950056306828
 30
0.0
 10
179.0031402553574
 20
148.3425930378127
 30
0.0
 10
178.441775880409
 20
148.3979278895144
 30
0.0
 10
178.1493066650982
 20
148.4051118670274
 30
0.0
 10
177.5788272863504
 20
148.378089215592
 30
0.0
 10
177.2964946335664
 20
148.3443809805923
 30
0.0
 10
176.7474462417363
 20
148.2427212381956
 30
0.0
 10
176.4862018038927
 20
148.1761091583808
 30
0.0
 10
175.9866253708842
 20
148.0185132091545
 30
0.0
 10
175.7490145682873
 20
147.9274306348863
 30
0.0
 10
175.3100483983515
 20
147.7326113061845
 30
0.0
 10
175.1061804000558
 20
147.628024493933
 30
0.0
 10
174.5417769604551
 20
147.300006558823
 30
0.0
 10
174.2416755019533
 20
147.071836127092
 30
0.0
 10
173.8018450470185
 20
146.6225195496473
 30
0.0
 10
173.6728212886068
 20
146.4124116402745
 30
0.0
 10
173.6379825330836
 20
146.1286727461736
 30
0.0
  0
LINE
  5
A2
330
1F
100
AcDbEntity
  8
0
  6
Continuous
 62
     7
370
    15
100
AcDbLine
 10
191.5479546421
 20
162.7033438699
 30
0.0
 11
181.8856208443
 21
163.8897292825
 31
0.0
  0
LINE
  5
A3
330
1F
100
AcDbEntity
  8
0
  6
Continuous
 62
     7
370
    15
100
AcDbLine
 10
191.5479546421
 20
162.7033438699
 30
0.0
 11
190.529620381
 21
158.0930834152
 31
0.0
  0
LINE
  5
A4
330
1F
100
AcDbEntity
  8
0
  6
Continuous
 62
     7
370
    15
100
AcDbLine
 10
190.529620381
 20
158.0930834152
 30
0.0
 11
190.9156523053
 21
158.0456846549
 31
0.0
  0
LINE
  5
A5
330
1F
100
AcDbEntity
  8
0
  6
Continuous
 62
     7
370
    15
100
AcDbLine
 10
190.9156523053
 20
158.0456846549
 30
0.0
 11
190.278651725
 21
155.1618196047
 31
0.0
  0
LINE
  5
A6
330
1F
100
AcDbEntity
  8
0
  6
Continuous
 62
     7
370
    15
100
AcDbLine
 10
190.6145049188
 20
155.1205820178
 30
0.0
 11
190.278651725
 21
155.1618196047
 31
0.0
  0
LINE
  5
A7
330
1F
100
AcDbEntity
  8
0
  6
Continuous
 62
     7
370
    15
100
AcDbLine
 10
195.5637622056
 20
145.3159009235
 30
0.0
 11
198.4069448305
 21
154.1637907049
 31
0.0
  0
SPLINE
  5
A8
330
1F
100
AcDbEntity
  8
0
  6
Continuous
 62
     7
370
    15
100
AcDbSpline
210
0.0
220
0.0
230
1.0
 70
     8
 71
     3
 72
    39
 73
    35
 74
     0
 42
0.00000001
 43
0.00000001
 12
1.0
 22
0.0
 32
0.0
 13
1.0
 23
0.0
 33
0.0
 40
-0.0936307374834673
 40
-0.0624866940518838
 40
-0.031189912570425
 40
0.0
 40
0.0313950051307597
 40
0.0632578417333818
 40
0.0952224636479784
 40
0.1268300883541603
 40
0.1583319028234182
 40
0.1900733366302712
 40
0.2215799771184384
 40
0.252550666839035
 40
0.2832646329731658
 40
0.3142453913338007
 40
0.3451008643993457
 40
0.3756595953882576
 40
0.406248358784903
 40
0.4375428428480347
 40
0.4689219037420687
 40
0.5001883476926269
 40
0.5315602582316736
 40
0.5633787432097855
 40
0.5952897280240668
 40
0.6268283118816947
 40
0.6582867464516404
 40
0.6900582026392482
 40
0.7215959795543333
 40
0.7526086401062453
 40
0.783441846006932
 40
0.8143773968256411
 40
0.8453229801623133
 40
0.8757917625066938
 40
0.9063692625165327
 40
0.9375133059481162
 40
0.968810087429575
 40
1.0
 40
1.03139500513076
 40
1.063257841733382
 40
1.095222463647978
 10
113.2550869195953
 20
159.7616790220833
 30
0.0
 10
112.9078407529649
 20
160.2031650918941
 30
0.0
 10
112.6504409762375
 20
160.7063460321615
 30
0.0
 10
112.494665039759
 20
161.2547772038568
 30
0.0
 10
112.4392711221824
 20
161.8239548193895
 30
0.0
 10
112.4954149785042
 20
162.3911179504771
 30
0.0
 10
112.6575165182947
 20
162.9356698401034
 30
0.0
 10
112.9227334588941
 20
163.4366170602462
 30
0.0
 10
113.272767338541
 20
163.878042924808
 30
0.0
 10
113.6996291402387
 20
164.2371700470637
 30
0.0
 10
114.1871191519645
 20
164.5035465721115
 30
0.0
 10
114.7187556678356
 20
164.6631711930087
 30
0.0
 10
115.2698805485999
 20
164.7190160205019
 30
0.0
 10
115.8173351035971
 20
164.6588613966723
 30
0.0
 10
116.3419785482966
 20
164.489203925148
 30
0.0
 10
116.8237328359766
 20
164.2148764204647
 30
0.0
 10
117.2488092476527
 20
163.8537175851336
 30
0.0
 10
117.5945491002677
 20
163.4143571828143
 30
0.0
 10
117.8514189573766
 20
162.9130325795086
 30
0.0
 10
118.0063501258524
 20
162.3658248992575
 30
0.0
 10
118.0611557339574
 20
161.7975546274758
 30
0.0
 10
118.0042182416193
 20
161.2314252059817
 30
0.0
 10
117.8417528964155
 20
160.6883623992188
 30
0.0
 10
117.5778769479569
 20
160.1889981463331
 30
0.0
 10
117.2303271265849
 20
159.7491597156934
 30
0.0
 10
116.8067220810437
 20
159.3910381324066
 30
0.0
 10
116.3233483375039
 20
159.124622121913
 30
0.0
 10
115.7946518350824
 20
158.9627701428993
 30
0.0
 10
115.2453097819827
 20
158.9039926598999
 30
0.0
 10
114.6963671561292
 20
158.9603838259141
 30
0.0
 10
114.1688160428022
 20
159.1268663249157
 30
0.0
 10
113.6832597340338
 20
159.4003337700244
 30
0.0
 10
113.2550869195953
 20
159.7616790220833
 30
0.0
 10
112.9078407529649
 20
160.2031650918941
 30
0.0
 10
112.6504409762375
 20
160.7063460321615
 30
0.0
  0
SPLINE
  5
A9
330
1F
100
AcDbEntity
  8
0
  6
Continuous
 62
     7
370
    15
100
AcDbSpline
210
0.0
220
0.0
230
1.0
 70
     8
 71
     3
 72
    35
 73
    31
 74
     0
 42
0.00000001
 43
0.00000001
 12
1.0
 22
0.0
 32
0.0
 13
1.0
 23
0.0
 33
0.0
 40
-0.0968759714488154
 40
-0.0666637413374569
 40
-0.0343786692023273
 40
0.0
 40
0.0402501655252657
 40
0.074486822299377
 40
0.1027071321027371
 40
0.1249179508766817
 40
0.162053762084138
 40
0.203686623766582
 40
0.2499064447776748
 40
0.2843401084220712
 40
0.3106265058278185
 40
0.3287516660584127
 40
0.3698185614124857
 40
0.4071583507676109
 40
0.4519490945089644
 40
0.5000414664482751
 40
0.5203026886970237
 40
0.5628788326114387
 40
0.5977565701864054
 40
0.6256573753263079
 40
0.6860513535191881
 40
0.749948136075531
 40
0.7710338114758498
 40
0.8124324596667092
 40
0.8472054374260005
 40
0.8749589221790498
 40
0.9031240285511846
 40
0.9333362586625431
 40
0.9656213307976727
 40
1.0
 40
1.040250165525266
 40
1.074486822299377
 40
1.102707132102737
 10
113.1185131270703
 20
160.9634467421145
 30
0.0
 10
113.3571759170812
 20
160.5031694538997
 30
0.0
 10
113.7036102355146
 20
160.1026196727745
 30
0.0
 10
114.1083703220931
 20
159.8116999672623
 30
0.0
 10
114.4819687416031
 20
159.6418943749893
 30
0.0
 10
114.8905995265286
 20
159.5296892888951
 30
0.0
 10
115.3806662689845
 20
159.4899819521668
 30
0.0
 10
115.9790565757222
 20
159.5910668540937
 30
0.0
 10
116.5141827785266
 20
159.8448291369507
 30
0.0
 10
116.9084390848717
 20
160.1727941800049
 30
0.0
 10
117.1483681105102
 20
160.4645793023765
 30
0.0
 10
117.3621498590926
 20
160.8131790214331
 30
0.0
 10
117.5299176754077
 20
161.2517112109658
 30
0.0
 10
117.6003812964265
 20
161.8471882004467
 30
0.0
 10
117.510856104091
 20
162.4775737731973
 30
0.0
 10
117.2780196098314
 20
162.9781520646239
 30
0.0
 10
116.9585854573657
 20
163.4003120076197
 30
0.0
 10
116.6064939127698
 20
163.7141639230751
 30
0.0
 10
116.158793354498
 20
163.9505367738901
 30
0.0
 10
115.5919198193244
 20
164.1203722747591
 30
0.0
 10
114.8390696073672
 20
164.1317680535152
 30
0.0
 10
114.1678981601045
 20
163.8612530223463
 30
0.0
 10
113.6831050701799
 20
163.4926659024578
 30
0.0
 10
113.3687483652417
 20
163.137967998964
 30
0.0
 10
113.1339144121513
 20
162.6920110051867
 30
0.0
 10
113.0089760860809
 20
162.2709545619051
 30
0.0
 10
112.9621517795662
 20
161.8558126348199
 30
0.0
 10
112.9936654117616
 20
161.4168709575322
 30
0.0
 10
113.1185131270703
 20
160.9634467421145
 30
0.0
 10
113.3571759170812
 20
160.5031694538997
 30
0.0
 10
113.7036102355146
 20
160.1026196727745
 30
0.0
  0
SPLINE
  5
AA
330
1F
100
AcDbEntity
  8
0
  6
Continuous
 62
     7
370
    15
100
AcDbSpline
210
0.0
220
0.0
230
1.0
 70
     8
 71
     3
 72
     8
 73
     4
 74
     0
 42
0.00000001
 43
0.00000001
 12
1.0
 22
0.0
 32
0.0
 13
1.0
 23
0.0
 33
0.0
 40
0.0
 40
0.0
 40
0.0
 40
0.0
 40
1.0
 40
1.0
 40
1.0
 40
1.0
 10
102.3162231965567
 20
155.3453918423396
 30
0.0
 10
102.3303576411848
 20
155.4436272431156
 30
0.0
 10
102.3534150163334
 20
155.5406478755883
 30
0.0
 10
102.3837393461257
 20
155.6367382224581
 30
0.0
  0
SPLINE
  5
AB
330
1F
100
AcDbEntity
  8
0
  6
Continuous
 62
     7
370
    15
100
AcDbSpline
210
0.0
220
0.0
230
1.0
 70
     8
 71
     3
 72
    10
 73
     6
 74
     0
 42
0.00000001
 43
0.00000001
 12
1.0
 22
0.0
 32
0.0
 13
1.0
 23
0.0
 33
0.0
 40
0.0
 40
0.0
 40
0.0
 40
0.0
 40
0.5
 40
0.5
 40
1.0
 40
1.0
 40
1.0
 40
1.0
 10
102.3837393461259
 20
155.6367382224582
 30
0.0
 10
102.5990983766832
 20
155.5972287426463
 30
0.0
 10
102.8135397150072
 20
155.5544862012486
 30
0.0
 10
103.2385309336278
 20
155.455300094381
 30
0.0
 10
103.4499036653505
 20
155.4017520208734
 30
0.0
 10
103.6539159544274
 20
155.3222999591875
 30
0.0
  0
SPLINE
  5
AC
330
1F
100
AcDbEntity
  8
0
  6
Continuous
 62
     7
370
    15
100
AcDbSpline
210
0.0
220
0.0
230
1.0
 70
     8
 71
     3
 72
    10
 73
     6
 74
     0
 42
0.00000001
 43
0.00000001
 12
1.0
 22
0.0
 32
0.0
 13
1.0
 23
0.0
 33
0.0
 40
0.0
 40
0.0
 40
0.0
 40
0.0
 40
0.5
 40
0.5
 40
1.0
 40
1.0
 40
1.0
 40
1.0
 10
103.6539159544274
 20
155.3222999591874
 30
0.0
 10
104.126820385017
 20
155.1381285440202
 30
0.0
 10
104.6098253178614
 20
154.9791361437694
 30
0.0
 10
105.5856396962143
 20
154.6855925011811
 30
0.0
 10
106.0791139092383
 20
154.5516504099082
 30
0.0
 10
106.5747393461257
 20
154.4259297375282
 30
0.0
  0
SPLINE
  5
AD
330
1F
100
AcDbEntity
  8
0
  6
Continuous
 62
     7
370
    15
100
AcDbSpline
210
0.0
220
0.0
230
1.0
 70
     8
 71
     3
 72
    14
 73
    10
 74
     0
 42
0.00000001
 43
0.00000001
 12
1.0
 22
0.0
 32
0.0
 13
1.0
 23
0.0
 33
0.0
 40
0.0
 40
0.0
 40
0.0
 40
0.0
 40
0.1249999999999996
 40
0.1249999999999996
 40
0.2499999999999991
 40
0.2499999999999991
 40
0.4999999999999982
 40
0.4999999999999982
 40
1.0
 40
1.0
 40
1.0
 40
1.0
 10
106.5747393461258
 20
154.4259297375283
 30
0.0
 10
106.6237516689371
 20
154.4134972396778
 30
0.0
 10
106.6765578939325
 20
154.4219452341257
 30
0.0
 10
106.761624985662
 20
154.4648607614198
 30
0.0
 10
106.7962091710028
 20
154.4965522733592
 30
0.0
 10
106.8847648563401
 20
154.5986744034049
 30
0.0
 10
106.9257005576613
 20
154.6772501855956
 30
0.0
 10
107.0295810845642
 20
154.9173245152018
 30
0.0
 10
107.0728048839964
 20
155.0888405024074
 30
0.0
 10
107.1070042532689
 20
155.2626984736035
 30
0.0
  0
SPLINE
  5
AE
330
1F
100
AcDbEntity
  8
0
  6
Continuous
 62
     7
370
    15
100
AcDbSpline
210
0.0
220
0.0
230
1.0
 70
     8
 71
     3
 72
    12
 73
     8
 74
     0
 42
0.00000001
 43
0.00000001
 12
1.0
 22
0.0
 32
0.0
 13
1.0
 23
0.0
 33
0.0
 40
0.0
 40
0.0
 40
0.0
 40
0.0
 40
0.2500000000000003
 40
0.2500000000000003
 40
0.5000000000000007
 40
0.5000000000000007
 40
1.0
 40
1.0
 40
1.0
 40
1.0
 10
107.1070042532689
 20
155.2626984736035
 30
0.0
 10
107.1324284701629
 20
155.3919465522218
 30
0.0
 10
107.1730403097322
 20
155.5194989674106
 30
0.0
 10
107.2576414560043
 20
155.7756887904963
 30
0.0
 10
107.3017382522899
 20
155.9042634786659
 30
0.0
 10
107.4178073607759
 20
156.2955378295371
 30
0.0
 10
107.4747393461258
 20
156.5635249512586
 30
0.0
 10
107.4747393461258
 20
156.8461876345376
 30
0.0
  0
LINE
  5
AF
330
1F
100
AcDbEntity
  8
0
  6
Continuous
 62
     7
370
    15
100
AcDbLine
 10
107.4747393461
 20
156.8461876345
 30
0.0
 11
107.4747393461
 21
166.7764080227
 31
0.0
  0
SPLINE
  5
B0
330
1F
100
AcDbEntity
  8
0
  6
Continuous
 62
     7
370
    15
100
AcDbSpline
210
0.0
220
0.0
230
1.0
 70
     8
 71
     3
 72
    12
 73
     8
 74
     0
 42
0.00000001
 43
0.00000001
 12
1.0
 22
0.0
 32
0.0
 13
1.0
 23
0.0
 33
0.0
 40
0.0
 40
0.0
 40
0.0
 40
0.0
 40
0.2499999999999997
 40
0.2499999999999997
 40
0.4999999999999994
 40
0.4999999999999994
 40
1.0
 40
1.0
 40
1.0
 40
1.0
 10
107.1070042532689
 20
168.3598971836754
 30
0.0
 10
107.1324284701628
 20
168.2306491050571
 30
0.0
 10
107.1730403097321
 20
168.1030966898683
 30
0.0
 10
107.2576414560043
 20
167.8469068667826
 30
0.0
 10
107.3017382522898
 20
167.718332178613
 30
0.0
 10
107.4178073607759
 20
167.3270578277418
 30
0.0
 10
107.4747393461258
 20
167.0590707060202
 30
0.0
 10
107.4747393461258
 20
166.7764080227413
 30
0.0
  0
SPLINE
  5
B1
330
1F
100
AcDbEntity
  8
0
  6
Continuous
 62
     7
370
    15
100
AcDbSpline
210
0.0
220
0.0
230
1.0
 70
     8
 71
     3
 72
    14
 73
    10
 74
     0
 42
0.00000001
 43
0.00000001
 12
1.0
 22
0.0
 32
0.0
 13
1.0
 23
0.0
 33
0.0
 40
0.0
 40
0.0
 40
0.0
 40
0.0
 40
0.1250000000000003
 40
0.1250000000000003
 40
0.2500000000000006
 40
0.2500000000000006
 40
0.5000000000000003
 40
0.5000000000000003
 40
1.0
 40
1.0
 40
1.0
 40
1.0
 10
106.5747393461258
 20
169.1966659197506
 30
0.0
 10
106.6237516689372
 20
169.2090984176011
 30
0.0
 10
106.6765578939325
 20
169.2006504231532
 30
0.0
 10
106.761624985662
 20
169.157734895859
 30
0.0
 10
106.7962091710028
 20
169.1260433839196
 30
0.0
 10
106.88476485634
 20
169.023921253874
 30
0.0
 10
106.9257005576613
 20
168.9453454716832
 30
0.0
 10
107.0295810845642
 20
168.7052711420771
 30
0.0
 10
107.0728048839963
 20
168.5337551548715
 30
0.0
 10
107.1070042532689
 20
168.3598971836754
 30
0.0
  0
SPLINE
  5
B2
330
1F
100
AcDbEntity
  8
0
  6
Continuous
 62
     7
370
    15
100
AcDbSpline
210
0.0
220
0.0
230
1.0
 70
     8
 71
     3
 72
    10
 73
     6
 74
     0
 42
0.00000001
 43
0.00000001
 12
1.0
 22
0.0
 32
0.0
 13
1.0
 23
0.0
 33
0.0
 40
0.0
 40
0.0
 40
0.0
 40
0.0
 40
0.5
 40
0.5
 40
1.0
 40
1.0
 40
1.0
 40
1.0
 10
103.6539159544274
 20
168.3002956980915
 30
0.0
 10
104.126820385017
 20
168.4844671132586
 30
0.0
 10
104.6098253178614
 20
168.6434595135095
 30
0.0
 10
105.5856396962143
 20
168.9370031560977
 30
0.0
 10
106.0791139092384
 20
169.0709452473707
 30
0.0
 10
106.5747393461258
 20
169.1966659197508
 30
0.0
  0
SPLINE
  5
B3
330
1F
100
AcDbEntity
  8
0
  6
Continuous
 62
     7
370
    15
100
AcDbSpline
210
0.0
220
0.0
230
1.0
 70
     8
 71
     3
 72
    10
 73
     6
 74
     0
 42
0.00000001
 43
0.00000001
 12
1.0
 22
0.0
 32
0.0
 13
1.0
 23
0.0
 33
0.0
 40
0.0
 40
0.0
 40
0.0
 40
0.0
 40
0.5
 40
0.5
 40
1.0
 40
1.0
 40
1.0
 40
1.0
 10
102.3837393461258
 20
167.9858574348207
 30
0.0
 10
102.5990983766832
 20
168.0253669146327
 30
0.0
 10
102.8135397150072
 20
168.0681094560304
 30
0.0
 10
103.2385309336277
 20
168.1672955628979
 30
0.0
 10
103.4499036653504
 20
168.2208436364056
 30
0.0
 10
103.6539159544274
 20
168.3002956980914
 30
0.0
  0
SPLINE
  5
B4
330
1F
100
AcDbEntity
  8
0
  6
Continuous
 62
     7
370
    15
100
AcDbSpline
210
0.0
220
0.0
230
1.0
 70
     8
 71
     3
 72
     8
 73
     4
 74
     0
 42
0.00000001
 43
0.00000001
 12
1.0
 22
0.0
 32
0.0
 13
1.0
 23
0.0
 33
0.0
 40
0.0
 40
0.0
 40
0.0
 40
0.0
 40
1.0
 40
1.0
 40
1.0
 40
1.0
 10
102.3162231965567
 20
168.2772038149392
 30
0.0
 10
102.3303576411848
 20
168.1789684141633
 30
0.0
 10
102.3534150163334
 20
168.0819477816906
 30
0.0
 10
102.3837393461258
 20
167.9858574348208
 30
0.0
  0
ELLIPSE
  5
B5
330
1F
100
AcDbEntity
  8
0
  6
Continuous
 62
     7
370
    15
100
AcDbEllipse
 10
88.8479971383
 20
162.0439831542
 30
0.0
 11
11.13693598682958
 21
11.10090879287046
 31
0.0
210
0.0
220
0.0
230
1.0
 40
0.6999052427
 41
5.802043396094654
 42
5.882012891914444
  0
ELLIPSE
  5
B6
330
1F
100
AcDbEntity
  8
0
  6
Continuous
 62
     7
370
    15
100
AcDbEllipse
 10
88.8479971383
 20
161.5786125031
 30
0.0
 11
11.13693598682957
 21
-11.10090879287046
 31
0.0
210
0.0
220
0.0
230
1.0
 40
0.6999052427
 41
0.4011724152651678
 42
0.481141911084958
  0
LINE
  5
B7
330
1F
100
AcDbEntity
  8
0
  6
Continuous
 62
     7
370
    15
100
AcDbLine
 10
119.2747393461
 20
161.8112978286
 30
0.0
 11
119.2747393461
 21
176.9149982294
 31
0.0
  0
LINE
  5
B8
330
1F
100
AcDbEntity
  8
0
  6
Continuous
 62
     7
370
    15
100
AcDbLine
 10
119.2747393461
 20
146.7075974278
 30
0.0
 11
119.2747393461
 21
161.8112978286
 31
0.0
  0
ARC
  5
B9
330
1F
100
AcDbEntity
  8
0
  6
Continuous
 62
     7
370
    15
100
AcDbCircle
 10
106.5747393461
 20
164.8772978286
 30
0.0
 40
0.9000000000000057
100
AcDbArc
 50
0.0
 51
90.0
  0
ARC
  5
BA
330
1F
100
AcDbEntity
  8
0
  6
Continuous
 62
     7
370
    15
100
AcDbCircle
 10
106.5747393461
 20
158.7452978286
 30
0.0
 40
0.8999999999999915
100
AcDbArc
 50
270.0
 51
0.0
  0
LINE
  5
BB
330
1F
100
AcDbEntity
  8
0
  6
Continuous
 62
     7
370
    15
100
AcDbLine
 10
101.3747393461
 20
156.8362978286
 30
0.0
 11
101.3747393461
 21
155.6673982838
 31
0.0
  0
LINE
  5
BC
330
1F
100
AcDbEntity
  8
0
  6
Continuous
 62
     7
370
    15
100
AcDbLine
 10
102.3837393461
 20
157.8452978286
 30
0.0
 11
101.3747393461
 21
156.8362978286
 31
0.0
  0
LINE
  5
BD
330
1F
100
AcDbEntity
  8
0
  6
Continuous
 62
     7
370
    15
100
AcDbLine
 10
102.3837393461
 20
157.8452978286
 30
0.0
 11
102.3837393461
 21
155.6367382225
 31
0.0
  0
LINE
  5
BE
330
1F
100
AcDbEntity
  8
0
  6
Continuous
 62
     7
370
    15
100
AcDbLine
 10
106.5747393461
 20
157.8452978286
 30
0.0
 11
102.3837393461
 21
157.8452978286
 31
0.0
  0
LINE
  5
BF
330
1F
100
AcDbEntity
  8
0
  6
Continuous
 62
     7
370
    15
100
AcDbLine
 10
106.5747393461
 20
165.7772978286
 30
0.0
 11
102.3837393461
 21
165.7772978286
 31
0.0
  0
LINE
  5
C0
330
1F
100
AcDbEntity
  8
0
  6
Continuous
 62
     7
370
    15
100
AcDbLine
 10
102.3837393461
 20
165.7772978286
 30
0.0
 11
102.3837393461
 21
167.9858574348
 31
0.0
  0
LINE
  5
C1
330
1F
100
AcDbEntity
  8
0
  6
Continuous
 62
     7
370
    15
100
AcDbLine
 10
102.3837393461
 20
165.7772978286
 30
0.0
 11
101.3747393461
 21
166.7862978286
 31
0.0
  0
LINE
  5
C2
330
1F
100
AcDbEntity
  8
0
  6
Continuous
 62
     7
370
    15
100
AcDbLine
 10
101.3747393461
 20
166.7862978286
 30
0.0
 11
101.3747393461
 21
167.9551973735
 31
0.0
  0
SPLINE
  5
C3
330
1F
100
AcDbEntity
  8
0
  6
Continuous
 62
     7
370
    15
100
AcDbSpline
210
0.0
220
0.0
230
1.0
 70
     8
 71
     3
 72
     9
 73
     5
 74
     0
 42
0.00000001
 43
0.00000001
 12
1.0
 22
0.0
 32
0.0
 13
1.0
 23
0.0
 33
0.0
 40
0.0
 40
0.0
 40
0.0
 40
0.0
 40
0.523733231666843
 40
0.9999999999999999
 40
0.9999999999999999
 40
0.9999999999999999
 40
0.9999999999999999
 10
117.0989160740033
 20
163.2121473085873
 30
0.0
 10
117.1361949193727
 20
163.1615998858844
 30
0.0
 10
117.2073739913035
 20
163.0650862036383
 30
0.0
 10
117.2662415059276
 20
162.9603914254509
 30
0.0
 10
117.2942781468774
 20
162.9105287817821
 30
0.0
  0
LINE
  5
C4
330
1F
100
AcDbEntity
  8
0
  6
Continuous
 62
     7
370
    15
100
AcDbLine
 10
117.098916074
 20
160.4104483487
 30
0.0
 11
117.0337050379
 21
160.3387620203
 31
0.0
  0
SPLINE
  5
C5
330
1F
100
AcDbEntity
  8
0
  6
Continuous
 62
     7
370
    15
100
AcDbSpline
210
0.0
220
0.0
230
1.0
 70
     8
 71
     3
 72
    10
 73
     6
 74
     0
 42
0.00000001
 43
0.00000001
 12
1.0
 22
0.0
 32
0.0
 13
1.0
 23
0.0
 33
0.0
 40
0.0
 40
0.0
 40
0.0
 40
0.0
 40
0.1932729033588992
 40
0.6546776241321115
 40
1.0
 40
1.0
 40
1.0
 40
1.0
 10
113.3698510589421
 20
160.525944523142
 30
0.0
 10
113.3540962840685
 20
160.5485798165126
 30
0.0
 10
113.3007297831067
 20
160.6252528515207
 30
0.0
 10
113.2286484145506
 20
160.7493995501231
 30
0.0
 10
113.1874482686807
 20
160.8572601986226
 30
0.0
 10
113.1698124010904
 20
160.9034303292128
 30
0.0
  0
SPLINE
  5
C6
330
1F
100
AcDbEntity
  8
0
  6
Continuous
 62
     7
370
    15
100
AcDbSpline
210
0.0
220
0.0
230
1.0
 70
     8
 71
     3
 72
    11
 73
     7
 74
     0
 42
0.00000001
 43
0.00000001
 12
1.0
 22
0.0
 32
0.0
 13
1.0
 23
0.0
 33
0.0
 40
0.0
 40
0.0
 40
0.0
 40
0.0
 40
0.1226860271512093
 40
0.3399948525903287
 40
0.7784992279953822
 40
1.0
 40
1.0
 40
1.0
 40
1.0
 10
116.5722443201318
 20
163.7079128916199
 30
0.0
 10
116.5970389665389
 20
163.6915110261943
 30
0.0
 10
116.665751372882
 20
163.6460571962266
 30
0.0
 10
116.8117942494428
 20
163.5265574382431
 30
0.0
 10
116.9654288767046
 20
163.3787943603076
 30
0.0
 10
117.065374022154
 20
163.2540216168538
 30
0.0
 10
117.0989160740033
 20
163.2121473085873
 30
0.0
  0
LINE
  5
C7
330
1F
100
AcDbEntity
  8
0
  6
Continuous
 62
     7
370
    15
100
AcDbLine
 10
101.3747393461
 20
167.9551973735
 30
0.0
 11
101.3747393461
 21
168.699651304
 31
0.0
  0
SPLINE
  5
C8
330
1F
100
AcDbEntity
  8
0
  6
Continuous
 62
     7
370
    15
100
AcDbSpline
210
0.0
220
0.0
230
1.0
 70
     8
 71
     3
 72
    24
 73
    20
 74
     0
 42
0.00000001
 43
0.00000001
 12
1.0
 22
0.0
 32
0.0
 13
1.0
 23
0.0
 33
0.0
 40
0.0
 40
0.0
 40
0.0
 40
0.0
 40
0.249999999999989
 40
0.249999999999989
 40
0.3749999999999837
 40
0.3749999999999837
 40
0.4374999999999819
 40
0.4374999999999819
 40
0.4999999999999801
 40
0.4999999999999801
 40
0.5312499999999805
 40
0.5312499999999805
 40
0.5624999999999807
 40
0.5624999999999807
 40
0.624999999999983
 40
0.624999999999983
 40
0.7499999999999887
 40
0.7499999999999887
 40
1.0
 40
1.0
 40
1.0
 40
1.0
 10
101.3747393461258
 20
168.6996513039724
 30
0.0
 10
101.3747393461258
 20
168.9329367368891
 30
0.0
 10
101.3774639745582
 20
169.1671019983278
 30
0.0
 10
101.4038212956761
 20
169.5255413716953
 30
0.0
 10
101.4160350139483
 20
169.6459211713712
 30
0.0
 10
101.4506456640807
 20
169.8270607109043
 30
0.0
 10
101.4650323744481
 20
169.8882405985277
 30
0.0
 10
101.5062808575505
 20
170.005794105823
 30
0.0
 10
101.5348204074813
 20
170.066452222849
 30
0.0
 10
101.5957430729927
 20
170.1220862025251
 30
0.0
 10
101.6188090431325
 20
170.1333084923764
 30
0.0
 10
101.6627049231388
 20
170.1390792981396
 30
0.0
 10
101.6835849586989
 20
170.1345294522488
 30
0.0
 10
101.7407952219921
 20
170.1097603756617
 30
0.0
 10
101.7731418457684
 20
170.0791121805709
 30
0.0
 10
101.8593077892603
 20
169.9769400733232
 30
0.0
 10
101.9049718093003
 20
169.8911128845517
 30
0.0
 10
102.0255193727515
 20
169.623242706217
 30
0.0
 10
102.0845794614526
 20
169.425476667793
 30
0.0
 10
102.1347093925136
 20
169.2196686833909
 30
0.0
  0
SPLINE
  5
C9
330
1F
100
AcDbEntity
  8
0
  6
Continuous
 62
     7
370
    15
100
AcDbSpline
210
0.0
220
0.0
230
1.0
 70
     8
 71
     3
 72
    24
 73
    20
 74
     0
 42
0.00000001
 43
0.00000001
 12
1.0
 22
0.0
 32
0.0
 13
1.0
 23
0.0
 33
0.0
 40
0.0
 40
0.0
 40
0.0
 40
0.0
 40
0.2499999999999986
 40
0.2499999999999986
 40
0.3749999999999973
 40
0.3749999999999973
 40
0.4374999999999958
 40
0.4374999999999958
 40
0.4999999999999943
 40
0.4999999999999943
 40
0.5312499999999947
 40
0.5312499999999947
 40
0.5624999999999951
 40
0.5624999999999951
 40
0.6249999999999971
 40
0.6249999999999971
 40
0.7499999999999987
 40
0.7499999999999987
 40
1.0
 40
1.0
 40
1.0
 40
1.0
 10
101.3747393461258
 20
154.9229443533064
 30
0.0
 10
101.3747393461258
 20
154.6896589203897
 30
0.0
 10
101.3774639745581
 20
154.455493658951
 30
0.0
 10
101.4038212956761
 20
154.0970542855836
 30
0.0
 10
101.4160350139483
 20
153.9766744859077
 30
0.0
 10
101.4506456640807
 20
153.7955349463745
 30
0.0
 10
101.4650323744481
 20
153.7343550587511
 30
0.0
 10
101.5062808575505
 20
153.6168015514559
 30
0.0
 10
101.5348204074813
 20
153.5561434344298
 30
0.0
 10
101.5957430729927
 20
153.5005094547537
 30
0.0
 10
101.6188090431326
 20
153.4892871649024
 30
0.0
 10
101.6627049231388
 20
153.4835163591392
 30
0.0
 10
101.683584958699
 20
153.48806620503
 30
0.0
 10
101.7407952219921
 20
153.5128352816172
 30
0.0
 10
101.7731418457685
 20
153.543483476708
 30
0.0
 10
101.8593077892603
 20
153.6456555839557
 30
0.0
 10
101.9049718093003
 20
153.7314827727272
 30
0.0
 10
102.0255193727515
 20
153.9993529510619
 30
0.0
 10
102.0845794614527
 20
154.1971189894859
 30
0.0
 10
102.1347093925137
 20
154.402926973888
 30
0.0
  0
LINE
  5
CA
330
1F
100
AcDbEntity
  8
0
  6
Continuous
 62
     7
370
    15
100
AcDbLine
 10
101.3747393461
 20
155.6673982838
 30
0.0
 11
101.3747393461
 21
154.9229443533
 31
0.0
  0
LINE
  5
CB
330
1F
100
AcDbEntity
  8
0
  6
Continuous
 62
     7
370
    15
100
AcDbLine
 10
101.3747393461
 20
168.699651304
 30
0.0
 11
101.3747393461
 21
175.2572814198
 31
0.0
  0
LINE
  5
CC
330
1F
100
AcDbEntity
  8
0
  6
Continuous
 62
     7
370
    15
100
AcDbLine
 10
101.3747393461
 20
148.3653142375
 30
0.0
 11
101.3747393461
 21
154.9229443533
 31
0.0
  0
SPLINE
  5
CD
330
1F
100
AcDbEntity
  8
0
  6
Continuous
 62
     7
370
    15
100
AcDbSpline
210
0.0
220
0.0
230
1.0
 70
     8
 71
     3
 72
    11
 73
     7
 74
     0
 42
0.00000001
 43
0.00000001
 12
1.0
 22
0.0
 32
0.0
 13
1.0
 23
0.0
 33
0.0
 40
0.0
 40
0.0
 40
0.0
 40
0.0
 40
0.2871756444774907
 40
0.574381033768103
 40
0.8587936217738644
 40
1.0
 40
1.0
 40
1.0
 40
1.0
 10
104.9747393461258
 20
158.6862978286394
 30
0.0
 10
104.9638724304266
 20
158.5798649370946
 30
0.0
 10
104.9421374734647
 20
158.3669881299975
 30
0.0
 10
104.7709945037566
 20
158.0928393345974
 30
0.0
 10
104.5664957753504
 20
157.9063793495189
 30
0.0
 10
104.4082719107866
 20
157.8605143330253
 30
0.0
 10
104.3557784350804
 20
157.8452978286394
 30
0.0
  0
LINE
  5
CE
330
1F
100
AcDbEntity
  8
0
  6
Continuous
 62
     7
370
    15
100
AcDbLine
 10
104.9747393461
 20
158.6862978286
 30
0.0
 11
104.9747393461
 21
164.9362978286
 31
0.0
  0
SPLINE
  5
CF
330
1F
100
AcDbEntity
  8
0
  6
Continuous
 62
     7
370
    15
100
AcDbSpline
210
0.0
220
0.0
230
1.0
 70
     8
 71
     3
 72
    11
 73
     7
 74
     0
 42
0.00000001
 43
0.00000001
 12
1.0
 22
0.0
 32
0.0
 13
1.0
 23
0.0
 33
0.0
 40
0.0
 40
0.0
 40
0.0
 40
0.0
 40
0.2871756444775422
 40
0.5743810337681189
 40
0.8587936217738897
 40
1.0
 40
1.0
 40
1.0
 40
1.0
 10
104.9747393461259
 20
164.9362978286394
 30
0.0
 10
104.9638724304266
 20
165.0427307201842
 30
0.0
 10
104.9421374734647
 20
165.2556075272813
 30
0.0
 10
104.7709945037566
 20
165.5297563226815
 30
0.0
 10
104.5664957753504
 20
165.7162163077599
 30
0.0
 10
104.4082719107866
 20
165.7620813242536
 30
0.0
 10
104.3557784350804
 20
165.7772978286394
 30
0.0
  0
LINE
  5
D0
330
1F
100
AcDbEntity
  8
0
  6
Continuous
 62
     7
370
    15
100
AcDbLine
 10
190.5816204284
 20
158.3285009705
 30
0.0
 11
190.8548644642
 21
158.2949508215
 31
0.0
  0
LINE
  5
D1
330
1F
100
AcDbEntity
  8
0
  6
Continuous
 62
     7
370
    15
100
AcDbLine
 10
182.2474027395
 20
164.147560999
 30
0.0
 11
191.4349625388
 21
163.0194705033
 31
0.0
  0
LINE
  5
D2
330
1F
100
AcDbEntity
  8
0
  6
Continuous
 62
     7
370
    15
100
AcDbLine
 10
190.8548644642
 20
158.2949508215
 30
0.0
 11
191.3652615589
 21
158.2322819383
 31
0.0
  0
LINE
  5
D3
330
1F
100
AcDbEntity
  8
0
  6
Continuous
 62
     7
370
    15
100
AcDbLine
 10
191.4349625388
 20
163.0194705033
 30
0.0
 11
191.9453596335
 21
162.9568016202
 31
0.0
  0
LINE
  5
D4
330
1F
100
AcDbEntity
  8
0
  6
Continuous
 62
     7
370
    15
100
AcDbLine
 10
191.3652615589
 20
158.2322819383
 30
0.0
 11
200.5528213582
 21
157.1041914426
 31
0.0
  0
LINE
  5
D5
330
1F
100
AcDbEntity
  8
0
  6
Continuous
 62
     7
370
    15
100
AcDbLine
 10
191.9453596335
 20
162.9568016202
 30
0.0
 11
201.1329194328
 21
161.8287111244
 31
0.0
  0
LINE
  5
D6
330
1F
100
AcDbEntity
  8
0
  6
Continuous
 62
     7
370
    15
100
AcDbLine
 10
182.1055828261
 20
164.1649742948
 30
0.0
 11
182.2474027395
 21
164.147560999
 31
0.0
  0
LINE
  5
D7
330
1F
100
AcDbEntity
  8
0
  6
Continuous
 62
     7
370
    15
100
AcDbLine
 10
200.5528213582
 20
157.1041914426
 30
0.0
 11
200.6946412715
 21
157.0867781468
 31
0.0
  0
LINE
  5
D8
330
1F
100
AcDbEntity
  8
0
  6
Continuous
 62
     7
370
    15
100
AcDbLine
 10
201.1329194328
 20
161.8287111244
 30
0.0
 11
201.2747393461
 21
161.8112978286
 31
0.0
  0
LINE
  5
D9
330
1F
100
AcDbEntity
  8
0
  6
Continuous
 62
     7
370
    15
100
AcDbLine
 10
191.3353105629
 20
155.3343311609
 30
0.0
 11
198.7625647873
 21
154.4223790123
 31
0.0
  0
LINE
  5
DA
330
1F
100
AcDbEntity
  8
0
  6
Continuous
 62
     7
370
    15
100
AcDbLine
 10
198.5346050738
 20
154.1481159979
 30
0.0
 11
191.1073508494
 21
155.0600681466
 31
0.0
  0
LINE
  5
DB
330
1F
100
AcDbEntity
  8
0
  6
Continuous
 62
     7
370
    15
100
AcDbLine
 10
190.3436517842
 20
155.4560915486
 30
0.0
 11
191.3353105629
 21
155.3343311609
 31
0.0
  0
LINE
  5
DC
330
1F
100
AcDbEntity
  8
0
  6
Continuous
 62
     7
370
    15
100
AcDbLine
 10
191.1073508494
 20
155.0600681466
 30
0.0
 11
190.6145049188
 21
155.1205820178
 31
0.0
  0
LINE
  5
DD
330
1F
100
AcDbEntity
  8
0
  6
Continuous
 62
     7
370
    15
100
AcDbLine
 10
198.7625647873
 20
154.4223790123
 30
0.0
 11
199.1171145706
 21
154.3788457728
 31
0.0
  0
LINE
  5
DE
330
1F
100
AcDbEntity
  8
0
  6
Continuous
 62
     7
370
    15
100
AcDbLine
 10
198.7827899221
 20
154.1176427303
 30
0.0
 11
198.5346050738
 21
154.1481159979
 31
0.0
  0
LINE
  5
DF
330
1F
100
AcDbEntity
  8
0
  6
Continuous
 62
     7
370
    15
100
AcDbLine
 10
181.2942556226
 20
146.5324198212
 30
0.0
 11
174.6441964066
 21
147.348944422
 31
0.0
  0
LINE
  5
E0
330
1F
100
AcDbEntity
  8
0
  6
Continuous
 62
     7
370
    15
100
AcDbLine
 10
181.7369011085
 20
147.0825756848
 30
0.0
 11
175.5321929122
 21
147.8444180562
 31
0.0
  0
LINE
  5
E1
330
1F
100
AcDbEntity
  8
0
  6
HIDDEN
 62
     7
370
     0
100
AcDbLine
 10
121.2747393461
 20
181.5112978286
 30
0.0
 11
121.2747393461
 21
142.1112978286
 31
0.0
  0
LINE
  5
E2
330
1F
100
AcDbEntity
  8
0
  6
HIDDEN
 62
     7
370
     0
100
AcDbLine
 10
129.2247393461
 20
177.9227068297
 30
0.0
 11
135.2395796472
 21
177.9227068297
 31
0.0
  0
LINE
  5
E3
330
1F
100
AcDbEntity
  8
0
  6
HIDDEN
 62
     7
370
     0
100
AcDbLine
 10
135.2395796472
 20
181.8112978286
 30
0.0
 11
135.2395796472
 21
177.9227068297
 31
0.0
  0
LINE
  5
E4
330
1F
100
AcDbEntity
  8
0
  6
HIDDEN
 62
     7
370
     0
100
AcDbLine
 10
135.2395796472
 20
157.3112978286
 30
0.0
 11
135.2395796472
 21
141.8112978286
 31
0.0
  0
LINE
  5
E5
330
1F
100
AcDbEntity
  8
0
  6
HIDDEN
 62
     7
370
     0
100
AcDbLine
 10
133.7247393461
 20
157.3112978286
 30
0.0
 11
135.2395796472
 21
157.3112978286
 31
0.0
  0
SPLINE
  5
E6
330
1F
100
AcDbEntity
  8
0
  6
HIDDEN
 62
     7
370
     0
100
AcDbSpline
210
0.0
220
0.0
230
1.0
 70
     8
 71
     3
 72
    38
 73
    34
 74
     0
 42
0.00000001
 43
0.00000001
 12
1.0
 22
0.0
 32
0.0
 13
1.0
 23
0.0
 33
0.0
 40
0.0
 40
0.0
 40
0.0
 40
0.0
 40
0.0625000000000001
 40
0.0625000000000001
 40
0.1250000000000001
 40
0.1250000000000001
 40
0.1875000000000002
 40
0.1875000000000002
 40
0.2500000000000002
 40
0.2500000000000002
 40
0.3125000000000003
 40
0.3125000000000003
 40
0.3750000000000003
 40
0.3750000000000003
 40
0.4375000000000003
 40
0.4375000000000003
 40
0.5000000000000003
 40
0.5000000000000003
 40
0.5625000000000003
 40
0.5625000000000003
 40
0.6250000000000003
 40
0.6250000000000003
 40
0.6875000000000002
 40
0.6875000000000002
 40
0.7500000000000002
 40
0.7500000000000002
 40
0.8125000000000001
 40
0.8125000000000001
 40
0.8750000000000001
 40
0.8750000000000001
 40
0.9375
 40
0.9375
 40
1.0
 40
1.0
 40
1.0
 40
1.0
 10
133.7247393461258
 20
166.3112978286394
 30
0.0
 10
133.4264663727721
 20
166.3112978286394
 30
0.0
 10
133.1333746132182
 20
166.2819374060679
 30
0.0
 10
132.5570669114344
 20
166.1670838155605
 30
0.0
 10
132.2708042759581
 20
166.0801317328161
 30
0.0
 10
131.7264208425331
 20
165.8540188489314
 30
0.0
 10
131.4683765092149
 20
165.7157935244577
 30
0.0
 10
130.9800124591873
 20
165.3893886892204
 30
0.0
 10
130.7495479273369
 20
165.2000669148951
 30
0.0
 10
130.3359778225619
 20
164.7864978613785
 30
0.0
 10
130.1500370984
 20
164.5606517714547
 30
0.0
 10
129.820994357104
 20
164.069221282492
 30
0.0
 10
129.6817796896561
 20
163.8088638273417
 30
0.0
 10
129.4569474791089
 20
163.2679190157835
 30
0.0
 10
129.3699653446246
 20
162.9833751738712
 30
0.0
 10
129.2538667870774
 20
162.4021619992438
 30
0.0
 10
129.2249907913804
 20
162.1096003913829
 30
0.0
 10
129.2244911394987
 20
161.5206304007731
 30
0.0
 10
129.2538551965899
 20
161.2213992674289
 30
0.0
 10
129.3689194950163
 20
160.6435569259687
 30
0.0
 10
129.4540781046924
 20
160.3625866928277
 30
0.0
 10
129.6801850157789
 20
159.8165818932295
 30
0.0
 10
129.8205411346464
 20
159.554569593506
 30
0.0
 10
130.1455949278929
 20
159.0680677553135
 30
0.0
 10
130.3325764658486
 20
158.8396981640805
 30
0.0
 10
130.7499276207703
 20
158.4219514651905
 30
0.0
 10
130.9759650736603
 20
158.2363998242203
 30
0.0
 10
131.462169506599
 20
157.9104731127323
 30
0.0
 10
131.725542379733
 20
157.7690512313217
 30
0.0
 10
132.2688321464909
 20
157.543174085118
 30
0.0
 10
132.5492344329232
 20
157.4575333166604
 30
0.0
 10
133.1278540691723
 20
157.3413084334744
 30
0.0
 10
133.4264620968099
 20
157.3112978286394
 30
0.0
 10
133.7247393461258
 20
157.3112978286394
 30
0.0
  0
LINE
  5
E7
330
1F
100
AcDbEntity
  8
0
  6
HIDDEN
 62
     7
370
     0
100
AcDbLine
 10
135.2395796472
 20
166.3112978286
 30
0.0
 11
133.7247393461
 21
166.3112978286
 31
0.0
  0
LINE
  5
E8
330
1F
100
AcDbEntity
  8
0
  6
HIDDEN
 62
     7
370
     0
100
AcDbLine
 10
135.2395796472
 20
173.6612978286
 30
0.0
 11
135.2395796472
 21
166.3112978286
 31
0.0
  0
LINE
  5
E9
330
1F
100
AcDbEntity
  8
0
  6
HIDDEN
 62
     7
370
     0
100
AcDbLine
 10
133.7184098208
 20
173.6612978286
 30
0.0
 11
135.2395796472
 21
173.6612978286
 31
0.0
  0
SPLINE
  5
EA
330
1F
100
AcDbEntity
  8
0
  6
HIDDEN
 62
     7
370
     0
100
AcDbSpline
210
0.0
220
0.0
230
1.0
 70
     8
 71
     3
 72
    22
 73
    18
 74
     0
 42
0.00000001
 43
0.00000001
 12
1.0
 22
0.0
 32
0.0
 13
1.0
 23
0.0
 33
0.0
 40
0.0
 40
0.0
 40
0.0
 40
0.0
 40
0.2499999999999998
 40
0.2499999999999998
 40
0.3749999999999999
 40
0.3749999999999999
 40
0.5000000000000001
 40
0.5000000000000001
 40
0.6250000000000002
 40
0.6250000000000002
 40
0.7500000000000003
 40
0.7500000000000003
 40
0.8750000000000006
 40
0.8750000000000006
 40
0.9375000000000002
 40
0.9375000000000002
 40
1.0
 40
1.0
 40
1.0
 40
1.0
 10
129.2247393461258
 20
177.9227068297169
 30
0.0
 10
129.2467203641124
 20
177.5087119515504
 30
0.0
 10
129.3256972474672
 20
177.0729021502415
 30
0.0
 10
129.5720951404996
 20
176.3961613472571
 30
0.0
 10
129.6766197555905
 20
176.1653062200824
 30
0.0
 10
129.9384663508971
 20
175.7052691649203
 30
0.0
 10
130.0936829730629
 20
175.4793014881418
 30
0.0
 10
130.4622747261268
 20
175.0421098996411
 30
0.0
 10
130.6784084185917
 20
174.8290571753485
 30
0.0
 10
131.1623029135786
 20
174.444881036115
 30
0.0
 10
131.4327684585863
 20
174.2707640273236
 30
0.0
 10
132.0289950240965
 20
173.977246282523
 30
0.0
 10
132.3444882908164
 20
173.8624539779256
 30
0.0
 10
132.845204938835
 20
173.7434994018296
 30
0.0
 10
133.0180013734501
 20
173.712681318843
 30
0.0
 10
133.3663701462322
 20
173.6716621071244
 30
0.0
 10
133.5417711751426
 20
173.6612978286394
 30
0.0
 10
133.7184098208305
 20
173.6612978286394
 30
0.0
  0
LWPOLYLINE
  5
EB
330
1F
100
AcDbEntity
  8
0
  6
HIDDEN
 62
     7
370
     0
100
AcDbPolyline
 90
       32
 70
   128
 43
0.0
 10
133.2596844346
 20
141.8150532253
 10
133.2432958208
 20
141.8191355283
 10
133.1781779204
 20
141.8352193884
 10
133.0547170736
 20
141.8651656954
 10
132.7518618742
 20
141.9355682538
 10
132.6053766086
 20
141.9680516451
 10
132.3867075875
 20
142.0146242995
 10
131.8631615563
 20
142.1167104006
 10
131.5578463767
 20
142.1700455322
 10
130.88190174
 20
142.2716638569
 10
130.5092406292
 20
142.3178887891
 10
130.113949108
 20
142.3592364328
 10
129.3131565749
 20
142.4185592304
 10
128.8934536272
 20
142.4364995752
 10
128.4623605425
 20
142.4454722146
 10
128.0557093181
 20
142.4451424499
 10
127.2409402977
 20
142.4188059704
 10
126.8350537375
 20
142.3929380974
 10
126.3603056995
 20
142.3519798502
 10
125.6340647661
 20
142.2671641247
 10
125.3763921002
 20
142.23068454
 10
125.0510635985
 20
142.1798922415
 10
124.7457265706
 20
142.1274483278
 10
124.461823839
 20
142.0745725515
 10
124.2011090571
 20
142.0225519429
 10
123.7742661538
 20
141.9302953651
 10
123.6034015811
 20
141.8909214137
 10
123.4661596388
 20
141.8582920701
 10
123.383420286
 20
141.8381908558
 10
123.2870096192
 20
141.8143618676
 10
123.2747393461
 20
141.8112978286
 10
123.2747393461
 20
141.8112978286
  0
LINE
  5
EC
330
1F
100
AcDbEntity
  8
0
  6
HIDDEN
 62
     7
370
     0
100
AcDbLine
 10
141.2247393461
 20
181.2112978286
 30
0.0
 11
141.2247393461
 21
177.1715549879
 31
0.0
  0
SPLINE
  5
ED
330
1F
100
AcDbEntity
  8
0
  6
HIDDEN
 62
     7
370
     0
100
AcDbSpline
210
0.0
220
0.0
230
1.0
 70
     8
 71
     3
 72
    12
 73
     8
 74
     0
 42
0.00000001
 43
0.00000001
 12
1.0
 22
0.0
 32
0.0
 13
1.0
 23
0.0
 33
0.0
 40
0.0
 40
0.0
 40
0.0
 40
0.0
 40
0.250000000000002
 40
0.250000000000002
 40
0.500000000000004
 40
0.500000000000004
 40
1.0
 40
1.0
 40
1.0
 40
1.0
 10
140.6247393461258
 20
177.9227068297169
 30
0.0
 10
140.7129262114946
 20
177.9227068297169
 30
0.0
 10
140.8016136047959
 20
177.8974266795524
 30
0.0
 10
140.9558660979148
 20
177.8078153340507
 30
0.0
 10
141.0212120789908
 20
177.7448296971247
 30
0.0
 10
141.1756219489419
 20
177.5285429753672
 30
0.0
 10
141.2247393461259
 20
177.3485632179467
 30
0.0
 10
141.2247393461259
 20
177.1715549879451
 30
0.0
  0
LINE
  5
EE
330
1F
100
AcDbEntity
  8
0
  6
HIDDEN
 62
     7
370
     0
100
AcDbLine
 10
141.2247393461
 20
157.3112978286
 30
0.0
 11
141.2247393461
 21
142.4112978286
 31
0.0
  0
SPLINE
  5
EF
330
1F
100
AcDbEntity
  8
0
  6
HIDDEN
 62
     7
370
     0
100
AcDbSpline
210
0.0
220
0.0
230
1.0
 70
    24
 71
     3
 72
    10
 73
     6
 74
     0
 42
0.00000001
 43
0.00000001
 12
1.0
 22
0.0
 32
0.0
 13
1.0
 23
0.0
 33
0.0
 40
0.0
 40
0.0
 40
0.0
 40
0.0
 40
0.5
 40
0.5
 40
1.0
 40
1.0
 40
1.0
 40
1.0
 10
140.6247393461258
 20
157.3112978286394
 30
0.0
 10
140.7851615707253
 20
157.3112978286394
 30
0.0
 10
140.9416443713925
 20
157.3112978286394
 30
0.0
 10
141.1622979819599
 20
157.3112978286394
 30
0.0
 10
141.2247393461258
 20
157.3112978286394
 30
0.0
 10
141.2247393461258
 20
157.3112978286394
 30
0.0
  0
LINE
  5
F0
330
1F
100
AcDbEntity
  8
0
  6
HIDDEN
 62
     7
370
     0
100
AcDbLine
 10
139.309899045
 20
157.3112978286
 30
0.0
 11
140.6247393461
 21
157.3112978286
 31
0.0
  0
LINE
  5
F1
330
1F
100
AcDbEntity
  8
0
  6
HIDDEN
 62
     7
370
     0
100
AcDbLine
 10
139.309899045
 20
157.3112978286
 30
0.0
 11
139.309899045
 21
141.8112978286
 31
0.0
  0
LINE
  5
F2
330
1F
100
AcDbEntity
  8
0
  6
HIDDEN
 62
     7
370
     0
100
AcDbLine
 10
136.2347393461
 20
180.0876306685
 30
0.0
 11
136.2347393461
 21
175.7253857281
 31
0.0
  0
SPLINE
  5
F3
330
1F
100
AcDbEntity
  8
0
  6
HIDDEN
 62
     7
370
     0
100
AcDbSpline
210
0.0
220
0.0
230
1.0
 70
     8
 71
     3
 72
     8
 73
     4
 74
     0
 42
0.00000001
 43
0.00000001
 12
1.0
 22
0.0
 32
0.0
 13
1.0
 23
0.0
 33
0.0
 40
0.0
 40
0.0
 40
0.0
 40
0.0
 40
1.0
 40
1.0
 40
1.0
 40
1.0
 10
135.2395796472324
 20
177.9227068297169
 30
0.0
 10
135.578612468987
 20
177.1937549761911
 30
0.0
 10
135.9111026905036
 20
176.4616820788393
 30
0.0
 10
136.2347393461258
 20
175.7253857280948
 30
0.0
  0
LINE
  5
F4
330
1F
100
AcDbEntity
  8
0
  6
HIDDEN
 62
     7
370
     0
100
AcDbLine
 10
139.309899045
 20
181.8112978286
 30
0.0
 11
139.309899045
 21
177.9227068297
 31
0.0
  0
LINE
  5
F5
330
1F
100
AcDbEntity
  8
0
  6
HIDDEN
 62
     7
370
     0
100
AcDbLine
 10
139.309899045
 20
177.9227068297
 30
0.0
 11
140.6247393461
 21
177.9227068297
 31
0.0
  0
SPLINE
  5
F6
330
1F
100
AcDbEntity
  8
0
  6
HIDDEN
 62
     7
370
     0
100
AcDbSpline
210
0.0
220
0.0
230
1.0
 70
    24
 71
     3
 72
     8
 73
     4
 74
     0
 42
0.00000001
 43
0.00000001
 12
1.0
 22
0.0
 32
0.0
 13
1.0
 23
0.0
 33
0.0
 40
0.0
 40
0.0
 40
0.0
 40
0.0
 40
1.0
 40
1.0
 40
1.0
 40
1.0
 10
138.3147393461258
 20
157.3112978286394
 30
0.0
 10
138.6457596771455
 20
157.3112978286394
 30
0.0
 10
138.9775409486296
 20
157.3112978286394
 30
0.0
 10
139.3098990450193
 20
157.3112978286394
 30
0.0
  0
LINE
  5
F7
330
1F
100
AcDbEntity
  8
0
  6
HIDDEN
 62
     7
370
     0
100
AcDbLine
 10
138.3147393461
 20
157.3112978286
 30
0.0
 11
138.3147393461
 21
143.5349649888
 31
0.0
  0
LINE
  5
F8
330
1F
100
AcDbEntity
  8
0
  6
HIDDEN
 62
     7
370
     0
100
AcDbLine
 10
138.3147393461
 20
180.0876306685
 30
0.0
 11
138.3147393461
 21
175.7253857281
 31
0.0
  0
SPLINE
  5
F9
330
1F
100
AcDbEntity
  8
0
  6
HIDDEN
 62
     7
370
     0
100
AcDbSpline
210
0.0
220
0.0
230
1.0
 70
     8
 71
     3
 72
     8
 73
     4
 74
     0
 42
0.00000001
 43
0.00000001
 12
1.0
 22
0.0
 32
0.0
 13
1.0
 23
0.0
 33
0.0
 40
0.0
 40
0.0
 40
0.0
 40
0.0
 40
1.0
 40
1.0
 40
1.0
 40
1.0
 10
138.3147393461259
 20
175.7253857280947
 30
0.0
 10
138.6383760017481
 20
176.4616820788393
 30
0.0
 10
138.9708662232647
 20
177.1937549761911
 30
0.0
 10
139.3098990450193
 20
177.9227068297169
 30
0.0
  0
LINE
  5
FA
330
1F
100
AcDbEntity
  8
0
  6
HIDDEN
 62
     7
370
     0
100
AcDbLine
 10
136.2347393461
 20
157.3112978286
 30
0.0
 11
136.2347393461
 21
143.5349649888
 31
0.0
  0
SPLINE
  5
FB
330
1F
100
AcDbEntity
  8
0
  6
HIDDEN
 62
     7
370
     0
100
AcDbSpline
210
0.0
220
0.0
230
1.0
 70
    24
 71
     3
 72
     8
 73
     4
 74
     0
 42
0.00000001
 43
0.00000001
 12
1.0
 22
0.0
 32
0.0
 13
1.0
 23
0.0
 33
0.0
 40
0.0
 40
0.0
 40
0.0
 40
0.0
 40
1.0
 40
1.0
 40
1.0
 40
1.0
 10
135.2395796472324
 20
157.3112978286394
 30
0.0
 10
135.571937743622
 20
157.3112978286394
 30
0.0
 10
135.9037190151062
 20
157.3112978286394
 30
0.0
 10
136.2347393461258
 20
157.3112978286394
 30
0.0
  0
SPLINE
  5
FC
330
1F
100
AcDbEntity
  8
0
  6
HIDDEN
 62
     7
370
     0
100
AcDbSpline
210
0.0
220
0.0
230
1.0
 70
     8
 71
     3
 72
    14
 73
    10
 74
     0
 42
0.00000001
 43
0.00000001
 12
1.0
 22
0.0
 32
0.0
 13
1.0
 23
0.0
 33
0.0
 40
0.0
 40
0.0
 40
0.0
 40
0.0
 40
0.25
 40
0.25
 40
0.5
 40
0.5
 40
0.75
 40
0.75
 40
1.0
 40
1.0
 40
1.0
 40
1.0
 10
136.2347393461258
 20
175.3271450088942
 30
0.0
 10
136.2347393461258
 20
175.2340378814292
 30
0.0
 10
136.2466163573868
 20
175.1426864876594
 30
0.0
 10
136.2951448471667
 20
174.9636460159994
 30
0.0
 10
136.3315633033909
 20
174.877578053122
 30
0.0
 10
136.4316906379196
 20
174.7214286980824
 30
0.0
 10
136.4948674493556
 20
174.6520857667243
 30
0.0
 10
136.6504379520415
 20
174.5491002796719
 30
0.0
 10
136.7423142997962
 20
174.5183086887904
 30
0.0
 10
136.834739346127
 20
174.5183086887907
 30
0.0
  0
LINE
  5
FD
330
1F
100
AcDbEntity
  8
0
  6
HIDDEN
 62
     7
370
     0
100
AcDbLine
 10
136.2347393461
 20
167.3112978286
 30
0.0
 11
136.2347393461
 21
179.7817285173
 31
0.0
  0
SPLINE
  5
FE
330
1F
100
AcDbEntity
  8
0
  6
HIDDEN
 62
     7
370
     0
100
AcDbSpline
210
0.0
220
0.0
230
1.0
 70
    24
 71
     3
 72
    10
 73
     6
 74
     0
 42
0.00000001
 43
0.00000001
 12
1.0
 22
0.0
 32
0.0
 13
1.0
 23
0.0
 33
0.0
 40
0.0
 40
0.0
 40
0.0
 40
0.0
 40
0.5
 40
0.5
 40
1.0
 40
1.0
 40
1.0
 40
1.0
 10
136.2699617467072
 20
167.3112978286394
 30
0.0
 10
136.258249629744
 20
167.3112978286394
 30
0.0
 10
136.249451559872
 20
167.3112978286394
 30
0.0
 10
136.2376380020999
 20
167.3112978286394
 30
0.0
 10
136.2347393461258
 20
167.3112978286394
 30
0.0
 10
136.2347393461258
 20
167.3112978286394
 30
0.0
  0
SPLINE
  5
FF
330
1F
100
AcDbEntity
  8
0
  6
HIDDEN
 62
     7
370
     0
100
AcDbSpline
210
0.0
220
0.0
230
1.0
 70
    24
 71
     3
 72
    10
 73
     6
 74
     0
 42
0.00000001
 43
0.00000001
 12
1.0
 22
0.0
 32
0.0
 13
1.0
 23
0.0
 33
0.0
 40
0.0
 40
0.0
 40
0.0
 40
0.0
 40
0.5
 40
0.5
 40
1.0
 40
1.0
 40
1.0
 40
1.0
 10
138.0663949603758
 20
157.3112978286394
 30
0.0
 10
138.1438229649244
 20
157.3112978286394
 30
0.0
 10
138.207002581811
 20
157.3112978286394
 30
0.0
 10
138.2922977610721
 20
157.3112978286394
 30
0.0
 10
138.3147393461258
 20
157.3112978286394
 30
0.0
 10
138.3147393461258
 20
157.3112978286394
 30
0.0
  0
SPLINE
  5
100
330
1F
100
AcDbEntity
  8
0
  6
HIDDEN
 62
     7
370
     0
100
AcDbSpline
210
0.0
220
0.0
230
1.0
 70
     8
 71
     3
 72
    12
 73
     8
 74
     0
 42
0.00000001
 43
0.00000001
 12
1.0
 22
0.0
 32
0.0
 13
1.0
 23
0.0
 33
0.0
 40
0.0
 40
0.0
 40
0.0
 40
0.0
 40
0.2500000000000009
 40
0.2500000000000009
 40
0.5000000000000018
 40
0.5000000000000018
 40
1.0
 40
1.0
 40
1.0
 40
1.0
 10
137.7147393461258
 20
157.7763721787668
 30
0.0
 10
137.7664562640353
 20
157.7763721787668
 30
0.0
 10
137.813544052174
 20
157.7461665165476
 30
0.0
 10
137.8866080468491
 20
157.6744319932954
 30
0.0
 10
137.9162369541349
 20
157.6315939702735
 30
0.0
 10
137.99481029866
 20
157.498686088338
 30
0.0
 10
138.0327741668924
 20
157.4058142484147
 30
0.0
 10
138.0663949603759
 20
157.3112978286394
 30
0.0
  0
LINE
  5
101
330
1F
100
AcDbEntity
  8
0
  6
HIDDEN
 62
     7
370
     0
100
AcDbLine
 10
138.3147393461
 20
157.3112978286
 30
0.0
 11
138.3147393461
 21
143.8438372443
 31
0.0
  0
SPLINE
  5
102
330
1F
100
AcDbEntity
  8
0
  6
HIDDEN
 62
     7
370
     0
100
AcDbSpline
210
0.0
220
0.0
230
1.0
 70
    24
 71
     3
 72
    10
 73
     6
 74
     0
 42
0.00000001
 43
0.00000001
 12
1.0
 22
0.0
 32
0.0
 13
1.0
 23
0.0
 33
0.0
 40
0.0
 40
0.0
 40
0.0
 40
0.0
 40
0.5
 40
0.5
 40
1.0
 40
1.0
 40
1.0
 40
1.0
 10
138.2795169455444
 20
156.3112978286394
 30
0.0
 10
138.2912290625075
 20
156.3112978286394
 30
0.0
 10
138.3000271323796
 20
156.3112978286394
 30
0.0
 10
138.3118406901517
 20
156.3112978286394
 30
0.0
 10
138.3147393461258
 20
156.3112978286394
 30
0.0
 10
138.3147393461258
 20
156.3112978286394
 30
0.0
  0
SPLINE
  5
103
330
1F
100
AcDbEntity
  8
0
  6
HIDDEN
 62
     7
370
     0
100
AcDbSpline
210
0.0
220
0.0
230
1.0
 70
     8
 71
     3
 72
    12
 73
     8
 74
     0
 42
0.00000001
 43
0.00000001
 12
1.0
 22
0.0
 32
0.0
 13
1.0
 23
0.0
 33
0.0
 40
0.0
 40
0.0
 40
0.0
 40
0.0
 40
0.5000000000000018
 40
0.5000000000000018
 40
0.7500000000000009
 40
0.7500000000000009
 40
1.0
 40
1.0
 40
1.0
 40
1.0
 10
136.4830837318758
 20
157.3112978286394
 30
0.0
 10
136.5167799755348
 20
157.4060263576399
 30
0.0
 10
136.5548168503029
 20
157.4989959876176
 30
0.0
 10
136.6333771717072
 20
157.6317935488492
 30
0.0
 10
136.6630056771327
 20
157.6745848217572
 30
0.0
 10
136.7359494198784
 20
157.746160732008
 30
0.0
 10
136.7831019001351
 20
157.7763721787668
 30
0.0
 10
136.8347393461258
 20
157.7763721787668
 30
0.0
  0
SPLINE
  5
104
330
1F
100
AcDbEntity
  8
0
  6
HIDDEN
 62
     7
370
     0
100
AcDbSpline
210
0.0
220
0.0
230
1.0
 70
    24
 71
     3
 72
    10
 73
     6
 74
     0
 42
0.00000001
 43
0.00000001
 12
1.0
 22
0.0
 32
0.0
 13
1.0
 23
0.0
 33
0.0
 40
0.0
 40
0.0
 40
0.0
 40
0.0
 40
0.5
 40
0.5
 40
1.0
 40
1.0
 40
1.0
 40
1.0
 10
136.2347393461258
 20
157.3112978286394
 30
0.0
 10
136.2347393461258
 20
157.3112978286394
 30
0.0
 10
136.2571889819713
 20
157.3112978286394
 30
0.0
 10
136.3421846402393
 20
157.3112978286394
 30
0.0
 10
136.4050407241698
 20
157.3112978286394
 30
0.0
 10
136.4830837318758
 20
157.3112978286394
 30
0.0
  0
LINE
  5
105
330
1F
100
AcDbEntity
  8
0
  6
HIDDEN
 62
     7
370
     0
100
AcDbLine
 10
136.2347393461
 20
157.3112978286
 30
0.0
 11
136.2347393461
 21
143.8438372443
 31
0.0
  0
SPLINE
  5
106
330
1F
100
AcDbEntity
  8
0
  6
HIDDEN
 62
     7
370
     0
100
AcDbSpline
210
0.0
220
0.0
230
1.0
 70
    24
 71
     3
 72
    10
 73
     6
 74
     0
 42
0.00000001
 43
0.00000001
 12
1.0
 22
0.0
 32
0.0
 13
1.0
 23
0.0
 33
0.0
 40
0.0
 40
0.0
 40
0.0
 40
0.0
 40
0.5
 40
0.5
 40
1.0
 40
1.0
 40
1.0
 40
1.0
 10
136.2347393461258
 20
156.3112978286394
 30
0.0
 10
136.2347393461258
 20
156.3112978286394
 30
0.0
 10
136.2377090754232
 20
156.3112978286394
 30
0.0
 10
136.2495880577711
 20
156.3112978286394
 30
0.0
 10
136.2583832856118
 20
156.3112978286394
 30
0.0
 10
136.2699617467071
 20
156.3112978286394
 30
0.0
  0
SPLINE
  5
107
330
1F
100
AcDbEntity
  8
0
  6
HIDDEN
 62
     7
370
     0
100
AcDbSpline
210
0.0
220
0.0
230
1.0
 70
     8
 71
     3
 72
    12
 73
     8
 74
     0
 42
0.00000001
 43
0.00000001
 12
1.0
 22
0.0
 32
0.0
 13
1.0
 23
0.0
 33
0.0
 40
0.0
 40
0.0
 40
0.0
 40
0.0
 40
0.2499999999999987
 40
0.2499999999999987
 40
0.4999999999999974
 40
0.4999999999999974
 40
1.0
 40
1.0
 40
1.0
 40
1.0
 10
137.7147393461258
 20
174.5183086887906
 30
0.0
 10
137.8070423453144
 20
174.5183086887906
 30
0.0
 10
137.8997860412734
 20
174.549477201094
 30
0.0
 10
138.054835771567
 20
174.6523515895254
 30
0.0
 10
138.1182857431695
 20
174.7221310433375
 30
0.0
 10
138.2675458342296
 20
174.9551251440556
 30
0.0
 10
138.3147393461258
 20
175.1425748746243
 30
0.0
 10
138.3147393461258
 20
175.3271450088941
 30
0.0
  0
LINE
  5
108
330
1F
100
AcDbEntity
  8
0
  6
HIDDEN
 62
     7
370
     0
100
AcDbLine
 10
138.3147393461
 20
167.3112978286
 30
0.0
 11
138.3147393461
 21
179.7817285173
 31
0.0
  0
SPLINE
  5
109
330
1F
100
AcDbEntity
  8
0
  6
HIDDEN
 62
     7
370
     0
100
AcDbSpline
210
0.0
220
0.0
230
1.0
 70
    24
 71
     3
 72
    10
 73
     6
 74
     0
 42
0.00000001
 43
0.00000001
 12
1.0
 22
0.0
 32
0.0
 13
1.0
 23
0.0
 33
0.0
 40
0.0
 40
0.0
 40
0.0
 40
0.0
 40
0.5
 40
0.5
 40
1.0
 40
1.0
 40
1.0
 40
1.0
 10
138.3147393461258
 20
167.3112978286394
 30
0.0
 10
138.3147393461258
 20
167.3112978286394
 30
0.0
 10
138.3117696168284
 20
167.3112978286394
 30
0.0
 10
138.2998906344805
 20
167.3112978286394
 30
0.0
 10
138.2910954066399
 20
167.3112978286394
 30
0.0
 10
138.2795169455447
 20
167.3112978286394
 30
0.0
  0
LINE
  5
10A
330
1F
100
AcDbEntity
  8
0
  6
HIDDEN
 62
     7
370
     0
100
AcDbLine
 10
133.7247393461
 20
156.3112978286
 30
0.0
 11
136.2699617467
 21
156.3112978286
 31
0.0
  0
LINE
  5
10B
330
1F
100
AcDbEntity
  8
0
  6
HIDDEN
 62
     7
370
     0
100
AcDbLine
 10
136.2699617467
 20
167.3112978286
 30
0.0
 11
133.7247393461
 21
167.3112978286
 31
0.0
  0
LINE
  5
10C
330
1F
100
AcDbEntity
  8
0
  6
HIDDEN
 62
     7
370
     0
100
AcDbLine
 10
138.2795169455
 20
156.3112978286
 30
0.0
 11
141.2247393461
 21
156.3112978286
 31
0.0
  0
LINE
  5
10D
330
1F
100
AcDbEntity
  8
0
  6
HIDDEN
 62
     7
370
     0
100
AcDbLine
 10
141.2247393461
 20
167.3112978286
 30
0.0
 11
138.2795169455
 21
167.3112978286
 31
0.0
  0
ARC
  5
10E
330
1F
100
AcDbEntity
  8
0
  6
HIDDEN
 62
     7
370
     0
100
AcDbCircle
 10
133.7247393461
 20
162.8112978286
 30
0.0
 40
4.500000000000057
100
AcDbArc
 50
90.0
 51
180.0
  0
ARC
  5
10F
330
1F
100
AcDbEntity
  8
0
  6
HIDDEN
 62
     7
370
     0
100
AcDbCircle
 10
133.7247393461
 20
160.8112978286
 30
0.0
 40
4.500000000000028
100
AcDbArc
 50
180.0
 51
270.0
  0
LINE
  5
110
330
1F
100
AcDbEntity
  8
0
  6
HIDDEN
 62
     7
370
     0
100
AcDbLine
 10
129.2247393461
 20
162.8112978286
 30
0.0
 11
129.2247393461
 21
160.8112978286
 31
0.0
  0
SPLINE
  5
111
330
1F
100
AcDbEntity
  8
0
  6
HIDDEN
 62
     7
370
     0
100
AcDbSpline
210
0.0
220
0.0
230
1.0
 70
    24
 71
     3
 72
     9
 73
     5
 74
     0
 42
0.00000001
 43
0.00000001
 12
1.0
 22
0.0
 32
0.0
 13
1.0
 23
0.0
 33
0.0
 40
0.0
 40
0.0
 40
0.0
 40
0.0
 40
0.5
 40
1.0
 40
1.0
 40
1.0
 40
1.0
 10
141.2248014692491
 20
166.3112978286394
 30
0.0
 10
141.2247807565458
 20
166.3112978286394
 30
0.0
 10
141.2247496952274
 20
166.3112978286394
 30
0.0
 10
141.2247393461259
 20
166.3112978286394
 30
0.0
 10
141.2247393461259
 20
166.3112978286394
 30
0.0
  0
SPLINE
  5
112
330
1F
100
AcDbEntity
  8
0
  6
HIDDEN
 62
     7
370
     0
100
AcDbSpline
210
0.0
220
0.0
230
1.0
 70
     8
 71
     3
 72
    18
 73
    14
 74
     0
 42
0.00000001
 43
0.00000001
 12
1.0
 22
0.0
 32
0.0
 13
1.0
 23
0.0
 33
0.0
 40
0.0
 40
0.0
 40
0.0
 40
0.0
 40
0.2499999999999999
 40
0.2499999999999999
 40
0.4999999999999999
 40
0.4999999999999999
 40
0.5624999999999999
 40
0.5624999999999999
 40
0.6249999999999999
 40
0.6249999999999999
 40
0.7499999999999999
 40
0.7499999999999999
 40
1.0
 40
1.0
 40
1.0
 40
1.0
 10
141.2248014692491
 20
157.3112978286394
 30
0.0
 10
141.2269446748388
 20
158.058521784941
 30
0.0
 10
141.2816667247737
 20
158.8044901823243
 30
0.0
 10
141.3812126609986
 20
160.2966633407423
 30
0.0
 10
141.424027017608
 20
161.0429560191391
 30
0.0
 10
141.4249049820516
 20
161.9769040713996
 30
0.0
 10
141.4226880511795
 20
162.1672318596675
 30
0.0
 10
141.4137869980484
 20
162.544305674748
 30
0.0
 10
141.4071119342294
 20
162.732757901218
 30
0.0
 10
141.3818438301442
 20
163.2979149995903
 30
0.0
 10
141.3579267081185
 20
163.6744179419791
 30
0.0
 10
141.2826943260806
 20
164.8037885576449
 30
0.0
 10
141.2269664519202
 20
165.5564813404193
 30
0.0
 10
141.2248014692492
 20
166.3112978286394
 30
0.0
  0
SPLINE
  5
113
330
1F
100
AcDbEntity
  8
0
  6
HIDDEN
 62
     7
370
     0
100
AcDbSpline
210
0.0
220
0.0
230
1.0
 70
    24
 71
     3
 72
     9
 73
     5
 74
     0
 42
0.00000001
 43
0.00000001
 12
1.0
 22
0.0
 32
0.0
 13
1.0
 23
0.0
 33
0.0
 40
0.0
 40
0.0
 40
0.0
 40
0.0
 40
0.5
 40
1.0
 40
1.0
 40
1.0
 40
1.0
 10
141.2247393461258
 20
157.3112978286394
 30
0.0
 10
141.2247393461258
 20
157.3112978286394
 30
0.0
 10
141.2247497076234
 20
157.3112978286394
 30
0.0
 10
141.2247807689393
 20
157.3112978286394
 30
0.0
 10
141.2248014692491
 20
157.3112978286394
 30
0.0
  0
SPLINE
  5
114
330
1F
100
AcDbEntity
  8
0
  6
HIDDEN
 62
     7
370
     0
100
AcDbSpline
210
0.0
220
0.0
230
1.0
 70
     8
 71
     3
 72
    12
 73
     8
 74
     0
 42
0.00000001
 43
0.00000001
 12
1.0
 22
0.0
 32
0.0
 13
1.0
 23
0.0
 33
0.0
 40
0.0
 40
0.0
 40
0.0
 40
0.0
 40
0.5
 40
0.5
 40
0.75
 40
0.75
 40
1.0
 40
1.0
 40
1.0
 40
1.0
 10
141.2247393461259
 20
174.68870051707
 30
0.0
 10
141.2247393461258
 20
174.5061738135223
 30
0.0
 10
141.2519600942535
 20
174.3215831581872
 30
0.0
 10
141.3324065400264
 20
174.0613018360127
 30
0.0
 10
141.3658537685045
 20
173.9767473832016
 30
0.0
 10
141.4482633382787
 20
173.8127994334573
 30
0.0
 10
141.4975464351623
 20
173.7333492094159
 30
0.0
 10
141.5538630577989
 20
173.6612978286376
 30
0.0
  0
SPLINE
  5
115
330
1F
100
AcDbEntity
  8
0
  6
HIDDEN
 62
     7
370
     0
100
AcDbSpline
210
0.0
220
0.0
230
1.0
 70
    24
 71
     3
 72
    10
 73
     6
 74
     0
 42
0.00000001
 43
0.00000001
 12
1.0
 22
0.0
 32
0.0
 13
1.0
 23
0.0
 33
0.0
 40
0.0
 40
0.0
 40
0.0
 40
0.0
 40
0.5
 40
0.5
 40
1.0
 40
1.0
 40
1.0
 40
1.0
 10
141.2247393461258
 20
173.6612978286394
 30
0.0
 10
141.2247393461258
 20
173.6612978286394
 30
0.0
 10
141.2517126798339
 20
173.6612978286394
 30
0.0
 10
141.3593030476197
 20
173.6612978286394
 30
0.0
 10
141.4407675919628
 20
173.6612978286394
 30
0.0
 10
141.5538630577986
 20
173.6612978286394
 30
0.0
  0
LINE
  5
116
330
1F
100
AcDbEntity
  8
0
  6
HIDDEN
 62
     7
370
     0
100
AcDbLine
 10
141.2247393461
 20
173.6612978286
 30
0.0
 11
141.2247393461
 21
166.3112978286
 31
0.0
  0
LINE
  5
117
330
1F
100
AcDbEntity
  8
0
  6
HIDDEN
 62
     7
370
     0
100
AcDbLine
 10
141.2247393461
 20
166.3544245053
 30
0.0
 11
141.2247393461
 21
179.3110672379
 31
0.0
  0
LINE
  5
118
330
1F
100
AcDbEntity
  8
0
  6
HIDDEN
 62
     7
370
     0
100
AcDbLine
 10
141.2247393461
 20
157.3112978286
 30
0.0
 11
141.2247393461
 21
144.311312064
 31
0.0
  0
LINE
  5
119
330
1F
100
AcDbEntity
  8
0
  6
HIDDEN
 62
     7
370
     0
100
AcDbLine
 10
136.8347393461
 20
174.5183086888
 30
0.0
 11
137.7147393461
 21
174.5183086888
 31
0.0
  0
LINE
  5
11A
330
1F
100
AcDbEntity
  8
0
  6
HIDDEN
 62
     7
370
     0
100
AcDbLine
 10
136.8347393461
 20
157.7763721788
 30
0.0
 11
137.7147393461
 21
157.7763721788
 31
0.0
  0
LINE
  5
11B
330
1F
100
AcDbEntity
  8
0
  6
HIDDEN
 62
     7
370
     0
100
AcDbLine
 10
181.8856208443
 20
163.8897292825
 30
0.0
 11
171.283181844
 21
165.1915450997
 31
0.0
  0
SPLINE
  5
11C
330
1F
100
AcDbEntity
  8
0
  6
HIDDEN
 62
     7
370
     0
100
AcDbSpline
210
0.0
220
0.0
230
1.0
 70
     8
 71
     3
 72
    20
 73
    16
 74
     0
 42
0.00000001
 43
0.00000001
 12
1.0
 22
0.0
 32
0.0
 13
1.0
 23
0.0
 33
0.0
 40
0.0
 40
0.0
 40
0.0
 40
0.0
 40
0.2500000000000005
 40
0.2500000000000005
 40
0.3750000000000005
 40
0.3750000000000005
 40
0.5000000000000003
 40
0.5000000000000003
 40
0.6250000000000002
 40
0.6250000000000002
 40
0.75
 40
0.75
 40
0.8749999999999999
 40
0.8749999999999999
 40
1.0
 40
1.0
 40
1.0
 40
1.0
 10
171.2831818440496
 20
165.1915450996885
 30
0.0
 10
170.9805013755362
 20
165.2287095881087
 30
0.0
 10
170.6914592131949
 20
165.3100001660815
 30
0.0
 10
170.2780158113616
 20
165.4963888787272
 30
0.0
 10
170.1449283613953
 20
165.5690527580691
 30
0.0
 10
169.8942580418196
 20
165.7311725501336
 30
0.0
 10
169.7756664458275
 20
165.8210681926112
 30
0.0
 10
169.5520393310341
 20
166.0183989789543
 30
0.0
 10
169.4469231393645
 20
166.1262596012923
 30
0.0
 10
169.2571432992391
 20
166.3521029131775
 30
0.0
 10
169.1714762268744
 20
166.4708731997811
 30
0.0
 10
169.0181892147509
 20
166.7196039124268
 30
0.0
 10
168.9502766215503
 20
166.8504248297127
 30
0.0
 10
168.8354955522522
 20
167.1172931576095
 30
0.0
 10
168.7882807530011
 20
167.2536390152144
 30
0.0
 10
168.7510123953978
 20
167.3927264193048
 30
0.0
  0
LINE
  5
11D
330
1F
100
AcDbEntity
  8
0
  6
HIDDEN
 62
     7
370
     0
100
AcDbLine
 10
168.7510123954
 20
167.3927264193
 30
0.0
 11
165.8253900038
 21
178.3112978286
 31
0.0
  0
LINE
  5
11E
330
1F
100
AcDbEntity
  8
0
  6
HIDDEN
 62
     7
370
     0
100
AcDbLine
 10
195.5637622056
 20
145.3159009235
 30
0.0
 11
195.5622830462
 21
145.3112978286
 31
0.0
  0
ELLIPSE
  5
11F
330
1F
100
AcDbEntity
  8
0
  6
HIDDEN
 62
     7
370
     0
100
AcDbEllipse
 10
201.3435719395
 20
161.8112978286
 30
0.0
 11
20.08605421908249
 21
8.579729419517749
 31
0.0
210
0.0
220
0.0
230
1.0
 40
0.7016762904
 41
2.468459834889064
 42
4.141935694946675
  0
SPLINE
  5
120
330
1F
100
AcDbEntity
  8
0
  6
HIDDEN
 62
     7
370
     0
100
AcDbSpline
210
0.0
220
0.0
230
1.0
 70
     8
 71
     3
 72
    37
 73
    33
 74
     0
 42
0.00000001
 43
0.00000001
 12
1.0
 22
0.0
 32
0.0
 13
1.0
 23
0.0
 33
0.0
 40
0.0
 40
0.0
 40
0.0
 40
0.0
 40
0.0527240004127128
 40
0.0794160303694569
 40
0.1065481059945666
 40
0.159276124999072
 40
0.1859459946072678
 40
0.2130584023984203
 40
0.2660988461678072
 40
0.2930169891102245
 40
0.3203237215170698
 40
0.3602653784816233
 40
0.4041931666050437
 40
0.4281427641150792
 40
0.4810855048059317
 40
0.5078728552982418
 40
0.535119849394491
 40
0.5876258104764608
 40
0.614185227071466
 40
0.6411880390980234
 40
0.6939132866065751
 40
0.720579643623964
 40
0.747685829099859
 40
0.7742145216598679
 40
0.800928008357446
 40
0.8279283210168857
 40
0.8553222876018853
 40
0.8818591972392632
 40
0.908584302736741
 40
0.9356025167792081
 40
0.9630233522684559
 40
1.0
 40
1.0
 40
1.0
 40
1.0
 10
158.7747393461258
 20
145.3112978286393
 30
0.0
 10
158.7810878116228
 20
145.312266886226
 30
0.0
 10
158.790650248554
 20
145.3137265384932
 30
0.0
 10
158.8500462150438
 20
145.3225686180859
 30
0.0
 10
158.9301017063389
 20
145.3342201448529
 30
0.0
 10
159.0440303363409
 20
145.3501869524674
 30
0.0
 10
159.187950156016
 20
145.3689666215701
 30
0.0
 10
159.3518911155579
 20
145.3892162340533
 30
0.0
 10
159.5441681796281
 20
145.4108114397267
 30
0.0
 10
159.7600641568211
 20
145.4318968523243
 30
0.0
 10
159.9623609347232
 20
145.4495802322849
 30
0.0
 10
160.2178292948572
 20
145.4684888042099
 30
0.0
 10
160.4817708729954
 20
145.4832096542281
 30
0.0
 10
160.7873310960352
 20
145.495435097672
 30
0.0
 10
161.0576930999716
 20
145.501392301749
 30
0.0
 10
161.338208855621
 20
145.502127823439
 30
0.0
 10
161.6169899515497
 20
145.4992353652607
 30
0.0
 10
161.8917321942515
 20
145.4910679008321
 30
0.0
 10
162.1557180097551
 20
145.478408885356
 30
0.0
 10
162.4119135108879
 20
145.4630477490844
 30
0.0
 10
162.6536353883355
 20
145.4442794116553
 30
0.0
 10
162.875105181081
 20
145.4237264702455
 30
0.0
 10
163.0308290128434
 20
145.4077477810598
 30
0.0
 10
163.1742162650845
 20
145.3917384208899
 30
0.0
 10
163.3041518201488
 20
145.3761671521582
 30
0.0
 10
163.4210326485235
 20
145.3612941711332
 30
0.0
 10
163.5222319995722
 20
145.3477498256674
 30
0.0
 10
163.6070080126939
 20
145.335934700696
 30
0.0
 10
163.6752810883671
 20
145.3261083293893
 30
0.0
 10
163.7262037176404
 20
145.3186015486674
 30
0.0
 10
163.7673412912524
 20
145.3124240728823
 30
0.0
 10
163.7674536353163
 20
145.3124019291818
 30
0.0
 10
163.7675181426024
 20
145.3123892144021
 30
0.0
  0
LINE
  5
121
330
1F
100
AcDbEntity
  8
0
  6
HIDDEN
 62
     7
370
     0
100
AcDbLine
 10
198.4069448305
 20
154.1637907049
 30
0.0
 11
190.6145049188
 21
155.1205820178
 31
0.0
  0
LINE
  5
122
330
1F
100
AcDbEntity
  8
0
  6
HIDDEN
 62
     7
370
     0
100
AcDbLine
 10
121.2747393461
 20
145.6187003791
 30
0.0
 11
121.2747393461
 21
178.0038952782
 31
0.0
  0
ELLIPSE
  5
123
330
1F
100
AcDbEntity
  8
0
  6
HIDDEN
 62
     7
370
     0
100
AcDbEllipse
 10
88.7686187076
 20
162.0439150093
 30
0.0
 11
11.13367439321788
 21
11.09765775028154
 31
0.0
210
0.0
220
0.0
230
1.0
 40
0.6999052427
 41
5.806205102868863
 42
5.849848223713466
  0
SPLINE
  5
124
330
1F
100
AcDbEntity
  8
0
  6
HIDDEN
 62
     7
370
     0
100
AcDbSpline
210
0.0
220
0.0
230
1.0
 70
     8
 71
     3
 72
     8
 73
     4
 74
     0
 42
0.00000001
 43
0.00000001
 12
1.0
 22
0.0
 32
0.0
 13
1.0
 23
0.0
 33
0.0
 40
0.0
 40
0.0
 40
0.0
 40
0.0
 40
1.0
 40
1.0
 40
1.0
 40
1.0
 10
102.3247393461258
 20
167.948696672733
 30
0.0
 10
102.2789744384364
 20
168.0723341041394
 30
0.0
 10
102.2445873168064
 20
168.1976363548995
 30
0.0
 10
102.2255720631335
 20
168.3253784897495
 30
0.0
  0
SPLINE
  5
125
330
1F
100
AcDbEntity
  8
0
  6
HIDDEN
 62
     7
370
     0
100
AcDbSpline
210
0.0
220
0.0
230
1.0
 70
     8
 71
     3
 72
    12
 73
     8
 74
     0
 42
0.00000001
 43
0.00000001
 12
1.0
 22
0.0
 32
0.0
 13
1.0
 23
0.0
 33
0.0
 40
0.0
 40
0.0
 40
0.0
 40
0.0
 40
0.2499999999999999
 40
0.2499999999999999
 40
0.4999999999999998
 40
0.4999999999999998
 40
1.0
 40
1.0
 40
1.0
 40
1.0
 10
104.0747393461259
 20
168.3189363877788
 30
0.0
 10
103.9326969429367
 20
168.2721714419956
 30
0.0
 10
103.7885788364325
 20
168.2341169921667
 30
0.0
 10
103.49882432276
 20
168.1643814417728
 30
0.0
 10
103.3530824194012
 20
168.1331429700925
 30
0.0
 10
102.9144021802214
 20
168.0455349023836
 30
0.0
 10
102.6200265641502
 20
167.9952002850181
 30
0.0
 10
102.3247393461258
 20
167.9486966727329
 30
0.0
  0
SPLINE
  5
126
330
1F
100
AcDbEntity
  8
0
  6
HIDDEN
 62
     7
370
     0
100
AcDbSpline
210
0.0
220
0.0
230
1.0
 70
     8
 71
     3
 72
    20
 73
    16
 74
     0
 42
0.00000001
 43
0.00000001
 12
1.0
 22
0.0
 32
0.0
 13
1.0
 23
0.0
 33
0.0
 40
0.0
 40
0.0
 40
0.0
 40
0.0
 40
0.2500000000000014
 40
0.2500000000000014
 40
0.5000000000000029
 40
0.5000000000000029
 40
0.7500000000000043
 40
0.7500000000000043
 40
0.8750000000000041
 40
0.8750000000000041
 40
0.9375000000000021
 40
0.9375000000000021
 40
0.968750000000001
 40
0.968750000000001
 40
1.0
 40
1.0
 40
1.0
 40
1.0
 10
104.9747393461268
 20
166.6265866895397
 30
0.0
 10
104.9747393461268
 20
166.7972334403658
 30
0.0
 10
104.9493443265498
 20
166.9681981026434
 30
0.0
 10
104.8630511407679
 20
167.2932769586399
 30
0.0
 10
104.8024151620847
 20
167.4489848740453
 30
0.0
 10
104.6543133678634
 20
167.749728829683
 30
0.0
 10
104.5675437610847
 20
167.8946941463819
 30
0.0
 10
104.4189059657556
 20
168.0984782765336
 30
0.0
 10
104.3666167488694
 20
168.1649008927535
 30
0.0
 10
104.2758529205595
 20
168.2542480244481
 30
0.0
 10
104.2434869281075
 20
168.2828759857854
 30
0.0
 10
104.1857977724413
 20
168.3141570655658
 30
0.0
 10
104.1648107445538
 20
168.3224226478511
 30
0.0
 10
104.1195217655633
 20
168.3286828662177
 30
0.0
 10
104.0965074967247
 20
168.3261031658683
 30
0.0
 10
104.0747393461251
 20
168.3189363877813
 30
0.0
  0
LINE
  5
127
330
1F
100
AcDbEntity
  8
0
  6
HIDDEN
 62
     7
370
     0
100
AcDbLine
 10
104.9747393461
 20
166.6265866895
 30
0.0
 11
104.9747393461
 21
156.9960089677
 31
0.0
  0
SPLINE
  5
128
330
1F
100
AcDbEntity
  8
0
  6
HIDDEN
 62
     7
370
     0
100
AcDbSpline
210
0.0
220
0.0
230
1.0
 70
     8
 71
     3
 72
    20
 73
    16
 74
     0
 42
0.00000001
 43
0.00000001
 12
1.0
 22
0.0
 32
0.0
 13
1.0
 23
0.0
 33
0.0
 40
0.0
 40
0.0
 40
0.0
 40
0.0
 40
0.2499999999999999
 40
0.2499999999999999
 40
0.4999999999999999
 40
0.4999999999999999
 40
0.7499999999999998
 40
0.7499999999999998
 40
0.8750000000000002
 40
0.8750000000000002
 40
0.9375000000000004
 40
0.9375000000000004
 40
0.9687500000000002
 40
0.9687500000000002
 40
1.0
 40
1.0
 40
1.0
 40
1.0
 10
104.9747393461268
 20
156.9960089677392
 30
0.0
 10
104.9747393461268
 20
156.8253622169131
 30
0.0
 10
104.9493443265498
 20
156.6543975546354
 30
0.0
 10
104.8630511407679
 20
156.3293186986389
 30
0.0
 10
104.8024151620847
 20
156.1736107832336
 30
0.0
 10
104.6543133678634
 20
155.8728668275959
 30
0.0
 10
104.5675437610847
 20
155.727901510897
 30
0.0
 10
104.4189059657556
 20
155.5241173807453
 30
0.0
 10
104.3666167488693
 20
155.4576947645254
 30
0.0
 10
104.2758529205594
 20
155.3683476328308
 30
0.0
 10
104.2434869281074
 20
155.3397196714935
 30
0.0
 10
104.1857977724412
 20
155.3084385917131
 30
0.0
 10
104.1648107445539
 20
155.300173009428
 30
0.0
 10
104.1195217655633
 20
155.2939127910613
 30
0.0
 10
104.0965074967248
 20
155.2964924914107
 30
0.0
 10
104.0747393461252
 20
155.3036592694977
 30
0.0
  0
SPLINE
  5
129
330
1F
100
AcDbEntity
  8
0
  6
HIDDEN
 62
     7
370
     0
100
AcDbSpline
210
0.0
220
0.0
230
1.0
 70
     8
 71
     3
 72
    12
 73
     8
 74
     0
 42
0.00000001
 43
0.00000001
 12
1.0
 22
0.0
 32
0.0
 13
1.0
 23
0.0
 33
0.0
 40
0.0
 40
0.0
 40
0.0
 40
0.0
 40
0.2499999999999987
 40
0.2499999999999987
 40
0.4999999999999973
 40
0.4999999999999973
 40
1.0
 40
1.0
 40
1.0
 40
1.0
 10
104.0747393461258
 20
155.3036592694998
 30
0.0
 10
103.9326969429366
 20
155.350424215283
 30
0.0
 10
103.7885788364324
 20
155.3884786651119
 30
0.0
 10
103.4988243227599
 20
155.4582142155058
 30
0.0
 10
103.3530824194012
 20
155.4894526871861
 30
0.0
 10
102.9144021802214
 20
155.5770607548951
 30
0.0
 10
102.6200265641502
 20
155.6273953722606
 30
0.0
 10
102.3247393461258
 20
155.6738989845458
 30
0.0
  0
SPLINE
  5
12A
330
1F
100
AcDbEntity
  8
0
  6
HIDDEN
 62
     7
370
     0
100
AcDbSpline
210
0.0
220
0.0
230
1.0
 70
     8
 71
     3
 72
     8
 73
     4
 74
     0
 42
0.00000001
 43
0.00000001
 12
1.0
 22
0.0
 32
0.0
 13
1.0
 23
0.0
 33
0.0
 40
0.0
 40
0.0
 40
0.0
 40
0.0
 40
1.0
 40
1.0
 40
1.0
 40
1.0
 10
102.3247393461258
 20
155.6738989845458
 30
0.0
 10
102.2789744384365
 20
155.5502615531394
 30
0.0
 10
102.2445873168065
 20
155.4249593023794
 30
0.0
 10
102.2255720631336
 20
155.2972171675294
 30
0.0
  0
ELLIPSE
  5
12B
330
1F
100
AcDbEntity
  8
0
  6
HIDDEN
 62
     7
370
     0
100
AcDbEllipse
 10
88.7686187076
 20
161.578680648
 30
0.0
 11
11.13367439321786
 21
-11.09765775028154
 31
0.0
210
0.0
220
0.0
230
1.0
 40
0.6999052427
 41
0.4333370834661343
 42
0.4769802043107386
  0
LINE
  5
12C
330
1F
100
AcDbEntity
  8
0
  6
HIDDEN
 62
     7
370
     0
100
AcDbLine
 10
119.2747393461
 20
176.9149982294
 30
0.0
 11
119.2747393461
 21
146.7075974278
 31
0.0
  0
SPLINE
  5
12D
330
1F
100
AcDbEntity
  8
0
  6
HIDDEN
 62
     7
370
     0
100
AcDbSpline
210
0.0
220
0.0
230
1.0
 70
     8
 71
     3
 72
    37
 73
    33
 74
     0
 42
0.00000001
 43
0.00000001
 12
1.0
 22
0.0
 32
0.0
 13
1.0
 23
0.0
 33
0.0
 40
-0.1266254246229437
 40
-0.0943089202656678
 40
-0.0468438588501554
 40
0.0
 40
0.0312188406308872
 40
0.0625350707078046
 40
0.0936968928322305
 40
0.124330427001434
 40
0.1547877422609514
 40
0.1858051167351299
 40
0.216713068842993
 40
0.2475893961677668
 40
0.2785505527462466
 40
0.3100767087838665
 40
0.341780768700506
 40
0.3732262309390921
 40
0.4056980892594411
 40
0.4531468073849921
 40
0.5000655009397785
 40
0.5312623534105675
 40
0.5625708117516205
 40
0.5937316548361526
 40
0.6243200789887999
 40
0.6548794701783904
 40
0.685782812013589
 40
0.7167968284790635
 40
0.7475836640620144
 40
0.7785530845196709
 40
0.8101373721415035
 40
0.8418358242957384
 40
0.8733745753770563
 40
0.9056910797343322
 40
0.9531561411498446
 40
1.0
 40
1.031218840630887
 40
1.062535070707805
 40
1.093696892832231
 10
112.5339863775748
 20
160.9632554368569
 30
0.0
 10
112.8511760359085
 20
160.2753681636699
 30
0.0
 10
113.2557909762809
 20
159.7619443920925
 30
0.0
 10
113.6842920550887
 20
159.4004265702325
 30
0.0
 10
114.1701521243504
 20
159.1267391759908
 30
0.0
 10
114.6978496106962
 20
158.959874223875
 30
0.0
 10
115.2473912211643
 20
158.9034845307962
 30
0.0
 10
115.7967543715996
 20
158.962958429308
 30
0.0
 10
116.3255685085087
 20
159.125592240447
 30
0.0
 10
116.8084570325607
 20
159.392145012836
 30
0.0
 10
117.2317919363854
 20
159.7501515764432
 30
0.0
 10
117.5787592499108
 20
160.1893617364976
 30
0.0
 10
117.8419507842205
 20
160.6881667245268
 30
0.0
 10
118.0064831649519
 20
161.2361337748929
 30
0.0
 10
118.0672927216091
 20
161.9003534123148
 30
0.0
 10
117.9639480064949
 20
162.6594632673536
 30
0.0
 10
117.6485483503651
 20
163.345897402079
 30
0.0
 10
117.2470856740203
 20
163.8571400914255
 30
0.0
 10
116.8230777901587
 20
164.2170976449484
 30
0.0
 10
116.3421235814049
 20
164.4900680393439
 30
0.0
 10
115.8181323986631
 20
164.658745773135
 30
0.0
 10
115.2705374124976
 20
164.7186985430833
 30
0.0
 10
114.7190570476183
 20
164.6628698752552
 30
0.0
 10
114.1866293362265
 20
164.5031841090095
 30
0.0
 10
113.698597443706
 20
164.23671444863
 30
0.0
 10
113.2712723236276
 20
163.8769459252865
 30
0.0
 10
112.9216553659741
 20
163.4350199059043
 30
0.0
 10
112.6570868774531
 20
162.9335723221353
 30
0.0
 10
112.4931813293795
 20
162.3850185652631
 30
0.0
 10
112.4317701534144
 20
161.721294065684
 30
0.0
 10
112.5339863775748
 20
160.9632554368569
 30
0.0
 10
112.8511760359085
 20
160.2753681636699
 30
0.0
 10
113.2557909762809
 20
159.7619443920925
 30
0.0
  0
LINE
  5
12E
330
1F
100
AcDbEntity
  8
0
  6
HIDDEN
 62
     7
370
     0
100
AcDbLine
 10
107.4747393461
 20
164.8772978286
 30
0.0
 11
107.4747393461
 21
166.7764080227
 31
0.0
  0
LINE
  5
12F
330
1F
100
AcDbEntity
  8
0
  6
HIDDEN
 62
     7
370
     0
100
AcDbLine
 10
107.4747393461
 20
158.7452978286
 30
0.0
 11
107.4747393461
 21
156.8461876345
 31
0.0
  0
SPLINE
  5
130
330
1F
100
AcDbEntity
  8
0
  6
HIDDEN
 62
     7
370
     0
100
AcDbSpline
210
0.0
220
0.0
230
1.0
 70
     8
 71
     3
 72
    21
 73
    17
 74
     0
 42
0.00000001
 43
0.00000001
 12
1.0
 22
0.0
 32
0.0
 13
1.0
 23
0.0
 33
0.0
 40
0.0
 40
0.0
 40
0.0
 40
0.0
 40
0.0069499810181068
 40
0.0801927736723725
 40
0.15397451419574
 40
0.2972702281454085
 40
0.3699965508477772
 40
0.4437741762466893
 40
0.5152487866508267
 40
0.5872190145374918
 40
0.6607539564901305
 40
0.734830655647041
 40
0.8003583386592706
 40
0.9227904298095649
 40
0.9328809341388659
 40
1.0
 40
1.0
 40
1.0
 40
1.0
 10
117.2942781468774
 20
162.9105287817821
 30
0.0
 10
117.2974057867593
 20
162.9052510433899
 30
0.0
 10
117.3334942475077
 20
162.8443535417584
 30
0.0
 10
117.3895576899876
 20
162.7198733530298
 30
0.0
 10
117.4822885297221
 20
162.4806425221376
 30
0.0
 10
117.5425162442565
 20
162.2299103655961
 30
0.0
 10
117.5716608018308
 20
161.9750909870553
 30
0.0
 10
117.5772435383979
 20
161.7821237574502
 30
0.0
 10
117.5667247174581
 20
161.5900779983909
 30
0.0
 10
117.5403406534707
 20
161.3998002133737
 30
0.0
 10
117.497787506531
 20
161.2100603912553
 30
0.0
 10
117.4402750648728
 20
161.0305177981655
 30
0.0
 10
117.3551472851223
 20
160.814523849518
 30
0.0
 10
117.2611951335384
 20
160.6662609136596
 30
0.0
 10
117.1779070196818
 20
160.5107977201299
 30
0.0
 10
117.1356502844169
 20
160.4571151520021
 30
0.0
 10
117.0989160740033
 20
160.4104483486916
 30
0.0
  0
LINE
  5
131
330
1F
100
AcDbEntity
  8
0
  6
HIDDEN
 62
     7
370
     0
100
AcDbLine
 10
121.2747393461
 20
151.3150189118
 30
0.0
 11
121.2747393461
 21
172.3075767454
 31
0.0
  0
SPLINE
  5
132
330
1F
100
AcDbEntity
  8
0
  6
HIDDEN
 62
     7
370
     0
100
AcDbSpline
210
0.0
220
0.0
230
1.0
 70
     8
 71
     3
 72
    14
 73
    10
 74
     0
 42
0.00000001
 43
0.00000001
 12
1.0
 22
0.0
 32
0.0
 13
1.0
 23
0.0
 33
0.0
 40
0.0
 40
0.0
 40
0.0
 40
0.0
 40
0.25
 40
0.25
 40
0.5
 40
0.5
 40
0.75
 40
0.75
 40
1.0
 40
1.0
 40
1.0
 40
1.0
 10
117.0989160740033
 20
160.4104483486915
 30
0.0
 10
117.2527919697062
 20
160.6108245004055
 30
0.0
 10
117.3706725373352
 20
160.8309110419908
 30
0.0
 10
117.5337363272479
 20
161.3102720481354
 30
0.0
 10
117.5746528458716
 20
161.5574974304081
 30
0.0
 10
117.5748255783878
 20
162.0635280263043
 30
0.0
 10
117.5338978201539
 20
162.3112909348314
 30
0.0
 10
117.3715604546884
 20
162.7896287316057
 30
0.0
 10
117.2527901865822
 20
163.0117734788453
 30
0.0
 10
117.0989160740033
 20
163.2121473085873
 30
0.0
  0
SPLINE
  5
133
330
1F
100
AcDbEntity
  8
0
  6
HIDDEN
 62
     7
370
     0
100
AcDbSpline
210
0.0
220
0.0
230
1.0
 70
     8
 71
     3
 72
    26
 73
    22
 74
     0
 42
0.00000001
 43
0.00000001
 12
1.0
 22
0.0
 32
0.0
 13
1.0
 23
0.0
 33
0.0
 40
0.0
 40
0.0
 40
0.0
 40
0.0
 40
0.0672420882988403
 40
0.1134432986740946
 40
0.1599830770874505
 40
0.2050610910538544
 40
0.2504569580044084
 40
0.2963489039021326
 40
0.3429233870859169
 40
0.3876200877772356
 40
0.4780668601634455
 40
0.5242612013359291
 40
0.5684165858770448
 40
0.6577389922451781
 40
0.7033232404029504
 40
0.7477111808454205
 40
0.8374841745691477
 40
0.883280525549611
 40
0.9283083193331271
 40
0.9736488297026354
 40
1.0
 40
1.0
 40
1.0
 40
1.0
 10
117.0337050378888
 20
160.3387620203478
 30
0.0
 10
116.9719157484005
 20
160.2660588907941
 30
0.0
 10
116.8676717994153
 20
160.1434023367048
 30
0.0
 10
116.6932889757865
 20
159.9978747153005
 30
0.0
 10
116.534803392414
 20
159.8837481034565
 30
0.0
 10
116.3676174315055
 20
159.7845196121204
 30
0.0
 10
116.1935724739277
 20
159.6998106964053
 30
0.0
 10
116.0108550368141
 20
159.6293094948072
 30
0.0
 10
115.8235804971441
 20
159.5749196624903
 30
0.0
 10
115.5702512857904
 20
159.5240512181257
 30
0.0
 10
115.31168672047
 20
159.5052059587297
 30
0.0
 10
115.0547970852596
 20
159.5191401280565
 30
0.0
 10
114.8016456779043
 20
159.5542402655661
 30
0.0
 10
114.5546636290346
 20
159.6203920748018
 30
0.0
 10
114.3188646078775
 20
159.7164236949905
 30
0.0
 10
114.0914303823155
 20
159.8318797387525
 30
0.0
 10
113.8791167384855
 20
159.9753683203255
 30
0.0
 10
113.6864474734991
 20
160.1438776558808
 30
0.0
 10
113.5528966549177
 20
160.2830791918828
 30
0.0
 10
113.4467625453924
 20
160.4102256150896
 30
0.0
 10
113.3905227107488
 20
160.4948425241413
 30
0.0
 10
113.3698510589421
 20
160.525944523142
 30
0.0
  0
SPLINE
  5
134
330
1F
100
AcDbEntity
  8
0
  6
HIDDEN
 62
     7
370
     0
100
AcDbSpline
210
0.0
220
0.0
230
1.0
 70
     8
 71
     3
 72
    31
 73
    27
 74
     0
 42
0.00000001
 43
0.00000001
 12
1.0
 22
0.0
 32
0.0
 13
1.0
 23
0.0
 33
0.0
 40
0.0
 40
0.0
 40
0.0
 40
0.0
 40
0.0399687378505868
 40
0.0729604233487103
 40
0.1064480025504587
 40
0.1384123958107612
 40
0.2030890273386983
 40
0.236114274575301
 40
0.2678456005548245
 40
0.3646064680650629
 40
0.396652135204888
 40
0.461465030608174
 40
0.494531556393113
 40
0.5593372523390688
 40
0.5925930717202438
 40
0.6260972016153294
 40
0.6583920402129539
 40
0.6909179238373937
 40
0.7238042293007014
 40
0.7571858006125332
 40
0.7890125966363899
 40
0.853404450112956
 40
0.8862761480155533
 40
0.9180442255352109
 40
0.9822962473540973
 40
1.0
 40
1.0
 40
1.0
 40
1.0
 10
113.1698124010904
 20
160.9034303292128
 30
0.0
 10
113.1376241694628
 20
160.9756305755281
 30
0.0
 10
113.0788665720833
 20
161.1074275954075
 30
0.0
 10
113.0273214257957
 20
161.3120765467534
 30
0.0
 10
112.9924912532225
 20
161.5036837032071
 30
0.0
 10
112.9691881876497
 20
161.7603120492052
 30
0.0
 10
112.9776902137227
 20
162.0180909486045
 30
0.0
 10
113.0184451286535
 20
162.271060689655
 30
0.0
 10
113.0952426508276
 20
162.5811116295832
 30
0.0
 10
113.2230074529594
 20
162.8757524786222
 30
0.0
 10
113.4306804282728
 20
163.1961580377607
 30
0.0
 10
113.5964484477597
 20
163.3931626486925
 30
0.0
 10
113.8321131878496
 20
163.6106744818065
 30
0.0
 10
114.0436791657978
 20
163.761586678794
 30
0.0
 10
114.2724635314229
 20
163.8845713876602
 30
0.0
 10
114.4522169869978
 20
163.9621458195242
 30
0.0
 10
114.6366187550328
 20
164.0237908207609
 30
0.0
 10
114.8244656192844
 20
164.0695753986633
 30
0.0
 10
115.0177234489631
 20
164.0997162216363
 30
0.0
 10
115.2115583337563
 20
164.1131427460292
 30
0.0
 10
115.4681331774169
 20
164.1093307027572
 30
0.0
 10
115.7223375300653
 20
164.0736438212149
 30
0.0
 10
115.9687688031269
 20
164.0069803208089
 30
0.0
 10
116.2078828080635
 20
163.919559285256
 30
0.0
 10
116.4109348384845
 20
163.8200809002861
 30
0.0
 10
116.5435889246536
 20
163.7278386803305
 30
0.0
 10
116.5722443201318
 20
163.7079128916199
 30
0.0
  0
SPLINE
  5
135
330
1F
100
AcDbEntity
  8
0
  6
HIDDEN
 62
     7
370
     0
100
AcDbSpline
210
0.0
220
0.0
230
1.0
 70
     8
 71
     3
 72
    50
 73
    46
 74
     0
 42
0.00000001
 43
0.00000001
 12
1.0
 22
0.0
 32
0.0
 13
1.0
 23
0.0
 33
0.0
 40
0.0
 40
0.0
 40
0.0
 40
0.0
 40
0.0625
 40
0.0625
 40
0.125
 40
0.125
 40
0.15625
 40
0.15625
 40
0.1875
 40
0.1875
 40
0.21875
 40
0.21875
 40
0.25
 40
0.25
 40
0.28125
 40
0.28125
 40
0.3125
 40
0.3125
 40
0.375
 40
0.375
 40
0.4375
 40
0.4375
 40
0.5
 40
0.5
 40
0.53125
 40
0.53125
 40
0.5625
 40
0.5625
 40
0.59375
 40
0.59375
 40
0.625
 40
0.625
 40
0.65625
 40
0.65625
 40
0.6875
 40
0.6875
 40
0.75
 40
0.75
 40
0.8125
 40
0.8125
 40
0.875
 40
0.875
 40
0.9375
 40
0.9375
 40
1.0
 40
1.0
 40
1.0
 40
1.0
 10
117.0989160740033
 20
163.2121473085873
 30
0.0
 10
116.9526612392017
 20
163.4025993662877
 30
0.0
 10
116.7811926022433
 20
163.5656605556861
 30
0.0
 10
116.3880479967333
 20
163.8380523375526
 30
0.0
 10
116.1728038111681
 20
163.9421483107781
 30
0.0
 10
115.8300640246185
 20
164.0464433253818
 30
0.0
 10
115.711817641563
 20
164.0725217048404
 30
0.0
 10
115.4760386393846
 20
164.1055622966503
 30
0.0
 10
115.3574723296787
 20
164.112901359721
 30
0.0
 10
115.1189772488782
 20
164.1091145597813
 30
0.0
 10
114.9981848553563
 20
164.0977250495511
 30
0.0
 10
114.7631188898911
 20
164.0568437158688
 30
0.0
 10
114.6480633773911
 20
164.0274700521902
 30
0.0
 10
114.4228436226482
 20
163.9510211216257
 30
0.0
 10
114.311761453046
 20
163.9034024363556
 30
0.0
 10
114.1005100061103
 20
163.7925634769649
 30
0.0
 10
114.0001517716096
 20
163.7294937286672
 30
0.0
 10
113.7145078145862
 20
163.5177190990083
 30
0.0
 10
113.5442290709903
 20
163.3447299114825
 30
0.0
 10
113.26807794107
 20
162.9599447589455
 30
0.0
 10
113.1583787546852
 20
162.742590042194
 30
0.0
 10
113.0128356735213
 20
162.2909634578941
 30
0.0
 10
112.974829038064
 20
162.0499433746164
 30
0.0
 10
112.9746947447062
 20
161.6932740517294
 30
0.0
 10
112.9838124999484
 20
161.5747129004516
 30
0.0
 10
113.020731045462
 20
161.3382599619515
 30
0.0
 10
113.0487047004868
 20
161.2206152816298
 30
0.0
 10
113.121476279939
 20
160.9942333986689
 30
0.0
 10
113.1664015181007
 20
160.8844192420578
 30
0.0
 10
113.2734448330562
 20
160.6715554966615
 30
0.0
 10
113.3360128740227
 20
160.5681359554067
 30
0.0
 10
113.4744037767621
 20
160.3750166533897
 30
0.0
 10
113.5505872325366
 20
160.2844084254814
 30
0.0
 10
113.7169429663477
 20
160.115018901275
 30
0.0
 10
113.8079712687924
 20
160.0356976470615
 30
0.0
 10
114.0946250854652
 20
159.8228339185315
 30
0.0
 10
114.3066771435828
 20
159.7112614448901
 30
0.0
 10
114.7598544195374
 20
159.5569263522773
 30
0.0
 10
114.9944840682774
 20
159.5157769138773
 30
0.0
 10
115.475907617736
 20
159.5074986582755
 30
0.0
 10
115.7112129880044
 20
159.5403473947113
 30
0.0
 10
116.17112063968
 20
159.6795788767184
 30
0.0
 10
116.3855491516392
 20
159.7831942562802
 30
0.0
 10
116.7787483364045
 20
160.0548640890973
 30
0.0
 10
116.9526574080697
 20
160.2199913021169
 30
0.0
 10
117.0989160740033
 20
160.4104483486916
 30
0.0
  0
LINE
  5
136
330
1F
100
AcDbEntity
  8
0
  6
HIDDEN
 62
     7
370
     0
100
AcDbLine
 10
109.2773890769
 20
151.3112978286
 30
0.0
 11
109.2773890769
 21
172.3112978286
 31
0.0
  0
SPLINE
  5
137
330
1F
100
AcDbEntity
  8
0
  6
HIDDEN
 62
     7
370
     0
100
AcDbSpline
210
0.0
220
0.0
230
1.0
 70
     8
 71
     3
 72
    26
 73
    22
 74
     0
 42
0.00000001
 43
0.00000001
 12
1.0
 22
0.0
 32
0.0
 13
1.0
 23
0.0
 33
0.0
 40
0.0
 40
0.0
 40
0.0
 40
0.0
 40
0.250000000000004
 40
0.250000000000004
 40
0.3750000000000056
 40
0.3750000000000056
 40
0.4375000000000052
 40
0.4375000000000052
 40
0.4687500000000044
 40
0.4687500000000044
 40
0.5000000000000036
 40
0.5000000000000036
 40
0.5312500000000028
 40
0.5312500000000028
 40
0.562500000000002
 40
0.562500000000002
 40
0.6250000000000012
 40
0.6250000000000012
 40
0.7500000000000009
 40
0.7500000000000009
 40
1.0
 40
1.0
 40
1.0
 40
1.0
 10
102.1347093925136
 20
168.8437196375423
 30
0.0
 10
102.0873212830852
 20
169.0778771627076
 30
0.0
 10
102.0296799811808
 20
169.304875961751
 30
0.0
 10
101.9076321686374
 20
169.6150441934861
 30
0.0
 10
101.8615831608609
 20
169.7140503938191
 30
0.0
 10
101.7709298766953
 20
169.8346777388487
 30
0.0
 10
101.7365773764097
 20
169.8713681295693
 30
0.0
 10
101.6741422040192
 20
169.8990988097881
 30
0.0
 10
101.6508481852211
 20
169.9035373649178
 30
0.0
 10
101.6017956480945
 20
169.8908828838669
 30
0.0
 10
101.5773641984378
 20
169.872868246391
 30
0.0
 10
101.536734602818
 20
169.8225088126529
 30
0.0
 10
101.5205723209668
 20
169.7919301863265
 30
0.0
 10
101.4935902768637
 20
169.7286700132986
 30
0.0
 10
101.4828407540409
 20
169.6961675990355
 30
0.0
 10
101.4548047798838
 20
169.5973199353284
 30
0.0
 10
101.4419435478511
 20
169.5304170916855
 30
0.0
 10
101.4109406866908
 20
169.3325840292228
 30
0.0
 10
101.4000812046217
 20
169.2017809982032
 30
0.0
 10
101.3768039486837
 20
168.8104013675043
 30
0.0
 10
101.3747393461257
 20
168.5534380345747
 30
0.0
 10
101.3747393461257
 20
168.2972625451306
 30
0.0
  0
LINE
  5
138
330
1F
100
AcDbEntity
  8
0
  6
HIDDEN
 62
     7
370
     0
100
AcDbLine
 10
101.3747393461
 20
175.2572814198
 30
0.0
 11
101.3747393461
 21
168.2972625451
 31
0.0
  0
SPLINE
  5
139
330
1F
100
AcDbEntity
  8
0
  6
HIDDEN
 62
     7
370
     0
100
AcDbSpline
210
0.0
220
0.0
230
1.0
 70
     8
 71
     3
 72
    26
 73
    22
 74
     0
 42
0.00000001
 43
0.00000001
 12
1.0
 22
0.0
 32
0.0
 13
1.0
 23
0.0
 33
0.0
 40
0.0
 40
0.0
 40
0.0
 40
0.0
 40
0.2499999999999951
 40
0.2499999999999951
 40
0.374999999999993
 40
0.374999999999993
 40
0.437499999999992
 40
0.437499999999992
 40
0.4687499999999924
 40
0.4687499999999924
 40
0.4999999999999928
 40
0.4999999999999928
 40
0.5312499999999931
 40
0.5312499999999931
 40
0.5624999999999936
 40
0.5624999999999936
 40
0.6249999999999944
 40
0.6249999999999944
 40
0.7499999999999963
 40
0.7499999999999963
 40
1.0
 40
1.0
 40
1.0
 40
1.0
 10
102.1347093925136
 20
154.7788760197366
 30
0.0
 10
102.0873212830851
 20
154.5447184945712
 30
0.0
 10
102.0296799811808
 20
154.3177196955278
 30
0.0
 10
101.9076321686374
 20
154.0075514637928
 30
0.0
 10
101.8615831608609
 20
153.9085452634598
 30
0.0
 10
101.7709298766953
 20
153.7879179184302
 30
0.0
 10
101.7365773764097
 20
153.7512275277095
 30
0.0
 10
101.6741422040192
 20
153.7234968474907
 30
0.0
 10
101.6508481852211
 20
153.719058292361
 30
0.0
 10
101.6017956480946
 20
153.7317127734119
 30
0.0
 10
101.5773641984377
 20
153.7497274108879
 30
0.0
 10
101.536734602818
 20
153.800086844626
 30
0.0
 10
101.5205723209668
 20
153.8306654709523
 30
0.0
 10
101.4935902768637
 20
153.8939256439804
 30
0.0
 10
101.4828407540409
 20
153.9264280582433
 30
0.0
 10
101.4548047798838
 20
154.0252757219504
 30
0.0
 10
101.4419435478511
 20
154.0921785655934
 30
0.0
 10
101.4109406866908
 20
154.2900116280561
 30
0.0
 10
101.4000812046217
 20
154.4208146590757
 30
0.0
 10
101.3768039486837
 20
154.8121942897746
 30
0.0
 10
101.3747393461257
 20
155.0691576227042
 30
0.0
 10
101.3747393461257
 20
155.3253331121483
 30
0.0
  0
LINE
  5
13A
330
1F
100
AcDbEntity
  8
0
  6
HIDDEN
 62
     7
370
     0
100
AcDbLine
 10
101.3747393461
 20
155.3253331121
 30
0.0
 11
101.3747393461
 21
148.3653142375
 31
0.0
  0
LINE
  5
13B
330
1F
100
AcDbEntity
  8
0
  6
HIDDEN
 62
     7
370
     0
100
AcDbLine
 10
127.4441145963
 20
151.3112978286
 30
0.0
 11
127.4441145963
 21
172.3112978286
 31
0.0
  0
LINE
  5
13C
330
1F
100
AcDbEntity
  8
0
  6
HIDDEN
 62
     7
370
     0
100
AcDbLine
 10
129.2247393461
 20
151.9362978286
 30
0.0
 11
129.2247393461
 21
171.6862978286
 31
0.0
  0
LINE
  5
13D
330
1F
100
AcDbEntity
  8
0
  6
HIDDEN
 62
     7
370
     0
100
AcDbLine
 10
102.3247393461
 20
157.7862978286
 30
0.0
 11
102.3247393461
 21
151.3112978286
 31
0.0
  0
LINE
  5
13E
330
1F
100
AcDbEntity
  8
0
  6
HIDDEN
 62
     7
370
     0
100
AcDbLine
 10
104.0747393461
 20
157.7862978286
 30
0.0
 11
102.3247393461
 21
157.7862978286
 31
0.0
  0
SPLINE
  5
13F
330
1F
100
AcDbEntity
  8
0
  6
HIDDEN
 62
     7
370
     0
100
AcDbSpline
210
0.0
220
0.0
230
1.0
 70
     8
 71
     3
 72
     9
 73
     5
 74
     0
 42
0.00000001
 43
0.00000001
 12
1.0
 22
0.0
 32
0.0
 13
1.0
 23
0.0
 33
0.0
 40
0.0
 40
0.0
 40
0.0
 40
0.0
 40
0.5071376499419057
 40
1.0
 40
1.0
 40
1.0
 40
1.0
 10
104.3557784350804
 20
157.8452978286394
 30
0.0
 10
104.3104344277575
 20
157.8263999470129
 30
0.0
 10
104.2210227910388
 20
157.7891361358391
 30
0.0
 10
104.1230342223624
 20
157.7872348840596
 30
0.0
 10
104.0747393461258
 20
157.7862978286394
 30
0.0
  0
SPLINE
  5
140
330
1F
100
AcDbEntity
  8
0
  6
HIDDEN
 62
     7
370
     0
100
AcDbSpline
210
0.0
220
0.0
230
1.0
 70
     8
 71
     3
 72
     9
 73
     5
 74
     0
 42
0.00000001
 43
0.00000001
 12
1.0
 22
0.0
 32
0.0
 13
1.0
 23
0.0
 33
0.0
 40
0.0
 40
0.0
 40
0.0
 40
0.0
 40
0.5071376499420645
 40
1.0
 40
1.0
 40
1.0
 40
1.0
 10
104.3557784350804
 20
165.7772978286394
 30
0.0
 10
104.3104344277574
 20
165.796195710266
 30
0.0
 10
104.2210227910388
 20
165.8334595214397
 30
0.0
 10
104.1230342223625
 20
165.8353607732193
 30
0.0
 10
104.0747393461258
 20
165.8362978286395
 30
0.0
  0
LINE
  5
141
330
1F
100
AcDbEntity
  8
0
  6
HIDDEN
 62
     7
370
     0
100
AcDbLine
 10
104.0747393461
 20
165.8362978286
 30
0.0
 11
102.3247393461
 21
165.8362978286
 31
0.0
  0
LINE
  5
142
330
1F
100
AcDbEntity
  8
0
  6
HIDDEN
 62
     7
370
     0
100
AcDbLine
 10
102.3247393461
 20
165.8362978286
 30
0.0
 11
102.3247393461
 21
172.3112978286
 31
0.0
  0
SPLINE
  5
143
330
1F
100
AcDbEntity
  8
0
  6
HIDDEN
 62
     7
370
     0
100
AcDbSpline
210
0.0
220
0.0
230
1.0
 70
     8
 71
     3
 72
    14
 73
    10
 74
     0
 42
0.00000001
 43
0.00000001
 12
1.0
 22
0.0
 32
0.0
 13
1.0
 23
0.0
 33
0.0
 40
0.0
 40
0.0
 40
0.0
 40
0.0
 40
0.25
 40
0.25
 40
0.5
 40
0.5
 40
0.75
 40
0.75
 40
1.0
 40
1.0
 40
1.0
 40
1.0
 10
106.5747393461258
 20
165.7772978286395
 30
0.0
 10
106.6972074340447
 20
165.7772978286395
 30
0.0
 10
106.8174185129135
 20
165.7521865712935
 30
0.0
 10
107.0376248321662
 20
165.658361537199
 30
0.0
 10
107.1372802848642
 20
165.5894486795228
 30
0.0
 10
107.30026763782
 20
165.4224765517403
 30
0.0
 10
107.3650049985664
 20
165.3231240747405
 30
0.0
 10
107.4518403486835
 20
165.1096223311188
 30
0.0
 10
107.4747393461258
 20
164.9942548320857
 30
0.0
 10
107.4747393461258
 20
164.8772978286394
 30
0.0
  0
LINE
  5
144
330
1F
100
AcDbEntity
  8
0
  6
HIDDEN
 62
     7
370
     0
100
AcDbLine
 10
102.3247393461
 20
165.8362978286
 30
0.0
 11
102.3837393461
 21
165.7772978286
 31
0.0
  0
LINE
  5
145
330
1F
100
AcDbEntity
  8
0
  6
HIDDEN
 62
     7
370
     0
100
AcDbLine
 10
102.3837393461
 20
165.7772978286
 30
0.0
 11
106.5747393461
 21
165.7772978286
 31
0.0
  0
LINE
  5
146
330
1F
100
AcDbEntity
  8
0
  6
HIDDEN
 62
     7
370
     0
100
AcDbLine
 10
102.3837393461
 20
157.8452978286
 30
0.0
 11
106.5747393461
 21
157.8452978286
 31
0.0
  0
LINE
  5
147
330
1F
100
AcDbEntity
  8
0
  6
HIDDEN
 62
     7
370
     0
100
AcDbLine
 10
102.3247393461
 20
157.7862978286
 30
0.0
 11
102.3837393461
 21
157.8452978286
 31
0.0
  0
SPLINE
  5
148
330
1F
100
AcDbEntity
  8
0
  6
HIDDEN
 62
     7
370
     0
100
AcDbSpline
210
0.0
220
0.0
230
1.0
 70
     8
 71
     3
 72
    14
 73
    10
 74
     0
 42
0.00000001
 43
0.00000001
 12
1.0
 22
0.0
 32
0.0
 13
1.0
 23
0.0
 33
0.0
 40
0.0
 40
0.0
 40
0.0
 40
0.0
 40
0.25
 40
0.25
 40
0.5
 40
0.5
 40
0.75
 40
0.75
 40
1.0
 40
1.0
 40
1.0
 40
1.0
 10
106.5747393461258
 20
157.8452978286394
 30
0.0
 10
106.6972074340447
 20
157.8452978286394
 30
0.0
 10
106.8174185129135
 20
157.8704090859853
 30
0.0
 10
107.0376248321662
 20
157.9642341200799
 30
0.0
 10
107.1372802848642
 20
158.0331469777561
 30
0.0
 10
107.30026763782
 20
158.2001191055386
 30
0.0
 10
107.3650049985665
 20
158.2994715825384
 30
0.0
 10
107.4518403486835
 20
158.5129733261601
 30
0.0
 10
107.4747393461258
 20
158.6283408251931
 30
0.0
 10
107.4747393461258
 20
158.7452978286394
 30
0.0
  0
LINE
  5
149
330
1F
100
AcDbEntity
  8
0
  6
HIDDEN
 62
     7
370
     0
100
AcDbLine
 10
107.4747393461
 20
164.8772978286
 30
0.0
 11
107.4747393461
 21
158.7452978286
 31
0.0
  0
ELLIPSE
  5
14A
330
1F
100
AcDbEntity
  8
0
  6
HIDDEN
 62
     7
370
     0
100
AcDbEllipse
 10
178.6458805421
 20
152.451591005
 30
0.0
 11
3.836318985757231
 21
-2.981814344700752
 31
0.0
210
0.0
220
0.0
230
1.0
 40
0.1973179358
 41
5.326638272409022
 42
6.601762113647504
  0
LINE
  5
14B
330
1F
100
AcDbEntity
  8
0
  6
HIDDEN
 62
     7
370
     0
100
AcDbLine
 10
182.4734492475
 20
149.8569111664
 30
0.0
 11
182.8204648991
 21
152.6831268485
 31
0.0
  0
SPLINE
  5
14C
330
1F
100
AcDbEntity
  8
0
  6
HIDDEN
 62
     7
370
     0
100
AcDbSpline
210
0.0
220
0.0
230
1.0
 70
     8
 71
     3
 72
    22
 73
    18
 74
     0
 42
0.00000001
 43
0.00000001
 12
1.0
 22
0.0
 32
0.0
 13
1.0
 23
0.0
 33
0.0
 40
0.0
 40
0.0
 40
0.0
 40
0.0
 40
0.1249999999999999
 40
0.1249999999999999
 40
0.2499999999999998
 40
0.2499999999999998
 40
0.4999999999999999
 40
0.4999999999999999
 40
0.6249999999999999
 40
0.6249999999999999
 40
0.7499999999999999
 40
0.7499999999999999
 40
0.8749999999999999
 40
0.8749999999999999
 40
0.9374999999999999
 40
0.9374999999999999
 40
1.0
 40
1.0
 40
1.0
 40
1.0
 10
182.820464899084
 20
152.6831268484726
 30
0.0
 10
182.8546703017522
 20
152.9617074975103
 30
0.0
 10
182.8921272885283
 20
153.2395703579219
 30
0.0
 10
182.9711140688717
 20
153.7943171436106
 30
0.0
 10
183.0127532035006
 20
154.0719294165783
 30
0.0
 10
183.1383845249037
 20
154.8938094342206
 30
0.0
 10
183.2237531496992
 20
155.430422611982
 30
0.0
 10
183.3374764244155
 20
156.2204120392562
 30
0.0
 10
183.3729860315193
 20
156.481177696697
 30
0.0
 10
183.4343804792705
 20
156.9965575621589
 30
0.0
 10
183.460381812005
 20
157.2513016178528
 30
0.0
 10
183.492450874321
 20
157.7407730450866
 30
0.0
 10
183.4992054535209
 20
157.9779305417871
 30
0.0
 10
183.4760366177287
 20
158.2923100885233
 30
0.0
 10
183.4624852489336
 20
158.391599087941
 30
0.0
 10
183.4158463730768
 20
158.5619665966938
 30
0.0
 10
183.3828529948711
 20
158.632267045526
 30
0.0
 10
183.3355614938723
 20
158.6741498292556
 30
0.0
  0
LINE
  5
14D
330
1F
100
AcDbEntity
  8
0
  6
HIDDEN
 62
     7
370
     0
100
AcDbLine
 10
183.6369127754
 20
158.6371485445
 30
0.0
 11
175.2995251016
 21
159.6608510291
 31
0.0
  0
SPLINE
  5
14E
330
1F
100
AcDbEntity
  8
0
  6
HIDDEN
 62
     7
370
     0
100
AcDbSpline
210
0.0
220
0.0
230
1.0
 70
     8
 71
     3
 72
    22
 73
    18
 74
     0
 42
0.00000001
 43
0.00000001
 12
1.0
 22
0.0
 32
0.0
 13
1.0
 23
0.0
 33
0.0
 40
0.0
 40
0.0
 40
0.0
 40
0.0
 40
0.0625
 40
0.0625
 40
0.1249999999999999
 40
0.1249999999999999
 40
0.1874999999999999
 40
0.1874999999999999
 40
0.2499999999999998
 40
0.2499999999999998
 40
0.3750000000000001
 40
0.3750000000000001
 40
0.5000000000000003
 40
0.5000000000000003
 40
0.7500000000000001
 40
0.7500000000000001
 40
1.0
 40
1.0
 40
1.0
 40
1.0
 10
183.1461953770728
 20
158.6974010647567
 30
0.0
 10
183.0763455190454
 20
158.6697193150215
 30
0.0
 10
183.0036719700502
 20
158.6133549480379
 30
0.0
 10
182.855162185534
 20
158.465608367668
 30
0.0
 10
182.7825943944044
 20
158.3773770763045
 30
0.0
 10
182.6402148946835
 20
158.1849269268937
 30
0.0
 10
182.5699599925597
 20
158.0796912854773
 30
0.0
 10
182.4346270293753
 20
157.8627645723209
 30
0.0
 10
182.3691620889908
 20
157.7505418653893
 30
0.0
 10
182.177836757336
 20
157.4058260340616
 30
0.0
 10
182.0569643423277
 20
157.1654277002802
 30
0.0
 10
181.8257150236272
 20
156.6706480781616
 30
0.0
 10
181.7154091195164
 20
156.4159098625823
 30
0.0
 10
181.4050103011959
 20
155.6467667872028
 30
0.0
 10
181.2223742833658
 20
155.1230462211889
 30
0.0
 10
180.9167534075387
 20
154.0527205250845
 30
0.0
 10
180.7924259936015
 20
153.5050652859154
 30
0.0
 10
180.7231242525608
 20
152.9406478988196
 30
0.0
  0
LINE
  5
14F
330
1F
100
AcDbEntity
  8
0
  6
HIDDEN
 62
     7
370
     0
100
AcDbLine
 10
180.7231242526
 20
152.9406478988
 30
0.0
 11
180.376108601
 21
150.1144322167
 31
0.0
  0
LINE
  5
150
330
1F
100
AcDbEntity
  8
0
  6
HIDDEN
 62
     7
370
     0
100
AcDbLine
 10
102.3247393461
 20
157.7862978286
 30
0.0
 11
101.3747393461
 21
156.8362978286
 31
0.0
  0
LINE
  5
151
330
1F
100
AcDbEntity
  8
0
  6
HIDDEN
 62
     7
370
     0
100
AcDbLine
 10
101.3747393461
 20
156.8362978286
 30
0.0
 11
102.3247393461
 21
157.7862978286
 31
0.0
  0
LINE
  5
152
330
1F
100
AcDbEntity
  8
0
  6
HIDDEN
 62
     7
370
     0
100
AcDbLine
 10
101.3747393461
 20
156.8362978286
 30
0.0
 11
101.3747393461
 21
150.7780711462
 31
0.0
  0
LINE
  5
153
330
1F
100
AcDbEntity
  8
0
  6
HIDDEN
 62
     7
370
     0
100
AcDbLine
 10
102.3247393461
 20
165.8362978286
 30
0.0
 11
101.3747393461
 21
166.7862978286
 31
0.0
  0
LINE
  5
154
330
1F
100
AcDbEntity
  8
0
  6
HIDDEN
 62
     7
370
     0
100
AcDbLine
 10
101.3747393461
 20
166.7862978286
 30
0.0
 11
102.3247393461
 21
165.8362978286
 31
0.0
  0
LINE
  5
155
330
1F
100
AcDbEntity
  8
0
  6
HIDDEN
 62
     7
370
     0
100
AcDbLine
 10
101.3747393461
 20
166.7862978286
 30
0.0
 11
101.3747393461
 21
172.8445245111
 31
0.0
  0
LINE
  5
156
330
1F
100
AcDbEntity
  8
0
  6
HIDDEN
 62
     7
370
     0
100
AcDbLine
 10
182.9933890116
 20
159.1399244114
 30
0.0
 11
176.0455659501
 21
159.9930098153
 31
0.0
  0
SPLINE
  5
157
330
1F
100
AcDbEntity
  8
0
  6
HIDDEN
 62
     7
370
     0
100
AcDbSpline
210
0.0
220
0.0
230
1.0
 70
     8
 71
     3
 72
     8
 73
     4
 74
     0
 42
0.00000001
 43
0.00000001
 12
1.0
 22
0.0
 32
0.0
 13
1.0
 23
0.0
 33
0.0
 40
0.0
 40
0.0
 40
0.0
 40
0.0
 40
1.0
 40
1.0
 40
1.0
 40
1.0
 10
183.3355614938723
 20
158.6741498292557
 30
0.0
 10
183.2653076447895
 20
158.6933913726056
 30
0.0
 10
183.2021611391727
 20
158.7011812063919
 30
0.0
 10
183.1461953770729
 20
158.6974010647568
 30
0.0
  0
LINE
  5
158
330
1F
100
AcDbEntity
  8
0
  6
HIDDEN
 62
     7
370
     0
100
AcDbLine
 10
176.5427194531
 20
164.0420001711
 30
0.0
 11
183.4905425146
 21
163.1889147672
 31
0.0
  0
LINE
  5
159
330
1F
100
AcDbEntity
  8
0
  6
HIDDEN
 62
     7
370
     0
100
AcDbLine
 10
176.107381049
 20
164.5992079186
 30
0.0
 11
184.0334476266
 21
163.6260093142
 31
0.0
  0
LINE
  5
15A
330
1F
100
AcDbEntity
  8
0
  6
HIDDEN
 62
     7
370
     0
100
AcDbLine
 10
181.4834023791
 20
163.9391155002
 30
0.0
 11
191.5479546421
 21
162.7033438699
 31
0.0
  0
LINE
  5
15B
330
1F
100
AcDbEntity
  8
0
  6
HIDDEN
 62
     7
370
     0
100
AcDbLine
 10
186.8409710608
 20
158.5459926023
 30
0.0
 11
190.529620381
 21
158.0930834152
 31
0.0
  0
LINE
  5
15C
330
1F
100
AcDbEntity
  8
0
  6
HIDDEN
 62
     7
370
     0
100
AcDbLine
 10
190.9156523053
 20
158.0456846549
 30
0.0
 11
187.3496967667
 21
158.4835289399
 31
0.0
  0
LINE
  5
15D
330
1F
100
AcDbEntity
  8
0
  6
HIDDEN
 62
     7
370
     0
100
AcDbLine
 10
186.9914008971
 20
155.5654432542
 30
0.0
 11
190.278651725
 21
155.1618196047
 31
0.0
  0
LINE
  5
15E
330
1F
100
AcDbEntity
  8
0
  6
HIDDEN
 62
     7
370
     0
100
AcDbLine
 10
183.391172369
 20
158.9695746199
 30
0.0
 11
183.6131686161
 21
158.9423169082
 31
0.0
  0
ELLIPSE
  5
15F
330
1F
100
AcDbEntity
  8
0
  6
HIDDEN
 62
     7
370
     0
100
AcDbEllipse
 10
185.0713818702
 20
157.2671330041
 30
0.0
 11
1.517954615992466
 21
4.913260734810478
 31
0.0
210
0.0
220
0.0
230
1.0
 40
0.3769781733
 41
1.341246676997761
 42
1.929198895064449
  0
LINE
  5
160
330
1F
100
AcDbEntity
  8
0
  6
HIDDEN
 62
     7
370
     0
100
AcDbLine
 10
183.0275225911
 20
156.0521463115
 30
0.0
 11
182.8044149005
 21
156.0795404913
 31
0.0
  0
LINE
  5
161
330
1F
100
AcDbEntity
  8
0
  6
HIDDEN
 62
     7
370
     0
100
AcDbLine
 10
187.135740947
 20
158.5097994113
 30
0.0
 11
186.8409710608
 21
158.5459926023
 31
0.0
  0
ELLIPSE
  5
162
330
1F
100
AcDbEntity
  8
0
  6
HIDDEN
 62
     7
370
     0
100
AcDbEllipse
 10
184.4675119487
 20
156.4517616897
 30
0.0
 11
1.517954615992466
 21
4.913260734810478
 31
0.0
210
0.0
220
0.0
230
1.0
 40
0.3769781733
 41
5.265505762188846
 42
7.435890454151014
  0
LINE
  5
163
330
1F
100
AcDbEntity
  8
0
  6
HIDDEN
 62
     7
370
     0
100
AcDbLine
 10
134.5747393461
 20
155.5612978286
 30
0.0
 11
134.5747393461
 21
168.0612978286
 31
0.0
  0
LINE
  5
164
330
1F
100
AcDbEntity
  8
0
  6
HIDDEN
 62
     7
370
     0
100
AcDbLine
 10
137.0747393461
 20
155.5612978286
 30
0.0
 11
137.0747393461
 21
168.0612978286
 31
0.0
  0
LINE
  5
165
330
1F
100
AcDbEntity
  8
0
  6
HIDDEN
 62
     7
370
     0
100
AcDbLine
 10
186.9914008971
 20
155.5654432542
 30
0.0
 11
189.9125693905
 21
155.2067688634
 31
0.0
  0
LINE
  5
166
330
1F
100
AcDbEntity
  8
0
  6
HIDDEN
 62
     7
370
     0
100
AcDbLine
 10
186.9914008971
 20
155.5654432542
 30
0.0
 11
187.3496967667
 21
158.4835289399
 31
0.0
  0
LINE
  5
167
330
1F
100
AcDbEntity
  8
0
  6
HIDDEN
 62
     7
370
     0
100
AcDbLine
 10
187.3496967667
 20
158.4835289399
 30
0.0
 11
187.135740947
 21
158.5097994113
 31
0.0
  0
LINE
  5
168
330
1F
100
AcDbEntity
  8
0
  6
HIDDEN
 62
     7
370
     0
100
AcDbLine
 10
185.6094973976
 20
147.0740668023
 30
0.0
 11
182.4734492475
 21
149.8569111664
 31
0.0
  0
LINE
  5
169
330
1F
100
AcDbEntity
  8
0
  6
HIDDEN
 62
     7
370
     0
100
AcDbLine
 10
129.7247393461
 20
156.3112978286
 30
0.0
 11
129.7247393461
 21
167.3112978286
 31
0.0
  0
LINE
  5
16A
330
1F
100
AcDbEntity
  8
0
  6
HIDDEN
 62
     7
370
     0
100
AcDbLine
 10
129.2247393461
 20
155.8149528665
 30
0.0
 11
129.2247393461
 21
167.8076427908
 31
0.0
  0
LINE
  5
16B
330
1F
100
AcDbEntity
  8
0
  6
HIDDEN
 62
     7
370
     0
100
AcDbLine
 10
134.5747393461
 20
156.3149671626
 30
0.0
 11
134.5747393461
 21
167.3076284947
 31
0.0
  0
LINE
  5
16C
330
1F
100
AcDbEntity
  8
0
  6
HIDDEN
 62
     7
370
     0
100
AcDbLine
 10
132.9747393461
 20
147.1112978286
 30
0.0
 11
123.5747393461
 21
147.1112978286
 31
0.0
  0
SPLINE
  5
16D
330
1F
100
AcDbEntity
  8
0
  6
HIDDEN
 62
     7
370
     0
100
AcDbSpline
210
0.0
220
0.0
230
1.0
 70
     8
 71
     3
 72
    10
 73
     6
 74
     0
 42
0.00000001
 43
0.00000001
 12
1.0
 22
0.0
 32
0.0
 13
1.0
 23
0.0
 33
0.0
 40
0.0
 40
0.0
 40
0.0
 40
0.0
 40
0.5
 40
0.5
 40
1.0
 40
1.0
 40
1.0
 40
1.0
 10
186.9623205063056
 20
149.9269588546324
 30
0.0
 10
187.0573994974986
 20
150.3756509066037
 30
0.0
 10
187.1539535909566
 20
150.8280393879888
 30
0.0
 10
187.3327783037464
 20
151.745310109265
 30
0.0
 10
187.415898861145
 20
152.2120090089959
 30
0.0
 10
187.4733870177749
 20
152.6802124720955
 30
0.0
  0
LINE
  5
16E
330
1F
100
AcDbEntity
  8
0
  6
HIDDEN
 62
     7
370
     0
100
AcDbLine
 10
186.9623205063
 20
149.9269588546
 30
0.0
 11
189.4614414051
 21
149.6201053924
 31
0.0
  0
SPLINE
  5
16F
330
1F
100
AcDbEntity
  8
0
  6
HIDDEN
 62
     7
370
     0
100
AcDbSpline
210
0.0
220
0.0
230
1.0
 70
     8
 71
     3
 72
    10
 73
     6
 74
     0
 42
0.00000001
 43
0.00000001
 12
1.0
 22
0.0
 32
0.0
 13
1.0
 23
0.0
 33
0.0
 40
0.0
 40
0.0
 40
0.0
 40
0.0
 40
0.5
 40
0.5
 40
1.0
 40
1.0
 40
1.0
 40
1.0
 10
189.570727664295
 20
152.4226914217485
 30
0.0
 10
189.5131370035365
 20
151.9536531295146
 30
0.0
 10
189.4018440978453
 20
151.495342255614
 30
0.0
 10
189.1336060194694
 20
150.5880136787425
 30
0.0
 10
188.975192638085
 20
150.1407536027896
 30
0.0
 10
188.8025852563555
 20
149.7010027553523
 30
0.0
  0
LWPOLYLINE
  5
170
330
1F
100
AcDbEntity
  8
0
  6
HIDDEN
 62
     7
370
     0
100
AcDbPolyline
 90
       15
 70
   128
 43
0.0
 10
185.6094973976
 20
147.0740668023
 10
185.971661344
 20
146.7325894757
 10
186.263080169
 20
146.4146918386
 10
186.4691409158
 20
146.1363146059
 10
186.5795108382
 20
145.9114167743
 10
186.5886555274
 20
145.7512756604
 10
186.4961164304
 20
145.6639214082
 10
186.3065338441
 20
145.6537343247
 10
186.0294142309
 20
145.7212252329
 10
185.6786535254
 20
145.8630098566
 10
185.2718403341
 20
146.071978523
 10
184.8293739689
 20
146.3376526704
 10
184.3734415411
 20
146.6467102878
 10
183.9269054064
 20
146.9836539357
 10
183.5121567511
 20
147.3315878526
  0
LINE
  5
171
330
1F
100
AcDbEntity
  8
0
  6
HIDDEN
 62
     7
370
     0
100
AcDbLine
 10
186.9623205063
 20
149.9269588546
 30
0.0
 11
193.1544327538
 21
149.1666630713
 31
0.0
  0
LINE
  5
172
330
1F
100
AcDbEntity
  8
0
  6
HIDDEN
 62
     7
370
     0
100
AcDbLine
 10
187.815228744
 20
155.4642899138
 30
0.0
 11
187.4733870178
 21
152.6802124721
 31
0.0
  0
LINE
  5
173
330
1F
100
AcDbEntity
  8
0
  6
HIDDEN
 62
     7
370
     0
100
AcDbLine
 10
189.5707276643
 20
152.4226914217
 30
0.0
 11
189.9125693905
 21
155.2067688634
 31
0.0
  0
LINE
  5
174
330
1F
100
AcDbEntity
  8
0
  6
HIDDEN
 62
     7
370
     0
100
AcDbLine
 10
187.815228744
 20
155.4642899138
 30
0.0
 11
193.8326580536
 21
154.7254424982
 31
0.0
  0
LINE
  5
175
330
1F
100
AcDbEntity
  8
0
  6
HIDDEN
 62
     7
370
     0
100
AcDbLine
 10
164.2747393461
 20
159.3112978286
 30
0.0
 11
164.2747393461
 21
164.3112978286
 31
0.0
  0
SPLINE
  5
176
330
1F
100
AcDbEntity
  8
0
  6
HIDDEN
 62
     7
370
     0
100
AcDbSpline
210
0.0
220
0.0
230
1.0
 70
    11
 71
     3
 72
    64
 73
    60
 74
     0
 42
0.00000001
 43
0.00000001
 12
1.0
 22
0.0
 32
0.0
 13
1.0
 23
0.0
 33
0.0
 40
-0.0625000000000004
 40
-0.0625000000000004
 40
0.0
 40
0.0
 40
0.03125
 40
0.03125
 40
0.0625
 40
0.0625
 40
0.09375
 40
0.09375
 40
0.125
 40
0.125
 40
0.15625
 40
0.15625
 40
0.1875000000000001
 40
0.1875000000000001
 40
0.2187500000000001
 40
0.2187500000000001
 40
0.2500000000000001
 40
0.2500000000000001
 40
0.2812500000000002
 40
0.2812500000000002
 40
0.3125000000000002
 40
0.3125000000000002
 40
0.3437500000000003
 40
0.3437500000000003
 40
0.3750000000000004
 40
0.3750000000000004
 40
0.4062500000000004
 40
0.4062500000000004
 40
0.4375000000000005
 40
0.4375000000000005
 40
0.4687500000000006
 40
0.4687500000000006
 40
0.5000000000000006
 40
0.5000000000000006
 40
0.5625000000000007
 40
0.5625000000000007
 40
0.5937500000000007
 40
0.5937500000000007
 40
0.6250000000000007
 40
0.6250000000000007
 40
0.6562500000000008
 40
0.6562500000000008
 40
0.6875000000000008
 40
0.6875000000000008
 40
0.7187500000000008
 40
0.7187500000000008
 40
0.7500000000000009
 40
0.7500000000000009
 40
0.7812500000000009
 40
0.7812500000000009
 40
0.8125000000000009
 40
0.8125000000000009
 40
0.8749999999999998
 40
0.8749999999999998
 40
0.9062499999999997
 40
0.9062499999999997
 40
0.9374999999999996
 40
0.9374999999999996
 40
1.0
 40
1.0
 40
1.03125
 40
1.03125
 10
159.1747393461258
 20
159.3112978286393
 30
0.0
 10
159.1747393461258
 20
159.3112978286393
 30
0.0
 10
159.1903449446671
 20
159.3244469230404
 30
0.0
 10
159.250274365246
 20
159.3744585100435
 30
0.0
 10
159.2951428121497
 20
159.4117636423187
 30
0.0
 10
159.4069637846738
 20
159.5031497783729
 30
0.0
 10
159.4751434647023
 20
159.5582343870324
 30
0.0
 10
159.6285196639654
 20
159.6787433094297
 30
0.0
 10
159.7133471753554
 20
159.7439345132983
 30
0.0
 10
159.8987156525052
 20
159.8801099112993
 30
0.0
 10
160.0001187416987
 20
159.9517124584773
 30
0.0
 10
160.2144882845002
 20
160.0915500630154
 30
0.0
 10
160.3277574799106
 20
160.1602479956048
 30
0.0
 10
160.5711518433782
 20
160.2867564975348
 30
0.0
 10
160.7025478188856
 20
160.3449588651224
 30
0.0
 10
160.9783852554112
 20
160.4290632034161
 30
0.0
 10
161.1264022873869
 20
160.4545991599455
 30
0.0
 10
161.4187901032133
 20
160.4550611180103
 30
0.0
 10
161.567168722053
 20
160.4298938057089
 30
0.0
 10
161.8426422956549
 20
160.3466217911665
 30
0.0
 10
161.9741400586514
 20
160.2887071630053
 30
0.0
 10
162.2180050413494
 20
160.1623978467786
 30
0.0
 10
162.3315608211757
 20
160.093678457981
 30
0.0
 10
162.5465848198267
 20
159.9536284335888
 30
0.0
 10
162.6479228923375
 20
159.8821354563582
 30
0.0
 10
162.8333614993896
 20
159.7460284942222
 30
0.0
 10
162.9183768343505
 20
159.6807410192127
 30
0.0
 10
163.0723549534503
 20
159.5598205364613
 30
0.0
 10
163.1404991589885
 20
159.5047822118933
 30
0.0
 10
163.2526382896732
 20
159.4131654632589
 30
0.0
 10
163.2978214529677
 20
159.3756084695834
 30
0.0
 10
163.35838088382
 20
159.325079113321
 30
0.0
 10
163.3742609364326
 20
159.3116996921953
 30
0.0
 10
163.3756645959931
 20
159.310520619904
 30
0.0
 10
163.3117971761404
 20
159.3647733814911
 30
0.0
 10
163.1445589917543
 20
159.5014937624693
 30
0.0
 10
163.0764642002308
 20
159.5565298451627
 30
0.0
 10
162.9235285864562
 20
159.6767552152346
 30
0.0
 10
162.8388376134062
 20
159.741887366145
 30
0.0
 10
162.6535338809552
 20
159.8781318652914
 30
0.0
 10
162.5521898552425
 20
159.9497632274298
 30
0.0
 10
162.3380961687329
 20
160.0896245145514
 30
0.0
 10
162.2248650718663
 20
160.158442964379
 30
0.0
 10
161.9812231279757
 20
160.2854178721513
 30
0.0
 10
161.8501295813503
 20
160.3436974497901
 30
0.0
 10
161.5743423213996
 20
160.4283520986847
 30
0.0
 10
161.4266771683813
 20
160.4542003849136
 30
0.0
 10
161.1342937655143
 20
160.4554389381022
 30
0.0
 10
160.9857981203695
 20
160.4307120056746
 30
0.0
 10
160.7086325727757
 20
160.3473965131599
 30
0.0
 10
160.5771477522736
 20
160.2895396572843
 30
0.0
 10
160.2114513690813
 20
160.1004392946807
 30
0.0
 10
159.9952861317325
 20
159.9509137800743
 30
0.0
 10
159.7162121837119
 20
159.7461067996869
 30
0.0
 10
159.6295848897983
 20
159.6795674330788
 30
0.0
 10
159.4759804725072
 20
159.5589047058465
 30
0.0
 10
159.4088243901359
 20
159.5046593735473
 30
0.0
 10
159.2396023340772
 20
159.3663945553174
 30
0.0
 10
159.1747393461258
 20
159.3112978286393
 30
0.0
 10
159.1747393461258
 20
159.3112978286393
 30
0.0
  0
SPLINE
  5
177
330
1F
100
AcDbEntity
  8
0
  6
HIDDEN
 62
     7
370
     0
100
AcDbSpline
210
0.0
220
0.0
230
1.0
 70
    11
 71
     3
 72
    64
 73
    60
 74
     0
 42
0.00000001
 43
0.00000001
 12
1.0
 22
0.0
 32
0.0
 13
1.0
 23
0.0
 33
0.0
 40
-0.0625000000000008
 40
-0.0625000000000008
 40
0.0
 40
0.0
 40
0.0312499999999999
 40
0.0312499999999999
 40
0.0624999999999999
 40
0.0624999999999999
 40
0.0937499999999998
 40
0.0937499999999998
 40
0.1249999999999998
 40
0.1249999999999998
 40
0.1562499999999997
 40
0.1562499999999997
 40
0.1874999999999997
 40
0.1874999999999997
 40
0.2187499999999996
 40
0.2187499999999996
 40
0.2499999999999996
 40
0.2499999999999996
 40
0.2812499999999995
 40
0.2812499999999995
 40
0.3124999999999994
 40
0.3124999999999994
 40
0.3437499999999994
 40
0.3437499999999994
 40
0.3749999999999993
 40
0.3749999999999993
 40
0.4062499999999993
 40
0.4062499999999993
 40
0.4374999999999992
 40
0.4374999999999992
 40
0.4687499999999992
 40
0.4687499999999992
 40
0.4999999999999991
 40
0.4999999999999991
 40
0.5624999999999991
 40
0.5624999999999991
 40
0.593749999999999
 40
0.593749999999999
 40
0.624999999999999
 40
0.624999999999999
 40
0.6562499999999989
 40
0.6562499999999989
 40
0.6874999999999989
 40
0.6874999999999989
 40
0.7187499999999988
 40
0.7187499999999988
 40
0.7499999999999987
 40
0.7499999999999987
 40
0.7812499999999987
 40
0.7812499999999987
 40
0.8124999999999986
 40
0.8124999999999986
 40
0.8749999999999984
 40
0.8749999999999984
 40
0.9062499999999989
 40
0.9062499999999989
 40
0.9374999999999992
 40
0.9374999999999992
 40
1.0
 40
1.0
 40
1.03125
 40
1.03125
 10
159.1747393461259
 20
164.3112978286394
 30
0.0
 10
159.1747393461258
 20
164.3112978286394
 30
0.0
 10
159.1903449446671
 20
164.2981487342384
 30
0.0
 10
159.250274365246
 20
164.2481371472353
 30
0.0
 10
159.2951428121498
 20
164.2108320149601
 30
0.0
 10
159.4069637846738
 20
164.1194458789059
 30
0.0
 10
159.4751434647023
 20
164.0643612702463
 30
0.0
 10
159.6285196639654
 20
163.9438523478491
 30
0.0
 10
159.7133471753555
 20
163.8786611439805
 30
0.0
 10
159.8987156525052
 20
163.7424857459795
 30
0.0
 10
160.0001187416987
 20
163.6708831988014
 30
0.0
 10
160.2144882845002
 20
163.5310455942633
 30
0.0
 10
160.3277574799107
 20
163.462347661674
 30
0.0
 10
160.5711518433782
 20
163.3358391597438
 30
0.0
 10
160.7025478188857
 20
163.2776367921564
 30
0.0
 10
160.9783852554113
 20
163.1935324538626
 30
0.0
 10
161.1264022873869
 20
163.1679964973332
 30
0.0
 10
161.4187901032133
 20
163.1675345392684
 30
0.0
 10
161.567168722053
 20
163.1927018515698
 30
0.0
 10
161.8426422956549
 20
163.2759738661122
 30
0.0
 10
161.9741400586514
 20
163.3338884942734
 30
0.0
 10
162.2180050413494
 20
163.4601978105002
 30
0.0
 10
162.3315608211757
 20
163.5289171992977
 30
0.0
 10
162.5465848198267
 20
163.66896722369
 30
0.0
 10
162.6479228923376
 20
163.7404602009206
 30
0.0
 10
162.8333614993896
 20
163.8765671630566
 30
0.0
 10
162.9183768343505
 20
163.9418546380661
 30
0.0
 10
163.0723549534504
 20
164.0627751208175
 30
0.0
 10
163.1404991589885
 20
164.1178134453855
 30
0.0
 10
163.2526382896731
 20
164.2094301940199
 30
0.0
 10
163.2978214529677
 20
164.2469871876954
 30
0.0
 10
163.35838088382
 20
164.2975165439578
 30
0.0
 10
163.3742609364326
 20
164.3108959650835
 30
0.0
 10
163.3756645959931
 20
164.3120750373748
 30
0.0
 10
163.3117971761404
 20
164.2578222757876
 30
0.0
 10
163.1445589917543
 20
164.1211018948095
 30
0.0
 10
163.0764642002308
 20
164.0660658121161
 30
0.0
 10
162.9235285864561
 20
163.9458404420442
 30
0.0
 10
162.8388376134062
 20
163.8807082911338
 30
0.0
 10
162.6535338809552
 20
163.7444637919874
 30
0.0
 10
162.5521898552425
 20
163.672832429849
 30
0.0
 10
162.3380961687328
 20
163.5329711427275
 30
0.0
 10
162.2248650718662
 20
163.4641526928998
 30
0.0
 10
161.9812231279756
 20
163.3371777851275
 30
0.0
 10
161.8501295813502
 20
163.2788982074888
 30
0.0
 10
161.5743423213995
 20
163.1942435585942
 30
0.0
 10
161.4266771683813
 20
163.1683952723653
 30
0.0
 10
161.1342937655143
 20
163.1671567191767
 30
0.0
 10
160.9857981203696
 20
163.1918836516043
 30
0.0
 10
160.7086325727758
 20
163.275199144119
 30
0.0
 10
160.5771477522737
 20
163.3330559999946
 30
0.0
 10
160.2114513690813
 20
163.5221563625981
 30
0.0
 10
159.9952861317325
 20
163.6716818772046
 30
0.0
 10
159.7162121837119
 20
163.8764888575919
 30
0.0
 10
159.6295848897983
 20
163.9430282242001
 30
0.0
 10
159.4759804725072
 20
164.0636909514323
 30
0.0
 10
159.4088243901359
 20
164.1179362837315
 30
0.0
 10
159.2396023340773
 20
164.2562011019614
 30
0.0
 10
159.1747393461259
 20
164.3112978286394
 30
0.0
 10
159.1747393461258
 20
164.3112978286394
 30
0.0
  0
LINE
  5
178
330
1F
100
AcDbEntity
  8
0
  6
HIDDEN
 62
     7
370
     0
100
AcDbLine
 10
137.0747393461
 20
159.314964294
 30
0.0
 11
137.0747393461
 21
164.3076313633
 31
0.0
  0
LINE
  5
179
330
1F
100
AcDbEntity
  8
0
  6
HIDDEN
 62
     7
370
     0
100
AcDbLine
 10
163.7747393461
 20
151.3112978286
 30
0.0
 11
158.7747393461
 21
151.3112978286
 31
0.0
  0
LINE
  5
17A
330
1F
100
AcDbEntity
  8
0
  6
HIDDEN
 62
     7
370
     0
100
AcDbLine
 10
163.3747393461
 20
151.5516420763
 30
0.0
 11
159.1747393461
 21
151.5516420763
 31
0.0
  0
LINE
  5
17B
330
1F
100
AcDbEntity
  8
0
  6
HIDDEN
 62
     7
370
     0
100
AcDbLine
 10
160.7230633799
 20
173.0395045672
 30
0.0
 11
160.4334495032
 21
171.6769784031
 31
0.0
  0
LINE
  5
17C
330
1F
100
AcDbEntity
  8
0
  6
HIDDEN
 62
     7
370
     0
100
AcDbLine
 10
163.3747393461
 20
174.3112978286
 30
0.0
 11
159.1747393461
 21
174.3112978286
 31
0.0
  0
LINE
  5
17D
330
1F
100
AcDbEntity
  8
0
  6
HIDDEN
 62
     7
370
     0
100
AcDbLine
 10
161.2747393461
 20
172.3582414852
 30
0.0
 11
163.3747393461
 21
174.0587879549
 31
0.0
  0
LINE
  5
17E
330
1F
100
AcDbEntity
  8
0
  6
HIDDEN
 62
     7
370
     0
100
AcDbLine
 10
161.2747393461
 20
172.3582414852
 30
0.0
 11
160.7230633799
 21
173.0395045672
 31
0.0
  0
SPLINE
  5
17F
330
1F
100
AcDbEntity
  8
0
  6
HIDDEN
 62
     7
370
     0
100
AcDbSpline
210
0.0
220
0.0
230
1.0
 70
     8
 71
     3
 72
    10
 73
     6
 74
     0
 42
0.00000001
 43
0.00000001
 12
1.0
 22
0.0
 32
0.0
 13
1.0
 23
0.0
 33
0.0
 40
0.0
 40
0.0
 40
0.0
 40
0.0
 40
0.5
 40
0.5
 40
1.0
 40
1.0
 40
1.0
 40
1.0
 10
160.7230633798694
 20
173.0395045672292
 30
0.0
 10
160.6252896534283
 20
172.8269932807422
 30
0.0
 10
160.5427712048733
 20
172.605261231515
 30
0.0
 10
160.4415424958372
 20
172.1434141028181
 30
0.0
 10
160.425271285647
 20
171.9108148423159
 30
0.0
 10
160.4334495032391
 20
171.6769784031115
 30
0.0
  0
LINE
  5
180
330
1F
100
AcDbEntity
  8
0
  6
HIDDEN
 62
     7
370
     0
100
AcDbLine
 10
160.4334495032
 20
171.6769784031
 30
0.0
 11
161.2747393461
 21
172.3582414852
 31
0.0
  0
LINE
  5
181
330
1F
100
AcDbEntity
  8
0
  6
HIDDEN
 62
     7
370
     0
100
AcDbLine
 10
161.2747393461
 20
172.3582414852
 30
0.0
 11
163.3747393461
 21
169.7649574564
 31
0.0
  0
SPLINE
  5
182
330
1F
100
AcDbEntity
  8
0
  6
HIDDEN
 62
     7
370
     0
100
AcDbSpline
210
0.0
220
0.0
230
1.0
 70
     8
 71
     3
 72
    10
 73
     6
 74
     0
 42
0.00000001
 43
0.00000001
 12
1.0
 22
0.0
 32
0.0
 13
1.0
 23
0.0
 33
0.0
 40
0.0
 40
0.0
 40
0.0
 40
0.0
 40
0.5
 40
0.5
 40
1.0
 40
1.0
 40
1.0
 40
1.0
 10
160.4334495032391
 20
171.6769784031115
 30
0.0
 10
160.4252378604938
 20
171.9117705540866
 30
0.0
 10
160.4429488467066
 20
172.1518956142294
 30
0.0
 10
160.5435186847395
 20
172.6065614698744
 30
0.0
 10
160.6248053246908
 20
172.8259405917736
 30
0.0
 10
160.7230633798698
 20
173.0395045672287
 30
0.0
  0
LINE
  5
183
330
1F
100
AcDbEntity
  8
0
  6
HIDDEN
 62
     7
370
     0
100
AcDbLine
 10
160.7230633799
 20
173.0395045672
 30
0.0
 11
161.2747393461
 21
172.3582414852
 31
0.0
  0
LINE
  5
184
330
1F
100
AcDbEntity
  8
0
  6
HIDDEN
 62
     7
370
     0
100
AcDbLine
 10
161.2747393461
 20
172.3582414852
 30
0.0
 11
160.4334495032
 21
171.6769784031
 31
0.0
  0
LINE
  5
185
330
1F
100
AcDbEntity
  8
0
  6
HIDDEN
 62
     7
370
     0
100
AcDbLine
 10
168.4016812594
 20
168.6964479677
 30
0.0
 11
167.1816677579
 21
173.2496003412
 31
0.0
  0
LINE
  5
186
330
1F
100
AcDbEntity
  8
0
  6
HIDDEN
 62
     7
370
     0
100
AcDbLine
 10
180.9106164651
 20
159.2741485874
 30
0.0
 11
183.391172369
 21
158.9695746199
 31
0.0
  0
LINE
  5
187
330
1F
100
AcDbEntity
  8
0
  6
HIDDEN
 62
     7
370
     0
100
AcDbLine
 10
180.376108601
 20
150.1144322167
 30
0.0
 11
183.5121567511
 21
147.3315878526
 31
0.0
  0
LINE
  5
188
330
1F
100
AcDbEntity
  8
0
  6
HIDDEN
 62
     7
370
     0
100
AcDbLine
 10
187.815228744
 20
155.4642899138
 30
0.0
 11
183.0275225911
 21
156.0521463115
 31
0.0
  0
LINE
  5
189
330
1F
100
AcDbEntity
  8
0
  6
HIDDEN
 62
     7
370
     0
100
AcDbLine
 10
183.6131686161
 20
158.9423169082
 30
0.0
 11
181.2296146492
 21
159.2349805354
 31
0.0
  0
LINE
  5
18A
330
1F
100
AcDbEntity
  8
0
  6
HIDDEN
 62
     7
370
     0
100
AcDbLine
 10
180.8713187797
 20
156.3168948497
 30
0.0
 11
182.8044149005
 21
156.0795404913
 31
0.0
  0
LINE
  5
18B
330
1F
100
AcDbEntity
  8
0
  6
HIDDEN
 62
     7
370
     0
100
AcDbLine
 10
183.9091993962
 20
158.9059688988
 30
0.0
 11
180.0774244743
 21
159.3764517001
 31
0.0
  0
LINE
  5
18C
330
1F
100
AcDbEntity
  8
0
  6
HIDDEN
 62
     7
370
     0
100
AcDbLine
 10
184.4819853102
 20
163.5709358117
 30
0.0
 11
180.6509353661
 21
164.0413295968
 31
0.0
  0
LINE
  5
18D
330
1F
100
AcDbEntity
  8
0
  6
HIDDEN
 62
     7
370
     0
100
AcDbLine
 10
198.4069448305
 20
154.1637907049
 30
0.0
 11
195.5637622056
 21
145.3159009235
 31
0.0
  0
LINE
  5
18E
330
1F
100
AcDbEntity
  8
0
  6
HIDDEN
 62
     7
370
     0
100
AcDbLine
 10
198.4069448305
 20
154.1637907049
 30
0.0
 11
190.278651725
 21
155.1618196047
 31
0.0
  0
LINE
  5
18F
330
1F
100
AcDbEntity
  8
0
  6
HIDDEN
 62
     7
370
     0
100
AcDbLine
 10
191.5479546421
 20
162.7033438699
 30
0.0
 11
181.8856208443
 21
163.8897292825
 31
0.0
  0
LINE
  5
190
330
1F
100
AcDbEntity
  8
0
  6
HIDDEN
 62
     7
370
     0
100
AcDbLine
 10
183.9091993962
 20
158.9059688988
 30
0.0
 11
180.4942579146
 21
159.3252709891
 31
0.0
  0
LINE
  5
191
330
1F
100
AcDbEntity
  8
0
  6
HIDDEN
 62
     7
370
     0
100
AcDbLine
 10
183.5509035266
 20
155.9878832131
 30
0.0
 11
180.1267642347
 21
156.4083146525
 31
0.0
  0
LINE
  5
192
330
1F
100
AcDbEntity
  8
0
  6
HIDDEN
 62
     7
370
     0
100
AcDbLine
 10
160.4334495032
 20
171.6769784031
 30
0.0
 11
160.7230633799
 21
173.0395045672
 31
0.0
  0
LINE
  5
193
330
1F
100
AcDbEntity
  8
0
  6
HIDDEN
 62
     7
370
     0
100
AcDbLine
 10
184.9043035796
 20
158.7837854686
 30
0.0
 11
185.4770894936
 21
163.4487523814
 31
0.0
  0
LINE
  5
194
330
1F
100
AcDbEntity
  8
0
  6
HIDDEN
 62
     7
370
     0
100
AcDbLine
 10
184.9043035796
 20
158.7837854686
 30
0.0
 11
185.290335504
 21
158.7363867083
 31
0.0
  0
LINE
  5
195
330
1F
100
AcDbEntity
  8
0
  6
HIDDEN
 62
     7
370
     0
100
AcDbLine
 10
184.9320396344
 20
155.8183010226
 30
0.0
 11
185.290335504
 21
158.7363867083
 31
0.0
  0
LINE
  5
196
330
1F
100
AcDbEntity
  8
0
  6
HIDDEN
 62
     7
370
     0
100
AcDbLine
 10
183.5509035266
 20
155.9878832131
 30
0.0
 11
184.9320396344
 21
155.8183010226
 31
0.0
  0
LINE
  5
197
330
1F
100
AcDbEntity
  8
0
  6
HIDDEN
 62
     7
370
     0
100
AcDbLine
 10
185.4770894936
 20
163.4487523814
 30
0.0
 11
184.4819853102
 21
163.5709358117
 31
0.0
  0
LINE
  5
198
330
1F
100
AcDbEntity
  8
0
  6
HIDDEN
 62
     7
370
     0
100
AcDbLine
 10
185.290335504
 20
158.7363867083
 30
0.0
 11
190.9156523053
 21
158.0456846549
 31
0.0
  0
LINE
  5
199
330
1F
100
AcDbEntity
  8
0
  6
HIDDEN
 62
     7
370
     0
100
AcDbLine
 10
190.9156523053
 20
158.0456846549
 30
0.0
 11
190.278651725
 21
155.1618196047
 31
0.0
  0
LINE
  5
19A
330
1F
100
AcDbEntity
  8
0
  6
HIDDEN
 62
     7
370
     0
100
AcDbLine
 10
190.278651725
 20
155.1618196047
 30
0.0
 11
184.9320396344
 21
155.8183010226
 31
0.0
  0
LINE
  5
19B
330
1F
100
AcDbEntity
  8
0
  6
HIDDEN
 62
     7
370
     0
100
AcDbLine
 10
190.529620381
 20
158.0930834152
 30
0.0
 11
190.9156523053
 21
158.0456846549
 31
0.0
  0
LINE
  5
19C
330
1F
100
AcDbEntity
  8
0
  6
HIDDEN
 62
     7
370
     0
100
AcDbLine
 10
190.529620381
 20
158.0930834152
 30
0.0
 11
184.9043035796
 21
158.7837854686
 31
0.0
  0
LINE
  5
19D
330
1F
100
AcDbEntity
  8
0
  6
HIDDEN
 62
     7
370
     0
100
AcDbLine
 10
191.5479546421
 20
162.7033438699
 30
0.0
 11
190.529620381
 21
158.0930834152
 31
0.0
  0
LINE
  5
19E
330
1F
100
AcDbEntity
  8
0
  6
HIDDEN
 62
     7
370
     0
100
AcDbLine
 10
191.5479546421
 20
162.7033438699
 30
0.0
 11
185.4770894936
 21
163.4487523814
 31
0.0
  0
LINE
  5
19F
330
1F
100
AcDbEntity
  8
0
  6
HIDDEN
 62
     7
370
     0
100
AcDbLine
 10
102.3247393461
 20
165.8362978286
 30
0.0
 11
102.3247393461
 21
167.9486966727
 31
0.0
  0
LINE
  5
1A0
330
1F
100
AcDbEntity
  8
0
  6
HIDDEN
 62
     7
370
     0
100
AcDbLine
 10
101.3747393461
 20
166.7862978286
 30
0.0
 11
102.3247393461
 21
165.8362978286
 31
0.0
  0
LINE
  5
1A1
330
1F
100
AcDbEntity
  8
0
  6
HIDDEN
 62
     7
370
     0
100
AcDbLine
 10
101.3747393461
 20
166.7862978286
 30
0.0
 11
101.3747393461
 21
168.0343765619
 31
0.0
  0
LINE
  5
1A2
330
1F
100
AcDbEntity
  8
0
  6
HIDDEN
 62
     7
370
     0
100
AcDbLine
 10
102.3247393461
 20
157.7862978286
 30
0.0
 11
102.3247393461
 21
155.6738989845
 31
0.0
  0
LINE
  5
1A3
330
1F
100
AcDbEntity
  8
0
  6
HIDDEN
 62
     7
370
     0
100
AcDbLine
 10
101.3747393461
 20
156.8362978286
 30
0.0
 11
102.3247393461
 21
157.7862978286
 31
0.0
  0
LINE
  5
1A4
330
1F
100
AcDbEntity
  8
0
  6
HIDDEN
 62
     7
370
     0
100
AcDbLine
 10
101.3747393461
 20
156.8362978286
 30
0.0
 11
101.3747393461
 21
155.5882190953
 31
0.0
  0
LINE
  5
1A5
330
1F
100
AcDbEntity
  8
0
  6
HIDDEN
 62
     7
370
     0
100
AcDbLine
 10
104.9747393461
 20
164.9362978286
 30
0.0
 11
104.9747393461
 21
166.6265866895
 31
0.0
  0
ARC
  5
1A6
330
1F
100
AcDbEntity
  8
0
  6
HIDDEN
 62
     7
370
     0
100
AcDbCircle
 10
104.0747393461
 20
164.9362978286
 30
0.0
 40
0.900000000000091
100
AcDbArc
 50
0.0
 51
90.0
  0
LINE
  5
1A7
330
1F
100
AcDbEntity
  8
0
  6
HIDDEN
 62
     7
370
     0
100
AcDbLine
 10
104.9747393461
 20
158.6862978286
 30
0.0
 11
104.9747393461
 21
156.9960089677
 31
0.0
  0
ARC
  5
1A8
330
1F
100
AcDbEntity
  8
0
  6
HIDDEN
 62
     7
370
     0
100
AcDbCircle
 10
104.0747393461
 20
158.6862978286
 30
0.0
 40
0.9000000000000483
100
AcDbArc
 50
270.0
 51
0.0
  0
LINE
  5
1A9
330
1F
100
AcDbEntity
  8
0
  6
HIDDEN
 62
     7
370
     0
100
AcDbLine
 10
101.3747393461
 20
168.0343765619
 30
0.0
 11
101.3747393461
 21
168.2972625451
 31
0.0
  0
LINE
  5
1AA
330
1F
100
AcDbEntity
  8
0
  6
HIDDEN
 62
     7
370
     0
100
AcDbLine
 10
101.3747393461
 20
155.5882190953
 30
0.0
 11
101.3747393461
 21
155.3253331121
 31
0.0
  0
LINE
  5
1AB
330
1F
100
AcDbEntity
  8
0
  6
HIDDEN
 62
     7
370
     0
100
AcDbLine
 10
133.7184098208
 20
173.6612978286
 30
0.0
 11
141.5538630578
 21
173.6612978286
 31
0.0
  0
ARC
  5
1AC
330
1F
100
AcDbEntity
  8
0
  6
HIDDEN
 62
     7
370
     0
100
AcDbCircle
 10
133.7184098208
 20
178.1612978286
 30
0.0
 40
4.499999999999943
100
AcDbArc
 50
183.0392600505
 51
270.0
  0
LINE
  5
1AD
330
1F
100
AcDbEntity
  8
0
  6
HIDDEN
 62
     7
370
     0
100
AcDbLine
 10
136.2347393461
 20
175.7253857281
 30
0.0
 11
136.2347393461
 21
175.3271450089
 31
0.0
  0
LINE
  5
1AE
330
1F
100
AcDbEntity
  8
0
  6
HIDDEN
 62
     7
370
     0
100
AcDbLine
 10
138.3147393461
 20
175.3271450089
 30
0.0
 11
138.3147393461
 21
175.7253857281
 31
0.0
  0
LINE
  5
1AF
330
1F
100
AcDbEntity
  8
0
  6
HIDDEN
 62
     7
370
     0
100
AcDbLine
 10
141.2247393461
 20
177.1715549879
 30
0.0
 11
141.2247393461
 21
174.6887005171
 31
0.0
  0
SPLINE
  5
1B0
330
1F
100
AcDbEntity
  8
0
  6
HIDDEN
 62
     7
370
     0
100
AcDbSpline
210
0.0
220
0.0
230
1.0
 70
    24
 71
     3
 72
    10
 73
     6
 74
     0
 42
0.00000001
 43
0.00000001
 12
1.0
 22
0.0
 32
0.0
 13
1.0
 23
0.0
 33
0.0
 40
0.0
 40
0.0
 40
0.0
 40
0.0
 40
0.5
 40
0.5
 40
1.0
 40
1.0
 40
1.0
 40
1.0
 10
136.4830837318758
 20
166.3112978286394
 30
0.0
 10
136.4057590000015
 20
166.3112978286394
 30
0.0
 10
136.342379174465
 20
166.3112978286394
 30
0.0
 10
136.256808725692
 20
166.3112978286394
 30
0.0
 10
136.2347393461258
 20
166.3112978286394
 30
0.0
 10
136.2347393461258
 20
166.3112978286394
 30
0.0
  0
SPLINE
  5
1B1
330
1F
100
AcDbEntity
  8
0
  6
HIDDEN
 62
     7
370
     0
100
AcDbSpline
210
0.0
220
0.0
230
1.0
 70
     8
 71
     3
 72
    12
 73
     8
 74
     0
 42
0.00000001
 43
0.00000001
 12
1.0
 22
0.0
 32
0.0
 13
1.0
 23
0.0
 33
0.0
 40
0.0
 40
0.0
 40
0.0
 40
0.0
 40
0.2499999999999989
 40
0.2499999999999989
 40
0.4999999999999978
 40
0.4999999999999978
 40
1.0
 40
1.0
 40
1.0
 40
1.0
 10
136.8347393461256
 20
165.846223478512
 30
0.0
 10
136.7834501010892
 20
165.8462234785121
 30
0.0
 10
136.7362620754176
 20
165.8762033019847
 30
0.0
 10
136.6632458667226
 20
165.9477005475811
 30
0.0
 10
136.6337542591829
 20
165.9903128095362
 30
0.0
 10
136.5561722200885
 20
166.1210182760729
 30
0.0
 10
136.5170109073731
 20
166.2159200927522
 30
0.0
 10
136.483083731875
 20
166.3112978286392
 30
0.0
  0
LINE
  5
1B2
330
1F
100
AcDbEntity
  8
0
  6
HIDDEN
 62
     7
370
     0
100
AcDbLine
 10
136.2347393461
 20
173.6612978286
 30
0.0
 11
136.2347393461
 21
166.3112978286
 31
0.0
  0
SPLINE
  5
1B3
330
1F
100
AcDbEntity
  8
0
  6
HIDDEN
 62
     7
370
     0
100
AcDbSpline
210
0.0
220
0.0
230
1.0
 70
    24
 71
     3
 72
    12
 73
     8
 74
     0
 42
0.00000001
 43
0.00000001
 12
1.0
 22
0.0
 32
0.0
 13
1.0
 23
0.0
 33
0.0
 40
0.0
 40
0.0
 40
0.0
 40
0.0
 40
0.4999999999999987
 40
0.4999999999999987
 40
0.7499999999999993
 40
0.7499999999999993
 40
1.0
 40
1.0
 40
1.0
 40
1.0
 10
136.2347393461258
 20
173.6612978286394
 30
0.0
 10
136.2347393461258
 20
173.6612978286394
 30
0.0
 10
136.2815820405783
 20
173.6612978286394
 30
0.0
 10
136.4311340632749
 20
173.6612978286394
 30
0.0
 10
136.495239058579
 20
173.6612978286394
 30
0.0
 10
136.6494680138857
 20
173.6612978286394
 30
0.0
 10
136.7421445218187
 20
173.6612978286394
 30
0.0
 10
136.8347393461254
 20
173.6612978286394
 30
0.0
  0
SPLINE
  5
1B4
330
1F
100
AcDbEntity
  8
0
  6
HIDDEN
 62
     7
370
     0
100
AcDbSpline
210
0.0
220
0.0
230
1.0
 70
     8
 71
     3
 72
    12
 73
     8
 74
     0
 42
0.00000001
 43
0.00000001
 12
1.0
 22
0.0
 32
0.0
 13
1.0
 23
0.0
 33
0.0
 40
0.0
 40
0.0
 40
0.0
 40
0.0
 40
0.4999999999999974
 40
0.4999999999999974
 40
0.7499999999999987
 40
0.7499999999999987
 40
1.0
 40
1.0
 40
1.0
 40
1.0
 10
138.0663949603767
 20
166.3112978286415
 30
0.0
 10
138.0322249990261
 20
166.2152375612863
 30
0.0
 10
137.9929748579746
 20
166.1202062769273
 30
0.0
 10
137.9149748474616
 20
165.989178854663
 30
0.0
 10
137.8855719190607
 20
165.9468586113254
 30
0.0
 10
137.8124273249122
 20
165.875629109151
 30
0.0
 10
137.7657973469443
 20
165.8462234785121
 30
0.0
 10
137.7147393461258
 20
165.8462234785121
 30
0.0
  0
SPLINE
  5
1B5
330
1F
100
AcDbEntity
  8
0
  6
HIDDEN
 62
     7
370
     0
100
AcDbSpline
210
0.0
220
0.0
230
1.0
 70
    24
 71
     3
 72
    10
 73
     6
 74
     0
 42
0.00000001
 43
0.00000001
 12
1.0
 22
0.0
 32
0.0
 13
1.0
 23
0.0
 33
0.0
 40
0.0
 40
0.0
 40
0.0
 40
0.0
 40
0.5
 40
0.5
 40
1.0
 40
1.0
 40
1.0
 40
1.0
 10
138.3147393461258
 20
166.3112978286394
 30
0.0
 10
138.3147393461257
 20
166.3112978286394
 30
0.0
 10
138.2927987235447
 20
166.3112978286394
 30
0.0
 10
138.2066685381545
 20
166.3112978286394
 30
0.0
 10
138.1435862310121
 20
166.3112978286394
 30
0.0
 10
138.0663949603805
 20
166.3112978286394
 30
0.0
  0
LINE
  5
1B6
330
1F
100
AcDbEntity
  8
0
  6
HIDDEN
 62
     7
370
     0
100
AcDbLine
 10
138.3147393461
 20
173.6612978286
 30
0.0
 11
138.3147393461
 21
166.3112978286
 31
0.0
  0
SPLINE
  5
1B7
330
1F
100
AcDbEntity
  8
0
  6
HIDDEN
 62
     7
370
     0
100
AcDbSpline
210
0.0
220
0.0
230
1.0
 70
    24
 71
     3
 72
    12
 73
     8
 74
     0
 42
0.00000001
 43
0.00000001
 12
1.0
 22
0.0
 32
0.0
 13
1.0
 23
0.0
 33
0.0
 40
0.0
 40
0.0
 40
0.0
 40
0.0
 40
0.249999999999999
 40
0.249999999999999
 40
0.499999999999998
 40
0.499999999999998
 40
1.0
 40
1.0
 40
1.0
 40
1.0
 10
137.7147393461258
 20
173.6612978286394
 30
0.0
 10
137.8079903644589
 20
173.6612978286394
 30
0.0
 10
137.8994960732848
 20
173.6612978286394
 30
0.0
 10
138.0544196078199
 20
173.6612978286394
 30
0.0
 10
138.1180144257622
 20
173.6612978286394
 30
0.0
 10
138.2685733824453
 20
173.6612978286394
 30
0.0
 10
138.3147393461258
 20
173.6612978286394
 30
0.0
 10
138.3147393461258
 20
173.6612978286394
 30
0.0
  0
LINE
  5
1B8
330
1F
100
AcDbEntity
  8
0
  6
HIDDEN
 62
     7
370
     0
100
AcDbLine
 10
136.8347393461
 20
173.6612978286
 30
0.0
 11
137.7147393461
 21
173.6612978286
 31
0.0
  0
LINE
  5
1B9
330
1F
100
AcDbEntity
  8
0
  6
HIDDEN
 62
     7
370
     0
100
AcDbLine
 10
138.3147393461
 20
173.6612978286
 30
0.0
 11
138.3147393461
 21
166.3112978286
 31
0.0
  0
SPLINE
  5
1BA
330
1F
100
AcDbEntity
  8
0
  6
HIDDEN
 62
     7
370
     0
100
AcDbSpline
210
0.0
220
0.0
230
1.0
 70
    24
 71
     3
 72
     8
 73
     4
 74
     0
 42
0.00000001
 43
0.00000001
 12
1.0
 22
0.0
 32
0.0
 13
1.0
 23
0.0
 33
0.0
 40
0.0
 40
0.0
 40
0.0
 40
0.0
 40
1.0
 40
1.0
 40
1.0
 40
1.0
 10
138.3147393461259
 20
173.6612978286394
 30
0.0
 10
138.6382969043808
 20
173.6612978286394
 30
0.0
 10
138.9707912245977
 20
173.6612978286394
 30
0.0
 10
139.3098990450193
 20
173.6612978286394
 30
0.0
  0
LINE
  5
1BB
330
1F
100
AcDbEntity
  8
0
  6
HIDDEN
 62
     7
370
     0
100
AcDbLine
 10
136.2347393461
 20
173.6612978286
 30
0.0
 11
136.2347393461
 21
166.3112978286
 31
0.0
  0
SPLINE
  5
1BC
330
1F
100
AcDbEntity
  8
0
  6
HIDDEN
 62
     7
370
     0
100
AcDbSpline
210
0.0
220
0.0
230
1.0
 70
    24
 71
     3
 72
     8
 73
     4
 74
     0
 42
0.00000001
 43
0.00000001
 12
1.0
 22
0.0
 32
0.0
 13
1.0
 23
0.0
 33
0.0
 40
0.0
 40
0.0
 40
0.0
 40
0.0
 40
1.0
 40
1.0
 40
1.0
 40
1.0
 10
135.2395796472324
 20
173.6612978286394
 30
0.0
 10
135.579002688514
 20
173.6612978286394
 30
0.0
 10
135.9115134320091
 20
173.6612978286394
 30
0.0
 10
136.2347393461258
 20
173.6612978286394
 30
0.0
  0
SPLINE
  5
1BD
330
1F
100
AcDbEntity
  8
0
  6
HIDDEN
 62
     7
370
     0
100
AcDbSpline
210
0.0
220
0.0
230
1.0
 70
     8
 71
     3
 72
    35
 73
    31
 74
     0
 42
0.00000001
 43
0.00000001
 12
1.0
 22
0.0
 32
0.0
 13
1.0
 23
0.0
 33
0.0
 40
-0.1243198177516923
 40
-0.101487746967115
 40
-0.0608367563997197
 40
0.0
 40
0.0343712166268749
 40
0.0666387492012047
 40
0.096823304326627
 40
0.1249505753809244
 40
0.1526662634923842
 40
0.1874715367338381
 40
0.2288808094544187
 40
0.2500284990771642
 40
0.3139875781742855
 40
0.3744836764366178
 40
0.4023317405676768
 40
0.4371113310320512
 40
0.4795885132847881
 40
0.4997903583980489
 40
0.5479907218508538
 40
0.592988434225207
 40
0.6398023656137183
 40
0.6945155365638868
 40
0.7285101556289549
 40
0.7625224506971789
 40
0.7965528224366062
 40
0.8145532956156806
 40
0.8337228321526371
 40
0.8540904280753812
 40
0.8756801822483077
 40
0.898512253032885
 40
0.9391632436002803
 40
1.0
 40
1.034371216626875
 40
1.066638749201205
 40
1.096823304326627
 10
113.8740540320438
 20
159.9364913681214
 30
0.0
 10
113.4026279755588
 20
160.4148494902191
 30
0.0
 10
113.118734272024
 20
160.9631380933247
 30
0.0
 10
112.993783036084
 20
161.4162393879728
 30
0.0
 10
112.9621710766219
 20
161.8546313315606
 30
0.0
 10
113.0086579141097
 20
162.2691966080573
 30
0.0
 10
113.1331185369176
 20
162.690048559593
 30
0.0
 10
113.3674682559447
 20
163.1361513259786
 30
0.0
 10
113.6817614715642
 20
163.4914262845689
 30
0.0
 10
114.1666871534124
 20
163.8606736395278
 30
0.0
 10
114.8386416374391
 20
164.131824363829
 30
0.0
 10
115.5919189802224
 20
164.1204032313324
 30
0.0
 10
116.1584030272404
 20
163.9506123065247
 30
0.0
 10
116.604996514311
 20
163.7150555561558
 30
0.0
 10
116.9563843370751
 20
163.4025140653653
 30
0.0
 10
117.2762762644988
 20
162.9812023478605
 30
0.0
 10
117.5103457269147
 20
162.4798732163309
 30
0.0
 10
117.6071102084075
 20
161.8025692045737
 30
0.0
 10
117.5016441855174
 20
161.0933790919197
 30
0.0
 10
117.2022106485879
 20
160.5020532209128
 30
0.0
 10
116.8027648260827
 20
160.0692841521391
 30
0.0
 10
116.4019994621946
 20
159.7866550901875
 30
0.0
 10
116.0220507927639
 20
159.6251153332387
 30
0.0
 10
115.6910651099083
 20
159.5440237784139
 30
0.0
 10
115.4159811510648
 20
159.5097027085943
 30
0.0
 10
115.1207464916497
 20
159.5097542241398
 30
0.0
 10
114.8100118707585
 20
159.5510630644406
 30
0.0
 10
114.4134293470489
 20
159.6617236464139
 30
0.0
 10
113.8740540320438
 20
159.9364913681214
 30
0.0
 10
113.4026279755588
 20
160.4148494902191
 30
0.0
 10
113.118734272024
 20
160.9631380933247
 30
0.0
  0
SPLINE
  5
1BE
330
1F
100
AcDbEntity
  8
0
  6
HIDDEN
 62
     7
370
     0
100
AcDbSpline
210
0.0
220
0.0
230
1.0
 70
    24
 71
     3
 72
    10
 73
     6
 74
     0
 42
0.00000001
 43
0.00000001
 12
1.0
 22
0.0
 32
0.0
 13
1.0
 23
0.0
 33
0.0
 40
0.0
 40
0.0
 40
0.0
 40
0.0
 40
0.5
 40
0.5
 40
1.0
 40
1.0
 40
1.0
 40
1.0
 10
141.2247393461259
 20
166.3112978286394
 30
0.0
 10
141.2247393461259
 20
166.3112978286394
 30
0.0
 10
141.1625781296429
 20
166.3112978286394
 30
0.0
 10
140.9420687889713
 20
166.3112978286394
 30
0.0
 10
140.7831536860261
 20
166.3112978286394
 30
0.0
 10
140.6247393461258
 20
166.3112978286394
 30
0.0
  0
LINE
  5
1BF
330
1F
100
AcDbEntity
  8
0
  6
HIDDEN
 62
     7
370
     0
100
AcDbLine
 10
141.2247393461
 20
173.6612978286
 30
0.0
 11
141.2247393461
 21
166.3112978286
 31
0.0
  0
SPLINE
  5
1C0
330
1F
100
AcDbEntity
  8
0
  6
HIDDEN
 62
     7
370
     0
100
AcDbSpline
210
0.0
220
0.0
230
1.0
 70
    24
 71
     3
 72
    12
 73
     8
 74
     0
 42
0.00000001
 43
0.00000001
 12
1.0
 22
0.0
 32
0.0
 13
1.0
 23
0.0
 33
0.0
 40
0.0
 40
0.0
 40
0.0
 40
0.0
 40
0.250000000000002
 40
0.250000000000002
 40
0.500000000000004
 40
0.500000000000004
 40
1.0
 40
1.0
 40
1.0
 40
1.0
 10
140.6247393461258
 20
173.6612978286394
 30
0.0
 10
140.7140277051695
 20
173.6612978286394
 30
0.0
 10
140.8020865360717
 20
173.6612978286394
 30
0.0
 10
140.9547402493209
 20
173.6612978286394
 30
0.0
 10
141.0205337426629
 20
173.6612978286394
 30
0.0
 10
141.175974389379
 20
173.6612978286394
 30
0.0
 10
141.2247393461258
 20
173.6612978286394
 30
0.0
 10
141.2247393461259
 20
173.6612978286394
 30
0.0
  0
LINE
  5
1C1
330
1F
100
AcDbEntity
  8
0
  6
HIDDEN
 62
     7
370
     0
100
AcDbLine
 10
139.309899045
 20
173.6612978286
 30
0.0
 11
139.309899045
 21
166.3112978286
 31
0.0
  0
LINE
  5
1C2
330
1F
100
AcDbEntity
  8
0
  6
HIDDEN
 62
     7
370
     0
100
AcDbLine
 10
139.309899045
 20
173.6612978286
 30
0.0
 11
140.6247393461
 21
173.6612978286
 31
0.0
  0
LINE
  5
1C3
330
1F
100
AcDbEntity
  8
0
  6
HIDDEN
 62
     7
370
     0
100
AcDbLine
 10
137.7147393461
 20
165.8462234785
 30
0.0
 11
136.8347393461
 21
165.8462234785
 31
0.0
  0
LINE
  5
1C4
330
1F
100
AcDbEntity
  8
0
  6
HIDDEN
 62
     7
370
     0
100
AcDbLine
 10
141.2248014692
 20
166.3112978286
 30
0.0
 11
138.0663949604
 21
166.3112978286
 31
0.0
  0
LINE
  5
1C5
330
1F
100
AcDbEntity
  8
0
  6
HIDDEN
 62
     7
370
     0
100
AcDbLine
 10
140.6247393461
 20
166.3112978286
 30
0.0
 11
139.309899045
 21
166.3112978286
 31
0.0
  0
SPLINE
  5
1C6
330
1F
100
AcDbEntity
  8
0
  6
HIDDEN
 62
     7
370
     0
100
AcDbSpline
210
0.0
220
0.0
230
1.0
 70
    24
 71
     3
 72
     8
 73
     4
 74
     0
 42
0.00000001
 43
0.00000001
 12
1.0
 22
0.0
 32
0.0
 13
1.0
 23
0.0
 33
0.0
 40
0.0
 40
0.0
 40
0.0
 40
0.0
 40
1.0
 40
1.0
 40
1.0
 40
1.0
 10
139.3098990450193
 20
166.3112978286394
 30
0.0
 10
138.9775409486296
 20
166.3112978286394
 30
0.0
 10
138.6457596771455
 20
166.3112978286394
 30
0.0
 10
138.3147393461258
 20
166.3112978286394
 30
0.0
  0
LINE
  5
1C7
330
1F
100
AcDbEntity
  8
0
  6
HIDDEN
 62
     7
370
     0
100
AcDbLine
 10
136.4830837319
 20
166.3112978286
 30
0.0
 11
133.7247393461
 21
166.3112978286
 31
0.0
  0
SPLINE
  5
1C8
330
1F
100
AcDbEntity
  8
0
  6
HIDDEN
 62
     7
370
     0
100
AcDbSpline
210
0.0
220
0.0
230
1.0
 70
    24
 71
     3
 72
     8
 73
     4
 74
     0
 42
0.00000001
 43
0.00000001
 12
1.0
 22
0.0
 32
0.0
 13
1.0
 23
0.0
 33
0.0
 40
0.0
 40
0.0
 40
0.0
 40
0.0
 40
1.0
 40
1.0
 40
1.0
 40
1.0
 10
136.2347393461258
 20
166.3112978286394
 30
0.0
 10
135.9037190151062
 20
166.3112978286394
 30
0.0
 10
135.571937743622
 20
166.3112978286394
 30
0.0
 10
135.2395796472324
 20
166.3112978286394
 30
0.0
  0
ARC
  5
1C9
330
1F
100
AcDbEntity
  8
0
  6
HIDDEN
 62
     7
370
     0
100
AcDbCircle
 10
133.7247393461
 20
161.8112978286
 30
0.0
 40
4.499999999999972
100
AcDbArc
 50
90.0
 51
270.0
  0
LINE
  5
1CA
330
1F
100
AcDbEntity
  8
0
  6
HIDDEN
 62
     7
370
     0
100
AcDbLine
 10
133.7247393461
 20
157.3112978286
 30
0.0
 11
136.4830837319
 21
157.3112978286
 31
0.0
  0
LINE
  5
1CB
330
1F
100
AcDbEntity
  8
0
  6
HIDDEN
 62
     7
370
     0
100
AcDbLine
 10
138.0663949604
 20
157.3112978286
 30
0.0
 11
141.2248014692
 21
157.3112978286
 31
0.0
  0
LINE
  5
1CC
330
1F
100
AcDbEntity
  8
0
  6
HIDDEN
 62
     7
370
     0
100
AcDbLine
 10
121.2747393461
 20
145.6040971436
 30
0.0
 11
121.3689001217
 21
146.2740858748
 31
0.0
  0
LINE
  5
1CD
330
1F
100
AcDbEntity
  8
0
  6
HIDDEN
 62
     7
370
     0
100
AcDbLine
 10
121.3689001217
 20
177.3485097825
 30
0.0
 11
121.2747393461
 21
178.0184985137
 31
0.0
  0
ARC
  5
1CE
330
1F
100
AcDbEntity
  8
0
  6
HIDDEN
 62
     7
370
     0
100
AcDbCircle
 10
120.7747325935
 20
146.3575906752
 30
0.0
 40
0.60000675266771
100
AcDbArc
 50
352.0
 51
0.0
  0
ARC
  5
1CF
330
1F
100
AcDbEntity
  8
0
  6
HIDDEN
 62
     7
370
     0
100
AcDbCircle
 10
120.7747325935
 20
146.3575906752
 30
0.0
 40
0.6000067526677164
100
AcDbArc
 50
0.0
 51
33.5571153394
  0
ARC
  5
1D0
330
1F
100
AcDbEntity
  8
0
  6
HIDDEN
 62
     7
370
     0
100
AcDbCircle
 10
120.7747325935
 20
177.2650049821
 30
0.0
 40
0.6000067526677308
100
AcDbArc
 50
348.75
 51
8.0
  0
LWPOLYLINE
  5
1D1
330
1F
100
AcDbEntity
  8
0
  6
HIDDEN
 62
     7
370
     0
100
AcDbPolyline
 90
        3
 70
   128
 43
0.0
 10
121.3632103846
 20
177.1479494715
 10
121.3290665516
 20
177.0353923386
 10
121.2747393461
 20
176.9333404671
  0
LINE
  5
1D2
330
1F
100
AcDbEntity
  8
0
  6
HIDDEN
 62
     7
370
     0
100
AcDbLine
 10
121.3747393461
 20
146.3575906752
 30
0.0
 11
121.3747393461
 21
177.2650049821
 31
0.0
  0
LINE
  5
1D3
330
1F
100
AcDbEntity
  8
0
  6
HIDDEN
 62
     7
370
     0
100
AcDbLine
 10
121.3747393461
 20
146.3575906752
 30
0.0
 11
121.3747393461
 21
177.2650049821
 31
0.0
  0
ARC
  5
1D4
330
1F
100
AcDbEntity
  8
0
  6
HIDDEN
 62
     7
370
     0
100
AcDbCircle
 10
117.098916074
 20
154.0612978286
 30
0.0
 40
5.0
100
AcDbArc
 50
270.0
 51
326.6329870308
  0
ARC
  5
1D5
330
1F
100
AcDbEntity
  8
0
  6
HIDDEN
 62
     7
370
     0
100
AcDbCircle
 10
117.098916074
 20
169.5612978286
 30
0.0
 40
5.000000000000021
100
AcDbArc
 50
33.3670129692
 51
90.0
  0
LINE
  5
1D6
330
1F
100
AcDbEntity
  8
0
  6
HIDDEN
 62
     7
370
     0
100
AcDbLine
 10
110.8073672903
 20
149.0612978286
 30
0.0
 11
117.098916074
 21
149.0612978286
 31
0.0
  0
LINE
  5
1D7
330
1F
100
AcDbEntity
  8
0
  6
HIDDEN
 62
     7
370
     0
100
AcDbLine
 10
117.098916074
 20
174.5612978286
 30
0.0
 11
110.8073672903
 21
174.5612978286
 31
0.0
  0
ARC
  5
1D8
330
1F
100
AcDbEntity
  8
0
  6
HIDDEN
 62
     7
370
     0
100
AcDbCircle
 10
110.8073672903
 20
149.4612978286
 30
0.0
 40
0.4000000000000334
100
AcDbArc
 50
210.0
 51
270.0
  0
ARC
  5
1D9
330
1F
100
AcDbEntity
  8
0
  6
HIDDEN
 62
     7
370
     0
100
AcDbCircle
 10
110.8073672903
 20
174.1612978286
 30
0.0
 40
0.4000000000000057
100
AcDbArc
 50
90.0
 51
150.0
  0
LINE
  5
1DA
330
1F
100
AcDbEntity
  8
0
  6
HIDDEN
 62
     7
370
     0
100
AcDbLine
 10
110.4609571288
 20
174.3612978286
 30
0.0
 11
109.2773890769
 21
172.3112978286
 31
0.0
  0
LINE
  5
1DB
330
1F
100
AcDbEntity
  8
0
  6
HIDDEN
 62
     7
370
     0
100
AcDbLine
 10
109.2773890769
 20
151.3112978286
 30
0.0
 11
110.4609571288
 21
149.2612978286
 31
0.0
  0
ARC
  5
1DC
330
1F
100
AcDbEntity
  8
0
  6
HIDDEN
 62
     7
370
     0
100
AcDbCircle
 10
128.2247393461
 20
151.9362978286
 30
0.0
 40
1.000000000000028
100
AcDbArc
 50
218.6821874535
 51
0.0
  0
ARC
  5
1DD
330
1F
100
AcDbEntity
  8
0
  6
HIDDEN
 62
     7
370
     0
100
AcDbCircle
 10
128.2247393461
 20
171.6862978286
 30
0.0
 40
1.0
100
AcDbArc
 50
0.0
 51
141.3178125465
  0
LINE
  5
1DE
330
1F
100
AcDbEntity
  8
0
  6
HIDDEN
 62
     7
370
     0
100
AcDbLine
 10
121.2747393461
 20
151.3112978286
 30
0.0
 11
127.4441145963
 21
151.3112978286
 31
0.0
  0
LINE
  5
1DF
330
1F
100
AcDbEntity
  8
0
  6
HIDDEN
 62
     7
370
     0
100
AcDbLine
 10
127.4441145963
 20
172.3112978286
 30
0.0
 11
121.2747393461
 21
172.3112978286
 31
0.0
  0
LINE
  5
1E0
330
1F
100
AcDbEntity
  8
0
  6
HIDDEN
 62
     7
370
     0
100
AcDbLine
 10
102.3247393461
 20
151.3112978286
 30
0.0
 11
109.2773890769
 21
151.3112978286
 31
0.0
  0
LINE
  5
1E1
330
1F
100
AcDbEntity
  8
0
  6
HIDDEN
 62
     7
370
     0
100
AcDbLine
 10
109.2773890769
 20
172.3112978286
 30
0.0
 11
102.3247393461
 21
172.3112978286
 31
0.0
  0
LINE
  5
1E2
330
1F
100
AcDbEntity
  8
0
  6
HIDDEN
 62
     7
370
     0
100
AcDbLine
 10
175.2995251016
 20
159.6608510291
 30
0.0
 11
173.6495954516
 21
146.2232523775
 31
0.0
  0
LINE
  5
1E3
330
1F
100
AcDbEntity
  8
0
  6
HIDDEN
 62
     7
370
     0
100
AcDbLine
 10
183.3933135194
 20
156.6531918142
 30
0.0
 11
183.6369127754
 21
158.6371485445
 31
0.0
  0
LINE
  5
1E4
330
1F
100
AcDbEntity
  8
0
  6
HIDDEN
 62
     7
370
     0
100
AcDbLine
 10
182.1127301848
 20
146.2236775074
 30
0.0
 11
182.5247007567
 21
149.578908563
 31
0.0
  0
LINE
  5
1E5
330
1F
100
AcDbEntity
  8
0
  6
HIDDEN
 62
     7
370
     0
100
AcDbLine
 10
101.3747393461
 20
150.7628150729
 30
0.0
 11
102.3247393461
 21
151.3112978286
 31
0.0
  0
LINE
  5
1E6
330
1F
100
AcDbEntity
  8
0
  6
HIDDEN
 62
     7
370
     0
100
AcDbLine
 10
102.3247393461
 20
172.3112978286
 30
0.0
 11
101.3747393461
 21
172.8597805844
 31
0.0
  0
LINE
  5
1E7
330
1F
100
AcDbEntity
  8
0
  6
HIDDEN
 62
     7
370
     0
100
AcDbLine
 10
183.6369127754
 20
158.6371485445
 30
0.0
 11
182.9933890116
 21
159.1399244114
 31
0.0
  0
LINE
  5
1E8
330
1F
100
AcDbEntity
  8
0
  6
HIDDEN
 62
     7
370
     0
100
AcDbLine
 10
176.0455659501
 20
159.9930098153
 30
0.0
 11
175.2995251016
 21
159.6608510291
 31
0.0
  0
LINE
  5
1E9
330
1F
100
AcDbEntity
  8
0
  6
HIDDEN
 62
     7
370
     0
100
AcDbLine
 10
176.107381049
 20
164.5992079186
 30
0.0
 11
176.5427194531
 21
164.0420001711
 31
0.0
  0
LINE
  5
1EA
330
1F
100
AcDbEntity
  8
0
  6
HIDDEN
 62
     7
370
     0
100
AcDbLine
 10
183.4905425146
 20
163.1889147672
 30
0.0
 11
184.0477502621
 21
163.6242531714
 31
0.0
  0
LINE
  5
1EB
330
1F
100
AcDbEntity
  8
0
  6
HIDDEN
 62
     7
370
     0
100
AcDbLine
 10
176.5427194531
 20
164.0420001711
 30
0.0
 11
176.0455659501
 21
159.9930098153
 31
0.0
  0
LINE
  5
1EC
330
1F
100
AcDbEntity
  8
0
  6
HIDDEN
 62
     7
370
     0
100
AcDbLine
 10
182.9933890116
 20
159.1399244114
 30
0.0
 11
183.4905425146
 21
163.1889147672
 31
0.0
  0
LINE
  5
1ED
330
1F
100
AcDbEntity
  8
0
  6
HIDDEN
 62
     7
370
     0
100
AcDbLine
 10
184.1472784168
 20
160.2199316889
 30
0.0
 11
182.7094309275
 21
158.2784877529
 31
0.0
  0
LINE
  5
1EE
330
1F
100
AcDbEntity
  8
0
  6
HIDDEN
 62
     7
370
     0
100
AcDbLine
 10
134.5747393461
 20
155.5612978286
 30
0.0
 11
137.0747393461
 21
155.5612978286
 31
0.0
  0
LINE
  5
1EF
330
1F
100
AcDbEntity
  8
0
  6
HIDDEN
 62
     7
370
     0
100
AcDbLine
 10
137.0747393461
 20
168.0612978286
 30
0.0
 11
134.5747393461
 21
168.0612978286
 31
0.0
  0
LINE
  5
1F0
330
1F
100
AcDbEntity
  8
0
  6
HIDDEN
 62
     7
370
     0
100
AcDbLine
 10
129.2247393461
 20
155.8112978286
 30
0.0
 11
129.7247393461
 21
156.3112978286
 31
0.0
  0
LINE
  5
1F1
330
1F
100
AcDbEntity
  8
0
  6
HIDDEN
 62
     7
370
     0
100
AcDbLine
 10
129.7247393461
 20
167.3112978286
 30
0.0
 11
129.2247393461
 21
167.8112978286
 31
0.0
  0
LINE
  5
1F2
330
1F
100
AcDbEntity
  8
0
  6
HIDDEN
 62
     7
370
     0
100
AcDbLine
 10
129.7247393461
 20
156.3112978286
 30
0.0
 11
133.7247393461
 21
156.3112978286
 31
0.0
  0
LINE
  5
1F3
330
1F
100
AcDbEntity
  8
0
  6
HIDDEN
 62
     7
370
     0
100
AcDbLine
 10
133.7247393461
 20
167.3112978286
 30
0.0
 11
129.7247393461
 21
167.3112978286
 31
0.0
  0
LINE
  5
1F4
330
1F
100
AcDbEntity
  8
0
  6
HIDDEN
 62
     7
370
     0
100
AcDbLine
 10
123.2747393461
 20
146.8112978286
 30
0.0
 11
123.2747393461
 21
141.8112978286
 31
0.0
  0
LINE
  5
1F5
330
1F
100
AcDbEntity
  8
0
  6
HIDDEN
 62
     7
370
     0
100
AcDbLine
 10
133.2747393461
 20
141.8112978286
 30
0.0
 11
133.2747393461
 21
146.8112978286
 31
0.0
  0
ARC
  5
1F6
330
1F
100
AcDbEntity
  8
0
  6
HIDDEN
 62
     7
370
     0
100
AcDbCircle
 10
123.5747393461
 20
146.8112978286
 30
0.0
 40
0.2999999999999972
100
AcDbArc
 50
90.0
 51
180.0
  0
ARC
  5
1F7
330
1F
100
AcDbEntity
  8
0
  6
HIDDEN
 62
     7
370
     0
100
AcDbCircle
 10
132.9747393461
 20
146.8112978286
 30
0.0
 40
0.2999999999999829
100
AcDbArc
 50
0.0
 51
90.0
  0
LINE
  5
1F8
330
1F
100
AcDbEntity
  8
0
  6
HIDDEN
 62
     7
370
     0
100
AcDbLine
 10
186.5698483061
 20
145.7149316018
 30
0.0
 11
189.461997802
 21
149.6200370755
 31
0.0
  0
LINE
  5
1F9
330
1F
100
AcDbEntity
  8
0
  6
HIDDEN
 62
     7
370
     0
100
AcDbLine
 10
193.1544327538
 20
149.1666630713
 30
0.0
 11
193.8369010769
 21
154.7249215205
 31
0.0
  0
LINE
  5
1FA
330
1F
100
AcDbEntity
  8
0
  6
HIDDEN
 62
     7
370
     0
100
AcDbLine
 10
164.2747393461
 20
159.3112978286
 30
0.0
 11
165.7768908937
 21
161.8112978286
 31
0.0
  0
LINE
  5
1FB
330
1F
100
AcDbEntity
  8
0
  6
HIDDEN
 62
     7
370
     0
100
AcDbLine
 10
165.7768908937
 20
161.8112978286
 30
0.0
 11
164.2747393461
 21
164.3112978286
 31
0.0
  0
LINE
  5
1FC
330
1F
100
AcDbEntity
  8
0
  6
HIDDEN
 62
     7
370
     0
100
AcDbLine
 10
163.3733961515
 20
159.3112978286
 30
0.0
 11
164.2747393461
 21
159.3112978286
 31
0.0
  0
LINE
  5
1FD
330
1F
100
AcDbEntity
  8
0
  6
HIDDEN
 62
     7
370
     0
100
AcDbLine
 10
137.0747393461
 20
159.3112978286
 30
0.0
 11
159.1747393461
 21
159.3112978286
 31
0.0
  0
LINE
  5
1FE
330
1F
100
AcDbEntity
  8
0
  6
HIDDEN
 62
     7
370
     0
100
AcDbLine
 10
159.1747393461
 20
164.3112978286
 30
0.0
 11
137.0747393461
 21
164.3112978286
 31
0.0
  0
LINE
  5
1FF
330
1F
100
AcDbEntity
  8
0
  6
HIDDEN
 62
     7
370
     0
100
AcDbLine
 10
164.2747393461
 20
164.3112978286
 30
0.0
 11
163.371512694
 21
164.3112978286
 31
0.0
  0
LINE
  5
200
330
1F
100
AcDbEntity
  8
0
  6
HIDDEN
 62
     7
370
     0
100
AcDbLine
 10
163.7747393461
 20
151.3112978286
 30
0.0
 11
163.3747393461
 21
151.5516420763
 31
0.0
  0
LINE
  5
201
330
1F
100
AcDbEntity
  8
0
  6
HIDDEN
 62
     7
370
     0
100
AcDbLine
 10
159.1747393461
 20
151.5516420763
 30
0.0
 11
158.7747393461
 21
151.3112978286
 31
0.0
  0
LINE
  5
202
330
1F
100
AcDbEntity
  8
0
  6
HIDDEN
 62
     7
370
     0
100
AcDbLine
 10
158.7747393461
 20
151.3112978286
 30
0.0
 11
158.7747393461
 21
145.3112978286
 31
0.0
  0
LINE
  5
203
330
1F
100
AcDbEntity
  8
0
  6
HIDDEN
 62
     7
370
     0
100
AcDbLine
 10
163.7747393461
 20
145.3112978286
 30
0.0
 11
163.7747393461
 21
151.3112978286
 31
0.0
  0
LINE
  5
204
330
1F
100
AcDbEntity
  8
0
  6
HIDDEN
 62
     7
370
     0
100
AcDbLine
 10
159.1747393461
 20
159.3112978286
 30
0.0
 11
159.1747393461
 21
151.5516420763
 31
0.0
  0
LINE
  5
205
330
1F
100
AcDbEntity
  8
0
  6
HIDDEN
 62
     7
370
     0
100
AcDbLine
 10
163.3747393461
 20
151.5516420763
 30
0.0
 11
163.3747393461
 21
159.312425839
 31
0.0
  0
LINE
  5
206
330
1F
100
AcDbEntity
  8
0
  6
HIDDEN
 62
     7
370
     0
100
AcDbLine
 10
159.1747393461
 20
174.3112978286
 30
0.0
 11
159.1747393461
 21
164.3112978286
 31
0.0
  0
LINE
  5
207
330
1F
100
AcDbEntity
  8
0
  6
HIDDEN
 62
     7
370
     0
100
AcDbLine
 10
163.3747393461
 20
174.0587879549
 30
0.0
 11
163.3747393461
 21
174.3112978286
 31
0.0
  0
LINE
  5
208
330
1F
100
AcDbEntity
  8
0
  6
HIDDEN
 62
     7
370
     0
100
AcDbLine
 10
163.3747393461
 20
164.3085928066
 30
0.0
 11
163.3747393461
 21
169.7649574564
 31
0.0
  0
LINE
  5
209
330
1F
100
AcDbEntity
  8
0
  6
HIDDEN
 62
     7
370
     0
100
AcDbLine
 10
163.3747393461
 20
174.3112978286
 30
0.0
 11
161.2747393461
 21
175.5731051286
 31
0.0
  0
LINE
  5
20A
330
1F
100
AcDbEntity
  8
0
  6
HIDDEN
 62
     7
370
     0
100
AcDbLine
 10
161.2747393461
 20
175.5731051286
 30
0.0
 11
159.1747393461
 21
174.3112978286
 31
0.0
  0
LINE
  5
20B
330
1F
100
AcDbEntity
  8
0
  6
HIDDEN
 62
     7
370
     0
100
AcDbLine
 10
167.1816677579
 20
173.2496003412
 30
0.0
 11
163.3747393461
 21
174.0587879549
 31
0.0
  0
LINE
  5
20C
330
1F
100
AcDbEntity
  8
0
  6
HIDDEN
 62
     7
370
     0
100
AcDbLine
 10
163.3747393461
 20
169.7649574564
 30
0.0
 11
168.4016812594
 21
168.6964479677
 31
0.0
  0
LINE
  5
20D
330
1F
100
AcDbEntity
  8
0
  6
HIDDEN
 62
     7
370
     0
100
AcDbLine
 10
180.6502103883
 20
164.0414186129
 30
0.0
 11
180.0774244743
 21
159.3764517001
 31
0.0
  0
LINE
  5
20E
330
1F
100
AcDbEntity
  8
0
  6
HIDDEN
 62
     7
370
     0
100
AcDbLine
 10
180.4850601043
 20
159.3264003383
 30
0.0
 11
180.1267642347
 21
156.4083146525
 31
0.0
  0
DIMENSION
  5
20F
330
1F
100
AcDbEntity
  8
VERMASSUNG
100
AcDbDimension
  2
_D
 10
94.266295499
 20
141.8112978286
 30
0.0
 11
94.266295499
 21
161.8112978286
 31
0.0
 70
   160
  1
HSK T%%c<>
 71
     2
 42
-1.0
  3
SLDDIMSTYLE0
100
AcDbAlignedDimension
 13
121.5747393461
 23
181.8112978286
 33
0.0
 14
121.5747393461
 24
141.8112978286
 34
0.0
 50
90.0
100
AcDbRotatedDimension
  0
LINE
  5
21C
330
1F
100
AcDbEntity
  8
VERMASSUNG
  6
CENTERX2
370
     0
100
AcDbLine
 10
100.4931964062
 20
161.8112978286
 30
0.0
 11
205.052682277
 21
161.8112978286
 31
0.0
  0
ARC
  5
21D
330
1F
100
AcDbEntity
  8
0
  6
Continuous
 62
     7
370
    15
100
AcDbCircle
 10
121.5747393461
 20
71.6581367712
 30
0.0
 40
0.3000000000000114
100
AcDbArc
 50
180.0
 51
270.0
  0
ARC
  5
21E
330
1F
100
AcDbEntity
  8
0
  6
Continuous
 62
     7
370
    15
100
AcDbCircle
 10
121.5747393461
 20
111.0581367712
 30
0.0
 40
0.3000000000000398
100
AcDbArc
 50
90.0
 51
180.0
  0
LINE
  5
21F
330
1F
100
AcDbEntity
  8
0
  6
Continuous
 62
     7
370
    15
100
AcDbLine
 10
121.5747393604
 20
71.3581372182
 30
0.0
 11
129.224739811
 21
71.3581372182
 31
0.0
  0
LINE
  5
220
330
1F
100
AcDbEntity
  8
0
  6
Continuous
 62
     7
370
    15
100
AcDbLine
 10
129.240266821
 20
111.3581363241
 30
0.0
 11
121.5747393604
 21
111.3581363241
 31
0.0
  0
ARC
  5
221
330
1F
100
AcDbEntity
  8
0
  6
Continuous
 62
     7
370
    15
100
AcDbCircle
 10
142.2247393461
 20
73.8581367712
 30
0.0
 40
1.0
100
AcDbArc
 50
90.0
 51
143.1137328946
  0
ARC
  5
222
330
1F
100
AcDbEntity
  8
0
  6
Continuous
 62
     7
370
    15
100
AcDbCircle
 10
142.2247393461
 20
108.8581367712
 30
0.0
 40
1.000000000000014
100
AcDbArc
 50
216.8998129703
 51
270.0
  0
LINE
  5
223
330
1F
100
AcDbEntity
  8
0
  6
Continuous
 62
     7
370
    15
100
AcDbLine
 10
142.2247400793
 20
74.8581368606
 30
0.0
 11
181.0561416956
 21
74.8581368606
 31
0.0
  0
LINE
  5
224
330
1F
100
AcDbEntity
  8
0
  6
Continuous
 62
     7
370
    15
100
AcDbLine
 10
181.0561416956
 20
107.8581366818
 30
0.0
 11
142.2247400793
 21
107.8581366818
 31
0.0
  0
ARC
  5
225
330
1F
100
AcDbEntity
  8
0
  6
Continuous
 62
     7
370
    15
100
AcDbCircle
 10
120.7747325935
 20
75.9044296177
 30
0.0
 40
0.6000067526677085
100
AcDbArc
 50
33.5571153394
 51
90.0
  0
ARC
  5
226
330
1F
100
AcDbEntity
  8
0
  6
Continuous
 62
     7
370
    15
100
AcDbCircle
 10
120.7747325935
 20
106.8118439246
 30
0.0
 40
0.6000067526677242
100
AcDbArc
 50
270.0
 51
326.4428846606
  0
LINE
  5
227
330
1F
100
AcDbEntity
  8
0
  6
Continuous
 62
     7
370
    15
100
AcDbLine
 10
119.2747392511
 20
76.2544362004
 30
0.0
 11
120.131451246
 21
76.4839913826
 31
0.0
  0
LINE
  5
228
330
1F
100
AcDbEntity
  8
0
  6
Continuous
 62
     7
370
    15
100
AcDbLine
 10
120.131451246
 20
106.2322821598
 30
0.0
 11
119.2747392511
 21
106.4618373419
 31
0.0
  0
LINE
  5
229
330
1F
100
AcDbEntity
  8
0
  6
Continuous
 62
     7
370
    15
100
AcDbLine
 10
112.4588063272
 20
106.1203576754
 30
0.0
 11
104.9747390958
 21
105.7454044129
 31
0.0
  0
LINE
  5
22A
330
1F
100
AcDbEntity
  8
0
  6
Continuous
 62
     7
370
    15
100
AcDbLine
 10
119.2747392511
 20
106.4618373419
 30
0.0
 11
118.0400066829
 21
106.3999770339
 31
0.0
  0
LINE
  5
22B
330
1F
100
AcDbEntity
  8
0
  6
Continuous
 62
     7
370
    15
100
AcDbLine
 10
117.9875192052
 20
76.3189265634
 30
0.0
 11
119.2747392511
 21
76.2544362004
 31
0.0
  0
LINE
  5
22C
330
1F
100
AcDbEntity
  8
0
  6
Continuous
 62
     7
370
    15
100
AcDbLine
 10
107.4747395056
 20
76.8456183504
 30
0.0
 11
112.5118451478
 21
76.5932588036
 31
0.0
  0
ARC
  5
22D
330
1F
100
AcDbEntity
  8
0
  6
Continuous
 62
     7
370
    15
100
AcDbCircle
 10
120.2867444356
 20
75.9044296177
 30
0.0
 40
0.6000067526677023
100
AcDbArc
 50
90.0
 51
105.0
  0
ARC
  5
22E
330
1F
100
AcDbEntity
  8
0
  6
Continuous
 62
     7
370
    15
100
AcDbCircle
 10
120.2867444356
 20
106.8118439246
 30
0.0
 40
0.60000675266771
100
AcDbArc
 50
255.0
 51
270.0
  0
LINE
  5
22F
330
1F
100
AcDbEntity
  8
0
  6
Continuous
 62
     7
370
    15
100
AcDbLine
 10
120.2867443959
 20
76.504436707
 30
0.0
 11
120.7747325703
 21
76.504436707
 31
0.0
  0
LINE
  5
230
330
1F
100
AcDbEntity
  8
0
  6
Continuous
 62
     7
370
    15
100
AcDbLine
 10
120.7747325703
 20
106.2118368353
 30
0.0
 11
120.2867443959
 21
106.2118368353
 31
0.0
  0
ARC
  5
231
330
1F
100
AcDbEntity
  8
0
  6
Continuous
 62
     7
370
    15
100
AcDbCircle
 10
104.0747393461
 20
105.1381367712
 30
0.0
 40
0.9000000000000071
100
AcDbArc
 50
270.0
 51
311.1792132369
  0
ARC
  5
232
330
1F
100
AcDbEntity
  8
0
  6
Continuous
 62
     7
370
    15
100
AcDbCircle
 10
106.5747393461
 20
77.5781367712
 30
0.0
 40
0.9000000000000057
100
AcDbArc
 50
34.6391318474
 51
90.0
  0
LINE
  5
233
330
1F
100
AcDbEntity
  8
0
  6
Continuous
 62
     7
370
    15
100
AcDbLine
 10
102.3247389408
 20
104.238137057
 30
0.0
 11
101.3747396233
 21
103.2881368081
 31
0.0
  0
LINE
  5
234
330
1F
100
AcDbEntity
  8
0
  6
Continuous
 62
     7
370
    15
100
AcDbLine
 10
104.074738762
 20
104.238137057
 30
0.0
 11
102.3247389408
 21
104.238137057
 31
0.0
  0
LINE
  5
235
330
1F
100
AcDbEntity
  8
0
  6
Continuous
 62
     7
370
    15
100
AcDbLine
 10
102.3837400886
 20
78.4781364854
 30
0.0
 11
106.5747391718
 21
78.4781364854
 31
0.0
  0
LINE
  5
236
330
1F
100
AcDbEntity
  8
0
  6
Continuous
 62
     7
370
    15
100
AcDbLine
 10
101.3747396233
 20
79.4871369506
 30
0.0
 11
102.3837400886
 21
78.4781364854
 31
0.0
  0
LINE
  5
237
330
1F
100
AcDbEntity
  8
0
  6
Continuous
 62
     7
370
    15
100
AcDbLine
 10
191.6901616665
 20
99.5253104846
 30
0.0
 11
191.5090976568
 21
99.5253104846
 31
0.0
  0
LINE
  5
238
330
1F
100
AcDbEntity
  8
0
  6
Continuous
 62
     7
370
    15
100
AcDbLine
 10
191.5090976568
 20
83.1909630577
 30
0.0
 11
191.6901616665
 21
83.1909630577
 31
0.0
  0
LINE
  5
239
330
1F
100
AcDbEntity
  8
0
  6
Continuous
 62
     7
370
    15
100
AcDbLine
 10
191.5830223175
 20
93.2335987817
 30
0.0
 11
190.7407937857
 21
93.4832323472
 31
0.0
  0
ARC
  5
23A
330
1F
100
AcDbEntity
  8
0
  6
Continuous
 62
     7
370
    15
100
AcDbCircle
 10
190.8047329207
 20
91.3581367712
 30
0.0
 40
2.816371771722817
100
AcDbArc
 50
326.3365516387
 51
33.6634483613
  0
ARC
  5
23B
330
1F
100
AcDbEntity
  8
0
  6
Continuous
 62
     7
370
    15
100
AcDbCircle
 10
190.2086434326
 20
91.3695572691
 30
0.0
 40
2.792530750791276
100
AcDbArc
 50
18.2631727702
 51
65.7631346212
  0
LWPOLYLINE
  5
23C
330
1F
100
AcDbEntity
  8
0
  6
Continuous
 62
     7
370
    15
100
AcDbPolyline
 90
        3
 70
   128
 43
0.0
 10
191.777661285
 20
89.036309313
 10
191.357277176
 20
88.8013503644
 10
191.3254557463
 20
88.7872799429
  0
LINE
  5
23D
330
1F
100
AcDbEntity
  8
0
  6
Continuous
 62
     7
370
    15
100
AcDbLine
 10
121.2747393461
 20
71.6581367086
 30
0.0
 11
121.2747393461
 21
111.0581368338
 31
0.0
  0
LINE
  5
23E
330
1F
100
AcDbEntity
  8
0
  6
Continuous
 62
     7
370
    15
100
AcDbLine
 10
129.224739811
 20
103.2081371303
 30
0.0
 11
135.2395795571
 21
103.2081371303
 31
0.0
  0
LINE
  5
23F
330
1F
100
AcDbEntity
  8
0
  6
Continuous
 62
     7
370
    15
100
AcDbLine
 10
135.2395795571
 20
72.1292518209
 30
0.0
 11
135.2395795571
 21
103.2081371303
 31
0.0
  0
LINE
  5
240
330
1F
100
AcDbEntity
  8
0
  6
Continuous
 62
     7
370
    15
100
AcDbLine
 10
135.2395795571
 20
72.1292518209
 30
0.0
 11
133.7247396173
 21
72.1292518209
 31
0.0
  0
SPLINE
  5
241
330
1F
100
AcDbEntity
  8
0
  6
Continuous
 62
     7
370
    15
100
AcDbSpline
210
0.0
220
0.0
230
1.0
 70
     8
 71
     3
 72
    22
 73
    18
 74
     0
 42
0.00000001
 43
0.00000001
 12
1.0
 22
0.0
 32
0.0
 13
1.0
 23
0.0
 33
0.0
 40
0.0
 40
0.0
 40
0.0
 40
0.0
 40
0.125
 40
0.125
 40
0.25
 40
0.25
 40
0.375
 40
0.375
 40
0.5
 40
0.5
 40
0.625
 40
0.625
 40
0.75
 40
0.75
 40
0.875
 40
0.875
 40
1.0
 40
1.0
 40
1.0
 40
1.0
 10
133.7247393461258
 20
72.12925224814228
 30
0.0
 10
133.4256149170852
 20
72.12925224814227
 30
0.0
 10
133.1317924688364
 20
72.1207381470759
 30
0.0
 10
132.55422819259
 20
72.08829437819399
 30
0.0
 10
132.2674105147761
 20
72.06396048949196
 30
0.0
 10
131.7229479858768
 20
72.00350046473514
 30
0.0
 10
131.4649927152555
 20
71.96758704395663
 30
0.0
 10
130.9769347718956
 20
71.88787701788749
 30
0.0
 10
130.7472364732319
 20
71.84399871669815
 30
0.0
 10
130.3348174902792
 20
71.75575509432798
 30
0.0
 10
130.1492905474191
 20
71.71094675286702
 30
0.0
 10
129.8207705025184
 20
71.62362574494783
 30
0.0
 10
129.6823566156189
 20
71.58233495637218
 30
0.0
 10
129.4577644690029
 20
71.50799673307834
 30
0.0
 10
129.3706856568787
 20
71.47458660734368
 30
0.0
 10
129.2541838489236
 20
71.41956720581753
 30
0.0
 10
129.2247393461258
 20
71.3981054393513
 30
0.0
 10
129.2247393461258
 20
71.3831524157335
 30
0.0
  0
LINE
  5
242
330
1F
100
AcDbEntity
  8
0
  6
Continuous
 62
     7
370
    15
100
AcDbLine
 10
129.224739811
 20
71.3831525426
 30
0.0
 11
129.224739811
 21
71.3581372182
 31
0.0
  0
SPLINE
  5
243
330
1F
100
AcDbEntity
  8
0
  6
Continuous
 62
     7
370
    15
100
AcDbSpline
210
0.0
220
0.0
230
1.0
 70
     8
 71
     3
 72
    17
 73
    13
 74
     0
 42
0.00000001
 43
0.00000001
 12
1.0
 22
0.0
 32
0.0
 13
1.0
 23
0.0
 33
0.0
 40
0.0
 40
0.0
 40
0.0
 40
0.0
 40
0.1039928149931941
 40
0.211050797947968
 40
0.315030024669631
 40
0.4219351868122974
 40
0.5275775927633417
 40
0.6362134531400181
 40
0.7429488821168505
 40
0.8528788227495517
 40
0.9578277247781112
 40
1.0
 40
1.0
 40
1.0
 40
1.0
 10
133.7247396173269
 20
110.8453128616506
 30
0.0
 10
133.478922533102
 20
110.8480286962436
 30
0.0
 10
132.9800429539856
 20
110.8535404141252
 30
0.0
 10
132.2565594104608
 20
110.8966241729008
 30
0.0
 10
131.5687640542531
 20
110.9604907850823
 30
0.0
 10
130.9440186821189
 20
111.0398263011072
 30
0.0
 10
130.3880678790565
 20
111.1267650928755
 30
0.0
 10
129.9260813724893
 20
111.2107246841945
 30
0.0
 10
129.5638162412176
 20
111.2838875532855
 30
0.0
 10
129.3320372704639
 20
111.3340245935771
 30
0.0
 10
129.2224713261807
 20
111.3586446909596
 30
0.0
 10
129.2363022015452
 20
111.3555395428943
 30
0.0
 10
129.240266821006
 20
111.3546494524175
 30
0.0
  0
LINE
  5
244
330
1F
100
AcDbEntity
  8
0
  6
Continuous
 62
     7
370
    15
100
AcDbLine
 10
135.2395795571
 20
110.8453128617
 30
0.0
 11
133.7247396173
 21
110.8453128617
 31
0.0
  0
LINE
  5
245
330
1F
100
AcDbEntity
  8
0
  6
Continuous
 62
     7
370
    15
100
AcDbLine
 10
135.2395795571
 20
107.4695460628
 30
0.0
 11
135.2395795571
 21
110.8453128617
 31
0.0
  0
LINE
  5
246
330
1F
100
AcDbEntity
  8
0
  6
Continuous
 62
     7
370
    15
100
AcDbLine
 10
133.7184094178
 20
107.4695460628
 30
0.0
 11
135.2395795571
 21
107.4695460628
 31
0.0
  0
SPLINE
  5
247
330
1F
100
AcDbEntity
  8
0
  6
Continuous
 62
     7
370
    15
100
AcDbSpline
210
0.0
220
0.0
230
1.0
 70
     8
 71
     3
 72
    22
 73
    18
 74
     0
 42
0.00000001
 43
0.00000001
 12
1.0
 22
0.0
 32
0.0
 13
1.0
 23
0.0
 33
0.0
 40
0.0
 40
0.0
 40
0.0
 40
0.0
 40
0.2499999999999998
 40
0.2499999999999998
 40
0.3749999999999999
 40
0.3749999999999999
 40
0.5000000000000001
 40
0.5000000000000001
 40
0.6250000000000002
 40
0.6250000000000002
 40
0.7500000000000003
 40
0.7500000000000003
 40
0.8750000000000006
 40
0.8750000000000006
 40
0.9375000000000002
 40
0.9375000000000002
 40
1.0
 40
1.0
 40
1.0
 40
1.0
 10
129.2247393461258
 20
103.2081367711717
 30
0.0
 10
129.2467203641124
 20
103.7710094130697
 30
0.0
 10
129.3256972474672
 20
104.3016342967993
 30
0.0
 10
129.5720951404996
 20
105.0473452877208
 30
0.0
 10
129.6766197555905
 20
105.2889655141196
 30
0.0
 10
129.9384663508971
 20
105.7478242894455
 30
0.0
 10
130.0936829730629
 20
105.9620029619153
 30
0.0
 10
130.4622747261268
 20
106.3592315210608
 30
0.0
 10
130.6784084185917
 20
106.5436763560806
 30
0.0
 10
131.1623029135786
 20
106.8647562039642
 30
0.0
 10
131.4327684585863
 20
107.0041070340702
 30
0.0
 10
132.0289950240965
 20
107.2334125684958
 30
0.0
 10
132.3444882908164
 20
107.3199485779722
 30
0.0
 10
132.845204938835
 20
107.4088381823034
 30
0.0
 10
133.0180013734501
 20
107.431646688165
 30
0.0
 10
133.3663701462322
 20
107.4619378508613
 30
0.0
 10
133.5417711751426
 20
107.4695457722492
 30
0.0
 10
133.7184098208305
 20
107.4695457722492
 30
0.0
  0
LINE
  5
248
330
1F
100
AcDbEntity
  8
0
  6
Continuous
 62
     7
370
    15
100
AcDbLine
 10
136.2347396376
 20
73.9290140699
 30
0.0
 11
136.2347396376
 21
103.2081371303
 31
0.0
  0
SPLINE
  5
249
330
1F
100
AcDbEntity
  8
0
  6
Continuous
 62
     7
370
    15
100
AcDbSpline
210
0.0
220
0.0
230
1.0
 70
     8
 71
     3
 72
     8
 73
     4
 74
     0
 42
0.00000001
 43
0.00000001
 12
1.0
 22
0.0
 32
0.0
 13
1.0
 23
0.0
 33
0.0
 40
0.0
 40
0.0
 40
0.0
 40
0.0
 40
1.0
 40
1.0
 40
1.0
 40
1.0
 10
136.2347393461258
 20
73.929013383182
 30
0.0
 10
135.9041007195112
 20
73.32849303207101
 30
0.0
 10
135.5722849189377
 20
72.72862392136597
 30
0.0
 10
135.2395796472323
 20
72.1292522481423
 30
0.0
  0
SPLINE
  5
24A
330
1F
100
AcDbEntity
  8
0
  6
Continuous
 62
     7
370
    15
100
AcDbSpline
210
0.0
220
0.0
230
1.0
 70
    24
 71
     3
 72
     8
 73
     4
 74
     0
 42
0.00000001
 43
0.00000001
 12
1.0
 22
0.0
 32
0.0
 13
1.0
 23
0.0
 33
0.0
 40
0.0
 40
0.0
 40
0.0
 40
0.0
 40
1.0
 40
1.0
 40
1.0
 40
1.0
 10
135.2395796472324
 20
103.2081367711717
 30
0.0
 10
135.578612468987
 20
103.2081367711717
 30
0.0
 10
135.9111026905036
 20
103.2081367711717
 30
0.0
 10
136.2347393461258
 20
103.2081367711717
 30
0.0
  0
LINE
  5
24B
330
1F
100
AcDbEntity
  8
0
  6
Continuous
 62
     7
370
    15
100
AcDbLine
 10
140.6247390719
 20
72.1292518209
 30
0.0
 11
139.3098997237
 21
72.1292518209
 31
0.0
  0
LINE
  5
24C
330
1F
100
AcDbEntity
  8
0
  6
Continuous
 62
     7
370
    15
100
AcDbLine
 10
139.3098997237
 20
72.1292518209
 30
0.0
 11
139.3098997237
 21
103.2081371303
 31
0.0
  0
LINE
  5
24D
330
1F
100
AcDbEntity
  8
0
  6
Continuous
 62
     7
370
    15
100
AcDbLine
 10
139.3098997237
 20
103.2081371303
 30
0.0
 11
140.6247390719
 21
103.2081371303
 31
0.0
  0
LINE
  5
24E
330
1F
100
AcDbEntity
  8
0
  6
Continuous
 62
     7
370
    15
100
AcDbLine
 10
141.2247399154
 20
72.7541040759
 30
0.0
 11
141.2247399154
 21
103.2081371303
 31
0.0
  0
SPLINE
  5
24F
330
1F
100
AcDbEntity
  8
0
  6
Continuous
 62
     7
370
    15
100
AcDbSpline
210
0.0
220
0.0
230
1.0
 70
     8
 71
     3
 72
    10
 73
     6
 74
     0
 42
0.00000001
 43
0.00000001
 12
1.0
 22
0.0
 32
0.0
 13
1.0
 23
0.0
 33
0.0
 40
0.0
 40
0.0
 40
0.0
 40
0.0
 40
0.5
 40
0.5
 40
1.0
 40
1.0
 40
1.0
 40
1.0
 10
141.2247393461258
 20
72.75410495008518
 30
0.0
 10
141.2247393461258
 20
72.59447278118193
 30
0.0
 10
141.1631028324205
 20
72.4334231474179
 30
0.0
 10
140.9440764661776
 20
72.20043226374129
 30
0.0
 10
140.7864595781302
 20
72.1292522481423
 30
0.0
 10
140.6247393461258
 20
72.1292522481423
 30
0.0
  0
SPLINE
  5
250
330
1F
100
AcDbEntity
  8
0
  6
Continuous
 62
     7
370
    15
100
AcDbSpline
210
0.0
220
0.0
230
1.0
 70
    24
 71
     3
 72
    12
 73
     8
 74
     0
 42
0.00000001
 43
0.00000001
 12
1.0
 22
0.0
 32
0.0
 13
1.0
 23
0.0
 33
0.0
 40
0.0
 40
0.0
 40
0.0
 40
0.0
 40
0.250000000000002
 40
0.250000000000002
 40
0.500000000000004
 40
0.500000000000004
 40
1.0
 40
1.0
 40
1.0
 40
1.0
 10
140.6247393461258
 20
103.2081367711717
 30
0.0
 10
140.7129262114946
 20
103.2081367711717
 30
0.0
 10
140.8016136047959
 20
103.2081367711717
 30
0.0
 10
140.9558660979148
 20
103.2081367711717
 30
0.0
 10
141.0212120789908
 20
103.2081367711717
 30
0.0
 10
141.1756219489419
 20
103.2081367711717
 30
0.0
 10
141.2247393461259
 20
103.2081367711717
 30
0.0
 10
141.2247393461259
 20
103.2081367711717
 30
0.0
  0
SPLINE
  5
251
330
1F
100
AcDbEntity
  8
0
  6
Continuous
 62
     7
370
    15
100
AcDbSpline
210
0.0
220
0.0
230
1.0
 70
     8
 71
     3
 72
     8
 73
     4
 74
     0
 42
0.00000001
 43
0.00000001
 12
1.0
 22
0.0
 32
0.0
 13
1.0
 23
0.0
 33
0.0
 40
0.0
 40
0.0
 40
0.0
 40
0.0
 40
1.0
 40
1.0
 40
1.0
 40
1.0
 10
139.3098990450193
 20
72.12925224814228
 30
0.0
 10
138.9771937733139
 20
72.72862392136595
 30
0.0
 10
138.6453779727404
 20
73.328493032071
 30
0.0
 10
138.3147393461258
 20
73.92901338318198
 30
0.0
  0
LINE
  5
252
330
1F
100
AcDbEntity
  8
0
  6
Continuous
 62
     7
370
    15
100
AcDbLine
 10
138.3147387119
 20
73.9290140699
 30
0.0
 11
138.3147387119
 21
103.2081371303
 31
0.0
  0
SPLINE
  5
253
330
1F
100
AcDbEntity
  8
0
  6
Continuous
 62
     7
370
    15
100
AcDbSpline
210
0.0
220
0.0
230
1.0
 70
    24
 71
     3
 72
     8
 73
     4
 74
     0
 42
0.00000001
 43
0.00000001
 12
1.0
 22
0.0
 32
0.0
 13
1.0
 23
0.0
 33
0.0
 40
0.0
 40
0.0
 40
0.0
 40
0.0
 40
1.0
 40
1.0
 40
1.0
 40
1.0
 10
138.3147393461259
 20
103.2081367711717
 30
0.0
 10
138.6383760017481
 20
103.2081367711717
 30
0.0
 10
138.9708662232647
 20
103.2081367711717
 30
0.0
 10
139.3098990450193
 20
103.2081367711717
 30
0.0
  0
SPLINE
  5
254
330
1F
100
AcDbEntity
  8
0
  6
Continuous
 62
     7
370
    15
100
AcDbSpline
210
0.0
220
0.0
230
1.0
 70
    24
 71
     3
 72
    16
 73
    12
 74
     0
 42
0.00000001
 43
0.00000001
 12
1.0
 22
0.0
 32
0.0
 13
1.0
 23
0.0
 33
0.0
 40
0.0
 40
0.0
 40
0.0
 40
0.0
 40
0.0625000000000002
 40
0.0625000000000002
 40
0.1250000000000004
 40
0.1250000000000004
 40
0.2500000000000008
 40
0.2500000000000008
 40
0.5000000000000003
 40
0.5000000000000003
 40
1.0
 40
1.0
 40
1.0
 40
1.0
 10
136.8347393461258
 20
74.4581367711717
 30
0.0
 10
136.7996328575117
 20
74.4581367711717
 30
0.0
 10
136.7665381724257
 20
74.45813677117171
 30
0.0
 10
136.7099384604999
 20
74.45813677117171
 30
0.0
 10
136.6856364063643
 20
74.45813677117171
 30
0.0
 10
136.6211084177233
 20
74.45813677117171
 30
0.0
 10
136.5875195922072
 20
74.45813677117171
 30
0.0
 10
136.4994801778581
 20
74.45813677117171
 30
0.0
 10
136.4563724139856
 20
74.45813677117171
 30
0.0
 10
136.3459381998125
 20
74.45813677117171
 30
0.0
 10
136.2997581814351
 20
74.45813677117171
 30
0.0
 10
136.2699617467072
 20
74.45813677117171
 30
0.0
  0
SPLINE
  5
255
330
1F
100
AcDbEntity
  8
0
  6
Continuous
 62
     7
370
    15
100
AcDbSpline
210
0.0
220
0.0
230
1.0
 70
    24
 71
     3
 72
    14
 73
    10
 74
     0
 42
0.00000001
 43
0.00000001
 12
1.0
 22
0.0
 32
0.0
 13
1.0
 23
0.0
 33
0.0
 40
0.0
 40
0.0
 40
0.0
 40
0.0
 40
0.25
 40
0.25
 40
0.5
 40
0.5
 40
0.75
 40
0.75
 40
1.0
 40
1.0
 40
1.0
 40
1.0
 10
136.2347393461258
 20
103.2081367711717
 30
0.0
 10
136.2347393461258
 20
103.2081367711717
 30
0.0
 10
136.2466163573868
 20
103.2081367711717
 30
0.0
 10
136.2951448471667
 20
103.2081367711717
 30
0.0
 10
136.3315633033909
 20
103.2081367711717
 30
0.0
 10
136.4316906379196
 20
103.2081367711717
 30
0.0
 10
136.4948674493556
 20
103.2081367711717
 30
0.0
 10
136.6504379520415
 20
103.2081367711717
 30
0.0
 10
136.7423142997962
 20
103.2081367711717
 30
0.0
 10
136.834739346127
 20
103.2081367711717
 30
0.0
  0
SPLINE
  5
256
330
1F
100
AcDbEntity
  8
0
  6
Continuous
 62
     7
370
    15
100
AcDbSpline
210
0.0
220
0.0
230
1.0
 70
    24
 71
     3
 72
    16
 73
    12
 74
     0
 42
0.00000001
 43
0.00000001
 12
1.0
 22
0.0
 32
0.0
 13
1.0
 23
0.0
 33
0.0
 40
0.0
 40
0.0
 40
0.0
 40
0.0
 40
0.5000000000000033
 40
0.5000000000000033
 40
0.750000000000005
 40
0.750000000000005
 40
0.8750000000000044
 40
0.8750000000000044
 40
0.9375000000000022
 40
0.9375000000000022
 40
1.0
 40
1.0
 40
1.0
 40
1.0
 10
138.2795169455445
 20
74.45813677117171
 30
0.0
 10
138.2495426276903
 20
74.45813677117171
 30
0.0
 10
138.203026233085
 20
74.45813677117171
 30
0.0
 10
138.0931649273508
 20
74.45813677117172
 30
0.0
 10
138.0500122768213
 20
74.45813677117171
 30
0.0
 10
137.9612282237073
 20
74.45813677117172
 30
0.0
 10
137.9280390558289
 20
74.45813677117172
 30
0.0
 10
137.8632927554792
 20
74.45813677117171
 30
0.0
 10
137.8390215444969
 20
74.45813677117171
 30
0.0
 10
137.7825602672779
 20
74.45813677117171
 30
0.0
 10
137.7497566612045
 20
74.45813677117171
 30
0.0
 10
137.7147393461258
 20
74.45813677117171
 30
0.0
  0
SPLINE
  5
257
330
1F
100
AcDbEntity
  8
0
  6
Continuous
 62
     7
370
    15
100
AcDbSpline
210
0.0
220
0.0
230
1.0
 70
    24
 71
     3
 72
    12
 73
     8
 74
     0
 42
0.00000001
 43
0.00000001
 12
1.0
 22
0.0
 32
0.0
 13
1.0
 23
0.0
 33
0.0
 40
0.0
 40
0.0
 40
0.0
 40
0.0
 40
0.2499999999999987
 40
0.2499999999999987
 40
0.4999999999999974
 40
0.4999999999999974
 40
1.0
 40
1.0
 40
1.0
 40
1.0
 10
137.7147393461258
 20
103.2081367711717
 30
0.0
 10
137.8070423453144
 20
103.2081367711717
 30
0.0
 10
137.8997860412734
 20
103.2081367711717
 30
0.0
 10
138.054835771567
 20
103.2081367711717
 30
0.0
 10
138.1182857431695
 20
103.2081367711717
 30
0.0
 10
138.2675458342296
 20
103.2081367711717
 30
0.0
 10
138.3147393461258
 20
103.2081367711717
 30
0.0
 10
138.3147393461258
 20
103.2081367711717
 30
0.0
  0
SPLINE
  5
258
330
1F
100
AcDbEntity
  8
0
  6
Continuous
 62
     7
370
    15
100
AcDbSpline
210
0.0
220
0.0
230
1.0
 70
    24
 71
     3
 72
    14
 73
    10
 74
     0
 42
0.00000001
 43
0.00000001
 12
1.0
 22
0.0
 32
0.0
 13
1.0
 23
0.0
 33
0.0
 40
0.0
 40
0.0
 40
0.0
 40
0.0
 40
0.125
 40
0.125
 40
0.2500000000000001
 40
0.2500000000000001
 40
0.5
 40
0.5
 40
1.0
 40
1.0
 40
1.0
 40
1.0
 10
141.4247393461053
 20
108.2581367711717
 30
0.0
 10
141.4247395974512
 20
108.2581367711717
 30
0.0
 10
141.4223632631015
 20
108.2581367711717
 30
0.0
 10
141.4132154099583
 20
108.2581367711717
 30
0.0
 10
141.4064495276353
 20
108.2581367711717
 30
0.0
 10
141.381010142064
 20
108.2581367711717
 30
0.0
 10
141.3571171015994
 20
108.2581367711717
 30
0.0
 10
141.2821828282721
 20
108.2581367711717
 30
0.0
 10
141.2269562364985
 20
108.2581367711717
 30
0.0
 10
141.2248014692492
 20
108.2581367711717
 30
0.0
  0
SPLINE
  5
259
330
1F
100
AcDbEntity
  8
0
  6
Continuous
 62
     7
370
    15
100
AcDbSpline
210
0.0
220
0.0
230
1.0
 70
    24
 71
     3
 72
    10
 73
     6
 74
     0
 42
0.00000001
 43
0.00000001
 12
1.0
 22
0.0
 32
0.0
 13
1.0
 23
0.0
 33
0.0
 40
0.0
 40
0.0
 40
0.0
 40
0.0
 40
0.0000149827227696
 40
0.98111185473057
 40
1.0
 40
1.0
 40
1.0
 40
1.0
 10
141.4247395756037
 20
74.45813754007162
 30
0.0
 10
141.4247395756071
 20
74.45813754007162
 30
0.0
 10
141.4247397974089
 20
74.45813754000608
 30
0.0
 10
141.3803517668693
 20
74.45813754007207
 30
0.0
 10
141.3473552491127
 20
74.45813754007163
 30
0.0
 10
141.3467319967539
 20
74.45813754007162
 30
0.0
  0
SPLINE
  5
25A
330
1F
100
AcDbEntity
  8
0
  6
Continuous
 62
     7
370
    15
100
AcDbSpline
210
0.0
220
0.0
230
1.0
 70
    24
 71
     3
 72
    12
 73
     8
 74
     0
 42
0.00000001
 43
0.00000001
 12
1.0
 22
0.0
 32
0.0
 13
1.0
 23
0.0
 33
0.0
 40
0.0
 40
0.0
 40
0.0
 40
0.0
 40
0.5
 40
0.5
 40
0.75
 40
0.75
 40
1.0
 40
1.0
 40
1.0
 40
1.0
 10
141.2247393461259
 20
103.2081367711717
 30
0.0
 10
141.2247393461258
 20
103.2081367711717
 30
0.0
 10
141.2519600942535
 20
103.2081367711717
 30
0.0
 10
141.3324065400264
 20
103.2081367711717
 30
0.0
 10
141.3658537685045
 20
103.2081367711717
 30
0.0
 10
141.4482633382787
 20
103.2081367711717
 30
0.0
 10
141.4975464351623
 20
103.2081367711717
 30
0.0
 10
141.5538630577989
 20
103.2081367711717
 30
0.0
  0
SPLINE
  5
25B
330
1F
100
AcDbEntity
  8
0
  6
Continuous
 62
     7
370
    15
100
AcDbSpline
210
0.0
220
0.0
230
1.0
 70
     8
 71
     3
 72
    10
 73
     6
 74
     0
 42
0.00000001
 43
0.00000001
 12
1.0
 22
0.0
 32
0.0
 13
1.0
 23
0.0
 33
0.0
 40
0.0
 40
0.0
 40
0.0
 40
0.0
 40
0.5
 40
0.5
 40
1.0
 40
1.0
 40
1.0
 40
1.0
 10
141.2247393461258
 20
104.2355394596023
 30
0.0
 10
141.2247393461258
 20
104.0528307474673
 30
0.0
 10
141.2517126798339
 20
103.8693224577066
 30
0.0
 10
141.3593030476197
 20
103.5210184793859
 30
0.0
 10
141.4407675919628
 20
103.352830896843
 30
0.0
 10
141.5538630577986
 20
103.2081367711703
 30
0.0
  0
LINE
  5
25C
330
1F
100
AcDbEntity
  8
0
  6
Continuous
 62
     7
370
    15
100
AcDbLine
 10
137.7147397312
 20
74.4581375401
 30
0.0
 11
136.8347395497
 21
74.4581375401
 31
0.0
  0
LINE
  5
25D
330
1F
100
AcDbEntity
  8
0
  6
Continuous
 62
     7
370
    15
100
AcDbLine
 10
136.8347395497
 20
103.2081371303
 30
0.0
 11
137.7147397312
 21
103.2081371303
 31
0.0
  0
ELLIPSE
  5
25E
330
1F
100
AcDbEntity
  8
0
  6
Continuous
 62
     7
370
    15
100
AcDbEllipse
 10
198.8130866317
 20
91.3581367712
 30
0.0
 11
134.3817160615806
 21
-1.278976924368180E-13
 31
0.0
210
0.0
220
0.0
230
1.0
 40
0.1227845609
 41
1.697097393311781
 42
1.777120544540406
  0
SPLINE
  5
25F
330
1F
100
AcDbEntity
  8
0
  6
Continuous
 62
     7
370
    15
100
AcDbSpline
210
0.0
220
0.0
230
1.0
 70
     8
 71
     3
 72
    20
 73
    16
 74
     0
 42
0.00000001
 43
0.00000001
 12
1.0
 22
0.0
 32
0.0
 13
1.0
 23
0.0
 33
0.0
 40
0.0
 40
0.0
 40
0.0
 40
0.0
 40
0.2500000000000005
 40
0.2500000000000005
 40
0.3750000000000005
 40
0.3750000000000005
 40
0.5000000000000003
 40
0.5000000000000003
 40
0.6250000000000002
 40
0.6250000000000002
 40
0.75
 40
0.75
 40
0.8749999999999999
 40
0.8749999999999999
 40
1.0
 40
1.0
 40
1.0
 40
1.0
 10
171.2831818440496
 20
107.5081809936054
 30
0.0
 10
170.9805013755362
 20
107.5004023671923
 30
0.0
 10
170.6914592131949
 20
107.4834369052288
 30
0.0
 10
170.2780158113616
 20
107.4414871549513
 30
0.0
 10
170.1449283613953
 20
107.4247551027673
 30
0.0
 10
169.8942580418196
 20
107.3859728350515
 30
0.0
 10
169.7756664458275
 20
107.3638270072466
 30
0.0
 10
169.5520393310341
 20
107.313094565412
 30
0.0
 10
169.4469231393645
 20
107.2843681443419
 30
0.0
 10
169.2571432992391
 20
107.2214538907227
 30
0.0
 10
169.1714762268744
 20
107.1870736782145
 30
0.0
 10
169.0181892147509
 20
107.1117210501333
 30
0.0
 10
168.9502766215503
 20
107.0704550023337
 30
0.0
 10
168.8354955522522
 20
106.9823538299302
 30
0.0
 10
168.7882807530011
 20
106.9354525646988
 30
0.0
 10
168.7510123953978
 20
106.8854564010145
 30
0.0
  0
ELLIPSE
  5
260
330
1F
100
AcDbEntity
  8
0
  6
Continuous
 62
     7
370
    15
100
AcDbEllipse
 10
170.2465516789
 20
91.3581367712
 30
0.0
 11
0.0
 21
16.5
 31
0.0
210
0.0
220
0.0
230
1.0
 40
0.2679491924
 41
0.3450762140469883
 42
2.796516439542806
  0
SPLINE
  5
261
330
1F
100
AcDbEntity
  8
0
  6
Continuous
 62
     7
370
    15
100
AcDbSpline
210
0.0
220
0.0
230
1.0
 70
     8
 71
     3
 72
    18
 73
    14
 74
     0
 42
0.00000001
 43
0.00000001
 12
1.0
 22
0.0
 32
0.0
 13
1.0
 23
0.0
 33
0.0
 40
0.0
 40
0.0
 40
0.0
 40
0.0
 40
0.2499999999999964
 40
0.2499999999999964
 40
0.3749999999999961
 40
0.3749999999999961
 40
0.4999999999999958
 40
0.4999999999999958
 40
0.6249999999999954
 40
0.6249999999999954
 40
0.7499999999999951
 40
0.7499999999999951
 40
1.0
 40
1.0
 40
1.0
 40
1.0
 10
168.7510123953978
 20
75.83081714132882
 30
0.0
 10
168.8255659619603
 20
75.73080220756721
 30
0.0
 10
168.9386840033615
 20
75.64399382812014
 30
0.0
 10
169.1689862215244
 20
75.53024929281933
 30
0.0
 10
169.2560898655848
 20
75.49522225271866
 30
0.0
 10
169.4454617750543
 20
75.43233718588473
 30
0.0
 10
169.5483478381203
 20
75.40414024185243
 30
0.0
 10
169.7708278107155
 20
75.35342508279227
 30
0.0
 10
169.8915933846642
 20
75.330755969741
 30
0.0
 10
170.1434223349188
 20
75.29170914733818
 30
0.0
 10
170.274655996489
 20
75.27520037631534
 30
0.0
 10
170.6841391449439
 20
75.23343688085036
 30
0.0
 10
170.9803493109176
 20
75.21587508308035
 30
0.0
 10
171.2831818440496
 20
75.20809254873792
 30
0.0
  0
ELLIPSE
  5
262
330
1F
100
AcDbEntity
  8
0
  6
Continuous
 62
     7
370
    15
100
AcDbEllipse
 10
198.8130866317
 20
91.3581367712
 30
0.0
 11
134.3817160615806
 21
-1.278976924368180E-13
 31
0.0
210
0.0
220
0.0
230
1.0
 40
0.1227845609
 41
4.506064762639185
 42
4.586087913867809
  0
ELLIPSE
  5
263
330
1F
100
AcDbEntity
  8
0
  6
Continuous
 62
     7
370
    15
100
AcDbEllipse
 10
201.3435719395
 20
91.3581367712
 30
0.0
 11
20.87002453753752
 21
16.29314679944824
 31
0.0
210
0.0
220
0.0
230
1.0
 40
0.1247957253
 41
3.3001034718064
 42
3.426404538323273
  0
ELLIPSE
  5
264
330
1F
100
AcDbEntity
  8
0
  6
Continuous
 62
     7
370
    15
100
AcDbEllipse
 10
201.3435719395
 20
91.3581367712
 30
0.0
 11
20.87002453753755
 21
-16.29314679944828
 31
0.0
210
0.0
220
0.0
230
1.0
 40
0.1247957253
 41
2.856780768856423
 42
2.983081835373335
  0
ELLIPSE
  5
265
330
1F
100
AcDbEntity
  8
0
  6
Continuous
 62
     7
370
    15
100
AcDbEllipse
 10
167.7916745086
 20
91.3581367712
 30
0.0
 11
0.0
 21
2.100000000000009
 31
0.0
210
0.0
220
0.0
230
1.0
 40
0.2904794051
 41
0.0
 42
6.283185307179586
  0
LINE
  5
266
330
1F
100
AcDbEntity
  8
0
  6
Continuous
 62
     7
370
    15
100
AcDbLine
 10
119.2747392511
 20
76.2544362004
 30
0.0
 11
119.2747392511
 21
106.4618373419
 31
0.0
  0
LINE
  5
267
330
1F
100
AcDbEntity
  8
0
  6
Continuous
 62
     7
370
    15
100
AcDbLine
 10
107.4747395056
 20
76.8456183504
 30
0.0
 11
107.4747395056
 21
77.7213903274
 31
0.0
  0
SPLINE
  5
268
330
1F
100
AcDbEntity
  8
0
  6
Continuous
 62
     7
370
    15
100
AcDbSpline
210
0.0
220
0.0
230
1.0
 70
     8
 71
     3
 72
    12
 73
     8
 74
     0
 42
0.00000001
 43
0.00000001
 12
1.0
 22
0.0
 32
0.0
 13
1.0
 23
0.0
 33
0.0
 40
0.0
 40
0.0
 40
0.0
 40
0.0
 40
0.2499999999999997
 40
0.2499999999999997
 40
0.4999999999999994
 40
0.4999999999999994
 40
1.0
 40
1.0
 40
1.0
 40
1.0
 10
107.1070042532689
 20
78.427760908287
 30
0.0
 10
107.1324284701628
 20
78.3608753152132
 30
0.0
 10
107.1730403097321
 20
78.29642682552961
 30
0.0
 10
107.2576414560043
 20
78.17142616545175
 30
0.0
 10
107.3017382522898
 20
78.11090742025962
 30
0.0
 10
107.4178073607759
 20
77.93470136415121
 30
0.0
 10
107.4747393461258
 20
77.82430694917942
 30
0.0
 10
107.4747393461258
 20
77.72139007308625
 30
0.0
  0
SPLINE
  5
269
330
1F
100
AcDbEntity
  8
0
  6
Continuous
 62
     7
370
    15
100
AcDbSpline
210
0.0
220
0.0
230
1.0
 70
     8
 71
     3
 72
    14
 73
    10
 74
     0
 42
0.00000001
 43
0.00000001
 12
1.0
 22
0.0
 32
0.0
 13
1.0
 23
0.0
 33
0.0
 40
0.0
 40
0.0
 40
0.0
 40
0.0
 40
0.1250000000000003
 40
0.1250000000000003
 40
0.2500000000000006
 40
0.2500000000000006
 40
0.5000000000000003
 40
0.5000000000000003
 40
1.0
 40
1.0
 40
1.0
 40
1.0
 10
106.5747393461258
 20
78.91776672366063
 30
0.0
 10
106.6237516689372
 20
78.92229178281579
 30
0.0
 10
106.6765578939325
 20
78.91417239726131
 30
0.0
 10
106.761624985662
 20
78.88384232210987
 30
0.0
 10
106.7962091710028
 20
78.86318736503341
 30
0.0
 10
106.88476485634
 20
78.7986512417066
 30
0.0
 10
106.9257005576613
 20
78.75141306165398
 30
0.0
 10
107.0295810845642
 20
78.61161696037031
 30
0.0
 10
107.0728048839963
 20
78.51773202150102
 30
0.0
 10
107.1070042532689
 20
78.427760908287
 30
0.0
  0
SPLINE
  5
26A
330
1F
100
AcDbEntity
  8
0
  6
Continuous
 62
     7
370
    15
100
AcDbSpline
210
0.0
220
0.0
230
1.0
 70
     8
 71
     3
 72
    10
 73
     6
 74
     0
 42
0.00000001
 43
0.00000001
 12
1.0
 22
0.0
 32
0.0
 13
1.0
 23
0.0
 33
0.0
 40
0.0
 40
0.0
 40
0.0
 40
0.0
 40
0.5
 40
0.5
 40
1.0
 40
1.0
 40
1.0
 40
1.0
 10
103.6539159544274
 20
78.59151464409415
 30
0.0
 10
104.126820385017
 20
78.65854755721764
 30
0.0
 10
104.6098253178614
 20
78.7164160583835
 30
0.0
 10
105.5856396962143
 20
78.82325720674372
 30
0.0
 10
106.0791139092384
 20
78.87200814108243
 30
0.0
 10
106.5747393461258
 20
78.91776672366069
 30
0.0
  0
SPLINE
  5
26B
330
1F
100
AcDbEntity
  8
0
  6
Continuous
 62
     7
370
    15
100
AcDbSpline
210
0.0
220
0.0
230
1.0
 70
     8
 71
     3
 72
    10
 73
     6
 74
     0
 42
0.00000001
 43
0.00000001
 12
1.0
 22
0.0
 32
0.0
 13
1.0
 23
0.0
 33
0.0
 40
0.0
 40
0.0
 40
0.0
 40
0.0
 40
0.5
 40
0.5
 40
1.0
 40
1.0
 40
1.0
 40
1.0
 10
102.3837393461258
 20
78.50706989361542
 30
0.0
 10
102.5990983766832
 20
78.51408272458596
 30
0.0
 10
102.8135397150072
 20
78.52285744824124
 30
0.0
 10
103.2385309336277
 20
78.54791062578904
 30
0.0
 10
103.4499036653504
 20
78.56259645858938
 30
0.0
 10
103.6539159544274
 20
78.59151464409412
 30
0.0
  0
SPLINE
  5
26C
330
1F
100
AcDbEntity
  8
0
  6
Continuous
 62
     7
370
    15
100
AcDbSpline
210
0.0
220
0.0
230
1.0
 70
     8
 71
     3
 72
     8
 73
     4
 74
     0
 42
0.00000001
 43
0.00000001
 12
1.0
 22
0.0
 32
0.0
 13
1.0
 23
0.0
 33
0.0
 40
0.0
 40
0.0
 40
0.0
 40
0.0
 40
1.0
 40
1.0
 40
1.0
 40
1.0
 10
102.3162231965567
 20
78.65495907162817
 30
0.0
 10
102.3303576411848
 20
78.60416274799495
 30
0.0
 10
102.3534150163334
 20
78.5549239974347
 30
0.0
 10
102.3837393461258
 20
78.50706989361547
 30
0.0
  0
ELLIPSE
  5
26D
330
1F
100
AcDbEntity
  8
0
  6
Continuous
 62
     7
370
    15
100
AcDbEllipse
 10
88.8479971383
 20
90.7188390934
 30
0.0
 11
13.37355272666645
 21
-13.37146352987013
 31
0.0
210
0.0
220
0.0
230
1.0
 40
0.1761188775
 41
0.3023035477142408
 42
0.3822730435340269
  0
ELLIPSE
  5
26E
330
1F
100
AcDbEntity
  8
0
  6
Continuous
 62
     7
370
    15
100
AcDbEllipse
 10
88.7686187076
 20
91.9972472225
 30
0.0
 11
13.36963611134329
 21
13.36754752639485
 31
0.0
210
0.0
220
0.0
230
1.0
 40
0.1761188775
 41
5.93307693184658
 42
5.976720052691197
  0
SPLINE
  5
26F
330
1F
100
AcDbEntity
  8
0
  6
Continuous
 62
     7
370
    15
100
AcDbSpline
210
0.0
220
0.0
230
1.0
 70
     8
 71
     3
 72
     8
 73
     4
 74
     0
 42
0.00000001
 43
0.00000001
 12
1.0
 22
0.0
 32
0.0
 13
1.0
 23
0.0
 33
0.0
 40
0.0
 40
0.0
 40
0.0
 40
0.0
 40
1.0
 40
1.0
 40
1.0
 40
1.0
 10
102.3247393461258
 20
104.2237173181501
 30
0.0
 10
102.2789744384364
 20
104.1621969389913
 30
0.0
 10
102.2445873168064
 20
104.0983020792418
 30
0.0
 10
102.2255720631335
 20
104.0315721341981
 30
0.0
  0
SPLINE
  5
270
330
1F
100
AcDbEntity
  8
0
  6
Continuous
 62
     7
370
    15
100
AcDbSpline
210
0.0
220
0.0
230
1.0
 70
     8
 71
     3
 72
    12
 73
     8
 74
     0
 42
0.00000001
 43
0.00000001
 12
1.0
 22
0.0
 32
0.0
 13
1.0
 23
0.0
 33
0.0
 40
0.0
 40
0.0
 40
0.0
 40
0.0
 40
0.2499999999999999
 40
0.2499999999999999
 40
0.4999999999999998
 40
0.4999999999999998
 40
1.0
 40
1.0
 40
1.0
 40
1.0
 10
104.0747393461259
 20
104.1389306298311
 30
0.0
 10
103.9326969429367
 20
104.1547563580072
 30
0.0
 10
103.7885788364325
 20
104.1657774917826
 30
0.0
 10
103.49882432276
 20
104.1843138536497
 30
0.0
 10
103.3530824194012
 20
104.1915845593855
 30
0.0
 10
102.9144021802214
 20
104.2100454097135
 30
0.0
 10
102.6200265641502
 20
104.217924276537
 30
0.0
 10
102.3247393461258
 20
104.2237173181501
 30
0.0
  0
SPLINE
  5
271
330
1F
100
AcDbEntity
  8
0
  6
Continuous
 62
     7
370
    15
100
AcDbSpline
210
0.0
220
0.0
230
1.0
 70
     8
 71
     3
 72
    20
 73
    16
 74
     0
 42
0.00000001
 43
0.00000001
 12
1.0
 22
0.0
 32
0.0
 13
1.0
 23
0.0
 33
0.0
 40
0.0
 40
0.0
 40
0.0
 40
0.0
 40
0.2500000000000014
 40
0.2500000000000014
 40
0.5000000000000029
 40
0.5000000000000029
 40
0.7500000000000043
 40
0.7500000000000043
 40
0.8750000000000041
 40
0.8750000000000041
 40
0.9375000000000021
 40
0.9375000000000021
 40
0.968750000000001
 40
0.968750000000001
 40
1.0
 40
1.0
 40
1.0
 40
1.0
 10
104.9747393461268
 20
104.9156608929196
 30
0.0
 10
104.9747393461268
 20
104.8550514932222
 30
0.0
 10
104.9493443265498
 20
104.7892255278187
 30
0.0
 10
104.8630511407679
 20
104.655177758472
 30
0.0
 10
104.8024151620847
 20
104.5864824003303
 30
0.0
 10
104.6543133678634
 20
104.4460838486758
 30
0.0
 10
104.5675437610847
 20
104.3743803440945
 30
0.0
 10
104.4189059657556
 20
104.2682169423456
 30
0.0
 10
104.3666167488694
 20
104.2326885937141
 30
0.0
 10
104.2758529205595
 20
104.1829846631986
 30
0.0
 10
104.2434869281075
 20
104.1667236651835
 30
0.0
 10
104.1857977724413
 20
104.1476110968375
 30
0.0
 10
104.1648107445538
 20
104.1422199547559
 30
0.0
 10
104.1195217655633
 20
104.1364825863634
 30
0.0
 10
104.0965074967247
 20
104.1365053200169
 30
0.0
 10
104.0747393461251
 20
104.1389306298297
 30
0.0
  0
LINE
  5
272
330
1F
100
AcDbEntity
  8
0
  6
Continuous
 62
     7
370
    15
100
AcDbLine
 10
104.9747390958
 20
104.9156611915
 30
0.0
 11
104.9747390958
 21
105.7454044129
 31
0.0
  0
SPLINE
  5
273
330
1F
100
AcDbEntity
  8
0
  6
Continuous
 62
     7
370
    15
100
AcDbSpline
210
0.0
220
0.0
230
1.0
 70
     8
 71
     3
 72
    18
 73
    14
 74
     0
 42
0.00000001
 43
0.00000001
 12
1.0
 22
0.0
 32
0.0
 13
1.0
 23
0.0
 33
0.0
 40
0.0
 40
0.0
 40
0.0
 40
0.0
 40
0.0647987055308793
 40
0.1911457431666448
 40
0.3159453184352518
 40
0.3775977083606854
 40
0.4397856493455953
 40
0.5017220995336993
 40
0.5630628754677616
 40
0.6866516188868883
 40
0.8118021473332026
 40
0.9380327409414257
 40
1.0
 40
1.0
 40
1.0
 40
1.0
 10
112.5123862462432
 20
76.60405562624277
 30
0.0
 10
112.5017411194544
 20
76.60262091713471
 30
0.0
 10
112.470339710206
 20
76.59838875637719
 30
0.0
 10
112.8892230583696
 20
76.65920608625513
 30
0.0
 10
113.5337866640282
 20
76.72475621951558
 30
0.0
 10
114.1874480208916
 20
76.75496081218289
 30
0.0
 10
114.7186330093556
 20
76.7585355380788
 30
0.0
 10
115.2700404007183
 20
76.741455077322
 30
0.0
 10
116.0009422219022
 20
76.68843747091016
 30
0.0
 10
116.8628137237457
 20
76.57065336062111
 30
0.0
 10
117.6291180716703
 20
76.41811170387925
 30
0.0
 10
118.0295975218497
 20
76.31891879267693
 30
0.0
 10
117.9983400152046
 20
76.3268641653271
 30
0.0
 10
117.9880479635985
 20
76.32948031082691
 30
0.0
  0
SPLINE
  5
274
330
1F
100
AcDbEntity
  8
0
  6
Continuous
 62
     7
370
    15
100
AcDbSpline
210
0.0
220
0.0
230
1.0
 70
     8
 71
     3
 72
    20
 73
    16
 74
     0
 42
0.00000001
 43
0.00000001
 12
1.0
 22
0.0
 32
0.0
 13
1.0
 23
0.0
 33
0.0
 40
0.0
 40
0.0
 40
0.0
 40
0.0
 40
0.0630568143070669
 40
0.1259401342796631
 40
0.1894847748309022
 40
0.3141571657170803
 40
0.4372859970517723
 40
0.4985322438191075
 40
0.5604678401161853
 40
0.6226252778749597
 40
0.6843273675487901
 40
0.8090799517153909
 40
0.9352224159887809
 40
0.998860761898671
 40
1.0
 40
1.0
 40
1.0
 40
1.0
 10
118.0400185572297
 20
106.3997358213359
 30
0.0
 10
118.0305615223662
 20
106.3973138889305
 30
0.0
 10
118.0116734726973
 20
106.3924766878173
 30
0.0
 10
117.8494183034804
 20
106.3524922435893
 30
0.0
 10
117.5095525904411
 20
106.2750233713605
 30
0.0
 10
116.8582977787255
 20
106.1441006794568
 30
0.0
 10
116.00133710893
 20
106.0279338527378
 30
0.0
 10
115.2705878225202
 20
105.9748978011796
 30
0.0
 10
114.719072859829
 20
105.9577994368261
 30
0.0
 10
114.1865149701592
 20
105.9614238697382
 30
0.0
 10
113.5346846207151
 20
105.9911795865337
 30
0.0
 10
112.8687666734191
 20
106.0602283341047
 30
0.0
 10
112.5275106919787
 20
106.1090729119399
 30
0.0
 10
112.4409335014806
 20
106.1229766279057
 30
0.0
 10
112.4585074992814
 20
106.1202144019948
 30
0.0
 10
112.4588165717513
 20
106.1201658229524
 30
0.0
  0
SPLINE
  5
275
330
1F
100
AcDbEntity
  8
0
  6
Continuous
 62
     7
370
    15
100
AcDbSpline
210
0.0
220
0.0
230
1.0
 70
     8
 71
     3
 72
    26
 73
    22
 74
     0
 42
0.00000001
 43
0.00000001
 12
1.0
 22
0.0
 32
0.0
 13
1.0
 23
0.0
 33
0.0
 40
0.0
 40
0.0
 40
0.0
 40
0.0
 40
0.250000000000004
 40
0.250000000000004
 40
0.3750000000000056
 40
0.3750000000000056
 40
0.4375000000000052
 40
0.4375000000000052
 40
0.4687500000000044
 40
0.4687500000000044
 40
0.5000000000000036
 40
0.5000000000000036
 40
0.5312500000000028
 40
0.5312500000000028
 40
0.562500000000002
 40
0.562500000000002
 40
0.6250000000000012
 40
0.6250000000000012
 40
0.7500000000000009
 40
0.7500000000000009
 40
1.0
 40
1.0
 40
1.0
 40
1.0
 10
102.1347093925136
 20
103.7462173507846
 30
0.0
 10
102.0873212830852
 20
103.6105616087615
 30
0.0
 10
102.0296799811808
 20
103.4666002104323
 30
0.0
 10
101.9076321686374
 20
103.2238276371779
 30
0.0
 10
101.8615831608609
 20
103.1387879967285
 30
0.0
 10
101.7709298766953
 20
102.9984120236881
 30
0.0
 10
101.7365773764097
 20
102.9485006463494
 30
0.0
 10
101.6741422040192
 20
102.8719653814951
 30
0.0
 10
101.6508481852211
 20
102.8455609025082
 30
0.0
 10
101.6017956480945
 20
102.7979661372471
 30
0.0
 10
101.5773641984378
 20
102.7785235233954
 30
0.0
 10
101.536734602818
 20
102.7536157457273
 30
0.0
 10
101.5205723209668
 20
102.7475459144164
 30
0.0
 10
101.4935902768637
 20
102.7418570428226
 30
0.0
 10
101.4828407540409
 20
102.7422475509033
 30
0.0
 10
101.4548047798838
 20
102.7483898976918
 30
0.0
 10
101.4419435478511
 20
102.7590539041097
 30
0.0
 10
101.4109406866908
 20
102.79806669447
 30
0.0
 10
101.4000812046217
 20
102.8341186848743
 30
0.0
 10
101.3768039486837
 20
102.9517980823733
 30
0.0
 10
101.3747393461257
 20
103.0431279827064
 30
0.0
 10
101.3747393461257
 20
103.1363682356126
 30
0.0
  0
SPLINE
  5
276
330
1F
100
AcDbEntity
  8
0
  6
Continuous
 62
     7
370
    15
100
AcDbSpline
210
0.0
220
0.0
230
1.0
 70
     8
 71
     3
 72
    24
 73
    20
 74
     0
 42
0.00000001
 43
0.00000001
 12
1.0
 22
0.0
 32
0.0
 13
1.0
 23
0.0
 33
0.0
 40
0.0
 40
0.0
 40
0.0
 40
0.0
 40
0.249999999999989
 40
0.249999999999989
 40
0.3749999999999837
 40
0.3749999999999837
 40
0.4374999999999819
 40
0.4374999999999819
 40
0.4999999999999801
 40
0.4999999999999801
 40
0.5312499999999805
 40
0.5312499999999805
 40
0.5624999999999807
 40
0.5624999999999807
 40
0.624999999999983
 40
0.624999999999983
 40
0.7499999999999887
 40
0.7499999999999887
 40
1.0
 40
1.0
 40
1.0
 40
1.0
 10
101.3747393461258
 20
79.81062356995037
 30
0.0
 10
101.3747393461258
 20
79.89553252361995
 30
0.0
 10
101.3774639745582
 20
79.97786221966682
 30
0.0
 10
101.4038212956761
 20
80.08027460708583
 30
0.0
 10
101.4160350139483
 20
80.11109170347022
 30
0.0
 10
101.4506456640807
 20
80.14018921954715
 30
0.0
 10
101.4650323744481
 20
80.14714686018579
 30
0.0
 10
101.5062808575505
 20
80.14603711890894
 30
0.0
 10
101.5348204074813
 20
80.13774371330018
 30
0.0
 10
101.5957430729927
 20
80.09316027943895
 30
0.0
 10
101.6188090431325
 20
80.07269856618166
 30
0.0
 10
101.6627049231388
 20
80.0280859479013
 30
0.0
 10
101.6835849586989
 20
80.00420986969492
 30
0.0
 10
101.7407952219921
 20
79.9343127725329
 30
0.0
 10
101.7731418457684
 20
79.88873518374842
 30
0.0
 10
101.8593077892603
 20
79.75985169612957
 30
0.0
 10
101.9049718093003
 20
79.68001851899751
 30
0.0
 10
102.0255193727515
 20
79.45423770988522
 30
0.0
 10
102.0845794614526
 20
79.31940632491388
 30
0.0
 10
102.1347093925136
 20
79.19115118624637
 30
0.0
  0
LINE
  5
277
330
1F
100
AcDbEntity
  8
0
  6
Continuous
 62
     7
370
    15
100
AcDbLine
 10
101.3747396233
 20
79.810623465
 30
0.0
 11
101.3747396233
 21
103.1363684814
 31
0.0
  0
LINE
  5
278
330
1F
100
AcDbEntity
  8
0
  6
Continuous
 62
     7
370
    15
100
AcDbLine
 10
140.6247390719
 20
110.8453128617
 30
0.0
 11
139.3098997237
 21
110.8453128617
 31
0.0
  0
LINE
  5
279
330
1F
100
AcDbEntity
  8
0
  6
Continuous
 62
     7
370
    15
100
AcDbLine
 10
139.3098997237
 20
107.4695460628
 30
0.0
 11
140.6247390719
 21
107.4695460628
 31
0.0
  0
LINE
  5
27A
330
1F
100
AcDbEntity
  8
0
  6
Continuous
 62
     7
370
    15
100
AcDbLine
 10
139.3098997237
 20
107.4695460628
 30
0.0
 11
139.3098997237
 21
110.8453128617
 31
0.0
  0
SPLINE
  5
27B
330
1F
100
AcDbEntity
  8
0
  6
Continuous
 62
     7
370
    15
100
AcDbSpline
210
0.0
220
0.0
230
1.0
 70
     8
 71
     3
 72
    10
 73
     6
 74
     0
 42
0.00000001
 43
0.00000001
 12
1.0
 22
0.0
 32
0.0
 13
1.0
 23
0.0
 33
0.0
 40
0.0
 40
0.0
 40
0.0
 40
0.0
 40
0.5
 40
0.5
 40
1.0
 40
1.0
 40
1.0
 40
1.0
 10
141.2247393461259
 20
110.2290138043146
 30
0.0
 10
141.2247393461259
 20
110.3874482472024
 30
0.0
 10
141.1625781296429
 20
110.5464689420044
 30
0.0
 10
140.9420687889713
 20
110.7764767662601
 30
0.0
 10
140.7831536860261
 20
110.8453120410768
 30
0.0
 10
140.6247393461258
 20
110.8453120410768
 30
0.0
  0
LINE
  5
27C
330
1F
100
AcDbEntity
  8
0
  6
Continuous
 62
     7
370
    15
100
AcDbLine
 10
141.2247399154
 20
106.7183943595
 30
0.0
 11
141.2247399154
 21
110.2290138732
 31
0.0
  0
SPLINE
  5
27D
330
1F
100
AcDbEntity
  8
0
  6
Continuous
 62
     7
370
    15
100
AcDbSpline
210
0.0
220
0.0
230
1.0
 70
     8
 71
     3
 72
    12
 73
     8
 74
     0
 42
0.00000001
 43
0.00000001
 12
1.0
 22
0.0
 32
0.0
 13
1.0
 23
0.0
 33
0.0
 40
0.0
 40
0.0
 40
0.0
 40
0.0
 40
0.250000000000002
 40
0.250000000000002
 40
0.500000000000004
 40
0.500000000000004
 40
1.0
 40
1.0
 40
1.0
 40
1.0
 10
140.6247393461258
 20
107.4695457722492
 30
0.0
 10
140.7140277051695
 20
107.4695457722492
 30
0.0
 10
140.8020865360717
 20
107.4439211396445
 30
0.0
 10
140.9547402493209
 20
107.3553777667126
 30
0.0
 10
141.0205337426629
 20
107.292495283598
 30
0.0
 10
141.175974389379
 20
107.0751340956644
 30
0.0
 10
141.2247393461258
 20
106.896487085653
 30
0.0
 10
141.2247393461259
 20
106.7183939304774
 30
0.0
  0
SPLINE
  5
27E
330
1F
100
AcDbEntity
  8
0
  6
Continuous
 62
     7
370
    15
100
AcDbSpline
210
0.0
220
0.0
230
1.0
 70
     8
 71
     3
 72
     8
 73
     4
 74
     0
 42
0.00000001
 43
0.00000001
 12
1.0
 22
0.0
 32
0.0
 13
1.0
 23
0.0
 33
0.0
 40
0.0
 40
0.0
 40
0.0
 40
0.0
 40
1.0
 40
1.0
 40
1.0
 40
1.0
 10
136.2347393461258
 20
109.0718134667019
 30
0.0
 10
135.9037190151062
 20
109.6633691631596
 30
0.0
 10
135.571937743622
 20
110.2545018274048
 30
0.0
 10
135.2395796472324
 20
110.8453120410768
 30
0.0
  0
LINE
  5
27F
330
1F
100
AcDbEntity
  8
0
  6
Continuous
 62
     7
370
    15
100
AcDbLine
 10
136.2347396376
 20
105.2722245584
 30
0.0
 11
136.2347396376
 21
109.0718139093
 31
0.0
  0
SPLINE
  5
280
330
1F
100
AcDbEntity
  8
0
  6
Continuous
 62
     7
370
    15
100
AcDbSpline
210
0.0
220
0.0
230
1.0
 70
     8
 71
     3
 72
     8
 73
     4
 74
     0
 42
0.00000001
 43
0.00000001
 12
1.0
 22
0.0
 32
0.0
 13
1.0
 23
0.0
 33
0.0
 40
0.0
 40
0.0
 40
0.0
 40
0.0
 40
1.0
 40
1.0
 40
1.0
 40
1.0
 10
135.2395796472324
 20
107.4695457722492
 30
0.0
 10
135.579002688514
 20
106.7397549107298
 30
0.0
 10
135.9115134320091
 20
106.0075865553082
 30
0.0
 10
136.2347393461258
 20
105.2722246706272
 30
0.0
  0
SPLINE
  5
281
330
1F
100
AcDbEntity
  8
0
  6
Continuous
 62
     7
370
    15
100
AcDbSpline
210
0.0
220
0.0
230
1.0
 70
    24
 71
     3
 72
    12
 73
     8
 74
     0
 42
0.00000001
 43
0.00000001
 12
1.0
 22
0.0
 32
0.0
 13
1.0
 23
0.0
 33
0.0
 40
0.0
 40
0.0
 40
0.0
 40
0.0
 40
0.4999999999999974
 40
0.4999999999999974
 40
0.7499999999999987
 40
0.7499999999999987
 40
1.0
 40
1.0
 40
1.0
 40
1.0
 10
138.0663949603767
 20
108.2581367711717
 30
0.0
 10
138.0322249990261
 20
108.2581367711717
 30
0.0
 10
137.9929748579746
 20
108.2581367711717
 30
0.0
 10
137.9149748474616
 20
108.2581367711717
 30
0.0
 10
137.8855719190607
 20
108.2581367711717
 30
0.0
 10
137.8124273249122
 20
108.2581367711717
 30
0.0
 10
137.7657973469443
 20
108.2581367711717
 30
0.0
 10
137.7147393461258
 20
108.2581367711717
 30
0.0
  0
SPLINE
  5
282
330
1F
100
AcDbEntity
  8
0
  6
Continuous
 62
     7
370
    15
100
AcDbSpline
210
0.0
220
0.0
230
1.0
 70
     8
 71
     3
 72
    10
 73
     6
 74
     0
 42
0.00000001
 43
0.00000001
 12
1.0
 22
0.0
 32
0.0
 13
1.0
 23
0.0
 33
0.0
 40
0.0
 40
0.0
 40
0.0
 40
0.0
 40
0.5
 40
0.5
 40
1.0
 40
1.0
 40
1.0
 40
1.0
 10
138.3147393461258
 20
108.7607407429904
 30
0.0
 10
138.3147393461257
 20
108.6641981955149
 30
0.0
 10
138.2927987235447
 20
108.5677369952458
 30
0.0
 10
138.2066685381545
 20
108.3923344010028
 30
0.0
 10
138.1435862310121
 20
108.3159188686361
 30
0.0
 10
138.0663949603805
 20
108.2581367711752
 30
0.0
  0
SPLINE
  5
283
330
1F
100
AcDbEntity
  8
0
  6
Continuous
 62
     7
370
    15
100
AcDbSpline
210
0.0
220
0.0
230
1.0
 70
     8
 71
     3
 72
    12
 73
     8
 74
     0
 42
0.00000001
 43
0.00000001
 12
1.0
 22
0.0
 32
0.0
 13
1.0
 23
0.0
 33
0.0
 40
0.0
 40
0.0
 40
0.0
 40
0.0
 40
0.249999999999999
 40
0.249999999999999
 40
0.499999999999998
 40
0.499999999999998
 40
1.0
 40
1.0
 40
1.0
 40
1.0
 10
137.7147393461258
 20
104.0651476313229
 30
0.0
 10
137.8079903644589
 20
104.0651476313229
 30
0.0
 10
137.8994960732848
 20
104.0962089497222
 30
0.0
 10
138.0544196078199
 20
104.1988296001028
 30
0.0
 10
138.1180144257622
 20
104.2684821281816
 30
0.0
 10
138.2685733824453
 20
104.5036970600834
 30
0.0
 10
138.3147393461258
 20
104.6885031494927
 30
0.0
 10
138.3147393461258
 20
104.8739839514264
 30
0.0
  0
SPLINE
  5
284
330
1F
100
AcDbEntity
  8
0
  6
Continuous
 62
     7
370
    15
100
AcDbSpline
210
0.0
220
0.0
230
1.0
 70
     8
 71
     3
 72
     8
 73
     4
 74
     0
 42
0.00000001
 43
0.00000001
 12
1.0
 22
0.0
 32
0.0
 13
1.0
 23
0.0
 33
0.0
 40
0.0
 40
0.0
 40
0.0
 40
0.0
 40
1.0
 40
1.0
 40
1.0
 40
1.0
 10
139.3098990450193
 20
110.8453120410768
 30
0.0
 10
138.9775409486296
 20
110.2545018274048
 30
0.0
 10
138.6457596771455
 20
109.6633691631596
 30
0.0
 10
138.3147393461258
 20
109.0718134667019
 30
0.0
  0
SPLINE
  5
285
330
1F
100
AcDbEntity
  8
0
  6
Continuous
 62
     7
370
    15
100
AcDbSpline
210
0.0
220
0.0
230
1.0
 70
     8
 71
     3
 72
     8
 73
     4
 74
     0
 42
0.00000001
 43
0.00000001
 12
1.0
 22
0.0
 32
0.0
 13
1.0
 23
0.0
 33
0.0
 40
0.0
 40
0.0
 40
0.0
 40
0.0
 40
1.0
 40
1.0
 40
1.0
 40
1.0
 10
138.3147393461259
 20
105.272224670627
 30
0.0
 10
138.6382969043808
 20
106.0083410692496
 30
0.0
 10
138.9707912245977
 20
106.7404326646683
 30
0.0
 10
139.3098990450193
 20
107.4695457722491
 30
0.0
  0
LINE
  5
286
330
1F
100
AcDbEntity
  8
0
  6
Continuous
 62
     7
370
    15
100
AcDbLine
 10
138.3147387119
 20
105.2722245584
 30
0.0
 11
138.3147387119
 21
109.0718139093
 31
0.0
  0
LINE
  5
287
330
1F
100
AcDbEntity
  8
0
  6
Continuous
 62
     7
370
    15
100
AcDbLine
 10
137.7147397312
 20
108.2581360023
 30
0.0
 11
136.8347395497
 21
108.2581360023
 31
0.0
  0
LINE
  5
288
330
1F
100
AcDbEntity
  8
0
  6
Continuous
 62
     7
370
    15
100
AcDbLine
 10
136.8347395497
 20
104.065147614
 30
0.0
 11
137.7147397312
 21
104.065147614
 31
0.0
  0
LINE
  5
289
330
1F
100
AcDbEntity
  8
0
  6
Continuous
 62
     7
370
    15
100
AcDbLine
 10
136.2347396376
 20
105.2722245584
 30
0.0
 11
136.2347396376
 21
104.873983575
 31
0.0
  0
SPLINE
  5
28A
330
1F
100
AcDbEntity
  8
0
  6
Continuous
 62
     7
370
    15
100
AcDbSpline
210
0.0
220
0.0
230
1.0
 70
     8
 71
     3
 72
    12
 73
     8
 74
     0
 42
0.00000001
 43
0.00000001
 12
1.0
 22
0.0
 32
0.0
 13
1.0
 23
0.0
 33
0.0
 40
0.0
 40
0.0
 40
0.0
 40
0.0
 40
0.4999999999999987
 40
0.4999999999999987
 40
0.7499999999999993
 40
0.7499999999999993
 40
1.0
 40
1.0
 40
1.0
 40
1.0
 10
136.2347393461258
 20
104.8739839514264
 30
0.0
 10
136.2347393461258
 20
104.6895447258
 30
0.0
 10
136.2815820405783
 20
104.5026355062927
 30
0.0
 10
136.4311340632749
 20
104.2690001536718
 30
0.0
 10
136.495239058579
 20
104.1987505218947
 30
0.0
 10
136.6494680138857
 20
104.0965097729334
 30
0.0
 10
136.7421445218187
 20
104.065147631323
 30
0.0
 10
136.8347393461254
 20
104.0651476313229
 30
0.0
  0
LINE
  5
28B
330
1F
100
AcDbEntity
  8
0
  6
Continuous
 62
     7
370
    15
100
AcDbLine
 10
138.3147387119
 20
104.873983575
 30
0.0
 11
138.3147387119
 21
105.2722245584
 31
0.0
  0
LINE
  5
28C
330
1F
100
AcDbEntity
  8
0
  6
Continuous
 62
     7
370
    15
100
AcDbLine
 10
141.2247399154
 20
106.7183943595
 30
0.0
 11
141.2247399154
 21
104.2355395983
 31
0.0
  0
SPLINE
  5
28D
330
1F
100
AcDbEntity
  8
0
  6
Continuous
 62
     7
370
    15
100
AcDbSpline
210
0.0
220
0.0
230
1.0
 70
     8
 71
     3
 72
    10
 73
     6
 74
     0
 42
0.00000001
 43
0.00000001
 12
1.0
 22
0.0
 32
0.0
 13
1.0
 23
0.0
 33
0.0
 40
0.0
 40
0.0
 40
0.0
 40
0.0
 40
0.5
 40
0.5
 40
1.0
 40
1.0
 40
1.0
 40
1.0
 10
136.4830837318758
 20
108.2581367711717
 30
0.0
 10
136.4057590000015
 20
108.3160187720334
 30
0.0
 10
136.342379174465
 20
108.3930921166672
 30
0.0
 10
136.256808725692
 20
108.5675951748611
 30
0.0
 10
136.2347393461258
 20
108.6644003783416
 30
0.0
 10
136.2347393461258
 20
108.7607407429916
 30
0.0
  0
SPLINE
  5
28E
330
1F
100
AcDbEntity
  8
0
  6
Continuous
 62
     7
370
    15
100
AcDbSpline
210
0.0
220
0.0
230
1.0
 70
    24
 71
     3
 72
    12
 73
     8
 74
     0
 42
0.00000001
 43
0.00000001
 12
1.0
 22
0.0
 32
0.0
 13
1.0
 23
0.0
 33
0.0
 40
0.0
 40
0.0
 40
0.0
 40
0.0
 40
0.2499999999999989
 40
0.2499999999999989
 40
0.4999999999999978
 40
0.4999999999999978
 40
1.0
 40
1.0
 40
1.0
 40
1.0
 10
136.8347393461256
 20
108.2581367711717
 30
0.0
 10
136.7834501010892
 20
108.2581367711717
 30
0.0
 10
136.7362620754176
 20
108.2581367711717
 30
0.0
 10
136.6632458667226
 20
108.2581367711717
 30
0.0
 10
136.6337542591829
 20
108.2581367711717
 30
0.0
 10
136.5561722200885
 20
108.2581367711717
 30
0.0
 10
136.5170109073731
 20
108.2581367711717
 30
0.0
 10
136.483083731875
 20
108.2581367711717
 30
0.0
  0
LINE
  5
28F
330
1F
100
AcDbEntity
  8
0
  6
Continuous
 62
     7
370
    15
100
AcDbLine
 10
101.3747396233
 20
79.5396644752
 30
0.0
 11
101.3747396233
 21
79.810623465
 31
0.0
  0
LINE
  5
290
330
1F
100
AcDbEntity
  8
0
  6
Continuous
 62
     7
370
    15
100
AcDbLine
 10
101.3747396233
 20
103.2320507
 30
0.0
 11
101.3747396233
 21
103.1363684814
 31
0.0
  0
LINE
  5
291
330
1F
100
AcDbEntity
  8
0
  6
Continuous
 62
     7
370
    15
100
AcDbLine
 10
102.3247389408
 20
104.238137057
 30
0.0
 11
102.3247389408
 21
104.2237173896
 31
0.0
  0
LINE
  5
292
330
1F
100
AcDbEntity
  8
0
  6
Continuous
 62
     7
370
    15
100
AcDbLine
 10
101.3747396233
 20
103.2881368081
 30
0.0
 11
101.3747396233
 21
103.2320507
 31
0.0
  0
LINE
  5
293
330
1F
100
AcDbEntity
  8
0
  6
Continuous
 62
     7
370
    15
100
AcDbLine
 10
102.3837400886
 20
78.4781364854
 30
0.0
 11
102.3837400886
 21
78.5070698838
 31
0.0
  0
LINE
  5
294
330
1F
100
AcDbEntity
  8
0
  6
Continuous
 62
     7
370
    15
100
AcDbLine
 10
101.3747396233
 20
79.4871369506
 30
0.0
 11
101.3747396233
 21
79.5396644752
 31
0.0
  0
LINE
  5
295
330
1F
100
AcDbEntity
  8
0
  6
Continuous
 62
     7
370
    15
100
AcDbLine
 10
185.4770927044
 20
94.4258439484
 30
0.0
 11
184.4819857093
 21
95.2671062331
 31
0.0
  0
ARC
  5
296
330
1F
100
AcDbEntity
  8
0
  6
Continuous
 62
     7
370
    15
100
AcDbCircle
 10
182.9844456363
 20
93.4654430471
 30
0.0
 40
2.342779653765572
100
AcDbArc
 50
50.2666854797
 51
230.1551982795
  0
LINE
  5
297
330
1F
100
AcDbEntity
  8
0
  6
Continuous
 62
     7
370
    15
100
AcDbLine
 10
181.4834026905
 20
91.6666972115
 30
0.0
 11
191.5479524346
 21
83.1581134479
 31
0.0
  0
LINE
  5
298
330
1F
100
AcDbEntity
  8
0
  6
Continuous
 62
     7
370
    15
100
AcDbLine
 10
191.5479524346
 20
83.1581134479
 30
0.0
 11
181.885622284
 21
74.9895651023
 31
0.0
  0
LINE
  5
299
330
1F
100
AcDbEntity
  8
0
  6
Continuous
 62
     7
370
    15
100
AcDbLine
 10
191.5479524346
 20
99.5581600945
 30
0.0
 11
181.885622284
 21
107.72670844
 31
0.0
  0
LINE
  5
29A
330
1F
100
AcDbEntity
  8
0
  6
Continuous
 62
     7
370
    15
100
AcDbLine
 10
191.5479524346
 20
99.5581600945
 30
0.0
 11
185.4770927044
 21
94.4258439484
 31
0.0
  0
CIRCLE
  5
29B
330
1F
100
AcDbEntity
  8
0
  6
Continuous
 62
     7
370
    15
100
AcDbCircle
 10
180.0981784323
 20
85.9518948009
 30
0.0
 40
3.990799391845851
  0
ARC
  5
29C
330
1F
100
AcDbEntity
  8
0
  6
Continuous
 62
     7
370
    15
100
AcDbCircle
 10
182.4081730159
 20
93.4936323289
 30
0.0
 40
2.323422393415977
100
AcDbArc
 50
49.7562021132
 51
82.8763943339
  0
LINE
  5
29D
330
1F
100
AcDbEntity
  8
0
  6
Continuous
 62
     7
370
    15
100
AcDbLine
 10
184.9043069693
 20
94.4258439484
 30
0.0
 11
185.4770927044
 21
94.4258439484
 31
0.0
  0
LINE
  5
29E
330
1F
100
AcDbEntity
  8
0
  6
Continuous
 62
     7
370
    15
100
AcDbLine
 10
184.9043069693
 20
94.4258439484
 30
0.0
 11
184.9189250084
 21
94.4134804084
 31
0.0
  0
LINE
  5
29F
330
1F
100
AcDbEntity
  8
0
  6
Continuous
 62
     7
370
    15
100
AcDbLine
 10
183.5509052785
 20
95.2671062331
 30
0.0
 11
184.7397832485
 21
94.2620287313
 31
0.0
  0
LINE
  5
2A0
330
1F
100
AcDbEntity
  8
0
  6
Continuous
 62
     7
370
    15
100
AcDbLine
 10
181.2296135636
 20
92.0497194528
 30
0.0
 11
180.9123231383
 21
92.384571013
 31
0.0
  0
ARC
  5
2A1
330
1F
100
AcDbEntity
  8
0
  6
Continuous
 62
     7
370
    15
100
AcDbCircle
 10
182.5689816894
 20
93.6846551251
 30
0.0
 40
2.073725285531586
100
AcDbArc
 50
49.7378843972
 51
93.2631143321
  0
LINE
  5
2A2
330
1F
100
AcDbEntity
  8
0
  6
Continuous
 62
     7
370
    15
100
AcDbLine
 10
181.6762609693
 20
91.6721251632
 30
0.0
 11
181.2296135636
 21
92.0497194528
 31
0.0
  0
ARC
  5
2A3
330
1F
100
AcDbEntity
  8
0
  6
Continuous
 62
     7
370
    15
100
AcDbCircle
 10
182.2097626291
 20
93.6826994506
 30
0.0
 40
2.075815131104003
100
AcDbArc
 50
49.7533011203
 51
84.159855426
  0
LINE
  5
2A4
330
1F
100
AcDbEntity
  8
0
  6
Continuous
 62
     7
370
    15
100
AcDbLine
 10
182.2474038514
 20
91.051718984
 30
0.0
 11
191.4349643799
 21
83.2845460753
 31
0.0
  0
ARC
  5
2A5
330
1F
100
AcDbEntity
  8
0
  6
Continuous
 62
     7
370
    15
100
AcDbCircle
 10
182.5073245632
 20
91.3581367712
 30
0.0
 40
0.4018092044361976
100
AcDbArc
 50
130.3064740935
 51
229.6935259065
  0
LINE
  5
2A6
330
1F
100
AcDbEntity
  8
0
  6
Continuous
 62
     7
370
    15
100
AcDbLine
 10
191.4349643799
 20
99.431727467
 30
0.0
 11
182.2474038514
 21
91.6645545584
 31
0.0
  0
ARC
  5
2A7
330
1F
100
AcDbEntity
  8
0
  6
Continuous
 62
     7
370
    15
100
AcDbCircle
 10
191.6901616665
 20
99.1304418335
 30
0.0
 40
0.3948400791275415
100
AcDbArc
 50
49.7344755852
 51
130.2655244148
  0
LINE
  5
2A8
330
1F
100
AcDbEntity
  8
0
  6
Continuous
 62
     7
370
    15
100
AcDbLine
 10
201.1329157563
 20
91.6645545584
 30
0.0
 11
191.9453589531
 21
99.431727467
 31
0.0
  0
ARC
  5
2A9
330
1F
100
AcDbEntity
  8
0
  6
Continuous
 62
     7
370
    15
100
AcDbCircle
 10
200.8730036954
 20
91.3581367712
 30
0.0
 40
0.4018036084447191
100
AcDbArc
 50
310.3055333675
 51
49.6944666325
  0
LINE
  5
2AA
330
1F
100
AcDbEntity
  8
0
  6
Continuous
 62
     7
370
    15
100
AcDbLine
 10
191.9453589531
 20
83.2845460753
 30
0.0
 11
201.1329157563
 21
91.051718984
 31
0.0
  0
ARC
  5
2AB
330
1F
100
AcDbEntity
  8
0
  6
Continuous
 62
     7
370
    15
100
AcDbCircle
 10
191.6901616665
 20
83.5858317089
 30
0.0
 40
0.3948400791275415
100
AcDbArc
 50
229.7344755852
 51
310.2655244148
  0
ARC
  5
2AC
330
1F
100
AcDbEntity
  8
0
  6
Continuous
 62
     7
370
    15
100
AcDbCircle
 10
200.873227459
 20
91.3581367712
 30
0.0
 40
0.3817240606531726
100
AcDbArc
 50
310.307416507
 51
49.6925834931
  0
LINE
  5
2AD
330
1F
100
AcDbEntity
  8
0
  6
Continuous
 62
     7
370
    15
100
AcDbLine
 10
201.1201603623
 20
91.6492336617
 30
0.0
 11
191.9325961085
 21
99.4164072107
 31
0.0
  0
ARC
  5
2AE
330
1F
100
AcDbEntity
  8
0
  6
Continuous
 62
     7
370
    15
100
AcDbCircle
 10
191.6901579412
 20
99.1301817536
 30
0.0
 40
0.3751016892580646
100
AcDbArc
 50
49.7347940352
 51
130.2652059648
  0
LINE
  5
2AF
330
1F
100
AcDbEntity
  8
0
  6
Continuous
 62
     7
370
    15
100
AcDbLine
 10
191.4477197739
 20
99.4164072107
 30
0.0
 11
182.2601629706
 21
91.6492336617
 31
0.0
  0
ARC
  5
2B0
330
1F
100
AcDbEntity
  8
0
  6
Continuous
 62
     7
370
    15
100
AcDbCircle
 10
182.507095874
 20
91.3581367712
 30
0.0
 40
0.381724060653191
100
AcDbArc
 50
130.307416507
 51
229.692583493
  0
LINE
  5
2B1
330
1F
100
AcDbEntity
  8
0
  6
Continuous
 62
     7
370
    15
100
AcDbLine
 10
182.2601629706
 20
91.0670398806
 30
0.0
 11
191.4477197739
 21
83.2998663317
 31
0.0
  0
ARC
  5
2B2
330
1F
100
AcDbEntity
  8
0
  6
Continuous
 62
     7
370
    15
100
AcDbCircle
 10
191.6901579412
 20
83.5860917888
 30
0.0
 40
0.3751016892580646
100
AcDbArc
 50
229.7347940352
 51
310.2652059648
  0
LINE
  5
2B3
330
1F
100
AcDbEntity
  8
0
  6
Continuous
 62
     7
370
    15
100
AcDbLine
 10
191.9325961085
 20
83.2998663317
 30
0.0
 11
201.1201603623
 21
91.0670398806
 31
0.0
  0
LWPOLYLINE
  5
2B4
330
1F
100
AcDbEntity
  8
0
  6
Continuous
 62
     7
370
    15
100
AcDbPolyline
 90
        3
 70
   128
 43
0.0
 10
181.6673053714
 20
91.6645545584
 10
181.607525638
 20
91.6016413465
 10
181.589945993
 20
91.5766261095
  0
LINE
  5
2B5
330
1F
100
AcDbEntity
  8
0
  6
Continuous
 62
     7
370
    15
100
AcDbLine
 10
183.707058272
 20
91.3581367712
 30
0.0
 11
182.4758647295
 21
91.3581367712
 31
0.0
  0
LINE
  5
2B6
330
1F
100
AcDbEntity
  8
0
  6
Continuous
 62
     7
370
    15
100
AcDbLine
 10
191.6196940752
 20
84.402289627
 30
0.0
 11
191.6634215327
 21
83.5909633096
 31
0.0
  0
LINE
  5
2B7
330
1F
100
AcDbEntity
  8
0
  6
Continuous
 62
     7
370
    15
100
AcDbLine
 10
184.9335504981
 20
94.4258439484
 30
0.0
 11
181.6673053714
 21
91.6645545584
 31
0.0
  0
LINE
  5
2B8
330
1F
100
AcDbEntity
  8
0
  6
Continuous
 62
     7
370
    15
100
AcDbLine
 10
191.6196940752
 20
98.3139839153
 30
0.0
 11
191.6634215327
 21
99.1253102328
 31
0.0
  0
ARC
  5
2B9
330
1F
100
AcDbEntity
  8
0
  6
Continuous
 62
     7
370
    15
100
AcDbCircle
 10
186.5600441013
 20
91.3581367712
 30
0.0
 40
1.004539159855702
100
AcDbArc
 50
130.3075637763
 51
229.6924362237
  0
SPLINE
  5
2BA
330
1F
100
AcDbEntity
  8
0
  6
Continuous
 62
     7
370
    15
100
AcDbSpline
210
0.0
220
0.0
230
1.0
 70
    24
 71
     3
 72
    11
 73
     7
 74
     0
 42
0.00000001
 43
0.00000001
 12
1.0
 22
0.0
 32
0.0
 13
1.0
 23
0.0
 33
0.0
 40
0.0
 40
0.0
 40
0.0
 40
0.0
 40
0.3367817760958859
 40
0.679004686738056
 40
0.992364978562345
 40
1.0
 40
1.0
 40
1.0
 40
1.0
 10
183.7070582719834
 20
91.358136771172
 30
0.0
 10
183.7824741998084
 20
91.35813677117184
 30
0.0
 10
183.9345244949328
 20
91.35813677117156
 30
0.0
 10
184.1768206351709
 20
91.35813677117174
 30
0.0
 10
184.3303079778683
 20
91.35813677117154
 30
0.0
 10
184.4008620082603
 20
91.35813677117166
 30
0.0
 10
184.4025401683838
 20
91.35813677117166
 30
0.0
  0
LINE
  5
2BB
330
1F
100
AcDbEntity
  8
0
  6
Continuous
 62
     7
370
    15
100
AcDbLine
 10
185.9102173062
 20
90.5920923468
 30
0.0
 11
191.0521609994
 21
86.2450859639
 31
0.0
  0
LINE
  5
2BC
330
1F
100
AcDbEntity
  8
0
  6
Continuous
 62
     7
370
    15
100
AcDbLine
 10
191.0521609994
 20
96.4711875784
 30
0.0
 11
185.9102173062
 21
92.1241811956
 31
0.0
  0
ARC
  5
2BD
330
1F
100
AcDbEntity
  8
0
  6
Continuous
 62
     7
370
    15
100
AcDbCircle
 10
191.6901579412
 20
95.7179565906
 30
0.0
 40
0.9871155042654527
100
AcDbArc
 50
49.7349447461
 51
130.2650552539
  0
LINE
  5
2BE
330
1F
100
AcDbEntity
  8
0
  6
Continuous
 62
     7
370
    15
100
AcDbLine
 10
197.4701060267
 20
92.1241811956
 30
0.0
 11
192.328154883
 21
96.4711875784
 31
0.0
  0
ARC
  5
2BF
330
1F
100
AcDbEntity
  8
0
  6
Continuous
 62
     7
370
    15
100
AcDbCircle
 10
196.820272193
 20
91.3581367712
 30
0.0
 40
1.004543713141942
100
AcDbArc
 50
310.3078699259
 51
49.6921300741
  0
LINE
  5
2C0
330
1F
100
AcDbEntity
  8
0
  6
Continuous
 62
     7
370
    15
100
AcDbLine
 10
192.328154883
 20
86.2450859639
 30
0.0
 11
197.4701060267
 21
90.5920923468
 31
0.0
  0
ARC
  5
2C1
330
1F
100
AcDbEntity
  8
0
  6
Continuous
 62
     7
370
    15
100
AcDbCircle
 10
191.6901579412
 20
86.9983169517
 30
0.0
 40
0.9871155042654636
100
AcDbArc
 50
229.7349447461
 51
310.2650552539
  0
CIRCLE
  5
2C2
330
1F
100
AcDbEntity
  8
0
  6
Continuous
 62
     7
370
    15
100
AcDbCircle
 10
191.6789642292
 20
91.3430594957
 30
0.0
 40
2.56771459164073
  0
ARC
  5
2C3
330
1F
100
AcDbEntity
  8
0
  6
Continuous
 62
     7
370
    15
100
AcDbCircle
 10
191.0907558667
 20
91.3567288672
 30
0.0
 40
2.583393696915373
100
AcDbArc
 50
310.1380829807
 51
83.1224750358
  0
ARC
  5
2C4
330
1F
100
AcDbEntity
  8
0
  6
Continuous
 62
     7
370
    15
100
AcDbCircle
 10
191.108149255
 20
91.3288463256
 30
0.0
 40
2.550869640510517
100
AcDbArc
 50
276.5722257522
 51
310.2431310605
  0
LINE
  5
2C5
330
1F
100
AcDbEntity
  8
0
  6
Continuous
 62
     7
370
    15
100
AcDbLine
 10
199.5022295328
 20
91.3581367712
 30
0.0
 11
200.8509857865
 21
91.3581367712
 31
0.0
  0
SPLINE
  5
2C6
330
1F
100
AcDbEntity
  8
0
  6
Continuous
 62
     7
370
    15
100
AcDbSpline
210
0.0
220
0.0
230
1.0
 70
     8
 71
     3
 72
    11
 73
     7
 74
     0
 42
0.00000001
 43
0.00000001
 12
1.0
 22
0.0
 32
0.0
 13
1.0
 23
0.0
 33
0.0
 40
0.0
 40
0.0
 40
0.0
 40
0.0
 40
0.0081159102714312
 40
0.3263677910401449
 40
0.6627686826159626
 40
1.0
 40
1.0
 40
1.0
 40
1.0
 10
191.6257811995537
 20
85.09618175581039
 30
0.0
 10
191.6256642403994
 20
85.09449520515467
 30
0.0
 10
191.6209609231407
 20
85.0266733843639
 30
0.0
 10
191.6137090312635
 20
84.87750614388806
 30
0.0
 10
191.6105294402651
 20
84.63503526382614
 30
0.0
 10
191.6166366873055
 20
84.47993523959454
 30
0.0
 10
191.619694075206
 20
84.40228962704481
 30
0.0
  0
SPLINE
  5
2C7
330
1F
100
AcDbEntity
  8
0
  6
Continuous
 62
     7
370
    15
100
AcDbSpline
210
0.0
220
0.0
230
1.0
 70
     8
 71
     3
 72
    11
 73
     7
 74
     0
 42
0.00000001
 43
0.00000001
 12
1.0
 22
0.0
 32
0.0
 13
1.0
 23
0.0
 33
0.0
 40
0.0
 40
0.0
 40
0.0
 40
0.0
 40
0.3372313173840374
 40
0.6736322089598551
 40
0.9918840897285687
 40
1.0
 40
1.0
 40
1.0
 40
1.0
 10
191.619694075206
 20
98.31398391529859
 30
0.0
 10
191.6166366873055
 20
98.23633830274886
 30
0.0
 10
191.610529440265
 20
98.08123827851725
 30
0.0
 10
191.613709031264
 20
97.83876739845536
 30
0.0
 10
191.6209609231398
 20
97.68960015797946
 30
0.0
 10
191.6256642403994
 20
97.62177833718873
 30
0.0
 10
191.6257811995537
 20
97.62009178653301
 30
0.0
  0
SPLINE
  5
2C8
330
1F
100
AcDbEntity
  8
0
  6
Continuous
 62
     7
370
    15
100
AcDbSpline
210
0.0
220
0.0
230
1.0
 70
    24
 71
     3
 72
    11
 73
     7
 74
     0
 42
0.00000001
 43
0.00000001
 12
1.0
 22
0.0
 32
0.0
 13
1.0
 23
0.0
 33
0.0
 40
0.0
 40
0.0
 40
0.0
 40
0.0
 40
0.0076245191770349
 40
0.3209834010685036
 40
0.663213947048304
 40
1.0
 40
1.0
 40
1.0
 40
1.0
 10
198.8251207681687
 20
91.35813677117163
 30
0.0
 10
198.8265750093494
 20
91.35813677117163
 30
0.0
 10
198.8877968738805
 20
91.35813677117146
 30
0.0
 10
199.026438630398
 20
91.35813677117171
 30
0.0
 10
199.2598381253707
 20
91.3581367711716
 30
0.0
 10
199.421865453011
 20
91.35813677117162
 30
0.0
 10
199.5022295328171
 20
91.35813677117163
 30
0.0
  0
LINE
  5
2C9
330
1F
100
AcDbEntity
  8
0
  6
Continuous
 62
     7
370
    15
100
AcDbLine
 10
190.1685221406
 20
93.3520138859
 30
0.0
 11
190.4515175434
 21
93.2681354824
 31
0.0
  0
LINE
  5
2CA
330
1F
100
AcDbEntity
  8
0
  6
Continuous
 62
     7
370
    15
100
AcDbLine
 10
190.4515175434
 20
93.2681354824
 30
0.0
 11
189.6207852574
 21
92.8778520682
 31
0.0
  0
ELLIPSE
  5
2CB
330
1F
100
AcDbEntity
  8
0
  6
Continuous
 62
     7
370
    15
100
AcDbEllipse
 10
190.9494444782
 20
91.0746361685
 30
0.0
 11
0.1774412266989032
 21
2.243639031128481
 31
0.0
210
0.0
220
0.0
230
1.0
 40
0.993338952
 41
3.868059894364416
 42
6.587230787235848
  0
ELLIPSE
  5
2CC
330
1F
100
AcDbEntity
  8
0
  6
Continuous
 62
     7
370
    15
100
AcDbEllipse
 10
190.9494444782
 20
91.0746361685
 30
0.0
 11
0.1774412266989032
 21
2.243639031128481
 31
0.0
210
0.0
220
0.0
230
1.0
 40
0.993338952
 41
3.314957273682398
 42
3.44563813364608
  0
LINE
  5
2CD
330
1F
100
AcDbEntity
  8
0
  6
Continuous
 62
     7
370
    15
100
AcDbLine
 10
191.4473770472
 20
88.8811367694
 30
0.0
 11
192.2971753689
 21
89.2803812529
 31
0.0
  0
SPLINE
  5
2CE
330
1F
100
AcDbEntity
  8
0
  6
Continuous
 62
     7
370
    15
100
AcDbSpline
210
0.0
220
0.0
230
1.0
 70
     8
 71
     3
 72
     9
 73
     5
 74
     0
 42
0.00000001
 43
0.00000001
 12
1.0
 22
0.0
 32
0.0
 13
1.0
 23
0.0
 33
0.0
 40
0.0
 40
0.0
 40
0.0
 40
0.0
 40
0.3416393761354568
 40
1.0
 40
1.0
 40
1.0
 40
1.0
 10
190.7371728035004
 20
93.47265717938484
 30
0.0
 10
190.6909894593655
 20
93.48979902574884
 30
0.0
 10
190.5558078984537
 20
93.53997429113507
 30
0.0
 10
190.4751964237416
 20
93.54092130517112
 30
0.0
 10
190.4221250029595
 20
93.54154478192271
 30
0.0
  0
CIRCLE
  5
2CF
330
1F
100
AcDbEntity
  8
0
  6
Continuous
 62
     7
370
    15
100
AcDbCircle
 10
180.0806249348
 20
85.9673869686
 30
0.0
 40
3.48123742341992
  0
CIRCLE
  5
2D0
330
1F
100
AcDbEntity
  8
0
  6
Continuous
 62
     7
370
    15
100
AcDbCircle
 10
180.0798107775
 20
85.9595577743
 30
0.0
 40
1.989066528022729
  0
SPLINE
  5
2D1
330
1F
100
AcDbEntity
  8
0
  6
Continuous
 62
     7
370
    15
100
AcDbSpline
210
0.0
220
0.0
230
1.0
 70
    24
 71
     3
 72
    11
 73
     7
 74
     0
 42
0.00000001
 43
0.00000001
 12
1.0
 22
0.0
 32
0.0
 13
1.0
 23
0.0
 33
0.0
 40
0.0
 40
0.0
 40
0.0
 40
0.0
 40
0.1081097054173617
 40
0.4711567232225312
 40
0.8135804541502049
 40
1.0
 40
1.0
 40
1.0
 40
1.0
 10
179.1853418859036
 20
84.44862292513193
 30
0.0
 10
179.2400481716286
 20
84.44862292513193
 30
0.0
 10
179.4784655664623
 20
84.44862292513193
 30
0.0
 10
179.9450995893084
 20
84.44862292513193
 30
0.0
 10
180.4955041125119
 20
84.44862292513193
 30
0.0
 10
180.7978893102243
 20
84.44862292513193
 30
0.0
 10
180.9044814022572
 20
84.44862292513193
 30
0.0
  0
SPLINE
  5
2D2
330
1F
100
AcDbEntity
  8
0
  6
Continuous
 62
     7
370
    15
100
AcDbSpline
210
0.0
220
0.0
230
1.0
 70
     8
 71
     3
 72
    10
 73
     6
 74
     0
 42
0.00000001
 43
0.00000001
 12
1.0
 22
0.0
 32
0.0
 13
1.0
 23
0.0
 33
0.0
 40
0.0
 40
0.0
 40
0.0
 40
0.0
 40
0.4391159898470366
 40
0.7513668911449704
 40
1.0
 40
1.0
 40
1.0
 40
1.0
 10
180.9044814022572
 20
84.44862292513193
 30
0.0
 10
181.0150142698128
 20
84.66335968297984
 30
0.0
 10
181.2041459320269
 20
85.03079355896998
 30
0.0
 10
181.5197512080142
 20
85.56492144440118
 30
0.0
 10
181.6890174703031
 20
85.83077396075278
 30
0.0
 10
181.764051160434
 20
85.94862317100109
 30
0.0
  0
SPLINE
  5
2D3
330
1F
100
AcDbEntity
  8
0
  6
Continuous
 62
     7
370
    15
100
AcDbSpline
210
0.0
220
0.0
230
1.0
 70
     8
 71
     3
 72
    10
 73
     6
 74
     0
 42
0.00000001
 43
0.00000001
 12
1.0
 22
0.0
 32
0.0
 13
1.0
 23
0.0
 33
0.0
 40
0.0
 40
0.0
 40
0.0
 40
0.0
 40
0.4391161917015935
 40
0.7513668765255124
 40
1.0
 40
1.0
 40
1.0
 40
1.0
 10
181.764051160434
 20
85.94862317100109
 30
0.0
 10
181.6284777289492
 20
86.1633599178296
 30
0.0
 10
181.3964995243655
 20
86.53079359891194
 30
0.0
 10
181.0999391787082
 20
87.06492132092289
 30
0.0
 10
180.9645138432834
 20
87.33077373635517
 30
0.0
 10
180.9044814022572
 20
87.44862295120896
 30
0.0
  0
SPLINE
  5
2D4
330
1F
100
AcDbEntity
  8
0
  6
Continuous
 62
     7
370
    15
100
AcDbSpline
210
0.0
220
0.0
230
1.0
 70
    24
 71
     3
 72
    11
 73
     7
 74
     0
 42
0.00000001
 43
0.00000001
 12
1.0
 22
0.0
 32
0.0
 13
1.0
 23
0.0
 33
0.0
 40
0.0
 40
0.0
 40
0.0
 40
0.0
 40
0.1864195458497952
 40
0.5288432767774689
 40
0.8918902945826384
 40
1.0
 40
1.0
 40
1.0
 40
1.0
 10
180.9044814022572
 20
87.44862295120896
 30
0.0
 10
180.7978893102243
 20
87.44862295120896
 30
0.0
 10
180.4955041125119
 20
87.44862295120896
 30
0.0
 10
179.9450995893084
 20
87.44862295120896
 30
0.0
 10
179.4784655664623
 20
87.44862295120896
 30
0.0
 10
179.2400481716286
 20
87.44862295120896
 30
0.0
 10
179.1853418859036
 20
87.44862295120896
 30
0.0
  0
SPLINE
  5
2D5
330
1F
100
AcDbEntity
  8
0
  6
Continuous
 62
     7
370
    15
100
AcDbSpline
210
0.0
220
0.0
230
1.0
 70
     8
 71
     3
 72
    10
 73
     6
 74
     0
 42
0.00000001
 43
0.00000001
 12
1.0
 22
0.0
 32
0.0
 13
1.0
 23
0.0
 33
0.0
 40
0.0
 40
0.0
 40
0.0
 40
0.0
 40
0.4391172191870209
 40
0.7513668816928385
 40
0.9999999999999999
 40
0.9999999999999999
 40
0.9999999999999999
 40
0.9999999999999999
 10
179.1853418859036
 20
87.44862295120896
 30
0.0
 10
179.0497663900897
 20
87.23388667224091
 30
0.0
 10
178.8177851944712
 20
86.86645464893456
 30
0.0
 10
178.5212304289697
 20
86.332323878154
 30
0.0
 10
178.3858048052688
 20
86.06647225020976
 30
0.0
 10
178.3257721277268
 20
85.94862317100109
 30
0.0
  0
SPLINE
  5
2D6
330
1F
100
AcDbEntity
  8
0
  6
Continuous
 62
     7
370
    15
100
AcDbSpline
210
0.0
220
0.0
230
1.0
 70
     8
 71
     3
 72
    10
 73
     6
 74
     0
 42
0.00000001
 43
0.00000001
 12
1.0
 22
0.0
 32
0.0
 13
1.0
 23
0.0
 33
0.0
 40
0.0
 40
0.0
 40
0.0
 40
0.0
 40
0.4391159935063265
 40
0.7513668815655
 40
1.0
 40
1.0
 40
1.0
 40
1.0
 10
178.3257721277268
 20
85.94862317100109
 30
0.0
 10
178.4363049921551
 20
85.73388641828959
 30
0.0
 10
178.6254366450308
 20
85.36645255883482
 30
0.0
 10
178.9410419464771
 20
84.83232463045815
 30
0.0
 10
179.1103081974213
 20
84.56647213252498
 30
0.0
 10
179.1853418859036
 20
84.44862292513193
 30
0.0
  0
LINE
  5
2D7
330
1F
100
AcDbEntity
  8
0
  6
Continuous
 62
     7
370
    15
100
AcDbLine
 10
181.3092304679
 20
85.948623171
 30
0.0
 11
181.7640511604
 21
85.948623171
 31
0.0
  0
LINE
  5
2D8
330
1F
100
AcDbEntity
  8
0
  6
Continuous
 62
     7
370
    15
100
AcDbLine
 10
181.3092304679
 20
85.948623171
 30
0.0
 11
180.8794437262
 21
86.6986228283
 31
0.0
  0
LINE
  5
2D9
330
1F
100
AcDbEntity
  8
0
  6
Continuous
 62
     7
370
    15
100
AcDbLine
 10
180.8794437262
 20
86.6986228283
 30
0.0
 11
180.4496569844
 21
87.4486229512
 31
0.0
  0
LINE
  5
2DA
330
1F
100
AcDbEntity
  8
0
  6
Continuous
 62
     7
370
    15
100
AcDbLine
 10
180.4496569844
 20
84.4486229251
 30
0.0
 11
180.8794437262
 21
85.1986230481
 31
0.0
  0
LINE
  5
2DB
330
1F
100
AcDbEntity
  8
0
  6
Continuous
 62
     7
370
    15
100
AcDbLine
 10
180.8794437262
 20
85.1986230481
 30
0.0
 11
181.3092304679
 21
85.948623171
 31
0.0
  0
ARC
  5
2DC
330
1F
100
AcDbEntity
  8
0
  6
Continuous
 62
     7
370
    15
100
AcDbCircle
 10
179.569390582
 20
85.9486229382
 30
0.0
 40
1.50954929551486
100
AcDbArc
 50
330.2090450184
 51
29.7909549816
  0
ARC
  5
2DD
330
1F
100
AcDbEntity
  8
0
  6
Continuous
 62
     7
370
    15
100
AcDbCircle
 10
179.5879705328
 20
85.9355551568
 30
0.0
 40
1.486933738258333
100
AcDbArc
 50
270.0815622359
 51
330.2903334604
  0
ARC
  5
2DE
330
1F
100
AcDbEntity
  8
0
  6
Continuous
 62
     7
370
    15
100
AcDbCircle
 10
179.5901813084
 20
85.9274744389
 30
0.0
 40
1.478851516773077
100
AcDbArc
 50
251.5029123592
 51
269.9963549359
  0
ARC
  5
2DF
330
1F
100
AcDbEntity
  8
0
  6
Continuous
 62
     7
370
    15
100
AcDbCircle
 10
179.5901777013
 20
85.9697910169
 30
0.0
 40
1.478831937077732
100
AcDbArc
 50
90.0035053582
 51
108.5017599622
  0
ARC
  5
2E0
330
1F
100
AcDbEntity
  8
0
  6
Continuous
 62
     7
370
    15
100
AcDbCircle
 10
179.5879717813
 20
85.9616928658
 30
0.0
 40
1.486931590243029
100
AcDbArc
 50
29.7096185515
 51
89.9184857522
  0
LINE
  5
2E1
330
1F
100
AcDbEntity
  8
VERMASSUNG
  6
CENTERX2
100
AcDbLine
 10
201.2747393461
 20
91.3581367712
 30
0.0
 11
97.8153869132
 21
91.3581367712
 31
0.0
  0
LINE
  5
2E2
330
1F
100
AcDbEntity
  8
VERMASSUNG
  6
CENTERX2
100
AcDbLine
 10
201.2747393461
 20
91.3581367712
 30
0.0
 11
201.2747393461
 21
59.6052562213
 31
0.0
  0
DIMENSION
  5
2E3
330
1F
100
AcDbEntity
  8
VERMASSUNG
100
AcDbDimension
  2
_D_1
 10
201.2747393461
 20
61.3581367712
 30
0.0
 11
161.2747393461
 21
61.3581367712
 31
0.0
 70
   160
  1
<>
 71
     2
 42
-1.0
  3
SLDDIMSTYLE0
100
AcDbAlignedDimension
 13
121.2747393461
 23
71.6581367712
 33
0.0
 14
201.2747393461
 24
59.6052562213
 34
0.0
 50
0.0
100
AcDbRotatedDimension
  0
DIMENSION
  5
2EC
330
1F
100
AcDbEntity
  8
VERMASSUNG
100
AcDbDimension
  2
_D_2
 10
201.2747393461
 20
50.8398312999
 30
0.0
 11
151.3247393461
 21
50.8398312999
 31
0.0
 70
   160
  1
<>
 71
     2
 42
-1.0
  3
SLDDIMSTYLE0
100
AcDbAlignedDimension
 13
101.3747393461
 23
79.4871367712
 33
0.0
 14
201.2747393461
 24
59.6052562213
 34
0.0
 50
0.0
100
AcDbRotatedDimension
  0
DIMENSION
  5
2F6
330
1F
100
AcDbEntity
  8
VERMASSUNG
100
AcDbDimension
  2
_D_3
 10
211.4370532184
 20
74.8581367712
 30
0.0
 11
211.4370532184
 21
91.3581367712
 31
0.0
 70
   160
  1
%%c<>
 71
     2
 42
-1.0
  3
SLDDIMSTYLE0
100
AcDbAlignedDimension
 13
181.0561401192
 23
107.8581367712
 33
0.0
 14
181.0561401192
 24
74.8581367712
 34
0.0
 50
90.0
100
AcDbRotatedDimension
  0
OLE2FRAME
  5
301
330
1F
100
AcDbEntity
  8
0
100
AcDbOle2Frame
 70
     2
  3
Paintbrush-Bild
 10
13.8511154363
 20
38.264191557
 30
0.0
 11
51.6290888628
 21
31.9806341108
 31
0.0
 71
     2
 72
     0
 73
     1
 90
    12928
310
80552BED0767C5B32B40DDAF6807D121434000000000000000006FFBDDFB85D0
310
4940DDAF6807D121434000000000000000006FFBDDFB85D04940416F4BD60AFB
310
3F4000000000000000002BED0767C5B32B40416F4BD60AFB3F40000000000000
310
0000000000000100000000010000010000000100000000000100000000320000
310
D0CF11E0A1B11AE1000000000000000000000000000000003E000300FEFF0900
310
0600000000000000000000000100000001000000000000000010000002000000
310
01000000FEFFFFFF0000000000000000FFFFFFFFFFFFFFFFFFFFFFFFFFFFFFFF
310
FFFFFFFFFFFFFFFFFFFFFFFFFFFFFFFFFFFFFFFFFFFFFFFFFFFFFFFFFFFFFFFF
310
FFFFFFFFFFFFFFFFFFFFFFFFFFFFFFFFFFFFFFFFFFFFFFFFFFFFFFFFFFFFFFFF
310
FFFFFFFFFFFFFFFFFFFFFFFFFFFFFFFFFFFFFFFFFFFFFFFFFFFFFFFFFFFFFFFF
310
FFFFFFFFFFFFFFFFFFFFFFFFFFFFFFFFFFFFFFFFFFFFFFFFFFFFFFFFFFFFFFFF
310
FFFFFFFFFFFFFFFFFFFFFFFFFFFFFFFFFFFFFFFFFFFFFFFFFFFFFFFFFFFFFFFF
310
FFFFFFFFFFFFFFFFFFFFFFFFFFFFFFFFFFFFFFFFFFFFFFFFFFFFFFFFFFFFFFFF
310
FFFFFFFFFFFFFFFFFFFFFFFFFFFFFFFFFFFFFFFFFFFFFFFFFFFFFFFFFFFFFFFF
310
FFFFFFFFFFFFFFFFFFFFFFFFFFFFFFFFFFFFFFFFFFFFFFFFFFFFFFFFFFFFFFFF
310
FFFFFFFFFFFFFFFFFFFFFFFFFFFFFFFFFFFFFFFFFFFFFFFFFFFFFFFFFFFFFFFF
310
FFFFFFFFFFFFFFFFFFFFFFFFFFFFFFFFFFFFFFFFFFFFFFFFFFFFFFFFFFFFFFFF
310
FFFFFFFFFFFFFFFFFFFFFFFFFFFFFFFFFFFFFFFFFFFFFFFFFFFFFFFFFFFFFFFF
310
FFFFFFFFFFFFFFFFFFFFFFFFFFFFFFFFFFFFFFFFFFFFFFFFFFFFFFFFFFFFFFFF
310
FFFFFFFFFFFFFFFFFFFFFFFFFFFFFFFFFFFFFFFFFFFFFFFFFFFFFFFFFFFFFFFF
310
FDFFFFFFFEFFFFFFFEFFFFFFFEFFFFFF05000000060000000700000008000000
310
090000000A0000000B0000000C0000000D0000000E0000000F00000010000000
310
11000000120000001300000014000000150000001600000017000000FEFFFFFF
310
FFFFFFFFFFFFFFFFFFFFFFFFFFFFFFFFFFFFFFFFFFFFFFFFFFFFFFFFFFFFFFFF
310
FFFFFFFFFFFFFFFFFFFFFFFFFFFFFFFFFFFFFFFFFFFFFFFFFFFFFFFFFFFFFFFF
310
FFFFFFFFFFFFFFFFFFFFFFFFFFFFFFFFFFFFFFFFFFFFFFFFFFFFFFFFFFFFFFFF
310
FFFFFFFFFFFFFFFFFFFFFFFFFFFFFFFFFFFFFFFFFFFFFFFFFFFFFFFFFFFFFFFF
310
FFFFFFFFFFFFFFFFFFFFFFFFFFFFFFFFFFFFFFFFFFFFFFFFFFFFFFFFFFFFFFFF
310
FFFFFFFFFFFFFFFFFFFFFFFFFFFFFFFFFFFFFFFFFFFFFFFFFFFFFFFFFFFFFFFF
310
FFFFFFFFFFFFFFFFFFFFFFFFFFFFFFFFFFFFFFFFFFFFFFFFFFFFFFFFFFFFFFFF
310
FFFFFFFFFFFFFFFFFFFFFFFFFFFFFFFFFFFFFFFFFFFFFFFFFFFFFFFFFFFFFFFF
310
FFFFFFFFFFFFFFFFFFFFFFFFFFFFFFFFFFFFFFFFFFFFFFFFFFFFFFFFFFFFFFFF
310
FFFFFFFFFFFFFFFFFFFFFFFFFFFFFFFFFFFFFFFFFFFFFFFFFFFFFFFFFFFFFFFF
310
FFFFFFFFFFFFFFFFFFFFFFFFFFFFFFFFFFFFFFFFFFFFFFFFFFFFFFFFFFFFFFFF
310
FFFFFFFFFFFFFFFFFFFFFFFFFFFFFFFFFFFFFFFFFFFFFFFFFFFFFFFFFFFFFFFF
310
FFFFFFFFFFFFFFFFFFFFFFFFFFFFFFFFFFFFFFFFFFFFFFFFFFFFFFFFFFFFFFFF
310
52006F006F007400200045006E00740072007900000000000000000000000000
310
0000000000000000000000000000000000000000000000000000000000000000
310
16000500FFFFFFFFFFFFFFFF020000000A00030000000000C000000000000046
310
0000000000000000000000001089FB8B9F48CD0103000000C000000000000000
310
01004F006C006500000000000000000000000000000000000000000000000000
310
0000000000000000000000000000000000000000000000000000000000000000
310
0A000200FFFFFFFFFFFFFFFFFFFFFFFF00000000000000000000000000000000
310
0000000000000000000000000000000000000000000000001400000000000000
310
010043006F006D0070004F0062006A0000000000000000000000000000000000
310
0000000000000000000000000000000000000000000000000000000000000000
310
120002010100000003000000FFFFFFFF00000000000000000000000000000000
310
0000000000000000000000000000000000000000010000004D00000000000000
310
01004F006C006500310030004E00610074006900760065000000000000000000
310
0000000000000000000000000000000000000000000000000000000000000000
310
1A000200FFFFFFFFFFFFFFFFFFFFFFFF00000000000000000000000000000000
310
0000000000000000000000000000000000000000040000002426000000000000
310
FEFFFFFF02000000FEFFFFFFFFFFFFFFFFFFFFFFFFFFFFFFFFFFFFFFFFFFFFFF
310
FFFFFFFFFFFFFFFFFFFFFFFFFFFFFFFFFFFFFFFFFFFFFFFFFFFFFFFFFFFFFFFF
310
FFFFFFFFFFFFFFFFFFFFFFFFFFFFFFFFFFFFFFFFFFFFFFFFFFFFFFFFFFFFFFFF
310
FFFFFFFFFFFFFFFFFFFFFFFFFFFFFFFFFFFFFFFFFFFFFFFFFFFFFFFFFFFFFFFF
310
FFFFFFFFFFFFFFFFFFFFFFFFFFFFFFFFFFFFFFFFFFFFFFFFFFFFFFFFFFFFFFFF
310
FFFFFFFFFFFFFFFFFFFFFFFFFFFFFFFFFFFFFFFFFFFFFFFFFFFFFFFFFFFFFFFF
310
FFFFFFFFFFFFFFFFFFFFFFFFFFFFFFFFFFFFFFFFFFFFFFFFFFFFFFFFFFFFFFFF
310
FFFFFFFFFFFFFFFFFFFFFFFFFFFFFFFFFFFFFFFFFFFFFFFFFFFFFFFFFFFFFFFF
310
FFFFFFFFFFFFFFFFFFFFFFFFFFFFFFFFFFFFFFFFFFFFFFFFFFFFFFFFFFFFFFFF
310
FFFFFFFFFFFFFFFFFFFFFFFFFFFFFFFFFFFFFFFFFFFFFFFFFFFFFFFFFFFFFFFF
310
FFFFFFFFFFFFFFFFFFFFFFFFFFFFFFFFFFFFFFFFFFFFFFFFFFFFFFFFFFFFFFFF
310
FFFFFFFFFFFFFFFFFFFFFFFFFFFFFFFFFFFFFFFFFFFFFFFFFFFFFFFFFFFFFFFF
310
FFFFFFFFFFFFFFFFFFFFFFFFFFFFFFFFFFFFFFFFFFFFFFFFFFFFFFFFFFFFFFFF
310
FFFFFFFFFFFFFFFFFFFFFFFFFFFFFFFFFFFFFFFFFFFFFFFFFFFFFFFFFFFFFFFF
310
FFFFFFFFFFFFFFFFFFFFFFFFFFFFFFFFFFFFFFFFFFFFFFFFFFFFFFFFFFFFFFFF
310
FFFFFFFFFFFFFFFFFFFFFFFFFFFFFFFFFFFFFFFFFFFFFFFFFFFFFFFFFFFFFFFF
310
0100000200000000000000000000000000000000000000000000000000000000
310
0000000000000000000000000000000000000000000000000000000000000000
310
0100FEFF030A0000FFFFFFFF0A00030000000000C00000000000004607000000
310
5042727573680007000000504272757368000700000050427275736800F439B2
310
7100000000000000000000000000000000000000000000000000000000000000
310
0000000000000000000000000000000000000000000000000000000000000000
310
0000000000000000000000000000000000000000000000000000000000000000
310
0000000000000000000000000000000000000000000000000000000000000000
310
0000000000000000000000000000000000000000000000000000000000000000
310
0000000000000000000000000000000000000000000000000000000000000000
310
0000000000000000000000000000000000000000000000000000000000000000
310
0000000000000000000000000000000000000000000000000000000000000000
310
0000000000000000000000000000000000000000000000000000000000000000
310
0000000000000000000000000000000000000000000000000000000000000000
310
0000000000000000000000000000000000000000000000000000000000000000
310
0000000000000000000000000000000000000000000000000000000000000000
310
20260000424D0E260000000000003E00000028000000B40200006E0000000100
310
01000000000000000000130B0000130B00000200000002000000000000FFFFFF
310
FFFFFFFFFFFFFFFFFFFFFFFFFFFFFFFFFFFFFFFFFFFFFFFFFFFFFFFFFFFFFFFF
310
FFFFFFFFFFFFFFFFFFFFFFFFFFFFFFFFFFFFFFFFFFFFFFFFFFFFFFFFFFFFFFFF
310
FFFFFFFFFFFFFFFFFFFFFFFFFFFFFFFFFFFFFFFFFFFFFFFFF000FFFFFFFFFFFF
310
FFFFFFFFFFFFFFFFFFFFFFFFFFFFFFFFFFFFFFFFFFFFFFFFFFFFFFFFFFFFFFFF
310
FFFFFFFFFFFFFFFFFFFFFFFFFFFFFFFFFFFFFFFFFFFFFFFFFFFFFFFFFFFFFFFF
310
FFFFFFFFFFFFFFFFFFFFFFFFFFFFFFFFF000FFFFFFFFFFFFFFFFFFFFFFFFFFFF
310
FFFFFFFFFFFFFFFFFFFFFFFFFFFFFFFFFFFFFFFFFFFFFFFFFFFFFFFFFFFFFFFF
310
FFFFFFFFFFFFFFFFFFFFFFFFFFFFFFFFFFFFFFFFFFFFFFFFFFFFFFFFFFFFFFFF
310
FFFFFFFFFFFFFFFFF000FFFFFFFFFFFFFFFFFFFFFFFFFFFFFFFFFFFFFFFFFFFF
310
FFFFFFFFFFFFFFFFFFFFFFFFFFFFFFFFFFFFFFFFFFFFFFFFFFFFFFFFFFFFFFFF
310
FFFFFFFFFFFFFFFFFFFFFFFFFFFFFFFFFFFFFFFFFFFFFFFFFFFFFFFFFFFFFFFF
310
F000FFFFFFFFFFFFFFFFFFFFFFFFFFFFFFFFFFFFFFFFFFFFFFFFFFFFFFFFFFFF
310
FFFFFFFFFFFFFFFFFFFFFFFFFFFFFFFFFFFFFFFFFFFFFFFFFFFFFFFFFFFFFFFF
310
FFFFFFFFFFFFFFFFFFFFFFFFFFFFFFFFFFFFFFFFFFFFFFFFF000FFFFFFFFFFFF
310
FFFFFFFFFFFFFFFFFFFFFFFFFFFFFFFFFFFFFFFFFFFFFFFFFFFFFFFFFFFFFFFF
310
FFFFFFFFFFFFFFFFFFFFFFFFFFFFFFFFFFFFFFFFFFFFFFFFFFFFFFFFFFFFFFFF
310
FFFFFFFFFFFFFFFFFFFFFFFFFFFFFFFFF000FFFFFFFFFFFFFFFFFFFFFFFFFFFF
310
FFFFFFFFFFFFFFFFFFFFFFFFFFFFFFFFFFFFFFFFFFFFFFFFFFFFFFFFFFFFFFFF
310
FFFFFFFFFFFFFFFFFFFFFFFFFFFFFFFFFFFFFFFFFFFFFFFFFFFFFFFFFFFFFFFF
310
FFFFFFFFFFFFFFFFF000FFFFFFFFFFFFFFFFFFFFFFFFFFFFFFFFFFFFFFFFFFFF
310
FFFFFFFFFFFFFFFFFFFFFFFFFFFFFFFFFFFFFFFFFFFFFFFFFFFFFFFFFFFFFFFF
310
FFFFFFFFFFFFFFFFFFFFFFFFFFFFFFFFFFFFFFFFFFFFFFFFFFFFFFFFFFFFFFFF
310
F000FFFFFFFFFFFFFFFFFFFFFFFFFFFFFFFFFFFFFFFFFFFFFFFFFFFFFFFFFFFF
310
FFFFFFFFFFFFFFFFFFFFFFFFFFFFFFFFFFFFFFFFFFFFFFFFFFFFFFFFFFFFFFFF
310
FFFFFFFFFFFFFFFFFFFFFFFFFFFFFFFFFFFFFFFFFFFFFFFFF000FFFFFFFFFFFF
310
FFFFFFFFFFFFFFFFFFFFFFFFFFFFFFFFFFFFFFFFFFFFFFFFFFFFFFFFFFFFFFFF
310
FFFFFFFFFFFFFFFFFFFFFFFFFFFFFFFFFFFFFFFFFFFFFFFFFFFFFFFFFFFFFFFF
310
FFFFFFFFFFFFFFFFFFFFFFFFFFFFFFFFF000FFFFFFFFFFFFFFFFFFFFFFFFFFFF
310
FFFFFFFFFFFFFFFFFFFFFFFFFFFFFFFFFFFFFFFFFFFFFFFFFFFFFFFFFFFFFFFF
310
FFFFFFFFFFFFFFFFFFFFFFFFFFFFFFFFFFFFFFFFFFFFFFFFFFFFFFFFFFFFFFFF
310
FFFFFFFFFFFFFFFFF000FFFFFFFFFFFFFFFFFFFFFFFFFFFFFFFFFFFFFFFFFFFF
310
FFFFFFFFFFFFFFFFFFFFFFFFFFFFFFFFFFFFFFFFFFFFFFFFFFFFFFFFFFFFFFFF
310
FFFFFFFFFFFFFFFFFFFFFFFFFFFFFFFFFFFFFFFFFFFFFFFFFFFFFFFFFFFFFFFF
310
F000FFFFFFFFFFFFFFFFFFFFFFFFFFFFFFFFFFFFFFFFFFFFFFFFFFFFFFFFFFFF
310
FFFFFFFFFFFFFFFFFFFFFFFFFFFFFFFFFFFFFFFFFFFFFFFFFFFFFFFFFFFFFFFF
310
FFFFFFFFFFFFFFFFFFFFFFFFFFFFFFFFFFFFFFFFFFFFFFFFF000FFFFFFFFFFFF
310
FFFFFFFFFFFFFFFFFFFFFFFFFFFFFFFFFFFFFFFFFFFFFFFFFFFFFFFFFFFFFFFF
310
FFFFFFFFFFFFFFFFFFFFFFFFFFFFFFFFFFFFFFFFFFFFFFFFFFFFFFFFFFFFFFFF
310
FFFFFFFFFFFFFFFFFFFFFFFFFFFFFFFFF000FFFFFFFFFFFFFFFFFFFFFFFFFFFF
310
FFFFFFFFFFFFFFFFFFFFFFFFFFFFFFFFFFFFFFFFFFFFFFFFFFFFFFFFFFFFFFFF
310
FFFFFFFFFFFFFFFFFFFFFFFFFFFFFFFFFFFFFFFFFFFFFFFFFFFFFFFFFFFFFFFF
310
FFFFFFFFFFFFFFFFF000FFFFFFFFFFFFFFFFFFFFFFFFFFFFFFFFFFFFFFFFFFFF
310
FFFFFFFFFFFFFFFFFFFFFFFFFFFFFFFFFFFFFFFFFFFFFFFFFFFFFFFFFFFFFFFF
310
FFFFFFFFFFFFFFFFFFFFFFFFFFFFFFFFFFFFFFFFFFFFFFFFFFFFFFFFFFFFFFFF
310
F000FFFFFFFFFFFFFFFFFFFFFFFFFFFFFFFFFFFFFFFFFFFFFFFFFFFFFFFFFFFF
310
FFFFFFFFFFFFFFFFFFFFFFFFFFFFFFFFFFFFFFFFFFFFFFFFFFFFFFFFFFFFFFFF
310
FFFFFFFFFFFFFFFFFFFFFFFFFFFFFFFFFFFFFFFFFFFFFFFFF000FFFFFFFFFFFF
310
FFFFFFFFFFFFFFFFFFFFFFFFFFFFFFFFFFFFFFFFFFFFFFFFFFFFFFFFFFFFFFFF
310
FFFFFFFFFFFFFFFFFFFFFFFFFFFFFFFFFFFFFFFFFFFFFFFFFFFFFFFFFFFFFFFF
310
FFFFFFFFFFFFFFFFFFFFFFFFFFFFFFFFF000FFFFFFFFFFFFFFFFFFFFFFFFFFFF
310
FFFFFFFFFFFFFFFFFFFFFFFFFFFFFFFFFFFFFFFFFFFFFFFFFFFFFFFFFFFFFFFF
310
FFFFFFFFFFFFFFFFFFFFFFFFFFFFFFFFFFFFFFFFFFFFFFFFFFFFFFFFFFFFFFFF
310
FFFFFFFFFFFFFFFFF000FFFFF80003FFFFFFFFFFFFFFFFFFFFFFFFFFFFFFFFFF
310
FFFFF00007FFFFFFFFFF00007FFFFFF800000000000000007FFFFFFFFFFFFFFF
310
FFFFFFFC001FFFFFFFFFFFFFFC001FFFFFFFFFFFFFFFFFFFFFFFFFFE0007FFFF
310
F000FFFF8000007FFFFFFFF8000FFFFFC0007FFFFF80007FFFFF0000007FFFFF
310
FFF8000007FFFFF800000000000000007FFFFFF0001FFFFFFFFFFFC00001FFFF
310
FFFFFFFFC00001FFFFFFFF000000000003FFFFE000007FFFF000FFFE0000000F
310
FFFFFFF0000FFFFF80007FFFFF80007FFFFC0000001FFFFFFFC0000001FFFFF8
310
00000000000000007FFFFFF0001FFFFFFFFFFE0000003FFFFFFFFFFE0000003F
310
FFFFFF000000000003FFFF0000000FFFF000FFF800000003FFFFFFF00007FFFF
310
80007FFFFF80007FFFF000000007FFFFFF000000003FFFF80000000000000000
310
7FFFFFF0001FFFFFFFFFF80000000FFFFFFFFFF80000000FFFFFFF0000000000
310
03FFFC00000003FFF000FFE000000000FFFFFFF00007FFFF80003FFFFF80007F
310
FFC000000001FFFFFC000000001FFFF800000000000000007FFFFFF0001FFFFF
310
FFFFE000000003FFFFFFFFE000000003FFFFFF000000000003FFF000000000FF
310
F000FF80000000007FFFFFF00007FFFF80003FFFFF80007FFF8000000000FFFF
310
F80000000007FFF800000000000000007FFFFFF0001FFFFFFFFFC000000001FF
310
FFFFFFC000000001FFFFFF000000000003FFC0000000007FF000FF0000000000
310
3FFFFFE00007FFFF00003FFFFF80007FFE00000000003FFFF00000000003FFF8
310
00000000000000007FFFFFF0001FFFFFFFFF8000000000FFFFFFFF8000000000
310
FFFFFF000000000003FF80000000003FF000FE00000000001FFFFFE00003FFFF
310
00003FFFFF80007FFC00000000001FFFE00000000001FFF8000001FFFE000000
310
7FFFFFF0001FFFFFFFFE00000000003FFFFFFE00000000003FFFFF0000000000
310
03FF00000000001FF000FC00000000000FFFFFE00003FFFF00001FFFFF80007F
310
F800000000001FFFC00000000000FFF8000001FFFE0000007FFFFFF0001FFFFF
310
FFFC00000000001FFFFFFC00000000001FFFFF000000000003FE00000000000F
310
F000F8000000000007FFFFE00003FFFF00001FFFFF80007FF800000000000FFF
310
800000000000FFF8000001FFFE0000007FFFFFF0001FFFFFFFF800000000000F
310
FFFFF800000000000FFFFF000000000003FC000000000007F000F80000000000
310
03FFFFC00003FFFE00001FFFFF80007FF0000000000007FF0000000000007FF8
310
000001FFFE0000007FFFFFF0001FFFFFFFF0000000000007FFFFF00000000000
310
07FFFF000000000003F8000000000003F000F0000000000003FFFFC00001FFFE
310
00001FFFFF80007FE0000000000007FE0000000000003FF8000001FFFE000000
310
7FFFFFF0001FFFFFFFF0000000000007FFFFF0000000000007FFFF0000000000
310
03F800001F800003F000E00001FFF00001FFFFC00001FFFE00000FFFFF80007F
310
E00001FFE00003FE00001FFF00003FF8000001FFFE0000007FFFFFF0001FFFFF
310
FFE000003E000003FFFFE000003E000003FFFF000000000003F00001FFF80001
310
F000E00007FFFC0001FFFFC00001FFFE00000FFFFF80007FC0000FFFFC0003FC
310
0000FFFFC0001FF8000001FFFE0000007FFFFFF0001FFFFFFFC00003FFE00001
310
FFFFC00003FFE00001FFFF0001FFFFFFFFF00007FFFE0001F000E0000FFFFF00
310
00FFFF800001FFFC00000FFFFF80007FC0001FFFFE0001FC0001FFFFE0001FF8
310
000001FFFE0000007FFFFFF0001FFFFFFF80000FFFF80000FFFF80000FFFF800
310
00FFFF0003FFFFFFFFE0000FFFFF8000F000C0003FFFFF8000FFFF800000FFFC
310
000007FFFF80007F80003FFFFF0001FC0003FFFFF0001FF8000001FFFE000000
310
7FFFFFF0001FFFFFFF80003FFFFE0000FFFF80003FFFFE0000FFFF0003FFFFFF
310
FFE0003FFFFF8000F000C0003FFFFF8000FFFF800000FFFC000007FFFF80007F
310
80007FFFFF8001F80007FFFFF8000FF8000001FFFE0000007FFFFFF0001FFFFF
310
FF00007FFFFF00007FFF00007FFFFF00007FFF0003FFFFFFFFE0003FFFFFC000
310
F000C0007FFFFFC000FFFF000000FFFC000007FFFF80007F8000FFFFFF8000F8
310
000FFFFFF8000FF8000001FFFE0000007FFFFFF0001FFFFFFF0000FFFFFF8000
310
7FFF0000FFFFFF80007FFF0003FFFFFFFFC0007FFFFFC00070008000FFFFFFC0
310
00FFFF000000FFF8000007FFFF80007F8000FFFFFF8000F8000FFFFFF8000FF8
310
000001FFFE0000007FFFFFF0001FFFFFFE0001FFFFFFC0003FFE0001FFFFFFC0
310
003FFF0003FFFFFFFFC0007FFFFFE00070008000FFFFFFC0007FFF0000007FF8
310
000003FFFF80007F0001FFFFFF8000F8000FFFFFF8000FF8000001FFFE000000
310
7FFFFFF0001FFFFFFE0001FFFFFFC0003FFE0001FFFFFFC0003FFF0003FFFFFF
310
FFC000FFFFFFE00070008000FFFFFFC0007FFF0000007FF8000003FFFF80007F
310
0001FFFFFF8000F8001FFFFFF8000FF8000001FFFE0000007FFFFFF0001FFFFF
310
FE0003FFFFFFE0003FFE0003FFFFFFE0003FFF0003FFFFFFFFC000FFFFFFE000
310
70008000FFFFFFC0007FFE0000007FF8000003FFFF80007F0001FFFFFF8000F0
310
001FFFFFF8000FF8000001FFFE0000007FFFFFF0001FFFFFFC0003FFFFFFE000
310
1FFC0003FFFFFFE0001FFF0003FFFFFFFFC000FFFFFFC00070008000FFFFFF80
310
007FFE0000007FF0000003FFFF80007F0001FFFFFF0000F0001FFFFFF8000FF8
310
000001FFFE0000007FFFFFF0001FFFFFFC0007FFFFFFF0001FFC0007FFFFFFF0
310
001FFF0003FFFFFFFFC000FFFFFFC00070008001FFFFFF0000FFFE0000003FF0
310
000001FFFF80007F0001FFFFFF0000F8001FFFFFF0000FF8000001FFFE000000
310
7FFFFFF0001FFFFFFC0007FFFFFFF0001FFC0007FFFFFFF0001FFF0003FFFFFF
310
FFC001FFFFFF80007000FFFFFFFFFE0000FFFE0008003FF0008001FFFF80007F
310
FFFFFFFFFC0000FFFFFFFFFFE0000FF8000001FFFE0000007FFFFFF0001FFFFF
310
F8000FFFFFFFF8000FF8000FFFFFFFF8000FFF0003FFFFFFFFFFFFFFFFFF0000
310
7000FFFFFFFFFC0000FFFC0008003FF0008001FFFF80007FFFFFFFFFF80001FF
310
FFFFFFFF80000FF8000001FFFE0000007FFFFFF0001FFFFFF8000FFFFFFFF800
310
0FF8000FFFFFFFF8000FFF0003FFFFFFFFFFFFFFFFFE0000F000FFFFFFFFE000
310
00FFFC000C003FE000C001FFFF80007FFFFFFFFFC00001FFFFFFFFFE00001FF8
310
000001FFFE0000007FFFFFF0001FFFFFF8000FFFFFFFF8000FF8000FFFFFFFF8
310
000FFF0003FFFFFFFFFFFFFFFFF00000F000FFFFFFFE000001FFFC000C001FE0
310
00C000FFFF80007FFFFFFFFE000001FFFFFFFFE000001FF80FFFFFFFFFFFFFC0
310
7FFFFFF0001FFFFFF8000FFFFFFFF8000FF8000FFFFFFFF8000FFF0003FFFFFF
310
FFFFFFFFFF800000F000FFFFFFC0000001FFFC001C001FE001C000FFFF80007F
310
FFFFFF80000003FFFFFFF80000001FF80FFFFFFFFFFFFFC07FFFFFF0001FFFFF
310
F8001FFFFFFFFC000FF8001FFFFFFFFC000FFF0003FFFFFFFFFFFFFFF0000001
310
F000FFFFF800000001FFF8001C001FE001C000FFFF80007FFFFFF800000003FF
310
FFFF800000003FF80FFFFFFFFFFFFFC07FFFFFF0001FFFFFF8001FFFFFFFFC00
310
0FF8001FFFFFFFFC000FFF0003FFFFFFFFFFFFFE00000001F000FFFFC0000000
310
03FFF8001E001FC001E000FFFF80007FFFFF8000000007FFFFFC000000003FF8
310
0FFFFFFFFFFFFFC07FFFFFF0001FFFFFF8001FFFFFFFFC000FF8001FFFFFFFFC
310
000FFF0003FFFFFFFFFFFFE000000003F000FFFE0000000007FFF8001E000FC0
310
01E0007FFF80007FFFFE0000000007FFFFE0000000007FF80FFFFFFFFFFFFFC0
310
7FFFFFF0001FFFFFF0001FFFFFFFFC0007F0001FFFFFFFFC0007FF0003FFFFFF
310
FFFFFF0000000003F000FFF80000000007FFF8001E000FC003E0007FFF80007F
310
FFF0000000000FFFFF8000000000FFF80FFFFFFFFFFFFFC07FFFFFF0001FFFFF
310
F0001FFFFFFFFC0007F0001FFFFFFFFC0007FF0003FFFFFFFFFFFC0000000007
310
F000FFE0000000000FFFF0003E000FC003E0007FFF80007FFFC0000000001FFF
310
FE0000000001FFF80FFFFFFFFFFFFFC07FFFFFF0001FFFFFF0001FFFFFFFFC00
310
07F0001FFFFFFFFC0007FF0003FFFFFFFFFFF0000000000FF000FFC000000000
310
1FFFF0003F000F8003F0003FFF80007FFF80000000003FFFF80000000003FFF8
310
0FFFFFFFFFFFFFC07FFFFFF0001FFFFFF0001FFFFFFFFC0007F0001FFFFFFFFC
310
0007FF0003FFFFFFFFFFE0000000001FF000FF00000000007FFFF0003F000780
310
03F0003FFF80007FFF00000000007FFFF00000000007FFF80FFFFFFFFFFFFFC0
310
7FFFFFF0001FFFFFF0001FFFFFFFFC0007F0001FFFFFFFFC0007FF0003FFFFFF
310
FFFF80000000007FF000FE0000000000FFFFE0003F00078007F0003FFF80007F
310
FE0000000001FFFFE0000000001FFFF80FFFFFFFFFFFFFC07FFFFFF0001FFFFF
310
F0001FFFFFFFFC0007F0001FFFFFFFFC0007FF0003FFFFFFFFFF0000000000FF
310
F000FC0000000003FFFFE0007F00078007F0003FFF80007FFC0000000007FFFF
310
C0000000007FFFF80FFFFFFFFFFFFFC07FFFFFF0001FFFFFF8001FFFFFFFFC00
310
0FF8001FFFFFFFFC000FFF0003FFFFFFFFFE0000000003FFF000FC000000000F
310
FFFFE0007F80070007F8001FFF80007FF8000000001FFFFF8000000001FFFFF8
310
0FFFFFFFFFFFFFC07FFFFFF0001FFFFFF8001FFFFFFFFC000FF8001FFFFFFFFC
310
000FFF0003FFFFFFFFFC000000000FFFF000F8000000007FFFFFE0007F800700
310
07F8001FFF80007FF000000000FFFFFF800000000FFFFFF80FFFFFFFFFFFFFC0
310
7FFFFFF0001FFFFFF8000FFFFFFFF8000FF8000FFFFFFFF8000FFF0003FFFFFF
310
FFFC000000007FFFF000F800000007FFFFFFC0007F8003000FF8001FFF80007F
310
F000000007FFFFFF000000007FFFFFF80FFFFFFFFFFFFFC07FFFFFF0001FFFFF
310
F8000FFFFFFFF8000FF8000FFFFFFFF8000FFF0003FFFFFFFFF80000000FFFFF
310
F000F0000000FFFFFFFFC000FF8003000FF8001FFF80007FE0000000FFFFFFFF
310
0000000FFFFFFFF8000001FFFE0000007FFFFFF0001FFFFFF8000FFFFFFFF800
310
0FF8000FFFFFFFF8000FFF0003FFFFFFFFF8000000FFFFFFF000F000000FFFFF
310
FFFFC000FFC002000FF8000FFF80007FE000001FFFFFFFFE000001FFFFFFFFF8
310
000001FFFE0000007FFFFFF0001FFFFFF8000FFFFFFFF8000FF8000FFFFFFFF8
310
000FFF0003FFFFFFFFF000001FFFFFFFF000E00000FFFFFFFFFFC000FFC00200
310
0FFC000FFF80007FE00001FFFFFFFFFE00001FFFFFFFFFF8000001FFFE000000
310
7FFFFFF0001FFFFFFC000FFFFFFFF8001FFC000FFFFFFFF8001FFF0003FFFFFF
310
FFF00001FFFFFFFFF000E00007FFFFFFFFFF8000FFC000001FFC000FFF80007F
310
C0000FFFFFFFFFFE0000FFFFFFFFFFF8000001FFFE0000007FFFFFF0001FFFFF
310
FC0007FFFFFFF0001FFC0007FFFFFFF0001FFF0003FFFFFFFFF00007FFFFFFFF
310
F000E0001FFFFFFFFFFF8000FFC000001FFC000FFF80007FC0003FFFFFFFFFFE
310
0001FFFFFFFFFFF8000001FFFE0000007FFFFFF0001FFFFFFC0007FFFFFFF000
310
1FFC0007FFFFFFF0001FFF0003FFFFFFFFF0001FFFFFFFFFF000E0003FFFFF00
310
03FF8001FFE000001FFC0007FF80007FC0007FFFFF0007FC0003FFFFF0003FF8
310
000001FFFE0000007FFFFFF0001FFFFFFC0003FFFFFFE0001FFC0003FFFFFFE0
310
001FFF0003FFFFFFFFF0003FFFFFFFFFF000E0003FFFFF0001FF8001FFE00000
310
1FFE0007FF80007FC0007FFFFE0003FC0007FFFFE0003FF8000001FFFE000000
310
7FFFFFF0001FFFFFFE0003FFFFFFE0003FFE0003FFFFFFE0003FFF0003FFFFFF
310
FFF0003FFFFF8001F000E0003FFFFF0001FF0001FFE000001FFE0007FF80007F
310
C0007FFFFE0003FC0007FFFFE0003FF8000001FFFE0000007FFFFFF0001FFFFF
310
FE0001FFFFFFC0003FFE0001FFFFFFC0003FFF0003FFFFFFFFF0003FFFFF0001
310
F000E0003FFFFF0003FF0001FFE000003FFE0007FF80007FC0007FFFFE0003FC
310
0007FFFFE0003FF8000001FFFE0000007FFFFFF0001FFFFFFF0001FFFFFFC000
310
7FFF0001FFFFFFC0007FFF0003FFFFFFFFF0003FFFFF0001F000E0003FFFFE00
310
03FF0003FFF000003FFE0003FF80007FC0007FFFFC0003FE0007FFFFE0003FF8
310
000001FFFE0000007FFFFFF0001FFFFFFF0000FFFFFF80007FFF0000FFFFFF80
310
007FFF0003FFFFFFFFF0003FFFFF0001F000E0003FFFFE0003FF0003FFF00000
310
3FFF0003FF80007FC0007FFFFC0007FE0007FFFFC0003FF8000001FFFE000000
310
7FFFFFF0001FFFFFFF80007FFFFF0000FFFF80007FFFFF0000FFFF0003FFFFFF
310
FFF0003FFFFF0003F000E0003FFFFC0003FE0003FFF000003FFF0003FF80007F
310
E0003FFFF80007FE0003FFFFC0007FF8000001FFFE0000007FFFFFF0001FFFFF
310
FF80003FFFFE0000FFFF80003FFFFE0000FFFF0003FFFFFFFFF0001FFFFE0003
310
F000F0001FFFF80003FE0003FFF000007FFF0001FF80007FE0003FFFF00007FE
310
0001FFFF80007FF8000001FFFE0000007FFFFFF0001FFFFFFFC0000FFFF80001
310
FFFFC0000FFFF80001FFFF0003FFFFFFFFF0001FFFFC0003F000F0000FFFF000
310
07FE0007FFF800007FFF0001FF80007FE0001FFFE00007FF0000FFFE00007FF8
310
000001FFFE0000007FFFFFF0001FFFFFFFC00003FFE00001FFFFC00003FFE000
310
01FFFF0003FFFFFFFFF8000FFFF80003F000F00003FFC00007FC0007FFF80000
310
7FFF8001FF80007FF00007FF80000FFF00007FF80000FFF8000001FFFE000000
310
7F80000000000001FFE000003E000003FFFFE000003E000003FFFF0003FFFFFF
310
FFF80003FFE00007F000F800000000000FFC0007FFF800007FFF8001FF80007F
310
F000000000000FFF000000000000FFF8000001FFFE0000007F80000000000001
310
FFF0000000000007FFFFF0000000000007FFFF0003FFFFFFFFFC00007E000007
310
F000F800000000000FFC0007FFF80000FFFF8000FF80007FF800000000001FFF
310
800000000001FFF8000001FFFE0000007F80000000000001FFF800000000000F
310
FFFFF800000000000FFFFF0003FFFFFFFFFC00000000000FF000FC0000000000
310
1FFC0007FFFC0000FFFF8000FF80007FF800000000003FFFC00000000001FFF8
310
000001FFFE0000007F80000000000001FFF800000000000FFFFFF80000000000
310
0FFFFF0003FFFFFFFFFE00000000001FF000FE00000000003FF8000FFFFC0000
310
FFFF8000FF80007FFC00000000003FFFC00000000003FFF8000001FFFE000000
310
7F80000000000001FFFC00000000001FFFFFFC00000000001FFFFF0003FFFFFF
310
FFFF00000000001FF000FF00000000003FF8000FFFFC0000FFFFC000FF80007F
310
FE00000000007FFFE00000000007FFF8000001FFFE0000007F80000000000001
310
FFFE00000000003FFFFFFE00000000003FFFFF0003FFFFFFFFFF80000000003F
310
F000FF80000000007FF8000FFFFC0001FFFFC0007F80007FFF0000000000FFFF
310
F0000000000FFFF800000000000000007F80000000000001FFFF8000000000FF
310
FFFFFF8000000000FFFFFF0003FFFFFFFFFFC0000000007FF000FFC000000000
310
FFF8000FFFFE0001FFFFC0007F80007FFF8000000001FFFFF8000000001FFFF8
310
00000000000000007F80000000000001FFFFC000000001FFFFFFFFC000000001
310
FFFFFF0003FFFFFFFFFFE000000000FFF000FFE000000003FFF0001FFFFE0001
310
FFFFC0007F80007FFFC000000007FFFFFE000000003FFFF80000000000000000
310
7F80000000000001FFFFE000000003FFFFFFFFE000000003FFFFFF0003FFFFFF
310
FFFFF000000003FFF000FFF80000000FFFF0001FFFFE0001FFFFE0007F80007F
310
FFF00000000FFFFFFF00000000FFFFF800000000000000007F80000000000001
310
FFFFF80000000FFFFFFFFFF80000000FFFFFFF0003FFFFFFFFFFFC0000000FFF
310
F000FFFE0000003FFFF0001FFFFE0003FFFFE0003F80007FFFFC0000003FFFFF
310
FFC0000003FFFFF800000000000000007F80000000000001FFFFFE0000003FFF
310
FFFFFFFE0000003FFFFFFF0003FFFFFFFFFFFF0000003FFFF000FFFF800000FF
310
FFF0001FFFFF0003FFFFE0003F80007FFFFF000001FFFFFFFFF800001FFFFFF8
310
00000000000000007F80000000000001FFFFFFC00001FFFFFFFFFFFFC00001FF
310
FFFFFF0003FFFFFFFFFFFFC00000FFFFF000FFFFF8000FFFFFFFFFFFFFFFFFFF
310
FFFFFFFFFFFFFFFFFFFFF0001FFFFFFFFFFF0000FFFFFFF80000000000000000
310
7FFFFFFFFFFFFFFFFFFFFFFC001FFFFFFFFFFFFFFC001FFFFFFFFFFFFFFFFFFF
310
FFFFFFFC001FFFFFF000FFFFFFFFFFFFFFFFFFFFFFFFFFFFFFFFFFFFFFFFFFFF
310
FFFFFFFFFFFFFFFFFFFFFFFFFFFFFFFFFFFFFFFFFFFFFFFFFFFFFFFFFFFFFFFF
310
FFFFFFFFFFFFFFFFFFFFFFFFFFFFFFFFFFFFFFFFFFFFFFFFFFFFFFFFFFFFFFFF
310
F000FFFFFFFFFFFFFFFFFFFFFFFFFFFFFFFFFFFFFFFFFFFFFFFFFFFFFFFFFFFF
310
FFFFFFFFFFFFFFFFFFFFFFFFFFFFFFFFFFFFFFFFFFFFFFFFFFFFFFFFFFFFFFFF
310
FFFFFFFFFFFFFFFFFFFFFFFFFFFFFFFFFFFFFFFFFFFFFFFFF000FFFFFFFFFFFF
310
FFFFFFFFFFFFFFFFFFFFFFFFFFFFFFFFFFFFFFFFFFFFFFFFFFFFFFFFFFFFFFFF
310
FFFFFFFFFFFFFFFFFFFFFFFFFFFFFFFFFFFFFFFFFFFFFFFFFFFFFFFFFFFFFFFF
310
FFFFFFFFFFFFFFFFFFFFFFFFFFFFFFFFF000FFFFFFFFFFFFFFFFFFFFFFFFFFFF
310
FFFFFFFFFFFFFFFFFFFFFFFFFFFFFFFFFFFFFFFFFFFFFFFFFFFFFFFFFFFFFFFF
310
FFFFFFFFFFFFFFFFFFFFFFFFFFFFFFFFFFFFFFFFFFFFFFFFFFFFFFFFFFFFFFFF
310
FFFFFFFFFFFFFFFFF000FFFFFFFFFFFFFFFFFFFFFFFFFFFFFFFFFFFFFFFFFFFF
310
FFFFFFFFFFFFFFFFFFFFFFFFFFFFFFFFFFFFFFFFFFFFFFFFFFFFFFFFFFFFFFFF
310
FFFFFFFFFFFFFFFFFFFFFFFFFFFFFFFFFFFFFFFFFFFFFFFFFFFFFFFFFFFFFFFF
310
F000FFFFFFFFFFFFFFFFFFFFFFFFFFFFFFFFFFFFFFFFFFFFFFFFFFFFFFFFFFFF
310
FFFFFFFFFFFFFFFFFFFFFFFFFFFFFFFFFFFFFFFFFFFFFFFFFFFFFFFFFFFFFFFF
310
FFFFFFFFFFFFFFFFFFFFFFFFFFFFFFFFFFFFFFFFFFFFFFFFF000FFFFFFFFFFFF
310
FFFFFFFFFFFFFFFFFFFFFFFFFFFFFFFFFFFFFFFFFFFFFFFFFFFFFFFFFFFFFFFF
310
FFFFFFFFFFFFFFFFFFFFFFFFFFFFFFFFFFFFFFFFFFFFFFFFFFFFFFFFFFFFFFFF
310
FFFFFFFFFFFFFFFFFFFFFFFFFFFFFFFFF000FFFFFFFFFFFFFFFFFFFFFFFFFFFF
310
FFFFFFFFFFFFFFFFFFFFFFFFFFFFFFFFFFFFFFFFFFFFFFFFFFFFFFFFFFFFFFFF
310
FFFFFFFFFFFFFFFFFFFFFFFFFFFFFFFFFFFFFFFFFFFFFFFFFFFFFFFFFFFFFFFF
310
FFFFFFFFFFFFFFFFF000FFFFFFFFFFFFFFFFFFFFFFFFFFFFFFFFFFFFFFFFFFFF
310
FFFFFFFFFFFFFFFFFFFFFFFFFFFFFFFFFFFFFFFFFFFFFFFFFFFFFFFFFFFFFFFF
310
FFFFFFFFFFFFFFFFFFFFFFFFFFFFFFFFFFFFFFFFFFFFFFFFFFFFFFFFFFFFFFFF
310
F000FFFFFFFFFFFFFFFFFFFFFFFFFFFFFFFFFFFFFFFFFFFFFFFFFFFFFFFFFFFF
310
FFFFFFFFFFFFFFFFFFFFFFFFFFFFFFFFFFFFFFFFFFFFFFFFFFFFFFFFFFFFFFFF
310
FFFFFFFFFFFFFFFFFFFFFFFFFFFFFFFFFFFFFFFFFFFFFFFFF000FFFFFFFFFFFF
310
FFFFFFFFFFFFFFFFFFFFFFFFFFFFFFFFFFFFFFFFFFFFFFFFFFFFFFFFFFFFFFFF
310
FFFFFFFFFFFFFFFFFFFFFFFFFFFFFFFFFFFFFFFFFFFFFFFFFFFFFFFFFFFFFFFF
310
FFFFFFFFFFFFFFFFFFFFFFFFFFFFFFFFF000FFFFFFFFFFFFFFFFFFFFFFFFFFFF
310
FFFFFFFFFFFFFFFFFFFFFFFFFFFFFFFFFFFFFFFFFFFFFFFFFFFFFFFFFFFFFFFF
310
FFFFFFFFFFFFFFFFFFFFFFFFFFFFFFFFFFFFFFFFFFFFFFFFFFFFFFFFFFFFFFFF
310
FFFFFFFFFFFFFFFFF000FFFFFFFFFFFFFFFFFFFFFFFFFFFFFFFFFFFFFFFFFFFF
310
FFFFFFFFFFFFFFFFFFFFFFFFFFFFFFFFFFFFFFFFFFFFFFFFFFFFFFFFFFFFFFFF
310
FFFFFFFFFFFFFFFFFFFFFFFFFFFFFFFFFFFFFFFFFFFFFFFFFFFFFFFFFFFFFFFF
310
F000FFFFFFFFFFFFFFFFFFFFFFFFFFFFFFFFFFFFFFFFFFFFFFFFFFFFFFFFFFFF
310
FFFFFFFFFFFFFFFFFFFFFFFFFFFFFFFFFFFFFFFFFFFFFFFFFFFFFFFFFFFFFFFF
310
FFFFFFFFFFFFFFFFFFFFFFFFFFFFFFFFFFFFFFFFFFFFFFFFF000FFFFFFFFFFFF
310
FFFFFFFFFFFFFFFFFFFFFFFFFFFFFFFFFFFFFFFFFFFFFFFFFFFFFFFFFFFFFFFF
310
FFFFFFFFFFFFFFFFFFFFFFFFFFFFFFFFFFFFFFFFFFFFFFFFFFFFFFFFFFFFFFFF
310
FFFFFFFFFFFFFFFFFFFFFFFFFFFFFFFFF000FFFFFFFFFFFFFFFFFFFFFFFFFFFF
310
FFFFFFFFFFFFFFFFFFFFFFFFFFFFFFFFFFFFFFFFFFFFFFFFFFFFFFFFFFFFFFFF
310
FFFFFFFFFFFFFFFFFFFFFFFFFFFFFFFFFFFFFFFFFFFFFFFFFFFFFFFFFFFFFFFF
310
FFFFFFFFFFFFFFFFF000FFFFFFFFFFFFFFFFFFFFFFFFFFFFFFFFFFFFFFFFFFFF
310
FFFFFFFFFFFFFFFFFFFFFFFFFFFFFFFFFFFFFFFFFFFFFFFFFFFFFFFFFFFFFFFF
310
FFFFFFFFFFFFFFFFFFFFFFFFFFFFFFFFFFFFFFFFFFFFFFFFFFFFFFFFFFFFFFFF
310
F000FFFFFFFFFFFFFFFFFFFFFFFFFFFFFFFFFFFFFFFFFFFFFFFFFFFFFFFFFFFF
310
FFFFFFFFFFFFFFFFFFFFFFFFFFFFFFFFFFFFFFFFFFFFFFFFFFFFFFFFFFFFFFFF
310
FFFFFFFFFFFFFFFFFFFFFFFFFFFFFFFFFFFFFFFFFFFFFFFFF000FFFFFFFFFFFF
310
FFFFFFFFFFFFFFFFFFFFFFFFFFFFFFFFFFFFFFFFFFFFFFFFFFFFFFFFFFFFFFFF
310
FFFFFFFFFFFFFFFFFFFFFFFFFFFFFFFFFFFFFFFFFFFFFFFFFFFFFFFFFFFFFFFF
310
FFFFFFFFFFFFFFFFFFFFFFFFFFFFFFFFF000FFFFFFFFFFFFFFFFFFFFFFFFFFFF
310
FFFFFFFFFFFFFFFFFFFFFFFFFFFFFFFFFFFFFFFFFFFFFFFFFFFFFFFFFFFFFFFF
310
FFFFFFFFFFFFFFFFFFFFFFFFFFFFFFFFFFFFFFFFFFFFFFFFFFFFFFFFFFFFFFFF
310
FFFFFFFFFFFFFFFFF000FFFFFFFFFFFFFFFFFFFFFFFFFFFFFFFFFFFFFFFFFFFF
310
FFFFFFFFFFFFFFFFFFFFFFFFFFFFFFFFFFFFFFFFFFFFFFFFFFFFFFFFFFFFFFFF
310
FFFFFFFFFFFFFFFFFFFFFFFFFFFFFFFFFFFFFFFFFFFFFFFFFFFFFFFFFFFFFFFF
310
F000FFFFFFFFFFFFFFFFFFFFFFFFFFFFFFFFFFFFFFFFFFFFFFFFFFFFFFFFFFFF
310
FFFFFFFFFFFFFFFFFFFFFFFFFFFFFFFFFFFFFFFFFFFFFFFFFFFFFFFFFFFFFFFF
310
FFFFFFFFFFFFFFFFFFFFFFFFFFFFFFFFFFFFFFFFFFFFFFFFF000FFFFFFFFFFFF
310
FFFFFFFFFFFFFFFFFFFFFFFFFFFFFFFFFFFFFFFFFFFFFFFFFFFFFFFFFFFFFFFF
310
FFFFFFFFFFFFFFFFFFFFFFFFFFFFFFFFFFFFFFFFFFFFFFFFFFFFFFFFFFFFFFFF
310
FFFFFFFFFFFFFFFFFFFFFFFFFFFFFFFFF0000000000000000000000000000000
310
0000000000000000000000000000000000000000000000000000000000000000
310
0000000000000000000000000000000000000000000000000000000000000000
310
0000000000000000000000000000000000000000000000000000000000000000
310
0000000000000000000000000000000000000000000000000000000000000000
310
0000000000000000000000000000000000000000000000000000000000000000
310
0000000000000000000000000000000000000000000000000000000000000000
310
0000000000000000000000000000000000000000000000000000000000000000
310
0000000000000000000000000000000000000000000000000000000000000000
310
0000000000000000000000000000000000000000000000000000000000000000
310
0000000000000000000000000000000000000000000000000000000000000000
310
0000000000000000000000000000000000000000000000000000000000000000
310
0000000000000000000000000000000000000000000000000000000000000000
310
0000000000000000000000000000000000000000000000000000000000000000
310
0000000000000000000000000000000000000000000000000000000000000000
310
0000000000000000000000000000000000000000000000000000000000000000
  1
OLE
  0
ENDSEC
  0
SECTION
  2
OBJECTS
  0
DICTIONARY
  5
C
330
0
100
AcDbDictionary
281
     1
  3
ACAD_GROUP
350
D
  3
ACAD_LAYOUT
350
1A
  3
ACAD_MLINESTYLE
350
17
  3
ACAD_PLOTSETTINGS
350
19
  3
ACAD_PLOTSTYLENAME
350
E
  0
DICTIONARY
  5
D
102
{ACAD_REACTORS
330
C
102
}
330
C
100
AcDbDictionary
281
     1
  0
DICTIONARY
  5
1A
102
{ACAD_REACTORS
330
C
102
}
330
C
100
AcDbDictionary
281
     1
  3
Layout1
350
1E
  3
Layout2
350
26
  3
Model
350
22
  0
DICTIONARY
  5
17
102
{ACAD_REACTORS
330
C
102
}
330
C
100
AcDbDictionary
281
     1
  3
Standard
350
18
  0
DICTIONARY
  5
19
102
{ACAD_REACTORS
330
C
102
}
330
C
100
AcDbDictionary
281
     1
  0
ACDBDICTIONARYWDFLT
  5
E
102
{ACAD_REACTORS
330
C
102
}
330
C
100
AcDbDictionary
281
     1
  3
Normal
350
F
100
AcDbDictionaryWithDefault
340
F
  0
LAYOUT
  5
1E
102
{ACAD_REACTORS
330
1A
102
}
330
1A
100
AcDbPlotSettings
  1

  2
none_device
  4

  6

 40
0.0
 41
0.0
 42
0.0
 43
0.0
 44
0.0
 45
0.0
 46
0.0
 47
0.0
 48
0.0
 49
0.0
140
0.0
141
0.0
142
1.0
143
1.0
 70
   688
 72
     0
 73
     0
 74
     5
  7

 75
    16
147
1.0
148
0.0
149
0.0
100
AcDbLayout
  1
Layout1
 70
     1
 71
     1
 10
0.0
 20
0.0
 11
420.0
 21
297.0
 12
0.0
 22
0.0
 32
0.0
 14
1.0000000000E+20
 24
1.0000000000E+20
 34
1.0000000000E+20
 15
-1.0000000000E+20
 25
-1.0000000000E+20
 35
-1.0000000000E+20
146
0.0
 13
0.0
 23
0.0
 33
0.0
 16
1.0
 26
0.0
 36
0.0
 17
0.0
 27
1.0
 37
0.0
 76
     0
330
1B
  0
LAYOUT
  5
26
102
{ACAD_REACTORS
330
1A
102
}
330
1A
100
AcDbPlotSettings
  1

  2
none_device
  4

  6

 40
0.0
 41
0.0
 42
0.0
 43
0.0
 44
0.0
 45
0.0
 46
0.0
 47
0.0
 48
0.0
 49
0.0
140
0.0
141
0.0
142
1.0
143
1.0
 70
   688
 72
     0
 73
     0
 74
     5
  7

 75
    16
147
1.0
148
0.0
149
0.0
100
AcDbLayout
  1
Layout2
 70
     1
 71
     2
 10
0.0
 20
0.0
 11
0.0
 21
0.0
 12
0.0
 22
0.0
 32
0.0
 14
0.0
 24
0.0
 34
0.0
 15
0.0
 25
0.0
 35
0.0
146
0.0
 13
0.0
 23
0.0
 33
0.0
 16
1.0
 26
0.0
 36
0.0
 17
0.0
 27
1.0
 37
0.0
 76
     0
330
23
  0
LAYOUT
  5
22
102
{ACAD_REACTORS
330
1A
102
}
330
1A
100
AcDbPlotSettings
  1

  2
none_device
  4

  6

 40
0.0
 41
0.0
 42
0.0
 43
0.0
 44
0.0
 45
0.0
 46
0.0
 47
0.0
 48
0.0
 49
0.0
140
0.0
141
0.0
142
1.0
143
1.0
 70
  1712
 72
     0
 73
     0
 74
     0
  7

 75
     0
147
1.0
148
0.0
149
0.0
100
AcDbLayout
  1
Model
 70
     1
 71
     0
 10
0.0
 20
0.0
 11
297.0
 21
210.0
 12
0.0
 22
0.0
 32
0.0
 14
0.0
 24
0.0
 34
0.0
 15
297.0
 25
210.0
 35
0.0
146
0.0
 13
0.0
 23
0.0
 33
0.0
 16
1.0
 26
0.0
 36
0.0
 17
0.0
 27
1.0
 37
0.0
 76
     0
330
1F
331
29
  0
MLINESTYLE
  5
18
102
{ACAD_REACTORS
330
17
102
}
330
17
100
AcDbMlineStyle
  2
Standard
 70
     0
  3

 62
   256
 51
90.0
 52
90.0
 71
     2
 49
0.5
 62
   256
  6
BYLAYER
 49
-0.5
 62
   256
  6
BYLAYER
  0
ACDBPLACEHOLDER
  5
F
102
{ACAD_REACTORS
330
E
102
}
330
E
  0
ENDSEC
  0
EOF
