  0
SECTION
  2
HEADER
  9
$ACADVER
  1
AC1015
  9
$ACADMAINTVER
 70
     6
  9
$DWGCODEPAGE
  3
ANSI_1252
  9
$INSBASE
 10
0.0
 20
0.0
 30
0.0
  9
$EXTMIN
 10
0.0
 20
0.0
 30
0.0
  9
$EXTMAX
 10
297.0
 20
210.0
 30
0.0
  9
$LIMMIN
 10
0.0
 20
0.0
  9
$LIMMAX
 10
297.0
 20
210.0
  9
$ORTHOMODE
 70
     0
  9
$REGENMODE
 70
     1
  9
$FILLMODE
 70
     1
  9
$QTEXTMODE
 70
     0
  9
$MIRRTEXT
 70
     1
  9
$LTSCALE
 40
1.0
  9
$ATTMODE
 70
     1
  9
$TEXTSIZE
 40
2.0
  9
$TRACEWID
 40
1.0
  9
$TEXTSTYLE
  7
Standard
  9
$CLAYER
  8
0
  9
$CELTYPE
  6
ByLayer
  9
$CECOLOR
 62
   256
  9
$CELTSCALE
 40
1.0
  9
$DISPSILH
 70
     0
  9
$DIMSCALE
 40
1.0
  9
$DIMASZ
 40
3.0
  9
$DIMEXO
 40
0.0
  9
$DIMDLI
 40
3.75
  9
$DIMRND
 40
0.0
  9
$DIMDLE
 40
0.0
  9
$DIMEXE
 40
1.0
  9
$DIMTP
 40
0.0
  9
$DIMTM
 40
0.0
  9
$DIMTXT
 40
2.0
  9
$DIMCEN
 40
2.5
  9
$DIMTSZ
 40
0.0
  9
$DIMTOL
 70
     0
  9
$DIMLIM
 70
     0
  9
$DIMTIH
 70
     1
  9
$DIMTOH
 70
     1
  9
$DIMSE1
 70
     0
  9
$DIMSE2
 70
     0
  9
$DIMTAD
 70
     1
  9
$DIMZIN
 70
     0
  9
$DIMBLK
  1

  9
$DIMASO
 70
     1
  9
$DIMSHO
 70
     1
  9
$DIMPOST
  1

  9
$DIMAPOST
  1

  9
$DIMALT
 70
     0
  9
$DIMALTD
 70
     3
  9
$DIMALTF
 40
0.0393700787
  9
$DIMLFAC
 40
1.0
  9
$DIMTOFL
 70
     1
  9
$DIMTVP
 40
0.0
  9
$DIMTIX
 70
     0
  9
$DIMSOXD
 70
     0
  9
$DIMSAH
 70
     0
  9
$DIMBLK1
  1

  9
$DIMBLK2
  1

  9
$DIMSTYLE
  2
ISO-25
  9
$DIMCLRD
 70
     0
  9
$DIMCLRE
 70
     0
  9
$DIMCLRT
 70
     0
  9
$DIMTFAC
 40
1.0
  9
$DIMGAP
 40
1.524
  9
$DIMJUST
 70
     0
  9
$DIMSD1
 70
     0
  9
$DIMSD2
 70
     0
  9
$DIMTOLJ
 70
     0
  9
$DIMTZIN
 70
     0
  9
$DIMALTZ
 70
     0
  9
$DIMALTTZ
 70
     0
  9
$DIMUPT
 70
     0
  9
$DIMDEC
 70
     2
  9
$DIMTDEC
 70
     3
  9
$DIMALTU
 70
     2
  9
$DIMALTTD
 70
     3
  9
$DIMTXSTY
  7
Standard
  9
$DIMAUNIT
 70
     0
  9
$DIMADEC
 70
     2
  9
$DIMALTRND
 40
0.0
  9
$DIMAZIN
 70
     0
  9
$DIMDSEP
 70
    44
  9
$DIMATFIT
 70
     3
  9
$DIMFRAC
 70
     0
  9
$DIMLDRBLK
  1

  9
$DIMLUNIT
 70
     2
  9
$DIMLWD
 70
    -2
  9
$DIMLWE
 70
    -2
  9
$DIMTMOVE
 70
     0
  9
$LUNITS
 70
     2
  9
$LUPREC
 70
     2
  9
$SKETCHINC
 40
1.0
  9
$FILLETRAD
 40
10.0
  9
$AUNITS
 70
     0
  9
$AUPREC
 70
     2
  9
$MENU
  1
.
  9
$ELEVATION
 40
0.0
  9
$PELEVATION
 40
0.0
  9
$THICKNESS
 40
0.0
  9
$LIMCHECK
 70
     0
  9
$CHAMFERA
 40
10.0
  9
$CHAMFERB
 40
10.0
  9
$CHAMFERC
 40
20.0
  9
$CHAMFERD
 40
0.0
  9
$SKPOLY
 70
     0
  9
$TDCREATE
 40
2456094.458873021
  9
$TDUCREATE
 40
2456094.375539687
  9
$TDUPDATE
 40
2456094.458874826
  9
$TDUUPDATE
 40
2456094.375541493
  9
$TDINDWG
 40
0.0000000116
  9
$TDUSRTIMER
 40
0.0000000116
  9
$USRTIMER
 70
     1
  9
$ANGBASE
 50
0.0
  9
$ANGDIR
 70
     0
  9
$PDMODE
 70
     0
  9
$PDSIZE
 40
-1.0
  9
$PLINEWID
 40
0.0
  9
$SPLFRAME
 70
     0
  9
$SPLINETYPE
 70
     6
  9
$SPLINESEGS
 70
     8
  9
$HANDSEED
  5
2F4
  9
$SURFTAB1
 70
     6
  9
$SURFTAB2
 70
     6
  9
$SURFTYPE
 70
     6
  9
$SURFU
 70
     6
  9
$SURFV
 70
     6
  9
$UCSBASE
  2

  9
$UCSNAME
  2

  9
$UCSORG
 10
0.0
 20
0.0
 30
0.0
  9
$UCSXDIR
 10
1.0
 20
0.0
 30
0.0
  9
$UCSYDIR
 10
0.0
 20
1.0
 30
0.0
  9
$UCSORTHOREF
  2

  9
$UCSORTHOVIEW
 70
     0
  9
$UCSORGTOP
 10
0.0
 20
0.0
 30
0.0
  9
$UCSORGBOTTOM
 10
0.0
 20
0.0
 30
0.0
  9
$UCSORGLEFT
 10
0.0
 20
0.0
 30
0.0
  9
$UCSORGRIGHT
 10
0.0
 20
0.0
 30
0.0
  9
$UCSORGFRONT
 10
0.0
 20
0.0
 30
0.0
  9
$UCSORGBACK
 10
0.0
 20
0.0
 30
0.0
  9
$PUCSBASE
  2

  9
$PUCSNAME
  2

  9
$PUCSORG
 10
0.0
 20
0.0
 30
0.0
  9
$PUCSXDIR
 10
1.0
 20
0.0
 30
0.0
  9
$PUCSYDIR
 10
0.0
 20
1.0
 30
0.0
  9
$PUCSORTHOREF
  2

  9
$PUCSORTHOVIEW
 70
     0
  9
$PUCSORGTOP
 10
0.0
 20
0.0
 30
0.0
  9
$PUCSORGBOTTOM
 10
0.0
 20
0.0
 30
0.0
  9
$PUCSORGLEFT
 10
0.0
 20
0.0
 30
0.0
  9
$PUCSORGRIGHT
 10
0.0
 20
0.0
 30
0.0
  9
$PUCSORGFRONT
 10
0.0
 20
0.0
 30
0.0
  9
$PUCSORGBACK
 10
0.0
 20
0.0
 30
0.0
  9
$USERI1
 70
     0
  9
$USERI2
 70
     0
  9
$USERI3
 70
     0
  9
$USERI4
 70
     0
  9
$USERI5
 70
     0
  9
$USERR1
 40
0.0
  9
$USERR2
 40
0.0
  9
$USERR3
 40
0.0
  9
$USERR4
 40
0.0
  9
$USERR5
 40
0.0
  9
$WORLDVIEW
 70
     1
  9
$SHADEDGE
 70
     3
  9
$SHADEDIF
 70
    70
  9
$TILEMODE
 70
     1
  9
$MAXACTVP
 70
    64
  9
$PINSBASE
 10
0.0
 20
0.0
 30
0.0
  9
$PLIMCHECK
 70
     0
  9
$PEXTMIN
 10
1.0000000000E+20
 20
1.0000000000E+20
 30
1.0000000000E+20
  9
$PEXTMAX
 10
-1.0000000000E+20
 20
-1.0000000000E+20
 30
-1.0000000000E+20
  9
$PLIMMIN
 10
0.0
 20
0.0
  9
$PLIMMAX
 10
420.0
 20
297.0
  9
$UNITMODE
 70
     0
  9
$VISRETAIN
 70
     1
  9
$PLINEGEN
 70
     0
  9
$PSLTSCALE
 70
     1
  9
$TREEDEPTH
 70
  3020
  9
$CMLSTYLE
  2
Standard
  9
$CMLJUST
 70
     0
  9
$CMLSCALE
 40
20.0
  9
$PROXYGRAPHICS
 70
     1
  9
$MEASUREMENT
 70
     1
  9
$CELWEIGHT
370
    -1
  9
$ENDCAPS
280
     0
  9
$JOINSTYLE
280
     0
  9
$LWDISPLAY
290
     1
  9
$INSUNITS
 70
     4
  9
$HYPERLINKBASE
  1

  9
$STYLESHEET
  1

  9
$XEDIT
290
     1
  9
$CEPSNTYPE
380
     0
  9
$PSTYLEMODE
290
     1
  9
$FINGERPRINTGUID
  2
{F3BAFED6-E651-479E-BCDF-22AAB096CE6F}
  9
$VERSIONGUID
  2
{FAEB1C32-E019-11D5-929B-00C0DF256EC4}
  9
$EXTNAMES
290
     1
  9
$PSVPSCALE
 40
0.0
  9
$OLESTARTUP
290
     0
  0
ENDSEC
  0
SECTION
  2
CLASSES
  0
CLASS
  1
ACDBDICTIONARYWDFLT
  2
AcDbDictionaryWithDefault
  3
ObjectDBX Classes
 90
        0
280
     0
281
     0
  0
CLASS
  1
VISUALSTYLE
  2
AcDbVisualStyle
  3
ObjectDBX Classes
 90
     4095
280
     0
281
     0
  0
CLASS
  1
MATERIAL
  2
AcDbMaterial
  3
ObjectDBX Classes
 90
     1153
280
     0
281
     0
  0
CLASS
  1
ACDBPLACEHOLDER
  2
AcDbPlaceHolder
  3
ObjectDBX Classes
 90
        0
280
     0
281
     0
  0
CLASS
  1
LAYOUT
  2
AcDbLayout
  3
ObjectDBX Classes
 90
        0
280
     0
281
     0
  0
ENDSEC
  0
SECTION
  2
TABLES
  0
TABLE
  2
VPORT
  5
8
330
0
100
AcDbSymbolTable
 70
     1
  0
VPORT
  5
29
330
8
100
AcDbSymbolTableRecord
100
AcDbViewportTableRecord
  2
*Active
 70
     0
 10
0.0
 20
0.0
 11
1.0
 21
1.0
 12
148.5
 22
105.0
 13
0.0
 23
0.0
 14
10.0
 24
10.0
 15
10.0
 25
10.0
 16
0.0
 26
0.0
 36
1.0
 17
0.0
 27
0.0
 37
0.0
 40
210.0
 41
1.4142857143
 42
50.0
 43
0.0
 44
0.0
 50
0.0
 51
0.0
 71
     0
 72
  2000
 73
     1
 74
     3
 75
     0
 76
     0
 77
     0
 78
     0
281
     0
 65
     1
110
0.0
120
0.0
130
0.0
111
1.0
121
0.0
131
0.0
112
0.0
122
1.0
132
0.0
 79
     0
146
0.0
  0
ENDTAB
  0
TABLE
  2
LTYPE
  5
5
330
0
100
AcDbSymbolTable
 70
     6
  0
LTYPE
  5
14
330
5
100
AcDbSymbolTableRecord
100
AcDbLinetypeTableRecord
  2
ByBlock
 70
     0
  3

 72
    65
 73
     0
 40
0.0
  0
LTYPE
  5
15
330
5
100
AcDbSymbolTableRecord
100
AcDbLinetypeTableRecord
  2
ByLayer
 70
     0
  3

 72
    65
 73
     0
 40
0.0
  0
LTYPE
  5
16
330
5
100
AcDbSymbolTableRecord
100
AcDbLinetypeTableRecord
  2
Continuous
 70
     0
  3
Solid line
 72
    65
 73
     0
 40
0.0
  0
LTYPE
  5
3F
330
5
100
AcDbSymbolTableRecord
100
AcDbLinetypeTableRecord
  2
HIDDEN
 70
     0
  3
Hidden __ __ __ __ __ __ __ __ __ __ __ __ __ __
 72
    65
 73
     2
 40
1.905
 49
1.27
 74
     0
 49
-0.635
 74
     0
  0
LTYPE
  5
40
330
5
100
AcDbSymbolTableRecord
100
AcDbLinetypeTableRecord
  2
PHANTOM
 70
     0
  3
Phantom ______  __  __  ______  __  __  ______
 72
    65
 73
     6
 40
12.7
 49
6.35
 74
     0
 49
-1.27
 74
     0
 49
1.27
 74
     0
 49
-1.27
 74
     0
 49
1.27
 74
     0
 49
-1.27
 74
     0
  0
LTYPE
  5
41
330
5
100
AcDbSymbolTableRecord
100
AcDbLinetypeTableRecord
  2
CENTER
 70
     0
  3
Center ____ _ ____ _ ____ _ ____ _ ____ _ ____
 72
    65
 73
     4
 40
10.16
 49
6.35
 74
     0
 49
-1.27
 74
     0
 49
1.27
 74
     0
 49
-1.27
 74
     0
  0
LTYPE
  5
42
330
5
100
AcDbSymbolTableRecord
100
AcDbLinetypeTableRecord
  2
CENTERX2
 70
     0
  3
Center (2x) ________  __  ________  __  _____
 72
    65
 73
     4
 40
20.32
 49
12.7
 74
     0
 49
-2.54
 74
     0
 49
2.54
 74
     0
 49
-2.54
 74
     0
  0
LTYPE
  5
43
330
5
100
AcDbSymbolTableRecord
100
AcDbLinetypeTableRecord
  2
DOT2
 70
     0
  3
Dot (.5x) ........................................
 72
    65
 73
     2
 40
0.635
 49
0.0
 74
     0
 49
-0.635
 74
     0
  0
ENDTAB
  0
TABLE
  2
LAYER
  5
2
330
0
100
AcDbSymbolTable
 70
     5
  0
LAYER
  5
10
330
2
100
AcDbSymbolTableRecord
100
AcDbLayerTableRecord
  2
0
 70
     0
 62
     7
  6
Continuous
370
    -3
390
F
  0
LAYER
  5
44
330
2
100
AcDbSymbolTableRecord
100
AcDbLayerTableRecord
  2
FORMAT
 70
     0
 62
     7
  6
Continuous
370
    -3
390
F
  0
LAYER
  5
45
330
2
100
AcDbSymbolTableRecord
100
AcDbLayerTableRecord
  2
VERMASSUNG
 70
     0
 62
     7
  6
Continuous
370
    -3
390
F
  0
LAYER
  5
46
330
2
100
AcDbSymbolTableRecord
100
AcDbLayerTableRecord
  2
KOPF_DÜNN
 70
     0
 62
     7
  6
Continuous
370
    -3
390
F
  0
LAYER
  5
47
330
2
100
AcDbSymbolTableRecord
100
AcDbLayerTableRecord
  2
KOPF_DICK
 70
     0
 62
     7
  6
Continuous
370
    15
390
F
  0
ENDTAB
  0
TABLE
  2
STYLE
  5
3
330
0
100
AcDbSymbolTable
 70
     2
  0
STYLE
  5
11
330
3
100
AcDbSymbolTableRecord
100
AcDbTextStyleTableRecord
  2
Standard
 70
     0
 40
0.0
 41
1.0
 50
0.0
 71
     0
 42
2.0
  3
txt
  4

  0
STYLE
  5
48
330
3
100
AcDbSymbolTableRecord
100
AcDbTextStyleTableRecord
  2
SLDTEXTSTYLE0
 70
     0
 40
0.0
 41
0.7
 50
0.0
 71
     0
 42
0.2
  3
TXT
  4

  0
ENDTAB
  0
TABLE
  2
VIEW
  5
6
330
0
100
AcDbSymbolTable
 70
     0
  0
ENDTAB
  0
TABLE
  2
UCS
  5
7
330
0
100
AcDbSymbolTable
 70
     0
  0
ENDTAB
  0
TABLE
  2
APPID
  5
9
330
0
100
AcDbSymbolTable
 70
     1
  0
APPID
  5
12
330
9
100
AcDbSymbolTableRecord
100
AcDbRegAppTableRecord
  2
ACAD
 70
     0
  0
ENDTAB
  0
TABLE
  2
DIMSTYLE
  5
A
330
0
100
AcDbSymbolTable
 70
     5
100
AcDbDimStyleTable
  0
DIMSTYLE
105
27
330
A
100
AcDbSymbolTableRecord
100
AcDbDimStyleTableRecord
  2
ISO-25
 70
     0
 41
2.5
 42
0.625
 43
3.75
 44
1.25
 73
     0
 74
     0
 77
     1
 78
     8
140
2.5
141
2.5
143
0.0393700787
147
0.625
171
     3
172
     1
178
     0
271
     2
272
     2
274
     3
278
    44
283
     0
284
     8
340
11
  0
DIMSTYLE
105
231
102
{ACAD_REACTORS
330
230
330
23B
330
245
330
258
102
}
330
A
100
AcDbSymbolTableRecord
100
AcDbDimStyleTableRecord
  2
SLDDIMSTYLE0
 70
     0
 41
3.0
 44
0.0
 45
0.000000001
 73
     0
 74
     0
 77
     1
 78
    12
 79
     3
140
2.0
147
0.5
173
     1
178
     0
271
     2
272
     3
276
     2
284
    12
340
48
  0
DIMSTYLE
105
250
102
{ACAD_REACTORS
330
24F
102
}
330
A
100
AcDbSymbolTableRecord
100
AcDbDimStyleTableRecord
  2
SLDDIMSTYLE1
 70
     0
 41
3.0
 44
0.0
 73
     0
 74
     0
 77
     1
 78
    12
 79
     3
140
2.0
147
0.5
173
     1
178
     0
179
     1
272
     3
276
     2
284
    12
340
48
  0
DIMSTYLE
105
2CF
102
{ACAD_REACTORS
330
2CE
102
}
330
A
100
AcDbSymbolTableRecord
100
AcDbDimStyleTableRecord
  2
SLDDIMSTYLE2
 70
     0
 41
3.0
 44
0.0
 73
     0
 74
     0
 77
     1
 78
    12
 79
     3
140
2.0
147
0.5
173
     1
178
     0
179
     2
272
     3
276
     2
284
    12
340
48
  0
DIMSTYLE
105
2D9
102
{ACAD_REACTORS
330
2D8
102
}
330
A
100
AcDbSymbolTableRecord
100
AcDbDimStyleTableRecord
  2
SLDDIMSTYLE3
 70
     0
 41
3.0
 44
0.0
 45
0.000000001
 73
     0
 74
     0
 77
     1
 78
    12
 79
     3
140
2.0
147
0.5
172
     1
173
     1
178
     0
271
     2
272
     3
276
     2
284
    12
289
     0
340
48
  0
ENDTAB
  0
TABLE
  2
BLOCK_RECORD
  5
1
330
0
100
AcDbSymbolTable
 70
     9
  0
BLOCK_RECORD
  5
1F
330
1
100
AcDbSymbolTableRecord
100
AcDbBlockTableRecord
  2
*Model_Space
340
22
  0
BLOCK_RECORD
  5
1B
330
1
100
AcDbSymbolTableRecord
100
AcDbBlockTableRecord
  2
*Paper_Space
340
1E
  0
BLOCK_RECORD
  5
23
330
1
100
AcDbSymbolTableRecord
100
AcDbBlockTableRecord
  2
*Paper_Space0
340
26
  0
BLOCK_RECORD
  5
232
330
1
100
AcDbSymbolTableRecord
100
AcDbBlockTableRecord
  2
_D
340
0
  0
BLOCK_RECORD
  5
23C
330
1
100
AcDbSymbolTableRecord
100
AcDbBlockTableRecord
  2
_D_1
340
0
  0
BLOCK_RECORD
  5
246
330
1
100
AcDbSymbolTableRecord
100
AcDbBlockTableRecord
  2
_D_2
340
0
  0
BLOCK_RECORD
  5
251
330
1
100
AcDbSymbolTableRecord
100
AcDbBlockTableRecord
  2
_D_3
340
0
  0
BLOCK_RECORD
  5
259
330
1
100
AcDbSymbolTableRecord
100
AcDbBlockTableRecord
  2
_D_4
340
0
  0
BLOCK_RECORD
  5
2D0
330
1
100
AcDbSymbolTableRecord
100
AcDbBlockTableRecord
  2
_D_5
340
0
  0
BLOCK_RECORD
  5
2DA
330
1
100
AcDbSymbolTableRecord
100
AcDbBlockTableRecord
  2
_D_6
340
0
  0
BLOCK_RECORD
  5
2E7
330
1
100
AcDbSymbolTableRecord
100
AcDbBlockTableRecord
  2
SW_CENTERMARKSYMBOL_0
340
0
102
{BLKREFS
331
2F2
102
}
  0
ENDTAB
  0
ENDSEC
  0
SECTION
  2
BLOCKS
  0
BLOCK
  5
20
330
1F
100
AcDbEntity
  8
0
100
AcDbBlockBegin
  2
*Model_Space
 70
     0
 10
0.0
 20
0.0
 30
0.0
  3
*Model_Space
  1

  0
ENDBLK
  5
21
330
1F
100
AcDbEntity
  8
0
100
AcDbBlockEnd
  0
BLOCK
  5
1C
330
1B
100
AcDbEntity
 67
     1
  8
0
100
AcDbBlockBegin
  2
*Paper_Space
 70
     0
 10
0.0
 20
0.0
 30
0.0
  3
*Paper_Space
  1

  0
ENDBLK
  5
1D
330
1B
100
AcDbEntity
 67
     1
  8
0
100
AcDbBlockEnd
  0
BLOCK
  5
24
330
23
100
AcDbEntity
  8
0
100
AcDbBlockBegin
  2
*Paper_Space0
 70
     0
 10
0.0
 20
0.0
 30
0.0
  3
*Paper_Space0
  1

  0
ENDBLK
  5
25
330
23
100
AcDbEntity
  8
0
100
AcDbBlockEnd
  0
BLOCK
  5
233
330
232
100
AcDbEntity
  8
0
100
AcDbBlockBegin
  2
_D
 70
     0
 10
0.0
 20
0.0
 30
0.0
  3
_D
  1

  0
SOLID
  5
235
330
232
100
AcDbEntity
  8
VERMASSUNG
100
AcDbTrace
 10
249.1000776064
 20
137.3174568902
 30
0.0
 11
248.6500776064
 21
134.3174568902
 31
0.0
 12
249.5500776064
 22
134.3174568902
 32
0.0
 13
249.5500776064
 23
134.3174568902
 33
0.0
  0
SOLID
  5
236
330
232
100
AcDbEntity
  8
VERMASSUNG
100
AcDbTrace
 10
249.1000776064
 20
110.3174568902
 30
0.0
 11
249.5500776064
 21
113.3174568902
 31
0.0
 12
248.6500776064
 22
113.3174568902
 32
0.0
 13
248.6500776064
 23
113.3174568902
 33
0.0
  0
LINE
  5
237
330
232
100
AcDbEntity
  8
VERMASSUNG
100
AcDbLine
 10
231.3672711982
 20
137.3174568902
 30
0.0
 11
250.1000776064
 21
137.3174568902
 31
0.0
  0
LINE
  5
238
330
232
100
AcDbEntity
  8
VERMASSUNG
100
AcDbLine
 10
231.3672711982
 20
110.3174568902
 30
0.0
 11
250.1000776064
 21
110.3174568902
 31
0.0
  0
LINE
  5
239
330
232
100
AcDbEntity
  8
VERMASSUNG
100
AcDbLine
 10
249.1000776064
 20
137.3174568902
 30
0.0
 11
249.1000776064
 21
110.3174568902
 31
0.0
  0
MTEXT
  5
23A
330
232
100
AcDbEntity
  8
VERMASSUNG
100
AcDbMText
 10
246.5219422432
 20
121.5174568392
 30
0.1
 40
2.0
 41
0.0
 71
     1
 72
     1
  1
27
  7
SLDTEXTSTYLE0
 11
-7.044195017643634E-15
 21
1.0
 31
0.0
 73
     1
 44
1.0
  0
ENDBLK
  5
234
330
232
100
AcDbEntity
  8
0
100
AcDbBlockEnd
  0
BLOCK
  5
23D
330
23C
100
AcDbEntity
  8
0
100
AcDbBlockBegin
  2
_D_1
 70
     0
 10
0.0
 20
0.0
 30
0.0
  3
_D_1
  1

  0
SOLID
  5
23F
330
23C
100
AcDbEntity
  8
VERMASSUNG
100
AcDbTrace
 10
231.3672711982
 20
145.5222197682
 30
0.0
 11
228.3672711982
 21
145.9722197682
 31
0.0
 12
228.3672711982
 22
145.0722197682
 32
0.0
 13
228.3672711982
 23
145.0722197682
 33
0.0
  0
SOLID
  5
240
330
23C
100
AcDbEntity
  8
VERMASSUNG
100
AcDbTrace
 10
176.3672711982
 20
145.5222197682
 30
0.0
 11
179.3672711982
 21
145.0722197682
 31
0.0
 12
179.3672711982
 22
145.9722197682
 32
0.0
 13
179.3672711982
 23
145.9722197682
 33
0.0
  0
LINE
  5
241
330
23C
100
AcDbEntity
  8
VERMASSUNG
100
AcDbLine
 10
231.3672711982
 20
137.3174568902
 30
0.0
 11
231.3672711982
 21
146.5222197682
 31
0.0
  0
LINE
  5
242
330
23C
100
AcDbEntity
  8
VERMASSUNG
100
AcDbLine
 10
176.3672711982
 20
130.0174568902
 30
0.0
 11
176.3672711982
 21
146.5222197682
 31
0.0
  0
LINE
  5
243
330
23C
100
AcDbEntity
  8
VERMASSUNG
100
AcDbLine
 10
231.3672711982
 20
145.5222197682
 30
0.0
 11
176.3672711982
 21
145.5222197682
 31
0.0
  0
MTEXT
  5
244
330
23C
100
AcDbEntity
  8
VERMASSUNG
100
AcDbMText
 10
201.5672711471
 20
148.1003551314
 30
0.1
 40
2.0
 41
0.0
 71
     1
 72
     1
  1
55
  7
SLDTEXTSTYLE0
 73
     1
 44
1.0
  0
ENDBLK
  5
23E
330
23C
100
AcDbEntity
  8
0
100
AcDbBlockEnd
  0
BLOCK
  5
247
330
246
100
AcDbEntity
  8
0
100
AcDbBlockBegin
  2
_D_2
 70
     0
 10
0.0
 20
0.0
 30
0.0
  3
_D_2
  1

  0
SOLID
  5
249
330
246
100
AcDbEntity
  8
VERMASSUNG
100
AcDbTrace
 10
156.4672711982
 20
152.8969619329
 30
0.0
 11
159.4672711982
 21
152.4469619329
 31
0.0
 12
159.4672711982
 22
153.3469619329
 32
0.0
 13
159.4672711982
 23
153.3469619329
 33
0.0
  0
SOLID
  5
24A
330
246
100
AcDbEntity
  8
VERMASSUNG
100
AcDbTrace
 10
231.3672711982
 20
152.8969619329
 30
0.0
 11
228.3672711982
 21
153.3469619329
 31
0.0
 12
228.3672711982
 22
152.4469619329
 32
0.0
 13
228.3672711982
 23
152.4469619329
 33
0.0
  0
LINE
  5
24B
330
246
100
AcDbEntity
  8
VERMASSUNG
100
AcDbLine
 10
156.4672711982
 20
122.2474568902
 30
0.0
 11
156.4672711982
 21
153.8969619329
 31
0.0
  0
LINE
  5
24C
330
246
100
AcDbEntity
  8
VERMASSUNG
100
AcDbLine
 10
231.3672711982
 20
137.3174568902
 30
0.0
 11
231.3672711982
 21
153.8969619329
 31
0.0
  0
LINE
  5
24D
330
246
100
AcDbEntity
  8
VERMASSUNG
100
AcDbLine
 10
156.4672711982
 20
152.8969619329
 30
0.0
 11
231.3672711982
 21
152.8969619329
 31
0.0
  0
MTEXT
  5
24E
330
246
100
AcDbEntity
  8
VERMASSUNG
100
AcDbMText
 10
190.5172711531
 20
155.4750972961
 30
0.1
 40
2.0
 41
0.0
 71
     1
 72
     1
  1
74.9
  7
SLDTEXTSTYLE0
 73
     1
 44
1.0
  0
ENDBLK
  5
248
330
246
100
AcDbEntity
  8
0
100
AcDbBlockEnd
  0
BLOCK
  5
252
330
251
100
AcDbEntity
  8
0
100
AcDbBlockBegin
  2
_D_3
 70
     0
 10
0.0
 20
0.0
 30
0.0
  3
_D_3
  1

  0
ARC
  5
254
330
251
100
AcDbEntity
  8
VERMASSUNG
100
AcDbCircle
 10
231.3900280596
 20
137.3174568902
 30
0.0
 40
11.73051950023894
100
AcDbArc
 50
266.9675391515
 51
0.0
  0
SOLID
  5
255
330
251
100
AcDbEntity
  8
VERMASSUNG
100
AcDbTrace
 10
230.7694634008
 20
125.6033633593
 30
0.0
 11
233.7941236953
 21
125.3711348013
 31
0.0
 12
233.7291445796
 22
126.2687860222
 32
0.0
 13
233.7291445796
 23
126.2687860222
 33
0.0
  0
SOLID
  5
256
330
251
100
AcDbEntity
  8
VERMASSUNG
100
AcDbTrace
 10
243.1205475599
 20
137.3174568902
 30
0.0
 11
242.2994844474
 21
134.3971220865
 31
0.0
 12
243.1924412016
 22
134.2847466659
 32
0.0
 13
243.1924412016
 23
134.2847466659
 33
0.0
  0
MTEXT
  5
257
330
251
100
AcDbEntity
  8
VERMASSUNG
100
AcDbMText
 10
235.5840814608
 20
128.6811351849
 30
0.1
 40
2.0
 41
0.0
 71
     1
 72
     1
  1
93°
  7
SLDTEXTSTYLE0
 11
0.725569335095586
 21
0.6881490681305537
 31
0.0
 73
     1
 44
1.0
  0
ENDBLK
  5
253
330
251
100
AcDbEntity
  8
0
100
AcDbBlockEnd
  0
BLOCK
  5
25A
330
259
100
AcDbEntity
  8
0
100
AcDbBlockBegin
  2
_D_4
 70
     0
 10
0.0
 20
0.0
 30
0.0
  3
_D_4
  1

  0
SOLID
  5
25C
330
259
100
AcDbEntity
  8
VERMASSUNG
100
AcDbTrace
 10
149.7166474822
 20
130.3174568902
 30
0.0
 11
149.2666474822
 21
127.3174568902
 31
0.0
 12
150.1666474822
 22
127.3174568902
 32
0.0
 13
150.1666474822
 23
127.3174568902
 33
0.0
  0
SOLID
  5
25D
330
259
100
AcDbEntity
  8
VERMASSUNG
100
AcDbTrace
 10
149.7166474822
 20
90.3174568902
 30
0.0
 11
150.1666474822
 21
93.3174568902
 31
0.0
 12
149.2666474822
 22
93.3174568902
 32
0.0
 13
149.2666474822
 23
93.3174568902
 33
0.0
  0
LINE
  5
25E
330
259
100
AcDbEntity
  8
VERMASSUNG
100
AcDbLine
 10
176.6672711982
 20
130.3174568902
 30
0.0
 11
148.7166474822
 21
130.3174568902
 31
0.0
  0
LINE
  5
25F
330
259
100
AcDbEntity
  8
VERMASSUNG
100
AcDbLine
 10
176.6672711982
 20
90.3174568902
 30
0.0
 11
148.7166474822
 21
90.3174568902
 31
0.0
  0
LINE
  5
260
330
259
100
AcDbEntity
  8
VERMASSUNG
100
AcDbLine
 10
149.7166474822
 20
130.3174568902
 30
0.0
 11
149.7166474822
 21
90.3174568902
 31
0.0
  0
MTEXT
  5
261
330
259
100
AcDbEntity
  8
VERMASSUNG
100
AcDbMText
 10
146.9385119931
 20
102.3124562393
 30
0.1
 40
2.0
 41
0.0
 71
     1
 72
     1
  1
HSK T
  7
SLDTEXTSTYLE0
 11
-7.044195017643634E-15
 21
1.0
 31
0.0
 73
     1
 44
1.0
  0
MTEXT
  5
262
330
259
100
AcDbEntity
  8
VERMASSUNG
100
AcDbMText
 10
147.1385120026
 20
109.9124563675
 30
0.1
 40
2.0
 41
0.0
 71
     1
 72
     1
  1
%%c
  7
SLDTEXTSTYLE0
 11
-7.044195017643634E-15
 21
1.0
 31
0.0
 73
     1
 44
1.0
  0
MTEXT
  5
263
330
259
100
AcDbEntity
  8
VERMASSUNG
100
AcDbMText
 10
146.9385119931
 20
113.5224563818
 30
0.1
 40
2.0
 41
0.0
 71
     1
 72
     1
  1
40
  7
SLDTEXTSTYLE0
 11
-7.044195017643634E-15
 21
1.0
 31
0.0
 73
     1
 44
1.0
  0
ENDBLK
  5
25B
330
259
100
AcDbEntity
  8
0
100
AcDbBlockEnd
  0
BLOCK
  5
2D1
330
2D0
100
AcDbEntity
  8
0
100
AcDbBlockBegin
  2
_D_5
 70
     0
 10
0.0
 20
0.0
 30
0.0
  3
_D_5
  1

  0
ARC
  5
2D3
330
2D0
100
AcDbEntity
  8
VERMASSUNG
100
AcDbCircle
 10
87.8629273068
 20
137.9806329712
 30
0.0
 40
58.60503983084122
100
AcDbArc
 50
260.0
 51
270.0
  0
SOLID
  5
2D4
330
2D0
100
AcDbEntity
  8
VERMASSUNG
100
AcDbTrace
 10
77.6862689381
 20
80.2659353802
 30
0.0
 11
80.5862622772
 21
79.3756889915
 31
0.0
 12
80.719831193
 22
80.2657223306
 32
0.0
 13
80.719831193
 23
80.2657223306
 33
0.0
  0
SOLID
  5
2D5
330
2D0
100
AcDbEntity
  8
VERMASSUNG
100
AcDbTrace
 10
87.8629273068
 20
79.3755931404
 30
0.0
 11
84.8754146832
 21
79.9021558848
 31
0.0
 12
84.8524017196
 22
79.0024501532
 32
0.0
 13
84.8524017196
 23
79.0024501532
 33
0.0
  0
LINE
  5
2D6
330
2D0
100
AcDbEntity
  8
VERMASSUNG
100
AcDbLine
 10
87.8629273068
 20
87.8174568902
 30
0.0
 11
87.8629273068
 21
78.3755931404
 31
0.0
  0
MTEXT
  5
2D7
330
2D0
100
AcDbEntity
  8
VERMASSUNG
100
AcDbMText
 10
80.2901350794
 20
82.4022483015
 30
0.1
 40
2.0
 41
0.0
 71
     1
 72
     1
  1
10°
  7
SLDTEXTSTYLE0
 11
0.9961946980917471
 21
-0.08715574274764062
 31
0.0
 73
     1
 44
1.0
  0
ENDBLK
  5
2D2
330
2D0
100
AcDbEntity
  8
0
100
AcDbBlockEnd
  0
BLOCK
  5
2DB
330
2DA
100
AcDbEntity
  8
0
100
AcDbBlockBegin
  2
_D_6
 70
     0
 10
0.0
 20
0.0
 30
0.0
  3
_D_6
  1

  0
SOLID
  5
2DD
330
2DA
100
AcDbEntity
  8
VERMASSUNG
100
AcDbTrace
 10
102.6163302447
 20
91.8454180172
 30
0.0
 11
104.0234519047
 21
89.1579454808
 31
0.0
 12
104.7500252897
 22
89.6890679866
 32
0.0
 13
104.7500252897
 23
89.6890679866
 33
0.0
  0
SOLID
  5
2DE
330
2DA
100
AcDbEntity
  8
VERMASSUNG
100
AcDbTrace
 10
73.1095243689
 20
132.2106060759
 30
0.0
 11
71.7024027089
 21
134.8980786123
 31
0.0
 12
70.9758293238
 22
134.3669561065
 32
0.0
 13
70.9758293238
 23
134.3669561065
 33
0.0
  0
LINE
  5
2DF
330
2DA
100
AcDbEntity
  8
VERMASSUNG
100
AcDbLine
 10
102.6163302447
 20
91.8454180172
 30
0.0
 11
103.4236340058
 21
92.4355541347
 31
0.0
  0
LINE
  5
2E0
330
2DA
100
AcDbEntity
  8
VERMASSUNG
100
AcDbLine
 10
73.1095243689
 20
132.2106060759
 30
0.0
 11
73.9168281301
 21
132.8007421934
 31
0.0
  0
LINE
  5
2E1
330
2DA
100
AcDbEntity
  8
VERMASSUNG
100
AcDbLine
 10
102.6163302447
 20
91.8454180172
 30
0.0
 11
106.1571469497
 21
87.0015954502
 31
0.0
  0
LINE
  5
2E2
330
2DA
100
AcDbEntity
  8
VERMASSUNG
100
AcDbLine
 10
102.6163302447
 20
91.8454180172
 30
0.0
 11
73.1095243689
 21
132.2106060759
 31
0.0
  0
LINE
  5
2E3
330
2DA
100
AcDbEntity
  8
VERMASSUNG
100
AcDbLine
 10
73.1095243689
 20
132.2106060759
 30
0.0
 11
62.6682664595
 21
146.4942035908
 31
0.0
  0
MTEXT
  5
2E4
330
2DA
100
AcDbEntity
  8
VERMASSUNG
100
AcDbMText
 10
64.749604929
 20
148.0156544532
 30
0.1
 40
2.0
 41
0.0
 71
     1
 72
     1
  1
%%c
  7
SLDTEXTSTYLE0
 11
0.5901361175149309
 21
-0.8073037611732052
 31
0.0
 73
     1
 44
1.0
  0
MTEXT
  5
2E5
330
2DA
100
AcDbEntity
  8
VERMASSUNG
100
AcDbMText
 10
67.0414570815
 20
145.2193150929
 30
0.1
 40
2.0
 41
0.0
 71
     1
 72
     1
  1
50
  7
SLDTEXTSTYLE0
 11
0.5901361175149309
 21
-0.8073037611732052
 31
0.0
 73
     1
 44
1.0
  0
MTEXT
  5
2E6
330
2DA
100
AcDbEntity
  8
VERMASSUNG
100
AcDbMText
 10
70.4568701967
 20
140.5470441168
 30
0.1
 40
2.0
 41
0.0
 71
     1
 72
     1
  1
min.
  7
SLDTEXTSTYLE0
 11
0.5901361175149309
 21
-0.8073037611732052
 31
0.0
 73
     1
 44
1.0
  0
ENDBLK
  5
2DC
330
2DA
100
AcDbEntity
  8
0
100
AcDbBlockEnd
  0
BLOCK
  5
2E8
330
2E7
100
AcDbEntity
  8
0
100
AcDbBlockBegin
  2
SW_CENTERMARKSYMBOL_0
 70
     0
 10
0.0
 20
0.0
 30
0.0
  3
SW_CENTERMARKSYMBOL_0
  1

  0
LINE
  5
2EA
330
2E7
100
AcDbEntity
  8
VERMASSUNG
 62
     0
100
AcDbLine
 10
0.0
 20
0.0
 30
0.0
 11
0.0
 21
2.5
 31
0.0
  0
LINE
  5
2EB
330
2E7
100
AcDbEntity
  8
VERMASSUNG
 62
     0
100
AcDbLine
 10
0.0
 20
0.0
 30
0.0
 11
-2.5
 21
0.0
 31
0.0
  0
LINE
  5
2EC
330
2E7
100
AcDbEntity
  8
VERMASSUNG
 62
     0
100
AcDbLine
 10
0.0
 20
0.0
 30
0.0
 11
0.0
 21
-2.5
 31
0.0
  0
LINE
  5
2ED
330
2E7
100
AcDbEntity
  8
VERMASSUNG
 62
     0
100
AcDbLine
 10
0.0
 20
0.0
 30
0.0
 11
2.5
 21
0.0
 31
0.0
  0
LINE
  5
2EE
330
2E7
100
AcDbEntity
  8
VERMASSUNG
 62
     0
100
AcDbLine
 10
0.0
 20
5.0
 30
0.0
 11
0.0
 21
31.7322460691
 31
0.0
  0
LINE
  5
2EF
330
2E7
100
AcDbEntity
  8
VERMASSUNG
 62
     0
100
AcDbLine
 10
-5.0
 20
0.0
 30
0.0
 11
-22.5
 21
0.0
 31
0.0
  0
LINE
  5
2F0
330
2E7
100
AcDbEntity
  8
VERMASSUNG
 62
     0
100
AcDbLine
 10
0.0
 20
-5.0
 30
0.0
 11
0.0
 21
-22.5
 31
0.0
  0
LINE
  5
2F1
330
2E7
100
AcDbEntity
  8
VERMASSUNG
 62
     0
100
AcDbLine
 10
5.0
 20
0.0
 30
0.0
 11
22.5
 21
0.0
 31
0.0
  0
ENDBLK
  5
2E9
330
2E7
100
AcDbEntity
  8
0
100
AcDbBlockEnd
  0
ENDSEC
  0
SECTION
  2
ENTITIES
  0
MTEXT
  5
49
330
1F
100
AcDbEntity
  8
KOPF_DÜNN
100
AcDbMText
 10
13.8892156294
 20
23.8442973028
 30
0.0
 40
3.0
 41
0.0
 71
     1
 72
     1
  1
HA4.PDF.RUA.055
  7
SLDTEXTSTYLE0
 73
     1
 44
1.0
  0
MTEXT
  5
4A
330
1F
100
AcDbEntity
  8
VERMASSUNG
100
AcDbMText
 10
13.9329988022
 20
28.8834360957
 30
0.0
 40
3.0
 41
0.0
 71
     1
 72
     1
  1
Klemmhalter rechts_Turning tool right 93° /55°
  7
SLDTEXTSTYLE0
 73
     1
 44
1.0
  0
MTEXT
  5
4B
330
1F
100
AcDbEntity
  8
VERMASSUNG
100
AcDbMText
 10
98.8601118557
 20
13.8365368179
 30
0.0
 40
2.0
 41
0.0
 71
     1
 72
     1
  1
Datum: 15.06.2012
  7
SLDTEXTSTYLE0
 73
     1
 44
1.0
  0
MTEXT
  5
4C
330
1F
100
AcDbEntity
  8
VERMASSUNG
100
AcDbMText
 10
13.933048693
 20
18.0482802738
 30
0.0
 40
2.0
 41
0.0
 71
     1
 72
     1
  1
HSK T ø40 / DN..15 06..
  7
SLDTEXTSTYLE0
 73
     1
 44
1.0
  0
MTEXT
  5
4D
330
1F
100
AcDbEntity
  8
VERMASSUNG
100
AcDbMText
 10
13.9808475933
 20
13.9090973692
 30
0.0
 40
2.0
 41
0.0
 71
     1
 72
     1
  1
Gewicht: 361g
  7
SLDTEXTSTYLE0
 73
     1
 44
1.0
  0
ARC
  5
4E
330
1F
100
AcDbEntity
  8
0
  6
Continuous
 62
     7
370
    15
100
AcDbCircle
 10
176.6672711982
 20
90.6174568902
 30
0.0
 40
0.3000000000000114
100
AcDbArc
 50
180.0
 51
270.0
  0
ARC
  5
4F
330
1F
100
AcDbEntity
  8
0
  6
Continuous
 62
     7
370
    15
100
AcDbCircle
 10
176.6672711982
 20
130.0174568902
 30
0.0
 40
0.2999999999999829
100
AcDbArc
 50
90.0
 51
180.0
  0
LINE
  5
50
330
1F
100
AcDbEntity
  8
0
  6
Continuous
 62
     7
370
    15
100
AcDbLine
 10
176.6672712124
 20
90.3174573372
 30
0.0
 11
184.3172716631
 21
90.3174573372
 31
0.0
  0
LINE
  5
51
330
1F
100
AcDbEntity
  8
0
  6
Continuous
 62
     7
370
    15
100
AcDbLine
 10
184.332798673
 20
130.3174564432
 30
0.0
 11
176.6672712124
 21
130.3174564432
 31
0.0
  0
ARC
  5
52
330
1F
100
AcDbEntity
  8
0
  6
Continuous
 62
     7
370
    15
100
AcDbCircle
 10
197.3172711982
 20
92.8174568902
 30
0.0
 40
1.000000000000015
100
AcDbArc
 50
90.0
 51
143.1137328946
  0
ARC
  5
53
330
1F
100
AcDbEntity
  8
0
  6
Continuous
 62
     7
370
    15
100
AcDbCircle
 10
197.3172711982
 20
127.8174568902
 30
0.0
 40
1.0
100
AcDbArc
 50
216.8998129703
 51
270.0
  0
LINE
  5
54
330
1F
100
AcDbEntity
  8
0
  6
Continuous
 62
     7
370
    15
100
AcDbLine
 10
210.5999435021
 20
126.8174568008
 30
0.0
 11
197.3172719313
 21
126.8174568008
 31
0.0
  0
LINE
  5
55
330
1F
100
AcDbEntity
  8
0
  6
Continuous
 62
     7
370
    15
100
AcDbLine
 10
197.3172719313
 20
93.8174569796
 30
0.0
 11
210.5999435021
 21
93.8174569796
 31
0.0
  0
ARC
  5
56
330
1F
100
AcDbEntity
  8
0
  6
Continuous
 62
     7
370
    15
100
AcDbCircle
 10
175.8672644455
 20
94.8637497367
 30
0.0
 40
0.6000067526677282
100
AcDbArc
 50
33.5571153394
 51
90.0
  0
ARC
  5
57
330
1F
100
AcDbEntity
  8
0
  6
Continuous
 62
     7
370
    15
100
AcDbCircle
 10
175.8672644455
 20
125.7711640437
 30
0.0
 40
0.6000067526677282
100
AcDbArc
 50
270.0
 51
326.4428846606
  0
LINE
  5
58
330
1F
100
AcDbEntity
  8
0
  6
Continuous
 62
     7
370
    15
100
AcDbLine
 10
174.3672711032
 20
95.2137563194
 30
0.0
 11
175.223983098
 21
95.4433115016
 31
0.0
  0
LINE
  5
59
330
1F
100
AcDbEntity
  8
0
  6
Continuous
 62
     7
370
    15
100
AcDbLine
 10
175.223983098
 20
125.1916022788
 30
0.0
 11
174.3672711032
 21
125.4211574609
 31
0.0
  0
LINE
  5
5A
330
1F
100
AcDbEntity
  8
0
  6
Continuous
 62
     7
370
    15
100
AcDbLine
 10
167.5513381792
 20
125.0796777944
 30
0.0
 11
160.0672709478
 21
124.7047245319
 31
0.0
  0
LINE
  5
5B
330
1F
100
AcDbEntity
  8
0
  6
Continuous
 62
     7
370
    15
100
AcDbLine
 10
174.3672711032
 20
125.4211574609
 30
0.0
 11
173.1325385349
 21
125.3592971529
 31
0.0
  0
LINE
  5
5C
330
1F
100
AcDbEntity
  8
0
  6
Continuous
 62
     7
370
    15
100
AcDbLine
 10
173.1335345844
 20
95.2755672674
 30
0.0
 11
174.3672711032
 21
95.2137563194
 31
0.0
  0
LINE
  5
5D
330
1F
100
AcDbEntity
  8
0
  6
Continuous
 62
     7
370
    15
100
AcDbLine
 10
162.5672713576
 20
95.8049384694
 30
0.0
 11
167.5518010466
 21
95.5552127029
 31
0.0
  0
ARC
  5
5E
330
1F
100
AcDbEntity
  8
0
  6
Continuous
 62
     7
370
    15
100
AcDbCircle
 10
175.3792762876
 20
94.8637497367
 30
0.0
 40
0.6000067526677242
100
AcDbArc
 50
90.0
 51
105.0
  0
ARC
  5
5F
330
1F
100
AcDbEntity
  8
0
  6
Continuous
 62
     7
370
    15
100
AcDbCircle
 10
175.3792762876
 20
125.7711640437
 30
0.0
 40
0.6000067526676958
100
AcDbArc
 50
255.0
 51
270.0
  0
LINE
  5
60
330
1F
100
AcDbEntity
  8
0
  6
Continuous
 62
     7
370
    15
100
AcDbLine
 10
175.3792762479
 20
95.4637568261
 30
0.0
 11
175.8672644223
 21
95.4637568261
 31
0.0
  0
LINE
  5
61
330
1F
100
AcDbEntity
  8
0
  6
Continuous
 62
     7
370
    15
100
AcDbLine
 10
175.8672644223
 20
125.1711569543
 30
0.0
 11
175.3792762479
 21
125.1711569543
 31
0.0
  0
LINE
  5
62
330
1F
100
AcDbEntity
  8
0
  6
Continuous
 62
     7
370
    15
100
AcDbLine
 10
211.5658702983
 20
93.0762750845
 30
0.0
 11
211.7691966428
 21
92.317457665
 31
0.0
  0
LINE
  5
63
330
1F
100
AcDbEntity
  8
0
  6
Continuous
 62
     7
370
    15
100
AcDbLine
 10
211.7691966428
 20
92.317457665
 30
0.0
 11
219.0727251305
 21
92.317457665
 31
0.0
  0
ARC
  5
64
330
1F
100
AcDbEntity
  8
0
  6
Continuous
 62
     7
370
    15
100
AcDbCircle
 10
210.5999442102
 20
127.8174568902
 30
0.0
 40
1.0
100
AcDbArc
 50
270.0
 51
345.0
  0
ARC
  5
65
330
1F
100
AcDbEntity
  8
0
  6
Continuous
 62
     7
370
    15
100
AcDbCircle
 10
210.5999442102
 20
92.8174568902
 30
0.0
 40
1.000000000000003
100
AcDbArc
 50
15.0
 51
90.0
  0
ARC
  5
66
330
1F
100
AcDbEntity
  8
0
  6
Continuous
 62
     7
370
    15
100
AcDbCircle
 10
159.1672711982
 20
124.0974568902
 30
0.0
 40
0.8999999999999965
100
AcDbArc
 50
270.0
 51
311.1792132369
  0
ARC
  5
67
330
1F
100
AcDbEntity
  8
0
  6
Continuous
 62
     7
370
    15
100
AcDbCircle
 10
161.6672711982
 20
96.5374568902
 30
0.0
 40
0.9000000000000199
100
AcDbArc
 50
34.6391318474
 51
90.0
  0
LINE
  5
68
330
1F
100
AcDbEntity
  8
0
  6
Continuous
 62
     7
370
    15
100
AcDbLine
 10
157.4172707929
 20
123.197457176
 30
0.0
 11
156.4672714753
 21
122.2474569271
 31
0.0
  0
LINE
  5
69
330
1F
100
AcDbEntity
  8
0
  6
Continuous
 62
     7
370
    15
100
AcDbLine
 10
159.167270614
 20
123.197457176
 30
0.0
 11
157.4172707929
 21
123.197457176
 31
0.0
  0
LINE
  5
6A
330
1F
100
AcDbEntity
  8
0
  6
Continuous
 62
     7
370
    15
100
AcDbLine
 10
157.4762719406
 20
97.4374566044
 30
0.0
 11
161.6672710238
 21
97.4374566044
 31
0.0
  0
LINE
  5
6B
330
1F
100
AcDbEntity
  8
0
  6
Continuous
 62
     7
370
    15
100
AcDbLine
 10
156.4672714753
 20
98.4464570697
 30
0.0
 11
157.4762719406
 21
97.4374566044
 31
0.0
  0
LINE
  5
6C
330
1F
100
AcDbEntity
  8
0
  6
Continuous
 62
     7
370
    15
100
AcDbLine
 10
222.4965202345
 20
126.855238695
 30
0.0
 11
221.9008649422
 21
126.1098937879
 31
0.0
  0
LINE
  5
6D
330
1F
100
AcDbEntity
  8
0
  6
Continuous
 62
     7
370
    15
100
AcDbLine
 10
218.3760176135
 20
129.7746369432
 30
0.0
 11
218.1666264964
 21
129.4286897223
 31
0.0
  0
LINE
  5
6E
330
1F
100
AcDbEntity
  8
0
  6
Continuous
 62
     7
370
    15
100
AcDbLine
 10
230.1371241642
 20
121.7519635151
 30
0.0
 11
230.5565769507
 21
122.4449606429
 31
0.0
  0
LINE
  5
6F
330
1F
100
AcDbEntity
  8
0
  6
Continuous
 62
     7
370
    15
100
AcDbLine
 10
176.3672711982
 20
90.6174568276
 30
0.0
 11
176.3672711982
 21
130.0174569528
 31
0.0
  0
LINE
  5
70
330
1F
100
AcDbEntity
  8
0
  6
Continuous
 62
     7
370
    15
100
AcDbLine
 10
184.3172716631
 20
122.1674572493
 30
0.0
 11
190.3321114091
 21
122.1674572493
 31
0.0
  0
LINE
  5
71
330
1F
100
AcDbEntity
  8
0
  6
Continuous
 62
     7
370
    15
100
AcDbLine
 10
190.3321114091
 20
91.0885719399
 30
0.0
 11
190.3321114091
 21
122.1674572493
 31
0.0
  0
LINE
  5
72
330
1F
100
AcDbEntity
  8
0
  6
Continuous
 62
     7
370
    15
100
AcDbLine
 10
190.3321114091
 20
91.0885719399
 30
0.0
 11
188.8172714694
 21
91.0885719399
 31
0.0
  0
SPLINE
  5
73
330
1F
100
AcDbEntity
  8
0
  6
Continuous
 62
     7
370
    15
100
AcDbSpline
210
0.0
220
0.0
230
1.0
 70
     8
 71
     3
 72
    22
 73
    18
 74
     0
 42
0.00000001
 43
0.00000001
 12
1.0
 22
0.0
 32
0.0
 13
1.0
 23
0.0
 33
0.0
 40
0.0
 40
0.0
 40
0.0
 40
0.0
 40
0.125
 40
0.125
 40
0.25
 40
0.25
 40
0.375
 40
0.375
 40
0.5
 40
0.5
 40
0.625
 40
0.625
 40
0.75
 40
0.75
 40
0.875
 40
0.875
 40
1.0
 40
1.0
 40
1.0
 40
1.0
 10
188.8172711981676
 20
91.08857236715727
 30
0.0
 10
188.5181467691269
 20
91.08857236715727
 30
0.0
 10
188.2243243208781
 20
91.08005826609086
 30
0.0
 10
187.6467600446318
 20
91.04761449720898
 30
0.0
 10
187.3599423668178
 20
91.02328060850694
 30
0.0
 10
186.8154798379185
 20
90.9628205837501
 30
0.0
 10
186.5575245672972
 20
90.92690716297162
 30
0.0
 10
186.0694666239372
 20
90.84719713690248
 30
0.0
 10
185.8397683252735
 20
90.80331883571314
 30
0.0
 10
185.4273493423209
 20
90.71507521334296
 30
0.0
 10
185.2418223994608
 20
90.67026687188199
 30
0.0
 10
184.91330235456
 20
90.58294586396282
 30
0.0
 10
184.7748884676605
 20
90.54165507538715
 30
0.0
 10
184.5502963210446
 20
90.46731685209333
 30
0.0
 10
184.4632175089204
 20
90.43390672635867
 30
0.0
 10
184.3467157009653
 20
90.37888732483253
 30
0.0
 10
184.3172711981675
 20
90.35742555836629
 30
0.0
 10
184.3172711981675
 20
90.34247253474851
 30
0.0
  0
LINE
  5
74
330
1F
100
AcDbEntity
  8
0
  6
Continuous
 62
     7
370
    15
100
AcDbLine
 10
184.3172716631
 20
90.3424726616
 30
0.0
 11
184.3172716631
 21
90.3174573372
 31
0.0
  0
SPLINE
  5
75
330
1F
100
AcDbEntity
  8
0
  6
Continuous
 62
     7
370
    15
100
AcDbSpline
210
0.0
220
0.0
230
1.0
 70
     8
 71
     3
 72
    17
 73
    13
 74
     0
 42
0.00000001
 43
0.00000001
 12
1.0
 22
0.0
 32
0.0
 13
1.0
 23
0.0
 33
0.0
 40
0.0
 40
0.0
 40
0.0
 40
0.0
 40
0.1039928149931941
 40
0.211050797947968
 40
0.315030024669631
 40
0.4219351868122974
 40
0.5275775927633417
 40
0.6362134531400181
 40
0.7429488821168505
 40
0.8528788227495517
 40
0.9578277247781112
 40
1.0
 40
1.0
 40
1.0
 40
1.0
 10
188.8172714693687
 20
129.8046329806656
 30
0.0
 10
188.5714543851436
 20
129.8073488152586
 30
0.0
 10
188.0725748060273
 20
129.8128605331402
 30
0.0
 10
187.3490912625026
 20
129.8559442919158
 30
0.0
 10
186.6612959062948
 20
129.9198109040973
 30
0.0
 10
186.0365505341606
 20
129.9991464201222
 30
0.0
 10
185.4805997310983
 20
130.0860852118905
 30
0.0
 10
185.018613224531
 20
130.1700448032095
 30
0.0
 10
184.6563480932593
 20
130.2432076723005
 30
0.0
 10
184.4245691225056
 20
130.2933447125921
 30
0.0
 10
184.3150031782224
 20
130.3179648099746
 30
0.0
 10
184.3288340535869
 20
130.3148596619093
 30
0.0
 10
184.3327986730478
 20
130.3139695714325
 30
0.0
  0
LINE
  5
76
330
1F
100
AcDbEntity
  8
0
  6
Continuous
 62
     7
370
    15
100
AcDbLine
 10
190.3321114091
 20
129.8046329807
 30
0.0
 11
188.8172714694
 21
129.8046329807
 31
0.0
  0
LINE
  5
77
330
1F
100
AcDbEntity
  8
0
  6
Continuous
 62
     7
370
    15
100
AcDbLine
 10
190.3321114091
 20
126.4288661818
 30
0.0
 11
190.3321114091
 21
129.8046329807
 31
0.0
  0
LINE
  5
78
330
1F
100
AcDbEntity
  8
0
  6
Continuous
 62
     7
370
    15
100
AcDbLine
 10
188.8109412698
 20
126.4288661818
 30
0.0
 11
190.3321114091
 21
126.4288661818
 31
0.0
  0
SPLINE
  5
79
330
1F
100
AcDbEntity
  8
0
  6
Continuous
 62
     7
370
    15
100
AcDbSpline
210
0.0
220
0.0
230
1.0
 70
     8
 71
     3
 72
    22
 73
    18
 74
     0
 42
0.00000001
 43
0.00000001
 12
1.0
 22
0.0
 32
0.0
 13
1.0
 23
0.0
 33
0.0
 40
0.0
 40
0.0
 40
0.0
 40
0.0
 40
0.2500000000000001
 40
0.2500000000000001
 40
0.3750000000000002
 40
0.3750000000000002
 40
0.5000000000000002
 40
0.5000000000000002
 40
0.6250000000000003
 40
0.6250000000000003
 40
0.7500000000000004
 40
0.7500000000000004
 40
0.8750000000000004
 40
0.8750000000000004
 40
0.9375000000000002
 40
0.9375000000000002
 40
1.0
 40
1.0
 40
1.0
 40
1.0
 10
184.3172711981675
 20
122.1674568901867
 30
0.0
 10
184.3392522161542
 20
122.7303295320847
 30
0.0
 10
184.4182290995089
 20
123.2609544158142
 30
0.0
 10
184.6646269925413
 20
124.0066654067358
 30
0.0
 10
184.7691516076322
 20
124.2482856331345
 30
0.0
 10
185.0309982029387
 20
124.7071444084604
 30
0.0
 10
185.1862148251045
 20
124.9213230809303
 30
0.0
 10
185.5548065781685
 20
125.3185516400758
 30
0.0
 10
185.7709402706334
 20
125.5029964750956
 30
0.0
 10
186.2548347656203
 20
125.8240763229792
 30
0.0
 10
186.525300310628
 20
125.9634271530852
 30
0.0
 10
187.1215268761382
 20
126.1927326875108
 30
0.0
 10
187.4370201428582
 20
126.2792686969871
 30
0.0
 10
187.9377367908767
 20
126.3681583013184
 30
0.0
 10
188.1105332254918
 20
126.39096680718
 30
0.0
 10
188.4589019982739
 20
126.4212579698763
 30
0.0
 10
188.6343030271843
 20
126.4288658912642
 30
0.0
 10
188.8109416728723
 20
126.4288658912642
 30
0.0
  0
LINE
  5
7A
330
1F
100
AcDbEntity
  8
0
  6
Continuous
 62
     7
370
    15
100
AcDbLine
 10
196.3172717674
 20
91.7134241949
 30
0.0
 11
196.3172717674
 21
122.1674572493
 31
0.0
  0
SPLINE
  5
7B
330
1F
100
AcDbEntity
  8
0
  6
Continuous
 62
     7
370
    15
100
AcDbSpline
210
0.0
220
0.0
230
1.0
 70
     8
 71
     3
 72
    10
 73
     6
 74
     0
 42
0.00000001
 43
0.00000001
 12
1.0
 22
0.0
 32
0.0
 13
1.0
 23
0.0
 33
0.0
 40
0.0
 40
0.0
 40
0.0
 40
0.0
 40
0.5
 40
0.5
 40
1.0
 40
1.0
 40
1.0
 40
1.0
 10
196.3172711981675
 20
91.71342506910015
 30
0.0
 10
196.3172711981675
 20
91.55379290019692
 30
0.0
 10
196.2556346844622
 20
91.39274326643287
 30
0.0
 10
196.0366083182194
 20
91.15975238275625
 30
0.0
 10
195.8789914301719
 20
91.08857236715727
 30
0.0
 10
195.7172711981675
 20
91.08857236715727
 30
0.0
  0
SPLINE
  5
7C
330
1F
100
AcDbEntity
  8
0
  6
Continuous
 62
     7
370
    15
100
AcDbSpline
210
0.0
220
0.0
230
1.0
 70
    24
 71
     3
 72
    12
 73
     8
 74
     0
 42
0.00000001
 43
0.00000001
 12
1.0
 22
0.0
 32
0.0
 13
1.0
 23
0.0
 33
0.0
 40
0.0
 40
0.0
 40
0.0
 40
0.0
 40
0.2499999999999966
 40
0.2499999999999966
 40
0.4999999999999931
 40
0.4999999999999931
 40
1.0
 40
1.0
 40
1.0
 40
1.0
 10
195.7172711981675
 20
122.1674568901867
 30
0.0
 10
195.8054580635364
 20
122.1674568901867
 30
0.0
 10
195.8941454568377
 20
122.1674568901867
 30
0.0
 10
196.0483979499565
 20
122.1674568901867
 30
0.0
 10
196.1137439310325
 20
122.1674568901867
 30
0.0
 10
196.2681538009836
 20
122.1674568901867
 30
0.0
 10
196.3172711981676
 20
122.1674568901867
 30
0.0
 10
196.3172711981675
 20
122.1674568901867
 30
0.0
  0
LINE
  5
7D
330
1F
100
AcDbEntity
  8
0
  6
Continuous
 62
     7
370
    15
100
AcDbLine
 10
194.4024315758
 20
91.0885719399
 30
0.0
 11
194.4024315758
 21
122.1674572493
 31
0.0
  0
SPLINE
  5
7E
330
1F
100
AcDbEntity
  8
0
  6
Continuous
 62
     7
370
    15
100
AcDbSpline
210
0.0
220
0.0
230
1.0
 70
     8
 71
     3
 72
     8
 73
     4
 74
     0
 42
0.00000001
 43
0.00000001
 12
1.0
 22
0.0
 32
0.0
 13
1.0
 23
0.0
 33
0.0
 40
0.0
 40
0.0
 40
0.0
 40
0.0
 40
1.0
 40
1.0
 40
1.0
 40
1.0
 10
194.402430897061
 20
91.08857236715727
 30
0.0
 10
194.0697256253557
 20
91.68794404038093
 30
0.0
 10
193.7379098247821
 20
92.28781315108596
 30
0.0
 10
193.4072711981675
 20
92.88833350219696
 30
0.0
  0
LINE
  5
7F
330
1F
100
AcDbEntity
  8
0
  6
Continuous
 62
     7
370
    15
100
AcDbLine
 10
193.407270564
 20
92.8883341889
 30
0.0
 11
193.407270564
 21
122.1674572493
 31
0.0
  0
SPLINE
  5
80
330
1F
100
AcDbEntity
  8
0
  6
Continuous
 62
     7
370
    15
100
AcDbSpline
210
0.0
220
0.0
230
1.0
 70
    24
 71
     3
 72
     8
 73
     4
 74
     0
 42
0.00000001
 43
0.00000001
 12
1.0
 22
0.0
 32
0.0
 13
1.0
 23
0.0
 33
0.0
 40
0.0
 40
0.0
 40
0.0
 40
0.0
 40
1.0
 40
1.0
 40
1.0
 40
1.0
 10
193.4072711981675
 20
122.1674568901867
 30
0.0
 10
193.7309078537898
 20
122.1674568901867
 30
0.0
 10
194.0633980753064
 20
122.1674568901867
 30
0.0
 10
194.402430897061
 20
122.1674568901867
 30
0.0
  0
LINE
  5
81
330
1F
100
AcDbEntity
  8
0
  6
Continuous
 62
     7
370
    15
100
AcDbLine
 10
191.3272714896
 20
92.8883341889
 30
0.0
 11
191.3272714896
 21
122.1674572493
 31
0.0
  0
SPLINE
  5
82
330
1F
100
AcDbEntity
  8
0
  6
Continuous
 62
     7
370
    15
100
AcDbSpline
210
0.0
220
0.0
230
1.0
 70
     8
 71
     3
 72
     8
 73
     4
 74
     0
 42
0.00000001
 43
0.00000001
 12
1.0
 22
0.0
 32
0.0
 13
1.0
 23
0.0
 33
0.0
 40
0.0
 40
0.0
 40
0.0
 40
0.0
 40
1.0
 40
1.0
 40
1.0
 40
1.0
 10
191.3272711981675
 20
92.88833350219697
 30
0.0
 10
190.9966325715529
 20
92.28781315108597
 30
0.0
 10
190.6648167709794
 20
91.68794404038094
 30
0.0
 10
190.3321114992741
 20
91.08857236715727
 30
0.0
  0
SPLINE
  5
83
330
1F
100
AcDbEntity
  8
0
  6
Continuous
 62
     7
370
    15
100
AcDbSpline
210
0.0
220
0.0
230
1.0
 70
    24
 71
     3
 72
     8
 73
     4
 74
     0
 42
0.00000001
 43
0.00000001
 12
1.0
 22
0.0
 32
0.0
 13
1.0
 23
0.0
 33
0.0
 40
0.0
 40
0.0
 40
0.0
 40
0.0
 40
1.0
 40
1.0
 40
1.0
 40
1.0
 10
190.3321114992741
 20
122.1674568901867
 30
0.0
 10
190.6711443210287
 20
122.1674568901867
 30
0.0
 10
191.0036345425453
 20
122.1674568901867
 30
0.0
 10
191.3272711981675
 20
122.1674568901867
 30
0.0
  0
LINE
  5
84
330
1F
100
AcDbEntity
  8
0
  6
Continuous
 62
     7
370
    15
100
AcDbLine
 10
195.717270924
 20
91.0885719399
 30
0.0
 11
194.4024315758
 21
91.0885719399
 31
0.0
  0
LINE
  5
85
330
1F
100
AcDbEntity
  8
0
  6
Continuous
 62
     7
370
    15
100
AcDbLine
 10
194.4024315758
 20
122.1674572493
 30
0.0
 11
195.717270924
 21
122.1674572493
 31
0.0
  0
SPLINE
  5
86
330
1F
100
AcDbEntity
  8
0
  6
Continuous
 62
     7
370
    15
100
AcDbSpline
210
0.0
220
0.0
230
1.0
 70
    24
 71
     3
 72
    16
 73
    12
 74
     0
 42
0.00000001
 43
0.00000001
 12
1.0
 22
0.0
 32
0.0
 13
1.0
 23
0.0
 33
0.0
 40
0.0
 40
0.0
 40
0.0
 40
0.0
 40
0.5000000000000013
 40
0.5000000000000013
 40
0.750000000000002
 40
0.750000000000002
 40
0.8750000000000023
 40
0.8750000000000023
 40
0.9375000000000011
 40
0.9375000000000011
 40
1.0
 40
1.0
 40
1.0
 40
1.0
 10
193.3720487975862
 20
93.41745689018668
 30
0.0
 10
193.342074479732
 20
93.41745689018668
 30
0.0
 10
193.2955580851268
 20
93.41745689018668
 30
0.0
 10
193.1856967793925
 20
93.41745689018667
 30
0.0
 10
193.142544128863
 20
93.41745689018668
 30
0.0
 10
193.0537600757491
 20
93.41745689018667
 30
0.0
 10
193.0205709078706
 20
93.41745689018667
 30
0.0
 10
192.955824607521
 20
93.41745689018668
 30
0.0
 10
192.9315533965387
 20
93.41745689018667
 30
0.0
 10
192.8750921193196
 20
93.41745689018668
 30
0.0
 10
192.8422885132463
 20
93.41745689018668
 30
0.0
 10
192.8072711981675
 20
93.41745689018668
 30
0.0
  0
SPLINE
  5
87
330
1F
100
AcDbEntity
  8
0
  6
Continuous
 62
     7
370
    15
100
AcDbSpline
210
0.0
220
0.0
230
1.0
 70
    24
 71
     3
 72
    12
 73
     8
 74
     0
 42
0.00000001
 43
0.00000001
 12
1.0
 22
0.0
 32
0.0
 13
1.0
 23
0.0
 33
0.0
 40
0.0
 40
0.0
 40
0.0
 40
0.0
 40
0.25
 40
0.25
 40
0.5
 40
0.5
 40
1.0
 40
1.0
 40
1.0
 40
1.0
 10
192.8072711981675
 20
122.1674568901867
 30
0.0
 10
192.8995741973562
 20
122.1674568901867
 30
0.0
 10
192.9923178933152
 20
122.1674568901867
 30
0.0
 10
193.1473676236087
 20
122.1674568901867
 30
0.0
 10
193.2108175952112
 20
122.1674568901867
 30
0.0
 10
193.3600776862713
 20
122.1674568901867
 30
0.0
 10
193.4072711981675
 20
122.1674568901867
 30
0.0
 10
193.4072711981675
 20
122.1674568901867
 30
0.0
  0
SPLINE
  5
88
330
1F
100
AcDbEntity
  8
0
  6
Continuous
 62
     7
370
    15
100
AcDbSpline
210
0.0
220
0.0
230
1.0
 70
    24
 71
     3
 72
    16
 73
    12
 74
     0
 42
0.00000001
 43
0.00000001
 12
1.0
 22
0.0
 32
0.0
 13
1.0
 23
0.0
 33
0.0
 40
0.0
 40
0.0
 40
0.0
 40
0.0
 40
0.0624999999999998
 40
0.0624999999999998
 40
0.1249999999999997
 40
0.1249999999999997
 40
0.2499999999999993
 40
0.2499999999999993
 40
0.5
 40
0.5
 40
1.0
 40
1.0
 40
1.0
 40
1.0
 10
191.9272711981675
 20
93.41745689018668
 30
0.0
 10
191.8921647095534
 20
93.41745689018668
 30
0.0
 10
191.8590700244675
 20
93.41745689018668
 30
0.0
 10
191.8024703125416
 20
93.41745689018668
 30
0.0
 10
191.778168258406
 20
93.41745689018668
 30
0.0
 10
191.7136402697651
 20
93.41745689018667
 30
0.0
 10
191.6800514442489
 20
93.41745689018667
 30
0.0
 10
191.5920120298998
 20
93.41745689018667
 30
0.0
 10
191.5489042660274
 20
93.41745689018668
 30
0.0
 10
191.4384700518542
 20
93.41745689018667
 30
0.0
 10
191.3922900334769
 20
93.41745689018668
 30
0.0
 10
191.3624935987489
 20
93.41745689018668
 30
0.0
  0
SPLINE
  5
89
330
1F
100
AcDbEntity
  8
0
  6
Continuous
 62
     7
370
    15
100
AcDbSpline
210
0.0
220
0.0
230
1.0
 70
    24
 71
     3
 72
    14
 73
    10
 74
     0
 42
0.00000001
 43
0.00000001
 12
1.0
 22
0.0
 32
0.0
 13
1.0
 23
0.0
 33
0.0
 40
0.0
 40
0.0
 40
0.0
 40
0.0
 40
0.25
 40
0.25
 40
0.5
 40
0.5
 40
0.75
 40
0.75
 40
1.0
 40
1.0
 40
1.0
 40
1.0
 10
191.3272711981675
 20
122.1674568901867
 30
0.0
 10
191.3272711981675
 20
122.1674568901867
 30
0.0
 10
191.3391482094285
 20
122.1674568901867
 30
0.0
 10
191.3876766992084
 20
122.1674568901867
 30
0.0
 10
191.4240951554327
 20
122.1674568901867
 30
0.0
 10
191.5242224899613
 20
122.1674568901867
 30
0.0
 10
191.5873993013973
 20
122.1674568901867
 30
0.0
 10
191.7429698040832
 20
122.1674568901867
 30
0.0
 10
191.834846151838
 20
122.1674568901867
 30
0.0
 10
191.9272711981688
 20
122.1674568901867
 30
0.0
  0
SPLINE
  5
8A
330
1F
100
AcDbEntity
  8
0
  6
Continuous
 62
     7
370
    15
100
AcDbSpline
210
0.0
220
0.0
230
1.0
 70
    24
 71
     3
 72
    14
 73
    10
 74
     0
 42
0.00000001
 43
0.00000001
 12
1.0
 22
0.0
 32
0.0
 13
1.0
 23
0.0
 33
0.0
 40
0.0
 40
0.0
 40
0.0
 40
0.0
 40
0.125
 40
0.125
 40
0.2500000000000001
 40
0.2500000000000001
 40
0.5
 40
0.5
 40
1.0
 40
1.0
 40
1.0
 40
1.0
 10
196.517271198152
 20
127.2174568901867
 30
0.0
 10
196.5172714163612
 20
127.2174568901867
 30
0.0
 10
196.5148950519119
 20
127.2174568901867
 30
0.0
 10
196.5057471523107
 20
127.2174568901867
 30
0.0
 10
196.498981252946
 20
127.2174568901867
 30
0.0
 10
196.4735418353881
 20
127.2174568901867
 30
0.0
 10
196.4496487997452
 20
127.2174568901867
 30
0.0
 10
196.3747145834001
 20
127.2174568901867
 30
0.0
 10
196.3194880866006
 20
127.2174568901867
 30
0.0
 10
196.3173333212908
 20
127.2174568901867
 30
0.0
  0
SPLINE
  5
8B
330
1F
100
AcDbEntity
  8
0
  6
Continuous
 62
     7
370
    15
100
AcDbSpline
210
0.0
220
0.0
230
1.0
 70
    24
 71
     3
 72
    14
 73
    10
 74
     0
 42
0.00000001
 43
0.00000001
 12
1.0
 22
0.0
 32
0.0
 13
1.0
 23
0.0
 33
0.0
 40
0.0
 40
0.0
 40
0.0
 40
0.0
 40
0.125
 40
0.125
 40
0.25
 40
0.25
 40
0.5000000000000001
 40
0.5000000000000001
 40
1.0
 40
1.0
 40
1.0
 40
1.0
 10
196.5172711981525
 20
93.41745689018668
 30
0.0
 10
196.5172714151767
 20
93.41745689018668
 30
0.0
 10
196.5148488178237
 20
93.41745689018667
 30
0.0
 10
196.505529619823
 20
93.41745689018668
 30
0.0
 10
196.4986389631388
 20
93.41745689018668
 30
0.0
 10
196.4727605073061
 20
93.41745689018668
 30
0.0
 10
196.4484879807494
 20
93.41745689018668
 30
0.0
 10
196.3727316758766
 20
93.41745689018667
 30
0.0
 10
196.3172711981675
 20
93.41745689018667
 30
0.0
 10
196.3172711981675
 20
93.41745689018668
 30
0.0
  0
SPLINE
  5
8C
330
1F
100
AcDbEntity
  8
0
  6
Continuous
 62
     7
370
    15
100
AcDbSpline
210
0.0
220
0.0
230
1.0
 70
    24
 71
     3
 72
    12
 73
     8
 74
     0
 42
0.00000001
 43
0.00000001
 12
1.0
 22
0.0
 32
0.0
 13
1.0
 23
0.0
 33
0.0
 40
0.0
 40
0.0
 40
0.0
 40
0.0
 40
0.4999999999999978
 40
0.4999999999999978
 40
0.7499999999999989
 40
0.7499999999999989
 40
1.0
 40
1.0
 40
1.0
 40
1.0
 10
196.3172711981675
 20
122.1674568901867
 30
0.0
 10
196.3172711981675
 20
122.1674568901867
 30
0.0
 10
196.3444919462952
 20
122.1674568901867
 30
0.0
 10
196.4249383920681
 20
122.1674568901867
 30
0.0
 10
196.4583856205461
 20
122.1674568901867
 30
0.0
 10
196.5407951903204
 20
122.1674568901867
 30
0.0
 10
196.590078287204
 20
122.1674568901867
 30
0.0
 10
196.6463949098406
 20
122.1674568901867
 30
0.0
  0
SPLINE
  5
8D
330
1F
100
AcDbEntity
  8
0
  6
Continuous
 62
     7
370
    15
100
AcDbSpline
210
0.0
220
0.0
230
1.0
 70
     8
 71
     3
 72
    10
 73
     6
 74
     0
 42
0.00000001
 43
0.00000001
 12
1.0
 22
0.0
 32
0.0
 13
1.0
 23
0.0
 33
0.0
 40
0.0
 40
0.0
 40
0.0
 40
0.0
 40
0.5
 40
0.5
 40
1.0
 40
1.0
 40
1.0
 40
1.0
 10
196.3172711981675
 20
123.1948595786173
 30
0.0
 10
196.3172711981675
 20
123.0121508664823
 30
0.0
 10
196.3442445318756
 20
122.8286425767215
 30
0.0
 10
196.4518348996614
 20
122.4803385984008
 30
0.0
 10
196.5332994440045
 20
122.312151015858
 30
0.0
 10
196.6463949098404
 20
122.1674568901852
 30
0.0
  0
LINE
  5
8E
330
1F
100
AcDbEntity
  8
0
  6
Continuous
 62
     7
370
    15
100
AcDbLine
 10
192.8072715832
 20
93.4174576591
 30
0.0
 11
191.9272714017
 21
93.4174576591
 31
0.0
  0
LINE
  5
8F
330
1F
100
AcDbEntity
  8
0
  6
Continuous
 62
     7
370
    15
100
AcDbLine
 10
191.9272714017
 20
122.1674572493
 30
0.0
 11
192.8072715832
 21
122.1674572493
 31
0.0
  0
ELLIPSE
  5
90
330
1F
100
AcDbEntity
  8
0
  6
Continuous
 62
     7
370
    15
100
AcDbEllipse
 10
273.1053448548
 20
110.3174568902
 30
0.0
 11
156.9867274609179
 21
-2.896208653788079
 31
0.0
210
0.0
220
0.0
230
1.0
 40
0.1034726254
 41
1.982211573924321
 42
2.014989721474735
  0
SPLINE
  5
91
330
1F
100
AcDbEntity
  8
0
  6
Continuous
 62
     7
370
    15
100
AcDbSpline
210
0.0
220
0.0
230
1.0
 70
     8
 71
     3
 72
    12
 73
     8
 74
     0
 42
0.00000001
 43
0.00000001
 12
1.0
 22
0.0
 32
0.0
 13
1.0
 23
0.0
 33
0.0
 40
0.0
 40
0.0
 40
0.0
 40
0.0
 40
0.2500000000000023
 40
0.2500000000000023
 40
0.5000000000000047
 40
0.5000000000000047
 40
1.0
 40
1.0
 40
1.0
 40
1.0
 10
205.2249660770296
 20
126.0429640395289
 30
0.0
 10
205.2446593475107
 20
126.0680802351485
 30
0.0
 10
205.274441464222
 20
126.0913232573024
 30
0.0
 10
205.3553909786794
 20
126.1342696096948
 30
0.0
 10
205.4064602244002
 20
126.1536624357248
 30
0.0
 10
205.5855331439924
 20
126.2028382848517
 30
0.0
 10
205.7441525189165
 20
126.2243038043396
 30
0.0
 10
205.9140839674467
 20
126.2295321391661
 30
0.0
  0
ELLIPSE
  5
92
330
1F
100
AcDbEntity
  8
0
  6
Continuous
 62
     7
370
    15
100
AcDbEllipse
 10
207.27495113
 20
110.3174568902
 30
0.0
 11
-0.8249710662703365
 21
16.49857054117959
 31
0.0
210
0.0
220
0.0
230
1.0
 40
0.263265937
 41
0.2944431518976011
 42
2.47175722064449
  0
SPLINE
  5
93
330
1F
100
AcDbEntity
  8
0
  6
Continuous
 62
     7
370
    15
100
AcDbSpline
210
0.0
220
0.0
230
1.0
 70
     8
 71
     3
 72
    10
 73
     6
 74
     0
 42
0.00000001
 43
0.00000001
 12
1.0
 22
0.0
 32
0.0
 13
1.0
 23
0.0
 33
0.0
 40
0.0
 40
0.0
 40
0.0
 40
0.0
 40
0.5
 40
0.5
 40
1.0
 40
1.0
 40
1.0
 40
1.0
 10
205.9140839674467
 20
96.85801840204658
 30
0.0
 10
205.7445349100953
 20
96.8694239053029
 30
0.0
 10
205.5882202721643
 20
96.91515500090173
 30
0.0
 10
205.3456686467752
 20
97.05626691131548
 30
0.0
 10
205.2642978889742
 20
97.14785039624051
 30
0.0
 10
205.2249660770296
 20
97.24899203648843
 30
0.0
  0
ELLIPSE
  5
94
330
1F
100
AcDbEntity
  8
0
  6
Continuous
 62
     7
370
    15
100
AcDbEllipse
 10
273.1053448548
 20
110.3174568902
 30
0.0
 11
156.9867274609179
 21
-2.896208653788079
 31
0.0
210
0.0
220
0.0
230
1.0
 40
0.1034726254
 41
4.272013461953573
 42
4.304791609503986
  0
ELLIPSE
  5
95
330
1F
100
AcDbEntity
  8
0
  6
Continuous
 62
     7
370
    15
100
AcDbEllipse
 10
204.3198474967
 20
117.7226947399
 30
0.0
 11
0.08862855635081246
 21
2.643999540241651
 31
0.0
210
0.0
220
0.0
230
1.0
 40
0.2249376801
 41
0.0
 42
6.283185307179586
  0
LINE
  5
96
330
1F
100
AcDbEntity
  8
0
  6
Continuous
 62
     7
370
    15
100
AcDbLine
 10
174.3672711032
 20
95.2137563194
 30
0.0
 11
174.3672711032
 21
125.4211574609
 31
0.0
  0
LINE
  5
97
330
1F
100
AcDbEntity
  8
0
  6
Continuous
 62
     7
370
    15
100
AcDbLine
 10
162.5672713576
 20
95.8049384694
 30
0.0
 11
162.5672713576
 21
96.6807104464
 31
0.0
  0
SPLINE
  5
98
330
1F
100
AcDbEntity
  8
0
  6
Continuous
 62
     7
370
    15
100
AcDbSpline
210
0.0
220
0.0
230
1.0
 70
     8
 71
     3
 72
    12
 73
     8
 74
     0
 42
0.00000001
 43
0.00000001
 12
1.0
 22
0.0
 32
0.0
 13
1.0
 23
0.0
 33
0.0
 40
0.0
 40
0.0
 40
0.0
 40
0.0
 40
0.2500000000000003
 40
0.2500000000000003
 40
0.5000000000000006
 40
0.5000000000000006
 40
1.0
 40
1.0
 40
1.0
 40
1.0
 10
162.1995361053106
 20
97.38708102730195
 30
0.0
 10
162.2249603222046
 20
97.32019543422815
 30
0.0
 10
162.2655721617739
 20
97.25574694454453
 30
0.0
 10
162.350173308046
 20
97.13074628446668
 30
0.0
 10
162.3942701043316
 20
97.07022753927455
 30
0.0
 10
162.5103392128176
 20
96.89402148316614
 30
0.0
 10
162.5672711981675
 20
96.78362706819435
 30
0.0
 10
162.5672711981675
 20
96.6807101921012
 30
0.0
  0
SPLINE
  5
99
330
1F
100
AcDbEntity
  8
0
  6
Continuous
 62
     7
370
    15
100
AcDbSpline
210
0.0
220
0.0
230
1.0
 70
     8
 71
     3
 72
    14
 73
    10
 74
     0
 42
0.00000001
 43
0.00000001
 12
1.0
 22
0.0
 32
0.0
 13
1.0
 23
0.0
 33
0.0
 40
0.0
 40
0.0
 40
0.0
 40
0.0
 40
0.1249999999999995
 40
0.1249999999999995
 40
0.2499999999999989
 40
0.2499999999999989
 40
0.5
 40
0.5
 40
1.0
 40
1.0
 40
1.0
 40
1.0
 10
161.6672711981675
 20
97.87708684267567
 30
0.0
 10
161.7162835209788
 20
97.88161190183081
 30
0.0
 10
161.7690897459743
 20
97.8734925162763
 30
0.0
 10
161.8541568377038
 20
97.84316244112487
 30
0.0
 10
161.8887410230446
 20
97.82250748404839
 30
0.0
 10
161.9772967083819
 20
97.75797136072157
 30
0.0
 10
162.0182324097031
 20
97.71073318066895
 30
0.0
 10
162.122112936606
 20
97.57093707938525
 30
0.0
 10
162.1653367360381
 20
97.47705214051594
 30
0.0
 10
162.1995361053106
 20
97.38708102730195
 30
0.0
  0
SPLINE
  5
9A
330
1F
100
AcDbEntity
  8
0
  6
Continuous
 62
     7
370
    15
100
AcDbSpline
210
0.0
220
0.0
230
1.0
 70
     8
 71
     3
 72
    10
 73
     6
 74
     0
 42
0.00000001
 43
0.00000001
 12
1.0
 22
0.0
 32
0.0
 13
1.0
 23
0.0
 33
0.0
 40
0.0
 40
0.0
 40
0.0
 40
0.0
 40
0.5
 40
0.5
 40
1.0
 40
1.0
 40
1.0
 40
1.0
 10
158.746447806469
 20
97.55083476310917
 30
0.0
 10
159.2190178634672
 20
97.61782027968813
 30
0.0
 10
159.7045803454609
 20
97.67599809548808
 30
0.0
 10
160.6809582391262
 20
97.78286383879345
 30
0.0
 10
161.1729564582333
 20
97.83144927009873
 30
0.0
 10
161.6672711981675
 20
97.87708684267568
 30
0.0
  0
SPLINE
  5
9B
330
1F
100
AcDbEntity
  8
0
  6
Continuous
 62
     7
370
    15
100
AcDbSpline
210
0.0
220
0.0
230
1.0
 70
     8
 71
     3
 72
    10
 73
     6
 74
     0
 42
0.00000001
 43
0.00000001
 12
1.0
 22
0.0
 32
0.0
 13
1.0
 23
0.0
 33
0.0
 40
0.0
 40
0.0
 40
0.0
 40
0.0
 40
0.5
 40
0.5
 40
1.0
 40
1.0
 40
1.0
 40
1.0
 10
157.4762711981676
 20
97.4663900126304
 30
0.0
 10
157.6916302287249
 20
97.47340284360092
 30
0.0
 10
157.9060715670489
 20
97.48217756725622
 30
0.0
 10
158.3310627856694
 20
97.50723074480405
 30
0.0
 10
158.5424355173921
 20
97.5219165776044
 30
0.0
 10
158.746447806469
 20
97.55083476310917
 30
0.0
  0
SPLINE
  5
9C
330
1F
100
AcDbEntity
  8
0
  6
Continuous
 62
     7
370
    15
100
AcDbSpline
210
0.0
220
0.0
230
1.0
 70
     8
 71
     3
 72
     8
 73
     4
 74
     0
 42
0.00000001
 43
0.00000001
 12
1.0
 22
0.0
 32
0.0
 13
1.0
 23
0.0
 33
0.0
 40
0.0
 40
0.0
 40
0.0
 40
0.0
 40
1.0
 40
1.0
 40
1.0
 40
1.0
 10
157.4087550485985
 20
97.61427919064312
 30
0.0
 10
157.4228894932266
 20
97.56348286700987
 30
0.0
 10
157.4459468683752
 20
97.51424411644963
 30
0.0
 10
157.4762711981676
 20
97.4663900126304
 30
0.0
  0
ELLIPSE
  5
9D
330
1F
100
AcDbEntity
  8
0
  6
Continuous
 62
     7
370
    15
100
AcDbEllipse
 10
143.9405289903
 20
109.6781592124
 30
0.0
 11
13.37355272666619
 21
-13.37146352987014
 31
0.0
210
0.0
220
0.0
230
1.0
 40
0.1761188775
 41
0.3023035477142579
 42
0.3822730435340336
  0
ELLIPSE
  5
9E
330
1F
100
AcDbEntity
  8
0
  6
Continuous
 62
     7
370
    15
100
AcDbEllipse
 10
143.8611505596
 20
110.9565673415
 30
0.0
 11
13.369636111343
 21
13.36754752639483
 31
0.0
210
0.0
220
0.0
230
1.0
 40
0.1761188775
 41
5.933076931846599
 42
5.976720052691202
  0
SPLINE
  5
9F
330
1F
100
AcDbEntity
  8
0
  6
Continuous
 62
     7
370
    15
100
AcDbSpline
210
0.0
220
0.0
230
1.0
 70
     8
 71
     3
 72
     8
 73
     4
 74
     0
 42
0.00000001
 43
0.00000001
 12
1.0
 22
0.0
 32
0.0
 13
1.0
 23
0.0
 33
0.0
 40
0.0
 40
0.0
 40
0.0
 40
0.0
 40
1.0
 40
1.0
 40
1.0
 40
1.0
 10
157.4172711981675
 20
123.183037437165
 30
0.0
 10
157.3715062904782
 20
123.1215170580062
 30
0.0
 10
157.3371191688482
 20
123.0576221982568
 30
0.0
 10
157.3181039151753
 20
122.990892253213
 30
0.0
  0
SPLINE
  5
A0
330
1F
100
AcDbEntity
  8
0
  6
Continuous
 62
     7
370
    15
100
AcDbSpline
210
0.0
220
0.0
230
1.0
 70
     8
 71
     3
 72
    12
 73
     8
 74
     0
 42
0.00000001
 43
0.00000001
 12
1.0
 22
0.0
 32
0.0
 13
1.0
 23
0.0
 33
0.0
 40
0.0
 40
0.0
 40
0.0
 40
0.0
 40
0.2499999999999986
 40
0.2499999999999986
 40
0.4999999999999971
 40
0.4999999999999971
 40
1.0
 40
1.0
 40
1.0
 40
1.0
 10
159.1672711981676
 20
123.0982507488459
 30
0.0
 10
159.0252287949783
 20
123.1140764770221
 30
0.0
 10
158.8811106884742
 20
123.1250976107974
 30
0.0
 10
158.5913561748017
 20
123.1436339726646
 30
0.0
 10
158.4456142714429
 20
123.1509046784003
 30
0.0
 10
158.0069340322631
 20
123.1693655287283
 30
0.0
 10
157.7125584161919
 20
123.1772443955519
 30
0.0
 10
157.4172711981675
 20
123.183037437165
 30
0.0
  0
SPLINE
  5
A1
330
1F
100
AcDbEntity
  8
0
  6
Continuous
 62
     7
370
    15
100
AcDbSpline
210
0.0
220
0.0
230
1.0
 70
     8
 71
     3
 72
    20
 73
    16
 74
     0
 42
0.00000001
 43
0.00000001
 12
1.0
 22
0.0
 32
0.0
 13
1.0
 23
0.0
 33
0.0
 40
0.0
 40
0.0
 40
0.0
 40
0.0
 40
0.2500000000000028
 40
0.2500000000000028
 40
0.5000000000000056
 40
0.5000000000000056
 40
0.7500000000000083
 40
0.7500000000000083
 40
0.8750000000000083
 40
0.8750000000000083
 40
0.9375000000000064
 40
0.9375000000000064
 40
0.9687500000000032
 40
0.9687500000000032
 40
1.0
 40
1.0
 40
1.0
 40
1.0
 10
160.0672711981685
 20
123.8749810119345
 30
0.0
 10
160.0672711981685
 20
123.8143716122372
 30
0.0
 10
160.0418761785916
 20
123.7485456468336
 30
0.0
 10
159.9555829928096
 20
123.614497877487
 30
0.0
 10
159.8949470141264
 20
123.5458025193452
 30
0.0
 10
159.7468452199051
 20
123.4054039676908
 30
0.0
 10
159.6600756131265
 20
123.3337004631094
 30
0.0
 10
159.5114378177973
 20
123.2275370613605
 30
0.0
 10
159.4591486009111
 20
123.192008712729
 30
0.0
 10
159.3683847726012
 20
123.1423047822135
 30
0.0
 10
159.3360187801492
 20
123.1260437841984
 30
0.0
 10
159.278329624483
 20
123.1069312158525
 30
0.0
 10
159.2573425965955
 20
123.1015400737709
 30
0.0
 10
159.212053617605
 20
123.0958027053784
 30
0.0
 10
159.1890393487665
 20
123.0958254390318
 30
0.0
 10
159.1672711981669
 20
123.0982507488447
 30
0.0
  0
LINE
  5
A2
330
1F
100
AcDbEntity
  8
0
  6
Continuous
 62
     7
370
    15
100
AcDbLine
 10
160.0672709478
 20
123.8749813105
 30
0.0
 11
160.0672709478
 21
124.7047245319
 31
0.0
  0
SPLINE
  5
A3
330
1F
100
AcDbEntity
  8
0
  6
Continuous
 62
     7
370
    15
100
AcDbSpline
210
0.0
220
0.0
230
1.0
 70
     8
 71
     3
 72
    24
 73
    20
 74
     0
 42
0.00000001
 43
0.00000001
 12
1.0
 22
0.0
 32
0.0
 13
1.0
 23
0.0
 33
0.0
 40
0.0
 40
0.0
 40
0.0
 40
0.0
 40
0.0016643193296813
 40
0.0648792890554526
 40
0.127882629835479
 40
0.1913652263153964
 40
0.2543782098387403
 40
0.3163193264594876
 40
0.3777469775702122
 40
0.4397082275190884
 40
0.5014189034197821
 40
0.562536076452263
 40
0.6237133677268287
 40
0.6863020174790898
 40
0.7490598999921412
 40
0.811592469235191
 40
0.8743360189604256
 40
0.9379727054607176
 40
1.0
 40
1.0
 40
1.0
 40
1.0
 10
167.5518140850804
 20
95.55549023701847
 30
0.0
 10
167.5513366942548
 20
95.55542182618352
 30
0.0
 10
167.5327268176468
 20
95.55275500242134
 30
0.0
 10
167.5958673544559
 20
95.5624695652594
 30
0.0
 10
167.7479101115384
 20
95.58467427146738
 30
0.0
 10
168.0158356268034
 20
95.61911002300079
 30
0.0
 10
168.3651494039902
 20
95.65757303367002
 30
0.0
 10
168.7922004659142
 20
95.6918010866174
 30
0.0
 10
169.2796400943292
 20
95.71425364645752
 30
0.0
 10
169.8112904592705
 20
95.71784763418853
 30
0.0
 10
170.3624110617715
 20
95.70083400493532
 30
0.0
 10
170.9098690525582
 20
95.66088823949215
 30
0.0
 10
171.4345032823138
 20
95.60178062683549
 30
0.0
 10
171.9162916807137
 20
95.52941618941435
 30
0.0
 10
172.3412402727233
 20
95.4530955179362
 30
0.0
 10
172.6874565861842
 20
95.38111157194514
 30
0.0
 10
172.9425348983154
 20
95.32272454578144
 30
0.0
 10
173.1027302904528
 20
95.28306488947489
 30
0.0
 10
173.1233643528495
 20
95.27824021401116
 30
0.0
 10
173.1335492527327
 20
95.27585877134503
 30
0.0
  0
SPLINE
  5
A4
330
1F
100
AcDbEntity
  8
0
  6
Continuous
 62
     7
370
    15
100
AcDbSpline
210
0.0
220
0.0
230
1.0
 70
     8
 71
     3
 72
    24
 73
    20
 74
     0
 42
0.00000001
 43
0.00000001
 12
1.0
 22
0.0
 32
0.0
 13
1.0
 23
0.0
 33
0.0
 40
0.0
 40
0.0
 40
0.0
 40
0.0
 40
0.0629034706215385
 40
0.1256338688179741
 40
0.1890239793713884
 40
0.2513957684939822
 40
0.3139906836130308
 40
0.3762905044722344
 40
0.4374458894592898
 40
0.498543195540241
 40
0.5603281747675228
 40
0.6223344559749604
 40
0.6838864964282686
 40
0.7458035579052691
 40
0.8089499376965126
 40
0.8723245876864573
 40
0.9353799443000518
 40
0.9988635323362688
 40
1.0
 40
1.0
 40
1.0
 40
1.0
 10
173.1325504092715
 20
125.3590559403509
 30
0.0
 10
173.1230797829965
 20
125.3566331510823
 30
0.0
 10
173.1041645879002
 20
125.3517942386004
 30
0.0
 10
172.942113291496
 20
125.3118226474229
 30
0.0
 10
172.6855880507503
 20
125.2534786518506
 30
0.0
 10
172.339531914457
 20
125.1812435538623
 30
0.0
 10
171.9156325215637
 20
125.1050943023502
 30
0.0
 10
171.4346495607258
 20
125.0329750008377
 30
0.0
 10
170.9106660037457
 20
124.9740874875299
 30
0.0
 10
170.3630681185386
 20
124.9341759649256
 30
0.0
 10
169.8115918024826
 20
124.9171402173105
 30
0.0
 10
169.2791505227012
 20
124.9207036884021
 30
0.0
 10
168.7911683110152
 20
124.9431369533691
 30
0.0
 10
168.3636561573828
 20
124.9774269682461
 30
0.0
 10
168.0147546026104
 20
125.0159307630328
 30
0.0
 10
167.7474999821196
 20
125.0503867909874
 30
0.0
 10
167.5945656775988
 20
125.0724695783256
 30
0.0
 10
167.5334560264353
 20
125.0822982900762
 30
0.0
 10
167.5510391901234
 20
125.0795345476801
 30
0.0
 10
167.5513484237931
 20
125.0794859419674
 30
0.0
  0
SPLINE
  5
A5
330
1F
100
AcDbEntity
  8
0
  6
Continuous
 62
     7
370
    15
100
AcDbSpline
210
0.0
220
0.0
230
1.0
 70
     8
 71
     3
 72
    26
 73
    22
 74
     0
 42
0.00000001
 43
0.00000001
 12
1.0
 22
0.0
 32
0.0
 13
1.0
 23
0.0
 33
0.0
 40
0.0
 40
0.0
 40
0.0
 40
0.0
 40
0.2500000000000004
 40
0.2500000000000004
 40
0.3750000000000001
 40
0.3750000000000001
 40
0.4375000000000006
 40
0.4375000000000006
 40
0.4687500000000004
 40
0.4687500000000004
 40
0.5000000000000003
 40
0.5000000000000003
 40
0.5312500000000001
 40
0.5312500000000001
 40
0.5625
 40
0.5625
 40
0.6250000000000006
 40
0.6250000000000006
 40
0.7500000000000003
 40
0.7500000000000003
 40
1.0
 40
1.0
 40
1.0
 40
1.0
 10
157.2272412445554
 20
122.7055374697996
 30
0.0
 10
157.1798531351269
 20
122.5698817277765
 30
0.0
 10
157.1222118332225
 20
122.4259203294473
 30
0.0
 10
157.0001640206792
 20
122.1831477561929
 30
0.0
 10
156.9541150129027
 20
122.0981081157435
 30
0.0
 10
156.8634617287371
 20
121.9577321427032
 30
0.0
 10
156.8291092284515
 20
121.9078207653643
 30
0.0
 10
156.766674056061
 20
121.83128550051
 30
0.0
 10
156.7433800372629
 20
121.8048810215231
 30
0.0
 10
156.6943275001364
 20
121.7572862562621
 30
0.0
 10
156.6698960504795
 20
121.7378436424103
 30
0.0
 10
156.6292664548598
 20
121.7129358647422
 30
0.0
 10
156.6131041730086
 20
121.7068660334312
 30
0.0
 10
156.5861221289054
 20
121.7011771618374
 30
0.0
 10
156.5753726060826
 20
121.7015676699182
 30
0.0
 10
156.5473366319255
 20
121.7077100167066
 30
0.0
 10
156.5344753998928
 20
121.7183740231246
 30
0.0
 10
156.5034725387325
 20
121.7573868134848
 30
0.0
 10
156.4926130566634
 20
121.7934388038891
 30
0.0
 10
156.4693358007254
 20
121.9111182013882
 30
0.0
 10
156.4672711981674
 20
122.0024481017212
 30
0.0
 10
156.4672711981675
 20
122.0956883546275
 30
0.0
  0
SPLINE
  5
A6
330
1F
100
AcDbEntity
  8
0
  6
Continuous
 62
     7
370
    15
100
AcDbSpline
210
0.0
220
0.0
230
1.0
 70
     8
 71
     3
 72
    12
 73
     8
 74
     0
 42
0.00000001
 43
0.00000001
 12
1.0
 22
0.0
 32
0.0
 13
1.0
 23
0.0
 33
0.0
 40
0.0
 40
0.0
 40
0.0
 40
0.0
 40
0.2500000000000002
 40
0.2500000000000002
 40
0.5000000000000004
 40
0.5000000000000004
 40
1.0
 40
1.0
 40
1.0
 40
1.0
 10
156.8617397967378
 20
98.85254073181497
 30
0.0
 10
156.911974805783
 20
98.78172512943497
 30
0.0
 10
156.9520196449259
 20
98.71632757710718
 30
0.0
 10
157.0244721623523
 20
98.59033677362353
 30
0.0
 10
157.0557665600548
 20
98.5309732375272
 30
0.0
 10
157.1413752897853
 20
98.35897601654351
 30
0.0
 10
157.187376086069
 20
98.25246449219497
 30
0.0
 10
157.2272412445554
 20
98.15047130526125
 30
0.0
  0
SPLINE
  5
A7
330
1F
100
AcDbEntity
  8
0
  6
Continuous
 62
     7
370
    15
100
AcDbSpline
210
0.0
220
0.0
230
1.0
 70
     8
 71
     3
 72
     8
 73
     4
 74
     0
 42
0.00000001
 43
0.00000001
 12
1.0
 22
0.0
 32
0.0
 13
1.0
 23
0.0
 33
0.0
 40
0.0
 40
0.0
 40
0.0
 40
0.0
 40
1.0
 40
1.0
 40
1.0
 40
1.0
 10
156.594116117856
 20
99.10402472800354
 30
0.0
 10
156.6607177468671
 20
99.00258632922295
 30
0.0
 10
156.7526607000462
 20
98.91518509793593
 30
0.0
 10
156.8617397967377
 20
98.85254073181505
 30
0.0
  0
SPLINE
  5
A8
330
1F
100
AcDbEntity
  8
0
  6
Continuous
 62
     7
370
    15
100
AcDbSpline
210
0.0
220
0.0
230
1.0
 70
     8
 71
     3
 72
    14
 73
    10
 74
     0
 42
0.00000001
 43
0.00000001
 12
1.0
 22
0.0
 32
0.0
 13
1.0
 23
0.0
 33
0.0
 40
0.0
 40
0.0
 40
0.0
 40
0.0
 40
0.4999999999999999
 40
0.4999999999999999
 40
0.7499999999999997
 40
0.7499999999999997
 40
0.8749999999999998
 40
0.8749999999999998
 40
1.0
 40
1.0
 40
1.0
 40
1.0
 10
156.4672711981675
 20
98.7699436889653
 30
0.0
 10
156.4672711981675
 20
98.8467552609726
 30
0.0
 10
156.4698004557673
 20
98.9211725223038
 30
0.0
 10
156.4895714023003
 20
99.01767380000543
 30
0.0
 10
156.4988330021739
 20
99.04741539668022
 30
0.0
 10
156.5222944160834
 20
99.08191302290341
 30
0.0
 10
156.5317168307475
 20
99.09174366133217
 30
0.0
 10
156.5567862206998
 20
99.10492148982512
 30
0.0
 10
156.5720906750926
 20
99.10851972480484
 30
0.0
 10
156.5941161178513
 20
99.10402472801397
 30
0.0
  0
LINE
  5
A9
330
1F
100
AcDbEntity
  8
0
  6
Continuous
 62
     7
370
    15
100
AcDbLine
 10
156.4672714753
 20
98.769943584
 30
0.0
 11
156.4672714753
 21
122.0956886004
 31
0.0
  0
SPLINE
  5
AA
330
1F
100
AcDbEntity
  8
0
  6
Continuous
 62
     7
370
    15
100
AcDbSpline
210
0.0
220
0.0
230
1.0
 70
     8
 71
     3
 72
    10
 73
     6
 74
     0
 42
0.00000001
 43
0.00000001
 12
1.0
 22
0.0
 32
0.0
 13
1.0
 23
0.0
 33
0.0
 40
0.0
 40
0.0
 40
0.0
 40
0.0
 40
0.5
 40
0.5
 40
1.0
 40
1.0
 40
1.0
 40
1.0
 10
191.5756155839175
 20
127.2174568901867
 30
0.0
 10
191.4982908520433
 20
127.2753388910483
 30
0.0
 10
191.4349110265068
 20
127.3524122356822
 30
0.0
 10
191.3493405777337
 20
127.5269152938761
 30
0.0
 10
191.3272711981675
 20
127.6237204973565
 30
0.0
 10
191.3272711981675
 20
127.7200608620065
 30
0.0
  0
SPLINE
  5
AB
330
1F
100
AcDbEntity
  8
0
  6
Continuous
 62
     7
370
    15
100
AcDbSpline
210
0.0
220
0.0
230
1.0
 70
    24
 71
     3
 72
    12
 73
     8
 74
     0
 42
0.00000001
 43
0.00000001
 12
1.0
 22
0.0
 32
0.0
 13
1.0
 23
0.0
 33
0.0
 40
0.0
 40
0.0
 40
0.0
 40
0.0
 40
0.2499999999999991
 40
0.2499999999999991
 40
0.4999999999999982
 40
0.4999999999999982
 40
1.0
 40
1.0
 40
1.0
 40
1.0
 10
191.9272711981673
 20
127.2174568901867
 30
0.0
 10
191.8759819531309
 20
127.2174568901867
 30
0.0
 10
191.8287939274593
 20
127.2174568901867
 30
0.0
 10
191.7557777187643
 20
127.2174568901867
 30
0.0
 10
191.7262861112247
 20
127.2174568901867
 30
0.0
 10
191.6487040721302
 20
127.2174568901867
 30
0.0
 10
191.6095427594149
 20
127.2174568901867
 30
0.0
 10
191.5756155839167
 20
127.2174568901867
 30
0.0
  0
SPLINE
  5
AC
330
1F
100
AcDbEntity
  8
0
  6
Continuous
 62
     7
370
    15
100
AcDbSpline
210
0.0
220
0.0
230
1.0
 70
     8
 71
     3
 72
    12
 73
     8
 74
     0
 42
0.00000001
 43
0.00000001
 12
1.0
 22
0.0
 32
0.0
 13
1.0
 23
0.0
 33
0.0
 40
0.0
 40
0.0
 40
0.0
 40
0.0
 40
0.499999999999998
 40
0.499999999999998
 40
0.749999999999999
 40
0.749999999999999
 40
1.0
 40
1.0
 40
1.0
 40
1.0
 10
191.3272711981675
 20
123.8333040704414
 30
0.0
 10
191.3272711981675
 20
123.648864844815
 30
0.0
 10
191.37411389262
 20
123.4619556253076
 30
0.0
 10
191.5236659153167
 20
123.2283202726868
 30
0.0
 10
191.5877709106208
 20
123.1580706409096
 30
0.0
 10
191.7419998659274
 20
123.0558298919484
 30
0.0
 10
191.8346763738604
 20
123.024467750338
 30
0.0
 10
191.9272711981672
 20
123.0244677503379
 30
0.0
  0
SPLINE
  5
AD
330
1F
100
AcDbEntity
  8
0
  6
Continuous
 62
     7
370
    15
100
AcDbSpline
210
0.0
220
0.0
230
1.0
 70
    24
 71
     3
 72
    12
 73
     8
 74
     0
 42
0.00000001
 43
0.00000001
 12
1.0
 22
0.0
 32
0.0
 13
1.0
 23
0.0
 33
0.0
 40
0.0
 40
0.0
 40
0.0
 40
0.0
 40
0.5
 40
0.5
 40
0.75
 40
0.75
 40
1.0
 40
1.0
 40
1.0
 40
1.0
 10
193.1589268124184
 20
127.2174568901867
 30
0.0
 10
193.1247568510678
 20
127.2174568901867
 30
0.0
 10
193.0855067100163
 20
127.2174568901867
 30
0.0
 10
193.0075066995033
 20
127.2174568901867
 30
0.0
 10
192.9781037711024
 20
127.2174568901867
 30
0.0
 10
192.9049591769539
 20
127.2174568901867
 30
0.0
 10
192.858329198986
 20
127.2174568901867
 30
0.0
 10
192.8072711981675
 20
127.2174568901867
 30
0.0
  0
SPLINE
  5
AE
330
1F
100
AcDbEntity
  8
0
  6
Continuous
 62
     7
370
    15
100
AcDbSpline
210
0.0
220
0.0
230
1.0
 70
     8
 71
     3
 72
    10
 73
     6
 74
     0
 42
0.00000001
 43
0.00000001
 12
1.0
 22
0.0
 32
0.0
 13
1.0
 23
0.0
 33
0.0
 40
0.0
 40
0.0
 40
0.0
 40
0.0
 40
0.5
 40
0.5
 40
1.0
 40
1.0
 40
1.0
 40
1.0
 10
193.4072711981676
 20
127.7200608620054
 30
0.0
 10
193.4072711981674
 20
127.6235183145299
 30
0.0
 10
193.3853305755864
 20
127.5270571142608
 30
0.0
 10
193.2992003901962
 20
127.3516545200177
 30
0.0
 10
193.2361180830538
 20
127.2752389876511
 30
0.0
 10
193.1589268124222
 20
127.2174568901902
 30
0.0
  0
SPLINE
  5
AF
330
1F
100
AcDbEntity
  8
0
  6
Continuous
 62
     7
370
    15
100
AcDbSpline
210
0.0
220
0.0
230
1.0
 70
     8
 71
     3
 72
    12
 73
     8
 74
     0
 42
0.00000001
 43
0.00000001
 12
1.0
 22
0.0
 32
0.0
 13
1.0
 23
0.0
 33
0.0
 40
0.0
 40
0.0
 40
0.0
 40
0.0
 40
0.2500000000000013
 40
0.2500000000000013
 40
0.5000000000000026
 40
0.5000000000000026
 40
1.0
 40
1.0
 40
1.0
 40
1.0
 10
192.8072711981675
 20
123.0244677503379
 30
0.0
 10
192.9005222165007
 20
123.0244677503379
 30
0.0
 10
192.9920279253266
 20
123.0555290687372
 30
0.0
 10
193.1469514598616
 20
123.1581497191178
 30
0.0
 10
193.2105462778039
 20
123.2278022471966
 30
0.0
 10
193.3611052344869
 20
123.4630171790984
 30
0.0
 10
193.4072711981675
 20
123.6478232685077
 30
0.0
 10
193.4072711981675
 20
123.8333040704414
 30
0.0
  0
SPLINE
  5
B0
330
1F
100
AcDbEntity
  8
0
  6
Continuous
 62
     7
370
    15
100
AcDbSpline
210
0.0
220
0.0
230
1.0
 70
     8
 71
     3
 72
    10
 73
     6
 74
     0
 42
0.00000001
 43
0.00000001
 12
1.0
 22
0.0
 32
0.0
 13
1.0
 23
0.0
 33
0.0
 40
0.0
 40
0.0
 40
0.0
 40
0.0
 40
0.5
 40
0.5
 40
1.0
 40
1.0
 40
1.0
 40
1.0
 10
196.3172711981676
 20
129.1883339233296
 30
0.0
 10
196.3172711981676
 20
129.3467683662174
 30
0.0
 10
196.2551099816846
 20
129.5057890610194
 30
0.0
 10
196.0346006410129
 20
129.735796885275
 30
0.0
 10
195.8756855380678
 20
129.8046321600918
 30
0.0
 10
195.7172711981675
 20
129.8046321600918
 30
0.0
  0
LINE
  5
B1
330
1F
100
AcDbEntity
  8
0
  6
Continuous
 62
     7
370
    15
100
AcDbLine
 10
196.3172717674
 20
125.6777144785
 30
0.0
 11
196.3172717674
 21
129.1883339922
 31
0.0
  0
SPLINE
  5
B2
330
1F
100
AcDbEntity
  8
0
  6
Continuous
 62
     7
370
    15
100
AcDbSpline
210
0.0
220
0.0
230
1.0
 70
     8
 71
     3
 72
    12
 73
     8
 74
     0
 42
0.00000001
 43
0.00000001
 12
1.0
 22
0.0
 32
0.0
 13
1.0
 23
0.0
 33
0.0
 40
0.0
 40
0.0
 40
0.0
 40
0.0
 40
0.250000000000002
 40
0.250000000000002
 40
0.500000000000004
 40
0.500000000000004
 40
1.0
 40
1.0
 40
1.0
 40
1.0
 10
195.7172711981675
 20
126.4288658912642
 30
0.0
 10
195.8065595572113
 20
126.4288658912642
 30
0.0
 10
195.8946183881135
 20
126.4032412586594
 30
0.0
 10
196.0472721013626
 20
126.3146978857276
 30
0.0
 10
196.1130655947046
 20
126.2518154026129
 30
0.0
 10
196.2685062414207
 20
126.0344542146793
 30
0.0
 10
196.3172711981675
 20
125.855807204668
 30
0.0
 10
196.3172711981675
 20
125.6777140494923
 30
0.0
  0
SPLINE
  5
B3
330
1F
100
AcDbEntity
  8
0
  6
Continuous
 62
     7
370
    15
100
AcDbSpline
210
0.0
220
0.0
230
1.0
 70
     8
 71
     3
 72
     8
 73
     4
 74
     0
 42
0.00000001
 43
0.00000001
 12
1.0
 22
0.0
 32
0.0
 13
1.0
 23
0.0
 33
0.0
 40
0.0
 40
0.0
 40
0.0
 40
0.0
 40
1.0
 40
1.0
 40
1.0
 40
1.0
 10
190.3321114992741
 20
126.4288658912642
 30
0.0
 10
190.6715345405557
 20
125.6990750297448
 30
0.0
 10
191.0040452840508
 20
124.9669066743231
 30
0.0
 10
191.3272711981675
 20
124.2315447896421
 30
0.0
  0
LINE
  5
B4
330
1F
100
AcDbEntity
  8
0
  6
Continuous
 62
     7
370
    15
100
AcDbLine
 10
191.9272714017
 20
123.024467733
 30
0.0
 11
192.8072715832
 21
123.024467733
 31
0.0
  0
SPLINE
  5
B5
330
1F
100
AcDbEntity
  8
0
  6
Continuous
 62
     7
370
    15
100
AcDbSpline
210
0.0
220
0.0
230
1.0
 70
     8
 71
     3
 72
     8
 73
     4
 74
     0
 42
0.00000001
 43
0.00000001
 12
1.0
 22
0.0
 32
0.0
 13
1.0
 23
0.0
 33
0.0
 40
0.0
 40
0.0
 40
0.0
 40
0.0
 40
1.0
 40
1.0
 40
1.0
 40
1.0
 10
193.4072711981675
 20
124.231544789642
 30
0.0
 10
193.7308287564225
 20
124.9676611882646
 30
0.0
 10
194.0633230766394
 20
125.6997527836833
 30
0.0
 10
194.402430897061
 20
126.4288658912641
 30
0.0
  0
LINE
  5
B6
330
1F
100
AcDbEntity
  8
0
  6
Continuous
 62
     7
370
    15
100
AcDbLine
 10
194.4024315758
 20
126.4288661818
 30
0.0
 11
195.717270924
 21
126.4288661818
 31
0.0
  0
LINE
  5
B7
330
1F
100
AcDbEntity
  8
0
  6
Continuous
 62
     7
370
    15
100
AcDbLine
 10
196.3172717674
 20
125.6777144785
 30
0.0
 11
196.3172717674
 21
123.1948597173
 31
0.0
  0
LINE
  5
B8
330
1F
100
AcDbEntity
  8
0
  6
Continuous
 62
     7
370
    15
100
AcDbLine
 10
193.407270564
 20
123.833303694
 30
0.0
 11
193.407270564
 21
124.2315446775
 31
0.0
  0
LINE
  5
B9
330
1F
100
AcDbEntity
  8
0
  6
Continuous
 62
     7
370
    15
100
AcDbLine
 10
191.3272714896
 20
124.2315446775
 30
0.0
 11
191.3272714896
 21
123.833303694
 31
0.0
  0
SPLINE
  5
BA
330
1F
100
AcDbEntity
  8
0
  6
Continuous
 62
     7
370
    15
100
AcDbSpline
210
0.0
220
0.0
230
1.0
 70
     8
 71
     3
 72
     8
 73
     4
 74
     0
 42
0.00000001
 43
0.00000001
 12
1.0
 22
0.0
 32
0.0
 13
1.0
 23
0.0
 33
0.0
 40
0.0
 40
0.0
 40
0.0
 40
0.0
 40
1.0
 40
1.0
 40
1.0
 40
1.0
 10
194.402430897061
 20
129.8046321600918
 30
0.0
 10
194.0700728006713
 20
129.2138219464198
 30
0.0
 10
193.7382915291872
 20
128.6226892821746
 30
0.0
 10
193.4072711981675
 20
128.0311335857169
 30
0.0
  0
LINE
  5
BB
330
1F
100
AcDbEntity
  8
0
  6
Continuous
 62
     7
370
    15
100
AcDbLine
 10
194.4024315758
 20
126.4288661818
 30
0.0
 11
194.4024315758
 21
129.8046329807
 31
0.0
  0
LINE
  5
BC
330
1F
100
AcDbEntity
  8
0
  6
Continuous
 62
     7
370
    15
100
AcDbLine
 10
193.407270564
 20
124.2315446775
 30
0.0
 11
193.407270564
 21
128.0311340283
 31
0.0
  0
SPLINE
  5
BD
330
1F
100
AcDbEntity
  8
0
  6
Continuous
 62
     7
370
    15
100
AcDbSpline
210
0.0
220
0.0
230
1.0
 70
     8
 71
     3
 72
     8
 73
     4
 74
     0
 42
0.00000001
 43
0.00000001
 12
1.0
 22
0.0
 32
0.0
 13
1.0
 23
0.0
 33
0.0
 40
0.0
 40
0.0
 40
0.0
 40
0.0
 40
1.0
 40
1.0
 40
1.0
 40
1.0
 10
191.3272711981675
 20
128.0311335857169
 30
0.0
 10
190.9962508671479
 20
128.6226892821746
 30
0.0
 10
190.6644695956638
 20
129.2138219464198
 30
0.0
 10
190.3321114992741
 20
129.8046321600918
 30
0.0
  0
LINE
  5
BE
330
1F
100
AcDbEntity
  8
0
  6
Continuous
 62
     7
370
    15
100
AcDbLine
 10
191.3272714896
 20
124.2315446775
 30
0.0
 11
191.3272714896
 21
128.0311340283
 31
0.0
  0
LINE
  5
BF
330
1F
100
AcDbEntity
  8
0
  6
Continuous
 62
     7
370
    15
100
AcDbLine
 10
195.717270924
 20
129.8046329807
 30
0.0
 11
194.4024315758
 21
129.8046329807
 31
0.0
  0
LINE
  5
C0
330
1F
100
AcDbEntity
  8
0
  6
Continuous
 62
     7
370
    15
100
AcDbLine
 10
192.8072715832
 20
127.2174561213
 30
0.0
 11
191.9272714017
 21
127.2174561213
 31
0.0
  0
CIRCLE
  5
C1
330
1F
100
AcDbEntity
  8
0
  6
Continuous
 62
     7
370
    15
100
AcDbCircle
 10
222.208079392
 20
110.8628670819
 30
0.0
 40
3.466781579308284
  0
LINE
  5
C2
330
1F
100
AcDbEntity
  8
0
  6
Continuous
 62
     7
370
    15
100
AcDbLine
 10
218.2851503326
 20
129.4776344488
 30
0.0
 11
217.7592958046
 21
119.5513507168
 31
0.0
  0
LINE
  5
C3
330
1F
100
AcDbEntity
  8
0
  6
Continuous
 62
     7
370
    15
100
AcDbLine
 10
217.7592958046
 20
119.5513507168
 30
0.0
 11
215.1087890102
 21
117.9596827182
 31
0.0
  0
ARC
  5
C4
330
1F
100
AcDbEntity
  8
0
  6
Continuous
 62
     7
370
    15
100
AcDbCircle
 10
216.2315041097
 20
116.1956085882
 30
0.0
 40
2.091039629215952
100
AcDbArc
 50
122.474023443
 51
301.4417426007
  0
LINE
  5
C5
330
1F
100
AcDbEntity
  8
0
  6
Continuous
 62
     7
370
    15
100
AcDbLine
 10
217.3222559227
 20
114.4115942347
 30
0.0
 11
230.1565552784
 21
122.1187798123
 31
0.0
  0
LINE
  5
C6
330
1F
100
AcDbEntity
  8
0
  6
Continuous
 62
     7
370
    15
100
AcDbLine
 10
230.1565552784
 20
122.1187798123
 30
0.0
 11
229.3502683474
 21
106.8988716046
 31
0.0
  0
LINE
  5
C7
330
1F
100
AcDbEntity
  8
0
  6
Continuous
 62
     7
370
    15
100
AcDbLine
 10
229.3502683474
 20
106.8988716046
 30
0.0
 11
220.4058128132
 21
94.4128850292
 31
0.0
  0
ELLIPSE
  5
C8
330
1F
100
AcDbEntity
  8
0
  6
Continuous
 62
     7
370
    15
100
AcDbEllipse
 10
273.1053448548
 20
110.3174568902
 30
0.0
 11
171.2582481391832
 21
-3.159500349587006
 31
0.0
210
0.0
220
0.0
230
1.0
 40
0.1034726254
 41
4.34801286772895
 42
4.401503032631284
  0
SPLINE
  5
C9
330
1F
100
AcDbEntity
  8
0
  6
Continuous
 62
     7
370
    15
100
AcDbSpline
210
0.0
220
0.0
230
1.0
 70
     8
 71
     3
 72
     8
 73
     4
 74
     0
 42
0.00000001
 43
0.00000001
 12
1.0
 22
0.0
 32
0.0
 13
1.0
 23
0.0
 33
0.0
 40
0.0
 40
0.0
 40
0.0
 40
0.0
 40
1.0
 40
1.0
 40
1.0
 40
1.0
 10
211.7691949868142
 20
94.88627570575625
 30
0.0
 10
211.7011806378493
 20
95.15795480830401
 30
0.0
 10
211.6333951236072
 20
95.42968758846825
 30
0.0
 10
211.5658700364776
 20
95.70148145685594
 30
0.0
  0
SPLINE
  5
CA
330
1F
100
AcDbEntity
  8
0
  6
Continuous
 62
     7
370
    15
100
AcDbSpline
210
0.0
220
0.0
230
1.0
 70
     8
 71
     3
 72
    12
 73
     8
 74
     0
 42
0.00000001
 43
0.00000001
 12
1.0
 22
0.0
 32
0.0
 13
1.0
 23
0.0
 33
0.0
 40
0.0
 40
0.0
 40
0.0
 40
0.0
 40
0.25
 40
0.25
 40
0.5
 40
0.5
 40
1.0
 40
1.0
 40
1.0
 40
1.0
 10
211.5658700364776
 20
95.70148145685594
 30
0.0
 10
211.5382050835486
 20
95.81283510177482
 30
0.0
 10
211.4951212086677
 20
95.91785592818248
 30
0.0
 10
211.3782715377093
 20
96.11529598413385
 30
0.0
 10
211.305593916945
 20
96.20508454039562
 30
0.0
 10
211.0512176802187
 20
96.43622402329804
 30
0.0
 10
210.830887005119
 20
96.5378695055997
 30
0.0
 10
210.5999442101891
 20
96.5524600077963
 30
0.0
  0
SPLINE
  5
CB
330
1F
100
AcDbEntity
  8
0
  6
Continuous
 62
     7
370
    15
100
AcDbSpline
210
0.0
220
0.0
230
1.0
 70
     8
 71
     3
 72
    10
 73
     6
 74
     0
 42
0.00000001
 43
0.00000001
 12
1.0
 22
0.0
 32
0.0
 13
1.0
 23
0.0
 33
0.0
 40
0.0
 40
0.0
 40
0.0
 40
0.0
 40
0.5
 40
0.5
 40
1.0
 40
1.0
 40
1.0
 40
1.0
 10
210.5999442101886
 20
126.364045773495
 30
0.0
 10
210.8306734775244
 20
126.3702006323959
 30
0.0
 10
211.0491053718395
 20
126.4622225616603
 30
0.0
 10
211.3911448559288
 20
126.7600220467273
 30
0.0
 10
211.5105777690827
 20
126.9592282968134
 30
0.0
 10
211.5658700364776
 20
127.1797657929129
 30
0.0
  0
SPLINE
  5
CC
330
1F
100
AcDbEntity
  8
0
  6
Continuous
 62
     7
370
    15
100
AcDbSpline
210
0.0
220
0.0
230
1.0
 70
     8
 71
     3
 72
     8
 73
     4
 74
     0
 42
0.00000001
 43
0.00000001
 12
1.0
 22
0.0
 32
0.0
 13
1.0
 23
0.0
 33
0.0
 40
0.0
 40
0.0
 40
0.0
 40
0.0
 40
1.0
 40
1.0
 40
1.0
 40
1.0
 10
211.5658700364776
 20
127.1797657929129
 30
0.0
 10
211.6495864019505
 20
127.5136750083201
 30
0.0
 10
211.7337027114878
 20
127.8474758102151
 30
0.0
 10
211.8181599173285
 20
128.1811842047742
 30
0.0
  0
ARC
  5
CD
330
1F
100
AcDbEntity
  8
0
  6
Continuous
 62
     7
370
    15
100
AcDbCircle
 10
211.8009675949
 20
145.0445927271
 30
0.0
 40
16.86341649292155
100
AcDbArc
 50
270.058407231
 51
292.613435954
  0
LINE
  5
CE
330
1F
100
AcDbEntity
  8
0
  6
Continuous
 62
     7
370
    15
100
AcDbLine
 10
211.7691966428
 20
94.8862753625
 30
0.0
 11
211.7691966428
 21
92.317457665
 31
0.0
  0
ELLIPSE
  5
CF
330
1F
100
AcDbEntity
  8
0
  6
Continuous
 62
     7
370
    15
100
AcDbEllipse
 10
231.8818714562
 20
110.3174568902
 30
0.0
 11
12.81163534476448
 21
17.9992935806419
 31
0.0
210
0.0
220
0.0
230
1.0
 40
0.0124472587
 41
2.663124388395143
 42
4.306511101228494
  0
LINE
  5
D0
330
1F
100
AcDbEntity
  8
0
  6
Continuous
 62
     7
370
    15
100
AcDbLine
 10
211.5658702983
 20
127.5578843246
 30
0.0
 11
211.5658702983
 21
127.5586386959
 31
0.0
  0
LINE
  5
D1
330
1F
100
AcDbEntity
  8
0
  6
Continuous
 62
     7
370
    15
100
AcDbLine
 10
229.3502683474
 20
106.8988716046
 30
0.0
 11
227.0293528868
 21
103.0643637109
 31
0.0
  0
LINE
  5
D2
330
1F
100
AcDbEntity
  8
0
  6
Continuous
 62
     7
370
    15
100
AcDbLine
 10
156.4672714753
 20
98.4989845942
 30
0.0
 11
156.4672714753
 21
98.769943584
 31
0.0
  0
LINE
  5
D3
330
1F
100
AcDbEntity
  8
0
  6
Continuous
 62
     7
370
    15
100
AcDbLine
 10
156.4672714753
 20
122.1913708191
 30
0.0
 11
156.4672714753
 21
122.0956886004
 31
0.0
  0
LINE
  5
D4
330
1F
100
AcDbEntity
  8
0
  6
Continuous
 62
     7
370
    15
100
AcDbLine
 10
157.4172707929
 20
123.197457176
 30
0.0
 11
157.4172707929
 21
123.1830375086
 31
0.0
  0
LINE
  5
D5
330
1F
100
AcDbEntity
  8
0
  6
Continuous
 62
     7
370
    15
100
AcDbLine
 10
156.4672714753
 20
122.2474569271
 30
0.0
 11
156.4672714753
 21
122.1913708191
 31
0.0
  0
LINE
  5
D6
330
1F
100
AcDbEntity
  8
0
  6
Continuous
 62
     7
370
    15
100
AcDbLine
 10
157.4762719406
 20
97.4374566044
 30
0.0
 11
157.4762719406
 21
97.4663900028
 31
0.0
  0
LINE
  5
D7
330
1F
100
AcDbEntity
  8
0
  6
Continuous
 62
     7
370
    15
100
AcDbLine
 10
156.4672714753
 20
98.4464570697
 30
0.0
 11
156.4672714753
 21
98.4989845942
 31
0.0
  0
LINE
  5
D8
330
1F
100
AcDbEntity
  8
0
  6
Continuous
 62
     7
370
    15
100
AcDbLine
 10
216.7955408527
 20
117.9590852748
 30
0.0
 11
217.7592958046
 21
119.5513507168
 31
0.0
  0
LINE
  5
D9
330
1F
100
AcDbEntity
  8
0
  6
Continuous
 62
     7
370
    15
100
AcDbLine
 10
216.7955408527
 20
117.9590852748
 30
0.0
 11
214.1450377835
 21
116.3674172762
 31
0.0
  0
SPLINE
  5
DA
330
1F
100
AcDbEntity
  8
0
  6
Continuous
 62
     7
370
    15
100
AcDbSpline
210
0.0
220
0.0
230
1.0
 70
     8
 71
     3
 72
     8
 73
     4
 74
     0
 42
0.00000001
 43
0.00000001
 12
1.0
 22
0.0
 32
0.0
 13
1.0
 23
0.0
 33
0.0
 40
0.0
 40
0.0
 40
0.0
 40
0.0
 40
1.0
 40
1.0
 40
1.0
 40
1.0
 10
211.5658700364776
 20
127.5578837021911
 30
0.0
 10
211.6183987897308
 20
127.7650304065052
 30
0.0
 10
211.7043069329491
 20
127.9730420441768
 30
0.0
 10
211.8181599173284
 20
128.181184204774
 30
0.0
  0
ARC
  5
DB
330
1F
100
AcDbEntity
  8
0
  6
Continuous
 62
     7
370
    15
100
AcDbCircle
 10
217.6526989513
 20
114.8110013785
 30
0.0
 40
0.9939240810140433
100
AcDbArc
 50
177.1334810496
 51
217.3801044576
  0
LINE
  5
DC
330
1F
100
AcDbEntity
  8
0
  6
Continuous
 62
     7
370
    15
100
AcDbLine
 10
217.1279410554
 20
118.5082610513
 30
0.0
 11
216.9610592259
 21
115.3580736186
 31
0.0
  0
LINE
  5
DD
330
1F
100
AcDbEntity
  8
0
  6
Continuous
 62
     7
370
    15
100
AcDbLine
 10
216.8269003464
 20
118.0108942839
 30
0.0
 11
216.6600185169
 21
114.8607068512
 31
0.0
  0
CIRCLE
  5
DE
330
1F
100
AcDbEntity
  8
0
  6
Continuous
 62
     7
370
    15
100
AcDbCircle
 10
222.2047758376
 20
110.8660861325
 30
0.0
 40
3.463106124309732
  0
CIRCLE
  5
DF
330
1F
100
AcDbEntity
  8
0
  6
Continuous
 62
     7
370
    15
100
AcDbCircle
 10
222.2343306492
 20
110.8750058777
 30
0.0
 40
1.976859854833422
  0
SPLINE
  5
E0
330
1F
100
AcDbEntity
  8
0
  6
Continuous
 62
     7
370
    15
100
AcDbSpline
210
0.0
220
0.0
230
1.0
 70
     8
 71
     3
 72
    11
 73
     7
 74
     0
 42
0.00000001
 43
0.00000001
 12
1.0
 22
0.0
 32
0.0
 13
1.0
 23
0.0
 33
0.0
 40
0.0
 40
0.0
 40
0.0
 40
0.0
 40
0.1081107021501647
 40
0.4711586618223552
 40
0.8135811140408287
 40
1.0
 40
1.0
 40
1.0
 40
1.0
 10
221.6199706031225
 20
109.2585054042846
 30
0.0
 10
221.6746138758006
 20
109.2613115401916
 30
0.0
 10
221.9127554355223
 20
109.2735409977065
 30
0.0
 10
222.3770472137082
 20
109.314872772864
 30
0.0
 10
222.920691193242
 20
109.4023141562151
 30
0.0
 10
223.2180537143743
 20
109.4630084953688
 30
0.0
 10
223.3228753043554
 20
109.4844035155237
 30
0.0
  0
SPLINE
  5
E1
330
1F
100
AcDbEntity
  8
0
  6
Continuous
 62
     7
370
    15
100
AcDbSpline
210
0.0
220
0.0
230
1.0
 70
     8
 71
     3
 72
    11
 73
     7
 74
     0
 42
0.00000001
 43
0.00000001
 12
1.0
 22
0.0
 32
0.0
 13
1.0
 23
0.0
 33
0.0
 40
0.0
 40
0.0
 40
0.0
 40
0.0
 40
0.2164496312537143
 40
0.4402998155206848
 40
0.7518913452039183
 40
1.0
 40
1.0
 40
1.0
 40
1.0
 10
223.3228753043554
 20
109.4844035155237
 30
0.0
 10
223.3601243867095
 20
109.58307222638
 30
0.0
 10
223.4358961216572
 20
109.783783195191
 30
0.0
 10
223.5883254466927
 20
110.1757600141181
 30
0.0
 10
223.7679645159418
 20
110.6228935293817
 30
0.0
 10
223.893799631666
 20
110.9269991606422
 30
0.0
 10
223.9495808912656
 20
111.0618056895308
 30
0.0
  0
SPLINE
  5
E2
330
1F
100
AcDbEntity
  8
0
  6
Continuous
 62
     7
370
    15
100
AcDbSpline
210
0.0
220
0.0
230
1.0
 70
     8
 71
     3
 72
    11
 73
     7
 74
     0
 42
0.00000001
 43
0.00000001
 12
1.0
 22
0.0
 32
0.0
 13
1.0
 23
0.0
 33
0.0
 40
0.0
 40
0.0
 40
0.0
 40
0.0
 40
0.2164497870157155
 40
0.4402994884981583
 40
0.7518918071887647
 40
1.0
 40
1.0
 40
1.0
 40
1.0
 10
223.9495808912656
 20
111.0618056895308
 30
0.0
 10
223.8701836644671
 20
111.1450004227373
 30
0.0
 10
223.70867480447
 20
111.3142341234565
 30
0.0
 10
223.4207623847897
 20
111.6477999495506
 30
0.0
 10
223.1280477867405
 20
112.0322708874436
 30
0.0
 10
222.9516017913731
 20
112.2962785808252
 30
0.0
 10
222.8733855022332
 20
112.4133098687142
 30
0.0
  0
SPLINE
  5
E3
330
1F
100
AcDbEntity
  8
0
  6
Continuous
 62
     7
370
    15
100
AcDbSpline
210
0.0
220
0.0
230
1.0
 70
     8
 71
     3
 72
    11
 73
     7
 74
     0
 42
0.00000001
 43
0.00000001
 12
1.0
 22
0.0
 32
0.0
 13
1.0
 23
0.0
 33
0.0
 40
0.0
 40
0.0
 40
0.0
 40
0.0
 40
0.1864189285403531
 40
0.528841299858115
 40
0.8918891844734277
 40
0.9999999999999999
 40
0.9999999999999999
 40
0.9999999999999999
 40
0.9999999999999999
 10
222.8733855022332
 20
112.4133098687142
 30
0.0
 10
222.768563920342
 20
112.3919147985962
 30
0.0
 10
222.4712015116285
 20
112.3312203359664
 30
0.0
 10
221.927557447369
 20
112.2437791944979
 30
0.0
 10
221.4632653510986
 20
112.2024473299593
 30
0.0
 10
221.2251240639868
 20
112.1902178916825
 30
0.0
 10
221.1704808010003
 20
112.1874117574751
 30
0.0
  0
SPLINE
  5
E4
330
1F
100
AcDbEntity
  8
0
  6
Continuous
 62
     7
370
    15
100
AcDbSpline
210
0.0
220
0.0
230
1.0
 70
     8
 71
     3
 72
    11
 73
     7
 74
     0
 42
0.00000001
 43
0.00000001
 12
1.0
 22
0.0
 32
0.0
 13
1.0
 23
0.0
 33
0.0
 40
0.0
 40
0.0
 40
0.0
 40
0.0
 40
0.2164494900784984
 40
0.440299712194232
 40
0.7518916180837869
 40
1.0
 40
1.0
 40
1.0
 40
1.0
 10
221.1704808010003
 20
112.1874117574751
 30
0.0
 10
221.1218743023517
 20
112.0699785402512
 30
0.0
 10
221.0229993761137
 20
111.8310968883378
 30
0.0
 10
220.8513127571619
 20
111.4073029470106
 30
0.0
 10
220.6832808920264
 20
110.9793508379129
 30
0.0
 10
220.5866226472983
 20
110.7234481341552
 30
0.0
 10
220.5437752140901
 20
110.6100095543642
 30
0.0
  0
SPLINE
  5
E5
330
1F
100
AcDbEntity
  8
0
  6
Continuous
 62
     7
370
    15
100
AcDbSpline
210
0.0
220
0.0
230
1.0
 70
     8
 71
     3
 72
    11
 73
     7
 74
     0
 42
0.00000001
 43
0.00000001
 12
1.0
 22
0.0
 32
0.0
 13
1.0
 23
0.0
 33
0.0
 40
0.0
 40
0.0
 40
0.0
 40
0.0
 40
0.2164500200335112
 40
0.4402998067393012
 40
0.751891681415078
 40
1.0
 40
1.0
 40
1.0
 40
1.0
 10
220.5437752140901
 20
110.6100095543642
 30
0.0
 10
220.611815030123
 20
110.5080503246922
 30
0.0
 10
220.750220736185
 20
110.3006461899507
 30
0.0
 10
221.0188755663306
 20
109.9352637293919
 30
0.0
 10
221.3231977199727
 20
109.5699722436712
 30
0.0
 10
221.5288205100495
 20
109.3541685629193
 30
0.0
 10
221.6199706031225
 20
109.2585054042846
 30
0.0
  0
LINE
  5
E6
330
1F
100
AcDbEntity
  8
0
  6
Continuous
 62
     7
370
    15
100
AcDbLine
 10
223.1773505641
 20
109.4554949136
 30
0.0
 11
223.2461231483
 21
109.6285909347
 31
0.0
  0
LINE
  5
E7
330
1F
100
AcDbEntity
  8
0
  6
Continuous
 62
     7
370
    15
100
AcDbLine
 10
223.2461231483
 20
109.6285909347
 30
0.0
 11
223.5594759418
 21
110.4172920217
 31
0.0
  0
LINE
  5
E8
330
1F
100
AcDbEntity
  8
0
  6
Continuous
 62
     7
370
    15
100
AcDbLine
 10
223.5594759418
 20
110.4172920217
 30
0.0
 11
223.9495808913
 21
111.0618056895
 31
0.0
  0
LINE
  5
E9
330
1F
100
AcDbEntity
  8
0
  6
Continuous
 62
     7
370
    15
100
AcDbLine
 10
223.5594759418
 20
110.4172920217
 30
0.0
 11
223.0213763846
 21
111.0930440531
 31
0.0
  0
LINE
  5
EA
330
1F
100
AcDbEntity
  8
0
  6
Continuous
 62
     7
370
    15
100
AcDbLine
 10
223.0213763846
 20
111.0930440531
 30
0.0
 11
222.4832805528
 21
111.7687961136
 31
0.0
  0
LINE
  5
EB
330
1F
100
AcDbEntity
  8
0
  6
Continuous
 62
     7
370
    15
100
AcDbLine
 10
222.4832805528
 20
111.7687961136
 30
0.0
 11
222.8733855022
 21
112.4133098687
 31
0.0
  0
LINE
  5
EC
330
1F
100
AcDbEntity
  8
0
  6
Continuous
 62
     7
370
    15
100
AcDbLine
 10
222.4832805528
 20
111.7687961136
 30
0.0
 11
221.6318282021
 21
111.655847058
 31
0.0
  0
LINE
  5
ED
330
1F
100
AcDbEntity
  8
0
  6
Continuous
 62
     7
370
    15
100
AcDbLine
 10
221.6318282021
 20
111.655847058
 30
0.0
 11
220.9140392674
 21
111.5606291036
 31
0.0
  0
ARC
  5
EE
330
1F
100
AcDbEntity
  8
0
  6
Continuous
 62
     7
370
    15
100
AcDbCircle
 10
221.8710705923
 20
110.1670365839
 30
0.0
 40
1.476717051099984
100
AcDbArc
 50
338.6155896804
 51
38.8344066716
  0
LWPOLYLINE
  5
EF
330
1F
100
AcDbEntity
  8
0
  6
Continuous
 62
     7
370
    15
100
AcDbPolyline
 90
        3
 70
   128
 43
0.0
 10
223.2461231483
 20
109.6285909347
 10
223.1633919014
 20
109.4550978209
 10
223.1490048303
 20
109.4300766176
  0
ARC
  5
F0
330
1F
100
AcDbEntity
  8
0
  6
Continuous
 62
     7
370
    15
100
AcDbCircle
 10
221.8218395438
 20
110.2020513825
 30
0.0
 40
1.466160351426748
100
AcDbArc
 50
97.4463586598
 51
134.9660754203
  0
ARC
  5
F1
330
1F
100
AcDbEntity
  8
0
  6
Continuous
 62
     7
370
    15
100
AcDbCircle
 10
221.8282532988
 20
110.1440329002
 30
0.0
 40
1.524521192484154
100
AcDbArc
 50
38.4987704783
 51
97.4027847938
  0
ELLIPSE
  5
F2
330
1F
100
AcDbEntity
  8
0
  6
Continuous
 62
     7
370
    15
100
AcDbEllipse
 10
224.3382876833
 20
125.3956203076
 30
0.0
 11
1.980360473108362
 21
-1.266117462755034
 31
0.0
210
0.0
220
0.0
230
1.0
 40
0.9803342941
 41
1.990847558494012
 42
3.696040273513493
  0
ELLIPSE
  5
F3
330
1F
100
AcDbEntity
  8
0
  6
Continuous
 62
     7
370
    15
100
AcDbEllipse
 10
224.3382876833
 20
125.3956203076
 30
0.0
 11
1.980360473108362
 21
-1.266117462755034
 31
0.0
210
0.0
220
0.0
230
1.0
 40
0.9803342941
 41
0.2149108426844248
 42
1.990847558494036
  0
SPLINE
  5
F4
330
1F
100
AcDbEntity
  8
0
  6
Continuous
 62
     7
370
    15
100
AcDbSpline
210
0.0
220
0.0
230
1.0
 70
     8
 71
     3
 72
     9
 73
     5
 74
     0
 42
0.00000001
 43
0.00000001
 12
1.0
 22
0.0
 32
0.0
 13
1.0
 23
0.0
 33
0.0
 40
0.0
 40
0.0
 40
0.0
 40
0.0
 40
0.8509172770479876
 40
1.0
 40
1.0
 40
1.0
 40
1.0
 10
222.4855418039701
 20
126.8415016870111
 30
0.0
 10
222.3071378714817
 20
126.7529548556485
 30
0.0
 10
222.0974771473426
 20
126.6488944096439
 30
0.0
 10
221.9757487190092
 20
126.4773152302238
 30
0.0
 10
221.9576011134527
 20
126.451735738954
 30
0.0
  0
LINE
  5
F5
330
1F
100
AcDbEntity
  8
0
  6
Continuous
 62
     7
370
    15
100
AcDbLine
 10
218.1728924347
 20
114.956490584
 30
0.0
 11
230.4251822366
 21
122.3141712885
 31
0.0
  0
ARC
  5
F6
330
1F
100
AcDbEntity
  8
0
  6
Continuous
 62
     7
370
    15
100
AcDbCircle
 10
217.9679582272
 20
115.3041227786
 30
0.0
 40
0.4035420326809029
100
AcDbArc
 50
177.4224370907
 51
300.5199647153
  0
LINE
  5
F7
330
1F
100
AcDbEntity
  8
0
  6
Continuous
 62
     7
370
    15
100
AcDbLine
 10
218.3209540976
 20
129.5953796993
 30
0.0
 11
217.5648244752
 21
115.3222707848
 31
0.0
  0
ARC
  5
F8
330
1F
100
AcDbEntity
  8
0
  6
Continuous
 62
     7
370
    15
100
AcDbCircle
 10
218.705189382
 20
129.5753954494
 30
0.0
 40
0.3847546282658357
100
AcDbArc
 50
120.9329243101
 51
177.022703431
  0
LINE
  5
F9
330
1F
100
AcDbEntity
  8
0
  6
Continuous
 62
     7
370
    15
100
AcDbLine
 10
230.7597021295
 20
137.2631074677
 30
0.0
 11
218.5074123277
 21
129.9054262976
 31
0.0
  0
ARC
  5
FA
330
1F
100
AcDbEntity
  8
0
  6
Continuous
 62
     7
370
    15
100
AcDbCircle
 10
230.9646347231
 20
136.9154725671
 30
0.0
 40
0.4035435441922791
100
AcDbArc
 50
357.4227651621
 51
120.5195722064
  0
LINE
  5
FB
330
1F
100
AcDbEntity
  8
0
  6
Continuous
 62
     7
370
    15
100
AcDbLine
 10
230.6116404666
 20
122.6242169554
 30
0.0
 11
231.367770089
 21
136.8973268013
 31
0.0
  0
ARC
  5
FC
330
1F
100
AcDbEntity
  8
0
  6
Continuous
 62
     7
370
    15
100
AcDbCircle
 10
230.2274062511
 20
122.6442015539
 30
0.0
 40
0.3847535790050341
100
AcDbArc
 50
300.9328323929
 51
357.0226433249
  0
ARC
  5
FD
330
1F
100
AcDbEntity
  8
0
  6
Continuous
 62
     7
370
    15
100
AcDbCircle
 10
230.9649281608
 20
136.9159588648
 30
0.0
 40
0.3833664643781896
100
AcDbArc
 50
357.4227168382
 51
120.5197754737
  0
LINE
  5
FE
330
1F
100
AcDbEntity
  8
0
  6
Continuous
 62
     7
370
    15
100
AcDbLine
 10
230.7702409758
 20
137.2462114136
 30
0.0
 11
218.5179511739
 21
129.8885321061
 31
0.0
  0
ARC
  5
FF
330
1F
100
AcDbEntity
  8
0
  6
Continuous
 62
     7
370
    15
100
AcDbCircle
 10
218.7058457765
 20
129.5750008876
 30
0.0
 40
0.3655218279235493
100
AcDbArc
 50
120.9336308462
 51
177.022662677
  0
LINE
  5
100
330
1F
100
AcDbEntity
  8
0
  6
Continuous
 62
     7
370
    15
100
AcDbLine
 10
218.3408173455
 20
129.5939864407
 30
0.0
 11
217.5846877231
 21
115.3208775262
 31
0.0
  0
ARC
  5
101
330
1F
100
AcDbEntity
  8
0
  6
Continuous
 62
     7
370
    15
100
AcDbCircle
 10
217.9676662039
 20
115.3036388321
 30
0.0
 40
0.383366260063109
100
AcDbArc
 50
177.4227320491
 51
300.5198280919
  0
LINE
  5
102
330
1F
100
AcDbEntity
  8
0
  6
Continuous
 62
     7
370
    15
100
AcDbLine
 10
218.1623535885
 20
114.9733866382
 30
0.0
 11
230.4146433903
 21
122.3310664113
 31
0.0
  0
ARC
  5
103
330
1F
100
AcDbEntity
  8
0
  6
Continuous
 62
     7
370
    15
100
AcDbCircle
 10
230.226754665
 20
122.6445942154
 30
0.0
 40
0.3655158779447917
100
AcDbArc
 50
300.93311573
 51
357.0228577468
  0
LINE
  5
104
330
1F
100
AcDbEntity
  8
0
  6
Continuous
 62
     7
370
    15
100
AcDbLine
 10
230.5917772187
 20
122.625610214
 30
0.0
 11
231.3479068412
 21
136.8987200598
 31
0.0
  0
LINE
  5
105
330
1F
100
AcDbEntity
  8
0
  6
Continuous
 62
     7
370
    15
100
AcDbLine
 10
218.9777749313
 20
116.9842131252
 30
0.0
 11
217.9391528202
 21
115.2565152201
 31
0.0
  0
LINE
  5
106
330
1F
100
AcDbEntity
  8
0
  6
Continuous
 62
     7
370
    15
100
AcDbLine
 10
218.9777749313
 20
116.9842131252
 30
0.0
 11
219.5472637845
 21
117.3261994313
 31
0.0
  0
LINE
  5
107
330
1F
100
AcDbEntity
  8
0
  6
Continuous
 62
     7
370
    15
100
AcDbLine
 10
229.7478872074
 20
122.8222394179
 30
0.0
 11
230.1914426221
 21
122.6141959245
 31
0.0
  0
LINE
  5
108
330
1F
100
AcDbEntity
  8
0
  6
Continuous
 62
     7
370
    15
100
AcDbLine
 10
217.1279410554
 20
118.5082610513
 30
0.0
 11
216.901067151
 21
114.2256454381
 31
0.0
  0
LINE
  5
109
330
1F
100
AcDbEntity
  8
0
  6
Continuous
 62
     7
370
    15
100
AcDbLine
 10
219.0866837932
 20
129.2354067604
 30
0.0
 11
218.695286168
 21
129.5296246003
 31
0.0
  0
LINE
  5
10A
330
1F
100
AcDbEntity
  8
0
  6
Continuous
 62
     7
370
    15
100
AcDbLine
 10
219.01291932
 20
117.6476295854
 30
0.0
 11
218.9777749313
 21
116.9842131252
 31
0.0
  0
ARC
  5
10B
330
1F
100
AcDbEntity
  8
0
  6
Continuous
 62
     7
370
    15
100
AcDbCircle
 10
220.8408089564
 20
120.0811190312
 30
0.0
 40
1.00886179722573
100
AcDbArc
 50
177.4229349754
 51
300.5196400008
  0
LWPOLYLINE
  5
10C
330
1F
100
AcDbEntity
  8
0
  6
Continuous
 62
     7
370
    15
100
AcDbPolyline
 90
        9
 70
   128
 43
0.0
 10
219.5373358859
 20
117.9169229048
 10
219.5375854803
 20
117.9167729619
 10
219.5378350748
 20
117.916623019
 10
219.5380846692
 20
117.9164735417
 10
219.5383305384
 20
117.9163240644
 10
219.5385801329
 20
117.9161741215
 10
219.5388297273
 20
117.9160246442
 10
219.5390793218
 20
117.9158751669
 10
219.5393251909
 20
117.915725224
  0
SPLINE
  5
10D
330
1F
100
AcDbEntity
  8
0
  6
Continuous
 62
     7
370
    15
100
AcDbSpline
210
0.0
220
0.0
230
1.0
 70
     8
 71
     3
 72
    14
 73
    10
 74
     0
 42
0.00000001
 43
0.00000001
 12
1.0
 22
0.0
 32
0.0
 13
1.0
 23
0.0
 33
0.0
 40
0.0
 40
0.0
 40
0.0
 40
0.0
 40
0.22105943661135
 40
0.3460809353811156
 40
0.4396015685411266
 40
0.5338898226573008
 40
0.6146552505743061
 40
0.7517253170963611
 40
1.0
 40
1.0
 40
1.0
 40
1.0
 10
219.5373358858964
 20
117.9169229048401
 30
0.0
 10
219.4857414514322
 20
117.9458040280429
 30
0.0
 10
219.4049674731142
 20
117.9910190448099
 30
0.0
 10
219.2901689434975
 20
118.0195284074523
 30
0.0
 10
219.2060735599331
 20
118.01571144933
 30
0.0
 10
219.1402380218346
 20
117.9851467126819
 30
0.0
 10
219.0829584066088
 20
117.9257272506636
 30
0.0
 10
219.0294480616565
 20
117.813866497193
 30
0.0
 10
219.019395870252
 20
117.7127671339959
 30
0.0
 10
219.0129193200013
 20
117.6476295854062
 30
0.0
  0
SPLINE
  5
10E
330
1F
100
AcDbEntity
  8
0
  6
Continuous
 62
     7
370
    15
100
AcDbSpline
210
0.0
220
0.0
230
1.0
 70
     8
 71
     3
 72
    14
 73
    10
 74
     0
 42
0.00000001
 43
0.00000001
 12
1.0
 22
0.0
 32
0.0
 13
1.0
 23
0.0
 33
0.0
 40
0.0
 40
0.0
 40
0.0
 40
0.0
 40
0.2234965788935521
 40
0.3567613312168449
 40
0.4531195230129064
 40
0.5344601302186777
 40
0.6157292314352529
 40
0.7396139625630037
 40
0.9999999999999999
 40
0.9999999999999999
 40
0.9999999999999999
 40
0.9999999999999999
 10
219.5472637845418
 20
117.3261994312614
 30
0.0
 10
219.5963169165196
 20
117.3586448617055
 30
0.0
 10
219.6746190576592
 20
117.4104365938853
 30
0.0
 10
219.7509124771798
 20
117.5028818957223
 30
0.0
 10
219.7825018540139
 20
117.5790661261078
 30
0.0
 10
219.7849220237669
 20
117.6483412099582
 30
0.0
 10
219.760920911643
 20
117.7213623091114
 30
0.0
 10
219.6846693574795
 20
117.8216665642882
 30
0.0
 10
219.5980317635352
 20
117.8777335958073
 30
0.0
 10
219.5393251909158
 20
117.9157252240092
 30
0.0
  0
LINE
  5
10F
330
1F
100
AcDbEntity
  8
0
  6
Continuous
 62
     7
370
    15
100
AcDbLine
 10
221.3531429602
 20
119.212029856
 30
0.0
 11
228.2103071643
 21
123.3298577185
 31
0.0
  0
LINE
  5
110
330
1F
100
AcDbEntity
  8
0
  6
Continuous
 62
     7
370
    15
100
AcDbLine
 10
220.2561455501
 20
128.1146233718
 30
0.0
 11
219.8329674734
 21
120.1264805908
 31
0.0
  0
ARC
  5
111
330
1F
100
AcDbEntity
  8
0
  6
Continuous
 62
     7
370
    15
100
AcDbCircle
 10
221.2167516682
 20
128.0646553457
 30
0.0
 40
0.9619048382055824
100
AcDbArc
 50
120.9337744465
 51
177.0223185637
  0
LINE
  5
112
330
1F
100
AcDbEntity
  8
0
  6
Continuous
 62
     7
370
    15
100
AcDbLine
 10
227.579451604
 20
133.0075667988
 30
0.0
 11
220.7222873999
 21
128.8897407989
 31
0.0
  0
ARC
  5
113
330
1F
100
AcDbEntity
  8
0
  6
Continuous
 62
     7
370
    15
100
AcDbCircle
 10
228.0917864972
 20
132.1384791945
 30
0.0
 40
1.008860895640949
100
AcDbArc
 50
357.4229492581
 51
120.5197288181
  0
LINE
  5
114
330
1F
100
AcDbEntity
  8
0
  6
Continuous
 62
     7
370
    15
100
AcDbLine
 10
228.6764490141
 20
124.1049742143
 30
0.0
 11
229.0996270908
 21
132.0931179266
 31
0.0
  0
ARC
  5
115
330
1F
100
AcDbEntity
  8
0
  6
Continuous
 62
     7
370
    15
100
AcDbCircle
 10
227.7158502221
 20
124.1549388259
 30
0.0
 40
0.9618973445630649
100
AcDbArc
 50
300.9335331968
 51
357.0224990044
  0
LWPOLYLINE
  5
116
330
1F
100
AcDbEntity
  8
0
  6
Continuous
 62
     7
370
    15
100
AcDbPolyline
 90
       32
 70
   128
 43
0.0
 10
227.0286488069
 20
125.9300572614
 10
227.0032274259
 20
126.4440020363
 10
226.8739449514
 20
126.9442656825
 10
226.6460950209
 20
127.4103646915
 10
226.329002036
 20
127.8232199888
 10
225.9356486334
 20
128.1659262071
 10
225.4821429683
 20
128.4244539033
 10
224.9870481624
 20
128.5882213901
 10
224.4706297947
 20
128.6505194198
 10
223.9540363385
 20
128.6088017563
 10
223.4584162666
 20
128.4647745828
 10
223.00405751
 20
128.2243350337
 10
222.6095641686
 20
127.8973234634
 10
222.2910853757
 20
127.4971322904
 10
222.0616596474
 20
127.040143479
 10
221.9306784405
 20
126.5450672994
 10
221.9035098983
 20
126.0321693312
 10
221.9812567068
 20
125.5224499668
 10
222.1607449187
 20
125.0367773513
 10
222.4346208109
 20
124.5950333591
 10
222.7916749848
 20
124.2153052057
 10
223.2172894014
 20
123.9131375964
 10
223.6940371527
 20
123.7009012888
 10
224.2024014427
 20
123.5872855227
 10
224.7215690745
 20
123.5769413228
 10
225.2302872671
 20
123.6702933724
 10
225.7077279223
 20
123.8635185923
 10
226.1343407167
 20
124.1487072597
 10
226.4926652147
 20
124.5141824524
 10
226.768031223
 20
124.9449834044
 10
226.9491622878
 20
125.4234708662
 10
227.0286488069
 20
125.9300572614
  0
ARC
  5
117
330
1F
100
AcDbEntity
  8
0
  6
Continuous
 62
     7
370
    15
100
AcDbCircle
 10
223.7437921047
 20
125.0288857765
 30
0.0
 40
2.524468226534447
100
AcDbArc
 50
98.2373769168
 51
133.708285608
  0
SPLINE
  5
118
330
1F
100
AcDbEntity
  8
0
  6
Continuous
 62
     7
370
    15
100
AcDbSpline
210
0.0
220
0.0
230
1.0
 70
     8
 71
     3
 72
    11
 73
     7
 74
     0
 42
0.00000001
 43
0.00000001
 12
1.0
 22
0.0
 32
0.0
 13
1.0
 23
0.0
 33
0.0
 40
0.0
 40
0.0
 40
0.0
 40
0.0
 40
0.3280446084329411
 40
0.6557018192321866
 40
0.9906964271252734
 40
1.0
 40
1.0
 40
1.0
 40
1.0
 10
229.7478872074029
 20
122.8222394178718
 30
0.0
 10
229.68106960042
 20
122.855583326392
 30
0.0
 10
229.5475132933534
 20
122.922231766619
 30
0.0
 10
229.3388121109927
 20
123.0507293326014
 30
0.0
 10
229.2123268619223
 20
123.140181921179
 30
0.0
 10
229.1549048756561
 20
123.1844444985562
 30
0.0
 10
229.1533532275102
 20
123.1856405551642
 30
0.0
  0
LINE
  5
119
330
1F
100
AcDbEntity
  8
0
  6
Continuous
 62
     7
370
    15
100
AcDbLine
 10
229.787572725
 20
134.9590694348
 30
0.0
 11
230.9475759698
 21
136.8873057704
 31
0.0
  0
LINE
  5
11A
330
1F
100
AcDbEntity
  8
0
  6
Continuous
 62
     7
370
    15
100
AcDbLine
 10
229.7524283363
 20
134.2956529747
 30
0.0
 11
229.787572725
 21
134.9590694348
 31
0.0
  0
SPLINE
  5
11B
330
1F
100
AcDbEntity
  8
0
  6
Continuous
 62
     7
370
    15
100
AcDbSpline
210
0.0
220
0.0
230
1.0
 70
     8
 71
     3
 72
    11
 73
     7
 74
     0
 42
0.00000001
 43
0.00000001
 12
1.0
 22
0.0
 32
0.0
 13
1.0
 23
0.0
 33
0.0
 40
0.0
 40
0.0
 40
0.0
 40
0.0
 40
0.3280460084595441
 40
0.6557025398327251
 40
0.9906935297562585
 40
1.0
 40
1.0
 40
1.0
 40
1.0
 10
219.0866837932012
 20
129.2354067604155
 30
0.0
 10
219.1474225274169
 20
129.1920194056519
 30
0.0
 10
219.2688278829599
 20
129.1052962083521
 30
0.0
 10
219.4801580548174
 20
128.9811395181546
 30
0.0
 10
219.6184830651685
 20
128.9112602312917
 30
0.0
 10
219.6845468709175
 20
128.8812680730968
 30
0.0
 10
219.6863325966737
 20
128.8804573754877
 30
0.0
  0
LINE
  5
11C
330
1F
100
AcDbEntity
  8
0
  6
Continuous
 62
     7
370
    15
100
AcDbLine
 10
229.787572725
 20
134.9590694348
 30
0.0
 11
229.2180838717
 21
134.6170840602
 31
0.0
  0
ARC
  5
11D
330
1F
100
AcDbEntity
  8
0
  6
Continuous
 62
     7
370
    15
100
AcDbCircle
 10
228.6508156755
 20
133.0699080449
 30
0.0
 40
1.117118670575596
100
AcDbArc
 50
58.8899923206
 51
59.0090861427
  0
SPLINE
  5
11E
330
1F
100
AcDbEntity
  8
0
  6
Continuous
 62
     7
370
    15
100
AcDbSpline
210
0.0
220
0.0
230
1.0
 70
     8
 71
     3
 72
    14
 73
    10
 74
     0
 42
0.00000001
 43
0.00000001
 12
1.0
 22
0.0
 32
0.0
 13
1.0
 23
0.0
 33
0.0
 40
0.0
 40
0.0
 40
0.0
 40
0.0
 40
0.2234941523918779
 40
0.3567621457342926
 40
0.4531204889777734
 40
0.5344602008425705
 40
0.6157314188010202
 40
0.7396159719496147
 40
1.0
 40
1.0
 40
1.0
 40
1.0
 10
229.2180838717363
 20
134.6170840601534
 30
0.0
 10
229.1690328402355
 20
134.5846375507284
 30
0.0
 10
229.0907330231647
 20
134.5328434156239
 30
0.0
 10
229.0144348381751
 20
134.440401836937
 30
0.0
 10
228.982846315113
 20
134.3642166526959
 30
0.0
 10
228.9804245998602
 20
134.2949412284124
 30
0.0
 10
229.0044319675464
 20
134.2219217410743
 30
0.0
 10
229.0806807756326
 20
134.1216174524963
 30
0.0
 10
229.1673169640233
 20
134.0655492292363
 30
0.0
 10
229.2260224653623
 20
134.0275568704218
 30
0.0
  0
SPLINE
  5
11F
330
1F
100
AcDbEntity
  8
0
  6
Continuous
 62
     7
370
    15
100
AcDbSpline
210
0.0
220
0.0
230
1.0
 70
     8
 71
     3
 72
    14
 73
    10
 74
     0
 42
0.00000001
 43
0.00000001
 12
1.0
 22
0.0
 32
0.0
 13
1.0
 23
0.0
 33
0.0
 40
0.0
 40
0.0
 40
0.0
 40
0.0
 40
0.2210591069876676
 40
0.3460809752726842
 40
0.4396017683911927
 40
0.5338900874077911
 40
0.6146560169420278
 40
0.7517251771276494
 40
1.0
 40
1.0
 40
1.0
 40
1.0
 10
229.2280117703817
 20
134.0263591895908
 30
0.0
 10
229.2796062959696
 20
133.9974787998902
 30
0.0
 10
229.3603805467006
 20
133.9522648588314
 30
0.0
 10
229.4751786494025
 20
133.9237529944903
 30
0.0
 10
229.5592740314429
 20
133.9275719731294
 30
0.0
 10
229.6251098479342
 20
133.9581361941384
 30
0.0
 10
229.6823887964159
 20
134.0175561621155
 30
0.0
 10
229.7359000020283
 20
134.1294160282122
 30
0.0
 10
229.7459519356089
 20
134.230515311387
 30
0.0
 10
229.7524283362768
 20
134.295652974686
 30
0.0
  0
LINE
  5
120
330
1F
100
AcDbEntity
  8
0
  6
HIDDEN
 62
     7
370
     0
100
AcDbLine
 10
176.3672711982
 20
130.0174569528
 30
0.0
 11
176.3672711982
 21
90.6174568276
 31
0.0
  0
LINE
  5
121
330
1F
100
AcDbEntity
  8
0
  6
HIDDEN
 62
     7
370
     0
100
AcDbLine
 10
184.3172716631
 20
90.3174573372
 30
0.0
 11
184.3172716631
 21
90.3424726616
 31
0.0
  0
SPLINE
  5
122
330
1F
100
AcDbEntity
  8
0
  6
HIDDEN
 62
     7
370
     0
100
AcDbSpline
210
0.0
220
0.0
230
1.0
 70
     8
 71
     3
 72
    22
 73
    18
 74
     0
 42
0.00000001
 43
0.00000001
 12
1.0
 22
0.0
 32
0.0
 13
1.0
 23
0.0
 33
0.0
 40
0.0
 40
0.0
 40
0.0
 40
0.0
 40
0.1250000000000001
 40
0.1250000000000001
 40
0.2500000000000002
 40
0.2500000000000002
 40
0.3750000000000004
 40
0.3750000000000004
 40
0.5000000000000006
 40
0.5000000000000006
 40
0.6250000000000006
 40
0.6250000000000006
 40
0.7500000000000003
 40
0.7500000000000003
 40
0.8750000000000001
 40
0.8750000000000001
 40
1.0
 40
1.0
 40
1.0
 40
1.0
 10
184.3172711981675
 20
90.34247253474851
 30
0.0
 10
184.3172711981675
 20
90.35742812735782
 30
0.0
 10
184.3467196192977
 20
90.3788163240042
 30
0.0
 10
184.4615574855216
 20
90.43319457061949
 30
0.0
 10
184.5483703240593
 20
90.46664073422788
 30
0.0
 10
184.7740176963553
 20
90.5414050096256
 30
0.0
 10
184.9118548380195
 20
90.58250349858656
 30
0.0
 10
185.2370557979238
 20
90.66905642755033
 30
0.0
 10
185.4257580778318
 20
90.71470732664821
 30
0.0
 10
185.8380897980641
 20
90.80298688181306
 30
0.0
 10
186.063236724416
 20
90.8460882318203
 30
0.0
 10
186.5532125757732
 20
90.92629241167558
 30
0.0
 10
186.8139202178951
 20
90.96258725906513
 30
0.0
 10
187.3547775986108
 20
91.02276647821483
 30
0.0
 10
187.6384682246648
 20
91.04705381564594
 30
0.0
 10
188.2225505955942
 20
91.08005190995732
 30
0.0
 10
188.5181181505861
 20
91.08857236715725
 30
0.0
 10
188.8172711981675
 20
91.08857236715725
 30
0.0
  0
LINE
  5
123
330
1F
100
AcDbEntity
  8
0
  6
HIDDEN
 62
     7
370
     0
100
AcDbLine
 10
188.8172714694
 20
91.0885719399
 30
0.0
 11
190.3321114091
 21
91.0885719399
 31
0.0
  0
LINE
  5
124
330
1F
100
AcDbEntity
  8
0
  6
HIDDEN
 62
     7
370
     0
100
AcDbLine
 10
190.3321114091
 20
129.8046329807
 30
0.0
 11
190.3321114091
 21
91.0885719399
 31
0.0
  0
LINE
  5
125
330
1F
100
AcDbEntity
  8
0
  6
HIDDEN
 62
     7
370
     0
100
AcDbLine
 10
188.8172714694
 20
129.8046329807
 30
0.0
 11
190.3321114091
 21
129.8046329807
 31
0.0
  0
SPLINE
  5
126
330
1F
100
AcDbEntity
  8
0
  6
HIDDEN
 62
     7
370
     0
100
AcDbSpline
210
0.0
220
0.0
230
1.0
 70
     8
 71
     3
 72
    17
 73
    13
 74
     0
 42
0.00000001
 43
0.00000001
 12
1.0
 22
0.0
 32
0.0
 13
1.0
 23
0.0
 33
0.0
 40
0.0
 40
0.0
 40
0.0
 40
0.0
 40
0.0659340435969183
 40
0.1690661462905225
 40
0.2751488405985667
 40
0.379123145219446
 40
0.485986792297652
 40
0.5922065347858924
 40
0.7014821075588975
 40
0.8079660909051144
 40
0.9176704333646215
 40
1.0
 40
1.0
 40
1.0
 40
1.0
 10
184.3327986730478
 20
130.3139695714325
 30
0.0
 10
184.331362127814
 20
130.3142889406571
 30
0.0
 10
184.3276785805387
 20
130.3151078578827
 30
0.0
 10
184.4615558013204
 20
130.2851808018569
 30
0.0
 10
184.7112738793976
 20
130.2317533223554
 30
0.0
 10
185.0806673753159
 20
130.1582260354677
 30
0.0
 10
185.550252687033
 20
130.0743734437911
 30
0.0
 10
186.1193001820959
 20
129.9874339876127
 30
0.0
 10
186.7649382100257
 20
129.9084089975143
 30
0.0
 10
187.4777510620573
 20
129.846355902429
 30
0.0
 10
188.1690944921762
 20
129.810373287049
 30
0.0
 10
188.6227698889625
 20
129.8063555019875
 30
0.0
 10
188.8172714693687
 20
129.8046329806656
 30
0.0
  0
SPLINE
  5
127
330
1F
100
AcDbEntity
  8
0
  6
HIDDEN
 62
     7
370
     0
100
AcDbSpline
210
0.0
220
0.0
230
1.0
 70
     8
 71
     3
 72
    76
 73
    72
 74
     0
 42
0.00000001
 43
0.00000001
 12
1.0
 22
0.0
 32
0.0
 13
1.0
 23
0.0
 33
0.0
 40
-0.03125
 40
-0.03125
 40
0.0
 40
0.0
 40
0.03125
 40
0.03125
 40
0.0625
 40
0.0625
 40
0.0937499999999999
 40
0.0937499999999999
 40
0.1249999999999999
 40
0.1249999999999999
 40
0.1562499999999998
 40
0.1562499999999998
 40
0.1874999999999998
 40
0.1874999999999998
 40
0.2031249999999997
 40
0.2031249999999997
 40
0.2187499999999997
 40
0.2187499999999997
 40
0.2499999999999997
 40
0.2499999999999997
 40
0.2812499999999997
 40
0.2812499999999997
 40
0.3124999999999997
 40
0.3124999999999997
 40
0.3437499999999997
 40
0.3437499999999997
 40
0.3749999999999997
 40
0.3749999999999997
 40
0.4062499999999996
 40
0.4062499999999996
 40
0.4374999999999996
 40
0.4374999999999996
 40
0.4687499999999996
 40
0.4687499999999996
 40
0.4843749999999996
 40
0.4843749999999996
 40
0.4999999999999995
 40
0.4999999999999995
 40
0.5312499999999996
 40
0.5312499999999996
 40
0.5624999999999996
 40
0.5624999999999996
 40
0.5937499999999997
 40
0.5937499999999997
 40
0.6249999999999997
 40
0.6249999999999997
 40
0.6562499999999997
 40
0.6562499999999997
 40
0.6874999999999997
 40
0.6874999999999997
 40
0.7187499999999998
 40
0.7187499999999998
 40
0.7343749999999998
 40
0.7343749999999998
 40
0.7499999999999998
 40
0.7499999999999998
 40
0.7812499999999998
 40
0.7812499999999998
 40
0.8124999999999998
 40
0.8124999999999998
 40
0.8437499999999999
 40
0.8437499999999999
 40
0.8749999999999999
 40
0.8749999999999999
 40
0.9062499999999999
 40
0.9062499999999999
 40
0.9374999999999999
 40
0.9374999999999999
 40
0.96875
 40
0.96875
 40
1.0
 40
1.0
 40
1.03125
 40
1.03125
 10
183.0355296192523
 20
105.3174568901867
 30
0.0
 10
183.6990127770828
 20
105.3174568901867
 30
0.0
 10
184.0249359986177
 20
105.3501428587927
 30
0.0
 10
184.6657097775816
 20
105.4779539268935
 30
0.0
 10
184.9839571181014
 20
105.574718045873
 30
0.0
 10
185.5887586253098
 20
105.8261053430327
 30
0.0
 10
185.8753984637783
 20
105.9797424632946
 30
0.0
 10
186.4178760778868
 20
106.3425004504756
 30
0.0
 10
186.6736446337987
 20
106.5527091058894
 30
0.0
 10
187.1327886817137
 20
107.0119600657552
 30
0.0
 10
187.3393078039691
 20
107.2628040809377
 30
0.0
 10
187.7049217973272
 20
107.8089182991958
 30
0.0
 10
187.8593966811449
 20
108.0978295983337
 30
0.0
 10
188.046782504745
 20
108.548655573192
 30
0.0
 10
188.1020074249927
 20
108.7021678626578
 30
0.0
 10
188.1976636135987
 20
109.0158444697595
 30
0.0
 10
188.2382472073815
 20
109.1769670490512
 30
0.0
 10
188.3349872063967
 20
109.6614880632832
 30
0.0
 10
188.367066255089
 20
109.986788122272
 30
0.0
 10
188.3674742023747
 20
110.6418985059014
 30
0.0
 10
188.334691198808
 20
110.9747164108646
 30
0.0
 10
188.2065208748866
 20
111.6170391717905
 30
0.0
 10
188.1117037787612
 20
111.9293928326533
 30
0.0
 10
187.8599347600922
 20
112.5364548878805
 30
0.0
 10
187.7040183556597
 20
112.8270839789716
 30
0.0
 10
187.3426872987574
 20
113.3673209625595
 30
0.0
 10
187.1344827439174
 20
113.621302708625
 30
0.0
 10
186.6712869238878
 20
114.0845194204131
 30
0.0
 10
186.4203123559132
 20
114.2904499437408
 30
0.0
 10
185.8800168103543
 20
114.6524128995268
 30
0.0
 10
185.587231457267
 20
114.8095055872675
 30
0.0
 10
184.9838538871608
 20
115.0601760953024
 30
0.0
 10
184.6721861476047
 20
115.1553261668983
 30
0.0
 10
184.1893444623403
 20
115.2521444273349
 30
0.0
 10
184.0248410768823
 20
115.2767695674957
 30
0.0
 10
183.6967216902117
 20
115.3093145353928
 30
0.0
 10
183.5329319321768
 20
115.3173866205761
 30
0.0
 10
183.042353656311
 20
115.3175960623988
 30
0.0
 10
182.7163488620889
 20
115.2859630907533
 30
0.0
 10
182.0665084196571
 20
115.1566479327802
 30
0.0
 10
181.7536990559126
 20
115.0611545898389
 30
0.0
 10
181.1513809840862
 20
114.8114655109044
 30
0.0
 10
180.8589064241842
 20
114.6550470419946
 30
0.0
 10
180.316172108383
 20
114.2920482539293
 30
0.0
 10
180.0652832011874
 20
114.0861654178807
 30
0.0
 10
179.6038531615905
 20
113.6254734229266
 30
0.0
 10
179.3936721984065
 20
113.3696878286232
 30
0.0
 10
179.032021519543
 20
112.8296696471873
 30
0.0
 10
178.8778068914066
 20
112.5430419300784
 30
0.0
 10
178.6246188868305
 20
111.9347903700973
 30
0.0
 10
178.5288951724824
 20
111.6200100713311
 30
0.0
 10
178.4326900177299
 20
111.1399776574499
 30
0.0
 10
178.4084029466803
 20
110.9782361004593
 30
0.0
 10
178.3757171393476
 20
110.6512106590267
 30
0.0
 10
178.3673570801783
 20
110.4849549063104
 30
0.0
 10
178.3671014366393
 20
109.9902116509638
 30
0.0
 10
178.399252242678
 20
109.6647665262658
 30
0.0
 10
178.5268045325223
 20
109.0224281213803
 30
0.0
 10
178.6237633226497
 20
108.7032178691426
 30
0.0
 10
178.874013253421
 20
108.0999655995312
 30
0.0
 10
179.0274300113396
 20
107.8127974793899
 30
0.0
 10
179.3917440506808
 20
107.2674201378546
 30
0.0
 10
179.6003394261637
 20
107.0135932276724
 30
0.0
 10
180.0589583324159
 20
106.5544320354034
 30
0.0
 10
180.3124213479967
 20
106.345630885593
 30
0.0
 10
180.8572751956031
 20
105.9807035556096
 30
0.0
 10
181.1439614637038
 20
105.8271208287738
 30
0.0
 10
181.7456951330588
 20
105.5764954703001
 30
0.0
 10
182.0642186245342
 20
105.4790669586049
 30
0.0
 10
182.7086046860917
 20
105.3501516282208
 30
0.0
 10
183.0355296192523
 20
105.3174568901867
 30
0.0
 10
183.6990127770828
 20
105.3174568901867
 30
0.0
  0
SPLINE
  5
128
330
1F
100
AcDbEntity
  8
0
  6
HIDDEN
 62
     7
370
     0
100
AcDbSpline
210
0.0
220
0.0
230
1.0
 70
     8
 71
     3
 72
    10
 73
     6
 74
     0
 42
0.00000001
 43
0.00000001
 12
1.0
 22
0.0
 32
0.0
 13
1.0
 23
0.0
 33
0.0
 40
0.0
 40
0.0
 40
0.0
 40
0.0
 40
0.5
 40
0.5
 40
1.0
 40
1.0
 40
1.0
 40
1.0
 10
193.4072711981675
 20
93.20457796815838
 30
0.0
 10
193.4072711981675
 20
93.24080045759902
 30
0.0
 10
193.4043014688702
 20
93.27699365485748
 30
0.0
 10
193.3924224865222
 20
93.34863214627215
 30
0.0
 10
193.3836272586816
 20
93.38350547091376
 30
0.0
 10
193.3720487975864
 20
93.41745689018607
 30
0.0
  0
LINE
  5
129
330
1F
100
AcDbEntity
  8
0
  6
HIDDEN
 62
     7
370
     0
100
AcDbLine
 10
193.407270564
 20
93.2045778076
 30
0.0
 11
193.407270564
 21
122.1674572493
 31
0.0
  0
SPLINE
  5
12A
330
1F
100
AcDbEntity
  8
0
  6
HIDDEN
 62
     7
370
     0
100
AcDbSpline
210
0.0
220
0.0
230
1.0
 70
     8
 71
     3
 72
    10
 73
     6
 74
     0
 42
0.00000001
 43
0.00000001
 12
1.0
 22
0.0
 32
0.0
 13
1.0
 23
0.0
 33
0.0
 40
0.0
 40
0.0
 40
0.0
 40
0.0
 40
0.5
 40
0.5
 40
1.0
 40
1.0
 40
1.0
 40
1.0
 10
191.3624935987489
 20
93.41745689018668
 30
0.0
 10
191.3507814817858
 20
93.3831135529927
 30
0.0
 10
191.3419834119137
 20
93.34802101525449
 30
0.0
 10
191.3301698541416
 20
93.27634923986375
 30
0.0
 10
191.3272711981675
 20
93.24040558549848
 30
0.0
 10
191.3272711981675
 20
93.20457796815838
 30
0.0
  0
LINE
  5
12B
330
1F
100
AcDbEntity
  8
0
  6
HIDDEN
 62
     7
370
     0
100
AcDbLine
 10
191.3272714896
 20
93.2045778076
 30
0.0
 11
191.3272714896
 21
122.1674572493
 31
0.0
  0
SPLINE
  5
12C
330
1F
100
AcDbEntity
  8
0
  6
HIDDEN
 62
     7
370
     0
100
AcDbSpline
210
0.0
220
0.0
230
1.0
 70
     8
 71
     3
 72
    16
 73
    12
 74
     0
 42
0.00000001
 43
0.00000001
 12
1.0
 22
0.0
 32
0.0
 13
1.0
 23
0.0
 33
0.0
 40
0.0
 40
0.0
 40
0.0
 40
0.0
 40
0.2499999999999998
 40
0.2499999999999998
 40
0.4999999999999996
 40
0.4999999999999996
 40
0.6249999999999994
 40
0.6249999999999994
 40
0.7499999999999993
 40
0.7499999999999993
 40
1.0
 40
1.0
 40
1.0
 40
1.0
 10
197.317271198167
 20
103.8770106271861
 30
0.0
 10
197.1698153780228
 20
104.0722419207611
 30
0.0
 10
197.0594874603
 20
104.2721830543302
 30
0.0
 10
196.9063817472075
 20
104.7104791067369
 30
0.0
 10
196.867495109256
 20
104.9394541436947
 30
0.0
 10
196.8671606571079
 20
105.3056062712549
 30
0.0
 10
196.8770761734372
 20
105.430153321751
 30
0.0
 10
196.9156573870853
 20
105.6758630203201
 30
0.0
 10
196.9442958548904
 20
105.7981728067491
 30
0.0
 10
197.0585936524989
 20
106.161531611843
 30
0.0
 10
197.1698046742949
 20
106.3921492510056
 30
0.0
 10
197.3172711981671
 20
106.5987609081551
 30
0.0
  0
SPLINE
  5
12D
330
1F
100
AcDbEntity
  8
0
  6
HIDDEN
 62
     7
370
     0
100
AcDbSpline
210
0.0
220
0.0
230
1.0
 70
     8
 71
     3
 72
     9
 73
     5
 74
     0
 42
0.00000001
 43
0.00000001
 12
1.0
 22
0.0
 32
0.0
 13
1.0
 23
0.0
 33
0.0
 40
0.0
 40
0.0
 40
0.0
 40
0.0
 40
0.5
 40
1.0
 40
1.0
 40
1.0
 40
1.0
 10
196.3173333212908
 20
127.2174568901867
 30
0.0
 10
196.3173126085875
 20
127.2193797585206
 30
0.0
 10
196.3172815472691
 20
127.2232250475095
 30
0.0
 10
196.3172711981675
 20
127.22706944183
 30
0.0
 10
196.3172711981675
 20
127.2289914154744
 30
0.0
  0
SPLINE
  5
12E
330
1F
100
AcDbEntity
  8
0
  6
HIDDEN
 62
     7
370
     0
100
AcDbSpline
210
0.0
220
0.0
230
1.0
 70
    24
 71
     3
 72
    10
 73
     6
 74
     0
 42
0.00000001
 43
0.00000001
 12
1.0
 22
0.0
 32
0.0
 13
1.0
 23
0.0
 33
0.0
 40
0.0
 40
0.0
 40
0.0
 40
0.0
 40
0.5000000000000001
 40
0.5000000000000001
 40
1.0
 40
1.0
 40
1.0
 40
1.0
 10
196.3173333212908
 20
127.2174568901867
 30
0.0
 10
196.3194866414676
 20
127.2174568901867
 30
0.0
 10
196.3747034843507
 20
127.2174568901867
 30
0.0
 10
196.4746484958565
 20
127.2174568901867
 30
0.0
 10
196.5172703170376
 20
127.2174568901867
 30
0.0
 10
196.517271198152
 20
127.2174568901867
 30
0.0
  0
SPLINE
  5
12F
330
1F
100
AcDbEntity
  8
0
  6
HIDDEN
 62
     7
370
     0
100
AcDbSpline
210
0.0
220
0.0
230
1.0
 70
     8
 71
     3
 72
     9
 73
     5
 74
     0
 42
0.00000001
 43
0.00000001
 12
1.0
 22
0.0
 32
0.0
 13
1.0
 23
0.0
 33
0.0
 40
0.0
 40
0.0
 40
0.0
 40
0.0
 40
0.5
 40
1.0
 40
1.0
 40
1.0
 40
1.0
 10
196.3172711981675
 20
127.2289914154744
 30
0.0
 10
196.3172711981675
 20
127.2270682909914
 30
0.0
 10
196.3172815596651
 20
127.2232227461465
 30
0.0
 10
196.317312620981
 20
127.2193786079689
 30
0.0
 10
196.3173333212908
 20
127.2174568901867
 30
0.0
  0
LINE
  5
130
330
1F
100
AcDbEntity
  8
0
  6
HIDDEN
 62
     7
370
     0
100
AcDbLine
 10
196.3172717674
 20
127.2289914827
 30
0.0
 11
196.3172717674
 21
93.4174576591
 31
0.0
  0
SPLINE
  5
131
330
1F
100
AcDbEntity
  8
0
  6
HIDDEN
 62
     7
370
     0
100
AcDbSpline
210
0.0
220
0.0
230
1.0
 70
    24
 71
     3
 72
    10
 73
     6
 74
     0
 42
0.00000001
 43
0.00000001
 12
1.0
 22
0.0
 32
0.0
 13
1.0
 23
0.0
 33
0.0
 40
0.0
 40
0.0
 40
0.0
 40
0.0
 40
0.5
 40
0.5
 40
1.0
 40
1.0
 40
1.0
 40
1.0
 10
196.3172711981675
 20
93.41745689018668
 30
0.0
 10
196.3172711981675
 20
93.41745689018668
 30
0.0
 10
196.3727184394466
 20
93.41745689018668
 30
0.0
 10
196.4737609601603
 20
93.41745689018668
 30
0.0
 10
196.5172703218171
 20
93.41745689018668
 30
0.0
 10
196.5172711981525
 20
93.41745689018668
 30
0.0
  0
LINE
  5
132
330
1F
100
AcDbEntity
  8
0
  6
HIDDEN
 62
     7
370
     0
100
AcDbLine
 10
196.3172717674
 20
123.1948597173
 30
0.0
 11
196.3172717674
 21
127.2289914827
 31
0.0
  0
LINE
  5
133
330
1F
100
AcDbEntity
  8
0
  6
HIDDEN
 62
     7
370
     0
100
AcDbLine
 10
196.3172717674
 20
93.4174576591
 30
0.0
 11
196.3172717674
 21
122.1674572493
 31
0.0
  0
LINE
  5
134
330
1F
100
AcDbEntity
  8
0
  6
HIDDEN
 62
     7
370
     0
100
AcDbLine
 10
184.3172716631
 20
122.1674572493
 30
0.0
 11
188.8109412698
 21
122.1674572493
 31
0.0
  0
SPLINE
  5
135
330
1F
100
AcDbEntity
  8
0
  6
HIDDEN
 62
     7
370
     0
100
AcDbSpline
210
0.0
220
0.0
230
1.0
 70
     8
 71
     3
 72
    56
 73
    52
 74
     0
 42
0.00000001
 43
0.00000001
 12
1.0
 22
0.0
 32
0.0
 13
1.0
 23
0.0
 33
0.0
 40
0.0
 40
0.0
 40
0.0
 40
0.0
 40
0.0625
 40
0.0625
 40
0.125
 40
0.125
 40
0.15625
 40
0.15625
 40
0.1875000000000001
 40
0.1875000000000001
 40
0.2187500000000001
 40
0.2187500000000001
 40
0.2500000000000001
 40
0.2500000000000001
 40
0.2812500000000001
 40
0.2812500000000001
 40
0.3125000000000001
 40
0.3125000000000001
 40
0.3437500000000001
 40
0.3437500000000001
 40
0.3750000000000001
 40
0.3750000000000001
 40
0.4062500000000001
 40
0.4062500000000001
 40
0.4375000000000001
 40
0.4375000000000001
 40
0.5
 40
0.5
 40
0.5625
 40
0.5625
 40
0.625
 40
0.625
 40
0.6875
 40
0.6875
 40
0.71875
 40
0.71875
 40
0.75
 40
0.75
 40
0.7812500000000001
 40
0.7812500000000001
 40
0.8125000000000001
 40
0.8125000000000001
 40
0.8437500000000001
 40
0.8437500000000001
 40
0.8750000000000001
 40
0.8750000000000001
 40
0.9062500000000001
 40
0.9062500000000001
 40
0.9375000000000001
 40
0.9375000000000001
 40
1.0
 40
1.0
 40
1.0
 40
1.0
 10
197.3172711981678
 20
103.8770106271864
 30
0.0
 10
197.4695453907727
 20
103.6753998154105
 30
0.0
 10
197.6516453944308
 20
103.5024603849221
 30
0.0
 10
198.0751620500454
 20
103.2111661543714
 30
0.0
 10
198.3086710214809
 20
103.098903813129
 30
0.0
 10
198.6844186973911
 20
102.9825846214531
 30
0.0
 10
198.8140011327549
 20
102.9527417380704
 30
0.0
 10
199.0733913281285
 20
102.9124121216559
 30
0.0
 10
199.2043161376866
 20
102.9015430442368
 30
0.0
 10
199.4686605528335
 20
102.8986013831493
 30
0.0
 10
199.6025393440941
 20
102.9067724823831
 30
0.0
 10
199.8633159483138
 20
102.9416356606483
 30
0.0
 10
199.991401956205
 20
102.9682354239227
 30
0.0
 10
200.2429743360735
 20
103.0398991688096
 30
0.0
 10
200.367256823828
 20
103.0854569171275
 30
0.0
 10
200.6030147793518
 20
103.192563536408
 30
0.0
 10
200.7153831363947
 20
103.2542323451009
 30
0.0
 10
200.9292143049267
 20
103.3939137332053
 30
0.0
 10
201.0314612163629
 20
103.4727350239898
 30
0.0
 10
201.2189781003543
 20
103.6428996158192
 30
0.0
 10
201.3046502868142
 20
103.7342673772675
 30
0.0
 10
201.4600668294142
 20
103.9296731871903
 30
0.0
 10
201.5303034852595
 20
104.0346615510284
 30
0.0
 10
201.651272886029
 20
104.2534610259118
 30
0.0
 10
201.7018729151255
 20
104.3666011315942
 30
0.0
 10
201.824670617342
 20
104.7172727287635
 30
0.0
 10
201.8673030712059
 20
104.9689033575769
 30
0.0
 10
201.8672392883496
 20
105.4690263930117
 30
0.0
 10
201.8245324450724
 20
105.7247876974429
 30
0.0
 10
201.6606477839926
 20
106.2069454681238
 30
0.0
 10
201.5372346154879
 20
106.4401541936739
 30
0.0
 10
201.2264529926895
 20
106.854157001304
 30
0.0
 10
201.0350746355286
 20
107.0404210129392
 30
0.0
 10
200.714743178031
 20
107.2670830436724
 30
0.0
 10
200.6023575252473
 20
107.3342742230258
 30
0.0
 10
200.3661368820489
 20
107.4514585391836
 30
0.0
 10
200.2419539745399
 20
107.5013315087709
 30
0.0
 10
199.9907772661313
 20
107.5799183801937
 30
0.0
 10
199.8627319826858
 20
107.6092343613479
 30
0.0
 10
199.6016825456994
 20
107.6476728095649
 30
0.0
 10
199.4677130145739
 20
107.6566481346227
 30
0.0
 10
199.2037238032762
 20
107.6533212946555
 30
0.0
 10
199.0728085048621
 20
107.6412939877877
 30
0.0
 10
198.8131221386249
 20
107.596672474921
 30
0.0
 10
198.6832430663711
 20
107.563619387019
 30
0.0
 10
198.4332391970132
 20
107.4784714675612
 30
0.0
 10
198.3127163539374
 20
107.4265220856145
 30
0.0
 10
198.0804614709768
 20
107.3043199166167
 30
0.0
 10
197.9677938391933
 20
107.2333207226006
 30
0.0
 10
197.6513893348563
 20
106.997482014178
 30
0.0
 10
197.4695473034774
 20
106.812111149527
 30
0.0
 10
197.3172711981673
 20
106.5987609081554
 30
0.0
  0
LINE
  5
136
330
1F
100
AcDbEntity
  8
0
  6
HIDDEN
 62
     7
370
     0
100
AcDbLine
 10
176.3672711982
 20
94.1102554838
 30
0.0
 11
176.3672711982
 21
126.5118432979
 31
0.0
  0
LINE
  5
137
330
1F
100
AcDbEntity
  8
0
  6
HIDDEN
 62
     7
370
     0
100
AcDbLine
 10
174.3672711032
 20
125.4211574609
 30
0.0
 11
174.3672711032
 21
95.2137563194
 31
0.0
  0
SPLINE
  5
138
330
1F
100
AcDbEntity
  8
0
  6
HIDDEN
 62
     7
370
     0
100
AcDbSpline
210
0.0
220
0.0
230
1.0
 70
     8
 71
     3
 72
     8
 73
     4
 74
     0
 42
0.00000001
 43
0.00000001
 12
1.0
 22
0.0
 32
0.0
 13
1.0
 23
0.0
 33
0.0
 40
0.0
 40
0.0
 40
0.0
 40
0.0
 40
1.0
 40
1.0
 40
1.0
 40
1.0
 10
157.4087550485985
 20
97.61427919064312
 30
0.0
 10
157.4228894932266
 20
97.56348286700987
 30
0.0
 10
157.4459468683752
 20
97.51424411644963
 30
0.0
 10
157.4762711981676
 20
97.4663900126304
 30
0.0
  0
SPLINE
  5
139
330
1F
100
AcDbEntity
  8
0
  6
HIDDEN
 62
     7
370
     0
100
AcDbSpline
210
0.0
220
0.0
230
1.0
 70
     8
 71
     3
 72
    10
 73
     6
 74
     0
 42
0.00000001
 43
0.00000001
 12
1.0
 22
0.0
 32
0.0
 13
1.0
 23
0.0
 33
0.0
 40
0.0
 40
0.0
 40
0.0
 40
0.0
 40
0.5
 40
0.5
 40
1.0
 40
1.0
 40
1.0
 40
1.0
 10
157.4762711981676
 20
97.46639001263041
 30
0.0
 10
157.6916302287249
 20
97.47340284360094
 30
0.0
 10
157.9060715670489
 20
97.48217756725623
 30
0.0
 10
158.3310627856694
 20
97.50723074480405
 30
0.0
 10
158.5424355173921
 20
97.5219165776044
 30
0.0
 10
158.746447806469
 20
97.55083476310917
 30
0.0
  0
SPLINE
  5
13A
330
1F
100
AcDbEntity
  8
0
  6
HIDDEN
 62
     7
370
     0
100
AcDbSpline
210
0.0
220
0.0
230
1.0
 70
     8
 71
     3
 72
    10
 73
     6
 74
     0
 42
0.00000001
 43
0.00000001
 12
1.0
 22
0.0
 32
0.0
 13
1.0
 23
0.0
 33
0.0
 40
0.0
 40
0.0
 40
0.0
 40
0.0
 40
0.5
 40
0.5
 40
1.0
 40
1.0
 40
1.0
 40
1.0
 10
158.746447806469
 20
97.55083476310917
 30
0.0
 10
159.2190178634672
 20
97.61782027968813
 30
0.0
 10
159.7045803454609
 20
97.67599809548808
 30
0.0
 10
160.6809582391261
 20
97.78286383879345
 30
0.0
 10
161.1729564582332
 20
97.83144927009872
 30
0.0
 10
161.6672711981674
 20
97.87708684267568
 30
0.0
  0
SPLINE
  5
13B
330
1F
100
AcDbEntity
  8
0
  6
HIDDEN
 62
     7
370
     0
100
AcDbSpline
210
0.0
220
0.0
230
1.0
 70
     8
 71
     3
 72
    14
 73
    10
 74
     0
 42
0.00000001
 43
0.00000001
 12
1.0
 22
0.0
 32
0.0
 13
1.0
 23
0.0
 33
0.0
 40
0.0
 40
0.0
 40
0.0
 40
0.0
 40
0.1249999999999987
 40
0.1249999999999987
 40
0.2499999999999973
 40
0.2499999999999973
 40
0.4999999999999977
 40
0.4999999999999977
 40
1.0
 40
1.0
 40
1.0
 40
1.0
 10
161.6672711981675
 20
97.87708684267567
 30
0.0
 10
161.7162835209789
 20
97.88161190183084
 30
0.0
 10
161.7690897459743
 20
97.87349251627631
 30
0.0
 10
161.8541568377038
 20
97.84316244112489
 30
0.0
 10
161.8887410230446
 20
97.82250748404839
 30
0.0
 10
161.9772967083819
 20
97.75797136072158
 30
0.0
 10
162.0182324097031
 20
97.71073318066895
 30
0.0
 10
162.122112936606
 20
97.57093707938525
 30
0.0
 10
162.1653367360381
 20
97.47705214051594
 30
0.0
 10
162.1995361053106
 20
97.38708102730195
 30
0.0
  0
SPLINE
  5
13C
330
1F
100
AcDbEntity
  8
0
  6
HIDDEN
 62
     7
370
     0
100
AcDbSpline
210
0.0
220
0.0
230
1.0
 70
     8
 71
     3
 72
    12
 73
     8
 74
     0
 42
0.00000001
 43
0.00000001
 12
1.0
 22
0.0
 32
0.0
 13
1.0
 23
0.0
 33
0.0
 40
0.0
 40
0.0
 40
0.0
 40
0.0
 40
0.2500000000000005
 40
0.2500000000000005
 40
0.500000000000001
 40
0.500000000000001
 40
1.0
 40
1.0
 40
1.0
 40
1.0
 10
162.1995361053107
 20
97.38708102730195
 30
0.0
 10
162.2249603222046
 20
97.32019543422815
 30
0.0
 10
162.2655721617739
 20
97.25574694454453
 30
0.0
 10
162.350173308046
 20
97.13074628446668
 30
0.0
 10
162.3942701043316
 20
97.07022753927455
 30
0.0
 10
162.5103392128176
 20
96.89402148316614
 30
0.0
 10
162.5672711981675
 20
96.78362706819435
 30
0.0
 10
162.5672711981675
 20
96.6807101921012
 30
0.0
  0
LINE
  5
13D
330
1F
100
AcDbEntity
  8
0
  6
HIDDEN
 62
     7
370
     0
100
AcDbLine
 10
162.5672713576
 20
96.6807104464
 30
0.0
 11
162.5672713576
 21
95.8049384694
 31
0.0
  0
LINE
  5
13E
330
1F
100
AcDbEntity
  8
0
  6
HIDDEN
 62
     7
370
     0
100
AcDbLine
 10
160.0672709478
 20
124.7047245319
 30
0.0
 11
160.0672709478
 21
123.8749813105
 31
0.0
  0
SPLINE
  5
13F
330
1F
100
AcDbEntity
  8
0
  6
HIDDEN
 62
     7
370
     0
100
AcDbSpline
210
0.0
220
0.0
230
1.0
 70
     8
 71
     3
 72
    20
 73
    16
 74
     0
 42
0.00000001
 43
0.00000001
 12
1.0
 22
0.0
 32
0.0
 13
1.0
 23
0.0
 33
0.0
 40
0.0
 40
0.0
 40
0.0
 40
0.0
 40
0.2500000000000009
 40
0.2500000000000009
 40
0.5000000000000019
 40
0.5000000000000019
 40
0.7500000000000029
 40
0.7500000000000029
 40
0.8750000000000038
 40
0.8750000000000038
 40
0.9375000000000042
 40
0.9375000000000042
 40
0.9687500000000021
 40
0.9687500000000021
 40
1.0
 40
1.0
 40
1.0
 40
1.0
 10
160.0672711981685
 20
123.8749810119345
 30
0.0
 10
160.0672711981685
 20
123.8143716122372
 30
0.0
 10
160.0418761785916
 20
123.7485456468336
 30
0.0
 10
159.9555829928096
 20
123.614497877487
 30
0.0
 10
159.8949470141264
 20
123.5458025193452
 30
0.0
 10
159.7468452199051
 20
123.4054039676908
 30
0.0
 10
159.6600756131265
 20
123.3337004631094
 30
0.0
 10
159.5114378177973
 20
123.2275370613606
 30
0.0
 10
159.4591486009111
 20
123.192008712729
 30
0.0
 10
159.3683847726012
 20
123.1423047822135
 30
0.0
 10
159.3360187801492
 20
123.1260437841984
 30
0.0
 10
159.2783296244829
 20
123.1069312158525
 30
0.0
 10
159.2573425965955
 20
123.1015400737709
 30
0.0
 10
159.212053617605
 20
123.0958027053784
 30
0.0
 10
159.1890393487665
 20
123.0958254390318
 30
0.0
 10
159.1672711981669
 20
123.0982507488447
 30
0.0
  0
SPLINE
  5
140
330
1F
100
AcDbEntity
  8
0
  6
HIDDEN
 62
     7
370
     0
100
AcDbSpline
210
0.0
220
0.0
230
1.0
 70
     8
 71
     3
 72
    12
 73
     8
 74
     0
 42
0.00000001
 43
0.00000001
 12
1.0
 22
0.0
 32
0.0
 13
1.0
 23
0.0
 33
0.0
 40
0.0
 40
0.0
 40
0.0
 40
0.0
 40
0.2500000000000015
 40
0.2500000000000015
 40
0.500000000000003
 40
0.500000000000003
 40
1.0
 40
1.0
 40
1.0
 40
1.0
 10
159.1672711981676
 20
123.0982507488459
 30
0.0
 10
159.0252287949783
 20
123.1140764770221
 30
0.0
 10
158.8811106884742
 20
123.1250976107974
 30
0.0
 10
158.5913561748017
 20
123.1436339726645
 30
0.0
 10
158.4456142714429
 20
123.1509046784003
 30
0.0
 10
158.0069340322631
 20
123.1693655287283
 30
0.0
 10
157.7125584161919
 20
123.1772443955519
 30
0.0
 10
157.4172711981675
 20
123.183037437165
 30
0.0
  0
SPLINE
  5
141
330
1F
100
AcDbEntity
  8
0
  6
HIDDEN
 62
     7
370
     0
100
AcDbSpline
210
0.0
220
0.0
230
1.0
 70
     8
 71
     3
 72
     8
 73
     4
 74
     0
 42
0.00000001
 43
0.00000001
 12
1.0
 22
0.0
 32
0.0
 13
1.0
 23
0.0
 33
0.0
 40
0.0
 40
0.0
 40
0.0
 40
0.0
 40
1.0
 40
1.0
 40
1.0
 40
1.0
 10
157.4172711981675
 20
123.183037437165
 30
0.0
 10
157.3715062904782
 20
123.1215170580062
 30
0.0
 10
157.3371191688482
 20
123.0576221982568
 30
0.0
 10
157.3181039151753
 20
122.990892253213
 30
0.0
  0
ELLIPSE
  5
142
330
1F
100
AcDbEntity
  8
0
  6
HIDDEN
 62
     7
370
     0
100
AcDbEllipse
 10
143.8611505596
 20
110.9565673415
 30
0.0
 11
13.369636111343
 21
13.36754752639483
 31
0.0
210
0.0
220
0.0
230
1.0
 40
0.1761188775
 41
5.933076931846603
 42
5.976720052691206
  0
ELLIPSE
  5
143
330
1F
100
AcDbEntity
  8
0
  6
HIDDEN
 62
     7
370
     0
100
AcDbEllipse
 10
143.9405289903
 20
109.6781592124
 30
0.0
 11
13.37355272666622
 21
-13.37146352987013
 31
0.0
210
0.0
220
0.0
230
1.0
 40
0.1761188775
 41
0.3023035477142494
 42
0.3822730435340282
  0
SPLINE
  5
144
330
1F
100
AcDbEntity
  8
0
  6
HIDDEN
 62
     7
370
     0
100
AcDbSpline
210
0.0
220
0.0
230
1.0
 70
     8
 71
     3
 72
    11
 73
     7
 74
     0
 42
0.00000001
 43
0.00000001
 12
1.0
 22
0.0
 32
0.0
 13
1.0
 23
0.0
 33
0.0
 40
0.0
 40
0.0
 40
0.0
 40
0.0
 40
0.25946967059813
 40
0.3326084702733429
 40
0.6701731790694504
 40
1.0
 40
1.0
 40
1.0
 40
1.0
 10
168.016262790396
 20
95.61870189412535
 30
0.0
 10
167.9507024946099
 20
95.61021047826954
 30
0.0
 10
167.8666621917806
 20
95.59932551883769
 30
0.0
 10
167.6897885183427
 20
95.5767173857454
 30
0.0
 10
167.5879048652085
 20
95.56012190572197
 30
0.0
 10
167.5637509966572
 20
95.55702214681844
 30
0.0
 10
167.5518140850804
 20
95.55549023701847
 30
0.0
  0
SPLINE
  5
145
330
1F
100
AcDbEntity
  8
0
  6
HIDDEN
 62
     7
370
     0
100
AcDbSpline
210
0.0
220
0.0
230
1.0
 70
     8
 71
     3
 72
    22
 73
    18
 74
     0
 42
0.00000001
 43
0.00000001
 12
1.0
 22
0.0
 32
0.0
 13
1.0
 23
0.0
 33
0.0
 40
0.0
 40
0.0
 40
0.0
 40
0.0
 40
0.0022119868471047
 40
0.0799684029100432
 40
0.1575272209552896
 40
0.2358577835459358
 40
0.3136122147965963
 40
0.3900719927085506
 40
0.4660893518218608
 40
0.5423589988219177
 40
0.6186534337227994
 40
0.6937723094550358
 40
0.7691592430128827
 40
0.8459429920566703
 40
0.9207581226786524
 40
0.9231032778326366
 40
1.0
 40
1.0
 40
1.0
 40
1.0
 10
173.1335492527327
 20
95.27585877134503
 30
0.0
 10
173.1340593675341
 20
95.27573607503447
 30
0.0
 10
173.1525011887491
 20
95.27130032171569
 30
0.0
 10
173.0888542673344
 20
95.28709769582642
 30
0.0
 10
172.9364221693881
 20
95.32394423928469
 30
0.0
 10
172.6698378298215
 20
95.38423385077746
 30
0.0
 10
172.3230091038337
 20
95.45669949393292
 30
0.0
 10
171.8992120458104
 20
95.5330744769941
 30
0.0
 10
171.415899241244
 20
95.6043681676857
 30
0.0
 10
170.887149793562
 20
95.6622476735211
 30
0.0
 10
170.3379579694405
 20
95.7019966881825
 30
0.0
 10
169.7884746929165
 20
95.71883113320858
 30
0.0
 10
169.2629507498368
 20
95.71357786506029
 30
0.0
 10
168.7747183433822
 20
95.69084723190247
 30
0.0
 10
168.507543701638
 20
95.66670211222252
 30
0.0
 10
168.2231946499766
 20
95.64473625457617
 30
0.0
 10
168.1181746928074
 20
95.63152356018965
 30
0.0
 10
168.016262790396
 20
95.61870189412535
 30
0.0
  0
SPLINE
  5
146
330
1F
100
AcDbEntity
  8
0
  6
HIDDEN
 62
     7
370
     0
100
AcDbSpline
210
0.0
220
0.0
230
1.0
 70
     8
 71
     3
 72
    22
 73
    18
 74
     0
 42
0.00000001
 43
0.00000001
 12
1.0
 22
0.0
 32
0.0
 13
1.0
 23
0.0
 33
0.0
 40
0.0
 40
0.0
 40
0.0
 40
0.0
 40
0.0769496979898115
 40
0.0780938880527605
 40
0.1541394023339273
 40
0.230948519945297
 40
0.3064555519845071
 40
0.3815281636167389
 40
0.4579812553650078
 40
0.5341646018648127
 40
0.6102700516631084
 40
0.6865845638039152
 40
0.7642917144352694
 40
0.8424373723746879
 40
0.9199456372638479
 40
0.9982050360904
 40
0.9999999999999999
 40
0.9999999999999999
 40
0.9999999999999999
 40
0.9999999999999999
 10
168.016144512429
 20
125.0161969850868
 30
0.0
 10
168.1182518072853
 20
125.0034077046075
 30
0.0
 10
168.2218773686869
 20
124.9904282561611
 30
0.0
 10
168.5059349879195
 20
124.9684168171775
 30
0.0
 10
168.7733430608922
 20
124.944280078342
 30
0.0
 10
169.2642426429105
 20
124.9213766003157
 30
0.0
 10
169.789969578577
 20
124.9160603613364
 30
0.0
 10
170.3400362451384
 20
124.9329215036711
 30
0.0
 10
170.8892532750698
 20
124.9728132685885
 30
0.0
 10
171.4181188003098
 20
125.030838923505
 30
0.0
 10
171.9009479995905
 20
125.1021089259527
 30
0.0
 10
172.3244714499665
 20
125.1784209190369
 30
0.0
 10
172.6707305899284
 20
125.2507561298476
 30
0.0
 10
172.9365787723315
 20
125.3109639014602
 30
0.0
 10
173.0899917934211
 20
125.3478753506459
 30
0.0
 10
173.1507517332844
 20
125.3636388225436
 30
0.0
 10
173.1329495661253
 20
125.3591564434152
 30
0.0
 10
173.1325504092715
 20
125.3590559403509
 30
0.0
  0
SPLINE
  5
147
330
1F
100
AcDbEntity
  8
0
  6
HIDDEN
 62
     7
370
     0
100
AcDbSpline
210
0.0
220
0.0
230
1.0
 70
     8
 71
     3
 72
    10
 73
     6
 74
     0
 42
0.00000001
 43
0.00000001
 12
1.0
 22
0.0
 32
0.0
 13
1.0
 23
0.0
 33
0.0
 40
0.0
 40
0.0
 40
0.0
 40
0.0
 40
0.3343825542418548
 40
0.6655473131622539
 40
0.9999999999999999
 40
0.9999999999999999
 40
0.9999999999999999
 40
0.9999999999999999
 10
167.5513484237931
 20
125.0794859419674
 30
0.0
 10
167.5610551012984
 20
125.0779120898848
 30
0.0
 10
167.5803750480226
 20
125.0747795310489
 30
0.0
 10
167.7379464922371
 20
125.0507241445923
 30
0.0
 10
167.9231069620678
 20
125.0277438765388
 30
0.0
 10
168.016144512429
 20
125.0161969850868
 30
0.0
  0
SPLINE
  5
148
330
1F
100
AcDbEntity
  8
0
  6
HIDDEN
 62
     7
370
     0
100
AcDbSpline
210
0.0
220
0.0
230
1.0
 70
     8
 71
     3
 72
    92
 73
    88
 74
     0
 42
0.00000001
 43
0.00000001
 12
1.0
 22
0.0
 32
0.0
 13
1.0
 23
0.0
 33
0.0
 40
0.0
 40
0.0
 40
0.0
 40
0.0
 40
0.0156249999999997
 40
0.0156249999999997
 40
0.0234374999999996
 40
0.0234374999999996
 40
0.0312499999999995
 40
0.0312499999999995
 40
0.0390624999999993
 40
0.0390624999999993
 40
0.0468749999999992
 40
0.0468749999999992
 40
0.0624999999999991
 40
0.0624999999999991
 40
0.0937499999999994
 40
0.0937499999999994
 40
0.1249999999999997
 40
0.1249999999999997
 40
0.1562499999999999
 40
0.1562499999999999
 40
0.1875000000000002
 40
0.1875000000000002
 40
0.2187500000000005
 40
0.2187500000000005
 40
0.2500000000000007
 40
0.2500000000000007
 40
0.2812500000000011
 40
0.2812500000000011
 40
0.3125000000000013
 40
0.3125000000000013
 40
0.3437500000000017
 40
0.3437500000000017
 40
0.3750000000000019
 40
0.3750000000000019
 40
0.4375000000000027
 40
0.4375000000000027
 40
0.4687500000000032
 40
0.4687500000000032
 40
0.4765625000000032
 40
0.4765625000000032
 40
0.4843750000000033
 40
0.4843750000000033
 40
0.4921875000000033
 40
0.4921875000000033
 40
0.5000000000000033
 40
0.5000000000000033
 40
0.5156250000000032
 40
0.5156250000000032
 40
0.531250000000003
 40
0.531250000000003
 40
0.5625000000000029
 40
0.5625000000000029
 40
0.5937500000000027
 40
0.5937500000000027
 40
0.6250000000000024
 40
0.6250000000000024
 40
0.6562500000000023
 40
0.6562500000000023
 40
0.6875000000000021
 40
0.6875000000000021
 40
0.7187500000000019
 40
0.7187500000000019
 40
0.7500000000000017
 40
0.7500000000000017
 40
0.7812500000000016
 40
0.7812500000000016
 40
0.8125000000000013
 40
0.8125000000000013
 40
0.8437500000000011
 40
0.8437500000000011
 40
0.875000000000001
 40
0.875000000000001
 40
0.9062500000000008
 40
0.9062500000000008
 40
0.9375000000000006
 40
0.9375000000000006
 40
0.9531250000000004
 40
0.9531250000000004
 40
0.9609375000000004
 40
0.9609375000000004
 40
0.9687500000000004
 40
0.9687500000000004
 40
0.9765625000000004
 40
0.9765625000000004
 40
0.9843750000000003
 40
0.9843750000000003
 40
1.0
 40
1.0
 40
1.0
 40
1.0
 10
197.7214912000563
 20
115.4207087880526
 30
0.0
 10
197.7581699015562
 20
115.4444161651813
 30
0.0
 10
197.7963466929178
 20
115.4657247696362
 30
0.0
 10
197.8515555012707
 20
115.4894709622285
 30
0.0
 10
197.8696224293346
 20
115.4960620949433
 30
0.0
 10
197.9008155518252
 20
115.5019857447973
 30
0.0
 10
197.914311339079
 20
115.5012426769198
 30
0.0
 10
197.9173258245006
 20
115.4766646394384
 30
0.0
 10
197.9056109956532
 20
115.4528023822645
 30
0.0
 10
197.8740280039424
 20
115.3992768716826
 30
0.0
 10
197.8551384925136
 20
115.370280928857
 30
0.0
 10
197.797496240527
 20
115.2806406574399
 30
0.0
 10
197.7571811616379
 20
115.2168941866694
 30
0.0
 10
197.6422457481558
 20
115.0208701834701
 30
0.0
 10
197.5721916474066
 20
114.8830007467184
 30
0.0
 10
197.4510530510624
 20
114.5940859849205
 30
0.0
 10
197.3996042793691
 20
114.4429452051192
 30
0.0
 10
197.3190579779912
 20
114.1252085405438
 30
0.0
 10
197.2907306552887
 20
113.9612049920848
 30
0.0
 10
197.2630340833907
 20
113.6269141120531
 30
0.0
 10
197.2636662947792
 20
113.4536335992014
 30
0.0
 10
197.3010448461511
 20
113.1097074534854
 30
0.0
 10
197.337545543569
 20
112.9383437938811
 30
0.0
 10
197.4536308046557
 20
112.6050472755754
 30
0.0
 10
197.5313978652294
 20
112.4482923121638
 30
0.0
 10
197.7296193050176
 20
112.1621286812648
 30
0.0
 10
197.8449970974049
 20
112.0397468158967
 30
0.0
 10
198.1074525782834
 20
111.8357758859208
 30
0.0
 10
198.247543426227
 20
111.7596288141269
 30
0.0
 10
198.5412357832351
 20
111.6518477889991
 30
0.0
 10
198.6887170578437
 20
111.6223181268649
 30
0.0
 10
198.9847427231733
 20
111.6014887531835
 30
0.0
 10
199.132834343861
 20
111.6108479912491
 30
0.0
 10
199.5599410678525
 20
111.6857549744582
 30
0.0
 10
199.8319778163404
 20
111.7987351866597
 30
0.0
 10
200.2047783913199
 20
112.0324626770757
 30
0.0
 10
200.3232226294992
 20
112.1213075590759
 30
0.0
 10
200.4711328118929
 20
112.2473855988931
 30
0.0
 10
200.5006928583416
 20
112.2733085845291
 30
0.0
 10
200.5614373168715
 20
112.3270373911714
 30
0.0
 10
200.5925815191061
 20
112.3549670950696
 30
0.0
 10
200.6592036295445
 20
112.4111217477602
 30
0.0
 10
200.6950705603388
 20
112.4385941407697
 30
0.0
 10
200.7586149513192
 20
112.4810914321815
 30
0.0
 10
200.7860827175207
 20
112.4971940333825
 30
0.0
 10
200.8626447055526
 20
112.5421029180864
 30
0.0
 10
200.9065180327664
 20
112.5676103001794
 30
0.0
 10
200.9901124066006
 20
112.6216951722777
 30
0.0
 10
201.0292081867976
 20
112.6495515537617
 30
0.0
 10
201.139092409815
 20
112.7372116514126
 30
0.0
 10
201.2028442757718
 20
112.8011766895191
 30
0.0
 10
201.3122630361399
 20
112.9435347697722
 30
0.0
 10
201.3578575936974
 20
113.0217684085334
 30
0.0
 10
201.427827080112
 20
113.1956517780635
 30
0.0
 10
201.4519128796175
 20
113.2913755842836
 30
0.0
 10
201.4719961021785
 20
113.4970158287237
 30
0.0
 10
201.4682245795256
 20
113.6089315208106
 30
0.0
 10
201.4255310537707
 20
113.847126485757
 30
0.0
 10
201.3871844758612
 20
113.9722109868994
 30
0.0
 10
201.2668290105625
 20
114.2363959572452
 30
0.0
 10
201.1872668870832
 20
114.3697318987668
 30
0.0
 10
200.9857976365411
 20
114.6356151297118
 30
0.0
 10
200.8687609815711
 20
114.7616150985333
 30
0.0
 10
200.607391925714
 20
114.9964445176945
 30
0.0
 10
200.4679823688597
 20
115.100798547594
 30
0.0
 10
200.182163549845
 20
115.2831338789324
 30
0.0
 10
200.0394818202468
 20
115.3590379727948
 30
0.0
 10
199.7545322371213
 20
115.4873628910366
 30
0.0
 10
199.6137510047338
 20
115.5388172388896
 30
0.0
 10
199.343339275397
 20
115.6189015866505
 30
0.0
 10
199.2122476522441
 20
115.6481148458528
 30
0.0
 10
198.9574238473003
 20
115.6881292037568
 30
0.0
 10
198.8354319469584
 20
115.698549491391
 30
0.0
 10
198.6040350556256
 20
115.7035576627336
 30
0.0
 10
198.4937390394244
 20
115.6976519641789
 30
0.0
 10
198.341129068517
 20
115.6825226828676
 30
0.0
 10
198.2919202033108
 20
115.6758569596082
 30
0.0
 10
198.2297681141067
 20
115.672238098168
 30
0.0
 10
198.2106296394132
 20
115.6719879928636
 30
0.0
 10
198.1883942415209
 20
115.6834333691638
 30
0.0
 10
198.1887495997389
 20
115.6979234082389
 30
0.0
 10
198.2132113977615
 20
115.7387020600608
 30
0.0
 10
198.2337982294977
 20
115.7629197002676
 30
0.0
 10
198.2776006132962
 20
115.8101871566199
 30
0.0
 10
198.301653755708
 20
115.8339874551535
 30
0.0
 10
198.3767364922808
 20
115.9043968322923
 30
0.0
 10
198.4307782902843
 20
115.9500425380984
 30
0.0
 10
198.4866705476374
 20
115.9933087434899
 30
0.0
  0
SPLINE
  5
149
330
1F
100
AcDbEntity
  8
0
  6
HIDDEN
 62
     7
370
     0
100
AcDbSpline
210
0.0
220
0.0
230
1.0
 70
     8
 71
     3
 72
    10
 73
     6
 74
     0
 42
0.00000001
 43
0.00000001
 12
1.0
 22
0.0
 32
0.0
 13
1.0
 23
0.0
 33
0.0
 40
0.0
 40
0.0
 40
0.0
 40
0.0
 40
0.5
 40
0.5
 40
1.0
 40
1.0
 40
1.0
 40
1.0
 10
198.4866705476372
 20
115.9933087434891
 30
0.0
 10
198.3636439854708
 20
115.9020328631805
 30
0.0
 10
198.2385390383606
 20
115.8087769290145
 30
0.0
 10
197.9831696449867
 20
115.6181186185025
 30
0.0
 10
197.8523171752376
 20
115.5202362315861
 30
0.0
 10
197.7214912000565
 20
115.4207087880523
 30
0.0
  0
LWPOLYLINE
  5
14A
330
1F
100
AcDbEntity
  8
0
  6
HIDDEN
 62
     7
370
     0
100
AcDbPolyline
 90
       29
 70
   128
 43
0.0
 10
196.1968759729
 20
114.2869776863
 10
196.3204699291
 20
114.3134356293
 10
196.5007981939
 20
114.254139718
 10
196.7288213505
 20
114.1120620354
 10
196.9931027575
 20
113.894327665
 10
197.28039342
 20
113.6118545014
 10
197.5762839152
 20
113.2788070294
 10
197.8659382744
 20
112.9118854928
 10
198.1348334534
 20
112.5294891003
 10
198.3694839014
 20
112.1507926195
 10
198.5581232889
 20
111.794785485
 10
198.6912949665
 20
111.4793194042
 10
198.762317626
 20
111.2202131239
 10
198.7676336153
 20
111.0304593507
 10
198.7069728507
 20
110.9195731746
 10
198.5833788945
 20
110.8931148823
 10
198.4030506296
 20
110.9524111429
 10
198.1750274731
 20
111.0944886508
 10
197.9107460661
 20
111.3122230212
 10
197.6234554036
 20
111.5946960685
 10
197.3275649084
 20
111.9277436568
 10
197.0379105492
 20
112.2946649606
 10
196.7690153701
 20
112.677061586
 10
196.5343649222
 20
113.0557580668
 10
196.3457255347
 20
113.4117652013
 10
196.2125538571
 20
113.7272313985
 10
196.1415311976
 20
113.9863376788
 10
196.1362152083
 20
114.1760913937
 10
196.1968759729
 20
114.2869776863
  0
SPLINE
  5
14B
330
1F
100
AcDbEntity
  8
0
  6
HIDDEN
 62
     7
370
     0
100
AcDbSpline
210
0.0
220
0.0
230
1.0
 70
     8
 71
     3
 72
    18
 73
    14
 74
     0
 42
0.00000001
 43
0.00000001
 12
1.0
 22
0.0
 32
0.0
 13
1.0
 23
0.0
 33
0.0
 40
0.0
 40
0.0
 40
0.0
 40
0.0
 40
0.2500000000000017
 40
0.2500000000000017
 40
0.3750000000000025
 40
0.3750000000000025
 40
0.5000000000000033
 40
0.5000000000000033
 40
0.6250000000000042
 40
0.6250000000000042
 40
0.750000000000005
 40
0.750000000000005
 40
1.0
 40
1.0
 40
1.0
 40
1.0
 10
201.0017369174602
 20
112.9261726085888
 30
0.0
 10
200.960779829689
 20
112.8606713709171
 30
0.0
 10
200.9173944326706
 20
112.7968515531827
 30
0.0
 10
200.8456215891868
 20
112.7030496367407
 30
0.0
 10
200.8206947231835
 20
112.6722083354321
 30
0.0
 10
200.7660874179062
 20
112.6110602473898
 30
0.0
 10
200.7356557395201
 20
112.5799895425825
 30
0.0
 10
200.66912389831
 20
112.5261365507257
 30
0.0
 10
200.6357385326222
 20
112.5061784026888
 30
0.0
 10
200.5748904804412
 20
112.4767799115923
 30
0.0
 10
200.5466295682207
 20
112.466314945071
 30
0.0
 10
200.4636492013749
 20
112.4393842570637
 30
0.0
 10
200.4101220068996
 20
112.4274534260761
 30
0.0
 10
200.3555076613358
 20
112.4179181326574
 30
0.0
  0
SPLINE
  5
14C
330
1F
100
AcDbEntity
  8
0
  6
HIDDEN
 62
     7
370
     0
100
AcDbSpline
210
0.0
220
0.0
230
1.0
 70
     8
 71
     3
 72
     8
 73
     4
 74
     0
 42
0.00000001
 43
0.00000001
 12
1.0
 22
0.0
 32
0.0
 13
1.0
 23
0.0
 33
0.0
 40
0.0
 40
0.0
 40
0.0
 40
0.0
 40
1.0
 40
1.0
 40
1.0
 40
1.0
 10
200.3555076613355
 20
112.4179181326579
 30
0.0
 10
200.5644718673686
 20
112.6035406367451
 30
0.0
 10
200.7790929976114
 20
112.774122184421
 30
0.0
 10
201.00173691746
 20
112.9261726085891
 30
0.0
  0
SPLINE
  5
14D
330
1F
100
AcDbEntity
  8
0
  6
HIDDEN
 62
     7
370
     0
100
AcDbSpline
210
0.0
220
0.0
230
1.0
 70
    11
 71
     3
 72
    50
 73
    46
 74
     0
 42
0.00000001
 43
0.00000001
 12
1.0
 22
0.0
 32
0.0
 13
1.0
 23
0.0
 33
0.0
 40
0.0
 40
0.0
 40
0.0
 40
0.0
 40
0.0625000000000002
 40
0.0625000000000002
 40
0.1250000000000004
 40
0.1250000000000004
 40
0.1562500000000006
 40
0.1562500000000006
 40
0.1875000000000007
 40
0.1875000000000007
 40
0.2187500000000008
 40
0.2187500000000008
 40
0.2500000000000009
 40
0.2500000000000009
 40
0.281250000000001
 40
0.281250000000001
 40
0.3125000000000011
 40
0.3125000000000011
 40
0.3750000000000012
 40
0.3750000000000012
 40
0.4375000000000011
 40
0.4375000000000011
 40
0.5000000000000009
 40
0.5000000000000009
 40
0.5312500000000009
 40
0.5312500000000009
 40
0.5625000000000009
 40
0.5625000000000009
 40
0.5937500000000009
 40
0.5937500000000009
 40
0.6250000000000008
 40
0.6250000000000008
 40
0.6562500000000007
 40
0.6562500000000007
 40
0.6875000000000006
 40
0.6875000000000006
 40
0.7500000000000004
 40
0.7500000000000004
 40
0.8125000000000003
 40
0.8125000000000003
 40
0.8750000000000002
 40
0.8750000000000002
 40
0.9375000000000001
 40
0.9375000000000001
 40
1.0
 40
1.0
 40
1.0
 40
1.0
 10
172.191447926045
 20
97.64464659670679
 30
0.0
 10
172.0451930912434
 20
97.66569912253226
 30
0.0
 10
171.873724454285
 20
97.68798034721428
 30
0.0
 10
171.4805798487751
 20
97.72882183756319
 30
0.0
 10
171.2653356632098
 20
97.74657947248413
 30
0.0
 10
170.9225958766602
 20
97.76485276532773
 30
0.0
 10
170.8043494936047
 20
97.76956270434175
 30
0.0
 10
170.5685704914264
 20
97.77556179940056
 30
0.0
 10
170.4500041817204
 20
97.77691763179638
 30
0.0
 10
170.2115091009198
 20
97.77622321978569
 30
0.0
 10
170.090716707398
 20
97.77412471679436
 30
0.0
 10
169.8556507419328
 20
97.76674156726855
 30
0.0
 10
169.7405952294328
 20
97.7614788039976
 30
0.0
 10
169.5153754746899
 20
97.7482250419491
 30
0.0
 10
169.4042933050877
 20
97.74014596727163
 30
0.0
 10
169.193041858152
 20
97.72221024027661
 30
0.0
 10
169.0926836236513
 20
97.71237400506315
 30
0.0
 10
168.8070396666278
 20
97.68135833664171
 30
0.0
 10
168.636760923032
 20
97.65852664242304
 30
0.0
 10
168.3606097931117
 20
97.61782936809234
 30
0.0
 10
168.2509106067269
 20
97.59950331852016
 30
0.0
 10
168.105367525563
 20
97.5744757192752
 30
0.0
 10
168.0673608901057
 20
97.56747306990775
 30
0.0
 10
168.0672265967478
 20
97.56744884444093
 30
0.0
 10
168.0763443519901
 20
97.56910343169709
 30
0.0
 10
168.1132628975037
 20
97.57568607496994
 30
0.0
 10
168.1412365525285
 20
97.58064231649261
 30
0.0
 10
168.2140081319807
 20
97.59315898919095
 30
0.0
 10
168.2589333701424
 20
97.6007435285044
 30
0.0
 10
168.3659766850979
 20
97.61805178387759
 30
0.0
 10
168.4285447260644
 20
97.62783607567032
 30
0.0
 10
168.5669356288038
 20
97.64824127733638
 30
0.0
 10
168.6431190845783
 20
97.65892623225946
 30
0.0
 10
168.8094748183894
 20
97.68050996983685
 30
0.0
 10
168.9005031208341
 20
97.69149607883799
 30
0.0
 10
169.1871569375069
 20
97.72265316260409
 30
0.0
 10
169.3992089956246
 20
97.74134934964026
 30
0.0
 10
169.8523862715791
 20
97.76809663035574
 30
0.0
 10
170.0870159203191
 20
97.77580223705756
 30
0.0
 10
170.5684394697777
 20
97.77732024455574
 30
0.0
 10
170.8037448400461
 20
97.77113155632338
 30
0.0
 10
171.2636524917217
 20
97.74672622063055
 30
0.0
 10
171.4780810036808
 20
97.72904306670526
 30
0.0
 10
171.8712801884462
 20
97.68827214967263
 30
0.0
 10
172.0451892601114
 20
97.66569967400123
 30
0.0
 10
172.191447926045
 20
97.64464659670679
 30
0.0
  0
SPLINE
  5
14E
330
1F
100
AcDbEntity
  8
0
  6
HIDDEN
 62
     7
370
     0
100
AcDbSpline
210
0.0
220
0.0
230
1.0
 70
    11
 71
     3
 72
    50
 73
    46
 74
     0
 42
0.00000001
 43
0.00000001
 12
1.0
 22
0.0
 32
0.0
 13
1.0
 23
0.0
 33
0.0
 40
0.0
 40
0.0
 40
0.0
 40
0.0
 40
0.0624999999999999
 40
0.0624999999999999
 40
0.1249999999999998
 40
0.1249999999999998
 40
0.1562499999999998
 40
0.1562499999999998
 40
0.1874999999999998
 40
0.1874999999999998
 40
0.2187499999999997
 40
0.2187499999999997
 40
0.2499999999999997
 40
0.2499999999999997
 40
0.2812499999999997
 40
0.2812499999999997
 40
0.3124999999999997
 40
0.3124999999999997
 40
0.3749999999999997
 40
0.3749999999999997
 40
0.4374999999999998
 40
0.4374999999999998
 40
0.4999999999999999
 40
0.4999999999999999
 40
0.53125
 40
0.53125
 40
0.5625
 40
0.5625
 40
0.5937500000000001
 40
0.5937500000000001
 40
0.6250000000000002
 40
0.6250000000000002
 40
0.6562500000000002
 40
0.6562500000000002
 40
0.6875000000000003
 40
0.6875000000000003
 40
0.7500000000000002
 40
0.7500000000000002
 40
0.8125000000000002
 40
0.8125000000000002
 40
0.8750000000000001
 40
0.8750000000000001
 40
0.9375000000000001
 40
0.9375000000000001
 40
1.0
 40
1.0
 40
1.0
 40
1.0
 10
172.191447926045
 20
122.9902671836666
 30
0.0
 10
172.0451930912434
 20
122.9692146578411
 30
0.0
 10
171.873724454285
 20
122.9469334331591
 30
0.0
 10
171.4805798487751
 20
122.9060919428102
 30
0.0
 10
171.2653356632098
 20
122.8883343078892
 30
0.0
 10
170.9225958766602
 20
122.8700610150456
 30
0.0
 10
170.8043494936047
 20
122.8653510760316
 30
0.0
 10
170.5685704914263
 20
122.8593519809728
 30
0.0
 10
170.4500041817204
 20
122.857996148577
 30
0.0
 10
170.2115091009199
 20
122.8586905605876
 30
0.0
 10
170.090716707398
 20
122.860789063579
 30
0.0
 10
169.8556507419328
 20
122.8681722131048
 30
0.0
 10
169.7405952294328
 20
122.8734349763757
 30
0.0
 10
169.5153754746899
 20
122.8866887384243
 30
0.0
 10
169.4042933050877
 20
122.8947678131017
 30
0.0
 10
169.193041858152
 20
122.9127035400967
 30
0.0
 10
169.0926836236513
 20
122.9225397753102
 30
0.0
 10
168.8070396666278
 20
122.9535554437316
 30
0.0
 10
168.636760923032
 20
122.9763871379503
 30
0.0
 10
168.3606097931117
 20
123.017084412281
 30
0.0
 10
168.2509106067269
 20
123.0354104618532
 30
0.0
 10
168.105367525563
 20
123.0604380610982
 30
0.0
 10
168.0673608901057
 20
123.0674407104656
 30
0.0
 10
168.0672265967479
 20
123.0674649359324
 30
0.0
 10
168.0763443519901
 20
123.0658103486763
 30
0.0
 10
168.1132628975037
 20
123.0592277054034
 30
0.0
 10
168.1412365525285
 20
123.0542714638807
 30
0.0
 10
168.2140081319807
 20
123.0417547911824
 30
0.0
 10
168.2589333701424
 20
123.0341702518689
 30
0.0
 10
168.3659766850979
 20
123.0168619964958
 30
0.0
 10
168.4285447260644
 20
123.007077704703
 30
0.0
 10
168.5669356288038
 20
122.986672503037
 30
0.0
 10
168.6431190845783
 20
122.9759875481139
 30
0.0
 10
168.8094748183894
 20
122.9544038105365
 30
0.0
 10
168.9005031208341
 20
122.9434177015354
 30
0.0
 10
169.1871569375069
 20
122.9122606177693
 30
0.0
 10
169.3992089956246
 20
122.8935644307331
 30
0.0
 10
169.8523862715791
 20
122.8668171500176
 30
0.0
 10
170.0870159203191
 20
122.8591115433158
 30
0.0
 10
170.5684394697777
 20
122.8575935358176
 30
0.0
 10
170.8037448400461
 20
122.86378222405
 30
0.0
 10
171.2636524917217
 20
122.8881875597428
 30
0.0
 10
171.4780810036808
 20
122.9058707136681
 30
0.0
 10
171.8712801884462
 20
122.9466416307007
 30
0.0
 10
172.0451892601114
 20
122.9692141063721
 30
0.0
 10
172.191447926045
 20
122.9902671836666
 30
0.0
  0
SPLINE
  5
14F
330
1F
100
AcDbEntity
  8
0
  6
HIDDEN
 62
     7
370
     0
100
AcDbSpline
210
0.0
220
0.0
230
1.0
 70
    11
 71
     3
 72
    14
 73
    10
 74
     0
 42
0.00000001
 43
0.00000001
 12
1.0
 22
0.0
 32
0.0
 13
1.0
 23
0.0
 33
0.0
 40
0.0
 40
0.0
 40
0.0
 40
0.0
 40
0.2499999999999999
 40
0.2499999999999999
 40
0.4999999999999998
 40
0.4999999999999998
 40
0.7499999999999999
 40
0.7499999999999999
 40
1.0
 40
1.0
 40
1.0
 40
1.0
 10
172.191447926045
 20
122.9902671836666
 30
0.0
 10
172.3453238217479
 20
123.0124167165186
 30
0.0
 10
172.4632043893769
 20
123.0252287835922
 30
0.0
 10
172.6262681792896
 20
123.0415814924226
 30
0.0
 10
172.6671846979132
 20
123.0447572551405
 30
0.0
 10
172.6673574304294
 20
123.0447719573172
 30
0.0
 10
172.6264296721956
 20
123.0415924063238
 30
0.0
 10
172.4640923067301
 20
123.0253230748463
 30
0.0
 10
172.3453220386239
 20
123.0124164598483
 30
0.0
 10
172.191447926045
 20
122.9902671836666
 30
0.0
  0
SPLINE
  5
150
330
1F
100
AcDbEntity
  8
0
  6
HIDDEN
 62
     7
370
     0
100
AcDbSpline
210
0.0
220
0.0
230
1.0
 70
    11
 71
     3
 72
    14
 73
    10
 74
     0
 42
0.00000001
 43
0.00000001
 12
1.0
 22
0.0
 32
0.0
 13
1.0
 23
0.0
 33
0.0
 40
0.0
 40
0.0
 40
0.0
 40
0.0
 40
0.25
 40
0.25
 40
0.5
 40
0.5
 40
0.75
 40
0.75
 40
1.0
 40
1.0
 40
1.0
 40
1.0
 10
172.191447926045
 20
97.64464659670679
 30
0.0
 10
172.3453238217479
 20
97.62249706385481
 30
0.0
 10
172.4632043893769
 20
97.60968499678116
 30
0.0
 10
172.6262681792896
 20
97.59333228795073
 30
0.0
 10
172.6671846979132
 20
97.59015652523286
 30
0.0
 10
172.6673574304294
 20
97.59014182305614
 30
0.0
 10
172.6264296721956
 20
97.59332137404955
 30
0.0
 10
172.4640923067301
 20
97.60959070552704
 30
0.0
 10
172.3453220386239
 20
97.62249732052503
 30
0.0
 10
172.191447926045
 20
97.64464659670679
 30
0.0
  0
LINE
  5
151
330
1F
100
AcDbEntity
  8
0
  6
HIDDEN
 62
     7
370
     0
100
AcDbLine
 10
176.3672711982
 20
99.8174570317
 30
0.0
 11
176.3672711982
 21
120.8044042627
 31
0.0
  0
LINE
  5
152
330
1F
100
AcDbEntity
  8
0
  6
HIDDEN
 62
     7
370
     0
100
AcDbLine
 10
164.3699207066
 20
120.8174567486
 30
0.0
 11
164.3699207066
 21
99.8174570317
 31
0.0
  0
ARC
  5
153
330
1F
100
AcDbEntity
  8
0
  6
HIDDEN
 62
     7
370
     0
100
AcDbCircle
 10
199.4179487859
 20
114.2749516764
 30
0.0
 40
2.080285838904439
100
AcDbArc
 50
296.7877811261
 51
319.5817570851
  0
SPLINE
  5
154
330
1F
100
AcDbEntity
  8
0
  6
HIDDEN
 62
     7
370
     0
100
AcDbSpline
210
0.0
220
0.0
230
1.0
 70
     8
 71
     3
 72
    12
 73
     8
 74
     0
 42
0.00000001
 43
0.00000001
 12
1.0
 22
0.0
 32
0.0
 13
1.0
 23
0.0
 33
0.0
 40
0.0
 40
0.0
 40
0.0
 40
0.0
 40
0.4999999999999999
 40
0.4999999999999999
 40
0.7499999999999999
 40
0.7499999999999999
 40
1.0
 40
1.0
 40
1.0
 40
1.0
 10
201.3672711981675
 20
111.6732035031833
 30
0.0
 10
201.4269900554584
 20
111.4586233921209
 30
0.0
 10
201.4671773897256
 20
111.2248528971674
 30
0.0
 10
201.4673178417054
 20
110.8964389803792
 30
0.0
 10
201.4577916944357
 20
110.7937046973129
 30
0.0
 10
201.4224712302635
 20
110.6071633833026
 30
0.0
 10
201.3971550506006
 20
110.5254251150908
 30
0.0
 10
201.3672711981675
 20
110.4552568970519
 30
0.0
  0
SPLINE
  5
155
330
1F
100
AcDbEntity
  8
0
  6
HIDDEN
 62
     7
370
     0
100
AcDbSpline
210
0.0
220
0.0
230
1.0
 70
     8
 71
     3
 72
    64
 73
    60
 74
     0
 42
0.00000001
 43
0.00000001
 12
1.0
 22
0.0
 32
0.0
 13
1.0
 23
0.0
 33
0.0
 40
0.0
 40
0.0
 40
0.0
 40
0.0
 40
0.0625000000000004
 40
0.0625000000000004
 40
0.0937500000000004
 40
0.0937500000000004
 40
0.1250000000000004
 40
0.1250000000000004
 40
0.1562500000000004
 40
0.1562500000000004
 40
0.1875000000000004
 40
0.1875000000000004
 40
0.2187500000000003
 40
0.2187500000000003
 40
0.2500000000000003
 40
0.2500000000000003
 40
0.2812500000000003
 40
0.2812500000000003
 40
0.3125000000000003
 40
0.3125000000000003
 40
0.3437500000000003
 40
0.3437500000000003
 40
0.3750000000000003
 40
0.3750000000000003
 40
0.4062500000000003
 40
0.4062500000000003
 40
0.4375000000000002
 40
0.4375000000000002
 40
0.4687500000000002
 40
0.4687500000000002
 40
0.5000000000000002
 40
0.5000000000000002
 40
0.5312500000000002
 40
0.5312500000000002
 40
0.5625000000000002
 40
0.5625000000000002
 40
0.5937500000000002
 40
0.5937500000000002
 40
0.6250000000000001
 40
0.6250000000000001
 40
0.6562500000000001
 40
0.6562500000000001
 40
0.6875000000000001
 40
0.6875000000000001
 40
0.7187500000000001
 40
0.7187500000000001
 40
0.7500000000000001
 40
0.7500000000000001
 40
0.7812500000000001
 40
0.7812500000000001
 40
0.8125000000000001
 40
0.8125000000000001
 40
0.8437500000000001
 40
0.8437500000000001
 40
0.875
 40
0.875
 40
0.9375
 40
0.9375
 40
1.0
 40
1.0
 40
1.0
 40
1.0
 10
201.3672711981675
 20
110.4552568970486
 30
0.0
 10
201.2877085931362
 20
110.1985604234462
 30
0.0
 10
201.1684469888322
 20
109.9614326545592
 30
0.0
 10
200.9450502387386
 20
109.6372503577791
 30
0.0
 10
200.8643587249202
 20
109.5364467373902
 30
0.0
 10
200.69063550437
 20
109.3480185593508
 30
0.0
 10
200.5968466599892
 20
109.259827758591
 30
0.0
 10
200.3995908430146
 20
109.100887921526
 30
0.0
 10
200.2961570344925
 20
109.0298527330046
 30
0.0
 10
200.0764153351931
 20
108.9062390402686
 30
0.0
 10
199.9587696494857
 20
108.8530852525771
 30
0.0
 10
199.7094990244676
 20
108.7739596748814
 30
0.0
 10
199.5785146543871
 20
108.7484812500785
 30
0.0
 10
199.3104361636854
 20
108.7343943395254
 30
0.0
 10
199.1775706879972
 20
108.7459236224193
 30
0.0
 10
198.9177871962624
 20
108.8023772087928
 30
0.0
 10
198.7962770077962
 20
108.8455964341353
 30
0.0
 10
198.5639502784028
 20
108.954552665882
 30
0.0
 10
198.4538500019611
 20
109.0202999226144
 30
0.0
 10
198.2481166208757
 20
109.1666256857065
 30
0.0
 10
198.151411057128
 20
109.2477825478781
 30
0.0
 10
197.9681477573933
 20
109.4257602914734
 30
0.0
 10
197.8814493500056
 20
109.5230772898711
 30
0.0
 10
197.723490783105
 20
109.7278120831328
 30
0.0
 10
197.6514436836431
 20
109.8359012399785
 30
0.0
 10
197.5219316280096
 20
110.0647304262989
 30
0.0
 10
197.4639447116469
 20
110.1870646393281
 30
0.0
 10
197.3693609439091
 20
110.4366332645402
 30
0.0
 10
197.3322885691054
 20
110.5641449800066
 30
0.0
 10
197.281073757915
 20
110.8252278423839
 30
0.0
 10
197.2678508430186
 20
110.9550979310857
 30
0.0
 10
197.2667290079226
 20
111.2080217773236
 30
0.0
 10
197.2791654469326
 20
111.3334754417224
 30
0.0
 10
197.3280244089212
 20
111.5674390282428
 30
0.0
 10
197.3642533593774
 20
111.6773063328729
 30
0.0
 10
197.4581146093962
 20
111.882019786101
 30
0.0
 10
197.5144592693416
 20
111.974338907029
 30
0.0
 10
197.643873458162
 20
112.1423297667373
 30
0.0
 10
197.7172739442148
 20
112.2179480008874
 30
0.0
 10
197.8750156729424
 20
112.3502083249032
 30
0.0
 10
197.9599056592677
 20
112.4076571440161
 30
0.0
 10
198.1423120393338
 20
112.5079373029476
 30
0.0
 10
198.2405255765792
 20
112.5509137064951
 30
0.0
 10
198.446700996942
 20
112.6220044872921
 30
0.0
 10
198.5549736361925
 20
112.6504511761575
 30
0.0
 10
198.7865279197881
 20
112.6951914358126
 30
0.0
 10
198.9104136006486
 20
112.7113839745727
 30
0.0
 10
199.1674956214345
 20
112.7313966869744
 30
0.0
 10
199.3036507414997
 20
112.7353783877655
 30
0.0
 10
199.5691350127528
 20
112.731238200903
 30
0.0
 10
199.7023136729985
 20
112.7230391127989
 30
0.0
 10
199.9506490493879
 20
112.6947193954774
 30
0.0
 10
200.0689805956964
 20
112.6744020252606
 30
0.0
 10
200.2921484842506
 20
112.6207076559112
 30
0.0
 10
200.3962047247556
 20
112.5876564606017
 30
0.0
 10
200.6920827305227
 20
112.467005160979
 30
0.0
 10
200.8692257276025
 20
112.3564077339457
 30
0.0
 10
201.1648174888692
 20
112.070028273827
 30
0.0
 10
201.2875177003279
 20
111.8897228605505
 30
0.0
 10
201.3672711981667
 20
111.6732035031857
 30
0.0
  0
ARC
  5
156
330
1F
100
AcDbEntity
  8
0
  6
HIDDEN
 62
     7
370
     0
100
AcDbCircle
 10
199.3214693152
 20
114.0801852311
 30
0.0
 40
2.087326231003126
100
AcDbArc
 50
113.5742390854
 51
140.0424084337
  0
LINE
  5
157
330
1F
100
AcDbEntity
  8
0
  6
HIDDEN
 62
     7
370
     0
100
AcDbLine
 10
191.3272714896
 20
123.833303694
 30
0.0
 11
191.3272714896
 21
127.7200611125
 31
0.0
  0
LINE
  5
158
330
1F
100
AcDbEntity
  8
0
  6
HIDDEN
 62
     7
370
     0
100
AcDbLine
 10
193.407270564
 20
123.833303694
 30
0.0
 11
193.407270564
 21
127.7200611125
 31
0.0
  0
LINE
  5
159
330
1F
100
AcDbEntity
  8
0
  6
HIDDEN
 62
     7
370
     0
100
AcDbLine
 10
188.8109412698
 20
122.1674572493
 30
0.0
 11
196.6463955773
 21
122.1674572493
 31
0.0
  0
LINE
  5
15A
330
1F
100
AcDbEntity
  8
0
  6
HIDDEN
 62
     7
370
     0
100
AcDbLine
 10
156.4672714753
 20
100.4524504582
 30
0.0
 11
156.4672714753
 21
120.1824633221
 31
0.0
  0
LINE
  5
15B
330
1F
100
AcDbEntity
  8
0
  6
HIDDEN
 62
     7
370
     0
100
AcDbLine
 10
182.5366462304
 20
120.8174567486
 30
0.0
 11
182.5366462304
 21
99.8174570317
 31
0.0
  0
LINE
  5
15C
330
1F
100
AcDbEntity
  8
0
  6
HIDDEN
 62
     7
370
     0
100
AcDbLine
 10
184.3172716631
 20
120.1924573447
 30
0.0
 11
184.3172716631
 21
100.4424564357
 31
0.0
  0
LINE
  5
15D
330
1F
100
AcDbEntity
  8
0
  6
HIDDEN
 62
     7
370
     0
100
AcDbLine
 10
157.4762719406
 20
100.5952734317
 30
0.0
 11
161.6672710238
 21
100.5952734317
 31
0.0
  0
ARC
  5
15E
330
1F
100
AcDbEntity
  8
0
  6
HIDDEN
 62
     7
370
     0
100
AcDbCircle
 10
161.4422711982
 20
110.3174568902
 30
0.0
 40
10.49999999999998
100
AcDbArc
 50
247.4596895365
 51
247.8078280674
  0
LINE
  5
15F
330
1F
100
AcDbEntity
  8
0
  6
HIDDEN
 62
     7
370
     0
100
AcDbLine
 10
157.4172707929
 20
120.0153626318
 30
0.0
 11
157.4172707929
 21
100.6195511486
 31
0.0
  0
LINE
  5
160
330
1F
100
AcDbEntity
  8
0
  6
HIDDEN
 62
     7
370
     0
100
AcDbLine
 10
159.167270614
 20
120.0153626318
 30
0.0
 11
157.4172707929
 21
120.0153626318
 31
0.0
  0
SPLINE
  5
161
330
1F
100
AcDbEntity
  8
0
  6
HIDDEN
 62
     7
370
     0
100
AcDbSpline
210
0.0
220
0.0
230
1.0
 70
     8
 71
     3
 72
    14
 73
    10
 74
     0
 42
0.00000001
 43
0.00000001
 12
1.0
 22
0.0
 32
0.0
 13
1.0
 23
0.0
 33
0.0
 40
0.0
 40
0.0
 40
0.0
 40
0.0
 40
0.25
 40
0.25
 40
0.5
 40
0.5
 40
0.75
 40
0.75
 40
1.0
 40
1.0
 40
1.0
 40
1.0
 10
160.0672711981675
 20
120.3416463836071
 30
0.0
 10
160.0672711981676
 20
120.3051745190733
 30
0.0
 10
160.0449005663635
 20
120.2674387665608
 30
0.0
 10
159.9576850351152
 20
120.1923030448613
 30
0.0
 10
159.8936638290386
 20
120.1559307586392
 30
0.0
 10
159.7301785312973
 20
120.0917072194771
 30
0.0
 10
159.6308636571241
 20
120.0641842568547
 30
0.0
 10
159.411037386419
 20
120.0260120899676
 30
0.0
 10
159.2900338241098
 20
120.0153625919349
 30
0.0
 10
159.1672711981675
 20
120.0153625919349
 30
0.0
  0
LINE
  5
162
330
1F
100
AcDbEntity
  8
0
  6
HIDDEN
 62
     7
370
     0
100
AcDbLine
 10
160.0672709478
 20
120.3416468392
 30
0.0
 11
160.0672709478
 21
120.8174567486
 31
0.0
  0
SPLINE
  5
163
330
1F
100
AcDbEntity
  8
0
  6
HIDDEN
 62
     7
370
     0
100
AcDbSpline
210
0.0
220
0.0
230
1.0
 70
     8
 71
     3
 72
    14
 73
    10
 74
     0
 42
0.00000001
 43
0.00000001
 12
1.0
 22
0.0
 32
0.0
 13
1.0
 23
0.0
 33
0.0
 40
0.0
 40
0.0
 40
0.0
 40
0.0
 40
0.25
 40
0.25
 40
0.5
 40
0.5
 40
0.75
 40
0.75
 40
1.0
 40
1.0
 40
1.0
 40
1.0
 10
160.0672711981675
 20
120.3416463836071
 30
0.0
 10
160.0672711981675
 20
120.3051745190733
 30
0.0
 10
160.0449005663635
 20
120.2674387665608
 30
0.0
 10
159.9576850351152
 20
120.1923030448613
 30
0.0
 10
159.8936638290386
 20
120.1559307586392
 30
0.0
 10
159.7301785312973
 20
120.0917072194771
 30
0.0
 10
159.6308636571241
 20
120.0641842568547
 30
0.0
 10
159.411037386419
 20
120.0260120899676
 30
0.0
 10
159.2900338241098
 20
120.0153625919349
 30
0.0
 10
159.1672711981675
 20
120.0153625919349
 30
0.0
  0
SPLINE
  5
164
330
1F
100
AcDbEntity
  8
0
  6
HIDDEN
 62
     7
370
     0
100
AcDbSpline
210
0.0
220
0.0
230
1.0
 70
     8
 71
     3
 72
    14
 73
    10
 74
     0
 42
0.00000001
 43
0.00000001
 12
1.0
 22
0.0
 32
0.0
 13
1.0
 23
0.0
 33
0.0
 40
0.0
 40
0.0
 40
0.0
 40
0.0
 40
0.2500000000000003
 40
0.2500000000000003
 40
0.5000000000000002
 40
0.5000000000000002
 40
0.7500000000000001
 40
0.7500000000000001
 40
1.0
 40
1.0
 40
1.0
 40
1.0
 10
161.6672711981675
 20
100.5952738020115
 30
0.0
 10
161.7897392860864
 20
100.5952738020115
 30
0.0
 10
161.9099503649553
 20
100.5849367822916
 30
0.0
 10
162.1301566842079
 20
100.5474695537136
 30
0.0
 10
162.2298121369059
 20
100.5203383854244
 30
0.0
 10
162.3927994898617
 20
100.4575713392175
 30
0.0
 10
162.4575368506082
 20
100.4215076452906
 30
0.0
 10
162.5443722007252
 20
100.3483149754225
 30
0.0
 10
162.5672711981676
 20
100.3107721899115
 30
0.0
 10
162.5672711981676
 20
100.2750645457301
 30
0.0
  0
LINE
  5
165
330
1F
100
AcDbEntity
  8
0
  6
HIDDEN
 62
     7
370
     0
100
AcDbLine
 10
162.5672713576
 20
100.2750642414
 30
0.0
 11
162.5672713576
 21
99.8174570317
 31
0.0
  0
SPLINE
  5
166
330
1F
100
AcDbEntity
  8
0
  6
HIDDEN
 62
     7
370
     0
100
AcDbSpline
210
0.0
220
0.0
230
1.0
 70
     8
 71
     3
 72
    14
 73
    10
 74
     0
 42
0.00000001
 43
0.00000001
 12
1.0
 22
0.0
 32
0.0
 13
1.0
 23
0.0
 33
0.0
 40
0.0
 40
0.0
 40
0.0
 40
0.0
 40
0.25
 40
0.25
 40
0.5
 40
0.5
 40
0.75
 40
0.75
 40
1.0
 40
1.0
 40
1.0
 40
1.0
 10
161.6672711981675
 20
100.5952738020115
 30
0.0
 10
161.7897392860864
 20
100.5952738020115
 30
0.0
 10
161.9099503649553
 20
100.5849367822916
 30
0.0
 10
162.1301566842079
 20
100.5474695537136
 30
0.0
 10
162.2298121369059
 20
100.5203383854244
 30
0.0
 10
162.3927994898617
 20
100.4575713392175
 30
0.0
 10
162.4575368506082
 20
100.4215076452906
 30
0.0
 10
162.5443722007252
 20
100.3483149754225
 30
0.0
 10
162.5672711981675
 20
100.3107721899115
 30
0.0
 10
162.5672711981675
 20
100.2750645457301
 30
0.0
  0
LINE
  5
167
330
1F
100
AcDbEntity
  8
0
  6
HIDDEN
 62
     7
370
     0
100
AcDbLine
 10
157.4172707929
 20
100.6195511486
 30
0.0
 11
157.4172707929
 21
120.0153626318
 31
0.0
  0
LINE
  5
168
330
1F
100
AcDbEntity
  8
0
  6
HIDDEN
 62
     7
370
     0
100
AcDbLine
 10
211.7691966428
 20
92.317457665
 30
0.0
 11
211.7691966428
 21
110.3174568902
 31
0.0
  0
SPLINE
  5
169
330
1F
100
AcDbEntity
  8
0
  6
HIDDEN
 62
     7
370
     0
100
AcDbSpline
210
0.0
220
0.0
230
1.0
 70
     8
 71
     3
 72
    10
 73
     6
 74
     0
 42
0.00000001
 43
0.00000001
 12
1.0
 22
0.0
 32
0.0
 13
1.0
 23
0.0
 33
0.0
 40
0.0
 40
0.0
 40
0.0
 40
0.0
 40
0.5
 40
0.5
 40
1.0
 40
1.0
 40
1.0
 40
1.0
 10
213.1488543519119
 20
124.8733593263709
 30
0.0
 10
212.7423612017734
 20
122.4607160920089
 30
0.0
 10
212.3950948834099
 20
120.0435975464498
 30
0.0
 10
211.9066389054445
 20
115.1937888444457
 30
0.0
 10
211.7691949868142
 20
112.7608156514782
 30
0.0
 10
211.7691949868142
 20
110.3174568901867
 30
0.0
  0
SPLINE
  5
16A
330
1F
100
AcDbEntity
  8
0
  6
HIDDEN
 62
     7
370
     0
100
AcDbSpline
210
0.0
220
0.0
230
1.0
 70
     8
 71
     3
 72
     8
 73
     4
 74
     0
 42
0.00000001
 43
0.00000001
 12
1.0
 22
0.0
 32
0.0
 13
1.0
 23
0.0
 33
0.0
 40
0.0
 40
0.0
 40
0.0
 40
0.0
 40
1.0
 40
1.0
 40
1.0
 40
1.0
 10
213.1488543519119
 20
124.8733593263709
 30
0.0
 10
212.362800028711
 20
125.3075892508387
 30
0.0
 10
211.7516390366057
 20
125.9312810063673
 30
0.0
 10
211.5658700364676
 20
126.626242899463
 30
0.0
  0
SPLINE
  5
16B
330
1F
100
AcDbEntity
  8
0
  6
HIDDEN
 62
     7
370
     0
100
AcDbSpline
210
0.0
220
0.0
230
1.0
 70
     8
 71
     3
 72
    64
 73
    60
 74
     0
 42
0.00000001
 43
0.00000001
 12
1.0
 22
0.0
 32
0.0
 13
1.0
 23
0.0
 33
0.0
 40
0.0
 40
0.0
 40
0.0
 40
0.0
 40
0.0624999999999995
 40
0.0624999999999995
 40
0.1249999999999989
 40
0.1249999999999989
 40
0.1562499999999988
 40
0.1562499999999988
 40
0.1874999999999988
 40
0.1874999999999988
 40
0.2187499999999986
 40
0.2187499999999986
 40
0.2499999999999986
 40
0.2499999999999986
 40
0.2812499999999984
 40
0.2812499999999984
 40
0.3124999999999983
 40
0.3124999999999983
 40
0.3437499999999983
 40
0.3437499999999983
 40
0.3749999999999982
 40
0.3749999999999982
 40
0.4062499999999981
 40
0.4062499999999981
 40
0.4374999999999979
 40
0.4374999999999979
 40
0.4687499999999979
 40
0.4687499999999979
 40
0.4999999999999978
 40
0.4999999999999978
 40
0.5312499999999977
 40
0.5312499999999977
 40
0.5624999999999974
 40
0.5624999999999974
 40
0.5937499999999973
 40
0.5937499999999973
 40
0.6249999999999971
 40
0.6249999999999971
 40
0.6874999999999971
 40
0.6874999999999971
 40
0.7187499999999973
 40
0.7187499999999973
 40
0.7499999999999977
 40
0.7499999999999977
 40
0.781249999999998
 40
0.781249999999998
 40
0.8124999999999982
 40
0.8124999999999982
 40
0.8437499999999986
 40
0.8437499999999986
 40
0.8749999999999988
 40
0.8749999999999988
 40
0.9062499999999991
 40
0.9062499999999991
 40
0.9374999999999994
 40
0.9374999999999994
 40
0.9687499999999997
 40
0.9687499999999997
 40
1.0
 40
1.0
 40
1.0
 40
1.0
 10
222.193133283322
 20
110.3174568901867
 30
0.0
 10
222.5681261311256
 20
110.0617706370248
 30
0.0
 10
222.8923174266402
 20
109.753478577493
 30
0.0
 10
223.4420938405174
 20
109.0352269453175
 30
0.0
 10
223.6552413430519
 20
108.6403405934219
 30
0.0
 10
223.8790789719313
 20
108.0053901984081
 30
0.0
 10
223.9368021554219
 20
107.7877792300992
 30
0.0
 10
224.0164163533541
 20
107.352378493844
 30
0.0
 10
224.0389233195845
 20
107.1329344158827
 30
0.0
 10
224.0487150909644
 20
106.6905626958205
 30
0.0
 10
224.0355811028581
 20
106.4680536479355
 30
0.0
 10
223.9747713588607
 20
106.0355400784114
 30
0.0
 10
223.9272208462865
 20
105.8234726385329
 30
0.0
 10
223.7974020010233
 20
105.4076248016894
 30
0.0
 10
223.7145247807311
 20
105.2034300838341
 30
0.0
 10
223.5193190647101
 20
104.8175306399378
 30
0.0
 10
223.406532240984
 20
104.633900115877
 30
0.0
 10
223.1502096668096
 20
104.2849676421172
 30
0.0
 10
223.0054745906035
 20
104.118851707336
 30
0.0
 10
222.6941600100296
 20
103.816147995277
 30
0.0
 10
222.5267854906191
 20
103.6781140579758
 30
0.0
 10
222.1683110099402
 20
103.4282658218052
 30
0.0
 10
221.9753008098824
 20
103.3157059728038
 30
0.0
 10
221.5767827998541
 20
103.1242772808095
 30
0.0
 10
221.3707537568279
 20
103.0446313704196
 30
0.0
 10
220.945171646261
 20
102.9168433407925
 30
0.0
 10
220.7234414477074
 20
102.8684883401636
 30
0.0
 10
220.278048783108
 20
102.8065872891971
 30
0.0
 10
220.0546942470564
 20
102.7926599942239
 30
0.0
 10
219.606702446478
 20
102.7978641339808
 30
0.0
 10
219.3801184268577
 20
102.817371458086
 30
0.0
 10
218.9360159958555
 20
102.8892169997882
 30
0.0
 10
218.7192916403718
 20
102.9410660902899
 30
0.0
 10
218.2960694166566
 20
103.0757339638428
 30
0.0
 10
218.0880801239991
 20
103.1593284572785
 30
0.0
 10
217.6901268272978
 20
103.3553731305034
 30
0.0
 10
217.5013811646102
 20
103.4668990907461
 30
0.0
 10
216.9647444092532
 20
103.8415282397186
 30
0.0
 10
216.6441577990043
 20
104.1488320739391
 30
0.0
 10
216.2551948154569
 20
104.6657259123164
 30
0.0
 10
216.1394780850141
 20
104.8482839250116
 30
0.0
 10
215.9374582389605
 20
105.2355929526314
 30
0.0
 10
215.8531582647122
 20
105.4369229621721
 30
0.0
 10
215.7198838881314
 20
105.8489700874388
 30
0.0
 10
215.6704147730704
 20
106.0606134395502
 30
0.0
 10
215.607287044813
 20
106.4958165796548
 30
0.0
 10
215.5942196807381
 20
106.7182571641436
 30
0.0
 10
215.6054105595035
 20
107.1579716401083
 30
0.0
 10
215.6293050346281
 20
107.3773156345984
 30
0.0
 10
215.714279166081
 20
107.8148870297251
 30
0.0
 10
215.7756769833499
 20
108.0324984243751
 30
0.0
 10
215.931034543689
 20
108.4503193700571
 30
0.0
 10
216.0253261682293
 20
108.6526447581384
 30
0.0
 10
216.2471577729802
 20
109.0439642419838
 30
0.0
 10
216.3747107055986
 20
109.2322235574055
 30
0.0
 10
216.6541240858693
 20
109.5825463408711
 30
0.0
 10
216.8069038804492
 20
109.7463594169912
 30
0.0
 10
217.1387658865788
 20
110.0510694886084
 30
0.0
 10
217.3180316620645
 20
110.1917866439793
 30
0.0
 10
217.5069285660805
 20
110.3174568901867
 30
0.0
  0
ELLIPSE
  5
16C
330
1F
100
AcDbEntity
  8
0
  6
HIDDEN
 62
     7
370
     0
100
AcDbEllipse
 10
229.0925685442
 20
110.3174568902
 30
0.0
 11
1.273904606567243
 21
17.99960260609393
 31
0.0
210
0.0
220
0.0
230
1.0
 40
0.0938906935
 41
1.577441252748316
 42
1.992178677787218
  0
SPLINE
  5
16D
330
1F
100
AcDbEntity
  8
0
  6
HIDDEN
 62
     7
370
     0
100
AcDbSpline
210
0.0
220
0.0
230
1.0
 70
     8
 71
     3
 72
    14
 73
    10
 74
     0
 42
0.00000001
 43
0.00000001
 12
1.0
 22
0.0
 32
0.0
 13
1.0
 23
0.0
 33
0.0
 40
0.0
 40
0.0
 40
0.0
 40
0.0
 40
0.25
 40
0.25
 40
0.5
 40
0.5
 40
0.75
 40
0.75
 40
1.0
 40
1.0
 40
1.0
 40
1.0
 10
211.5658700364676
 20
126.626242899463
 30
0.0
 10
211.5456555546905
 20
126.7018652826972
 30
0.0
 10
211.5210457846431
 20
126.777640180305
 30
0.0
 10
211.4846793672727
 20
126.9307514050142
 30
0.0
 10
211.473324475289
 20
127.0081013260437
 30
0.0
 10
211.4736542400889
 20
127.1639640186789
 30
0.0
 10
211.4852756602213
 20
127.2424702233738
 30
0.0
 10
211.5215574513505
 20
127.3999681350488
 30
0.0
 10
211.5458536624355
 20
127.4789492965871
 30
0.0
 10
211.5658700364777
 20
127.5578837021911
 30
0.0
  0
LINE
  5
16E
330
1F
100
AcDbEntity
  8
0
  6
HIDDEN
 62
     7
370
     0
100
AcDbLine
 10
156.8617406024
 20
98.8525407205
 30
0.0
 11
156.5941157473
 21
99.104024824
 31
0.0
  0
LINE
  5
16F
330
1F
100
AcDbEntity
  8
0
  6
HIDDEN
 62
     7
370
     0
100
AcDbLine
 10
160.0672709478
 20
121.3174568306
 30
0.0
 11
160.0672709478
 21
123.8749813105
 31
0.0
  0
LINE
  5
170
330
1F
100
AcDbEntity
  8
0
  6
HIDDEN
 62
     7
370
     0
100
AcDbLine
 10
162.5672713576
 20
99.3174569498
 30
0.0
 11
162.5672713576
 21
96.6807104464
 31
0.0
  0
LINE
  5
171
330
1F
100
AcDbEntity
  8
0
  6
HIDDEN
 62
     7
370
     0
100
AcDbLine
 10
157.4172707929
 20
121.3174568306
 30
0.0
 11
157.4172707929
 21
123.197457176
 31
0.0
  0
LINE
  5
172
330
1F
100
AcDbEntity
  8
0
  6
HIDDEN
 62
     7
370
     0
100
AcDbLine
 10
156.4672714753
 20
121.3174568306
 30
0.0
 11
156.4672714753
 21
122.2474569271
 31
0.0
  0
LINE
  5
173
330
1F
100
AcDbEntity
  8
0
  6
HIDDEN
 62
     7
370
     0
100
AcDbLine
 10
157.4762719406
 20
99.3174569498
 30
0.0
 11
157.4762719406
 21
97.4374566044
 31
0.0
  0
LINE
  5
174
330
1F
100
AcDbEntity
  8
0
  6
HIDDEN
 62
     7
370
     0
100
AcDbLine
 10
156.4672714753
 20
99.3174569498
 30
0.0
 11
156.4672714753
 21
98.4464570697
 31
0.0
  0
LINE
  5
175
330
1F
100
AcDbEntity
  8
0
  6
HIDDEN
 62
     7
370
     0
100
AcDbLine
 10
189.6672709568
 20
116.5674569833
 30
0.0
 11
189.6672709568
 21
104.0674567971
 31
0.0
  0
LINE
  5
176
330
1F
100
AcDbEntity
  8
0
  6
HIDDEN
 62
     7
370
     0
100
AcDbLine
 10
192.1672704352
 20
116.5674569833
 30
0.0
 11
192.1672704352
 21
104.0674567971
 31
0.0
  0
CIRCLE
  5
177
330
1F
100
AcDbEntity
  8
0
  6
HIDDEN
 62
     7
370
     0
100
AcDbCircle
 10
221.7294006143
 20
110.0720192504
 30
0.0
 40
3.466781505228396
  0
LINE
  5
178
330
1F
100
AcDbEntity
  8
0
  6
HIDDEN
 62
     7
370
     0
100
AcDbLine
 10
184.8172708137
 20
115.8174568604
 30
0.0
 11
184.8172708137
 21
104.81745692
 31
0.0
  0
LINE
  5
179
330
1F
100
AcDbEntity
  8
0
  6
HIDDEN
 62
     7
370
     0
100
AcDbLine
 10
184.3172716631
 20
104.317456838
 30
0.0
 11
184.3172716631
 21
116.3174569423
 31
0.0
  0
LINE
  5
17A
330
1F
100
AcDbEntity
  8
0
  6
HIDDEN
 62
     7
370
     0
100
AcDbLine
 10
196.3172717674
 20
93.4174576591
 30
0.0
 11
193.3720479442
 21
93.4174576591
 31
0.0
  0
LINE
  5
17B
330
1F
100
AcDbEntity
  8
0
  6
HIDDEN
 62
     7
370
     0
100
AcDbLine
 10
193.407270564
 20
92.8883341889
 30
0.0
 11
193.407270564
 21
93.2045778076
 31
0.0
  0
LINE
  5
17C
330
1F
100
AcDbEntity
  8
0
  6
HIDDEN
 62
     7
370
     0
100
AcDbLine
 10
196.3172717674
 20
93.4174576591
 30
0.0
 11
196.3172717674
 21
91.7134241949
 31
0.0
  0
LINE
  5
17D
330
1F
100
AcDbEntity
  8
0
  6
HIDDEN
 62
     7
370
     0
100
AcDbLine
 10
184.3172716631
 20
90.3424726616
 30
0.0
 11
184.3172716631
 21
93.4174576591
 31
0.0
  0
LINE
  5
17E
330
1F
100
AcDbEntity
  8
0
  6
HIDDEN
 62
     7
370
     0
100
AcDbLine
 10
188.8172714694
 20
93.4174576591
 30
0.0
 11
184.3172716631
 21
93.4174576591
 31
0.0
  0
LINE
  5
17F
330
1F
100
AcDbEntity
  8
0
  6
HIDDEN
 62
     7
370
     0
100
AcDbLine
 10
191.3624931781
 20
93.4174576591
 30
0.0
 11
188.8172714694
 21
93.4174576591
 31
0.0
  0
LINE
  5
180
330
1F
100
AcDbEntity
  8
0
  6
HIDDEN
 62
     7
370
     0
100
AcDbLine
 10
191.3272714896
 20
93.2045778076
 30
0.0
 11
191.3272714896
 21
92.8883341889
 31
0.0
  0
LINE
  5
181
330
1F
100
AcDbEntity
  8
0
  6
HIDDEN
 62
     7
370
     0
100
AcDbLine
 10
189.6672709568
 20
104.81745692
 30
0.0
 11
189.6672709568
 21
115.8174568604
 31
0.0
  0
ARC
  5
182
330
1F
100
AcDbEntity
  8
0
  6
HIDDEN
 62
     7
370
     0
100
AcDbCircle
 10
215.2677516029
 20
114.6033423475
 30
0.0
 40
2.091039615623977
100
AcDbArc
 50
122.4739820999
 51
301.4417839438
  0
LINE
  5
183
330
1F
100
AcDbEntity
  8
0
  6
HIDDEN
 62
     7
370
     0
100
AcDbLine
 10
230.1565552784
 20
122.1187798123
 30
0.0
 11
229.1928040518
 21
120.5265143703
 31
0.0
  0
ELLIPSE
  5
184
330
1F
100
AcDbEntity
  8
0
  6
HIDDEN
 62
     7
370
     0
100
AcDbEllipse
 10
154.3615044584
 20
110.3174568902
 30
0.0
 11
12.26424774976729
 21
-2.842170943040401E-14
 31
0.0
210
0.0
220
0.0
230
1.0
 40
0.8164965809
 41
4.884943637108984
 42
4.964202354313275
  0
LINE
  5
185
330
1F
100
AcDbEntity
  8
0
  6
HIDDEN
 62
     7
370
     0
100
AcDbLine
 10
156.4672714753
 20
99.3174569498
 30
0.0
 11
156.4672714753
 21
100.4524504582
 31
0.0
  0
ELLIPSE
  5
186
330
1F
100
AcDbEntity
  8
0
  6
HIDDEN
 62
     7
370
     0
100
AcDbEllipse
 10
154.3615044584
 20
110.3174568902
 30
0.0
 11
12.26424774976726
 21
0.0
 31
0.0
210
0.0
220
0.0
230
1.0
 40
0.8164965809
 41
1.318982952866325
 42
1.398241670070615
  0
LINE
  5
187
330
1F
100
AcDbEntity
  8
0
  6
HIDDEN
 62
     7
370
     0
100
AcDbLine
 10
156.4672714753
 20
121.3174568306
 30
0.0
 11
156.4672714753
 21
120.1824633221
 31
0.0
  0
LINE
  5
188
330
1F
100
AcDbEntity
  8
0
  6
HIDDEN
 62
     7
370
     0
100
AcDbLine
 10
191.5756151734
 20
127.2174561213
 30
0.0
 11
188.8172714694
 21
127.2174561213
 31
0.0
  0
LINE
  5
189
330
1F
100
AcDbEntity
  8
0
  6
HIDDEN
 62
     7
370
     0
100
AcDbLine
 10
191.3272714896
 20
127.7200611125
 30
0.0
 11
191.3272714896
 21
128.0311340283
 31
0.0
  0
LINE
  5
18A
330
1F
100
AcDbEntity
  8
0
  6
HIDDEN
 62
     7
370
     0
100
AcDbLine
 10
196.3173332347
 20
127.2174561213
 30
0.0
 11
193.1589259489
 21
127.2174561213
 31
0.0
  0
LINE
  5
18B
330
1F
100
AcDbEntity
  8
0
  6
HIDDEN
 62
     7
370
     0
100
AcDbLine
 10
196.3172717674
 20
127.2289914827
 30
0.0
 11
196.3172717674
 21
129.1883339922
 31
0.0
  0
LINE
  5
18C
330
1F
100
AcDbEntity
  8
0
  6
HIDDEN
 62
     7
370
     0
100
AcDbLine
 10
193.407270564
 20
128.0311340283
 30
0.0
 11
193.407270564
 21
127.7200611125
 31
0.0
  0
LINE
  5
18D
330
1F
100
AcDbEntity
  8
0
  6
HIDDEN
 62
     7
370
     0
100
AcDbLine
 10
188.8172714694
 20
127.2174561213
 30
0.0
 11
184.3172716631
 21
127.2174561213
 31
0.0
  0
LINE
  5
18E
330
1F
100
AcDbEntity
  8
0
  6
HIDDEN
 62
     7
370
     0
100
AcDbLine
 10
157.4172707929
 20
121.3174568306
 30
0.0
 11
157.4172707929
 21
120.0153626318
 31
0.0
  0
LINE
  5
18F
330
1F
100
AcDbEntity
  8
0
  6
HIDDEN
 62
     7
370
     0
100
AcDbLine
 10
160.0672709478
 20
121.3174568306
 30
0.0
 11
160.0672709478
 21
120.3416468392
 31
0.0
  0
LINE
  5
190
330
1F
100
AcDbEntity
  8
0
  6
HIDDEN
 62
     7
370
     0
100
AcDbLine
 10
162.5672713576
 20
99.3174569498
 30
0.0
 11
162.5672713576
 21
100.2750642414
 31
0.0
  0
LINE
  5
191
330
1F
100
AcDbEntity
  8
0
  6
HIDDEN
 62
     7
370
     0
100
AcDbLine
 10
157.4762719406
 20
99.3174569498
 30
0.0
 11
157.4762719406
 21
100.5952734317
 31
0.0
  0
SPLINE
  5
192
330
1F
100
AcDbEntity
  8
0
  6
HIDDEN
 62
     7
370
     0
100
AcDbSpline
210
0.0
220
0.0
230
1.0
 70
     8
 71
     3
 72
    40
 73
    36
 74
     0
 42
0.00000001
 43
0.00000001
 12
1.0
 22
0.0
 32
0.0
 13
1.0
 23
0.0
 33
0.0
 40
0.0
 40
0.0
 40
0.0
 40
0.0
 40
0.0624999999999992
 40
0.0624999999999992
 40
0.1249999999999984
 40
0.1249999999999984
 40
0.2499999999999971
 40
0.2499999999999971
 40
0.3124999999999964
 40
0.3124999999999964
 40
0.3749999999999957
 40
0.3749999999999957
 40
0.4062499999999957
 40
0.4062499999999957
 40
0.4374999999999957
 40
0.4374999999999957
 40
0.4687499999999957
 40
0.4687499999999957
 40
0.4843749999999951
 40
0.4843749999999951
 40
0.4999999999999944
 40
0.4999999999999944
 40
0.5312499999999947
 40
0.5312499999999947
 40
0.562499999999995
 40
0.562499999999995
 40
0.6249999999999954
 40
0.6249999999999954
 40
0.687499999999996
 40
0.687499999999996
 40
0.7499999999999966
 40
0.7499999999999966
 40
0.8749999999999982
 40
0.8749999999999982
 40
1.0
 40
1.0
 40
1.0
 40
1.0
 10
224.0136947012718
 20
111.8109326057023
 30
0.0
 10
224.0427254060942
 20
111.8588957441624
 30
0.0
 10
224.0591650455567
 20
111.9192249562723
 30
0.0
 10
224.0726955636182
 20
112.0575431744005
 30
0.0
 10
224.0696464870179
 20
112.1358888923041
 30
0.0
 10
224.033739927427
 20
112.3885874781046
 30
0.0
 10
223.9760306343261
 20
112.5794494086582
 30
0.0
 10
223.8256151978487
 20
112.8848199445194
 30
0.0
 10
223.7645843000447
 20
112.9899373402032
 30
0.0
 10
223.6109756591671
 20
113.2058574734363
 30
0.0
 10
223.5189656819797
 20
113.3160943816818
 30
0.0
 10
223.3465256512816
 20
113.4795090806976
 30
0.0
 10
223.2831277029501
 20
113.5338000963503
 30
0.0
 10
223.1390391503453
 20
113.6413502340539
 30
0.0
 10
223.057719322121
 20
113.6951152405807
 30
0.0
 10
222.8698230709125
 20
113.798134536281
 30
0.0
 10
222.7641920538569
 20
113.8468643141886
 30
0.0
 10
222.5834247786153
 20
113.9098565220535
 30
0.0
 10
222.5204328071175
 20
113.9287973221833
 30
0.0
 10
222.3879766615815
 20
113.9617775035281
 30
0.0
 10
222.3181563997577
 20
113.9757661531562
 30
0.0
 10
222.1094339592335
 20
114.0074563086833
 30
0.0
 10
221.9656591286334
 20
114.0155062271566
 30
0.0
 10
221.6965057268154
 20
114.0097229944385
 30
0.0
 10
221.5694087522872
 20
113.9964317768327
 30
0.0
 10
221.2248381563332
 20
113.94135555555
 30
0.0
 10
221.0283658799387
 20
113.8838711565239
 30
0.0
 10
220.6755363387981
 20
113.7559439434202
 30
0.0
 10
220.5213609169947
 20
113.6855272409119
 30
0.0
 10
220.239037125971
 20
113.5397170300947
 30
0.0
 10
220.1110102823714
 20
113.46392083212
 30
0.0
 10
219.7597234379321
 20
113.2362123503368
 30
0.0
 10
219.5702073554198
 20
113.0855673069679
 30
0.0
 10
219.2648808435151
 20
112.8092711525355
 30
0.0
 10
219.1480419555606
 20
112.6828550393894
 30
0.0
 10
219.0894783180341
 20
112.5860990056452
 30
0.0
  0
ELLIPSE
  5
193
330
1F
100
AcDbEntity
  8
0
  6
HIDDEN
 62
     7
370
     0
100
AcDbEllipse
 10
222.7062607253
 20
117.034502459
 30
0.0
 11
3.105839292631202
 21
2.305055007060076
 31
0.0
210
0.0
220
0.0
230
1.0
 40
0.0904236958
 41
6.0654796896507
 42
9.207072343240418
  0
LINE
  5
194
330
1F
100
AcDbEntity
  8
0
  6
HIDDEN
 62
     7
370
     0
100
AcDbLine
 10
217.3213953806
 20
127.8853690068
 30
0.0
 11
218.2851503326
 21
129.4776344488
 31
0.0
  0
SPLINE
  5
195
330
1F
100
AcDbEntity
  8
0
  6
HIDDEN
 62
     7
370
     0
100
AcDbSpline
210
0.0
220
0.0
230
1.0
 70
     8
 71
     3
 72
    35
 73
    31
 74
     0
 42
0.00000001
 43
0.00000001
 12
1.0
 22
0.0
 32
0.0
 13
1.0
 23
0.0
 33
0.0
 40
-0.0968759714474241
 40
-0.0666637413356056
 40
-0.0343786692009398
 40
0.0
 40
0.0402501655263726
 40
0.0744868223008525
 40
0.1027071321038402
 40
0.1249179508766712
 40
0.1620537620836053
 40
0.2036866237660474
 40
0.249906444777635
 40
0.2843401084276527
 40
0.3106265058333987
 40
0.3287516660583437
 40
0.3698185614134538
 40
0.4071583507675399
 40
0.4519490945114165
 40
0.5000414664482049
 40
0.5203026887115041
 40
0.5628788326114631
 40
0.5977565701836253
 40
0.6256573753263367
 40
0.6860513535191937
 40
0.7499481360755537
 40
0.7710338114755536
 40
0.8124324596667265
 40
0.847205437428349
 40
0.8749589221790597
 40
0.9031240285525759
 40
0.9333362586643944
 40
0.9656213307990602
 40
1.0
 40
1.040250165526373
 40
1.074486822300853
 40
1.10270713210384
 10
168.2110449791186
 20
96.07661097824172
 30
0.0
 10
168.4497077691297
 20
96.11317843773276
 30
0.0
 10
168.7961420875651
 20
96.15358924028678
 30
0.0
 10
169.2009021741503
 20
96.18296302123355
 30
0.0
 10
169.5745005936568
 20
96.20017020176888
 30
0.0
 10
169.9831313785733
 20
96.20536299982068
 30
0.0
 10
170.4731981210209
 20
96.1804346842659
 30
0.0
 10
171.0715884277588
 20
96.119617781911
 30
0.0
 10
171.6067146305909
 20
96.03210500669856
 30
0.0
 10
172.0009709369543
 20
95.9483481825041
 30
0.0
 10
172.2408999625822
 20
95.8904656145227
 30
0.0
 10
172.4546817111466
 20
95.83245275449195
 30
0.0
 10
172.6224495274507
 20
95.78591855923223
 30
0.0
 10
172.692913148469
 20
95.76385762252113
 30
0.0
 10
172.6033879561287
 20
95.7926343584406
 30
0.0
 10
172.3705514618364
 20
95.85419654775362
 30
0.0
 10
172.0511173093567
 20
95.93813721748535
 30
0.0
 10
171.6990257647603
 20
96.01312986706964
 30
0.0
 10
171.2513252065527
 20
96.09090456088965
 30
0.0
 10
170.6844516713798
 20
96.16778895126531
 30
0.0
 10
169.9316014594091
 20
96.21307816202327
 30
0.0
 10
169.2604300121476
 20
96.19560465787302
 30
0.0
 10
168.7756369222227
 20
96.15083554639098
 30
0.0
 10
168.4612802172765
 20
96.11528631239958
 30
0.0
 10
168.2264462641884
 20
96.07960056435648
 30
0.0
 10
168.1015079381194
 20
96.05681851398867
 30
0.0
 10
168.0546836316067
 20
96.04984006308156
 30
0.0
 10
168.0861972638071
 20
96.05679862913122
 30
0.0
 10
168.2110449791186
 20
96.07661097824172
 30
0.0
 10
168.4497077691297
 20
96.11317843773276
 30
0.0
 10
168.7961420875651
 20
96.15358924028678
 30
0.0
  0
SPLINE
  5
196
330
1F
100
AcDbEntity
  8
0
  6
HIDDEN
 62
     7
370
     0
100
AcDbSpline
210
0.0
220
0.0
230
1.0
 70
     8
 71
     3
 72
    35
 73
    31
 74
     0
 42
0.00000001
 43
0.00000001
 12
1.0
 22
0.0
 32
0.0
 13
1.0
 23
0.0
 33
0.0
 40
-0.1243198177515348
 40
-0.101487746967131
 40
-0.0608367563980154
 40
0.0
 40
0.0343712166263974
 40
0.0666387492005671
 40
0.096823304326148
 40
0.1249505753809243
 40
0.1526662634914465
 40
0.1874715367338337
 40
0.2288808094622375
 40
0.2500284990771094
 40
0.313987578177387
 40
0.3744836764365421
 40
0.4023317405704667
 40
0.4371113310319798
 40
0.4795885132761254
 40
0.4997903583980334
 40
0.5479907218492269
 40
0.5929884342251964
 40
0.6398023656133754
 40
0.6945155365638732
 40
0.7285101556289392
 40
0.7625224506971622
 40
0.7965528224365898
 40
0.8145532956158392
 40
0.8337228321528826
 40
0.8540904280756259
 40
0.8756801822484652
 40
0.898512253032869
 40
0.9391632436019846
 40
1.0
 40
1.034371216626397
 40
1.066638749200567
 40
1.096823304326148
 10
168.9665858840783
 20
124.4636360732179
 30
0.0
 10
168.4951598275985
 20
124.5145267488569
 30
0.0
 10
168.2112661240681
 20
124.5582443368462
 30
0.0
 10
168.086314888127
 20
124.5780499570969
 30
0.0
 10
168.0547029286633
 20
124.5850351306402
 30
0.0
 10
168.1011897661503
 20
124.5780921056802
 30
0.0
 10
168.2256503889575
 20
124.5553090494608
 30
0.0
 10
168.4600001080008
 20
124.5196374859237
 30
0.0
 10
168.7742933236338
 20
124.4840874652355
 30
0.0
 10
169.2592190055021
 20
124.4393164836322
 30
0.0
 10
169.9311734894984
 20
124.4218310494429
 30
0.0
 10
170.6844508322926
 20
124.4670687648362
 30
0.0
 10
171.2509348792952
 20
124.5438004260564
 30
0.0
 10
171.6975283663266
 20
124.6214123469789
 30
0.0
 10
172.0489161890867
 20
124.6962365133602
 30
0.0
 10
172.3688081165183
 20
124.7801938955596
 30
0.0
 10
172.6028775789538
 20
124.8417817952425
 30
0.0
 10
172.6996420604503
 20
124.8731837716764
 30
0.0
 10
172.5941760375597
 20
124.8391624090352
 30
0.0
 10
172.2947425006307
 20
124.7564072250991
 30
0.0
 10
171.8952966781245
 20
124.6666167605717
 30
0.0
 10
171.4945313142364
 20
124.5934635426663
 30
0.0
 10
171.1145826448049
 20
124.5262279635527
 30
0.0
 10
170.7835969619481
 20
124.4784891251936
 30
0.0
 10
170.5085130031032
 20
124.4537159669538
 30
0.0
 10
170.2132783436881
 20
124.4374060329026
 30
0.0
 10
169.9025437227982
 20
124.4306442943174
 30
0.0
 10
169.5059611990819
 20
124.4326686538965
 30
0.0
 10
168.9665858840783
 20
124.4636360732179
 30
0.0
 10
168.4951598275985
 20
124.5145267488569
 30
0.0
 10
168.2112661240681
 20
124.5582443368462
 30
0.0
  0
LINE
  5
197
330
1F
100
AcDbEntity
  8
0
  6
HIDDEN
 62
     7
370
     0
100
AcDbLine
 10
201.3672715707
 20
110.4552568917
 30
0.0
 11
201.3672715707
 21
107.8174569461
 31
0.0
  0
SPLINE
  5
198
330
1F
100
AcDbEntity
  8
0
  6
HIDDEN
 62
     7
370
     0
100
AcDbSpline
210
0.0
220
0.0
230
1.0
 70
     8
 71
     3
 72
    12
 73
     8
 74
     0
 42
0.00000001
 43
0.00000001
 12
1.0
 22
0.0
 32
0.0
 13
1.0
 23
0.0
 33
0.0
 40
0.0
 40
0.0
 40
0.0
 40
0.0
 40
0.5000000000000001
 40
0.5000000000000001
 40
0.75
 40
0.75
 40
1.0
 40
1.0
 40
1.0
 40
1.0
 10
201.3672711981675
 20
108.9617102771899
 30
0.0
 10
201.4269900554584
 20
109.1762903882523
 30
0.0
 10
201.4671773897257
 20
109.4100608832058
 30
0.0
 10
201.4673178417054
 20
109.7384747999943
 30
0.0
 10
201.4577916944357
 20
109.8412090830606
 30
0.0
 10
201.4224712302635
 20
110.027750397071
 30
0.0
 10
201.3971550506006
 20
110.1094886652828
 30
0.0
 10
201.3672711981675
 20
110.1796568833217
 30
0.0
  0
LINE
  5
199
330
1F
100
AcDbEntity
  8
0
  6
HIDDEN
 62
     7
370
     0
100
AcDbLine
 10
201.3672715707
 20
110.1796568886
 30
0.0
 11
201.3672715707
 21
112.8174568343
 31
0.0
  0
SPLINE
  5
19A
330
1F
100
AcDbEntity
  8
0
  6
HIDDEN
 62
     7
370
     0
100
AcDbSpline
210
0.0
220
0.0
230
1.0
 70
     8
 71
     3
 72
    64
 73
    60
 74
     0
 42
0.00000001
 43
0.00000001
 12
1.0
 22
0.0
 32
0.0
 13
1.0
 23
0.0
 33
0.0
 40
0.0
 40
0.0
 40
0.0
 40
0.0
 40
0.0624999999999997
 40
0.0624999999999997
 40
0.0937499999999997
 40
0.0937499999999997
 40
0.1249999999999998
 40
0.1249999999999998
 40
0.1562499999999998
 40
0.1562499999999998
 40
0.1874999999999999
 40
0.1874999999999999
 40
0.2187499999999999
 40
0.2187499999999999
 40
0.25
 40
0.25
 40
0.2812500000000001
 40
0.2812500000000001
 40
0.3125000000000001
 40
0.3125000000000001
 40
0.3437500000000002
 40
0.3437500000000002
 40
0.3750000000000002
 40
0.3750000000000002
 40
0.4062500000000003
 40
0.4062500000000003
 40
0.4375000000000003
 40
0.4375000000000003
 40
0.4687500000000004
 40
0.4687500000000004
 40
0.5000000000000004
 40
0.5000000000000004
 40
0.5312500000000004
 40
0.5312500000000004
 40
0.5625000000000006
 40
0.5625000000000006
 40
0.5937500000000006
 40
0.5937500000000006
 40
0.6250000000000007
 40
0.6250000000000007
 40
0.6562500000000007
 40
0.6562500000000007
 40
0.6875000000000008
 40
0.6875000000000008
 40
0.7187500000000008
 40
0.7187500000000008
 40
0.7500000000000009
 40
0.7500000000000009
 40
0.7812500000000009
 40
0.7812500000000009
 40
0.812500000000001
 40
0.812500000000001
 40
0.843750000000001
 40
0.843750000000001
 40
0.8750000000000011
 40
0.8750000000000011
 40
0.9375000000000006
 40
0.9375000000000006
 40
1.0
 40
1.0
 40
1.0
 40
1.0
 10
201.3672711981676
 20
110.1796568833248
 30
0.0
 10
201.2877085931363
 20
110.4363533569272
 30
0.0
 10
201.1684469888324
 20
110.673481125814
 30
0.0
 10
200.9450502387388
 20
110.9976634225941
 30
0.0
 10
200.8643587249204
 20
111.098467042983
 30
0.0
 10
200.6906355043702
 20
111.2868952210223
 30
0.0
 10
200.5968466599894
 20
111.3750860217822
 30
0.0
 10
200.3995908430148
 20
111.5340258588473
 30
0.0
 10
200.2961570344927
 20
111.6050610473687
 30
0.0
 10
200.0764153351934
 20
111.7286747401046
 30
0.0
 10
199.958769649486
 20
111.7818285277962
 30
0.0
 10
199.7094990244679
 20
111.8609541054919
 30
0.0
 10
199.5785146543874
 20
111.8864325302948
 30
0.0
 10
199.3104361636857
 20
111.9005194408479
 30
0.0
 10
199.1775706879975
 20
111.8889901579542
 30
0.0
 10
198.9177871962627
 20
111.8325365715806
 30
0.0
 10
198.7962770077965
 20
111.7893173462382
 30
0.0
 10
198.5639502784031
 20
111.6803611144914
 30
0.0
 10
198.4538500019613
 20
111.6146138577591
 30
0.0
 10
198.2481166208759
 20
111.468288094667
 30
0.0
 10
198.1514110571283
 20
111.3871312324954
 30
0.0
 10
197.9681477573935
 20
111.2091534889001
 30
0.0
 10
197.8814493500059
 20
111.1118364905024
 30
0.0
 10
197.7234907831052
 20
110.9071016972407
 30
0.0
 10
197.6514436836432
 20
110.799012540395
 30
0.0
 10
197.5219316280098
 20
110.5701833540747
 30
0.0
 10
197.4639447116471
 20
110.4478491410455
 30
0.0
 10
197.3693609439092
 20
110.1982805158334
 30
0.0
 10
197.3322885691055
 20
110.070768800367
 30
0.0
 10
197.2810737579151
 20
109.8096859379897
 30
0.0
 10
197.2678508430186
 20
109.6798158492878
 30
0.0
 10
197.2667290079227
 20
109.4268920030499
 30
0.0
 10
197.2791654469326
 20
109.3014383386512
 30
0.0
 10
197.3280244089213
 20
109.0674747521308
 30
0.0
 10
197.3642533593774
 20
108.9576074475007
 30
0.0
 10
197.4581146093962
 20
108.7528939942725
 30
0.0
 10
197.5144592693416
 20
108.6605748733445
 30
0.0
 10
197.6438734581619
 20
108.4925840136362
 30
0.0
 10
197.7172739442148
 20
108.4169657794861
 30
0.0
 10
197.8750156729423
 20
108.2847054554703
 30
0.0
 10
197.9599056592677
 20
108.2272566363573
 30
0.0
 10
198.1423120393336
 20
108.1269764774258
 30
0.0
 10
198.240525576579
 20
108.0840000738784
 30
0.0
 10
198.4467009969418
 20
108.0129092930813
 30
0.0
 10
198.5549736361924
 20
107.9844626042159
 30
0.0
 10
198.7865279197879
 20
107.9397223445608
 30
0.0
 10
198.9104136006485
 20
107.9235298058007
 30
0.0
 10
199.1674956214343
 20
107.903517093399
 30
0.0
 10
199.3036507414995
 20
107.8995353926079
 30
0.0
 10
199.5691350127526
 20
107.9036755794703
 30
0.0
 10
199.7023136729983
 20
107.9118746675744
 30
0.0
 10
199.9506490493877
 20
107.9401943848959
 30
0.0
 10
200.0689805956963
 20
107.9605117551127
 30
0.0
 10
200.2921484842505
 20
108.0142061244621
 30
0.0
 10
200.3962047247555
 20
108.0472573197715
 30
0.0
 10
200.6920827305226
 20
108.1679086193942
 30
0.0
 10
200.8692257276024
 20
108.2785060464276
 30
0.0
 10
201.1648174888692
 20
108.5648855065462
 30
0.0
 10
201.287517700328
 20
108.7451909198229
 30
0.0
 10
201.3672711981667
 20
108.9617102771877
 30
0.0
  0
LINE
  5
19B
330
1F
100
AcDbEntity
  8
0
  6
HIDDEN
 62
     7
370
     0
100
AcDbLine
 10
192.1672704352
 20
107.8174569461
 30
0.0
 11
192.1672704352
 21
112.8046301941
 31
0.0
  0
LINE
  5
19C
330
1F
100
AcDbEntity
  8
0
  6
HIDDEN
 62
     7
370
     0
100
AcDbLine
 10
219.0894777609
 20
112.5860990773
 30
0.0
 11
218.6513128413
 21
111.8621820401
 31
0.0
  0
ELLIPSE
  5
19D
330
1F
100
AcDbEntity
  8
0
  6
HIDDEN
 62
     7
370
     0
100
AcDbEllipse
 10
220.8842461744
 20
108.5849627426
 30
0.0
 11
3.953222233227706
 21
-1.478682026362492
 31
0.0
210
0.0
220
0.0
230
1.0
 40
0.8454008504
 41
1.170661207113683
 42
2.445785048352084
  0
LINE
  5
19E
330
1F
100
AcDbEntity
  8
0
  6
HIDDEN
 62
     7
370
     0
100
AcDbLine
 10
223.5755282177
 20
111.0870156603
 30
0.0
 11
224.0136931373
 21
111.8109326393
 31
0.0
  0
ELLIPSE
  5
19F
330
1F
100
AcDbEntity
  8
0
  6
HIDDEN
 62
     7
370
     0
100
AcDbEllipse
 10
219.7852727966
 20
106.7692916244
 30
0.0
 11
-2.220506159017873
 21
-3.668613800738144
 31
0.0
210
0.0
220
0.0
230
1.0
 40
0.9794128731
 41
3.08855582780987
 42
4.264861955910913
  0
LWPOLYLINE
  5
1A0
330
1F
100
AcDbEntity
  8
0
  6
HIDDEN
 62
     7
370
     0
100
AcDbPolyline
 90
       41
 70
   128
 43
0.0
 10
221.7520433201
 20
114.1548896025
 10
222.4054704143
 20
114.0920404627
 10
223.0428042544
 20
113.9288920726
 10
223.648357643
 20
113.669461692
 10
224.207218243
 20
113.3201372626
 10
224.705624832
 20
112.8895207125
 10
225.1313025786
 20
112.3882146834
 10
225.473772241
 20
111.8285633906
 10
225.7245997621
 20
111.2243470902
 10
225.8776086105
 20
110.5904437476
 10
225.9290362431
 20
109.9424620965
 10
225.8776086105
 20
109.2963576133
 10
225.7245997621
 20
108.6680395578
 10
225.473772241
 20
108.0729790314
 10
225.1313025786
 20
107.5258286486
 10
224.705624832
 20
107.0400610383
 10
224.207218243
 20
106.6276371761
 10
223.648357643
 20
106.2987124364
 10
223.0428042544
 20
106.0613862987
 10
222.4054704143
 20
105.9215021136
 10
221.7520433201
 20
105.8825043778
 10
221.0986199511
 20
105.9453537504
 10
220.4612823857
 20
106.1085019077
 10
219.8557289971
 20
106.3679325211
 10
219.2968683971
 20
106.7172567177
 10
218.7984655334
 20
107.1478735007
 10
218.3727877869
 20
107.6491795297
 10
218.0303181244
 20
108.2088308225
 10
217.7794906033
 20
108.8130469483
 10
217.6264780296
 20
109.44695032
 10
217.5750503971
 20
110.0949319857
 10
217.6264780296
 20
110.7410364834
 10
217.7794906033
 20
111.3693545389
 10
218.0303181244
 20
111.9644149489
 10
218.3727877869
 20
112.5115653317
 10
218.7984655334
 20
112.9973331749
 10
219.2968683971
 20
113.4097568042
 10
219.8557289971
 20
113.7386815439
 10
220.4612823857
 20
113.9760079145
 10
221.0986199511
 20
114.1158918667
 10
221.7520433201
 20
114.1548896025
  0
LINE
  5
1A1
330
1F
100
AcDbEntity
  8
0
  6
HIDDEN
 62
     7
370
     0
100
AcDbLine
 10
223.5755282177
 20
111.0870156603
 30
0.0
 11
223.9502328171
 21
115.8116253841
 31
0.0
  0
LINE
  5
1A2
330
1F
100
AcDbEntity
  8
0
  6
HIDDEN
 62
     7
370
     0
100
AcDbLine
 10
225.6557750238
 20
122.1334527995
 30
0.0
 11
225.3319243623
 21
121.5984051864
 31
0.0
  0
LINE
  5
1A3
330
1F
100
AcDbEntity
  8
0
  6
HIDDEN
 62
     7
370
     0
100
AcDbLine
 10
225.0752667619
 20
118.0538724925
 30
0.0
 11
225.6557750238
 21
122.1334527995
 31
0.0
  0
LINE
  5
1A4
330
1F
100
AcDbEntity
  8
0
  6
HIDDEN
 62
     7
370
     0
100
AcDbLine
 10
225.7838058008
 20
119.2244890894
 30
0.0
 11
225.0752667619
 21
118.0538724925
 31
0.0
  0
LWPOLYLINE
  5
1A5
330
1F
100
AcDbEntity
  8
0
  6
HIDDEN
 62
     7
370
     0
100
AcDbPolyline
 90
       29
 70
   128
 43
0.0
 10
199.3672712429
 20
109.1442676311
 10
199.83456607
 20
109.0941930938
 10
200.2784269585
 20
108.9464807932
 10
200.6765990241
 20
108.7085373051
 10
201.0091165735
 20
108.3922943848
 10
201.2593052073
 20
108.0136095456
 10
201.4146200104
 20
107.591471989
 10
201.4672714008
 20
107.1470488145
 10
201.4146200104
 20
106.7026258729
 10
201.2593052073
 20
106.2804883163
 10
201.0091165735
 20
105.9018032442
 10
200.6765990241
 20
105.5855605568
 10
200.2784269585
 20
105.3476169522
 10
199.83456607
 20
105.1999045353
 10
199.3672712429
 20
105.1498301144
 10
198.8999764158
 20
105.1999045353
 10
198.4561155273
 20
105.3476169522
 10
198.0579434617
 20
105.5855605568
 10
197.7254259123
 20
105.9018032442
 10
197.4752372785
 20
106.2804883163
 10
197.3199224754
 20
106.7026258729
 10
197.2672710849
 20
107.1470488145
 10
197.3199224754
 20
107.591471989
 10
197.4752372785
 20
108.0136095456
 10
197.7254259123
 20
108.3922943848
 10
198.0579434617
 20
108.7085373051
 10
198.4561155273
 20
108.9464807932
 10
198.8999764158
 20
109.0941930938
 10
199.3672712429
 20
109.1442676311
  0
LINE
  5
1A6
330
1F
100
AcDbEntity
  8
0
  6
HIDDEN
 62
     7
370
     0
100
AcDbLine
 10
184.3172716631
 20
93.4174576591
 30
0.0
 11
188.8172714694
 21
93.4174576591
 31
0.0
  0
LINE
  5
1A7
330
1F
100
AcDbEntity
  8
0
  6
HIDDEN
 62
     7
370
     0
100
AcDbLine
 10
162.5672713576
 20
99.3174569498
 30
0.0
 11
162.5672713576
 21
96.6807104464
 31
0.0
  0
LINE
  5
1A8
330
1F
100
AcDbEntity
  8
0
  6
HIDDEN
 62
     7
370
     0
100
AcDbLine
 10
160.0672709478
 20
121.3174568306
 30
0.0
 11
160.0672709478
 21
123.8749813105
 31
0.0
  0
ARC
  5
1A9
330
1F
100
AcDbEntity
  8
0
  6
HIDDEN
 62
     7
370
     0
100
AcDbCircle
 10
223.4993214852
 20
124.4627068712
 30
0.0
 40
3.174226897211896
100
AcDbArc
 50
312.7939159297
 51
209.3140193619
  0
LINE
  5
1AA
330
1F
100
AcDbEntity
  8
0
  6
HIDDEN
 62
     7
370
     0
100
AcDbLine
 10
220.7315559222
 20
122.9086186553
 30
0.0
 11
219.5703494085
 21
114.7480885315
 31
0.0
  0
LINE
  5
1AB
330
1F
100
AcDbEntity
  8
0
  6
HIDDEN
 62
     7
370
     0
100
AcDbLine
 10
229.0488960875
 20
134.7236422639
 30
0.0
 11
219.4712976648
 21
128.9721553962
 31
0.0
  0
ELLIPSE
  5
1AC
330
1F
100
AcDbEntity
  8
0
  6
HIDDEN
 62
     7
370
     0
100
AcDbEllipse
 10
173.0516569075
 20
111.8174568902
 30
0.0
 11
237.8586779710881
 21
-4.388194929981978
 31
0.0
210
0.0
220
0.0
230
1.0
 40
0.1034726254
 41
1.33339263016404
 42
1.335052635744569
  0
LINE
  5
1AD
330
1F
100
AcDbEntity
  8
0
  6
HIDDEN
 62
     7
370
     0
100
AcDbLine
 10
229.9153464569
 20
134.165578876
 30
0.0
 11
229.4325674607
 21
134.7069864909
 31
0.0
  0
ARC
  5
1AE
330
1F
100
AcDbEntity
  8
0
  6
HIDDEN
 62
     7
370
     0
100
AcDbCircle
 10
210.9309670203
 20
143.1969232693
 30
0.0
 40
16.59160235058146
100
AcDbArc
 50
292.6536990578
 51
300.9799539533
  0
LINE
  5
1AF
330
1F
100
AcDbEntity
  8
0
  6
HIDDEN
 62
     7
370
     0
100
AcDbLine
 10
217.3213953806
 20
127.8853690068
 30
0.0
 11
216.7955408527
 21
117.9590852748
 31
0.0
  0
LINE
  5
1B0
330
1F
100
AcDbEntity
  8
0
  6
HIDDEN
 62
     7
370
     0
100
AcDbLine
 10
216.358504696
 20
112.8193287927
 30
0.0
 11
219.5703494085
 21
114.7480885315
 31
0.0
  0
LINE
  5
1B1
330
1F
100
AcDbEntity
  8
0
  6
HIDDEN
 62
     7
370
     0
100
AcDbLine
 10
225.0752667619
 20
118.0538724925
 30
0.0
 11
229.1928040518
 21
120.5265143703
 31
0.0
  0
LINE
  5
1B2
330
1F
100
AcDbEntity
  8
0
  6
HIDDEN
 62
     7
370
     0
100
AcDbLine
 10
229.1928040518
 20
120.5265143703
 30
0.0
 11
229.9153464569
 21
134.165578876
 31
0.0
  0
LINE
  5
1B3
330
1F
100
AcDbEntity
  8
0
  6
HIDDEN
 62
     7
370
     0
100
AcDbLine
 10
193.407270564
 20
127.7200611125
 30
0.0
 11
193.407270564
 21
93.2045778076
 31
0.0
  0
SPLINE
  5
1B4
330
1F
100
AcDbEntity
  8
0
  6
HIDDEN
 62
     7
370
     0
100
AcDbSpline
210
0.0
220
0.0
230
1.0
 70
     8
 71
     3
 72
    10
 73
     6
 74
     0
 42
0.00000001
 43
0.00000001
 12
1.0
 22
0.0
 32
0.0
 13
1.0
 23
0.0
 33
0.0
 40
0.0
 40
0.0
 40
0.0
 40
0.0
 40
0.5
 40
0.5
 40
1.0
 40
1.0
 40
1.0
 40
1.0
 10
193.1589268124175
 20
127.2174568901867
 30
0.0
 10
193.2363548169661
 20
127.2754161965737
 30
0.0
 10
193.2995344338527
 20
127.3524008516918
 30
0.0
 10
193.3848296131139
 20
127.5259709845642
 30
0.0
 10
193.4072711981675
 20
127.622872247046
 30
0.0
 10
193.4072711981675
 20
127.7200608620065
 30
0.0
  0
SPLINE
  5
1B5
330
1F
100
AcDbEntity
  8
0
  6
HIDDEN
 62
     7
370
     0
100
AcDbSpline
210
0.0
220
0.0
230
1.0
 70
     8
 71
     3
 72
    10
 73
     6
 74
     0
 42
0.00000001
 43
0.00000001
 12
1.0
 22
0.0
 32
0.0
 13
1.0
 23
0.0
 33
0.0
 40
0.0
 40
0.0
 40
0.0
 40
0.0
 40
0.5
 40
0.5
 40
1.0
 40
1.0
 40
1.0
 40
1.0
 10
193.3720487975862
 20
93.41745689018668
 30
0.0
 10
193.3837609145493
 20
93.3831135529927
 30
0.0
 10
193.3925589844214
 20
93.34802101525449
 30
0.0
 10
193.4043725421934
 20
93.27634923986375
 30
0.0
 10
193.4072711981675
 20
93.24040558549848
 30
0.0
 10
193.4072711981675
 20
93.20457796815838
 30
0.0
  0
SPLINE
  5
1B6
330
1F
100
AcDbEntity
  8
0
  6
HIDDEN
 62
     7
370
     0
100
AcDbSpline
210
0.0
220
0.0
230
1.0
 70
    24
 71
     3
 72
    12
 73
     8
 74
     0
 42
0.00000001
 43
0.00000001
 12
1.0
 22
0.0
 32
0.0
 13
1.0
 23
0.0
 33
0.0
 40
0.0
 40
0.0
 40
0.0
 40
0.0
 40
0.25
 40
0.25
 40
0.5
 40
0.5
 40
1.0
 40
1.0
 40
1.0
 40
1.0
 10
192.8072711981675
 20
127.2174568901867
 30
0.0
 10
192.858988116077
 20
127.2174568901867
 30
0.0
 10
192.9060759042157
 20
127.2174568901867
 30
0.0
 10
192.9791398988908
 20
127.2174568901867
 30
0.0
 10
193.0087688061766
 20
127.2174568901867
 30
0.0
 10
193.0873421507016
 20
127.2174568901867
 30
0.0
 10
193.125306018934
 20
127.2174568901867
 30
0.0
 10
193.1589268124175
 20
127.2174568901867
 30
0.0
  0
SPLINE
  5
1B7
330
1F
100
AcDbEntity
  8
0
  6
HIDDEN
 62
     7
370
     0
100
AcDbSpline
210
0.0
220
0.0
230
1.0
 70
    24
 71
     3
 72
    16
 73
    12
 74
     0
 42
0.00000001
 43
0.00000001
 12
1.0
 22
0.0
 32
0.0
 13
1.0
 23
0.0
 33
0.0
 40
0.0
 40
0.0
 40
0.0
 40
0.0
 40
0.0625000000000004
 40
0.0625000000000004
 40
0.1250000000000008
 40
0.1250000000000008
 40
0.2500000000000016
 40
0.2500000000000016
 40
0.5000000000000004
 40
0.5000000000000004
 40
1.0
 40
1.0
 40
1.0
 40
1.0
 10
192.8072711981675
 20
93.41745689018668
 30
0.0
 10
192.8416005358103
 20
93.41745689018667
 30
0.0
 10
192.875615777271
 20
93.41745689018668
 30
0.0
 10
192.9321003518272
 20
93.41745689018668
 30
0.0
 10
192.9564027346693
 20
93.41745689018668
 30
0.0
 10
193.0206680114883
 20
93.41745689018668
 30
0.0
 10
193.0540253809944
 20
93.41745689018668
 30
0.0
 10
193.142449116312
 20
93.41745689018668
 30
0.0
 10
193.1849886599208
 20
93.41745689018668
 30
0.0
 10
193.294972744991
 20
93.41745689018667
 30
0.0
 10
193.3421994120185
 20
93.41745689018668
 30
0.0
 10
193.3720487975862
 20
93.41745689018668
 30
0.0
  0
LINE
  5
1B8
330
1F
100
AcDbEntity
  8
0
  6
HIDDEN
 62
     7
370
     0
100
AcDbLine
 10
219.5703494085
 20
114.7480885315
 30
0.0
 11
219.6287135316
 21
114.8445158082
 31
0.0
  0
LINE
  5
1B9
330
1F
100
AcDbEntity
  8
0
  6
HIDDEN
 62
     7
370
     0
100
AcDbLine
 10
157.4762719406
 20
99.3174569498
 30
0.0
 11
157.4762719406
 21
97.4391655813
 31
0.0
  0
LINE
  5
1BA
330
1F
100
AcDbEntity
  8
0
  6
HIDDEN
 62
     7
370
     0
100
AcDbLine
 10
156.4672714753
 20
99.3174569498
 30
0.0
 11
156.4672714753
 21
98.4516333605
 31
0.0
  0
SPLINE
  5
1BB
330
1F
100
AcDbEntity
  8
0
  6
HIDDEN
 62
     7
370
     0
100
AcDbSpline
210
0.0
220
0.0
230
1.0
 70
     8
 71
     3
 72
    10
 73
     6
 74
     0
 42
0.00000001
 43
0.00000001
 12
1.0
 22
0.0
 32
0.0
 13
1.0
 23
0.0
 33
0.0
 40
0.0
 40
0.0
 40
0.0
 40
0.0
 40
0.5
 40
0.5
 40
1.0
 40
1.0
 40
1.0
 40
1.0
 10
191.3272711981675
 20
127.7200608620065
 30
0.0
 10
191.3272711981675
 20
127.6231257967748
 30
0.0
 10
191.349720834013
 20
127.5260665180356
 30
0.0
 10
191.434716492281
 20
127.3528824306286
 30
0.0
 10
191.4975725762115
 20
127.2758765617431
 30
0.0
 10
191.5756155839175
 20
127.2174568901867
 30
0.0
  0
LINE
  5
1BC
330
1F
100
AcDbEntity
  8
0
  6
HIDDEN
 62
     7
370
     0
100
AcDbLine
 10
191.3272714896
 20
127.7200611125
 30
0.0
 11
191.3272714896
 21
93.2045778076
 31
0.0
  0
SPLINE
  5
1BD
330
1F
100
AcDbEntity
  8
0
  6
HIDDEN
 62
     7
370
     0
100
AcDbSpline
210
0.0
220
0.0
230
1.0
 70
     8
 71
     3
 72
    10
 73
     6
 74
     0
 42
0.00000001
 43
0.00000001
 12
1.0
 22
0.0
 32
0.0
 13
1.0
 23
0.0
 33
0.0
 40
0.0
 40
0.0
 40
0.0
 40
0.0
 40
0.5
 40
0.5
 40
1.0
 40
1.0
 40
1.0
 40
1.0
 10
191.3272711981675
 20
93.20457796815838
 30
0.0
 10
191.3272711981675
 20
93.24080045759912
 30
0.0
 10
191.330240927465
 20
93.2769936548577
 30
0.0
 10
191.3421199098129
 20
93.34863214627258
 30
0.0
 10
191.3509151376536
 20
93.38350547091427
 30
0.0
 10
191.3624935987489
 20
93.41745689018668
 30
0.0
  0
SPLINE
  5
1BE
330
1F
100
AcDbEntity
  8
0
  6
HIDDEN
 62
     7
370
     0
100
AcDbSpline
210
0.0
220
0.0
230
1.0
 70
    24
 71
     3
 72
    12
 73
     8
 74
     0
 42
0.00000001
 43
0.00000001
 12
1.0
 22
0.0
 32
0.0
 13
1.0
 23
0.0
 33
0.0
 40
0.0
 40
0.0
 40
0.0
 40
0.0
 40
0.4999999999999982
 40
0.4999999999999982
 40
0.7499999999999991
 40
0.7499999999999991
 40
1.0
 40
1.0
 40
1.0
 40
1.0
 10
191.5756155839175
 20
127.2174568901867
 30
0.0
 10
191.6093118275765
 20
127.2174568901867
 30
0.0
 10
191.6473487023447
 20
127.2174568901867
 30
0.0
 10
191.7259090237489
 20
127.2174568901867
 30
0.0
 10
191.7555375291745
 20
127.2174568901867
 30
0.0
 10
191.8284812719201
 20
127.2174568901867
 30
0.0
 10
191.8756337521768
 20
127.2174568901867
 30
0.0
 10
191.9272711981675
 20
127.2174568901867
 30
0.0
  0
SPLINE
  5
1BF
330
1F
100
AcDbEntity
  8
0
  6
HIDDEN
 62
     7
370
     0
100
AcDbSpline
210
0.0
220
0.0
230
1.0
 70
    24
 71
     3
 72
    16
 73
    12
 74
     0
 42
0.00000001
 43
0.00000001
 12
1.0
 22
0.0
 32
0.0
 13
1.0
 23
0.0
 33
0.0
 40
0.0
 40
0.0
 40
0.0
 40
0.0
 40
0.5000000000000003
 40
0.5000000000000003
 40
0.7500000000000004
 40
0.7500000000000004
 40
0.8750000000000012
 40
0.8750000000000012
 40
0.9375000000000007
 40
0.9375000000000007
 40
1.0
 40
1.0
 40
1.0
 40
1.0
 10
191.3624935987488
 20
93.41745689018668
 30
0.0
 10
191.3923500378696
 20
93.41745689018668
 30
0.0
 10
191.4392719117244
 20
93.41745689018668
 30
0.0
 10
191.5497393181444
 20
93.41745689018668
 30
0.0
 10
191.5929651703554
 20
93.41745689018667
 30
0.0
 10
191.6813830708826
 20
93.41745689018668
 30
0.0
 10
191.7142564115231
 20
93.41745689018668
 30
0.0
 10
191.7785485425979
 20
93.41745689018667
 30
0.0
 10
191.8027026966052
 20
93.41745689018667
 30
0.0
 10
191.8594374672629
 20
93.41745689018668
 30
0.0
 10
191.8928085234485
 20
93.41745689018668
 30
0.0
 10
191.9272711981675
 20
93.41745689018668
 30
0.0
  0
LINE
  5
1C0
330
1F
100
AcDbEntity
  8
0
  6
HIDDEN
 62
     7
370
     0
100
AcDbLine
 10
157.4172707929
 20
121.3174568306
 30
0.0
 11
157.4172707929
 21
123.1901975165
 31
0.0
  0
LINE
  5
1C1
330
1F
100
AcDbEntity
  8
0
  6
HIDDEN
 62
     7
370
     0
100
AcDbLine
 10
156.4672714753
 20
120.1824633221
 30
0.0
 11
156.4672714753
 21
100.4524504582
 31
0.0
  0
LINE
  5
1C2
330
1F
100
AcDbEntity
  8
0
  6
HIDDEN
 62
     7
370
     0
100
AcDbLine
 10
156.4672714753
 20
121.3174568306
 30
0.0
 11
156.4672714753
 21
122.2419295277
 31
0.0
  0
LINE
  5
1C3
330
1F
100
AcDbEntity
  8
0
  6
HIDDEN
 62
     7
370
     0
100
AcDbLine
 10
191.9272714017
 20
127.2174561213
 30
0.0
 11
192.8072715832
 21
127.2174561213
 31
0.0
  0
LINE
  5
1C4
330
1F
100
AcDbEntity
  8
0
  6
HIDDEN
 62
     7
370
     0
100
AcDbLine
 10
191.9272714017
 20
93.4174576591
 30
0.0
 11
192.8072715832
 21
93.4174576591
 31
0.0
  0
SPLINE
  5
1C5
330
1F
100
AcDbEntity
  8
0
  6
HIDDEN
 62
     7
370
     0
100
AcDbSpline
210
0.0
220
0.0
230
1.0
 70
     8
 71
     3
 72
     8
 73
     4
 74
     0
 42
0.00000001
 43
0.00000001
 12
1.0
 22
0.0
 32
0.0
 13
1.0
 23
0.0
 33
0.0
 40
0.0
 40
0.0
 40
0.0
 40
0.0
 40
1.0
 40
1.0
 40
1.0
 40
1.0
 10
190.3321114992741
 20
129.8046321600918
 30
0.0
 10
190.6644695956638
 20
129.2138219464198
 30
0.0
 10
190.9962508671479
 20
128.6226892821746
 30
0.0
 10
191.3272711981675
 20
128.0311335857169
 30
0.0
  0
SPLINE
  5
1C6
330
1F
100
AcDbEntity
  8
0
  6
HIDDEN
 62
     7
370
     0
100
AcDbSpline
210
0.0
220
0.0
230
1.0
 70
     8
 71
     3
 72
     8
 73
     4
 74
     0
 42
0.00000001
 43
0.00000001
 12
1.0
 22
0.0
 32
0.0
 13
1.0
 23
0.0
 33
0.0
 40
0.0
 40
0.0
 40
0.0
 40
0.0
 40
1.0
 40
1.0
 40
1.0
 40
1.0
 10
193.4072711981675
 20
128.0311335857169
 30
0.0
 10
193.7382915291872
 20
128.6226892821746
 30
0.0
 10
194.0700728006713
 20
129.2138219464198
 30
0.0
 10
194.402430897061
 20
129.8046321600918
 30
0.0
  0
SPLINE
  5
1C7
330
1F
100
AcDbEntity
  8
0
  6
HIDDEN
 62
     7
370
     0
100
AcDbSpline
210
0.0
220
0.0
230
1.0
 70
     8
 71
     3
 72
    10
 73
     6
 74
     0
 42
0.00000001
 43
0.00000001
 12
1.0
 22
0.0
 32
0.0
 13
1.0
 23
0.0
 33
0.0
 40
0.0
 40
0.0
 40
0.0
 40
0.0
 40
0.5
 40
0.5
 40
1.0
 40
1.0
 40
1.0
 40
1.0
 10
195.7172711981675
 20
129.8046321600918
 30
0.0
 10
195.877693422767
 20
129.8046321600918
 30
0.0
 10
196.0341762234342
 20
129.7360467575859
 30
0.0
 10
196.2548298340016
 20
129.5062734882663
 30
0.0
 10
196.3172711981676
 20
129.3477752865986
 30
0.0
 10
196.3172711981675
 20
129.1883339233296
 30
0.0
  0
LINE
  5
1C8
330
1F
100
AcDbEntity
  8
0
  6
HIDDEN
 62
     7
370
     0
100
AcDbLine
 10
194.4024315758
 20
129.8046329807
 30
0.0
 11
195.717270924
 21
129.8046329807
 31
0.0
  0
LINE
  5
1C9
330
1F
100
AcDbEntity
  8
0
  6
HIDDEN
 62
     7
370
     0
100
AcDbLine
 10
196.3172717674
 20
129.1883339922
 30
0.0
 11
196.3172717674
 21
91.7134241949
 31
0.0
  0
SPLINE
  5
1CA
330
1F
100
AcDbEntity
  8
0
  6
HIDDEN
 62
     7
370
     0
100
AcDbSpline
210
0.0
220
0.0
230
1.0
 70
     8
 71
     3
 72
    12
 73
     8
 74
     0
 42
0.00000001
 43
0.00000001
 12
1.0
 22
0.0
 32
0.0
 13
1.0
 23
0.0
 33
0.0
 40
0.0
 40
0.0
 40
0.0
 40
0.0
 40
0.2499999999999982
 40
0.2499999999999982
 40
0.4999999999999963
 40
0.4999999999999963
 40
1.0
 40
1.0
 40
1.0
 40
1.0
 10
195.7172711981675
 20
91.08857236715727
 30
0.0
 10
195.7970366786377
 20
91.08857236715725
 30
0.0
 10
195.8774579622948
 20
91.10554796351538
 30
0.0
 10
196.0241398789574
 20
91.17002346097456
 30
0.0
 10
196.0904936885213
 20
91.21713709276916
 30
0.0
 10
196.2566977692479
 20
91.39374700675666
 30
0.0
 10
196.3172711981675
 20
91.55359588256482
 30
0.0
 10
196.3172711981676
 20
91.71342506909986
 30
0.0
  0
LINE
  5
1CB
330
1F
100
AcDbEntity
  8
0
  6
HIDDEN
 62
     7
370
     0
100
AcDbLine
 10
191.3272714896
 20
128.0311340283
 30
0.0
 11
191.3272714896
 21
92.8883341889
 31
0.0
  0
LINE
  5
1CC
330
1F
100
AcDbEntity
  8
0
  6
HIDDEN
 62
     7
370
     0
100
AcDbLine
 10
194.4024315758
 20
129.8046329807
 30
0.0
 11
194.4024315758
 21
91.0885719399
 31
0.0
  0
LINE
  5
1CD
330
1F
100
AcDbEntity
  8
0
  6
HIDDEN
 62
     7
370
     0
100
AcDbLine
 10
193.407270564
 20
128.0311340283
 30
0.0
 11
193.407270564
 21
92.8883341889
 31
0.0
  0
SPLINE
  5
1CE
330
1F
100
AcDbEntity
  8
0
  6
HIDDEN
 62
     7
370
     0
100
AcDbSpline
210
0.0
220
0.0
230
1.0
 70
     8
 71
     3
 72
     8
 73
     4
 74
     0
 42
0.00000001
 43
0.00000001
 12
1.0
 22
0.0
 32
0.0
 13
1.0
 23
0.0
 33
0.0
 40
0.0
 40
0.0
 40
0.0
 40
0.0
 40
1.0
 40
1.0
 40
1.0
 40
1.0
 10
190.3321114992741
 20
91.08857236715727
 30
0.0
 10
190.6648167709794
 20
91.68794404038093
 30
0.0
 10
190.9966325715529
 20
92.28781315108597
 30
0.0
 10
191.3272711981675
 20
92.88833350219697
 30
0.0
  0
SPLINE
  5
1CF
330
1F
100
AcDbEntity
  8
0
  6
HIDDEN
 62
     7
370
     0
100
AcDbSpline
210
0.0
220
0.0
230
1.0
 70
     8
 71
     3
 72
     8
 73
     4
 74
     0
 42
0.00000001
 43
0.00000001
 12
1.0
 22
0.0
 32
0.0
 13
1.0
 23
0.0
 33
0.0
 40
0.0
 40
0.0
 40
0.0
 40
0.0
 40
1.0
 40
1.0
 40
1.0
 40
1.0
 10
193.4072711981675
 20
92.88833350219696
 30
0.0
 10
193.7379098247821
 20
92.28781315108596
 30
0.0
 10
194.0697256253557
 20
91.68794404038093
 30
0.0
 10
194.402430897061
 20
91.08857236715727
 30
0.0
  0
LINE
  5
1D0
330
1F
100
AcDbEntity
  8
0
  6
HIDDEN
 62
     7
370
     0
100
AcDbLine
 10
194.4024315758
 20
91.0885719399
 30
0.0
 11
195.717270924
 21
91.0885719399
 31
0.0
  0
SPLINE
  5
1D1
330
1F
100
AcDbEntity
  8
0
  6
HIDDEN
 62
     7
370
     0
100
AcDbSpline
210
0.0
220
0.0
230
1.0
 70
     8
 71
     3
 72
    10
 73
     6
 74
     0
 42
0.00000001
 43
0.00000001
 12
1.0
 22
0.0
 32
0.0
 13
1.0
 23
0.0
 33
0.0
 40
0.0
 40
0.0
 40
0.0
 40
0.0
 40
0.5
 40
0.5
 40
1.0
 40
1.0
 40
1.0
 40
1.0
 10
224.754302133578
 20
120.9124671091979
 30
0.0
 10
224.8904766595713
 20
121.048558259352
 30
0.0
 10
225.0088276282247
 20
121.1801480211369
 30
0.0
 10
225.2064635922885
 20
121.4175514690364
 30
0.0
 10
225.287220188354
 20
121.5245454176212
 30
0.0
 10
225.3319251493438
 20
121.5984048105271
 30
0.0
  0
ARC
  5
1D2
330
1F
100
AcDbEntity
  8
0
  6
HIDDEN
 62
     7
370
     0
100
AcDbCircle
 10
222.9193228842
 20
123.5011269069
 30
0.0
 40
3.17306009553217
100
AcDbArc
 50
305.3310548541
 51
216.7768833044
  0
SPLINE
  5
1D3
330
1F
100
AcDbEntity
  8
0
  6
HIDDEN
 62
     7
370
     0
100
AcDbSpline
210
0.0
220
0.0
230
1.0
 70
     8
 71
     3
 72
    10
 73
     6
 74
     0
 42
0.00000001
 43
0.00000001
 12
1.0
 22
0.0
 32
0.0
 13
1.0
 23
0.0
 33
0.0
 40
0.0
 40
0.0
 40
0.0
 40
0.0
 40
0.5
 40
0.5
 40
1.0
 40
1.0
 40
1.0
 40
1.0
 10
220.4077087661056
 20
122.3735712104707
 30
0.0
 10
220.3630562582308
 20
122.2997984780861
 30
0.0
 10
220.3446343248612
 20
122.182873093789
 30
0.0
 10
220.3373596693983
 20
121.9154965997339
 30
0.0
 10
220.3494537470693
 20
121.7633814867018
 30
0.0
 10
220.3777892847428
 20
121.6014144350883
 30
0.0
  0
LINE
  5
1D4
330
1F
100
AcDbEntity
  8
0
  6
HIDDEN
 62
     7
370
     0
100
AcDbLine
 10
220.4077089859
 20
122.3735710423
 30
0.0
 11
220.7315559222
 21
122.9086186553
 31
0.0
  0
LINE
  5
1D5
330
1F
100
AcDbEntity
  8
0
  6
HIDDEN
 62
     7
370
     0
100
AcDbLine
 10
156.4672714753
 20
98.4989845942
 30
0.0
 11
156.4672714753
 21
98.769943584
 31
0.0
  0
LINE
  5
1D6
330
1F
100
AcDbEntity
  8
0
  6
HIDDEN
 62
     7
370
     0
100
AcDbLine
 10
156.4672714753
 20
122.1913708191
 30
0.0
 11
156.4672714753
 21
122.0956886004
 31
0.0
  0
SPLINE
  5
1D7
330
1F
100
AcDbEntity
  8
0
  6
HIDDEN
 62
     7
370
     0
100
AcDbSpline
210
0.0
220
0.0
230
1.0
 70
     8
 71
     3
 72
     8
 73
     4
 74
     0
 42
0.00000001
 43
0.00000001
 12
1.0
 22
0.0
 32
0.0
 13
1.0
 23
0.0
 33
0.0
 40
0.0
 40
0.0
 40
0.0
 40
0.0
 40
1.0
 40
1.0
 40
1.0
 40
1.0
 10
156.8617397967275
 20
98.85254073182095
 30
0.0
 10
156.7535354654814
 20
98.91468271821681
 30
0.0
 10
156.6612977174221
 20
99.00170299820584
 30
0.0
 10
156.5941161178488
 20
99.1040247280145
 30
0.0
  0
SPLINE
  5
1D8
330
1F
100
AcDbEntity
  8
0
  6
HIDDEN
 62
     7
370
     0
100
AcDbSpline
210
0.0
220
0.0
230
1.0
 70
     8
 71
     3
 72
    26
 73
    22
 74
     0
 42
0.00000001
 43
0.00000001
 12
1.0
 22
0.0
 32
0.0
 13
1.0
 23
0.0
 33
0.0
 40
0.0
 40
0.0
 40
0.0
 40
0.0
 40
0.2499999999999939
 40
0.2499999999999939
 40
0.3749999999999901
 40
0.3749999999999901
 40
0.4374999999999884
 40
0.4374999999999884
 40
0.4687499999999879
 40
0.4687499999999879
 40
0.4999999999999874
 40
0.4999999999999874
 40
0.5312499999999869
 40
0.5312499999999869
 40
0.5624999999999865
 40
0.5624999999999865
 40
0.6249999999999879
 40
0.6249999999999879
 40
0.7499999999999918
 40
0.7499999999999918
 40
1.0
 40
1.0
 40
1.0
 40
1.0
 10
157.2272412445554
 20
122.7055374697996
 30
0.0
 10
157.1798531351269
 20
122.5698817277765
 30
0.0
 10
157.1222118332225
 20
122.4259203294473
 30
0.0
 10
157.0001640206792
 20
122.1831477561929
 30
0.0
 10
156.9541150129027
 20
122.0981081157435
 30
0.0
 10
156.8634617287371
 20
121.9577321427032
 30
0.0
 10
156.8291092284515
 20
121.9078207653643
 30
0.0
 10
156.766674056061
 20
121.83128550051
 30
0.0
 10
156.7433800372629
 20
121.8048810215231
 30
0.0
 10
156.6943275001364
 20
121.7572862562621
 30
0.0
 10
156.6698960504795
 20
121.7378436424103
 30
0.0
 10
156.6292664548597
 20
121.7129358647421
 30
0.0
 10
156.6131041730086
 20
121.7068660334312
 30
0.0
 10
156.5861221289054
 20
121.7011771618374
 30
0.0
 10
156.5753726060826
 20
121.7015676699181
 30
0.0
 10
156.5473366319255
 20
121.7077100167066
 30
0.0
 10
156.5344753998928
 20
121.7183740231246
 30
0.0
 10
156.5034725387325
 20
121.7573868134848
 30
0.0
 10
156.4926130566634
 20
121.7934388038891
 30
0.0
 10
156.4693358007254
 20
121.9111182013882
 30
0.0
 10
156.4672711981675
 20
122.0024481017212
 30
0.0
 10
156.4672711981675
 20
122.0956883546274
 30
0.0
  0
SPLINE
  5
1D9
330
1F
100
AcDbEntity
  8
0
  6
HIDDEN
 62
     7
370
     0
100
AcDbSpline
210
0.0
220
0.0
230
1.0
 70
     8
 71
     3
 72
    12
 73
     8
 74
     0
 42
0.00000001
 43
0.00000001
 12
1.0
 22
0.0
 32
0.0
 13
1.0
 23
0.0
 33
0.0
 40
0.0
 40
0.0
 40
0.0
 40
0.0
 40
0.25
 40
0.25
 40
0.5
 40
0.5
 40
1.0
 40
1.0
 40
1.0
 40
1.0
 10
156.8617397967338
 20
98.85254073182057
 30
0.0
 10
156.91197480578
 20
98.78172512943976
 30
0.0
 10
156.9520196449234
 20
98.71632757711147
 30
0.0
 10
157.0244721623506
 20
98.59033677362669
 30
0.0
 10
157.0557665600534
 20
98.53097323752989
 30
0.0
 10
157.1413752897847
 20
98.35897601654489
 30
0.0
 10
157.1873760860687
 20
98.25246449219563
 30
0.0
 10
157.2272412445554
 20
98.15047130526123
 30
0.0
  0
SPLINE
  5
1DA
330
1F
100
AcDbEntity
  8
0
  6
HIDDEN
 62
     7
370
     0
100
AcDbSpline
210
0.0
220
0.0
230
1.0
 70
     8
 71
     3
 72
    14
 73
    10
 74
     0
 42
0.00000001
 43
0.00000001
 12
1.0
 22
0.0
 32
0.0
 13
1.0
 23
0.0
 33
0.0
 40
0.0
 40
0.0
 40
0.0
 40
0.0
 40
0.4999999999999991
 40
0.4999999999999991
 40
0.7499999999999987
 40
0.7499999999999987
 40
0.8749999999999993
 40
0.8749999999999993
 40
1.0
 40
1.0
 40
1.0
 40
1.0
 10
156.4672711981675
 20
98.7699436889653
 30
0.0
 10
156.4672711981675
 20
98.84675526097224
 30
0.0
 10
156.4698004557673
 20
98.9211725223031
 30
0.0
 10
156.4895714023
 20
99.01767380000442
 30
0.0
 10
156.4988330021735
 20
99.04741539667914
 30
0.0
 10
156.5222944160826
 20
99.08191302290248
 30
0.0
 10
156.5317168307466
 20
99.09174366133134
 30
0.0
 10
156.5567862206983
 20
99.10492148982466
 30
0.0
 10
156.5720906750908
 20
99.10851972480467
 30
0.0
 10
156.5941161178488
 20
99.1040247280145
 30
0.0
  0
LINE
  5
1DB
330
1F
100
AcDbEntity
  8
0
  6
HIDDEN
 62
     7
370
     0
100
AcDbLine
 10
156.4672714753
 20
122.0956886004
 30
0.0
 11
156.4672714753
 21
98.769943584
 31
0.0
  0
SPLINE
  5
1DC
330
1F
100
AcDbEntity
  8
0
  6
HIDDEN
 62
     7
370
     0
100
AcDbSpline
210
0.0
220
0.0
230
1.0
 70
     8
 71
     3
 72
    20
 73
    16
 74
     0
 42
0.00000001
 43
0.00000001
 12
1.0
 22
0.0
 32
0.0
 13
1.0
 23
0.0
 33
0.0
 40
0.0
 40
0.0
 40
0.0
 40
0.0
 40
0.0416672996752181
 40
0.0833236621737632
 40
0.1249845438042272
 40
0.1874689495683294
 40
0.2499849018537956
 40
0.3749847365614337
 40
0.4999915547624618
 40
0.6249996097270358
 40
0.7500031003883016
 40
0.8124753805871692
 40
0.8750094992097568
 40
0.9374754258358254
 40
1.0
 40
1.0
 40
1.0
 40
1.0
 10
228.5859590931603
 20
127.307674551119
 30
0.0
 10
228.6040639766903
 20
127.4297317153153
 30
0.0
 10
228.640268991431
 20
127.6738140051362
 30
0.0
 10
228.6948851022752
 20
128.0323692783599
 30
0.0
 10
228.7588315673319
 20
128.4439742768867
 30
0.0
 10
228.8322682313456
 20
128.9038877404803
 30
0.0
 10
228.942924252668
 20
129.5744312641978
 30
0.0
 10
229.0820542283764
 20
130.3753706103336
 30
0.0
 10
229.2496726543561
 20
131.2734265887023
 30
0.0
 10
229.4174125602245
 20
132.1053949364856
 30
0.0
 10
229.5568205724124
 20
132.741309377136
 30
0.0
 10
229.6678405595255
 20
133.2144355505159
 30
0.0
 10
229.7507627294783
 20
133.5507172767797
 30
0.0
 10
229.8333560918875
 20
133.870035629883
 30
0.0
 10
229.8880076235421
 20
134.0670336876153
 30
0.0
 10
229.9153462110549
 20
134.1655789337981
 30
0.0
  0
SPLINE
  5
1DD
330
1F
100
AcDbEntity
  8
0
  6
HIDDEN
 62
     7
370
     0
100
AcDbSpline
210
0.0
220
0.0
230
1.0
 70
     8
 71
     3
 72
    21
 73
    17
 74
     0
 42
0.00000001
 43
0.00000001
 12
1.0
 22
0.0
 32
0.0
 13
1.0
 23
0.0
 33
0.0
 40
0.0
 40
0.0
 40
0.0
 40
0.0
 40
0.0456148063917734
 40
0.0934211184432716
 40
0.1434189350992526
 40
0.1956082534765038
 40
0.2499890690742547
 40
0.3090472004560954
 40
0.3750000605972253
 40
0.5000041334272449
 40
0.6250082959081665
 40
0.6910053912529099
 40
0.75001948059106
 40
0.8394783228853495
 40
0.9228052008410051
 40
1.0
 40
1.0
 40
1.0
 40
1.0
 10
229.4325691235412
 20
134.7069861186442
 30
0.0
 10
229.4133504724705
 20
134.6373400825827
 30
0.0
 10
229.3739898345545
 20
134.4947019547755
 30
0.0
 10
229.3132238869252
 20
134.2628044184123
 30
0.0
 10
229.2494457047652
 20
134.009973176684
 30
0.0
 10
229.1826274382476
 20
133.7338932003835
 30
0.0
 10
229.1117114732808
 20
133.4288876005442
 30
0.0
 10
229.0346693392585
 20
133.0837153713724
 30
0.0
 10
228.9270518817395
 20
132.58029966204
 30
0.0
 10
228.7906933042254
 20
131.9016030108654
 30
0.0
 10
228.6543099149172
 20
131.1694101954492
 30
0.0
 10
228.5466824706257
 20
130.5592754400723
 30
0.0
 10
228.4545616253438
 20
130.0190505074372
 30
0.0
 10
228.3553957264227
 20
129.413520044265
 30
0.0
 10
228.2490007076758
 20
128.7365086711431
 30
0.0
 10
228.1812806471857
 20
128.2834225771056
 30
0.0
 10
228.1487141018908
 20
128.0655336872083
 30
0.0
  0
ELLIPSE
  5
1DE
330
1F
100
AcDbEntity
  8
0
  6
HIDDEN
 62
     7
370
     0
100
AcDbEllipse
 10
190.5694504588
 20
111.8174568902
 30
0.0
 11
40.2959792788942
 21
24.92197537396975
 31
0.0
210
0.0
220
0.0
230
1.0
 40
0.0489778835
 41
5.498898894212187
 42
5.950026454853754
  0
LWPOLYLINE
  5
1DF
330
1F
100
AcDbEntity
  8
0
  6
HIDDEN
 62
     7
370
     0
100
AcDbPolyline
 90
       16
 70
   128
 43
0.0
 10
219.0260174407
 20
116.5867917056
 10
219.1090802385
 20
116.9472782689
 10
219.2961196138
 20
117.2750702876
 10
219.5789622797
 20
117.5558416921
 10
219.9452439977
 20
117.7773223075
 10
220.3789534701
 20
117.9298315014
 10
220.8611438705
 20
118.006703798
 10
221.370733781
 20
118.0045803825
 10
221.8854534162
 20
117.9235534559
 10
222.3828094734
 20
117.7671643722
 10
222.8410648836
 20
117.5422481078
 10
223.2401887609
 20
117.2586347724
 10
223.5627355708
 20
116.9287188727
 10
223.7946162654
 20
116.5669205415
 10
223.9256906046
 20
116.1890508424
 10
223.9502328171
 20
115.8116253841
  0
ELLIPSE
  5
1E0
330
1F
100
AcDbEntity
  8
0
  6
HIDDEN
 62
     7
370
     0
100
AcDbEllipse
 10
222.3747392684
 20
119.9125121631
 30
0.0
 11
0.3124824774540116
 21
2.947022789647619
 31
0.0
210
0.0
220
0.0
230
1.0
 40
0.8407155321
 41
5.146056947021387
 42
7.335381317564519
  0
LWPOLYLINE
  5
1E1
330
1F
100
AcDbEntity
  8
0
  6
HIDDEN
 62
     7
370
     0
100
AcDbPolyline
 90
       32
 70
   128
 43
0.0
 10
199.3672712429
 20
109.4504197294
 10
199.870516984
 20
109.4017492773
 10
200.3531600071
 20
109.2577305439
 10
200.7954413725
 20
109.0242594996
 10
201.179252444
 20
108.7108945989
 10
201.4888818098
 20
108.3304650433
 10
201.711652307
 20
107.8985458057
 10
201.8384425624
 20
107.4328193258
 10
201.8640632464
 20
106.9523528035
 10
201.7874638273
 20
106.4768167029
 10
201.6117828621
 20
106.0256789255
 10
201.3442101611
 20
105.6174099262
 10
200.9957018031
 20
105.2687236856
 10
200.5805256499
 20
104.9938959817
 10
200.1156783385
 20
104.8041776571
 10
199.6201923771
 20
104.7073359418
 10
199.1143501086
 20
104.7073359418
 10
198.6188641472
 20
104.8041776571
 10
198.1540168358
 20
104.9938959817
 10
197.7388406826
 20
105.2687236856
 10
197.3903323246
 20
105.6174099262
 10
197.1227596237
 20
106.0256789255
 10
196.9470786585
 20
106.4768167029
 10
196.8704792394
 20
106.9523528035
 10
196.8960999234
 20
107.4328193258
 10
197.0228901787
 20
107.8985458057
 10
197.2456606759
 20
108.3304650433
 10
197.5552900417
 20
108.7108945989
 10
197.9391011132
 20
109.0242594996
 10
198.3813824786
 20
109.2577305439
 10
198.8640255017
 20
109.4017492773
 10
199.3672712429
 20
109.4504197294
  0
LINE
  5
1E2
330
1F
100
AcDbEntity
  8
0
  6
HIDDEN
 62
     7
370
     0
100
AcDbLine
 10
219.0260174407
 20
116.5867917056
 30
0.0
 11
218.6513128413
 21
111.8621820401
 31
0.0
  0
CIRCLE
  5
1E3
330
1F
100
AcDbEntity
  8
0
  6
HIDDEN
 62
     7
370
     0
100
AcDbCircle
 10
183.3672711982
 20
110.3174568902
 30
0.0
 40
4.999999999999986
  0
LINE
  5
1E4
330
1F
100
AcDbEntity
  8
0
  6
HIDDEN
 62
     7
370
     0
100
AcDbLine
 10
228.1487132145
 20
128.0655333589
 30
0.0
 11
219.9568222
 21
128.0655333589
 31
0.0
  0
SPLINE
  5
1E5
330
1F
100
AcDbEntity
  8
0
  6
HIDDEN
 62
     7
370
     0
100
AcDbSpline
210
0.0
220
0.0
230
1.0
 70
     8
 71
     3
 72
     9
 73
     5
 74
     0
 42
0.00000001
 43
0.00000001
 12
1.0
 22
0.0
 32
0.0
 13
1.0
 23
0.0
 33
0.0
 40
0.0
 40
0.0
 40
0.0
 40
0.0
 40
0.5034166571145648
 40
0.9999999999999999
 40
0.9999999999999999
 40
0.9999999999999999
 40
0.9999999999999999
 10
228.1487113660692
 20
128.0655284124524
 30
0.0
 10
228.2227167730956
 20
127.938721410637
 30
0.0
 10
228.3697230470847
 20
127.68682866926
 30
0.0
 10
228.514209909542
 20
127.4334824139935
 30
0.0
 10
228.5859596787041
 20
127.3076748836457
 30
0.0
  0
LINE
  5
1E6
330
1F
100
AcDbEntity
  8
0
  6
HIDDEN
 62
     7
370
     0
100
AcDbLine
 10
219.9568222
 20
128.0655333589
 30
0.0
 11
218.2950745059
 21
127.0288558493
 31
0.0
  0
ELLIPSE
  5
1E7
330
1F
100
AcDbEntity
  8
0
  6
HIDDEN
 62
     7
370
     0
100
AcDbEllipse
 10
209.5040092831
 20
141.6680760415
 30
0.0
 11
8.987763024596404
 21
14.84915109822572
 31
0.0
210
0.0
220
0.0
230
1.0
 40
0.9794128731
 41
3.909978825767454
 42
4.235214252498599
  0
LINE
  5
1E8
330
1F
100
AcDbEntity
  8
0
  6
HIDDEN
 62
     7
370
     0
100
AcDbLine
 10
228.5859579874
 20
127.3076752017
 30
0.0
 11
227.3941444887
 21
110.3174568902
 31
0.0
  0
LINE
  5
1E9
330
1F
100
AcDbEntity
  8
0
  6
HIDDEN
 62
     7
370
     0
100
AcDbLine
 10
176.3672711982
 20
94.1102554838
 30
0.0
 11
176.4614319704
 21
94.7802452187
 31
0.0
  0
LINE
  5
1EA
330
1F
100
AcDbEntity
  8
0
  6
HIDDEN
 62
     7
370
     0
100
AcDbLine
 10
176.4614319704
 20
125.8546685617
 30
0.0
 11
176.3672711982
 21
126.5246582965
 31
0.0
  0
ARC
  5
1EB
330
1F
100
AcDbEntity
  8
0
  6
HIDDEN
 62
     7
370
     0
100
AcDbCircle
 10
175.8672644455
 20
94.8637497367
 30
0.0
 40
0.6000067526677323
100
AcDbArc
 50
352.0
 51
0.0
  0
ARC
  5
1EC
330
1F
100
AcDbEntity
  8
0
  6
HIDDEN
 62
     7
370
     0
100
AcDbCircle
 10
175.8672644455
 20
94.8637497367
 30
0.0
 40
0.6000067526677282
100
AcDbArc
 50
0.0
 51
33.5571153394
  0
ARC
  5
1ED
330
1F
100
AcDbEntity
  8
0
  6
HIDDEN
 62
     7
370
     0
100
AcDbCircle
 10
175.8672644455
 20
125.7711640437
 30
0.0
 40
0.6000067526677343
100
AcDbArc
 50
348.75
 51
8.0
  0
LWPOLYLINE
  5
1EE
330
1F
100
AcDbEntity
  8
0
  6
HIDDEN
 62
     7
370
     0
100
AcDbPolyline
 90
        3
 70
   128
 43
0.0
 10
176.4557422371
 20
125.6541082452
 10
176.4215984053
 20
125.5415513928
 10
176.3672711982
 20
125.4394998591
  0
LINE
  5
1EF
330
1F
100
AcDbEntity
  8
0
  6
HIDDEN
 62
     7
370
     0
100
AcDbLine
 10
176.4672711956
 20
94.8637494634
 30
0.0
 11
176.4672711956
 21
125.771164317
 31
0.0
  0
LINE
  5
1F0
330
1F
100
AcDbEntity
  8
0
  6
HIDDEN
 62
     7
370
     0
100
AcDbLine
 10
176.4672711956
 20
94.8637494634
 30
0.0
 11
176.4672711956
 21
125.771164317
 31
0.0
  0
LINE
  5
1F1
330
1F
100
AcDbEntity
  8
0
  6
HIDDEN
 62
     7
370
     0
100
AcDbLine
 10
198.426018907
 20
115.9486029114
 30
0.0
 11
196.1968759729
 21
114.2869776863
 31
0.0
  0
LINE
  5
1F2
330
1F
100
AcDbEntity
  8
0
  6
HIDDEN
 62
     7
370
     0
100
AcDbLine
 10
204.3018894924
 20
120.3285366113
 30
0.0
 11
198.426018907
 21
115.9486029114
 31
0.0
  0
LINE
  5
1F3
330
1F
100
AcDbEntity
  8
0
  6
HIDDEN
 62
     7
370
     0
100
AcDbLine
 10
201.0295609666
 20
112.6508534703
 30
0.0
 11
204.3378050162
 21
115.1168526898
 31
0.0
  0
LINE
  5
1F4
330
1F
100
AcDbEntity
  8
0
  6
HIDDEN
 62
     7
370
     0
100
AcDbLine
 10
198.7069728507
 20
110.9195731746
 30
0.0
 11
200.2774099542
 21
112.0901926237
 31
0.0
  0
LINE
  5
1F5
330
1F
100
AcDbEntity
  8
0
  6
HIDDEN
 62
     7
370
     0
100
AcDbLine
 10
196.1394226833
 20
113.9992593139
 30
0.0
 11
196.4713162465
 21
111.8723198355
 31
0.0
  0
LINE
  5
1F6
330
1F
100
AcDbEntity
  8
0
  6
HIDDEN
 62
     7
370
     0
100
AcDbLine
 10
196.4713162465
 20
111.8723198355
 30
0.0
 11
198.4148318602
 21
110.9467000983
 31
0.0
  0
LINE
  5
1F7
330
1F
100
AcDbEntity
  8
0
  6
HIDDEN
 62
     7
370
     0
100
AcDbLine
 10
165.8998992948
 20
97.5674571286
 30
0.0
 11
168.098045951
 21
97.5674571286
 31
0.0
  0
LINE
  5
1F8
330
1F
100
AcDbEntity
  8
0
  6
HIDDEN
 62
     7
370
     0
100
AcDbLine
 10
168.098045951
 20
123.0674566518
 30
0.0
 11
165.8998992948
 21
123.0674566518
 31
0.0
  0
ARC
  5
1F9
330
1F
100
AcDbEntity
  8
0
  6
HIDDEN
 62
     7
370
     0
100
AcDbCircle
 10
165.8998991423
 20
97.9674568902
 30
0.0
 40
0.4000000000000244
100
AcDbArc
 50
210.0
 51
270.0
  0
ARC
  5
1FA
330
1F
100
AcDbEntity
  8
0
  6
HIDDEN
 62
     7
370
     0
100
AcDbCircle
 10
165.8998991423
 20
122.6674568902
 30
0.0
 40
0.4000000000000102
100
AcDbArc
 50
90.0
 51
150.0
  0
ARC
  5
1FB
330
1F
100
AcDbEntity
  8
0
  6
HIDDEN
 62
     7
370
     0
100
AcDbCircle
 10
172.191447926
 20
102.5674568902
 30
0.0
 40
5.00000000000001
100
AcDbArc
 50
275.4123335998
 51
326.6329870308
  0
ARC
  5
1FC
330
1F
100
AcDbEntity
  8
0
  6
HIDDEN
 62
     7
370
     0
100
AcDbCircle
 10
172.191447926
 20
118.0674568902
 30
0.0
 40
5.00000000000001
100
AcDbArc
 50
33.3670129692
 51
84.5875124162
  0
LINE
  5
1FD
330
1F
100
AcDbEntity
  8
0
  6
HIDDEN
 62
     7
370
     0
100
AcDbLine
 10
165.5534892066
 20
122.8674569915
 30
0.0
 11
164.3699207066
 21
120.8174567486
 31
0.0
  0
LINE
  5
1FE
330
1F
100
AcDbEntity
  8
0
  6
HIDDEN
 62
     7
370
     0
100
AcDbLine
 10
164.3699207066
 20
99.8174570317
 30
0.0
 11
165.5534892066
 21
97.7674567889
 31
0.0
  0
LINE
  5
1FF
330
1F
100
AcDbEntity
  8
0
  6
HIDDEN
 62
     7
370
     0
100
AcDbLine
 10
201.4672714008
 20
111.0065184816
 30
0.0
 11
201.4672714008
 21
113.5093424286
 31
0.0
  0
LINE
  5
200
330
1F
100
AcDbEntity
  8
0
  6
HIDDEN
 62
     7
370
     0
100
AcDbLine
 10
197.2672710849
 20
113.5668280817
 30
0.0
 11
197.2672710849
 21
111.084860056
 31
0.0
  0
ARC
  5
201
330
1F
100
AcDbEntity
  8
0
  6
HIDDEN
 62
     7
370
     0
100
AcDbCircle
 10
183.3172711982
 20
100.4424568902
 30
0.0
 40
1.00000000000001
100
AcDbArc
 50
218.6821874535
 51
0.0
  0
ARC
  5
202
330
1F
100
AcDbEntity
  8
0
  6
HIDDEN
 62
     7
370
     0
100
AcDbCircle
 10
183.3172711982
 20
120.1924568902
 30
0.0
 40
1.00000000000001
100
AcDbArc
 50
0.0
 51
141.3178125465
  0
LINE
  5
203
330
1F
100
AcDbEntity
  8
0
  6
HIDDEN
 62
     7
370
     0
100
AcDbLine
 10
176.3672711982
 20
99.8174570317
 30
0.0
 11
182.5366462304
 21
99.8174570317
 31
0.0
  0
LINE
  5
204
330
1F
100
AcDbEntity
  8
0
  6
HIDDEN
 62
     7
370
     0
100
AcDbLine
 10
182.5366462304
 20
120.8174567486
 30
0.0
 11
176.3672711982
 21
120.8174567486
 31
0.0
  0
LINE
  5
205
330
1F
100
AcDbEntity
  8
0
  6
HIDDEN
 62
     7
370
     0
100
AcDbLine
 10
162.5672713576
 20
99.8174570317
 30
0.0
 11
164.3699207066
 21
99.8174570317
 31
0.0
  0
LINE
  5
206
330
1F
100
AcDbEntity
  8
0
  6
HIDDEN
 62
     7
370
     0
100
AcDbLine
 10
164.3699207066
 20
120.8174567486
 30
0.0
 11
160.0672709478
 21
120.8174567486
 31
0.0
  0
LINE
  5
207
330
1F
100
AcDbEntity
  8
0
  6
HIDDEN
 62
     7
370
     0
100
AcDbLine
 10
189.6672709568
 20
104.0674567971
 30
0.0
 11
192.1672704352
 21
104.0674567971
 31
0.0
  0
LINE
  5
208
330
1F
100
AcDbEntity
  8
0
  6
HIDDEN
 62
     7
370
     0
100
AcDbLine
 10
192.1672704352
 20
116.5674569833
 30
0.0
 11
189.6672709568
 21
116.5674569833
 31
0.0
  0
LINE
  5
209
330
1F
100
AcDbEntity
  8
0
  6
HIDDEN
 62
     7
370
     0
100
AcDbLine
 10
224.7902485265
 20
108.2790069099
 30
0.0
 11
225.2689259781
 21
109.0698547245
 31
0.0
  0
LINE
  5
20A
330
1F
100
AcDbEntity
  8
0
  6
HIDDEN
 62
     7
370
     0
100
AcDbLine
 10
219.2804473175
 20
112.6945085175
 30
0.0
 11
218.8017698659
 21
111.9036607028
 31
0.0
  0
LINE
  5
20B
330
1F
100
AcDbEntity
  8
0
  6
HIDDEN
 62
     7
370
     0
100
AcDbLine
 10
184.3172716631
 20
104.317456838
 30
0.0
 11
184.8172708137
 21
104.81745692
 31
0.0
  0
LINE
  5
20C
330
1F
100
AcDbEntity
  8
0
  6
HIDDEN
 62
     7
370
     0
100
AcDbLine
 10
184.8172708137
 20
115.8174568604
 30
0.0
 11
184.3172716631
 21
116.3174569423
 31
0.0
  0
LINE
  5
20D
330
1F
100
AcDbEntity
  8
0
  6
HIDDEN
 62
     7
370
     0
100
AcDbLine
 10
184.8172708137
 20
104.81745692
 30
0.0
 11
189.6672709568
 21
104.81745692
 31
0.0
  0
LINE
  5
20E
330
1F
100
AcDbEntity
  8
0
  6
HIDDEN
 62
     7
370
     0
100
AcDbLine
 10
189.6672709568
 20
115.8174568604
 30
0.0
 11
184.8172708137
 21
115.8174568604
 31
0.0
  0
LINE
  5
20F
330
1F
100
AcDbEntity
  8
0
  6
HIDDEN
 62
     7
370
     0
100
AcDbLine
 10
214.4189807309
 20
117.2730348821
 30
0.0
 11
213.455225779
 21
115.6807689744
 31
0.0
  0
LINE
  5
210
330
1F
100
AcDbEntity
  8
0
  6
HIDDEN
 62
     7
370
     0
100
AcDbLine
 10
184.3172716631
 20
130.3174564432
 30
0.0
 11
184.3172716631
 21
127.2174561213
 31
0.0
  0
LINE
  5
211
330
1F
100
AcDbEntity
  8
0
  6
HIDDEN
 62
     7
370
     0
100
AcDbLine
 10
224.0578042997
 20
111.9302272613
 30
0.0
 11
225.8165473772
 21
119.2961776446
 31
0.0
  0
LINE
  5
212
330
1F
100
AcDbEntity
  8
0
  6
HIDDEN
 62
     7
370
     0
100
AcDbLine
 10
173.1344505402
 20
95.276152138
 30
0.0
 11
172.666521948
 21
95.771989208
 31
0.0
  0
LINE
  5
213
330
1F
100
AcDbEntity
  8
0
  6
HIDDEN
 62
     7
370
     0
100
AcDbLine
 10
168.0686170889
 20
96.0518423285
 30
0.0
 11
167.5511435328
 21
95.5560173656
 31
0.0
  0
LINE
  5
214
330
1F
100
AcDbEntity
  8
0
  6
HIDDEN
 62
     7
370
     0
100
AcDbLine
 10
167.5505093022
 20
125.0789467062
 30
0.0
 11
168.0681951998
 21
124.5830593447
 31
0.0
  0
LINE
  5
215
330
1F
100
AcDbEntity
  8
0
  6
HIDDEN
 62
     7
370
     0
100
AcDbLine
 10
172.665836029
 20
124.8627066429
 30
0.0
 11
173.133739941
 21
125.3586005236
 31
0.0
  0
LINE
  5
216
330
1F
100
AcDbEntity
  8
0
  6
HIDDEN
 62
     7
370
     0
100
AcDbLine
 10
201.3672715707
 20
107.8174569461
 30
0.0
 11
202.2771960778
 21
110.3174568902
 31
0.0
  0
LINE
  5
217
330
1F
100
AcDbEntity
  8
0
  6
HIDDEN
 62
     7
370
     0
100
AcDbLine
 10
202.2771960778
 20
110.3174568902
 30
0.0
 11
201.3672715707
 21
112.8174568343
 31
0.0
  0
LINE
  5
218
330
1F
100
AcDbEntity
  8
0
  6
HIDDEN
 62
     7
370
     0
100
AcDbLine
 10
192.1672704352
 20
107.8174569461
 30
0.0
 11
201.3672715707
 21
107.8174569461
 31
0.0
  0
LINE
  5
219
330
1F
100
AcDbEntity
  8
0
  6
HIDDEN
 62
     7
370
     0
100
AcDbLine
 10
201.3672715707
 20
112.8174568343
 30
0.0
 11
192.1672704352
 21
112.8174568343
 31
0.0
  0
LINE
  5
21A
330
1F
100
AcDbEntity
  8
0
  6
HIDDEN
 62
     7
370
     0
100
AcDbLine
 10
172.667271197
 20
95.7840442474
 30
0.0
 11
172.667271197
 21
97.5906023572
 31
0.0
  0
LINE
  5
21B
330
1F
100
AcDbEntity
  8
0
  6
HIDDEN
 62
     7
370
     0
100
AcDbLine
 10
168.0672713278
 20
97.5729593824
 30
0.0
 11
168.0672713278
 21
96.0588505308
 31
0.0
  0
LINE
  5
21C
330
1F
100
AcDbEntity
  8
0
  6
HIDDEN
 62
     7
370
     0
100
AcDbLine
 10
172.667271197
 20
123.0443114231
 30
0.0
 11
172.667271197
 21
124.862496164
 31
0.0
  0
LINE
  5
21D
330
1F
100
AcDbEntity
  8
0
  6
HIDDEN
 62
     7
370
     0
100
AcDbLine
 10
168.0672713278
 20
124.5819575901
 30
0.0
 11
168.0672713278
 21
123.061954398
 31
0.0
  0
LINE
  5
21E
330
1F
100
AcDbEntity
  8
0
  6
HIDDEN
 62
     7
370
     0
100
AcDbLine
 10
223.4725611938
 20
104.7501362677
 30
0.0
 11
225.3451305164
 21
107.8439046445
 31
0.0
  0
LINE
  5
21F
330
1F
100
AcDbEntity
  8
0
  6
HIDDEN
 62
     7
370
     0
100
AcDbLine
 10
218.1589561237
 20
112.1934893358
 30
0.0
 11
216.1978366507
 21
108.9534200777
 31
0.0
  0
LINE
  5
220
330
1F
100
AcDbEntity
  8
0
  6
HIDDEN
 62
     7
370
     0
100
AcDbLine
 10
201.4672714008
 20
107.1470488145
 30
0.0
 11
201.4672714008
 21
109.6283952988
 31
0.0
  0
LINE
  5
221
330
1F
100
AcDbEntity
  8
0
  6
HIDDEN
 62
     7
370
     0
100
AcDbLine
 10
197.2672710849
 20
109.5500537244
 30
0.0
 11
197.2672710849
 21
107.1470488145
 31
0.0
  0
ARC
  5
222
330
1F
100
AcDbEntity
  8
0
  6
HIDDEN
 62
     7
370
     0
100
AcDbCircle
 10
161.6672711982
 20
96.5374568902
 30
0.0
 40
0.9000000000000199
100
AcDbArc
 50
34.6391318474
 51
90.0
  0
ARC
  5
223
330
1F
100
AcDbEntity
  8
0
  6
HIDDEN
 62
     7
370
     0
100
AcDbCircle
 10
159.1672711982
 20
124.0974568902
 30
0.0
 40
0.8999999999999915
100
AcDbArc
 50
270.0
 51
311.1792132368
  0
LINE
  5
224
330
1F
100
AcDbEntity
  8
0
  6
HIDDEN
 62
     7
370
     0
100
AcDbLine
 10
157.4762719406
 20
97.4374566044
 30
0.0
 11
161.6672710238
 21
97.4374566044
 31
0.0
  0
LINE
  5
225
330
1F
100
AcDbEntity
  8
0
  6
HIDDEN
 62
     7
370
     0
100
AcDbLine
 10
156.4672714753
 20
98.4464570697
 30
0.0
 11
157.4762719406
 21
97.4374566044
 31
0.0
  0
LINE
  5
226
330
1F
100
AcDbEntity
  8
0
  6
HIDDEN
 62
     7
370
     0
100
AcDbLine
 10
159.167270614
 20
123.197457176
 30
0.0
 11
157.4172707929
 21
123.197457176
 31
0.0
  0
LINE
  5
227
330
1F
100
AcDbEntity
  8
0
  6
HIDDEN
 62
     7
370
     0
100
AcDbLine
 10
157.4172707929
 20
123.197457176
 30
0.0
 11
156.4672714753
 21
122.2474569271
 31
0.0
  0
LINE
  5
228
330
1F
100
AcDbEntity
  8
0
  6
HIDDEN
 62
     7
370
     0
100
AcDbLine
 10
220.7325505747
 20
126.1209821145
 30
0.0
 11
220.1471919848
 21
125.1538790579
 31
0.0
  0
LINE
  5
229
330
1F
100
AcDbEntity
  8
0
  6
HIDDEN
 62
     7
370
     0
100
AcDbLine
 10
225.6223703457
 20
121.8399101685
 30
0.0
 11
226.2077326609
 21
122.8070122938
 31
0.0
  0
LINE
  5
22A
330
1F
100
AcDbEntity
  8
0
  6
HIDDEN
 62
     7
370
     0
100
AcDbLine
 10
220.3602376117
 20
122.2401888858
 30
0.0
 11
219.0564791395
 21
116.7798059809
 31
0.0
  0
LINE
  5
22B
330
1F
100
AcDbEntity
  8
0
  6
HIDDEN
 62
     7
370
     0
100
AcDbLine
 10
201.8672707213
 20
105.2203093472
 30
0.0
 11
201.8672707213
 21
107.0727784003
 31
0.0
  0
LINE
  5
22C
330
1F
100
AcDbEntity
  8
0
  6
HIDDEN
 62
     7
370
     0
100
AcDbLine
 10
196.8672717644
 20
107.0727784003
 30
0.0
 11
196.8672717644
 21
105.1876217875
 31
0.0
  0
LINE
  5
22D
330
1F
100
AcDbEntity
  8
VERMASSUNG
  6
CENTERX2
100
AcDbLine
 10
231.3672711982
 20
137.3174568902
 30
0.0
 11
246.3852750344
 21
137.3174568902
 31
0.0
  0
LINE
  5
22E
330
1F
100
AcDbEntity
  8
VERMASSUNG
  6
CENTERX2
100
AcDbLine
 10
231.3672711982
 20
137.3174568902
 30
0.0
 11
231.3672711982
 21
110.3174568902
 31
0.0
  0
LINE
  5
22F
330
1F
100
AcDbEntity
  8
VERMASSUNG
  6
CENTERX2
100
AcDbLine
 10
153.7912900777
 20
110.3174568902
 30
0.0
 11
231.3672711982
 21
110.3174568902
 31
0.0
  0
DIMENSION
  5
230
330
1F
100
AcDbEntity
  8
VERMASSUNG
100
AcDbDimension
  2
_D
 10
249.1000776064
 20
110.3174568902
 30
0.0
 11
249.1000776064
 21
123.8174568902
 31
0.0
 70
   160
  1
<>
 71
     2
 42
-1.0
  3
SLDDIMSTYLE0
100
AcDbAlignedDimension
 13
231.3672711982
 23
137.3174568902
 33
0.0
 14
231.3672711982
 24
110.3174568902
 34
0.0
 50
90.0
100
AcDbRotatedDimension
  0
DIMENSION
  5
23B
330
1F
100
AcDbEntity
  8
VERMASSUNG
100
AcDbDimension
  2
_D_1
 10
176.3672711982
 20
145.5222197682
 30
0.0
 11
203.8672711982
 21
145.5222197682
 31
0.0
 70
   160
  1
<>
 71
     2
 42
-1.0
  3
SLDDIMSTYLE0
100
AcDbAlignedDimension
 13
231.3672711982
 23
137.3174568902
 33
0.0
 14
176.3672711982
 24
130.0174568902
 34
0.0
100
AcDbRotatedDimension
  0
DIMENSION
  5
245
330
1F
100
AcDbEntity
  8
VERMASSUNG
100
AcDbDimension
  2
_D_2
 10
231.3672711982
 20
152.8969619329
 30
0.0
 11
193.9172711982
 21
152.8969619329
 31
0.0
 70
   160
  1
<>
 71
     2
 42
-1.0
  3
SLDDIMSTYLE0
100
AcDbAlignedDimension
 13
156.4672711982
 23
122.2474568902
 33
0.0
 14
231.3672711982
 24
137.3174568902
 34
0.0
100
AcDbRotatedDimension
  0
DIMENSION
  5
24F
330
1F
100
AcDbEntity
  8
VERMASSUNG
100
AcDbDimension
  2
_D_3
 10
246.3852750344
 20
137.3174568902
 30
0.0
 11
239.4623741224
 21
128.8061516561
 31
0.0
 70
   162
  1
<>
 71
     1
 42
-1.0
  3
SLDDIMSTYLE1
100
AcDb2LineAngularDimension
 13
230.6116404548
 23
122.624217311
 33
0.0
 14
231.3677712997
 24
136.8973269914
 34
0.0
 15
231.3672711982
 25
137.3174568902
 35
0.0
 16
239.4623741224
 26
128.8061516561
 36
0.0
  0
DIMENSION
  5
258
330
1F
100
AcDbEntity
  8
VERMASSUNG
100
AcDbDimension
  2
_D_4
 10
149.7166474822
 20
90.3174568902
 30
0.0
 11
149.7166474822
 21
110.3174568902
 31
0.0
 70
   160
  1
HSK T%%c<>
 71
     2
 42
-1.0
  3
SLDDIMSTYLE0
100
AcDbAlignedDimension
 13
176.6672711982
 23
130.3174568902
 33
0.0
 14
176.6672711982
 24
90.3174568902
 34
0.0
 50
90.0
100
AcDbRotatedDimension
  0
LINE
  5
264
330
1F
100
AcDbEntity
  8
0
  6
Continuous
 62
     7
370
    15
100
AcDbLine
 10
96.6925274845
 20
135.2253811251
 30
0.0
 11
93.9802949581
 21
135.7036208551
 31
0.0
  0
LINE
  5
265
330
1F
100
AcDbEntity
  8
0
  6
Continuous
 62
     7
370
    15
100
AcDbLine
 10
96.9411570843
 20
134.8729761134
 30
0.0
 11
96.7023855339
 21
135.2180180888
 31
0.0
  0
LINE
  5
266
330
1F
100
AcDbEntity
  8
0
  6
Continuous
 62
     7
370
    15
100
AcDbLine
 10
94.0299367796
 20
136.2224923263
 30
0.0
 11
87.8106649873
 21
137.3191172074
 31
0.0
  0
LINE
  5
267
330
1F
100
AcDbEntity
  8
0
  6
Continuous
 62
     7
370
    15
100
AcDbLine
 10
87.1894689774
 20
133.6711993258
 30
0.0
 11
86.7478047296
 21
133.1344408731
 31
0.0
  0
LINE
  5
268
330
1F
100
AcDbEntity
  8
0
  6
Continuous
 62
     7
370
    15
100
AcDbLine
 10
83.4947031255
 20
119.0917663093
 30
0.0
 11
83.7278746333
 21
118.4314334582
 31
0.0
  0
LINE
  5
269
330
1F
100
AcDbEntity
  8
0
  6
Continuous
 62
     7
370
    15
100
AcDbLine
 10
82.4693225588
 20
114.9004808444
 30
0.0
 11
82.784747545
 21
114.8448627259
 31
0.0
  0
ARC
  5
26A
330
1F
100
AcDbEntity
  8
0
  6
Continuous
 62
     7
370
    15
100
AcDbCircle
 10
87.8629273068
 20
110.3174568902
 30
0.0
 40
18.00000000000001
100
AcDbArc
 50
336.2372959391
 51
0.0
  0
LINE
  5
26B
330
1F
100
AcDbEntity
  8
0
  6
Continuous
 62
     7
370
    15
100
AcDbLine
 10
82.5903502557
 20
106.8988716046
 30
0.0
 11
104.3369265537
 21
103.0643637109
 31
0.0
  0
LINE
  5
26C
330
1F
100
AcDbEntity
  8
0
  6
Continuous
 62
     7
370
    15
100
AcDbLine
 10
85.3600821722
 20
122.1187798123
 30
0.0
 11
82.5903502557
 21
106.8988716046
 31
0.0
  0
LINE
  5
26D
330
1F
100
AcDbEntity
  8
0
  6
Continuous
 62
     7
370
    15
100
AcDbLine
 10
85.3600821722
 20
122.1187798123
 30
0.0
 11
94.3902687434
 21
120.5265143703
 31
0.0
  0
LINE
  5
26E
330
1F
100
AcDbEntity
  8
0
  6
Continuous
 62
     7
370
    15
100
AcDbLine
 10
94.3902687434
 20
120.5265143703
 30
0.0
 11
94.4689566534
 21
120.9589106779
 31
0.0
  0
SPLINE
  5
26F
330
1F
100
AcDbEntity
  8
0
  6
Continuous
 62
     7
370
    15
100
AcDbSpline
210
0.0
220
0.0
230
1.0
 70
     8
 71
     3
 72
    20
 73
    16
 74
     0
 42
0.00000001
 43
0.00000001
 12
1.0
 22
0.0
 32
0.0
 13
1.0
 23
0.0
 33
0.0
 40
0.0
 40
0.0
 40
0.0
 40
0.0
 40
0.0416672996752181
 40
0.0833236621737632
 40
0.1249845438042272
 40
0.1874689495683294
 40
0.2499849018537956
 40
0.3749847365614337
 40
0.4999915547624618
 40
0.6249996097270358
 40
0.7500031003883016
 40
0.8124753805871692
 40
0.8750094992097568
 40
0.9374754258358254
 40
1.0
 40
1.0
 40
1.0
 40
1.0
 10
105.8629281935413
 20
127.307674551119
 30
0.0
 10
105.7617915205032
 20
127.4297317153153
 30
0.0
 10
105.5595447216155
 20
127.6738140051362
 30
0.0
 10
105.2472777331926
 20
128.0323692783599
 30
0.0
 10
104.8755654071693
 20
128.4439742768867
 30
0.0
 10
104.4391889359171
 20
128.9038877404803
 30
0.0
 10
103.7649464355596
 20
129.5744312641978
 30
0.0
 10
102.8858742969176
 20
130.3753706103336
 30
0.0
 10
101.7770783742749
 20
131.2734265887023
 30
0.0
 10
100.6178639311003
 20
132.1053949364856
 30
0.0
 10
99.6131618230871
 20
132.741309377136
 30
0.0
 10
98.78829737828016
 20
133.2144355505159
 30
0.0
 10
98.15948218763943
 20
133.5507172767797
 30
0.0
 10
97.52154075889048
 20
133.870035629883
 30
0.0
 10
97.08879301911107
 20
134.0670336876153
 30
0.0
 10
96.87231762314778
 20
134.1655789337981
 30
0.0
  0
LINE
  5
270
330
1F
100
AcDbEntity
  8
0
  6
Continuous
 62
     7
370
    15
100
AcDbLine
 10
105.8629265319
 20
127.3076752017
 30
0.0
 11
105.8629265319
 21
110.3174568902
 31
0.0
  0
LWPOLYLINE
  5
271
330
1F
100
AcDbEntity
  8
0
  6
Continuous
 62
     7
370
    15
100
AcDbPolyline
 90
       37
 70
   128
 43
0.0
 10
83.1453379508
 20
114.3290087397
 10
83.1986682754
 20
114.2656117494
 10
83.2319118347
 20
114.0994114152
 10
83.2440581437
 20
113.8354569025
 10
83.234737933
 20
113.4817687611
 10
83.2042347904
 20
113.0490932896
 10
83.1534749161
 20
112.5505772702
 10
83.0840015117
 20
112.0013680824
 10
82.997924954
 20
111.4181529314
 10
82.8978608627
 20
110.8186524993
 10
82.7868490744
 20
110.2210823933
 10
82.6682633053
 20
109.6435994309
 10
82.5457063768
 20
109.1037502096
 10
82.4229021821
 20
108.6179376629
 10
82.3035820651
 20
108.2009231954
 10
82.1913716647
 20
107.8653772178
 10
82.0896805528
 20
107.6214952677
 10
82.0015979264
 20
107.4766878787
 10
81.9298004064
 20
107.4353543858
 10
81.8764700818
 20
107.4987511433
 10
81.8432265225
 20
107.6649517103
 10
81.8310802135
 20
107.9289062231
 10
81.8404004242
 20
108.2825945973
 10
81.8709035668
 20
108.7152699524
 10
81.9216629754
 20
109.2137858554
 10
81.9911368455
 20
109.7629951595
 10
82.0772134032
 20
110.3462103305
 10
82.1772774946
 20
110.9457107427
 10
82.2882892828
 20
111.5432807759
 10
82.4068750519
 20
112.1207637529
 10
82.5294319804
 20
112.6606130323
 10
82.6522357095
 20
113.146425579
 10
82.7715558264
 20
113.563440163
 10
82.8837662268
 20
113.8989861406
 10
82.9854578044
 20
114.1428678579
 10
83.0735404309
 20
114.2876752469
 10
83.1453379508
 20
114.3290087397
  0
LWPOLYLINE
  5
272
330
1F
100
AcDbEntity
  8
0
  6
Continuous
 62
     7
370
    15
100
AcDbPolyline
 90
       14
 70
   128
 43
0.0
 10
82.9266163785
 20
117.6594336334
 10
82.8380708847
 20
117.3225193101
 10
82.7434759851
 20
116.9094991687
 10
82.6530212801
 20
116.4601821269
 10
82.5712427761
 20
115.9970982748
 10
82.5022410866
 20
115.5434687439
 10
82.4494756091
 20
115.1220401566
 10
82.4155936282
 20
114.7539446878
 10
82.4022929448
 20
114.4576402198
 10
82.4102408517
 20
114.2479850727
 10
82.4390387427
 20
114.1354920159
 10
82.4872430678
 20
114.1258018374
 10
82.552435648
 20
114.2194002218
 10
82.6313484724
 20
114.4115942347
  0
LINE
  5
273
330
1F
100
AcDbEntity
  8
0
  6
Continuous
 62
     7
370
    15
100
AcDbLine
 10
82.5903502557
 20
106.8988716046
 30
0.0
 11
79.4341311123
 21
94.4128850292
 31
0.0
  0
ARC
  5
274
330
1F
100
AcDbEntity
  8
0
  6
Continuous
 62
     7
370
    15
100
AcDbCircle
 10
87.8629273068
 20
110.3174568902
 30
0.0
 40
17.99999999999999
100
AcDbArc
 50
239.0134124916
 51
242.0781731859
  0
SPLINE
  5
275
330
1F
100
AcDbEntity
  8
0
  6
Continuous
 62
     7
370
    15
100
AcDbSpline
210
0.0
220
0.0
230
1.0
 70
     8
 71
     3
 72
     8
 73
     4
 74
     0
 42
0.00000001
 43
0.00000001
 12
1.0
 22
0.0
 32
0.0
 13
1.0
 23
0.0
 33
0.0
 40
0.0
 40
0.0
 40
0.0
 40
0.0
 40
1.0
 40
1.0
 40
1.0
 40
1.0
 10
78.5958540226605
 20
94.88627570575625
 30
0.0
 10
78.63649950378118
 20
95.15795480830401
 30
0.0
 10
78.67717887224559
 20
95.42968758846825
 30
0.0
 10
78.7178968064616
 20
95.70148145685594
 30
0.0
  0
SPLINE
  5
276
330
1F
100
AcDbEntity
  8
0
  6
Continuous
 62
     7
370
    15
100
AcDbSpline
210
0.0
220
0.0
230
1.0
 70
     8
 71
     3
 72
    12
 73
     8
 74
     0
 42
0.00000001
 43
0.00000001
 12
1.0
 22
0.0
 32
0.0
 13
1.0
 23
0.0
 33
0.0
 40
0.0
 40
0.0
 40
0.0
 40
0.0
 40
0.25
 40
0.25
 40
0.5
 40
0.5
 40
1.0
 40
1.0
 40
1.0
 40
1.0
 10
78.71789680646158
 20
95.70148145685594
 30
0.0
 10
78.73457889872297
 20
95.81283510177482
 30
0.0
 10
78.74849874994185
 20
95.91785592818248
 30
0.0
 10
78.7708419032527
 20
96.11529598413385
 30
0.0
 10
78.77891748287169
 20
96.20508454039562
 30
0.0
 10
78.7925251439822
 20
96.43622402329804
 30
0.0
 10
78.78693305321595
 20
96.5378695055997
 30
0.0
 10
78.76485823539792
 20
96.5524600077963
 30
0.0
  0
ARC
  5
277
330
1F
100
AcDbEntity
  8
0
  6
Continuous
 62
     7
370
    15
100
AcDbCircle
 10
87.8629273068
 20
110.3174568902
 30
0.0
 40
16.49999999999999
100
AcDbArc
 50
234.6589672951
 51
236.53701681
  0
ARC
  5
278
330
1F
100
AcDbEntity
  8
0
  6
Continuous
 62
     7
370
    15
100
AcDbCircle
 10
87.8629273068
 20
110.3174568902
 30
0.0
 40
16.50000000000003
100
AcDbArc
 50
103.46298319
 51
105.3410327049
  0
SPLINE
  5
279
330
1F
100
AcDbEntity
  8
0
  6
Continuous
 62
     7
370
    15
100
AcDbSpline
210
0.0
220
0.0
230
1.0
 70
     8
 71
     3
 72
    10
 73
     6
 74
     0
 42
0.00000001
 43
0.00000001
 12
1.0
 22
0.0
 32
0.0
 13
1.0
 23
0.0
 33
0.0
 40
0.0
 40
0.0
 40
0.0
 40
0.0
 40
0.5
 40
0.5
 40
1.0
 40
1.0
 40
1.0
 40
1.0
 10
84.02144514359499
 20
126.364045773495
 30
0.0
 10
84.04715513943046
 20
126.3702006323959
 30
0.0
 10
84.08669337155003
 20
126.4622225616603
 30
0.0
 10
84.17570783760168
 20
126.7600220467273
 30
0.0
 10
84.22357982801373
 20
126.9592282968134
 30
0.0
 10
84.26836764132109
 20
127.1797657929129
 30
0.0
  0
SPLINE
  5
27A
330
1F
100
AcDbEntity
  8
0
  6
Continuous
 62
     7
370
    15
100
AcDbSpline
210
0.0
220
0.0
230
1.0
 70
     8
 71
     3
 72
     8
 73
     4
 74
     0
 42
0.00000001
 43
0.00000001
 12
1.0
 22
0.0
 32
0.0
 13
1.0
 23
0.0
 33
0.0
 40
0.0
 40
0.0
 40
0.0
 40
0.0
 40
1.0
 40
1.0
 40
1.0
 40
1.0
 10
84.2683676413211
 20
127.1797657929129
 30
0.0
 10
84.33617952757974
 20
127.5136750083201
 30
0.0
 10
84.40401498189637
 20
127.8474758102151
 30
0.0
 10
84.47187052468176
 20
128.1811842047742
 30
0.0
  0
ARC
  5
27B
330
1F
100
AcDbEntity
  8
0
  6
Continuous
 62
     7
370
    15
100
AcDbCircle
 10
84.2198573583
 20
128.9236944847
 30
0.0
 40
0.7841115825338723
100
AcDbArc
 50
288.7475888374
 51
331.3762149689
  0
LINE
  5
27C
330
1F
100
AcDbEntity
  8
0
  6
Continuous
 62
     7
370
    15
100
AcDbLine
 10
82.6313484724
 20
114.4115942347
 30
0.0
 11
85.3600821722
 21
122.1187798123
 31
0.0
  0
SPLINE
  5
27D
330
1F
100
AcDbEntity
  8
0
  6
Continuous
 62
     7
370
    15
100
AcDbSpline
210
0.0
220
0.0
230
1.0
 70
     8
 71
     3
 72
    21
 73
    17
 74
     0
 42
0.00000001
 43
0.00000001
 12
1.0
 22
0.0
 32
0.0
 13
1.0
 23
0.0
 33
0.0
 40
0.0
 40
0.0
 40
0.0
 40
0.0
 40
0.0456148063917734
 40
0.0934211184432716
 40
0.1434189350992526
 40
0.1956082534765038
 40
0.2499890690742547
 40
0.3090472004560954
 40
0.3750000605972253
 40
0.5000041334272449
 40
0.6250082959081665
 40
0.6910053912529099
 40
0.75001948059106
 40
0.8394783228853495
 40
0.9228052008410051
 40
1.0
 40
1.0
 40
1.0
 40
1.0
 10
96.91625768529785
 20
134.7069861186442
 30
0.0
 10
97.07230386365906
 20
134.6373400825827
 30
0.0
 10
97.391893261586
 20
134.4947019547755
 30
0.0
 10
97.87655455468057
 20
134.2628044184123
 30
0.0
 10
98.3783146352127
 20
134.009973176684
 30
0.0
 10
98.89574768733262
 20
133.7338932003835
 30
0.0
 10
99.43598232052581
 20
133.4288876005442
 30
0.0
 10
100.01248147585
 20
133.0837153713724
 30
0.0
 10
100.8020933404862
 20
132.58029966204
 30
0.0
 10
101.7721509965639
 20
131.9016030108654
 30
0.0
 10
102.7027041768556
 20
131.1694101954492
 30
0.0
 10
103.4130900277815
 20
130.5592754400723
 30
0.0
 10
104.0076354645158
 20
130.0190505074372
 30
0.0
 10
104.6300552673027
 20
129.413520044265
 30
0.0
 10
105.2773276941607
 20
128.7365086711431
 30
0.0
 10
105.6727627733392
 20
128.2834225771056
 30
0.0
 10
105.8629273172581
 20
128.0655336872083
 30
0.0
  0
SPLINE
  5
27E
330
1F
100
AcDbEntity
  8
0
  6
Continuous
 62
     7
370
    15
100
AcDbSpline
210
0.0
220
0.0
230
1.0
 70
    24
 71
     3
 72
     9
 73
     5
 74
     0
 42
0.00000001
 43
0.00000001
 12
1.0
 22
0.0
 32
0.0
 13
1.0
 23
0.0
 33
0.0
 40
0.0
 40
0.0
 40
0.0
 40
0.0
 40
0.5034166571145648
 40
0.9999999999999999
 40
0.9999999999999999
 40
0.9999999999999999
 40
0.9999999999999999
 10
105.8629273067821
 20
128.0655284124524
 30
0.0
 10
105.8629273067821
 20
127.938721410637
 30
0.0
 10
105.8629273067821
 20
127.68682866926
 30
0.0
 10
105.8629273067821
 20
127.4334824139935
 30
0.0
 10
105.8629273067821
 20
127.3076748836457
 30
0.0
  0
ARC
  5
27F
330
1F
100
AcDbEntity
  8
0
  6
Continuous
 62
     7
370
    15
100
AcDbCircle
 10
87.8629273068
 20
110.3174568902
 30
0.0
 40
18.00000000000001
100
AcDbArc
 50
242.0781731859
 51
336.2372959391
  0
SPLINE
  5
280
330
1F
100
AcDbEntity
  8
0
  6
Continuous
 62
     7
370
    15
100
AcDbSpline
210
0.0
220
0.0
230
1.0
 70
     8
 71
     3
 72
    10
 73
     6
 74
     0
 42
0.00000001
 43
0.00000001
 12
1.0
 22
0.0
 32
0.0
 13
1.0
 23
0.0
 33
0.0
 40
0.0
 40
0.0
 40
0.0
 40
0.0
 40
0.3861331068939104
 40
0.8737639581419276
 40
1.0
 40
1.0
 40
1.0
 40
1.0
 10
104.219848130237
 20
102.8038970011383
 30
0.0
 10
104.2214833023832
 20
102.8076451800249
 30
0.0
 10
104.225183462927
 20
102.8161267724116
 30
0.0
 10
104.2648435795505
 20
102.9008667584206
 30
0.0
 10
104.3090772065975
 20
103.0018839693718
 30
0.0
 10
104.3181734423746
 20
103.0226572233349
 30
0.0
  0
SPLINE
  5
281
330
1F
100
AcDbEntity
  8
0
  6
Continuous
 62
     7
370
    15
100
AcDbSpline
210
0.0
220
0.0
230
1.0
 70
     8
 71
     3
 72
    12
 73
     8
 74
     0
 42
0.00000001
 43
0.00000001
 12
1.0
 22
0.0
 32
0.0
 13
1.0
 23
0.0
 33
0.0
 40
0.0
 40
0.0
 40
0.0
 40
0.0
 40
0.2500000000000023
 40
0.2500000000000023
 40
0.5000000000000047
 40
0.5000000000000047
 40
1.0
 40
1.0
 40
1.0
 40
1.0
 10
82.86708654711158
 20
126.0429640395289
 30
0.0
 10
82.9461452947338
 20
126.0680802351485
 30
0.0
 10
83.02137218044965
 20
126.0913232573024
 30
0.0
 10
83.16357079711537
 20
126.1342696096948
 30
0.0
 10
83.22956065895318
 20
126.1536624357248
 30
0.0
 10
83.39989826351996
 20
126.2028382848517
 30
0.0
 10
83.47856740022563
 20
126.2243038043396
 30
0.0
 10
83.49762533889724
 20
126.2295321391661
 30
0.0
  0
SPLINE
  5
282
330
1F
100
AcDbEntity
  8
0
  6
Continuous
 62
     7
370
    15
100
AcDbSpline
210
0.0
220
0.0
230
1.0
 70
     8
 71
     3
 72
    10
 73
     6
 74
     0
 42
0.00000001
 43
0.00000001
 12
1.0
 22
0.0
 32
0.0
 13
1.0
 23
0.0
 33
0.0
 40
0.0
 40
0.0
 40
0.0
 40
0.0
 40
0.5
 40
0.5
 40
1.0
 40
1.0
 40
1.0
 40
1.0
 10
78.31863500279366
 20
96.85801840204658
 30
0.0
 10
78.30255086951112
 20
96.8694239053029
 30
0.0
 10
78.2378224422639
 20
96.91515500090173
 30
0.0
 10
78.04431335527204
 20
97.05626691131548
 30
0.0
 10
77.92115116814375
 20
97.14785039624051
 30
0.0
 10
77.78993240121137
 20
97.24899203648843
 30
0.0
  0
ELLIPSE
  5
283
330
1F
100
AcDbEntity
  8
0
  6
Continuous
 62
     7
370
    15
100
AcDbEllipse
 10
77.9699397532
 20
117.7226947399
 30
0.0
 11
1.73265421802077
 21
2.349448555692916
 31
0.0
210
0.0
220
0.0
230
1.0
 40
0.7000471275
 41
0.0
 42
6.283185307179586
  0
ARC
  5
284
330
1F
100
AcDbEntity
  8
0
  6
Continuous
 62
     7
370
    15
100
AcDbCircle
 10
87.8629273068
 20
110.3174568902
 30
0.0
 40
16.50000000000001
100
AcDbArc
 50
107.6245465932
 51
232.3754534068
  0
SPLINE
  5
285
330
1F
100
AcDbEntity
  8
0
  6
Continuous
 62
     7
370
    15
100
AcDbSpline
210
0.0
220
0.0
230
1.0
 70
     8
 71
     3
 72
    14
 73
    10
 74
     0
 42
0.00000001
 43
0.00000001
 12
1.0
 22
0.0
 32
0.0
 13
1.0
 23
0.0
 33
0.0
 40
0.0
 40
0.0
 40
0.0
 40
0.0
 40
0.2202136664601964
 40
0.3910111980583886
 40
0.4604182379990677
 40
0.5166385710258873
 40
0.5917925286878021
 40
0.8587577247236572
 40
1.0
 40
1.0
 40
1.0
 40
1.0
 10
76.37779678065667
 20
115.4207087869853
 30
0.0
 10
76.449083693663
 20
115.4412295863162
 30
0.0
 10
76.57566067550319
 20
115.4776663000792
 30
0.0
 10
76.72986362173344
 20
115.5047837260703
 30
0.0
 10
76.838260606585
 20
115.497115215905
 30
0.0
 10
76.91029281247117
 20
115.4713499336524
 30
0.0
 10
77.02597357998376
 20
115.3867360076778
 30
0.0
 10
77.12507736078142
 20
115.2626180234836
 30
0.0
 10
77.1955348371481
 20
115.1423338054606
 30
0.0
 10
77.21991355378518
 20
115.1007147322506
 30
0.0
  0
SPLINE
  5
286
330
1F
100
AcDbEntity
  8
0
  6
Continuous
 62
     7
370
    15
100
AcDbSpline
210
0.0
220
0.0
230
1.0
 70
     8
 71
     3
 72
    16
 73
    12
 74
     0
 42
0.00000001
 43
0.00000001
 12
1.0
 22
0.0
 32
0.0
 13
1.0
 23
0.0
 33
0.0
 40
0.0
 40
0.0
 40
0.0
 40
0.0
 40
0.2537542515055457
 40
0.6239714330741467
 40
0.7001555340606357
 40
0.7455396443221302
 40
0.7736608461012336
 40
0.7964845594931318
 40
0.8251021226354689
 40
0.9406016582668896
 40
0.9999999999999999
 40
0.9999999999999999
 40
0.9999999999999999
 40
0.9999999999999999
 10
78.50584651191124
 20
115.5241172577351
 30
0.0
 10
78.37617022083964
 20
115.5830157835481
 30
0.0
 10
78.05730147008727
 20
115.7278448744478
 30
0.0
 10
77.56160932640717
 20
115.7045601951539
 30
0.0
 10
77.19316316027171
 20
115.6751450565242
 30
0.0
 10
77.07281640332394
 20
115.6709723820083
 30
0.0
 10
76.98867811724908
 20
115.6795606958724
 30
0.0
 10
76.91821282968003
 20
115.7020142519075
 30
0.0
 10
76.79292801812072
 20
115.7773807234624
 30
0.0
 10
76.68726945326213
 20
115.8853102695613
 30
0.0
 10
76.5951355086044
 20
115.96592915613
 30
0.0
 10
76.56384522874245
 20
115.993308723262
 30
0.0
  0
SPLINE
  5
287
330
1F
100
AcDbEntity
  8
0
  6
Continuous
 62
     7
370
    15
100
AcDbSpline
210
0.0
220
0.0
230
1.0
 70
     8
 71
     3
 72
    10
 73
     6
 74
     0
 42
0.00000001
 43
0.00000001
 12
1.0
 22
0.0
 32
0.0
 13
1.0
 23
0.0
 33
0.0
 40
0.0
 40
0.0
 40
0.0
 40
0.0
 40
0.5
 40
0.5
 40
1.0
 40
1.0
 40
1.0
 40
1.0
 10
76.56384556384147
 20
115.9933087434891
 30
0.0
 10
76.5068990901524
 20
115.9020328631805
 30
0.0
 10
76.46199482602432
 20
115.8087769290145
 30
0.0
 10
76.4001372596875
 20
115.6181186185025
 30
0.0
 10
76.38315376604245
 20
115.5202362315861
 30
0.0
 10
76.37779656025802
 20
115.4207087880523
 30
0.0
  0
LWPOLYLINE
  5
288
330
1F
100
AcDbEntity
  8
0
  6
Continuous
 62
     7
370
    15
100
AcDbPolyline
 90
        9
 70
   128
 43
0.0
 10
76.3777967807
 20
115.420708787
 10
76.4068354185
 20
115.5100812952
 10
76.4343969788
 20
115.5949056896
 10
76.4603855353
 20
115.6748918633
 10
76.4847135435
 20
115.7497669387
 10
76.507298116
 20
115.8192738707
 10
76.5280610215
 20
115.8831756379
 10
76.5469314795
 20
115.9412533793
 10
76.5638452287
 20
115.9933087233
  0
SPLINE
  5
289
330
1F
100
AcDbEntity
  8
0
  6
Continuous
 62
     7
370
    15
100
AcDbSpline
210
0.0
220
0.0
230
1.0
 70
    24
 71
     3
 72
     9
 73
     5
 74
     0
 42
0.00000001
 43
0.00000001
 12
1.0
 22
0.0
 32
0.0
 13
1.0
 23
0.0
 33
0.0
 40
0.0
 40
0.0
 40
0.0
 40
0.0
 40
0.5
 40
1.0
 40
1.0
 40
1.0
 40
1.0
 10
83.36292730678208
 20
127.2174568901867
 30
0.0
 10
83.36292730678208
 20
127.2193797585206
 30
0.0
 10
83.36292730678208
 20
127.2232250475095
 30
0.0
 10
83.36292730678208
 20
127.22706944183
 30
0.0
 10
83.36292730678208
 20
127.2289914154744
 30
0.0
  0
LINE
  5
28A
330
1F
100
AcDbEntity
  8
0
  6
Continuous
 62
     7
370
    15
100
AcDbLine
 10
84.2760271191
 20
127.2174561213
 30
0.0
 11
83.3629275005
 21
127.2174561213
 31
0.0
  0
SPLINE
  5
28B
330
1F
100
AcDbEntity
  8
0
  6
Continuous
 62
     7
370
    15
100
AcDbSpline
210
0.0
220
0.0
230
1.0
 70
    24
 71
     3
 72
    12
 73
     8
 74
     0
 42
0.00000001
 43
0.00000001
 12
1.0
 22
0.0
 32
0.0
 13
1.0
 23
0.0
 33
0.0
 40
0.0
 40
0.0
 40
0.0
 40
0.0
 40
0.4999999999999978
 40
0.4999999999999978
 40
0.7499999999999989
 40
0.7499999999999989
 40
1.0
 40
1.0
 40
1.0
 40
1.0
 10
74.98552461835148
 20
122.1674568901867
 30
0.0
 10
75.16805132189917
 20
122.1674568901867
 30
0.0
 10
75.35264197723434
 20
122.1674568901867
 30
0.0
 10
75.61292329940888
 20
122.1674568901867
 30
0.0
 10
75.69747775221995
 20
122.1674568901867
 30
0.0
 10
75.86142570196417
 20
122.1674568901867
 30
0.0
 10
75.94087592600555
 20
122.1674568901867
 30
0.0
 10
76.01292730678388
 20
122.1674568901867
 30
0.0
  0
SPLINE
  5
28C
330
1F
100
AcDbEntity
  8
0
  6
Continuous
 62
     7
370
    15
100
AcDbSpline
210
0.0
220
0.0
230
1.0
 70
    24
 71
     3
 72
    10
 73
     6
 74
     0
 42
0.00000001
 43
0.00000001
 12
1.0
 22
0.0
 32
0.0
 13
1.0
 23
0.0
 33
0.0
 40
0.0
 40
0.0
 40
0.0
 40
0.0
 40
0.5
 40
0.5
 40
1.0
 40
1.0
 40
1.0
 40
1.0
 10
76.01292730678209
 20
123.1948595786173
 30
0.0
 10
76.01292730678209
 20
123.0121508664823
 30
0.0
 10
76.01292730678207
 20
122.8286425767215
 30
0.0
 10
76.01292730678209
 20
122.4803385984008
 30
0.0
 10
76.01292730678209
 20
122.312151015858
 30
0.0
 10
76.01292730678209
 20
122.1674568901852
 30
0.0
  0
SPLINE
  5
28D
330
1F
100
AcDbEntity
  8
0
  6
Continuous
 62
     7
370
    15
100
AcDbSpline
210
0.0
220
0.0
230
1.0
 70
    24
 71
     3
 72
    10
 73
     6
 74
     0
 42
0.00000001
 43
0.00000001
 12
1.0
 22
0.0
 32
0.0
 13
1.0
 23
0.0
 33
0.0
 40
0.0
 40
0.0
 40
0.0
 40
0.0
 40
0.5
 40
0.5
 40
1.0
 40
1.0
 40
1.0
 40
1.0
 10
83.36292730678208
 20
129.1883339233296
 30
0.0
 10
83.36292730678208
 20
129.3467683662174
 30
0.0
 10
83.36292730678208
 20
129.5057890610194
 30
0.0
 10
83.36292730678208
 20
129.735796885275
 30
0.0
 10
83.36292730678208
 20
129.8046321600918
 30
0.0
 10
83.36292730678208
 20
129.8046321600918
 30
0.0
  0
ARC
  5
28E
330
1F
100
AcDbEntity
  8
0
  6
Continuous
 62
     7
370
    15
100
AcDbCircle
 10
87.8629273068
 20
110.3174568902
 30
0.0
 40
20.00000000000002
100
AcDbArc
 50
103.0028781629
 51
126.3346172154
  0
SPLINE
  5
28F
330
1F
100
AcDbEntity
  8
0
  6
Continuous
 62
     7
370
    15
100
AcDbSpline
210
0.0
220
0.0
230
1.0
 70
    24
 71
     3
 72
    12
 73
     8
 74
     0
 42
0.00000001
 43
0.00000001
 12
1.0
 22
0.0
 32
0.0
 13
1.0
 23
0.0
 33
0.0
 40
0.0
 40
0.0
 40
0.0
 40
0.0
 40
0.250000000000002
 40
0.250000000000002
 40
0.500000000000004
 40
0.500000000000004
 40
1.0
 40
1.0
 40
1.0
 40
1.0
 10
76.01292730678209
 20
126.4288658912642
 30
0.0
 10
76.01292730678207
 20
126.4288658912642
 30
0.0
 10
76.01292730678207
 20
126.4032412586594
 30
0.0
 10
76.01292730678209
 20
126.3146978857276
 30
0.0
 10
76.01292730678209
 20
126.2518154026129
 30
0.0
 10
76.01292730678209
 20
126.0344542146793
 30
0.0
 10
76.01292730678209
 20
125.855807204668
 30
0.0
 10
76.01292730678209
 20
125.6777140494923
 30
0.0
  0
ARC
  5
290
330
1F
100
AcDbEntity
  8
0
  6
Continuous
 62
     7
370
    15
100
AcDbCircle
 10
87.8629273068
 20
110.3174568902
 30
0.0
 40
20.00000000000001
100
AcDbArc
 50
143.6653827846
 51
254.0379858372
  0
SPLINE
  5
291
330
1F
100
AcDbEntity
  8
0
  6
Continuous
 62
     7
370
    15
100
AcDbSpline
210
0.0
220
0.0
230
1.0
 70
    24
 71
     3
 72
    10
 73
     6
 74
     0
 42
0.00000001
 43
0.00000001
 12
1.0
 22
0.0
 32
0.0
 13
1.0
 23
0.0
 33
0.0
 40
0.0
 40
0.0
 40
0.0
 40
0.0
 40
0.5
 40
0.5
 40
1.0
 40
1.0
 40
1.0
 40
1.0
 10
82.36292730678208
 20
91.71342506910015
 30
0.0
 10
82.3629273067821
 20
91.55379290019692
 30
0.0
 10
82.36292730678208
 20
91.39274326643287
 30
0.0
 10
82.3629273067821
 20
91.15975238275625
 30
0.0
 10
82.36292730678208
 20
91.08857236715727
 30
0.0
 10
82.36292730678208
 20
91.08857236715727
 30
0.0
  0
SPLINE
  5
292
330
1F
100
AcDbEntity
  8
0
  6
Continuous
 62
     7
370
    15
100
AcDbSpline
210
0.0
220
0.0
230
1.0
 70
    24
 71
     3
 72
    12
 73
     8
 74
     0
 42
0.00000001
 43
0.00000001
 12
1.0
 22
0.0
 32
0.0
 13
1.0
 23
0.0
 33
0.0
 40
0.0
 40
0.0
 40
0.0
 40
0.0
 40
0.2499999999999966
 40
0.2499999999999966
 40
0.4999999999999931
 40
0.4999999999999931
 40
1.0
 40
1.0
 40
1.0
 40
1.0
 10
71.75151830570462
 20
122.1674568901867
 30
0.0
 10
71.75151830570462
 20
122.1674568901867
 30
0.0
 10
71.7767984558691
 20
122.1674568901867
 30
0.0
 10
71.86640980137085
 20
122.1674568901867
 30
0.0
 10
71.92939543829685
 20
122.1674568901867
 30
0.0
 10
72.14568216005442
 20
122.1674568901867
 30
0.0
 10
72.32566191747479
 20
122.1674568901867
 30
0.0
 10
72.5026701474765
 20
122.1674568901867
 30
0.0
  0
ARC
  5
293
330
1F
100
AcDbEntity
  8
0
  6
Continuous
 62
     7
370
    15
100
AcDbCircle
 10
87.8629273068
 20
110.3174568902
 30
0.0
 40
20.0
100
AcDbArc
 50
285.9620141628
 51
25.8419327632
  0
SPLINE
  5
294
330
1F
100
AcDbEntity
  8
0
  6
Continuous
 62
     7
370
    15
100
AcDbSpline
210
0.0
220
0.0
230
1.0
 70
    24
 71
     3
 72
    12
 73
     8
 74
     0
 42
0.00000001
 43
0.00000001
 12
1.0
 22
0.0
 32
0.0
 13
1.0
 23
0.0
 33
0.0
 40
0.0
 40
0.0
 40
0.0
 40
0.0
 40
0.2499999999999982
 40
0.2499999999999982
 40
0.4999999999999963
 40
0.4999999999999963
 40
1.0
 40
1.0
 40
1.0
 40
1.0
 10
93.3629273067821
 20
91.08857236715727
 30
0.0
 10
93.3629273067821
 20
91.08857236715725
 30
0.0
 10
93.3629273067821
 20
91.10554796351538
 30
0.0
 10
93.3629273067821
 20
91.17002346097456
 30
0.0
 10
93.3629273067821
 20
91.21713709276916
 30
0.0
 10
93.3629273067821
 20
91.39374700675666
 30
0.0
 10
93.3629273067821
 20
91.55359588256482
 30
0.0
 10
93.3629273067821
 20
91.71342506909986
 30
0.0
  0
LINE
  5
295
330
1F
100
AcDbEntity
  8
0
  6
Continuous
 62
     7
370
    15
100
AcDbLine
 10
93.362927277
 20
91.7134241949
 30
0.0
 11
93.362927277
 21
93.178320099
 31
0.0
  0
LINE
  5
296
330
1F
100
AcDbEntity
  8
0
  6
Continuous
 62
     7
370
    15
100
AcDbLine
 10
82.3629273366
 20
93.178320099
 30
0.0
 11
82.3629273366
 21
91.7134241949
 31
0.0
  0
LINE
  5
297
330
1F
100
AcDbEntity
  8
0
  6
Continuous
 62
     7
370
    15
100
AcDbLine
 10
72.5026697185
 20
122.1674572493
 30
0.0
 11
74.9855244796
 21
122.1674572493
 31
0.0
  0
LINE
  5
298
330
1F
100
AcDbEntity
  8
0
  6
Continuous
 62
     7
370
    15
100
AcDbLine
 10
83.3629275005
 20
127.2289914827
 30
0.0
 11
83.3629275005
 21
129.1883339922
 31
0.0
  0
LINE
  5
299
330
1F
100
AcDbEntity
  8
0
  6
Continuous
 62
     7
370
    15
100
AcDbLine
 10
76.0129269477
 20
125.6777144785
 30
0.0
 11
76.0129269477
 21
123.1948597173
 31
0.0
  0
SPLINE
  5
29A
330
1F
100
AcDbEntity
  8
0
  6
Continuous
 62
     7
370
    15
100
AcDbSpline
210
0.0
220
0.0
230
1.0
 70
     8
 71
     3
 72
    22
 73
    18
 74
     0
 42
0.00000001
 43
0.00000001
 12
1.0
 22
0.0
 32
0.0
 13
1.0
 23
0.0
 33
0.0
 40
0.0
 40
0.0
 40
0.0
 40
0.0
 40
0.2500000000000001
 40
0.2500000000000001
 40
0.3750000000000002
 40
0.3750000000000002
 40
0.5000000000000002
 40
0.5000000000000002
 40
0.6250000000000003
 40
0.6250000000000003
 40
0.7500000000000004
 40
0.7500000000000004
 40
0.8750000000000004
 40
0.8750000000000004
 40
0.9375000000000002
 40
0.9375000000000002
 40
1.0
 40
1.0
 40
1.0
 40
1.0
 10
71.75151830570462
 20
122.1674568901867
 30
0.0
 10
72.16551318387111
 20
122.7303295320847
 30
0.0
 10
72.60132298518005
 20
123.2609544158142
 30
0.0
 10
73.27806378816439
 20
124.0066654067358
 30
0.0
 10
73.50891891533907
 20
124.2482856331345
 30
0.0
 10
73.9689559705012
 20
124.7071444084604
 30
0.0
 10
74.1949236472797
 20
124.9213230809303
 30
0.0
 10
74.63211523578042
 20
125.3185516400758
 30
0.0
 10
74.84516796007297
 20
125.5029964750956
 30
0.0
 10
75.22934409930652
 20
125.8240763229792
 30
0.0
 10
75.40346110809799
 20
125.9634271530852
 30
0.0
 10
75.69697885289851
 20
126.1927326875108
 30
0.0
 10
75.81177115749593
 20
126.2792686969871
 30
0.0
 10
75.9307257335919
 20
126.3681583013184
 30
0.0
 10
75.9615438165785
 20
126.39096680718
 30
0.0
 10
76.0025630282971
 20
126.4212579698763
 30
0.0
 10
76.01292730678209
 20
126.4288658912642
 30
0.0
 10
76.01292730678209
 20
126.4288658912642
 30
0.0
  0
SPLINE
  5
29B
330
1F
100
AcDbEntity
  8
0
  6
Continuous
 62
     7
370
    15
100
AcDbSpline
210
0.0
220
0.0
230
1.0
 70
     8
 71
     3
 72
    22
 73
    18
 74
     0
 42
0.00000001
 43
0.00000001
 12
1.0
 22
0.0
 32
0.0
 13
1.0
 23
0.0
 33
0.0
 40
0.0
 40
0.0
 40
0.0
 40
0.0
 40
0.1250000000000001
 40
0.1250000000000001
 40
0.2500000000000002
 40
0.2500000000000002
 40
0.3750000000000004
 40
0.3750000000000004
 40
0.5000000000000006
 40
0.5000000000000006
 40
0.6250000000000006
 40
0.6250000000000006
 40
0.7500000000000003
 40
0.7500000000000003
 40
0.8750000000000001
 40
0.8750000000000001
 40
1.0
 40
1.0
 40
1.0
 40
1.0
 10
88.8629273067821
 20
90.34247253474851
 30
0.0
 10
89.16166503517975
 20
90.35742812735782
 30
0.0
 10
89.4548703600142
 20
90.3788163240042
 30
0.0
 10
90.03082544064178
 20
90.43319457061949
 30
0.0
 10
90.31656773445717
 20
90.46664073422788
 30
0.0
 10
90.86009687545082
 20
90.5414050096256
 30
0.0
 10
91.11759006367245
 20
90.58250349858656
 30
0.0
 10
91.60479506093775
 20
90.66905642755033
 30
0.0
 10
91.83493468312687
 20
90.71470732664821
 30
0.0
 10
92.24814033933038
 20
90.80298688181306
 30
0.0
 10
92.43397608002626
 20
90.8460882318203
 30
0.0
 10
92.76307266020969
 20
90.92629241167558
 30
0.0
 10
92.90303251702373
 20
90.96258725906513
 30
0.0
 10
93.12871887825337
 20
91.02276647821483
 30
0.0
 10
93.2159902865921
 20
91.04705381564594
 30
0.0
 10
93.33339049994298
 20
91.08005190995732
 30
0.0
 10
93.3629273067821
 20
91.08857236715725
 30
0.0
 10
93.3629273067821
 20
91.08857236715725
 30
0.0
  0
SPLINE
  5
29C
330
1F
100
AcDbEntity
  8
0
  6
Continuous
 62
     7
370
    15
100
AcDbSpline
210
0.0
220
0.0
230
1.0
 70
     8
 71
     3
 72
    22
 73
    18
 74
     0
 42
0.00000001
 43
0.00000001
 12
1.0
 22
0.0
 32
0.0
 13
1.0
 23
0.0
 33
0.0
 40
0.0
 40
0.0
 40
0.0
 40
0.0
 40
0.125
 40
0.125
 40
0.25
 40
0.25
 40
0.375
 40
0.375
 40
0.5
 40
0.5
 40
0.625
 40
0.625
 40
0.75
 40
0.75
 40
0.875
 40
0.875
 40
1.0
 40
1.0
 40
1.0
 40
1.0
 10
82.36292730678208
 20
91.08857236715727
 30
0.0
 10
82.36292730678208
 20
91.08857236715727
 30
0.0
 10
82.39245320520202
 20
91.08005826609086
 30
0.0
 10
82.50785803848868
 20
91.04761449720898
 30
0.0
 10
82.59524084355452
 20
91.02328060850694
 30
0.0
 10
82.82191426286212
 20
90.9628205837501
 30
0.0
 10
82.96039010919469
 20
90.92690716297162
 30
0.0
 10
83.28720060635847
 20
90.84719713690248
 30
0.0
 10
83.47624544233845
 20
90.80331883571314
 30
0.0
 10
83.88911372481417
 20
90.71507521334296
 30
0.0
 10
84.1145856160655
 20
90.67026687188199
 30
0.0
 10
84.60544122061319
 20
90.58294586396282
 30
0.0
 10
84.86428137855526
 20
90.54165507538715
 30
0.0
 10
85.40403420435106
 20
90.46731685209333
 30
0.0
 10
85.68813729318013
 20
90.43390672635867
 30
0.0
 10
86.26959042832205
 20
90.37888732483253
 30
0.0
 10
86.56424089395033
 20
90.35742555836629
 30
0.0
 10
86.8629273067821
 20
90.34247253474851
 30
0.0
  0
SPLINE
  5
29D
330
1F
100
AcDbEntity
  8
0
  6
Continuous
 62
     7
370
    15
100
AcDbSpline
210
0.0
220
0.0
230
1.0
 70
     8
 71
     3
 72
    13
 73
     9
 74
     0
 42
0.00000001
 43
0.00000001
 12
1.0
 22
0.0
 32
0.0
 13
1.0
 23
0.0
 33
0.0
 40
0.0
 40
0.0
 40
0.0
 40
0.0
 40
0.1741312646270281
 40
0.3482755178359329
 40
0.5222687751077977
 40
0.696279699691914
 40
0.873084458320051
 40
1.0
 40
1.0
 40
1.0
 40
1.0
 10
83.3629275004972
 20
129.8046329806656
 30
0.0
 10
83.37518411053965
 20
129.8075352026484
 30
0.0
 10
83.3996982448543
 20
129.8133398630928
 30
0.0
 10
83.59083500493777
 20
129.8563099421361
 30
0.0
 10
83.89115352561207
 20
129.9203994775183
 30
0.0
 10
84.30418148868772
 20
129.9996877525743
 30
0.0
 10
84.761227531849
 20
130.0789191254365
 30
0.0
 10
85.11173782678947
 20
130.125694134274
 30
0.0
 10
85.25820549425075
 20
130.1452399979443
 30
0.0
  0
ARC
  5
29E
330
1F
100
AcDbEntity
  8
0
  6
Continuous
 62
     7
370
    15
100
AcDbCircle
 10
87.8629273068
 20
110.3174568902
 30
0.0
 40
19.99999999999998
100
AcDbArc
 50
267.1340160174
 51
272.8659839826
  0
LINE
  5
29F
330
1F
100
AcDbEntity
  8
0
  6
Continuous
 62
     7
370
    15
100
AcDbLine
 10
91.456374925
 20
121.8344684507
 30
0.0
 11
93.791881882
 21
134.6682732741
 31
0.0
  0
LINE
  5
2A0
330
1F
100
AcDbEntity
  8
0
  6
Continuous
 62
     7
370
    15
100
AcDbLine
 10
94.2770837139
 20
121.3371012176
 30
0.0
 11
96.6125911366
 21
134.1709060411
 31
0.0
  0
LINE
  5
2A1
330
1F
100
AcDbEntity
  8
0
  6
Continuous
 62
     7
370
    15
100
AcDbLine
 10
96.8783011924
 20
134.1399973075
 30
0.0
 11
94.5427942354
 21
121.306192484
 31
0.0
  0
ARC
  5
2A2
330
1F
100
AcDbEntity
  8
0
  6
Continuous
 62
     7
370
    15
100
AcDbCircle
 10
94.0908651345
 20
134.8923373388
 30
0.0
 40
2.622892515288691
100
AcDbArc
 50
344.0348990961
 51
7.294868126
  0
ARC
  5
2A3
330
1F
100
AcDbEntity
  8
0
  6
Continuous
 62
     7
370
    15
100
AcDbCircle
 10
94.8174126478
 20
134.6859112969
 30
0.0
 40
2.131967091040913
100
AcDbArc
 50
345.1635264033
 51
5.0337667275
  0
ARC
  5
2A4
330
1F
100
AcDbEntity
  8
0
  6
Continuous
 62
     7
370
    15
100
AcDbCircle
 10
88.5627523109
 20
122.2973343914
 30
0.0
 40
5.794448302538799
100
AcDbArc
 50
342.742763028
 51
350.4611653216
  0
ARC
  5
2A5
330
1F
100
AcDbEntity
  8
0
  6
Continuous
 62
     7
370
    15
100
AcDbCircle
 10
90.6356461356
 20
121.9589160062
 30
0.0
 40
3.961294519484129
100
AcDbArc
 50
342.4375004652
 51
350.5158181277
  0
LINE
  5
2A6
330
1F
100
AcDbEntity
  8
0
  6
Continuous
 62
     7
370
    15
100
AcDbLine
 10
94.4122982476
 20
120.7636114027
 30
0.0
 11
94.3319916989
 21
120.5367896522
 31
0.0
  0
LWPOLYLINE
  5
2A7
330
1F
100
AcDbEntity
  8
0
  6
Continuous
 62
     7
370
    15
100
AcDbPolyline
 90
       37
 70
   128
 43
0.0
 10
83.0841211866
 20
114.2992390136
 10
83.1535675827
 20
114.326592889
 10
83.204297189
 20
114.2492898557
 10
83.234768201
 20
114.0696791749
 10
83.2440558154
 20
113.7932179312
 10
83.2318769101
 20
113.4283061887
 10
83.1986016858
 20
112.9860318082
 10
83.1452415589
 20
112.4798330761
 10
83.0734174963
 20
111.9250905517
 10
82.9853120524
 20
111.3386596602
 10
82.8836018484
 20
110.7383589892
 10
82.7713779438
 20
110.1424282437
 10
82.6520499106
 20
109.568974532
 10
82.529242922
 20
109.0354219827
 10
82.406689253
 20
108.5579822588
 10
82.2881123315
 20
108.1511621646
 10
82.1771154444
 20
107.8273226789
 10
82.0770699795
 20
107.5963036905
 10
81.9910171706
 20
107.4651243447
 10
81.9215707745
 20
107.4377704694
 10
81.8708411682
 20
107.5150732699
 10
81.8403696905
 20
107.6946841835
 10
81.8310825418
 20
107.9711454271
 10
81.8432614471
 20
108.3360569368
 10
81.8765366714
 20
108.7783313173
 10
81.9298967983
 20
109.2845300495
 10
82.0017208609
 20
109.8392726612
 10
82.0898263048
 20
110.4257035308
 10
82.1915365088
 20
111.0260042528
 10
82.3037604134
 20
111.6219349255
 10
82.4230884466
 20
112.1953886517
 10
82.5458949696
 20
112.7289411428
 10
82.6684486385
 20
113.2063808668
 10
82.78702556
 20
113.613200961
 10
82.8980229128
 20
113.9370404466
 10
82.9980679121
 20
114.1680596679
 10
83.0841211866
 20
114.2992390136
  0
LWPOLYLINE
  5
2A8
330
1F
100
AcDbEntity
  8
0
  6
Continuous
 62
     7
370
    15
100
AcDbPolyline
 90
       28
 70
   128
 43
0.0
 10
82.8498847115
 20
112.8347857206
 10
82.9004699628
 20
112.8423080131
 10
82.9314909208
 20
112.7441594194
 10
82.9412758615
 20
112.545631016
 10
82.9292967248
 20
112.2574255618
 10
82.8961993832
 20
111.8950803115
 10
82.8437682505
 20
111.4781295232
 10
82.7748298909
 20
111.0290510746
 10
82.6931002814
 20
110.5720548125
 10
82.6029864404
 20
110.1317775805
 10
82.5093461465
 20
109.7319548184
 10
82.4172267023
 20
109.3941410704
 10
82.3315953169
 20
109.1365480146
 10
82.2570680905
 20
108.9730624857
 10
82.1976627487
 20
108.9124979966
 10
82.1565816443
 20
108.9581197643
 10
82.1360399279
 20
109.1074681657
 10
82.1371444765
 20
109.352491801
 10
82.159836151
 20
109.6799814308
 10
82.2028916593
 20
110.0722820024
 10
82.2639892142
 20
110.5082444605
 10
82.3398361247
 20
110.9643659487
 10
82.4263424877
 20
111.4160568736
 10
82.5188451711
 20
111.8389664966
 10
82.6123574081
 20
112.2102955173
 10
82.7018379498
 20
112.5100256226
 10
82.7824620794
 20
112.7219981331
 10
82.8498847115
 20
112.8347857206
  0
LINE
  5
2A9
330
1F
100
AcDbEntity
  8
0
  6
Continuous
 62
     7
370
    15
100
AcDbLine
 10
82.7384934093
 20
110.8383712757
 30
0.0
 11
82.5784269984
 21
110.6100095544
 31
0.0
  0
LINE
  5
2AA
330
1F
100
AcDbEntity
  8
0
  6
Continuous
 62
     7
370
    15
100
AcDbLine
 10
82.5784269984
 20
110.6100095544
 30
0.0
 11
82.6584415774
 21
110.4058632749
 31
0.0
  0
LINE
  5
2AB
330
1F
100
AcDbEntity
  8
0
  6
Continuous
 62
     7
370
    15
100
AcDbLine
 10
82.9240878377
 20
112.1872994167
 30
0.0
 11
82.923450813
 21
112.1874117575
 31
0.0
  0
LINE
  5
2AC
330
1F
100
AcDbEntity
  8
0
  6
Continuous
 62
     7
370
    15
100
AcDbLine
 10
82.6963780712
 20
110.5892115788
 30
0.0
 11
82.5784269984
 21
110.6100095544
 31
0.0
  0
ELLIPSE
  5
2AD
330
1F
100
AcDbEntity
  8
0
  6
Continuous
 62
     7
370
    15
100
AcDbEllipse
 10
85.3373394681
 20
125.3956203076
 30
0.0
 11
0.4087148498875451
 21
2.317396459798929
 31
0.0
210
0.0
220
0.0
230
1.0
 40
0.1043907487
 41
0.4110192178870983
 42
1.645821917583624
  0
LINE
  5
2AE
330
1F
100
AcDbEntity
  8
0
  6
Continuous
 62
     7
370
    15
100
AcDbLine
 10
82.5016971942
 20
114.956490584
 30
0.0
 11
85.1066881589
 21
122.3141712885
 31
0.0
  0
LWPOLYLINE
  5
2AF
330
1F
100
AcDbEntity
  8
0
  6
Continuous
 62
     7
370
    15
100
AcDbPolyline
 90
        9
 70
   128
 43
0.0
 10
82.5012971911
 20
115.3222707848
 10
82.483419523
 20
115.2153894122
 10
82.4696336206
 20
115.1143478978
 10
82.4609583508
 20
115.0266145173
 10
82.4580353949
 20
114.9586731385
 10
82.4610798884
 20
114.9155459183
 10
82.4698673825
 20
114.9004193771
 10
82.4837487455
 20
114.9144124988
 10
82.5016971942
 20
114.956490584
  0
LINE
  5
2B0
330
1F
100
AcDbEntity
  8
0
  6
Continuous
 62
     7
370
    15
100
AcDbLine
 10
85.0987302404
 20
129.5953796993
 30
0.0
 11
82.5012971911
 21
115.3222707848
 31
0.0
  0
ARC
  5
2B1
330
1F
100
AcDbEntity
  8
0
  6
Continuous
 62
     7
370
    15
100
AcDbCircle
 10
87.3313664242
 20
129.2224001954
 30
0.0
 40
2.263576382612408
100
AcDbArc
 50
162.437471747
 51
170.5158692056
  0
LINE
  5
2B2
330
1F
100
AcDbEntity
  8
0
  6
Continuous
 62
     7
370
    15
100
AcDbLine
 10
87.778290472
 20
137.2631074677
 30
0.0
 11
85.1732993763
 21
129.9054262976
 31
0.0
  0
LWPOLYLINE
  5
2B3
330
1F
100
AcDbEntity
  8
0
  6
Continuous
 62
     7
370
    15
100
AcDbPolyline
 90
        9
 70
   128
 43
0.0
 10
87.7786902422
 20
136.8973268013
 10
87.7965679613
 20
137.0042091052
 10
87.8103538673
 20
137.105250154
 10
87.8190290534
 20
137.1929826032
 10
87.8219523404
 20
137.2609244476
 10
87.818907665
 20
137.3040521334
 10
87.8101200581
 20
137.3191786747
 10
87.7962390152
 20
137.3051846217
 10
87.778290472
 20
137.2631074677
  0
LINE
  5
2B4
330
1F
100
AcDbEntity
  8
0
  6
Continuous
 62
     7
370
    15
100
AcDbLine
 10
85.1812572948
 20
122.6242169554
 30
0.0
 11
87.7786902422
 21
136.8973268013
 31
0.0
  0
ARC
  5
2B5
330
1F
100
AcDbEntity
  8
0
  6
Continuous
 62
     7
370
    15
100
AcDbCircle
 10
82.9485849754
 20
122.9972072021
 30
0.0
 40
2.263613794342462
100
AcDbArc
 50
342.4375109741
 51
350.5157517191
  0
LWPOLYLINE
  5
2B6
330
1F
100
AcDbEntity
  8
0
  6
Continuous
 62
     7
370
    15
100
AcDbPolyline
 90
        9
 70
   128
 43
0.0
 10
87.776816021
 20
136.8987200598
 10
87.793799845
 20
137.0002584349
 10
87.8068964596
 20
137.0962461273
 10
87.8151378858
 20
137.1795939098
 10
87.8179150097
 20
137.2441382895
 10
87.8150225656
 20
137.2851090322
 10
87.8066743392
 20
137.2994793396
 10
87.7934873499
 20
137.2861856411
 10
87.7764362306
 20
137.2462114136
  0
LINE
  5
2B7
330
1F
100
AcDbEntity
  8
0
  6
Continuous
 62
     7
370
    15
100
AcDbLine
 10
87.7764362306
 20
137.2462114136
 30
0.0
 11
85.171445113
 21
129.8885321061
 31
0.0
  0
ARC
  5
2B8
330
1F
100
AcDbEntity
  8
0
  6
Continuous
 62
     7
370
    15
100
AcDbCircle
 10
87.2217858377
 20
129.2396154065
 30
0.0
 40
2.150578984882626
100
AcDbArc
 50
162.4378305769
 51
170.5155825654
  0
LINE
  5
2B9
330
1F
100
AcDbEntity
  8
0
  6
Continuous
 62
     7
370
    15
100
AcDbLine
 10
85.1006042942
 20
129.5939864407
 30
0.0
 11
82.5031714778
 21
115.3208775262
 31
0.0
  0
LWPOLYLINE
  5
2BA
330
1F
100
AcDbEntity
  8
0
  6
Continuous
 62
     7
370
    15
100
AcDbPolyline
 90
        9
 70
   128
 43
0.0
 10
82.5031714778
 20
115.3208775262
 10
82.4861878793
 20
115.2193400825
 10
82.4730911556
 20
115.1233509931
 10
82.4648494165
 20
115.0400041419
 10
82.4620726782
 20
114.9754597622
 10
82.4649649005
 20
114.9344885538
 10
82.4733132761
 20
114.9201187122
 10
82.4865003381
 20
114.9334124106
 10
82.5035514574
 20
114.9733866382
  0
LINE
  5
2BB
330
1F
100
AcDbEntity
  8
0
  6
Continuous
 62
     7
370
    15
100
AcDbLine
 10
82.5035514574
 20
114.9733866382
 30
0.0
 11
85.1085424222
 21
122.3310664113
 31
0.0
  0
ARC
  5
2BC
330
1F
100
AcDbEntity
  8
0
  6
Continuous
 62
     7
370
    15
100
AcDbCircle
 10
83.0583110005
 20
122.9799590634
 30
0.0
 40
2.150467520398533
100
AcDbArc
 50
342.4375626913
 51
350.5156856948
  0
LINE
  5
2BD
330
1F
100
AcDbEntity
  8
0
  6
Continuous
 62
     7
370
    15
100
AcDbLine
 10
85.179383241
 20
122.625610214
 30
0.0
 11
87.776816021
 21
136.8987200598
 31
0.0
  0
ARC
  5
2BE
330
1F
100
AcDbEntity
  8
0
  6
Continuous
 62
     7
370
    15
100
AcDbCircle
 10
92.989283634
 20
136.0892738856
 30
0.0
 40
1.049145424868888
100
AcDbArc
 50
344.0347496064
 51
7.2950000867
  0
LINE
  5
2BF
330
1F
100
AcDbEntity
  8
0
  6
Continuous
 62
     7
370
    15
100
AcDbLine
 10
91.4005290981
 20
121.5275920744
 30
0.0
 11
93.9979621473
 21
135.8007019202
 31
0.0
  0
LINE
  5
2C0
330
1F
100
AcDbEntity
  8
0
  6
Continuous
 62
     7
370
    15
100
AcDbLine
 10
85.4254707958
 20
129.440171067
 30
0.0
 11
85.3510911841
 21
129.5296246003
 31
0.0
  0
ARC
  5
2C1
330
1F
100
AcDbEntity
  8
0
  6
Continuous
 62
     7
370
    15
100
AcDbCircle
 10
89.1678709141
 20
121.9005784902
 30
0.0
 40
2.263599220893928
100
AcDbArc
 50
342.4374712031
 51
350.5157884021
  0
LINE
  5
2C2
330
1F
100
AcDbEntity
  8
0
  6
Continuous
 62
     7
370
    15
100
AcDbLine
 10
91.2757358312
 20
121.0756901468
 30
0.0
 11
91.3259597294
 21
121.2175454761
 31
0.0
  0
LWPOLYLINE
  5
2C3
330
1F
100
AcDbEntity
  8
0
  6
Continuous
 62
     7
370
    15
100
AcDbPolyline
 90
        9
 70
   128
 43
0.0
 10
86.689509408
 20
132.0931179266
 10
86.7342036947
 20
132.3603199612
 10
86.7686684508
 20
132.6129244457
 10
86.7903563924
 20
132.8322583626
 10
86.7976647135
 20
133.0021111111
 10
86.7900530141
 20
133.1099303256
 10
86.7680839294
 20
133.1477457474
 10
86.7333813369
 20
133.1127634089
 10
86.6885099824
 20
133.0075667988
  0
LINE
  5
2C4
330
1F
100
AcDbEntity
  8
0
  6
Continuous
 62
     7
370
    15
100
AcDbLine
 10
85.235819992
 20
124.1049742143
 30
0.0
 11
86.689509408
 21
132.0931179266
 31
0.0
  0
ARC
  5
2C5
330
1F
100
AcDbEntity
  8
0
  6
Continuous
 62
     7
370
    15
100
AcDbCircle
 10
79.6541996763
 20
125.0374317754
 30
0.0
 40
5.658971854731776
100
AcDbArc
 50
342.437477292
 51
350.5158311217
  0
LINE
  5
2C6
330
1F
100
AcDbEntity
  8
0
  6
Continuous
 62
     7
370
    15
100
AcDbLine
 10
83.5914773199
 20
119.212029856
 30
0.0
 11
85.0493969194
 21
123.3298577185
 31
0.0
  0
LWPOLYLINE
  5
2C7
330
1F
100
AcDbEntity
  8
0
  6
Continuous
 62
     7
370
    15
100
AcDbPolyline
 90
        9
 70
   128
 43
0.0
 10
83.5904780108
 20
120.1264805908
 10
83.5457838405
 20
119.8592766936
 10
83.5113188516
 20
119.6066731404
 10
83.4896311428
 20
119.3873401548
 10
83.4823230546
 20
119.217486475
 10
83.489934754
 20
119.1096672605
 10
83.5119037222
 20
119.0718518387
 10
83.5466061983
 20
119.1068351085
 10
83.5914773199
 20
119.212029856
  0
LINE
  5
2C8
330
1F
100
AcDbEntity
  8
0
  6
Continuous
 62
     7
370
    15
100
AcDbLine
 10
85.0441675432
 20
128.1146233718
 30
0.0
 11
83.5904780108
 21
120.1264805908
 31
0.0
  0
ARC
  5
2C9
330
1F
100
AcDbEntity
  8
0
  6
Continuous
 62
     7
370
    15
100
AcDbCircle
 10
90.6259334115
 20
127.1821328556
 30
0.0
 40
5.659120847966452
100
AcDbArc
 50
162.4375948685
 51
170.5157448489
  0
LINE
  5
2CA
330
1F
100
AcDbEntity
  8
0
  6
Continuous
 62
     7
370
    15
100
AcDbLine
 10
86.6885099824
 20
133.0075667988
 30
0.0
 11
85.2305906158
 21
128.8897407989
 31
0.0
  0
LWPOLYLINE
  5
2CB
330
1F
100
AcDbEntity
  8
0
  6
Continuous
 62
     7
370
    15
100
AcDbPolyline
 90
       32
 70
   128
 43
0.0
 10
85.3817689497
 20
125.9300572614
 10
85.4696783501
 20
126.4440020363
 10
85.5440905582
 20
126.9442656825
 10
85.6019589848
 20
127.4103646915
 10
85.6409143455
 20
127.8232199888
 10
85.6593619831
 20
128.1659262071
 10
85.6565468277
 20
128.4244539033
 10
85.6325836651
 20
128.5882213901
 10
85.588454109
 20
128.6505194198
 10
85.5259642269
 20
128.6088017563
 10
85.4476728275
 20
128.4647745828
 10
85.3567850575
 20
128.2243350337
 10
85.2570217833
 20
127.8973234634
 10
85.1524673201
 20
127.4971322904
 10
85.0474022593
 20
127.040143479
 10
84.9461276814
 20
126.5450672994
 10
84.8527903001
 20
126.0321693312
 10
84.7712108664
 20
125.5224499668
 10
84.7047295686
 20
125.0367773513
 10
84.656067964
 20
124.5950333591
 10
84.6272183846
 20
124.2153052057
 10
84.6193619802
 20
123.9131375964
 10
84.6328200571
 20
123.7009012888
 10
84.6670422036
 20
123.5872855227
 10
84.7206267792
 20
123.5769413228
 10
84.7913802866
 20
123.6702933724
 10
84.8764063123
 20
123.8635185923
 10
84.9722233399
 20
124.1487072597
 10
85.0749091044
 20
124.5141824524
 10
85.1802593827
 20
124.9449834044
 10
85.2839612201
 20
125.4234708662
 10
85.3817689497
 20
125.9300572614
  0
LINE
  5
2CC
330
1F
100
AcDbEntity
  8
VERMASSUNG
100
AcDbLine
 10
87.6948549154
 20
137.0274470736
 30
0.0
 11
77.5257248865
 21
79.3554448191
 31
0.0
  0
CIRCLE
  5
2CD
330
1F
100
AcDbEntity
  8
VERMASSUNG
  6
CENTERX2
100
AcDbCircle
 10
87.8629273068
 20
112.0280120465
 30
0.0
 40
25.0
  0
DIMENSION
  5
2CE
330
1F
100
AcDbEntity
  8
VERMASSUNG
100
AcDbDimension
  2
_D_5
 10
87.8629273068
 20
142.0497029593
 30
0.0
 11
82.7551615316
 21
79.5986030103
 31
0.0
 70
   162
  1
<>
 71
     1
 42
-1.0
  3
SLDDIMSTYLE2
100
AcDb2LineAngularDimension
 13
77.5257248865
 23
79.3554448191
 33
0.0
 14
87.6948549154
 24
137.0274470736
 34
0.0
 15
87.8629273068
 25
87.8174568902
 35
0.0
 16
82.7551615316
 26
79.5986030103
 36
0.0
  0
DIMENSION
  5
2D8
330
1F
100
AcDbEntity
  8
VERMASSUNG
100
AcDbDimension
  2
_D_6
 10
73.1095243689
 20
132.2106060759
 30
0.0
 11
66.743156189
 21
140.9197713415
 31
0.0
 70
   160
  1
%%c<> min. 
 71
     2
 42
-1.0
  3
SLDDIMSTYLE3
100
AcDbAlignedDimension
 13
102.6163302447
 23
91.8454180172
 33
0.0
 14
73.1095243689
 24
132.2106060759
 34
0.0
 50
-53.8333318928
100
AcDbRotatedDimension
  0
INSERT
  5
2F2
330
1F
100
AcDbEntity
  8
VERMASSUNG
100
AcDbBlockReference
  2
SW_CENTERMARKSYMBOL_0
 10
87.8629273068
 20
110.3174568902
 30
0.0
  0
OLE2FRAME
  5
2F3
330
1F
100
AcDbEntity
  8
0
100
AcDbOle2Frame
 70
     2
  3
Paintbrush-Bild
 10
13.8511154363
 20
38.264191557
 30
0.0
 11
51.6290888628
 21
31.9806341108
 31
0.0
 71
     2
 72
     0
 73
     1
 90
    12928
310
80552BED0767C5B32B40DDAF6807D121434000000000000000006FFBDDFB85D0
310
4940DDAF6807D121434000000000000000006FFBDDFB85D04940416F4BD60AFB
310
3F4000000000000000002BED0767C5B32B40416F4BD60AFB3F40000000000000
310
0000000000000100000000010000010000000100000000000100000000320000
310
D0CF11E0A1B11AE1000000000000000000000000000000003E000300FEFF0900
310
0600000000000000000000000100000001000000000000000010000002000000
310
01000000FEFFFFFF0000000000000000FFFFFFFFFFFFFFFFFFFFFFFFFFFFFFFF
310
FFFFFFFFFFFFFFFFFFFFFFFFFFFFFFFFFFFFFFFFFFFFFFFFFFFFFFFFFFFFFFFF
310
FFFFFFFFFFFFFFFFFFFFFFFFFFFFFFFFFFFFFFFFFFFFFFFFFFFFFFFFFFFFFFFF
310
FFFFFFFFFFFFFFFFFFFFFFFFFFFFFFFFFFFFFFFFFFFFFFFFFFFFFFFFFFFFFFFF
310
FFFFFFFFFFFFFFFFFFFFFFFFFFFFFFFFFFFFFFFFFFFFFFFFFFFFFFFFFFFFFFFF
310
FFFFFFFFFFFFFFFFFFFFFFFFFFFFFFFFFFFFFFFFFFFFFFFFFFFFFFFFFFFFFFFF
310
FFFFFFFFFFFFFFFFFFFFFFFFFFFFFFFFFFFFFFFFFFFFFFFFFFFFFFFFFFFFFFFF
310
FFFFFFFFFFFFFFFFFFFFFFFFFFFFFFFFFFFFFFFFFFFFFFFFFFFFFFFFFFFFFFFF
310
FFFFFFFFFFFFFFFFFFFFFFFFFFFFFFFFFFFFFFFFFFFFFFFFFFFFFFFFFFFFFFFF
310
FFFFFFFFFFFFFFFFFFFFFFFFFFFFFFFFFFFFFFFFFFFFFFFFFFFFFFFFFFFFFFFF
310
FFFFFFFFFFFFFFFFFFFFFFFFFFFFFFFFFFFFFFFFFFFFFFFFFFFFFFFFFFFFFFFF
310
FFFFFFFFFFFFFFFFFFFFFFFFFFFFFFFFFFFFFFFFFFFFFFFFFFFFFFFFFFFFFFFF
310
FFFFFFFFFFFFFFFFFFFFFFFFFFFFFFFFFFFFFFFFFFFFFFFFFFFFFFFFFFFFFFFF
310
FFFFFFFFFFFFFFFFFFFFFFFFFFFFFFFFFFFFFFFFFFFFFFFFFFFFFFFFFFFFFFFF
310
FDFFFFFFFEFFFFFFFEFFFFFFFEFFFFFF05000000060000000700000008000000
310
090000000A0000000B0000000C0000000D0000000E0000000F00000010000000
310
11000000120000001300000014000000150000001600000017000000FEFFFFFF
310
FFFFFFFFFFFFFFFFFFFFFFFFFFFFFFFFFFFFFFFFFFFFFFFFFFFFFFFFFFFFFFFF
310
FFFFFFFFFFFFFFFFFFFFFFFFFFFFFFFFFFFFFFFFFFFFFFFFFFFFFFFFFFFFFFFF
310
FFFFFFFFFFFFFFFFFFFFFFFFFFFFFFFFFFFFFFFFFFFFFFFFFFFFFFFFFFFFFFFF
310
FFFFFFFFFFFFFFFFFFFFFFFFFFFFFFFFFFFFFFFFFFFFFFFFFFFFFFFFFFFFFFFF
310
FFFFFFFFFFFFFFFFFFFFFFFFFFFFFFFFFFFFFFFFFFFFFFFFFFFFFFFFFFFFFFFF
310
FFFFFFFFFFFFFFFFFFFFFFFFFFFFFFFFFFFFFFFFFFFFFFFFFFFFFFFFFFFFFFFF
310
FFFFFFFFFFFFFFFFFFFFFFFFFFFFFFFFFFFFFFFFFFFFFFFFFFFFFFFFFFFFFFFF
310
FFFFFFFFFFFFFFFFFFFFFFFFFFFFFFFFFFFFFFFFFFFFFFFFFFFFFFFFFFFFFFFF
310
FFFFFFFFFFFFFFFFFFFFFFFFFFFFFFFFFFFFFFFFFFFFFFFFFFFFFFFFFFFFFFFF
310
FFFFFFFFFFFFFFFFFFFFFFFFFFFFFFFFFFFFFFFFFFFFFFFFFFFFFFFFFFFFFFFF
310
FFFFFFFFFFFFFFFFFFFFFFFFFFFFFFFFFFFFFFFFFFFFFFFFFFFFFFFFFFFFFFFF
310
FFFFFFFFFFFFFFFFFFFFFFFFFFFFFFFFFFFFFFFFFFFFFFFFFFFFFFFFFFFFFFFF
310
FFFFFFFFFFFFFFFFFFFFFFFFFFFFFFFFFFFFFFFFFFFFFFFFFFFFFFFFFFFFFFFF
310
52006F006F007400200045006E00740072007900000000000000000000000000
310
0000000000000000000000000000000000000000000000000000000000000000
310
16000500FFFFFFFFFFFFFFFF020000000A00030000000000C000000000000046
310
000000000000000000000000107B585AD54ACD0103000000C000000000000000
310
01004F006C006500000000000000000000000000000000000000000000000000
310
0000000000000000000000000000000000000000000000000000000000000000
310
0A000200FFFFFFFFFFFFFFFFFFFFFFFF00000000000000000000000000000000
310
0000000000000000000000000000000000000000000000001400000000000000
310
010043006F006D0070004F0062006A0000000000000000000000000000000000
310
0000000000000000000000000000000000000000000000000000000000000000
310
120002010100000003000000FFFFFFFF00000000000000000000000000000000
310
0000000000000000000000000000000000000000010000004D00000000000000
310
01004F006C006500310030004E00610074006900760065000000000000000000
310
0000000000000000000000000000000000000000000000000000000000000000
310
1A000200FFFFFFFFFFFFFFFFFFFFFFFF00000000000000000000000000000000
310
0000000000000000000000000000000000000000040000002426000000000000
310
FEFFFFFF02000000FEFFFFFFFFFFFFFFFFFFFFFFFFFFFFFFFFFFFFFFFFFFFFFF
310
FFFFFFFFFFFFFFFFFFFFFFFFFFFFFFFFFFFFFFFFFFFFFFFFFFFFFFFFFFFFFFFF
310
FFFFFFFFFFFFFFFFFFFFFFFFFFFFFFFFFFFFFFFFFFFFFFFFFFFFFFFFFFFFFFFF
310
FFFFFFFFFFFFFFFFFFFFFFFFFFFFFFFFFFFFFFFFFFFFFFFFFFFFFFFFFFFFFFFF
310
FFFFFFFFFFFFFFFFFFFFFFFFFFFFFFFFFFFFFFFFFFFFFFFFFFFFFFFFFFFFFFFF
310
FFFFFFFFFFFFFFFFFFFFFFFFFFFFFFFFFFFFFFFFFFFFFFFFFFFFFFFFFFFFFFFF
310
FFFFFFFFFFFFFFFFFFFFFFFFFFFFFFFFFFFFFFFFFFFFFFFFFFFFFFFFFFFFFFFF
310
FFFFFFFFFFFFFFFFFFFFFFFFFFFFFFFFFFFFFFFFFFFFFFFFFFFFFFFFFFFFFFFF
310
FFFFFFFFFFFFFFFFFFFFFFFFFFFFFFFFFFFFFFFFFFFFFFFFFFFFFFFFFFFFFFFF
310
FFFFFFFFFFFFFFFFFFFFFFFFFFFFFFFFFFFFFFFFFFFFFFFFFFFFFFFFFFFFFFFF
310
FFFFFFFFFFFFFFFFFFFFFFFFFFFFFFFFFFFFFFFFFFFFFFFFFFFFFFFFFFFFFFFF
310
FFFFFFFFFFFFFFFFFFFFFFFFFFFFFFFFFFFFFFFFFFFFFFFFFFFFFFFFFFFFFFFF
310
FFFFFFFFFFFFFFFFFFFFFFFFFFFFFFFFFFFFFFFFFFFFFFFFFFFFFFFFFFFFFFFF
310
FFFFFFFFFFFFFFFFFFFFFFFFFFFFFFFFFFFFFFFFFFFFFFFFFFFFFFFFFFFFFFFF
310
FFFFFFFFFFFFFFFFFFFFFFFFFFFFFFFFFFFFFFFFFFFFFFFFFFFFFFFFFFFFFFFF
310
FFFFFFFFFFFFFFFFFFFFFFFFFFFFFFFFFFFFFFFFFFFFFFFFFFFFFFFFFFFFFFFF
310
0100000200000000000000000000000000000000000000000000000000000000
310
0000000000000000000000000000000000000000000000000000000000000000
310
0100FEFF030A0000FFFFFFFF0A00030000000000C00000000000004607000000
310
5042727573680007000000504272757368000700000050427275736800F439B2
310
7100000000000000000000000000000000000000000000000000000000000000
310
0000000000000000000000000000000000000000000000000000000000000000
310
0000000000000000000000000000000000000000000000000000000000000000
310
0000000000000000000000000000000000000000000000000000000000000000
310
0000000000000000000000000000000000000000000000000000000000000000
310
0000000000000000000000000000000000000000000000000000000000000000
310
0000000000000000000000000000000000000000000000000000000000000000
310
0000000000000000000000000000000000000000000000000000000000000000
310
0000000000000000000000000000000000000000000000000000000000000000
310
0000000000000000000000000000000000000000000000000000000000000000
310
0000000000000000000000000000000000000000000000000000000000000000
310
0000000000000000000000000000000000000000000000000000000000000000
310
20260000424D0E260000000000003E00000028000000B40200006E0000000100
310
01000000000000000000130B0000130B00000200000002000000000000FFFFFF
310
FFFFFFFFFFFFFFFFFFFFFFFFFFFFFFFFFFFFFFFFFFFFFFFFFFFFFFFFFFFFFFFF
310
FFFFFFFFFFFFFFFFFFFFFFFFFFFFFFFFFFFFFFFFFFFFFFFFFFFFFFFFFFFFFFFF
310
FFFFFFFFFFFFFFFFFFFFFFFFFFFFFFFFFFFFFFFFFFFFFFFFF000FFFFFFFFFFFF
310
FFFFFFFFFFFFFFFFFFFFFFFFFFFFFFFFFFFFFFFFFFFFFFFFFFFFFFFFFFFFFFFF
310
FFFFFFFFFFFFFFFFFFFFFFFFFFFFFFFFFFFFFFFFFFFFFFFFFFFFFFFFFFFFFFFF
310
FFFFFFFFFFFFFFFFFFFFFFFFFFFFFFFFF000FFFFFFFFFFFFFFFFFFFFFFFFFFFF
310
FFFFFFFFFFFFFFFFFFFFFFFFFFFFFFFFFFFFFFFFFFFFFFFFFFFFFFFFFFFFFFFF
310
FFFFFFFFFFFFFFFFFFFFFFFFFFFFFFFFFFFFFFFFFFFFFFFFFFFFFFFFFFFFFFFF
310
FFFFFFFFFFFFFFFFF000FFFFFFFFFFFFFFFFFFFFFFFFFFFFFFFFFFFFFFFFFFFF
310
FFFFFFFFFFFFFFFFFFFFFFFFFFFFFFFFFFFFFFFFFFFFFFFFFFFFFFFFFFFFFFFF
310
FFFFFFFFFFFFFFFFFFFFFFFFFFFFFFFFFFFFFFFFFFFFFFFFFFFFFFFFFFFFFFFF
310
F000FFFFFFFFFFFFFFFFFFFFFFFFFFFFFFFFFFFFFFFFFFFFFFFFFFFFFFFFFFFF
310
FFFFFFFFFFFFFFFFFFFFFFFFFFFFFFFFFFFFFFFFFFFFFFFFFFFFFFFFFFFFFFFF
310
FFFFFFFFFFFFFFFFFFFFFFFFFFFFFFFFFFFFFFFFFFFFFFFFF000FFFFFFFFFFFF
310
FFFFFFFFFFFFFFFFFFFFFFFFFFFFFFFFFFFFFFFFFFFFFFFFFFFFFFFFFFFFFFFF
310
FFFFFFFFFFFFFFFFFFFFFFFFFFFFFFFFFFFFFFFFFFFFFFFFFFFFFFFFFFFFFFFF
310
FFFFFFFFFFFFFFFFFFFFFFFFFFFFFFFFF000FFFFFFFFFFFFFFFFFFFFFFFFFFFF
310
FFFFFFFFFFFFFFFFFFFFFFFFFFFFFFFFFFFFFFFFFFFFFFFFFFFFFFFFFFFFFFFF
310
FFFFFFFFFFFFFFFFFFFFFFFFFFFFFFFFFFFFFFFFFFFFFFFFFFFFFFFFFFFFFFFF
310
FFFFFFFFFFFFFFFFF000FFFFFFFFFFFFFFFFFFFFFFFFFFFFFFFFFFFFFFFFFFFF
310
FFFFFFFFFFFFFFFFFFFFFFFFFFFFFFFFFFFFFFFFFFFFFFFFFFFFFFFFFFFFFFFF
310
FFFFFFFFFFFFFFFFFFFFFFFFFFFFFFFFFFFFFFFFFFFFFFFFFFFFFFFFFFFFFFFF
310
F000FFFFFFFFFFFFFFFFFFFFFFFFFFFFFFFFFFFFFFFFFFFFFFFFFFFFFFFFFFFF
310
FFFFFFFFFFFFFFFFFFFFFFFFFFFFFFFFFFFFFFFFFFFFFFFFFFFFFFFFFFFFFFFF
310
FFFFFFFFFFFFFFFFFFFFFFFFFFFFFFFFFFFFFFFFFFFFFFFFF000FFFFFFFFFFFF
310
FFFFFFFFFFFFFFFFFFFFFFFFFFFFFFFFFFFFFFFFFFFFFFFFFFFFFFFFFFFFFFFF
310
FFFFFFFFFFFFFFFFFFFFFFFFFFFFFFFFFFFFFFFFFFFFFFFFFFFFFFFFFFFFFFFF
310
FFFFFFFFFFFFFFFFFFFFFFFFFFFFFFFFF000FFFFFFFFFFFFFFFFFFFFFFFFFFFF
310
FFFFFFFFFFFFFFFFFFFFFFFFFFFFFFFFFFFFFFFFFFFFFFFFFFFFFFFFFFFFFFFF
310
FFFFFFFFFFFFFFFFFFFFFFFFFFFFFFFFFFFFFFFFFFFFFFFFFFFFFFFFFFFFFFFF
310
FFFFFFFFFFFFFFFFF000FFFFFFFFFFFFFFFFFFFFFFFFFFFFFFFFFFFFFFFFFFFF
310
FFFFFFFFFFFFFFFFFFFFFFFFFFFFFFFFFFFFFFFFFFFFFFFFFFFFFFFFFFFFFFFF
310
FFFFFFFFFFFFFFFFFFFFFFFFFFFFFFFFFFFFFFFFFFFFFFFFFFFFFFFFFFFFFFFF
310
F000FFFFFFFFFFFFFFFFFFFFFFFFFFFFFFFFFFFFFFFFFFFFFFFFFFFFFFFFFFFF
310
FFFFFFFFFFFFFFFFFFFFFFFFFFFFFFFFFFFFFFFFFFFFFFFFFFFFFFFFFFFFFFFF
310
FFFFFFFFFFFFFFFFFFFFFFFFFFFFFFFFFFFFFFFFFFFFFFFFF000FFFFFFFFFFFF
310
FFFFFFFFFFFFFFFFFFFFFFFFFFFFFFFFFFFFFFFFFFFFFFFFFFFFFFFFFFFFFFFF
310
FFFFFFFFFFFFFFFFFFFFFFFFFFFFFFFFFFFFFFFFFFFFFFFFFFFFFFFFFFFFFFFF
310
FFFFFFFFFFFFFFFFFFFFFFFFFFFFFFFFF000FFFFFFFFFFFFFFFFFFFFFFFFFFFF
310
FFFFFFFFFFFFFFFFFFFFFFFFFFFFFFFFFFFFFFFFFFFFFFFFFFFFFFFFFFFFFFFF
310
FFFFFFFFFFFFFFFFFFFFFFFFFFFFFFFFFFFFFFFFFFFFFFFFFFFFFFFFFFFFFFFF
310
FFFFFFFFFFFFFFFFF000FFFFFFFFFFFFFFFFFFFFFFFFFFFFFFFFFFFFFFFFFFFF
310
FFFFFFFFFFFFFFFFFFFFFFFFFFFFFFFFFFFFFFFFFFFFFFFFFFFFFFFFFFFFFFFF
310
FFFFFFFFFFFFFFFFFFFFFFFFFFFFFFFFFFFFFFFFFFFFFFFFFFFFFFFFFFFFFFFF
310
F000FFFFFFFFFFFFFFFFFFFFFFFFFFFFFFFFFFFFFFFFFFFFFFFFFFFFFFFFFFFF
310
FFFFFFFFFFFFFFFFFFFFFFFFFFFFFFFFFFFFFFFFFFFFFFFFFFFFFFFFFFFFFFFF
310
FFFFFFFFFFFFFFFFFFFFFFFFFFFFFFFFFFFFFFFFFFFFFFFFF000FFFFFFFFFFFF
310
FFFFFFFFFFFFFFFFFFFFFFFFFFFFFFFFFFFFFFFFFFFFFFFFFFFFFFFFFFFFFFFF
310
FFFFFFFFFFFFFFFFFFFFFFFFFFFFFFFFFFFFFFFFFFFFFFFFFFFFFFFFFFFFFFFF
310
FFFFFFFFFFFFFFFFFFFFFFFFFFFFFFFFF000FFFFFFFFFFFFFFFFFFFFFFFFFFFF
310
FFFFFFFFFFFFFFFFFFFFFFFFFFFFFFFFFFFFFFFFFFFFFFFFFFFFFFFFFFFFFFFF
310
FFFFFFFFFFFFFFFFFFFFFFFFFFFFFFFFFFFFFFFFFFFFFFFFFFFFFFFFFFFFFFFF
310
FFFFFFFFFFFFFFFFF000FFFFF80003FFFFFFFFFFFFFFFFFFFFFFFFFFFFFFFFFF
310
FFFFF00007FFFFFFFFFF00007FFFFFF800000000000000007FFFFFFFFFFFFFFF
310
FFFFFFFC001FFFFFFFFFFFFFFC001FFFFFFFFFFFFFFFFFFFFFFFFFFE0007FFFF
310
F000FFFF8000007FFFFFFFF8000FFFFFC0007FFFFF80007FFFFF0000007FFFFF
310
FFF8000007FFFFF800000000000000007FFFFFF0001FFFFFFFFFFFC00001FFFF
310
FFFFFFFFC00001FFFFFFFF000000000003FFFFE000007FFFF000FFFE0000000F
310
FFFFFFF0000FFFFF80007FFFFF80007FFFFC0000001FFFFFFFC0000001FFFFF8
310
00000000000000007FFFFFF0001FFFFFFFFFFE0000003FFFFFFFFFFE0000003F
310
FFFFFF000000000003FFFF0000000FFFF000FFF800000003FFFFFFF00007FFFF
310
80007FFFFF80007FFFF000000007FFFFFF000000003FFFF80000000000000000
310
7FFFFFF0001FFFFFFFFFF80000000FFFFFFFFFF80000000FFFFFFF0000000000
310
03FFFC00000003FFF000FFE000000000FFFFFFF00007FFFF80003FFFFF80007F
310
FFC000000001FFFFFC000000001FFFF800000000000000007FFFFFF0001FFFFF
310
FFFFE000000003FFFFFFFFE000000003FFFFFF000000000003FFF000000000FF
310
F000FF80000000007FFFFFF00007FFFF80003FFFFF80007FFF8000000000FFFF
310
F80000000007FFF800000000000000007FFFFFF0001FFFFFFFFFC000000001FF
310
FFFFFFC000000001FFFFFF000000000003FFC0000000007FF000FF0000000000
310
3FFFFFE00007FFFF00003FFFFF80007FFE00000000003FFFF00000000003FFF8
310
00000000000000007FFFFFF0001FFFFFFFFF8000000000FFFFFFFF8000000000
310
FFFFFF000000000003FF80000000003FF000FE00000000001FFFFFE00003FFFF
310
00003FFFFF80007FFC00000000001FFFE00000000001FFF8000001FFFE000000
310
7FFFFFF0001FFFFFFFFE00000000003FFFFFFE00000000003FFFFF0000000000
310
03FF00000000001FF000FC00000000000FFFFFE00003FFFF00001FFFFF80007F
310
F800000000001FFFC00000000000FFF8000001FFFE0000007FFFFFF0001FFFFF
310
FFFC00000000001FFFFFFC00000000001FFFFF000000000003FE00000000000F
310
F000F8000000000007FFFFE00003FFFF00001FFFFF80007FF800000000000FFF
310
800000000000FFF8000001FFFE0000007FFFFFF0001FFFFFFFF800000000000F
310
FFFFF800000000000FFFFF000000000003FC000000000007F000F80000000000
310
03FFFFC00003FFFE00001FFFFF80007FF0000000000007FF0000000000007FF8
310
000001FFFE0000007FFFFFF0001FFFFFFFF0000000000007FFFFF00000000000
310
07FFFF000000000003F8000000000003F000F0000000000003FFFFC00001FFFE
310
00001FFFFF80007FE0000000000007FE0000000000003FF8000001FFFE000000
310
7FFFFFF0001FFFFFFFF0000000000007FFFFF0000000000007FFFF0000000000
310
03F800001F800003F000E00001FFF00001FFFFC00001FFFE00000FFFFF80007F
310
E00001FFE00003FE00001FFF00003FF8000001FFFE0000007FFFFFF0001FFFFF
310
FFE000003E000003FFFFE000003E000003FFFF000000000003F00001FFF80001
310
F000E00007FFFC0001FFFFC00001FFFE00000FFFFF80007FC0000FFFFC0003FC
310
0000FFFFC0001FF8000001FFFE0000007FFFFFF0001FFFFFFFC00003FFE00001
310
FFFFC00003FFE00001FFFF0001FFFFFFFFF00007FFFE0001F000E0000FFFFF00
310
00FFFF800001FFFC00000FFFFF80007FC0001FFFFE0001FC0001FFFFE0001FF8
310
000001FFFE0000007FFFFFF0001FFFFFFF80000FFFF80000FFFF80000FFFF800
310
00FFFF0003FFFFFFFFE0000FFFFF8000F000C0003FFFFF8000FFFF800000FFFC
310
000007FFFF80007F80003FFFFF0001FC0003FFFFF0001FF8000001FFFE000000
310
7FFFFFF0001FFFFFFF80003FFFFE0000FFFF80003FFFFE0000FFFF0003FFFFFF
310
FFE0003FFFFF8000F000C0003FFFFF8000FFFF800000FFFC000007FFFF80007F
310
80007FFFFF8001F80007FFFFF8000FF8000001FFFE0000007FFFFFF0001FFFFF
310
FF00007FFFFF00007FFF00007FFFFF00007FFF0003FFFFFFFFE0003FFFFFC000
310
F000C0007FFFFFC000FFFF000000FFFC000007FFFF80007F8000FFFFFF8000F8
310
000FFFFFF8000FF8000001FFFE0000007FFFFFF0001FFFFFFF0000FFFFFF8000
310
7FFF0000FFFFFF80007FFF0003FFFFFFFFC0007FFFFFC00070008000FFFFFFC0
310
00FFFF000000FFF8000007FFFF80007F8000FFFFFF8000F8000FFFFFF8000FF8
310
000001FFFE0000007FFFFFF0001FFFFFFE0001FFFFFFC0003FFE0001FFFFFFC0
310
003FFF0003FFFFFFFFC0007FFFFFE00070008000FFFFFFC0007FFF0000007FF8
310
000003FFFF80007F0001FFFFFF8000F8000FFFFFF8000FF8000001FFFE000000
310
7FFFFFF0001FFFFFFE0001FFFFFFC0003FFE0001FFFFFFC0003FFF0003FFFFFF
310
FFC000FFFFFFE00070008000FFFFFFC0007FFF0000007FF8000003FFFF80007F
310
0001FFFFFF8000F8001FFFFFF8000FF8000001FFFE0000007FFFFFF0001FFFFF
310
FE0003FFFFFFE0003FFE0003FFFFFFE0003FFF0003FFFFFFFFC000FFFFFFE000
310
70008000FFFFFFC0007FFE0000007FF8000003FFFF80007F0001FFFFFF8000F0
310
001FFFFFF8000FF8000001FFFE0000007FFFFFF0001FFFFFFC0003FFFFFFE000
310
1FFC0003FFFFFFE0001FFF0003FFFFFFFFC000FFFFFFC00070008000FFFFFF80
310
007FFE0000007FF0000003FFFF80007F0001FFFFFF0000F0001FFFFFF8000FF8
310
000001FFFE0000007FFFFFF0001FFFFFFC0007FFFFFFF0001FFC0007FFFFFFF0
310
001FFF0003FFFFFFFFC000FFFFFFC00070008001FFFFFF0000FFFE0000003FF0
310
000001FFFF80007F0001FFFFFF0000F8001FFFFFF0000FF8000001FFFE000000
310
7FFFFFF0001FFFFFFC0007FFFFFFF0001FFC0007FFFFFFF0001FFF0003FFFFFF
310
FFC001FFFFFF80007000FFFFFFFFFE0000FFFE0008003FF0008001FFFF80007F
310
FFFFFFFFFC0000FFFFFFFFFFE0000FF8000001FFFE0000007FFFFFF0001FFFFF
310
F8000FFFFFFFF8000FF8000FFFFFFFF8000FFF0003FFFFFFFFFFFFFFFFFF0000
310
7000FFFFFFFFFC0000FFFC0008003FF0008001FFFF80007FFFFFFFFFF80001FF
310
FFFFFFFF80000FF8000001FFFE0000007FFFFFF0001FFFFFF8000FFFFFFFF800
310
0FF8000FFFFFFFF8000FFF0003FFFFFFFFFFFFFFFFFE0000F000FFFFFFFFE000
310
00FFFC000C003FE000C001FFFF80007FFFFFFFFFC00001FFFFFFFFFE00001FF8
310
000001FFFE0000007FFFFFF0001FFFFFF8000FFFFFFFF8000FF8000FFFFFFFF8
310
000FFF0003FFFFFFFFFFFFFFFFF00000F000FFFFFFFE000001FFFC000C001FE0
310
00C000FFFF80007FFFFFFFFE000001FFFFFFFFE000001FF80FFFFFFFFFFFFFC0
310
7FFFFFF0001FFFFFF8000FFFFFFFF8000FF8000FFFFFFFF8000FFF0003FFFFFF
310
FFFFFFFFFF800000F000FFFFFFC0000001FFFC001C001FE001C000FFFF80007F
310
FFFFFF80000003FFFFFFF80000001FF80FFFFFFFFFFFFFC07FFFFFF0001FFFFF
310
F8001FFFFFFFFC000FF8001FFFFFFFFC000FFF0003FFFFFFFFFFFFFFF0000001
310
F000FFFFF800000001FFF8001C001FE001C000FFFF80007FFFFFF800000003FF
310
FFFF800000003FF80FFFFFFFFFFFFFC07FFFFFF0001FFFFFF8001FFFFFFFFC00
310
0FF8001FFFFFFFFC000FFF0003FFFFFFFFFFFFFE00000001F000FFFFC0000000
310
03FFF8001E001FC001E000FFFF80007FFFFF8000000007FFFFFC000000003FF8
310
0FFFFFFFFFFFFFC07FFFFFF0001FFFFFF8001FFFFFFFFC000FF8001FFFFFFFFC
310
000FFF0003FFFFFFFFFFFFE000000003F000FFFE0000000007FFF8001E000FC0
310
01E0007FFF80007FFFFE0000000007FFFFE0000000007FF80FFFFFFFFFFFFFC0
310
7FFFFFF0001FFFFFF0001FFFFFFFFC0007F0001FFFFFFFFC0007FF0003FFFFFF
310
FFFFFF0000000003F000FFF80000000007FFF8001E000FC003E0007FFF80007F
310
FFF0000000000FFFFF8000000000FFF80FFFFFFFFFFFFFC07FFFFFF0001FFFFF
310
F0001FFFFFFFFC0007F0001FFFFFFFFC0007FF0003FFFFFFFFFFFC0000000007
310
F000FFE0000000000FFFF0003E000FC003E0007FFF80007FFFC0000000001FFF
310
FE0000000001FFF80FFFFFFFFFFFFFC07FFFFFF0001FFFFFF0001FFFFFFFFC00
310
07F0001FFFFFFFFC0007FF0003FFFFFFFFFFF0000000000FF000FFC000000000
310
1FFFF0003F000F8003F0003FFF80007FFF80000000003FFFF80000000003FFF8
310
0FFFFFFFFFFFFFC07FFFFFF0001FFFFFF0001FFFFFFFFC0007F0001FFFFFFFFC
310
0007FF0003FFFFFFFFFFE0000000001FF000FF00000000007FFFF0003F000780
310
03F0003FFF80007FFF00000000007FFFF00000000007FFF80FFFFFFFFFFFFFC0
310
7FFFFFF0001FFFFFF0001FFFFFFFFC0007F0001FFFFFFFFC0007FF0003FFFFFF
310
FFFF80000000007FF000FE0000000000FFFFE0003F00078007F0003FFF80007F
310
FE0000000001FFFFE0000000001FFFF80FFFFFFFFFFFFFC07FFFFFF0001FFFFF
310
F0001FFFFFFFFC0007F0001FFFFFFFFC0007FF0003FFFFFFFFFF0000000000FF
310
F000FC0000000003FFFFE0007F00078007F0003FFF80007FFC0000000007FFFF
310
C0000000007FFFF80FFFFFFFFFFFFFC07FFFFFF0001FFFFFF8001FFFFFFFFC00
310
0FF8001FFFFFFFFC000FFF0003FFFFFFFFFE0000000003FFF000FC000000000F
310
FFFFE0007F80070007F8001FFF80007FF8000000001FFFFF8000000001FFFFF8
310
0FFFFFFFFFFFFFC07FFFFFF0001FFFFFF8001FFFFFFFFC000FF8001FFFFFFFFC
310
000FFF0003FFFFFFFFFC000000000FFFF000F8000000007FFFFFE0007F800700
310
07F8001FFF80007FF000000000FFFFFF800000000FFFFFF80FFFFFFFFFFFFFC0
310
7FFFFFF0001FFFFFF8000FFFFFFFF8000FF8000FFFFFFFF8000FFF0003FFFFFF
310
FFFC000000007FFFF000F800000007FFFFFFC0007F8003000FF8001FFF80007F
310
F000000007FFFFFF000000007FFFFFF80FFFFFFFFFFFFFC07FFFFFF0001FFFFF
310
F8000FFFFFFFF8000FF8000FFFFFFFF8000FFF0003FFFFFFFFF80000000FFFFF
310
F000F0000000FFFFFFFFC000FF8003000FF8001FFF80007FE0000000FFFFFFFF
310
0000000FFFFFFFF8000001FFFE0000007FFFFFF0001FFFFFF8000FFFFFFFF800
310
0FF8000FFFFFFFF8000FFF0003FFFFFFFFF8000000FFFFFFF000F000000FFFFF
310
FFFFC000FFC002000FF8000FFF80007FE000001FFFFFFFFE000001FFFFFFFFF8
310
000001FFFE0000007FFFFFF0001FFFFFF8000FFFFFFFF8000FF8000FFFFFFFF8
310
000FFF0003FFFFFFFFF000001FFFFFFFF000E00000FFFFFFFFFFC000FFC00200
310
0FFC000FFF80007FE00001FFFFFFFFFE00001FFFFFFFFFF8000001FFFE000000
310
7FFFFFF0001FFFFFFC000FFFFFFFF8001FFC000FFFFFFFF8001FFF0003FFFFFF
310
FFF00001FFFFFFFFF000E00007FFFFFFFFFF8000FFC000001FFC000FFF80007F
310
C0000FFFFFFFFFFE0000FFFFFFFFFFF8000001FFFE0000007FFFFFF0001FFFFF
310
FC0007FFFFFFF0001FFC0007FFFFFFF0001FFF0003FFFFFFFFF00007FFFFFFFF
310
F000E0001FFFFFFFFFFF8000FFC000001FFC000FFF80007FC0003FFFFFFFFFFE
310
0001FFFFFFFFFFF8000001FFFE0000007FFFFFF0001FFFFFFC0007FFFFFFF000
310
1FFC0007FFFFFFF0001FFF0003FFFFFFFFF0001FFFFFFFFFF000E0003FFFFF00
310
03FF8001FFE000001FFC0007FF80007FC0007FFFFF0007FC0003FFFFF0003FF8
310
000001FFFE0000007FFFFFF0001FFFFFFC0003FFFFFFE0001FFC0003FFFFFFE0
310
001FFF0003FFFFFFFFF0003FFFFFFFFFF000E0003FFFFF0001FF8001FFE00000
310
1FFE0007FF80007FC0007FFFFE0003FC0007FFFFE0003FF8000001FFFE000000
310
7FFFFFF0001FFFFFFE0003FFFFFFE0003FFE0003FFFFFFE0003FFF0003FFFFFF
310
FFF0003FFFFF8001F000E0003FFFFF0001FF0001FFE000001FFE0007FF80007F
310
C0007FFFFE0003FC0007FFFFE0003FF8000001FFFE0000007FFFFFF0001FFFFF
310
FE0001FFFFFFC0003FFE0001FFFFFFC0003FFF0003FFFFFFFFF0003FFFFF0001
310
F000E0003FFFFF0003FF0001FFE000003FFE0007FF80007FC0007FFFFE0003FC
310
0007FFFFE0003FF8000001FFFE0000007FFFFFF0001FFFFFFF0001FFFFFFC000
310
7FFF0001FFFFFFC0007FFF0003FFFFFFFFF0003FFFFF0001F000E0003FFFFE00
310
03FF0003FFF000003FFE0003FF80007FC0007FFFFC0003FE0007FFFFE0003FF8
310
000001FFFE0000007FFFFFF0001FFFFFFF0000FFFFFF80007FFF0000FFFFFF80
310
007FFF0003FFFFFFFFF0003FFFFF0001F000E0003FFFFE0003FF0003FFF00000
310
3FFF0003FF80007FC0007FFFFC0007FE0007FFFFC0003FF8000001FFFE000000
310
7FFFFFF0001FFFFFFF80007FFFFF0000FFFF80007FFFFF0000FFFF0003FFFFFF
310
FFF0003FFFFF0003F000E0003FFFFC0003FE0003FFF000003FFF0003FF80007F
310
E0003FFFF80007FE0003FFFFC0007FF8000001FFFE0000007FFFFFF0001FFFFF
310
FF80003FFFFE0000FFFF80003FFFFE0000FFFF0003FFFFFFFFF0001FFFFE0003
310
F000F0001FFFF80003FE0003FFF000007FFF0001FF80007FE0003FFFF00007FE
310
0001FFFF80007FF8000001FFFE0000007FFFFFF0001FFFFFFFC0000FFFF80001
310
FFFFC0000FFFF80001FFFF0003FFFFFFFFF0001FFFFC0003F000F0000FFFF000
310
07FE0007FFF800007FFF0001FF80007FE0001FFFE00007FF0000FFFE00007FF8
310
000001FFFE0000007FFFFFF0001FFFFFFFC00003FFE00001FFFFC00003FFE000
310
01FFFF0003FFFFFFFFF8000FFFF80003F000F00003FFC00007FC0007FFF80000
310
7FFF8001FF80007FF00007FF80000FFF00007FF80000FFF8000001FFFE000000
310
7F80000000000001FFE000003E000003FFFFE000003E000003FFFF0003FFFFFF
310
FFF80003FFE00007F000F800000000000FFC0007FFF800007FFF8001FF80007F
310
F000000000000FFF000000000000FFF8000001FFFE0000007F80000000000001
310
FFF0000000000007FFFFF0000000000007FFFF0003FFFFFFFFFC00007E000007
310
F000F800000000000FFC0007FFF80000FFFF8000FF80007FF800000000001FFF
310
800000000001FFF8000001FFFE0000007F80000000000001FFF800000000000F
310
FFFFF800000000000FFFFF0003FFFFFFFFFC00000000000FF000FC0000000000
310
1FFC0007FFFC0000FFFF8000FF80007FF800000000003FFFC00000000001FFF8
310
000001FFFE0000007F80000000000001FFF800000000000FFFFFF80000000000
310
0FFFFF0003FFFFFFFFFE00000000001FF000FE00000000003FF8000FFFFC0000
310
FFFF8000FF80007FFC00000000003FFFC00000000003FFF8000001FFFE000000
310
7F80000000000001FFFC00000000001FFFFFFC00000000001FFFFF0003FFFFFF
310
FFFF00000000001FF000FF00000000003FF8000FFFFC0000FFFFC000FF80007F
310
FE00000000007FFFE00000000007FFF8000001FFFE0000007F80000000000001
310
FFFE00000000003FFFFFFE00000000003FFFFF0003FFFFFFFFFF80000000003F
310
F000FF80000000007FF8000FFFFC0001FFFFC0007F80007FFF0000000000FFFF
310
F0000000000FFFF800000000000000007F80000000000001FFFF8000000000FF
310
FFFFFF8000000000FFFFFF0003FFFFFFFFFFC0000000007FF000FFC000000000
310
FFF8000FFFFE0001FFFFC0007F80007FFF8000000001FFFFF8000000001FFFF8
310
00000000000000007F80000000000001FFFFC000000001FFFFFFFFC000000001
310
FFFFFF0003FFFFFFFFFFE000000000FFF000FFE000000003FFF0001FFFFE0001
310
FFFFC0007F80007FFFC000000007FFFFFE000000003FFFF80000000000000000
310
7F80000000000001FFFFE000000003FFFFFFFFE000000003FFFFFF0003FFFFFF
310
FFFFF000000003FFF000FFF80000000FFFF0001FFFFE0001FFFFE0007F80007F
310
FFF00000000FFFFFFF00000000FFFFF800000000000000007F80000000000001
310
FFFFF80000000FFFFFFFFFF80000000FFFFFFF0003FFFFFFFFFFFC0000000FFF
310
F000FFFE0000003FFFF0001FFFFE0003FFFFE0003F80007FFFFC0000003FFFFF
310
FFC0000003FFFFF800000000000000007F80000000000001FFFFFE0000003FFF
310
FFFFFFFE0000003FFFFFFF0003FFFFFFFFFFFF0000003FFFF000FFFF800000FF
310
FFF0001FFFFF0003FFFFE0003F80007FFFFF000001FFFFFFFFF800001FFFFFF8
310
00000000000000007F80000000000001FFFFFFC00001FFFFFFFFFFFFC00001FF
310
FFFFFF0003FFFFFFFFFFFFC00000FFFFF000FFFFF8000FFFFFFFFFFFFFFFFFFF
310
FFFFFFFFFFFFFFFFFFFFF0001FFFFFFFFFFF0000FFFFFFF80000000000000000
310
7FFFFFFFFFFFFFFFFFFFFFFC001FFFFFFFFFFFFFFC001FFFFFFFFFFFFFFFFFFF
310
FFFFFFFC001FFFFFF000FFFFFFFFFFFFFFFFFFFFFFFFFFFFFFFFFFFFFFFFFFFF
310
FFFFFFFFFFFFFFFFFFFFFFFFFFFFFFFFFFFFFFFFFFFFFFFFFFFFFFFFFFFFFFFF
310
FFFFFFFFFFFFFFFFFFFFFFFFFFFFFFFFFFFFFFFFFFFFFFFFFFFFFFFFFFFFFFFF
310
F000FFFFFFFFFFFFFFFFFFFFFFFFFFFFFFFFFFFFFFFFFFFFFFFFFFFFFFFFFFFF
310
FFFFFFFFFFFFFFFFFFFFFFFFFFFFFFFFFFFFFFFFFFFFFFFFFFFFFFFFFFFFFFFF
310
FFFFFFFFFFFFFFFFFFFFFFFFFFFFFFFFFFFFFFFFFFFFFFFFF000FFFFFFFFFFFF
310
FFFFFFFFFFFFFFFFFFFFFFFFFFFFFFFFFFFFFFFFFFFFFFFFFFFFFFFFFFFFFFFF
310
FFFFFFFFFFFFFFFFFFFFFFFFFFFFFFFFFFFFFFFFFFFFFFFFFFFFFFFFFFFFFFFF
310
FFFFFFFFFFFFFFFFFFFFFFFFFFFFFFFFF000FFFFFFFFFFFFFFFFFFFFFFFFFFFF
310
FFFFFFFFFFFFFFFFFFFFFFFFFFFFFFFFFFFFFFFFFFFFFFFFFFFFFFFFFFFFFFFF
310
FFFFFFFFFFFFFFFFFFFFFFFFFFFFFFFFFFFFFFFFFFFFFFFFFFFFFFFFFFFFFFFF
310
FFFFFFFFFFFFFFFFF000FFFFFFFFFFFFFFFFFFFFFFFFFFFFFFFFFFFFFFFFFFFF
310
FFFFFFFFFFFFFFFFFFFFFFFFFFFFFFFFFFFFFFFFFFFFFFFFFFFFFFFFFFFFFFFF
310
FFFFFFFFFFFFFFFFFFFFFFFFFFFFFFFFFFFFFFFFFFFFFFFFFFFFFFFFFFFFFFFF
310
F000FFFFFFFFFFFFFFFFFFFFFFFFFFFFFFFFFFFFFFFFFFFFFFFFFFFFFFFFFFFF
310
FFFFFFFFFFFFFFFFFFFFFFFFFFFFFFFFFFFFFFFFFFFFFFFFFFFFFFFFFFFFFFFF
310
FFFFFFFFFFFFFFFFFFFFFFFFFFFFFFFFFFFFFFFFFFFFFFFFF000FFFFFFFFFFFF
310
FFFFFFFFFFFFFFFFFFFFFFFFFFFFFFFFFFFFFFFFFFFFFFFFFFFFFFFFFFFFFFFF
310
FFFFFFFFFFFFFFFFFFFFFFFFFFFFFFFFFFFFFFFFFFFFFFFFFFFFFFFFFFFFFFFF
310
FFFFFFFFFFFFFFFFFFFFFFFFFFFFFFFFF000FFFFFFFFFFFFFFFFFFFFFFFFFFFF
310
FFFFFFFFFFFFFFFFFFFFFFFFFFFFFFFFFFFFFFFFFFFFFFFFFFFFFFFFFFFFFFFF
310
FFFFFFFFFFFFFFFFFFFFFFFFFFFFFFFFFFFFFFFFFFFFFFFFFFFFFFFFFFFFFFFF
310
FFFFFFFFFFFFFFFFF000FFFFFFFFFFFFFFFFFFFFFFFFFFFFFFFFFFFFFFFFFFFF
310
FFFFFFFFFFFFFFFFFFFFFFFFFFFFFFFFFFFFFFFFFFFFFFFFFFFFFFFFFFFFFFFF
310
FFFFFFFFFFFFFFFFFFFFFFFFFFFFFFFFFFFFFFFFFFFFFFFFFFFFFFFFFFFFFFFF
310
F000FFFFFFFFFFFFFFFFFFFFFFFFFFFFFFFFFFFFFFFFFFFFFFFFFFFFFFFFFFFF
310
FFFFFFFFFFFFFFFFFFFFFFFFFFFFFFFFFFFFFFFFFFFFFFFFFFFFFFFFFFFFFFFF
310
FFFFFFFFFFFFFFFFFFFFFFFFFFFFFFFFFFFFFFFFFFFFFFFFF000FFFFFFFFFFFF
310
FFFFFFFFFFFFFFFFFFFFFFFFFFFFFFFFFFFFFFFFFFFFFFFFFFFFFFFFFFFFFFFF
310
FFFFFFFFFFFFFFFFFFFFFFFFFFFFFFFFFFFFFFFFFFFFFFFFFFFFFFFFFFFFFFFF
310
FFFFFFFFFFFFFFFFFFFFFFFFFFFFFFFFF000FFFFFFFFFFFFFFFFFFFFFFFFFFFF
310
FFFFFFFFFFFFFFFFFFFFFFFFFFFFFFFFFFFFFFFFFFFFFFFFFFFFFFFFFFFFFFFF
310
FFFFFFFFFFFFFFFFFFFFFFFFFFFFFFFFFFFFFFFFFFFFFFFFFFFFFFFFFFFFFFFF
310
FFFFFFFFFFFFFFFFF000FFFFFFFFFFFFFFFFFFFFFFFFFFFFFFFFFFFFFFFFFFFF
310
FFFFFFFFFFFFFFFFFFFFFFFFFFFFFFFFFFFFFFFFFFFFFFFFFFFFFFFFFFFFFFFF
310
FFFFFFFFFFFFFFFFFFFFFFFFFFFFFFFFFFFFFFFFFFFFFFFFFFFFFFFFFFFFFFFF
310
F000FFFFFFFFFFFFFFFFFFFFFFFFFFFFFFFFFFFFFFFFFFFFFFFFFFFFFFFFFFFF
310
FFFFFFFFFFFFFFFFFFFFFFFFFFFFFFFFFFFFFFFFFFFFFFFFFFFFFFFFFFFFFFFF
310
FFFFFFFFFFFFFFFFFFFFFFFFFFFFFFFFFFFFFFFFFFFFFFFFF000FFFFFFFFFFFF
310
FFFFFFFFFFFFFFFFFFFFFFFFFFFFFFFFFFFFFFFFFFFFFFFFFFFFFFFFFFFFFFFF
310
FFFFFFFFFFFFFFFFFFFFFFFFFFFFFFFFFFFFFFFFFFFFFFFFFFFFFFFFFFFFFFFF
310
FFFFFFFFFFFFFFFFFFFFFFFFFFFFFFFFF000FFFFFFFFFFFFFFFFFFFFFFFFFFFF
310
FFFFFFFFFFFFFFFFFFFFFFFFFFFFFFFFFFFFFFFFFFFFFFFFFFFFFFFFFFFFFFFF
310
FFFFFFFFFFFFFFFFFFFFFFFFFFFFFFFFFFFFFFFFFFFFFFFFFFFFFFFFFFFFFFFF
310
FFFFFFFFFFFFFFFFF000FFFFFFFFFFFFFFFFFFFFFFFFFFFFFFFFFFFFFFFFFFFF
310
FFFFFFFFFFFFFFFFFFFFFFFFFFFFFFFFFFFFFFFFFFFFFFFFFFFFFFFFFFFFFFFF
310
FFFFFFFFFFFFFFFFFFFFFFFFFFFFFFFFFFFFFFFFFFFFFFFFFFFFFFFFFFFFFFFF
310
F000FFFFFFFFFFFFFFFFFFFFFFFFFFFFFFFFFFFFFFFFFFFFFFFFFFFFFFFFFFFF
310
FFFFFFFFFFFFFFFFFFFFFFFFFFFFFFFFFFFFFFFFFFFFFFFFFFFFFFFFFFFFFFFF
310
FFFFFFFFFFFFFFFFFFFFFFFFFFFFFFFFFFFFFFFFFFFFFFFFF000FFFFFFFFFFFF
310
FFFFFFFFFFFFFFFFFFFFFFFFFFFFFFFFFFFFFFFFFFFFFFFFFFFFFFFFFFFFFFFF
310
FFFFFFFFFFFFFFFFFFFFFFFFFFFFFFFFFFFFFFFFFFFFFFFFFFFFFFFFFFFFFFFF
310
FFFFFFFFFFFFFFFFFFFFFFFFFFFFFFFFF000FFFFFFFFFFFFFFFFFFFFFFFFFFFF
310
FFFFFFFFFFFFFFFFFFFFFFFFFFFFFFFFFFFFFFFFFFFFFFFFFFFFFFFFFFFFFFFF
310
FFFFFFFFFFFFFFFFFFFFFFFFFFFFFFFFFFFFFFFFFFFFFFFFFFFFFFFFFFFFFFFF
310
FFFFFFFFFFFFFFFFF000FFFFFFFFFFFFFFFFFFFFFFFFFFFFFFFFFFFFFFFFFFFF
310
FFFFFFFFFFFFFFFFFFFFFFFFFFFFFFFFFFFFFFFFFFFFFFFFFFFFFFFFFFFFFFFF
310
FFFFFFFFFFFFFFFFFFFFFFFFFFFFFFFFFFFFFFFFFFFFFFFFFFFFFFFFFFFFFFFF
310
F000FFFFFFFFFFFFFFFFFFFFFFFFFFFFFFFFFFFFFFFFFFFFFFFFFFFFFFFFFFFF
310
FFFFFFFFFFFFFFFFFFFFFFFFFFFFFFFFFFFFFFFFFFFFFFFFFFFFFFFFFFFFFFFF
310
FFFFFFFFFFFFFFFFFFFFFFFFFFFFFFFFFFFFFFFFFFFFFFFFF000FFFFFFFFFFFF
310
FFFFFFFFFFFFFFFFFFFFFFFFFFFFFFFFFFFFFFFFFFFFFFFFFFFFFFFFFFFFFFFF
310
FFFFFFFFFFFFFFFFFFFFFFFFFFFFFFFFFFFFFFFFFFFFFFFFFFFFFFFFFFFFFFFF
310
FFFFFFFFFFFFFFFFFFFFFFFFFFFFFFFFF0000000000000000000000000000000
310
0000000000000000000000000000000000000000000000000000000000000000
310
0000000000000000000000000000000000000000000000000000000000000000
310
0000000000000000000000000000000000000000000000000000000000000000
310
0000000000000000000000000000000000000000000000000000000000000000
310
0000000000000000000000000000000000000000000000000000000000000000
310
0000000000000000000000000000000000000000000000000000000000000000
310
0000000000000000000000000000000000000000000000000000000000000000
310
0000000000000000000000000000000000000000000000000000000000000000
310
0000000000000000000000000000000000000000000000000000000000000000
310
0000000000000000000000000000000000000000000000000000000000000000
310
0000000000000000000000000000000000000000000000000000000000000000
310
0000000000000000000000000000000000000000000000000000000000000000
310
0000000000000000000000000000000000000000000000000000000000000000
310
0000000000000000000000000000000000000000000000000000000000000000
310
0000000000000000000000000000000000000000000000000000000000000000
  1
OLE
  0
ENDSEC
  0
SECTION
  2
OBJECTS
  0
DICTIONARY
  5
C
330
0
100
AcDbDictionary
281
     1
  3
ACAD_GROUP
350
D
  3
ACAD_LAYOUT
350
1A
  3
ACAD_MLINESTYLE
350
17
  3
ACAD_PLOTSETTINGS
350
19
  3
ACAD_PLOTSTYLENAME
350
E
  0
DICTIONARY
  5
D
102
{ACAD_REACTORS
330
C
102
}
330
C
100
AcDbDictionary
281
     1
  0
DICTIONARY
  5
1A
102
{ACAD_REACTORS
330
C
102
}
330
C
100
AcDbDictionary
281
     1
  3
Layout1
350
1E
  3
Layout2
350
26
  3
Model
350
22
  0
DICTIONARY
  5
17
102
{ACAD_REACTORS
330
C
102
}
330
C
100
AcDbDictionary
281
     1
  3
Standard
350
18
  0
DICTIONARY
  5
19
102
{ACAD_REACTORS
330
C
102
}
330
C
100
AcDbDictionary
281
     1
  0
ACDBDICTIONARYWDFLT
  5
E
102
{ACAD_REACTORS
330
C
102
}
330
C
100
AcDbDictionary
281
     1
  3
Normal
350
F
100
AcDbDictionaryWithDefault
340
F
  0
LAYOUT
  5
1E
102
{ACAD_REACTORS
330
1A
102
}
330
1A
100
AcDbPlotSettings
  1

  2
none_device
  4

  6

 40
0.0
 41
0.0
 42
0.0
 43
0.0
 44
0.0
 45
0.0
 46
0.0
 47
0.0
 48
0.0
 49
0.0
140
0.0
141
0.0
142
1.0
143
1.0
 70
   688
 72
     0
 73
     0
 74
     5
  7

 75
    16
147
1.0
148
0.0
149
0.0
100
AcDbLayout
  1
Layout1
 70
     1
 71
     1
 10
0.0
 20
0.0
 11
420.0
 21
297.0
 12
0.0
 22
0.0
 32
0.0
 14
1.0000000000E+20
 24
1.0000000000E+20
 34
1.0000000000E+20
 15
-1.0000000000E+20
 25
-1.0000000000E+20
 35
-1.0000000000E+20
146
0.0
 13
0.0
 23
0.0
 33
0.0
 16
1.0
 26
0.0
 36
0.0
 17
0.0
 27
1.0
 37
0.0
 76
     0
330
1B
  0
LAYOUT
  5
26
102
{ACAD_REACTORS
330
1A
102
}
330
1A
100
AcDbPlotSettings
  1

  2
none_device
  4

  6

 40
0.0
 41
0.0
 42
0.0
 43
0.0
 44
0.0
 45
0.0
 46
0.0
 47
0.0
 48
0.0
 49
0.0
140
0.0
141
0.0
142
1.0
143
1.0
 70
   688
 72
     0
 73
     0
 74
     5
  7

 75
    16
147
1.0
148
0.0
149
0.0
100
AcDbLayout
  1
Layout2
 70
     1
 71
     2
 10
0.0
 20
0.0
 11
0.0
 21
0.0
 12
0.0
 22
0.0
 32
0.0
 14
0.0
 24
0.0
 34
0.0
 15
0.0
 25
0.0
 35
0.0
146
0.0
 13
0.0
 23
0.0
 33
0.0
 16
1.0
 26
0.0
 36
0.0
 17
0.0
 27
1.0
 37
0.0
 76
     0
330
23
  0
LAYOUT
  5
22
102
{ACAD_REACTORS
330
1A
102
}
330
1A
100
AcDbPlotSettings
  1

  2
none_device
  4

  6

 40
0.0
 41
0.0
 42
0.0
 43
0.0
 44
0.0
 45
0.0
 46
0.0
 47
0.0
 48
0.0
 49
0.0
140
0.0
141
0.0
142
1.0
143
1.0
 70
  1712
 72
     0
 73
     0
 74
     0
  7

 75
     0
147
1.0
148
0.0
149
0.0
100
AcDbLayout
  1
Model
 70
     1
 71
     0
 10
0.0
 20
0.0
 11
297.0
 21
210.0
 12
0.0
 22
0.0
 32
0.0
 14
0.0
 24
0.0
 34
0.0
 15
297.0
 25
210.0
 35
0.0
146
0.0
 13
0.0
 23
0.0
 33
0.0
 16
1.0
 26
0.0
 36
0.0
 17
0.0
 27
1.0
 37
0.0
 76
     0
330
1F
331
29
  0
MLINESTYLE
  5
18
102
{ACAD_REACTORS
330
17
102
}
330
17
100
AcDbMlineStyle
  2
Standard
 70
     0
  3

 62
   256
 51
90.0
 52
90.0
 71
     2
 49
0.5
 62
   256
  6
BYLAYER
 49
-0.5
 62
   256
  6
BYLAYER
  0
ACDBPLACEHOLDER
  5
F
102
{ACAD_REACTORS
330
E
102
}
330
E
  0
ENDSEC
  0
EOF
