  0
SECTION
  2
HEADER
  9
$ACADVER
  1
AC1015
  9
$ACADMAINTVER
 70
     6
  9
$DWGCODEPAGE
  3
ANSI_1252
  9
$INSBASE
 10
0.0
 20
0.0
 30
0.0
  9
$EXTMIN
 10
0.0
 20
0.0
 30
0.0
  9
$EXTMAX
 10
297.0
 20
210.0
 30
0.0
  9
$LIMMIN
 10
0.0
 20
0.0
  9
$LIMMAX
 10
297.0
 20
210.0
  9
$ORTHOMODE
 70
     0
  9
$REGENMODE
 70
     1
  9
$FILLMODE
 70
     1
  9
$QTEXTMODE
 70
     0
  9
$MIRRTEXT
 70
     1
  9
$LTSCALE
 40
1.0
  9
$ATTMODE
 70
     1
  9
$TEXTSIZE
 40
2.0
  9
$TRACEWID
 40
1.0
  9
$TEXTSTYLE
  7
Standard
  9
$CLAYER
  8
0
  9
$CELTYPE
  6
ByLayer
  9
$CECOLOR
 62
   256
  9
$CELTSCALE
 40
1.0
  9
$DISPSILH
 70
     0
  9
$DIMSCALE
 40
1.0
  9
$DIMASZ
 40
3.0
  9
$DIMEXO
 40
0.0
  9
$DIMDLI
 40
3.75
  9
$DIMRND
 40
0.0
  9
$DIMDLE
 40
0.0
  9
$DIMEXE
 40
1.0
  9
$DIMTP
 40
0.0
  9
$DIMTM
 40
0.0
  9
$DIMTXT
 40
2.0
  9
$DIMCEN
 40
2.5
  9
$DIMTSZ
 40
0.0
  9
$DIMTOL
 70
     0
  9
$DIMLIM
 70
     0
  9
$DIMTIH
 70
     1
  9
$DIMTOH
 70
     1
  9
$DIMSE1
 70
     0
  9
$DIMSE2
 70
     0
  9
$DIMTAD
 70
     1
  9
$DIMZIN
 70
     0
  9
$DIMBLK
  1

  9
$DIMASO
 70
     1
  9
$DIMSHO
 70
     1
  9
$DIMPOST
  1

  9
$DIMAPOST
  1

  9
$DIMALT
 70
     0
  9
$DIMALTD
 70
     3
  9
$DIMALTF
 40
0.0393700787
  9
$DIMLFAC
 40
1.0
  9
$DIMTOFL
 70
     1
  9
$DIMTVP
 40
0.0
  9
$DIMTIX
 70
     0
  9
$DIMSOXD
 70
     0
  9
$DIMSAH
 70
     0
  9
$DIMBLK1
  1

  9
$DIMBLK2
  1

  9
$DIMSTYLE
  2
ISO-25
  9
$DIMCLRD
 70
     0
  9
$DIMCLRE
 70
     0
  9
$DIMCLRT
 70
     0
  9
$DIMTFAC
 40
1.0
  9
$DIMGAP
 40
1.524
  9
$DIMJUST
 70
     0
  9
$DIMSD1
 70
     0
  9
$DIMSD2
 70
     0
  9
$DIMTOLJ
 70
     0
  9
$DIMTZIN
 70
     0
  9
$DIMALTZ
 70
     0
  9
$DIMALTTZ
 70
     0
  9
$DIMUPT
 70
     0
  9
$DIMDEC
 70
     2
  9
$DIMTDEC
 70
     3
  9
$DIMALTU
 70
     2
  9
$DIMALTTD
 70
     3
  9
$DIMTXSTY
  7
Standard
  9
$DIMAUNIT
 70
     0
  9
$DIMADEC
 70
     2
  9
$DIMALTRND
 40
0.0
  9
$DIMAZIN
 70
     0
  9
$DIMDSEP
 70
    44
  9
$DIMATFIT
 70
     3
  9
$DIMFRAC
 70
     0
  9
$DIMLDRBLK
  1

  9
$DIMLUNIT
 70
     2
  9
$DIMLWD
 70
    -2
  9
$DIMLWE
 70
    -2
  9
$DIMTMOVE
 70
     0
  9
$LUNITS
 70
     2
  9
$LUPREC
 70
     2
  9
$SKETCHINC
 40
1.0
  9
$FILLETRAD
 40
10.0
  9
$AUNITS
 70
     0
  9
$AUPREC
 70
     2
  9
$MENU
  1
.
  9
$ELEVATION
 40
0.0
  9
$PELEVATION
 40
0.0
  9
$THICKNESS
 40
0.0
  9
$LIMCHECK
 70
     0
  9
$CHAMFERA
 40
10.0
  9
$CHAMFERB
 40
10.0
  9
$CHAMFERC
 40
20.0
  9
$CHAMFERD
 40
0.0
  9
$SKPOLY
 70
     0
  9
$TDCREATE
 40
2455685.417059375
  9
$TDUCREATE
 40
2455685.333726041
  9
$TDUPDATE
 40
2455685.417059387
  9
$TDUUPDATE
 40
2455685.333726053
  9
$TDINDWG
 40
0.0000000116
  9
$TDUSRTIMER
 40
0.0000000116
  9
$USRTIMER
 70
     1
  9
$ANGBASE
 50
0.0
  9
$ANGDIR
 70
     0
  9
$PDMODE
 70
     0
  9
$PDSIZE
 40
-1.0
  9
$PLINEWID
 40
0.0
  9
$SPLFRAME
 70
     0
  9
$SPLINETYPE
 70
     6
  9
$SPLINESEGS
 70
     8
  9
$HANDSEED
  5
2AE
  9
$SURFTAB1
 70
     6
  9
$SURFTAB2
 70
     6
  9
$SURFTYPE
 70
     6
  9
$SURFU
 70
     6
  9
$SURFV
 70
     6
  9
$UCSBASE
  2

  9
$UCSNAME
  2

  9
$UCSORG
 10
0.0
 20
0.0
 30
0.0
  9
$UCSXDIR
 10
1.0
 20
0.0
 30
0.0
  9
$UCSYDIR
 10
0.0
 20
1.0
 30
0.0
  9
$UCSORTHOREF
  2

  9
$UCSORTHOVIEW
 70
     0
  9
$UCSORGTOP
 10
0.0
 20
0.0
 30
0.0
  9
$UCSORGBOTTOM
 10
0.0
 20
0.0
 30
0.0
  9
$UCSORGLEFT
 10
0.0
 20
0.0
 30
0.0
  9
$UCSORGRIGHT
 10
0.0
 20
0.0
 30
0.0
  9
$UCSORGFRONT
 10
0.0
 20
0.0
 30
0.0
  9
$UCSORGBACK
 10
0.0
 20
0.0
 30
0.0
  9
$PUCSBASE
  2

  9
$PUCSNAME
  2

  9
$PUCSORG
 10
0.0
 20
0.0
 30
0.0
  9
$PUCSXDIR
 10
1.0
 20
0.0
 30
0.0
  9
$PUCSYDIR
 10
0.0
 20
1.0
 30
0.0
  9
$PUCSORTHOREF
  2

  9
$PUCSORTHOVIEW
 70
     0
  9
$PUCSORGTOP
 10
0.0
 20
0.0
 30
0.0
  9
$PUCSORGBOTTOM
 10
0.0
 20
0.0
 30
0.0
  9
$PUCSORGLEFT
 10
0.0
 20
0.0
 30
0.0
  9
$PUCSORGRIGHT
 10
0.0
 20
0.0
 30
0.0
  9
$PUCSORGFRONT
 10
0.0
 20
0.0
 30
0.0
  9
$PUCSORGBACK
 10
0.0
 20
0.0
 30
0.0
  9
$USERI1
 70
     0
  9
$USERI2
 70
     0
  9
$USERI3
 70
     0
  9
$USERI4
 70
     0
  9
$USERI5
 70
     0
  9
$USERR1
 40
0.0
  9
$USERR2
 40
0.0
  9
$USERR3
 40
0.0
  9
$USERR4
 40
0.0
  9
$USERR5
 40
0.0
  9
$WORLDVIEW
 70
     1
  9
$SHADEDGE
 70
     3
  9
$SHADEDIF
 70
    70
  9
$TILEMODE
 70
     1
  9
$MAXACTVP
 70
    64
  9
$PINSBASE
 10
0.0
 20
0.0
 30
0.0
  9
$PLIMCHECK
 70
     0
  9
$PEXTMIN
 10
1.0000000000E+20
 20
1.0000000000E+20
 30
1.0000000000E+20
  9
$PEXTMAX
 10
-1.0000000000E+20
 20
-1.0000000000E+20
 30
-1.0000000000E+20
  9
$PLIMMIN
 10
0.0
 20
0.0
  9
$PLIMMAX
 10
420.0
 20
297.0
  9
$UNITMODE
 70
     0
  9
$VISRETAIN
 70
     1
  9
$PLINEGEN
 70
     0
  9
$PSLTSCALE
 70
     1
  9
$TREEDEPTH
 70
  3020
  9
$CMLSTYLE
  2
Standard
  9
$CMLJUST
 70
     0
  9
$CMLSCALE
 40
20.0
  9
$PROXYGRAPHICS
 70
     1
  9
$MEASUREMENT
 70
     1
  9
$CELWEIGHT
370
    -1
  9
$ENDCAPS
280
     0
  9
$JOINSTYLE
280
     0
  9
$LWDISPLAY
290
     1
  9
$INSUNITS
 70
     4
  9
$HYPERLINKBASE
  1

  9
$STYLESHEET
  1

  9
$XEDIT
290
     1
  9
$CEPSNTYPE
380
     0
  9
$PSTYLEMODE
290
     1
  9
$FINGERPRINTGUID
  2
{DCDD5A2E-6568-4FDD-B009-6CEB22C8E2FE}
  9
$VERSIONGUID
  2
{FAEB1C32-E019-11D5-929B-00C0DF256EC4}
  9
$EXTNAMES
290
     1
  9
$PSVPSCALE
 40
0.0
  9
$OLESTARTUP
290
     0
  0
ENDSEC
  0
SECTION
  2
CLASSES
  0
CLASS
  1
ACDBDICTIONARYWDFLT
  2
AcDbDictionaryWithDefault
  3
ObjectDBX Classes
 90
        0
280
     0
281
     0
  0
CLASS
  1
VISUALSTYLE
  2
AcDbVisualStyle
  3
ObjectDBX Classes
 90
     4095
280
     0
281
     0
  0
CLASS
  1
DICTIONARYVAR
  2
AcDbDictionaryVar
  3
ObjectDBX Classes
 90
        0
280
     0
281
     0
  0
CLASS
  1
ACDBPLACEHOLDER
  2
AcDbPlaceHolder
  3
ObjectDBX Classes
 90
        0
280
     0
281
     0
  0
CLASS
  1
LAYOUT
  2
AcDbLayout
  3
ObjectDBX Classes
 90
        0
280
     0
281
     0
  0
ENDSEC
  0
SECTION
  2
TABLES
  0
TABLE
  2
VPORT
  5
8
330
0
100
AcDbSymbolTable
 70
     1
  0
VPORT
  5
29
330
8
100
AcDbSymbolTableRecord
100
AcDbViewportTableRecord
  2
*Active
 70
     0
 10
0.0
 20
0.0
 11
1.0
 21
1.0
 12
148.5
 22
105.0
 13
0.0
 23
0.0
 14
10.0
 24
10.0
 15
10.0
 25
10.0
 16
0.0
 26
0.0
 36
1.0
 17
0.0
 27
0.0
 37
0.0
 40
210.0
 41
1.4142857143
 42
50.0
 43
0.0
 44
0.0
 50
0.0
 51
0.0
 71
     0
 72
  2000
 73
     1
 74
     3
 75
     0
 76
     0
 77
     0
 78
     0
281
     0
 65
     1
110
0.0
120
0.0
130
0.0
111
1.0
121
0.0
131
0.0
112
0.0
122
1.0
132
0.0
 79
     0
146
0.0
  0
ENDTAB
  0
TABLE
  2
LTYPE
  5
5
330
0
100
AcDbSymbolTable
 70
     6
  0
LTYPE
  5
14
330
5
100
AcDbSymbolTableRecord
100
AcDbLinetypeTableRecord
  2
ByBlock
 70
     0
  3

 72
    65
 73
     0
 40
0.0
  0
LTYPE
  5
15
330
5
100
AcDbSymbolTableRecord
100
AcDbLinetypeTableRecord
  2
ByLayer
 70
     0
  3

 72
    65
 73
     0
 40
0.0
  0
LTYPE
  5
16
330
5
100
AcDbSymbolTableRecord
100
AcDbLinetypeTableRecord
  2
Continuous
 70
     0
  3
Solid line
 72
    65
 73
     0
 40
0.0
  0
LTYPE
  5
3B
330
5
100
AcDbSymbolTableRecord
100
AcDbLinetypeTableRecord
  2
HIDDEN
 70
     0
  3
Hidden __ __ __ __ __ __ __ __ __ __ __ __ __ __
 72
    65
 73
     2
 40
1.905
 49
1.27
 74
     0
 49
-0.635
 74
     0
  0
LTYPE
  5
3C
330
5
100
AcDbSymbolTableRecord
100
AcDbLinetypeTableRecord
  2
PHANTOM
 70
     0
  3
Phantom ______  __  __  ______  __  __  ______
 72
    65
 73
     6
 40
12.7
 49
6.35
 74
     0
 49
-1.27
 74
     0
 49
1.27
 74
     0
 49
-1.27
 74
     0
 49
1.27
 74
     0
 49
-1.27
 74
     0
  0
LTYPE
  5
3D
330
5
100
AcDbSymbolTableRecord
100
AcDbLinetypeTableRecord
  2
CENTER
 70
     0
  3
Center ____ _ ____ _ ____ _ ____ _ ____ _ ____
 72
    65
 73
     4
 40
10.16
 49
6.35
 74
     0
 49
-1.27
 74
     0
 49
1.27
 74
     0
 49
-1.27
 74
     0
  0
LTYPE
  5
3E
330
5
100
AcDbSymbolTableRecord
100
AcDbLinetypeTableRecord
  2
CENTERX2
 70
     0
  3
Center (2x) ________  __  ________  __  _____
 72
    65
 73
     4
 40
20.32
 49
12.7
 74
     0
 49
-2.54
 74
     0
 49
2.54
 74
     0
 49
-2.54
 74
     0
  0
LTYPE
  5
3F
330
5
100
AcDbSymbolTableRecord
100
AcDbLinetypeTableRecord
  2
DOT2
 70
     0
  3
Dot (.5x) ........................................
 72
    65
 73
     2
 40
0.635
 49
0.0
 74
     0
 49
-0.635
 74
     0
  0
ENDTAB
  0
TABLE
  2
LAYER
  5
2
330
0
100
AcDbSymbolTable
 70
     5
  0
LAYER
  5
10
330
2
100
AcDbSymbolTableRecord
100
AcDbLayerTableRecord
  2
0
 70
     0
 62
     7
  6
Continuous
370
    -3
390
F
  0
LAYER
  5
40
330
2
100
AcDbSymbolTableRecord
100
AcDbLayerTableRecord
  2
FORMAT
 70
     0
 62
     7
  6
Continuous
370
    -3
390
F
  0
LAYER
  5
41
330
2
100
AcDbSymbolTableRecord
100
AcDbLayerTableRecord
  2
VERMASSUNG
 70
     0
 62
     7
  6
Continuous
370
    -3
390
F
  0
LAYER
  5
42
330
2
100
AcDbSymbolTableRecord
100
AcDbLayerTableRecord
  2
KOPF_DÜNN
 70
     0
 62
     7
  6
Continuous
370
    -3
390
F
  0
LAYER
  5
43
330
2
100
AcDbSymbolTableRecord
100
AcDbLayerTableRecord
  2
KOPF_DICK
 70
     0
 62
     7
  6
Continuous
370
    15
390
F
  0
ENDTAB
  0
TABLE
  2
STYLE
  5
3
330
0
100
AcDbSymbolTable
 70
     3
  0
STYLE
  5
11
330
3
100
AcDbSymbolTableRecord
100
AcDbTextStyleTableRecord
  2
Standard
 70
     0
 40
0.0
 41
1.0
 50
0.0
 71
     0
 42
2.5
  3
txt
  4

  0
STYLE
  5
44
330
3
100
AcDbSymbolTableRecord
100
AcDbTextStyleTableRecord
  2
SLDTEXTSTYLE0
 70
     0
 40
0.0
 41
0.7
 50
0.0
 71
     0
 42
0.2
  3
TXT
  4

  0
STYLE
  5
48
330
3
100
AcDbSymbolTableRecord
100
AcDbTextStyleTableRecord
  2
SLDTEXTSTYLE1
 70
     0
 40
0.0
 41
0.65
 50
0.0
 71
     0
 42
0.2
  3
TXT
  4

  0
ENDTAB
  0
TABLE
  2
VIEW
  5
6
330
0
100
AcDbSymbolTable
 70
     0
  0
ENDTAB
  0
TABLE
  2
UCS
  5
7
330
0
100
AcDbSymbolTable
 70
     0
  0
ENDTAB
  0
TABLE
  2
APPID
  5
9
330
0
100
AcDbSymbolTable
 70
     1
  0
APPID
  5
12
330
9
100
AcDbSymbolTableRecord
100
AcDbRegAppTableRecord
  2
ACAD
 70
     0
  0
ENDTAB
  0
TABLE
  2
DIMSTYLE
  5
A
330
0
100
AcDbSymbolTable
 70
     3
100
AcDbDimStyleTable
  0
DIMSTYLE
105
27
330
A
100
AcDbSymbolTableRecord
100
AcDbDimStyleTableRecord
  2
ISO-25
 70
     0
 41
2.5
 42
0.625
 43
3.75
 44
1.25
 73
     0
 74
     0
 77
     1
 78
     8
140
2.5
141
2.5
143
0.0393700787
147
0.625
171
     3
172
     1
271
     2
272
     2
274
     3
278
    44
283
     0
284
     8
340
11
  0
DIMSTYLE
105
167
102
{ACAD_REACTORS
330
166
330
171
330
17B
330
1B6
330
1C0
330
1CA
330
1D4
330
1DE
330
1E8
330
29D
102
}
330
A
100
AcDbSymbolTableRecord
100
AcDbDimStyleTableRecord
  2
SLDDIMSTYLE0
 70
     0
 41
3.0
 44
0.0
 45
0.000000001
 73
     0
 74
     0
 77
     1
 78
    12
140
2.0
147
0.5
173
     1
271
     2
272
     3
284
    12
340
44
  0
DIMSTYLE
105
1F3
102
{ACAD_REACTORS
330
1F2
102
}
330
A
100
AcDbSymbolTableRecord
100
AcDbDimStyleTableRecord
  2
SLDDIMSTYLE1
 70
     0
 41
3.0
 44
0.0
 45
0.000000001
 73
     0
 74
     0
 77
     1
 78
    12
140
2.0
147
0.5
173
     1
271
     2
272
     3
284
    12
340
44
  0
ENDTAB
  0
TABLE
  2
BLOCK_RECORD
  5
1
330
0
100
AcDbSymbolTable
 70
    13
  0
BLOCK_RECORD
  5
1F
330
1
100
AcDbSymbolTableRecord
100
AcDbBlockTableRecord
  2
*Model_Space
340
22
  0
BLOCK_RECORD
  5
1B
330
1
100
AcDbSymbolTableRecord
100
AcDbBlockTableRecord
  2
*Paper_Space
340
1E
  0
BLOCK_RECORD
  5
23
330
1
100
AcDbSymbolTableRecord
100
AcDbBlockTableRecord
  2
*Paper_Space0
340
26
  0
BLOCK_RECORD
  5
168
330
1
100
AcDbSymbolTableRecord
100
AcDbBlockTableRecord
  2
*D1
340
0
  0
BLOCK_RECORD
  5
172
330
1
100
AcDbSymbolTableRecord
100
AcDbBlockTableRecord
  2
*D2
340
0
  0
BLOCK_RECORD
  5
17C
330
1
100
AcDbSymbolTableRecord
100
AcDbBlockTableRecord
  2
*D3
340
0
  0
BLOCK_RECORD
  5
1B7
330
1
100
AcDbSymbolTableRecord
100
AcDbBlockTableRecord
  2
*D4
340
0
  0
BLOCK_RECORD
  5
1C1
330
1
100
AcDbSymbolTableRecord
100
AcDbBlockTableRecord
  2
*D5
340
0
  0
BLOCK_RECORD
  5
1CB
330
1
100
AcDbSymbolTableRecord
100
AcDbBlockTableRecord
  2
*D6
340
0
  0
BLOCK_RECORD
  5
1D5
330
1
100
AcDbSymbolTableRecord
100
AcDbBlockTableRecord
  2
*D7
340
0
  0
BLOCK_RECORD
  5
1DF
330
1
100
AcDbSymbolTableRecord
100
AcDbBlockTableRecord
  2
*D8
340
0
  0
BLOCK_RECORD
  5
1E9
330
1
100
AcDbSymbolTableRecord
100
AcDbBlockTableRecord
  2
*D9
340
0
  0
BLOCK_RECORD
  5
1F4
330
1
100
AcDbSymbolTableRecord
100
AcDbBlockTableRecord
  2
*D10
340
0
  0
BLOCK_RECORD
  5
1FB
330
1
100
AcDbSymbolTableRecord
100
AcDbBlockTableRecord
  2
SW_CENTERMARKSYMBOL_0
340
0
102
{BLKREFS
331
206
102
}
  0
BLOCK_RECORD
  5
29E
330
1
100
AcDbSymbolTableRecord
100
AcDbBlockTableRecord
  2
*D12
340
0
  0
ENDTAB
  0
ENDSEC
  0
SECTION
  2
BLOCKS
  0
BLOCK
  5
20
330
1F
100
AcDbEntity
  8
0
100
AcDbBlockBegin
  2
*Model_Space
 70
     0
 10
0.0
 20
0.0
 30
0.0
  3
*Model_Space
  1

  0
ENDBLK
  5
21
330
1F
100
AcDbEntity
  8
0
100
AcDbBlockEnd
  0
BLOCK
  5
1C
330
1B
100
AcDbEntity
 67
     1
  8
0
100
AcDbBlockBegin
  2
*Paper_Space
 70
     0
 10
0.0
 20
0.0
 30
0.0
  3
*Paper_Space
  1

  0
ENDBLK
  5
1D
330
1B
100
AcDbEntity
 67
     1
  8
0
100
AcDbBlockEnd
  0
BLOCK
  5
24
330
23
100
AcDbEntity
  8
0
100
AcDbBlockBegin
  2
*Paper_Space0
 70
     0
 10
0.0
 20
0.0
 30
0.0
  3
*Paper_Space0
  1

  0
ENDBLK
  5
25
330
23
100
AcDbEntity
  8
0
100
AcDbBlockEnd
  0
BLOCK
  5
169
330
168
100
AcDbEntity
  8
0
100
AcDbBlockBegin
  2
*D1
 70
     1
 10
0.0
 20
0.0
 30
0.0
  3
*D1
  1

  0
SOLID
  5
16B
330
168
100
AcDbEntity
  8
VERMASSUNG
100
AcDbTrace
 10
166.2224068966
 20
114.4233734829
 30
0.0
 11
169.2224068966
 21
113.9733734829
 31
0.0
 12
169.2224068966
 22
114.8733734829
 32
0.0
 13
169.2224068966
 23
114.8733734829
 33
0.0
  0
SOLID
  5
16C
330
168
100
AcDbEntity
  8
VERMASSUNG
100
AcDbTrace
 10
246.2224068966
 20
114.4233734829
 30
0.0
 11
243.2224068966
 21
114.8733734829
 31
0.0
 12
243.2224068966
 22
113.9733734829
 32
0.0
 13
243.2224068966
 23
113.9733734829
 33
0.0
  0
LINE
  5
16D
330
168
100
AcDbEntity
  8
VERMASSUNG
100
AcDbLine
 10
166.2224068966
 20
108.301417406
 30
0.0
 11
166.2224068966
 21
115.4233734829
 31
0.0
  0
LINE
  5
16E
330
168
100
AcDbEntity
  8
VERMASSUNG
100
AcDbLine
 10
246.2224068966
 20
108.601417406
 30
0.0
 11
246.2224068966
 21
115.4233734829
 31
0.0
  0
LINE
  5
16F
330
168
100
AcDbEntity
  8
VERMASSUNG
100
AcDbLine
 10
166.2224068966
 20
114.4233734829
 30
0.0
 11
246.2224068966
 21
114.4233734829
 31
0.0
  0
MTEXT
  5
170
330
168
100
AcDbEntity
  8
VERMASSUNG
100
AcDbMText
 10
204.8230287817
 20
117.001508846
 30
0.0
 40
2.0
 41
0.0
 71
     1
 72
     1
  1
80
  7
SLDTEXTSTYLE0
 73
     1
 44
1.0
  0
ENDBLK
  5
16A
330
168
100
AcDbEntity
  8
0
100
AcDbBlockEnd
  0
BLOCK
  5
173
330
172
100
AcDbEntity
  8
0
100
AcDbBlockBegin
  2
*D2
 70
     1
 10
0.0
 20
0.0
 30
0.0
  3
*D2
  1

  0
SOLID
  5
175
330
172
100
AcDbEntity
  8
VERMASSUNG
100
AcDbTrace
 10
146.3224068966
 20
120.4233734829
 30
0.0
 11
149.3224068966
 21
119.9733734829
 31
0.0
 12
149.3224068966
 22
120.8733734829
 32
0.0
 13
149.3224068966
 23
120.8733734829
 33
0.0
  0
SOLID
  5
176
330
172
100
AcDbEntity
  8
VERMASSUNG
100
AcDbTrace
 10
246.2224068966
 20
120.4233734829
 30
0.0
 11
243.2224068966
 21
120.8733734829
 31
0.0
 12
243.2224068966
 22
119.9733734829
 32
0.0
 13
243.2224068966
 23
119.9733734829
 33
0.0
  0
LINE
  5
177
330
172
100
AcDbEntity
  8
VERMASSUNG
100
AcDbLine
 10
146.3224068966
 20
100.8703566393
 30
0.0
 11
146.3224068966
 21
121.4233734829
 31
0.0
  0
LINE
  5
178
330
172
100
AcDbEntity
  8
VERMASSUNG
100
AcDbLine
 10
246.2224068966
 20
108.601417406
 30
0.0
 11
246.2224068966
 21
121.4233734829
 31
0.0
  0
LINE
  5
179
330
172
100
AcDbEntity
  8
VERMASSUNG
100
AcDbLine
 10
146.3224068966
 20
120.4233734829
 30
0.0
 11
246.2224068966
 21
120.4233734829
 31
0.0
  0
MTEXT
  5
17A
330
172
100
AcDbEntity
  8
VERMASSUNG
100
AcDbMText
 10
193.8728099302
 20
123.001508846
 30
0.0
 40
2.0
 41
0.0
 71
     1
 72
     1
  1
99.9
  7
SLDTEXTSTYLE0
 73
     1
 44
1.0
  0
ENDBLK
  5
174
330
172
100
AcDbEntity
  8
0
100
AcDbBlockEnd
  0
BLOCK
  5
17D
330
17C
100
AcDbEntity
  8
0
100
AcDbBlockBegin
  2
*D3
 70
     1
 10
0.0
 20
0.0
 30
0.0
  3
*D3
  1

  0
SOLID
  5
17F
330
17C
100
AcDbEntity
  8
VERMASSUNG
100
AcDbTrace
 10
140.7750912705
 20
108.601417406
 30
0.0
 11
140.3250912705
 21
105.601417406
 31
0.0
 12
141.2250912705
 22
105.601417406
 32
0.0
 13
141.2250912705
 23
105.601417406
 33
0.0
  0
SOLID
  5
180
330
17C
100
AcDbEntity
  8
VERMASSUNG
100
AcDbTrace
 10
140.7750912705
 20
68.601417406
 30
0.0
 11
141.2250912705
 21
71.601417406
 31
0.0
 12
140.3250912705
 22
71.601417406
 32
0.0
 13
140.3250912705
 23
71.601417406
 33
0.0
  0
LINE
  5
181
330
17C
100
AcDbEntity
  8
VERMASSUNG
100
AcDbLine
 10
166.5224068966
 20
108.601417406
 30
0.0
 11
139.7750912705
 21
108.601417406
 31
0.0
  0
LINE
  5
182
330
17C
100
AcDbEntity
  8
VERMASSUNG
100
AcDbLine
 10
166.5224068966
 20
68.601417406
 30
0.0
 11
139.7750912705
 21
68.601417406
 31
0.0
  0
LINE
  5
183
330
17C
100
AcDbEntity
  8
VERMASSUNG
100
AcDbLine
 10
140.7750912705
 20
108.601417406
 30
0.0
 11
140.7750912705
 21
68.601417406
 31
0.0
  0
MTEXT
  5
184
330
17C
100
AcDbEntity
  8
VERMASSUNG
100
AcDbMText
 10
137.9969557815
 20
80.8978756942
 30
0.0
 40
2.0
 41
0.0
 71
     1
 72
     1
  1
HSK T 
  7
SLDTEXTSTYLE0
 11
-7.044195017643634E-15
 21
1.0
 31
0.0
 73
     1
 44
1.0
  0
MTEXT
  5
185
330
17C
100
AcDbEntity
  8
VERMASSUNG
100
AcDbMText
 10
138.196955791
 20
89.6978756465
 30
0.0
 40
2.0
 41
0.0
 71
     1
 72
     1
  1
%%c
  7
SLDTEXTSTYLE0
 11
-7.044195017643634E-15
 21
1.0
 31
0.0
 73
     1
 44
1.0
  0
MTEXT
  5
186
330
17C
100
AcDbEntity
  8
VERMASSUNG
100
AcDbMText
 10
138.1969559074
 20
93.3066232565
 30
0.0
 40
2.0
 41
0.0
 71
     1
 72
     1
  1
40
  7
SLDTEXTSTYLE0
 11
-7.044195017643634E-15
 21
1.0
 31
0.0
 73
     1
 44
1.0
  0
ENDBLK
  5
17E
330
17C
100
AcDbEntity
  8
0
100
AcDbBlockEnd
  0
BLOCK
  5
1B8
330
1B7
100
AcDbEntity
  8
0
100
AcDbBlockBegin
  2
*D4
 70
     1
 10
0.0
 20
0.0
 30
0.0
  3
*D4
  1

  0
SOLID
  5
1BA
330
1B7
100
AcDbEntity
  8
VERMASSUNG
100
AcDbTrace
 10
39.6939222674
 20
78.601417406
 30
0.0
 11
39.2439222674
 21
75.601417406
 31
0.0
 12
40.1439222674
 22
75.601417406
 32
0.0
 13
40.1439222674
 23
75.601417406
 33
0.0
  0
SOLID
  5
1BB
330
1B7
100
AcDbEntity
  8
VERMASSUNG
100
AcDbTrace
 10
39.6939222674
 20
58.601417406
 30
0.0
 11
40.1439222674
 21
61.601417406
 31
0.0
 12
39.2439222674
 22
61.601417406
 32
0.0
 13
39.2439222674
 23
61.601417406
 33
0.0
  0
LINE
  5
1BC
330
1B7
100
AcDbEntity
  8
VERMASSUNG
100
AcDbLine
 10
67.0959702468
 20
78.601417406
 30
0.0
 11
38.6939222674
 21
78.601417406
 31
0.0
  0
LINE
  5
1BD
330
1B7
100
AcDbEntity
  8
VERMASSUNG
100
AcDbLine
 10
48.0959702468
 20
58.601417406
 30
0.0
 11
38.6939222674
 21
58.601417406
 31
0.0
  0
LINE
  5
1BE
330
1B7
100
AcDbEntity
  8
VERMASSUNG
100
AcDbLine
 10
39.6939222674
 20
78.601417406
 30
0.0
 11
39.6939222674
 21
58.601417406
 31
0.0
  0
MTEXT
  5
1BF
330
1B7
100
AcDbEntity
  8
VERMASSUNG
100
AcDbMText
 10
37.1157869043
 20
67.2020392912
 30
0.0
 40
2.0
 41
0.0
 71
     1
 72
     1
  1
20
  7
SLDTEXTSTYLE0
 11
-7.044195017643634E-15
 21
1.0
 31
0.0
 73
     1
 44
1.0
  0
ENDBLK
  5
1B9
330
1B7
100
AcDbEntity
  8
0
100
AcDbBlockEnd
  0
BLOCK
  5
1C2
330
1C1
100
AcDbEntity
  8
0
100
AcDbBlockBegin
  2
*D5
 70
     1
 10
0.0
 20
0.0
 30
0.0
  3
*D5
  1

  0
SOLID
  5
1C4
330
1C1
100
AcDbEntity
  8
VERMASSUNG
100
AcDbTrace
 10
27.6939222674
 20
108.601417406
 30
0.0
 11
27.2439222674
 21
105.601417406
 31
0.0
 12
28.1439222674
 22
105.601417406
 32
0.0
 13
28.1439222674
 23
105.601417406
 33
0.0
  0
SOLID
  5
1C5
330
1C1
100
AcDbEntity
  8
VERMASSUNG
100
AcDbTrace
 10
27.6939222674
 20
58.601417406
 30
0.0
 11
28.1439222674
 21
61.601417406
 31
0.0
 12
27.2439222674
 22
61.601417406
 32
0.0
 13
27.2439222674
 23
61.601417406
 33
0.0
  0
LINE
  5
1C6
330
1C1
100
AcDbEntity
  8
VERMASSUNG
100
AcDbLine
 10
63.0959702468
 20
108.601417406
 30
0.0
 11
26.6939222674
 21
108.601417406
 31
0.0
  0
LINE
  5
1C7
330
1C1
100
AcDbEntity
  8
VERMASSUNG
100
AcDbLine
 10
48.0959702468
 20
58.601417406
 30
0.0
 11
26.6939222674
 21
58.601417406
 31
0.0
  0
LINE
  5
1C8
330
1C1
100
AcDbEntity
  8
VERMASSUNG
100
AcDbLine
 10
27.6939222674
 20
108.601417406
 30
0.0
 11
27.6939222674
 21
58.601417406
 31
0.0
  0
MTEXT
  5
1C9
330
1C1
100
AcDbEntity
  8
VERMASSUNG
100
AcDbMText
 10
25.1157869043
 20
82.2020392912
 30
0.0
 40
2.0
 41
0.0
 71
     1
 72
     1
  1
50
  7
SLDTEXTSTYLE0
 11
-7.044195017643634E-15
 21
1.0
 31
0.0
 73
     1
 44
1.0
  0
ENDBLK
  5
1C3
330
1C1
100
AcDbEntity
  8
0
100
AcDbBlockEnd
  0
BLOCK
  5
1CC
330
1CB
100
AcDbEntity
  8
0
100
AcDbBlockBegin
  2
*D6
 70
     1
 10
0.0
 20
0.0
 30
0.0
  3
*D6
  1

  0
SOLID
  5
1CE
330
1CB
100
AcDbEntity
  8
VERMASSUNG
100
AcDbTrace
 10
33.6939222674
 20
88.601417406
 30
0.0
 11
33.2439222674
 21
85.601417406
 31
0.0
 12
34.1439222674
 22
85.601417406
 32
0.0
 13
34.1439222674
 23
85.601417406
 33
0.0
  0
SOLID
  5
1CF
330
1CB
100
AcDbEntity
  8
VERMASSUNG
100
AcDbTrace
 10
33.6939222674
 20
58.601417406
 30
0.0
 11
34.1439222674
 21
61.601417406
 31
0.0
 12
33.2439222674
 22
61.601417406
 32
0.0
 13
33.2439222674
 23
61.601417406
 33
0.0
  0
LINE
  5
1D0
330
1CB
100
AcDbEntity
  8
VERMASSUNG
100
AcDbLine
 10
46.6103133723
 20
88.601417406
 30
0.0
 11
32.6939222674
 21
88.601417406
 31
0.0
  0
LINE
  5
1D1
330
1CB
100
AcDbEntity
  8
VERMASSUNG
100
AcDbLine
 10
48.0959702468
 20
58.601417406
 30
0.0
 11
32.6939222674
 21
58.601417406
 31
0.0
  0
LINE
  5
1D2
330
1CB
100
AcDbEntity
  8
VERMASSUNG
100
AcDbLine
 10
33.6939222674
 20
88.601417406
 30
0.0
 11
33.6939222674
 21
58.601417406
 31
0.0
  0
MTEXT
  5
1D3
330
1CB
100
AcDbEntity
  8
VERMASSUNG
100
AcDbMText
 10
31.1157869043
 20
72.2020392912
 30
0.0
 40
2.0
 41
0.0
 71
     1
 72
     1
  1
30
  7
SLDTEXTSTYLE0
 11
-7.044195017643634E-15
 21
1.0
 31
0.0
 73
     1
 44
1.0
  0
ENDBLK
  5
1CD
330
1CB
100
AcDbEntity
  8
0
100
AcDbBlockEnd
  0
BLOCK
  5
1D6
330
1D5
100
AcDbEntity
  8
0
100
AcDbBlockBegin
  2
*D7
 70
     1
 10
0.0
 20
0.0
 30
0.0
  3
*D7
  1

  0
SOLID
  5
1D8
330
1D5
100
AcDbEntity
  8
VERMASSUNG
100
AcDbTrace
 10
68.0959702468
 20
54.601417406
 30
0.0
 11
71.0959702468
 21
54.151417406
 31
0.0
 12
71.0959702468
 22
55.051417406
 32
0.0
 13
71.0959702468
 23
55.051417406
 33
0.0
  0
SOLID
  5
1D9
330
1D5
100
AcDbEntity
  8
VERMASSUNG
100
AcDbTrace
 10
88.0959702468
 20
54.601417406
 30
0.0
 11
85.0959702468
 21
55.051417406
 31
0.0
 12
85.0959702468
 22
54.151417406
 32
0.0
 13
85.0959702468
 23
54.151417406
 33
0.0
  0
LINE
  5
1DA
330
1D5
100
AcDbEntity
  8
VERMASSUNG
100
AcDbLine
 10
68.0959702468
 20
56.315243192
 30
0.0
 11
68.0959702468
 21
53.601417406
 31
0.0
  0
LINE
  5
1DB
330
1D5
100
AcDbEntity
  8
VERMASSUNG
100
AcDbLine
 10
88.0959702468
 20
58.601417406
 30
0.0
 11
88.0959702468
 21
53.601417406
 31
0.0
  0
LINE
  5
1DC
330
1D5
100
AcDbEntity
  8
VERMASSUNG
100
AcDbLine
 10
68.0959702468
 20
54.601417406
 30
0.0
 11
88.0959702468
 21
54.601417406
 31
0.0
  0
MTEXT
  5
1DD
330
1D5
100
AcDbEntity
  8
VERMASSUNG
100
AcDbMText
 10
76.696592132
 20
57.1795527692
 30
0.0
 40
2.0
 41
0.0
 71
     1
 72
     1
  1
20
  7
SLDTEXTSTYLE0
 73
     1
 44
1.0
  0
ENDBLK
  5
1D7
330
1D5
100
AcDbEntity
  8
0
100
AcDbBlockEnd
  0
BLOCK
  5
1E0
330
1DF
100
AcDbEntity
  8
0
100
AcDbBlockBegin
  2
*D8
 70
     1
 10
0.0
 20
0.0
 30
0.0
  3
*D8
  1

  0
SOLID
  5
1E2
330
1DF
100
AcDbEntity
  8
VERMASSUNG
100
AcDbTrace
 10
68.0959702468
 20
48.601417406
 30
0.0
 11
71.0959702468
 21
48.151417406
 31
0.0
 12
71.0959702468
 22
49.051417406
 32
0.0
 13
71.0959702468
 23
49.051417406
 33
0.0
  0
SOLID
  5
1E3
330
1DF
100
AcDbEntity
  8
VERMASSUNG
100
AcDbTrace
 10
100.0959702468
 20
48.601417406
 30
0.0
 11
97.0959702468
 21
49.051417406
 31
0.0
 12
97.0959702468
 22
48.151417406
 32
0.0
 13
97.0959702468
 23
48.151417406
 33
0.0
  0
LINE
  5
1E4
330
1DF
100
AcDbEntity
  8
VERMASSUNG
100
AcDbLine
 10
68.0959702468
 20
56.315243192
 30
0.0
 11
68.0959702468
 21
47.601417406
 31
0.0
  0
LINE
  5
1E5
330
1DF
100
AcDbEntity
  8
VERMASSUNG
100
AcDbLine
 10
100.0959702468
 20
64.601417406
 30
0.0
 11
100.0959702468
 21
47.601417406
 31
0.0
  0
LINE
  5
1E6
330
1DF
100
AcDbEntity
  8
VERMASSUNG
100
AcDbLine
 10
68.0959702468
 20
48.601417406
 30
0.0
 11
100.0959702468
 21
48.601417406
 31
0.0
  0
MTEXT
  5
1E7
330
1DF
100
AcDbEntity
  8
VERMASSUNG
100
AcDbMText
 10
82.696592132
 20
51.1795527692
 30
0.0
 40
2.0
 41
0.0
 71
     1
 72
     1
  1
32
  7
SLDTEXTSTYLE0
 73
     1
 44
1.0
  0
ENDBLK
  5
1E1
330
1DF
100
AcDbEntity
  8
0
100
AcDbBlockEnd
  0
BLOCK
  5
1EA
330
1E9
100
AcDbEntity
  8
0
100
AcDbBlockBegin
  2
*D9
 70
     1
 10
0.0
 20
0.0
 30
0.0
  3
*D9
  1

  0
SOLID
  5
1EC
330
1E9
100
AcDbEntity
  8
VERMASSUNG
100
AcDbTrace
 10
48.0959702468
 20
42.601417406
 30
0.0
 11
51.0959702468
 21
42.151417406
 31
0.0
 12
51.0959702468
 22
43.051417406
 32
0.0
 13
51.0959702468
 23
43.051417406
 33
0.0
  0
SOLID
  5
1ED
330
1E9
100
AcDbEntity
  8
VERMASSUNG
100
AcDbTrace
 10
100.0959702468
 20
42.601417406
 30
0.0
 11
97.0959702468
 21
43.051417406
 31
0.0
 12
97.0959702468
 22
42.151417406
 32
0.0
 13
97.0959702468
 23
42.151417406
 33
0.0
  0
LINE
  5
1EE
330
1E9
100
AcDbEntity
  8
VERMASSUNG
100
AcDbLine
 10
48.0959702468
 20
58.601417406
 30
0.0
 11
48.0959702468
 21
41.601417406
 31
0.0
  0
LINE
  5
1EF
330
1E9
100
AcDbEntity
  8
VERMASSUNG
100
AcDbLine
 10
100.0959702468
 20
64.601417406
 30
0.0
 11
100.0959702468
 21
41.601417406
 31
0.0
  0
LINE
  5
1F0
330
1E9
100
AcDbEntity
  8
VERMASSUNG
100
AcDbLine
 10
48.0959702468
 20
42.601417406
 30
0.0
 11
100.0959702468
 21
42.601417406
 31
0.0
  0
MTEXT
  5
1F1
330
1E9
100
AcDbEntity
  8
VERMASSUNG
100
AcDbMText
 10
72.696592132
 20
45.1795527692
 30
0.0
 40
2.0
 41
0.0
 71
     1
 72
     1
  1
52
  7
SLDTEXTSTYLE0
 73
     1
 44
1.0
  0
ENDBLK
  5
1EB
330
1E9
100
AcDbEntity
  8
0
100
AcDbBlockEnd
  0
BLOCK
  5
1F5
330
1F4
100
AcDbEntity
  8
0
100
AcDbBlockBegin
  2
*D10
 70
     1
 10
0.0
 20
0.0
 30
0.0
  3
*D10
  1

  0
SOLID
  5
1F7
330
1F4
100
AcDbEntity
  8
VERMASSUNG
100
AcDbTrace
 10
97.1018046256
 20
61.0576055421
 30
0.0
 11
98.9673743205
 21
58.6655040156
 31
0.0
 12
99.5871100874
 22
59.3181352891
 32
0.0
 13
99.5871100874
 23
59.3181352891
 33
0.0
  0
LINE
  5
1F8
330
1F4
100
AcDbEntity
  8
VERMASSUNG
100
AcDbLine
 10
97.1018046256
 20
61.0576055421
 30
0.0
 11
107.953622324
 21
50.7527675167
 31
0.0
  0
MTEXT
  5
1F9
330
1F4
100
AcDbEntity
  8
VERMASSUNG
100
AcDbMText
 10
103.9304856936
 20
58.1265814366
 30
0.0
 40
2.0
 41
0.0
 71
     1
 72
     1
  1
%%c
  7
SLDTEXTSTYLE0
 11
0.725145859468498
 21
-0.6885952965971329
 31
0.0
 73
     1
 44
1.0
  0
MTEXT
  5
1FA
330
1F4
100
AcDbEntity
  8
VERMASSUNG
100
AcDbMText
 10
106.5473036851
 20
55.6416625008
 30
0.0
 40
2.0
 41
0.0
 71
     1
 72
     1
  1
80
  7
SLDTEXTSTYLE0
 11
0.725145859468498
 21
-0.6885952965971329
 31
0.0
 73
     1
 44
1.0
  0
ENDBLK
  5
1F6
330
1F4
100
AcDbEntity
  8
0
100
AcDbBlockEnd
  0
BLOCK
  5
1FC
330
1FB
100
AcDbEntity
  8
0
100
AcDbBlockBegin
  2
SW_CENTERMARKSYMBOL_0
 70
     0
 10
0.0
 20
0.0
 30
0.0
  3
SW_CENTERMARKSYMBOL_0
  1

  0
LINE
  5
1FE
330
1FB
100
AcDbEntity
  8
VERMASSUNG
 62
     0
100
AcDbLine
 10
0.0
 20
0.0
 30
0.0
 11
0.0
 21
2.5
 31
0.0
  0
LINE
  5
1FF
330
1FB
100
AcDbEntity
  8
VERMASSUNG
 62
     0
100
AcDbLine
 10
0.0
 20
0.0
 30
0.0
 11
-2.5
 21
0.0
 31
0.0
  0
LINE
  5
200
330
1FB
100
AcDbEntity
  8
VERMASSUNG
 62
     0
100
AcDbLine
 10
0.0
 20
0.0
 30
0.0
 11
0.0
 21
-2.5
 31
0.0
  0
LINE
  5
201
330
1FB
100
AcDbEntity
  8
VERMASSUNG
 62
     0
100
AcDbLine
 10
0.0
 20
0.0
 30
0.0
 11
2.5
 21
0.0
 31
0.0
  0
LINE
  5
202
330
1FB
100
AcDbEntity
  8
VERMASSUNG
 62
     0
100
AcDbLine
 10
0.0
 20
5.0
 30
0.0
 11
0.0
 21
21.8381204309
 31
0.0
  0
LINE
  5
203
330
1FB
100
AcDbEntity
  8
VERMASSUNG
 62
     0
100
AcDbLine
 10
-5.0
 20
0.0
 30
0.0
 11
-21.4856568745
 21
0.0
 31
0.0
  0
LINE
  5
204
330
1FB
100
AcDbEntity
  8
VERMASSUNG
 62
     0
100
AcDbLine
 10
0.0
 20
-5.0
 30
0.0
 11
0.0
 21
-32.286174214
 31
0.0
  0
LINE
  5
205
330
1FB
100
AcDbEntity
  8
VERMASSUNG
 62
     0
100
AcDbLine
 10
5.0
 20
0.0
 30
0.0
 11
35.1477110321
 21
0.0
 31
0.0
  0
ENDBLK
  5
1FD
330
1FB
100
AcDbEntity
  8
0
100
AcDbBlockEnd
  0
BLOCK
  5
29F
330
29E
100
AcDbEntity
  8
0
100
AcDbBlockBegin
  2
*D12
 70
     1
 10
0.0
 20
0.0
 30
0.0
  3
*D12
  1

  0
SOLID
  5
2A1
330
29E
100
AcDbEntity
  8
VERMASSUNG
100
AcDbTrace
 10
201.2224068966
 20
194.6717369686
 30
0.0
 11
204.2224068966
 21
194.2217369686
 31
0.0
 12
204.2224068966
 22
195.1217369686
 32
0.0
 13
204.2224068966
 23
195.1217369686
 33
0.0
  0
SOLID
  5
2A2
330
29E
100
AcDbEntity
  8
VERMASSUNG
100
AcDbTrace
 10
246.2224068966
 20
194.6717369686
 30
0.0
 11
243.2224068966
 21
195.1217369686
 31
0.0
 12
243.2224068966
 22
194.2217369686
 32
0.0
 13
243.2224068966
 23
194.2217369686
 33
0.0
  0
LINE
  5
2A3
330
29E
100
AcDbEntity
  8
VERMASSUNG
100
AcDbLine
 10
201.2224068966
 20
161.7655443495
 30
0.0
 11
201.2224068966
 21
195.6717369686
 31
0.0
  0
LINE
  5
2A4
330
29E
100
AcDbEntity
  8
VERMASSUNG
100
AcDbLine
 10
246.2224068966
 20
188.7655443495
 30
0.0
 11
246.2224068966
 21
195.6717369686
 31
0.0
  0
LINE
  5
2A5
330
29E
100
AcDbEntity
  8
VERMASSUNG
100
AcDbLine
 10
201.2224068966
 20
194.6717369686
 30
0.0
 11
246.2224068966
 21
194.6717369686
 31
0.0
  0
MTEXT
  5
2A6
330
29E
100
AcDbEntity
  8
VERMASSUNG
100
AcDbMText
 10
222.2232389659
 20
197.2498723317
 30
0.0
 40
2.0
 41
0.0
 71
     1
 72
     1
  1
45
  7
SLDTEXTSTYLE0
 73
     1
 44
1.0
  0
ENDBLK
  5
2A0
330
29E
100
AcDbEntity
  8
0
100
AcDbBlockEnd
  0
ENDSEC
  0
SECTION
  2
ENTITIES
  0
MTEXT
  5
45
330
1F
100
AcDbEntity
  8
KOPF_DÜNN
100
AcDbMText
 10
13.8892156294
 20
23.8442973028
 30
0.0
 40
3.0
 41
0.0
 71
     1
 72
     1
  1
HA4.V20.L11.080
  7
SLDTEXTSTYLE0
 73
     1
 44
1.0
  0
MTEXT
  5
46
330
1F
100
AcDbEntity
  8
VERMASSUNG
100
AcDbMText
 10
13.9329988022
 20
28.8834360957
 30
0.0
 40
3.0
 41
0.0
 71
     1
 72
     1
  1
Werkzeughalter axial_Tool holder axial
  7
SLDTEXTSTYLE0
 73
     1
 44
1.0
  0
MTEXT
  5
47
330
1F
100
AcDbEntity
  8
VERMASSUNG
100
AcDbMText
 10
98.8601118557
 20
13.8365368179
 30
0.0
 40
2.0
 41
0.0
 71
     1
 72
     1
  1
Datum: 16.02.2011
  7
SLDTEXTSTYLE0
 73
     1
 44
1.0
  0
MTEXT
  5
49
330
1F
100
AcDbEntity
  8
VERMASSUNG
100
AcDbMText
 10
13.933048693
 20
18.0482802738
 30
0.0
 40
2.0
 41
0.0
 71
     1
 72
     1
  1
DIN 69893 HSK 40 A ICTM  / 20x20
  7
SLDTEXTSTYLE1
 73
     1
 44
1.0
  0
MTEXT
  5
4A
330
1F
100
AcDbEntity
  8
VERMASSUNG
100
AcDbMText
 10
13.9808475933
 20
13.9090973692
 30
0.0
 40
2.0
 41
0.0
 71
     1
 72
     1
  1
Gewicht: 944g
  7
SLDTEXTSTYLE0
 73
     1
 44
1.0
  0
ARC
  5
4B
330
1F
100
AcDbEntity
  8
0
  6
Continuous
 62
     7
370
    15
100
AcDbCircle
 10
244.2224068966
 20
82.601417406
 30
0.0
 40
4.999999999999996
100
AcDbArc
 50
42.0011551314
 51
66.4218215218
  0
ARC
  5
4C
330
1F
100
AcDbEntity
  8
0
  6
Continuous
 62
     7
370
    15
100
AcDbCircle
 10
244.2224068966
 20
82.601417406
 30
0.0
 40
4.999999999999996
100
AcDbArc
 50
293.5781784782
 51
321.0427295384
  0
LINE
  5
4D
330
1F
100
AcDbEntity
  8
0
  6
Continuous
 62
     7
370
    15
100
AcDbLine
 10
202.1602302518
 20
108.601416959
 30
0.0
 11
201.4210059967
 21
105.8425992118
 31
0.0
  0
LINE
  5
4E
330
1F
100
AcDbEntity
  8
0
  6
Continuous
 62
     7
370
    15
100
AcDbLine
 10
166.5224069108
 20
68.6014178531
 30
0.0
 11
174.1724073615
 21
68.6014178531
 31
0.0
  0
LINE
  5
4F
330
1F
100
AcDbEntity
  8
0
  6
Continuous
 62
     7
370
    15
100
AcDbLine
 10
174.1786118325
 20
108.601416959
 30
0.0
 11
166.5224069108
 21
108.601416959
 31
0.0
  0
ARC
  5
50
330
1F
100
AcDbEntity
  8
0
  6
Continuous
 62
     7
370
    15
100
AcDbCircle
 10
166.5224068966
 20
68.901417406
 30
0.0
 40
0.3000000000000114
100
AcDbArc
 50
180.0
 51
270.0
  0
ARC
  5
51
330
1F
100
AcDbEntity
  8
0
  6
Continuous
 62
     7
370
    15
100
AcDbCircle
 10
166.5224068966
 20
108.301417406
 30
0.0
 40
0.3000000000000114
100
AcDbArc
 50
90.0
 51
180.0
  0
ARC
  5
52
330
1F
100
AcDbEntity
  8
0
  6
Continuous
 62
     7
370
    15
100
AcDbCircle
 10
187.1724068966
 20
71.101417406
 30
0.0
 40
1.0
100
AcDbArc
 50
90.0
 51
143.1137328946
  0
ARC
  5
53
330
1F
100
AcDbEntity
  8
0
  6
Continuous
 62
     7
370
    15
100
AcDbCircle
 10
187.1724068966
 20
106.101417406
 30
0.0
 40
1.0
100
AcDbArc
 50
216.8998129703
 51
270.0
  0
ARC
  5
54
330
1F
100
AcDbEntity
  8
0
  6
Continuous
 62
     7
370
    15
100
AcDbCircle
 10
200.4550799086
 20
106.101417406
 30
0.0
 40
1.0
100
AcDbArc
 50
270.0
 51
345.0
  0
LINE
  5
55
330
1F
100
AcDbEntity
  8
0
  6
Continuous
 62
     7
370
    15
100
AcDbLine
 10
187.1724076297
 20
72.1014174954
 30
0.0
 11
198.5957346585
 21
72.1014174954
 31
0.0
  0
LINE
  5
56
330
1F
100
AcDbEntity
  8
0
  6
Continuous
 62
     7
370
    15
100
AcDbLine
 10
200.4550792005
 20
105.1014173166
 30
0.0
 11
187.1724076297
 21
105.1014173166
 31
0.0
  0
ARC
  5
57
330
1F
100
AcDbEntity
  8
0
  6
Continuous
 62
     7
370
    15
100
AcDbCircle
 10
165.7224001439
 20
73.1477102526
 30
0.0
 40
0.60000675266771
100
AcDbArc
 50
33.5571153394
 51
90.0
  0
ARC
  5
58
330
1F
100
AcDbEntity
  8
0
  6
Continuous
 62
     7
370
    15
100
AcDbCircle
 10
165.7224001439
 20
104.0551245595
 30
0.0
 40
0.60000675266771
100
AcDbArc
 50
270.0
 51
326.4428846606
  0
LINE
  5
59
330
1F
100
AcDbEntity
  8
0
  6
Continuous
 62
     7
370
    15
100
AcDbLine
 10
164.2224068016
 20
73.4977168353
 30
0.0
 11
165.0791187964
 21
73.7272720174
 31
0.0
  0
LINE
  5
5A
330
1F
100
AcDbEntity
  8
0
  6
Continuous
 62
     7
370
    15
100
AcDbLine
 10
165.0791187964
 20
103.4755627946
 30
0.0
 11
164.2224068016
 21
103.7051179768
 31
0.0
  0
LINE
  5
5B
330
1F
100
AcDbEntity
  8
0
  6
Continuous
 62
     7
370
    15
100
AcDbLine
 10
157.4581902202
 20
103.3662292497
 30
0.0
 11
149.9224066462
 21
102.9886850477
 31
0.0
  0
LINE
  5
5C
330
1F
100
AcDbEntity
  8
0
  6
Continuous
 62
     7
370
    15
100
AcDbLine
 10
164.2224068016
 20
103.7051179768
 30
0.0
 11
162.9350987457
 21
103.6406229572
 31
0.0
  0
LINE
  5
5D
330
1F
100
AcDbEntity
  8
0
  6
Continuous
 62
     7
370
    15
100
AcDbLine
 10
162.9351867556
 20
73.5622071983
 30
0.0
 11
164.2224068016
 21
73.4977168353
 31
0.0
  0
LINE
  5
5E
330
1F
100
AcDbEntity
  8
0
  6
Continuous
 62
     7
370
    15
100
AcDbLine
 10
152.422407056
 20
74.0888989852
 30
0.0
 11
157.4595126983
 21
73.8365394385
 31
0.0
  0
ARC
  5
5F
330
1F
100
AcDbEntity
  8
0
  6
Continuous
 62
     7
370
    15
100
AcDbCircle
 10
165.234411986
 20
73.1477102526
 30
0.0
 40
0.60000675266771
100
AcDbArc
 50
90.0
 51
105.0
  0
ARC
  5
60
330
1F
100
AcDbEntity
  8
0
  6
Continuous
 62
     7
370
    15
100
AcDbCircle
 10
165.234411986
 20
104.0551245595
 30
0.0
 40
0.60000675266771
100
AcDbArc
 50
255.0
 51
270.0
  0
LINE
  5
61
330
1F
100
AcDbEntity
  8
0
  6
Continuous
 62
     7
370
    15
100
AcDbLine
 10
165.2344119463
 20
73.7477173419
 30
0.0
 11
165.7224001207
 21
73.7477173419
 31
0.0
  0
LINE
  5
62
330
1F
100
AcDbEntity
  8
0
  6
Continuous
 62
     7
370
    15
100
AcDbLine
 10
165.7224001207
 20
103.4551174701
 30
0.0
 11
165.2344119463
 21
103.4551174701
 31
0.0
  0
ARC
  5
63
330
1F
100
AcDbEntity
  8
0
  6
Continuous
 62
     7
370
    15
100
AcDbCircle
 10
149.0224068966
 20
102.381417406
 30
0.0
 40
0.9000000000000178
100
AcDbArc
 50
270.0
 51
311.1792132369
  0
ARC
  5
64
330
1F
100
AcDbEntity
  8
0
  6
Continuous
 62
     7
370
    15
100
AcDbCircle
 10
151.5224068966
 20
74.821417406
 30
0.0
 40
0.8999999999999915
100
AcDbArc
 50
34.6391318474
 51
90.0
  0
LINE
  5
65
330
1F
100
AcDbEntity
  8
0
  6
Continuous
 62
     7
370
    15
100
AcDbLine
 10
147.2724064913
 20
101.4814176918
 30
0.0
 11
146.3574640181
 21
100.9531752528
 31
0.0
  0
LINE
  5
66
330
1F
100
AcDbEntity
  8
0
  6
Continuous
 62
     7
370
    15
100
AcDbLine
 10
149.0224063124
 20
101.4814176918
 30
0.0
 11
147.2724064913
 21
101.4814176918
 31
0.0
  0
LINE
  5
67
330
1F
100
AcDbEntity
  8
0
  6
Continuous
 62
     7
370
    15
100
AcDbLine
 10
147.3745986547
 20
75.7214171202
 30
0.0
 11
151.5224067222
 21
75.7214171202
 31
0.0
  0
LINE
  5
68
330
1F
100
AcDbEntity
  8
0
  6
Continuous
 62
     7
370
    15
100
AcDbLine
 10
146.3342126187
 20
76.3220847906
 30
0.0
 11
147.3745986547
 21
75.7214171202
 31
0.0
  0
LWPOLYLINE
  5
69
330
1F
100
AcDbEntity
  8
0
  6
Continuous
 62
     7
370
    15
100
AcDbPolyline
 90
       32
 70
   128
 43
0.0
 10
248.1409072604
 20
79.5982149751
 10
248.1165364113
 20
79.468668005
 10
248.0880975451
 20
79.4715029509
 10
248.0567604031
 20
79.6066052602
 10
248.0237990346
 20
79.8684428768
 10
247.9905694451
 20
80.2462972091
 10
247.958435091
 20
80.7246971266
 10
247.9286998238
 20
81.2840592438
 10
247.9025929894
 20
81.9014814073
 10
247.8811725702
 20
82.551686591
 10
247.8653251853
 20
83.2080557333
 10
247.8556915846
 20
83.8437164524
 10
247.8526740994
 20
84.432645733
 10
247.8563919391
 20
84.9507316337
 10
247.8666960921
 20
85.3767642142
 10
247.8831618752
 20
85.6933014323
 10
247.9051112857
 20
85.8873844003
 10
247.9316502537
 20
85.9510673066
 10
247.9616984453
 20
85.8817429138
 10
247.9940116133
 20
85.6822494273
 10
248.0272784557
 20
85.3607540806
 10
248.0601280656
 20
84.9304187899
 10
248.091226789
 20
84.4088616171
 10
248.1192856755
 20
83.8174354607
 10
248.1431722369
 20
83.1803530776
 10
248.1619029965
 20
82.5236966224
 10
248.1747105446
 20
81.874350118
 10
248.1810658898
 20
81.2588977018
 10
248.1807157125
 20
80.7025353746
 10
248.1736674633
 20
80.228041424
 10
248.1602191653
 20
79.8548418419
 10
248.1409072604
 20
79.5982149751
  0
LWPOLYLINE
  5
6A
330
1F
100
AcDbEntity
  8
0
  6
Continuous
 62
     7
370
    15
100
AcDbPolyline
 90
       29
 70
   128
 43
0.0
 10
248.1123640861
 20
80.3145286949
 10
248.0914056029
 20
80.2102065967
 10
248.06672928
 20
80.2308447049
 10
248.0395719137
 20
80.3754092516
 10
248.0112895097
 20
80.6366508217
 10
247.983305129
 20
81.0014698976
 10
247.9570194807
 20
81.4515729756
 10
247.9337513175
 20
81.9643894532
 10
247.9146703806
 20
82.5142050484
 10
247.9007303443
 20
83.0734498189
 10
247.8926315632
 20
83.6140802452
 10
247.8907763686
 20
84.1089873896
 10
247.8952616181
 20
84.5333547653
 10
247.9058637943
 20
84.8659023498
 10
247.9220464554
 20
85.0899548126
 10
247.9430049386
 20
85.1942776093
 10
247.9676812615
 20
85.1736392682
 10
247.9948386278
 20
85.0290747215
 10
248.0231210317
 20
84.7678329186
 10
248.0511054125
 20
84.4030138427
 10
248.0773910608
 20
83.9529112303
 10
248.100659224
 20
83.4400947527
 10
248.1197401609
 20
82.8902791576
 10
248.1336801972
 20
82.331034387
 10
248.1417789783
 20
81.7904034951
 10
248.1436341729
 20
81.2954963506
 10
248.1391489234
 20
80.8711294406
 10
248.1285467472
 20
80.5385816233
 10
248.1123640861
 20
80.3145286949
  0
LINE
  5
6B
330
1F
100
AcDbEntity
  8
0
  6
Continuous
 62
     7
370
    15
100
AcDbLine
 10
216.4239905503
 20
70.4685966806
 30
0.0
 11
213.7061752107
 21
71.441635056
 31
0.0
  0
LINE
  5
6C
330
1F
100
AcDbEntity
  8
0
  6
Continuous
 62
     7
370
    15
100
AcDbLine
 10
211.5045882489
 20
69.5744562284
 30
0.0
 11
213.7061752107
 21
71.441635056
 31
0.0
  0
LINE
  5
6D
330
1F
100
AcDbEntity
  8
0
  6
Continuous
 62
     7
370
    15
100
AcDbLine
 10
212.0208240773
 20
66.7342371629
 30
0.0
 11
211.5045882489
 21
69.5744562284
 31
0.0
  0
LINE
  5
6E
330
1F
100
AcDbEntity
  8
0
  6
Continuous
 62
     7
370
    15
100
AcDbLine
 10
212.0208240773
 20
66.7342371629
 30
0.0
 11
214.7386394169
 21
65.7611987875
 31
0.0
  0
LINE
  5
6F
330
1F
100
AcDbEntity
  8
0
  6
Continuous
 62
     7
370
    15
100
AcDbLine
 10
216.9402226534
 20
67.6283794777
 30
0.0
 11
214.7386394169
 21
65.7611987875
 31
0.0
  0
LINE
  5
70
330
1F
100
AcDbEntity
  8
0
  6
Continuous
 62
     7
370
    15
100
AcDbLine
 10
216.9402226534
 20
67.6283794777
 30
0.0
 11
216.4239905503
 21
70.4685966806
 31
0.0
  0
CIRCLE
  5
71
330
1F
100
AcDbEntity
  8
0
  6
Continuous
 62
     7
370
    15
100
AcDbCircle
 10
214.2224068966
 20
68.601417406
 30
0.0
 40
4.172000000000009
  0
LINE
  5
72
330
1F
100
AcDbEntity
  8
0
  6
Continuous
 62
     7
370
    15
100
AcDbLine
 10
239.0317007627
 20
69.2656445639
 30
0.0
 11
237.0518132772
 21
71.3664512472
 31
0.0
  0
LINE
  5
73
330
1F
100
AcDbEntity
  8
0
  6
Continuous
 62
     7
370
    15
100
AcDbLine
 10
234.2425197091
 20
70.7022245364
 30
0.0
 11
237.0518132772
 21
71.3664512472
 31
0.0
  0
LINE
  5
74
330
1F
100
AcDbEntity
  8
0
  6
Continuous
 62
     7
370
    15
100
AcDbLine
 10
233.4131136265
 20
67.9371911423
 30
0.0
 11
234.2425197091
 21
70.7022245364
 31
0.0
  0
LINE
  5
75
330
1F
100
AcDbEntity
  8
0
  6
Continuous
 62
     7
370
    15
100
AcDbLine
 10
233.4131136265
 20
67.9371911423
 30
0.0
 11
235.3929936614
 21
65.8363825963
 31
0.0
  0
LINE
  5
76
330
1F
100
AcDbEntity
  8
0
  6
Continuous
 62
     7
370
    15
100
AcDbLine
 10
238.2022946801
 20
66.5006111698
 30
0.0
 11
235.3929936614
 21
65.8363825963
 31
0.0
  0
CIRCLE
  5
77
330
1F
100
AcDbEntity
  8
0
  6
Continuous
 62
     7
370
    15
100
AcDbCircle
 10
236.2224068966
 20
68.601417406
 30
0.0
 40
4.171999999999992
  0
LINE
  5
78
330
1F
100
AcDbEntity
  8
0
  6
Continuous
 62
     7
370
    15
100
AcDbLine
 10
238.2022946801
 20
66.5006111698
 30
0.0
 11
239.0317007627
 21
69.2656445639
 31
0.0
  0
SPLINE
  5
79
330
1F
100
AcDbEntity
  8
0
  6
Continuous
 62
     7
370
    15
100
AcDbSpline
210
0.0
220
0.0
230
1.0
 70
    24
 71
     3
 72
     9
 73
     5
 74
     0
 42
0.00000001
 43
0.00000001
 40
0.0
 40
0.0
 40
0.0
 40
0.0
 40
0.9644423297353929
 40
1.0
 40
1.0
 40
1.0
 40
1.0
 10
202.3251600291495
 20
108.601416958988
 30
0.0
 10
202.2207956462211
 20
108.601416958988
 30
0.0
 10
202.1125834911647
 20
108.601416958988
 30
0.0
 10
202.1638895549851
 20
108.601416958988
 30
0.0
 10
202.165713879085
 20
108.601416958988
 30
0.0
  0
SPLINE
  5
7A
330
1F
100
AcDbEntity
  8
0
  6
Continuous
 62
     7
370
    15
100
AcDbSpline
210
0.0
220
0.0
230
1.0
 70
     8
 71
     3
 72
    13
 73
     9
 74
     0
 42
0.00000001
 43
0.00000001
 40
0.0
 40
0.0
 40
0.0
 40
0.0
 40
0.2499999999999998
 40
0.2499999999999998
 40
0.4999999999999998
 40
0.7499999999999998
 40
0.7499999999999998
 40
1.0
 40
1.0
 40
1.0
 40
1.0
 10
202.3251593349166
 20
93.60141740602279
 30
0.0
 10
202.0814572416756
 20
94.85141740602279
 30
0.0
 10
201.8826318100131
 20
96.10141740602279
 30
0.0
 10
201.6104146713403
 20
98.60141740602279
 30
0.0
 10
201.4655103206435
 20
101.1014174060228
 30
0.0
 10
201.6104146713402
 20
103.6014174060228
 30
0.0
 10
201.8826318100131
 20
106.1014174060228
 30
0.0
 10
202.0814572416756
 20
107.3514174060228
 30
0.0
 10
202.3251593349166
 20
108.6014174060228
 30
0.0
  0
SPLINE
  5
7B
330
1F
100
AcDbEntity
  8
0
  6
Continuous
 62
     7
370
    15
100
AcDbSpline
210
0.0
220
0.0
230
1.0
 70
     8
 71
     3
 72
    16
 73
    12
 74
     0
 42
0.00000001
 43
0.00000001
 40
0.0
 40
0.0
 40
0.0
 40
0.0
 40
0.125
 40
0.125
 40
0.2500000000000001
 40
0.2500000000000001
 40
0.5000000000000001
 40
0.5000000000000001
 40
0.75
 40
0.75
 40
1.0
 40
1.0
 40
1.0
 40
1.0
 10
202.3251593349166
 20
93.60141740602279
 30
0.0
 10
202.2295968408793
 20
92.13093618087694
 30
0.0
 10
202.1738107523188
 20
90.65544868364374
 30
0.0
 10
202.1510591458428
 20
87.69519425526369
 30
0.0
 10
202.1841951690279
 20
86.21979987817475
 30
0.0
 10
202.4078594845217
 20
81.80682861930408
 30
0.0
 10
202.7228007586581
 20
78.8824802752744
 30
0.0
 10
203.5565884927386
 20
73.0554643427815
 30
0.0
 10
204.0730745050109
 20
70.15056059889365
 30
0.0
 10
205.2051566063864
 20
64.36080785575729
 30
0.0
 10
205.8209615718882
 20
61.47801402674208
 30
0.0
 10
206.4622907467501
 20
58.60141740602279
 30
0.0
  0
SPLINE
  5
7C
330
1F
100
AcDbEntity
  8
0
  6
Continuous
 62
     7
370
    15
100
AcDbSpline
210
0.0
220
0.0
230
1.0
 70
    24
 71
     3
 72
    12
 73
     8
 74
     0
 42
0.00000001
 43
0.00000001
 40
0.0
 40
0.0
 40
0.0
 40
0.0
 40
0.4999999999999999
 40
0.4999999999999999
 40
0.7499999999999998
 40
0.7499999999999998
 40
1.0
 40
1.0
 40
1.0
 40
1.0
 10
204.8441855744449
 20
58.6014174060228
 30
0.0
 10
204.8724020932773
 20
58.60141740602279
 30
0.0
 10
205.0370498755166
 20
58.6014174060228
 30
0.0
 10
205.4578654789285
 20
58.6014174060228
 30
0.0
 10
205.6266389677839
 20
58.60141740602279
 30
0.0
 10
206.0120097066255
 20
58.6014174060228
 30
0.0
 10
206.2278921583988
 20
58.60141740602281
 30
0.0
 10
206.4622907467501
 20
58.6014174060228
 30
0.0
  0
LINE
  5
7D
330
1F
100
AcDbEntity
  8
0
  6
Continuous
 62
     7
370
    15
100
AcDbLine
 10
204.8441864278
 20
58.6014180766
 30
0.0
 11
201.4210059967
 21
71.3892611997
 31
0.0
  0
LINE
  5
7E
330
1F
100
AcDbEntity
  8
0
  6
Continuous
 62
     7
370
    15
100
AcDbLine
 10
202.3251600291
 20
93.6014172943
 30
0.0
 11
246.2224051084
 21
93.6014172943
 31
0.0
  0
LINE
  5
7F
330
1F
100
AcDbEntity
  8
0
  6
Continuous
 62
     7
370
    15
100
AcDbLine
 10
246.2224051084
 20
93.6014172943
 30
0.0
 11
246.2224051084
 21
58.6014180766
 31
0.0
  0
LINE
  5
80
330
1F
100
AcDbEntity
  8
0
  6
Continuous
 62
     7
370
    15
100
AcDbLine
 10
206.462292346
 20
58.6014180766
 30
0.0
 11
246.2224051084
 21
58.6014180766
 31
0.0
  0
CIRCLE
  5
81
330
1F
100
AcDbEntity
  8
0
  6
Continuous
 62
     7
370
    15
100
AcDbCircle
 10
236.2224068966
 20
68.601417406
 30
0.0
 40
5.25
  0
CIRCLE
  5
82
330
1F
100
AcDbEntity
  8
0
  6
Continuous
 62
     7
370
    15
100
AcDbCircle
 10
214.2224068966
 20
68.601417406
 30
0.0
 40
5.25
  0
LINE
  5
83
330
1F
100
AcDbEntity
  8
0
  6
Continuous
 62
     7
370
    15
100
AcDbLine
 10
202.3251600291
 20
108.601416959
 30
0.0
 11
246.2224051084
 21
108.601416959
 31
0.0
  0
LINE
  5
84
330
1F
100
AcDbEntity
  8
0
  6
Continuous
 62
     7
370
    15
100
AcDbLine
 10
246.2224051084
 20
108.601416959
 30
0.0
 11
246.2224051084
 21
93.6014172943
 31
0.0
  0
LINE
  5
85
330
1F
100
AcDbEntity
  8
0
  6
Continuous
 62
     7
370
    15
100
AcDbLine
 10
174.1724073615
 20
100.4514177651
 30
0.0
 11
180.1872471075
 21
100.4514177651
 31
0.0
  0
LINE
  5
86
330
1F
100
AcDbEntity
  8
0
  6
Continuous
 62
     7
370
    15
100
AcDbLine
 10
180.1872471075
 20
69.3725324557
 30
0.0
 11
180.1872471075
 21
100.4514177651
 31
0.0
  0
LINE
  5
87
330
1F
100
AcDbEntity
  8
0
  6
Continuous
 62
     7
370
    15
100
AcDbLine
 10
180.1872471075
 20
69.3725324557
 30
0.0
 11
178.6724071678
 21
69.3725324557
 31
0.0
  0
SPLINE
  5
88
330
1F
100
AcDbEntity
  8
0
  6
Continuous
 62
     7
370
    15
100
AcDbSpline
210
0.0
220
0.0
230
1.0
 70
     8
 71
     3
 72
    22
 73
    18
 74
     0
 42
0.00000001
 43
0.00000001
 40
0.0
 40
0.0
 40
0.0
 40
0.0
 40
0.125
 40
0.125
 40
0.25
 40
0.25
 40
0.375
 40
0.375
 40
0.5
 40
0.5
 40
0.625
 40
0.625
 40
0.75
 40
0.75
 40
0.875
 40
0.875
 40
1.0
 40
1.0
 40
1.0
 40
1.0
 10
178.6724068965677
 20
69.37253288299338
 30
0.0
 10
178.3732824675272
 20
69.37253288299338
 30
0.0
 10
178.0794600192783
 20
69.364018781927
 30
0.0
 10
177.501895743032
 20
69.3315750130451
 30
0.0
 10
177.2150780652181
 20
69.30724112434307
 30
0.0
 10
176.6706155363187
 20
69.24678109958623
 30
0.0
 10
176.4126602656974
 20
69.21086767880774
 30
0.0
 10
175.9246023223375
 20
69.13115765273861
 30
0.0
 10
175.6949040236737
 20
69.08727935154927
 30
0.0
 10
175.2824850407211
 20
68.9990357291791
 30
0.0
 10
175.096958097861
 20
68.95422738771813
 30
0.0
 10
174.7684380529602
 20
68.86690637979895
 30
0.0
 10
174.6300241660607
 20
68.82561559122328
 30
0.0
 10
174.4054320194448
 20
68.75127736792946
 30
0.0
 10
174.3183532073206
 20
68.7178672421948
 30
0.0
 10
174.2018513993655
 20
68.66284784066865
 30
0.0
 10
174.1724068965677
 20
68.6413860742024
 30
0.0
 10
174.1724068965677
 20
68.62643305058462
 30
0.0
  0
LINE
  5
89
330
1F
100
AcDbEntity
  8
0
  6
Continuous
 62
     7
370
    15
100
AcDbLine
 10
174.1724073615
 20
68.6264331774
 30
0.0
 11
174.1724073615
 21
68.6014178531
 31
0.0
  0
SPLINE
  5
8A
330
1F
100
AcDbEntity
  8
0
  6
Continuous
 62
     7
370
    15
100
AcDbSpline
210
0.0
220
0.0
230
1.0
 70
     8
 71
     3
 72
    22
 73
    18
 74
     0
 42
0.00000001
 43
0.00000001
 40
0.0
 40
0.0
 40
0.0
 40
0.0
 40
0.0518345218020309
 40
0.1572971458525316
 40
0.2110483604072564
 40
0.2628812493209399
 40
0.3682639979160869
 40
0.421926269624916
 40
0.474588900133588
 40
0.5816625153738944
 40
0.6361992660492891
 40
0.6894010616117671
 40
0.7429796860279251
 40
0.7977609873952648
 40
0.8529644563091316
 40
0.9052741623688363
 40
0.9999999999999999
 40
0.9999999999999999
 40
0.9999999999999999
 40
0.9999999999999999
 10
178.6724071677689
 20
108.0885934965017
 30
0.0
 10
178.5499556448729
 20
108.0892898771872
 30
0.0
 10
178.1783640031019
 20
108.0914031154394
 30
0.0
 10
177.6841306889721
 20
108.1111170642917
 30
0.0
 10
177.2069251924692
 20
108.1425437704582
 30
0.0
 10
176.7438352567252
 20
108.1815021987271
 30
0.0
 10
176.3055437866824
 20
108.229915280281
 30
0.0
 10
175.9008824762407
 20
108.2839724358843
 30
0.0
 10
175.518816737336
 20
108.3406142971931
 30
0.0
 10
175.1773515770203
 20
108.3985445174564
 30
0.0
 10
174.8861044421976
 20
108.4526766195424
 30
0.0
 10
174.6940157704128
 20
108.4902996081225
 30
0.0
 10
174.5296744223845
 20
108.5238909521886
 30
0.0
 10
174.3929662701394
 20
108.5528350492254
 30
0.0
 10
174.28970714464
 20
108.5752874355088
 30
0.0
 10
174.1953364284045
 20
108.5962255776035
 30
0.0
 10
174.1851647870865
 20
108.5985378029879
 30
0.0
 10
174.1786118324761
 20
108.6000274257066
 30
0.0
  0
LINE
  5
8B
330
1F
100
AcDbEntity
  8
0
  6
Continuous
 62
     7
370
    15
100
AcDbLine
 10
180.1872471075
 20
108.0885934965
 30
0.0
 11
178.6724071678
 21
108.0885934965
 31
0.0
  0
LINE
  5
8C
330
1F
100
AcDbEntity
  8
0
  6
Continuous
 62
     7
370
    15
100
AcDbLine
 10
180.1872471075
 20
104.7128266976
 30
0.0
 11
180.1872471075
 21
108.0885934965
 31
0.0
  0
LINE
  5
8D
330
1F
100
AcDbEntity
  8
0
  6
Continuous
 62
     7
370
    15
100
AcDbLine
 10
178.6660769682
 20
104.7128266976
 30
0.0
 11
180.1872471075
 21
104.7128266976
 31
0.0
  0
SPLINE
  5
8E
330
1F
100
AcDbEntity
  8
0
  6
Continuous
 62
     7
370
    15
100
AcDbSpline
210
0.0
220
0.0
230
1.0
 70
     8
 71
     3
 72
    22
 73
    18
 74
     0
 42
0.00000001
 43
0.00000001
 40
0.0
 40
0.0
 40
0.0
 40
0.0
 40
0.2500000000000002
 40
0.2500000000000002
 40
0.3750000000000001
 40
0.3750000000000001
 40
0.5000000000000001
 40
0.5000000000000001
 40
0.6250000000000001
 40
0.6250000000000001
 40
0.75
 40
0.75
 40
0.875
 40
0.875
 40
0.9375000000000001
 40
0.9375000000000001
 40
1.0
 40
1.0
 40
1.0
 40
1.0
 10
174.1724068965677
 20
100.4514174060228
 30
0.0
 10
174.1943879145544
 20
101.0142900479208
 30
0.0
 10
174.2733647979092
 20
101.5449149316504
 30
0.0
 10
174.5197626909415
 20
102.2906259225719
 30
0.0
 10
174.6242873060325
 20
102.5322461489706
 30
0.0
 10
174.886133901339
 20
102.9911049242966
 30
0.0
 10
175.0413505235048
 20
103.2052835967664
 30
0.0
 10
175.4099422765687
 20
103.6025121559119
 30
0.0
 10
175.6260759690336
 20
103.7869569909317
 30
0.0
 10
176.1099704640205
 20
104.1080368388153
 30
0.0
 10
176.3804360090282
 20
104.2473876689214
 30
0.0
 10
176.9766625745384
 20
104.4766932033469
 30
0.0
 10
177.2921558412584
 20
104.5632292128233
 30
0.0
 10
177.7928724892769
 20
104.6521188171545
 30
0.0
 10
177.9656689238921
 20
104.6749273230161
 30
0.0
 10
178.3140376966741
 20
104.7052184857124
 30
0.0
 10
178.4894387255845
 20
104.7128264071003
 30
0.0
 10
178.6660773712725
 20
104.7128264071003
 30
0.0
  0
LINE
  5
8F
330
1F
100
AcDbEntity
  8
0
  6
Continuous
 62
     7
370
    15
100
AcDbLine
 10
186.1724074658
 20
69.9973847107
 30
0.0
 11
186.1724074658
 21
100.4514177651
 31
0.0
  0
SPLINE
  5
90
330
1F
100
AcDbEntity
  8
0
  6
Continuous
 62
     7
370
    15
100
AcDbSpline
210
0.0
220
0.0
230
1.0
 70
     8
 71
     3
 72
    10
 73
     6
 74
     0
 42
0.00000001
 43
0.00000001
 40
0.0
 40
0.0
 40
0.0
 40
0.0
 40
0.5
 40
0.5
 40
1.0
 40
1.0
 40
1.0
 40
1.0
 10
186.1724068965677
 20
69.99738558493628
 30
0.0
 10
186.1724068965677
 20
69.83775341603302
 30
0.0
 10
186.1107703828625
 20
69.67670378226897
 30
0.0
 10
185.8917440166196
 20
69.44371289859238
 30
0.0
 10
185.7341271285721
 20
69.37253288299338
 30
0.0
 10
185.5724068965678
 20
69.37253288299338
 30
0.0
  0
SPLINE
  5
91
330
1F
100
AcDbEntity
  8
0
  6
Continuous
 62
     7
370
    15
100
AcDbSpline
210
0.0
220
0.0
230
1.0
 70
    24
 71
     3
 72
    12
 73
     8
 74
     0
 42
0.00000001
 43
0.00000001
 40
0.0
 40
0.0
 40
0.0
 40
0.0
 40
0.250000000000002
 40
0.250000000000002
 40
0.500000000000004
 40
0.500000000000004
 40
1.0
 40
1.0
 40
1.0
 40
1.0
 10
185.5724068965678
 20
100.4514174060228
 30
0.0
 10
185.6605937619366
 20
100.4514174060228
 30
0.0
 10
185.7492811552379
 20
100.4514174060228
 30
0.0
 10
185.9035336483567
 20
100.4514174060228
 30
0.0
 10
185.9688796294327
 20
100.4514174060228
 30
0.0
 10
186.1232894993838
 20
100.4514174060228
 30
0.0
 10
186.1724068965678
 20
100.4514174060228
 30
0.0
 10
186.1724068965677
 20
100.4514174060228
 30
0.0
  0
LINE
  5
92
330
1F
100
AcDbEntity
  8
0
  6
Continuous
 62
     7
370
    15
100
AcDbLine
 10
181.182407188
 20
71.1722947047
 30
0.0
 11
181.182407188
 21
100.4514177651
 31
0.0
  0
SPLINE
  5
93
330
1F
100
AcDbEntity
  8
0
  6
Continuous
 62
     7
370
    15
100
AcDbSpline
210
0.0
220
0.0
230
1.0
 70
     8
 71
     3
 72
     8
 73
     4
 74
     0
 42
0.00000001
 43
0.00000001
 40
0.0
 40
0.0
 40
0.0
 40
0.0
 40
1.0
 40
1.0
 40
1.0
 40
1.0
 10
181.1824068965678
 20
71.17229401803307
 30
0.0
 10
180.8517682699532
 20
70.57177366692208
 30
0.0
 10
180.5199524693796
 20
69.97190455621704
 30
0.0
 10
180.1872471976743
 20
69.37253288299338
 30
0.0
  0
SPLINE
  5
94
330
1F
100
AcDbEntity
  8
0
  6
Continuous
 62
     7
370
    15
100
AcDbSpline
210
0.0
220
0.0
230
1.0
 70
    24
 71
     3
 72
     8
 73
     4
 74
     0
 42
0.00000001
 43
0.00000001
 40
0.0
 40
0.0
 40
0.0
 40
0.0
 40
1.0
 40
1.0
 40
1.0
 40
1.0
 10
180.1872471976743
 20
100.4514174060228
 30
0.0
 10
180.5262800194289
 20
100.4514174060228
 30
0.0
 10
180.8587702409455
 20
100.4514174060228
 30
0.0
 10
181.1824068965678
 20
100.4514174060228
 30
0.0
  0
LINE
  5
95
330
1F
100
AcDbEntity
  8
0
  6
Continuous
 62
     7
370
    15
100
AcDbLine
 10
184.2575672742
 20
69.3725324557
 30
0.0
 11
184.2575672742
 21
100.4514177651
 31
0.0
  0
SPLINE
  5
96
330
1F
100
AcDbEntity
  8
0
  6
Continuous
 62
     7
370
    15
100
AcDbSpline
210
0.0
220
0.0
230
1.0
 70
     8
 71
     3
 72
     8
 73
     4
 74
     0
 42
0.00000001
 43
0.00000001
 40
0.0
 40
0.0
 40
0.0
 40
0.0
 40
1.0
 40
1.0
 40
1.0
 40
1.0
 10
184.2575665954612
 20
69.37253288299338
 30
0.0
 10
183.9248613237559
 20
69.97190455621704
 30
0.0
 10
183.5930455231824
 20
70.57177366692208
 30
0.0
 10
183.2624068965677
 20
71.17229401803307
 30
0.0
  0
LINE
  5
97
330
1F
100
AcDbEntity
  8
0
  6
Continuous
 62
     7
370
    15
100
AcDbLine
 10
183.2624062624
 20
71.1722947047
 30
0.0
 11
183.2624062624
 21
100.4514177651
 31
0.0
  0
SPLINE
  5
98
330
1F
100
AcDbEntity
  8
0
  6
Continuous
 62
     7
370
    15
100
AcDbSpline
210
0.0
220
0.0
230
1.0
 70
    24
 71
     3
 72
     8
 73
     4
 74
     0
 42
0.00000001
 43
0.00000001
 40
0.0
 40
0.0
 40
0.0
 40
0.0
 40
1.0
 40
1.0
 40
1.0
 40
1.0
 10
183.2624068965677
 20
100.4514174060228
 30
0.0
 10
183.58604355219
 20
100.4514174060228
 30
0.0
 10
183.9185337737066
 20
100.4514174060228
 30
0.0
 10
184.2575665954612
 20
100.4514174060228
 30
0.0
  0
LINE
  5
99
330
1F
100
AcDbEntity
  8
0
  6
Continuous
 62
     7
370
    15
100
AcDbLine
 10
185.5724066224
 20
69.3725324557
 30
0.0
 11
184.2575672742
 21
69.3725324557
 31
0.0
  0
LINE
  5
9A
330
1F
100
AcDbEntity
  8
0
  6
Continuous
 62
     7
370
    15
100
AcDbLine
 10
184.2575672742
 20
100.4514177651
 30
0.0
 11
185.5724066224
 21
100.4514177651
 31
0.0
  0
CIRCLE
  5
9B
330
1F
100
AcDbEntity
  8
0
  6
Continuous
 62
     7
370
    15
100
AcDbCircle
 10
214.2224068966
 20
68.601417406
 30
0.0
 40
4.25
  0
LINE
  5
9C
330
1F
100
AcDbEntity
  8
0
  6
Continuous
 62
     7
370
    15
100
AcDbLine
 10
166.2224068966
 20
68.9014173434
 30
0.0
 11
166.2224068966
 21
108.3014174686
 31
0.0
  0
CIRCLE
  5
9D
330
1F
100
AcDbEntity
  8
0
  6
Continuous
 62
     7
370
    15
100
AcDbCircle
 10
236.2224068966
 20
68.601417406
 30
0.0
 40
4.25
  0
SPLINE
  5
9E
330
1F
100
AcDbEntity
  8
0
  6
Continuous
 62
     7
370
    15
100
AcDbSpline
210
0.0
220
0.0
230
1.0
 70
    24
 71
     3
 72
    16
 73
    12
 74
     0
 42
0.00000001
 43
0.00000001
 40
0.0
 40
0.0
 40
0.0
 40
0.0
 40
0.5000000000000001
 40
0.5000000000000001
 40
0.7499999999999993
 40
0.7499999999999993
 40
0.8749999999999983
 40
0.8749999999999983
 40
0.9374999999999991
 40
0.9374999999999991
 40
1.0
 40
1.0
 40
1.0
 40
1.0
 10
183.2271844959865
 20
71.7014174060228
 30
0.0
 10
183.1971480764599
 20
71.7014174060228
 30
0.0
 10
183.1505139792551
 20
71.7014174060228
 30
0.0
 10
183.0401295676764
 20
71.7014174060228
 30
0.0
 10
182.9967919191558
 20
71.7014174060228
 30
0.0
 10
182.9083102847711
 20
71.7014174060228
 30
0.0
 10
182.8749347801545
 20
71.7014174060228
 30
0.0
 10
182.8104425707039
 20
71.7014174060228
 30
0.0
 10
182.7862382335173
 20
71.7014174060228
 30
0.0
 10
182.7304844237069
 20
71.7014174060228
 30
0.0
 10
182.6969003976387
 20
71.70141740602278
 30
0.0
 10
182.6624068965678
 20
71.7014174060228
 30
0.0
  0
SPLINE
  5
9F
330
1F
100
AcDbEntity
  8
0
  6
Continuous
 62
     7
370
    15
100
AcDbSpline
210
0.0
220
0.0
230
1.0
 70
    24
 71
     3
 72
    12
 73
     8
 74
     0
 42
0.00000001
 43
0.00000001
 40
0.0
 40
0.0
 40
0.0
 40
0.0
 40
0.249999999999999
 40
0.249999999999999
 40
0.499999999999998
 40
0.499999999999998
 40
1.0
 40
1.0
 40
1.0
 40
1.0
 10
182.6624068965677
 20
100.4514174060228
 30
0.0
 10
182.755064986074
 20
100.4514174060228
 30
0.0
 10
182.8471283956317
 20
100.4514174060228
 30
0.0
 10
183.0012859461224
 20
100.4514174060228
 30
0.0
 10
183.0657748794872
 20
100.4514174060228
 30
0.0
 10
183.2158264284367
 20
100.4514174060228
 30
0.0
 10
183.2624068965677
 20
100.4514174060228
 30
0.0
 10
183.2624068965677
 20
100.4514174060228
 30
0.0
  0
SPLINE
  5
A0
330
1F
100
AcDbEntity
  8
0
  6
Continuous
 62
     7
370
    15
100
AcDbSpline
210
0.0
220
0.0
230
1.0
 70
    24
 71
     3
 72
    16
 73
    12
 74
     0
 42
0.00000001
 43
0.00000001
 40
0.0
 40
0.0
 40
0.0
 40
0.0
 40
0.0624999999999997
 40
0.0624999999999997
 40
0.1249999999999994
 40
0.1249999999999994
 40
0.2499999999999988
 40
0.2499999999999988
 40
0.499999999999999
 40
0.499999999999999
 40
1.0
 40
1.0
 40
1.0
 40
1.0
 10
181.7824068965411
 20
71.7014174060228
 30
0.0
 10
181.7479282293559
 20
71.7014174060228
 30
0.0
 10
181.7141080525191
 20
71.7014174060228
 30
0.0
 10
181.6575859853354
 20
71.7014174060228
 30
0.0
 10
181.6332599058092
 20
71.7014174060228
 30
0.0
 10
181.5688070062579
 20
71.7014174060228
 30
0.0
 10
181.5351787308993
 20
71.7014174060228
 30
0.0
 10
181.4471014153744
 20
71.7014174060228
 30
0.0
 10
181.4042819621068
 20
71.7014174060228
 30
0.0
 10
181.2936253279098
 20
71.7014174060228
 30
0.0
 10
181.2473927419658
 20
71.7014174060228
 30
0.0
 10
181.2176292971491
 20
71.7014174060228
 30
0.0
  0
SPLINE
  5
A1
330
1F
100
AcDbEntity
  8
0
  6
Continuous
 62
     7
370
    15
100
AcDbSpline
210
0.0
220
0.0
230
1.0
 70
    24
 71
     3
 72
    12
 73
     8
 74
     0
 42
0.00000001
 43
0.00000001
 40
0.0
 40
0.0
 40
0.0
 40
0.0
 40
0.5000000000000013
 40
0.5000000000000013
 40
0.7500000000000007
 40
0.7500000000000007
 40
1.0
 40
1.0
 40
1.0
 40
1.0
 10
181.1824068965678
 20
100.4514174060228
 30
0.0
 10
181.1824068965678
 20
100.4514174060228
 30
0.0
 10
181.2294029940761
 20
100.4514174060228
 30
0.0
 10
181.3789089320763
 20
100.4514174060228
 30
0.0
 10
181.4434275546348
 20
100.4514174060228
 30
0.0
 10
181.5978672473637
 20
100.4514174060228
 30
0.0
 10
181.6888056353667
 20
100.4514174060228
 30
0.0
 10
181.7824068965677
 20
100.4514174060228
 30
0.0
  0
SPLINE
  5
A2
330
1F
100
AcDbEntity
  8
0
  6
Continuous
 62
     7
370
    15
100
AcDbSpline
210
0.0
220
0.0
230
1.0
 70
    24
 71
     3
 72
    14
 73
    10
 74
     0
 42
0.00000001
 43
0.00000001
 40
0.0
 40
0.0
 40
0.0
 40
0.0
 40
0.125
 40
0.125
 40
0.25
 40
0.25
 40
0.5
 40
0.5
 40
1.0
 40
1.0
 40
1.0
 40
1.0
 10
186.372406896543
 20
105.5014174060228
 30
0.0
 10
186.372407172335
 20
105.5014174060228
 30
0.0
 10
186.370030860191
 20
105.5014174060228
 30
0.0
 10
186.3608830413216
 20
105.5014174060228
 30
0.0
 10
186.354117171571
 20
105.5014174060228
 30
0.0
 10
186.3286778095974
 20
105.5014174060228
 30
0.0
 10
186.3047847655755
 20
105.5014174060228
 30
0.0
 10
186.2298504502106
 20
105.5014174060228
 30
0.0
 10
186.1746237883713
 20
105.5014174060228
 30
0.0
 10
186.1724690196911
 20
105.5014174060228
 30
0.0
  0
SPLINE
  5
A3
330
1F
100
AcDbEntity
  8
0
  6
Continuous
 62
     7
370
    15
100
AcDbSpline
210
0.0
220
0.0
230
1.0
 70
    24
 71
     3
 72
    14
 73
    10
 74
     0
 42
0.00000001
 43
0.00000001
 40
0.0
 40
0.0
 40
0.0
 40
0.0
 40
0.125
 40
0.125
 40
0.25
 40
0.25
 40
0.5
 40
0.5
 40
1.0
 40
1.0
 40
1.0
 40
1.0
 10
186.3724068965423
 20
71.7014174060228
 30
0.0
 10
186.3724071787139
 20
71.7014174060228
 30
0.0
 10
186.369984640531
 20
71.7014174060228
 30
0.0
 10
186.3606655337132
 20
71.7014174060228
 30
0.0
 10
186.3537749103857
 20
71.7014174060228
 30
0.0
 10
186.3278965168003
 20
71.70141740602278
 30
0.0
 10
186.3036239800784
 20
71.70141740602278
 30
0.0
 10
186.2278675616326
 20
71.7014174060228
 30
0.0
 10
186.1724068965677
 20
71.7014174060228
 30
0.0
 10
186.1724068965677
 20
71.7014174060228
 30
0.0
  0
SPLINE
  5
A4
330
1F
100
AcDbEntity
  8
0
  6
Continuous
 62
     7
370
    15
100
AcDbSpline
210
0.0
220
0.0
230
1.0
 70
    24
 71
     3
 72
    12
 73
     8
 74
     0
 42
0.00000001
 43
0.00000001
 40
0.0
 40
0.0
 40
0.0
 40
0.0
 40
0.5
 40
0.5
 40
0.75
 40
0.75
 40
1.0
 40
1.0
 40
1.0
 40
1.0
 10
186.1724068965677
 20
100.4514174060228
 30
0.0
 10
186.1724068965677
 20
100.4514174060228
 30
0.0
 10
186.1996276446954
 20
100.4514174060228
 30
0.0
 10
186.2800740904683
 20
100.4514174060228
 30
0.0
 10
186.3135213189464
 20
100.4514174060228
 30
0.0
 10
186.3959308887206
 20
100.4514174060228
 30
0.0
 10
186.4452139856042
 20
100.4514174060228
 30
0.0
 10
186.5015306082408
 20
100.4514174060228
 30
0.0
  0
SPLINE
  5
A5
330
1F
100
AcDbEntity
  8
0
  6
Continuous
 62
     7
370
    15
100
AcDbSpline
210
0.0
220
0.0
230
1.0
 70
     8
 71
     3
 72
    10
 73
     6
 74
     0
 42
0.00000001
 43
0.00000001
 40
0.0
 40
0.0
 40
0.0
 40
0.0
 40
0.5
 40
0.5
 40
1.0
 40
1.0
 40
1.0
 40
1.0
 10
186.1724068965677
 20
101.4788200944534
 30
0.0
 10
186.1724068965677
 20
101.2961113823184
 30
0.0
 10
186.1993802302758
 20
101.1126030925576
 30
0.0
 10
186.3069705980616
 20
100.764299114237
 30
0.0
 10
186.3884351424048
 20
100.5961115316941
 30
0.0
 10
186.5015306082406
 20
100.4514174060213
 30
0.0
  0
LINE
  5
A6
330
1F
100
AcDbEntity
  8
0
  6
Continuous
 62
     7
370
    15
100
AcDbLine
 10
182.6624072816
 20
71.7014181749
 30
0.0
 11
181.7824071001
 21
71.7014181749
 31
0.0
  0
LINE
  5
A7
330
1F
100
AcDbEntity
  8
0
  6
Continuous
 62
     7
370
    15
100
AcDbLine
 10
181.7824071001
 20
100.4514177651
 30
0.0
 11
182.6624072816
 21
100.4514177651
 31
0.0
  0
SPLINE
  5
A8
330
1F
100
AcDbEntity
  8
0
  6
Continuous
 62
     7
370
    15
100
AcDbSpline
210
0.0
220
0.0
230
1.0
 70
     8
 71
     3
 72
     8
 73
     4
 74
     0
 42
0.00000001
 43
0.00000001
 40
0.0
 40
0.0
 40
0.0
 40
0.0
 40
1.0
 40
1.0
 40
1.0
 40
1.0
 10
201.4210057348779
 20
71.38926121571592
 30
0.0
 10
201.3832574535683
 20
71.53037728210978
 30
0.0
 10
201.3159839394413
 20
71.66018596604216
 30
0.0
 10
201.2224068965677
 20
71.77235776766116
 30
0.0
  0
SPLINE
  5
A9
330
1F
100
AcDbEntity
  8
0
  6
Continuous
 62
     7
370
    15
100
AcDbSpline
210
0.0
220
0.0
230
1.0
 70
     8
 71
     3
 72
    12
 73
     8
 74
     0
 42
0.00000001
 43
0.00000001
 40
0.0
 40
0.0
 40
0.0
 40
0.0
 40
0.2500000000000054
 40
0.2500000000000054
 40
0.5000000000000108
 40
0.5000000000000108
 40
1.0
 40
1.0
 40
1.0
 40
1.0
 10
201.2224068965677
 20
71.77235776766116
 30
0.0
 10
201.1751281392625
 20
71.82903131944686
 30
0.0
 10
201.1225134284722
 20
71.87947043341408
 30
0.0
 10
201.0069554485764
 20
71.96823428804694
 30
0.0
 10
200.9432684664712
 20
72.00673476804029
 30
0.0
 10
200.7453979934176
 20
72.09804439198439
 30
0.0
 10
200.5999631741105
 20
72.12899711112605
 30
0.0
 10
200.4550799085888
 20
72.12740579471266
 30
0.0
  0
SPLINE
  5
AA
330
1F
100
AcDbEntity
  8
0
  6
Continuous
 62
     7
370
    15
100
AcDbSpline
210
0.0
220
0.0
230
1.0
 70
     8
 71
     3
 72
    11
 73
     7
 74
     0
 42
0.00000001
 43
0.00000001
 40
0.0
 40
0.0
 40
0.0
 40
0.0
 40
0.1179890790239613
 40
0.4375396867383256
 40
0.7156814799186761
 40
1.0
 40
1.0
 40
1.0
 40
1.0
 10
198.5957346584563
 20
72.10279957813049
 30
0.0
 10
198.6558300654561
 20
72.10246876784751
 30
0.0
 10
198.8786822630545
 20
72.10124202187419
 30
0.0
 10
199.3131506821409
 20
72.10949214823322
 30
0.0
 10
199.8764057819561
 20
72.11968543762468
 30
0.0
 10
200.260781039632
 20
72.12481312280825
 30
0.0
 10
200.4550792004828
 20
72.12740512055184
 30
0.0
  0
LINE
  5
AB
330
1F
100
AcDbEntity
  8
0
  6
Continuous
 62
     7
370
    15
100
AcDbLine
 10
164.2224068016
 20
73.4977168353
 30
0.0
 11
164.2224068016
 21
103.7051179768
 31
0.0
  0
LINE
  5
AC
330
1F
100
AcDbEntity
  8
0
  6
Continuous
 62
     7
370
    15
100
AcDbLine
 10
152.422407056
 20
74.0888989852
 30
0.0
 11
152.422407056
 21
74.9646709622
 31
0.0
  0
SPLINE
  5
AD
330
1F
100
AcDbEntity
  8
0
  6
Continuous
 62
     7
370
    15
100
AcDbSpline
210
0.0
220
0.0
230
1.0
 70
     8
 71
     3
 72
    12
 73
     8
 74
     0
 42
0.00000001
 43
0.00000001
 40
0.0
 40
0.0
 40
0.0
 40
0.0
 40
0.25
 40
0.25
 40
0.5
 40
0.5
 40
1.0
 40
1.0
 40
1.0
 40
1.0
 10
152.0546718037109
 20
75.67104154313806
 30
0.0
 10
152.0800960206049
 20
75.60415595006427
 30
0.0
 10
152.1207078601741
 20
75.53970746038067
 30
0.0
 10
152.2053090064463
 20
75.4147068003028
 30
0.0
 10
152.2494058027318
 20
75.35418805511068
 30
0.0
 10
152.3654749112179
 20
75.17798199900226
 30
0.0
 10
152.4224068965678
 20
75.06758758403046
 30
0.0
 10
152.4224068965678
 20
74.96467070793732
 30
0.0
  0
SPLINE
  5
AE
330
1F
100
AcDbEntity
  8
0
  6
Continuous
 62
     7
370
    15
100
AcDbSpline
210
0.0
220
0.0
230
1.0
 70
     8
 71
     3
 72
    14
 73
    10
 74
     0
 42
0.00000001
 43
0.00000001
 40
0.0
 40
0.0
 40
0.0
 40
0.0
 40
0.1249999999999997
 40
0.1249999999999997
 40
0.2499999999999994
 40
0.2499999999999994
 40
0.4999999999999997
 40
0.4999999999999997
 40
1.0
 40
1.0
 40
1.0
 40
1.0
 10
151.5224068965678
 20
76.16104735851178
 30
0.0
 10
151.5714192193792
 20
76.16557241766694
 30
0.0
 10
151.6242254443746
 20
76.15745303211243
 30
0.0
 10
151.7092925361041
 20
76.12712295696097
 30
0.0
 10
151.7438767214448
 20
76.10646799988449
 30
0.0
 10
151.8324324067821
 20
76.04193187655768
 30
0.0
 10
151.8733681081033
 20
75.99469369650504
 30
0.0
 10
151.9772486350062
 20
75.85489759522136
 30
0.0
 10
152.0204724344383
 20
75.76101265635208
 30
0.0
 10
152.0546718037109
 20
75.67104154313806
 30
0.0
  0
SPLINE
  5
AF
330
1F
100
AcDbEntity
  8
0
  6
Continuous
 62
     7
370
    15
100
AcDbSpline
210
0.0
220
0.0
230
1.0
 70
     8
 71
     3
 72
    10
 73
     6
 74
     0
 42
0.00000001
 43
0.00000001
 40
0.0
 40
0.0
 40
0.0
 40
0.0
 40
0.5
 40
0.5
 40
1.0
 40
1.0
 40
1.0
 40
1.0
 10
148.6015835048693
 20
75.8347952789453
 30
0.0
 10
149.0748597156204
 20
75.9018808908926
 30
0.0
 10
149.5579464681259
 20
75.95974916111967
 30
0.0
 10
150.5336112493363
 20
76.06656832083372
 30
0.0
 10
151.0265289117169
 20
76.1152654594611
 30
0.0
 10
151.5224068965678
 20
76.16104735851178
 30
0.0
  0
SPLINE
  5
B0
330
1F
100
AcDbEntity
  8
0
  6
Continuous
 62
     7
370
    15
100
AcDbSpline
210
0.0
220
0.0
230
1.0
 70
     8
 71
     3
 72
    10
 73
     6
 74
     0
 42
0.00000001
 43
0.00000001
 40
0.0
 40
0.0
 40
0.0
 40
0.0
 40
0.5
 40
0.5
 40
1.0
 40
1.0
 40
1.0
 40
1.0
 10
147.3745978942143
 20
75.75178370658085
 30
0.0
 10
147.5826573308575
 20
75.75881812375177
 30
0.0
 10
147.7898151941521
 20
75.7675673157557
 30
0.0
 10
148.2003377611359
 20
75.79231005494144
 30
0.0
 10
148.4044590388642
 20
75.80685342357346
 30
0.0
 10
148.6015835048693
 20
75.83479527894528
 30
0.0
  0
SPLINE
  5
B1
330
1F
100
AcDbEntity
  8
0
  6
Continuous
 62
     7
370
    15
100
AcDbSpline
210
0.0
220
0.0
230
1.0
 70
     8
 71
     3
 72
     8
 73
     4
 74
     0
 42
0.00000001
 43
0.00000001
 40
0.0
 40
0.0
 40
0.0
 40
0.0
 40
1.0
 40
1.0
 40
1.0
 40
1.0
 10
147.2570592618331
 20
75.89856372327915
 30
0.0
 10
147.2826541936932
 20
75.84698444310126
 30
0.0
 10
147.3234393712659
 20
75.79833168402669
 30
0.0
 10
147.3745978942143
 20
75.75178370658085
 30
0.0
  0
ELLIPSE
  5
B2
330
1F
100
AcDbEntity
  8
0
  6
Continuous
 62
     7
370
    15
100
AcDbEllipse
 10
124.7243158794
 20
87.5311806491
 30
0.0
 11
22.65236303891439
 21
-12.66569662468557
 31
0.0
210
0.0
220
0.0
230
1.0
 40
0.1509348161
 41
0.2169868258380945
 42
0.2660379696714095
  0
ELLIPSE
  5
B3
330
1F
100
AcDbEntity
  8
0
  6
Continuous
 62
     7
370
    15
100
AcDbEllipse
 10
124.5861329723
 20
89.6710896425
 30
0.0
 11
22.64041454007862
 21
12.6590158178702
 31
0.0
210
0.0
220
0.0
230
1.0
 40
0.1509348161
 41
6.058252762347556
 42
6.06184659666818
  0
SPLINE
  5
B4
330
1F
100
AcDbEntity
  8
0
  6
Continuous
 62
     7
370
    15
100
AcDbSpline
210
0.0
220
0.0
230
1.0
 70
     8
 71
     3
 72
     8
 73
     4
 74
     0
 42
0.00000001
 43
0.00000001
 40
0.0
 40
0.0
 40
0.0
 40
0.0
 40
1.0
 40
1.0
 40
1.0
 40
1.0
 10
147.2724068965678
 20
101.4669979530011
 30
0.0
 10
147.1931095689363
 20
101.4061116570764
 30
0.0
 10
147.1295123745915
 20
101.3415814677159
 30
0.0
 10
147.0936858291322
 20
101.2710776729091
 30
0.0
  0
SPLINE
  5
B5
330
1F
100
AcDbEntity
  8
0
  6
Continuous
 62
     7
370
    15
100
AcDbSpline
210
0.0
220
0.0
230
1.0
 70
     8
 71
     3
 72
    12
 73
     8
 74
     0
 42
0.00000001
 43
0.00000001
 40
0.0
 40
0.0
 40
0.0
 40
0.0
 40
0.2499999999999986
 40
0.2499999999999986
 40
0.4999999999999971
 40
0.4999999999999971
 40
1.0
 40
1.0
 40
1.0
 40
1.0
 10
149.0224068965678
 20
101.382211264682
 30
0.0
 10
148.8803644933786
 20
101.3980369928582
 30
0.0
 10
148.7362463868744
 20
101.4090581266335
 30
0.0
 10
148.4464918732019
 20
101.4275944885007
 30
0.0
 10
148.3007499698431
 20
101.4348651942365
 30
0.0
 10
147.8620697306633
 20
101.4533260445645
 30
0.0
 10
147.5676941145921
 20
101.461204911388
 30
0.0
 10
147.2724068965678
 20
101.4669979530011
 30
0.0
  0
SPLINE
  5
B6
330
1F
100
AcDbEntity
  8
0
  6
Continuous
 62
     7
370
    15
100
AcDbSpline
210
0.0
220
0.0
230
1.0
 70
     8
 71
     3
 72
    20
 73
    16
 74
     0
 42
0.00000001
 43
0.00000001
 40
0.0
 40
0.0
 40
0.0
 40
0.0
 40
0.2499999999999996
 40
0.2499999999999996
 40
0.4999999999999991
 40
0.4999999999999991
 40
0.7499999999999987
 40
0.7499999999999987
 40
0.8749999999999971
 40
0.8749999999999971
 40
0.9374999999999983
 40
0.9374999999999983
 40
0.9687499999999991
 40
0.9687499999999991
 40
1.0
 40
1.0
 40
1.0
 40
1.0
 10
149.9224068965687
 20
102.1589415277706
 30
0.0
 10
149.9224068965687
 20
102.0983321280733
 30
0.0
 10
149.8970118769918
 20
102.0325061626697
 30
0.0
 10
149.8107186912098
 20
101.8984583933231
 30
0.0
 10
149.7500827125266
 20
101.8297630351813
 30
0.0
 10
149.6019809183053
 20
101.6893644835269
 30
0.0
 10
149.5152113115267
 20
101.6176609789455
 30
0.0
 10
149.3665735161975
 20
101.5114975771967
 30
0.0
 10
149.3142842993113
 20
101.4759692285651
 30
0.0
 10
149.2235204710014
 20
101.4262652980496
 30
0.0
 10
149.1911544785494
 20
101.4100043000345
 30
0.0
 10
149.1334653228832
 20
101.3908917316886
 30
0.0
 10
149.1124782949957
 20
101.385500589607
 30
0.0
 10
149.0671893160052
 20
101.3797632212145
 30
0.0
 10
149.0441750471667
 20
101.379785954868
 30
0.0
 10
149.0224068965671
 20
101.3822112646808
 30
0.0
  0
LINE
  5
B7
330
1F
100
AcDbEntity
  8
0
  6
Continuous
 62
     7
370
    15
100
AcDbLine
 10
149.9224066462
 20
102.1589418263
 30
0.0
 11
149.9224066462
 21
102.9886850477
 31
0.0
  0
SPLINE
  5
B8
330
1F
100
AcDbEntity
  8
0
  6
Continuous
 62
     7
370
    15
100
AcDbSpline
210
0.0
220
0.0
230
1.0
 70
     8
 71
     3
 72
    18
 73
    14
 74
     0
 42
0.00000001
 43
0.00000001
 40
0.0
 40
0.0
 40
0.0
 40
0.0
 40
0.0647987055308793
 40
0.1911457431666448
 40
0.3159453184352518
 40
0.3775977083606854
 40
0.4397856493455953
 40
0.5017220995336993
 40
0.5630628754677616
 40
0.6866516188868883
 40
0.8118021473332026
 40
0.9380327409414257
 40
1.0
 40
1.0
 40
1.0
 40
1.0
 10
157.4600537966851
 20
73.84733626109387
 30
0.0
 10
157.4494086698964
 20
73.8459015519858
 30
0.0
 10
157.4180072606479
 20
73.84166939122828
 30
0.0
 10
157.8368906088115
 20
73.90248672110621
 30
0.0
 10
158.4814542144701
 20
73.96803685436666
 30
0.0
 10
159.1351155713335
 20
73.99824144703398
 30
0.0
 10
159.6663005597975
 20
74.0018161729299
 30
0.0
 10
160.2177079511602
 20
73.98473571217308
 30
0.0
 10
160.9486097723441
 20
73.93171810576125
 30
0.0
 10
161.8104812741876
 20
73.81393399547218
 30
0.0
 10
162.5767856221123
 20
73.66139233873034
 30
0.0
 10
162.9772650722916
 20
73.56219942752803
 30
0.0
 10
162.9460075656465
 20
73.57014480017818
 30
0.0
 10
162.9357155140404
 20
73.57276094567801
 30
0.0
  0
SPLINE
  5
B9
330
1F
100
AcDbEntity
  8
0
  6
Continuous
 62
     7
370
    15
100
AcDbSpline
210
0.0
220
0.0
230
1.0
 70
     8
 71
     3
 72
    18
 73
    14
 74
     0
 42
0.00000001
 43
0.00000001
 40
0.0
 40
0.0
 40
0.0
 40
0.0
 40
0.0628581906661193
 40
0.188821099002829
 40
0.3136429384039809
 40
0.4369193679427552
 40
0.4982390324135774
 40
0.5602488727579926
 40
0.6224808204920839
 40
0.684256874301895
 40
0.8091590031135478
 40
0.9354526781227457
 40
1.0
 40
1.0
 40
1.0
 40
1.0
 10
162.9356358859603
 20
103.6299015716913
 30
0.0
 10
162.9462959087361
 20
103.6325452047749
 30
0.0
 10
162.978317785195
 20
103.640486472236
 30
0.0
 10
162.5728438768186
 20
103.5407924981896
 30
0.0
 10
161.8099070168931
 20
103.3883750532218
 30
0.0
 10
160.9485044521473
 20
103.2710952867943
 30
0.0
 10
160.2183776021117
 20
103.2181968314823
 30
0.0
 10
159.6665976747828
 20
103.2010923860668
 30
0.0
 10
159.1346301554312
 20
103.2046366651989
 30
0.0
 10
158.4800105390488
 20
103.2348273829049
 30
0.0
 10
157.8356048062941
 20
103.3004910025738
 30
0.0
 10
157.4181719673593
 20
103.3613164925545
 30
0.0
 10
157.4484844478755
 20
103.356829104795
 30
0.0
 10
157.4587369065646
 20
103.3553113551142
 30
0.0
  0
LINE
  5
BA
330
1F
100
AcDbEntity
  8
0
  6
Continuous
 62
     7
370
    15
100
AcDbLine
 10
146.3224071737
 20
76.3605772839
 30
0.0
 11
146.3224071737
 21
100.8703564615
 31
0.0
  0
SPLINE
  5
BB
330
1F
100
AcDbEntity
  8
0
  6
Continuous
 62
     7
370
    15
100
AcDbSpline
210
0.0
220
0.0
230
1.0
 70
     8
 71
     3
 72
     9
 73
     5
 74
     0
 42
0.00000001
 43
0.00000001
 40
0.0
 40
0.0
 40
0.0
 40
0.0
 40
0.3103163031043175
 40
1.0
 40
1.0
 40
1.0
 40
1.0
 10
146.4474782075648
 20
100.9204895557168
 30
0.0
 10
146.4396468347062
 20
100.9324906789665
 30
0.0
 10
146.4144100914856
 20
100.9711645195919
 30
0.0
 10
146.3853300912571
 20
100.952512628751
 30
0.0
 10
146.3652740891937
 20
100.9396487237218
 30
0.0
  0
SPLINE
  5
BC
330
1F
100
AcDbEntity
  8
0
  6
Continuous
 62
     7
370
    15
100
AcDbSpline
210
0.0
220
0.0
230
1.0
 70
     8
 71
     3
 72
     8
 73
     4
 74
     0
 42
0.00000001
 43
0.00000001
 40
0.0
 40
0.0
 40
0.0
 40
0.0
 40
1.0
 40
1.0
 40
1.0
 40
1.0
 10
146.3395602523452
 20
100.9346575019684
 30
0.0
 10
146.3287929631588
 20
100.9187627155103
 30
0.0
 10
146.3224068965677
 20
100.8969191299297
 30
0.0
 10
146.3224068965677
 20
100.8703566393044
 30
0.0
  0
SPLINE
  5
BD
330
1F
100
AcDbEntity
  8
0
  6
Continuous
 62
     7
370
    15
100
AcDbSpline
210
0.0
220
0.0
230
1.0
 70
     8
 71
     3
 72
    22
 73
    18
 74
     0
 42
0.00000001
 43
0.00000001
 40
0.0
 40
0.0
 40
0.0
 40
0.0
 40
0.2499999999999997
 40
0.2499999999999997
 40
0.3749999999999991
 40
0.3749999999999991
 40
0.4374999999999988
 40
0.4374999999999988
 40
0.4999999999999985
 40
0.4999999999999985
 40
0.5624999999999982
 40
0.5624999999999982
 40
0.624999999999998
 40
0.624999999999998
 40
0.7499999999999987
 40
0.7499999999999987
 40
1.0
 40
1.0
 40
1.0
 40
1.0
 10
147.0823769429577
 20
101.2490338094111
 30
0.0
 10
147.050409655509
 20
101.1873031816524
 30
0.0
 10
147.0129005711036
 20
101.1232154827875
 30
0.0
 10
146.9354509521709
 20
101.0190509089797
 30
0.0
 10
146.9060640249431
 20
100.9828478793911
 30
0.0
 10
146.8507620571065
 20
100.9262990636478
 30
0.0
 10
146.8303335504795
 20
100.9069178542979
 30
0.0
 10
146.781745518241
 20
100.867291388338
 30
0.0
 10
146.753333791881
 20
100.8471758165391
 30
0.0
 10
146.6941257076048
 20
100.8157961861012
 30
0.0
 10
146.6665810243255
 20
100.8064629557701
 30
0.0
 10
146.622239378531
 20
100.7978319887775
 30
0.0
 10
146.6047765141132
 20
100.7978034449172
 30
0.0
 10
146.5594521418761
 20
100.8029828286699
 30
0.0
 10
146.5388590291857
 20
100.8132536088208
 30
0.0
 10
146.4860389377795
 20
100.8504134509389
 30
0.0
 10
146.4646510671124
 20
100.8842431666363
 30
0.0
 10
146.4474781911871
 20
100.9204894879553
 30
0.0
  0
SPLINE
  5
BE
330
1F
100
AcDbEntity
  8
0
  6
Continuous
 62
     7
370
    15
100
AcDbSpline
210
0.0
220
0.0
230
1.0
 70
     8
 71
     3
 72
    24
 73
    20
 74
     0
 42
0.00000001
 43
0.00000001
 40
0.0
 40
0.0
 40
0.0
 40
0.0
 40
0.2499999999999973
 40
0.2499999999999973
 40
0.3749999999999957
 40
0.3749999999999957
 40
0.499999999999994
 40
0.499999999999994
 40
0.562499999999994
 40
0.562499999999994
 40
0.624999999999994
 40
0.624999999999994
 40
0.687499999999994
 40
0.687499999999994
 40
0.749999999999994
 40
0.749999999999994
 40
0.874999999999997
 40
0.874999999999997
 40
1.0
 40
1.0
 40
1.0
 40
1.0
 10
146.3838539553624
 20
76.37230535911112
 30
0.0
 10
146.3952360850891
 20
76.42270303785624
 30
0.0
 10
146.4100605698343
 20
76.47105110943271
 30
0.0
 10
146.4450944244112
 20
76.53595369933407
 30
0.0
 10
146.4589832419161
 20
76.55636743892174
 30
0.0
 10
146.4946795833464
 20
76.59193827881276
 30
0.0
 10
146.5159166599849
 20
76.60744823615507
 30
0.0
 10
146.5624440962314
 20
76.62086185690116
 30
0.0
 10
146.5802987656714
 20
76.62362140974413
 30
0.0
 10
146.6254320622029
 20
76.62139551927046
 30
0.0
 10
146.6538555687623
 20
76.61605480499934
 30
0.0
 10
146.7217339709596
 20
76.58853292073793
 30
0.0
 10
146.7606264611275
 20
76.56549550264577
 30
0.0
 10
146.8257427651667
 20
76.51767255223405
 30
0.0
 10
146.8533887482383
 20
76.49314881318978
 30
0.0
 10
146.9273957608165
 20
76.42147988893097
 30
0.0
 10
146.9640201597429
 20
76.37740455533151
 30
0.0
 10
147.0296021231857
 20
76.29148752332293
 30
0.0
 10
147.0574811445748
 20
76.25010345773356
 30
0.0
 10
147.0823769429558
 20
76.20996181637409
 30
0.0
  0
SPLINE
  5
BF
330
1F
100
AcDbEntity
  8
0
  6
Continuous
 62
     7
370
    15
100
AcDbSpline
210
0.0
220
0.0
230
1.0
 70
     8
 71
     3
 72
     9
 73
     5
 74
     0
 42
0.00000001
 43
0.00000001
 40
0.0
 40
0.0
 40
0.0
 40
0.0
 40
0.4719344694740843
 40
1.0
 40
1.0
 40
1.0
 40
1.0
 10
146.3430825348858
 20
76.33744788777854
 30
0.0
 10
146.3487730439783
 20
76.32872188559236
 30
0.0
 10
146.36083088137
 20
76.31023202576945
 30
0.0
 10
146.3758977045706
 20
76.35085423868621
 30
0.0
 10
146.3838539745573
 20
76.37230542910125
 30
0.0
  0
LINE
  5
C0
330
1F
100
AcDbEntity
  8
0
  6
Continuous
 62
     7
370
    15
100
AcDbLine
 10
185.5724066224
 20
108.0885934965
 30
0.0
 11
184.2575672742
 21
108.0885934965
 31
0.0
  0
LINE
  5
C1
330
1F
100
AcDbEntity
  8
0
  6
Continuous
 62
     7
370
    15
100
AcDbLine
 10
184.2575672742
 20
104.7128266976
 30
0.0
 11
185.5724066224
 21
104.7128266976
 31
0.0
  0
LINE
  5
C2
330
1F
100
AcDbEntity
  8
0
  6
Continuous
 62
     7
370
    15
100
AcDbLine
 10
184.2575672742
 20
104.7128266976
 30
0.0
 11
184.2575672742
 21
108.0885934965
 31
0.0
  0
SPLINE
  5
C3
330
1F
100
AcDbEntity
  8
0
  6
Continuous
 62
     7
370
    15
100
AcDbSpline
210
0.0
220
0.0
230
1.0
 70
     8
 71
     3
 72
    10
 73
     6
 74
     0
 42
0.00000001
 43
0.00000001
 40
0.0
 40
0.0
 40
0.0
 40
0.0
 40
0.5
 40
0.5
 40
1.0
 40
1.0
 40
1.0
 40
1.0
 10
186.1724068965678
 20
107.4722944391657
 30
0.0
 10
186.1724068965678
 20
107.6307288820535
 30
0.0
 10
186.1102456800848
 20
107.7897495768555
 30
0.0
 10
185.8897363394132
 20
108.0197574011111
 30
0.0
 10
185.730821236468
 20
108.0885926759279
 30
0.0
 10
185.5724068965678
 20
108.0885926759279
 30
0.0
  0
LINE
  5
C4
330
1F
100
AcDbEntity
  8
0
  6
Continuous
 62
     7
370
    15
100
AcDbLine
 10
186.1724074658
 20
103.9616749943
 30
0.0
 11
186.1724074658
 21
107.472294508
 31
0.0
  0
SPLINE
  5
C5
330
1F
100
AcDbEntity
  8
0
  6
Continuous
 62
     7
370
    15
100
AcDbSpline
210
0.0
220
0.0
230
1.0
 70
     8
 71
     3
 72
    12
 73
     8
 74
     0
 42
0.00000001
 43
0.00000001
 40
0.0
 40
0.0
 40
0.0
 40
0.0
 40
0.25
 40
0.25
 40
0.5
 40
0.5
 40
1.0
 40
1.0
 40
1.0
 40
1.0
 10
185.5724068965678
 20
104.7128264071003
 30
0.0
 10
185.6616952556115
 20
104.7128264071003
 30
0.0
 10
185.7497540865137
 20
104.6872017744955
 30
0.0
 10
185.9024077997629
 20
104.5986584015637
 30
0.0
 10
185.9682012931048
 20
104.535775918449
 30
0.0
 10
186.1236419398209
 20
104.3184147305155
 30
0.0
 10
186.1724068965677
 20
104.1397677205041
 30
0.0
 10
186.1724068965677
 20
103.9616745653284
 30
0.0
  0
SPLINE
  5
C6
330
1F
100
AcDbEntity
  8
0
  6
Continuous
 62
     7
370
    15
100
AcDbSpline
210
0.0
220
0.0
230
1.0
 70
     8
 71
     3
 72
     8
 73
     4
 74
     0
 42
0.00000001
 43
0.00000001
 40
0.0
 40
0.0
 40
0.0
 40
0.0
 40
1.0
 40
1.0
 40
1.0
 40
1.0
 10
180.1872471976743
 20
104.7128264071003
 30
0.0
 10
180.526670238956
 20
103.9830355455809
 30
0.0
 10
180.859180982451
 20
103.2508671901592
 30
0.0
 10
181.1824068965677
 20
102.5155053054782
 30
0.0
  0
LINE
  5
C7
330
1F
100
AcDbEntity
  8
0
  6
Continuous
 62
     7
370
    15
100
AcDbLine
 10
181.182407188
 20
102.5155051933
 30
0.0
 11
181.182407188
 21
102.1172642098
 31
0.0
  0
SPLINE
  5
C8
330
1F
100
AcDbEntity
  8
0
  6
Continuous
 62
     7
370
    15
100
AcDbSpline
210
0.0
220
0.0
230
1.0
 70
     8
 71
     3
 72
    12
 73
     8
 74
     0
 42
0.00000001
 43
0.00000001
 40
0.0
 40
0.0
 40
0.0
 40
0.0
 40
0.5000000000000032
 40
0.5000000000000032
 40
0.7500000000000016
 40
0.7500000000000016
 40
1.0
 40
1.0
 40
1.0
 40
1.0
 10
181.1824068965678
 20
102.1172645862775
 30
0.0
 10
181.1824068965678
 20
101.9314985096994
 30
0.0
 10
181.2289526418243
 20
101.7463251977092
 30
0.0
 10
181.3790535902141
 20
101.5119145943656
 30
0.0
 10
181.4429904065081
 20
101.4418186969535
 30
0.0
 10
181.5983581382378
 20
101.3391381791495
 30
0.0
 10
181.6896014211557
 20
101.308428266174
 30
0.0
 10
181.7824068965677
 20
101.308428266174
 30
0.0
  0
LINE
  5
C9
330
1F
100
AcDbEntity
  8
0
  6
Continuous
 62
     7
370
    15
100
AcDbLine
 10
181.7824071001
 20
101.3084282489
 30
0.0
 11
182.6624072816
 21
101.3084282489
 31
0.0
  0
SPLINE
  5
CA
330
1F
100
AcDbEntity
  8
0
  6
Continuous
 62
     7
370
    15
100
AcDbSpline
210
0.0
220
0.0
230
1.0
 70
     8
 71
     3
 72
    12
 73
     8
 74
     0
 42
0.00000001
 43
0.00000001
 40
0.0
 40
0.0
 40
0.0
 40
0.0
 40
0.25
 40
0.25
 40
0.5
 40
0.5
 40
1.0
 40
1.0
 40
1.0
 40
1.0
 10
182.6624068965677
 20
101.3084282661741
 30
0.0
 10
182.7549488632895
 20
101.3084282661741
 30
0.0
 10
182.847158240434
 20
101.3394616130903
 30
0.0
 10
183.0022952008108
 20
101.4422724789151
 30
0.0
 10
183.0661050982718
 20
101.5124452932608
 30
0.0
 10
183.215231534073
 20
101.7453577767888
 30
0.0
 10
183.2624068965677
 20
101.9321531388587
 30
0.0
 10
183.2624068965677
 20
102.1172645862775
 30
0.0
  0
LINE
  5
CB
330
1F
100
AcDbEntity
  8
0
  6
Continuous
 62
     7
370
    15
100
AcDbLine
 10
183.2624062624
 20
102.1172642098
 30
0.0
 11
183.2624062624
 21
102.5155051933
 31
0.0
  0
SPLINE
  5
CC
330
1F
100
AcDbEntity
  8
0
  6
Continuous
 62
     7
370
    15
100
AcDbSpline
210
0.0
220
0.0
230
1.0
 70
     8
 71
     3
 72
     8
 73
     4
 74
     0
 42
0.00000001
 43
0.00000001
 40
0.0
 40
0.0
 40
0.0
 40
0.0
 40
1.0
 40
1.0
 40
1.0
 40
1.0
 10
183.2624068965677
 20
102.5155053054782
 30
0.0
 10
183.5859644548226
 20
103.2516217041008
 30
0.0
 10
183.9184587750396
 20
103.9837132995194
 30
0.0
 10
184.2575665954612
 20
104.7128264071003
 30
0.0
  0
LINE
  5
CD
330
1F
100
AcDbEntity
  8
0
  6
Continuous
 62
     7
370
    15
100
AcDbLine
 10
186.1724074658
 20
103.9616749943
 30
0.0
 11
186.1724074658
 21
101.4788202332
 31
0.0
  0
SPLINE
  5
CE
330
1F
100
AcDbEntity
  8
0
  6
Continuous
 62
     7
370
    15
100
AcDbSpline
210
0.0
220
0.0
230
1.0
 70
     8
 71
     3
 72
     8
 73
     4
 74
     0
 42
0.00000001
 43
0.00000001
 40
0.0
 40
0.0
 40
0.0
 40
0.0
 40
1.0
 40
1.0
 40
1.0
 40
1.0
 10
181.1824068965678
 20
106.315094101553
 30
0.0
 10
180.8513865655481
 20
106.9066497980107
 30
0.0
 10
180.519605294064
 20
107.4977824622559
 30
0.0
 10
180.1872471976743
 20
108.0885926759279
 30
0.0
  0
LINE
  5
CF
330
1F
100
AcDbEntity
  8
0
  6
Continuous
 62
     7
370
    15
100
AcDbLine
 10
181.182407188
 20
102.5155051933
 30
0.0
 11
181.182407188
 21
106.3150945441
 31
0.0
  0
SPLINE
  5
D0
330
1F
100
AcDbEntity
  8
0
  6
Continuous
 62
     7
370
    15
100
AcDbSpline
210
0.0
220
0.0
230
1.0
 70
     8
 71
     3
 72
     8
 73
     4
 74
     0
 42
0.00000001
 43
0.00000001
 40
0.0
 40
0.0
 40
0.0
 40
0.0
 40
1.0
 40
1.0
 40
1.0
 40
1.0
 10
184.2575665954612
 20
108.0885926759279
 30
0.0
 10
183.9252084990715
 20
107.4977824622559
 30
0.0
 10
183.5934272275874
 20
106.9066497980107
 30
0.0
 10
183.2624068965677
 20
106.315094101553
 30
0.0
  0
LINE
  5
D1
330
1F
100
AcDbEntity
  8
0
  6
Continuous
 62
     7
370
    15
100
AcDbLine
 10
183.2624062624
 20
102.5155051933
 30
0.0
 11
183.2624062624
 21
106.3150945441
 31
0.0
  0
LINE
  5
D2
330
1F
100
AcDbEntity
  8
0
  6
Continuous
 62
     7
370
    15
100
AcDbLine
 10
182.6624072816
 20
105.5014166371
 30
0.0
 11
181.7824071001
 21
105.5014166371
 31
0.0
  0
SPLINE
  5
D3
330
1F
100
AcDbEntity
  8
0
  6
Continuous
 62
     7
370
    15
100
AcDbSpline
210
0.0
220
0.0
230
1.0
 70
    24
 71
     3
 72
    12
 73
     8
 74
     0
 42
0.00000001
 43
0.00000001
 40
0.0
 40
0.0
 40
0.0
 40
0.0
 40
0.5
 40
0.5
 40
0.75
 40
0.75
 40
1.0
 40
1.0
 40
1.0
 40
1.0
 10
183.0140625108178
 20
105.5014174060228
 30
0.0
 10
182.9799167625268
 20
105.5014174060228
 30
0.0
 10
182.9407236041218
 20
105.5014174060228
 30
0.0
 10
182.862875945468
 20
105.5014174060228
 30
0.0
 10
182.8334714866827
 20
105.5014174060228
 30
0.0
 10
182.7604639653768
 20
105.5014174060228
 30
0.0
 10
182.713558647569
 20
105.5014174060228
 30
0.0
 10
182.6624068965677
 20
105.5014174060228
 30
0.0
  0
SPLINE
  5
D4
330
1F
100
AcDbEntity
  8
0
  6
Continuous
 62
     7
370
    15
100
AcDbSpline
210
0.0
220
0.0
230
1.0
 70
     8
 71
     3
 72
    10
 73
     6
 74
     0
 42
0.00000001
 43
0.00000001
 40
0.0
 40
0.0
 40
0.0
 40
0.0
 40
0.5
 40
0.5
 40
1.0
 40
1.0
 40
1.0
 40
1.0
 10
183.2624068965677
 20
106.0040213778415
 30
0.0
 10
183.2624068965676
 20
105.907478830365
 30
0.0
 10
183.2404662739862
 20
105.8110176300949
 30
0.0
 10
183.1543360885943
 20
105.6356150358506
 30
0.0
 10
183.0912537814506
 20
105.5591995034836
 30
0.0
 10
183.0140625108178
 20
105.5014174060228
 30
0.0
  0
SPLINE
  5
D5
330
1F
100
AcDbEntity
  8
0
  6
Continuous
 62
     7
370
    15
100
AcDbSpline
210
0.0
220
0.0
230
1.0
 70
     8
 71
     3
 72
    10
 73
     6
 74
     0
 42
0.00000001
 43
0.00000001
 40
0.0
 40
0.0
 40
0.0
 40
0.0
 40
0.5
 40
0.5
 40
1.0
 40
1.0
 40
1.0
 40
1.0
 10
181.4307512823177
 20
105.5014174060228
 30
0.0
 10
181.3534265504435
 20
105.5592994068844
 30
0.0
 10
181.290046724907
 20
105.6363727515183
 30
0.0
 10
181.204476276134
 20
105.8108758097122
 30
0.0
 10
181.1824068965678
 20
105.9076810131926
 30
0.0
 10
181.1824068965678
 20
106.0040213778426
 30
0.0
  0
SPLINE
  5
D6
330
1F
100
AcDbEntity
  8
0
  6
Continuous
 62
     7
370
    15
100
AcDbSpline
210
0.0
220
0.0
230
1.0
 70
    24
 71
     3
 72
    12
 73
     8
 74
     0
 42
0.00000001
 43
0.00000001
 40
0.0
 40
0.0
 40
0.0
 40
0.0
 40
0.2499999999999989
 40
0.2499999999999989
 40
0.4999999999999978
 40
0.4999999999999978
 40
1.0
 40
1.0
 40
1.0
 40
1.0
 10
181.7824068965677
 20
105.5014174060228
 30
0.0
 10
181.7308146962932
 20
105.5014174060228
 30
0.0
 10
181.6839096874986
 20
105.5014174060228
 30
0.0
 10
181.6105759616221
 20
105.5014174060228
 30
0.0
 10
181.5813461321731
 20
105.5014174060228
 30
0.0
 10
181.5031133521102
 20
105.5014174060228
 30
0.0
 10
181.4646791942026
 20
105.5014174060228
 30
0.0
 10
181.4307512823177
 20
105.5014174060228
 30
0.0
  0
LINE
  5
D7
330
1F
100
AcDbEntity
  8
0
  6
Continuous
 62
     7
370
    15
100
AcDbLine
 10
147.2724064913
 20
101.4814176918
 30
0.0
 11
147.2724064913
 21
101.4669980244
 31
0.0
  0
LINE
  5
D8
330
1F
100
AcDbEntity
  8
0
  6
Continuous
 62
     7
370
    15
100
AcDbLine
 10
147.3745986547
 20
75.7214171202
 30
0.0
 11
147.3745986547
 21
75.7517838241
 31
0.0
  0
LWPOLYLINE
  5
D9
330
1F
100
AcDbEntity
  8
0
  6
HIDDEN
 62
     7
370
     0
100
AcDbPolyline
 90
       34
 70
   128
 43
0.0
 10
240.7894938912
 20
79.1638703407
 10
240.7649740305
 20
79.0287838639
 10
240.7365277138
 20
79.0193970637
 10
240.7051756706
 20
79.1360489414
 10
240.6720652904
 20
79.3745243312
 10
240.638373765
 20
79.7262029113
 10
240.6053378906
 20
80.1783758537
 10
240.5741423096
 20
80.7146984474
 10
240.5459120598
 20
81.3157880069
 10
240.5216678705
 20
81.9599186392
 10
240.5022889104
 20
82.6238105395
 10
240.4884829845
 20
83.2834686474
 10
240.4807343807
 20
83.915051105
 10
240.4793336715
 20
84.4957307303
 10
240.4843255605
 20
85.0045206347
 10
240.4955312338
 20
85.4230316212
 10
240.5125483598
 20
85.7361376141
 10
240.5347585406
 20
85.932522113
 10
240.5613645639
 20
86.0050872756
 10
240.5913978543
 20
85.9512107303
 10
240.6237780776
 20
85.7728391742
 10
240.657328042
 20
85.4764199206
 10
240.6908407535
 20
85.0726659731
 10
240.7231092181
 20
84.5761699924
 10
240.752956244
 20
84.0048771673
 10
240.7793089475
 20
83.3794349195
 10
240.8012211051
 20
82.722448776
 10
240.8178880539
 20
82.0576637374
 10
240.8287137475
 20
81.4091069945
 10
240.8333107557
 20
80.8002185398
 10
240.8315077152
 20
80.2530064569
 10
240.8233716812
 20
79.7872464494
 10
240.8091932263
 20
79.4197745011
 10
240.7894938912
 20
79.1638703407
  0
LWPOLYLINE
  5
DA
330
1F
100
AcDbEntity
  8
0
  6
HIDDEN
 62
     7
370
     0
100
AcDbPolyline
 90
       26
 70
   128
 43
0.0
 10
242.1344056453
 20
80.5381383137
 10
242.1144604411
 20
80.4470139877
 10
242.0907526936
 20
80.4876382784
 10
242.0647576179
 20
80.6574602933
 10
242.0381217923
 20
80.9458098696
 10
242.0125066962
 20
81.3345671953
 10
241.9895365562
 20
81.7993064733
 10
241.9706418838
 20
82.3108260841
 10
241.9570147719
 20
82.8369856202
 10
241.9495120373
 20
83.3447240615
 10
241.9486030664
 20
83.8021384874
 10
241.9543549146
 20
84.1804882833
 10
241.9663876023
 20
84.4559995779
 10
241.9839635219
 20
84.6113618785
 10
242.0059650864
 20
84.6368125961
 10
242.0310139384
 20
84.53075265
 10
242.0575380053
 20
84.2998461188
 10
242.0838683572
 20
83.9586020769
 10
242.1083584156
 20
83.5284618982
 10
242.1294584598
 20
83.0364530296
 10
242.1458422866
 20
82.5134897926
 10
242.1564966168
 20
81.9924320416
 10
242.1607285466
 20
81.506019956
 10
242.1582922067
 20
81.0848167488
 10
242.1493291583
 20
80.7552873479
 10
242.1344056453
 20
80.5381383137
  0
LWPOLYLINE
  5
DB
330
1F
100
AcDbEntity
  8
0
  6
HIDDEN
 62
     7
370
     0
100
AcDbPolyline
 90
       26
 70
   128
 43
0.0
 10
247.6976498689
 20
80.6859494509
 10
247.6777046647
 20
80.5948241935
 10
247.6539894666
 20
80.6354494156
 10
247.6280018415
 20
80.8052714304
 10
247.6013585653
 20
81.0936200754
 10
247.5757509198
 20
81.4823778668
 10
247.5527733292
 20
81.9471171447
 10
247.5338786568
 20
82.4586367556
 10
247.5202589955
 20
82.9847962917
 10
247.5127562608
 20
83.4925347329
 10
247.51184729
 20
83.9499491588
 10
247.5175916877
 20
84.3282989548
 10
247.5296318259
 20
84.6038102494
 10
247.5472002949
 20
84.75917255
 10
247.5692018595
 20
84.7846232676
 10
247.594258162
 20
84.6785633215
 10
247.6207822289
 20
84.4476567903
 10
247.6471125808
 20
84.1064127484
 10
247.6716026392
 20
83.6762725697
 10
247.6927026834
 20
83.1842632355
 10
247.7090865102
 20
82.6613004641
 10
247.7197333898
 20
82.1402427131
 10
247.7239727702
 20
81.6538306275
 10
247.7215364303
 20
81.2326274202
 10
247.7125733819
 20
80.9030980193
 10
247.6976498689
 20
80.6859494509
  0
LINE
  5
DC
330
1F
100
AcDbEntity
  8
0
  6
HIDDEN
 62
     7
370
     0
100
AcDbLine
 10
238.2224037971
 20
76.6014173017
 30
0.0
 11
238.2224037971
 21
88.601417406
 31
0.0
  0
LINE
  5
DD
330
1F
100
AcDbEntity
  8
0
  6
HIDDEN
 62
     7
370
     0
100
AcDbLine
 10
240.6516954031
 20
79.1014177115
 30
0.0
 11
240.6516954031
 21
86.1014174619
 31
0.0
  0
CIRCLE
  5
DE
330
1F
100
AcDbEntity
  8
0
  6
HIDDEN
 62
     7
370
     0
100
AcDbCircle
 10
214.2224068966
 20
68.601417406
 30
0.0
 40
5.000000000000009
  0
CIRCLE
  5
DF
330
1F
100
AcDbEntity
  8
0
  6
HIDDEN
 62
     7
370
     0
100
AcDbCircle
 10
214.2224068966
 20
68.601417406
 30
0.0
 40
3.500000000000007
  0
CIRCLE
  5
E0
330
1F
100
AcDbEntity
  8
0
  6
HIDDEN
 62
     7
370
     0
100
AcDbCircle
 10
236.2224068966
 20
68.601417406
 30
0.0
 40
5.000000000000009
  0
CIRCLE
  5
E1
330
1F
100
AcDbEntity
  8
0
  6
HIDDEN
 62
     7
370
     0
100
AcDbCircle
 10
236.2224068966
 20
68.601417406
 30
0.0
 40
3.499999999999993
  0
LINE
  5
E2
330
1F
100
AcDbEntity
  8
0
  6
HIDDEN
 62
     7
370
     0
100
AcDbLine
 10
207.519213083
 20
58.6014180766
 30
0.0
 11
207.519213083
 21
64.6014171974
 31
0.0
  0
SPLINE
  5
E3
330
1F
100
AcDbEntity
  8
0
  6
HIDDEN
 62
     7
370
     0
100
AcDbSpline
210
0.0
220
0.0
230
1.0
 70
     8
 71
     3
 72
    14
 73
    10
 74
     0
 42
0.00000001
 43
0.00000001
 40
0.0
 40
0.0
 40
0.0
 40
0.0
 40
0.1249999999999999
 40
0.1249999999999999
 40
0.2499999999999998
 40
0.2499999999999998
 40
0.4999999999999999
 40
0.4999999999999999
 40
1.0
 40
1.0
 40
1.0
 40
1.0
 10
205.4796558732378
 20
93.60141740602279
 30
0.0
 10
205.4294419050433
 20
92.3874980664209
 30
0.0
 10
205.3970459819388
 20
91.17151337418707
 30
0.0
 10
205.3694906865283
 20
88.73522776940405
 30
0.0
 10
205.3743927042157
 20
87.51627082848313
 30
0.0
 10
205.4444834969668
 20
83.86893476125726
 30
0.0
 10
205.5654703568313
 20
81.44545170295848
 30
0.0
 10
206.122162773328
 20
74.19606716420085
 30
0.0
 10
206.7491989914201
 20
69.39096923792424
 30
0.0
 10
207.5192129186991
 20
64.60141740602279
 30
0.0
  0
SPLINE
  5
E4
330
1F
100
AcDbEntity
  8
0
  6
HIDDEN
 62
     7
370
     0
100
AcDbSpline
210
0.0
220
0.0
230
1.0
 70
     8
 71
     3
 72
    12
 73
     8
 74
     0
 42
0.00000001
 43
0.00000001
 40
0.0
 40
0.0
 40
0.0
 40
0.0
 40
0.25
 40
0.25
 40
0.5
 40
0.5
 40
1.0
 40
1.0
 40
1.0
 40
1.0
 10
203.8345925284037
 20
108.6014174060228
 30
0.0
 10
203.7960173469009
 20
107.3417848349065
 30
0.0
 10
203.8062943199149
 20
106.0848310847527
 30
0.0
 10
203.9221179870041
 20
103.5761477250871
 30
0.0
 10
204.0275163708261
 20
102.324409982943
 30
0.0
 10
204.4674713020273
 20
98.57598315714219
 30
0.0
 10
204.9246657879938
 20
96.08601895765756
 30
0.0
 10
205.4796558732378
 20
93.60141740602279
 30
0.0
  0
LINE
  5
E5
330
1F
100
AcDbEntity
  8
0
  6
HIDDEN
 62
     7
370
     0
100
AcDbLine
 10
180.1872471075
 20
104.7128266976
 30
0.0
 11
180.1872471075
 21
100.4514177651
 31
0.0
  0
LINE
  5
E6
330
1F
100
AcDbEntity
  8
0
  6
HIDDEN
 62
     7
370
     0
100
AcDbLine
 10
238.2224037971
 20
88.601417406
 30
0.0
 11
238.2224037971
 21
76.6014173017
 31
0.0
  0
LINE
  5
E7
330
1F
100
AcDbEntity
  8
0
  6
HIDDEN
 62
     7
370
     0
100
AcDbLine
 10
186.1724074658
 20
101.4788202332
 30
0.0
 11
186.1724074658
 21
100.4514177651
 31
0.0
  0
LINE
  5
E8
330
1F
100
AcDbEntity
  8
0
  6
HIDDEN
 62
     7
370
     0
100
AcDbLine
 10
200.4224084046
 20
77.3629178615
 30
0.0
 11
200.4224084046
 21
73.6222681911
 31
0.0
  0
SPLINE
  5
E9
330
1F
100
AcDbEntity
  8
0
  6
HIDDEN
 62
     7
370
     0
100
AcDbSpline
210
0.0
220
0.0
230
1.0
 70
     8
 71
     3
 72
    12
 73
     8
 74
     0
 42
0.00000001
 43
0.00000001
 40
0.0
 40
0.0
 40
0.0
 40
0.0
 40
0.5000000000000036
 40
0.5000000000000036
 40
0.7500000000000018
 40
0.7500000000000018
 40
1.0
 40
1.0
 40
1.0
 40
1.0
 10
198.4419479508155
 20
78.6014174060228
 30
0.0
 10
198.6748137773586
 20
78.30590609800072
 30
0.0
 10
198.9503644623858
 20
78.04663996566984
 30
0.0
 10
199.4529553545167
 20
77.7237839267639
 30
0.0
 10
199.6309348432291
 20
77.63035723076848
 30
0.0
 10
200.0100450136958
 20
77.47303006355986
 30
0.0
 10
200.2140764084936
 20
77.40863025553502
 30
0.0
 10
200.4224068965678
 20
77.36291773611585
 30
0.0
  0
SPLINE
  5
EA
330
1F
100
AcDbEntity
  8
0
  6
HIDDEN
 62
     7
370
     0
100
AcDbSpline
210
0.0
220
0.0
230
1.0
 70
     8
 71
     3
 72
    22
 73
    18
 74
     0
 42
0.00000001
 43
0.00000001
 40
0.0
 40
0.0
 40
0.0
 40
0.0
 40
0.0256276648774541
 40
0.0513545002977205
 40
0.1204898840141138
 40
0.1914501519106877
 40
0.2642213205179869
 40
0.3388245469146633
 40
0.4168607145390242
 40
0.4971237459319411
 40
0.5755303303044722
 40
0.6564237404713502
 40
0.7312869858646148
 40
0.8084840423254046
 40
0.8807632336489809
 40
0.9551413976792797
 40
1.0
 40
1.0
 40
1.0
 40
1.0
 10
200.4224084045653
 20
73.62226819109942
 30
0.0
 10
200.3473904345393
 20
73.61460419248826
 30
0.0
 10
200.1970641998841
 20
73.59924653813931
 30
0.0
 10
199.8520299881678
 20
73.55223253707265
 30
0.0
 10
199.395159540139
 20
73.46768909398102
 30
0.0
 10
198.8593283343775
 20
73.32833456845746
 30
0.0
 10
198.3733353564801
 20
73.16397643285289
 30
0.0
 10
197.9488070310004
 20
72.98269016422444
 30
0.0
 10
197.6018451693509
 20
72.79448114330346
 30
0.0
 10
197.3552246724018
 20
72.6135957723051
 30
0.0
 10
197.2220719060752
 20
72.45118904930722
 30
0.0
 10
197.212779575242
 20
72.32001699173186
 30
0.0
 10
197.3246509948541
 20
72.22082492418706
 30
0.0
 10
197.5440881787119
 20
72.15518755338863
 30
0.0
 10
197.8708756345348
 20
72.11732232050947
 30
0.0
 10
198.2209817488692
 20
72.1021569464793
 30
0.0
 10
198.4932887949576
 20
72.102623902498
 30
0.0
 10
198.5957346584563
 20
72.1027995781305
 30
0.0
  0
SPLINE
  5
EB
330
1F
100
AcDbEntity
  8
0
  6
HIDDEN
 62
     7
370
     0
100
AcDbSpline
210
0.0
220
0.0
230
1.0
 70
     8
 71
     3
 72
    26
 73
    22
 74
     0
 42
0.00000001
 43
0.00000001
 40
0.0
 40
0.0
 40
0.0
 40
0.0
 40
0.1249999999999992
 40
0.1249999999999992
 40
0.2499999999999986
 40
0.2499999999999986
 40
0.3749999999999979
 40
0.3749999999999979
 40
0.4374999999999976
 40
0.4374999999999976
 40
0.4999999999999972
 40
0.4999999999999972
 40
0.5624999999999969
 40
0.5624999999999969
 40
0.6249999999999967
 40
0.6249999999999967
 40
0.7499999999999978
 40
0.7499999999999978
 40
0.8749999999999989
 40
0.8749999999999989
 40
1.0
 40
1.0
 40
1.0
 40
1.0
 10
216.3224068965678
 20
86.11829472207936
 30
0.0
 10
216.4261310286938
 20
86.27624650144257
 30
0.0
 10
216.5335443327978
 20
86.4525402025812
 30
0.0
 10
216.7638145340269
 20
86.83635225899702
 30
0.0
 10
216.8807705905452
 20
87.03356577301854
 30
0.0
 10
217.119776477967
 20
87.43029613688908
 30
0.0
 10
217.2384386338956
 20
87.62115206933528
 30
0.0
 10
217.4008790787599
 20
87.90309499525107
 30
0.0
 10
217.4517282294352
 20
87.99511938153464
 30
0.0
 10
217.5321591966985
 20
88.18414535157392
 30
0.0
 10
217.5601746299299
 20
88.28104069549121
 30
0.0
 10
217.5599434108832
 20
88.48290258229619
 30
0.0
 10
217.5316674215361
 20
88.58240293082223
 30
0.0
 10
217.4508258943096
 20
88.77004580105897
 30
0.0
 10
217.4000580999714
 20
88.8572819649659
 30
0.0
 10
217.2387328180538
 20
89.1029143432522
 30
0.0
 10
217.1182376829244
 20
89.24522779654151
 30
0.0
 10
216.8825317751895
 20
89.46602304410636
 30
0.0
 10
216.7627464468938
 20
89.54663793413577
 30
0.0
 10
216.5363376607689
 20
89.62792648816084
 30
0.0
 10
216.4261132680339
 20
89.63035940623142
 30
0.0
 10
216.3224068965678
 20
89.59182878808191
 30
0.0
  0
SPLINE
  5
EC
330
1F
100
AcDbEntity
  8
0
  6
HIDDEN
 62
     7
370
     0
100
AcDbSpline
210
0.0
220
0.0
230
1.0
 70
     8
 71
     3
 72
    46
 73
    42
 74
     0
 42
0.00000001
 43
0.00000001
 40
0.0
 40
0.0
 40
0.0
 40
0.0
 40
0.1250000000000047
 40
0.1250000000000047
 40
0.1875000000000061
 40
0.1875000000000061
 40
0.2500000000000076
 40
0.2500000000000076
 40
0.2812500000000075
 40
0.2812500000000075
 40
0.3125000000000074
 40
0.3125000000000074
 40
0.3437500000000073
 40
0.3437500000000073
 40
0.3750000000000072
 40
0.3750000000000072
 40
0.4062500000000071
 40
0.4062500000000071
 40
0.437500000000007
 40
0.437500000000007
 40
0.5000000000000064
 40
0.5000000000000064
 40
0.5312500000000062
 40
0.5312500000000062
 40
0.5625000000000059
 40
0.5625000000000059
 40
0.5937500000000057
 40
0.5937500000000057
 40
0.6250000000000053
 40
0.6250000000000053
 40
0.6562500000000051
 40
0.6562500000000051
 40
0.6875000000000048
 40
0.6875000000000048
 40
0.7500000000000041
 40
0.7500000000000041
 40
0.8125000000000037
 40
0.8125000000000037
 40
0.8750000000000031
 40
0.8750000000000031
 40
1.0
 40
1.0
 40
1.0
 40
1.0
 10
216.3224068965678
 20
86.11829472207934
 30
0.0
 10
215.8402244215497
 20
86.10937078424615
 30
0.0
 10
215.3564201063353
 20
86.10600442150826
 30
0.0
 10
214.6246957691149
 20
86.10433631955807
 30
0.0
 10
214.3799778628681
 20
86.10427474382396
 30
0.0
 10
213.8950380781046
 20
86.10643901133832
 30
0.0
 10
213.6507641392515
 20
86.10817140802327
 30
0.0
 10
213.3038064258951
 20
86.12072189447555
 30
0.0
 10
213.191651336816
 20
86.12666903323537
 30
0.0
 10
212.9763533172634
 20
86.14646387142685
 30
0.0
 10
212.875888737137
 20
86.1602208428842
 30
0.0
 10
212.6937194724301
 20
86.19979509352015
 30
0.0
 10
212.6106865326875
 20
86.22595494608223
 30
0.0
 10
212.4631861478476
 20
86.29491612404692
 30
0.0
 10
212.4000550259789
 20
86.33686991196055
 30
0.0
 10
212.2901906258008
 20
86.43822510051018
 30
0.0
 10
212.2435136080468
 20
86.4979742225625
 30
0.0
 10
212.1663596850083
 20
86.63205365389074
 30
0.0
 10
212.1353054138401
 20
86.70679609924137
 30
0.0
 10
212.0611368878113
 20
86.95593344696213
 30
0.0
 10
212.0385804188367
 20
87.14767679777599
 30
0.0
 10
212.0396336939417
 20
87.4671293970771
 30
0.0
 10
212.0459610761247
 20
87.5766905666527
 30
0.0
 10
212.0707386701297
 20
87.80163774664416
 30
0.0
 10
212.089428181211
 20
87.91812832084503
 30
0.0
 10
212.1401058019603
 20
88.1512999547169
 30
0.0
 10
212.1717623396733
 20
88.2670868464731
 30
0.0
 10
212.2502128570929
 20
88.49604498395495
 30
0.0
 10
212.2977036206954
 20
88.61053124471616
 30
0.0
 10
212.4092160864645
 20
88.8273747496854
 30
0.0
 10
212.4729515100979
 20
88.92968323622897
 30
0.0
 10
212.6204692919635
 20
89.11990492505068
 30
0.0
 10
212.7056364712208
 20
89.20856066086576
 30
0.0
 10
212.9833631798066
 20
89.43691803530432
 30
0.0
 10
213.2055685195451
 20
89.54347609774825
 30
0.0
 10
213.6684589382463
 20
89.67914695457002
 30
0.0
 10
213.913017012273
 20
89.71284832033399
 30
0.0
 10
214.3970367022455
 20
89.74547885486896
 30
0.0
 10
214.638421883492
 20
89.74471698512109
 30
0.0
 10
215.3616060651747
 20
89.71598656788024
 30
0.0
 10
215.8431443169922
 20
89.66203633005466
 30
0.0
 10
216.3224068965679
 20
89.59182878808303
 30
0.0
  0
SPLINE
  5
ED
330
1F
100
AcDbEntity
  8
0
  6
HIDDEN
 62
     7
370
     0
100
AcDbSpline
210
0.0
220
0.0
230
1.0
 70
     8
 71
     3
 72
    15
 73
    11
 74
     0
 42
0.00000001
 43
0.00000001
 40
0.0
 40
0.0
 40
0.0
 40
0.0
 40
0.1360947993897038
 40
0.2722233504338452
 40
0.4072157477284721
 40
0.5405337273204607
 40
0.674528402193116
 40
0.8104813419156445
 40
0.9466524598609822
 40
1.0
 40
1.0
 40
1.0
 40
1.0
 10
162.0465837147001
 20
75.92860752207066
 30
0.0
 10
161.8686834528917
 20
75.9525499185884
 30
0.0
 10
161.5128388098215
 20
76.00044064936363
 30
0.0
 10
160.7785156293216
 20
76.0561501377158
 30
0.0
 10
159.999106975447
 20
76.0666009291807
 30
0.0
 10
159.2473207950377
 20
76.02940040638244
 30
0.0
 10
158.600026888404
 20
75.96004607815624
 30
0.0
 10
158.1442275180138
 20
75.8912388009987
 30
0.0
 10
157.9180053582146
 20
75.85064238125108
 30
0.0
 10
157.9454548902766
 20
75.855546077691
 30
0.0
 10
157.9531816493634
 20
75.85692641747023
 30
0.0
  0
SPLINE
  5
EE
330
1F
100
AcDbEntity
  8
0
  6
HIDDEN
 62
     7
370
     0
100
AcDbSpline
210
0.0
220
0.0
230
1.0
 70
     8
 71
     3
 72
    15
 73
    11
 74
     0
 42
0.00000001
 43
0.00000001
 40
0.0
 40
0.0
 40
0.0
 40
0.0
 40
0.0809850953378773
 40
0.2142994841332234
 40
0.3489242590596051
 40
0.4852277276366004
 40
0.6209655570397145
 40
0.7547097406923156
 40
0.8881684412294678
 40
1.0
 40
1.0
 40
1.0
 40
1.0
 10
157.9531816493634
 20
101.3459083945754
 30
0.0
 10
157.9502183704998
 20
101.3464165232151
 30
0.0
 10
157.94237706181
 20
101.3477611126722
 30
0.0
 10
158.2138680632754
 20
101.3000373800954
 30
0.0
 10
158.70785108032
 20
101.2288734658925
 30
0.0
 10
159.3862284824581
 20
101.1627802860379
 30
0.0
 10
160.1578689647208
 20
101.134238314923
 30
0.0
 10
160.928237478472
 20
101.1547929698226
 30
0.0
 10
161.5897495554774
 20
101.2120578327966
 30
0.0
 10
161.9035275541989
 20
101.2547591226656
 30
0.0
 10
162.0465837147001
 20
101.2742272899749
 30
0.0
  0
SPLINE
  5
EF
330
1F
100
AcDbEntity
  8
0
  6
HIDDEN
 62
     7
370
     0
100
AcDbSpline
210
0.0
220
0.0
230
1.0
 70
     8
 71
     3
 72
    11
 73
     7
 74
     0
 42
0.00000001
 43
0.00000001
 40
0.0
 40
0.0
 40
0.0
 40
0.0
 40
0.2516538895420847
 40
0.5106450848864222
 40
0.7623885946784401
 40
1.0
 40
1.0
 40
1.0
 40
1.0
 10
162.0465837147001
 20
101.2742272899749
 30
0.0
 10
162.1186521945636
 20
101.2839669457367
 30
0.0
 10
162.2648904072313
 20
101.3037302299532
 30
0.0
 10
162.4124520899237
 20
101.3188170695693
 30
0.0
 10
162.5065796890797
 20
101.3274335255024
 30
0.0
 10
162.5155495078737
 20
101.3281571375189
 30
0.0
 10
162.5199048973535
 20
101.3285084949138
 30
0.0
  0
SPLINE
  5
F0
330
1F
100
AcDbEntity
  8
0
  6
HIDDEN
 62
     7
370
     0
100
AcDbSpline
210
0.0
220
0.0
230
1.0
 70
     8
 71
     3
 72
    12
 73
     8
 74
     0
 42
0.00000001
 43
0.00000001
 40
0.0
 40
0.0
 40
0.0
 40
0.0
 40
0.0213148578393001
 40
0.2736524374885244
 40
0.5333059163262609
 40
0.7638537278667106
 40
1.0
 40
1.0
 40
1.0
 40
1.0
 10
162.5199081569825
 20
75.87432631713177
 30
0.0
 10
162.5207335896886
 20
75.87425485970107
 30
0.0
 10
162.5313309708077
 20
75.87333744799517
 30
0.0
 10
162.4913563465552
 20
75.87668936098882
 30
0.0
 10
162.3982256374797
 20
75.88542150721474
 30
0.0
 10
162.2484914860269
 20
75.90117920401993
 30
0.0
 10
162.114422402561
 20
75.91939192281679
 30
0.0
 10
162.0465837147001
 20
75.92860752207066
 30
0.0
  0
LINE
  5
F1
330
1F
100
AcDbEntity
  8
0
  6
HIDDEN
 62
     7
370
     0
100
AcDbLine
 10
154.225056405
 20
78.1014175476
 30
0.0
 11
154.225056405
 21
99.1014172645
 31
0.0
  0
LINE
  5
F2
330
1F
100
AcDbEntity
  8
0
  6
HIDDEN
 62
     7
370
     0
100
AcDbLine
 10
172.3917819288
 20
78.1014175476
 30
0.0
 11
172.3917819288
 21
99.1014172645
 31
0.0
  0
LINE
  5
F3
330
1F
100
AcDbEntity
  8
0
  6
HIDDEN
 62
     7
370
     0
100
AcDbLine
 10
174.1724073615
 20
78.7264169515
 30
0.0
 11
174.1724073615
 21
98.4764178605
 31
0.0
  0
SPLINE
  5
F4
330
1F
100
AcDbEntity
  8
0
  6
HIDDEN
 62
     7
370
     0
100
AcDbSpline
210
0.0
220
0.0
230
1.0
 70
     8
 71
     3
 72
    14
 73
    10
 74
     0
 42
0.00000001
 43
0.00000001
 40
0.0
 40
0.0
 40
0.0
 40
0.0
 40
0.2499999999999999
 40
0.2499999999999999
 40
0.4999999999999998
 40
0.4999999999999998
 40
0.7499999999999997
 40
0.7499999999999997
 40
1.0
 40
1.0
 40
1.0
 40
1.0
 10
149.9224068965678
 20
98.6256068994432
 30
0.0
 10
149.9224068965678
 20
98.58913503490939
 30
0.0
 10
149.9000362647637
 20
98.5513992823969
 30
0.0
 10
149.8128207335155
 20
98.47626356069745
 30
0.0
 10
149.7487995274388
 20
98.43989127447536
 30
0.0
 10
149.5853142296975
 20
98.37566773531326
 30
0.0
 10
149.4859993555243
 20
98.3481447726908
 30
0.0
 10
149.2661730848192
 20
98.3099726058037
 30
0.0
 10
149.1451695225101
 20
98.29932310777097
 30
0.0
 10
149.0224068965678
 20
98.29932310777097
 30
0.0
  0
LINE
  5
F5
330
1F
100
AcDbEntity
  8
0
  6
HIDDEN
 62
     7
370
     0
100
AcDbLine
 10
149.0224063124
 20
98.2993231477
 30
0.0
 11
147.2724064913
 21
98.2993231477
 31
0.0
  0
ELLIPSE
  5
F6
330
1F
100
AcDbEntity
  8
0
  6
HIDDEN
 62
     7
370
     0
100
AcDbEllipse
 10
154.243911397
 20
88.601417406
 30
0.0
 11
18.1865334794731
 21
0.0
 31
0.0
210
0.0
220
0.0
230
1.0
 40
0.5773502692
 41
4.318986348374608
 42
4.325062511992184
  0
LINE
  5
F7
330
1F
100
AcDbEntity
  8
0
  6
HIDDEN
 62
     7
370
     0
100
AcDbLine
 10
147.3745986547
 20
78.8792339475
 30
0.0
 11
151.5224067222
 21
78.8792339475
 31
0.0
  0
SPLINE
  5
F8
330
1F
100
AcDbEntity
  8
0
  6
HIDDEN
 62
     7
370
     0
100
AcDbSpline
210
0.0
220
0.0
230
1.0
 70
     8
 71
     3
 72
    14
 73
    10
 74
     0
 42
0.00000001
 43
0.00000001
 40
0.0
 40
0.0
 40
0.0
 40
0.0
 40
0.25
 40
0.25
 40
0.5
 40
0.5
 40
0.75
 40
0.75
 40
1.0
 40
1.0
 40
1.0
 40
1.0
 10
151.5224068965678
 20
78.87923431784759
 30
0.0
 10
151.6448749844867
 20
78.87923431784759
 30
0.0
 10
151.7650860633555
 20
78.86889729812769
 30
0.0
 10
151.9852923826081
 20
78.83143006954973
 30
0.0
 10
152.0849478353062
 20
78.80429890126048
 30
0.0
 10
152.2479351882619
 20
78.74153185505365
 30
0.0
 10
152.3126725490084
 20
78.70546816112673
 30
0.0
 10
152.3995078991254
 20
78.63227549125865
 30
0.0
 10
152.4224068965678
 20
78.59473270574767
 30
0.0
 10
152.4224068965678
 20
78.55902506156623
 30
0.0
  0
LINE
  5
F9
330
1F
100
AcDbEntity
  8
0
  6
HIDDEN
 62
     7
370
     0
100
AcDbLine
 10
147.2724064913
 20
78.9035116644
 30
0.0
 11
147.2724064913
 21
98.2993231477
 31
0.0
  0
LINE
  5
FA
330
1F
100
AcDbEntity
  8
0
  6
HIDDEN
 62
     7
370
     0
100
AcDbLine
 10
149.9224066462
 20
99.6014173464
 30
0.0
 11
149.9224066462
 21
102.1589418263
 31
0.0
  0
LINE
  5
FB
330
1F
100
AcDbEntity
  8
0
  6
HIDDEN
 62
     7
370
     0
100
AcDbLine
 10
152.422407056
 20
77.6014174656
 30
0.0
 11
152.422407056
 21
74.9646709622
 31
0.0
  0
LINE
  5
FC
330
1F
100
AcDbEntity
  8
0
  6
HIDDEN
 62
     7
370
     0
100
AcDbLine
 10
147.2724064913
 20
99.6014173464
 30
0.0
 11
147.2724064913
 21
101.4669980244
 31
0.0
  0
LINE
  5
FD
330
1F
100
AcDbEntity
  8
0
  6
HIDDEN
 62
     7
370
     0
100
AcDbLine
 10
147.3745986547
 20
77.6014174656
 30
0.0
 11
147.3745986547
 21
75.7517838241
 31
0.0
  0
LINE
  5
FE
330
1F
100
AcDbEntity
  8
0
  6
HIDDEN
 62
     7
370
     0
100
AcDbLine
 10
182.0224061336
 20
82.3514173129
 30
0.0
 11
182.0224061336
 21
94.8514174992
 31
0.0
  0
LINE
  5
FF
330
1F
100
AcDbEntity
  8
0
  6
HIDDEN
 62
     7
370
     0
100
AcDbLine
 10
179.5224066552
 20
82.3514173129
 30
0.0
 11
179.5224066552
 21
94.8514174992
 31
0.0
  0
LINE
  5
100
330
1F
100
AcDbEntity
  8
0
  6
HIDDEN
 62
     7
370
     0
100
AcDbLine
 10
174.6724065121
 20
83.1014174358
 30
0.0
 11
174.6724065121
 21
94.1014173762
 31
0.0
  0
LINE
  5
101
330
1F
100
AcDbEntity
  8
0
  6
HIDDEN
 62
     7
370
     0
100
AcDbLine
 10
174.1724073615
 20
68.6264331774
 30
0.0
 11
174.1724073615
 21
71.7014181749
 31
0.0
  0
LINE
  5
102
330
1F
100
AcDbEntity
  8
0
  6
HIDDEN
 62
     7
370
     0
100
AcDbLine
 10
178.6724071678
 20
71.7014181749
 30
0.0
 11
174.1724073615
 21
71.7014181749
 31
0.0
  0
LINE
  5
103
330
1F
100
AcDbEntity
  8
0
  6
HIDDEN
 62
     7
370
     0
100
AcDbLine
 10
181.2176288765
 20
71.7014181749
 30
0.0
 11
178.6724071678
 21
71.7014181749
 31
0.0
  0
LINE
  5
104
330
1F
100
AcDbEntity
  8
0
  6
HIDDEN
 62
     7
370
     0
100
AcDbLine
 10
186.1724074658
 20
71.7014181749
 30
0.0
 11
183.2271836426
 21
71.7014181749
 31
0.0
  0
SPLINE
  5
105
330
1F
100
AcDbEntity
  8
0
  6
HIDDEN
 62
     7
370
     0
100
AcDbSpline
210
0.0
220
0.0
230
1.0
 70
     8
 71
     3
 72
     8
 73
     4
 74
     0
 42
0.00000001
 43
0.00000001
 40
0.0000002426067713
 40
0.0000002426067713
 40
0.0000002426067713
 40
0.0000002426067713
 40
0.0011546267702572
 40
0.0011546267702572
 40
0.0011546267702572
 40
0.0011546267702572
 10
146.3224068965677
 20
78.54397107573075
 30
0.0
 10
146.6396191329158
 20
78.66187855463767
 30
0.0
 10
146.9563133742458
 20
78.78166415897492
 30
0.0
 10
147.2724068965677
 20
78.9035117042746
 30
0.0
  0
SPLINE
  5
106
330
1F
100
AcDbEntity
  8
0
  6
HIDDEN
 62
     7
370
     0
100
AcDbSpline
210
0.0
220
0.0
230
1.0
 70
     8
 71
     3
 72
     8
 73
     4
 74
     0
 42
0.00000001
 43
0.00000001
 40
0.0000002434653511
 40
0.0000002434653511
 40
0.0000002434653511
 40
0.0000002434653511
 40
0.001154627628837
 40
0.001154627628837
 40
0.001154627628837
 40
0.001154627628837
 10
147.2724068965678
 20
98.29932310777097
 30
0.0
 10
146.9563133742458
 20
98.42117065307069
 30
0.0
 10
146.6396191329158
 20
98.54095625740791
 30
0.0
 10
146.3224068965677
 20
98.65886373631486
 30
0.0
  0
LINE
  5
107
330
1F
100
AcDbEntity
  8
0
  6
HIDDEN
 62
     7
370
     0
100
AcDbLine
 10
186.1724689331
 20
105.5014166371
 30
0.0
 11
183.0140616473
 21
105.5014166371
 31
0.0
  0
LINE
  5
108
330
1F
100
AcDbEntity
  8
0
  6
HIDDEN
 62
     7
370
     0
100
AcDbLine
 10
181.4307508718
 20
105.5014166371
 30
0.0
 11
178.6724071678
 21
105.5014166371
 31
0.0
  0
LINE
  5
109
330
1F
100
AcDbEntity
  8
0
  6
HIDDEN
 62
     7
370
     0
100
AcDbLine
 10
178.6724071678
 20
105.5014166371
 30
0.0
 11
174.1724073615
 21
105.5014166371
 31
0.0
  0
LINE
  5
10A
330
1F
100
AcDbEntity
  8
0
  6
HIDDEN
 62
     7
370
     0
100
AcDbLine
 10
147.2724064913
 20
99.6014173464
 30
0.0
 11
147.2724064913
 21
98.2993231477
 31
0.0
  0
LINE
  5
10B
330
1F
100
AcDbEntity
  8
0
  6
HIDDEN
 62
     7
370
     0
100
AcDbLine
 10
149.9224066462
 20
99.6014173464
 30
0.0
 11
149.9224066462
 21
98.6256073551
 31
0.0
  0
LINE
  5
10C
330
1F
100
AcDbEntity
  8
0
  6
HIDDEN
 62
     7
370
     0
100
AcDbLine
 10
147.3745986547
 20
77.6014174656
 30
0.0
 11
147.3745986547
 21
78.8792339475
 31
0.0
  0
LINE
  5
10D
330
1F
100
AcDbEntity
  8
0
  6
HIDDEN
 62
     7
370
     0
100
AcDbLine
 10
152.422407056
 20
77.6014174656
 30
0.0
 11
152.422407056
 21
78.5590247573
 31
0.0
  0
LINE
  5
10E
330
1F
100
AcDbEntity
  8
0
  6
HIDDEN
 62
     7
370
     0
100
AcDbLine
 10
243.1480198827
 20
90.1764174081
 30
0.0
 11
243.1480198827
 21
87.026417404
 31
0.0
  0
SPLINE
  5
10F
330
1F
100
AcDbEntity
  8
0
  6
HIDDEN
 62
     7
370
     0
100
AcDbSpline
210
0.0
220
0.0
230
1.0
 70
     8
 71
     3
 72
    10
 73
     6
 74
     0
 42
0.00000001
 43
0.00000001
 40
0.0
 40
0.0
 40
0.0
 40
0.0
 40
0.340073048213783
 40
0.6293642575442642
 40
1.0
 40
1.0
 40
1.0
 40
1.0
 10
158.306780616558
 20
74.39559282225396
 30
0.0
 10
158.4262654989762
 20
74.41006930396554
 30
0.0
 10
158.6473930323278
 20
74.4368605484118
 30
0.0
 10
159.1163688313597
 20
74.47348417724034
 30
0.0
 10
159.4793293863986
 20
74.47989392485434
 30
0.0
 10
159.6831794556145
 20
74.48349384081389
 30
0.0
  0
SPLINE
  5
110
330
1F
100
AcDbEntity
  8
0
  6
HIDDEN
 62
     7
370
     0
100
AcDbSpline
210
0.0
220
0.0
230
1.0
 70
     8
 71
     3
 72
    37
 73
    33
 74
     0
 42
0.00000001
 43
0.00000001
 40
0.0
 40
0.0
 40
0.0
 40
0.0
 40
0.0182586532315017
 40
0.1154089861276436
 40
0.213929473826177
 40
0.2660910464630321
 40
0.2931604223832408
 40
0.3069444995851325
 40
0.313899043578802
 40
0.3173919461792854
 40
0.3191423106739796
 40
0.3200184611373975
 40
0.3204567989463747
 40
0.3206760204310933
 40
0.3207856382861639
 40
0.3208404639958432
 40
0.3208678600993187
 40
0.3208815819890991
 40
0.3208884136204497
 40
0.3208918576066639
 40
0.3208935518514571
 40
0.3208952756646112
 40
0.3331446103407709
 40
0.4256258153024618
 40
0.5299897796584494
 40
0.6308653479936623
 40
0.6837256498707339
 40
0.7381615719822965
 40
0.7733808358068731
 40
0.8425286863103124
 40
0.9464647018624002
 40
1.0
 40
1.0
 40
1.0
 40
1.0
 10
162.0814352024261
 20
74.17616670441653
 30
0.0
 10
162.1135425191126
 20
74.16820798283281
 30
0.0
 10
162.3164859026737
 20
74.11790263023082
 30
0.0
 10
162.5284933147454
 20
74.05312759035002
 30
0.0
 10
162.5368583277206
 20
74.05311255036068
 30
0.0
 10
162.3924179784974
 20
74.09383368167364
 30
0.0
 10
162.2809263362913
 20
74.123659128359
 30
0.0
 10
162.2144135104838
 20
74.1411944406242
 30
0.0
 10
162.1784312490897
 20
74.15062286433356
 30
0.0
 10
162.1597505980517
 20
74.1555021238905
 30
0.0
 10
162.150237854677
 20
74.15798422233698
 30
0.0
 10
162.1454377841763
 20
74.1592360526219
 30
0.0
 10
162.1430271846038
 20
74.15986283160558
 30
0.0
 10
162.1418186979954
 20
74.16017880017091
 30
0.0
 10
162.1412145757633
 20
74.16033537701428
 30
0.0
 10
162.140911341922
 20
74.16041549797617
 30
0.0
 10
162.1407609965641
 20
74.16045417159113
 30
0.0
 10
162.1406844432577
 20
74.16047419743444
 30
0.0
 10
162.1406471643501
 20
74.16048327129162
 30
0.0
 10
162.1406280558336
 20
74.16048922750275
 30
0.0
 10
162.1406175356229
 20
74.16049161156856
 30
0.0
 10
162.1205410026366
 20
74.16493629921499
 30
0.0
 10
161.9534883514615
 20
74.21387636256817
 30
0.0
 10
161.5111625351973
 20
74.30758499153839
 30
0.0
 10
160.7100390285184
 20
74.44138807248169
 30
0.0
 10
159.9447199198696
 20
74.48750536902106
 30
0.0
 10
159.3633085769189
 20
74.48586428516154
 30
0.0
 10
158.9959386856935
 20
74.46855586430308
 30
0.0
 10
158.6299515021885
 20
74.43463030414507
 30
0.0
 10
158.2347603301799
 20
74.39070215919091
 30
0.0
 10
157.9370799483149
 20
74.33704379314473
 30
0.0
 10
157.9547804060003
 20
74.34134364441512
 30
0.0
 10
157.9607980053786
 20
74.34280545872475
 30
0.0
  0
LINE
  5
111
330
1F
100
AcDbEntity
  8
0
  6
HIDDEN
 62
     7
370
     0
100
AcDbLine
 10
158.3067778226
 20
102.8071712093
 30
0.0
 11
158.0963249978
 21
102.8378433869
 31
0.0
  0
SPLINE
  5
112
330
1F
100
AcDbEntity
  8
0
  6
HIDDEN
 62
     7
370
     0
100
AcDbSpline
210
0.0
220
0.0
230
1.0
 70
     8
 71
     3
 72
    32
 73
    28
 74
     0
 42
0.00000001
 43
0.00000001
 40
0.0
 40
0.0
 40
0.0
 40
0.0
 40
0.0077123965651627
 40
0.0638473751275658
 40
0.0991786080941297
 40
0.1408144201829183
 40
0.1887575887630112
 40
0.2785607811525946
 40
0.2937323190827133
 40
0.3054074459759494
 40
0.3135858890213249
 40
0.3786909447444192
 40
0.4419331473030664
 40
0.5034196589424731
 40
0.5632669684720321
 40
0.5893531160780584
 40
0.6189058668749634
 40
0.6519297042913645
 40
0.6884275076078582
 40
0.7414884804812513
 40
0.7805736783955224
 40
0.7954661996029797
 40
0.8065151999183552
 40
0.8137204347792637
 40
0.879193313179091
 40
0.9417028463950216
 40
0.9999999999999999
 40
0.9999999999999999
 40
0.9999999999999999
 40
0.9999999999999999
 10
157.9270412873391
 20
102.8658696771863
 30
0.0
 10
157.925510160091
 20
102.8661736251188
 30
0.0
 10
157.9128346635764
 20
102.8686898699083
 30
0.0
 10
157.953833813882
 20
102.8624770579336
 30
0.0
 10
158.0316923110875
 20
102.8480658870322
 30
0.0
 10
158.1439985934528
 20
102.8296909487063
 30
0.0
 10
158.3581819098779
 20
102.7984024815417
 30
0.0
 10
158.6096163569903
 20
102.7700107984556
 30
0.0
 10
158.8299673680055
 20
102.7499014236826
 30
0.0
 10
158.898314452552
 20
102.7440047982225
 30
0.0
 10
159.0677581202274
 20
102.7306640596744
 30
0.0
 10
159.3623897274863
 20
102.7169958600415
 30
0.0
 10
159.8063883671667
 20
102.7157870772308
 30
0.0
 10
160.2534766784395
 20
102.7336638127637
 30
0.0
 10
160.608727256129
 20
102.763908256407
 30
0.0
 10
160.8778403540442
 20
102.7970331729789
 30
0.0
 10
161.0789480681626
 20
102.8256056668065
 30
0.0
 10
161.2947744274547
 20
102.8602389304499
 30
0.0
 10
161.5466808232311
 20
102.9062332159882
 30
0.0
 10
161.7871506209394
 20
102.9556209227476
 30
0.0
 10
161.9618014169222
 20
102.9960917567029
 30
0.0
 10
162.0578000244144
 20
103.0203837037179
 30
0.0
 10
162.1041851508768
 20
103.0326439913737
 30
0.0
 10
162.2168087494434
 20
103.0625037677007
 30
0.0
 10
162.3678666851572
 20
103.1017672149633
 30
0.0
 10
162.4992333748851
 20
103.1387554154274
 30
0.0
 10
162.5142944578715
 20
103.1439317502492
 30
0.0
 10
162.5215624187056
 20
103.1464296714666
 30
0.0
  0
LINE
  5
113
330
1F
100
AcDbEntity
  8
0
  6
HIDDEN
 62
     7
370
     0
100
AcDbLine
 10
158.5859250005
 20
102.7755164863
 30
0.0
 11
158.3067778226
 21
102.8071712093
 31
0.0
  0
LINE
  5
114
330
1F
100
AcDbEntity
  8
0
  6
HIDDEN
 62
     7
370
     0
100
AcDbLine
 10
216.3224056091
 20
86.1182946568
 30
0.0
 11
216.3224056091
 21
86.1014174619
 31
0.0
  0
LINE
  5
115
330
1F
100
AcDbEntity
  8
0
  6
HIDDEN
 62
     7
370
     0
100
AcDbLine
 10
216.3224056091
 20
86.1182946568
 30
0.0
 11
216.3224056091
 21
89.5918287891
 31
0.0
  0
LINE
  5
116
330
1F
100
AcDbEntity
  8
0
  6
HIDDEN
 62
     7
370
     0
100
AcDbLine
 10
216.3224056091
 20
91.1014173501
 30
0.0
 11
216.3224056091
 21
89.5918287891
 31
0.0
  0
LINE
  5
117
330
1F
100
AcDbEntity
  8
0
  6
HIDDEN
 62
     7
370
     0
100
AcDbLine
 10
241.2317305531
 20
90.1764174081
 30
0.0
 11
241.2317305531
 21
87.026417404
 31
0.0
  0
LINE
  5
118
330
1F
100
AcDbEntity
  8
0
  6
HIDDEN
 62
     7
370
     0
100
AcDbLine
 10
246.2224051084
 20
78.6014176295
 30
0.0
 11
201.2224070456
 21
78.6014176295
 31
0.0
  0
LINE
  5
119
330
1F
100
AcDbEntity
  8
0
  6
HIDDEN
 62
     7
370
     0
100
AcDbLine
 10
201.2224070456
 20
78.6014176295
 30
0.0
 11
201.2224070456
 21
74.4841476293
 31
0.0
  0
SPLINE
  5
11A
330
1F
100
AcDbEntity
  8
0
  6
HIDDEN
 62
     7
370
     0
100
AcDbSpline
210
0.0
220
0.0
230
1.0
 70
     8
 71
     3
 72
     8
 73
     4
 74
     0
 42
0.00000001
 43
0.00000001
 40
0.0
 40
0.0
 40
0.0
 40
0.0
 40
1.0
 40
1.0
 40
1.0
 40
1.0
 10
200.4224068965648
 20
73.62226861614218
 30
0.0
 10
200.6821551631963
 20
73.91329335344447
 30
0.0
 10
200.9481669311516
 20
74.20110429227992
 30
0.0
 10
201.2224068965677
 20
74.48414719674732
 30
0.0
  0
LINE
  5
11B
330
1F
100
AcDbEntity
  8
0
  6
HIDDEN
 62
     7
370
     0
100
AcDbLine
 10
201.2224070456
 20
78.6014176295
 30
0.0
 11
197.2224063899
 21
78.6014176295
 31
0.0
  0
LINE
  5
11C
330
1F
100
AcDbEntity
  8
0
  6
HIDDEN
 62
     7
370
     0
100
AcDbLine
 10
183.2624062624
 20
102.1172642098
 30
0.0
 11
183.2624062624
 21
100.4514177651
 31
0.0
  0
LINE
  5
11D
330
1F
100
AcDbEntity
  8
0
  6
HIDDEN
 62
     7
370
     0
100
AcDbLine
 10
181.182407188
 20
102.1172642098
 30
0.0
 11
181.182407188
 21
100.4514177651
 31
0.0
  0
LINE
  5
11E
330
1F
100
AcDbEntity
  8
0
  6
HIDDEN
 62
     7
370
     0
100
AcDbLine
 10
184.2575672742
 20
104.7128266976
 30
0.0
 11
184.2575672742
 21
100.4514177651
 31
0.0
  0
SPLINE
  5
11F
330
1F
100
AcDbEntity
  8
0
  6
HIDDEN
 62
     7
370
     0
100
AcDbSpline
210
0.0
220
0.0
230
1.0
 70
     8
 71
     3
 72
     8
 73
     4
 74
     0
 42
0.00000001
 43
0.00000001
 40
0.0
 40
0.0
 40
0.0
 40
0.0
 40
1.0
 40
1.0
 40
1.0
 40
1.0
 10
201.2224068965677
 20
78.3888115602214
 30
0.0
 10
200.972046203419
 20
78.03161947377457
 30
0.0
 10
200.706134627561
 20
77.6887038765163
 30
0.0
 10
200.4224068965678
 20
77.36291773611583
 30
0.0
  0
CIRCLE
  5
120
330
1F
100
AcDbEntity
  8
0
  6
HIDDEN
 62
     7
370
     0
100
AcDbCircle
 10
173.2224068966
 20
88.601417406
 30
0.0
 40
5.000000000000014
  0
LINE
  5
121
330
1F
100
AcDbEntity
  8
0
  6
HIDDEN
 62
     7
370
     0
100
AcDbLine
 10
207.519213083
 20
64.6014171974
 30
0.0
 11
246.2224051084
 21
64.6014171974
 31
0.0
  0
ARC
  5
122
330
1F
100
AcDbEntity
  8
0
  6
HIDDEN
 62
     7
370
     0
100
AcDbCircle
 10
244.2224068966
 20
82.601417406
 30
0.0
 40
5.00000000000003
100
AcDbArc
 50
225.8945127504
 51
271.5219423349
  0
ARC
  5
123
330
1F
100
AcDbEntity
  8
0
  6
HIDDEN
 62
     7
370
     0
100
AcDbCircle
 10
244.2224068966
 20
82.601417406
 30
0.0
 40
5.000000000000031
100
AcDbArc
 50
66.4218215218
 51
137.1493719193
  0
ARC
  5
124
330
1F
100
AcDbEntity
  8
0
  6
HIDDEN
 62
     7
370
     0
100
AcDbCircle
 10
244.2224068966
 20
82.601417406
 30
0.0
 40
4.999999999999996
100
AcDbArc
 50
271.5219423349
 51
293.5781784782
  0
LINE
  5
125
330
1F
100
AcDbEntity
  8
0
  6
HIDDEN
 62
     7
370
     0
100
AcDbLine
 10
240.7556533541
 20
79.0113355355
 30
0.0
 11
242.1141028132
 21
80.4466172443
 31
0.0
  0
LINE
  5
126
330
1F
100
AcDbEntity
  8
0
  6
HIDDEN
 62
     7
370
     0
100
AcDbLine
 10
242.0026570287
 20
84.6412247368
 30
0.0
 11
240.5699103799
 21
86.0023468589
 31
0.0
  0
LINE
  5
127
330
1F
100
AcDbEntity
  8
0
  6
HIDDEN
 62
     7
370
     0
100
AcDbLine
 10
247.9462161388
 20
85.1989081451
 30
0.0
 11
247.5580855932
 21
84.7888274906
 31
0.0
  0
LINE
  5
128
330
1F
100
AcDbEntity
  8
0
  6
HIDDEN
 62
     7
370
     0
100
AcDbLine
 10
247.6695388283
 20
80.5942206965
 30
0.0
 11
248.0788960781
 21
80.205328329
 31
0.0
  0
LINE
  5
129
330
1F
100
AcDbEntity
  8
0
  6
HIDDEN
 62
     7
370
     0
100
AcDbLine
 10
242.1102508631
 20
80.4445580901
 30
0.0
 11
247.6734950866
 21
80.5923692272
 31
0.0
  0
LINE
  5
12A
330
1F
100
AcDbEntity
  8
0
  6
HIDDEN
 62
     7
370
     0
100
AcDbLine
 10
247.5619449939
 20
84.7908871104
 30
0.0
 11
241.9987007704
 21
84.6430766718
 31
0.0
  0
LINE
  5
12B
330
1F
100
AcDbEntity
  8
0
  6
HIDDEN
 62
     7
370
     0
100
AcDbLine
 10
238.2224037971
 20
76.6014173017
 30
0.0
 11
246.2224051084
 21
76.6014173017
 31
0.0
  0
LINE
  5
12C
330
1F
100
AcDbEntity
  8
0
  6
HIDDEN
 62
     7
370
     0
100
AcDbLine
 10
246.2224051084
 20
88.601417406
 30
0.0
 11
238.2224037971
 21
88.601417406
 31
0.0
  0
ARC
  5
12D
330
1F
100
AcDbEntity
  8
0
  6
HIDDEN
 62
     7
370
     0
100
AcDbCircle
 10
244.2224068966
 20
82.601417406
 30
0.0
 40
4.999999999999996
100
AcDbArc
 50
224.4270040008
 51
270.0
  0
ARC
  5
12E
330
1F
100
AcDbEntity
  8
0
  6
HIDDEN
 62
     7
370
     0
100
AcDbCircle
 10
244.2224068966
 20
82.601417406
 30
0.0
 40
5.000000000000009
100
AcDbArc
 50
66.4218215218
 51
135.5729959992
  0
ARC
  5
12F
330
1F
100
AcDbEntity
  8
0
  6
HIDDEN
 62
     7
370
     0
100
AcDbCircle
 10
244.2224068966
 20
82.601417406
 30
0.0
 40
4.999999999999996
100
AcDbArc
 50
270.0
 51
293.5781784782
  0
LINE
  5
130
330
1F
100
AcDbEntity
  8
0
  6
HIDDEN
 62
     7
370
     0
100
AcDbLine
 10
238.2224037971
 20
79.1014177115
 30
0.0
 11
240.6516954031
 21
79.1014177115
 31
0.0
  0
LINE
  5
131
330
1F
100
AcDbEntity
  8
0
  6
HIDDEN
 62
     7
370
     0
100
AcDbLine
 10
240.6516954031
 20
86.1014174619
 30
0.0
 11
238.2224037971
 21
86.1014174619
 31
0.0
  0
LINE
  5
132
330
1F
100
AcDbEntity
  8
0
  6
HIDDEN
 62
     7
370
     0
100
AcDbLine
 10
246.2224051084
 20
88.601417406
 30
0.0
 11
238.2224037971
 21
88.601417406
 31
0.0
  0
LINE
  5
133
330
1F
100
AcDbEntity
  8
0
  6
HIDDEN
 62
     7
370
     0
100
AcDbLine
 10
238.2224037971
 20
76.6014173017
 30
0.0
 11
246.2224051084
 21
76.6014173017
 31
0.0
  0
LINE
  5
134
330
1F
100
AcDbEntity
  8
0
  6
HIDDEN
 62
     7
370
     0
100
AcDbLine
 10
166.2224068966
 20
72.3942159997
 30
0.0
 11
166.3165676688
 21
73.0642057346
 31
0.0
  0
LINE
  5
135
330
1F
100
AcDbEntity
  8
0
  6
HIDDEN
 62
     7
370
     0
100
AcDbLine
 10
166.3165676688
 20
104.1386290775
 30
0.0
 11
166.2224068966
 21
104.8086188124
 31
0.0
  0
ARC
  5
136
330
1F
100
AcDbEntity
  8
0
  6
HIDDEN
 62
     7
370
     0
100
AcDbCircle
 10
165.7224001439
 20
73.1477102526
 30
0.0
 40
0.6000067526677062
100
AcDbArc
 50
352.0
 51
0.0
  0
ARC
  5
137
330
1F
100
AcDbEntity
  8
0
  6
HIDDEN
 62
     7
370
     0
100
AcDbCircle
 10
165.7224001439
 20
73.1477102526
 30
0.0
 40
0.6000067526676967
100
AcDbArc
 50
0.0
 51
33.5571153394
  0
ARC
  5
138
330
1F
100
AcDbEntity
  8
0
  6
HIDDEN
 62
     7
370
     0
100
AcDbCircle
 10
165.7224001439
 20
104.0551245595
 30
0.0
 40
0.6000067526677062
100
AcDbArc
 50
348.75
 51
8.0
  0
LWPOLYLINE
  5
139
330
1F
100
AcDbEntity
  8
0
  6
HIDDEN
 62
     7
370
     0
100
AcDbPolyline
 90
        3
 70
   128
 43
0.0
 10
166.3108779355
 20
103.9380687611
 10
166.2767341037
 20
103.8255119087
 10
166.2224068966
 20
103.7234603749
  0
LINE
  5
13A
330
1F
100
AcDbEntity
  8
0
  6
HIDDEN
 62
     7
370
     0
100
AcDbLine
 10
166.322406894
 20
73.1477099792
 30
0.0
 11
166.322406894
 21
104.0551248328
 31
0.0
  0
LINE
  5
13B
330
1F
100
AcDbEntity
  8
0
  6
HIDDEN
 62
     7
370
     0
100
AcDbLine
 10
212.7638853814
 20
86.1846935326
 30
0.0
 11
238.2224037971
 21
80.2489412339
 31
0.0
  0
LINE
  5
13C
330
1F
100
AcDbEntity
  8
0
  6
HIDDEN
 62
     7
370
     0
100
AcDbLine
 10
238.2224037971
 20
84.5615882748
 30
0.0
 11
216.5878735211
 21
89.6057624226
 31
0.0
  0
LINE
  5
13D
330
1F
100
AcDbEntity
  8
0
  6
HIDDEN
 62
     7
370
     0
100
AcDbLine
 10
155.7550349932
 20
75.8514176444
 30
0.0
 11
157.9531816494
 21
75.8514176444
 31
0.0
  0
LINE
  5
13E
330
1F
100
AcDbEntity
  8
0
  6
HIDDEN
 62
     7
370
     0
100
AcDbLine
 10
157.9531816494
 20
101.3514171676
 30
0.0
 11
155.7550349932
 21
101.3514171676
 31
0.0
  0
ARC
  5
13F
330
1F
100
AcDbEntity
  8
0
  6
HIDDEN
 62
     7
370
     0
100
AcDbCircle
 10
155.7550348407
 20
76.251417406
 30
0.0
 40
0.4000000000000244
100
AcDbArc
 50
210.0
 51
270.0
  0
ARC
  5
140
330
1F
100
AcDbEntity
  8
0
  6
HIDDEN
 62
     7
370
     0
100
AcDbCircle
 10
155.7550348407
 20
100.951417406
 30
0.0
 40
0.4000000000000173
100
AcDbArc
 50
90.0
 51
150.0
  0
ARC
  5
141
330
1F
100
AcDbEntity
  8
0
  6
HIDDEN
 62
     7
370
     0
100
AcDbCircle
 10
162.0465836244
 20
80.851417406
 30
0.0
 40
4.999999999999998
100
AcDbArc
 50
275.4189084892
 51
326.6329870308
  0
ARC
  5
142
330
1F
100
AcDbEntity
  8
0
  6
HIDDEN
 62
     7
370
     0
100
AcDbCircle
 10
162.0465836244
 20
96.351417406
 30
0.0
 40
5.000000000000001
100
AcDbArc
 50
33.3670129692
 51
84.5782503762
  0
LINE
  5
143
330
1F
100
AcDbEntity
  8
0
  6
HIDDEN
 62
     7
370
     0
100
AcDbLine
 10
155.408624905
 20
101.1514175074
 30
0.0
 11
154.225056405
 21
99.1014172645
 31
0.0
  0
LINE
  5
144
330
1F
100
AcDbEntity
  8
0
  6
HIDDEN
 62
     7
370
     0
100
AcDbLine
 10
154.225056405
 20
78.1014175476
 30
0.0
 11
155.408624905
 21
76.0514173047
 31
0.0
  0
ARC
  5
145
330
1F
100
AcDbEntity
  8
0
  6
HIDDEN
 62
     7
370
     0
100
AcDbCircle
 10
173.1724068966
 20
78.726417406
 30
0.0
 40
1.000000000000001
100
AcDbArc
 50
218.6821874535
 51
0.0
  0
ARC
  5
146
330
1F
100
AcDbEntity
  8
0
  6
HIDDEN
 62
     7
370
     0
100
AcDbCircle
 10
173.1724068966
 20
98.476417406
 30
0.0
 40
1.00000000000001
100
AcDbArc
 50
0.0
 51
141.3178125465
  0
LINE
  5
147
330
1F
100
AcDbEntity
  8
0
  6
HIDDEN
 62
     7
370
     0
100
AcDbLine
 10
152.422407056
 20
78.1014175476
 30
0.0
 11
154.225056405
 21
78.1014175476
 31
0.0
  0
LINE
  5
148
330
1F
100
AcDbEntity
  8
0
  6
HIDDEN
 62
     7
370
     0
100
AcDbLine
 10
154.225056405
 20
99.1014172645
 30
0.0
 11
149.9224066462
 21
99.1014172645
 31
0.0
  0
LINE
  5
149
330
1F
100
AcDbEntity
  8
0
  6
HIDDEN
 62
     7
370
     0
100
AcDbLine
 10
166.2224068966
 20
78.1014175476
 30
0.0
 11
172.3917819288
 21
78.1014175476
 31
0.0
  0
LINE
  5
14A
330
1F
100
AcDbEntity
  8
0
  6
HIDDEN
 62
     7
370
     0
100
AcDbLine
 10
172.3917819288
 20
99.1014172645
 30
0.0
 11
166.2224068966
 21
99.1014172645
 31
0.0
  0
LINE
  5
14B
330
1F
100
AcDbEntity
  8
0
  6
HIDDEN
 62
     7
370
     0
100
AcDbLine
 10
179.5224066552
 20
82.3514173129
 30
0.0
 11
182.0224061336
 21
82.3514173129
 31
0.0
  0
LINE
  5
14C
330
1F
100
AcDbEntity
  8
0
  6
HIDDEN
 62
     7
370
     0
100
AcDbLine
 10
182.0224061336
 20
94.8514174992
 30
0.0
 11
179.5224066552
 21
94.8514174992
 31
0.0
  0
LINE
  5
14D
330
1F
100
AcDbEntity
  8
0
  6
HIDDEN
 62
     7
370
     0
100
AcDbLine
 10
174.1724073615
 20
82.6014173539
 30
0.0
 11
174.6724065121
 21
83.1014174358
 31
0.0
  0
LINE
  5
14E
330
1F
100
AcDbEntity
  8
0
  6
HIDDEN
 62
     7
370
     0
100
AcDbLine
 10
174.6724065121
 20
94.1014173762
 30
0.0
 11
174.1724073615
 21
94.6014174582
 31
0.0
  0
LINE
  5
14F
330
1F
100
AcDbEntity
  8
0
  6
HIDDEN
 62
     7
370
     0
100
AcDbLine
 10
174.6724065121
 20
83.1014174358
 30
0.0
 11
179.5224066552
 21
83.1014174358
 31
0.0
  0
LINE
  5
150
330
1F
100
AcDbEntity
  8
0
  6
HIDDEN
 62
     7
370
     0
100
AcDbLine
 10
179.5224066552
 20
94.1014173762
 30
0.0
 11
174.6724065121
 21
94.1014173762
 31
0.0
  0
LINE
  5
151
330
1F
100
AcDbEntity
  8
0
  6
HIDDEN
 62
     7
370
     0
100
AcDbLine
 10
174.1724073615
 20
108.601416959
 30
0.0
 11
174.1724073615
 21
105.5014166371
 31
0.0
  0
LINE
  5
152
330
1F
100
AcDbEntity
  8
0
  6
HIDDEN
 62
     7
370
     0
100
AcDbLine
 10
246.2224051084
 20
91.9514173032
 30
0.0
 11
243.1480198827
 21
90.1764174081
 31
0.0
  0
LINE
  5
153
330
1F
100
AcDbEntity
  8
0
  6
HIDDEN
 62
     7
370
     0
100
AcDbLine
 10
243.1480198827
 20
87.026417404
 30
0.0
 11
246.2224051084
 21
85.2514175088
 31
0.0
  0
LINE
  5
154
330
1F
100
AcDbEntity
  8
0
  6
HIDDEN
 62
     7
370
     0
100
AcDbLine
 10
162.9895862386
 20
73.5601126538
 30
0.0
 11
162.5216576464
 21
74.0559497238
 31
0.0
  0
LINE
  5
155
330
1F
100
AcDbEntity
  8
0
  6
HIDDEN
 62
     7
370
     0
100
AcDbLine
 10
157.9237527873
 20
74.3358028443
 30
0.0
 11
157.4062792312
 21
73.8399778814
 31
0.0
  0
LINE
  5
156
330
1F
100
AcDbEntity
  8
0
  6
HIDDEN
 62
     7
370
     0
100
AcDbLine
 10
157.4056450006
 20
103.362907222
 30
0.0
 11
157.9233308982
 21
102.8670198606
 31
0.0
  0
LINE
  5
157
330
1F
100
AcDbEntity
  8
0
  6
HIDDEN
 62
     7
370
     0
100
AcDbLine
 10
162.5209717274
 20
103.1466671587
 30
0.0
 11
162.9888756394
 21
103.6425610394
 31
0.0
  0
LINE
  5
158
330
1F
100
AcDbEntity
  8
0
  6
HIDDEN
 62
     7
370
     0
100
AcDbLine
 10
182.0224061336
 20
86.1014174619
 30
0.0
 11
216.3224056091
 21
86.1014174619
 31
0.0
  0
LINE
  5
159
330
1F
100
AcDbEntity
  8
0
  6
HIDDEN
 62
     7
370
     0
100
AcDbLine
 10
216.3224056091
 20
91.1014173501
 30
0.0
 11
182.0224061336
 21
91.1014173501
 31
0.0
  0
LINE
  5
15A
330
1F
100
AcDbEntity
  8
0
  6
HIDDEN
 62
     7
370
     0
100
AcDbLine
 10
217.2296479072
 20
87.6113173175
 30
0.0
 11
217.8245581414
 21
88.601417406
 31
0.0
  0
LINE
  5
15B
330
1F
100
AcDbEntity
  8
0
  6
HIDDEN
 62
     7
370
     0
100
AcDbLine
 10
216.3224056091
 20
86.1014174619
 30
0.0
 11
217.2296479072
 21
87.6113173175
 31
0.0
  0
LINE
  5
15C
330
1F
100
AcDbEntity
  8
0
  6
HIDDEN
 62
     7
370
     0
100
AcDbLine
 10
217.8245581414
 20
88.601417406
 30
0.0
 11
216.3224056091
 21
91.1014173501
 31
0.0
  0
LINE
  5
15D
330
1F
100
AcDbEntity
  8
0
  6
HIDDEN
 62
     7
370
     0
100
AcDbLine
 10
162.5224068955
 20
101.3285150142
 30
0.0
 11
162.5224068955
 21
103.1464566798
 31
0.0
  0
LINE
  5
15E
330
1F
100
AcDbEntity
  8
0
  6
HIDDEN
 62
     7
370
     0
100
AcDbLine
 10
157.9224070262
 20
102.8659143807
 30
0.0
 11
157.9224070262
 21
101.3459149138
 31
0.0
  0
LINE
  5
15F
330
1F
100
AcDbEntity
  8
0
  6
HIDDEN
 62
     7
370
     0
100
AcDbLine
 10
162.5224068955
 20
74.0680047632
 30
0.0
 11
162.5224068955
 21
75.8743197979
 31
0.0
  0
LINE
  5
160
330
1F
100
AcDbEntity
  8
0
  6
HIDDEN
 62
     7
370
     0
100
AcDbLine
 10
157.9224070262
 20
75.8569198982
 30
0.0
 11
157.9224070262
 21
74.342809184
 31
0.0
  0
LINE
  5
161
330
1F
100
AcDbEntity
  8
0
  6
HIDDEN
 62
     7
370
     0
100
AcDbLine
 10
243.1480198827
 20
90.1764174081
 30
0.0
 11
241.2317305531
 21
90.1764174081
 31
0.0
  0
LINE
  5
162
330
1F
100
AcDbEntity
  8
0
  6
HIDDEN
 62
     7
370
     0
100
AcDbLine
 10
241.2317305531
 20
87.026417404
 30
0.0
 11
243.1480198827
 21
87.026417404
 31
0.0
  0
LINE
  5
163
330
1F
100
AcDbEntity
  8
0
  6
HIDDEN
 62
     7
370
     0
100
AcDbLine
 10
241.2317305531
 20
90.1764174081
 30
0.0
 11
240.322409543
 21
88.601417406
 31
0.0
  0
LINE
  5
164
330
1F
100
AcDbEntity
  8
0
  6
HIDDEN
 62
     7
370
     0
100
AcDbLine
 10
240.322409543
 20
88.601417406
 30
0.0
 11
241.2317305531
 21
87.026417404
 31
0.0
  0
LINE
  5
165
330
1F
100
AcDbEntity
  8
0
  6
HIDDEN
 62
     7
370
     0
100
AcDbLine
 10
197.2224063899
 20
78.6014176295
 30
0.0
 11
197.2224063899
 21
72.3804361508
 31
0.0
  0
DIMENSION
  5
166
330
1F
100
AcDbEntity
  8
VERMASSUNG
100
AcDbDimension
  2
*D1
 10
246.2224068966
 20
114.4233734829
 30
0.0
 11
206.2224068966
 21
114.4233734829
 31
0.0
 70
   160
 71
     2
 42
-1.0
  3
SLDDIMSTYLE0
100
AcDbAlignedDimension
 13
166.2224068966
 23
108.301417406
 33
0.0
 14
246.2224068966
 24
108.601417406
 34
0.0
100
AcDbRotatedDimension
  0
DIMENSION
  5
171
330
1F
100
AcDbEntity
  8
VERMASSUNG
100
AcDbDimension
  2
*D2
 10
246.2224068966
 20
120.4233734829
 30
0.0
 11
196.2724068966
 21
120.4233734829
 31
0.0
 70
   160
 71
     2
 42
-1.0
  3
SLDDIMSTYLE0
100
AcDbAlignedDimension
 13
146.3224068966
 23
100.8703566393
 33
0.0
 14
246.2224068966
 24
108.601417406
 34
0.0
100
AcDbRotatedDimension
  0
DIMENSION
  5
17B
330
1F
100
AcDbEntity
  8
VERMASSUNG
100
AcDbDimension
  2
*D3
 10
140.7750912705
 20
68.601417406
 30
0.0
 11
140.7750912705
 21
88.601417406
 31
0.0
 70
   160
  1
HSK T %%c<>
 71
     2
 42
-1.0
  3
SLDDIMSTYLE0
100
AcDbAlignedDimension
 13
166.5224068966
 23
108.601417406
 33
0.0
 14
166.5224068966
 24
68.601417406
 34
0.0
 50
90.0
100
AcDbRotatedDimension
  0
LINE
  5
187
330
1F
100
AcDbEntity
  8
VERMASSUNG
  6
CENTERX2
370
     0
100
AcDbLine
 10
144.7044233264
 20
88.601417406
 30
0.0
 11
247.8820946811
 21
88.601417406
 31
0.0
  0
LINE
  5
188
330
1F
100
AcDbEntity
  8
0
  6
Continuous
 62
     7
370
    15
100
AcDbLine
 10
67.0959701993
 20
64.1014180468
 30
0.0
 11
68.0959702468
 21
65.1014182107
 31
0.0
  0
LINE
  5
189
330
1F
100
AcDbEntity
  8
0
  6
Continuous
 62
     7
370
    15
100
AcDbLine
 10
68.0959702468
 20
72.1014174954
 30
0.0
 11
67.0959701993
 21
73.1014176593
 31
0.0
  0
CIRCLE
  5
18A
330
1F
100
AcDbEntity
  8
0
  6
Continuous
 62
     7
370
    15
100
AcDbCircle
 10
55.9280700552
 20
82.7018167415
 30
0.0
 40
3.248439452382753
  0
CIRCLE
  5
18B
330
1F
100
AcDbEntity
  8
0
  6
Continuous
 62
     7
370
    15
100
AcDbCircle
 10
55.9290656759
 20
82.7018294422
 30
0.0
 40
2.498701769214779
  0
CIRCLE
  5
18C
330
1F
100
AcDbEntity
  8
0
  6
Continuous
 62
     7
370
    15
100
AcDbCircle
 10
55.9467592455
 20
82.6914354827
 30
0.0
 40
2.09906944914657
  0
ARC
  5
18D
330
1F
100
AcDbEntity
  8
0
  6
Continuous
 62
     7
370
    15
100
AcDbCircle
 10
56.1914526968
 20
82.5426539866
 30
0.0
 40
2.100138001245702
100
AcDbArc
 50
62.3007236808
 51
234.4797436944
  0
CIRCLE
  5
18E
330
1F
100
AcDbEntity
  8
0
  6
Continuous
 62
     7
370
    15
100
AcDbCircle
 10
56.0959702468
 20
82.601417406
 30
0.0
 40
4.582575694955835
  0
CIRCLE
  5
18F
330
1F
100
AcDbEntity
  8
0
  6
Continuous
 62
     7
370
    15
100
AcDbCircle
 10
56.0959702468
 20
82.601417406
 30
0.0
 40
5.999999999999986
  0
LINE
  5
190
330
1F
100
AcDbEntity
  8
0
  6
Continuous
 62
     7
370
    15
100
AcDbLine
 10
68.0959702468
 20
65.1014182107
 30
0.0
 11
68.0959702468
 21
72.1014174954
 31
0.0
  0
CIRCLE
  5
191
330
1F
100
AcDbEntity
  8
0
  6
Continuous
 62
     7
370
    15
100
AcDbCircle
 10
68.0959702468
 20
88.601417406
 30
0.0
 40
3.349999999999994
  0
LINE
  5
192
330
1F
100
AcDbEntity
  8
0
  6
Continuous
 62
     7
370
    15
100
AcDbLine
 10
88.0959697998
 20
78.6014176295
 30
0.0
 11
67.0959701993
 21
78.6014176295
 31
0.0
  0
LINE
  5
193
330
1F
100
AcDbEntity
  8
0
  6
Continuous
 62
     7
370
    15
100
AcDbLine
 10
67.0959701993
 20
78.6014176295
 30
0.0
 11
67.0959701993
 21
58.6014180766
 31
0.0
  0
LINE
  5
194
330
1F
100
AcDbEntity
  8
0
  6
Continuous
 62
     7
370
    15
100
AcDbLine
 10
48.0959706939
 20
58.6014180766
 30
0.0
 11
67.0959701993
 21
58.6014180766
 31
0.0
  0
LINE
  5
195
330
1F
100
AcDbEntity
  8
0
  6
Continuous
 62
     7
370
    15
100
AcDbLine
 10
48.0959706939
 20
93.6014172943
 30
0.0
 11
48.0959706939
 21
58.6014180766
 31
0.0
  0
LINE
  5
196
330
1F
100
AcDbEntity
  8
0
  6
Continuous
 62
     7
370
    15
100
AcDbLine
 10
63.0959703586
 20
108.601416959
 30
0.0
 11
48.0959706939
 21
93.6014172943
 31
0.0
  0
LINE
  5
197
330
1F
100
AcDbEntity
  8
0
  6
Continuous
 62
     7
370
    15
100
AcDbLine
 10
85.0959711707
 20
108.601416959
 30
0.0
 11
63.0959703586
 21
108.601416959
 31
0.0
  0
LINE
  5
198
330
1F
100
AcDbEntity
  8
0
  6
Continuous
 62
     7
370
    15
100
AcDbLine
 10
88.0959697998
 20
58.6014180766
 30
0.0
 11
94.553482998
 21
58.6014180766
 31
0.0
  0
LINE
  5
199
330
1F
100
AcDbEntity
  8
0
  6
Continuous
 62
     7
370
    15
100
AcDbLine
 10
88.0959697998
 20
78.6014176295
 30
0.0
 11
88.0959697998
 21
58.6014180766
 31
0.0
  0
CIRCLE
  5
19A
330
1F
100
AcDbEntity
  8
0
  6
Continuous
 62
     7
370
    15
100
AcDbCircle
 10
56.0959702468
 20
82.601417406
 30
0.0
 40
6.000000000000028
  0
LINE
  5
19B
330
1F
100
AcDbEntity
  8
0
  6
Continuous
 62
     7
370
    15
100
AcDbLine
 10
100.0959717667
 20
64.6014171974
 30
0.0
 11
100.0959717667
 21
93.6014172943
 31
0.0
  0
LINE
  5
19C
330
1F
100
AcDbEntity
  8
0
  6
Continuous
 62
     7
370
    15
100
AcDbLine
 10
100.0959717667
 20
93.6014172943
 30
0.0
 11
85.0959711707
 21
108.601416959
 31
0.0
  0
ARC
  5
19D
330
1F
100
AcDbEntity
  8
0
  6
Continuous
 62
     7
370
    15
100
AcDbCircle
 10
68.0959702468
 20
88.601417406
 30
0.0
 40
40.00000000000001
100
AcDbArc
 50
311.4096221093
 51
323.1301023542
  0
CIRCLE
  5
19E
330
1F
100
AcDbEntity
  8
0
  6
Continuous
 62
     7
370
    15
100
AcDbCircle
 10
68.0959702468
 20
88.601417406
 30
0.0
 40
1.574999999999989
  0
ELLIPSE
  5
19F
330
1F
100
AcDbEntity
  8
0
  6
Continuous
 62
     7
370
    15
100
AcDbEllipse
 10
57.3639194393
 20
82.4052649833
 30
0.0
 11
2.006661946372262
 21
1.158546814910608
 31
7.105427357601002E-15
210
-4.347457647962700E-15
220
1.396965963913752E-15
230
1.0
 40
0.906307787
 41
1.26064773468774
 42
3.572805344118025
  0
SPLINE
  5
1A0
330
1F
100
AcDbEntity
  8
0
  6
Continuous
 62
     7
370
    15
100
AcDbSpline
210
0.0
220
0.0
230
1.0
 70
     8
 71
     3
 72
    12
 73
     8
 74
     0
 42
0.00000001
 43
0.00000001
 40
0.0
 40
0.0
 40
0.0
 40
0.0
 40
0.5000000000000036
 40
0.5000000000000036
 40
0.7500000000000018
 40
0.7500000000000018
 40
1.0
 40
1.0
 40
1.0
 40
1.0
 10
81.22037499523015
 20
78.6014174060228
 30
0.0
 10
80.9952133108056
 20
78.30590609800072
 30
0.0
 10
80.78168623201124
 20
78.04663996566984
 30
0.0
 10
80.50351912276845
 20
77.7237839267639
 30
0.0
 10
80.42062270796578
 20
77.63035723076848
 30
0.0
 10
80.27875378807968
 20
77.47303006355986
 30
0.0
 10
80.21931194117425
 20
77.40863025553502
 30
0.0
 10
80.17678665837037
 20
77.36291773611585
 30
0.0
  0
SPLINE
  5
1A1
330
1F
100
AcDbEntity
  8
0
  6
Continuous
 62
     7
370
    15
100
AcDbSpline
210
0.0
220
0.0
230
1.0
 70
     8
 71
     3
 72
     8
 73
     4
 74
     0
 42
0.00000001
 43
0.00000001
 40
0.0
 40
0.0
 40
0.0
 40
0.0
 40
1.0
 40
1.0
 40
1.0
 40
1.0
 10
80.09597024682346
 20
78.3888115602214
 30
0.0
 10
80.09597024682346
 20
78.03161947377457
 30
0.0
 10
80.11887097780277
 20
77.6887038765163
 30
0.0
 10
80.17678665837037
 20
77.36291773611583
 30
0.0
  0
LINE
  5
1A2
330
1F
100
AcDbEntity
  8
0
  6
Continuous
 62
     7
370
    15
100
AcDbLine
 10
80.0959703511
 20
78.6014176295
 30
0.0
 11
80.0959703511
 21
78.3888115869
 31
0.0
  0
ARC
  5
1A3
330
1F
100
AcDbEntity
  8
0
  6
Continuous
 62
     7
370
    15
100
AcDbCircle
 10
68.0959702468
 20
88.601417406
 30
0.0
 40
15.75745278151572
100
AcDbArc
 50
296.3743558206
 51
319.6005390216
  0
LINE
  5
1A4
330
1F
100
AcDbEntity
  8
0
  6
Continuous
 62
     7
370
    15
100
AcDbLine
 10
75.0959704629
 20
78.6014176295
 30
0.0
 11
75.0959704629
 21
74.4841476293
 31
0.0
  0
ARC
  5
1A5
330
1F
100
AcDbEntity
  8
0
  6
Continuous
 62
     7
370
    15
100
AcDbCircle
 10
68.0959702468
 20
88.601417406
 30
0.0
 40
16.5000000000028
100
AcDbArc
 50
294.793207423
 51
317.068680803
  0
SPLINE
  5
1A6
330
1F
100
AcDbEntity
  8
0
  6
Continuous
 62
     7
370
    15
100
AcDbSpline
210
0.0
220
0.0
230
1.0
 70
     8
 71
     3
 72
     8
 73
     4
 74
     0
 42
0.00000001
 43
0.00000001
 40
0.0
 40
0.0
 40
0.0
 40
0.0
 40
1.0
 40
1.0
 40
1.0
 40
1.0
 10
75.01515383527594
 20
73.62226861614218
 30
0.0
 10
75.06817472817777
 20
73.91329335344447
 30
0.0
 10
75.09597024682346
 20
74.20110429227992
 30
0.0
 10
75.09597024682346
 20
74.48414719674732
 30
0.0
  0
SPLINE
  5
1A7
330
1F
100
AcDbEntity
  8
0
  6
Continuous
 62
     7
370
    15
100
AcDbSpline
210
0.0
220
0.0
230
1.0
 70
     8
 71
     3
 72
    22
 73
    18
 74
     0
 42
0.00000001
 43
0.00000001
 40
0.0
 40
0.0
 40
0.0
 40
0.0
 40
0.0256223456000764
 40
0.0513438411591302
 40
0.1204648751372871
 40
0.1914104145227173
 40
0.2641664787483738
 40
0.3387542205015461
 40
0.4167741909412211
 40
0.4970205629416732
 40
0.5754108732458291
 40
0.6562874931788422
 40
0.7311351999590672
 40
0.80831623340106
 40
0.8805804224577842
 40
0.9549431485585171
 40
1.0
 40
1.0
 40
1.0
 40
1.0
 10
75.01515401515546
 20
73.62226819109942
 30
0.0
 10
74.99852710534476
 20
73.61460419248824
 30
0.0
 10
74.96520894511025
 20
73.59924653813928
 30
0.0
 10
74.86198189475202
 20
73.55223253707295
 30
0.0
 10
74.67256292749683
 20
73.46768909397763
 30
0.0
 10
74.34390645009825
 20
73.32833456847031
 30
0.0
 10
73.92820395568357
 20
73.16397643280328
 30
0.0
 10
73.42652918903295
 20
72.98269016441827
 30
0.0
 10
72.84280455888644
 20
72.79448114253442
 30
0.0
 10
72.1948477826677
 20
72.6135957752328
 30
0.0
 10
71.50085786630264
 20
72.45118903853063
 30
0.0
 10
70.80377553645683
 20
72.32001703208662
 30
0.0
 10
70.1149387125421
 20
72.22082478434677
 30
0.0
 10
69.47476721888331
 20
72.15518808019901
 30
0.0
 10
68.88409027741116
 20
72.11732047252488
 30
0.0
 10
68.41900487679237
 20
72.10214645153411
 30
0.0
 10
68.18354146218122
 20
72.1026179551417
 30
0.0
 10
68.09470142179264
 20
72.1027958528402
 30
0.0
  0
SPLINE
  5
1A8
330
1F
100
AcDbEntity
  8
0
  6
Continuous
 62
     7
370
    15
100
AcDbSpline
210
0.0
220
0.0
230
1.0
 70
    24
 71
     3
 72
    14
 73
    10
 74
     0
 42
0.00000001
 43
0.00000001
 40
0.0
 40
0.0
 40
0.0
 40
0.0
 40
0.5
 40
0.5
 40
0.75
 40
0.75
 40
0.875
 40
0.875
 40
1.0
 40
1.0
 40
1.0
 40
1.0
 10
72.63909692346374
 20
71.7014174060228
 30
0.0
 10
71.8811026828556
 20
71.7014174060228
 30
0.0
 10
71.12443251195235
 20
71.7014174060228
 30
0.0
 10
69.9892507971115
 20
71.70141740602278
 30
0.0
 10
69.61083341634952
 20
71.7014174060228
 30
0.0
 10
69.0429555844027
 20
71.70141740602278
 30
0.0
 10
68.85362138232443
 20
71.7014174060228
 30
0.0
 10
68.47486610651828
 20
71.70141740602278
 30
0.0
 10
68.28738342353559
 20
71.70141740602278
 30
0.0
 10
68.0959702468235
 20
71.7014174060228
 30
0.0
  0
ARC
  5
1A9
330
1F
100
AcDbEntity
  8
0
  6
Continuous
 62
     7
370
    15
100
AcDbCircle
 10
68.0959702468
 20
88.601417406
 30
0.0
 40
20.0
100
AcDbArc
 50
107.1144331639
 51
126.3346172154
  0
SPLINE
  5
1AA
330
1F
100
AcDbEntity
  8
0
  6
Continuous
 62
     7
370
    15
100
AcDbSpline
210
0.0
220
0.0
230
1.0
 70
    24
 71
     3
 72
    12
 73
     8
 74
     0
 42
0.00000001
 43
0.00000001
 40
0.0
 40
0.0
 40
0.0
 40
0.0
 40
0.25
 40
0.25
 40
0.5
 40
0.5
 40
1.0
 40
1.0
 40
1.0
 40
1.0
 10
56.2459702468235
 20
104.7128264071003
 30
0.0
 10
56.2459702468235
 20
104.7128264071003
 30
0.0
 10
56.2459702468235
 20
104.6872017744955
 30
0.0
 10
56.2459702468235
 20
104.5986584015637
 30
0.0
 10
56.2459702468235
 20
104.535775918449
 30
0.0
 10
56.2459702468235
 20
104.3184147305155
 30
0.0
 10
56.2459702468235
 20
104.1397677205041
 30
0.0
 10
56.2459702468235
 20
103.9616745653284
 30
0.0
  0
ARC
  5
1AB
330
1F
100
AcDbEntity
  8
0
  6
Continuous
 62
     7
370
    15
100
AcDbCircle
 10
68.0959702468
 20
88.601417406
 30
0.0
 40
19.99999999999999
100
AcDbArc
 50
143.6653827846
 51
162.8855668361
  0
SPLINE
  5
1AC
330
1F
100
AcDbEntity
  8
0
  6
Continuous
 62
     7
370
    15
100
AcDbSpline
210
0.0
220
0.0
230
1.0
 70
    24
 71
     3
 72
    12
 73
     8
 74
     0
 42
0.00000001
 43
0.00000001
 40
0.0
 40
0.0
 40
0.0
 40
0.0
 40
0.250000000000002
 40
0.250000000000002
 40
0.500000000000004
 40
0.500000000000004
 40
1.0
 40
1.0
 40
1.0
 40
1.0
 10
51.98456124574604
 20
100.4514174060228
 30
0.0
 10
51.98456124574604
 20
100.4514174060228
 30
0.0
 10
52.00984139591049
 20
100.4514174060228
 30
0.0
 10
52.09945274141224
 20
100.4514174060228
 30
0.0
 10
52.16243837833826
 20
100.4514174060228
 30
0.0
 10
52.37872510009582
 20
100.4514174060228
 30
0.0
 10
52.5587048575162
 20
100.4514174060228
 30
0.0
 10
52.7357130875179
 20
100.4514174060228
 30
0.0
  0
ARC
  5
1AD
330
1F
100
AcDbEntity
  8
0
  6
Continuous
 62
     7
370
    15
100
AcDbCircle
 10
68.0959702468
 20
88.601417406
 30
0.0
 40
20.00000000000002
100
AcDbArc
 50
285.9620141628
 51
330.0
  0
SPLINE
  5
1AE
330
1F
100
AcDbEntity
  8
0
  6
Continuous
 62
     7
370
    15
100
AcDbSpline
210
0.0
220
0.0
230
1.0
 70
    24
 71
     3
 72
    12
 73
     8
 74
     0
 42
0.00000001
 43
0.00000001
 40
0.0
 40
0.0
 40
0.0
 40
0.0
 40
0.2499999999999962
 40
0.2499999999999962
 40
0.4999999999999925
 40
0.4999999999999925
 40
1.0
 40
1.0
 40
1.0
 40
1.0
 10
73.5959702468235
 20
69.37253288299338
 30
0.0
 10
73.5959702468235
 20
69.37253288299338
 30
0.0
 10
73.5959702468235
 20
69.38950847935149
 30
0.0
 10
73.5959702468235
 20
69.45398397681069
 30
0.0
 10
73.5959702468235
 20
69.50109760860529
 30
0.0
 10
73.5959702468235
 20
69.67770752259277
 30
0.0
 10
73.5959702468235
 20
69.83755639840093
 30
0.0
 10
73.5959702468235
 20
69.99738558493596
 30
0.0
  0
LINE
  5
1AF
330
1F
100
AcDbEntity
  8
0
  6
Continuous
 62
     7
370
    15
100
AcDbLine
 10
73.595970217
 20
69.9973847107
 30
0.0
 11
73.595970217
 21
71.7014181749
 31
0.0
  0
LINE
  5
1B0
330
1F
100
AcDbEntity
  8
0
  6
Continuous
 62
     7
370
    15
100
AcDbLine
 10
73.595970217
 20
71.7014181749
 30
0.0
 11
72.6390968076
 21
71.7014181749
 31
0.0
  0
LINE
  5
1B1
330
1F
100
AcDbEntity
  8
0
  6
Continuous
 62
     7
370
    15
100
AcDbLine
 10
52.7357126585
 20
100.4514177651
 30
0.0
 11
54.9459702334
 21
100.4514177651
 31
0.0
  0
LINE
  5
1B2
330
1F
100
AcDbEntity
  8
0
  6
Continuous
 62
     7
370
    15
100
AcDbLine
 10
56.2459698877
 20
103.9616749943
 30
0.0
 11
56.2459698877
 21
101.7514174194
 31
0.0
  0
SPLINE
  5
1B3
330
1F
100
AcDbEntity
  8
0
  6
Continuous
 62
     7
370
    15
100
AcDbSpline
210
0.0
220
0.0
230
1.0
 70
     8
 71
     3
 72
    22
 73
    18
 74
     0
 42
0.00000001
 43
0.00000001
 40
0.0
 40
0.0
 40
0.0
 40
0.0
 40
0.2500000000000002
 40
0.2500000000000002
 40
0.3750000000000001
 40
0.3750000000000001
 40
0.5000000000000001
 40
0.5000000000000001
 40
0.6250000000000001
 40
0.6250000000000001
 40
0.75
 40
0.75
 40
0.875
 40
0.875
 40
0.9375000000000001
 40
0.9375000000000001
 40
1.0
 40
1.0
 40
1.0
 40
1.0
 10
51.98456124574608
 20
100.4514174060228
 30
0.0
 10
52.39855612391257
 20
101.0142900479208
 30
0.0
 10
52.8343659252215
 20
101.5449149316504
 30
0.0
 10
53.51110672820583
 20
102.2906259225719
 30
0.0
 10
53.74196185538052
 20
102.5322461489706
 30
0.0
 10
54.20199891054264
 20
102.9911049242966
 30
0.0
 10
54.42796658732114
 20
103.2052835967664
 30
0.0
 10
54.86515817582187
 20
103.6025121559119
 30
0.0
 10
55.07821090011441
 20
103.7869569909317
 30
0.0
 10
55.46238703934795
 20
104.1080368388153
 30
0.0
 10
55.63650404813943
 20
104.2473876689214
 30
0.0
 10
55.93002179293995
 20
104.4766932033469
 30
0.0
 10
56.04481409753737
 20
104.5632292128233
 30
0.0
 10
56.16376867363334
 20
104.6521188171545
 30
0.0
 10
56.19458675661993
 20
104.6749273230161
 30
0.0
 10
56.23560596833854
 20
104.7052184857124
 30
0.0
 10
56.24597024682352
 20
104.7128264071003
 30
0.0
 10
56.24597024682352
 20
104.7128264071003
 30
0.0
  0
SPLINE
  5
1B4
330
1F
100
AcDbEntity
  8
0
  6
Continuous
 62
     7
370
    15
100
AcDbSpline
210
0.0
220
0.0
230
1.0
 70
     8
 71
     3
 72
    22
 73
    18
 74
     0
 42
0.00000001
 43
0.00000001
 40
0.0
 40
0.0
 40
0.0
 40
0.0
 40
0.1250000000000001
 40
0.1250000000000001
 40
0.2500000000000002
 40
0.2500000000000002
 40
0.3750000000000003
 40
0.3750000000000003
 40
0.5000000000000004
 40
0.5000000000000004
 40
0.6250000000000003
 40
0.6250000000000003
 40
0.7500000000000002
 40
0.7500000000000002
 40
0.8750000000000001
 40
0.8750000000000001
 40
1.0
 40
1.0
 40
1.0
 40
1.0
 10
69.09597024682354
 20
68.62643305058462
 30
0.0
 10
69.3947079752212
 20
68.64138864319395
 30
0.0
 10
69.68791330005565
 20
68.66277683984032
 30
0.0
 10
70.26386838068323
 20
68.71715508645562
 30
0.0
 10
70.54961067449861
 20
68.75060125006401
 30
0.0
 10
71.09313981549226
 20
68.82536552546176
 30
0.0
 10
71.3506330037139
 20
68.86646401442269
 30
0.0
 10
71.83783800097918
 20
68.95301694338646
 30
0.0
 10
72.06797762316833
 20
68.99866784248435
 30
0.0
 10
72.48118327937182
 20
69.08694739764918
 30
0.0
 10
72.6670190200677
 20
69.13004874765643
 30
0.0
 10
72.99611560025112
 20
69.21025292751169
 30
0.0
 10
73.13607545706516
 20
69.24654777490126
 30
0.0
 10
73.36176181829482
 20
69.30672699405096
 30
0.0
 10
73.44903322663356
 20
69.33101433148208
 30
0.0
 10
73.56643343998442
 20
69.36401242579343
 30
0.0
 10
73.59597024682353
 20
69.37253288299338
 30
0.0
 10
73.59597024682353
 20
69.37253288299338
 30
0.0
  0
ARC
  5
1B5
330
1F
100
AcDbEntity
  8
0
  6
Continuous
 62
     7
370
    15
100
AcDbCircle
 10
68.0959702468
 20
88.601417406
 30
0.0
 40
20.00000000000001
100
AcDbArc
 50
270.0
 51
272.8659839826
  0
DIMENSION
  5
1B6
330
1F
100
AcDbEntity
  8
VERMASSUNG
100
AcDbDimension
  2
*D4
 10
39.6939222674
 20
58.601417406
 30
0.0
 11
39.6939222674
 21
68.601417406
 31
0.0
 70
   160
 71
     2
 42
-1.0
  3
SLDDIMSTYLE0
100
AcDbAlignedDimension
 13
67.0959702468
 23
78.601417406
 33
0.0
 14
48.0959702468
 24
58.601417406
 34
0.0
 50
90.0
100
AcDbRotatedDimension
  0
DIMENSION
  5
1C0
330
1F
100
AcDbEntity
  8
VERMASSUNG
100
AcDbDimension
  2
*D5
 10
27.6939222674
 20
58.601417406
 30
0.0
 11
27.6939222674
 21
83.601417406
 31
0.0
 70
   160
 71
     2
 42
-1.0
  3
SLDDIMSTYLE0
100
AcDbAlignedDimension
 13
63.0959702468
 23
108.601417406
 33
0.0
 14
48.0959702468
 24
58.601417406
 34
0.0
 50
90.0
100
AcDbRotatedDimension
  0
DIMENSION
  5
1CA
330
1F
100
AcDbEntity
  8
VERMASSUNG
100
AcDbDimension
  2
*D6
 10
33.6939222674
 20
58.601417406
 30
0.0
 11
33.6939222674
 21
73.601417406
 31
0.0
 70
   160
 71
     2
 42
-1.0
  3
SLDDIMSTYLE0
100
AcDbAlignedDimension
 13
46.6103133723
 23
88.601417406
 33
0.0
 14
48.0959702468
 24
58.601417406
 34
0.0
 50
90.0
100
AcDbRotatedDimension
  0
DIMENSION
  5
1D4
330
1F
100
AcDbEntity
  8
VERMASSUNG
100
AcDbDimension
  2
*D7
 10
88.0959702468
 20
54.601417406
 30
0.0
 11
78.0959702468
 21
54.601417406
 31
0.0
 70
   160
 71
     2
 42
-1.0
  3
SLDDIMSTYLE0
100
AcDbAlignedDimension
 13
68.0959702468
 23
56.315243192
 33
0.0
 14
88.0959702468
 24
58.601417406
 34
0.0
100
AcDbRotatedDimension
  0
DIMENSION
  5
1DE
330
1F
100
AcDbEntity
  8
VERMASSUNG
100
AcDbDimension
  2
*D8
 10
100.0959702468
 20
48.601417406
 30
0.0
 11
84.0959702468
 21
48.601417406
 31
0.0
 70
   160
 71
     2
 42
-1.0
  3
SLDDIMSTYLE0
100
AcDbAlignedDimension
 13
68.0959702468
 23
56.315243192
 33
0.0
 14
100.0959702468
 24
64.601417406
 34
0.0
100
AcDbRotatedDimension
  0
DIMENSION
  5
1E8
330
1F
100
AcDbEntity
  8
VERMASSUNG
100
AcDbDimension
  2
*D9
 10
100.0959702468
 20
42.601417406
 30
0.0
 11
74.0959702468
 21
42.601417406
 31
0.0
 70
   160
 71
     2
 42
-1.0
  3
SLDDIMSTYLE0
100
AcDbAlignedDimension
 13
48.0959702468
 23
58.601417406
 33
0.0
 14
100.0959702468
 24
64.601417406
 34
0.0
100
AcDbRotatedDimension
  0
DIMENSION
  5
1F2
330
1F
100
AcDbEntity
  8
VERMASSUNG
100
AcDbDimension
  2
*D10
 10
39.0901358681
 20
116.1452292699
 30
0.0
 11
104.5053274377
 21
54.0272725647
 31
0.0
 70
   163
  1
<>
 71
     1
 42
-1.0
  3
SLDDIMSTYLE1
100
AcDbDiametricDimension
 15
97.1018046256
 25
61.0576055421
 35
0.0
 40
0.0
  0
INSERT
  5
206
330
1F
100
AcDbEntity
  8
VERMASSUNG
100
AcDbBlockReference
  2
SW_CENTERMARKSYMBOL_0
 10
68.0959702468
 20
88.601417406
 30
0.0
  0
ARC
  5
207
330
1F
100
AcDbEntity
  8
0
  6
Continuous
 62
     7
370
    15
100
AcDbCircle
 10
244.2224068966
 20
180.7655443495
 30
0.0
 40
4.999999999999996
100
AcDbArc
 50
42.9899848585
 51
66.4218215218
  0
ARC
  5
208
330
1F
100
AcDbEntity
  8
0
  6
Continuous
 62
     7
370
    15
100
AcDbCircle
 10
244.2224068966
 20
180.7655443495
 30
0.0
 40
4.999999999999996
100
AcDbArc
 50
293.5781784782
 51
321.9539830877
  0
LINE
  5
209
330
1F
100
AcDbEntity
  8
0
  6
Continuous
 62
     7
370
    15
100
AcDbLine
 10
209.7224056449
 20
169.765544397
 30
0.0
 11
210.7224076714
 21
168.7655443495
 31
0.0
  0
LINE
  5
20A
330
1F
100
AcDbEntity
  8
0
  6
Continuous
 62
     7
370
    15
100
AcDbLine
 10
217.7224069562
 20
168.7655443495
 30
0.0
 11
218.7224052574
 21
169.765544397
 31
0.0
  0
LINE
  5
20B
330
1F
100
AcDbEntity
  8
0
  6
Continuous
 62
     7
370
    15
100
AcDbLine
 10
231.7224055257
 20
169.765544397
 30
0.0
 11
232.7224075522
 21
168.7655443495
 31
0.0
  0
LINE
  5
20C
330
1F
100
AcDbEntity
  8
0
  6
Continuous
 62
     7
370
    15
100
AcDbLine
 10
239.722406837
 20
168.7655443495
 30
0.0
 11
240.7224088635
 21
169.765544397
 31
0.0
  0
LINE
  5
20D
330
1F
100
AcDbEntity
  8
0
  6
Continuous
 62
     7
370
    15
100
AcDbLine
 10
202.1602302518
 20
188.7655439025
 30
0.0
 11
201.4210059967
 21
186.0067261553
 31
0.0
  0
LINE
  5
20E
330
1F
100
AcDbEntity
  8
0
  6
Continuous
 62
     7
370
    15
100
AcDbLine
 10
201.4210059967
 20
151.5243625438
 30
0.0
 11
205.3756177153
 21
136.7655428296
 31
0.0
  0
LINE
  5
20F
330
1F
100
AcDbEntity
  8
0
  6
Continuous
 62
     7
370
    15
100
AcDbLine
 10
178.2128525626
 20
148.7655447966
 30
0.0
 11
180.1872471075
 21
148.7655447966
 31
0.0
  0
LINE
  5
210
330
1F
100
AcDbEntity
  8
0
  6
Continuous
 62
     7
370
    15
100
AcDbLine
 10
166.5224069108
 20
148.7655447966
 30
0.0
 11
168.2224069916
 21
148.7655447966
 31
0.0
  0
LINE
  5
211
330
1F
100
AcDbEntity
  8
0
  6
Continuous
 62
     7
370
    15
100
AcDbLine
 10
180.1872471075
 20
188.7655439025
 30
0.0
 11
166.5224069108
 21
188.7655439025
 31
0.0
  0
ARC
  5
212
330
1F
100
AcDbEntity
  8
0
  6
Continuous
 62
     7
370
    15
100
AcDbCircle
 10
166.5224068966
 20
149.0655443495
 30
0.0
 40
0.3000000000000114
100
AcDbArc
 50
180.0
 51
270.0
  0
ARC
  5
213
330
1F
100
AcDbEntity
  8
0
  6
Continuous
 62
     7
370
    15
100
AcDbCircle
 10
166.5224068966
 20
188.4655443495
 30
0.0
 40
0.3000000000000114
100
AcDbArc
 50
90.0
 51
180.0
  0
ARC
  5
214
330
1F
100
AcDbEntity
  8
0
  6
Continuous
 62
     7
370
    15
100
AcDbCircle
 10
185.5724068966
 20
188.1655443495
 30
0.0
 40
0.5999999999999943
100
AcDbArc
 50
0.0
 51
90.0
  0
ARC
  5
215
330
1F
100
AcDbEntity
  8
0
  6
Continuous
 62
     7
370
    15
100
AcDbCircle
 10
185.5724068966
 20
149.3655443495
 30
0.0
 40
0.6000000000000227
100
AcDbArc
 50
270.0
 51
0.0
  0
LINE
  5
216
330
1F
100
AcDbEntity
  8
0
  6
Continuous
 62
     7
370
    15
100
AcDbLine
 10
184.2575672742
 20
188.7655439025
 30
0.0
 11
183.2624062624
 21
187.0418762958
 31
0.0
  0
LINE
  5
217
330
1F
100
AcDbEntity
  8
0
  6
Continuous
 62
     7
370
    15
100
AcDbLine
 10
184.2575672742
 20
148.7655447966
 30
0.0
 11
185.5724066224
 21
148.7655447966
 31
0.0
  0
LINE
  5
218
330
1F
100
AcDbEntity
  8
0
  6
Continuous
 62
     7
370
    15
100
AcDbLine
 10
185.5724066224
 20
188.7655439025
 30
0.0
 11
184.2575672742
 21
188.7655439025
 31
0.0
  0
LINE
  5
219
330
1F
100
AcDbEntity
  8
0
  6
Continuous
 62
     7
370
    15
100
AcDbLine
 10
183.2624062624
 20
150.4892124033
 30
0.0
 11
184.2575672742
 21
148.7655447966
 31
0.0
  0
LINE
  5
21A
330
1F
100
AcDbEntity
  8
0
  6
Continuous
 62
     7
370
    15
100
AcDbLine
 10
181.182407188
 20
187.0418762958
 30
0.0
 11
180.1872471075
 21
188.7655439025
 31
0.0
  0
LINE
  5
21B
330
1F
100
AcDbEntity
  8
0
  6
Continuous
 62
     7
370
    15
100
AcDbLine
 10
180.1872471075
 20
148.7655447966
 30
0.0
 11
181.182407188
 21
150.4892124033
 31
0.0
  0
ARC
  5
21C
330
1F
100
AcDbEntity
  8
0
  6
Continuous
 62
     7
370
    15
100
AcDbCircle
 10
200.4550799086
 20
186.2655443495
 30
0.0
 40
1.0
100
AcDbArc
 50
270.0
 51
345.0
  0
ARC
  5
21D
330
1F
100
AcDbEntity
  8
0
  6
Continuous
 62
     7
370
    15
100
AcDbCircle
 10
200.4550799086
 20
151.2655443495
 30
0.0
 40
0.9999999999999883
100
AcDbArc
 50
15.0
 51
90.0
  0
ARC
  5
21E
330
1F
100
AcDbEntity
  8
0
  6
Continuous
 62
     7
370
    15
100
AcDbCircle
 10
181.7824068966
 20
186.7405443495
 30
0.0
 40
0.5999999999999943
100
AcDbArc
 50
180.0
 51
270.0
  0
ARC
  5
21F
330
1F
100
AcDbEntity
  8
0
  6
Continuous
 62
     7
370
    15
100
AcDbCircle
 10
182.6624068966
 20
150.7905443495
 30
0.0
 40
0.5999999999999943
100
AcDbArc
 50
0.0
 51
90.0
  0
ARC
  5
220
330
1F
100
AcDbEntity
  8
0
  6
Continuous
 62
     7
370
    15
100
AcDbCircle
 10
182.6624068966
 20
186.7405443495
 30
0.0
 40
0.5999999999999659
100
AcDbArc
 50
270.0
 51
0.0
  0
ARC
  5
221
330
1F
100
AcDbEntity
  8
0
  6
Continuous
 62
     7
370
    15
100
AcDbCircle
 10
181.7824068966
 20
150.7905443495
 30
0.0
 40
0.5999999999999943
100
AcDbArc
 50
90.0
 51
180.0
  0
ARC
  5
222
330
1F
100
AcDbEntity
  8
0
  6
Continuous
 62
     7
370
    15
100
AcDbCircle
 10
187.1724068966
 20
151.2655443495
 30
0.0
 40
1.0
100
AcDbArc
 50
90.0
 51
180.0
  0
ARC
  5
223
330
1F
100
AcDbEntity
  8
0
  6
Continuous
 62
     7
370
    15
100
AcDbCircle
 10
187.1724068966
 20
186.2655443495
 30
0.0
 40
1.0
100
AcDbArc
 50
180.0
 51
270.0
  0
LINE
  5
224
330
1F
100
AcDbEntity
  8
0
  6
Continuous
 62
     7
370
    15
100
AcDbLine
 10
181.7824071001
 20
151.3905445283
 30
0.0
 11
182.6624072816
 21
151.3905445283
 31
0.0
  0
LINE
  5
225
330
1F
100
AcDbEntity
  8
0
  6
Continuous
 62
     7
370
    15
100
AcDbLine
 10
182.6624072816
 20
186.1405441707
 30
0.0
 11
181.7824071001
 21
186.1405441707
 31
0.0
  0
LINE
  5
226
330
1F
100
AcDbEntity
  8
0
  6
Continuous
 62
     7
370
    15
100
AcDbLine
 10
187.1724076297
 20
152.2655444389
 30
0.0
 11
200.4550792005
 21
152.2655444389
 31
0.0
  0
LINE
  5
227
330
1F
100
AcDbEntity
  8
0
  6
Continuous
 62
     7
370
    15
100
AcDbLine
 10
200.4550792005
 20
185.2655442601
 30
0.0
 11
187.1724076297
 21
185.2655442601
 31
0.0
  0
ARC
  5
228
330
1F
100
AcDbEntity
  8
0
  6
Continuous
 62
     7
370
    15
100
AcDbCircle
 10
165.7224001439
 20
153.3118371961
 30
0.0
 40
0.6000067526677242
100
AcDbArc
 50
33.5571153394
 51
90.0
  0
ARC
  5
229
330
1F
100
AcDbEntity
  8
0
  6
Continuous
 62
     7
370
    15
100
AcDbCircle
 10
165.7224001439
 20
184.219251503
 30
0.0
 40
0.6000067526676958
100
AcDbArc
 50
270.0
 51
326.4428846606
  0
LINE
  5
22A
330
1F
100
AcDbEntity
  8
0
  6
Continuous
 62
     7
370
    15
100
AcDbLine
 10
164.2224068016
 20
183.8692449203
 30
0.0
 11
147.0823775705
 21
183.0105254596
 31
0.0
  0
LINE
  5
22B
330
1F
100
AcDbEntity
  8
0
  6
Continuous
 62
     7
370
    15
100
AcDbLine
 10
147.0823775705
 20
154.5205632394
 30
0.0
 11
164.2224068016
 21
153.6618437788
 31
0.0
  0
LINE
  5
22C
330
1F
100
AcDbEntity
  8
0
  6
Continuous
 62
     7
370
    15
100
AcDbLine
 10
164.2224068016
 20
153.6618437788
 30
0.0
 11
165.0791187964
 21
153.8913989609
 31
0.0
  0
LINE
  5
22D
330
1F
100
AcDbEntity
  8
0
  6
Continuous
 62
     7
370
    15
100
AcDbLine
 10
165.0791187964
 20
183.6396897381
 30
0.0
 11
164.2224068016
 21
183.8692449203
 31
0.0
  0
ARC
  5
22E
330
1F
100
AcDbEntity
  8
0
  6
Continuous
 62
     7
370
    15
100
AcDbCircle
 10
165.234411986
 20
153.3118371961
 30
0.0
 40
0.6000067526677242
100
AcDbArc
 50
90.0
 51
105.0
  0
ARC
  5
22F
330
1F
100
AcDbEntity
  8
0
  6
Continuous
 62
     7
370
    15
100
AcDbCircle
 10
165.234411986
 20
184.219251503
 30
0.0
 40
0.6000067526677096
100
AcDbArc
 50
255.0
 51
270.0
  0
LINE
  5
230
330
1F
100
AcDbEntity
  8
0
  6
Continuous
 62
     7
370
    15
100
AcDbLine
 10
165.2344119463
 20
153.9118442854
 30
0.0
 11
165.7224001207
 21
153.9118442854
 31
0.0
  0
LINE
  5
231
330
1F
100
AcDbEntity
  8
0
  6
Continuous
 62
     7
370
    15
100
AcDbLine
 10
165.7224001207
 20
183.6192444137
 30
0.0
 11
165.2344119463
 21
183.6192444137
 31
0.0
  0
ARC
  5
232
330
1F
100
AcDbEntity
  8
0
  6
Continuous
 62
     7
370
    15
100
AcDbCircle
 10
147.1224068966
 20
155.3195607584
 30
0.0
 40
0.8000000000000114
100
AcDbArc
 50
180.0
 51
267.1318680593
  0
ARC
  5
233
330
1F
100
AcDbEntity
  8
0
  6
Continuous
 62
     7
370
    15
100
AcDbCircle
 10
147.1224068966
 20
182.2115279407
 30
0.0
 40
0.8000000000000114
100
AcDbArc
 50
92.8681319407
 51
180.0
  0
ARC
  5
234
330
1F
100
AcDbEntity
  8
0
  6
Continuous
 62
     7
370
    15
100
AcDbCircle
 10
207.5533429214
 20
179.559540872
 30
0.0
 40
40.5896831668815
100
AcDbArc
 50
0.5854361421
 51
6.5290874095
  0
ARC
  5
235
330
1F
100
AcDbEntity
  8
0
  6
Continuous
 62
     7
370
    15
100
AcDbCircle
 10
226.8238789347
 20
178.6514882589
 30
0.0
 40
21.35803009048191
100
AcDbArc
 50
357.4038925664
 51
3.5508130716
  0
LINE
  5
236
330
1F
100
AcDbEntity
  8
0
  6
Continuous
 62
     7
370
    15
100
AcDbLine
 10
214.8483045127
 20
168.7655443495
 30
0.0
 11
217.7224069562
 21
168.7655443495
 31
0.0
  0
LINE
  5
237
330
1F
100
AcDbEntity
  8
0
  6
Continuous
 62
     7
370
    15
100
AcDbLine
 10
210.7224076714
 20
168.7655443495
 30
0.0
 11
214.8483045127
 21
168.7655443495
 31
0.0
  0
LINE
  5
238
330
1F
100
AcDbEntity
  8
0
  6
Continuous
 62
     7
370
    15
100
AcDbLine
 10
235.2168023314
 20
168.7655443495
 30
0.0
 11
239.722406837
 21
168.7655443495
 31
0.0
  0
LINE
  5
239
330
1F
100
AcDbEntity
  8
0
  6
Continuous
 62
     7
370
    15
100
AcDbLine
 10
232.7224075522
 20
168.7655443495
 30
0.0
 11
235.2168023314
 21
168.7655443495
 31
0.0
  0
SPLINE
  5
23A
330
1F
100
AcDbEntity
  8
0
  6
Continuous
 62
     7
370
    15
100
AcDbSpline
210
0.0
220
0.0
230
1.0
 70
    24
 71
     3
 72
    12
 73
     8
 74
     0
 42
0.00000001
 43
0.00000001
 40
0.0
 40
0.0
 40
0.0
 40
0.0
 40
0.25
 40
0.25
 40
0.5
 40
0.5
 40
1.0
 40
1.0
 40
1.0
 40
1.0
 10
202.7927713093759
 20
148.7655443495312
 30
0.0
 10
202.9939686799157
 20
148.7655443495312
 30
0.0
 10
203.235119268838
 20
148.7655443495312
 30
0.0
 10
203.7736979780672
 20
148.7655443495312
 30
0.0
 10
204.0712317744727
 20
148.7655443495312
 30
0.0
 10
205.0195322347808
 20
148.7655443495312
 30
0.0
 10
205.7242794496568
 20
148.7655443495312
 30
0.0
 10
206.4622907467501
 20
148.7655443495312
 30
0.0
  0
SPLINE
  5
23B
330
1F
100
AcDbEntity
  8
0
  6
Continuous
 62
     7
370
    15
100
AcDbSpline
210
0.0
220
0.0
230
1.0
 70
     8
 71
     3
 72
     8
 73
     4
 74
     0
 42
0.00000001
 43
0.00000001
 40
0.0
 40
0.0
 40
0.0
 40
0.0
 40
1.0
 40
1.0
 40
1.0
 40
1.0
 10
207.5192129186992
 20
142.3080312388853
 30
0.0
 10
207.1382420835694
 20
144.4575945889405
 30
0.0
 10
206.7824323301553
 20
146.6116156813703
 30
0.0
 10
206.4622907467501
 20
148.7655443495312
 30
0.0
  0
LINE
  5
23C
330
1F
100
AcDbEntity
  8
0
  6
Continuous
 62
     7
370
    15
100
AcDbLine
 10
207.519213083
 20
142.3080315983
 30
0.0
 11
207.519213083
 21
136.7655428296
 31
0.0
  0
SPLINE
  5
23D
330
1F
100
AcDbEntity
  8
0
  6
Continuous
 62
     7
370
    15
100
AcDbSpline
210
0.0
220
0.0
230
1.0
 70
    24
 71
     3
 72
    11
 73
     7
 74
     0
 42
0.00000001
 43
0.00000001
 40
0.0
 40
0.0
 40
0.0
 40
0.0
 40
0.2294606721709023
 40
0.4852260860329686
 40
0.742453135760194
 40
1.0
 40
1.0
 40
1.0
 40
1.0
 10
205.3898706760172
 20
136.7655428296128
 30
0.0
 10
205.4088594397327
 20
136.7655428296128
 30
0.0
 10
205.4490137869202
 20
136.7655428296128
 30
0.0
 10
205.8937165996294
 20
136.7655428296128
 30
0.0
 10
206.5774168721378
 20
136.7655428296128
 30
0.0
 10
207.2051510148773
 20
136.7655428296128
 30
0.0
 10
207.5192130830054
 20
136.7655428296128
 30
0.0
  0
SPLINE
  5
23E
330
1F
100
AcDbEntity
  8
0
  6
Continuous
 62
     7
370
    15
100
AcDbSpline
210
0.0
220
0.0
230
1.0
 70
    24
 71
     3
 72
    12
 73
     8
 74
     0
 42
0.00000001
 43
0.00000001
 40
0.0
 40
0.0
 40
0.0
 40
0.0
 40
0.3453246609453555
 40
0.5136076404919627
 40
0.6818652227250437
 40
0.8515384226369942
 40
0.9999999999999999
 40
0.9999999999999999
 40
0.9999999999999999
 40
0.9999999999999999
 10
206.4622923459772
 20
188.7655439024964
 30
0.0
 10
205.7212427179282
 20
188.7655439024964
 30
0.0
 10
204.6190661461542
 20
188.7655439024964
 30
0.0
 10
203.4214618842126
 20
188.7655439024964
 30
0.0
 10
202.7114407910755
 20
188.7655439024964
 30
0.0
 10
202.2418626280585
 20
188.7655439024964
 30
0.0
 10
202.1994728765927
 20
188.7655439024964
 30
0.0
 10
202.1796911682848
 20
188.7655439024964
 30
0.0
  0
SPLINE
  5
23F
330
1F
100
AcDbEntity
  8
0
  6
Continuous
 62
     7
370
    15
100
AcDbSpline
210
0.0
220
0.0
230
1.0
 70
     8
 71
     3
 72
    12
 73
     8
 74
     0
 42
0.00000001
 43
0.00000001
 40
0.0
 40
0.0
 40
0.0
 40
0.0
 40
0.4999999999999999
 40
0.4999999999999999
 40
0.7499999999999998
 40
0.7499999999999998
 40
1.0
 40
1.0
 40
1.0
 40
1.0
 10
204.8441855744449
 20
169.7655443495313
 30
0.0
 10
204.8724020932773
 20
172.9264634104972
 30
0.0
 10
205.0370498755166
 20
176.0923868729894
 30
0.0
 10
205.4578654789285
 20
180.8476487930525
 30
0.0
 10
205.6266389677839
 20
182.4342613773931
 30
0.0
 10
206.0120097066255
 20
185.6072574673319
 30
0.0
 10
206.2278921583988
 20
187.1884988627938
 30
0.0
 10
206.4622907467501
 20
188.7655443495312
 30
0.0
  0
LINE
  5
240
330
1F
100
AcDbEntity
  8
0
  6
Continuous
 62
     7
370
    15
100
AcDbLine
 10
204.8441864278
 20
169.765544397
 30
0.0
 11
201.4210059967
 21
169.765544397
 31
0.0
  0
SPLINE
  5
241
330
1F
100
AcDbEntity
  8
0
  6
Continuous
 62
     7
370
    15
100
AcDbSpline
210
0.0
220
0.0
230
1.0
 70
     8
 71
     3
 72
     8
 73
     4
 74
     0
 42
0.00000001
 43
0.00000001
 40
0.0
 40
0.0
 40
0.0
 40
0.0
 40
1.0
 40
1.0
 40
1.0
 40
1.0
 10
202.7927713093759
 20
148.7655443495312
 30
0.0
 10
202.3178580441816
 20
150.7471482774173
 30
0.0
 10
201.8552680402717
 20
152.7311529418957
 30
0.0
 10
201.4210057348775
 20
154.7206762220096
 30
0.0
  0
LINE
  5
242
330
1F
100
AcDbEntity
  8
0
  6
Continuous
 62
     7
370
    15
100
AcDbLine
 10
246.2224051084
 20
188.7655439025
 30
0.0
 11
246.2224051084
 21
169.765544397
 31
0.0
  0
LINE
  5
243
330
1F
100
AcDbEntity
  8
0
  6
Continuous
 62
     7
370
    15
100
AcDbLine
 10
246.2224051084
 20
169.765544397
 30
0.0
 11
204.8441864278
 21
169.765544397
 31
0.0
  0
LINE
  5
244
330
1F
100
AcDbEntity
  8
0
  6
Continuous
 62
     7
370
    15
100
AcDbLine
 10
206.462292346
 20
188.7655439025
 30
0.0
 11
246.2224051084
 21
188.7655439025
 31
0.0
  0
LINE
  5
245
330
1F
100
AcDbEntity
  8
0
  6
Continuous
 62
     7
370
    15
100
AcDbLine
 10
246.2224051084
 20
148.7655447966
 30
0.0
 11
246.2224051084
 21
142.3080315983
 31
0.0
  0
LINE
  5
246
330
1F
100
AcDbEntity
  8
0
  6
Continuous
 62
     7
370
    15
100
AcDbLine
 10
246.2224051084
 20
142.3080315983
 30
0.0
 11
207.519213083
 21
142.3080315983
 31
0.0
  0
LINE
  5
247
330
1F
100
AcDbEntity
  8
0
  6
Continuous
 62
     7
370
    15
100
AcDbLine
 10
206.462292346
 20
148.7655447966
 30
0.0
 11
246.2224051084
 21
148.7655447966
 31
0.0
  0
LINE
  5
248
330
1F
100
AcDbEntity
  8
0
  6
Continuous
 62
     7
370
    15
100
AcDbLine
 10
207.519213083
 20
136.7655428296
 30
0.0
 11
246.2224051084
 21
136.7655428296
 31
0.0
  0
LINE
  5
249
330
1F
100
AcDbEntity
  8
0
  6
Continuous
 62
     7
370
    15
100
AcDbLine
 10
246.2224051084
 20
142.3080315983
 30
0.0
 11
246.2224051084
 21
136.7655428296
 31
0.0
  0
LINE
  5
24A
330
1F
100
AcDbEntity
  8
0
  6
Continuous
 62
     7
370
    15
100
AcDbLine
 10
180.1872471075
 20
174.2655443197
 30
0.0
 11
180.1872471075
 21
188.7655439025
 31
0.0
  0
LINE
  5
24B
330
1F
100
AcDbEntity
  8
0
  6
Continuous
 62
     7
370
    15
100
AcDbLine
 10
180.1872471075
 20
174.2655443197
 30
0.0
 11
178.6724071678
 21
174.2655443197
 31
0.0
  0
SPLINE
  5
24C
330
1F
100
AcDbEntity
  8
0
  6
Continuous
 62
     7
370
    15
100
AcDbSpline
210
0.0
220
0.0
230
1.0
 70
     8
 71
     3
 72
    22
 73
    18
 74
     0
 42
0.00000001
 43
0.00000001
 40
0.0
 40
0.0
 40
0.0
 40
0.0
 40
0.125
 40
0.125
 40
0.25
 40
0.25
 40
0.375
 40
0.375
 40
0.5
 40
0.5
 40
0.625
 40
0.625
 40
0.75
 40
0.75
 40
0.875
 40
0.875
 40
1.0
 40
1.0
 40
1.0
 40
1.0
 10
178.6724068965677
 20
174.2655443495313
 30
0.0
 10
178.3732824675272
 20
174.2655443495313
 30
0.0
 10
178.0794600192783
 20
174.2360184511113
 30
0.0
 10
177.501895743032
 20
174.1206136178247
 30
0.0
 10
177.2150780652181
 20
174.0332308127588
 30
0.0
 10
176.6706155363187
 20
173.8065573934512
 30
0.0
 10
176.4126602656974
 20
173.6680815471186
 30
0.0
 10
175.9246023223375
 20
173.3412710499549
 30
0.0
 10
175.6949040236737
 20
173.1522262139749
 30
0.0
 10
175.2824850407211
 20
172.7393579314992
 30
0.0
 10
175.096958097861
 20
172.5138860402478
 30
0.0
 10
174.7684380529602
 20
172.0230304357002
 30
0.0
 10
174.6300241660607
 20
171.7641902777581
 30
0.0
 10
174.4054320194448
 20
171.2244374519623
 30
0.0
 10
174.3183532073206
 20
170.9403343631332
 30
0.0
 10
174.2018513993655
 20
170.3588812279913
 30
0.0
 10
174.1724068965677
 20
170.064230762363
 30
0.0
 10
174.1724068965677
 20
169.7655443495313
 30
0.0
  0
LINE
  5
24D
330
1F
100
AcDbEntity
  8
0
  6
Continuous
 62
     7
370
    15
100
AcDbLine
 10
174.1724073615
 20
169.765544397
 30
0.0
 11
174.1724073615
 21
167.765544302
 31
0.0
  0
SPLINE
  5
24E
330
1F
100
AcDbEntity
  8
0
  6
Continuous
 62
     7
370
    15
100
AcDbSpline
210
0.0
220
0.0
230
1.0
 70
     8
 71
     3
 72
    22
 73
    18
 74
     0
 42
0.00000001
 43
0.00000001
 40
0.0
 40
0.0
 40
0.0
 40
0.0
 40
0.1250000000000001
 40
0.1250000000000001
 40
0.2500000000000002
 40
0.2500000000000002
 40
0.3750000000000003
 40
0.3750000000000003
 40
0.5000000000000004
 40
0.5000000000000004
 40
0.6250000000000003
 40
0.6250000000000003
 40
0.7500000000000002
 40
0.7500000000000002
 40
0.8750000000000001
 40
0.8750000000000001
 40
1.0
 40
1.0
 40
1.0
 40
1.0
 10
174.1724068965677
 20
167.7655443495312
 30
0.0
 10
174.1724068965678
 20
167.4668066211336
 30
0.0
 10
174.2018553176979
 20
167.1736012962992
 30
0.0
 10
174.3166931839218
 20
166.5976462156715
 30
0.0
 10
174.4035060224595
 20
166.3119039218562
 30
0.0
 10
174.6291533947555
 20
165.7683747808625
 30
0.0
 10
174.7669905364197
 20
165.5108815926409
 30
0.0
 10
175.092191496324
 20
165.0236765953756
 30
0.0
 10
175.280893776232
 20
164.7935369731865
 30
0.0
 10
175.6932254964643
 20
164.380331316983
 30
0.0
 10
175.9183724228162
 20
164.1944955762871
 30
0.0
 10
176.4083482741734
 20
163.8653989961037
 30
0.0
 10
176.6690559162953
 20
163.7254391392896
 30
0.0
 10
177.209913297011
 20
163.49975277806
 30
0.0
 10
177.493603923065
 20
163.4124813697212
 30
0.0
 10
178.0776862939944
 20
163.2950811563704
 30
0.0
 10
178.3732538489864
 20
163.2655443495312
 30
0.0
 10
178.6724068965677
 20
163.2655443495312
 30
0.0
  0
LINE
  5
24F
330
1F
100
AcDbEntity
  8
0
  6
Continuous
 62
     7
370
    15
100
AcDbLine
 10
178.6724071678
 20
163.2655443793
 30
0.0
 11
180.1872471075
 21
163.2655443793
 31
0.0
  0
LINE
  5
250
330
1F
100
AcDbEntity
  8
0
  6
Continuous
 62
     7
370
    15
100
AcDbLine
 10
180.1872471075
 20
148.7655447966
 30
0.0
 11
180.1872471075
 21
163.2655443793
 31
0.0
  0
SPLINE
  5
251
330
1F
100
AcDbEntity
  8
0
  6
Continuous
 62
     7
370
    15
100
AcDbSpline
210
0.0
220
0.0
230
1.0
 70
     8
 71
     3
 72
    26
 73
    22
 74
     0
 42
0.00000001
 43
0.00000001
 40
0.0
 40
0.0
 40
0.0
 40
0.0
 40
0.0518086777789673
 40
0.1051478112096984
 40
0.1569488445708777
 40
0.2102011617783841
 40
0.2629608365061462
 40
0.3172046013403532
 40
0.3706941931921108
 40
0.4257950591953966
 40
0.4781959060758691
 40
0.5321929228992337
 40
0.583371067187249
 40
0.6360072974582667
 40
0.6877351791694954
 40
0.740882455027983
 40
0.7940564759392987
 40
0.8487591140522152
 40
0.9020657370858305
 40
0.9569975687295231
 40
1.0
 40
1.0
 40
1.0
 40
1.0
 10
168.2224069915627
 20
148.7655447965661
 30
0.0
 10
168.2353131064505
 20
148.7687908142964
 30
0.0
 10
168.2615065896633
 20
148.7753787388321
 30
0.0
 10
168.4718640223467
 20
148.82702277156
 30
0.0
 10
168.803541744374
 20
148.9040499847283
 30
0.0
 10
169.2556009638267
 20
149.0006182115263
 30
0.0
 10
169.8228872591592
 20
149.1076203468407
 30
0.0
 10
170.4866725871346
 20
149.21255825439
 30
0.0
 10
171.2396589369542
 20
149.3046205984703
 30
0.0
 10
172.0436438120819
 20
149.3706475469724
 30
0.0
 10
172.8852495324048
 20
149.4037833082537
 30
0.0
 10
173.7168795455076
 20
149.4002224057396
 30
0.0
 10
174.534561004112
 20
149.3615936590059
 30
0.0
 10
175.303982661508
 20
149.2938025892958
 30
0.0
 10
176.0247518571216
 20
149.2028214043886
 30
0.0
 10
176.6712823367971
 20
149.0989151894466
 30
0.0
 10
177.2334549252028
 20
148.9916950666548
 30
0.0
 10
177.6846422095889
 20
148.8943348061296
 30
0.0
 10
178.0090874807685
 20
148.8183383968997
 30
0.0
 10
178.196164283481
 20
148.7721325045573
 30
0.0
 10
178.2077606553315
 20
148.7692089672609
 30
0.0
 10
178.2128525625829
 20
148.7679252570668
 30
0.0
  0
LINE
  5
252
330
1F
100
AcDbEntity
  8
0
  6
Continuous
 62
     7
370
    15
100
AcDbLine
 10
166.2224068966
 20
168.7655443495
 30
0.0
 11
166.2224068966
 21
188.4655444121
 31
0.0
  0
LINE
  5
253
330
1F
100
AcDbEntity
  8
0
  6
Continuous
 62
     7
370
    15
100
AcDbLine
 10
166.2224068966
 20
149.0655442869
 30
0.0
 11
166.2224068966
 21
168.7655443495
 31
0.0
  0
LINE
  5
254
330
1F
100
AcDbEntity
  8
0
  6
Continuous
 62
     7
370
    15
100
AcDbLine
 10
186.1724074658
 20
174.2655443197
 30
0.0
 11
186.1724074658
 21
188.1655449217
 31
0.0
  0
SPLINE
  5
255
330
1F
100
AcDbEntity
  8
0
  6
Continuous
 62
     7
370
    15
100
AcDbSpline
210
0.0
220
0.0
230
1.0
 70
    24
 71
     3
 72
    10
 73
     6
 74
     0
 42
0.00000001
 43
0.00000001
 40
0.0
 40
0.0
 40
0.0
 40
0.0
 40
0.5
 40
0.5
 40
1.0
 40
1.0
 40
1.0
 40
1.0
 10
186.1724068965677
 20
174.2655443495313
 30
0.0
 10
186.1724068965677
 20
174.2655443495312
 30
0.0
 10
186.1107703828625
 20
174.2655443495313
 30
0.0
 10
185.8917440166196
 20
174.2655443495312
 30
0.0
 10
185.7341271285721
 20
174.2655443495313
 30
0.0
 10
185.5724068965678
 20
174.2655443495313
 30
0.0
  0
LINE
  5
256
330
1F
100
AcDbEntity
  8
0
  6
Continuous
 62
     7
370
    15
100
AcDbLine
 10
186.1724074658
 20
149.3655437773
 30
0.0
 11
186.1724074658
 21
163.2655443793
 31
0.0
  0
SPLINE
  5
257
330
1F
100
AcDbEntity
  8
0
  6
Continuous
 62
     7
370
    15
100
AcDbSpline
210
0.0
220
0.0
230
1.0
 70
    24
 71
     3
 72
    12
 73
     8
 74
     0
 42
0.00000001
 43
0.00000001
 40
0.0
 40
0.0
 40
0.0
 40
0.0
 40
0.2499999999999962
 40
0.2499999999999962
 40
0.4999999999999925
 40
0.4999999999999925
 40
1.0
 40
1.0
 40
1.0
 40
1.0
 10
185.5724068965678
 20
163.2655443495312
 30
0.0
 10
185.652172377038
 20
163.2655443495312
 30
0.0
 10
185.732593660695
 20
163.2655443495312
 30
0.0
 10
185.8792755773576
 20
163.2655443495312
 30
0.0
 10
185.9456293869215
 20
163.2655443495312
 30
0.0
 10
186.1118334676482
 20
163.2655443495312
 30
0.0
 10
186.1724068965677
 20
163.2655443495312
 30
0.0
 10
186.1724068965678
 20
163.2655443495312
 30
0.0
  0
LINE
  5
258
330
1F
100
AcDbEntity
  8
0
  6
Continuous
 62
     7
370
    15
100
AcDbLine
 10
184.2575672742
 20
174.2655443197
 30
0.0
 11
184.2575672742
 21
188.7655439025
 31
0.0
  0
LINE
  5
259
330
1F
100
AcDbEntity
  8
0
  6
Continuous
 62
     7
370
    15
100
AcDbLine
 10
183.2624062624
 20
174.2655443197
 30
0.0
 11
183.2624062624
 21
187.0418762958
 31
0.0
  0
SPLINE
  5
25A
330
1F
100
AcDbEntity
  8
0
  6
Continuous
 62
     7
370
    15
100
AcDbSpline
210
0.0
220
0.0
230
1.0
 70
    24
 71
     3
 72
     8
 73
     4
 74
     0
 42
0.00000001
 43
0.00000001
 40
0.0
 40
0.0
 40
0.0
 40
0.0
 40
1.0
 40
1.0
 40
1.0
 40
1.0
 10
184.2575665954612
 20
174.2655443495313
 30
0.0
 10
183.9248613237559
 20
174.2655443495313
 30
0.0
 10
183.5930455231824
 20
174.2655443495313
 30
0.0
 10
183.2624068965677
 20
174.2655443495313
 30
0.0
  0
LINE
  5
25B
330
1F
100
AcDbEntity
  8
0
  6
Continuous
 62
     7
370
    15
100
AcDbLine
 10
184.2575672742
 20
148.7655447966
 30
0.0
 11
184.2575672742
 21
163.2655443793
 31
0.0
  0
LINE
  5
25C
330
1F
100
AcDbEntity
  8
0
  6
Continuous
 62
     7
370
    15
100
AcDbLine
 10
184.2575672742
 20
163.2655443793
 30
0.0
 11
185.5724066224
 21
163.2655443793
 31
0.0
  0
LINE
  5
25D
330
1F
100
AcDbEntity
  8
0
  6
Continuous
 62
     7
370
    15
100
AcDbLine
 10
185.5724066224
 20
174.2655443197
 30
0.0
 11
184.2575672742
 21
174.2655443197
 31
0.0
  0
LINE
  5
25E
330
1F
100
AcDbEntity
  8
0
  6
Continuous
 62
     7
370
    15
100
AcDbLine
 10
183.2624062624
 20
150.4892124033
 30
0.0
 11
183.2624062624
 21
163.2655443793
 31
0.0
  0
SPLINE
  5
25F
330
1F
100
AcDbEntity
  8
0
  6
Continuous
 62
     7
370
    15
100
AcDbSpline
210
0.0
220
0.0
230
1.0
 70
    24
 71
     3
 72
     8
 73
     4
 74
     0
 42
0.00000001
 43
0.00000001
 40
0.0
 40
0.0
 40
0.0
 40
0.0
 40
1.0
 40
1.0
 40
1.0
 40
1.0
 10
183.2624068965677
 20
163.2655443495312
 30
0.0
 10
183.5930455231824
 20
163.2655443495312
 30
0.0
 10
183.9248613237559
 20
163.2655443495312
 30
0.0
 10
184.2575665954612
 20
163.2655443495312
 30
0.0
  0
LINE
  5
260
330
1F
100
AcDbEntity
  8
0
  6
Continuous
 62
     7
370
    15
100
AcDbLine
 10
181.182407188
 20
174.2655443197
 30
0.0
 11
181.182407188
 21
187.0418762958
 31
0.0
  0
SPLINE
  5
261
330
1F
100
AcDbEntity
  8
0
  6
Continuous
 62
     7
370
    15
100
AcDbSpline
210
0.0
220
0.0
230
1.0
 70
    24
 71
     3
 72
     8
 73
     4
 74
     0
 42
0.00000001
 43
0.00000001
 40
0.0
 40
0.0
 40
0.0
 40
0.0
 40
1.0
 40
1.0
 40
1.0
 40
1.0
 10
181.1824068965678
 20
174.2655443495313
 30
0.0
 10
180.8517682699532
 20
174.2655443495313
 30
0.0
 10
180.5199524693796
 20
174.2655443495313
 30
0.0
 10
180.1872471976743
 20
174.2655443495313
 30
0.0
  0
LINE
  5
262
330
1F
100
AcDbEntity
  8
0
  6
Continuous
 62
     7
370
    15
100
AcDbLine
 10
181.182407188
 20
150.4892124033
 30
0.0
 11
181.182407188
 21
163.2655443793
 31
0.0
  0
SPLINE
  5
263
330
1F
100
AcDbEntity
  8
0
  6
Continuous
 62
     7
370
    15
100
AcDbSpline
210
0.0
220
0.0
230
1.0
 70
    24
 71
     3
 72
     8
 73
     4
 74
     0
 42
0.00000001
 43
0.00000001
 40
0.0
 40
0.0
 40
0.0
 40
0.0
 40
1.0
 40
1.0
 40
1.0
 40
1.0
 10
180.1872471976743
 20
163.2655443495312
 30
0.0
 10
180.5199524693796
 20
163.2655443495312
 30
0.0
 10
180.8517682699532
 20
163.2655443495312
 30
0.0
 10
181.1824068965678
 20
163.2655443495312
 30
0.0
  0
SPLINE
  5
264
330
1F
100
AcDbEntity
  8
0
  6
Continuous
 62
     7
370
    15
100
AcDbSpline
210
0.0
220
0.0
230
1.0
 70
     8
 71
     3
 72
    12
 73
     8
 74
     0
 42
0.00000001
 43
0.00000001
 40
0.0
 40
0.0
 40
0.0
 40
0.0
 40
0.2500000000000054
 40
0.2500000000000054
 40
0.5000000000000108
 40
0.5000000000000108
 40
1.0
 40
1.0
 40
1.0
 40
1.0
 10
201.2224068965677
 20
169.7655443495313
 30
0.0
 10
201.1751281392625
 20
169.7655443495313
 30
0.0
 10
201.1225134284722
 20
169.7647148762746
 30
0.0
 10
201.0069554485764
 20
169.7601562556492
 30
0.0
 10
200.9432684664712
 20
169.7563418465719
 30
0.0
 10
200.7453979934176
 20
169.7392069180548
 30
0.0
 10
200.5999631741105
 20
169.7195748182713
 30
0.0
 10
200.4550799085888
 20
169.691255660048
 30
0.0
  0
SPLINE
  5
265
330
1F
100
AcDbEntity
  8
0
  6
Continuous
 62
     7
370
    15
100
AcDbSpline
210
0.0
220
0.0
230
1.0
 70
     8
 71
     3
 72
    14
 73
    10
 74
     0
 42
0.00000001
 43
0.00000001
 40
0.0
 40
0.0
 40
0.0
 40
0.0
 40
0.25
 40
0.25
 40
0.5
 40
0.5
 40
0.75
 40
0.75
 40
1.0
 40
1.0
 40
1.0
 40
1.0
 10
200.4550799085888
 20
155.6411396011246
 30
0.0
 10
200.5763028223907
 20
155.6411396011246
 30
0.0
 10
200.6947837638295
 20
155.6131406585071
 30
0.0
 10
200.9122029548526
 20
155.511761294573
 30
0.0
 10
201.0104268873663
 20
155.4387127326378
 30
0.0
 10
201.1767964028684
 20
155.2665350664058
 30
0.0
 10
201.2463216484077
 20
155.166231668015
 30
0.0
 10
201.3549722228678
 20
154.9532104713482
 30
0.0
 10
201.3952682914064
 20
154.8385893872102
 30
0.0
 10
201.4210057348778
 20
154.7206762220085
 30
0.0
  0
SPLINE
  5
266
330
1F
100
AcDbEntity
  8
0
  6
Continuous
 62
     7
370
    15
100
AcDbSpline
210
0.0
220
0.0
230
1.0
 70
    24
 71
     3
 72
     8
 73
     4
 74
     0
 42
0.00000001
 43
0.00000001
 40
0.0
 40
0.0
 40
0.0
 40
0.0
 40
1.0
 40
1.0
 40
1.0
 40
1.0
 10
201.4210057348779
 20
169.7655443495313
 30
0.0
 10
201.3832574535683
 20
169.7655443495313
 30
0.0
 10
201.3159839394413
 20
169.7655443495313
 30
0.0
 10
201.2224068965677
 20
169.7655443495313
 30
0.0
  0
SPLINE
  5
267
330
1F
100
AcDbEntity
  8
0
  6
Continuous
 62
     7
370
    15
100
AcDbSpline
210
0.0
220
0.0
230
1.0
 70
     8
 71
     3
 72
    16
 73
    12
 74
     0
 42
0.00000001
 43
0.00000001
 40
0.0
 40
0.0
 40
0.0
 40
0.0
 40
0.0624999999999997
 40
0.0624999999999997
 40
0.1249999999999994
 40
0.1249999999999994
 40
0.2499999999999988
 40
0.2499999999999988
 40
0.499999999999999
 40
0.499999999999999
 40
1.0
 40
1.0
 40
1.0
 40
1.0
 10
181.7824068965411
 20
172.8004699994039
 30
0.0
 10
181.7479282293559
 20
172.8004699994105
 30
0.0
 10
181.7141080525191
 20
172.8143268723131
 30
0.0
 10
181.6575859853354
 20
172.8537045945877
 30
0.0
 10
181.6332599058092
 20
172.8790678989912
 30
0.0
 10
181.5688070062579
 20
172.9594156588734
 30
0.0
 10
181.5351787308993
 20
173.0204744671282
 30
0.0
 10
181.4471014153744
 20
173.2053556389486
 30
0.0
 10
181.4042819621068
 20
173.334846392794
 30
0.0
 10
181.2936253279098
 20
173.7303017751437
 30
0.0
 10
181.2473927419658
 20
173.9973718109241
 30
0.0
 10
181.2176292971491
 20
174.2655443495313
 30
0.0
  0
SPLINE
  5
268
330
1F
100
AcDbEntity
  8
0
  6
Continuous
 62
     7
370
    15
100
AcDbSpline
210
0.0
220
0.0
230
1.0
 70
     8
 71
     3
 72
    16
 73
    12
 74
     0
 42
0.00000001
 43
0.00000001
 40
0.0
 40
0.0
 40
0.0
 40
0.0
 40
0.0625000000000021
 40
0.0625000000000021
 40
0.1250000000000042
 40
0.1250000000000042
 40
0.2500000000000031
 40
0.2500000000000031
 40
0.500000000000001
 40
0.500000000000001
 40
1.0
 40
1.0
 40
1.0
 40
1.0
 10
182.6624068965678
 20
164.7306186996585
 30
0.0
 10
182.6966947200278
 20
164.7306186996585
 30
0.0
 10
182.7305786293494
 20
164.7168049965163
 30
0.0
 10
182.7869148221662
 20
164.6776471876811
 30
0.0
 10
182.8111766783332
 20
164.6524202776462
 30
0.0
 10
182.8754697963803
 20
164.5724818596453
 30
0.0
 10
182.909033585807
 20
164.5117083961429
 30
0.0
 10
182.9969499580296
 20
164.3276646174367
 30
0.0
 10
183.0397065007462
 20
164.1987430629161
 30
0.0
 10
183.1502512423964
 20
163.805018182858
 30
0.0
 10
183.1972306561586
 20
163.5354323721418
 30
0.0
 10
183.2271844959864
 20
163.2655443495312
 30
0.0
  0
SPLINE
  5
269
330
1F
100
AcDbEntity
  8
0
  6
Continuous
 62
     7
370
    15
100
AcDbSpline
210
0.0
220
0.0
230
1.0
 70
     8
 71
     3
 72
    16
 73
    12
 74
     0
 42
0.00000001
 43
0.00000001
 40
0.0
 40
0.0
 40
0.0
 40
0.0
 40
0.5000000000000001
 40
0.5000000000000001
 40
0.7499999999999993
 40
0.7499999999999993
 40
0.8749999999999983
 40
0.8749999999999983
 40
0.9374999999999991
 40
0.9374999999999991
 40
1.0
 40
1.0
 40
1.0
 40
1.0
 10
183.2271844959865
 20
174.2655443495316
 30
0.0
 10
183.1971480764599
 20
173.9949122730114
 30
0.0
 10
183.1505139792551
 20
173.7273862698456
 30
0.0
 10
183.0401295676764
 20
173.3336639073634
 30
0.0
 10
182.9967919191558
 20
173.202821128164
 30
0.0
 10
182.9083102847711
 20
173.018004064533
 30
0.0
 10
182.8749347801545
 20
172.957725412003
 30
0.0
 10
182.8104425707039
 20
172.8778663213279
 30
0.0
 10
182.7862382335173
 20
172.8528934203481
 30
0.0
 10
182.7304844237069
 20
172.8142971179623
 30
0.0
 10
182.6969003976387
 20
172.8004699994039
 30
0.0
 10
182.6624068965678
 20
172.8004699994039
 30
0.0
  0
SPLINE
  5
26A
330
1F
100
AcDbEntity
  8
0
  6
Continuous
 62
     7
370
    15
100
AcDbSpline
210
0.0
220
0.0
230
1.0
 70
     8
 71
     3
 72
    16
 73
    12
 74
     0
 42
0.00000001
 43
0.00000001
 40
0.0
 40
0.0
 40
0.0
 40
0.0
 40
0.5
 40
0.5
 40
0.75
 40
0.75
 40
0.875
 40
0.875
 40
0.9375
 40
0.9375
 40
1.0
 40
1.0
 40
1.0
 40
1.0
 10
181.2176292971491
 20
163.2655443495312
 30
0.0
 10
181.2474067028393
 20
163.5338426774385
 30
0.0
 10
181.2943799487031
 20
163.8040246625519
 30
0.0
 10
181.4046974080583
 20
164.1974535955483
 30
0.0
 10
181.4478418785198
 20
164.3278609341849
 30
0.0
 10
181.5365036781897
 20
164.5131003004871
 30
0.0
 10
181.5695548853192
 20
164.5728239032872
 30
0.0
 10
181.6339004698049
 20
164.6527074557596
 30
0.0
 10
181.6580455832385
 20
164.6778082484409
 30
0.0
 10
181.7146645038639
 20
164.7170436602818
 30
0.0
 10
181.7482670507422
 20
164.7306186996582
 30
0.0
 10
181.7824068965679
 20
164.7306186996581
 30
0.0
  0
SPLINE
  5
26B
330
1F
100
AcDbEntity
  8
0
  6
Continuous
 62
     7
370
    15
100
AcDbSpline
210
0.0
220
0.0
230
1.0
 70
     8
 71
     3
 72
    18
 73
    14
 74
     0
 42
0.00000001
 43
0.00000001
 40
0.0
 40
0.0
 40
0.0
 40
0.0
 40
0.25
 40
0.25
 40
0.5
 40
0.5
 40
0.5625
 40
0.5625
 40
0.625
 40
0.625
 40
0.75
 40
0.75
 40
1.0
 40
1.0
 40
1.0
 40
1.0
 10
186.1724068965677
 20
164.222417672891
 30
0.0
 10
186.1724068965677
 20
164.976844603178
 30
0.0
 10
186.2273477952007
 20
165.7299595697631
 30
0.0
 10
186.327977688753
 20
167.2364104341914
 30
0.0
 10
186.3716803655401
 20
167.9898346551257
 30
0.0
 10
186.3725758264032
 20
168.9327208699087
 30
0.0
 10
186.3703158328856
 20
169.1248693084484
 30
0.0
 10
186.3612479987981
 20
169.5055488017306
 30
0.0
 10
186.3544495941331
 20
169.6958023465177
 30
0.0
 10
186.3287441407464
 20
170.2663608369255
 30
0.0
 10
186.3044451753949
 20
170.646461273499
 30
0.0
 10
186.2283805192119
 20
171.7866360773322
 30
0.0
 10
186.1724068965677
 20
172.5465439077061
 30
0.0
 10
186.1724068965677
 20
173.3086710261715
 30
0.0
  0
LINE
  5
26C
330
1F
100
AcDbEntity
  8
0
  6
Continuous
 62
     7
370
    15
100
AcDbLine
 10
181.7824071001
 20
164.7306186317
 30
0.0
 11
182.6624072816
 21
164.7306186317
 31
0.0
  0
LINE
  5
26D
330
1F
100
AcDbEntity
  8
0
  6
Continuous
 62
     7
370
    15
100
AcDbLine
 10
182.6624072816
 20
172.8004700674
 30
0.0
 11
181.7824071001
 21
172.8004700674
 31
0.0
  0
LINE
  5
26E
330
1F
100
AcDbEntity
  8
0
  6
Continuous
 62
     7
370
    15
100
AcDbLine
 10
186.1724074658
 20
173.3086709103
 30
0.0
 11
186.1724074658
 21
174.2655443197
 31
0.0
  0
LINE
  5
26F
330
1F
100
AcDbEntity
  8
0
  6
Continuous
 62
     7
370
    15
100
AcDbLine
 10
186.1724074658
 20
163.2655443793
 30
0.0
 11
186.1724074658
 21
164.2224177888
 31
0.0
  0
LINE
  5
270
330
1F
100
AcDbEntity
  8
0
  6
Continuous
 62
     7
370
    15
100
AcDbLine
 10
200.4224084046
 20
156.6847277975
 30
0.0
 11
200.4224084046
 21
161.8463605812
 31
0.0
  0
SPLINE
  5
271
330
1F
100
AcDbEntity
  8
0
  6
Continuous
 62
     7
370
    15
100
AcDbSpline
210
0.0
220
0.0
230
1.0
 70
     8
 71
     3
 72
    12
 73
     8
 74
     0
 42
0.00000001
 43
0.00000001
 40
0.0
 40
0.0
 40
0.0
 40
0.0
 40
0.5000000000000036
 40
0.5000000000000036
 40
0.7500000000000018
 40
0.7500000000000018
 40
1.0
 40
1.0
 40
1.0
 40
1.0
 10
198.4419479508155
 20
155.6411396011246
 30
0.0
 10
198.6748137773586
 20
155.8663012855491
 30
0.0
 10
198.9503644623858
 20
156.0798283643435
 30
0.0
 10
199.4529553545167
 20
156.3579954735862
 30
0.0
 10
199.6309348432291
 20
156.4408918883889
 30
0.0
 10
200.0100450136958
 20
156.582760808275
 30
0.0
 10
200.2140764084936
 20
156.6422026551805
 30
0.0
 10
200.4224068965678
 20
156.6847279379843
 30
0.0
  0
LINE
  5
272
330
1F
100
AcDbEntity
  8
0
  6
Continuous
 62
     7
370
    15
100
AcDbLine
 10
198.4419472244
 20
155.6411398744
 30
0.0
 11
200.4550792005
 21
155.6411398744
 31
0.0
  0
SPLINE
  5
273
330
1F
100
AcDbEntity
  8
0
  6
Continuous
 62
     7
370
    15
100
AcDbSpline
210
0.0
220
0.0
230
1.0
 70
     8
 71
     3
 72
    38
 73
    34
 74
     0
 42
0.00000001
 43
0.00000001
 40
0.0
 40
0.0
 40
0.0
 40
0.0
 40
0.0624999999999999
 40
0.0624999999999999
 40
0.1249999999999998
 40
0.1249999999999998
 40
0.1874999999999996
 40
0.1874999999999996
 40
0.2499999999999995
 40
0.2499999999999995
 40
0.3124999999999994
 40
0.3124999999999994
 40
0.3749999999999992
 40
0.3749999999999992
 40
0.4374999999999991
 40
0.4374999999999991
 40
0.499999999999999
 40
0.499999999999999
 40
0.5624999999999989
 40
0.5624999999999989
 40
0.6249999999999988
 40
0.6249999999999988
 40
0.687499999999999
 40
0.687499999999999
 40
0.7499999999999991
 40
0.7499999999999991
 40
0.8124999999999993
 40
0.8124999999999993
 40
0.8749999999999996
 40
0.8749999999999996
 40
0.9374999999999998
 40
0.9374999999999998
 40
1.0
 40
1.0
 40
1.0
 40
1.0
 10
200.4224068965646
 20
161.8463607610788
 30
0.0
 10
200.1965845629406
 20
161.8924565519043
 30
0.0
 10
199.972321339947
 20
161.9589651819211
 30
0.0
 10
199.5448029594218
 20
162.1270826020028
 30
0.0
 10
199.3412523035812
 20
162.2282135417886
 30
0.0
 10
198.9534117449888
 20
162.4635581520691
 30
0.0
 10
198.7682342233657
 20
162.5989090320163
 30
0.0
 10
198.4288544358703
 20
162.893853664002
 30
0.0
 10
198.2730580006533
 20
163.0541618286355
 30
0.0
 10
197.9885676128921
 20
163.4006896876531
 30
0.0
 10
197.8598366835434
 20
163.5876989851457
 30
0.0
 10
197.6382771020768
 20
163.975599522187
 30
0.0
 10
197.5440978603523
 20
164.1779163650585
 30
0.0
 10
197.3893920586963
 20
164.5999898739094
 30
0.0
 10
197.3289363579163
 20
164.8211416807178
 30
0.0
 10
197.2473740236484
 20
165.2654214692115
 30
0.0
 10
197.2253932769584
 20
165.4903123876362
 30
0.0
 10
197.2199845282664
 20
165.9457822309898
 30
0.0
 10
197.2371422553787
 20
166.1783258071486
 30
0.0
 10
197.3105549247667
 20
166.6316488136585
 30
0.0
 10
197.3664667990139
 20
166.8541183237134
 30
0.0
 10
197.5172591313779
 20
167.2903877419158
 30
0.0
 10
197.6132964267728
 20
167.5056508156517
 30
0.0
 10
197.8382689243525
 20
167.9105989133195
 30
0.0
 10
197.9675501087055
 20
168.1021833688949
 30
0.0
 10
198.2599527720096
 20
168.4632915905073
 30
0.0
 10
198.4240162371476
 20
168.6330730171231
 30
0.0
 10
198.7739134722383
 20
168.9370725132414
 30
0.0
 10
198.9610501135242
 20
169.073181776934
 30
0.0
 10
199.3600424257114
 20
169.3131912357171
 30
0.0
 10
199.5717448567229
 20
169.4164201535623
 30
0.0
 10
200.0038907316184
 20
169.5824537880694
 30
0.0
 10
200.2262623901472
 20
169.6465305533515
 30
0.0
 10
200.4550799085888
 20
169.691255660048
 30
0.0
  0
SPLINE
  5
274
330
1F
100
AcDbEntity
  8
0
  6
Continuous
 62
     7
370
    15
100
AcDbSpline
210
0.0
220
0.0
230
1.0
 70
     8
 71
     3
 72
     8
 73
     4
 74
     0
 42
0.00000001
 43
0.00000001
 40
0.0
 40
0.0
 40
0.0
 40
0.0
 40
1.0
 40
1.0
 40
1.0
 40
1.0
 10
147.2570592618331
 20
162.299756295702
 30
0.0
 10
147.2826541936932
 20
162.398263441631
 30
0.0
 10
147.3234393712659
 20
162.4921775763125
 30
0.0
 10
147.3745978942143
 20
162.5830102830703
 30
0.0
  0
SPLINE
  5
275
330
1F
100
AcDbEntity
  8
0
  6
Continuous
 62
     7
370
    15
100
AcDbSpline
210
0.0
220
0.0
230
1.0
 70
     8
 71
     3
 72
    10
 73
     6
 74
     0
 42
0.00000001
 43
0.00000001
 40
0.0
 40
0.0
 40
0.0
 40
0.0
 40
0.5
 40
0.5
 40
1.0
 40
1.0
 40
1.0
 40
1.0
 10
147.3745978942143
 20
162.5830102830704
 30
0.0
 10
147.5826573308575
 20
162.5443482385645
 30
0.0
 10
147.7898151941521
 20
162.5025418346558
 30
0.0
 10
148.2003377611359
 20
162.4057079521745
 30
0.0
 10
148.4044590388642
 20
162.3533160967708
 30
0.0
 10
148.6015835048693
 20
162.276546480079
 30
0.0
  0
SPLINE
  5
276
330
1F
100
AcDbEntity
  8
0
  6
Continuous
 62
     7
370
    15
100
AcDbSpline
210
0.0
220
0.0
230
1.0
 70
     8
 71
     3
 72
    10
 73
     6
 74
     0
 42
0.00000001
 43
0.00000001
 40
0.0
 40
0.0
 40
0.0
 40
0.0
 40
0.5
 40
0.5
 40
1.0
 40
1.0
 40
1.0
 40
1.0
 10
148.6015835048693
 20
162.276546480079
 30
0.0
 10
149.0748597156204
 20
162.0922302760835
 30
0.0
 10
149.5579464681259
 20
161.9332385103316
 30
0.0
 10
150.5336112493362
 20
161.6397552810522
 30
0.0
 10
151.0265289117169
 20
161.5059609922814
 30
0.0
 10
151.5224068965677
 20
161.3801762584199
 30
0.0
  0
SPLINE
  5
277
330
1F
100
AcDbEntity
  8
0
  6
Continuous
 62
     7
370
    15
100
AcDbSpline
210
0.0
220
0.0
230
1.0
 70
     8
 71
     3
 72
    14
 73
    10
 74
     0
 42
0.00000001
 43
0.00000001
 40
0.0
 40
0.0
 40
0.0
 40
0.0
 40
0.1249999999999983
 40
0.1249999999999983
 40
0.2499999999999967
 40
0.2499999999999967
 40
0.4999999999999978
 40
0.4999999999999978
 40
1.0
 40
1.0
 40
1.0
 40
1.0
 10
151.5224068965677
 20
161.3801762584199
 30
0.0
 10
151.5714192193791
 20
161.3677437605694
 30
0.0
 10
151.6242254443745
 20
161.3761917550173
 30
0.0
 10
151.709292536104
 20
161.4191072823115
 30
0.0
 10
151.7438767214448
 20
161.4507987942509
 30
0.0
 10
151.8324324067821
 20
161.5529209242966
 30
0.0
 10
151.8733681081033
 20
161.6314967064874
 30
0.0
 10
151.9772486350062
 20
161.8715710360936
 30
0.0
 10
152.0204724344383
 20
162.0430870232992
 30
0.0
 10
152.0546718037109
 20
162.2169449944953
 30
0.0
  0
SPLINE
  5
278
330
1F
100
AcDbEntity
  8
0
  6
Continuous
 62
     7
370
    15
100
AcDbSpline
210
0.0
220
0.0
230
1.0
 70
     8
 71
     3
 72
    12
 73
     8
 74
     0
 42
0.00000001
 43
0.00000001
 40
0.0
 40
0.0
 40
0.0
 40
0.0
 40
0.25
 40
0.25
 40
0.5
 40
0.5
 40
1.0
 40
1.0
 40
1.0
 40
1.0
 10
152.0546718037109
 20
162.2169449944953
 30
0.0
 10
152.0800960206049
 20
162.3461930731135
 30
0.0
 10
152.1207078601741
 20
162.4737454883024
 30
0.0
 10
152.2053090064463
 20
162.7299353113881
 30
0.0
 10
152.2494058027318
 20
162.8585099995576
 30
0.0
 10
152.3654749112179
 20
163.2497843504289
 30
0.0
 10
152.4224068965678
 20
163.5177714721504
 30
0.0
 10
152.4224068965678
 20
163.8004341554294
 30
0.0
  0
LINE
  5
279
330
1F
100
AcDbEntity
  8
0
  6
Continuous
 62
     7
370
    15
100
AcDbLine
 10
152.422407056
 20
163.8004341332
 30
0.0
 11
152.422407056
 21
173.7306545658
 31
0.0
  0
SPLINE
  5
27A
330
1F
100
AcDbEntity
  8
0
  6
Continuous
 62
     7
370
    15
100
AcDbSpline
210
0.0
220
0.0
230
1.0
 70
     8
 71
     3
 72
    12
 73
     8
 74
     0
 42
0.00000001
 43
0.00000001
 40
0.0
 40
0.0
 40
0.0
 40
0.0
 40
0.25
 40
0.25
 40
0.5
 40
0.5
 40
1.0
 40
1.0
 40
1.0
 40
1.0
 10
152.0546718037109
 20
175.3141437045672
 30
0.0
 10
152.0800960206049
 20
175.1848956259489
 30
0.0
 10
152.1207078601741
 20
175.0573432107601
 30
0.0
 10
152.2053090064463
 20
174.8011533876744
 30
0.0
 10
152.2494058027318
 20
174.6725786995048
 30
0.0
 10
152.3654749112179
 20
174.2813043486336
 30
0.0
 10
152.4224068965678
 20
174.0133172269121
 30
0.0
 10
152.4224068965678
 20
173.7306545436331
 30
0.0
  0
SPLINE
  5
27B
330
1F
100
AcDbEntity
  8
0
  6
Continuous
 62
     7
370
    15
100
AcDbSpline
210
0.0
220
0.0
230
1.0
 70
     8
 71
     3
 72
    14
 73
    10
 74
     0
 42
0.00000001
 43
0.00000001
 40
0.0
 40
0.0
 40
0.0
 40
0.0
 40
0.1249999999999997
 40
0.1249999999999997
 40
0.2499999999999994
 40
0.2499999999999994
 40
0.4999999999999997
 40
0.4999999999999997
 40
1.0
 40
1.0
 40
1.0
 40
1.0
 10
151.5224068965678
 20
176.1509124406426
 30
0.0
 10
151.5714192193792
 20
176.1633449384931
 30
0.0
 10
151.6242254443746
 20
176.1548969440452
 30
0.0
 10
151.7092925361041
 20
176.1119814167509
 30
0.0
 10
151.7438767214448
 20
176.0802899048115
 30
0.0
 10
151.8324324067821
 20
175.9781677747659
 30
0.0
 10
151.8733681081033
 20
175.899591992575
 30
0.0
 10
151.9772486350062
 20
175.6595176629689
 30
0.0
 10
152.0204724344383
 20
175.4880016757633
 30
0.0
 10
152.0546718037109
 20
175.3141437045672
 30
0.0
  0
SPLINE
  5
27C
330
1F
100
AcDbEntity
  8
0
  6
Continuous
 62
     7
370
    15
100
AcDbSpline
210
0.0
220
0.0
230
1.0
 70
     8
 71
     3
 72
    10
 73
     6
 74
     0
 42
0.00000001
 43
0.00000001
 40
0.0
 40
0.0
 40
0.0
 40
0.0
 40
0.5
 40
0.5
 40
1.0
 40
1.0
 40
1.0
 40
1.0
 10
148.6015835048693
 20
175.2545422189835
 30
0.0
 10
149.0748597156204
 20
175.4388584229791
 30
0.0
 10
149.5579464681259
 20
175.5978501887309
 30
0.0
 10
150.5336112493363
 20
175.8913334180103
 30
0.0
 10
151.0265289117169
 20
176.0251277067811
 30
0.0
 10
151.5224068965678
 20
176.1509124406426
 30
0.0
  0
SPLINE
  5
27D
330
1F
100
AcDbEntity
  8
0
  6
Continuous
 62
     7
370
    15
100
AcDbSpline
210
0.0
220
0.0
230
1.0
 70
     8
 71
     3
 72
    10
 73
     6
 74
     0
 42
0.00000001
 43
0.00000001
 40
0.0
 40
0.0
 40
0.0
 40
0.0
 40
0.5
 40
0.5
 40
1.0
 40
1.0
 40
1.0
 40
1.0
 10
147.3745978942143
 20
174.9480784159921
 30
0.0
 10
147.5826573308575
 20
174.986740460498
 30
0.0
 10
147.7898151941521
 20
175.0285468644067
 30
0.0
 10
148.2003377611359
 20
175.125380746888
 30
0.0
 10
148.4044590388642
 20
175.1777726022918
 30
0.0
 10
148.6015835048693
 20
175.2545422189835
 30
0.0
  0
SPLINE
  5
27E
330
1F
100
AcDbEntity
  8
0
  6
Continuous
 62
     7
370
    15
100
AcDbSpline
210
0.0
220
0.0
230
1.0
 70
     8
 71
     3
 72
     8
 73
     4
 74
     0
 42
0.00000001
 43
0.00000001
 40
0.0
 40
0.0
 40
0.0
 40
0.0
 40
1.0
 40
1.0
 40
1.0
 40
1.0
 10
147.2570592618331
 20
175.2313324033605
 30
0.0
 10
147.2826541936932
 20
175.1328252574315
 30
0.0
 10
147.3234393712659
 20
175.03891112275
 30
0.0
 10
147.3745978942143
 20
174.9480784159921
 30
0.0
  0
ELLIPSE
  5
27F
330
1F
100
AcDbEntity
  8
0
  6
Continuous
 62
     7
370
    15
100
AcDbEllipse
 10
124.7243158794
 20
169.1550786727
 30
0.0
 11
22.51303293021468
 21
6.150215502208141
 31
0.0
210
0.0
220
0.0
230
1.0
 40
0.5128213654
 41
6.276789859166041
 42
6.325841002999358
  0
ELLIPSE
  5
280
330
1F
100
AcDbEntity
  8
0
  6
Continuous
 62
     7
370
    15
100
AcDbEllipse
 10
124.7243158794
 20
168.3760100264
 30
0.0
 11
22.51303293021468
 21
-6.150215502208171
 31
0.0
210
0.0
220
0.0
230
1.0
 40
0.5128213654
 41
6.240529611359872
 42
6.289580755193185
  0
LINE
  5
281
330
1F
100
AcDbEntity
  8
0
  6
Continuous
 62
     7
370
    15
100
AcDbLine
 10
164.2224068016
 20
168.7655443495
 30
0.0
 11
164.2224068016
 21
183.8692449203
 31
0.0
  0
LINE
  5
282
330
1F
100
AcDbEntity
  8
0
  6
Continuous
 62
     7
370
    15
100
AcDbLine
 10
164.2224068016
 20
153.6618437788
 30
0.0
 11
164.2224068016
 21
168.7655443495
 31
0.0
  0
SPLINE
  5
283
330
1F
100
AcDbEntity
  8
0
  6
Continuous
 62
     7
370
    15
100
AcDbSpline
210
0.0
220
0.0
230
1.0
 70
     8
 71
     3
 72
    39
 73
    35
 74
     0
 42
0.00000001
 43
0.00000001
 40
-0.0936307374834596
 40
-0.062486694051883
 40
-0.0311899125704245
 40
0.0
 40
0.0313950051307595
 40
0.0632578417333817
 40
0.0952224636478805
 40
0.1268300883541564
 40
0.1583319028231544
 40
0.190073336630265
 40
0.221579977118189
 40
0.2525506668390318
 40
0.2832646329733507
 40
0.3142453913338124
 40
0.345100864399605
 40
0.3756595953882574
 40
0.4062483587849406
 40
0.4375428428480365
 40
0.4689219037422974
 40
0.5001883476926335
 40
0.5315602582318372
 40
0.5633787432097846
 40
0.5952897280239509
 40
0.6268283118816913
 40
0.6582867464516107
 40
0.690058202639251
 40
0.7215959795544475
 40
0.7526086401062473
 40
0.7834418460066933
 40
0.8143773968256299
 40
0.8453229801620465
 40
0.8757917625066945
 40
0.9063692625165404
 40
0.937513305948117
 40
0.9688100874295755
 40
1.0
 40
1.031395005130759
 40
1.063257841733382
 40
1.09522246364788
 10
158.2027544700372
 20
166.7159255429751
 30
0.0
 10
157.8555083034068
 20
167.1574116127859
 30
0.0
 10
157.5981085266795
 20
167.6605925530533
 30
0.0
 10
157.4423325902009
 20
168.2090237247481
 30
0.0
 10
157.3869386726249
 20
168.7782013402807
 30
0.0
 10
157.4430825289456
 20
169.3453644713669
 30
0.0
 10
157.6051840687364
 20
169.8899163609936
 30
0.0
 10
157.8704010093344
 20
170.3908635811355
 30
0.0
 10
158.2204348889815
 20
170.8322894456992
 30
0.0
 10
158.6472966906805
 20
171.191416567955
 30
0.0
 10
159.1347867024066
 20
171.4577930930057
 30
0.0
 10
159.6664232182802
 20
171.6174177139009
 30
0.0
 10
160.2175480990433
 20
171.6732625413921
 30
0.0
 10
160.7650026540408
 20
171.6131079175639
 30
0.0
 10
161.289646098739
 20
171.44345044604
 30
0.0
 10
161.7714003864197
 20
171.1691229413555
 30
0.0
 10
162.1964767980961
 20
170.8079641060249
 30
0.0
 10
162.5422166507109
 20
170.3686037037042
 30
0.0
 10
162.7990865078179
 20
169.8672791003991
 30
0.0
 10
162.9540176762946
 20
169.3200714201491
 30
0.0
 10
163.0088232843989
 20
168.7518011483683
 30
0.0
 10
162.9518857920614
 20
168.1856717268744
 30
0.0
 10
162.7894204468583
 20
167.6426089201104
 30
0.0
 10
162.5255444983985
 20
167.1432446672245
 30
0.0
 10
162.1779946770262
 20
166.7034062365849
 30
0.0
 10
161.7543896314864
 20
166.3452846532985
 30
0.0
 10
161.2710158879464
 20
166.078868642807
 30
0.0
 10
160.7423193855273
 20
165.9170166637917
 30
0.0
 10
160.1929773324262
 20
165.85823918079
 30
0.0
 10
159.6440347065726
 20
165.9146303468058
 30
0.0
 10
159.1164835932441
 20
166.0811128458074
 30
0.0
 10
158.6309272844756
 20
166.3545802909162
 30
0.0
 10
158.2027544700372
 20
166.7159255429751
 30
0.0
 10
157.8555083034068
 20
167.1574116127859
 30
0.0
 10
157.5981085266795
 20
167.6605925530533
 30
0.0
  0
SPLINE
  5
284
330
1F
100
AcDbEntity
  8
0
  6
Continuous
 62
     7
370
    15
100
AcDbSpline
210
0.0
220
0.0
230
1.0
 70
     8
 71
     3
 72
    35
 73
    31
 74
     0
 42
0.00000001
 43
0.00000001
 40
-0.0968719547595006
 40
-0.0666583833390638
 40
-0.0343746550663528
 40
0.0
 40
0.0402441098602218
 40
0.0744787394150458
 40
0.102701076922835
 40
0.1249180007539461
 40
0.1620538085088403
 40
0.2036866663220331
 40
0.2499064830388325
 40
0.2843401434852735
 40
0.3106265384480303
 40
0.3287516969918892
 40
0.3698185885315884
 40
0.4071583744141671
 40
0.4519491139953024
 40
0.5000414814625184
 40
0.5203027018300285
 40
0.5628788417857504
 40
0.5977565761193747
 40
0.6256573786661428
 40
0.686051351246162
 40
0.7499481278641021
 40
0.7710338013047724
 40
0.8124324456481478
 40
0.8472054201757163
 40
0.8749589023494395
 40
0.9031280452404993
 40
0.9333416166609361
 40
0.965625344933647
 40
0.9999999999999999
 40
1.040244109860222
 40
1.074478739415046
 40
1.102701076922835
 10
158.0662001903873
 20
167.9176511786136
 30
0.0
 10
158.3048428374263
 20
167.4574273168155
 30
0.0
 10
158.6512293073224
 20
167.0569171982179
 30
0.0
 10
159.0559520151085
 20
166.7659966252414
 30
0.0
 10
159.4295701400061
 20
166.5961617883362
 30
0.0
 10
159.8382375329299
 20
166.4839381856442
 30
0.0
 10
160.3283337848996
 20
166.444228482395
 30
0.0
 10
160.9267241371394
 20
166.545313372009
 30
0.0
 10
161.4618503267303
 20
166.79907565845
 30
0.0
 10
161.8561066357219
 20
167.1270407008051
 30
0.0
 10
162.0960356609048
 20
167.4188258233021
 30
0.0
 10
162.3098174095775
 20
167.7674255423352
 30
0.0
 10
162.477585225842
 20
168.2059577318718
 30
0.0
 10
162.5480488468716
 20
168.8014347213607
 30
0.0
 10
162.458523654528
 20
169.4318202941022
 30
0.0
 10
162.2256871602625
 20
169.9323985855332
 30
0.0
 10
161.9062530078015
 20
170.3545585285177
 30
0.0
 10
161.5541614632037
 20
170.6684104439724
 30
0.0
 10
161.1064609049397
 20
170.9047832947788
 30
0.0
 10
160.5395873697645
 20
171.0746187956656
 30
0.0
 10
159.7867371578201
 20
171.0860145742735
 30
0.0
 10
159.1155657105158
 20
170.8154995436077
 30
0.0
 10
158.6307726206677
 20
170.4469124227947
 30
0.0
 10
158.3164159153287
 20
170.0922145241437
 30
0.0
 10
158.0815819635754
 20
169.646257514212
 30
0.0
 10
157.9566380692547
 20
169.2251823649823
 30
0.0
 10
157.9098160392728
 20
168.8100132168266
 30
0.0
 10
157.9413441823604
 20
168.3710526612526
 30
0.0
 10
158.0662001903873
 20
167.9176511786136
 30
0.0
 10
158.3048428374263
 20
167.4574273168155
 30
0.0
 10
158.6512293073224
 20
167.0569171982179
 30
0.0
  0
SPLINE
  5
285
330
1F
100
AcDbEntity
  8
0
  6
Continuous
 62
     7
370
    15
100
AcDbSpline
210
0.0
220
0.0
230
1.0
 70
     8
 71
     3
 72
     8
 73
     4
 74
     0
 42
0.00000001
 43
0.00000001
 40
0.0
 40
0.0
 40
0.0
 40
0.0
 40
1.0
 40
1.0
 40
1.0
 40
1.0
 10
201.2224068965677
 20
156.7655443495312
 30
0.0
 10
200.972046203419
 20
156.7655443495312
 30
0.0
 10
200.706134627561
 20
156.7426436185519
 30
0.0
 10
200.4224068965678
 20
156.6847279379843
 30
0.0
  0
LINE
  5
286
330
1F
100
AcDbEntity
  8
0
  6
Continuous
 62
     7
370
    15
100
AcDbLine
 10
201.2224070456
 20
156.7655442452
 30
0.0
 11
201.2224070456
 21
161.7655441335
 31
0.0
  0
SPLINE
  5
287
330
1F
100
AcDbEntity
  8
0
  6
Continuous
 62
     7
370
    15
100
AcDbSpline
210
0.0
220
0.0
230
1.0
 70
     8
 71
     3
 72
     8
 73
     4
 74
     0
 42
0.00000001
 43
0.00000001
 40
0.0
 40
0.0
 40
0.0
 40
0.0
 40
1.0
 40
1.0
 40
1.0
 40
1.0
 10
200.4224068965648
 20
161.8463607610788
 30
0.0
 10
200.6821551631963
 20
161.7933398681769
 30
0.0
 10
200.9481669311516
 20
161.7655443495312
 30
0.0
 10
201.2224068965677
 20
161.7655443495312
 30
0.0
  0
ARC
  5
288
330
1F
100
AcDbEntity
  8
0
  6
Continuous
 62
     7
370
    15
100
AcDbCircle
 10
151.5224068966
 20
165.6995443495
 30
0.0
 40
0.9000000000000057
100
AcDbArc
 50
270.0
 51
0.0
  0
ARC
  5
289
330
1F
100
AcDbEntity
  8
0
  6
Continuous
 62
     7
370
    15
100
AcDbCircle
 10
151.5224068966
 20
171.8315443495
 30
0.0
 40
0.9000000000000057
100
AcDbArc
 50
0.0
 51
90.0
  0
LINE
  5
28A
330
1F
100
AcDbEntity
  8
0
  6
Continuous
 62
     7
370
    15
100
AcDbLine
 10
147.3745986547
 20
172.7315442806
 30
0.0
 11
147.3745986547
 21
174.948078504
 31
0.0
  0
LINE
  5
28B
330
1F
100
AcDbEntity
  8
0
  6
Continuous
 62
     7
370
    15
100
AcDbLine
 10
147.3745986547
 20
172.7315442806
 30
0.0
 11
146.3224071737
 21
173.3390269039
 31
0.0
  0
LINE
  5
28C
330
1F
100
AcDbEntity
  8
0
  6
Continuous
 62
     7
370
    15
100
AcDbLine
 10
146.3224071737
 20
173.3390269039
 30
0.0
 11
146.3224071737
 21
174.3293827569
 31
0.0
  0
SPLINE
  5
28D
330
1F
100
AcDbEntity
  8
0
  6
Continuous
 62
     7
370
    15
100
AcDbSpline
210
0.0
220
0.0
230
1.0
 70
     8
 71
     3
 72
    10
 73
     6
 74
     0
 42
0.00000001
 43
0.00000001
 40
0.0
 40
0.0
 40
0.0
 40
0.0
 40
0.5
 40
0.5
 40
1.0
 40
1.0
 40
1.0
 40
1.0
 10
146.3224068965677
 20
174.3293829053669
 30
0.0
 10
146.3224068965677
 20
174.4503243287703
 30
0.0
 10
146.3330541699262
 20
174.5729235724341
 30
0.0
 10
146.3595291437129
 20
174.8179725306465
 30
0.0
 10
146.3753934090924
 20
174.9416979624095
 30
0.0
 10
146.3838539553624
 20
175.0589045491852
 30
0.0
  0
LINE
  5
28E
330
1F
100
AcDbEntity
  8
0
  6
Continuous
 62
     7
370
    15
100
AcDbLine
 10
151.5224067222
 20
172.7315442806
 30
0.0
 11
147.3745986547
 21
172.7315442806
 31
0.0
  0
LINE
  5
28F
330
1F
100
AcDbEntity
  8
0
  6
Continuous
 62
     7
370
    15
100
AcDbLine
 10
147.3745986547
 20
164.7995444184
 30
0.0
 11
147.3745986547
 21
162.583010195
 31
0.0
  0
LINE
  5
290
330
1F
100
AcDbEntity
  8
0
  6
Continuous
 62
     7
370
    15
100
AcDbLine
 10
151.5224067222
 20
164.7995444184
 30
0.0
 11
147.3745986547
 21
164.7995444184
 31
0.0
  0
SPLINE
  5
291
330
1F
100
AcDbEntity
  8
0
  6
Continuous
 62
     7
370
    15
100
AcDbSpline
210
0.0
220
0.0
230
1.0
 70
     8
 71
     3
 72
    10
 73
     6
 74
     0
 42
0.00000001
 43
0.00000001
 40
0.0
 40
0.0
 40
0.0
 40
0.0
 40
0.5
 40
0.5
 40
1.0
 40
1.0
 40
1.0
 40
1.0
 10
146.3224068965677
 20
163.2017057936956
 30
0.0
 10
146.3224068965677
 20
163.0807643702922
 30
0.0
 10
146.3330541699262
 20
162.9581651266284
 30
0.0
 10
146.3595291437129
 20
162.713116168416
 30
0.0
 10
146.3753934090924
 20
162.589390736653
 30
0.0
 10
146.3838539553624
 20
162.4721841498773
 30
0.0
  0
LINE
  5
292
330
1F
100
AcDbEntity
  8
0
  6
Continuous
 62
     7
370
    15
100
AcDbLine
 10
146.3224071737
 20
164.1920617951
 30
0.0
 11
146.3224071737
 21
163.2017059421
 31
0.0
  0
LINE
  5
293
330
1F
100
AcDbEntity
  8
0
  6
Continuous
 62
     7
370
    15
100
AcDbLine
 10
147.3745986547
 20
164.7995444184
 30
0.0
 11
146.3224071737
 21
164.1920617951
 31
0.0
  0
SPLINE
  5
294
330
1F
100
AcDbEntity
  8
0
  6
Continuous
 62
     7
370
    15
100
AcDbSpline
210
0.0
220
0.0
230
1.0
 70
     8
 71
     3
 72
     9
 73
     5
 74
     0
 42
0.00000001
 43
0.00000001
 40
0.0
 40
0.0
 40
0.0
 40
0.0
 40
0.8973222086274966
 40
1.0
 40
1.0
 40
1.0
 40
1.0
 10
158.5710778560404
 20
167.1870579414243
 30
0.0
 10
158.408770203879
 20
167.3494606728966
 30
0.0
 10
158.227890191548
 20
167.5304466441684
 30
0.0
 10
158.1579639566665
 20
167.7689504632429
 30
0.0
 10
158.1507840853099
 20
167.7934395086193
 30
0.0
  0
SPLINE
  5
295
330
1F
100
AcDbEntity
  8
0
  6
Continuous
 62
     7
370
    15
100
AcDbSpline
210
0.0
220
0.0
230
1.0
 70
     8
 71
     3
 72
    24
 73
    20
 74
     0
 42
0.00000001
 43
0.00000001
 40
0.0
 40
0.0
 40
0.0
 40
0.0
 40
0.2499999999999973
 40
0.2499999999999973
 40
0.3749999999999957
 40
0.3749999999999957
 40
0.499999999999994
 40
0.499999999999994
 40
0.562499999999994
 40
0.562499999999994
 40
0.624999999999994
 40
0.624999999999994
 40
0.687499999999994
 40
0.687499999999994
 40
0.749999999999994
 40
0.749999999999994
 40
0.874999999999997
 40
0.874999999999997
 40
1.0
 40
1.0
 40
1.0
 40
1.0
 10
146.3838539553624
 20
162.4721841498773
 30
0.0
 10
146.3952360850891
 20
162.3145039560769
 30
0.0
 10
146.4100605698343
 20
162.1566441124347
 30
0.0
 10
146.4450944244112
 20
161.9191864896724
 30
0.0
 10
146.4589832419161
 20
161.8396550541438
 30
0.0
 10
146.4946795833464
 20
161.6816674351423
 30
0.0
 10
146.5159166599849
 20
161.6032047337459
 30
0.0
 10
146.5624440962314
 20
161.4878100441496
 30
0.0
 10
146.5802987656714
 20
161.4500884949882
 30
0.0
 10
146.6254320622029
 20
161.3800163997714
 30
0.0
 10
146.6538555687623
 20
161.3467093282572
 30
0.0
 10
146.7217339709596
 20
161.3077423185934
 30
0.0
 10
146.7606264611275
 20
161.3053842765293
 30
0.0
 10
146.8257427651667
 20
161.3268565730702
 30
0.0
 10
146.8533887482383
 20
161.3475669346784
 30
0.0
 10
146.9273957608165
 20
161.4195474630542
 30
0.0
 10
146.9640201597429
 20
161.4788192912158
 30
0.0
 10
147.0296021231857
 20
161.6041681560919
 30
0.0
 10
147.0574811445748
 20
161.6708085016782
 30
0.0
 10
147.0823769429558
 20
161.7390711719633
 30
0.0
  0
SPLINE
  5
296
330
1F
100
AcDbEntity
  8
0
  6
Continuous
 62
     7
370
    15
100
AcDbSpline
210
0.0
220
0.0
230
1.0
 70
     8
 71
     3
 72
    24
 73
    20
 74
     0
 42
0.00000001
 43
0.00000001
 40
0.0
 40
0.0
 40
0.0
 40
0.0
 40
0.2499999999999973
 40
0.2499999999999973
 40
0.3749999999999957
 40
0.3749999999999957
 40
0.499999999999994
 40
0.499999999999994
 40
0.562499999999994
 40
0.562499999999994
 40
0.624999999999994
 40
0.624999999999994
 40
0.687499999999994
 40
0.687499999999994
 40
0.749999999999994
 40
0.749999999999994
 40
0.874999999999997
 40
0.874999999999997
 40
1.0
 40
1.0
 40
1.0
 40
1.0
 10
146.3838539553624
 20
175.0589045491852
 30
0.0
 10
146.3952360850891
 20
175.2165847429855
 30
0.0
 10
146.4100605698343
 20
175.3744445866278
 30
0.0
 10
146.4450944244112
 20
175.6119022093901
 30
0.0
 10
146.4589832419161
 20
175.6914336449187
 30
0.0
 10
146.4946795833464
 20
175.8494212639202
 30
0.0
 10
146.5159166599849
 20
175.9278839653167
 30
0.0
 10
146.5624440962314
 20
176.0432786549129
 30
0.0
 10
146.5802987656714
 20
176.0810002040743
 30
0.0
 10
146.6254320622029
 20
176.1510722992911
 30
0.0
 10
146.6538555687623
 20
176.1843793708053
 30
0.0
 10
146.7217339709596
 20
176.2233463804691
 30
0.0
 10
146.7606264611275
 20
176.2257044225332
 30
0.0
 10
146.8257427651667
 20
176.2042321259923
 30
0.0
 10
146.8533887482383
 20
176.1835217643841
 30
0.0
 10
146.9273957608165
 20
176.1115412360083
 30
0.0
 10
146.9640201597429
 20
176.0522694078466
 30
0.0
 10
147.0296021231857
 20
175.9269205429706
 30
0.0
 10
147.0574811445748
 20
175.8602801973843
 30
0.0
 10
147.0823769429558
 20
175.7920175270991
 30
0.0
  0
LINE
  5
297
330
1F
100
AcDbEntity
  8
0
  6
Continuous
 62
     7
370
    15
100
AcDbLine
 10
146.3224071737
 20
155.3195607087
 30
0.0
 11
146.3224071737
 21
163.2017059421
 31
0.0
  0
LINE
  5
298
330
1F
100
AcDbEntity
  8
0
  6
Continuous
 62
     7
370
    15
100
AcDbLine
 10
146.3224071737
 20
174.3293827569
 30
0.0
 11
146.3224071737
 21
182.2115279904
 31
0.0
  0
SPLINE
  5
299
330
1F
100
AcDbEntity
  8
0
  6
Continuous
 62
     7
370
    15
100
AcDbSpline
210
0.0
220
0.0
230
1.0
 70
     8
 71
     3
 72
    11
 73
     7
 74
     0
 42
0.00000001
 43
0.00000001
 40
0.0
 40
0.0
 40
0.0
 40
0.0
 40
0.2871758678267002
 40
0.5743809950627952
 40
0.8587939886389703
 40
1.0
 40
1.0
 40
1.0
 40
1.0
 10
149.9224066462282
 20
165.6405443029651
 30
0.0
 10
149.911539734237
 20
165.5341114771612
 30
0.0
 10
149.8898048030605
 20
165.321234981461
 30
0.0
 10
149.718662353133
 20
165.0470853377097
 30
0.0
 10
149.5141630835453
 20
164.8606259006083
 30
0.0
 10
149.3559392590917
 20
164.8147608824536
 30
0.0
 10
149.3034459378485
 20
164.7995444184342
 30
0.0
  0
LINE
  5
29A
330
1F
100
AcDbEntity
  8
0
  6
Continuous
 62
     7
370
    15
100
AcDbLine
 10
149.9224066462
 20
165.640544303
 30
0.0
 11
149.9224066462
 21
171.8905443961
 31
0.0
  0
SPLINE
  5
29B
330
1F
100
AcDbEntity
  8
0
  6
Continuous
 62
     7
370
    15
100
AcDbSpline
210
0.0
220
0.0
230
1.0
 70
     8
 71
     3
 72
    11
 73
     7
 74
     0
 42
0.00000001
 43
0.00000001
 40
0.0
 40
0.0
 40
0.0
 40
0.0
 40
0.2871758678267002
 40
0.5743809950627952
 40
0.8587939886389703
 40
1.0
 40
1.0
 40
1.0
 40
1.0
 10
149.9224066462282
 20
171.8905443960974
 30
0.0
 10
149.911539734237
 20
171.9969772219013
 30
0.0
 10
149.8898048030605
 20
172.2098537176015
 30
0.0
 10
149.718662353133
 20
172.4840033613528
 30
0.0
 10
149.5141630835453
 20
172.6704627984543
 30
0.0
 10
149.3559392590917
 20
172.7163278166088
 30
0.0
 10
149.3034459378485
 20
172.7315442806283
 30
0.0
  0
LINE
  5
29C
330
1F
100
AcDbEntity
  8
0
  6
Continuous
 62
     7
370
    15
100
AcDbLine
 10
246.2224051084
 20
148.7655447966
 30
0.0
 11
246.2224051084
 21
169.765544397
 31
0.0
  0
DIMENSION
  5
29D
330
1F
100
AcDbEntity
  8
VERMASSUNG
100
AcDbDimension
  2
*D12
 10
246.2224068966
 20
194.6717369686
 30
0.0
 11
223.7224068966
 21
194.6717369686
 31
0.0
 70
   160
 71
     2
 42
-1.0
  3
SLDDIMSTYLE0
100
AcDbAlignedDimension
 13
201.2224068966
 23
161.7655443495
 33
0.0
 14
246.2224068966
 24
188.7655443495
 34
0.0
100
AcDbRotatedDimension
  0
LINE
  5
2A7
330
1F
100
AcDbEntity
  8
VERMASSUNG
  6
CENTERX2
370
     0
100
AcDbLine
 10
145.8299613974
 20
168.7655443495
 30
0.0
 11
248.6406843199
 21
168.7655443495
 31
0.0
  0
OLE2FRAME
  5
2A8
330
1F
100
AcDbEntity
  8
0
100
AcDbOle2Frame
 70
     2
  3
Bitmap Image
 10
13.8511154363
 20
38.264191557
 30
0.0
 11
51.6290888628
 21
31.9806341108
 31
0.0
 71
     2
 72
     0
 73
     1
 90
    12928
310
80552BED0767C5B32B40DDAF6807D121434000000000000000006FFBDDFB85D0
310
4940DDAF6807D121434000000000000000006FFBDDFB85D04940416F4BD60AFB
310
3F4000000000000000002BED0767C5B32B40416F4BD60AFB3F40000000000000
310
0000000000000100000000010000010000000100000000000100000000320000
310
D0CF11E0A1B11AE1000000000000000000000000000000003E000300FEFF0900
310
0600000000000000000000000100000001000000000000000010000002000000
310
01000000FEFFFFFF0000000000000000FFFFFFFFFFFFFFFFFFFFFFFFFFFFFFFF
310
FFFFFFFFFFFFFFFFFFFFFFFFFFFFFFFFFFFFFFFFFFFFFFFFFFFFFFFFFFFFFFFF
310
FFFFFFFFFFFFFFFFFFFFFFFFFFFFFFFFFFFFFFFFFFFFFFFFFFFFFFFFFFFFFFFF
310
FFFFFFFFFFFFFFFFFFFFFFFFFFFFFFFFFFFFFFFFFFFFFFFFFFFFFFFFFFFFFFFF
310
FFFFFFFFFFFFFFFFFFFFFFFFFFFFFFFFFFFFFFFFFFFFFFFFFFFFFFFFFFFFFFFF
310
FFFFFFFFFFFFFFFFFFFFFFFFFFFFFFFFFFFFFFFFFFFFFFFFFFFFFFFFFFFFFFFF
310
FFFFFFFFFFFFFFFFFFFFFFFFFFFFFFFFFFFFFFFFFFFFFFFFFFFFFFFFFFFFFFFF
310
FFFFFFFFFFFFFFFFFFFFFFFFFFFFFFFFFFFFFFFFFFFFFFFFFFFFFFFFFFFFFFFF
310
FFFFFFFFFFFFFFFFFFFFFFFFFFFFFFFFFFFFFFFFFFFFFFFFFFFFFFFFFFFFFFFF
310
FFFFFFFFFFFFFFFFFFFFFFFFFFFFFFFFFFFFFFFFFFFFFFFFFFFFFFFFFFFFFFFF
310
FFFFFFFFFFFFFFFFFFFFFFFFFFFFFFFFFFFFFFFFFFFFFFFFFFFFFFFFFFFFFFFF
310
FFFFFFFFFFFFFFFFFFFFFFFFFFFFFFFFFFFFFFFFFFFFFFFFFFFFFFFFFFFFFFFF
310
FFFFFFFFFFFFFFFFFFFFFFFFFFFFFFFFFFFFFFFFFFFFFFFFFFFFFFFFFFFFFFFF
310
FFFFFFFFFFFFFFFFFFFFFFFFFFFFFFFFFFFFFFFFFFFFFFFFFFFFFFFFFFFFFFFF
310
FDFFFFFFFEFFFFFFFEFFFFFFFEFFFFFF05000000060000000700000008000000
310
090000000A0000000B0000000C0000000D0000000E0000000F00000010000000
310
11000000120000001300000014000000150000001600000017000000FEFFFFFF
310
FFFFFFFFFFFFFFFFFFFFFFFFFFFFFFFFFFFFFFFFFFFFFFFFFFFFFFFFFFFFFFFF
310
FFFFFFFFFFFFFFFFFFFFFFFFFFFFFFFFFFFFFFFFFFFFFFFFFFFFFFFFFFFFFFFF
310
FFFFFFFFFFFFFFFFFFFFFFFFFFFFFFFFFFFFFFFFFFFFFFFFFFFFFFFFFFFFFFFF
310
FFFFFFFFFFFFFFFFFFFFFFFFFFFFFFFFFFFFFFFFFFFFFFFFFFFFFFFFFFFFFFFF
310
FFFFFFFFFFFFFFFFFFFFFFFFFFFFFFFFFFFFFFFFFFFFFFFFFFFFFFFFFFFFFFFF
310
FFFFFFFFFFFFFFFFFFFFFFFFFFFFFFFFFFFFFFFFFFFFFFFFFFFFFFFFFFFFFFFF
310
FFFFFFFFFFFFFFFFFFFFFFFFFFFFFFFFFFFFFFFFFFFFFFFFFFFFFFFFFFFFFFFF
310
FFFFFFFFFFFFFFFFFFFFFFFFFFFFFFFFFFFFFFFFFFFFFFFFFFFFFFFFFFFFFFFF
310
FFFFFFFFFFFFFFFFFFFFFFFFFFFFFFFFFFFFFFFFFFFFFFFFFFFFFFFFFFFFFFFF
310
FFFFFFFFFFFFFFFFFFFFFFFFFFFFFFFFFFFFFFFFFFFFFFFFFFFFFFFFFFFFFFFF
310
FFFFFFFFFFFFFFFFFFFFFFFFFFFFFFFFFFFFFFFFFFFFFFFFFFFFFFFFFFFFFFFF
310
FFFFFFFFFFFFFFFFFFFFFFFFFFFFFFFFFFFFFFFFFFFFFFFFFFFFFFFFFFFFFFFF
310
FFFFFFFFFFFFFFFFFFFFFFFFFFFFFFFFFFFFFFFFFFFFFFFFFFFFFFFFFFFFFFFF
310
52006F006F007400200045006E00740072007900000000000000000000000000
310
0000000000000000000000000000000000000000000000000000000000000000
310
16000500FFFFFFFFFFFFFFFF020000000A00030000000000C000000000000046
310
000000000000000000000000609C0E2E6809CC0103000000C000000000000000
310
01004F006C006500000000000000000000000000000000000000000000000000
310
0000000000000000000000000000000000000000000000000000000000000000
310
0A000200FFFFFFFFFFFFFFFFFFFFFFFF00000000000000000000000000000000
310
0000000000000000000000000000000000000000000000001400000000000000
310
010043006F006D0070004F0062006A0000000000000000000000000000000000
310
0000000000000000000000000000000000000000000000000000000000000000
310
120002010100000003000000FFFFFFFF00000000000000000000000000000000
310
0000000000000000000000000000000000000000010000004D00000000000000
310
01004F006C006500310030004E00610074006900760065000000000000000000
310
0000000000000000000000000000000000000000000000000000000000000000
310
1A000200FFFFFFFFFFFFFFFFFFFFFFFF00000000000000000000000000000000
310
0000000000000000000000000000000000000000040000002426000000000000
310
FEFFFFFF02000000FEFFFFFFFFFFFFFFFFFFFFFFFFFFFFFFFFFFFFFFFFFFFFFF
310
FFFFFFFFFFFFFFFFFFFFFFFFFFFFFFFFFFFFFFFFFFFFFFFFFFFFFFFFFFFFFFFF
310
FFFFFFFFFFFFFFFFFFFFFFFFFFFFFFFFFFFFFFFFFFFFFFFFFFFFFFFFFFFFFFFF
310
FFFFFFFFFFFFFFFFFFFFFFFFFFFFFFFFFFFFFFFFFFFFFFFFFFFFFFFFFFFFFFFF
310
FFFFFFFFFFFFFFFFFFFFFFFFFFFFFFFFFFFFFFFFFFFFFFFFFFFFFFFFFFFFFFFF
310
FFFFFFFFFFFFFFFFFFFFFFFFFFFFFFFFFFFFFFFFFFFFFFFFFFFFFFFFFFFFFFFF
310
FFFFFFFFFFFFFFFFFFFFFFFFFFFFFFFFFFFFFFFFFFFFFFFFFFFFFFFFFFFFFFFF
310
FFFFFFFFFFFFFFFFFFFFFFFFFFFFFFFFFFFFFFFFFFFFFFFFFFFFFFFFFFFFFFFF
310
FFFFFFFFFFFFFFFFFFFFFFFFFFFFFFFFFFFFFFFFFFFFFFFFFFFFFFFFFFFFFFFF
310
FFFFFFFFFFFFFFFFFFFFFFFFFFFFFFFFFFFFFFFFFFFFFFFFFFFFFFFFFFFFFFFF
310
FFFFFFFFFFFFFFFFFFFFFFFFFFFFFFFFFFFFFFFFFFFFFFFFFFFFFFFFFFFFFFFF
310
FFFFFFFFFFFFFFFFFFFFFFFFFFFFFFFFFFFFFFFFFFFFFFFFFFFFFFFFFFFFFFFF
310
FFFFFFFFFFFFFFFFFFFFFFFFFFFFFFFFFFFFFFFFFFFFFFFFFFFFFFFFFFFFFFFF
310
FFFFFFFFFFFFFFFFFFFFFFFFFFFFFFFFFFFFFFFFFFFFFFFFFFFFFFFFFFFFFFFF
310
FFFFFFFFFFFFFFFFFFFFFFFFFFFFFFFFFFFFFFFFFFFFFFFFFFFFFFFFFFFFFFFF
310
FFFFFFFFFFFFFFFFFFFFFFFFFFFFFFFFFFFFFFFFFFFFFFFFFFFFFFFFFFFFFFFF
310
010000020000000000000000000000000000000061007200650064005C003100
310
30002E0030005C0044004C004C005300680061007200650064005C003B004300
310
0100FEFF030A0000FFFFFFFF0A00030000000000C00000000000004607000000
310
5042727573680007000000504272757368000700000050427275736800F439B2
310
71000000000000000000000000004100540049002E004100430045005C004300
310
6F00720065002D005300740061007400690063003B0043003A005C0050007200
310
6F006700720061006D002000460069006C006500730020002800780038003600
310
29005C0043006F006D006D006F006E002000460069006C00650073005C004100
310
750074006F006400650073006B0020005300680061007200650064005C003B00
310
43003A005C00500072006F006700720061006D002000460069006C0065007300
310
5C004E006F0072006D0061006E005C004E0070006D005C00420069006E000000
310
43003A005C00500072006F006700720061006D002000460069006C0065007300
310
5C0053006F006C006900640057006F0072006B007300200043006F0072007000
310
5C0053006F006C006900640057006F0072006B00730020002800320029005C00
310
730065007400750070005C0069003300380036005C0073007700610063007400
310
770069007A002E006500780065000000220043003A005C00500072006F006700
310
20260000424D0E260000000000003E00000028000000B40200006E0000000100
310
01000000000000000000130B0000130B00000200000002000000000000FFFFFF
310
FFFFFFFFFFFFFFFFFFFFFFFFFFFFFFFFFFFFFFFFFFFFFFFFFFFFFFFFFFFFFFFF
310
FFFFFFFFFFFFFFFFFFFFFFFFFFFFFFFFFFFFFFFFFFFFFFFFFFFFFFFFFFFFFFFF
310
FFFFFFFFFFFFFFFFFFFFFFFFFFFFFFFFFFFFFFFFFFFFFFFFF000FFFFFFFFFFFF
310
FFFFFFFFFFFFFFFFFFFFFFFFFFFFFFFFFFFFFFFFFFFFFFFFFFFFFFFFFFFFFFFF
310
FFFFFFFFFFFFFFFFFFFFFFFFFFFFFFFFFFFFFFFFFFFFFFFFFFFFFFFFFFFFFFFF
310
FFFFFFFFFFFFFFFFFFFFFFFFFFFFFFFFF000FFFFFFFFFFFFFFFFFFFFFFFFFFFF
310
FFFFFFFFFFFFFFFFFFFFFFFFFFFFFFFFFFFFFFFFFFFFFFFFFFFFFFFFFFFFFFFF
310
FFFFFFFFFFFFFFFFFFFFFFFFFFFFFFFFFFFFFFFFFFFFFFFFFFFFFFFFFFFFFFFF
310
FFFFFFFFFFFFFFFFF000FFFFFFFFFFFFFFFFFFFFFFFFFFFFFFFFFFFFFFFFFFFF
310
FFFFFFFFFFFFFFFFFFFFFFFFFFFFFFFFFFFFFFFFFFFFFFFFFFFFFFFFFFFFFFFF
310
FFFFFFFFFFFFFFFFFFFFFFFFFFFFFFFFFFFFFFFFFFFFFFFFFFFFFFFFFFFFFFFF
310
F000FFFFFFFFFFFFFFFFFFFFFFFFFFFFFFFFFFFFFFFFFFFFFFFFFFFFFFFFFFFF
310
FFFFFFFFFFFFFFFFFFFFFFFFFFFFFFFFFFFFFFFFFFFFFFFFFFFFFFFFFFFFFFFF
310
FFFFFFFFFFFFFFFFFFFFFFFFFFFFFFFFFFFFFFFFFFFFFFFFF000FFFFFFFFFFFF
310
FFFFFFFFFFFFFFFFFFFFFFFFFFFFFFFFFFFFFFFFFFFFFFFFFFFFFFFFFFFFFFFF
310
FFFFFFFFFFFFFFFFFFFFFFFFFFFFFFFFFFFFFFFFFFFFFFFFFFFFFFFFFFFFFFFF
310
FFFFFFFFFFFFFFFFFFFFFFFFFFFFFFFFF000FFFFFFFFFFFFFFFFFFFFFFFFFFFF
310
FFFFFFFFFFFFFFFFFFFFFFFFFFFFFFFFFFFFFFFFFFFFFFFFFFFFFFFFFFFFFFFF
310
FFFFFFFFFFFFFFFFFFFFFFFFFFFFFFFFFFFFFFFFFFFFFFFFFFFFFFFFFFFFFFFF
310
FFFFFFFFFFFFFFFFF000FFFFFFFFFFFFFFFFFFFFFFFFFFFFFFFFFFFFFFFFFFFF
310
FFFFFFFFFFFFFFFFFFFFFFFFFFFFFFFFFFFFFFFFFFFFFFFFFFFFFFFFFFFFFFFF
310
FFFFFFFFFFFFFFFFFFFFFFFFFFFFFFFFFFFFFFFFFFFFFFFFFFFFFFFFFFFFFFFF
310
F000FFFFFFFFFFFFFFFFFFFFFFFFFFFFFFFFFFFFFFFFFFFFFFFFFFFFFFFFFFFF
310
FFFFFFFFFFFFFFFFFFFFFFFFFFFFFFFFFFFFFFFFFFFFFFFFFFFFFFFFFFFFFFFF
310
FFFFFFFFFFFFFFFFFFFFFFFFFFFFFFFFFFFFFFFFFFFFFFFFF000FFFFFFFFFFFF
310
FFFFFFFFFFFFFFFFFFFFFFFFFFFFFFFFFFFFFFFFFFFFFFFFFFFFFFFFFFFFFFFF
310
FFFFFFFFFFFFFFFFFFFFFFFFFFFFFFFFFFFFFFFFFFFFFFFFFFFFFFFFFFFFFFFF
310
FFFFFFFFFFFFFFFFFFFFFFFFFFFFFFFFF000FFFFFFFFFFFFFFFFFFFFFFFFFFFF
310
FFFFFFFFFFFFFFFFFFFFFFFFFFFFFFFFFFFFFFFFFFFFFFFFFFFFFFFFFFFFFFFF
310
FFFFFFFFFFFFFFFFFFFFFFFFFFFFFFFFFFFFFFFFFFFFFFFFFFFFFFFFFFFFFFFF
310
FFFFFFFFFFFFFFFFF000FFFFFFFFFFFFFFFFFFFFFFFFFFFFFFFFFFFFFFFFFFFF
310
FFFFFFFFFFFFFFFFFFFFFFFFFFFFFFFFFFFFFFFFFFFFFFFFFFFFFFFFFFFFFFFF
310
FFFFFFFFFFFFFFFFFFFFFFFFFFFFFFFFFFFFFFFFFFFFFFFFFFFFFFFFFFFFFFFF
310
F000FFFFFFFFFFFFFFFFFFFFFFFFFFFFFFFFFFFFFFFFFFFFFFFFFFFFFFFFFFFF
310
FFFFFFFFFFFFFFFFFFFFFFFFFFFFFFFFFFFFFFFFFFFFFFFFFFFFFFFFFFFFFFFF
310
FFFFFFFFFFFFFFFFFFFFFFFFFFFFFFFFFFFFFFFFFFFFFFFFF000FFFFFFFFFFFF
310
FFFFFFFFFFFFFFFFFFFFFFFFFFFFFFFFFFFFFFFFFFFFFFFFFFFFFFFFFFFFFFFF
310
FFFFFFFFFFFFFFFFFFFFFFFFFFFFFFFFFFFFFFFFFFFFFFFFFFFFFFFFFFFFFFFF
310
FFFFFFFFFFFFFFFFFFFFFFFFFFFFFFFFF000FFFFFFFFFFFFFFFFFFFFFFFFFFFF
310
FFFFFFFFFFFFFFFFFFFFFFFFFFFFFFFFFFFFFFFFFFFFFFFFFFFFFFFFFFFFFFFF
310
FFFFFFFFFFFFFFFFFFFFFFFFFFFFFFFFFFFFFFFFFFFFFFFFFFFFFFFFFFFFFFFF
310
FFFFFFFFFFFFFFFFF000FFFFFFFFFFFFFFFFFFFFFFFFFFFFFFFFFFFFFFFFFFFF
310
FFFFFFFFFFFFFFFFFFFFFFFFFFFFFFFFFFFFFFFFFFFFFFFFFFFFFFFFFFFFFFFF
310
FFFFFFFFFFFFFFFFFFFFFFFFFFFFFFFFFFFFFFFFFFFFFFFFFFFFFFFFFFFFFFFF
310
F000FFFFFFFFFFFFFFFFFFFFFFFFFFFFFFFFFFFFFFFFFFFFFFFFFFFFFFFFFFFF
310
FFFFFFFFFFFFFFFFFFFFFFFFFFFFFFFFFFFFFFFFFFFFFFFFFFFFFFFFFFFFFFFF
310
FFFFFFFFFFFFFFFFFFFFFFFFFFFFFFFFFFFFFFFFFFFFFFFFF000FFFFFFFFFFFF
310
FFFFFFFFFFFFFFFFFFFFFFFFFFFFFFFFFFFFFFFFFFFFFFFFFFFFFFFFFFFFFFFF
310
FFFFFFFFFFFFFFFFFFFFFFFFFFFFFFFFFFFFFFFFFFFFFFFFFFFFFFFFFFFFFFFF
310
FFFFFFFFFFFFFFFFFFFFFFFFFFFFFFFFF000FFFFFFFFFFFFFFFFFFFFFFFFFFFF
310
FFFFFFFFFFFFFFFFFFFFFFFFFFFFFFFFFFFFFFFFFFFFFFFFFFFFFFFFFFFFFFFF
310
FFFFFFFFFFFFFFFFFFFFFFFFFFFFFFFFFFFFFFFFFFFFFFFFFFFFFFFFFFFFFFFF
310
FFFFFFFFFFFFFFFFF000FFFFF80003FFFFFFFFFFFFFFFFFFFFFFFFFFFFFFFFFF
310
FFFFF00007FFFFFFFFFF00007FFFFFF800000000000000007FFFFFFFFFFFFFFF
310
FFFFFFFC001FFFFFFFFFFFFFFC001FFFFFFFFFFFFFFFFFFFFFFFFFFE0007FFFF
310
F000FFFF8000007FFFFFFFF8000FFFFFC0007FFFFF80007FFFFF0000007FFFFF
310
FFF8000007FFFFF800000000000000007FFFFFF0001FFFFFFFFFFFC00001FFFF
310
FFFFFFFFC00001FFFFFFFF000000000003FFFFE000007FFFF000FFFE0000000F
310
FFFFFFF0000FFFFF80007FFFFF80007FFFFC0000001FFFFFFFC0000001FFFFF8
310
00000000000000007FFFFFF0001FFFFFFFFFFE0000003FFFFFFFFFFE0000003F
310
FFFFFF000000000003FFFF0000000FFFF000FFF800000003FFFFFFF00007FFFF
310
80007FFFFF80007FFFF000000007FFFFFF000000003FFFF80000000000000000
310
7FFFFFF0001FFFFFFFFFF80000000FFFFFFFFFF80000000FFFFFFF0000000000
310
03FFFC00000003FFF000FFE000000000FFFFFFF00007FFFF80003FFFFF80007F
310
FFC000000001FFFFFC000000001FFFF800000000000000007FFFFFF0001FFFFF
310
FFFFE000000003FFFFFFFFE000000003FFFFFF000000000003FFF000000000FF
310
F000FF80000000007FFFFFF00007FFFF80003FFFFF80007FFF8000000000FFFF
310
F80000000007FFF800000000000000007FFFFFF0001FFFFFFFFFC000000001FF
310
FFFFFFC000000001FFFFFF000000000003FFC0000000007FF000FF0000000000
310
3FFFFFE00007FFFF00003FFFFF80007FFE00000000003FFFF00000000003FFF8
310
00000000000000007FFFFFF0001FFFFFFFFF8000000000FFFFFFFF8000000000
310
FFFFFF000000000003FF80000000003FF000FE00000000001FFFFFE00003FFFF
310
00003FFFFF80007FFC00000000001FFFE00000000001FFF8000001FFFE000000
310
7FFFFFF0001FFFFFFFFE00000000003FFFFFFE00000000003FFFFF0000000000
310
03FF00000000001FF000FC00000000000FFFFFE00003FFFF00001FFFFF80007F
310
F800000000001FFFC00000000000FFF8000001FFFE0000007FFFFFF0001FFFFF
310
FFFC00000000001FFFFFFC00000000001FFFFF000000000003FE00000000000F
310
F000F8000000000007FFFFE00003FFFF00001FFFFF80007FF800000000000FFF
310
800000000000FFF8000001FFFE0000007FFFFFF0001FFFFFFFF800000000000F
310
FFFFF800000000000FFFFF000000000003FC000000000007F000F80000000000
310
03FFFFC00003FFFE00001FFFFF80007FF0000000000007FF0000000000007FF8
310
000001FFFE0000007FFFFFF0001FFFFFFFF0000000000007FFFFF00000000000
310
07FFFF000000000003F8000000000003F000F0000000000003FFFFC00001FFFE
310
00001FFFFF80007FE0000000000007FE0000000000003FF8000001FFFE000000
310
7FFFFFF0001FFFFFFFF0000000000007FFFFF0000000000007FFFF0000000000
310
03F800001F800003F000E00001FFF00001FFFFC00001FFFE00000FFFFF80007F
310
E00001FFE00003FE00001FFF00003FF8000001FFFE0000007FFFFFF0001FFFFF
310
FFE000003E000003FFFFE000003E000003FFFF000000000003F00001FFF80001
310
F000E00007FFFC0001FFFFC00001FFFE00000FFFFF80007FC0000FFFFC0003FC
310
0000FFFFC0001FF8000001FFFE0000007FFFFFF0001FFFFFFFC00003FFE00001
310
FFFFC00003FFE00001FFFF0001FFFFFFFFF00007FFFE0001F000E0000FFFFF00
310
00FFFF800001FFFC00000FFFFF80007FC0001FFFFE0001FC0001FFFFE0001FF8
310
000001FFFE0000007FFFFFF0001FFFFFFF80000FFFF80000FFFF80000FFFF800
310
00FFFF0003FFFFFFFFE0000FFFFF8000F000C0003FFFFF8000FFFF800000FFFC
310
000007FFFF80007F80003FFFFF0001FC0003FFFFF0001FF8000001FFFE000000
310
7FFFFFF0001FFFFFFF80003FFFFE0000FFFF80003FFFFE0000FFFF0003FFFFFF
310
FFE0003FFFFF8000F000C0003FFFFF8000FFFF800000FFFC000007FFFF80007F
310
80007FFFFF8001F80007FFFFF8000FF8000001FFFE0000007FFFFFF0001FFFFF
310
FF00007FFFFF00007FFF00007FFFFF00007FFF0003FFFFFFFFE0003FFFFFC000
310
F000C0007FFFFFC000FFFF000000FFFC000007FFFF80007F8000FFFFFF8000F8
310
000FFFFFF8000FF8000001FFFE0000007FFFFFF0001FFFFFFF0000FFFFFF8000
310
7FFF0000FFFFFF80007FFF0003FFFFFFFFC0007FFFFFC00070008000FFFFFFC0
310
00FFFF000000FFF8000007FFFF80007F8000FFFFFF8000F8000FFFFFF8000FF8
310
000001FFFE0000007FFFFFF0001FFFFFFE0001FFFFFFC0003FFE0001FFFFFFC0
310
003FFF0003FFFFFFFFC0007FFFFFE00070008000FFFFFFC0007FFF0000007FF8
310
000003FFFF80007F0001FFFFFF8000F8000FFFFFF8000FF8000001FFFE000000
310
7FFFFFF0001FFFFFFE0001FFFFFFC0003FFE0001FFFFFFC0003FFF0003FFFFFF
310
FFC000FFFFFFE00070008000FFFFFFC0007FFF0000007FF8000003FFFF80007F
310
0001FFFFFF8000F8001FFFFFF8000FF8000001FFFE0000007FFFFFF0001FFFFF
310
FE0003FFFFFFE0003FFE0003FFFFFFE0003FFF0003FFFFFFFFC000FFFFFFE000
310
70008000FFFFFFC0007FFE0000007FF8000003FFFF80007F0001FFFFFF8000F0
310
001FFFFFF8000FF8000001FFFE0000007FFFFFF0001FFFFFFC0003FFFFFFE000
310
1FFC0003FFFFFFE0001FFF0003FFFFFFFFC000FFFFFFC00070008000FFFFFF80
310
007FFE0000007FF0000003FFFF80007F0001FFFFFF0000F0001FFFFFF8000FF8
310
000001FFFE0000007FFFFFF0001FFFFFFC0007FFFFFFF0001FFC0007FFFFFFF0
310
001FFF0003FFFFFFFFC000FFFFFFC00070008001FFFFFF0000FFFE0000003FF0
310
000001FFFF80007F0001FFFFFF0000F8001FFFFFF0000FF8000001FFFE000000
310
7FFFFFF0001FFFFFFC0007FFFFFFF0001FFC0007FFFFFFF0001FFF0003FFFFFF
310
FFC001FFFFFF80007000FFFFFFFFFE0000FFFE0008003FF0008001FFFF80007F
310
FFFFFFFFFC0000FFFFFFFFFFE0000FF8000001FFFE0000007FFFFFF0001FFFFF
310
F8000FFFFFFFF8000FF8000FFFFFFFF8000FFF0003FFFFFFFFFFFFFFFFFF0000
310
7000FFFFFFFFFC0000FFFC0008003FF0008001FFFF80007FFFFFFFFFF80001FF
310
FFFFFFFF80000FF8000001FFFE0000007FFFFFF0001FFFFFF8000FFFFFFFF800
310
0FF8000FFFFFFFF8000FFF0003FFFFFFFFFFFFFFFFFE0000F000FFFFFFFFE000
310
00FFFC000C003FE000C001FFFF80007FFFFFFFFFC00001FFFFFFFFFE00001FF8
310
000001FFFE0000007FFFFFF0001FFFFFF8000FFFFFFFF8000FF8000FFFFFFFF8
310
000FFF0003FFFFFFFFFFFFFFFFF00000F000FFFFFFFE000001FFFC000C001FE0
310
00C000FFFF80007FFFFFFFFE000001FFFFFFFFE000001FF80FFFFFFFFFFFFFC0
310
7FFFFFF0001FFFFFF8000FFFFFFFF8000FF8000FFFFFFFF8000FFF0003FFFFFF
310
FFFFFFFFFF800000F000FFFFFFC0000001FFFC001C001FE001C000FFFF80007F
310
FFFFFF80000003FFFFFFF80000001FF80FFFFFFFFFFFFFC07FFFFFF0001FFFFF
310
F8001FFFFFFFFC000FF8001FFFFFFFFC000FFF0003FFFFFFFFFFFFFFF0000001
310
F000FFFFF800000001FFF8001C001FE001C000FFFF80007FFFFFF800000003FF
310
FFFF800000003FF80FFFFFFFFFFFFFC07FFFFFF0001FFFFFF8001FFFFFFFFC00
310
0FF8001FFFFFFFFC000FFF0003FFFFFFFFFFFFFE00000001F000FFFFC0000000
310
03FFF8001E001FC001E000FFFF80007FFFFF8000000007FFFFFC000000003FF8
310
0FFFFFFFFFFFFFC07FFFFFF0001FFFFFF8001FFFFFFFFC000FF8001FFFFFFFFC
310
000FFF0003FFFFFFFFFFFFE000000003F000FFFE0000000007FFF8001E000FC0
310
01E0007FFF80007FFFFE0000000007FFFFE0000000007FF80FFFFFFFFFFFFFC0
310
7FFFFFF0001FFFFFF0001FFFFFFFFC0007F0001FFFFFFFFC0007FF0003FFFFFF
310
FFFFFF0000000003F000FFF80000000007FFF8001E000FC003E0007FFF80007F
310
FFF0000000000FFFFF8000000000FFF80FFFFFFFFFFFFFC07FFFFFF0001FFFFF
310
F0001FFFFFFFFC0007F0001FFFFFFFFC0007FF0003FFFFFFFFFFFC0000000007
310
F000FFE0000000000FFFF0003E000FC003E0007FFF80007FFFC0000000001FFF
310
FE0000000001FFF80FFFFFFFFFFFFFC07FFFFFF0001FFFFFF0001FFFFFFFFC00
310
07F0001FFFFFFFFC0007FF0003FFFFFFFFFFF0000000000FF000FFC000000000
310
1FFFF0003F000F8003F0003FFF80007FFF80000000003FFFF80000000003FFF8
310
0FFFFFFFFFFFFFC07FFFFFF0001FFFFFF0001FFFFFFFFC0007F0001FFFFFFFFC
310
0007FF0003FFFFFFFFFFE0000000001FF000FF00000000007FFFF0003F000780
310
03F0003FFF80007FFF00000000007FFFF00000000007FFF80FFFFFFFFFFFFFC0
310
7FFFFFF0001FFFFFF0001FFFFFFFFC0007F0001FFFFFFFFC0007FF0003FFFFFF
310
FFFF80000000007FF000FE0000000000FFFFE0003F00078007F0003FFF80007F
310
FE0000000001FFFFE0000000001FFFF80FFFFFFFFFFFFFC07FFFFFF0001FFFFF
310
F0001FFFFFFFFC0007F0001FFFFFFFFC0007FF0003FFFFFFFFFF0000000000FF
310
F000FC0000000003FFFFE0007F00078007F0003FFF80007FFC0000000007FFFF
310
C0000000007FFFF80FFFFFFFFFFFFFC07FFFFFF0001FFFFFF8001FFFFFFFFC00
310
0FF8001FFFFFFFFC000FFF0003FFFFFFFFFE0000000003FFF000FC000000000F
310
FFFFE0007F80070007F8001FFF80007FF8000000001FFFFF8000000001FFFFF8
310
0FFFFFFFFFFFFFC07FFFFFF0001FFFFFF8001FFFFFFFFC000FF8001FFFFFFFFC
310
000FFF0003FFFFFFFFFC000000000FFFF000F8000000007FFFFFE0007F800700
310
07F8001FFF80007FF000000000FFFFFF800000000FFFFFF80FFFFFFFFFFFFFC0
310
7FFFFFF0001FFFFFF8000FFFFFFFF8000FF8000FFFFFFFF8000FFF0003FFFFFF
310
FFFC000000007FFFF000F800000007FFFFFFC0007F8003000FF8001FFF80007F
310
F000000007FFFFFF000000007FFFFFF80FFFFFFFFFFFFFC07FFFFFF0001FFFFF
310
F8000FFFFFFFF8000FF8000FFFFFFFF8000FFF0003FFFFFFFFF80000000FFFFF
310
F000F0000000FFFFFFFFC000FF8003000FF8001FFF80007FE0000000FFFFFFFF
310
0000000FFFFFFFF8000001FFFE0000007FFFFFF0001FFFFFF8000FFFFFFFF800
310
0FF8000FFFFFFFF8000FFF0003FFFFFFFFF8000000FFFFFFF000F000000FFFFF
310
FFFFC000FFC002000FF8000FFF80007FE000001FFFFFFFFE000001FFFFFFFFF8
310
000001FFFE0000007FFFFFF0001FFFFFF8000FFFFFFFF8000FF8000FFFFFFFF8
310
000FFF0003FFFFFFFFF000001FFFFFFFF000E00000FFFFFFFFFFC000FFC00200
310
0FFC000FFF80007FE00001FFFFFFFFFE00001FFFFFFFFFF8000001FFFE000000
310
7FFFFFF0001FFFFFFC000FFFFFFFF8001FFC000FFFFFFFF8001FFF0003FFFFFF
310
FFF00001FFFFFFFFF000E00007FFFFFFFFFF8000FFC000001FFC000FFF80007F
310
C0000FFFFFFFFFFE0000FFFFFFFFFFF8000001FFFE0000007FFFFFF0001FFFFF
310
FC0007FFFFFFF0001FFC0007FFFFFFF0001FFF0003FFFFFFFFF00007FFFFFFFF
310
F000E0001FFFFFFFFFFF8000FFC000001FFC000FFF80007FC0003FFFFFFFFFFE
310
0001FFFFFFFFFFF8000001FFFE0000007FFFFFF0001FFFFFFC0007FFFFFFF000
310
1FFC0007FFFFFFF0001FFF0003FFFFFFFFF0001FFFFFFFFFF000E0003FFFFF00
310
03FF8001FFE000001FFC0007FF80007FC0007FFFFF0007FC0003FFFFF0003FF8
310
000001FFFE0000007FFFFFF0001FFFFFFC0003FFFFFFE0001FFC0003FFFFFFE0
310
001FFF0003FFFFFFFFF0003FFFFFFFFFF000E0003FFFFF0001FF8001FFE00000
310
1FFE0007FF80007FC0007FFFFE0003FC0007FFFFE0003FF8000001FFFE000000
310
7FFFFFF0001FFFFFFE0003FFFFFFE0003FFE0003FFFFFFE0003FFF0003FFFFFF
310
FFF0003FFFFF8001F000E0003FFFFF0001FF0001FFE000001FFE0007FF80007F
310
C0007FFFFE0003FC0007FFFFE0003FF8000001FFFE0000007FFFFFF0001FFFFF
310
FE0001FFFFFFC0003FFE0001FFFFFFC0003FFF0003FFFFFFFFF0003FFFFF0001
310
F000E0003FFFFF0003FF0001FFE000003FFE0007FF80007FC0007FFFFE0003FC
310
0007FFFFE0003FF8000001FFFE0000007FFFFFF0001FFFFFFF0001FFFFFFC000
310
7FFF0001FFFFFFC0007FFF0003FFFFFFFFF0003FFFFF0001F000E0003FFFFE00
310
03FF0003FFF000003FFE0003FF80007FC0007FFFFC0003FE0007FFFFE0003FF8
310
000001FFFE0000007FFFFFF0001FFFFFFF0000FFFFFF80007FFF0000FFFFFF80
310
007FFF0003FFFFFFFFF0003FFFFF0001F000E0003FFFFE0003FF0003FFF00000
310
3FFF0003FF80007FC0007FFFFC0007FE0007FFFFC0003FF8000001FFFE000000
310
7FFFFFF0001FFFFFFF80007FFFFF0000FFFF80007FFFFF0000FFFF0003FFFFFF
310
FFF0003FFFFF0003F000E0003FFFFC0003FE0003FFF000003FFF0003FF80007F
310
E0003FFFF80007FE0003FFFFC0007FF8000001FFFE0000007FFFFFF0001FFFFF
310
FF80003FFFFE0000FFFF80003FFFFE0000FFFF0003FFFFFFFFF0001FFFFE0003
310
F000F0001FFFF80003FE0003FFF000007FFF0001FF80007FE0003FFFF00007FE
310
0001FFFF80007FF8000001FFFE0000007FFFFFF0001FFFFFFFC0000FFFF80001
310
FFFFC0000FFFF80001FFFF0003FFFFFFFFF0001FFFFC0003F000F0000FFFF000
310
07FE0007FFF800007FFF0001FF80007FE0001FFFE00007FF0000FFFE00007FF8
310
000001FFFE0000007FFFFFF0001FFFFFFFC00003FFE00001FFFFC00003FFE000
310
01FFFF0003FFFFFFFFF8000FFFF80003F000F00003FFC00007FC0007FFF80000
310
7FFF8001FF80007FF00007FF80000FFF00007FF80000FFF8000001FFFE000000
310
7F80000000000001FFE000003E000003FFFFE000003E000003FFFF0003FFFFFF
310
FFF80003FFE00007F000F800000000000FFC0007FFF800007FFF8001FF80007F
310
F000000000000FFF000000000000FFF8000001FFFE0000007F80000000000001
310
FFF0000000000007FFFFF0000000000007FFFF0003FFFFFFFFFC00007E000007
310
F000F800000000000FFC0007FFF80000FFFF8000FF80007FF800000000001FFF
310
800000000001FFF8000001FFFE0000007F80000000000001FFF800000000000F
310
FFFFF800000000000FFFFF0003FFFFFFFFFC00000000000FF000FC0000000000
310
1FFC0007FFFC0000FFFF8000FF80007FF800000000003FFFC00000000001FFF8
310
000001FFFE0000007F80000000000001FFF800000000000FFFFFF80000000000
310
0FFFFF0003FFFFFFFFFE00000000001FF000FE00000000003FF8000FFFFC0000
310
FFFF8000FF80007FFC00000000003FFFC00000000003FFF8000001FFFE000000
310
7F80000000000001FFFC00000000001FFFFFFC00000000001FFFFF0003FFFFFF
310
FFFF00000000001FF000FF00000000003FF8000FFFFC0000FFFFC000FF80007F
310
FE00000000007FFFE00000000007FFF8000001FFFE0000007F80000000000001
310
FFFE00000000003FFFFFFE00000000003FFFFF0003FFFFFFFFFF80000000003F
310
F000FF80000000007FF8000FFFFC0001FFFFC0007F80007FFF0000000000FFFF
310
F0000000000FFFF800000000000000007F80000000000001FFFF8000000000FF
310
FFFFFF8000000000FFFFFF0003FFFFFFFFFFC0000000007FF000FFC000000000
310
FFF8000FFFFE0001FFFFC0007F80007FFF8000000001FFFFF8000000001FFFF8
310
00000000000000007F80000000000001FFFFC000000001FFFFFFFFC000000001
310
FFFFFF0003FFFFFFFFFFE000000000FFF000FFE000000003FFF0001FFFFE0001
310
FFFFC0007F80007FFFC000000007FFFFFE000000003FFFF80000000000000000
310
7F80000000000001FFFFE000000003FFFFFFFFE000000003FFFFFF0003FFFFFF
310
FFFFF000000003FFF000FFF80000000FFFF0001FFFFE0001FFFFE0007F80007F
310
FFF00000000FFFFFFF00000000FFFFF800000000000000007F80000000000001
310
FFFFF80000000FFFFFFFFFF80000000FFFFFFF0003FFFFFFFFFFFC0000000FFF
310
F000FFFE0000003FFFF0001FFFFE0003FFFFE0003F80007FFFFC0000003FFFFF
310
FFC0000003FFFFF800000000000000007F80000000000001FFFFFE0000003FFF
310
FFFFFFFE0000003FFFFFFF0003FFFFFFFFFFFF0000003FFFF000FFFF800000FF
310
FFF0001FFFFF0003FFFFE0003F80007FFFFF000001FFFFFFFFF800001FFFFFF8
310
00000000000000007F80000000000001FFFFFFC00001FFFFFFFFFFFFC00001FF
310
FFFFFF0003FFFFFFFFFFFFC00000FFFFF000FFFFF8000FFFFFFFFFFFFFFFFFFF
310
FFFFFFFFFFFFFFFFFFFFF0001FFFFFFFFFFF0000FFFFFFF80000000000000000
310
7FFFFFFFFFFFFFFFFFFFFFFC001FFFFFFFFFFFFFFC001FFFFFFFFFFFFFFFFFFF
310
FFFFFFFC001FFFFFF000FFFFFFFFFFFFFFFFFFFFFFFFFFFFFFFFFFFFFFFFFFFF
310
FFFFFFFFFFFFFFFFFFFFFFFFFFFFFFFFFFFFFFFFFFFFFFFFFFFFFFFFFFFFFFFF
310
FFFFFFFFFFFFFFFFFFFFFFFFFFFFFFFFFFFFFFFFFFFFFFFFFFFFFFFFFFFFFFFF
310
F000FFFFFFFFFFFFFFFFFFFFFFFFFFFFFFFFFFFFFFFFFFFFFFFFFFFFFFFFFFFF
310
FFFFFFFFFFFFFFFFFFFFFFFFFFFFFFFFFFFFFFFFFFFFFFFFFFFFFFFFFFFFFFFF
310
FFFFFFFFFFFFFFFFFFFFFFFFFFFFFFFFFFFFFFFFFFFFFFFFF000FFFFFFFFFFFF
310
FFFFFFFFFFFFFFFFFFFFFFFFFFFFFFFFFFFFFFFFFFFFFFFFFFFFFFFFFFFFFFFF
310
FFFFFFFFFFFFFFFFFFFFFFFFFFFFFFFFFFFFFFFFFFFFFFFFFFFFFFFFFFFFFFFF
310
FFFFFFFFFFFFFFFFFFFFFFFFFFFFFFFFF000FFFFFFFFFFFFFFFFFFFFFFFFFFFF
310
FFFFFFFFFFFFFFFFFFFFFFFFFFFFFFFFFFFFFFFFFFFFFFFFFFFFFFFFFFFFFFFF
310
FFFFFFFFFFFFFFFFFFFFFFFFFFFFFFFFFFFFFFFFFFFFFFFFFFFFFFFFFFFFFFFF
310
FFFFFFFFFFFFFFFFF000FFFFFFFFFFFFFFFFFFFFFFFFFFFFFFFFFFFFFFFFFFFF
310
FFFFFFFFFFFFFFFFFFFFFFFFFFFFFFFFFFFFFFFFFFFFFFFFFFFFFFFFFFFFFFFF
310
FFFFFFFFFFFFFFFFFFFFFFFFFFFFFFFFFFFFFFFFFFFFFFFFFFFFFFFFFFFFFFFF
310
F000FFFFFFFFFFFFFFFFFFFFFFFFFFFFFFFFFFFFFFFFFFFFFFFFFFFFFFFFFFFF
310
FFFFFFFFFFFFFFFFFFFFFFFFFFFFFFFFFFFFFFFFFFFFFFFFFFFFFFFFFFFFFFFF
310
FFFFFFFFFFFFFFFFFFFFFFFFFFFFFFFFFFFFFFFFFFFFFFFFF000FFFFFFFFFFFF
310
FFFFFFFFFFFFFFFFFFFFFFFFFFFFFFFFFFFFFFFFFFFFFFFFFFFFFFFFFFFFFFFF
310
FFFFFFFFFFFFFFFFFFFFFFFFFFFFFFFFFFFFFFFFFFFFFFFFFFFFFFFFFFFFFFFF
310
FFFFFFFFFFFFFFFFFFFFFFFFFFFFFFFFF000FFFFFFFFFFFFFFFFFFFFFFFFFFFF
310
FFFFFFFFFFFFFFFFFFFFFFFFFFFFFFFFFFFFFFFFFFFFFFFFFFFFFFFFFFFFFFFF
310
FFFFFFFFFFFFFFFFFFFFFFFFFFFFFFFFFFFFFFFFFFFFFFFFFFFFFFFFFFFFFFFF
310
FFFFFFFFFFFFFFFFF000FFFFFFFFFFFFFFFFFFFFFFFFFFFFFFFFFFFFFFFFFFFF
310
FFFFFFFFFFFFFFFFFFFFFFFFFFFFFFFFFFFFFFFFFFFFFFFFFFFFFFFFFFFFFFFF
310
FFFFFFFFFFFFFFFFFFFFFFFFFFFFFFFFFFFFFFFFFFFFFFFFFFFFFFFFFFFFFFFF
310
F000FFFFFFFFFFFFFFFFFFFFFFFFFFFFFFFFFFFFFFFFFFFFFFFFFFFFFFFFFFFF
310
FFFFFFFFFFFFFFFFFFFFFFFFFFFFFFFFFFFFFFFFFFFFFFFFFFFFFFFFFFFFFFFF
310
FFFFFFFFFFFFFFFFFFFFFFFFFFFFFFFFFFFFFFFFFFFFFFFFF000FFFFFFFFFFFF
310
FFFFFFFFFFFFFFFFFFFFFFFFFFFFFFFFFFFFFFFFFFFFFFFFFFFFFFFFFFFFFFFF
310
FFFFFFFFFFFFFFFFFFFFFFFFFFFFFFFFFFFFFFFFFFFFFFFFFFFFFFFFFFFFFFFF
310
FFFFFFFFFFFFFFFFFFFFFFFFFFFFFFFFF000FFFFFFFFFFFFFFFFFFFFFFFFFFFF
310
FFFFFFFFFFFFFFFFFFFFFFFFFFFFFFFFFFFFFFFFFFFFFFFFFFFFFFFFFFFFFFFF
310
FFFFFFFFFFFFFFFFFFFFFFFFFFFFFFFFFFFFFFFFFFFFFFFFFFFFFFFFFFFFFFFF
310
FFFFFFFFFFFFFFFFF000FFFFFFFFFFFFFFFFFFFFFFFFFFFFFFFFFFFFFFFFFFFF
310
FFFFFFFFFFFFFFFFFFFFFFFFFFFFFFFFFFFFFFFFFFFFFFFFFFFFFFFFFFFFFFFF
310
FFFFFFFFFFFFFFFFFFFFFFFFFFFFFFFFFFFFFFFFFFFFFFFFFFFFFFFFFFFFFFFF
310
F000FFFFFFFFFFFFFFFFFFFFFFFFFFFFFFFFFFFFFFFFFFFFFFFFFFFFFFFFFFFF
310
FFFFFFFFFFFFFFFFFFFFFFFFFFFFFFFFFFFFFFFFFFFFFFFFFFFFFFFFFFFFFFFF
310
FFFFFFFFFFFFFFFFFFFFFFFFFFFFFFFFFFFFFFFFFFFFFFFFF000FFFFFFFFFFFF
310
FFFFFFFFFFFFFFFFFFFFFFFFFFFFFFFFFFFFFFFFFFFFFFFFFFFFFFFFFFFFFFFF
310
FFFFFFFFFFFFFFFFFFFFFFFFFFFFFFFFFFFFFFFFFFFFFFFFFFFFFFFFFFFFFFFF
310
FFFFFFFFFFFFFFFFFFFFFFFFFFFFFFFFF000FFFFFFFFFFFFFFFFFFFFFFFFFFFF
310
FFFFFFFFFFFFFFFFFFFFFFFFFFFFFFFFFFFFFFFFFFFFFFFFFFFFFFFFFFFFFFFF
310
FFFFFFFFFFFFFFFFFFFFFFFFFFFFFFFFFFFFFFFFFFFFFFFFFFFFFFFFFFFFFFFF
310
FFFFFFFFFFFFFFFFF000FFFFFFFFFFFFFFFFFFFFFFFFFFFFFFFFFFFFFFFFFFFF
310
FFFFFFFFFFFFFFFFFFFFFFFFFFFFFFFFFFFFFFFFFFFFFFFFFFFFFFFFFFFFFFFF
310
FFFFFFFFFFFFFFFFFFFFFFFFFFFFFFFFFFFFFFFFFFFFFFFFFFFFFFFFFFFFFFFF
310
F000FFFFFFFFFFFFFFFFFFFFFFFFFFFFFFFFFFFFFFFFFFFFFFFFFFFFFFFFFFFF
310
FFFFFFFFFFFFFFFFFFFFFFFFFFFFFFFFFFFFFFFFFFFFFFFFFFFFFFFFFFFFFFFF
310
FFFFFFFFFFFFFFFFFFFFFFFFFFFFFFFFFFFFFFFFFFFFFFFFF000FFFFFFFFFFFF
310
FFFFFFFFFFFFFFFFFFFFFFFFFFFFFFFFFFFFFFFFFFFFFFFFFFFFFFFFFFFFFFFF
310
FFFFFFFFFFFFFFFFFFFFFFFFFFFFFFFFFFFFFFFFFFFFFFFFFFFFFFFFFFFFFFFF
310
FFFFFFFFFFFFFFFFFFFFFFFFFFFFFFFFF000FFFFFFFFFFFFFFFFFFFFFFFFFFFF
310
FFFFFFFFFFFFFFFFFFFFFFFFFFFFFFFFFFFFFFFFFFFFFFFFFFFFFFFFFFFFFFFF
310
FFFFFFFFFFFFFFFFFFFFFFFFFFFFFFFFFFFFFFFFFFFFFFFFFFFFFFFFFFFFFFFF
310
FFFFFFFFFFFFFFFFF000FFFFFFFFFFFFFFFFFFFFFFFFFFFFFFFFFFFFFFFFFFFF
310
FFFFFFFFFFFFFFFFFFFFFFFFFFFFFFFFFFFFFFFFFFFFFFFFFFFFFFFFFFFFFFFF
310
FFFFFFFFFFFFFFFFFFFFFFFFFFFFFFFFFFFFFFFFFFFFFFFFFFFFFFFFFFFFFFFF
310
F000FFFFFFFFFFFFFFFFFFFFFFFFFFFFFFFFFFFFFFFFFFFFFFFFFFFFFFFFFFFF
310
FFFFFFFFFFFFFFFFFFFFFFFFFFFFFFFFFFFFFFFFFFFFFFFFFFFFFFFFFFFFFFFF
310
FFFFFFFFFFFFFFFFFFFFFFFFFFFFFFFFFFFFFFFFFFFFFFFFF000FFFFFFFFFFFF
310
FFFFFFFFFFFFFFFFFFFFFFFFFFFFFFFFFFFFFFFFFFFFFFFFFFFFFFFFFFFFFFFF
310
FFFFFFFFFFFFFFFFFFFFFFFFFFFFFFFFFFFFFFFFFFFFFFFFFFFFFFFFFFFFFFFF
310
FFFFFFFFFFFFFFFFFFFFFFFFFFFFFFFFF0000000000000000000000000000000
310
00000000000000000000000042006C00610063006B0000000000000000000000
310
0000000000000000000000000000000000000000000000000000000000000000
310
0000000000000000000000000000FFFFFFFFFFFFFFFFFFFFFFFFFFFFFFFFFFFF
310
FFFFFFFFFFFFFFFFFFFFFFFFFFFFFFFFFFFFFFFFFFFFFFFFFFFFFFFFFFFFFFFF
310
FFFFFFFFFFFFFFFFFFFFFFFF6476000800000000FFFFFFFF20FF202026000000
310
1E00000008000000060000000000000011000000200000008403000000000000
310
6000000060000000200002FB200020000000002B00FFFFFF40002200E8030000
310
A80400001C020000AF0000804A20004000000000000000000100000000000000
310
616C000800000000E40100007001000002000000270000001100000000000000
310
00000000BC0200000000000003020122420065006C006C00200047006F007400
310
680069006300200053007400640020004C006900670068007400000000000000
310
00000000000000000000000000000000420065006C006C0047006F0074006800
310
690063005300740064002D0042006F006C006400000000000000000000000000
310
0000000000000000000000000000000000000000000000000000000000000000
310
0000000000000000000000000000000000000000000000000000000000000000
  1
OLE
  0
ENDSEC
  0
SECTION
  2
OBJECTS
  0
DICTIONARY
  5
C
330
0
100
AcDbDictionary
281
     1
  3
ACAD_GROUP
350
D
  3
ACAD_LAYOUT
350
1A
  3
ACAD_MLEADERSTYLE
350
2AA
  3
ACAD_MLINESTYLE
350
17
  3
ACAD_PLOTSETTINGS
350
19
  3
ACAD_PLOTSTYLENAME
350
E
  3
ACAD_TABLESTYLE
350
2A9
  3
ACAD_VISUALSTYLE
350
2A
  3
AcDbVariableDictionary
350
2AB
  0
DICTIONARY
  5
D
102
{ACAD_REACTORS
330
C
102
}
330
C
100
AcDbDictionary
281
     1
  0
DICTIONARY
  5
1A
102
{ACAD_REACTORS
330
C
102
}
330
C
100
AcDbDictionary
281
     1
  3
Layout1
350
1E
  3
Layout2
350
26
  3
Model
350
22
  0
DICTIONARY
  5
2AA
102
{ACAD_REACTORS
330
C
102
}
330
C
100
AcDbDictionary
281
     1
  0
DICTIONARY
  5
17
102
{ACAD_REACTORS
330
C
102
}
330
C
100
AcDbDictionary
281
     1
  3
Standard
350
18
  0
DICTIONARY
  5
19
102
{ACAD_REACTORS
330
C
102
}
330
C
100
AcDbDictionary
281
     1
  0
ACDBDICTIONARYWDFLT
  5
E
102
{ACAD_REACTORS
330
C
102
}
330
C
100
AcDbDictionary
281
     1
  3
Normal
350
F
100
AcDbDictionaryWithDefault
340
F
  0
DICTIONARY
  5
2A9
102
{ACAD_REACTORS
330
C
102
}
330
C
100
AcDbDictionary
281
     1
  0
DICTIONARY
  5
2A
102
{ACAD_REACTORS
330
C
102
}
330
C
100
AcDbDictionary
281
     1
  3
2dWireframe
350
2F
  3
3D Hidden
350
31
  3
3dWireframe
350
30
  3
Basic
350
32
  3
Brighten
350
36
  3
ColorChange
350
3A
  3
Conceptual
350
34
  3
Dim
350
35
  3
Facepattern
350
39
  3
Flat
350
2B
  3
FlatWithEdges
350
2C
  3
Gouraud
350
2D
  3
GouraudWithEdges
350
2E
  3
Linepattern
350
38
  3
Realistic
350
33
  3
Thicken
350
37
  0
DICTIONARY
  5
2AB
102
{ACAD_REACTORS
330
C
102
}
330
C
100
AcDbDictionary
281
     1
  3
PSOLHEIGHT
350
2AD
  3
PSOLWIDTH
350
2AC
  0
LAYOUT
  5
1E
102
{ACAD_REACTORS
330
1A
102
}
330
1A
100
AcDbPlotSettings
  1

  2
none_device
  4

  6

 40
0.0
 41
0.0
 42
0.0
 43
0.0
 44
0.0
 45
0.0
 46
0.0
 47
0.0
 48
0.0
 49
0.0
140
0.0
141
0.0
142
1.0
143
1.0
 70
   688
 72
     0
 73
     0
 74
     5
  7

 75
    16
147
1.0
148
0.0
149
0.0
100
AcDbLayout
  1
Layout1
 70
     1
 71
     1
 10
0.0
 20
0.0
 11
420.0
 21
297.0
 12
0.0
 22
0.0
 32
0.0
 14
1.0000000000E+20
 24
1.0000000000E+20
 34
1.0000000000E+20
 15
-1.0000000000E+20
 25
-1.0000000000E+20
 35
-1.0000000000E+20
146
0.0
 13
0.0
 23
0.0
 33
0.0
 16
1.0
 26
0.0
 36
0.0
 17
0.0
 27
1.0
 37
0.0
 76
     0
330
1B
  0
LAYOUT
  5
26
102
{ACAD_REACTORS
330
1A
102
}
330
1A
100
AcDbPlotSettings
  1

  2
none_device
  4

  6

 40
0.0
 41
0.0
 42
0.0
 43
0.0
 44
0.0
 45
0.0
 46
0.0
 47
0.0
 48
0.0
 49
0.0
140
0.0
141
0.0
142
1.0
143
1.0
 70
   688
 72
     0
 73
     0
 74
     5
  7

 75
    16
147
1.0
148
0.0
149
0.0
100
AcDbLayout
  1
Layout2
 70
     1
 71
     2
 10
0.0
 20
0.0
 11
0.0
 21
0.0
 12
0.0
 22
0.0
 32
0.0
 14
0.0
 24
0.0
 34
0.0
 15
0.0
 25
0.0
 35
0.0
146
0.0
 13
0.0
 23
0.0
 33
0.0
 16
1.0
 26
0.0
 36
0.0
 17
0.0
 27
1.0
 37
0.0
 76
     0
330
23
  0
LAYOUT
  5
22
102
{ACAD_REACTORS
330
1A
102
}
330
1A
100
AcDbPlotSettings
  1

  2
none_device
  4

  6

 40
0.0
 41
0.0
 42
0.0
 43
0.0
 44
0.0
 45
0.0
 46
0.0
 47
0.0
 48
0.0
 49
0.0
140
0.0
141
0.0
142
1.0
143
1.0
 70
  1712
 72
     0
 73
     0
 74
     0
  7

 75
     0
147
1.0
148
0.0
149
0.0
100
AcDbLayout
  1
Model
 70
     1
 71
     0
 10
0.0
 20
0.0
 11
297.0
 21
210.0
 12
0.0
 22
0.0
 32
0.0
 14
0.0
 24
0.0
 34
0.0
 15
297.0
 25
210.0
 35
0.0
146
0.0
 13
0.0
 23
0.0
 33
0.0
 16
1.0
 26
0.0
 36
0.0
 17
0.0
 27
1.0
 37
0.0
 76
     0
330
1F
331
29
  0
MLINESTYLE
  5
18
102
{ACAD_REACTORS
330
17
102
}
330
17
100
AcDbMlineStyle
  2
Standard
 70
     0
  3

 62
   256
 51
90.0
 52
90.0
 71
     2
 49
0.5
 62
   256
  6
BYLAYER
 49
-0.5
 62
   256
  6
BYLAYER
  0
ACDBPLACEHOLDER
  5
F
102
{ACAD_REACTORS
330
E
102
}
330
E
  0
VISUALSTYLE
  5
2F
102
{ACAD_REACTORS
330
2A
102
}
330
2A
100
AcDbVisualStyle
  2
2dWireframe
 70
     4
 71
     0
 72
     2
 73
     0
 90
        0
 40
-0.6
 41
-30.0
 62
     5
 63
     7
 74
     1
 91
        4
 64
     7
 65
   257
 75
     1
175
     1
 42
1.0
 92
        0
 66
   257
 43
1.0
 76
     1
 77
     6
 78
     2
 67
     7
 79
     5
170
     0
171
     0
290
     0
174
     0
 93
        1
 44
0.0
173
     0
291
     0
 45
0.0
1001
ACAD
1000
AcDbSavedByObjectVersion
1070
     0
  0
VISUALSTYLE
  5
31
102
{ACAD_REACTORS
330
2A
102
}
330
2A
100
AcDbVisualStyle
  2
3D Hidden
 70
     6
 71
     1
 72
     2
 73
     2
 90
        0
 40
-0.6
 41
-30.0
 62
     5
 63
     7
 74
     2
 91
        2
 64
     7
 65
   257
 75
     2
175
     1
 42
40.0
 92
        0
 66
   257
 43
1.0
 76
     1
 77
     6
 78
     2
 67
     7
 79
     3
170
     0
171
     0
290
     0
174
     0
 93
        1
 44
0.0
173
     0
291
     0
 45
0.0
1001
ACAD
1000
AcDbSavedByObjectVersion
1070
     0
  0
VISUALSTYLE
  5
30
102
{ACAD_REACTORS
330
2A
102
}
330
2A
100
AcDbVisualStyle
  2
3dWireframe
 70
     5
 71
     0
 72
     2
 73
     0
 90
        0
 40
-0.6
 41
-30.0
 62
     5
 63
     7
 74
     1
 91
        4
 64
     7
 65
   257
 75
     1
175
     1
 42
1.0
 92
        0
 66
   257
 43
1.0
 76
     1
 77
     6
 78
     2
 67
     7
 79
     5
170
     0
171
     0
290
     0
174
     0
 93
        1
 44
0.0
173
     0
291
     0
 45
0.0
1001
ACAD
1000
AcDbSavedByObjectVersion
1070
     0
  0
VISUALSTYLE
  5
32
102
{ACAD_REACTORS
330
2A
102
}
330
2A
100
AcDbVisualStyle
  2
Basic
 70
     7
 71
     1
 72
     0
 73
     1
 90
        0
 40
-0.6
 41
-30.0
 62
     5
 63
     7
 74
     0
 91
        4
 64
     7
 65
   257
 75
     1
175
     1
 42
1.0
 92
        8
 66
     7
 43
1.0
 76
     1
 77
     6
 78
     2
 67
     7
 79
     5
170
     0
171
     0
290
     0
174
     0
 93
        1
 44
0.0
173
     0
291
     1
 45
0.0
1001
ACAD
1000
AcDbSavedByObjectVersion
1070
     0
  0
VISUALSTYLE
  5
36
102
{ACAD_REACTORS
330
2A
102
}
330
2A
100
AcDbVisualStyle
  2
Brighten
 70
    12
 71
     2
 72
     2
 73
     0
 90
        0
 40
-0.6
 41
-30.0
 62
     5
 63
     7
 74
     1
 91
        4
 64
     7
 65
   257
 75
     1
175
     1
 42
1.0
 92
        8
 66
     7
 43
1.0
 76
     1
 77
     6
 78
     2
 67
     7
 79
     5
170
     0
171
     0
290
     0
174
     0
 93
        1
 44
50.0
173
     0
291
     1
 45
0.0
1001
ACAD
1000
AcDbSavedByObjectVersion
1070
     0
  0
VISUALSTYLE
  5
3A
102
{ACAD_REACTORS
330
2A
102
}
330
2A
100
AcDbVisualStyle
  2
ColorChange
 70
    16
 71
     2
 72
     2
 73
     3
 90
        0
 40
-0.6
 41
-30.0
 62
     5
 63
     8
 74
     1
 91
        4
 64
     7
 65
   257
 75
     1
175
     1
 42
1.0
 92
        8
 66
     8
 43
1.0
 76
     1
 77
     6
 78
     2
 67
     7
 79
     5
170
     0
171
     0
290
     0
174
     0
 93
        1
 44
0.0
173
     0
291
     1
 45
0.0
1001
ACAD
1000
AcDbSavedByObjectVersion
1070
     0
  0
VISUALSTYLE
  5
34
102
{ACAD_REACTORS
330
2A
102
}
330
2A
100
AcDbVisualStyle
  2
Conceptual
 70
     9
 71
     3
 72
     2
 73
     0
 90
        0
 40
-0.6
 41
-30.0
 62
     5
 63
     7
 74
     2
 91
        2
 64
     7
 65
   257
 75
     1
175
     1
 42
40.0
 92
        8
 66
     7
 43
1.0
 76
     1
 77
     6
 78
     2
 67
     7
 79
     3
170
     0
171
     0
290
     0
174
     0
 93
        1
 44
0.0
173
     0
291
     0
 45
0.0
1001
ACAD
1000
AcDbSavedByObjectVersion
1070
     0
  0
VISUALSTYLE
  5
35
102
{ACAD_REACTORS
330
2A
102
}
330
2A
100
AcDbVisualStyle
  2
Dim
 70
    11
 71
     2
 72
     2
 73
     0
 90
        0
 40
-0.6
 41
-30.0
 62
     5
 63
     7
 74
     1
 91
        4
 64
     7
 65
   257
 75
     1
175
     1
 42
1.0
 92
        8
 66
     7
 43
1.0
 76
     1
 77
     6
 78
     2
 67
     7
 79
     5
170
     0
171
     0
290
     0
174
     0
 93
        1
 44
-50.0
173
     0
291
     1
 45
0.0
1001
ACAD
1000
AcDbSavedByObjectVersion
1070
     0
  0
VISUALSTYLE
  5
39
102
{ACAD_REACTORS
330
2A
102
}
330
2A
100
AcDbVisualStyle
  2
Facepattern
 70
    15
 71
     2
 72
     2
 73
     0
 90
        0
 40
-0.6
 41
-30.0
 62
     5
 63
     7
 74
     1
 91
        4
 64
     7
 65
   257
 75
     1
175
     1
 42
1.0
 92
        8
 66
     7
 43
1.0
 76
     1
 77
     6
 78
     2
 67
     7
 79
     5
170
     0
171
     0
290
     0
174
     0
 93
        1
 44
0.0
173
     0
291
     1
 45
0.0
1001
ACAD
1000
AcDbSavedByObjectVersion
1070
     0
  0
VISUALSTYLE
  5
2B
102
{ACAD_REACTORS
330
2A
102
}
330
2A
100
AcDbVisualStyle
  2
Flat
 70
     0
 71
     2
 72
     1
 73
     1
 90
        2
 40
-0.6
 41
30.0
 62
     5
 63
     7
 74
     0
 91
        4
 64
     7
 65
   257
 75
     1
175
     1
 42
1.0
 92
        8
 66
     7
 43
1.0
 76
     1
 77
     6
 78
     2
 67
     7
 79
     5
170
     0
171
     0
290
     0
174
     0
 93
       13
 44
0.0
173
     0
291
     1
 45
0.0
1001
ACAD
1000
AcDbSavedByObjectVersion
1070
     0
  0
VISUALSTYLE
  5
2C
102
{ACAD_REACTORS
330
2A
102
}
330
2A
100
AcDbVisualStyle
  2
FlatWithEdges
 70
     1
 71
     2
 72
     1
 73
     1
 90
        2
 40
-0.6
 41
30.0
 62
     5
 63
     7
 74
     1
 91
        4
 64
     7
 65
   257
 75
     1
175
     1
 42
1.0
 92
        0
 66
   257
 43
1.0
 76
     1
 77
     6
 78
     2
 67
     7
 79
     5
170
     0
171
     0
290
     0
174
     0
 93
       13
 44
0.0
173
     0
291
     1
 45
0.0
1001
ACAD
1000
AcDbSavedByObjectVersion
1070
     0
  0
VISUALSTYLE
  5
2D
102
{ACAD_REACTORS
330
2A
102
}
330
2A
100
AcDbVisualStyle
  2
Gouraud
 70
     2
 71
     2
 72
     2
 73
     1
 90
        2
 40
-0.6
 41
30.0
 62
     5
 63
     7
 74
     0
 91
        4
 64
     7
 65
   257
 75
     1
175
     1
 42
1.0
 92
        0
 66
     7
 43
1.0
 76
     1
 77
     6
 78
     2
 67
     7
 79
     5
170
     0
171
     0
290
     0
174
     0
 93
       13
 44
0.0
173
     0
291
     1
 45
0.0
1001
ACAD
1000
AcDbSavedByObjectVersion
1070
     0
  0
VISUALSTYLE
  5
2E
102
{ACAD_REACTORS
330
2A
102
}
330
2A
100
AcDbVisualStyle
  2
GouraudWithEdges
 70
     3
 71
     2
 72
     2
 73
     1
 90
        2
 40
-0.6
 41
30.0
 62
     5
 63
     7
 74
     1
 91
        4
 64
     7
 65
   257
 75
     1
175
     1
 42
1.0
 92
        0
 66
   257
 43
1.0
 76
     1
 77
     6
 78
     2
 67
     7
 79
     5
170
     0
171
     0
290
     0
174
     0
 93
       13
 44
0.0
173
     0
291
     1
 45
0.0
1001
ACAD
1000
AcDbSavedByObjectVersion
1070
     0
  0
VISUALSTYLE
  5
38
102
{ACAD_REACTORS
330
2A
102
}
330
2A
100
AcDbVisualStyle
  2
Linepattern
 70
    14
 71
     2
 72
     2
 73
     0
 90
        0
 40
-0.6
 41
-30.0
 62
     5
 63
     7
 74
     1
 91
        4
 64
     7
 65
   257
 75
     7
175
     7
 42
1.0
 92
        8
 66
     7
 43
1.0
 76
     1
 77
     6
 78
     2
 67
     7
 79
     5
170
     0
171
     0
290
     0
174
     0
 93
        1
 44
0.0
173
     0
291
     1
 45
0.0
1001
ACAD
1000
AcDbSavedByObjectVersion
1070
     0
  0
VISUALSTYLE
  5
33
102
{ACAD_REACTORS
330
2A
102
}
330
2A
100
AcDbVisualStyle
  2
Realistic
 70
     8
 71
     2
 72
     2
 73
     0
 90
        0
 40
-0.6
 41
-30.0
 62
     5
 63
     7
 74
     1
 91
        0
 64
     7
 65
   257
 75
     1
175
     1
 42
1.0
 92
        8
 66
     8
 43
1.0
 76
     1
 77
     6
 78
     2
 67
     7
 79
     5
170
     0
171
     0
290
     0
174
     0
 93
       13
 44
0.0
173
     0
291
     0
 45
0.0
1001
ACAD
1000
AcDbSavedByObjectVersion
1070
     0
  0
VISUALSTYLE
  5
37
102
{ACAD_REACTORS
330
2A
102
}
330
2A
100
AcDbVisualStyle
  2
Thicken
 70
    13
 71
     2
 72
     2
 73
     0
 90
        0
 40
-0.6
 41
-30.0
 62
     5
 63
     7
 74
     1
 91
        4
 64
     7
 65
   257
 75
     1
175
     1
 42
1.0
 92
       12
 66
     7
 43
1.0
 76
     1
 77
     6
 78
     2
 67
     7
 79
     5
170
     0
171
     0
290
     0
174
     0
 93
        1
 44
0.0
173
     0
291
     1
 45
0.0
1001
ACAD
1000
AcDbSavedByObjectVersion
1070
     0
  0
DICTIONARYVAR
  5
2AD
102
{ACAD_REACTORS
330
2AB
102
}
330
2AB
100
DictionaryVariables
280
     0
  1
80.000000
  0
DICTIONARYVAR
  5
2AC
102
{ACAD_REACTORS
330
2AB
102
}
330
2AB
100
DictionaryVariables
280
     0
  1
5.000000
  0
ENDSEC
  0
EOF
